  0
SECTION
  2
HEADER
  9
$ACADVER
  1
AC1015
  9
$ACADMAINTVER
 70
    20
  9
$DWGCODEPAGE
  3
ANSI_932
  9
$INSBASE
 10
0.0
 20
0.0
 30
0.0
  9
$EXTMIN
 10
-1546.006701975371
 20
-263.9894431161101
 30
-0.0000000000000221
  9
$EXTMAX
 10
2621.186900780287
 20
1442.975199019276
 30
0.0000000000000085
  9
$LIMMIN
 10
-2121.0
 20
-2485.0
  9
$LIMMAX
 10
2699.0
 20
2014.0
  9
$ORTHOMODE
 70
     1
  9
$REGENMODE
 70
     1
  9
$FILLMODE
 70
     1
  9
$QTEXTMODE
 70
     0
  9
$MIRRTEXT
 70
     1
  9
$LTSCALE
 40
20.0
  9
$ATTMODE
 70
     1
  9
$TEXTSIZE
 40
2.0
  9
$TRACEWID
 40
0.05
  9
$TEXTSTYLE
  7
Standard
  9
$CLAYER
  8
0
  9
$CELTYPE
  6
ByLayer
  9
$CECOLOR
 62
   256
  9
$CELTSCALE
 40
1.0
  9
$DISPSILH
 70
     0
  9
$DIMSCALE
 40
1.0
  9
$DIMASZ
 40
5.0
  9
$DIMEXO
 40
10.0
  9
$DIMDLI
 40
0.5
  9
$DIMRND
 40
0.0
  9
$DIMDLE
 40
0.0
  9
$DIMEXE
 40
1.0
  9
$DIMTP
 40
0.0
  9
$DIMTM
 40
0.0
  9
$DIMTXT
 40
10.0
  9
$DIMCEN
 40
0.09
  9
$DIMTSZ
 40
0.0
  9
$DIMTOL
 70
     0
  9
$DIMLIM
 70
     0
  9
$DIMTIH
 70
     0
  9
$DIMTOH
 70
     0
  9
$DIMSE1
 70
     0
  9
$DIMSE2
 70
     0
  9
$DIMTAD
 70
     3
  9
$DIMZIN
 70
    12
  9
$DIMBLK
  1
Open
  9
$DIMASO
 70
     1
  9
$DIMSHO
 70
     1
  9
$DIMPOST
  1

  9
$DIMAPOST
  1

  9
$DIMALT
 70
     0
  9
$DIMALTD
 70
     2
  9
$DIMALTF
 40
25.4
  9
$DIMLFAC
 40
1.0
  9
$DIMTOFL
 70
     1
  9
$DIMTVP
 40
0.0
  9
$DIMTIX
 70
     1
  9
$DIMSOXD
 70
     1
  9
$DIMSAH
 70
     0
  9
$DIMBLK1
  1

  9
$DIMBLK2
  1

  9
$DIMSTYLE
  2
Standard
  9
$DIMCLRD
 70
     0
  9
$DIMCLRE
 70
     0
  9
$DIMCLRT
 70
     0
  9
$DIMTFAC
 40
1.0
  9
$DIMGAP
 40
3.0
  9
$DIMJUST
 70
     0
  9
$DIMSD1
 70
     0
  9
$DIMSD2
 70
     0
  9
$DIMTOLJ
 70
     1
  9
$DIMTZIN
 70
     0
  9
$DIMALTZ
 70
     0
  9
$DIMALTTZ
 70
     0
  9
$DIMUPT
 70
     0
  9
$DIMDEC
 70
     1
  9
$DIMTDEC
 70
     1
  9
$DIMALTU
 70
     2
  9
$DIMALTTD
 70
     2
  9
$DIMTXSTY
  7
Standard
  9
$DIMAUNIT
 70
     0
  9
$DIMADEC
 70
     0
  9
$DIMALTRND
 40
0.0
  9
$DIMAZIN
 70
     3
  9
$DIMDSEP
 70
    46
  9
$DIMATFIT
 70
     3
  9
$DIMFRAC
 70
     0
  9
$DIMLDRBLK
  1
Open
  9
$DIMLUNIT
 70
     2
  9
$DIMLWD
 70
    -2
  9
$DIMLWE
 70
    -2
  9
$DIMTMOVE
 70
     1
  9
$LUNITS
 70
     2
  9
$LUPREC
 70
     4
  9
$SKETCHINC
 40
0.1
  9
$FILLETRAD
 40
0.0
  9
$AUNITS
 70
     0
  9
$AUPREC
 70
     0
  9
$MENU
  1
.
  9
$ELEVATION
 40
0.0
  9
$PELEVATION
 40
0.0
  9
$THICKNESS
 40
0.0
  9
$LIMCHECK
 70
     0
  9
$CHAMFERA
 40
0.0
  9
$CHAMFERB
 40
0.0
  9
$CHAMFERC
 40
0.0
  9
$CHAMFERD
 40
0.0
  9
$SKPOLY
 70
     0
  9
$TDCREATE
 40
2452286.555658658
  9
$TDUCREATE
 40
2452286.180658658
  9
$TDUPDATE
 40
2456974.366407338
  9
$TDUUPDATE
 40
2456973.991407338
  9
$TDINDWG
 40
2.1510521991
  9
$TDUSRTIMER
 40
2.1510516667
  9
$USRTIMER
 70
     1
  9
$ANGBASE
 50
0.0
  9
$ANGDIR
 70
     0
  9
$PDMODE
 70
     0
  9
$PDSIZE
 40
0.0
  9
$PLINEWID
 40
0.0
  9
$SPLFRAME
 70
     0
  9
$SPLINETYPE
 70
     6
  9
$SPLINESEGS
 70
     8
  9
$HANDSEED
  5
E668
  9
$SURFTAB1
 70
     6
  9
$SURFTAB2
 70
     6
  9
$SURFTYPE
 70
     6
  9
$SURFU
 70
     6
  9
$SURFV
 70
     6
  9
$UCSBASE
  2

  9
$UCSNAME
  2

  9
$UCSORG
 10
0.0
 20
0.0
 30
0.0
  9
$UCSXDIR
 10
1.0
 20
0.0
 30
0.0
  9
$UCSYDIR
 10
0.0
 20
1.0
 30
0.0
  9
$UCSORTHOREF
  2

  9
$UCSORTHOVIEW
 70
     0
  9
$UCSORGTOP
 10
0.0
 20
0.0
 30
0.0
  9
$UCSORGBOTTOM
 10
0.0
 20
0.0
 30
0.0
  9
$UCSORGLEFT
 10
0.0
 20
0.0
 30
0.0
  9
$UCSORGRIGHT
 10
0.0
 20
0.0
 30
0.0
  9
$UCSORGFRONT
 10
0.0
 20
0.0
 30
0.0
  9
$UCSORGBACK
 10
0.0
 20
0.0
 30
0.0
  9
$PUCSBASE
  2

  9
$PUCSNAME
  2

  9
$PUCSORG
 10
0.0
 20
0.0
 30
0.0
  9
$PUCSXDIR
 10
1.0
 20
0.0
 30
0.0
  9
$PUCSYDIR
 10
0.0
 20
1.0
 30
0.0
  9
$PUCSORTHOREF
  2

  9
$PUCSORTHOVIEW
 70
     0
  9
$PUCSORGTOP
 10
0.0
 20
0.0
 30
0.0
  9
$PUCSORGBOTTOM
 10
0.0
 20
0.0
 30
0.0
  9
$PUCSORGLEFT
 10
0.0
 20
0.0
 30
0.0
  9
$PUCSORGRIGHT
 10
0.0
 20
0.0
 30
0.0
  9
$PUCSORGFRONT
 10
0.0
 20
0.0
 30
0.0
  9
$PUCSORGBACK
 10
0.0
 20
0.0
 30
0.0
  9
$USERI1
 70
     0
  9
$USERI2
 70
     0
  9
$USERI3
 70
     0
  9
$USERI4
 70
     0
  9
$USERI5
 70
     0
  9
$USERR1
 40
0.0
  9
$USERR2
 40
0.0
  9
$USERR3
 40
0.0
  9
$USERR4
 40
0.0
  9
$USERR5
 40
0.0
  9
$WORLDVIEW
 70
     1
  9
$SHADEDGE
 70
     3
  9
$SHADEDIF
 70
    70
  9
$TILEMODE
 70
     1
  9
$MAXACTVP
 70
    48
  9
$PINSBASE
 10
0.0
 20
0.0
 30
0.0
  9
$PLIMCHECK
 70
     0
  9
$PEXTMIN
 10
4.273573370203976
 20
5.205246163471457
 30
0.0
  9
$PEXTMAX
 10
194.6100952986349
 20
283.0697008572914
 30
0.0
  9
$PLIMMIN
 10
-5.873748779296875
 20
-5.873749732971191
  9
$PLIMMAX
 10
204.0995788574218
 20
291.1369009017943
  9
$UNITMODE
 70
     0
  9
$VISRETAIN
 70
     1
  9
$PLINEGEN
 70
     0
  9
$PSLTSCALE
 70
     0
  9
$TREEDEPTH
 70
  3020
  9
$CMLSTYLE
  2
Standard
  9
$CMLJUST
 70
     0
  9
$CMLSCALE
 40
1.0
  9
$PROXYGRAPHICS
 70
     1
  9
$MEASUREMENT
 70
     0
  9
$CELWEIGHT
370
    -1
  9
$ENDCAPS
280
     0
  9
$JOINSTYLE
280
     0
  9
$LWDISPLAY
290
     0
  9
$INSUNITS
 70
     0
  9
$HYPERLINKBASE
  1

  9
$STYLESHEET
  1
monochrome.ctb
  9
$XEDIT
290
     1
  9
$CEPSNTYPE
380
     0
  9
$PSTYLEMODE
290
     1
  9
$FINGERPRINTGUID
  2

  9
$VERSIONGUID
  2
{84F80474-7971-4E80-A536-E3BE1602951F}
  9
$EXTNAMES
290
     1
  9
$PSVPSCALE
 40
0.0
  9
$OLESTARTUP
290
     0
  0
ENDSEC
  0
SECTION
  2
CLASSES
  0
CLASS
  1
ACDBDICTIONARYWDFLT
  2
AcDbDictionaryWithDefault
  3
ObjectDBX Classes
 90
        0
280
     0
281
     0
  0
CLASS
  1
ACDBPLACEHOLDER
  2
AcDbPlaceHolder
  3
ObjectDBX Classes
 90
        0
280
     0
281
     0
  0
CLASS
  1
LAYOUT
  2
AcDbLayout
  3
ObjectDBX Classes
 90
        0
280
     0
281
     0
  0
CLASS
  1
DICTIONARYVAR
  2
AcDbDictionaryVar
  3
ObjectDBX Classes
 90
        0
280
     0
281
     0
  0
CLASS
  1
MATERIAL
  2
AcDbMaterial
  3
ObjectDBX Classes
 90
     1153
280
     0
281
     0
  0
CLASS
  1
VISUALSTYLE
  2
AcDbVisualStyle
  3
ObjectDBX Classes
 90
     4095
280
     0
281
     0
  0
CLASS
  1
TABLESTYLE
  2
AcDbTableStyle
  3
ObjectDBX Classes
 90
     4095
280
     0
281
     0
  0
CLASS
  1
SCALE
  2
AcDbScale
  3
ObjectDBX Classes
 90
     1153
280
     0
281
     0
  0
CLASS
  1
MLEADERSTYLE
  2
AcDbMLeaderStyle
  3
ACDB_MLEADERSTYLE_CLASS
 90
     4095
280
     0
281
     0
  0
CLASS
  1
CELLSTYLEMAP
  2
AcDbCellStyleMap
  3
ObjectDBX Classes
 90
     1152
280
     0
281
     0
  0
ENDSEC
  0
SECTION
  2
TABLES
  0
TABLE
  2
VPORT
  5
8
330
0
100
AcDbSymbolTable
 70
     1
  0
VPORT
  5
E583
330
8
100
AcDbSymbolTableRecord
100
AcDbViewportTableRecord
  2
*Active
 70
     0
 10
0.0
 20
0.0
 11
1.0
 21
1.0
 12
537.5900994024575
 22
589.492877951583
 13
0.0
 23
0.0
 14
10.0
 24
10.0
 15
50.0
 25
50.0
 16
0.0
 26
0.0
 36
1.0
 17
0.0
 27
0.0
 37
0.0
 40
2259.572508718489
 41
1.851449275362318
 42
50.0
 43
0.0
 44
0.0
 50
0.0
 51
0.0
 71
     0
 72
   100
 73
     1
 74
     1
 75
     0
 76
     1
 77
     0
 78
     0
281
     0
 65
     1
110
0.0
120
0.0
130
0.0
111
1.0
121
0.0
131
0.0
112
0.0
122
1.0
132
0.0
 79
     0
146
0.0
  0
ENDTAB
  0
TABLE
  2
LTYPE
  5
5
330
0
100
AcDbSymbolTable
 70
     4
  0
LTYPE
  5
13
330
5
100
AcDbSymbolTableRecord
100
AcDbLinetypeTableRecord
  2
ByBlock
 70
     0
  3

 72
    65
 73
     0
 40
0.0
  0
LTYPE
  5
14
330
5
100
AcDbSymbolTableRecord
100
AcDbLinetypeTableRecord
  2
ByLayer
 70
     0
  3

 72
    65
 73
     0
 40
0.0
  0
LTYPE
  5
15
330
5
100
AcDbSymbolTableRecord
100
AcDbLinetypeTableRecord
  2
Continuous
 70
     0
  3
Solid line
 72
    65
 73
     0
 40
0.0
  0
LTYPE
  5
22
330
5
100
AcDbSymbolTableRecord
100
AcDbLinetypeTableRecord
  2
CONTINOUS
 70
     0
  3
Solid line
 72
    65
 73
     0
 40
0.0
  0
LTYPE
  5
24
330
5
100
AcDbSymbolTableRecord
100
AcDbLinetypeTableRecord
  2
DASHDOT
 70
     0
  3
__ . __ . __ . __ . __ . __ . __ . __ . __ . __
 72
    65
 73
     4
 40
1.0
 49
0.5
 74
     0
 49
-0.25
 74
     0
 49
0.0
 74
     0
 49
-0.25
 74
     0
  0
LTYPE
  5
33CB
330
5
100
AcDbSymbolTableRecord
100
AcDbLinetypeTableRecord
  2
DIVIDE
 70
     0
  3
Divide ____ . . ____ . . ____ . . ____ . . ____
 72
    65
 73
     6
 40
1.25
 49
0.5
 74
     0
 49
-0.25
 74
     0
 49
0.0
 74
     0
 49
-0.25
 74
     0
 49
0.0
 74
     0
 49
-0.25
 74
     0
  0
ENDTAB
  0
TABLE
  2
LAYER
  5
2
102
{ACAD_XDICTIONARY
360
E607
102
}
330
0
100
AcDbSymbolTable
 70
    13
  0
LAYER
  5
10
102
{ACAD_XDICTIONARY
360
E618
102
}
330
2
100
AcDbSymbolTableRecord
100
AcDbLayerTableRecord
  2
0
 70
     0
 62
     6
  6
DASHDOT
370
    -3
390
F
  0
LAYER
  5
2F
102
{ACAD_XDICTIONARY
360
E61A
102
}
330
2
100
AcDbSymbolTableRecord
100
AcDbLayerTableRecord
  2
10
 70
     0
 62
     4
  6
CONTINOUS
370
    -3
390
F
  0
LAYER
  5
31
102
{ACAD_XDICTIONARY
360
E61C
102
}
330
2
100
AcDbSymbolTableRecord
100
AcDbLayerTableRecord
  2
12
 70
     0
 62
     3
  6
CONTINOUS
370
    -3
390
F
  0
LAYER
  5
35
102
{ACAD_XDICTIONARY
360
E61E
102
}
330
2
100
AcDbSymbolTableRecord
100
AcDbLayerTableRecord
  2
16
 70
     0
 62
     6
  6
DASHDOT
370
    -3
390
F
  0
LAYER
  5
38
102
{ACAD_XDICTIONARY
360
E620
102
}
330
2
100
AcDbSymbolTableRecord
100
AcDbLayerTableRecord
  2
19
 70
     0
 62
     7
  6
CONTINOUS
370
    -3
390
F
  0
LAYER
  5
3C
102
{ACAD_XDICTIONARY
360
E622
102
}
330
2
100
AcDbSymbolTableRecord
100
AcDbLayerTableRecord
  2
11
 70
     0
 62
     1
  6
CONTINOUS
370
    -3
390
F
  0
LAYER
  5
3A2
102
{ACAD_XDICTIONARY
360
E624
102
}
330
2
100
AcDbSymbolTableRecord
100
AcDbLayerTableRecord
  2
30
 70
     0
 62
     9
  6
Continuous
370
    -3
390
F
  0
LAYER
  5
3A4
330
2
100
AcDbSymbolTableRecord
100
AcDbLayerTableRecord
  2
Defpoints
 70
     0
 62
     2
  6
DASHDOT
290
     0
370
    -3
390
F
  0
LAYER
  5
33C8
102
{ACAD_XDICTIONARY
360
E626
102
}
330
2
100
AcDbSymbolTableRecord
100
AcDbLayerTableRecord
  2
18
 70
     0
 62
     5
  6
DIVIDE
370
    -3
390
F
  0
LAYER
  5
39DB
102
{ACAD_XDICTIONARY
360
E628
102
}
330
2
100
AcDbSymbolTableRecord
100
AcDbLayerTableRecord
  2
27
 70
     0
 62
     2
  6
Continuous
370
    -3
390
F
  0
LAYER
  5
D13D
102
{ACAD_XDICTIONARY
360
E62A
102
}
330
2
100
AcDbSymbolTableRecord
100
AcDbLayerTableRecord
  2
17
 70
     0
 62
     2
  6
DASHDOT
370
    -3
390
F
  0
LAYER
  5
DA2A
102
{ACAD_XDICTIONARY
360
E62C
102
}
330
2
100
AcDbSymbolTableRecord
100
AcDbLayerTableRecord
  2
240
 70
     0
 62
     7
  6
Continuous
370
    -3
390
F
  0
LAYER
  5
DFAE
102
{ACAD_XDICTIONARY
360
E62E
102
}
330
2
100
AcDbSymbolTableRecord
100
AcDbLayerTableRecord
  2
34
 70
     0
 62
     2
  6
DIVIDE
370
    -3
390
F
  0
ENDTAB
  0
TABLE
  2
STYLE
  5
3
330
0
100
AcDbSymbolTable
 70
     3
  0
STYLE
  5
11
330
3
100
AcDbSymbolTableRecord
100
AcDbTextStyleTableRecord
  2
Standard
 70
     0
 40
0.0
 41
1.0
 50
0.0
 71
     0
 42
2.0
  3
simplex.shx
  4
bigfont.shx
  0
STYLE
  5
941E
330
3
100
AcDbSymbolTableRecord
100
AcDbTextStyleTableRecord
  2
SLDTEXTSTYLE1
 70
     0
 40
0.0
 41
0.75
 50
0.0
 71
     0
 42
0.0
  3
txt
  4

  0
ENDTAB
  0
TABLE
  2
VIEW
  5
6
330
0
100
AcDbSymbolTable
 70
     4
  0
VIEW
  5
3817
330
6
100
AcDbSymbolTableRecord
100
AcDbViewTableRecord
  2
OLE1
 70
     0
 40
440.4976618414746
 10
298.4341836359813
 20
-51.57564428994924
 41
312.0191771377112
 11
0.0
 21
0.0
 31
1.0
 12
0.0
 22
0.0
 32
0.0
 42
50.0
 43
0.0
 44
0.0
 50
0.0
 71
     0
281
     0
 72
     0
  0
VIEW
  5
3819
330
6
100
AcDbSymbolTableRecord
100
AcDbViewTableRecord
  2
OLE2
 70
     0
 40
1141.80233015935
 10
166.182610057254
 20
-77.11925276944589
 41
611.5415870006012
 11
0.0
 21
0.0
 31
1.0
 12
0.0
 22
0.0
 32
0.0
 42
50.0
 43
0.0
 44
0.0
 50
0.0
 71
     0
281
     0
 72
     0
  0
ENDTAB
  0
TABLE
  2
UCS
  5
7
330
0
100
AcDbSymbolTable
 70
     0
  0
ENDTAB
  0
TABLE
  2
APPID
  5
9
330
0
100
AcDbSymbolTable
 70
     3
  0
APPID
  5
12
330
9
100
AcDbSymbolTableRecord
100
AcDbRegAppTableRecord
  2
ACAD
 70
     0
  0
APPID
  5
ECD
330
9
100
AcDbSymbolTableRecord
100
AcDbRegAppTableRecord
  2
CONTENTBLOCKICON
 70
     0
  0
APPID
  5
E667
330
9
100
AcDbSymbolTableRecord
100
AcDbRegAppTableRecord
  2
ACAD_MLEADERVER
 70
     0
  0
ENDTAB
  0
TABLE
  2
DIMSTYLE
  5
A
330
0
100
AcDbSymbolTable
 70
     2
100
AcDbDimStyleTable
 71
     2
340
175
340
C6FC
  0
DIMSTYLE
105
175
102
{ACAD_REACTORS
330
BD0C
330
BD0F
330
CC05
330
D150
330
D183
330
CC06
330
CB4F
330
CB0D
330
CAEE
330
CAEC
330
CAEF
330
D2E0
330
D2E1
330
D2E5
330
D2E6
330
D2E7
330
D2E8
330
D2EA
330
CBA9
330
CB72
330
CB90
330
CB71
330
CB70
330
CBD5
330
CBD6
330
CBA2
330
CBE1
330
CBA3
330
CBA1
330
CBE3
330
CBE4
330
CBE7
330
CBD2
330
CBE2
330
CB73
330
CB6F
330
CBD1
330
CBD3
330
CBCB
330
CBC8
330
CBCC
330
D62E
330
D62F
330
D62B
330
D62D
330
D62C
330
CB74
330
CBB0
330
CBA8
330
B6CB
330
CB78
330
CB79
330
CB8D
330
D1C6
330
D954
102
}
330
A
100
AcDbSymbolTableRecord
100
AcDbDimStyleTableRecord
  2
Standard
 70
     0
 41
5.0
 42
10.0
 43
0.5
 44
1.0
 73
     0
 74
     0
 77
     3
 78
    12
 79
     3
140
10.0
147
3.0
172
     1
174
     1
175
     1
271
     1
272
     1
279
     1
340
11
341
3B2
342
3B2
  0
DIMSTYLE
105
C6FC
102
{ACAD_REACTORS
330
E2AC
330
E2AD
330
E2B1
330
E2B2
330
CBAA
330
D700
330
D960
330
E2B9
330
E2A3
102
}
330
A
100
AcDbSymbolTableRecord
100
AcDbDimStyleTableRecord
  2
Standard1
 70
     0
 41
5.0
 42
10.0
 43
0.5
 44
1.0
 73
     0
 74
     0
 77
     3
 78
    12
 79
     3
140
10.0
147
3.0
172
     1
174
     1
175
     1
271
     1
272
     1
279
     1
340
11
341
3B2
342
3B2
  0
ENDTAB
  0
TABLE
  2
BLOCK_RECORD
  5
1
330
0
100
AcDbSymbolTable
 70
    64
  0
BLOCK_RECORD
  5
1E
102
{ACAD_XDICTIONARY
360
178
102
}
330
1
100
AcDbSymbolTableRecord
100
AcDbBlockTableRecord
  2
*Model_Space
340
21
  0
BLOCK_RECORD
  5
1A
102
{ACAD_XDICTIONARY
360
17A
102
}
330
1
100
AcDbSymbolTableRecord
100
AcDbBlockTableRecord
  2
*Paper_Space
340
1D
  0
BLOCK_RECORD
  5
3B2
330
1
100
AcDbSymbolTableRecord
100
AcDbBlockTableRecord
  2
_Open
340
0
102
{BLKREFS
331
E3A3
331
E3A4
331
E3AC
331
E3AD
331
E3B5
331
E3B6
331
E3BE
331
E3BF
331
E3C7
331
E3C8
331
E3D0
331
E3D1
331
E3DA
331
E3DB
331
E3E4
331
E3E5
331
E3ED
331
E3EE
331
E3FF
331
E400
331
E408
331
E409
331
E411
331
E412
331
E41A
331
E41B
331
E423
331
E424
331
E42C
331
E42D
331
E435
331
E436
331
E43E
331
E43F
331
E447
331
E448
331
E451
331
E452
331
E45A
331
E45B
331
E463
331
E464
331
E46B
331
E46C
331
E474
331
E475
331
E47D
331
E47E
331
E486
331
E487
331
E48F
331
E490
331
E498
331
E499
331
E4A1
331
E4A2
331
E4AA
331
E4AB
331
E4B3
331
E4B4
331
E4BC
331
E4BD
331
E4C5
331
E4C6
331
E4CE
331
E4CF
331
E4D7
331
E4D8
331
E4E1
331
E4E2
331
E4EB
331
E4EC
331
E4F4
331
E4F5
331
E4FD
331
E4FE
331
E506
331
E507
331
E50F
331
E510
331
E518
331
E519
331
E521
331
E522
331
E52A
331
E52B
331
E533
331
E534
331
E53D
331
E53E
331
E546
331
E547
331
E54F
331
E550
331
E558
331
E559
331
E562
331
E563
331
E56B
331
E56C
331
E574
331
E575
331
E57E
331
E57F
102
}
  0
BLOCK_RECORD
  5
BD2A
330
1
100
AcDbSymbolTableRecord
100
AcDbBlockTableRecord
  2
*D5
340
0
  0
BLOCK_RECORD
  5
BD36
330
1
100
AcDbSymbolTableRecord
100
AcDbBlockTableRecord
  2
*D6
340
0
  0
BLOCK_RECORD
  5
CC0F
330
1
100
AcDbSymbolTableRecord
100
AcDbBlockTableRecord
  2
*D7
340
0
  0
BLOCK_RECORD
  5
CC27
330
1
100
AcDbSymbolTableRecord
100
AcDbBlockTableRecord
  2
*D8
340
0
  0
BLOCK_RECORD
  5
CC33
330
1
100
AcDbSymbolTableRecord
100
AcDbBlockTableRecord
  2
*D9
340
0
  0
BLOCK_RECORD
  5
CC7C
330
1
100
AcDbSymbolTableRecord
100
AcDbBlockTableRecord
  2
*D10
340
0
  0
BLOCK_RECORD
  5
CC94
330
1
100
AcDbSymbolTableRecord
100
AcDbBlockTableRecord
  2
*D11
340
0
  0
BLOCK_RECORD
  5
CCA0
330
1
100
AcDbSymbolTableRecord
100
AcDbBlockTableRecord
  2
*D12
340
0
  0
BLOCK_RECORD
  5
CCAC
330
1
100
AcDbSymbolTableRecord
100
AcDbBlockTableRecord
  2
*D13
340
0
  0
BLOCK_RECORD
  5
CCB8
330
1
100
AcDbSymbolTableRecord
100
AcDbBlockTableRecord
  2
*D14
340
0
  0
BLOCK_RECORD
  5
CCC5
330
1
100
AcDbSymbolTableRecord
100
AcDbBlockTableRecord
  2
*D15
340
0
  0
BLOCK_RECORD
  5
CCD2
330
1
100
AcDbSymbolTableRecord
100
AcDbBlockTableRecord
  2
*D16
340
0
  0
BLOCK_RECORD
  5
CCDF
330
1
100
AcDbSymbolTableRecord
100
AcDbBlockTableRecord
  2
*D17
340
0
  0
BLOCK_RECORD
  5
CD28
330
1
100
AcDbSymbolTableRecord
100
AcDbBlockTableRecord
  2
*D18
340
0
  0
BLOCK_RECORD
  5
CD34
330
1
100
AcDbSymbolTableRecord
100
AcDbBlockTableRecord
  2
*D19
340
0
  0
BLOCK_RECORD
  5
CD40
330
1
100
AcDbSymbolTableRecord
100
AcDbBlockTableRecord
  2
*D20
340
0
  0
BLOCK_RECORD
  5
CD4C
330
1
100
AcDbSymbolTableRecord
100
AcDbBlockTableRecord
  2
*D21
340
0
  0
BLOCK_RECORD
  5
CD58
330
1
100
AcDbSymbolTableRecord
100
AcDbBlockTableRecord
  2
*D22
340
0
  0
BLOCK_RECORD
  5
CD65
330
1
100
AcDbSymbolTableRecord
100
AcDbBlockTableRecord
  2
*D23
340
0
  0
BLOCK_RECORD
  5
CD95
330
1
100
AcDbSymbolTableRecord
100
AcDbBlockTableRecord
  2
*D24
340
0
  0
BLOCK_RECORD
  5
CDA1
330
1
100
AcDbSymbolTableRecord
100
AcDbBlockTableRecord
  2
*D25
340
0
  0
BLOCK_RECORD
  5
CDB8
330
1
100
AcDbSymbolTableRecord
100
AcDbBlockTableRecord
  2
*D26
340
0
  0
BLOCK_RECORD
  5
CDC4
330
1
100
AcDbSymbolTableRecord
100
AcDbBlockTableRecord
  2
*D27
340
0
  0
BLOCK_RECORD
  5
CDD0
330
1
100
AcDbSymbolTableRecord
100
AcDbBlockTableRecord
  2
*D28
340
0
  0
BLOCK_RECORD
  5
CDDD
330
1
100
AcDbSymbolTableRecord
100
AcDbBlockTableRecord
  2
*D29
340
0
  0
BLOCK_RECORD
  5
CDE9
330
1
100
AcDbSymbolTableRecord
100
AcDbBlockTableRecord
  2
*D30
340
0
  0
BLOCK_RECORD
  5
CE01
330
1
100
AcDbSymbolTableRecord
100
AcDbBlockTableRecord
  2
*D31
340
0
  0
BLOCK_RECORD
  5
CE0D
330
1
100
AcDbSymbolTableRecord
100
AcDbBlockTableRecord
  2
*D32
340
0
  0
BLOCK_RECORD
  5
CE46
330
1
100
AcDbSymbolTableRecord
100
AcDbBlockTableRecord
  2
*D33
340
0
  0
BLOCK_RECORD
  5
CE52
330
1
100
AcDbSymbolTableRecord
100
AcDbBlockTableRecord
  2
*D34
340
0
  0
BLOCK_RECORD
  5
CE5D
330
1
100
AcDbSymbolTableRecord
100
AcDbBlockTableRecord
  2
*D35
340
0
  0
BLOCK_RECORD
  5
CE68
330
1
100
AcDbSymbolTableRecord
100
AcDbBlockTableRecord
  2
*D36
340
0
  0
BLOCK_RECORD
  5
CE73
330
1
100
AcDbSymbolTableRecord
100
AcDbBlockTableRecord
  2
*D37
340
0
  0
BLOCK_RECORD
  5
CEA4
330
1
100
AcDbSymbolTableRecord
100
AcDbBlockTableRecord
  2
*D38
340
0
  0
BLOCK_RECORD
  5
CEB0
330
1
100
AcDbSymbolTableRecord
100
AcDbBlockTableRecord
  2
*D39
340
0
  0
BLOCK_RECORD
  5
D151
330
1
100
AcDbSymbolTableRecord
100
AcDbBlockTableRecord
  2
*D40
340
0
  0
BLOCK_RECORD
  5
D184
330
1
100
AcDbSymbolTableRecord
100
AcDbBlockTableRecord
  2
*D41
340
0
  0
BLOCK_RECORD
  5
D2EC
330
1
100
AcDbSymbolTableRecord
100
AcDbBlockTableRecord
  2
*D42
340
0
  0
BLOCK_RECORD
  5
D2F8
330
1
100
AcDbSymbolTableRecord
100
AcDbBlockTableRecord
  2
*D43
340
0
  0
BLOCK_RECORD
  5
D304
330
1
100
AcDbSymbolTableRecord
100
AcDbBlockTableRecord
  2
*D44
340
0
  0
BLOCK_RECORD
  5
D310
330
1
100
AcDbSymbolTableRecord
100
AcDbBlockTableRecord
  2
*D45
340
0
  0
BLOCK_RECORD
  5
D31C
330
1
100
AcDbSymbolTableRecord
100
AcDbBlockTableRecord
  2
*D46
340
0
  0
BLOCK_RECORD
  5
D329
330
1
100
AcDbSymbolTableRecord
100
AcDbBlockTableRecord
  2
*D47
340
0
  0
BLOCK_RECORD
  5
D335
330
1
100
AcDbSymbolTableRecord
100
AcDbBlockTableRecord
  2
*D48
340
0
  0
BLOCK_RECORD
  5
D630
330
1
100
AcDbSymbolTableRecord
100
AcDbBlockTableRecord
  2
*D49
340
0
  0
BLOCK_RECORD
  5
D63D
330
1
100
AcDbSymbolTableRecord
100
AcDbBlockTableRecord
  2
*D50
340
0
  0
BLOCK_RECORD
  5
D649
330
1
100
AcDbSymbolTableRecord
100
AcDbBlockTableRecord
  2
*D51
340
0
  0
BLOCK_RECORD
  5
D655
330
1
100
AcDbSymbolTableRecord
100
AcDbBlockTableRecord
  2
*D52
340
0
  0
BLOCK_RECORD
  5
D661
330
1
100
AcDbSymbolTableRecord
100
AcDbBlockTableRecord
  2
*D53
340
0
  0
BLOCK_RECORD
  5
E2BE
330
1
100
AcDbSymbolTableRecord
100
AcDbBlockTableRecord
  2
*D60
340
0
  0
BLOCK_RECORD
  5
E2CA
330
1
100
AcDbSymbolTableRecord
100
AcDbBlockTableRecord
  2
*D61
340
0
  0
BLOCK_RECORD
  5
E2D6
330
1
100
AcDbSymbolTableRecord
100
AcDbBlockTableRecord
  2
*D62
340
0
  0
BLOCK_RECORD
  5
E2E2
330
1
100
AcDbSymbolTableRecord
100
AcDbBlockTableRecord
  2
*D63
340
0
  0
ENDTAB
  0
ENDSEC
  0
SECTION
  2
BLOCKS
  0
BLOCK
  5
1F
330
1E
100
AcDbEntity
  8
0
100
AcDbBlockBegin
  2
*Model_Space
 70
     0
 10
0.0
 20
0.0
 30
0.0
  3
*Model_Space
  1

  0
ENDBLK
  5
20
330
1E
100
AcDbEntity
  8
0
100
AcDbBlockEnd
  0
BLOCK
  5
1B
330
1A
100
AcDbEntity
 67
     1
  8
0
100
AcDbBlockBegin
  2
*Paper_Space
 70
     0
 10
0.0
 20
0.0
 30
0.0
  3
*Paper_Space
  1

  0
ENDBLK
  5
1C
330
1A
100
AcDbEntity
 67
     1
  8
0
100
AcDbBlockEnd
  0
BLOCK
  5
3B6
330
3B2
100
AcDbEntity
  8
0
100
AcDbBlockBegin
  2
_Open
 70
     0
 10
0.0
 20
0.0
 30
0.0
  3
_Open
  1

  0
LINE
  5
3B3
330
3B2
100
AcDbEntity
  8
30
  6
Continuous
 62
     0
370
    -2
100
AcDbLine
 10
-1.0
 20
0.1666666666666666
 30
0.0
 11
0.0
 21
0.0
 31
0.0
  0
LINE
  5
3B4
330
3B2
100
AcDbEntity
  8
30
  6
Continuous
 62
     0
370
    -2
100
AcDbLine
 10
-1.0
 20
-0.1666666666666666
 30
0.0
 11
0.0
 21
0.0
 31
0.0
  0
LINE
  5
3B5
330
3B2
100
AcDbEntity
  8
30
  6
Continuous
 62
     0
370
    -2
100
AcDbLine
 10
0.0
 20
0.0
 30
0.0
 11
-1.0
 21
0.0
 31
0.0
  0
ENDBLK
  5
3B7
330
3B2
100
AcDbEntity
  8
0
100
AcDbBlockEnd
  0
BLOCK
  5
BD34
330
BD2A
100
AcDbEntity
  8
0
100
AcDbBlockBegin
  2
*D5
 70
     1
 10
0.0
 20
0.0
 30
0.0
  3
*D5
  1

  0
LINE
  5
E3C4
330
BD2A
100
AcDbEntity
  8
30
 62
     0
370
    -2
100
AcDbLine
 10
-0.0001008250008147
 20
973.0
 30
0.0
 11
-0.000100825000816
 21
952.0091017753019
 31
0.0
  0
LINE
  5
E3C5
330
BD2A
100
AcDbEntity
  8
30
 62
     0
370
    -2
100
AcDbLine
 10
118.999899174999
 20
973.0
 30
0.0
 11
118.999899174999
 21
952.0091017753019
 31
0.0
  0
LINE
  5
E3C6
330
BD2A
100
AcDbEntity
  8
30
 62
     0
370
    -2
100
AcDbLine
 10
4.999899174999183
 20
953.0091017753019
 30
0.0
 11
113.9998991749989
 21
953.0091017753019
 31
0.0
  0
INSERT
  5
E3C7
330
BD2A
100
AcDbEntity
  8
30
 62
     0
370
    -2
100
AcDbBlockReference
  2
_Open
 10
-0.0001008250008159
 20
953.0091017753019
 30
0.0
 41
5.0
 42
5.0
 43
5.0
 50
180.0
  0
INSERT
  5
E3C8
330
BD2A
100
AcDbEntity
  8
30
 62
     0
370
    -2
100
AcDbBlockReference
  2
_Open
 10
118.999899174999
 20
953.0091017753019
 30
0.0
 41
5.0
 42
5.0
 43
5.0
  0
MTEXT
  5
E3C9
330
BD2A
100
AcDbEntity
  8
30
 62
     0
100
AcDbMText
 10
59.49989917499909
 20
961.0091017753019
 30
0.0
 40
10.0
 41
0.0
 71
     5
 72
     1
  1
\A1;119
 73
     1
 44
1.0
1001
ACAD
1000
MTEXTBEGIN
1070
    73
1070
     1
1070
    44
1040
1.0
1070
    74
1070
     0
1000
MTEXTEND
  0
POINT
  5
E3CA
330
BD2A
100
AcDbEntity
  8
Defpoints
 62
     0
100
AcDbPoint
 10
-0.0001008250008141
 20
983.0
 30
0.0
  0
POINT
  5
E3CB
330
BD2A
100
AcDbEntity
  8
Defpoints
 62
     0
100
AcDbPoint
 10
118.999899174999
 20
983.0
 30
0.0
  0
POINT
  5
E3CC
330
BD2A
100
AcDbEntity
  8
Defpoints
 62
     0
100
AcDbPoint
 10
118.999899174999
 20
953.0091017753019
 30
0.0
  0
ENDBLK
  5
BD35
330
BD2A
100
AcDbEntity
  8
0
100
AcDbBlockEnd
  0
BLOCK
  5
BD40
330
BD36
100
AcDbEntity
  8
0
100
AcDbBlockBegin
  2
*D6
 70
     1
 10
0.0
 20
0.0
 30
0.0
  3
*D6
  1

  0
LINE
  5
E3CD
330
BD36
100
AcDbEntity
  8
30
 62
     0
370
    -2
100
AcDbLine
 10
-0.0001008250008147
 20
973.0
 30
0.0
 11
-0.000100825000816
 21
951.1757684419686
 31
0.0
  0
LINE
  5
E3CE
330
BD36
100
AcDbEntity
  8
30
 62
     0
370
    -2
100
AcDbLine
 10
-119.0001008250008
 20
973.0
 30
0.0
 11
-119.0001008250008
 21
951.1757684419686
 31
0.0
  0
LINE
  5
E3CF
330
BD36
100
AcDbEntity
  8
30
 62
     0
370
    -2
100
AcDbLine
 10
-5.000100825000814
 20
952.1757684419686
 30
0.0
 11
-114.0001008250008
 21
952.1757684419686
 31
0.0
  0
INSERT
  5
E3D0
330
BD36
100
AcDbEntity
  8
30
 62
     0
370
    -2
100
AcDbBlockReference
  2
_Open
 10
-0.000100825000816
 20
952.1757684419686
 30
0.0
 41
5.0
 42
5.0
 43
5.0
  0
INSERT
  5
E3D1
330
BD36
100
AcDbEntity
  8
30
 62
     0
370
    -2
100
AcDbBlockReference
  2
_Open
 10
-119.0001008250008
 20
952.1757684419686
 30
0.0
 41
5.0
 42
5.0
 43
5.0
 50
180.0
  0
MTEXT
  5
E3D2
330
BD36
100
AcDbEntity
  8
30
 62
     0
100
AcDbMText
 10
-59.50010082500082
 20
960.1757684419686
 30
0.0
 40
10.0
 41
0.0
 71
     5
 72
     1
  1
\A1;119
 73
     1
 44
1.0
1001
ACAD
1000
MTEXTBEGIN
1070
    73
1070
     1
1070
    44
1040
1.0
1070
    74
1070
     0
1000
MTEXTEND
  0
POINT
  5
E3D3
330
BD36
100
AcDbEntity
  8
Defpoints
 62
     0
100
AcDbPoint
 10
-0.0001008250008141
 20
983.0
 30
0.0
  0
POINT
  5
E3D4
330
BD36
100
AcDbEntity
  8
Defpoints
 62
     0
100
AcDbPoint
 10
-119.0001008250008
 20
983.0
 30
0.0
  0
POINT
  5
E3D5
330
BD36
100
AcDbEntity
  8
Defpoints
 62
     0
100
AcDbPoint
 10
-119.0001008250008
 20
952.1757684419686
 30
0.0
  0
ENDBLK
  5
BD41
330
BD36
100
AcDbEntity
  8
0
100
AcDbBlockEnd
  0
BLOCK
  5
CC19
330
CC0F
100
AcDbEntity
  8
0
100
AcDbBlockBegin
  2
*D7
 70
     1
 10
0.0
 20
0.0
 30
0.0
  3
*D7
  1

  0
LINE
  5
E416
330
CC0F
100
AcDbEntity
  8
30
 62
     0
370
    -2
100
AcDbLine
 10
-119.9999999999997
 20
22.99999999999909
 30
0.0
 11
-119.9999999999997
 21
-77.15498604299978
 31
0.0
  0
LINE
  5
E417
330
CC0F
100
AcDbEntity
  8
30
 62
     0
370
    -2
100
AcDbLine
 10
118.0000000000011
 20
22.99999999999909
 30
0.0
 11
118.0000000000011
 21
-77.15498604299978
 31
0.0
  0
LINE
  5
E418
330
CC0F
100
AcDbEntity
  8
30
 62
     0
370
    -2
100
AcDbLine
 10
-114.9999999999997
 20
-76.15498604299978
 30
0.0
 11
113.000000000001
 21
-76.15498604299978
 31
0.0
  0
MTEXT
  5
E419
330
CC0F
100
AcDbEntity
  8
30
 62
     0
100
AcDbMText
 10
1.2197200780013
 20
-68.15498604299978
 30
0.0
 40
10.0
 41
0.0
 71
     5
 72
     1
  1
\A1;238
 73
     1
 44
1.0
1001
ACAD
1000
MTEXTBEGIN
1070
    73
1070
     1
1070
    44
1040
1.0
1070
    74
1070
     0
1000
MTEXTEND
  0
INSERT
  5
E41A
330
CC0F
100
AcDbEntity
  8
30
 62
     0
370
    -2
100
AcDbBlockReference
  2
_Open
 10
-119.9999999999997
 20
-76.15498604299978
 30
0.0
 41
5.0
 42
5.0
 43
5.0
 50
180.0
  0
INSERT
  5
E41B
330
CC0F
100
AcDbEntity
  8
30
 62
     0
370
    -2
100
AcDbBlockReference
  2
_Open
 10
118.0000000000011
 20
-76.15498604299978
 30
0.0
 41
5.0
 42
5.0
 43
5.0
  0
POINT
  5
E41C
330
CC0F
100
AcDbEntity
  8
Defpoints
 62
     0
100
AcDbPoint
 10
-119.9999999999997
 20
32.99999999999909
 30
0.0
  0
POINT
  5
E41D
330
CC0F
100
AcDbEntity
  8
Defpoints
 62
     0
100
AcDbPoint
 10
118.0000000000011
 20
32.99999999999909
 30
0.0
  0
POINT
  5
E41E
330
CC0F
100
AcDbEntity
  8
Defpoints
 62
     0
100
AcDbPoint
 10
118.0000000000011
 20
-76.15498604299978
 30
0.0
  0
ENDBLK
  5
CC1A
330
CC0F
100
AcDbEntity
  8
0
100
AcDbBlockEnd
  0
BLOCK
  5
CC31
330
CC27
100
AcDbEntity
  8
0
100
AcDbBlockBegin
  2
*D8
 70
     1
 10
0.0
 20
0.0
 30
0.0
  3
*D8
  1

  0
LINE
  5
E40D
330
CC27
100
AcDbEntity
  8
30
 62
     0
370
    -2
100
AcDbLine
 10
233.0000000000012
 20
-10.0
 30
0.0
 11
233.0000000000012
 21
-171.4434088389999
 31
0.0
  0
LINE
  5
E40E
330
CC27
100
AcDbEntity
  8
30
 62
     0
370
    -2
100
AcDbLine
 10
0.0000000000002552
 20
-95.12677900499985
 30
0.0
 11
0.0000000000002505
 21
-171.4434088389999
 31
0.0
  0
LINE
  5
E40F
330
CC27
100
AcDbEntity
  8
30
 62
     0
370
    -2
100
AcDbLine
 10
228.0000000000011
 20
-170.443408839
 30
0.0
 11
5.000000000000249
 21
-170.443408839
 31
0.0
  0
MTEXT
  5
E410
330
CC27
100
AcDbEntity
  8
30
 62
     0
100
AcDbMText
 10
130.6545984120004
 20
-162.443408839
 30
0.0
 40
10.0
 41
0.0
 71
     5
 72
     1
  1
\A1;233
 73
     1
 44
1.0
1001
ACAD
1000
MTEXTBEGIN
1070
    73
1070
     1
1070
    44
1040
1.0
1070
    74
1070
     0
1000
MTEXTEND
  0
INSERT
  5
E411
330
CC27
100
AcDbEntity
  8
30
 62
     0
370
    -2
100
AcDbBlockReference
  2
_Open
 10
233.0000000000012
 20
-170.443408839
 30
0.0
 41
5.0
 42
5.0
 43
5.0
  0
INSERT
  5
E412
330
CC27
100
AcDbEntity
  8
30
 62
     0
370
    -2
100
AcDbBlockReference
  2
_Open
 10
0.0000000000002506
 20
-170.443408839
 30
0.0
 41
5.0
 42
5.0
 43
5.0
 50
180.0
  0
POINT
  5
E413
330
CC27
100
AcDbEntity
  8
Defpoints
 62
     0
100
AcDbPoint
 10
233.0000000000012
 20
0.0
 30
0.0
  0
POINT
  5
E414
330
CC27
100
AcDbEntity
  8
Defpoints
 62
     0
100
AcDbPoint
 10
0.0000000000002558
 20
-85.12677900499989
 30
0.0
  0
POINT
  5
E415
330
CC27
100
AcDbEntity
  8
Defpoints
 62
     0
100
AcDbPoint
 10
0.0000000000002506
 20
-170.443408839
 30
0.0
  0
ENDBLK
  5
CC32
330
CC27
100
AcDbEntity
  8
0
100
AcDbBlockEnd
  0
BLOCK
  5
CC3D
330
CC33
100
AcDbEntity
  8
0
100
AcDbBlockBegin
  2
*D9
 70
     1
 10
0.0
 20
0.0
 30
0.0
  3
*D9
  1

  0
LINE
  5
E41F
330
CC33
100
AcDbEntity
  8
30
 62
     0
370
    -2
100
AcDbLine
 10
-232.9999999999985
 20
-10.0
 30
0.0
 11
-232.9999999999985
 21
-171.4434088389999
 31
0.0
  0
LINE
  5
E420
330
CC33
100
AcDbEntity
  8
30
 62
     0
370
    -2
100
AcDbLine
 10
0.0000000000002552
 20
-95.12677900499985
 30
0.0
 11
0.0000000000002505
 21
-171.4434088389999
 31
0.0
  0
LINE
  5
E421
330
CC33
100
AcDbEntity
  8
30
 62
     0
370
    -2
100
AcDbLine
 10
-227.9999999999985
 20
-170.443408839
 30
0.0
 11
-4.999999999999748
 21
-170.443408839
 31
0.0
  0
MTEXT
  5
E422
330
CC33
100
AcDbEntity
  8
30
 62
     0
100
AcDbMText
 10
-109.0105978109997
 20
-162.443408839
 30
0.0
 40
10.0
 41
0.0
 71
     5
 72
     1
  1
\A1;233
 73
     1
 44
1.0
1001
ACAD
1000
MTEXTBEGIN
1070
    73
1070
     1
1070
    44
1040
1.0
1070
    74
1070
     0
1000
MTEXTEND
  0
INSERT
  5
E423
330
CC33
100
AcDbEntity
  8
30
 62
     0
370
    -2
100
AcDbBlockReference
  2
_Open
 10
-232.9999999999985
 20
-170.443408839
 30
0.0
 41
5.0
 42
5.0
 43
5.0
 50
180.0
  0
INSERT
  5
E424
330
CC33
100
AcDbEntity
  8
30
 62
     0
370
    -2
100
AcDbBlockReference
  2
_Open
 10
0.0000000000002506
 20
-170.443408839
 30
0.0
 41
5.0
 42
5.0
 43
5.0
  0
POINT
  5
E425
330
CC33
100
AcDbEntity
  8
Defpoints
 62
     0
100
AcDbPoint
 10
-232.9999999999985
 20
0.0
 30
0.0
  0
POINT
  5
E426
330
CC33
100
AcDbEntity
  8
Defpoints
 62
     0
100
AcDbPoint
 10
0.0000000000002558
 20
-85.12677900499989
 30
0.0
  0
POINT
  5
E427
330
CC33
100
AcDbEntity
  8
Defpoints
 62
     0
100
AcDbPoint
 10
0.0000000000002506
 20
-170.443408839
 30
0.0
  0
ENDBLK
  5
CC3E
330
CC33
100
AcDbEntity
  8
0
100
AcDbBlockEnd
  0
BLOCK
  5
CC86
330
CC7C
100
AcDbEntity
  8
0
100
AcDbBlockBegin
  2
*D10
 70
     1
 10
0.0
 20
0.0
 30
0.0
  3
*D10
  1

  0
LINE
  5
E404
330
CC7C
100
AcDbEntity
  8
30
 62
     0
370
    -2
100
AcDbLine
 10
0.000000000000257
 20
610.0385861509988
 30
0.0
 11
0.0000000000002588
 21
639.4075107729999
 31
0.0
  0
LINE
  5
E405
330
CC7C
100
AcDbEntity
  8
30
 62
     0
370
    -2
100
AcDbLine
 10
-227.9999999999986
 20
573.2
 30
0.0
 11
-227.9999999999986
 21
639.4075107729999
 31
0.0
  0
LINE
  5
E406
330
CC7C
100
AcDbEntity
  8
30
 62
     0
370
    -2
100
AcDbLine
 10
-4.999999999999741
 20
638.407510773
 30
0.0
 11
-222.9999999999985
 21
638.407510773
 31
0.0
  0
MTEXT
  5
E407
330
CC7C
100
AcDbEntity
  8
30
 62
     0
100
AcDbMText
 10
-109.0105978109997
 20
646.407510773
 30
0.0
 40
10.0
 41
0.0
 71
     5
 72
     1
  1
\A1;228
 73
     1
 44
1.0
1001
ACAD
1000
MTEXTBEGIN
1070
    73
1070
     1
1070
    44
1040
1.0
1070
    74
1070
     0
1000
MTEXTEND
  0
INSERT
  5
E408
330
CC7C
100
AcDbEntity
  8
30
 62
     0
370
    -2
100
AcDbBlockReference
  2
_Open
 10
0.0000000000002587
 20
638.407510773
 30
0.0
 41
5.0
 42
5.0
 43
5.0
  0
INSERT
  5
E409
330
CC7C
100
AcDbEntity
  8
30
 62
     0
370
    -2
100
AcDbBlockReference
  2
_Open
 10
-227.9999999999986
 20
638.407510773
 30
0.0
 41
5.0
 42
5.0
 43
5.0
 50
180.0
  0
POINT
  5
E40A
330
CC7C
100
AcDbEntity
  8
Defpoints
 62
     0
100
AcDbPoint
 10
0.0000000000002564
 20
600.038586150999
 30
0.0
  0
POINT
  5
E40B
330
CC7C
100
AcDbEntity
  8
Defpoints
 62
     0
100
AcDbPoint
 10
-227.9999999999986
 20
563.2
 30
0.0
  0
POINT
  5
E40C
330
CC7C
100
AcDbEntity
  8
Defpoints
 62
     0
100
AcDbPoint
 10
-227.9999999999986
 20
638.407510773
 30
0.0
  0
ENDBLK
  5
CC87
330
CC7C
100
AcDbEntity
  8
0
100
AcDbBlockEnd
  0
BLOCK
  5
CC9E
330
CC94
100
AcDbEntity
  8
0
100
AcDbBlockBegin
  2
*D11
 70
     1
 10
0.0
 20
0.0
 30
0.0
  3
*D11
  1

  0
LINE
  5
E3FB
330
CC94
100
AcDbEntity
  8
30
 62
     0
370
    -2
100
AcDbLine
 10
0.0000000000002564
 20
600.0385861509987
 30
0.0
 11
0.0000000000002588
 21
639.763250777999
 31
0.0
  0
LINE
  5
E3FC
330
CC94
100
AcDbEntity
  8
30
 62
     0
370
    -2
100
AcDbLine
 10
228.0000000000014
 20
573.2
 30
0.0
 11
228.0000000000014
 21
639.763250777999
 31
0.0
  0
LINE
  5
E3FD
330
CC94
100
AcDbEntity
  8
30
 62
     0
370
    -2
100
AcDbLine
 10
5.000000000000258
 20
638.763250777999
 30
0.0
 11
223.0000000000014
 21
638.763250777999
 31
0.0
  0
MTEXT
  5
E3FE
330
CC94
100
AcDbEntity
  8
30
 62
     0
100
AcDbMText
 10
105.5179775020012
 20
646.763250777999
 30
0.0
 40
10.0
 41
0.0
 71
     5
 72
     1
  1
\A1;228
 73
     1
 44
1.0
1001
ACAD
1000
MTEXTBEGIN
1070
    73
1070
     1
1070
    44
1040
1.0
1070
    74
1070
     0
1000
MTEXTEND
  0
INSERT
  5
E3FF
330
CC94
100
AcDbEntity
  8
30
 62
     0
370
    -2
100
AcDbBlockReference
  2
_Open
 10
0.0000000000002588
 20
638.763250777999
 30
0.0
 41
5.0
 42
5.0
 43
5.0
 50
180.0
  0
INSERT
  5
E400
330
CC94
100
AcDbEntity
  8
30
 62
     0
370
    -2
100
AcDbBlockReference
  2
_Open
 10
228.0000000000014
 20
638.763250777999
 30
0.0
 41
5.0
 42
5.0
 43
5.0
  0
POINT
  5
E401
330
CC94
100
AcDbEntity
  8
Defpoints
 62
     0
100
AcDbPoint
 10
0.0000000000002558
 20
590.0385861509987
 30
0.0
  0
POINT
  5
E402
330
CC94
100
AcDbEntity
  8
Defpoints
 62
     0
100
AcDbPoint
 10
228.0000000000014
 20
563.2
 30
0.0
  0
POINT
  5
E403
330
CC94
100
AcDbEntity
  8
Defpoints
 62
     0
100
AcDbPoint
 10
228.0000000000014
 20
638.763250777999
 30
0.0
  0
ENDBLK
  5
CC9F
330
CC94
100
AcDbEntity
  8
0
100
AcDbBlockEnd
  0
BLOCK
  5
CCAA
330
CCA0
100
AcDbEntity
  8
0
100
AcDbBlockBegin
  2
*D12
 70
     1
 10
0.0
 20
0.0
 30
0.0
  3
*D12
  1

  0
LINE
  5
E502
330
CCA0
100
AcDbEntity
  8
30
 62
     0
370
    -2
100
AcDbLine
 10
1193.0
 20
54.99999999999909
 30
0.0
 11
1193.0
 21
-80.50817867500086
 31
0.0
  0
LINE
  5
E503
330
CCA0
100
AcDbEntity
  8
30
 62
     0
370
    -2
100
AcDbLine
 10
1095.0
 20
24.99999999999909
 30
0.0
 11
1095.0
 21
-80.50817867500086
 31
0.0
  0
LINE
  5
E504
330
CCA0
100
AcDbEntity
  8
30
 62
     0
370
    -2
100
AcDbLine
 10
1188.0
 20
-79.50817867500086
 30
0.0
 11
1100.0
 21
-79.50817867500086
 31
0.0
  0
MTEXT
  5
E505
330
CCA0
100
AcDbEntity
  8
30
 62
     0
100
AcDbMText
 10
1136.822342114998
 20
-71.50817867500086
 30
0.0
 40
10.0
 41
0.0
 71
     5
 72
     1
  1
\A1;98
 73
     1
 44
1.0
1001
ACAD
1000
MTEXTBEGIN
1070
    73
1070
     1
1070
    44
1040
1.0
1070
    74
1070
     0
1000
MTEXTEND
  0
INSERT
  5
E506
330
CCA0
100
AcDbEntity
  8
30
 62
     0
370
    -2
100
AcDbBlockReference
  2
_Open
 10
1193.0
 20
-79.50817867500086
 30
0.0
 41
5.0
 42
5.0
 43
5.0
  0
INSERT
  5
E507
330
CCA0
100
AcDbEntity
  8
30
 62
     0
370
    -2
100
AcDbBlockReference
  2
_Open
 10
1095.0
 20
-79.50817867500086
 30
0.0
 41
5.0
 42
5.0
 43
5.0
 50
180.0
  0
POINT
  5
E508
330
CCA0
100
AcDbEntity
  8
Defpoints
 62
     0
100
AcDbPoint
 10
1193.0
 20
64.99999999999909
 30
0.0
  0
POINT
  5
E509
330
CCA0
100
AcDbEntity
  8
Defpoints
 62
     0
100
AcDbPoint
 10
1095.0
 20
34.99999999999909
 30
0.0
  0
POINT
  5
E50A
330
CCA0
100
AcDbEntity
  8
Defpoints
 62
     0
100
AcDbPoint
 10
1095.0
 20
-79.50817867500086
 30
0.0
  0
ENDBLK
  5
CCAB
330
CCA0
100
AcDbEntity
  8
0
100
AcDbBlockEnd
  0
BLOCK
  5
CCB6
330
CCAC
100
AcDbEntity
  8
0
100
AcDbBlockBegin
  2
*D13
 70
     1
 10
0.0
 20
0.0
 30
0.0
  3
*D13
  1

  0
LINE
  5
E48B
330
CCAC
100
AcDbEntity
  8
30
 62
     0
370
    -2
100
AcDbLine
 10
828.0
 20
-87.00000000000112
 30
0.0
 11
828.0
 21
-183.9040587077944
 31
0.0
  0
LINE
  5
E48C
330
CCAC
100
AcDbEntity
  8
30
 62
     0
370
    -2
100
AcDbLine
 10
1193.0
 20
54.99999999999909
 30
0.0
 11
1193.0
 21
-183.9040587077944
 31
0.0
  0
LINE
  5
E48D
330
CCAC
100
AcDbEntity
  8
30
 62
     0
370
    -2
100
AcDbLine
 10
833.0
 20
-182.9040587077944
 30
0.0
 11
1188.0
 21
-182.9040587077944
 31
0.0
  0
MTEXT
  5
E48E
330
CCAC
100
AcDbEntity
  8
30
 62
     0
100
AcDbMText
 10
998.4633316508187
 20
-172.9729147321451
 30
0.0
 40
10.0
 41
0.0
 71
     5
 72
     1
  1
\A1;365
 73
     1
 44
1.0
1001
ACAD
1000
MTEXTBEGIN
1070
    73
1070
     1
1070
    44
1040
1.0
1070
    74
1070
     0
1000
MTEXTEND
  0
INSERT
  5
E48F
330
CCAC
100
AcDbEntity
  8
30
 62
     0
370
    -2
100
AcDbBlockReference
  2
_Open
 10
828.0
 20
-182.9040587077944
 30
0.0
 41
5.0
 42
5.0
 43
5.0
 50
180.0
  0
INSERT
  5
E490
330
CCAC
100
AcDbEntity
  8
30
 62
     0
370
    -2
100
AcDbBlockReference
  2
_Open
 10
1193.0
 20
-182.9040587077944
 30
0.0
 41
5.0
 42
5.0
 43
5.0
  0
POINT
  5
E491
330
CCAC
100
AcDbEntity
  8
Defpoints
 62
     0
100
AcDbPoint
 10
828.0
 20
-77.00000000000112
 30
0.0
  0
POINT
  5
E492
330
CCAC
100
AcDbEntity
  8
Defpoints
 62
     0
100
AcDbPoint
 10
1193.0
 20
64.99999999999909
 30
0.0
  0
POINT
  5
E493
330
CCAC
100
AcDbEntity
  8
Defpoints
 62
     0
100
AcDbPoint
 10
1193.0
 20
-182.9040587077944
 30
0.0
  0
ENDBLK
  5
CCB7
330
CCAC
100
AcDbEntity
  8
0
100
AcDbBlockEnd
  0
BLOCK
  5
CCC3
330
CCB8
100
AcDbEntity
  8
0
100
AcDbBlockBegin
  2
*D14
 70
     1
 10
0.0
 20
0.0
 30
0.0
  3
*D14
  1

  0
LINE
  5
E482
330
CCB8
100
AcDbEntity
  8
30
 62
     0
370
    -2
100
AcDbLine
 10
1075.0
 20
-24.74573847500073
 30
0.0
 11
1075.0
 21
-153.9374004656985
 31
0.0
  0
LINE
  5
E483
330
CCB8
100
AcDbEntity
  8
30
 62
     0
370
    -2
100
AcDbLine
 10
1047.0
 20
-110.1570854459996
 30
0.0
 11
1047.0
 21
-153.9374004656985
 31
0.0
  0
LINE
  5
E484
330
CCB8
100
AcDbEntity
  8
30
 62
     0
370
    -2
100
AcDbLine
 10
1070.0
 20
-152.9374004656985
 30
0.0
 11
1052.0
 21
-152.9374004656985
 31
0.0
  0
MTEXT
  5
E485
330
CCB8
100
AcDbEntity
  8
30
 62
     0
100
AcDbMText
 10
1061.557307915461
 20
-144.9768567973934
 30
0.0
 40
10.0
 41
0.0
 71
     5
 72
     1
  1
\A1;28
 73
     1
 44
1.0
1001
ACAD
1000
MTEXTBEGIN
1070
    73
1070
     1
1070
    44
1040
1.0
1070
    74
1070
     0
1000
MTEXTEND
  0
INSERT
  5
E486
330
CCB8
100
AcDbEntity
  8
30
 62
     0
370
    -2
100
AcDbBlockReference
  2
_Open
 10
1075.0
 20
-152.9374004656985
 30
0.0
 41
5.0
 42
5.0
 43
5.0
  0
INSERT
  5
E487
330
CCB8
100
AcDbEntity
  8
30
 62
     0
370
    -2
100
AcDbBlockReference
  2
_Open
 10
1047.0
 20
-152.9374004656985
 30
0.0
 41
5.0
 42
5.0
 43
5.0
 50
180.0
  0
POINT
  5
E488
330
CCB8
100
AcDbEntity
  8
Defpoints
 62
     0
100
AcDbPoint
 10
1075.0
 20
-14.74573847500073
 30
0.0
  0
POINT
  5
E489
330
CCB8
100
AcDbEntity
  8
Defpoints
 62
     0
100
AcDbPoint
 10
1047.0
 20
-100.1570854459997
 30
0.0
  0
POINT
  5
E48A
330
CCB8
100
AcDbEntity
  8
Defpoints
 62
     0
100
AcDbPoint
 10
1047.0
 20
-152.9374004656985
 30
0.0
  0
ENDBLK
  5
CCC4
330
CCB8
100
AcDbEntity
  8
0
100
AcDbBlockEnd
  0
BLOCK
  5
CCD0
330
CCC5
100
AcDbEntity
  8
0
100
AcDbBlockBegin
  2
*D15
 70
     1
 10
0.0
 20
0.0
 30
0.0
  3
*D15
  1

  0
LINE
  5
E470
330
CCC5
100
AcDbEntity
  8
30
 62
     0
370
    -2
100
AcDbLine
 10
910.0
 20
-30.00000000000091
 30
0.0
 11
910.0
 21
-153.9374004656985
 31
0.0
  0
LINE
  5
E471
330
CCC5
100
AcDbEntity
  8
30
 62
     0
370
    -2
100
AcDbLine
 10
946.9999999999991
 20
-110.1570854459996
 30
0.0
 11
946.9999999999991
 21
-153.9374004656985
 31
0.0
  0
LINE
  5
E472
330
CCC5
100
AcDbEntity
  8
30
 62
     0
370
    -2
100
AcDbLine
 10
915.0
 20
-152.9374004656985
 30
0.0
 11
941.9999999999992
 21
-152.9374004656985
 31
0.0
  0
MTEXT
  5
E473
330
CCC5
100
AcDbEntity
  8
30
 62
     0
100
AcDbMText
 10
930.1617538028166
 20
-144.9421772938769
 30
0.0
 40
10.0
 41
0.0
 71
     5
 72
     1
  1
\A1;37
 73
     1
 44
1.0
1001
ACAD
1000
MTEXTBEGIN
1070
    73
1070
     1
1070
    44
1040
1.0
1070
    74
1070
     0
1000
MTEXTEND
  0
INSERT
  5
E474
330
CCC5
100
AcDbEntity
  8
30
 62
     0
370
    -2
100
AcDbBlockReference
  2
_Open
 10
910.0
 20
-152.9374004656985
 30
0.0
 41
5.0
 42
5.0
 43
5.0
 50
180.0
  0
INSERT
  5
E475
330
CCC5
100
AcDbEntity
  8
30
 62
     0
370
    -2
100
AcDbBlockReference
  2
_Open
 10
946.9999999999991
 20
-152.9374004656985
 30
0.0
 41
5.0
 42
5.0
 43
5.0
  0
POINT
  5
E476
330
CCC5
100
AcDbEntity
  8
Defpoints
 62
     0
100
AcDbPoint
 10
910.0
 20
-20.00000000000091
 30
0.0
  0
POINT
  5
E477
330
CCC5
100
AcDbEntity
  8
Defpoints
 62
     0
100
AcDbPoint
 10
946.9999999999991
 20
-100.1570854459997
 30
0.0
  0
POINT
  5
E478
330
CCC5
100
AcDbEntity
  8
Defpoints
 62
     0
100
AcDbPoint
 10
946.9999999999991
 20
-152.9374004656985
 30
0.0
  0
ENDBLK
  5
CCD1
330
CCC5
100
AcDbEntity
  8
0
100
AcDbBlockEnd
  0
BLOCK
  5
CCDD
330
CCD2
100
AcDbEntity
  8
0
100
AcDbBlockBegin
  2
*D16
 70
     1
 10
0.0
 20
0.0
 30
0.0
  3
*D16
  1

  0
LINE
  5
E4F9
330
CCD2
100
AcDbEntity
  8
30
 62
     0
370
    -2
100
AcDbLine
 10
1105.0
 20
34.99999999999908
 30
0.0
 11
1224.024678254244
 21
34.99999999999905
 31
0.0
  0
LINE
  5
E4FA
330
CCD2
100
AcDbEntity
  8
30
 62
     0
370
    -2
100
AcDbLine
 10
1077.95
 20
-0.0000000000000028
 30
0.0
 11
1224.024678254244
 21
-0.0000000000000442
 31
0.0
  0
LINE
  5
E4FB
330
CCD2
100
AcDbEntity
  8
30
 62
     0
370
    -2
100
AcDbLine
 10
1223.024678254245
 20
29.99999999999905
 30
0.0
 11
1223.024678254245
 21
4.999999999999955
 31
0.0
  0
MTEXT
  5
E4FC
330
CCD2
100
AcDbEntity
  8
30
 62
     0
100
AcDbMText
 10
1211.735284315446
 20
19.98878162506273
 30
0.0
 40
10.0
 41
0.0
 71
     5
 72
     1
  1
\A1;35
 11
0.0000000000000001
 21
1.0
 31
0.0
 73
     1
 44
1.0
1001
ACAD
1000
MTEXTBEGIN
1070
    73
1070
     1
1070
    44
1040
1.0
1070
    74
1070
     0
1000
MTEXTEND
  0
INSERT
  5
E4FD
330
CCD2
100
AcDbEntity
  8
30
 62
     0
370
    -2
100
AcDbBlockReference
  2
_Open
 10
1223.024678254245
 20
34.99999999999905
 30
0.0
 41
5.0
 42
5.0
 43
5.0
 50
90.0
  0
INSERT
  5
E4FE
330
CCD2
100
AcDbEntity
  8
30
 62
     0
370
    -2
100
AcDbBlockReference
  2
_Open
 10
1223.024678254245
 20
-0.0000000000000439
 30
0.0
 41
5.0
 42
5.0
 43
5.0
 50
270.0
  0
POINT
  5
E4FF
330
CCD2
100
AcDbEntity
  8
Defpoints
 62
     0
100
AcDbPoint
 10
1095.0
 20
34.99999999999909
 30
0.0
  0
POINT
  5
E500
330
CCD2
100
AcDbEntity
  8
Defpoints
 62
     0
100
AcDbPoint
 10
1067.95
 20
0.0
 30
0.0
  0
POINT
  5
E501
330
CCD2
100
AcDbEntity
  8
Defpoints
 62
     0
100
AcDbPoint
 10
1223.024678254245
 20
-0.0000000000000439
 30
0.0
  0
ENDBLK
  5
CCDE
330
CCD2
100
AcDbEntity
  8
0
100
AcDbBlockEnd
  0
BLOCK
  5
CCEA
330
CCDF
100
AcDbEntity
  8
0
100
AcDbBlockBegin
  2
*D17
 70
     1
 10
0.0
 20
0.0
 30
0.0
  3
*D17
  1

  0
LINE
  5
E567
330
CCDF
100
AcDbEntity
  8
30
 62
     0
370
    -2
100
AcDbLine
 10
823.0
 20
32.99999999999909
 30
0.0
 11
712.4384943790005
 21
32.99999999999913
 31
0.0
  0
LINE
  5
E568
330
CCDF
100
AcDbEntity
  8
30
 62
     0
370
    -2
100
AcDbLine
 10
879.9999999999991
 20
0.0000000000000028
 30
0.0
 11
712.4384943790005
 21
0.0000000000000503
 31
0.0
  0
LINE
  5
E569
330
CCDF
100
AcDbEntity
  8
30
 62
     0
370
    -2
100
AcDbLine
 10
713.4384943790005
 20
27.99999999999912
 30
0.0
 11
713.4384943790005
 21
5.000000000000049
 31
0.0
  0
MTEXT
  5
E56A
330
CCDF
100
AcDbEntity
  8
30
 62
     0
100
AcDbMText
 10
704.0026379124681
 20
21.70588685867162
 30
0.0
 40
10.0
 41
0.0
 71
     5
 72
     1
  1
\A1;33
 11
0.0000000000000001
 21
1.0
 31
0.0
 73
     1
 44
1.0
1001
ACAD
1000
MTEXTBEGIN
1070
    73
1070
     1
1070
    44
1040
1.0
1070
    74
1070
     0
1000
MTEXTEND
  0
INSERT
  5
E56B
330
CCDF
100
AcDbEntity
  8
30
 62
     0
370
    -2
100
AcDbBlockReference
  2
_Open
 10
713.4384943790005
 20
32.99999999999913
 30
0.0
 41
5.0
 42
5.0
 43
5.0
 50
90.0
  0
INSERT
  5
E56C
330
CCDF
100
AcDbEntity
  8
30
 62
     0
370
    -2
100
AcDbBlockReference
  2
_Open
 10
713.4384943790005
 20
0.00000000000005
 30
0.0
 41
5.0
 42
5.0
 43
5.0
 50
270.0
  0
POINT
  5
E56D
330
CCDF
100
AcDbEntity
  8
Defpoints
 62
     0
100
AcDbPoint
 10
833.0
 20
32.99999999999909
 30
0.0
  0
POINT
  5
E56E
330
CCDF
100
AcDbEntity
  8
Defpoints
 62
     0
100
AcDbPoint
 10
889.9999999999991
 20
0.0
 30
0.0
  0
POINT
  5
E56F
330
CCDF
100
AcDbEntity
  8
Defpoints
 62
     0
100
AcDbPoint
 10
713.4384943790005
 20
0.00000000000005
 30
0.0
  0
ENDBLK
  5
CCEB
330
CCDF
100
AcDbEntity
  8
0
100
AcDbBlockEnd
  0
BLOCK
  5
CD32
330
CD28
100
AcDbEntity
  8
0
100
AcDbBlockBegin
  2
*D18
 70
     1
 10
0.0
 20
0.0
 30
0.0
  3
*D18
  1

  0
LINE
  5
E479
330
CD28
100
AcDbEntity
  8
30
 62
     0
370
    -2
100
AcDbLine
 10
946.9999999999991
 20
-110.1570854459996
 30
0.0
 11
946.9999999999991
 21
-153.9374004656985
 31
0.0
  0
LINE
  5
E47A
330
CD28
100
AcDbEntity
  8
30
 62
     0
370
    -2
100
AcDbLine
 10
1047.0
 20
-110.1570854459996
 30
0.0
 11
1047.0
 21
-153.9374004656985
 31
0.0
  0
LINE
  5
E47B
330
CD28
100
AcDbEntity
  8
30
 62
     0
370
    -2
100
AcDbLine
 10
951.9999999999992
 20
-152.9374004656985
 30
0.0
 11
1042.0
 21
-152.9374004656985
 31
0.0
  0
MTEXT
  5
E47C
330
CD28
100
AcDbEntity
  8
30
 62
     0
100
AcDbMText
 10
996.795647462115
 20
-144.9374004656985
 30
0.0
 40
10.0
 41
0.0
 71
     5
 72
     1
  1
\A1;100
 73
     1
 44
1.0
1001
ACAD
1000
MTEXTBEGIN
1070
    73
1070
     1
1070
    44
1040
1.0
1070
    74
1070
     0
1000
MTEXTEND
  0
INSERT
  5
E47D
330
CD28
100
AcDbEntity
  8
30
 62
     0
370
    -2
100
AcDbBlockReference
  2
_Open
 10
946.9999999999991
 20
-152.9374004656985
 30
0.0
 41
5.0
 42
5.0
 43
5.0
 50
180.0
  0
INSERT
  5
E47E
330
CD28
100
AcDbEntity
  8
30
 62
     0
370
    -2
100
AcDbBlockReference
  2
_Open
 10
1047.0
 20
-152.9374004656985
 30
0.0
 41
5.0
 42
5.0
 43
5.0
  0
POINT
  5
E47F
330
CD28
100
AcDbEntity
  8
Defpoints
 62
     0
100
AcDbPoint
 10
946.9999999999991
 20
-100.1570854459997
 30
0.0
  0
POINT
  5
E480
330
CD28
100
AcDbEntity
  8
Defpoints
 62
     0
100
AcDbPoint
 10
1047.0
 20
-100.1570854459997
 30
0.0
  0
POINT
  5
E481
330
CD28
100
AcDbEntity
  8
Defpoints
 62
     0
100
AcDbPoint
 10
1047.0
 20
-152.9374004656985
 30
0.0
  0
ENDBLK
  5
CD33
330
CD28
100
AcDbEntity
  8
0
100
AcDbBlockEnd
  0
BLOCK
  5
CD3E
330
CD34
100
AcDbEntity
  8
0
100
AcDbBlockBegin
  2
*D19
 70
     1
 10
0.0
 20
0.0
 30
0.0
  3
*D19
  1

  0
LINE
  5
E4C1
330
CD34
100
AcDbEntity
  8
30
 62
     0
370
    -2
100
AcDbLine
 10
1045.0
 20
460.0000000000001
 30
0.0
 11
1437.441705920237
 21
460.0
 31
0.0
  0
LINE
  5
E4C2
330
CD34
100
AcDbEntity
  8
30
 62
     0
370
    -2
100
AcDbLine
 10
1120.0
 20
-0.0000000000000028
 30
0.0
 11
1437.441705920237
 21
-0.0000000000000928
 31
0.0
  0
LINE
  5
E4C3
330
CD34
100
AcDbEntity
  8
30
 62
     0
370
    -2
100
AcDbLine
 10
1436.441705920237
 20
455.0
 30
0.0
 11
1436.441705920237
 21
4.999999999999906
 31
0.0
  0
MTEXT
  5
E4C4
330
CD34
100
AcDbEntity
  8
30
 62
     0
100
AcDbMText
 10
1428.441705920237
 20
231.148772400106
 30
0.0
 40
10.0
 41
0.0
 71
     5
 72
     1
  1
\A1;460
 11
0.0000000000000001
 21
1.0
 31
0.0
 73
     1
 44
1.0
1001
ACAD
1000
MTEXTBEGIN
1070
    73
1070
     1
1070
    44
1040
1.0
1070
    74
1070
     0
1000
MTEXTEND
  0
INSERT
  5
E4C5
330
CD34
100
AcDbEntity
  8
30
 62
     0
370
    -2
100
AcDbBlockReference
  2
_Open
 10
1436.441705920237
 20
460.0
 30
0.0
 41
5.0
 42
5.0
 43
5.0
 50
90.0
  0
INSERT
  5
E4C6
330
CD34
100
AcDbEntity
  8
30
 62
     0
370
    -2
100
AcDbBlockReference
  2
_Open
 10
1436.441705920237
 20
-0.0000000000000925
 30
0.0
 41
5.0
 42
5.0
 43
5.0
 50
270.0
  0
POINT
  5
E4C7
330
CD34
100
AcDbEntity
  8
Defpoints
 62
     0
100
AcDbPoint
 10
1035.0
 20
460.0000000000001
 30
0.0
  0
POINT
  5
E4C8
330
CD34
100
AcDbEntity
  8
Defpoints
 62
     0
100
AcDbPoint
 10
1110.0
 20
0.0
 30
0.0
  0
POINT
  5
E4C9
330
CD34
100
AcDbEntity
  8
Defpoints
 62
     0
100
AcDbPoint
 10
1436.441705920237
 20
-0.0000000000000925
 30
0.0
  0
ENDBLK
  5
CD3F
330
CD34
100
AcDbEntity
  8
0
100
AcDbBlockEnd
  0
BLOCK
  5
CD4A
330
CD40
100
AcDbEntity
  8
0
100
AcDbBlockBegin
  2
*D20
 70
     1
 10
0.0
 20
0.0
 30
0.0
  3
*D20
  1

  0
LINE
  5
E4A6
330
CD40
100
AcDbEntity
  8
30
 62
     0
370
    -2
100
AcDbLine
 10
1203.0
 20
165.0
 30
0.0
 11
1404.689226836348
 21
164.9999999999999
 31
0.0
  0
LINE
  5
E4A7
330
CD40
100
AcDbEntity
  8
30
 62
     0
370
    -2
100
AcDbLine
 10
1120.0
 20
-0.0000000000000028
 30
0.0
 11
1404.689226836348
 21
-0.0000000000000835
 31
0.0
  0
LINE
  5
E4A8
330
CD40
100
AcDbEntity
  8
30
 62
     0
370
    -2
100
AcDbLine
 10
1403.689226836347
 20
159.9999999999999
 30
0.0
 11
1403.689226836347
 21
4.999999999999915
 31
0.0
  0
MTEXT
  5
E4A9
330
CD40
100
AcDbEntity
  8
30
 62
     0
100
AcDbMText
 10
1395.689226836346
 20
82.45444906125383
 30
0.0
 40
10.0
 41
0.0
 71
     5
 72
     1
  1
\A1;165
 11
0.0000000000000001
 21
1.0
 31
0.0
 73
     1
 44
1.0
1001
ACAD
1000
MTEXTBEGIN
1070
    73
1070
     1
1070
    44
1040
1.0
1070
    74
1070
     0
1000
MTEXTEND
  0
INSERT
  5
E4AA
330
CD40
100
AcDbEntity
  8
30
 62
     0
370
    -2
100
AcDbBlockReference
  2
_Open
 10
1403.689226836347
 20
164.9999999999999
 30
0.0
 41
5.0
 42
5.0
 43
5.0
 50
90.0
  0
INSERT
  5
E4AB
330
CD40
100
AcDbEntity
  8
30
 62
     0
370
    -2
100
AcDbBlockReference
  2
_Open
 10
1403.689226836347
 20
-0.0000000000000832
 30
0.0
 41
5.0
 42
5.0
 43
5.0
 50
270.0
  0
POINT
  5
E4AC
330
CD40
100
AcDbEntity
  8
Defpoints
 62
     0
100
AcDbPoint
 10
1193.0
 20
165.0
 30
0.0
  0
POINT
  5
E4AD
330
CD40
100
AcDbEntity
  8
Defpoints
 62
     0
100
AcDbPoint
 10
1110.0
 20
0.0
 30
0.0
  0
POINT
  5
E4AE
330
CD40
100
AcDbEntity
  8
Defpoints
 62
     0
100
AcDbPoint
 10
1403.689226836347
 20
-0.0000000000000832
 30
0.0
  0
ENDBLK
  5
CD4B
330
CD40
100
AcDbEntity
  8
0
100
AcDbBlockEnd
  0
BLOCK
  5
CD56
330
CD4C
100
AcDbEntity
  8
0
100
AcDbBlockBegin
  2
*D21
 70
     1
 10
0.0
 20
0.0
 30
0.0
  3
*D21
  1

  0
LINE
  5
E4B8
330
CD4C
100
AcDbEntity
  8
30
 62
     0
370
    -2
100
AcDbLine
 10
960.0
 20
490.0000000000002
 30
0.0
 11
1494.084391404906
 21
490.0
 31
0.0
  0
LINE
  5
E4B9
330
CD4C
100
AcDbEntity
  8
30
 62
     0
370
    -2
100
AcDbLine
 10
1120.0
 20
-0.0000000000000028
 30
0.0
 11
1494.084391404906
 21
-0.0000000000001088
 31
0.0
  0
LINE
  5
E4BA
330
CD4C
100
AcDbEntity
  8
30
 62
     0
370
    -2
100
AcDbLine
 10
1493.084391404907
 20
485.0
 30
0.0
 11
1493.084391404907
 21
4.999999999999891
 31
0.0
  0
MTEXT
  5
E4BB
330
CD4C
100
AcDbEntity
  8
30
 62
     0
100
AcDbMText
 10
1485.084391404906
 20
240.8378484585631
 30
0.0
 40
10.0
 41
0.0
 71
     5
 72
     1
  1
\A1;490
 11
0.0000000000000001
 21
1.0
 31
0.0
 73
     1
 44
1.0
1001
ACAD
1000
MTEXTBEGIN
1070
    73
1070
     1
1070
    44
1040
1.0
1070
    74
1070
     0
1000
MTEXTEND
  0
INSERT
  5
E4BC
330
CD4C
100
AcDbEntity
  8
30
 62
     0
370
    -2
100
AcDbBlockReference
  2
_Open
 10
1493.084391404907
 20
490.0
 30
0.0
 41
5.0
 42
5.0
 43
5.0
 50
90.0
  0
INSERT
  5
E4BD
330
CD4C
100
AcDbEntity
  8
30
 62
     0
370
    -2
100
AcDbBlockReference
  2
_Open
 10
1493.084391404907
 20
-0.0000000000001085
 30
0.0
 41
5.0
 42
5.0
 43
5.0
 50
270.0
  0
POINT
  5
E4BE
330
CD4C
100
AcDbEntity
  8
Defpoints
 62
     0
100
AcDbPoint
 10
950.0
 20
490.0000000000002
 30
0.0
  0
POINT
  5
E4BF
330
CD4C
100
AcDbEntity
  8
Defpoints
 62
     0
100
AcDbPoint
 10
1110.0
 20
0.0
 30
0.0
  0
POINT
  5
E4C0
330
CD4C
100
AcDbEntity
  8
Defpoints
 62
     0
100
AcDbPoint
 10
1493.084391404907
 20
-0.0000000000001085
 30
0.0
  0
ENDBLK
  5
CD57
330
CD4C
100
AcDbEntity
  8
0
100
AcDbBlockEnd
  0
BLOCK
  5
CD63
330
CD58
100
AcDbEntity
  8
0
100
AcDbBlockBegin
  2
*D22
 70
     1
 10
0.0
 20
0.0
 30
0.0
  3
*D22
  1

  0
LINE
  5
E579
330
CD58
100
AcDbEntity
  8
30
 62
     0
370
    -2
100
AcDbLine
 10
1037.0
 20
442.0
 30
0.0
 11
1109.106806461998
 21
442.0
 31
0.0
  0
LINE
  5
E57A
330
CD58
100
AcDbEntity
  8
30
 62
     0
370
    -2
100
AcDbLine
 10
1045.0
 20
460.0000000000001
 30
0.0
 11
1109.106806461998
 21
460.0000000000001
 31
0.0
  0
LINE
  5
E57B
330
CD58
100
AcDbEntity
  8
30
 62
     0
370
    -2
100
AcDbLine
 10
1108.106806461998
 20
445.0
 30
0.0
 11
1108.106806461998
 21
457.0000000000002
 31
0.0
  0
LINE
  5
E57C
330
CD58
100
AcDbEntity
  8
30
 62
     0
370
    -2
100
AcDbLine
 10
1108.106806461998
 20
408.8685250751426
 30
0.0
 11
1108.106806461998
 21
442.0
 31
0.0
  0
MTEXT
  5
E57D
330
CD58
100
AcDbEntity
  8
30
 62
     0
100
AcDbMText
 10
1100.106806461998
 20
419.011382218
 30
0.0
 40
10.0
 41
0.0
 71
     5
 72
     1
  1
\A1;18
 11
0.0000000000000001
 21
1.0
 31
0.0
 73
     1
 44
1.0
1001
ACAD
1000
MTEXTBEGIN
1070
    73
1070
     1
1070
    44
1040
1.0
1070
    74
1070
     0
1000
MTEXTEND
  0
INSERT
  5
E57E
330
CD58
100
AcDbEntity
  8
30
 62
     0
370
    -2
100
AcDbBlockReference
  2
_Open
 10
1108.106806461998
 20
442.0
 30
0.0
 41
3.0
 42
3.0
 43
3.0
 50
270.0
  0
INSERT
  5
E57F
330
CD58
100
AcDbEntity
  8
30
 62
     0
370
    -2
100
AcDbBlockReference
  2
_Open
 10
1108.106806461998
 20
460.0000000000001
 30
0.0
 41
3.0
 42
3.0
 43
3.0
 50
90.0
  0
POINT
  5
E580
330
CD58
100
AcDbEntity
  8
Defpoints
 62
     0
100
AcDbPoint
 10
1027.0
 20
442.0
 30
0.0
  0
POINT
  5
E581
330
CD58
100
AcDbEntity
  8
Defpoints
 62
     0
100
AcDbPoint
 10
1035.0
 20
460.0000000000001
 30
0.0
  0
POINT
  5
E582
330
CD58
100
AcDbEntity
  8
Defpoints
 62
     0
100
AcDbPoint
 10
1108.106806461998
 20
460.0000000000001
 30
0.0
  0
ENDBLK
  5
CD64
330
CD58
100
AcDbEntity
  8
0
100
AcDbBlockEnd
  0
BLOCK
  5
CD6E
330
CD65
100
AcDbEntity
  8
0
100
AcDbBlockBegin
  2
*D23
 70
     1
 10
0.0
 20
0.0
 30
0.0
  3
*D23
  1

  0
LINE
  5
E468
330
CD65
100
AcDbEntity
  8
30
 62
     0
370
    -2
100
AcDbLine
 10
920.0
 20
550.0
 30
0.0
 11
594.4745023469995
 21
550.0
 31
0.0
  0
LINE
  5
E469
330
CD65
100
AcDbEntity
  8
30
 62
     0
370
    -2
100
AcDbLine
 10
879.9999999999991
 20
0.0000000000000028
 30
0.0
 11
594.4745023469995
 21
0.0000000000000837
 31
0.0
  0
LINE
  5
E46A
330
CD65
100
AcDbEntity
  8
30
 62
     0
370
    -2
100
AcDbLine
 10
595.4745023469995
 20
545.0000000000001
 30
0.0
 11
595.4745023469995
 21
5.000000000000082
 31
0.0
  0
INSERT
  5
E46B
330
CD65
100
AcDbEntity
  8
30
 62
     0
370
    -2
100
AcDbBlockReference
  2
_Open
 10
595.4745023469995
 20
550.0
 30
0.0
 41
5.0
 42
5.0
 43
5.0
 50
90.0
  0
INSERT
  5
E46C
330
CD65
100
AcDbEntity
  8
30
 62
     0
370
    -2
100
AcDbBlockReference
  2
_Open
 10
595.4745023469995
 20
0.0000000000000834
 30
0.0
 41
5.0
 42
5.0
 43
5.0
 50
270.0
  0
POINT
  5
E46D
330
CD65
100
AcDbEntity
  8
Defpoints
 62
     0
100
AcDbPoint
 10
930.0
 20
550.0
 30
0.0
  0
POINT
  5
E46E
330
CD65
100
AcDbEntity
  8
Defpoints
 62
     0
100
AcDbPoint
 10
889.9999999999991
 20
0.0
 30
0.0
  0
POINT
  5
E46F
330
CD65
100
AcDbEntity
  8
Defpoints
 62
     0
100
AcDbPoint
 10
595.4745023469995
 20
0.0000000000000834
 30
0.0
  0
ENDBLK
  5
CD6F
330
CD65
100
AcDbEntity
  8
0
100
AcDbBlockEnd
  0
BLOCK
  5
CD9F
330
CD95
100
AcDbEntity
  8
0
100
AcDbBlockBegin
  2
*D24
 70
     1
 10
0.0
 20
0.0
 30
0.0
  3
*D24
  1

  0
LINE
  5
E570
330
CD95
100
AcDbEntity
  8
30
 62
     0
370
    -2
100
AcDbLine
 10
806.0
 20
362.0
 30
0.0
 11
712.4384943790005
 21
362.0
 31
0.0
  0
LINE
  5
E571
330
CD95
100
AcDbEntity
  8
30
 62
     0
370
    -2
100
AcDbLine
 10
823.0
 20
32.99999999999909
 30
0.0
 11
712.4384943790005
 21
32.99999999999913
 31
0.0
  0
LINE
  5
E572
330
CD95
100
AcDbEntity
  8
30
 62
     0
370
    -2
100
AcDbLine
 10
713.4384943790005
 20
357.0
 30
0.0
 11
713.4384943790005
 21
37.99999999999912
 31
0.0
  0
MTEXT
  5
E573
330
CD95
100
AcDbEntity
  8
30
 62
     0
100
AcDbMText
 10
705.4384943789999
 20
185.608429837
 30
0.0
 40
10.0
 41
0.0
 71
     5
 72
     1
  1
\A1;329
 11
0.0000000000000001
 21
1.0
 31
0.0
 73
     1
 44
1.0
1001
ACAD
1000
MTEXTBEGIN
1070
    73
1070
     1
1070
    44
1040
1.0
1070
    74
1070
     0
1000
MTEXTEND
  0
INSERT
  5
E574
330
CD95
100
AcDbEntity
  8
30
 62
     0
370
    -2
100
AcDbBlockReference
  2
_Open
 10
713.4384943790005
 20
362.0
 30
0.0
 41
5.0
 42
5.0
 43
5.0
 50
90.0
  0
INSERT
  5
E575
330
CD95
100
AcDbEntity
  8
30
 62
     0
370
    -2
100
AcDbBlockReference
  2
_Open
 10
713.4384943790005
 20
32.99999999999913
 30
0.0
 41
5.0
 42
5.0
 43
5.0
 50
270.0
  0
POINT
  5
E576
330
CD95
100
AcDbEntity
  8
Defpoints
 62
     0
100
AcDbPoint
 10
816.0
 20
362.0
 30
0.0
  0
POINT
  5
E577
330
CD95
100
AcDbEntity
  8
Defpoints
 62
     0
100
AcDbPoint
 10
833.0
 20
32.99999999999909
 30
0.0
  0
POINT
  5
E578
330
CD95
100
AcDbEntity
  8
Defpoints
 62
     0
100
AcDbPoint
 10
713.4384943790005
 20
32.99999999999913
 30
0.0
  0
ENDBLK
  5
CDA0
330
CD95
100
AcDbEntity
  8
0
100
AcDbBlockEnd
  0
BLOCK
  5
CDAB
330
CDA1
100
AcDbEntity
  8
0
100
AcDbBlockBegin
  2
*D25
 70
     1
 10
0.0
 20
0.0
 30
0.0
  3
*D25
  1

  0
LINE
  5
E526
330
CDA1
100
AcDbEntity
  8
30
 62
     0
370
    -2
100
AcDbLine
 10
828.0
 20
482.0
 30
0.0
 11
828.0
 21
685.6601598439997
 31
0.0
  0
LINE
  5
E527
330
CDA1
100
AcDbEntity
  8
30
 62
     0
370
    -2
100
AcDbLine
 10
1027.0
 20
452.0
 30
0.0
 11
1027.0
 21
685.6601598439997
 31
0.0
  0
LINE
  5
E528
330
CDA1
100
AcDbEntity
  8
30
 62
     0
370
    -2
100
AcDbLine
 10
833.0
 20
684.6601598439997
 30
0.0
 11
1022.0
 21
684.6601598439997
 31
0.0
  0
MTEXT
  5
E529
330
CDA1
100
AcDbEntity
  8
30
 62
     0
100
AcDbMText
 10
920.8822695719993
 20
692.6601598439997
 30
0.0
 40
10.0
 41
0.0
 71
     5
 72
     1
  1
\A1;199
 73
     1
 44
1.0
1001
ACAD
1000
MTEXTBEGIN
1070
    73
1070
     1
1070
    44
1040
1.0
1070
    74
1070
     0
1000
MTEXTEND
  0
INSERT
  5
E52A
330
CDA1
100
AcDbEntity
  8
30
 62
     0
370
    -2
100
AcDbBlockReference
  2
_Open
 10
828.0
 20
684.6601598439997
 30
0.0
 41
5.0
 42
5.0
 43
5.0
 50
180.0
  0
INSERT
  5
E52B
330
CDA1
100
AcDbEntity
  8
30
 62
     0
370
    -2
100
AcDbBlockReference
  2
_Open
 10
1027.0
 20
684.6601598439997
 30
0.0
 41
5.0
 42
5.0
 43
5.0
  0
POINT
  5
E52C
330
CDA1
100
AcDbEntity
  8
Defpoints
 62
     0
100
AcDbPoint
 10
828.0
 20
472.0
 30
0.0
  0
POINT
  5
E52D
330
CDA1
100
AcDbEntity
  8
Defpoints
 62
     0
100
AcDbPoint
 10
1027.0
 20
442.0
 30
0.0
  0
POINT
  5
E52E
330
CDA1
100
AcDbEntity
  8
Defpoints
 62
     0
100
AcDbPoint
 10
1027.0
 20
684.6601598439997
 30
0.0
  0
ENDBLK
  5
CDAC
330
CDA1
100
AcDbEntity
  8
0
100
AcDbBlockEnd
  0
BLOCK
  5
CDC2
330
CDB8
100
AcDbEntity
  8
0
100
AcDbBlockBegin
  2
*D26
 70
     1
 10
0.0
 20
0.0
 30
0.0
  3
*D26
  1

  0
LINE
  5
E51D
330
CDB8
100
AcDbEntity
  8
30
 62
     0
370
    -2
100
AcDbLine
 10
930.0
 20
570.0000000000001
 30
0.0
 11
930.0
 21
619.898942068
 31
0.0
  0
LINE
  5
E51E
330
CDB8
100
AcDbEntity
  8
30
 62
     0
370
    -2
100
AcDbLine
 10
1095.0
 20
570.0000000000001
 30
0.0
 11
1095.0
 21
619.898942068
 31
0.0
  0
LINE
  5
E51F
330
CDB8
100
AcDbEntity
  8
30
 62
     0
370
    -2
100
AcDbLine
 10
935.0
 20
618.898942068
 30
0.0
 11
1090.0
 21
618.898942068
 31
0.0
  0
MTEXT
  5
E520
330
CDB8
100
AcDbEntity
  8
30
 62
     0
100
AcDbMText
 10
988.3000365910001
 20
626.898942068
 30
0.0
 40
10.0
 41
0.0
 71
     5
 72
     1
  1
\A1;165
 73
     1
 44
1.0
1001
ACAD
1000
MTEXTBEGIN
1070
    73
1070
     1
1070
    44
1040
1.0
1070
    74
1070
     0
1000
MTEXTEND
  0
INSERT
  5
E521
330
CDB8
100
AcDbEntity
  8
30
 62
     0
370
    -2
100
AcDbBlockReference
  2
_Open
 10
930.0
 20
618.898942068
 30
0.0
 41
5.0
 42
5.0
 43
5.0
 50
180.0
  0
INSERT
  5
E522
330
CDB8
100
AcDbEntity
  8
30
 62
     0
370
    -2
100
AcDbBlockReference
  2
_Open
 10
1095.0
 20
618.898942068
 30
0.0
 41
5.0
 42
5.0
 43
5.0
  0
POINT
  5
E523
330
CDB8
100
AcDbEntity
  8
Defpoints
 62
     0
100
AcDbPoint
 10
930.0
 20
560.0000000000001
 30
0.0
  0
POINT
  5
E524
330
CDB8
100
AcDbEntity
  8
Defpoints
 62
     0
100
AcDbPoint
 10
1095.0
 20
560.0000000000001
 30
0.0
  0
POINT
  5
E525
330
CDB8
100
AcDbEntity
  8
Defpoints
 62
     0
100
AcDbPoint
 10
1095.0
 20
618.898942068
 30
0.0
  0
ENDBLK
  5
CDC3
330
CDB8
100
AcDbEntity
  8
0
100
AcDbBlockEnd
  0
BLOCK
  5
CDCE
330
CDC4
100
AcDbEntity
  8
0
100
AcDbBlockBegin
  2
*D27
 70
     1
 10
0.0
 20
0.0
 30
0.0
  3
*D27
  1

  0
LINE
  5
E52F
330
CDC4
100
AcDbEntity
  8
30
 62
     0
370
    -2
100
AcDbLine
 10
828.0
 20
482.0
 30
0.0
 11
828.0
 21
620.3603131449997
 31
0.0
  0
LINE
  5
E530
330
CDC4
100
AcDbEntity
  8
30
 62
     0
370
    -2
100
AcDbLine
 10
930.0
 20
570.0000000000001
 30
0.0
 11
930.0
 21
620.3603131449997
 31
0.0
  0
LINE
  5
E531
330
CDC4
100
AcDbEntity
  8
30
 62
     0
370
    -2
100
AcDbLine
 10
833.0
 20
619.3603131449997
 30
0.0
 11
925.0
 21
619.3603131449997
 31
0.0
  0
MTEXT
  5
E532
330
CDC4
100
AcDbEntity
  8
30
 62
     0
100
AcDbMText
 10
875.2700123270001
 20
627.3603131449997
 30
0.0
 40
10.0
 41
0.0
 71
     5
 72
     1
  1
\A1;102
 73
     1
 44
1.0
1001
ACAD
1000
MTEXTBEGIN
1070
    73
1070
     1
1070
    44
1040
1.0
1070
    74
1070
     0
1000
MTEXTEND
  0
INSERT
  5
E533
330
CDC4
100
AcDbEntity
  8
30
 62
     0
370
    -2
100
AcDbBlockReference
  2
_Open
 10
828.0
 20
619.3603131449997
 30
0.0
 41
5.0
 42
5.0
 43
5.0
 50
180.0
  0
INSERT
  5
E534
330
CDC4
100
AcDbEntity
  8
30
 62
     0
370
    -2
100
AcDbBlockReference
  2
_Open
 10
930.0
 20
619.3603131449997
 30
0.0
 41
5.0
 42
5.0
 43
5.0
  0
POINT
  5
E535
330
CDC4
100
AcDbEntity
  8
Defpoints
 62
     0
100
AcDbPoint
 10
828.0
 20
472.0
 30
0.0
  0
POINT
  5
E536
330
CDC4
100
AcDbEntity
  8
Defpoints
 62
     0
100
AcDbPoint
 10
930.0
 20
560.0000000000001
 30
0.0
  0
POINT
  5
E537
330
CDC4
100
AcDbEntity
  8
Defpoints
 62
     0
100
AcDbPoint
 10
930.0
 20
619.3603131449997
 30
0.0
  0
ENDBLK
  5
CDCF
330
CDC4
100
AcDbEntity
  8
0
100
AcDbBlockEnd
  0
BLOCK
  5
CDDB
330
CDD0
100
AcDbEntity
  8
0
100
AcDbBlockBegin
  2
*D28
 70
     1
 10
0.0
 20
0.0
 30
0.0
  3
*D28
  1

  0
LINE
  5
E50B
330
CDD0
100
AcDbEntity
  8
30
 62
     0
370
    -2
100
AcDbLine
 10
1158.0
 20
386.9445289770001
 30
0.0
 11
1158.0
 21
559.7717046179736
 31
0.0
  0
LINE
  5
E50C
330
CDD0
100
AcDbEntity
  8
30
 62
     0
370
    -2
100
AcDbLine
 10
1193.0
 20
175.0
 30
0.0
 11
1193.0
 21
559.7717046179736
 31
0.0
  0
LINE
  5
E50D
330
CDD0
100
AcDbEntity
  8
30
 62
     0
370
    -2
100
AcDbLine
 10
1163.0
 20
558.7717046179736
 30
0.0
 11
1188.0
 21
558.7717046179736
 31
0.0
  0
MTEXT
  5
E50E
330
CDD0
100
AcDbEntity
  8
30
 62
     0
100
AcDbMText
 10
1175.5
 20
566.7717046179737
 30
0.0
 40
10.0
 41
0.0
 71
     5
 72
     1
  1
\A1;35*
 73
     1
 44
1.0
1001
ACAD
1000
MTEXTBEGIN
1070
    73
1070
     1
1070
    44
1040
1.0
1070
    74
1070
     0
1000
MTEXTEND
  0
INSERT
  5
E50F
330
CDD0
100
AcDbEntity
  8
30
 62
     0
370
    -2
100
AcDbBlockReference
  2
_Open
 10
1158.0
 20
558.7717046179736
 30
0.0
 41
5.0
 42
5.0
 43
5.0
 50
180.0
  0
INSERT
  5
E510
330
CDD0
100
AcDbEntity
  8
30
 62
     0
370
    -2
100
AcDbBlockReference
  2
_Open
 10
1193.0
 20
558.7717046179736
 30
0.0
 41
5.0
 42
5.0
 43
5.0
  0
POINT
  5
E511
330
CDD0
100
AcDbEntity
  8
Defpoints
 62
     0
100
AcDbPoint
 10
1158.0
 20
376.9445289770001
 30
0.0
  0
POINT
  5
E512
330
CDD0
100
AcDbEntity
  8
Defpoints
 62
     0
100
AcDbPoint
 10
1193.0
 20
165.0
 30
0.0
  0
POINT
  5
E513
330
CDD0
100
AcDbEntity
  8
Defpoints
 62
     0
100
AcDbPoint
 10
1193.0
 20
558.7717046179736
 30
0.0
  0
ENDBLK
  5
CDDC
330
CDD0
100
AcDbEntity
  8
0
100
AcDbBlockEnd
  0
BLOCK
  5
CDE7
330
CDDD
100
AcDbEntity
  8
0
100
AcDbBlockBegin
  2
*D29
 70
     1
 10
0.0
 20
0.0
 30
0.0
  3
*D29
  1

  0
LINE
  5
E4E6
330
CDDD
100
AcDbEntity
  8
30
 62
     0
370
    -2
100
AcDbLine
 10
1188.0
 20
372.5000000000002
 30
0.0
 11
1277.779706835
 21
372.5000000000002
 31
0.0
  0
LINE
  5
E4E7
330
CDDD
100
AcDbEntity
  8
30
 62
     0
370
    -2
100
AcDbLine
 10
1203.0
 20
385.0000000000002
 30
0.0
 11
1277.779706835
 21
385.0000000000002
 31
0.0
  0
LINE
  5
E4E8
330
CDDD
100
AcDbEntity
  8
30
 62
     0
370
    -2
100
AcDbLine
 10
1276.779706835
 20
375.5000000000002
 30
0.0
 11
1276.779706835
 21
382.0000000000002
 31
0.0
  0
LINE
  5
E4E9
330
CDDD
100
AcDbEntity
  8
30
 62
     0
370
    -2
100
AcDbLine
 10
1276.779706835
 20
423.1857861998412
 30
0.0
 11
1276.779706835
 21
385.0000000000002
 31
0.0
  0
MTEXT
  5
E4EA
330
CDDD
100
AcDbEntity
  8
30
 62
     0
100
AcDbMText
 10
1268.779706835
 20
405.9000719141273
 30
0.0
 40
10.0
 41
0.0
 71
     5
 72
     1
  1
\A1;12.5
 11
0.0000000000000001
 21
1.0
 31
0.0
 73
     1
 44
1.0
1001
ACAD
1000
MTEXTBEGIN
1070
    73
1070
     1
1070
    44
1040
1.0
1070
    74
1070
     0
1000
MTEXTEND
  0
INSERT
  5
E4EB
330
CDDD
100
AcDbEntity
  8
30
 62
     0
370
    -2
100
AcDbBlockReference
  2
_Open
 10
1276.779706835
 20
372.5000000000002
 30
0.0
 41
3.0
 42
3.0
 43
3.0
 50
270.0
  0
INSERT
  5
E4EC
330
CDDD
100
AcDbEntity
  8
30
 62
     0
370
    -2
100
AcDbBlockReference
  2
_Open
 10
1276.779706835
 20
385.0000000000002
 30
0.0
 41
3.0
 42
3.0
 43
3.0
 50
90.0
  0
POINT
  5
E4ED
330
CDDD
100
AcDbEntity
  8
Defpoints
 62
     0
100
AcDbPoint
 10
1178.0
 20
372.5000000000002
 30
0.0
  0
POINT
  5
E4EE
330
CDDD
100
AcDbEntity
  8
Defpoints
 62
     0
100
AcDbPoint
 10
1193.0
 20
385.0000000000002
 30
0.0
  0
POINT
  5
E4EF
330
CDDD
100
AcDbEntity
  8
Defpoints
 62
     0
100
AcDbPoint
 10
1276.779706835
 20
385.0000000000002
 30
0.0
  0
ENDBLK
  5
CDE8
330
CDDD
100
AcDbEntity
  8
0
100
AcDbBlockEnd
  0
BLOCK
  5
CDF3
330
CDE9
100
AcDbEntity
  8
0
100
AcDbBlockBegin
  2
*D30
 70
     1
 10
0.0
 20
0.0
 30
0.0
  3
*D30
  1

  0
LINE
  5
E514
330
CDE9
100
AcDbEntity
  8
30
 62
     0
370
    -2
100
AcDbLine
 10
1178.0
 20
382.5000000000002
 30
0.0
 11
1178.0
 21
522.9516852359997
 31
0.0
  0
LINE
  5
E515
330
CDE9
100
AcDbEntity
  8
30
 62
     0
370
    -2
100
AcDbLine
 10
1193.0
 20
395.0000000000002
 30
0.0
 11
1193.0
 21
522.9516852359997
 31
0.0
  0
LINE
  5
E516
330
CDE9
100
AcDbEntity
  8
30
 62
     0
370
    -2
100
AcDbLine
 10
1181.0
 20
521.9516852359999
 30
0.0
 11
1190.0
 21
521.9516852359999
 31
0.0
  0
MTEXT
  5
E517
330
CDE9
100
AcDbEntity
  8
30
 62
     0
100
AcDbMText
 10
1178.0
 20
529.9516852359999
 30
0.0
 40
10.0
 41
0.0
 71
     5
 72
     1
  1
\A1;15
 73
     1
 44
1.0
1001
ACAD
1000
MTEXTBEGIN
1070
    73
1070
     1
1070
    44
1040
1.0
1070
    74
1070
     0
1000
MTEXTEND
  0
INSERT
  5
E518
330
CDE9
100
AcDbEntity
  8
30
 62
     0
370
    -2
100
AcDbBlockReference
  2
_Open
 10
1178.0
 20
521.9516852359999
 30
0.0
 41
3.0
 42
3.0
 43
3.0
 50
180.0
  0
INSERT
  5
E519
330
CDE9
100
AcDbEntity
  8
30
 62
     0
370
    -2
100
AcDbBlockReference
  2
_Open
 10
1193.0
 20
521.9516852359999
 30
0.0
 41
3.0
 42
3.0
 43
3.0
  0
POINT
  5
E51A
330
CDE9
100
AcDbEntity
  8
Defpoints
 62
     0
100
AcDbPoint
 10
1178.0
 20
372.5000000000002
 30
0.0
  0
POINT
  5
E51B
330
CDE9
100
AcDbEntity
  8
Defpoints
 62
     0
100
AcDbPoint
 10
1193.0
 20
385.0000000000002
 30
0.0
  0
POINT
  5
E51C
330
CDE9
100
AcDbEntity
  8
Defpoints
 62
     0
100
AcDbPoint
 10
1193.0
 20
521.9516852359999
 30
0.0
  0
ENDBLK
  5
CDF4
330
CDE9
100
AcDbEntity
  8
0
100
AcDbBlockEnd
  0
BLOCK
  5
CE0B
330
CE01
100
AcDbEntity
  8
0
100
AcDbBlockBegin
  2
*D31
 70
     1
 10
0.0
 20
0.0
 30
0.0
  3
*D31
  1

  0
LINE
  5
E494
330
CE01
100
AcDbEntity
  8
30
 62
     0
370
    -2
100
AcDbLine
 10
1203.0
 20
165.0
 30
0.0
 11
1349.7701554347
 21
164.9999999999999
 31
0.0
  0
LINE
  5
E495
330
CE01
100
AcDbEntity
  8
30
 62
     0
370
    -2
100
AcDbLine
 10
1203.0
 20
285.0000000000001
 30
0.0
 11
1349.7701554347
 21
285.0000000000001
 31
0.0
  0
LINE
  5
E496
330
CE01
100
AcDbEntity
  8
30
 62
     0
370
    -2
100
AcDbLine
 10
1348.7701554347
 20
169.9999999999999
 30
0.0
 11
1348.7701554347
 21
280.0000000000001
 31
0.0
  0
MTEXT
  5
E497
330
CE01
100
AcDbEntity
  8
30
 62
     0
100
AcDbMText
 10
1340.770155434698
 20
220.7578703119998
 30
0.0
 40
10.0
 41
0.0
 71
     5
 72
     1
  1
\A1;120
 11
0.0000000000000001
 21
1.0
 31
0.0
 73
     1
 44
1.0
1001
ACAD
1000
MTEXTBEGIN
1070
    73
1070
     1
1070
    44
1040
1.0
1070
    74
1070
     0
1000
MTEXTEND
  0
INSERT
  5
E498
330
CE01
100
AcDbEntity
  8
30
 62
     0
370
    -2
100
AcDbBlockReference
  2
_Open
 10
1348.7701554347
 20
164.9999999999999
 30
0.0
 41
5.0
 42
5.0
 43
5.0
 50
270.0
  0
INSERT
  5
E499
330
CE01
100
AcDbEntity
  8
30
 62
     0
370
    -2
100
AcDbBlockReference
  2
_Open
 10
1348.7701554347
 20
285.0000000000001
 30
0.0
 41
5.0
 42
5.0
 43
5.0
 50
90.0
  0
POINT
  5
E49A
330
CE01
100
AcDbEntity
  8
Defpoints
 62
     0
100
AcDbPoint
 10
1193.0
 20
165.0
 30
0.0
  0
POINT
  5
E49B
330
CE01
100
AcDbEntity
  8
Defpoints
 62
     0
100
AcDbPoint
 10
1193.0
 20
285.0000000000001
 30
0.0
  0
POINT
  5
E49C
330
CE01
100
AcDbEntity
  8
Defpoints
 62
     0
100
AcDbPoint
 10
1348.7701554347
 20
285.0000000000001
 30
0.0
  0
ENDBLK
  5
CE0C
330
CE01
100
AcDbEntity
  8
0
100
AcDbBlockEnd
  0
BLOCK
  5
CE17
330
CE0D
100
AcDbEntity
  8
0
100
AcDbBlockBegin
  2
*D32
 70
     1
 10
0.0
 20
0.0
 30
0.0
  3
*D32
  1

  0
LINE
  5
E49D
330
CE0D
100
AcDbEntity
  8
30
 62
     0
370
    -2
100
AcDbLine
 10
1203.0
 20
165.0
 30
0.0
 11
1349.7701554347
 21
164.9999999999999
 31
0.0
  0
LINE
  5
E49E
330
CE0D
100
AcDbEntity
  8
30
 62
     0
370
    -2
100
AcDbLine
 10
1203.0
 20
64.99999999999909
 30
0.0
 11
1349.7701554347
 21
64.99999999999904
 31
0.0
  0
LINE
  5
E49F
330
CE0D
100
AcDbEntity
  8
30
 62
     0
370
    -2
100
AcDbLine
 10
1348.7701554347
 20
159.9999999999999
 30
0.0
 11
1348.7701554347
 21
69.99999999999904
 31
0.0
  0
MTEXT
  5
E4A0
330
CE0D
100
AcDbEntity
  8
30
 62
     0
100
AcDbMText
 10
1340.770155434698
 20
107.4058420219998
 30
0.0
 40
10.0
 41
0.0
 71
     5
 72
     1
  1
\A1;100
 11
0.0000000000000001
 21
1.0
 31
0.0
 73
     1
 44
1.0
1001
ACAD
1000
MTEXTBEGIN
1070
    73
1070
     1
1070
    44
1040
1.0
1070
    74
1070
     0
1000
MTEXTEND
  0
INSERT
  5
E4A1
330
CE0D
100
AcDbEntity
  8
30
 62
     0
370
    -2
100
AcDbBlockReference
  2
_Open
 10
1348.7701554347
 20
164.9999999999999
 30
0.0
 41
5.0
 42
5.0
 43
5.0
 50
90.0
  0
INSERT
  5
E4A2
330
CE0D
100
AcDbEntity
  8
30
 62
     0
370
    -2
100
AcDbBlockReference
  2
_Open
 10
1348.7701554347
 20
64.99999999999904
 30
0.0
 41
5.0
 42
5.0
 43
5.0
 50
270.0
  0
POINT
  5
E4A3
330
CE0D
100
AcDbEntity
  8
Defpoints
 62
     0
100
AcDbPoint
 10
1193.0
 20
165.0
 30
0.0
  0
POINT
  5
E4A4
330
CE0D
100
AcDbEntity
  8
Defpoints
 62
     0
100
AcDbPoint
 10
1193.0
 20
64.99999999999909
 30
0.0
  0
POINT
  5
E4A5
330
CE0D
100
AcDbEntity
  8
Defpoints
 62
     0
100
AcDbPoint
 10
1348.7701554347
 20
64.99999999999904
 30
0.0
  0
ENDBLK
  5
CE18
330
CE0D
100
AcDbEntity
  8
0
100
AcDbBlockEnd
  0
BLOCK
  5
CE50
330
CE46
100
AcDbEntity
  8
0
100
AcDbBlockBegin
  2
*D33
 70
     1
 10
0.0
 20
0.0
 30
0.0
  3
*D33
  1

  0
LINE
  5
E4AF
330
CE46
100
AcDbEntity
  8
30
 62
     0
370
    -2
100
AcDbLine
 10
1203.0
 20
285.0000000000001
 30
0.0
 11
1349.7701554347
 21
285.0000000000001
 31
0.0
  0
LINE
  5
E4B0
330
CE46
100
AcDbEntity
  8
30
 62
     0
370
    -2
100
AcDbLine
 10
1203.0
 20
385.0000000000002
 30
0.0
 11
1349.7701554347
 21
385.0000000000002
 31
0.0
  0
LINE
  5
E4B1
330
CE46
100
AcDbEntity
  8
30
 62
     0
370
    -2
100
AcDbLine
 10
1348.7701554347
 20
290.0000000000001
 30
0.0
 11
1348.7701554347
 21
380.0000000000002
 31
0.0
  0
MTEXT
  5
E4B2
330
CE46
100
AcDbEntity
  8
30
 62
     0
100
AcDbMText
 10
1340.770155434698
 20
338.9699213839997
 30
0.0
 40
10.0
 41
0.0
 71
     5
 72
     1
  1
\A1;100
 11
0.0000000000000001
 21
1.0
 31
0.0
 73
     1
 44
1.0
1001
ACAD
1000
MTEXTBEGIN
1070
    73
1070
     1
1070
    44
1040
1.0
1070
    74
1070
     0
1000
MTEXTEND
  0
INSERT
  5
E4B3
330
CE46
100
AcDbEntity
  8
30
 62
     0
370
    -2
100
AcDbBlockReference
  2
_Open
 10
1348.7701554347
 20
285.0000000000001
 30
0.0
 41
5.0
 42
5.0
 43
5.0
 50
270.0
  0
INSERT
  5
E4B4
330
CE46
100
AcDbEntity
  8
30
 62
     0
370
    -2
100
AcDbBlockReference
  2
_Open
 10
1348.7701554347
 20
385.0000000000002
 30
0.0
 41
5.0
 42
5.0
 43
5.0
 50
90.0
  0
POINT
  5
E4B5
330
CE46
100
AcDbEntity
  8
Defpoints
 62
     0
100
AcDbPoint
 10
1193.0
 20
285.0000000000001
 30
0.0
  0
POINT
  5
E4B6
330
CE46
100
AcDbEntity
  8
Defpoints
 62
     0
100
AcDbPoint
 10
1193.0
 20
385.0000000000002
 30
0.0
  0
POINT
  5
E4B7
330
CE46
100
AcDbEntity
  8
Defpoints
 62
     0
100
AcDbPoint
 10
1348.7701554347
 20
385.0000000000002
 30
0.0
  0
ENDBLK
  5
CE51
330
CE46
100
AcDbEntity
  8
0
100
AcDbBlockEnd
  0
BLOCK
  5
CE5B
330
CE52
100
AcDbEntity
  8
0
100
AcDbBlockBegin
  2
*D34
 70
     1
 10
0.0
 20
0.0
 30
0.0
  3
*D34
  1

  0
LINE
  5
E4F0
330
CE52
100
AcDbEntity
  8
30
 62
     0
370
    -2
100
AcDbLine
 10
1188.0
 20
372.5000000000002
 30
0.0
 11
1278.108070658999
 21
372.5000000000002
 31
0.0
  0
LINE
  5
E4F1
330
CE52
100
AcDbEntity
  8
30
 62
     0
370
    -2
100
AcDbLine
 10
1188.0
 20
347.5000000000002
 30
0.0
 11
1278.108070658999
 21
347.5000000000002
 31
0.0
  0
LINE
  5
E4F2
330
CE52
100
AcDbEntity
  8
30
 62
     0
370
    -2
100
AcDbLine
 10
1277.108070658999
 20
367.5000000000002
 30
0.0
 11
1277.108070658999
 21
352.5000000000002
 31
0.0
  0
MTEXT
  5
E4F3
330
CE52
100
AcDbEntity
  8
30
 62
     0
100
AcDbMText
 10
1269.108070658998
 20
359.7457460163929
 30
0.0
 40
10.0
 41
0.0
 71
     5
 72
     1
  1
\A1;25 
 11
0.0000000000000001
 21
1.0
 31
0.0
 73
     1
 44
1.0
1001
ACAD
1000
MTEXTBEGIN
1070
    73
1070
     1
1070
    44
1040
1.0
1070
    74
1070
     0
1000
MTEXTEND
  0
INSERT
  5
E4F4
330
CE52
100
AcDbEntity
  8
30
 62
     0
370
    -2
100
AcDbBlockReference
  2
_Open
 10
1277.108070658999
 20
372.5000000000002
 30
0.0
 41
5.0
 42
5.0
 43
5.0
 50
90.0
  0
INSERT
  5
E4F5
330
CE52
100
AcDbEntity
  8
30
 62
     0
370
    -2
100
AcDbBlockReference
  2
_Open
 10
1277.108070658999
 20
347.5000000000002
 30
0.0
 41
5.0
 42
5.0
 43
5.0
 50
270.0
  0
POINT
  5
E4F6
330
CE52
100
AcDbEntity
  8
Defpoints
 62
     0
100
AcDbPoint
 10
1178.0
 20
372.5000000000002
 30
0.0
  0
POINT
  5
E4F7
330
CE52
100
AcDbEntity
  8
Defpoints
 62
     0
100
AcDbPoint
 10
1178.0
 20
347.5000000000002
 30
0.0
  0
POINT
  5
E4F8
330
CE52
100
AcDbEntity
  8
Defpoints
 62
     0
100
AcDbPoint
 10
1277.108070658999
 20
347.5000000000002
 30
0.0
  0
ENDBLK
  5
CE5C
330
CE52
100
AcDbEntity
  8
0
100
AcDbBlockEnd
  0
BLOCK
  5
CE66
330
CE5D
100
AcDbEntity
  8
0
100
AcDbBlockBegin
  2
*D35
 70
     1
 10
0.0
 20
0.0
 30
0.0
  3
*D35
  1

  0
LINE
  5
E4CA
330
CE5D
100
AcDbEntity
  8
30
 62
     0
370
    -2
100
AcDbLine
 10
1188.0
 20
322.5000000000001
 30
0.0
 11
1278.108070658999
 21
322.5000000000001
 31
0.0
  0
LINE
  5
E4CB
330
CE5D
100
AcDbEntity
  8
30
 62
     0
370
    -2
100
AcDbLine
 10
1188.0
 20
347.5000000000002
 30
0.0
 11
1278.108070658999
 21
347.5000000000002
 31
0.0
  0
LINE
  5
E4CC
330
CE5D
100
AcDbEntity
  8
30
 62
     0
370
    -2
100
AcDbLine
 10
1277.108070658999
 20
327.5000000000001
 30
0.0
 11
1277.108070658999
 21
342.5000000000001
 31
0.0
  0
MTEXT
  5
E4CD
330
CE5D
100
AcDbEntity
  8
30
 62
     0
100
AcDbMText
 10
1269.108070658998
 20
335.0383979972008
 30
0.0
 40
10.0
 41
0.0
 71
     5
 72
     1
  1
\A1;25 
 11
0.0000000000000001
 21
1.0
 31
0.0
 73
     1
 44
1.0
1001
ACAD
1000
MTEXTBEGIN
1070
    73
1070
     1
1070
    44
1040
1.0
1070
    74
1070
     0
1000
MTEXTEND
  0
INSERT
  5
E4CE
330
CE5D
100
AcDbEntity
  8
30
 62
     0
370
    -2
100
AcDbBlockReference
  2
_Open
 10
1277.108070658999
 20
322.5000000000001
 30
0.0
 41
5.0
 42
5.0
 43
5.0
 50
270.0
  0
INSERT
  5
E4CF
330
CE5D
100
AcDbEntity
  8
30
 62
     0
370
    -2
100
AcDbBlockReference
  2
_Open
 10
1277.108070658999
 20
347.5000000000002
 30
0.0
 41
5.0
 42
5.0
 43
5.0
 50
90.0
  0
POINT
  5
E4D0
330
CE5D
100
AcDbEntity
  8
Defpoints
 62
     0
100
AcDbPoint
 10
1178.0
 20
322.5000000000001
 30
0.0
  0
POINT
  5
E4D1
330
CE5D
100
AcDbEntity
  8
Defpoints
 62
     0
100
AcDbPoint
 10
1178.0
 20
347.5000000000002
 30
0.0
  0
POINT
  5
E4D2
330
CE5D
100
AcDbEntity
  8
Defpoints
 62
     0
100
AcDbPoint
 10
1277.108070658999
 20
347.5000000000002
 30
0.0
  0
ENDBLK
  5
CE67
330
CE5D
100
AcDbEntity
  8
0
100
AcDbBlockEnd
  0
BLOCK
  5
CE71
330
CE68
100
AcDbEntity
  8
0
100
AcDbBlockBegin
  2
*D36
 70
     1
 10
0.0
 20
0.0
 30
0.0
  3
*D36
  1

  0
LINE
  5
E4D3
330
CE68
100
AcDbEntity
  8
30
 62
     0
370
    -2
100
AcDbLine
 10
1188.0
 20
297.5000000000001
 30
0.0
 11
1278.108070658999
 21
297.5000000000001
 31
0.0
  0
LINE
  5
E4D4
330
CE68
100
AcDbEntity
  8
30
 62
     0
370
    -2
100
AcDbLine
 10
1188.0
 20
322.5000000000001
 30
0.0
 11
1278.108070658999
 21
322.5000000000001
 31
0.0
  0
LINE
  5
E4D5
330
CE68
100
AcDbEntity
  8
30
 62
     0
370
    -2
100
AcDbLine
 10
1277.108070658999
 20
302.5000000000001
 30
0.0
 11
1277.108070658999
 21
317.5000000000001
 31
0.0
  0
MTEXT
  5
E4D6
330
CE68
100
AcDbEntity
  8
30
 62
     0
100
AcDbMText
 10
1269.108070658998
 20
309.5589531150668
 30
0.0
 40
10.0
 41
0.0
 71
     5
 72
     1
  1
\A1;25 
 11
0.0000000000000001
 21
1.0
 31
0.0
 73
     1
 44
1.0
1001
ACAD
1000
MTEXTBEGIN
1070
    73
1070
     1
1070
    44
1040
1.0
1070
    74
1070
     0
1000
MTEXTEND
  0
INSERT
  5
E4D7
330
CE68
100
AcDbEntity
  8
30
 62
     0
370
    -2
100
AcDbBlockReference
  2
_Open
 10
1277.108070658999
 20
297.5000000000001
 30
0.0
 41
5.0
 42
5.0
 43
5.0
 50
270.0
  0
INSERT
  5
E4D8
330
CE68
100
AcDbEntity
  8
30
 62
     0
370
    -2
100
AcDbBlockReference
  2
_Open
 10
1277.108070658999
 20
322.5000000000001
 30
0.0
 41
5.0
 42
5.0
 43
5.0
 50
90.0
  0
POINT
  5
E4D9
330
CE68
100
AcDbEntity
  8
Defpoints
 62
     0
100
AcDbPoint
 10
1178.0
 20
297.5000000000001
 30
0.0
  0
POINT
  5
E4DA
330
CE68
100
AcDbEntity
  8
Defpoints
 62
     0
100
AcDbPoint
 10
1178.0
 20
322.5000000000001
 30
0.0
  0
POINT
  5
E4DB
330
CE68
100
AcDbEntity
  8
Defpoints
 62
     0
100
AcDbPoint
 10
1277.108070658999
 20
322.5000000000001
 30
0.0
  0
ENDBLK
  5
CE72
330
CE68
100
AcDbEntity
  8
0
100
AcDbBlockEnd
  0
BLOCK
  5
CE7D
330
CE73
100
AcDbEntity
  8
0
100
AcDbBlockBegin
  2
*D37
 70
     1
 10
0.0
 20
0.0
 30
0.0
  3
*D37
  1

  0
LINE
  5
E4DC
330
CE73
100
AcDbEntity
  8
30
 62
     0
370
    -2
100
AcDbLine
 10
1188.0
 20
297.5000000000001
 30
0.0
 11
1277.779706835
 21
297.5000000000001
 31
0.0
  0
LINE
  5
E4DD
330
CE73
100
AcDbEntity
  8
30
 62
     0
370
    -2
100
AcDbLine
 10
1203.0
 20
285.0000000000001
 30
0.0
 11
1277.779706835
 21
285.0000000000001
 31
0.0
  0
LINE
  5
E4DE
330
CE73
100
AcDbEntity
  8
30
 62
     0
370
    -2
100
AcDbLine
 10
1276.779706835
 20
294.5000000000001
 30
0.0
 11
1276.779706835
 21
288.0000000000001
 31
0.0
  0
LINE
  5
E4DF
330
CE73
100
AcDbEntity
  8
30
 62
     0
370
    -2
100
AcDbLine
 10
1276.779706835
 20
243.7610306990543
 30
0.0
 11
1276.779706835
 21
285.0000000000001
 31
0.0
  0
MTEXT
  5
E4E0
330
CE73
100
AcDbEntity
  8
30
 62
     0
100
AcDbMText
 10
1268.779706835
 20
261.0467449847689
 30
0.0
 40
10.0
 41
0.0
 71
     5
 72
     1
  1
\A1;12.5
 11
0.0000000000000001
 21
1.0
 31
0.0
 73
     1
 44
1.0
1001
ACAD
1000
MTEXTBEGIN
1070
    73
1070
     1
1070
    44
1040
1.0
1070
    74
1070
     0
1000
MTEXTEND
  0
INSERT
  5
E4E1
330
CE73
100
AcDbEntity
  8
30
 62
     0
370
    -2
100
AcDbBlockReference
  2
_Open
 10
1276.779706835
 20
297.5000000000001
 30
0.0
 41
3.0
 42
3.0
 43
3.0
 50
90.0
  0
INSERT
  5
E4E2
330
CE73
100
AcDbEntity
  8
30
 62
     0
370
    -2
100
AcDbBlockReference
  2
_Open
 10
1276.779706835
 20
285.0000000000001
 30
0.0
 41
3.0
 42
3.0
 43
3.0
 50
270.0
  0
POINT
  5
E4E3
330
CE73
100
AcDbEntity
  8
Defpoints
 62
     0
100
AcDbPoint
 10
1178.0
 20
297.5000000000001
 30
0.0
  0
POINT
  5
E4E4
330
CE73
100
AcDbEntity
  8
Defpoints
 62
     0
100
AcDbPoint
 10
1193.0
 20
285.0000000000001
 30
0.0
  0
POINT
  5
E4E5
330
CE73
100
AcDbEntity
  8
Defpoints
 62
     0
100
AcDbPoint
 10
1276.779706835
 20
285.0000000000001
 30
0.0
  0
ENDBLK
  5
CE7E
330
CE73
100
AcDbEntity
  8
0
100
AcDbBlockEnd
  0
BLOCK
  5
CEAE
330
CEA4
100
AcDbEntity
  8
0
100
AcDbBlockBegin
  2
*D38
 70
     1
 10
0.0
 20
0.0
 30
0.0
  3
*D38
  1

  0
LINE
  5
E3D6
330
CEA4
100
AcDbEntity
  8
30
 62
     0
370
    -2
100
AcDbLine
 10
2000.0
 20
538.6787719999999
 30
0.0
 11
2000.0
 21
561.1584283479999
 31
0.0
  0
LINE
  5
E3D7
330
CEA4
100
AcDbEntity
  8
30
 62
     0
370
    -2
100
AcDbLine
 10
2130.0
 20
527.890747311
 30
0.0
 11
2130.0
 21
561.1584283479999
 31
0.0
  0
LINE
  5
E3D8
330
CEA4
100
AcDbEntity
  8
30
 62
     0
370
    -2
100
AcDbLine
 10
2005.0
 20
560.1584283479999
 30
0.0
 11
2125.0
 21
560.1584283479999
 31
0.0
  0
MTEXT
  5
E3D9
330
CEA4
100
AcDbEntity
  8
30
 62
     0
100
AcDbMText
 10
2060.714358372
 20
568.1584283479999
 30
0.0
 40
10.0
 41
0.0
 71
     5
 72
     1
  1
\A1;130
 73
     1
 44
1.0
1001
ACAD
1000
MTEXTBEGIN
1070
    73
1070
     1
1070
    44
1040
1.0
1070
    74
1070
     0
1000
MTEXTEND
  0
INSERT
  5
E3DA
330
CEA4
100
AcDbEntity
  8
30
 62
     0
370
    -2
100
AcDbBlockReference
  2
_Open
 10
2000.0
 20
560.1584283479999
 30
0.0
 41
5.0
 42
5.0
 43
5.0
 50
180.0
  0
INSERT
  5
E3DB
330
CEA4
100
AcDbEntity
  8
30
 62
     0
370
    -2
100
AcDbBlockReference
  2
_Open
 10
2130.0
 20
560.1584283479999
 30
0.0
 41
5.0
 42
5.0
 43
5.0
  0
POINT
  5
E3DC
330
CEA4
100
AcDbEntity
  8
Defpoints
 62
     0
100
AcDbPoint
 10
2000.0
 20
528.6787719999998
 30
0.0
  0
POINT
  5
E3DD
330
CEA4
100
AcDbEntity
  8
Defpoints
 62
     0
100
AcDbPoint
 10
2130.0
 20
517.890747311
 30
0.0
  0
POINT
  5
E3DE
330
CEA4
100
AcDbEntity
  8
Defpoints
 62
     0
100
AcDbPoint
 10
2130.0
 20
560.1584283479999
 30
0.0
  0
ENDBLK
  5
CEAF
330
CEA4
100
AcDbEntity
  8
0
100
AcDbBlockEnd
  0
BLOCK
  5
CEBA
330
CEB0
100
AcDbEntity
  8
0
100
AcDbBlockBegin
  2
*D39
 70
     1
 10
0.0
 20
0.0
 30
0.0
  3
*D39
  1

  0
LINE
  5
E3F2
330
CEB0
100
AcDbEntity
  8
30
 62
     0
370
    -2
100
AcDbLine
 10
1995.0
 20
606.6384337040001
 30
0.0
 11
1995.0
 21
621.7522400419991
 31
0.0
  0
LINE
  5
E3F3
330
CEB0
100
AcDbEntity
  8
30
 62
     0
370
    -2
100
AcDbLine
 10
2000.0
 20
571.1584283479999
 30
0.0
 11
2000.0
 21
621.7522400419991
 31
0.0
  0
LINE
  5
E3F4
330
CEB0
100
AcDbEntity
  8
30
 62
     0
370
    -2
100
AcDbLine
 10
2020.281030837911
 20
620.7522400419991
 30
0.0
 11
2000.0
 21
620.7522400419991
 31
0.0
  0
MTEXT
  5
E3F5
330
CEB0
100
AcDbEntity
  8
30
 62
     0
100
AcDbMText
 10
2013.947697504578
 20
628.7522400419991
 30
0.0
 40
10.0
 41
0.0
 71
     5
 72
     1
  1
\A1;5
 73
     1
 44
1.0
1001
ACAD
1000
MTEXTBEGIN
1070
    73
1070
     1
1070
    44
1040
1.0
1070
    74
1070
     0
1000
MTEXTEND
  0
LINE
  5
E3F6
330
CEB0
100
AcDbEntity
  8
30
 62
     0
370
    -2
100
AcDbLine
 10
1995.0
 20
620.7522400419991
 30
0.0
 11
2000.0
 21
620.7522400419991
 31
0.0
  0
LINE
  5
E3F7
330
CEB0
100
AcDbEntity
  8
30
 62
     0
370
    -2
100
AcDbLine
 10
1995.0
 20
620.7522400419991
 30
0.0
 11
2000.0
 21
620.7522400419991
 31
0.0
  0
POINT
  5
E3F8
330
CEB0
100
AcDbEntity
  8
Defpoints
 62
     0
100
AcDbPoint
 10
1995.0
 20
596.6384337040001
 30
0.0
  0
POINT
  5
E3F9
330
CEB0
100
AcDbEntity
  8
Defpoints
 62
     0
100
AcDbPoint
 10
2000.0
 20
561.1584283479999
 30
0.0
  0
POINT
  5
E3FA
330
CEB0
100
AcDbEntity
  8
Defpoints
 62
     0
100
AcDbPoint
 10
2000.0
 20
620.7522400419991
 30
0.0
  0
ENDBLK
  5
CEBB
330
CEB0
100
AcDbEntity
  8
0
100
AcDbBlockEnd
  0
BLOCK
  5
D15B
330
D151
100
AcDbEntity
  8
0
100
AcDbBlockBegin
  2
*D40
 70
     1
 10
0.0
 20
0.0
 30
0.0
  3
*D40
  1

  0
LINE
  5
E3DF
330
D151
100
AcDbEntity
  8
30
 62
     0
370
    -2
100
AcDbLine
 10
1860.0
 20
275.0
 30
0.0
 11
1860.0
 21
259.7309019299991
 31
0.0
  0
LINE
  5
E3E0
330
D151
100
AcDbEntity
  8
30
 62
     0
370
    -2
100
AcDbLine
 10
1880.0
 20
275.0
 30
0.0
 11
1880.0
 21
259.7309019299991
 31
0.0
  0
LINE
  5
E3E1
330
D151
100
AcDbEntity
  8
30
 62
     0
370
    -2
100
AcDbLine
 10
1865.0
 20
260.7309019299991
 30
0.0
 11
1875.0
 21
260.7309019299991
 31
0.0
  0
LINE
  5
E3E2
330
D151
100
AcDbEntity
  8
30
 62
     0
370
    -2
100
AcDbLine
 10
1824.404761904762
 20
260.7309019299991
 30
0.0
 11
1860.0
 21
260.7309019299991
 31
0.0
  0
MTEXT
  5
E3E3
330
D151
100
AcDbEntity
  8
30
 62
     0
100
AcDbMText
 10
1835.5
 20
268.7309019299991
 30
0.0
 40
10.0
 41
0.0
 71
     5
 72
     1
  1
\A1;20
 73
     1
 44
1.0
1001
ACAD
1000
MTEXTBEGIN
1070
    73
1070
     1
1070
    44
1040
1.0
1070
    74
1070
     0
1000
MTEXTEND
  0
INSERT
  5
E3E4
330
D151
100
AcDbEntity
  8
30
 62
     0
370
    -2
100
AcDbBlockReference
  2
_Open
 10
1860.0
 20
260.7309019299991
 30
0.0
 41
5.0
 42
5.0
 43
5.0
 50
180.0
  0
INSERT
  5
E3E5
330
D151
100
AcDbEntity
  8
30
 62
     0
370
    -2
100
AcDbBlockReference
  2
_Open
 10
1880.0
 20
260.7309019299991
 30
0.0
 41
5.0
 42
5.0
 43
5.0
  0
POINT
  5
E3E6
330
D151
100
AcDbEntity
  8
Defpoints
 62
     0
100
AcDbPoint
 10
1860.0
 20
285.0000000000001
 30
0.0
  0
POINT
  5
E3E7
330
D151
100
AcDbEntity
  8
Defpoints
 62
     0
100
AcDbPoint
 10
1880.0
 20
285.0000000000001
 30
0.0
  0
POINT
  5
E3E8
330
D151
100
AcDbEntity
  8
Defpoints
 62
     0
100
AcDbPoint
 10
1880.0
 20
260.7309019299991
 30
0.0
  0
ENDBLK
  5
D15C
330
D151
100
AcDbEntity
  8
0
100
AcDbBlockEnd
  0
BLOCK
  5
D18E
330
D184
100
AcDbEntity
  8
0
100
AcDbBlockBegin
  2
*D41
 70
     1
 10
0.0
 20
0.0
 30
0.0
  3
*D41
  1

  0
LINE
  5
E3E9
330
D184
100
AcDbEntity
  8
30
 62
     0
370
    -2
100
AcDbLine
 10
1870.0
 20
538.6787719999999
 30
0.0
 11
1870.0
 21
561.1584283479999
 31
0.0
  0
LINE
  5
E3EA
330
D184
100
AcDbEntity
  8
30
 62
     0
370
    -2
100
AcDbLine
 10
2000.0
 20
527.890747311
 30
0.0
 11
2000.0
 21
561.1584283479999
 31
0.0
  0
LINE
  5
E3EB
330
D184
100
AcDbEntity
  8
30
 62
     0
370
    -2
100
AcDbLine
 10
1875.0
 20
560.1584283479999
 30
0.0
 11
1995.0
 21
560.1584283479999
 31
0.0
  0
MTEXT
  5
E3EC
330
D184
100
AcDbEntity
  8
30
 62
     0
100
AcDbMText
 10
1930.714358371999
 20
568.1584283479999
 30
0.0
 40
10.0
 41
0.0
 71
     5
 72
     1
  1
\A1;130
 73
     1
 44
1.0
1001
ACAD
1000
MTEXTBEGIN
1070
    73
1070
     1
1070
    44
1040
1.0
1070
    74
1070
     0
1000
MTEXTEND
  0
INSERT
  5
E3ED
330
D184
100
AcDbEntity
  8
30
 62
     0
370
    -2
100
AcDbBlockReference
  2
_Open
 10
1870.0
 20
560.1584283479999
 30
0.0
 41
5.0
 42
5.0
 43
5.0
 50
180.0
  0
INSERT
  5
E3EE
330
D184
100
AcDbEntity
  8
30
 62
     0
370
    -2
100
AcDbBlockReference
  2
_Open
 10
2000.0
 20
560.1584283479999
 30
0.0
 41
5.0
 42
5.0
 43
5.0
  0
POINT
  5
E3EF
330
D184
100
AcDbEntity
  8
Defpoints
 62
     0
100
AcDbPoint
 10
1870.0
 20
528.6787719999998
 30
0.0
  0
POINT
  5
E3F0
330
D184
100
AcDbEntity
  8
Defpoints
 62
     0
100
AcDbPoint
 10
2000.0
 20
517.890747311
 30
0.0
  0
POINT
  5
E3F1
330
D184
100
AcDbEntity
  8
Defpoints
 62
     0
100
AcDbPoint
 10
2000.0
 20
560.1584283479999
 30
0.0
  0
ENDBLK
  5
D18F
330
D184
100
AcDbEntity
  8
0
100
AcDbBlockEnd
  0
BLOCK
  5
D2F6
330
D2EC
100
AcDbEntity
  8
0
100
AcDbBlockBegin
  2
*D42
 70
     1
 10
0.0
 20
0.0
 30
0.0
  3
*D42
  1

  0
LINE
  5
E428
330
D2EC
100
AcDbEntity
  8
30
 62
     0
370
    -2
100
AcDbLine
 10
-864.9999999999996
 20
365.0000000000007
 30
0.0
 11
-775.4934424109991
 21
365.0000000000007
 31
0.0
  0
LINE
  5
E429
330
D2EC
100
AcDbEntity
  8
30
 62
     0
370
    -2
100
AcDbLine
 10
-864.9999999999996
 20
30.00000000000071
 30
0.0
 11
-775.4934424109992
 21
30.00000000000069
 31
0.0
  0
LINE
  5
E42A
330
D2EC
100
AcDbEntity
  8
30
 62
     0
370
    -2
100
AcDbLine
 10
-776.4934424109991
 20
360.0000000000006
 30
0.0
 11
-776.4934424109992
 21
35.00000000000069
 31
0.0
  0
MTEXT
  5
E42B
330
D2EC
100
AcDbEntity
  8
30
 62
     0
100
AcDbMText
 10
-784.4934424109992
 20
211.8006790989996
 30
0.0
 40
10.0
 41
0.0
 71
     5
 72
     1
  1
\A1;335
 11
0.0000000000000001
 21
1.0
 31
0.0
 73
     1
 44
1.0
1001
ACAD
1000
MTEXTBEGIN
1070
    73
1070
     1
1070
    44
1040
1.0
1070
    74
1070
     0
1000
MTEXTEND
  0
INSERT
  5
E42C
330
D2EC
100
AcDbEntity
  8
30
 62
     0
370
    -2
100
AcDbBlockReference
  2
_Open
 10
-776.4934424109991
 20
365.0000000000007
 30
0.0
 41
5.0
 42
5.0
 43
5.0
 50
90.0
  0
INSERT
  5
E42D
330
D2EC
100
AcDbEntity
  8
30
 62
     0
370
    -2
100
AcDbBlockReference
  2
_Open
 10
-776.4934424109992
 20
30.00000000000069
 30
0.0
 41
5.0
 42
5.0
 43
5.0
 50
270.0
  0
POINT
  5
E42E
330
D2EC
100
AcDbEntity
  8
Defpoints
 62
     0
100
AcDbPoint
 10
-874.9999999999996
 20
365.0000000000007
 30
0.0
  0
POINT
  5
E42F
330
D2EC
100
AcDbEntity
  8
Defpoints
 62
     0
100
AcDbPoint
 10
-874.9999999999996
 20
30.00000000000072
 30
0.0
  0
POINT
  5
E430
330
D2EC
100
AcDbEntity
  8
Defpoints
 62
     0
100
AcDbPoint
 10
-776.4934424109992
 20
30.00000000000069
 30
0.0
  0
ENDBLK
  5
D2F7
330
D2EC
100
AcDbEntity
  8
0
100
AcDbBlockEnd
  0
BLOCK
  5
D302
330
D2F8
100
AcDbEntity
  8
0
100
AcDbBlockBegin
  2
*D43
 70
     1
 10
0.0
 20
0.0
 30
0.0
  3
*D43
  1

  0
LINE
  5
E431
330
D2F8
100
AcDbEntity
  8
30
 62
     0
370
    -2
100
AcDbLine
 10
-771.2425531919998
 20
0.0000000000007308
 30
0.0
 11
-599.7068435500907
 21
0.0000000000006822
 31
0.0
  0
LINE
  5
E432
330
D2F8
100
AcDbEntity
  8
30
 62
     0
370
    -2
100
AcDbLine
 10
-696.9999999999995
 20
550.0000000000007
 30
0.0
 11
-599.7068435500907
 21
550.0000000000007
 31
0.0
  0
LINE
  5
E433
330
D2F8
100
AcDbEntity
  8
30
 62
     0
370
    -2
100
AcDbLine
 10
-600.7068435500907
 20
5.000000000000682
 30
0.0
 11
-600.7068435500907
 21
545.0000000000007
 31
0.0
  0
MTEXT
  5
E434
330
D2F8
100
AcDbEntity
  8
30
 62
     0
100
AcDbMText
 10
-608.7068435500914
 20
272.7711496570003
 30
0.0
 40
10.0
 41
0.0
 71
     5
 72
     1
  1
\A1;550
 11
0.0000000000000001
 21
1.0
 31
0.0
 73
     1
 44
1.0
1001
ACAD
1000
MTEXTBEGIN
1070
    73
1070
     1
1070
    44
1040
1.0
1070
    74
1070
     0
1000
MTEXTEND
  0
INSERT
  5
E435
330
D2F8
100
AcDbEntity
  8
30
 62
     0
370
    -2
100
AcDbBlockReference
  2
_Open
 10
-600.7068435500907
 20
0.0000000000006825
 30
0.0
 41
5.0
 42
5.0
 43
5.0
 50
270.0
  0
INSERT
  5
E436
330
D2F8
100
AcDbEntity
  8
30
 62
     0
370
    -2
100
AcDbBlockReference
  2
_Open
 10
-600.7068435500907
 20
550.0000000000007
 30
0.0
 41
5.0
 42
5.0
 43
5.0
 50
90.0
  0
POINT
  5
E437
330
D2F8
100
AcDbEntity
  8
Defpoints
 62
     0
100
AcDbPoint
 10
-781.2425531919998
 20
0.0000000000007336
 30
0.0
  0
POINT
  5
E438
330
D2F8
100
AcDbEntity
  8
Defpoints
 62
     0
100
AcDbPoint
 10
-706.9999999999995
 20
550.0000000000007
 30
0.0
  0
POINT
  5
E439
330
D2F8
100
AcDbEntity
  8
Defpoints
 62
     0
100
AcDbPoint
 10
-600.7068435500907
 20
550.0000000000007
 30
0.0
  0
ENDBLK
  5
D303
330
D2F8
100
AcDbEntity
  8
0
100
AcDbBlockEnd
  0
BLOCK
  5
D30E
330
D304
100
AcDbEntity
  8
0
100
AcDbBlockBegin
  2
*D44
 70
     1
 10
0.0
 20
0.0
 30
0.0
  3
*D44
  1

  0
LINE
  5
E43A
330
D304
100
AcDbEntity
  8
30
 62
     0
370
    -2
100
AcDbLine
 10
-999.9999999999996
 20
-102.5642242800001
 30
0.0
 11
-999.9999999999996
 21
-186.8246808509989
 31
0.0
  0
LINE
  5
E43B
330
D304
100
AcDbEntity
  8
30
 62
     0
370
    -2
100
AcDbLine
 10
-1292.999999999998
 20
-109.9999999999992
 30
0.0
 11
-1292.999999999998
 21
-186.8246808509989
 31
0.0
  0
LINE
  5
E43C
330
D304
100
AcDbEntity
  8
30
 62
     0
370
    -2
100
AcDbLine
 10
-1004.999999999999
 20
-185.8246808509989
 30
0.0
 11
-1287.999999999998
 21
-185.8246808509989
 31
0.0
  0
MTEXT
  5
E43D
330
D304
100
AcDbEntity
  8
30
 62
     0
100
AcDbMText
 10
-1140.377259470997
 20
-177.8246808509989
 30
0.0
 40
10.0
 41
0.0
 71
     5
 72
     1
  1
\A1;293
 73
     1
 44
1.0
1001
ACAD
1000
MTEXTBEGIN
1070
    73
1070
     1
1070
    44
1040
1.0
1070
    74
1070
     0
1000
MTEXTEND
  0
INSERT
  5
E43E
330
D304
100
AcDbEntity
  8
30
 62
     0
370
    -2
100
AcDbBlockReference
  2
_Open
 10
-999.9999999999996
 20
-185.8246808509989
 30
0.0
 41
5.0
 42
5.0
 43
5.0
  0
INSERT
  5
E43F
330
D304
100
AcDbEntity
  8
30
 62
     0
370
    -2
100
AcDbBlockReference
  2
_Open
 10
-1292.999999999998
 20
-185.8246808509989
 30
0.0
 41
5.0
 42
5.0
 43
5.0
 50
180.0
  0
POINT
  5
E440
330
D304
100
AcDbEntity
  8
Defpoints
 62
     0
100
AcDbPoint
 10
-999.9999999999996
 20
-92.56422428000012
 30
0.0
  0
POINT
  5
E441
330
D304
100
AcDbEntity
  8
Defpoints
 62
     0
100
AcDbPoint
 10
-1292.999999999998
 20
-99.99999999999928
 30
0.0
  0
POINT
  5
E442
330
D304
100
AcDbEntity
  8
Defpoints
 62
     0
100
AcDbPoint
 10
-1292.999999999998
 20
-185.8246808509989
 30
0.0
  0
ENDBLK
  5
D30F
330
D304
100
AcDbEntity
  8
0
100
AcDbBlockEnd
  0
BLOCK
  5
D31A
330
D310
100
AcDbEntity
  8
0
100
AcDbBlockBegin
  2
*D45
 70
     1
 10
0.0
 20
0.0
 30
0.0
  3
*D45
  1

  0
LINE
  5
E443
330
D310
100
AcDbEntity
  8
30
 62
     0
370
    -2
100
AcDbLine
 10
-999.9999999999996
 20
-102.5642242800001
 30
0.0
 11
-999.9999999999996
 21
-187.1672530659994
 31
0.0
  0
LINE
  5
E444
330
D310
100
AcDbEntity
  8
30
 62
     0
370
    -2
100
AcDbLine
 10
-706.9999999999995
 20
-109.9999999999992
 30
0.0
 11
-706.9999999999995
 21
-187.1672530659994
 31
0.0
  0
LINE
  5
E445
330
D310
100
AcDbEntity
  8
30
 62
     0
370
    -2
100
AcDbLine
 10
-994.9999999999997
 20
-186.1672530659994
 30
0.0
 11
-711.9999999999995
 21
-186.1672530659994
 31
0.0
  0
MTEXT
  5
E446
330
D310
100
AcDbEntity
  8
30
 62
     0
100
AcDbMText
 10
-845.9582978729999
 20
-178.1672530659994
 30
0.0
 40
10.0
 41
0.0
 71
     5
 72
     1
  1
\A1;293
 73
     1
 44
1.0
1001
ACAD
1000
MTEXTBEGIN
1070
    73
1070
     1
1070
    44
1040
1.0
1070
    74
1070
     0
1000
MTEXTEND
  0
INSERT
  5
E447
330
D310
100
AcDbEntity
  8
30
 62
     0
370
    -2
100
AcDbBlockReference
  2
_Open
 10
-999.9999999999996
 20
-186.1672530659994
 30
0.0
 41
5.0
 42
5.0
 43
5.0
 50
180.0
  0
INSERT
  5
E448
330
D310
100
AcDbEntity
  8
30
 62
     0
370
    -2
100
AcDbBlockReference
  2
_Open
 10
-706.9999999999995
 20
-186.1672530659994
 30
0.0
 41
5.0
 42
5.0
 43
5.0
  0
POINT
  5
E449
330
D310
100
AcDbEntity
  8
Defpoints
 62
     0
100
AcDbPoint
 10
-999.9999999999996
 20
-92.56422428000012
 30
0.0
  0
POINT
  5
E44A
330
D310
100
AcDbEntity
  8
Defpoints
 62
     0
100
AcDbPoint
 10
-706.9999999999995
 20
-99.99999999999928
 30
0.0
  0
POINT
  5
E44B
330
D310
100
AcDbEntity
  8
Defpoints
 62
     0
100
AcDbPoint
 10
-706.9999999999995
 20
-186.1672530659994
 30
0.0
  0
ENDBLK
  5
D31B
330
D310
100
AcDbEntity
  8
0
100
AcDbBlockEnd
  0
BLOCK
  5
D327
330
D31C
100
AcDbEntity
  8
0
100
AcDbBlockBegin
  2
*D46
 70
     1
 10
0.0
 20
0.0
 30
0.0
  3
*D46
  1

  0
LINE
  5
E44C
330
D31C
100
AcDbEntity
  8
30
 62
     0
370
    -2
100
AcDbLine
 10
-864.9999999999996
 20
30.00000000000071
 30
0.0
 11
-775.4934424109992
 21
30.00000000000069
 31
0.0
  0
LINE
  5
E44D
330
D31C
100
AcDbEntity
  8
30
 62
     0
370
    -2
100
AcDbLine
 10
-841.2324772903497
 20
0.0000000000007308
 30
0.0
 11
-775.4934424109992
 21
0.0000000000007121
 31
0.0
  0
LINE
  5
E44E
330
D31C
100
AcDbEntity
  8
30
 62
     0
370
    -2
100
AcDbLine
 10
-776.4934424109992
 20
25.00000000000069
 30
0.0
 11
-776.4934424109992
 21
5.000000000000711
 31
0.0
  0
LINE
  5
E44F
330
D31C
100
AcDbEntity
  8
30
 62
     0
370
    -2
100
AcDbLine
 10
-776.4934424109992
 20
-41.62963720623731
 30
0.0
 11
-776.4934424109992
 21
0.0000000000007124
 31
0.0
  0
MTEXT
  5
E450
330
D31C
100
AcDbEntity
  8
30
 62
     0
100
AcDbMText
 10
-784.4934424109992
 20
-30.53439911099934
 30
0.0
 40
10.0
 41
0.0
 71
     5
 72
     1
  1
\A1;30
 11
0.0000000000000001
 21
1.0
 31
0.0
 73
     1
 44
1.0
1001
ACAD
1000
MTEXTBEGIN
1070
    73
1070
     1
1070
    44
1040
1.0
1070
    74
1070
     0
1000
MTEXTEND
  0
INSERT
  5
E451
330
D31C
100
AcDbEntity
  8
30
 62
     0
370
    -2
100
AcDbBlockReference
  2
_Open
 10
-776.4934424109992
 20
30.00000000000069
 30
0.0
 41
5.0
 42
5.0
 43
5.0
 50
90.0
  0
INSERT
  5
E452
330
D31C
100
AcDbEntity
  8
30
 62
     0
370
    -2
100
AcDbBlockReference
  2
_Open
 10
-776.4934424109992
 20
0.0000000000007124
 30
0.0
 41
5.0
 42
5.0
 43
5.0
 50
270.0
  0
POINT
  5
E453
330
D31C
100
AcDbEntity
  8
Defpoints
 62
     0
100
AcDbPoint
 10
-874.9999999999996
 20
30.00000000000072
 30
0.0
  0
POINT
  5
E454
330
D31C
100
AcDbEntity
  8
Defpoints
 62
     0
100
AcDbPoint
 10
-851.2324772903497
 20
0.0000000000007336
 30
0.0
  0
POINT
  5
E455
330
D31C
100
AcDbEntity
  8
Defpoints
 62
     0
100
AcDbPoint
 10
-776.4934424109992
 20
0.0000000000007124
 30
0.0
  0
ENDBLK
  5
D328
330
D31C
100
AcDbEntity
  8
0
100
AcDbBlockEnd
  0
BLOCK
  5
D333
330
D329
100
AcDbEntity
  8
0
100
AcDbBlockBegin
  2
*D47
 70
     1
 10
0.0
 20
0.0
 30
0.0
  3
*D47
  1

  0
LINE
  5
E456
330
D329
100
AcDbEntity
  8
30
 62
     0
370
    -2
100
AcDbLine
 10
-1124.999999999998
 20
20.00000000000072
 30
0.0
 11
-1124.999999999998
 21
-69.34452665799897
 31
0.0
  0
LINE
  5
E457
330
D329
100
AcDbEntity
  8
30
 62
     0
370
    -2
100
AcDbLine
 10
-874.9999999999996
 20
20.00000000000072
 30
0.0
 11
-874.9999999999996
 21
-69.34452665799897
 31
0.0
  0
LINE
  5
E458
330
D329
100
AcDbEntity
  8
30
 62
     0
370
    -2
100
AcDbLine
 10
-1119.999999999998
 20
-68.34452665799897
 30
0.0
 11
-879.9999999999997
 21
-68.34452665799897
 31
0.0
  0
MTEXT
  5
E459
330
D329
100
AcDbEntity
  8
30
 62
     0
100
AcDbMText
 10
-996.0432078779994
 20
-60.34452665799896
 30
0.0
 40
10.0
 41
0.0
 71
     5
 72
     1
  1
\A1;250
 73
     1
 44
1.0
1001
ACAD
1000
MTEXTBEGIN
1070
    73
1070
     1
1070
    44
1040
1.0
1070
    74
1070
     0
1000
MTEXTEND
  0
INSERT
  5
E45A
330
D329
100
AcDbEntity
  8
30
 62
     0
370
    -2
100
AcDbBlockReference
  2
_Open
 10
-1124.999999999998
 20
-68.34452665799897
 30
0.0
 41
5.0
 42
5.0
 43
5.0
 50
180.0
  0
INSERT
  5
E45B
330
D329
100
AcDbEntity
  8
30
 62
     0
370
    -2
100
AcDbBlockReference
  2
_Open
 10
-874.9999999999996
 20
-68.34452665799897
 30
0.0
 41
5.0
 42
5.0
 43
5.0
  0
POINT
  5
E45C
330
D329
100
AcDbEntity
  8
Defpoints
 62
     0
100
AcDbPoint
 10
-1124.999999999998
 20
30.00000000000072
 30
0.0
  0
POINT
  5
E45D
330
D329
100
AcDbEntity
  8
Defpoints
 62
     0
100
AcDbPoint
 10
-874.9999999999996
 20
30.00000000000072
 30
0.0
  0
POINT
  5
E45E
330
D329
100
AcDbEntity
  8
Defpoints
 62
     0
100
AcDbPoint
 10
-874.9999999999996
 20
-68.34452665799897
 30
0.0
  0
ENDBLK
  5
D334
330
D329
100
AcDbEntity
  8
0
100
AcDbBlockEnd
  0
BLOCK
  5
D33F
330
D335
100
AcDbEntity
  8
0
100
AcDbBlockBegin
  2
*D48
 70
     1
 10
0.0
 20
0.0
 30
0.0
  3
*D48
  1

  0
LINE
  5
E45F
330
D335
100
AcDbEntity
  8
30
 62
     0
370
    -2
100
AcDbLine
 10
-771.2425531919998
 20
0.0000000000007308
 30
0.0
 11
-599.7068435500912
 21
0.0000000000006822
 31
0.0
  0
LINE
  5
E460
330
D335
100
AcDbEntity
  8
30
 62
     0
370
    -2
100
AcDbLine
 10
-696.9999999999995
 20
-99.99999999999928
 30
0.0
 11
-599.7068435500912
 21
-99.99999999999928
 31
0.0
  0
LINE
  5
E461
330
D335
100
AcDbEntity
  8
30
 62
     0
370
    -2
100
AcDbLine
 10
-600.7068435500912
 20
-4.999999999999316
 30
0.0
 11
-600.7068435500912
 21
-94.99999999999928
 31
0.0
  0
MTEXT
  5
E462
330
D335
100
AcDbEntity
  8
30
 62
     0
100
AcDbMText
 10
-608.7068435500914
 20
-48.32949019400047
 30
0.0
 40
10.0
 41
0.0
 71
     5
 72
     1
  1
\A1;100
 11
0.0000000000000001
 21
1.0
 31
0.0
 73
     1
 44
1.0
1001
ACAD
1000
MTEXTBEGIN
1070
    73
1070
     1
1070
    44
1040
1.0
1070
    74
1070
     0
1000
MTEXTEND
  0
INSERT
  5
E463
330
D335
100
AcDbEntity
  8
30
 62
     0
370
    -2
100
AcDbBlockReference
  2
_Open
 10
-600.7068435500912
 20
0.0000000000006825
 30
0.0
 41
5.0
 42
5.0
 43
5.0
 50
90.0
  0
INSERT
  5
E464
330
D335
100
AcDbEntity
  8
30
 62
     0
370
    -2
100
AcDbBlockReference
  2
_Open
 10
-600.7068435500912
 20
-99.99999999999928
 30
0.0
 41
5.0
 42
5.0
 43
5.0
 50
270.0
  0
POINT
  5
E465
330
D335
100
AcDbEntity
  8
Defpoints
 62
     0
100
AcDbPoint
 10
-781.2425531919998
 20
0.0000000000007336
 30
0.0
  0
POINT
  5
E466
330
D335
100
AcDbEntity
  8
Defpoints
 62
     0
100
AcDbPoint
 10
-706.9999999999995
 20
-99.99999999999928
 30
0.0
  0
POINT
  5
E467
330
D335
100
AcDbEntity
  8
Defpoints
 62
     0
100
AcDbPoint
 10
-600.7068435500912
 20
-99.99999999999928
 30
0.0
  0
ENDBLK
  5
D340
330
D335
100
AcDbEntity
  8
0
100
AcDbBlockEnd
  0
BLOCK
  5
D63B
330
D630
100
AcDbEntity
  8
0
100
AcDbBlockBegin
  2
*D49
 70
     1
 10
0.0
 20
0.0
 30
0.0
  3
*D49
  1

  0
LINE
  5
E538
330
D630
100
AcDbEntity
  8
30
 62
     0
370
    -2
100
AcDbLine
 10
1188.0
 20
152.499993742
 30
0.0
 11
1277.779706835
 21
152.499993742
 31
0.0
  0
LINE
  5
E539
330
D630
100
AcDbEntity
  8
30
 62
     0
370
    -2
100
AcDbLine
 10
1203.0
 20
164.999993742
 30
0.0
 11
1277.779706835
 21
164.999993742
 31
0.0
  0
LINE
  5
E53A
330
D630
100
AcDbEntity
  8
30
 62
     0
370
    -2
100
AcDbLine
 10
1276.779706835
 20
155.499993742
 30
0.0
 11
1276.779706835
 21
161.999993742
 31
0.0
  0
LINE
  5
E53B
330
D630
100
AcDbEntity
  8
30
 62
     0
370
    -2
100
AcDbLine
 10
1276.779706835
 20
203.1857799418413
 30
0.0
 11
1276.779706835
 21
164.999993742
 31
0.0
  0
MTEXT
  5
E53C
330
D630
100
AcDbEntity
  8
30
 62
     0
100
AcDbMText
 10
1268.779706835
 20
185.9000656561273
 30
0.0
 40
10.0
 41
0.0
 71
     5
 72
     1
  1
\A1;12.5
 11
0.0000000000000001
 21
1.0
 31
0.0
 73
     1
 44
1.0
1001
ACAD
1000
MTEXTBEGIN
1070
    73
1070
     1
1070
    44
1040
1.0
1070
    74
1070
     0
1000
MTEXTEND
  0
INSERT
  5
E53D
330
D630
100
AcDbEntity
  8
30
 62
     0
370
    -2
100
AcDbBlockReference
  2
_Open
 10
1276.779706835
 20
152.499993742
 30
0.0
 41
3.0
 42
3.0
 43
3.0
 50
270.0
  0
INSERT
  5
E53E
330
D630
100
AcDbEntity
  8
30
 62
     0
370
    -2
100
AcDbBlockReference
  2
_Open
 10
1276.779706835
 20
164.999993742
 30
0.0
 41
3.0
 42
3.0
 43
3.0
 50
90.0
  0
POINT
  5
E53F
330
D630
100
AcDbEntity
  8
Defpoints
 62
     0
100
AcDbPoint
 10
1178.0
 20
152.499993742
 30
0.0
  0
POINT
  5
E540
330
D630
100
AcDbEntity
  8
Defpoints
 62
     0
100
AcDbPoint
 10
1193.0
 20
164.999993742
 30
0.0
  0
POINT
  5
E541
330
D630
100
AcDbEntity
  8
Defpoints
 62
     0
100
AcDbPoint
 10
1276.779706835
 20
164.999993742
 30
0.0
  0
ENDBLK
  5
D63C
330
D630
100
AcDbEntity
  8
0
100
AcDbBlockEnd
  0
BLOCK
  5
D647
330
D63D
100
AcDbEntity
  8
0
100
AcDbBlockBegin
  2
*D50
 70
     1
 10
0.0
 20
0.0
 30
0.0
  3
*D50
  1

  0
LINE
  5
E542
330
D63D
100
AcDbEntity
  8
30
 62
     0
370
    -2
100
AcDbLine
 10
1188.0
 20
152.499993742
 30
0.0
 11
1278.108070658999
 21
152.499993742
 31
0.0
  0
LINE
  5
E543
330
D63D
100
AcDbEntity
  8
30
 62
     0
370
    -2
100
AcDbLine
 10
1188.0
 20
127.4999937420001
 30
0.0
 11
1278.108070658999
 21
127.4999937420001
 31
0.0
  0
LINE
  5
E544
330
D63D
100
AcDbEntity
  8
30
 62
     0
370
    -2
100
AcDbLine
 10
1277.108070658999
 20
147.499993742
 30
0.0
 11
1277.108070658999
 21
132.4999937420001
 31
0.0
  0
MTEXT
  5
E545
330
D63D
100
AcDbEntity
  8
30
 62
     0
100
AcDbMText
 10
1269.108070658998
 20
139.7457397583929
 30
0.0
 40
10.0
 41
0.0
 71
     5
 72
     1
  1
\A1;25 
 11
0.0000000000000001
 21
1.0
 31
0.0
 73
     1
 44
1.0
1001
ACAD
1000
MTEXTBEGIN
1070
    73
1070
     1
1070
    44
1040
1.0
1070
    74
1070
     0
1000
MTEXTEND
  0
INSERT
  5
E546
330
D63D
100
AcDbEntity
  8
30
 62
     0
370
    -2
100
AcDbBlockReference
  2
_Open
 10
1277.108070658999
 20
152.499993742
 30
0.0
 41
5.0
 42
5.0
 43
5.0
 50
90.0
  0
INSERT
  5
E547
330
D63D
100
AcDbEntity
  8
30
 62
     0
370
    -2
100
AcDbBlockReference
  2
_Open
 10
1277.108070658999
 20
127.4999937420001
 30
0.0
 41
5.0
 42
5.0
 43
5.0
 50
270.0
  0
POINT
  5
E548
330
D63D
100
AcDbEntity
  8
Defpoints
 62
     0
100
AcDbPoint
 10
1178.0
 20
152.499993742
 30
0.0
  0
POINT
  5
E549
330
D63D
100
AcDbEntity
  8
Defpoints
 62
     0
100
AcDbPoint
 10
1178.0
 20
127.4999937420002
 30
0.0
  0
POINT
  5
E54A
330
D63D
100
AcDbEntity
  8
Defpoints
 62
     0
100
AcDbPoint
 10
1277.108070658999
 20
127.4999937420001
 30
0.0
  0
ENDBLK
  5
D648
330
D63D
100
AcDbEntity
  8
0
100
AcDbBlockEnd
  0
BLOCK
  5
D653
330
D649
100
AcDbEntity
  8
0
100
AcDbBlockBegin
  2
*D51
 70
     1
 10
0.0
 20
0.0
 30
0.0
  3
*D51
  1

  0
LINE
  5
E54B
330
D649
100
AcDbEntity
  8
30
 62
     0
370
    -2
100
AcDbLine
 10
1188.0
 20
102.4999937420001
 30
0.0
 11
1278.108070658999
 21
102.4999937420001
 31
0.0
  0
LINE
  5
E54C
330
D649
100
AcDbEntity
  8
30
 62
     0
370
    -2
100
AcDbLine
 10
1188.0
 20
127.4999937420001
 30
0.0
 11
1278.108070658999
 21
127.4999937420001
 31
0.0
  0
LINE
  5
E54D
330
D649
100
AcDbEntity
  8
30
 62
     0
370
    -2
100
AcDbLine
 10
1277.108070658999
 20
107.4999937420001
 30
0.0
 11
1277.108070658999
 21
122.4999937420001
 31
0.0
  0
MTEXT
  5
E54E
330
D649
100
AcDbEntity
  8
30
 62
     0
100
AcDbMText
 10
1269.108070658998
 20
115.0383917392008
 30
0.0
 40
10.0
 41
0.0
 71
     5
 72
     1
  1
\A1;25 
 11
0.0000000000000001
 21
1.0
 31
0.0
 73
     1
 44
1.0
1001
ACAD
1000
MTEXTBEGIN
1070
    73
1070
     1
1070
    44
1040
1.0
1070
    74
1070
     0
1000
MTEXTEND
  0
INSERT
  5
E54F
330
D649
100
AcDbEntity
  8
30
 62
     0
370
    -2
100
AcDbBlockReference
  2
_Open
 10
1277.108070658999
 20
102.4999937420001
 30
0.0
 41
5.0
 42
5.0
 43
5.0
 50
270.0
  0
INSERT
  5
E550
330
D649
100
AcDbEntity
  8
30
 62
     0
370
    -2
100
AcDbBlockReference
  2
_Open
 10
1277.108070658999
 20
127.4999937420001
 30
0.0
 41
5.0
 42
5.0
 43
5.0
 50
90.0
  0
POINT
  5
E551
330
D649
100
AcDbEntity
  8
Defpoints
 62
     0
100
AcDbPoint
 10
1178.0
 20
102.4999937420002
 30
0.0
  0
POINT
  5
E552
330
D649
100
AcDbEntity
  8
Defpoints
 62
     0
100
AcDbPoint
 10
1178.0
 20
127.4999937420002
 30
0.0
  0
POINT
  5
E553
330
D649
100
AcDbEntity
  8
Defpoints
 62
     0
100
AcDbPoint
 10
1277.108070658999
 20
127.4999937420001
 30
0.0
  0
ENDBLK
  5
D654
330
D649
100
AcDbEntity
  8
0
100
AcDbBlockEnd
  0
BLOCK
  5
D65F
330
D655
100
AcDbEntity
  8
0
100
AcDbBlockBegin
  2
*D52
 70
     1
 10
0.0
 20
0.0
 30
0.0
  3
*D52
  1

  0
LINE
  5
E554
330
D655
100
AcDbEntity
  8
30
 62
     0
370
    -2
100
AcDbLine
 10
1188.0
 20
77.49999374200021
 30
0.0
 11
1278.108070658999
 21
77.4999937420002
 31
0.0
  0
LINE
  5
E555
330
D655
100
AcDbEntity
  8
30
 62
     0
370
    -2
100
AcDbLine
 10
1188.0
 20
102.4999937420001
 30
0.0
 11
1278.108070658999
 21
102.4999937420001
 31
0.0
  0
LINE
  5
E556
330
D655
100
AcDbEntity
  8
30
 62
     0
370
    -2
100
AcDbLine
 10
1277.108070658999
 20
82.49999374200021
 30
0.0
 11
1277.108070658999
 21
97.49999374200015
 31
0.0
  0
MTEXT
  5
E557
330
D655
100
AcDbEntity
  8
30
 62
     0
100
AcDbMText
 10
1269.108070658998
 20
89.558946857067
 30
0.0
 40
10.0
 41
0.0
 71
     5
 72
     1
  1
\A1;25 
 11
0.0000000000000001
 21
1.0
 31
0.0
 73
     1
 44
1.0
1001
ACAD
1000
MTEXTBEGIN
1070
    73
1070
     1
1070
    44
1040
1.0
1070
    74
1070
     0
1000
MTEXTEND
  0
INSERT
  5
E558
330
D655
100
AcDbEntity
  8
30
 62
     0
370
    -2
100
AcDbBlockReference
  2
_Open
 10
1277.108070658999
 20
77.4999937420002
 30
0.0
 41
5.0
 42
5.0
 43
5.0
 50
270.0
  0
INSERT
  5
E559
330
D655
100
AcDbEntity
  8
30
 62
     0
370
    -2
100
AcDbBlockReference
  2
_Open
 10
1277.108070658999
 20
102.4999937420001
 30
0.0
 41
5.0
 42
5.0
 43
5.0
 50
90.0
  0
POINT
  5
E55A
330
D655
100
AcDbEntity
  8
Defpoints
 62
     0
100
AcDbPoint
 10
1178.0
 20
77.49999374200024
 30
0.0
  0
POINT
  5
E55B
330
D655
100
AcDbEntity
  8
Defpoints
 62
     0
100
AcDbPoint
 10
1178.0
 20
102.4999937420002
 30
0.0
  0
POINT
  5
E55C
330
D655
100
AcDbEntity
  8
Defpoints
 62
     0
100
AcDbPoint
 10
1277.108070658999
 20
102.4999937420001
 30
0.0
  0
ENDBLK
  5
D660
330
D655
100
AcDbEntity
  8
0
100
AcDbBlockEnd
  0
BLOCK
  5
D66C
330
D661
100
AcDbEntity
  8
0
100
AcDbBlockBegin
  2
*D53
 70
     1
 10
0.0
 20
0.0
 30
0.0
  3
*D53
  1

  0
LINE
  5
E55D
330
D661
100
AcDbEntity
  8
30
 62
     0
370
    -2
100
AcDbLine
 10
1188.0
 20
77.49999374200021
 30
0.0
 11
1277.779706835
 21
77.4999937420002
 31
0.0
  0
LINE
  5
E55E
330
D661
100
AcDbEntity
  8
30
 62
     0
370
    -2
100
AcDbLine
 10
1203.0
 20
64.99999374200024
 30
0.0
 11
1277.779706835
 21
64.99999374200021
 31
0.0
  0
LINE
  5
E55F
330
D661
100
AcDbEntity
  8
30
 62
     0
370
    -2
100
AcDbLine
 10
1276.779706835
 20
74.49999374200022
 30
0.0
 11
1276.779706835
 21
67.99999374200023
 31
0.0
  0
LINE
  5
E560
330
D661
100
AcDbEntity
  8
30
 62
     0
370
    -2
100
AcDbLine
 10
1276.779706835
 20
23.76102444105454
 30
0.0
 11
1276.779706835
 21
64.99999374200021
 31
0.0
  0
MTEXT
  5
E561
330
D661
100
AcDbEntity
  8
30
 62
     0
100
AcDbMText
 10
1268.779706835
 20
41.04673872676904
 30
0.0
 40
10.0
 41
0.0
 71
     5
 72
     1
  1
\A1;12.5
 11
0.0000000000000001
 21
1.0
 31
0.0
 73
     1
 44
1.0
1001
ACAD
1000
MTEXTBEGIN
1070
    73
1070
     1
1070
    44
1040
1.0
1070
    74
1070
     0
1000
MTEXTEND
  0
INSERT
  5
E562
330
D661
100
AcDbEntity
  8
30
 62
     0
370
    -2
100
AcDbBlockReference
  2
_Open
 10
1276.779706835
 20
77.4999937420002
 30
0.0
 41
3.0
 42
3.0
 43
3.0
 50
90.0
  0
INSERT
  5
E563
330
D661
100
AcDbEntity
  8
30
 62
     0
370
    -2
100
AcDbBlockReference
  2
_Open
 10
1276.779706835
 20
64.99999374200021
 30
0.0
 41
3.0
 42
3.0
 43
3.0
 50
270.0
  0
POINT
  5
E564
330
D661
100
AcDbEntity
  8
Defpoints
 62
     0
100
AcDbPoint
 10
1178.0
 20
77.49999374200024
 30
0.0
  0
POINT
  5
E565
330
D661
100
AcDbEntity
  8
Defpoints
 62
     0
100
AcDbPoint
 10
1193.0
 20
64.99999374200024
 30
0.0
  0
POINT
  5
E566
330
D661
100
AcDbEntity
  8
Defpoints
 62
     0
100
AcDbPoint
 10
1276.779706835
 20
64.99999374200021
 30
0.0
  0
ENDBLK
  5
D66D
330
D661
100
AcDbEntity
  8
0
100
AcDbBlockEnd
  0
BLOCK
  5
E2C8
330
E2BE
100
AcDbEntity
  8
0
100
AcDbBlockBegin
  2
*D60
 70
     1
 10
0.0
 20
0.0
 30
0.0
  3
*D60
  1

  0
LINE
  5
E3A0
330
E2BE
100
AcDbEntity
  8
30
 62
     0
370
    -2
100
AcDbLine
 10
-762.4999999999987
 20
1246.999999999996
 30
0.0
 11
-692.6453671497747
 21
1246.999999999996
 31
0.0
  0
LINE
  5
E3A1
330
E2BE
100
AcDbEntity
  8
30
 62
     0
370
    -2
100
AcDbLine
 10
-762.4999999999992
 20
1081.999999999996
 30
0.0
 11
-692.6453671497747
 21
1081.999999999996
 31
0.0
  0
LINE
  5
E3A2
330
E2BE
100
AcDbEntity
  8
30
 62
     0
370
    -2
100
AcDbLine
 10
-693.6453671497747
 20
1241.999999999996
 30
0.0
 11
-693.6453671497747
 21
1086.999999999996
 31
0.0
  0
INSERT
  5
E3A3
330
E2BE
100
AcDbEntity
  8
30
 62
     0
370
    -2
100
AcDbBlockReference
  2
_Open
 10
-693.6453671497747
 20
1246.999999999996
 30
0.0
 41
5.0
 42
5.0
 43
5.0
 50
90.0
  0
INSERT
  5
E3A4
330
E2BE
100
AcDbEntity
  8
30
 62
     0
370
    -2
100
AcDbBlockReference
  2
_Open
 10
-693.6453671497747
 20
1081.999999999996
 30
0.0
 41
5.0
 42
5.0
 43
5.0
 50
270.0
  0
MTEXT
  5
E3A5
330
E2BE
100
AcDbEntity
  8
30
 62
     0
100
AcDbMText
 10
-701.645367149775
 20
1164.499999999995
 30
0.0
 40
10.0
 41
0.0
 71
     5
 72
     1
  1
\A1;165
 11
0.0000000000000001
 21
1.0
 31
0.0
 73
     1
 44
1.0
1001
ACAD
1000
MTEXTBEGIN
1070
    73
1070
     1
1070
    44
1040
1.0
1070
    74
1070
     0
1000
MTEXTEND
  0
POINT
  5
E3A6
330
E2BE
100
AcDbEntity
  8
Defpoints
 62
     0
100
AcDbPoint
 10
-772.4999999999988
 20
1246.999999999996
 30
0.0
  0
POINT
  5
E3A7
330
E2BE
100
AcDbEntity
  8
Defpoints
 62
     0
100
AcDbPoint
 10
-772.4999999999992
 20
1081.999999999996
 30
0.0
  0
POINT
  5
E3A8
330
E2BE
100
AcDbEntity
  8
Defpoints
 62
     0
100
AcDbPoint
 10
-693.6453671497747
 20
1081.999999999996
 30
0.0
  0
ENDBLK
  5
E2C9
330
E2BE
100
AcDbEntity
  8
0
100
AcDbBlockEnd
  0
BLOCK
  5
E2D4
330
E2CA
100
AcDbEntity
  8
0
100
AcDbBlockBegin
  2
*D61
 70
     1
 10
0.0
 20
0.0
 30
0.0
  3
*D61
  1

  0
LINE
  5
E3A9
330
E2CA
100
AcDbEntity
  8
30
 62
     0
370
    -2
100
AcDbLine
 10
-1217.499999999998
 20
1062.0
 30
0.0
 11
-1217.499999999998
 21
947.3842652287068
 31
0.0
  0
LINE
  5
E3AA
330
E2CA
100
AcDbEntity
  8
30
 62
     0
370
    -2
100
AcDbLine
 10
-999.9999999999996
 20
990.0
 30
0.0
 11
-999.9999999999996
 21
947.3842652287068
 31
0.0
  0
LINE
  5
E3AB
330
E2CA
100
AcDbEntity
  8
30
 62
     0
370
    -2
100
AcDbLine
 10
-1212.499999999999
 20
948.3842652287068
 30
0.0
 11
-1004.999999999999
 21
948.3842652287068
 31
0.0
  0
INSERT
  5
E3AC
330
E2CA
100
AcDbEntity
  8
30
 62
     0
370
    -2
100
AcDbBlockReference
  2
_Open
 10
-1217.499999999998
 20
948.3842652287068
 30
0.0
 41
5.0
 42
5.0
 43
5.0
 50
180.0
  0
INSERT
  5
E3AD
330
E2CA
100
AcDbEntity
  8
30
 62
     0
370
    -2
100
AcDbBlockReference
  2
_Open
 10
-999.9999999999996
 20
948.3842652287068
 30
0.0
 41
5.0
 42
5.0
 43
5.0
  0
MTEXT
  5
E3AE
330
E2CA
100
AcDbEntity
  8
30
 62
     0
100
AcDbMText
 10
-1108.749999999999
 20
956.3842652287068
 30
0.0
 40
10.0
 41
0.0
 71
     5
 72
     1
  1
\A1;217.5
 73
     1
 44
1.0
1001
ACAD
1000
MTEXTBEGIN
1070
    73
1070
     1
1070
    44
1040
1.0
1070
    74
1070
     0
1000
MTEXTEND
  0
POINT
  5
E3AF
330
E2CA
100
AcDbEntity
  8
Defpoints
 62
     0
100
AcDbPoint
 10
-1217.499999999998
 20
1072.0
 30
0.0
  0
POINT
  5
E3B0
330
E2CA
100
AcDbEntity
  8
Defpoints
 62
     0
100
AcDbPoint
 10
-999.9999999999996
 20
1000.0
 30
0.0
  0
POINT
  5
E3B1
330
E2CA
100
AcDbEntity
  8
Defpoints
 62
     0
100
AcDbPoint
 10
-999.9999999999996
 20
948.3842652287068
 30
0.0
  0
ENDBLK
  5
E2D5
330
E2CA
100
AcDbEntity
  8
0
100
AcDbBlockEnd
  0
BLOCK
  5
E2E0
330
E2D6
100
AcDbEntity
  8
0
100
AcDbBlockBegin
  2
*D62
 70
     1
 10
0.0
 20
0.0
 30
0.0
  3
*D62
  1

  0
LINE
  5
E3B2
330
E2D6
100
AcDbEntity
  8
30
 62
     0
370
    -2
100
AcDbLine
 10
-999.9999999999996
 20
988.0
 30
0.0
 11
-999.9999999999996
 21
947.3842652287066
 31
0.0
  0
LINE
  5
E3B3
330
E2D6
100
AcDbEntity
  8
30
 62
     0
370
    -2
100
AcDbLine
 10
-782.4999999999992
 20
1061.999999999997
 30
0.0
 11
-782.4999999999992
 21
947.3842652287066
 31
0.0
  0
LINE
  5
E3B4
330
E2D6
100
AcDbEntity
  8
30
 62
     0
370
    -2
100
AcDbLine
 10
-994.9999999999997
 20
948.3842652287066
 30
0.0
 11
-787.4999999999992
 21
948.3842652287066
 31
0.0
  0
INSERT
  5
E3B5
330
E2D6
100
AcDbEntity
  8
30
 62
     0
370
    -2
100
AcDbBlockReference
  2
_Open
 10
-999.9999999999996
 20
948.3842652287066
 30
0.0
 41
5.0
 42
5.0
 43
5.0
 50
180.0
  0
INSERT
  5
E3B6
330
E2D6
100
AcDbEntity
  8
30
 62
     0
370
    -2
100
AcDbBlockReference
  2
_Open
 10
-782.4999999999992
 20
948.3842652287066
 30
0.0
 41
5.0
 42
5.0
 43
5.0
  0
MTEXT
  5
E3B7
330
E2D6
100
AcDbEntity
  8
30
 62
     0
100
AcDbMText
 10
-891.2499999999994
 20
956.3842652287066
 30
0.0
 40
10.0
 41
0.0
 71
     5
 72
     1
  1
\A1;217.5
 73
     1
 44
1.0
1001
ACAD
1000
MTEXTBEGIN
1070
    73
1070
     1
1070
    44
1040
1.0
1070
    74
1070
     0
1000
MTEXTEND
  0
POINT
  5
E3B8
330
E2D6
100
AcDbEntity
  8
Defpoints
 62
     0
100
AcDbPoint
 10
-999.9999999999996
 20
998.0
 30
0.0
  0
POINT
  5
E3B9
330
E2D6
100
AcDbEntity
  8
Defpoints
 62
     0
100
AcDbPoint
 10
-782.4999999999992
 20
1071.999999999997
 30
0.0
  0
POINT
  5
E3BA
330
E2D6
100
AcDbEntity
  8
Defpoints
 62
     0
100
AcDbPoint
 10
-782.4999999999992
 20
948.3842652287066
 30
0.0
  0
ENDBLK
  5
E2E1
330
E2D6
100
AcDbEntity
  8
0
100
AcDbBlockEnd
  0
BLOCK
  5
E2EC
330
E2E2
100
AcDbEntity
  8
0
100
AcDbBlockBegin
  2
*D63
 70
     1
 10
0.0
 20
0.0
 30
0.0
  3
*D63
  1

  0
LINE
  5
E3BB
330
E2E2
100
AcDbEntity
  8
30
 62
     0
370
    -2
100
AcDbLine
 10
-765.4999999999987
 20
1081.999999999996
 30
0.0
 11
-692.6453671497747
 21
1081.999999999996
 31
0.0
  0
LINE
  5
E3BC
330
E2E2
100
AcDbEntity
  8
30
 62
     0
370
    -2
100
AcDbLine
 10
-765.4999999999987
 20
999.9999999999996
 30
0.0
 11
-692.6453671497747
 21
999.9999999999996
 31
0.0
  0
LINE
  5
E3BD
330
E2E2
100
AcDbEntity
  8
30
 62
     0
370
    -2
100
AcDbLine
 10
-693.6453671497747
 20
1076.999999999996
 30
0.0
 11
-693.6453671497747
 21
1004.999999999999
 31
0.0
  0
INSERT
  5
E3BE
330
E2E2
100
AcDbEntity
  8
30
 62
     0
370
    -2
100
AcDbBlockReference
  2
_Open
 10
-693.6453671497747
 20
1081.999999999996
 30
0.0
 41
5.0
 42
5.0
 43
5.0
 50
90.0
  0
INSERT
  5
E3BF
330
E2E2
100
AcDbEntity
  8
30
 62
     0
370
    -2
100
AcDbBlockReference
  2
_Open
 10
-693.6453671497747
 20
999.9999999999996
 30
0.0
 41
5.0
 42
5.0
 43
5.0
 50
270.0
  0
MTEXT
  5
E3C0
330
E2E2
100
AcDbEntity
  8
30
 62
     0
100
AcDbMText
 10
-701.645367149775
 20
1040.999999999997
 30
0.0
 40
10.0
 41
0.0
 71
     5
 72
     1
  1
\A1;82
 11
0.0000000000000001
 21
1.0
 31
0.0
 73
     1
 44
1.0
1001
ACAD
1000
MTEXTBEGIN
1070
    73
1070
     1
1070
    44
1040
1.0
1070
    74
1070
     0
1000
MTEXTEND
  0
POINT
  5
E3C1
330
E2E2
100
AcDbEntity
  8
Defpoints
 62
     0
100
AcDbPoint
 10
-775.4999999999987
 20
1081.999999999996
 30
0.0
  0
POINT
  5
E3C2
330
E2E2
100
AcDbEntity
  8
Defpoints
 62
     0
100
AcDbPoint
 10
-775.4999999999987
 20
999.9999999999996
 30
0.0
  0
POINT
  5
E3C3
330
E2E2
100
AcDbEntity
  8
Defpoints
 62
     0
100
AcDbPoint
 10
-693.6453671497747
 20
999.9999999999996
 30
0.0
  0
ENDBLK
  5
E2ED
330
E2E2
100
AcDbEntity
  8
0
100
AcDbBlockEnd
  0
ENDSEC
  0
SECTION
  2
ENTITIES
  0
LINE
  5
47EF
330
1E
100
AcDbEntity
  8
16
100
AcDbLine
 10
-999.9999999999996
 20
900.0
 30
0.0
 11
-999.9999999999996
 21
1343.000122
 31
0.0
  0
LINE
  5
4815
330
1E
100
AcDbEntity
  8
16
100
AcDbLine
 10
-999.9999999999996
 20
659.7020632500004
 30
0.0
 11
-999.9999999999996
 21
-90.29792174999945
 31
0.0
  0
TEXT
  5
49B8
330
1E
100
AcDbEntity
  8
19
100
AcDbText
 10
2110.888183999999
 20
1296.478027
 30
0.0
 40
30.0
  1
FIXED TYPE
 41
0.833333
100
AcDbText
  0
TEXT
  5
4ACC
330
1E
100
AcDbEntity
  8
19
100
AcDbText
 10
1738.013184
 20
1064.043553788168
 30
0.0
 40
20.0
  1
* : CONDUCTOR OVERLAP.MAX
100
AcDbText
  0
LINE
  5
58B0
330
1E
100
AcDbEntity
  8
Defpoints
100
AcDbLine
 10
-1546.0
 20
0.0
 30
0.0
 11
2621.04102329482
 21
0.0
 31
0.0
  0
LINE
  5
5A04
330
1E
100
AcDbEntity
  8
Defpoints
100
AcDbLine
 10
-1533.0
 20
1000.0
 30
0.0
 11
1000.0
 21
1000.0
 31
0.0
  0
LINE
  5
6A68
330
1E
100
AcDbEntity
  8
17
100
AcDbLine
 10
2000.0
 20
-31.00920100000007
 30
0.0
 11
2000.0
 21
528.6787719999998
 31
0.0
  0
TEXT
  5
6F91
330
1E
100
AcDbEntity
  8
19
100
AcDbText
 10
1753.331070345976
 20
1196.378903112565
 30
0.0
 40
30.0
  1
VERTICAL CONNECTION
 41
0.833333
100
AcDbText
  0
TEXT
  5
A1B6
330
1E
100
AcDbEntity
  8
19
100
AcDbText
 10
1982.319101499473
 20
646.9876835816424
 30
0.0
 40
20.0
  1
C
 41
0.75
100
AcDbText
  0
TEXT
  5
A1B7
330
1E
100
AcDbEntity
  8
19
100
AcDbText
 10
1993.734668926679
 20
660.7439127859715
 30
0.0
 40
20.0
  1
P
 41
0.75
100
AcDbText
  0
LWPOLYLINE
  5
A5B7
330
1E
100
AcDbEntity
  8
16
100
AcDbPolyline
 90
        2
 70
     0
 43
0.0
 10
0.000000000000199
 20
915.4944792356037
 10
0.000000000000199
 20
1379.689325349858
  0
LWPOLYLINE
  5
B6BF
330
1E
100
AcDbEntity
  8
16
100
AcDbPolyline
 90
        2
 70
     0
 43
0.0
 10
0.0000000000002274
 20
-21.39999874299996
 10
0.0000000000002274
 20
660.6000012569999
  0
LEADER
  5
B6CB
330
1E
100
AcDbEntity
  8
19
100
AcDbLeader
  3
Standard
 74
     0
 76
     3
 10
-1128.880913772999
 20
557.641231709
 30
0.0
 10
-1176.682251760998
 20
667.6164170650004
 30
0.0
 10
-762.8809137729994
 20
668.6412317090001
 30
0.0
  0
MTEXT
  5
B6CC
330
1E
100
AcDbEntity
  8
19
100
AcDbMText
 10
-1171.634200467998
 20
697.6020974440002
 30
0.0
 40
20.0
 41
0.0
 71
     1
 72
     5
  1
MAINTENANCE SPACE(min)
 73
     1
 44
1.0
1001
ACAD
1000
MTEXTBEGIN
1070
    73
1070
     1
1070
    44
1040
1.0
1070
    74
1070
     0
1000
MTEXTEND
  0
LINE
  5
B6D5
330
1E
100
AcDbEntity
  8
16
100
AcDbLine
 10
-1000.0
 20
1000.0
 30
0.0
 11
-1000.0
 21
1343.000122
 31
0.0
  0
LWPOLYLINE
  5
BD0A
330
1E
100
AcDbEntity
  8
16
100
AcDbPolyline
 90
        2
 70
     0
 43
0.0
 10
0.000000000000199
 20
915.4944792356037
 10
0.000000000000199
 20
1379.689325349858
  0
DIMENSION
  5
BD0C
330
1E
100
AcDbEntity
  8
30
100
AcDbDimension
  2
*D5
 10
118.999899174999
 20
953.0091017753019
 30
0.0
 11
59.49989917499909
 21
961.0091017753019
 31
0.0
 70
    32
 71
     5
 42
118.9999999999998
  3
Standard
100
AcDbAlignedDimension
 13
-0.0001008250008141
 23
983.0
 33
0.0
 14
118.999899174999
 24
983.0
 34
0.0
100
AcDbRotatedDimension
  0
LINE
  5
BD0D
330
1E
100
AcDbEntity
  8
10
100
AcDbLine
 10
119.0
 20
983.0
 30
0.0
 11
-119.0
 21
983.0
 31
0.0
  0
LINE
  5
BD0E
330
1E
100
AcDbEntity
  8
10
100
AcDbLine
 10
-119.0
 20
1000.0
 30
0.0
 11
-119.0
 21
983.0
 31
0.0
  0
DIMENSION
  5
BD0F
330
1E
100
AcDbEntity
  8
30
100
AcDbDimension
  2
*D6
 10
-119.0001008250008
 20
952.1757684419686
 30
0.0
 11
-59.50010082500082
 21
960.1757684419686
 31
0.0
 70
    32
 71
     5
 42
118.9999999999999
  3
Standard
100
AcDbAlignedDimension
 13
-0.0001008250008141
 23
983.0
 33
0.0
 14
-119.0001008250008
 24
983.0
 34
0.0
100
AcDbRotatedDimension
  0
LINE
  5
BD10
330
1E
100
AcDbEntity
  8
10
100
AcDbLine
 10
119.0
 20
983.0
 30
0.0
 11
119.0
 21
1000.0
 31
0.0
  0
MTEXT
  5
C70F
330
1E
100
AcDbEntity
  8
19
100
AcDbMText
 10
1752.082408376632
 20
1359.930138499924
 30
0.0
 40
21.166666667
 41
0.0
 71
     1
 72
     5
  1
AR325S AR332S 3P\PAR316H AR320H 3P\PAR325H AR332H 3P
  7
SLDTEXTSTYLE1
 73
     1
 44
1.0
1001
ACAD
1000
MTEXTBEGIN
1070
    73
1070
     1
1070
    44
1040
1.0
1070
    74
1070
     0
1000
MTEXTEND
  0
MTEXT
  5
CAE9
330
1E
100
AcDbEntity
  8
19
100
AcDbMText
 10
412.9573524421462
 20
-203.9601586266318
 30
0.0
 40
20.0
 41
0.0
 71
     1
 72
     5
  1
MAINTENANCE SPACE
 73
     1
 44
1.0
1001
ACAD
1000
MTEXTBEGIN
1070
    73
1070
     1
1070
    44
1040
1.0
1070
    74
1070
     0
1000
MTEXTEND
  0
MTEXT
  5
CAEA
330
1E
100
AcDbEntity
  8
19
100
AcDbMText
 10
356.2348901770469
 20
663.9445586700889
 30
0.0
 40
20.0
 41
0.0
 71
     1
 72
     5
  1
WITH PUSHBUTTON
 73
     1
 44
1.0
1001
ACAD
1000
MTEXTBEGIN
1070
    73
1070
     1
1070
    44
1040
1.0
1070
    74
1070
     0
1000
MTEXTEND
  0
MTEXT
  5
CAEB
330
1E
100
AcDbEntity
  8
19
100
AcDbMText
 10
382.6430828457441
 20
625.1174843814423
 30
0.0
 40
20.0
 41
0.0
 71
     1
 72
     5
  1
PADLOCK COVER
 73
     1
 44
1.0
1001
ACAD
1000
MTEXTBEGIN
1070
    73
1070
     1
1070
    44
1040
1.0
1070
    74
1070
     0
1000
MTEXTEND
  0
DIMENSION
  5
CAEC
330
1E
100
AcDbEntity
  8
30
100
AcDbDimension
  2
*D7
 10
118.0000000000011
 20
-76.15498604299978
 30
0.0
 11
1.2197200780013
 21
-76.15498604299978
 31
0.0
 70
   160
 71
     5
 42
238.0000000000007
  3
Standard
100
AcDbAlignedDimension
 13
-119.9999999999997
 23
32.99999999999909
 33
0.0
 14
118.0000000000011
 24
32.99999999999909
 34
0.0
100
AcDbRotatedDimension
  0
DIMENSION
  5
CAEE
330
1E
100
AcDbEntity
  8
30
100
AcDbDimension
  2
*D8
 10
0.0000000000002506
 20
-170.443408839
 30
0.0
 11
130.6545984120004
 21
-170.443408839
 31
0.0
 70
   160
 71
     5
 42
233.0000000000009
  3
Standard
100
AcDbAlignedDimension
 13
233.0000000000012
 23
0.0
 33
0.0
 14
0.0000000000002558
 24
-85.12677900499989
 34
0.0
100
AcDbRotatedDimension
  0
DIMENSION
  5
CAEF
330
1E
100
AcDbEntity
  8
30
100
AcDbDimension
  2
*D9
 10
0.0000000000002506
 20
-170.443408839
 30
0.0
 11
-109.0105978109997
 21
-170.443408839
 31
0.0
 70
   160
 71
     5
 42
232.9999999999987
  3
Standard
100
AcDbAlignedDimension
 13
-232.9999999999985
 23
0.0
 33
0.0
 14
0.0000000000002558
 24
-85.12677900499989
 34
0.0
100
AcDbRotatedDimension
  0
LWPOLYLINE
  5
CB02
330
1E
100
AcDbEntity
  8
10
100
AcDbPolyline
 90
        7
 70
   128
 43
0.0
 10
-208.101220677405
 20
132.7015038680962
 42
-0.3590488100945669
 10
-211.4999999999997
 20
136.8243724599986
 10
-211.4999965889986
 20
156.0000001299989
 10
-211.4999999999997
 20
160.7071067819999
 10
-211.4999999999997
 20
161.4142135629998
 10
-211.4999999999997
 20
450.0000000000001
 10
-211.4999999999997
 20
460.0000000000001
  0
LWPOLYLINE
  5
CB03
330
1E
100
AcDbEntity
  8
10
100
AcDbPolyline
 90
       11
 70
   128
 43
0.0
 10
-189.3999987409984
 20
18.00000731299904
 10
-190.9999997479996
 20
18.00000731299904
 10
-190.9999997479996
 20
9.000003974999117
 10
-175.4999981389984
 20
9.000003974999117
 10
-175.4999981389984
 20
10.60000125700002
 10
-189.3999987409984
 20
10.60000125700002
 10
-189.3999987409984
 20
18.00000731299904
 10
-189.3999987409984
 20
20.99999849100004
 10
-181.0000018339986
 20
20.99999849100004
 10
-181.0000018339986
 20
13.099998873
 10
-189.3999987409984
 20
13.099998873
  0
LWPOLYLINE
  5
CB04
330
1E
100
AcDbEntity
  8
10
100
AcDbPolyline
 90
        4
 70
   128
 43
0.0
 10
-176.8999994859995
 20
9.000003974999117
 10
-176.8999999999994
 20
7.5
 10
-182.0999999999987
 20
7.5
 10
-182.1000018279996
 20
9.000003974999117
  0
LWPOLYLINE
  5
CB05
330
1E
100
AcDbEntity
  8
10
100
AcDbPolyline
 90
        5
 70
   128
 43
0.0
 10
-190.9999997479996
 20
324.699998539
 10
-190.9999999999985
 20
378.9999999999988
 42
-0.4142135623730951
 10
-187.9999999999985
 20
382.0
 10
-179.9999998079996
 20
381.9999999219989
 10
-179.9999998079996
 20
379.5000023059992
  0
LWPOLYLINE
  5
CB06
330
1E
100
AcDbEntity
  8
10
100
AcDbPolyline
 90
        9
 70
   128
 43
0.0
 10
205.0000000000014
 20
421.0
 10
203.0000000000014
 20
421.0
 10
201.8000109930001
 20
421.000004452
 10
201.8000000000014
 20
421.1999999999997
 10
201.8000000000014
 20
422.2000000000003
 10
-202.7999999999996
 20
422.2000000000003
 10
-202.7999983289986
 20
424.5000040939991
 10
201.8000109930001
 20
424.5000040939991
 10
201.8000000000014
 20
422.2000000000003
  0
LWPOLYLINE
  5
CB07
330
1E
100
AcDbEntity
  8
10
100
AcDbPolyline
 90
        7
 70
   128
 43
0.0
 10
-131.0000001579987
 20
386.500001591
 10
-191.7999999999985
 20
386.5
 10
-191.7999999999985
 20
389.8000000000001
 10
-191.7999983889994
 20
390.0000012329998
 10
-203.9999999999995
 20
390.0000000000002
 10
-205.9999999999995
 20
390.0000000000002
 10
-208.3000020249995
 20
390.0000012329998
  0
LWPOLYLINE
  5
CB08
330
1E
100
AcDbEntity
  8
10
100
AcDbPolyline
 90
        4
 70
   128
 43
0.0
 10
182.9999907750014
 20
12.600005309999
 10
182.9999907750014
 20
10.60000125700002
 10
-184.0000004629996
 20
10.60000125700002
 10
-184.0000004629996
 20
12.600005309999
  0
LWPOLYLINE
  5
CB09
330
1E
100
AcDbEntity
  8
10
100
AcDbPolyline
 90
        6
 70
   128
 43
0.0
 10
186.0000117560003
 20
10.60000125700002
 10
186.0000117560003
 20
12.600005309999
 10
182.9999907750014
 20
12.600005309999
 10
-184.0000004629996
 20
12.600005309999
 10
-186.9999990919998
 20
12.600005309999
 10
-186.9999990919998
 20
10.60000125700002
  0
LWPOLYLINE
  5
CB0A
330
1E
100
AcDbEntity
  8
10
100
AcDbPolyline
 90
       10
 70
   128
 43
0.0
 10
-119.9999992859995
 20
39.00000516699993
 10
-184.0000004629996
 20
39.00000516699993
 10
-184.0000004629996
 20
379.5000023059992
 10
-131.0000001579987
 20
379.5000023059992
 10
-131.0000001579987
 20
418.5000068360002
 10
129.0000005500012
 20
418.5000068360002
 10
129.0000005500012
 20
379.5000023059992
 10
182.0000036490012
 20
379.5000023059992
 10
182.0000036490012
 20
33.99999503399998
 10
117.9999931590002
 20
33.99999503399998
  0
LWPOLYLINE
  5
CB0B
330
1E
100
AcDbEntity
  8
10
100
AcDbPolyline
 90
        2
 70
   128
 43
0.0
 10
-208.2999999999999
 20
455.0000000000001
 10
207.3000000000011
 20
455.0000000000001
  0
LWPOLYLINE
  5
CB0C
330
1E
100
AcDbEntity
  8
18
100
AcDbPolyline
 90
        4
 70
   129
 43
0.0
 10
228.0000000000014
 20
553.2
 10
228.0000000000014
 20
563.2
 10
-227.9999999999986
 20
563.2
 10
-227.9999999999986
 20
553.2
  0
DIMENSION
  5
CB0D
330
1E
100
AcDbEntity
  8
30
100
AcDbDimension
  2
*D10
 10
-227.9999999999986
 20
638.407510773
 30
0.0
 11
-109.0105978109997
 21
638.407510773
 31
0.0
 70
   160
 71
     5
 42
227.9999999999988
  3
Standard
100
AcDbAlignedDimension
 13
0.0000000000002564
 23
600.038586150999
 33
0.0
 14
-227.9999999999986
 24
563.2
 34
0.0
100
AcDbRotatedDimension
  0
LWPOLYLINE
  5
CB0E
330
1E
100
AcDbEntity
  8
10
100
AcDbPolyline
 90
        9
 70
   128
 43
0.0
 10
-211.4999999999997
 20
460.0000000000001
 10
-208.2999999999999
 20
460.0000000000001
 10
-208.2999999999999
 20
450.0000000000001
 10
-208.2999999999999
 20
161.4142135629998
 10
-208.2999999999999
 20
160.7071067819999
 10
-208.3000020249995
 20
156.0000001299989
 10
-208.2999999999985
 20
136.8243724599986
 42
0.3590488100945695
 10
-207.4907668279994
 20
135.842737081
 10
-194.3987793219985
 20
133.2984961319999
  0
LWPOLYLINE
  5
CB0F
330
1E
100
AcDbEntity
  8
10
100
AcDbPolyline
 90
        5
 70
   128
 43
0.0
 10
-205.9999999999995
 20
390.0000000000002
 10
-206.0000003439995
 20
393.0000073129988
 10
-206.0000003439995
 20
434.0000009950001
 10
-206.0000003439995
 20
437.0000070739989
 10
-208.3000020249995
 20
437.0000070739989
  0
LWPOLYLINE
  5
CB11
330
1E
100
AcDbEntity
  8
10
100
AcDbPolyline
 90
       13
 70
   128
 43
0.0
 10
-208.1012206769998
 20
132.701503867999
 10
-195.0092331720446
 20
130.1572629200242
 42
-0.3590488100945694
 10
-194.1999999999998
 20
129.1756275409996
 10
-194.1999999999995
 20
6.199999999999133
 42
-0.4142135623730951
 10
-197.1999999999995
 20
3.199999999998908
 10
-222.9999999999985
 20
3.199999999998908
 10
-232.9999999999985
 20
3.199999999998908
 10
-232.9999999999985
 20
0.0
 10
-222.9999999999985
 20
0.0
 10
-197.1999999999995
 20
-0.0000000000009095
 42
0.4142135623730951
 10
-190.9999999999988
 20
6.199999999999133
 10
-190.9999999999988
 20
129.1756275409996
 10
-190.9999997479996
 20
286.299996714999
  0
LWPOLYLINE
  5
CB12
330
1E
100
AcDbEntity
  8
10
100
AcDbPolyline
 90
        3
 70
   128
 43
0.0
 10
-190.9999999999995
 20
72.99999999999909
 42
0.4142135623730951
 10
-185.9999999999995
 20
67.99999999999909
 10
-184.0000004629996
 20
68.00000433299989
  0
LWPOLYLINE
  5
CB13
330
1E
100
AcDbEntity
  8
10
100
AcDbPolyline
 90
        2
 70
   128
 43
0.0
 10
-189.3999987409984
 20
20.99999849100004
 10
-190.9999997479996
 20
20.99999849100004
  0
LWPOLYLINE
  5
CB14
330
1E
100
AcDbEntity
  8
10
100
AcDbPolyline
 90
        2
 70
   128
 43
0.0
 10
-190.9999999999985
 20
129.1756275409996
 42
0.3590488100945694
 10
-194.3987793225923
 20
133.2984961329022
  0
LWPOLYLINE
  5
CB15
330
1E
100
AcDbEntity
  8
10
100
AcDbPolyline
 90
        6
 70
   128
 43
0.0
 10
-190.9999997479996
 20
100.9999967029997
 10
-190.6999999999985
 20
100.9999999999997
 10
-190.6999999999985
 20
101.999999999999
 10
-190.6999999999985
 20
125.0
 10
-190.6999999999985
 20
125.999999999999
 10
-190.9999997479996
 20
126.0000026639999
  0
LWPOLYLINE
  5
CB16
330
1E
100
AcDbEntity
  8
10
100
AcDbPolyline
 90
        2
 70
   128
 43
0.0
 10
-208.3000020249995
 20
156.0000001299989
 10
-211.4999965889986
 20
156.0000001299989
  0
LWPOLYLINE
  5
CB17
330
1E
100
AcDbEntity
  8
10
100
AcDbPolyline
 90
        4
 70
   128
 43
0.0
 10
-189.6999999999995
 20
289.4999999999999
 10
-189.6999999999995
 20
292.5000000000001
 10
-189.6999999999995
 20
318.5
 10
-189.6999999999995
 20
321.4999999999998
  0
LWPOLYLINE
  5
CB18
330
1E
100
AcDbEntity
  8
10
100
AcDbPolyline
 90
       10
 70
   128
 43
0.0
 10
-208.2999999999985
 20
286.3000000000001
 42
-0.4142135623730951
 10
-205.0999999999987
 20
289.4999999999999
 10
-189.6999999999995
 20
289.4999999999999
 10
-186.4999999999995
 20
289.4999999999999
 10
-186.4999999999995
 20
292.5000000000001
 10
-186.4999999999995
 20
318.5
 10
-186.4999999999995
 20
321.4999999999998
 10
-189.6999999999995
 20
321.4999999999998
 10
-205.0999999999987
 20
321.5000000000001
 42
-0.4142135623730951
 10
-208.2999999999985
 20
324.7000000000002
  0
LWPOLYLINE
  5
CB19
330
1E
100
AcDbEntity
  8
10
100
AcDbPolyline
 90
        2
 70
   128
 43
0.0
 10
-190.9999997479996
 20
289.4999987299986
 10
-190.9999997479996
 20
321.4999965239988
  0
LWPOLYLINE
  5
CB1A
330
1E
100
AcDbEntity
  8
10
100
AcDbPolyline
 90
        6
 70
   128
 43
0.0
 10
-186.4999999999995
 20
289.4999999999999
 42
-0.4142135623730951
 10
-189.6999999999995
 20
286.3000000000001
 10
-205.1000000099997
 20
286.299996714999
 10
-205.0999999999987
 20
272.5
 10
-205.0999999999987
 20
269.4999999999999
 10
-208.3000020249995
 20
269.499999177
  0
LWPOLYLINE
  5
CB1B
330
1E
100
AcDbEntity
  8
10
100
AcDbPolyline
 90
        4
 70
   128
 43
0.0
 10
-211.4999965889986
 20
326.4999992070002
 10
-212.5999999999987
 20
326.5
 10
-212.5999999999987
 20
306.4999999999987
 10
-211.4999965889986
 20
306.5000033789988
  0
LWPOLYLINE
  5
CB1C
330
1E
100
AcDbEntity
  8
10
100
AcDbPolyline
 90
        6
 70
   128
 43
0.0
 10
-186.4999999999995
 20
321.4999999999998
 42
0.4142135623730951
 10
-189.6999999999995
 20
324.7000000000002
 10
-205.1000000099997
 20
324.699998539
 10
-205.0999999999987
 20
338.5
 10
-205.0999999999987
 20
341.5
 10
-208.3000020249995
 20
341.4999998029998
  0
LWPOLYLINE
  5
CB1D
330
1E
100
AcDbEntity
  8
10
100
AcDbPolyline
 90
        2
 70
   128
 43
0.0
 10
-208.2949281799985
 20
324.5199701599998
 10
-208.3000020249995
 20
324.5199701599998
  0
LWPOLYLINE
  5
CB1E
330
1E
100
AcDbEntity
  8
10
100
AcDbPolyline
 90
        2
 70
   128
 43
0.0
 10
-208.3000020249995
 20
308.5199675369999
 10
-190.9999997479996
 20
308.5199675369999
  0
LWPOLYLINE
  5
CB1F
330
1E
100
AcDbEntity
  8
10
100
AcDbPolyline
 90
        2
 70
   128
 43
0.0
 10
-206.0000003439995
 20
393.0000073129988
 10
-208.3000020249995
 20
393.0000073129988
  0
LWPOLYLINE
  5
CB23
330
1E
100
AcDbEntity
  8
10
100
AcDbPolyline
 90
        5
 70
   128
 43
0.0
 10
-205.9999999999995
 20
421.0
 10
-203.9999999999995
 20
421.0
 10
-202.7999983289986
 20
421.000004452
 10
-202.7999999999996
 20
421.1999999999997
 10
-202.7999999999996
 20
422.2000000000003
  0
LWPOLYLINE
  5
CB24
330
1E
100
AcDbEntity
  8
10
100
AcDbPolyline
 90
        2
 70
   128
 43
0.0
 10
-206.0000003439995
 20
434.0000009950001
 10
-208.3000020249995
 20
434.0000009950001
  0
LWPOLYLINE
  5
CB25
330
1E
100
AcDbEntity
  8
10
100
AcDbPolyline
 90
        9
 70
   128
 43
0.0
 10
210.5000000000014
 20
460.0000000000001
 10
207.3000000000011
 20
460.0000000000001
 10
207.3000000000011
 20
450.0000000000001
 10
207.3000000000011
 20
161.4142135629998
 10
207.3000000000011
 20
160.7071067819999
 10
207.2999997870013
 20
156.0000001299989
 10
207.3000000000011
 20
136.8243724599986
 42
-0.35904881009457
 10
206.490766828
 20
135.842737081
 10
193.3987793230014
 20
133.2984961319999
  0
LWPOLYLINE
  5
CB26
330
1E
100
AcDbEntity
  8
10
100
AcDbPolyline
 90
       10
 70
   128
 43
0.0
 10
207.2999997870013
 20
437.0000070739989
 10
205.0000055569999
 20
437.0000070739989
 10
205.0000055569999
 20
434.0000009950001
 10
205.0000055569999
 20
393.0000073129988
 10
205.0000000000014
 20
390.0000000000002
 10
203.0000000000014
 20
390.0000000000002
 10
190.8000036019998
 20
390.0000012329998
 10
190.8000000000015
 20
389.8000000000001
 10
190.8000000000015
 20
386.5
 10
129.0000005500012
 20
386.500001591
  0
LWPOLYLINE
  5
CB28
330
1E
100
AcDbEntity
  8
10
100
AcDbPolyline
 90
        5
 70
   128
 43
0.0
 10
182.0000036490012
 20
379.5000023059992
 10
182.0000000000014
 20
380.0000000000002
 42
0.4142135623730951
 10
180.0000000000014
 20
382.0
 10
168.249986960001
 20
381.9999999219989
 10
129.0000005500012
 20
381.9999999219989
  0
LWPOLYLINE
  5
CB29
330
1E
100
AcDbEntity
  8
10
100
AcDbPolyline
 90
        4
 70
   129
 43
0.0
 10
-115.0000003289985
 20
328.9999968219988
 10
-115.0000003289985
 20
138.9999992070002
 10
-45.00000189399972
 20
138.9999992070002
 10
-45.00000189399972
 20
328.9999968219988
  0
LWPOLYLINE
  5
CB2A
330
1E
100
AcDbEntity
  8
10
100
AcDbPolyline
 90
        4
 70
   129
 43
0.0
 10
88.0000068680013
 20
344.9999994449998
 10
88.0000068680013
 20
69.99999348399888
 10
112.9999979270012
 20
69.99999348399888
 10
112.9999979270012
 20
344.9999994449998
  0
LWPOLYLINE
  5
CB2B
330
1E
100
AcDbEntity
  8
10
100
AcDbPolyline
 90
        8
 70
   129
 43
0.0
 10
117.9999931590002
 20
356.0000068360003
 10
117.9999931590002
 20
362.0000040939991
 10
-119.9999992859995
 20
362.0000040939991
 10
-119.9999992859995
 20
356.0000068360003
 10
-119.9999992859995
 20
321.0000029619991
 10
-119.9999992859995
 20
32.99999300799913
 10
117.9999931590002
 20
32.99999300799913
 10
117.9999931590002
 20
321.0000029619991
  0
LWPOLYLINE
  5
CB2C
330
1E
100
AcDbEntity
  8
10
100
AcDbPolyline
 90
        4
 70
   128
 43
0.0
 10
-94.33333213799869
 20
32.99999300799913
 10
-90.9999982579986
 20
30.00000182899998
 10
88.99999399300126
 20
30.00000182899998
 10
92.33333904900041
 20
32.99999300799913
  0
LWPOLYLINE
  5
CB2D
330
1E
100
AcDbEntity
  8
10
100
AcDbPolyline
 90
        4
 70
   129
 43
0.0
 10
64.00000293400129
 20
64.99999825299892
 10
-65.99999974799968
 20
64.99999825299892
 10
-65.99999974799968
 20
34.99999706099993
 10
64.00000293400129
 20
34.99999706099993
  0
LWPOLYLINE
  5
CB2E
330
1E
100
AcDbEntity
  8
10
100
AcDbPolyline
 90
        3
 70
   128
 43
0.0
 10
-175.4999981389984
 20
9.000003974999117
 10
-172.4999995099997
 20
9.000003974999117
 10
-172.4999995099997
 20
10.60000125700002
  0
CIRCLE
  5
CB2F
330
1E
100
AcDbEntity
  8
10
100
AcDbCircle
 10
-65.99999999999885
 20
103.499999999999
 30
0.0
 40
21.0
  0
LWPOLYLINE
  5
CB30
330
1E
100
AcDbEntity
  8
10
100
AcDbPolyline
 90
        6
 70
   128
 43
0.0
 10
-119.9999992859995
 20
356.0000068360003
 10
-117.0000006569987
 20
356.0000068360003
 10
-117.0000006569987
 20
358.999998014
 10
115.0000019800009
 20
358.999998014
 10
115.0000019800009
 20
356.0000068360003
 10
117.9999931590002
 20
356.0000068360003
  0
LWPOLYLINE
  5
CB31
330
1E
100
AcDbEntity
  8
10
100
AcDbPolyline
 90
        3
 70
   128
 43
0.0
 10
-119.9999992859995
 20
321.0000029619991
 10
-117.0000006569987
 20
321.0000029619991
 10
-117.0000006569987
 20
356.0000068360003
  0
LWPOLYLINE
  5
CB32
330
1E
100
AcDbEntity
  8
10
100
AcDbPolyline
 90
        3
 70
   128
 43
0.0
 10
-131.0000001579987
 20
385.0000060009999
 10
-162.4999997329987
 20
385.0000060009999
 10
-162.4999997329987
 20
381.9999999219989
  0
LWPOLYLINE
  5
CB33
330
1E
100
AcDbEntity
  8
10
100
AcDbPolyline
 90
        3
 70
   128
 43
0.0
 10
-131.0000001579987
 20
381.9999999219989
 10
-169.2500003739995
 20
381.9999999219989
 10
-169.2500003739995
 20
379.5000023059992
  0
LWPOLYLINE
  5
CB34
330
1E
100
AcDbEntity
  8
10
100
AcDbPolyline
 90
        4
 70
   128
 43
0.0
 10
-177.0000011789986
 20
379.5000023059992
 10
-176.9999999999995
 20
380.0000000000002
 42
-0.4142135623730951
 10
-174.9999999999995
 20
382.0
 10
-169.2500003739995
 20
381.9999999219989
  0
LWPOLYLINE
  5
CB35
330
1E
100
AcDbEntity
  8
10
100
AcDbPolyline
 90
        4
 70
   129
 43
0.0
 10
-65.31561176599868
 20
350.9999967029997
 10
-95.31561295799972
 20
350.9999967029997
 10
-95.31561295799972
 20
341.0000062399988
 10
-65.31561176599868
 20
341.0000062399988
  0
LWPOLYLINE
  5
CB36
330
1E
100
AcDbEntity
  8
10
100
AcDbPolyline
 90
        4
 70
   129
 43
0.0
 10
-0.9999946819986858
 20
300.9999996829991
 10
-0.9999946819986858
 20
285.9999990869988
 10
24.99999840400144
 20
285.9999990869988
 10
24.99999840400144
 20
300.9999996829991
  0
LWPOLYLINE
  5
CB37
330
1E
100
AcDbEntity
  8
10
100
AcDbPolyline
 90
        4
 70
   129
 43
0.0
 10
44.99999423200033
 20
300.9999996829991
 10
44.99999423200033
 20
285.9999990869988
 10
71.00000221900135
 20
285.9999990869988
 10
71.00000221900135
 20
300.9999996829991
  0
LWPOLYLINE
  5
CB38
330
1E
100
AcDbEntity
  8
10
100
AcDbPolyline
 90
        4
 70
   129
 43
0.0
 10
71.00000221900135
 20
265.9999995339999
 10
44.99999423200033
 20
265.9999995339999
 10
44.99999423200033
 20
240.9999991619991
 10
71.00000221900135
 20
240.9999991619991
  0
LWPOLYLINE
  5
CB39
330
1E
100
AcDbEntity
  8
10
100
AcDbPolyline
 90
        4
 70
   129
 43
0.0
 10
-0.9999946819986858
 20
265.9999995339999
 10
-0.9999946819986858
 20
240.9999991619991
 10
24.99999840400144
 20
240.9999991619991
 10
24.99999840400144
 20
265.9999995339999
  0
LWPOLYLINE
  5
CB3A
330
1E
100
AcDbEntity
  8
10
100
AcDbPolyline
 90
        3
 70
   128
 43
0.0
 10
115.0000019800009
 20
356.0000068360003
 10
115.0000019800009
 20
321.0000029619991
 10
117.9999931590002
 20
321.0000029619991
  0
LWPOLYLINE
  5
CB3B
330
1E
100
AcDbEntity
  8
10
100
AcDbPolyline
 90
       13
 70
   128
 43
0.0
 10
189.9999900600014
 20
286.299996714999
 10
190.0000000000011
 20
129.1756275409996
 10
190.0000000000011
 20
6.199999999999133
 42
0.4142135623730951
 10
196.2000000000014
 20
0.0
 10
222.0000000000013
 20
0.0
 10
233.0000000000012
 20
0.0
 10
233.0000000000012
 20
3.199999999998908
 10
222.0000000000013
 20
3.199999999998908
 10
196.2000000000014
 20
3.199999999999133
 42
-0.4142135623730951
 10
193.2000000000014
 20
6.199999999999133
 10
193.2000000000014
 20
129.1756275409996
 42
-0.3590488100945694
 10
194.0092331720004
 20
130.15726292
 10
207.1012206780014
 20
132.701503867999
  0
LWPOLYLINE
  5
CB3C
330
1E
100
AcDbEntity
  8
10
100
AcDbPolyline
 90
       10
 70
   128
 43
0.0
 10
171.499989821001
 20
10.60000125700002
 10
171.499989821001
 20
9.000003974999117
 10
174.500010802
 20
9.000003974999117
 10
189.9999900600014
 20
9.000003974999117
 10
189.9999900600014
 20
18.00000731299904
 10
188.3999927780011
 20
18.00000731299904
 10
188.3999927780011
 20
20.99999849100004
 10
179.9999995960013
 20
20.99999849100004
 10
179.9999995960013
 20
13.099998873
 10
188.3999927780011
 20
13.099998873
  0
LWPOLYLINE
  5
CB3D
330
1E
100
AcDbEntity
  8
10
100
AcDbPolyline
 90
        4
 70
   128
 43
0.0
 10
174.500010802
 20
9.000003974999117
 10
174.500010802
 20
10.60000125700002
 10
188.3999927780011
 20
10.60000125700002
 10
188.3999927780011
 20
18.00000731299904
  0
LWPOLYLINE
  5
CB3E
330
1E
100
AcDbEntity
  8
10
100
AcDbPolyline
 90
        4
 70
   128
 43
0.0
 10
175.9000046980015
 20
9.000003974999117
 10
175.9000000000014
 20
7.5
 10
181.0999999999999
 20
7.5
 10
181.1000033160014
 20
9.000003974999117
  0
LWPOLYLINE
  5
CB3F
330
1E
100
AcDbEntity
  8
10
100
AcDbPolyline
 90
        5
 70
   128
 43
0.0
 10
189.9999900600014
 20
28.99999980300004
 10
188.0000000000014
 20
29.0
 10
188.0000000000014
 20
34.99999999999909
 10
188.0000000000014
 20
40.99999999999909
 10
189.9999900600014
 20
40.9999943189989
  0
LWPOLYLINE
  5
CB40
330
1E
100
AcDbEntity
  8
10
100
AcDbPolyline
 90
        3
 70
   128
 43
0.0
 10
190.0000000000011
 20
72.99999999999909
 42
-0.4142135623730951
 10
185.0000000000013
 20
67.99999999999909
 10
182.0000036490012
 20
68.00000433299989
  0
LWPOLYLINE
  5
CB41
330
1E
100
AcDbEntity
  8
10
100
AcDbPolyline
 90
        2
 70
   128
 43
0.0
 10
188.3999927780011
 20
20.99999849100004
 10
189.9999900600014
 20
20.99999849100004
  0
LWPOLYLINE
  5
CB42
330
1E
100
AcDbEntity
  8
10
100
AcDbPolyline
 90
        2
 70
   128
 43
0.0
 10
193.3987793225951
 20
133.2984961329022
 42
0.3590488100945694
 10
190.0000000000011
 20
129.1756275409996
  0
LWPOLYLINE
  5
CB43
330
1E
100
AcDbEntity
  8
10
100
AcDbPolyline
 90
        6
 70
   128
 43
0.0
 10
189.9999900600014
 20
100.9999967029997
 10
189.7000000000014
 20
100.9999999999997
 10
189.7000000000014
 20
101.999999999999
 10
189.7000000000014
 20
125.0
 10
189.7000000000014
 20
125.999999999999
 10
189.9999900600014
 20
126.0000026639999
  0
LWPOLYLINE
  5
CB44
330
1E
100
AcDbEntity
  8
10
100
AcDbPolyline
 90
        2
 70
   128
 43
0.0
 10
207.2999997870013
 20
156.0000001299989
 10
210.4999943510004
 20
156.0000001299989
  0
LWPOLYLINE
  5
CB45
330
1E
100
AcDbEntity
  8
10
100
AcDbPolyline
 90
       24
 70
   129
 43
0.0
 10
188.2000000000014
 20
324.6999999999998
 42
0.4142135623730951
 10
185.0000000000013
 20
321.4999999999998
 10
185.0000000000013
 20
318.5
 10
185.0000000000013
 20
292.5000000000001
 10
185.0000000000013
 20
289.4999999999999
 42
0.4142135623730951
 10
188.2000000000014
 20
286.3000000000001
 10
203.6000116600014
 20
286.299996714999
 10
203.6000000000012
 20
272.5
 10
203.6000000000012
 20
269.4999999999999
 10
206.8000000000014
 20
269.4999999999999
 10
206.8000000000014
 20
272.5
 10
206.8000000000011
 20
286.3000000000001
 42
0.4142135623730951
 10
203.6000000000012
 20
289.4999999999999
 10
188.2000000000014
 20
289.4999999999999
 10
188.2000000000014
 20
292.5000000000001
 10
188.2000000000014
 20
318.5
 10
188.2000000000014
 20
321.4999999999998
 10
203.6000000000012
 20
321.5000000000001
 42
0.4142135623730951
 10
206.8000000000014
 20
324.7000000000002
 10
206.8000000000014
 20
338.5
 10
206.8000000000014
 20
341.5
 10
203.6000000000012
 20
341.5
 10
203.6000000000012
 20
338.5
 10
203.6000116600014
 20
324.699998539
  0
LWPOLYLINE
  5
CB46
330
1E
100
AcDbEntity
  8
10
100
AcDbPolyline
 90
        2
 70
   128
 43
0.0
 10
189.9999900600014
 20
321.4999965239988
 10
189.9999900600014
 20
289.4999987299986
  0
LWPOLYLINE
  5
CB47
330
1E
100
AcDbEntity
  8
10
100
AcDbPolyline
 90
        2
 70
   128
 43
0.0
 10
188.2000000000014
 20
289.4999999999999
 10
185.0000000000013
 20
289.4999999999999
  0
LWPOLYLINE
  5
CB48
330
1E
100
AcDbEntity
  8
10
100
AcDbPolyline
 90
        6
 70
   128
 43
0.0
 10
182.0000036490012
 20
378.0000067169992
 10
184.9999948280009
 20
378.0000067169992
 10
184.9999948280009
 20
381.9999999219989
 10
187.0000000000013
 20
381.9999999999988
 42
-0.4142135623730951
 10
190.0000000000011
 20
378.9999999999988
 10
189.9999900600014
 20
324.699998539
  0
LWPOLYLINE
  5
CB49
330
1E
100
AcDbEntity
  8
10
100
AcDbPolyline
 90
        2
 70
   128
 43
0.0
 10
189.9999900600014
 20
308.5199675369999
 10
207.2999997870013
 20
308.5199675369999
  0
LWPOLYLINE
  5
CB4A
330
1E
100
AcDbEntity
  8
10
100
AcDbPolyline
 90
        2
 70
   128
 43
0.0
 10
207.2999997870013
 20
324.5199701599998
 10
206.7949398300013
 20
324.5199701599998
  0
LWPOLYLINE
  5
CB4B
330
1E
100
AcDbEntity
  8
10
100
AcDbPolyline
 90
        2
 70
   128
 43
0.0
 10
188.2000000000014
 20
321.4999999999998
 10
185.0000000000013
 20
321.4999999999998
  0
LWPOLYLINE
  5
CB4C
330
1E
100
AcDbEntity
  8
10
100
AcDbPolyline
 90
        2
 70
   128
 43
0.0
 10
168.249986960001
 20
379.5000023059992
 10
168.249986960001
 20
381.9999999219989
  0
LWPOLYLINE
  5
CB4D
330
1E
100
AcDbEntity
  8
10
100
AcDbPolyline
 90
        2
 70
   128
 43
0.0
 10
205.0000055569999
 20
393.0000073129988
 10
207.2999997870013
 20
393.0000073129988
  0
LWPOLYLINE
  5
CB4E
330
1E
100
AcDbEntity
  8
10
100
AcDbPolyline
 90
        2
 70
   128
 43
0.0
 10
207.2999997870013
 20
390.0000012329998
 10
205.0000000000014
 20
390.0000000000002
  0
DIMENSION
  5
CB4F
330
1E
100
AcDbEntity
  8
30
100
AcDbDimension
  2
*D11
 10
228.0000000000014
 20
638.763250777999
 30
0.0
 11
105.5179775020012
 21
638.763250777999
 31
0.0
 70
   160
 71
     5
 42
228.0000000000012
  3
Standard
100
AcDbAlignedDimension
 13
0.0000000000002558
 23
590.0385861509987
 33
0.0
 14
228.0000000000014
 24
563.2
 34
0.0
100
AcDbRotatedDimension
  0
LWPOLYLINE
  5
CB50
330
1E
100
AcDbEntity
  8
10
100
AcDbPolyline
 90
        2
 70
   128
 43
0.0
 10
-88.74999999999884
 20
445.0000000000001
 10
21.25000000000023
 20
445.0000000000001
  0
LWPOLYLINE
  5
CB51
330
1E
100
AcDbEntity
  8
10
100
AcDbPolyline
 90
        2
 70
   128
 43
0.0
 10
-88.74999999999884
 20
435.0000000000001
 10
21.25000000000023
 20
435.0000000000001
  0
LWPOLYLINE
  5
CB52
330
1E
100
AcDbEntity
  8
10
100
AcDbPolyline
 90
        4
 70
   128
 43
0.0
 10
-162.2499992269988
 20
421.8614405799998
 10
-162.2622684699988
 20
422.0659292149988
 10
-162.3097566079995
 20
422.1795505699998
 10
-162.3627879779996
 20
422.199994962999
  0
LWPOLYLINE
  5
CB53
330
1E
100
AcDbEntity
  8
10
100
AcDbPolyline
 90
        4
 70
   128
 43
0.0
 10
-167.2372111249986
 20
422.199994962999
 10
-167.3118026119994
 20
422.1506423169992
 10
-167.3453395379995
 20
422.0030612160001
 10
-167.3499998759996
 20
421.8614405799998
  0
LWPOLYLINE
  5
CB54
330
1E
100
AcDbEntity
  8
10
100
AcDbPolyline
 90
        3
 70
   128
 43
0.0
 10
-77.50000070199892
 20
418.5000068360002
 10
-77.49999999999879
 20
421.1999999999997
 10
-77.49999999999879
 20
422.2000000000003
  0
LWPOLYLINE
  5
CB55
330
1E
100
AcDbEntity
  8
10
100
AcDbPolyline
 90
        2
 70
   128
 43
0.0
 10
-88.74999999999884
 20
455.0000000000001
 10
-88.74999999999884
 20
424.5
  0
LWPOLYLINE
  5
CB56
330
1E
100
AcDbEntity
  8
10
100
AcDbPolyline
 90
        2
 70
   128
 43
0.0
 10
-78.50142886309297
 20
418.5000000000015
 42
0.5144957554272179
 10
-85.49857113690469
 20
418.5000000000018
  0
LWPOLYLINE
  5
CB57
330
1E
100
AcDbEntity
  8
10
100
AcDbPolyline
 90
        3
 70
   128
 43
0.0
 10
10.00000000000025
 20
422.2000000000003
 10
10.00000000000025
 20
421.1999999999997
 10
9.999997808001154
 20
418.5000068360002
  0
LWPOLYLINE
  5
CB58
330
1E
100
AcDbEntity
  8
10
100
AcDbPolyline
 90
        2
 70
   128
 43
0.0
 10
18.49857113690612
 20
418.5000000000015
 42
0.5144957554272179
 10
11.50142886309438
 20
418.5000000000018
  0
LWPOLYLINE
  5
CB59
330
1E
100
AcDbEntity
  8
10
100
AcDbPolyline
 90
        2
 70
   128
 43
0.0
 10
21.25000000000023
 20
455.0000000000001
 10
21.25000000000023
 20
424.5
  0
LWPOLYLINE
  5
CB5A
330
1E
100
AcDbEntity
  8
10
100
AcDbPolyline
 90
        3
 70
   128
 43
0.0
 10
116.8500109450012
 20
418.5000068360002
 10
116.8500000000009
 20
421.1999999999997
 10
116.8500000000009
 20
421.8614378279998
  0
LWPOLYLINE
  5
CB5B
330
1E
100
AcDbEntity
  8
10
100
AcDbPolyline
 90
        3
 70
   128
 43
0.0
 10
111.7500000000003
 20
421.8614378279998
 10
111.7500000000003
 20
421.1999999999997
 10
111.7499991190003
 20
418.5000068360002
  0
LWPOLYLINE
  5
CB5C
330
1E
100
AcDbEntity
  8
10
100
AcDbPolyline
 90
        4
 70
   128
 43
0.0
 10
136.8499918720005
 20
421.8614405799998
 10
136.8377431170004
 20
422.0659292149988
 10
136.7902382150012
 20
422.1795505699998
 10
136.7372198840014
 20
422.199994962999
  0
LWPOLYLINE
  5
CB5D
330
1E
100
AcDbEntity
  8
10
100
AcDbPolyline
 90
        4
 70
   128
 43
0.0
 10
131.8627818360012
 20
422.199994962999
 10
131.7881866230014
 20
422.1506423169992
 10
131.7546590110012
 20
422.0030612160001
 10
131.750009848
 20
421.8614405799998
  0
LWPOLYLINE
  5
CB5E
330
1E
100
AcDbEntity
  8
10
100
AcDbPolyline
 90
        4
 70
   128
 43
0.0
 10
116.8500109450012
 20
421.8614405799998
 10
116.8377323880015
 20
422.0659292149988
 10
116.7902572890002
 20
422.1795505699998
 10
116.7372091550002
 20
422.199994962999
  0
LWPOLYLINE
  5
CB5F
330
1E
100
AcDbEntity
  8
10
100
AcDbPolyline
 90
        4
 70
   128
 43
0.0
 10
111.8628009100014
 20
422.199994962999
 10
111.7882056970004
 20
422.1506423169992
 10
111.7546482820003
 20
422.0030612160001
 10
111.7499991190003
 20
421.8614405799998
  0
LWPOLYLINE
  5
CB62
330
1E
100
AcDbEntity
  8
10
100
AcDbPolyline
 90
        2
 70
   128
 43
0.0
 10
142.3
 20
445.0000000000001
 10
192.3000000000011
 20
445.0000000000001
  0
LWPOLYLINE
  5
CB63
330
1E
100
AcDbEntity
  8
10
100
AcDbPolyline
 90
        2
 70
   128
 43
0.0
 10
142.3
 20
435.0000000000001
 10
192.3000000000011
 20
435.0000000000001
  0
LWPOLYLINE
  5
CB64
330
1E
100
AcDbEntity
  8
10
100
AcDbPolyline
 90
        2
 70
   128
 43
0.0
 10
142.3
 20
455.0000000000001
 10
142.3
 20
424.5
  0
LWPOLYLINE
  5
CB65
330
1E
100
AcDbEntity
  8
10
100
AcDbPolyline
 90
        4
 70
   128
 43
0.0
 10
156.8500026000015
 20
421.8614405799998
 10
156.837724044
 20
422.0659292149988
 10
156.7902489439999
 20
422.1795505699998
 10
156.7372008100011
 20
422.199994962999
  0
LWPOLYLINE
  5
CB66
330
1E
100
AcDbEntity
  8
10
100
AcDbPolyline
 90
        4
 70
   128
 43
0.0
 10
151.8627925650003
 20
422.199994962999
 10
151.7881973520001
 20
422.1506423169992
 10
151.7546697390014
 20
422.0030612160001
 10
151.7499907750014
 20
421.8614405799998
  0
LWPOLYLINE
  5
CB67
330
1E
100
AcDbEntity
  8
10
100
AcDbPolyline
 90
        2
 70
   128
 43
0.0
 10
192.3000000000011
 20
455.0000000000001
 10
192.3000000000011
 20
424.5
  0
LWPOLYLINE
  5
CB68
330
1E
100
AcDbEntity
  8
10
100
AcDbPolyline
 90
        2
 70
   128
 43
0.0
 10
207.2999997870013
 20
434.0000009950001
 10
205.0000055569999
 20
434.0000009950001
  0
LWPOLYLINE
  5
CB69
330
1E
100
AcDbEntity
  8
18
100
AcDbPolyline
 90
        4
 70
   128
 43
0.0
 10
946.9999999999991
 20
-0.1570854460001101
 10
946.9999999999991
 20
-100.1570854459997
 10
1047.0
 20
-100.1570854459997
 10
1047.0
 20
-0.1570854460001101
  0
LWPOLYLINE
  5
CB6A
330
1E
100
AcDbEntity
  8
12
  6
DASHDOT
100
AcDbPolyline
 90
        9
 70
   128
 43
0.0
 10
900.0
 20
0.0
 10
889.9999999999991
 20
0.0
 10
889.9999999999991
 20
-5.886905378001074
 10
934.0
 20
-5.886905378001074
 10
934.0
 20
-29.59162371899992
 10
934.0
 20
-50.07806009599995
 10
940.0
 20
-50.07806009599995
 10
940.0
 20
-29.59162371899992
 10
940.0
 20
-0.0780600960010816
  0
LWPOLYLINE
  5
CB6C
330
1E
100
AcDbEntity
  8
12
  6
DASHDOT
100
AcDbPolyline
 90
        3
 70
   128
 43
0.0
 10
1048.999999999997
 20
-0.1090789640002185
 10
1048.999999999997
 20
-50.10907896400045
 10
1048.999999999997
 20
-29.5926284620009
  0
LWPOLYLINE
  5
CB6D
330
1E
100
AcDbEntity
  8
12
  6
DASHDOT
100
AcDbPolyline
 90
        5
 70
   128
 43
0.0
 10
1055.0
 20
-29.5926284620009
 10
1055.0
 20
-50.10907896400045
 10
1055.0
 20
-6.109078963999991
 10
1099.0
 20
-6.109078963999991
 10
1099.0
 20
-0.1090789640002185
  0
DIMENSION
  5
CB6F
330
1E
100
AcDbEntity
  8
30
100
AcDbDimension
  2
*D12
 10
1095.0
 20
-79.50817867500086
 30
0.0
 11
1136.822342114998
 21
-79.50817867500086
 31
0.0
 70
   160
 71
     5
 42
98.0
  3
Standard
100
AcDbAlignedDimension
 13
1193.0
 23
64.99999999999909
 33
0.0
 14
1095.0
 24
34.99999999999909
 34
0.0
100
AcDbRotatedDimension
  0
DIMENSION
  5
CB70
330
1E
100
AcDbEntity
  8
30
100
AcDbDimension
  2
*D13
 10
1193.0
 20
-182.9040587077944
 30
0.0
 11
998.4633316508187
 21
-180.9729147321452
 31
0.0
 70
   160
 71
     5
 42
365.0
  3
Standard
100
AcDbAlignedDimension
 13
828.0
 23
-77.00000000000112
 33
0.0
 14
1193.0
 24
64.99999999999909
 34
0.0
100
AcDbRotatedDimension
  0
DIMENSION
  5
CB71
330
1E
100
AcDbEntity
  8
30
100
AcDbDimension
  2
*D14
 10
1047.0
 20
-152.9374004656985
 30
0.0
 11
1061.557307915461
 21
-152.9768567973933
 31
0.0
 70
   160
 71
     5
 42
28.0
  3
Standard
100
AcDbAlignedDimension
 13
1075.0
 23
-14.74573847500073
 33
0.0
 14
1047.0
 24
-100.1570854459997
 34
0.0
100
AcDbRotatedDimension
  0
DIMENSION
  5
CB72
330
1E
100
AcDbEntity
  8
30
100
AcDbDimension
  2
*D15
 10
946.9999999999991
 20
-152.9374004656985
 30
0.0
 11
930.1617538028166
 21
-152.9421772938769
 31
0.0
 70
   160
 71
     5
 42
36.99999999999921
  3
Standard
100
AcDbAlignedDimension
 13
910.0
 23
-20.00000000000091
 33
0.0
 14
946.9999999999991
 24
-100.1570854459997
 34
0.0
100
AcDbRotatedDimension
  0
DIMENSION
  5
CB73
330
1E
100
AcDbEntity
  8
30
100
AcDbDimension
  2
*D16
 10
1223.024678254245
 20
-0.0000000000000439
 30
0.0
 11
1219.735284315446
 21
19.98878162506273
 31
0.0
 70
   160
 71
     5
 42
34.99999999999909
  3
Standard
100
AcDbAlignedDimension
 13
1095.0
 23
34.99999999999909
 33
0.0
 14
1067.95
 24
0.0
 34
0.0
 50
90.0
100
AcDbRotatedDimension
  0
DIMENSION
  5
CB74
330
1E
100
AcDbEntity
  8
30
100
AcDbDimension
  2
*D17
 10
713.4384943790005
 20
0.00000000000005
 30
0.0
 11
712.0026379124681
 21
21.70588685867162
 31
0.0
 70
   160
 71
     5
 42
32.99999999999907
  3
Standard
100
AcDbAlignedDimension
 13
833.0
 23
32.99999999999909
 33
0.0
 14
889.9999999999991
 24
0.0
 34
0.0
 50
90.0
100
AcDbRotatedDimension
  0
MTEXT
  5
CB76
330
1E
100
AcDbEntity
  8
19
100
AcDbMText
 10
1218.948379500959
 20
448.9201896788338
 30
0.0
 40
15.0
 41
0.0
 71
     1
 72
     5
  1
4-\U+03C611
 73
     1
 44
1.0
1001
ACAD
1000
MTEXTBEGIN
1070
    73
1070
     1
1070
    44
1040
1.0
1070
    74
1070
     0
1000
MTEXTEND
  0
LEADER
  5
CB78
330
1E
100
AcDbEntity
  8
19
100
AcDbLeader
  3
Standard
 74
     0
 76
     3
 10
1095.0
 20
34.99999999999909
 30
0.0
 10
1249.283546027998
 20
-137.6230041319997
 30
0.0
 10
1536.326562099526
 20
-137.9684875924501
 30
0.0
  0
LEADER
  5
CB79
330
1E
100
AcDbEntity
  8
19
100
AcDbLeader
  3
Standard
 76
     3
 10
828.0
 20
-32.36306539500083
 30
0.0
 10
675.2881747909987
 20
-137.8256395839999
 30
0.0
 10
574.8613428174537
 20
-137.9015437759756
 30
0.0
  0
LEADER
  5
CB8D
330
1E
100
AcDbEntity
  8
19
100
AcDbLeader
  3
Standard
 76
     3
 10
966.8819785820003
 20
-78.55875985199985
 30
0.0
 10
723.5660711119997
 20
-226.5799673429999
 30
0.0
 10
401.5180422634307
 20
-226.8361855254645
 30
0.0
  0
MTEXT
  5
CB8E
330
1E
100
AcDbEntity
  8
19
100
AcDbMText
 10
493.8263967529992
 20
-231.9702163920012
 30
0.0
 40
20.0
 41
0.0
 71
     1
 72
     5
  1
(min)
 73
     1
 44
1.0
1001
ACAD
1000
MTEXTBEGIN
1070
    73
1070
     1
1070
    44
1040
1.0
1070
    74
1070
     0
1000
MTEXTEND
  0
MTEXT
  5
CB8F
330
1E
100
AcDbEntity
  8
19
100
AcDbMText
 10
584.3968866341442
 20
-108.9826825731617
 30
0.0
 40
20.0
 41
0.0
 71
     1
 72
     5
  1
PANEL
 73
     1
 44
1.0
1001
ACAD
1000
MTEXTBEGIN
1070
    73
1070
     1
1070
    44
1040
1.0
1070
    74
1070
     0
1000
MTEXTEND
  0
DIMENSION
  5
CB90
330
1E
100
AcDbEntity
  8
30
100
AcDbDimension
  2
*D18
 10
1047.0
 20
-152.9374004656985
 30
0.0
 11
996.795647462115
 21
-152.9374004656985
 31
0.0
 70
   160
 71
     5
 42
100.0000000000007
  3
Standard
100
AcDbAlignedDimension
 13
946.9999999999991
 23
-100.1570854459997
 33
0.0
 14
1047.0
 24
-100.1570854459997
 34
0.0
100
AcDbRotatedDimension
  0
LWPOLYLINE
  5
CB91
330
1E
100
AcDbEntity
  8
12
  6
DASHDOT
100
AcDbPolyline
 90
        2
 70
   128
 43
0.0
 10
1055.0
 20
-50.10907896400045
 10
1048.999999999997
 20
-50.10907896400045
  0
MTEXT
  5
CB93
330
1E
100
AcDbEntity
  8
19
100
AcDbMText
 10
1254.283717601998
 20
-110.121835611
 30
0.0
 40
20.0
 41
0.0
 71
     1
 72
     5
  1
EARTH TERMINAL
 73
     1
 44
1.0
1001
ACAD
1000
MTEXTBEGIN
1070
    73
1070
     1
1070
    44
1040
1.0
1070
    74
1070
     0
1000
MTEXTEND
  0
MTEXT
  5
CB94
330
1E
100
AcDbEntity
  8
19
100
AcDbMText
 10
1220.200203504305
 20
-172.8963248959173
 30
0.0
 40
20.0
 41
0.0
 71
     1
 72
     5
  1
(RIGHT SIDE ONLY)
 73
     1
 44
1.0
1001
ACAD
1000
MTEXTBEGIN
1070
    73
1070
     1
1070
    44
1040
1.0
1070
    74
1070
     0
1000
MTEXTEND
  0
MTEXT
  5
CB95
330
1E
100
AcDbEntity
  8
19
100
AcDbMText
 10
1291.022058131999
 20
-150.3026869150001
 30
0.0
 40
20.0
 41
0.0
 71
     1
 72
     5
  1
M8 SCREW
 73
     1
 44
1.0
1001
ACAD
1000
MTEXTBEGIN
1070
    73
1070
     1
1070
    44
1040
1.0
1070
    74
1070
     0
1000
MTEXTEND
  0
LWPOLYLINE
  5
CB97
330
1E
100
AcDbEntity
  8
10
100
AcDbPolyline
 90
        4
 70
   128
 43
0.0
 10
1104.999997896999
 20
184.999999295999
 10
1122.999997121999
 20
184.999999295999
 10
1122.999997121999
 20
265.0000012329999
 10
1104.999997896999
 20
265.0000012329999
  0
LWPOLYLINE
  5
CB98
330
1E
100
AcDbEntity
  8
10
100
AcDbPolyline
 90
       10
 70
   128
 43
0.0
 10
1104.999997896999
 20
127.999999266
 10
1121.000000519
 20
127.999999266
 10
1121.000000519
 20
94.99999944499904
 10
1133.000002486
 20
83.00000492899995
 10
1133.000002486
 20
64.99999825299892
 10
1145.999999028999
 20
64.99999825299892
 10
1145.999999028999
 20
164.9999997429999
 10
1121.000000519
 20
164.9999997429999
 10
1121.000000519
 20
148.0000025439998
 10
1104.999997896999
 20
148.0000025439998
  0
LWPOLYLINE
  5
CB99
330
1E
100
AcDbEntity
  8
10
100
AcDbPolyline
 90
        7
 70
   128
 43
0.0
 10
1137.499996704999
 20
281.8000024969988
 10
1137.499996704999
 20
284.9999970610002
 10
1112.7
 20
285.0000000000001
 42
0.4142135623730951
 10
1107.5
 20
279.8
 10
1107.500002962997
 20
270.999998491
 10
1107.500002962997
 20
267.9999998619992
 10
1107.500002962997
 20
265.0000012329999
  0
LWPOLYLINE
  5
CB9A
330
1E
100
AcDbEntity
  8
10
100
AcDbPolyline
 90
        8
 70
   128
 43
0.0
 10
1140.500002783997
 20
284.9999970610002
 10
1140.500002783997
 20
281.8000024969988
 10
1137.499996704999
 20
281.8000024969988
 10
1112.7
 20
281.8000000000001
 42
0.4142135623730951
 10
1110.699999999998
 20
279.8
 10
1110.699997526997
 20
270.999998491
 10
1110.699997526997
 20
267.9999998619992
 10
1110.699997526997
 20
265.0000012329999
  0
LWPOLYLINE
  5
CB9B
330
1E
100
AcDbEntity
  8
10
100
AcDbPolyline
 90
       12
 70
   128
 43
0.0
 10
1107.500002962997
 20
184.999999295999
 10
1107.500002962997
 20
182.000000666999
 10
1107.500002962997
 20
178.9999983119995
 10
1107.5
 20
170.199999999999
 42
0.4142135623730951
 10
1112.7
 20
165.0
 10
1137.499996704999
 20
164.9999997429999
 10
1137.499996704999
 20
168.2000017579998
 10
1112.7
 20
168.199999999999
 42
-0.4142135623730951
 10
1110.699999999998
 20
170.199999999999
 10
1110.699997526997
 20
178.9999983119995
 10
1110.699997526997
 20
182.000000666999
 10
1110.699997526997
 20
184.999999295999
  0
LWPOLYLINE
  5
CB9C
330
1E
100
AcDbEntity
  8
10
100
AcDbPolyline
 90
       10
 70
   128
 43
0.0
 10
1104.999997896999
 20
321.9999975379987
 10
1121.000000519
 20
321.9999975379987
 10
1121.000000519
 20
355.000004809
 10
1133.000002486
 20
366.9999993259992
 10
1133.000002486
 20
385.0000060009999
 10
1145.999999028999
 20
385.0000060009999
 10
1145.999999028999
 20
284.9999970610002
 10
1121.000000519
 20
284.9999970610002
 10
1121.000000519
 20
302.0000017099988
 10
1104.999997896999
 20
302.0000017099988
  0
LWPOLYLINE
  5
CB9D
330
1E
100
AcDbEntity
  8
10
100
AcDbPolyline
 90
        2
 70
   128
 43
0.0
 10
1110.000000579
 20
72.50000600099999
 10
1133.000002486
 20
72.50000600099999
  0
LWPOLYLINE
  5
CB9E
330
1E
100
AcDbEntity
  8
10
100
AcDbPolyline
 90
        2
 70
   128
 43
0.0
 10
1133.000002486
 20
82.49999646500009
 10
1110.000000579
 20
82.49999646500009
  0
LWPOLYLINE
  5
CB9F
330
1E
100
AcDbEntity
  8
10
100
AcDbPolyline
 90
        2
 70
   128
 43
0.0
 10
1104.999997896999
 20
367.4999928879988
 10
1133.000002486
 20
367.4999928879988
  0
LWPOLYLINE
  5
CBA0
330
1E
100
AcDbEntity
  8
10
100
AcDbPolyline
 90
        2
 70
   128
 43
0.0
 10
1133.000002486
 20
377.4999982529993
 10
1104.999997896999
 20
377.4999982529993
  0
DIMENSION
  5
CBA1
330
1E
100
AcDbEntity
  8
30
100
AcDbDimension
  2
*D19
 10
1436.441705920237
 20
-0.0000000000000925
 30
0.0
 11
1436.441705920237
 21
231.148772400106
 31
0.0
 70
   160
 71
     5
 42
460.0000000000001
  3
Standard
100
AcDbAlignedDimension
 13
1035.0
 23
460.0000000000001
 33
0.0
 14
1110.0
 24
0.0
 34
0.0
 50
90.0
100
AcDbRotatedDimension
  0
DIMENSION
  5
CBA2
330
1E
100
AcDbEntity
  8
30
100
AcDbDimension
  2
*D20
 10
1403.689226836347
 20
-0.0000000000000832
 30
0.0
 11
1403.689226836347
 21
82.45444906125383
 31
0.0
 70
   160
 71
     5
 42
165.0
  3
Standard
100
AcDbAlignedDimension
 13
1193.0
 23
165.0
 33
0.0
 14
1110.0
 24
0.0
 34
0.0
 50
90.0
100
AcDbRotatedDimension
  0
DIMENSION
  5
CBA3
330
1E
100
AcDbEntity
  8
30
100
AcDbDimension
  2
*D21
 10
1493.084391404907
 20
-0.0000000000001085
 30
0.0
 11
1493.084391404906
 21
240.8378484585631
 31
0.0
 70
   160
 71
     5
 42
490.0000000000002
  3
Standard
100
AcDbAlignedDimension
 13
950.0
 23
490.0000000000002
 33
0.0
 14
1110.0
 24
0.0
 34
0.0
 50
90.0
100
AcDbRotatedDimension
  0
MTEXT
  5
CBA4
330
1E
100
AcDbEntity
  8
19
100
AcDbMText
 10
1091.594989737998
 20
671.4771424809987
 30
0.0
 40
20.0
 41
0.0
 71
     1
 72
     5
  1
LIFTING HOLES
 73
     1
 44
1.0
1001
ACAD
1000
MTEXTBEGIN
1070
    73
1070
     1
1070
    44
1040
1.0
1070
    74
1070
     0
1000
MTEXTEND
  0
LWPOLYLINE
  5
CBA5
330
1E
100
AcDbEntity
  8
11
  6
DASHDOT
100
AcDbPolyline
 90
        4
 70
   128
 43
0.0
 10
837.9999999999986
 20
472.0
 10
837.9999999999986
 20
372.0
 10
828.0
 20
372.0
 10
828.0
 20
472.0
  0
LWPOLYLINE
  5
CBA6
330
1E
100
AcDbEntity
  8
10
100
AcDbPolyline
 90
        8
 70
   128
 43
0.0
 10
885.2928932188124
 20
160.7071067818135
 42
-0.198912367379658
 10
885.0
 20
161.4142135629998
 10
885.0
 20
450.0000000000001
 42
-0.4142135623730951
 10
895.0
 20
460.0000000000001
 10
1035.0
 20
460.0000000000001
 42
-0.5239433179324801
 10
1040.0
 20
450.0000000000001
 10
1039.999999814999
 20
392.0000052859999
 10
1092.071067811999
 20
339.9289321889987
  0
LWPOLYLINE
  5
CBA7
330
1E
100
AcDbEntity
  8
10
100
AcDbPolyline
 90
        5
 70
   128
 43
0.0
 10
890.0000017709999
 20
33.99999503399998
 10
870.9999930690001
 20
33.99999503399998
 10
870.9999930690001
 20
379.5000023059992
 10
870.9999930690001
 20
418.5000068360002
 10
885.000006539
 20
418.5000068360002
  0
DIMENSION
  5
CBA8
330
1E
100
AcDbEntity
  8
30
100
AcDbDimension
  2
*D22
 10
1108.106806461998
 20
460.0000000000001
 30
0.0
 11
1108.106806461998
 21
419.011382218
 31
0.0
 70
   160
 71
     5
 42
18.00000000000017
  3
Standard
100
AcDbAlignedDimension
 13
1027.0
 23
442.0
 33
0.0
 14
1035.0
 24
460.0000000000001
 34
0.0
 50
90.0
100
AcDbRotatedDimension
1001
ACAD
1000
DSTYLE
1002
{
1070
    41
1040
3.0
1002
}
  0
DIMENSION
  5
CBA9
330
1E
100
AcDbEntity
  8
30
100
AcDbDimension
  2
*D23
 10
595.4745023469995
 20
0.0000000000000834
 30
0.0
 11
595.4745023469991
 21
280.5779814
 31
0.0
 70
   160
  1
 
 71
     5
 42
550.0
  3
Standard
100
AcDbAlignedDimension
 13
930.0
 23
550.0
 33
0.0
 14
889.9999999999991
 24
0.0
 34
0.0
 50
270.0
100
AcDbRotatedDimension
  0
LEADER
  5
CBAA
330
1E
100
AcDbEntity
  8
19
100
AcDbLeader
  3
Standard1
 76
     3
 10
811.0
 20
257.0
 30
0.0
 10
647.2957375775904
 20
637.6145256986355
 30
0.0
 10
360.3626860860109
 20
637.8079816536477
 30
0.0
  0
MTEXT
  5
CBAB
330
1E
100
AcDbEntity
  8
19
100
AcDbMText
 10
608.453375389
 20
57.45385286199894
 30
0.0
 40
20.0
 41
0.0
 71
     1
 72
     5
  1
AIR GAP DISTANCE (min)
 11
0.0000000000000001
 21
1.0
 31
0.0
 73
     1
 44
1.0
1001
ACAD
1000
MTEXTBEGIN
1070
    73
1070
     1
1070
    44
1040
1.0
1070
    74
1070
     0
1000
MTEXTEND
  0
MTEXT
  5
CBAC
330
1E
100
AcDbEntity
  8
19
100
AcDbMText
 10
500.7049144679998
 20
164.3577345959996
 30
0.0
 40
20.0
 41
0.0
 71
     1
 72
     5
  1
500(INSULATION)\P550(METAL)
 11
0.0000000000000001
 21
1.0
 31
0.0
 73
     1
 44
1.0
1001
ACAD
1000
MTEXTBEGIN
1070
    73
1070
     1
1070
    44
1040
1.0
1070
    74
1070
     0
1000
MTEXTEND
  0
DIMENSION
  5
CBB0
330
1E
100
AcDbEntity
  8
30
100
AcDbDimension
  2
*D24
 10
713.4384943790005
 20
32.99999999999913
 30
0.0
 11
713.4384943789999
 21
185.608429837
 31
0.0
 70
   160
 71
     5
 42
329.0000000000008
  3
Standard
100
AcDbAlignedDimension
 13
816.0
 23
362.0
 33
0.0
 14
833.0
 24
32.99999999999909
 34
0.0
 50
90.0
100
AcDbRotatedDimension
  0
LWPOLYLINE
  5
CBB1
330
1E
100
AcDbEntity
  8
10
100
AcDbPolyline
 90
        8
 70
   128
 43
0.0
 10
1094.724947483
 20
129.1756275409996
 10
889.9999999999991
 20
129.1756275409996
 10
889.9999999999991
 20
130.15726292
 10
889.9999999999991
 20
132.701503867999
 10
889.9999999999991
 20
136.8243724599986
 10
1095.0
 20
136.8243724599986
 10
1095.0
 20
332.8578643769998
 42
0.198912367379658
 10
1092.071067811865
 20
339.9289321888653
  0
LWPOLYLINE
  5
CBB2
330
1E
100
AcDbEntity
  8
10
100
AcDbPolyline
 90
        7
 70
   128
 43
0.0
 10
1050.000000056999
 20
381.9999999219989
 10
1105.0
 20
382.0
 10
1105.0
 20
378.9999999999988
 10
1104.999997896999
 20
320.5500027950002
 10
1104.999997896999
 20
312.449999791
 10
1104.999997896999
 20
117.550001184999
 10
1104.999997896999
 20
115.0000027229999
  0
LWPOLYLINE
  5
CBB3
330
1E
100
AcDbEntity
  8
10
100
AcDbPolyline
 90
        9
 70
   128
 43
0.0
 10
890.0000017709999
 20
30.00000182899998
 10
870.9999930690001
 20
30.00000182899998
 10
870.9999930690001
 20
32.99999300799913
 10
833.0000054659999
 20
32.99999300799913
 10
827.9999953339997
 20
32.99999300799913
 10
827.9999953339997
 20
321.0000029619991
 10
816.0000008169991
 20
356.0000068360003
 10
816.0000008169991
 20
362.0000040939991
 10
870.9999930690001
 20
362.0000040939991
  0
LWPOLYLINE
  5
CBB4
330
1E
100
AcDbEntity
  8
10
100
AcDbPolyline
 90
        4
 70
   128
 43
0.0
 10
1110.0
 20
3.199999999998908
 10
1110.0
 20
0.0
 10
1100.0
 20
0.0
 10
900.0
 20
0.0
  0
LWPOLYLINE
  5
CBB5
330
1E
100
AcDbEntity
  8
10
100
AcDbPolyline
 90
        9
 70
   128
 43
0.0
 10
1107.071067811864
 20
112.9289321888645
 42
-0.198912367379658
 10
1110.0
 20
105.857864376999
 10
1110.0
 20
6.199999999999133
 10
1110.0
 20
3.199999999998908
 10
1100.0
 20
3.199999999998908
 10
900.0
 20
3.199999999998908
 10
889.9999999999991
 20
3.199999999998908
 10
889.9999999999991
 20
6.199999999999133
 10
889.9999999999991
 20
129.1756275409996
  0
LWPOLYLINE
  5
CBB6
330
1E
100
AcDbEntity
  8
10
100
AcDbPolyline
 90
        2
 70
   128
 43
0.0
 10
946.9999999999991
 20
-0.1570854460001101
 10
1047.0
 20
-0.1570854460001101
  0
LWPOLYLINE
  5
CBB7
330
1E
100
AcDbEntity
  8
10
100
AcDbPolyline
 90
        3
 70
   128
 43
0.0
 10
833.0000054659999
 20
32.99999300799913
 10
833.0000054659999
 20
39.00000516699993
 10
870.9999930690001
 20
39.00000516699993
  0
LWPOLYLINE
  5
CBB8
330
1E
100
AcDbEntity
  8
11
  6
DASHDOT
100
AcDbPolyline
 90
        4
 70
   128
 43
0.0
 10
828.0
 20
-77.00000000000112
 10
828.0
 20
22.99999999999909
 10
837.9999999999986
 20
22.99999999999909
 10
837.9999999999986
 20
-77.00000000000112
  0
LINE
  5
CBB9
330
1E
100
AcDbEntity
  8
12
  6
DASHDOT
100
AcDbLine
 10
910.0
 20
-20.00000000000091
 30
0.0
 11
910.0
 21
23.19999999999891
 31
0.0
  0
LWPOLYLINE
  5
CBBA
330
1E
100
AcDbEntity
  8
10
100
AcDbPolyline
 90
        2
 70
   128
 43
0.0
 10
889.9999999999991
 20
3.199999999998908
 10
889.9999999999991
 20
0.0
  0
LWPOLYLINE
  5
CBBB
330
1E
100
AcDbEntity
  8
10
100
AcDbPolyline
 90
        4
 70
   128
 43
0.0
 10
828.0
 20
133.7431201279997
 10
819.0
 20
133.7431201279997
 10
819.0
 20
130.7431201279998
 10
828.0
 20
130.7431201279998
  0
LWPOLYLINE
  5
CBBC
330
1E
100
AcDbEntity
  8
10
100
AcDbPolyline
 90
        3
 70
   128
 43
0.0
 10
889.9999999999991
 20
136.8243724599986
 10
890.0000017709999
 20
156.0000001299989
 10
885.2928932190001
 20
160.7071067819999
  0
LINE
  5
CBBD
330
1E
100
AcDbEntity
  8
12
  6
DASHDOT
100
AcDbLine
 10
1075.0
 20
-20.00000000000091
 30
0.0
 11
1075.0
 21
23.19999999999891
 31
0.0
  0
CIRCLE
  5
CBBF
330
1E
100
AcDbEntity
  8
10
100
AcDbCircle
 10
1095.0
 20
34.99999999999909
 30
0.0
 40
4.0
  0
LWPOLYLINE
  5
CBC0
330
1E
100
AcDbEntity
  8
10
100
AcDbPolyline
 90
        6
 70
   128
 43
0.0
 10
1107.071067811999
 20
112.9289321889998
 10
1094.999999982998
 20
125.000000637
 10
1095.0
 20
129.1756275409996
 10
1095.0
 20
130.15726292
 10
1095.0
 20
132.701503867999
 10
1095.0
 20
136.8243724599986
  0
LWPOLYLINE
  5
CBC1
330
1E
100
AcDbEntity
  8
10
100
AcDbPolyline
 90
        2
 70
   128
 43
0.0
 10
1104.999997896999
 20
117.550001184999
 10
1102.449999434998
 20
117.550001184999
  0
LWPOLYLINE
  5
CBC2
330
1E
100
AcDbEntity
  8
10
100
AcDbPolyline
 90
        2
 70
   128
 43
0.0
 10
1110.699997526997
 20
178.9999983119995
 10
1107.500002962997
 20
178.9999983119995
  0
LWPOLYLINE
  5
CBC3
330
1E
100
AcDbEntity
  8
10
100
AcDbPolyline
 90
        2
 70
   128
 43
0.0
 10
1110.699997526997
 20
182.000000666999
 10
1107.500002962997
 20
182.000000666999
  0
LWPOLYLINE
  5
CBC4
330
1E
100
AcDbEntity
  8
10
100
AcDbPolyline
 90
        6
 70
   128
 43
0.0
 10
828.0
 20
229.999999999999
 10
811.0
 20
229.999999999999
 10
811.0
 20
257.0
 10
817.9999999999987
 20
259.0
 10
817.9999999999987
 20
279.0
 10
828.0
 20
279.0
  0
LWPOLYLINE
  5
CBC5
330
1E
100
AcDbEntity
  8
10
100
AcDbPolyline
 90
        2
 70
   128
 43
0.0
 10
885.000006539
 20
379.5000023059992
 10
870.9999930690001
 20
379.5000023059992
  0
LWPOLYLINE
  5
CBC6
330
1E
100
AcDbEntity
  8
10
100
AcDbPolyline
 90
        2
 70
   128
 43
0.0
 10
1110.699997526997
 20
270.999998491
 10
1107.500002962997
 20
270.999998491
  0
LWPOLYLINE
  5
CBC7
330
1E
100
AcDbEntity
  8
10
100
AcDbPolyline
 90
        2
 70
   128
 43
0.0
 10
1110.699997526997
 20
267.9999998619992
 10
1107.500002962997
 20
267.9999998619992
  0
DIMENSION
  5
CBC8
330
1E
100
AcDbEntity
  8
30
100
AcDbDimension
  2
*D25
 10
1027.0
 20
684.6601598439997
 30
0.0
 11
920.8822695719993
 21
684.6601598439997
 31
0.0
 70
   160
 71
     5
 42
199.0
  3
Standard
100
AcDbAlignedDimension
 13
828.0
 23
472.0
 33
0.0
 14
1027.0
 24
442.0
 34
0.0
100
AcDbRotatedDimension
  0
LWPOLYLINE
  5
CBCA
330
1E
100
AcDbEntity
  8
18
100
AcDbPolyline
 90
        4
 70
   129
 43
0.0
 10
1095.0
 20
550.0
 10
1095.0
 20
560.0000000000001
 10
930.0
 20
560.0000000000001
 10
930.0
 20
550.0
  0
DIMENSION
  5
CBCB
330
1E
100
AcDbEntity
  8
30
100
AcDbDimension
  2
*D26
 10
1095.0
 20
618.898942068
 30
0.0
 11
988.3000365910001
 21
618.898942068
 31
0.0
 70
   160
 71
     5
 42
165.0
  3
Standard
100
AcDbAlignedDimension
 13
930.0
 23
560.0000000000001
 33
0.0
 14
1095.0
 24
560.0000000000001
 34
0.0
100
AcDbRotatedDimension
  0
DIMENSION
  5
CBCC
330
1E
100
AcDbEntity
  8
30
100
AcDbDimension
  2
*D27
 10
930.0
 20
619.3603131449997
 30
0.0
 11
875.2700123270001
 21
619.3603131449997
 31
0.0
 70
   160
 71
     5
 42
102.0
  3
Standard
100
AcDbAlignedDimension
 13
828.0
 23
472.0
 33
0.0
 14
930.0
 24
560.0000000000001
 34
0.0
100
AcDbRotatedDimension
  0
LWPOLYLINE
  5
CBCD
330
1E
100
AcDbEntity
  8
34
100
AcDbPolyline
 90
        4
 70
   128
 43
0.0
 10
950.0
 20
490.0000000000002
 10
842.9999999999987
 20
490.0000000000002
 10
842.9999999999987
 20
428.9999999999988
 10
857.5000000000001
 20
428.9999999999988
  0
CIRCLE
  5
CBD0
330
1E
100
AcDbEntity
  8
10
100
AcDbCircle
 10
1027.0
 20
442.0
 30
0.0
 40
10.0
  0
DIMENSION
  5
CBD1
330
1E
100
AcDbEntity
  8
30
100
AcDbDimension
  2
*D28
 10
1193.0
 20
558.7717046179736
 30
0.0
 11
1175.5
 21
558.7717046179736
 31
0.0
 70
   160
  1
<>*
 71
     5
 42
35.0
  3
Standard
100
AcDbAlignedDimension
 13
1158.0
 23
376.9445289770001
 33
0.0
 14
1193.0
 24
165.0
 34
0.0
100
AcDbRotatedDimension
  0
DIMENSION
  5
CBD2
330
1E
100
AcDbEntity
  8
30
100
AcDbDimension
  2
*D29
 10
1276.779706835
 20
385.0000000000002
 30
0.0
 11
1276.779706835
 21
405.9000719141273
 31
0.0
 70
   160
 71
     5
 42
12.5
  3
Standard
100
AcDbAlignedDimension
 13
1178.0
 23
372.5000000000002
 33
0.0
 14
1193.0
 24
385.0000000000002
 34
0.0
 50
90.0
100
AcDbRotatedDimension
1001
ACAD
1000
DSTYLE
1002
{
1070
    41
1040
3.0
1002
}
  0
DIMENSION
  5
CBD3
330
1E
100
AcDbEntity
  8
30
100
AcDbDimension
  2
*D30
 10
1193.0
 20
521.9516852359999
 30
0.0
 11
1178.0
 21
521.9516852359999
 31
0.0
 70
   160
 71
     5
 42
15.0
  3
Standard
100
AcDbAlignedDimension
 13
1178.0
 23
372.5000000000002
 33
0.0
 14
1193.0
 24
385.0000000000002
 34
0.0
100
AcDbRotatedDimension
1001
ACAD
1000
DSTYLE
1002
{
1070
    41
1040
3.0
1002
}
  0
DIMENSION
  5
CBD5
330
1E
100
AcDbEntity
  8
30
100
AcDbDimension
  2
*D31
 10
1348.7701554347
 20
285.0000000000001
 30
0.0
 11
1348.770155434698
 21
220.7578703119998
 31
0.0
 70
   160
 71
     5
 42
120.0000000000001
  3
Standard
100
AcDbAlignedDimension
 13
1193.0
 23
165.0
 33
0.0
 14
1193.0
 24
285.0000000000001
 34
0.0
 50
90.0
100
AcDbRotatedDimension
  0
DIMENSION
  5
CBD6
330
1E
100
AcDbEntity
  8
30
100
AcDbDimension
  2
*D32
 10
1348.7701554347
 20
64.99999999999904
 30
0.0
 11
1348.770155434698
 21
107.4058420219998
 31
0.0
 70
   160
 71
     5
 42
100.0000000000008
  3
Standard
100
AcDbAlignedDimension
 13
1193.0
 23
165.0
 33
0.0
 14
1193.0
 24
64.99999999999909
 34
0.0
 50
90.0
100
AcDbRotatedDimension
  0
CIRCLE
  5
CBDC
330
1E
100
AcDbEntity
  8
27
100
AcDbCircle
 10
1178.0
 20
77.49999999999909
 30
0.0
 40
5.5
  0
CIRCLE
  5
CBDD
330
1E
100
AcDbEntity
  8
27
100
AcDbCircle
 10
1178.0
 20
127.4999999999991
 30
0.0
 40
5.5
  0
CIRCLE
  5
CBDE
330
1E
100
AcDbEntity
  8
27
100
AcDbCircle
 10
1178.0
 20
102.4999999999999
 30
0.0
 40
5.5
  0
LWPOLYLINE
  5
CBDF
330
1E
100
AcDbEntity
  8
10
100
AcDbPolyline
 90
        3
 70
   128
 43
0.0
 10
1137.499996704999
 20
168.2000017579998
 10
1140.500002783997
 20
168.2000017579998
 10
1140.500002783997
 20
164.9999997429999
  0
CIRCLE
  5
CBE0
330
1E
100
AcDbEntity
  8
27
100
AcDbCircle
 10
1178.0
 20
152.5
 30
0.0
 40
5.5
  0
DIMENSION
  5
CBE1
330
1E
100
AcDbEntity
  8
30
100
AcDbDimension
  2
*D33
 10
1348.7701554347
 20
385.0000000000002
 30
0.0
 11
1348.770155434698
 21
338.9699213839997
 31
0.0
 70
   160
 71
     5
 42
100.0
  3
Standard
100
AcDbAlignedDimension
 13
1193.0
 23
285.0000000000001
 33
0.0
 14
1193.0
 24
385.0000000000002
 34
0.0
 50
90.0
100
AcDbRotatedDimension
  0
DIMENSION
  5
CBE2
330
1E
100
AcDbEntity
  8
30
100
AcDbDimension
  2
*D34
 10
1277.108070658999
 20
347.5000000000002
 30
0.0
 11
1277.108070658999
 21
359.7457460163929
 31
0.0
 70
   160
  1
<> 
 71
     5
 42
25.0
  3
Standard
100
AcDbAlignedDimension
 13
1178.0
 23
372.5000000000002
 33
0.0
 14
1178.0
 24
347.5000000000002
 34
0.0
 50
90.0
100
AcDbRotatedDimension
  0
DIMENSION
  5
CBE3
330
1E
100
AcDbEntity
  8
30
100
AcDbDimension
  2
*D35
 10
1277.108070658999
 20
347.5000000000002
 30
0.0
 11
1277.108070658999
 21
335.0383979972008
 31
0.0
 70
   160
  1
<> 
 71
     5
 42
25.00000000000005
  3
Standard
100
AcDbAlignedDimension
 13
1178.0
 23
322.5000000000001
 33
0.0
 14
1178.0
 24
347.5000000000002
 34
0.0
 50
90.0
100
AcDbRotatedDimension
  0
DIMENSION
  5
CBE4
330
1E
100
AcDbEntity
  8
30
100
AcDbDimension
  2
*D36
 10
1277.108070658999
 20
322.5000000000001
 30
0.0
 11
1277.108070658999
 21
309.5589531150668
 31
0.0
 70
   160
  1
<> 
 71
     5
 42
25.0
  3
Standard
100
AcDbAlignedDimension
 13
1178.0
 23
297.5000000000001
 33
0.0
 14
1178.0
 24
322.5000000000001
 34
0.0
 50
90.0
100
AcDbRotatedDimension
  0
CIRCLE
  5
CBE6
330
1E
100
AcDbEntity
  8
27
100
AcDbCircle
 10
1178.0
 20
297.5000000000001
 30
0.0
 40
5.5
  0
DIMENSION
  5
CBE7
330
1E
100
AcDbEntity
  8
30
100
AcDbDimension
  2
*D37
 10
1276.779706835
 20
285.0000000000001
 30
0.0
 11
1276.779706835
 21
261.0467449847689
 31
0.0
 70
   160
 71
     5
 42
12.5
  3
Standard
100
AcDbAlignedDimension
 13
1178.0
 23
297.5000000000001
 33
0.0
 14
1193.0
 24
285.0000000000001
 34
0.0
 50
90.0
100
AcDbRotatedDimension
1001
ACAD
1000
DSTYLE
1002
{
1070
    41
1040
3.0
1002
}
  0
CIRCLE
  5
CBE8
330
1E
100
AcDbEntity
  8
27
100
AcDbCircle
 10
1178.0
 20
347.5000000000002
 30
0.0
 40
5.5
  0
CIRCLE
  5
CBE9
330
1E
100
AcDbEntity
  8
27
100
AcDbCircle
 10
1178.0
 20
322.5000000000001
 30
0.0
 40
5.5
  0
CIRCLE
  5
CBEA
330
1E
100
AcDbEntity
  8
27
100
AcDbCircle
 10
1178.0
 20
372.5000000000002
 30
0.0
 40
5.5
  0
LWPOLYLINE
  5
CBFA
330
1E
100
AcDbEntity
  8
10
100
AcDbPolyline
 90
        4
 70
   129
 43
0.0
 10
2205.499994351
 20
460.0000000000001
 10
1783.500003411
 20
460.0000000000001
 10
1783.500003411
 20
0.0
 10
2205.499994351
 20
0.0
  0
LWPOLYLINE
  5
CBFF
330
1E
100
AcDbEntity
  8
27
100
AcDbPolyline
 90
        4
 70
   129
 43
0.0
 10
1880.0
 20
164.999999999998
 10
1860.0
 20
164.999999999998
 10
1860.0
 20
64.99999999999904
 10
1880.0
 20
64.99999999999904
  0
LWPOLYLINE
  5
CC00
330
1E
100
AcDbEntity
  8
27
100
AcDbPolyline
 90
        4
 70
   129
 43
0.0
 10
2010.0
 20
164.999999999998
 10
1990.0
 20
164.999999999998
 10
1990.0
 20
64.99999999999904
 10
2010.0
 20
64.99999999999904
  0
LWPOLYLINE
  5
CC01
330
1E
100
AcDbEntity
  8
27
100
AcDbPolyline
 90
        4
 70
   129
 43
0.0
 10
1880.0
 20
384.9999999999992
 10
1860.0
 20
384.9999999999992
 10
1860.0
 20
285.0000000000001
 10
1880.0
 20
285.0000000000001
  0
LWPOLYLINE
  5
CC02
330
1E
100
AcDbEntity
  8
27
100
AcDbPolyline
 90
        4
 70
   129
 43
0.0
 10
2010.0
 20
384.9999999999992
 10
1990.0
 20
384.9999999999992
 10
1990.0
 20
285.0000000000001
 10
2010.0
 20
285.0000000000001
  0
LWPOLYLINE
  5
CC03
330
1E
100
AcDbEntity
  8
27
100
AcDbPolyline
 90
        4
 70
   129
 43
0.0
 10
2140.0
 20
164.999999999998
 10
2120.0
 20
164.999999999998
 10
2120.0
 20
64.99999999999904
 10
2140.0
 20
64.99999999999904
  0
LWPOLYLINE
  5
CC04
330
1E
100
AcDbEntity
  8
27
100
AcDbPolyline
 90
        4
 70
   129
 43
0.0
 10
2140.0
 20
384.9999999999992
 10
2120.0
 20
384.9999999999992
 10
2120.0
 20
285.0000000000001
 10
2140.0
 20
285.0000000000001
  0
DIMENSION
  5
CC05
330
1E
100
AcDbEntity
  8
30
100
AcDbDimension
  2
*D38
 10
2130.0
 20
560.1584283479999
 30
0.0
 11
2060.714358372
 21
560.1584283479999
 31
0.0
 70
   160
 71
     5
 42
130.0
  3
Standard
100
AcDbAlignedDimension
 13
2000.0
 23
528.6787719999998
 33
0.0
 14
2130.0
 24
517.890747311
 34
0.0
100
AcDbRotatedDimension
  0
DIMENSION
  5
CC06
330
1E
100
AcDbEntity
  8
30
100
AcDbDimension
  2
*D39
 10
2000.0
 20
620.7522400419991
 30
0.0
 11
2013.947697504578
 21
623.4303824890485
 31
0.0
 70
   160
 71
     5
 42
5.0
  3
Standard
100
AcDbAlignedDimension
 13
1995.0
 23
596.6384337040001
 33
0.0
 14
2000.0
 24
561.1584283479999
 34
0.0
100
AcDbRotatedDimension
  0
LINE
  5
CC07
330
1E
100
AcDbEntity
  8
16
100
AcDbLine
 10
1995.0
 20
606.6384337040001
 30
0.0
 11
1995.0
 21
-40.92933243149309
 31
0.0
  0
DIMENSION
  5
D150
330
1E
100
AcDbEntity
  8
30
100
AcDbDimension
  2
*D40
 10
1880.0
 20
260.7309019299991
 30
0.0
 11
1835.5
 21
264.9999999999987
 31
0.0
 70
   160
 71
     5
 42
20.0
  3
Standard
100
AcDbAlignedDimension
 13
1860.0
 23
285.0000000000001
 33
0.0
 14
1880.0
 24
285.0000000000001
 34
0.0
100
AcDbRotatedDimension
  0
DIMENSION
  5
D183
330
1E
100
AcDbEntity
  8
30
100
AcDbDimension
  2
*D41
 10
2000.0
 20
560.1584283479999
 30
0.0
 11
1930.714358371999
 21
560.1584283479999
 31
0.0
 70
   160
 71
     5
 42
130.0
  3
Standard
100
AcDbAlignedDimension
 13
1870.0
 23
528.6787719999998
 33
0.0
 14
2000.0
 24
517.890747311
 34
0.0
100
AcDbRotatedDimension
  0
LEADER
  5
D1C6
330
1E
100
AcDbEntity
  8
19
100
AcDbLeader
  3
Standard
 76
     3
 10
-145.2837289439998
 20
563.2
 30
0.0
 10
-300.1401105639997
 20
704.0740025570003
 30
0.0
 10
-523.4291506969998
 20
704.0740025570003
 30
0.0
  0
MTEXT
  5
D1C7
330
1E
100
AcDbEntity
  8
19
100
AcDbMText
 10
-523.3936190539998
 20
737.8759808249647
 30
0.0
 40
20.0
 41
0.0
 71
     1
 72
     5
  1
ARC BARRIER
 73
     1
 44
1.0
1001
ACAD
1000
MTEXTBEGIN
1070
    73
1070
     1
1070
    44
1040
1.0
1070
    74
1070
     0
1000
MTEXTEND
  0
MTEXT
  5
D1C8
330
1E
100
AcDbEntity
  8
19
100
AcDbMText
 10
-524.6604435992685
 20
695.4266929660002
 30
0.0
 40
20.0
 41
0.0
 71
     1
 72
     5
  1
(NOT SUPPLIED)
 73
     1
 44
1.0
1001
ACAD
1000
MTEXTBEGIN
1070
    73
1070
     1
1070
    44
1040
1.0
1070
    74
1070
     0
1000
MTEXTEND
  0
LWPOLYLINE
  5
D22C
330
1E
100
AcDbEntity
  8
10
100
AcDbPolyline
 90
        4
 70
     1
 43
0.0
 10
-211.4999965889986
 20
1000.0
 10
210.4999943510004
 20
1000.0
 10
210.4999943510004
 20
1277.0
 10
-211.4999965889986
 20
1277.0
  0
LWPOLYLINE
  5
D235
330
1E
100
AcDbEntity
  8
27
100
AcDbPolyline
 90
        4
 70
   128
 43
0.0
 10
-144.9999999999995
 20
1277.0
 10
-144.9999999999995
 20
1365.0
 10
-124.9999999999998
 20
1365.0
 10
-124.9999999999998
 20
1277.0
  0
LWPOLYLINE
  5
D236
330
1E
100
AcDbEntity
  8
27
100
AcDbPolyline
 90
        4
 70
   128
 43
0.0
 10
115.0000000000001
 20
1277.0
 10
115.0000000000001
 20
1365.0
 10
135.0000000000002
 20
1365.0
 10
135.0000000000002
 20
1277.0
  0
LWPOLYLINE
  5
D237
330
1E
100
AcDbEntity
  8
27
100
AcDbPolyline
 90
        4
 70
   128
 43
0.0
 10
-14.9999999999998
 20
1277.0
 10
-14.9999999999998
 20
1365.0
 10
4.999999999999744
 20
1365.0
 10
4.999999999999744
 20
1277.0
  0
DIMENSION
  5
D2E0
330
1E
100
AcDbEntity
  8
30
100
AcDbDimension
  2
*D42
 10
-776.4934424109992
 20
30.00000000000069
 30
0.0
 11
-776.4934424109992
 21
211.8006790989996
 31
0.0
 70
   160
 71
     5
 42
335.0
  3
Standard
100
AcDbAlignedDimension
 13
-874.9999999999996
 23
365.0000000000007
 33
0.0
 14
-874.9999999999996
 24
30.00000000000072
 34
0.0
 50
270.0
100
AcDbRotatedDimension
  0
DIMENSION
  5
D2E1
330
1E
100
AcDbEntity
  8
30
100
AcDbDimension
  2
*D43
 10
-600.7068435500907
 20
550.0000000000007
 30
0.0
 11
-600.7068435500914
 21
272.7711496570003
 31
0.0
 70
   160
 71
     5
 42
550.0
  3
Standard
100
AcDbAlignedDimension
 13
-781.2425531919998
 23
0.0000000000007336
 33
0.0
 14
-706.9999999999995
 24
550.0000000000007
 34
0.0
 50
90.0
100
AcDbRotatedDimension
  0
LWPOLYLINE
  5
D2E2
330
1E
100
AcDbEntity
  8
11
100
AcDbPolyline
 90
        4
 70
   129
 43
0.0
 10
-874.9999999999996
 20
365.0000000000007
 10
-874.9999999999996
 20
30.00000000000072
 10
-1124.999999999998
 20
30.00000000000072
 10
-1124.999999999998
 20
365.0000000000007
  0
LWPOLYLINE
  5
D2E3
330
1E
100
AcDbEntity
  8
18
100
AcDbPolyline
 90
        4
 70
   129
 43
0.0
 10
-706.9999999999995
 20
-99.99999999999928
 10
-1292.999999999998
 20
-99.99999999999928
 10
-1292.999999999998
 20
550.0000000000007
 10
-706.9999999999995
 20
550.0000000000007
  0
DIMENSION
  5
D2E5
330
1E
100
AcDbEntity
  8
30
100
AcDbDimension
  2
*D44
 10
-1292.999999999998
 20
-185.8246808509989
 30
0.0
 11
-1140.377259470997
 21
-185.8246808509989
 31
0.0
 70
   160
 71
     5
 42
292.9999999999982
  3
Standard
100
AcDbAlignedDimension
 13
-999.9999999999996
 23
-92.56422428000012
 33
0.0
 14
-1292.999999999998
 24
-99.99999999999928
 34
0.0
100
AcDbRotatedDimension
  0
DIMENSION
  5
D2E6
330
1E
100
AcDbEntity
  8
30
100
AcDbDimension
  2
*D45
 10
-706.9999999999995
 20
-186.1672530659994
 30
0.0
 11
-845.9582978729999
 21
-186.1672530659994
 31
0.0
 70
   160
 71
     5
 42
293.0000000000001
  3
Standard
100
AcDbAlignedDimension
 13
-999.9999999999996
 23
-92.56422428000012
 33
0.0
 14
-706.9999999999995
 24
-99.99999999999928
 34
0.0
100
AcDbRotatedDimension
  0
DIMENSION
  5
D2E7
330
1E
100
AcDbEntity
  8
30
100
AcDbDimension
  2
*D46
 10
-776.4934424109992
 20
0.0000000000007124
 30
0.0
 11
-776.4934424109992
 21
-30.53439911099935
 31
0.0
 70
   160
 71
     5
 42
29.99999999999998
  3
Standard
100
AcDbAlignedDimension
 13
-874.9999999999996
 23
30.00000000000072
 33
0.0
 14
-851.2324772903497
 24
0.0000000000007336
 34
0.0
 50
90.0
100
AcDbRotatedDimension
  0
DIMENSION
  5
D2E8
330
1E
100
AcDbEntity
  8
30
100
AcDbDimension
  2
*D47
 10
-874.9999999999996
 20
-68.34452665799897
 30
0.0
 11
-996.0432078779994
 21
-68.34452665799897
 31
0.0
 70
   160
 71
     5
 42
249.9999999999992
  3
Standard
100
AcDbAlignedDimension
 13
-1124.999999999998
 23
30.00000000000072
 33
0.0
 14
-874.9999999999996
 24
30.00000000000072
 34
0.0
100
AcDbRotatedDimension
  0
DIMENSION
  5
D2EA
330
1E
100
AcDbEntity
  8
30
100
AcDbDimension
  2
*D48
 10
-600.7068435500912
 20
-99.99999999999928
 30
0.0
 11
-600.7068435500914
 21
-48.32949019400047
 31
0.0
 70
   160
 71
     5
 42
100.0
  3
Standard
100
AcDbAlignedDimension
 13
-781.2425531919998
 23
0.0000000000007336
 33
0.0
 14
-706.9999999999995
 24
-99.99999999999928
 34
0.0
 50
90.0
100
AcDbRotatedDimension
  0
DIMENSION
  5
D62B
330
1E
100
AcDbEntity
  8
30
100
AcDbDimension
  2
*D51
 10
1277.108070658999
 20
127.4999937420001
 30
0.0
 11
1277.108070658999
 21
115.0383917392008
 31
0.0
 70
   160
  1
<> 
 71
     5
 42
25.0
  3
Standard
100
AcDbAlignedDimension
 13
1178.0
 23
102.4999937420002
 33
0.0
 14
1178.0
 24
127.4999937420002
 34
0.0
 50
90.0
100
AcDbRotatedDimension
  0
DIMENSION
  5
D62C
330
1E
100
AcDbEntity
  8
30
100
AcDbDimension
  2
*D53
 10
1276.779706835
 20
64.99999374200021
 30
0.0
 11
1276.779706835
 21
41.04673872676904
 31
0.0
 70
   160
 71
     5
 42
12.49999999999998
  3
Standard
100
AcDbAlignedDimension
 13
1178.0
 23
77.49999374200024
 33
0.0
 14
1193.0
 24
64.99999374200024
 34
0.0
 50
90.0
100
AcDbRotatedDimension
1001
ACAD
1000
DSTYLE
1002
{
1070
    41
1040
3.0
1002
}
  0
DIMENSION
  5
D62D
330
1E
100
AcDbEntity
  8
30
100
AcDbDimension
  2
*D52
 10
1277.108070658999
 20
102.4999937420001
 30
0.0
 11
1277.108070658999
 21
89.558946857067
 31
0.0
 70
   160
  1
<> 
 71
     5
 42
24.99999999999996
  3
Standard
100
AcDbAlignedDimension
 13
1178.0
 23
77.49999374200024
 33
0.0
 14
1178.0
 24
102.4999937420002
 34
0.0
 50
90.0
100
AcDbRotatedDimension
  0
DIMENSION
  5
D62E
330
1E
100
AcDbEntity
  8
30
100
AcDbDimension
  2
*D49
 10
1276.779706835
 20
164.999993742
 30
0.0
 11
1276.779706835
 21
185.9000656561273
 31
0.0
 70
   160
 71
     5
 42
12.5
  3
Standard
100
AcDbAlignedDimension
 13
1178.0
 23
152.499993742
 33
0.0
 14
1193.0
 24
164.999993742
 34
0.0
 50
90.0
100
AcDbRotatedDimension
1001
ACAD
1000
DSTYLE
1002
{
1070
    41
1040
3.0
1002
}
  0
DIMENSION
  5
D62F
330
1E
100
AcDbEntity
  8
30
100
AcDbDimension
  2
*D50
 10
1277.108070658999
 20
127.4999937420001
 30
0.0
 11
1277.108070658999
 21
139.7457397583929
 31
0.0
 70
   160
  1
<> 
 71
     5
 42
24.9999999999999
  3
Standard
100
AcDbAlignedDimension
 13
1178.0
 23
152.499993742
 33
0.0
 14
1178.0
 24
127.4999937420002
 34
0.0
 50
90.0
100
AcDbRotatedDimension
  0
LEADER
  5
D700
330
1E
100
AcDbEntity
  8
30
100
AcDbLeader
  3
Standard1
 76
     3
 10
1027.0
 20
442.0000000000061
 30
0.0
 10
1129.7024432135
 20
611.5911950136212
 30
0.0
 10
1273.350281863325
 20
611.4406615598633
 30
0.0
1001
ACAD
1000
DSTYLE
1002
{
1070
   147
1040
3.0
1070
    77
1070
     0
1002
}
  0
TEXT
  5
D701
330
1E
100
AcDbEntity
  8
19
100
AcDbText
 10
1148.805850947473
 20
614.735073991105
 30
0.0
 40
20.0
  1
2-%%C20
100
AcDbText
  0
TEXT
  5
D94F
330
1E
100
AcDbEntity
  8
19
100
AcDbText
 10
-6.265331073320794
 20
1422.743912785971
 30
0.0
 40
20.0
  1
P
 41
0.75
100
AcDbText
  0
TEXT
  5
D950
330
1E
100
AcDbEntity
  8
19
100
AcDbText
 10
-17.68089850052592
 20
1408.987683581642
 30
0.0
 40
20.0
  1
C
 41
0.75
100
AcDbText
  0
TEXT
  5
D951
330
1E
100
AcDbEntity
  8
19
100
AcDbText
 10
-7.680898500525927
 20
676.9876835816424
 30
0.0
 40
20.0
  1
C
 41
0.75
100
AcDbText
  0
TEXT
  5
D952
330
1E
100
AcDbEntity
  8
19
100
AcDbText
 10
3.734668926679205
 20
690.7439127859717
 30
0.0
 40
20.0
  1
P
 41
0.75
100
AcDbText
  0
MTEXT
  5
D953
330
1E
100
AcDbEntity
  8
19
100
AcDbMText
 10
1382.477812414689
 20
609.3575185181369
 30
0.0
 40
20.0
 41
0.0
 71
     1
 72
     5
  1
WITH TERMINAL COVER
 73
     1
 44
1.0
1001
ACAD
1000
MTEXTBEGIN
1070
    73
1070
     1
1070
    44
1040
1.0
1070
    74
1070
     0
1000
MTEXTEND
  0
LEADER
  5
D954
330
1E
100
AcDbEntity
  8
19
100
AcDbLeader
  3
Standard
 74
     0
 76
     3
 10
1344.756002953691
 20
492.6916220315225
 30
0.0
 10
1377.42934750669
 20
583.581295053522
 30
0.0
 10
1705.888490064267
 20
583.6035330786377
 30
0.0
  0
LEADER
  5
D960
330
1E
100
AcDbEntity
  8
30
100
AcDbLeader
  3
Standard1
 76
     3
 10
1179.181409382173
 20
373.5679269776155
 30
0.0
 10
1211.485833983632
 20
431.7014354771763
 30
0.0
 10
1286.621432184045
 20
431.1408976870659
 30
0.0
1001
ACAD
1000
DSTYLE
1002
{
1070
   147
1040
3.0
1070
    77
1070
     0
1002
}
  0
MTEXT
  5
DA30
330
1E
100
AcDbEntity
  8
240
100
AcDbMText
 10
-1146.457523238966
 20
-228.8240874387536
 30
0.0
 40
35.0
 41
0.0
 71
     1
 72
     5
  1
PANEL CUTOUT
  7
SLDTEXTSTYLE1
 73
     1
 44
1.0
1001
ACAD
1000
MTEXTBEGIN
1070
    73
1070
     1
1070
    44
1040
1.0
1070
    74
1070
     0
1000
MTEXTEND
  0
TEXT
  5
DF56
330
1E
100
AcDbEntity
  8
19
100
AcDbText
 10
1776.300359134269
 20
1109.578366284273
 30
0.0
 40
20.0
  1
:FRONT PANEL CENTER LINE
100
AcDbText
  0
TEXT
  5
DF57
330
1E
100
AcDbEntity
  8
19
100
AcDbText
 10
1746.052128228714
 20
1114.301581396295
 30
-0.0000000000000136
 40
20.0
  1
P
 50
0.000002504494757
100
AcDbText
  0
TEXT
  5
DF58
330
1E
100
AcDbEntity
  8
19
100
AcDbText
 10
1738.734012994338
 20
1100.424628271295
 30
-0.0000000000000136
 40
20.0
  1
C
 50
0.000002504494757
100
AcDbText
  0
LWPOLYLINE
  5
DFDA
330
1E
100
AcDbEntity
  8
10
100
AcDbPolyline
 90
        7
 70
   128
 43
0.0
 10
210.5000000000014
 20
460.0000000000001
 10
210.5000000000014
 20
450.0000000000001
 10
210.5000000000014
 20
161.4142135629998
 10
210.5000000000014
 20
160.7071067819999
 10
210.4999943510004
 20
156.0000001299989
 10
210.5000000000013
 20
136.8243724599986
 42
-0.35904881009457
 10
207.1012206774076
 20
132.7015038680962
  0
LWPOLYLINE
  5
DFDB
330
1E
100
AcDbEntity
  8
34
100
AcDbPolyline
 90
        4
 70
   128
 43
0.0
 10
-211.4999999999997
 20
460.9826758345161
 10
-211.4999999999997
 20
490.0000000000002
 10
210.5000000000014
 20
490.0000000000002
 10
210.5000000000014
 20
463.9534404073391
  0
DIMENSION
  5
E2AC
330
1E
100
AcDbEntity
  8
30
100
AcDbDimension
  2
*D60
 10
-693.6453671497747
 20
1081.999999999996
 30
0.0
 11
-701.645367149775
 21
1164.499999999995
 31
0.0
 70
    32
 71
     5
 42
165.0
  3
Standard1
100
AcDbAlignedDimension
 13
-772.4999999999988
 23
1246.999999999996
 33
0.0
 14
-772.4999999999992
 24
1081.999999999996
 34
0.0
 50
90.0
100
AcDbRotatedDimension
  0
DIMENSION
  5
E2AD
330
1E
100
AcDbEntity
  8
30
100
AcDbDimension
  2
*D61
 10
-999.9999999999996
 20
948.3842652287068
 30
0.0
 11
-1108.749999999999
 21
956.3842652287068
 31
0.0
 70
    32
 71
     5
 42
217.4999999999992
  3
Standard1
100
AcDbAlignedDimension
 13
-1217.499999999998
 23
1072.0
 33
0.0
 14
-999.9999999999996
 24
1000.0
 34
0.0
100
AcDbRotatedDimension
  0
CIRCLE
  5
E2AE
330
1E
100
AcDbEntity
  8
12
100
AcDbCircle
 10
-1217.499999999998
 20
1081.999999999996
 30
0.0
 40
7.0
  0
LINE
  5
E2AF
330
1E
100
AcDbEntity
  8
12
100
AcDbLine
 10
-1207.499999999998
 20
1082.0
 30
0.0
 11
-1227.499999999999
 21
1082.0
 31
0.0
  0
LINE
  5
E2B0
330
1E
100
AcDbEntity
  8
12
100
AcDbLine
 10
-1217.499999999998
 20
1092.0
 30
0.0
 11
-1217.499999999998
 21
1072.0
 31
0.0
  0
DIMENSION
  5
E2B1
330
1E
100
AcDbEntity
  8
30
100
AcDbDimension
  2
*D62
 10
-782.4999999999992
 20
948.3842652287066
 30
0.0
 11
-891.2499999999994
 21
956.3842652287066
 31
0.0
 70
    32
 71
     5
 42
217.5000000000004
  3
Standard1
100
AcDbAlignedDimension
 13
-999.9999999999996
 23
998.0
 33
0.0
 14
-782.4999999999992
 24
1071.999999999997
 34
0.0
100
AcDbRotatedDimension
  0
DIMENSION
  5
E2B2
330
1E
100
AcDbEntity
  8
30
100
AcDbDimension
  2
*D63
 10
-693.6453671497747
 20
999.9999999999996
 30
0.0
 11
-701.645367149775
 21
1040.999999999997
 31
0.0
 70
    32
 71
     5
 42
81.99999999999647
  3
Standard1
100
AcDbAlignedDimension
 13
-775.4999999999987
 23
1081.999999999996
 33
0.0
 14
-775.4999999999987
 24
999.9999999999996
 34
0.0
 50
90.0
100
AcDbRotatedDimension
  0
LINE
  5
E2B3
330
1E
100
AcDbEntity
  8
12
100
AcDbLine
 10
-782.4999999999992
 20
1091.999999999997
 30
0.0
 11
-782.4999999999992
 21
1071.999999999997
 31
0.0
  0
LINE
  5
E2B4
330
1E
100
AcDbEntity
  8
12
100
AcDbLine
 10
-772.4999999999992
 20
1081.999999999996
 30
0.0
 11
-792.499999999999
 21
1081.999999999996
 31
0.0
  0
CIRCLE
  5
E2B5
330
1E
100
AcDbEntity
  8
12
100
AcDbCircle
 10
-782.4999999999987
 20
1081.999999999996
 30
0.0
 40
7.0
  0
LINE
  5
E2B6
330
1E
100
AcDbEntity
  8
12
100
AcDbLine
 10
-1217.499999999998
 20
1256.999999999996
 30
0.0
 11
-1217.499999999998
 21
1236.999999999996
 31
0.0
  0
CIRCLE
  5
E2B7
330
1E
100
AcDbEntity
  8
12
100
AcDbCircle
 10
-1217.499999999998
 20
1246.999999999997
 30
0.0
 40
7.0
  0
LINE
  5
E2B8
330
1E
100
AcDbEntity
  8
12
100
AcDbLine
 10
-1207.499999999998
 20
1246.999999999997
 30
0.0
 11
-1227.499999999999
 21
1246.999999999997
 31
0.0
  0
LEADER
  5
E2B9
330
1E
100
AcDbEntity
  8
30
100
AcDbLeader
  3
Standard1
 76
     3
 10
-782.4999999999987
 20
1253.999999999995
 30
0.0
 10
-754.8635968900128
 20
1279.717112470873
 30
0.0
 10
-709.5646758933257
 20
1279.717112470873
 30
0.0
  0
LINE
  5
E2BA
330
1E
100
AcDbEntity
  8
12
100
AcDbLine
 10
-782.4999999999987
 20
1256.999999999996
 30
0.0
 11
-782.4999999999987
 21
1236.999999999996
 31
0.0
  0
LINE
  5
E2BB
330
1E
100
AcDbEntity
  8
12
100
AcDbLine
 10
-772.4999999999988
 20
1246.999999999996
 30
0.0
 11
-792.4999999999987
 21
1246.999999999996
 31
0.0
  0
CIRCLE
  5
E2BC
330
1E
100
AcDbEntity
  8
12
100
AcDbCircle
 10
-782.4999999999987
 20
1246.999999999996
 30
0.0
 40
7.0
  0
TEXT
  5
E2BD
330
1E
100
AcDbEntity
  8
30
100
AcDbText
 10
-746.9610932706894
 20
1284.523724235808
 30
0.0
 40
10.0
  1
%%C14
100
AcDbText
  0
LWPOLYLINE
  5
E354
330
1E
100
AcDbEntity
  8
27
100
AcDbPolyline
 90
        4
 70
     1
 43
0.0
 10
1193.0
 20
164.999999999999
 10
1146.0
 20
164.999999999999
 10
1146.0
 20
64.99999999999904
 10
1193.0
 20
64.99999999999904
  0
LWPOLYLINE
  5
E364
330
1E
100
AcDbEntity
  8
27
100
AcDbPolyline
 90
        4
 70
     1
 43
0.0
 10
1193.0
 20
385.0000000000002
 10
1146.0
 20
385.0000000000002
 10
1146.0
 20
285.0000000000001
 10
1193.0
 20
285.0000000000001
  0
VIEWPORT
  5
9AC
102
{ACAD_XDICTIONARY
360
E63B
102
}
330
1A
100
AcDbEntity
 67
     1
  8
0
  6
Continuous
100
AcDbViewport
 10
295.3661742724661
 20
113.0520745267777
 30
0.0
 40
1096.979222590138
 41
592.4975840212881
 68
     1
 69
     1
 12
295.3661742724661
 22
113.0520745267777
 13
0.0
 23
0.0
 14
10.0
 24
10.0
 15
10.0
 25
10.0
 16
0.0
 26
0.0
 36
1.0
 17
0.0
 27
0.0
 37
0.0
 42
50.0
 43
0.0
 44
0.0
 45
592.4975840212881
 50
0.0
 51
0.0
 72
   100
 90
    32800
  1

281
     0
 71
     1
 74
     0
110
0.0
120
0.0
130
0.0
111
1.0
121
0.0
131
0.0
112
0.0
122
1.0
132
0.0
 79
     0
146
0.0
  0
ENDSEC
  0
SECTION
  2
OBJECTS
  0
DICTIONARY
  5
C
330
0
100
AcDbDictionary
281
     1
  3
ACAD_COLOR
350
E5DB
  3
ACAD_GROUP
350
D
  3
ACAD_LAYOUT
350
19
  3
ACAD_MATERIAL
350
E5AE
  3
ACAD_MLEADERSTYLE
350
E600
  3
ACAD_MLINESTYLE
350
16
  3
ACAD_PLOTSETTINGS
350
18
  3
ACAD_PLOTSTYLENAME
350
E
  3
ACAD_SCALELIST
350
E5DE
  3
ACAD_TABLESTYLE
350
E5DC
  3
ACAD_VISUALSTYLE
350
E5C7
  3
AcadDim
350
D95F
  3
ACDB_RECOMPOSE_DATA
350
E637
  3
AcDbVariableDictionary
350
6CB8
  3
DWGPROPS
350
E638
  0
DICTIONARY
  5
E607
330
2
100
AcDbDictionary
280
     1
281
     1
  3
ACAD_LAYERSTATES
360
E608
  0
DICTIONARY
  5
E618
330
10
100
AcDbDictionary
280
     1
281
     1
  3
ADSK_XREC_LAYER_RECONCILED
360
E619
  0
DICTIONARY
  5
E61A
330
2F
100
AcDbDictionary
280
     1
281
     1
  3
ADSK_XREC_LAYER_RECONCILED
360
E61B
  0
DICTIONARY
  5
E61C
330
31
100
AcDbDictionary
280
     1
281
     1
  3
ADSK_XREC_LAYER_RECONCILED
360
E61D
  0
DICTIONARY
  5
E61E
330
35
100
AcDbDictionary
280
     1
281
     1
  3
ADSK_XREC_LAYER_RECONCILED
360
E61F
  0
DICTIONARY
  5
E620
330
38
100
AcDbDictionary
280
     1
281
     1
  3
ADSK_XREC_LAYER_RECONCILED
360
E621
  0
DICTIONARY
  5
E622
330
3C
100
AcDbDictionary
280
     1
281
     1
  3
ADSK_XREC_LAYER_RECONCILED
360
E623
  0
DICTIONARY
  5
E624
330
3A2
100
AcDbDictionary
280
     1
281
     1
  3
ADSK_XREC_LAYER_RECONCILED
360
E625
  0
DICTIONARY
  5
E626
330
33C8
100
AcDbDictionary
280
     1
281
     1
  3
ADSK_XREC_LAYER_RECONCILED
360
E627
  0
DICTIONARY
  5
E628
330
39DB
100
AcDbDictionary
280
     1
281
     1
  3
ADSK_XREC_LAYER_RECONCILED
360
E629
  0
DICTIONARY
  5
E62A
330
D13D
100
AcDbDictionary
280
     1
281
     1
  3
ADSK_XREC_LAYER_RECONCILED
360
E62B
  0
DICTIONARY
  5
E62C
330
DA2A
100
AcDbDictionary
280
     1
281
     1
  3
ADSK_XREC_LAYER_RECONCILED
360
E62D
  0
DICTIONARY
  5
E62E
330
DFAE
100
AcDbDictionary
280
     1
281
     1
  3
ADSK_XREC_LAYER_RECONCILED
360
E62F
  0
DICTIONARY
  5
178
330
1E
100
AcDbDictionary
280
     1
281
     1
  3
ACAD_LAYOUTSELFREF
360
818C
  0
DICTIONARY
  5
17A
330
1A
100
AcDbDictionary
280
     1
281
     1
  3
ACAD_LAYOUTSELFREF
360
818B
  0
DICTIONARY
  5
E63B
330
9AC
100
AcDbDictionary
280
     1
281
     1
  3
ACAD_XREC_ROUNDTRIP
360
E63C
  0
DICTIONARY
  5
E5DB
102
{ACAD_REACTORS
330
C
102
}
330
C
100
AcDbDictionary
281
     1
  0
DICTIONARY
  5
D
102
{ACAD_REACTORS
330
C
102
}
330
C
100
AcDbDictionary
281
     1
  3
*A1
350
133D
  3
*A2
350
1341
  0
DICTIONARY
  5
19
102
{ACAD_REACTORS
330
C
102
}
330
C
100
AcDbDictionary
281
     1
  3
Model
350
21
  3
ﾚｲｱｳﾄ1
350
1D
  0
DICTIONARY
  5
E5AE
102
{ACAD_REACTORS
330
C
102
}
330
C
100
AcDbDictionary
281
     1
  3
ByBlock
350
E5B7
  3
ByLayer
350
E5AF
  3
Global
350
E5BF
  0
DICTIONARY
  5
E600
102
{ACAD_REACTORS
330
C
102
}
330
C
100
AcDbDictionary
281
     1
  3
Standard
350
E601
  0
DICTIONARY
  5
16
102
{ACAD_REACTORS
330
C
102
}
330
C
100
AcDbDictionary
281
     1
  3
Standard
350
17
  0
DICTIONARY
  5
18
102
{ACAD_REACTORS
330
C
102
}
330
C
100
AcDbDictionary
281
     1
  0
ACDBDICTIONARYWDFLT
  5
E
102
{ACAD_REACTORS
330
C
102
}
330
C
100
AcDbDictionary
281
     1
  3
Normal
350
F
100
AcDbDictionaryWithDefault
340
F
  0
DICTIONARY
  5
E5DE
102
{ACAD_REACTORS
330
C
102
}
330
C
100
AcDbDictionary
281
     1
  3
A0
350
E5DF
  3
A1
350
E5E0
  3
A2
350
E5E1
  3
A3
350
E5E2
  3
A4
350
E5E3
  3
A5
350
E5E4
  3
A6
350
E5E5
  3
A7
350
E5E6
  3
A8
350
E5E7
  3
A9
350
E5E8
  3
B0
350
E5E9
  3
B1
350
E5EA
  3
B2
350
E5EB
  3
B3
350
E5EC
  3
B4
350
E5ED
  3
B5
350
E5EE
  3
B6
350
E5EF
  3
B7
350
E5F0
  3
B8
350
E5F1
  3
B9
350
E5F2
  3
C0
350
E5F3
  3
C1
350
E5F4
  3
C2
350
E5F5
  3
C3
350
E5F6
  3
C4
350
E5F7
  3
C5
350
E5F8
  3
C6
350
E5F9
  3
C7
350
E5FA
  3
C8
350
E5FB
  3
C9
350
E5FC
  3
D0
350
E5FD
  3
D1
350
E5FE
  3
D2
350
E5FF
  0
DICTIONARY
  5
E5DC
102
{ACAD_REACTORS
330
C
102
}
330
C
100
AcDbDictionary
281
     1
  3
Standard
350
E5DD
  0
DICTIONARY
  5
E5C7
102
{ACAD_REACTORS
330
C
102
}
330
C
100
AcDbDictionary
281
     1
  3
2dWireframe
350
E5CD
  3
3D Hidden
350
E5CF
  3
3dWireframe
350
E5CE
  3
Basic
350
E5CC
  3
Brighten
350
E5D3
  3
ColorChange
350
E5D7
  3
Conceptual
350
E5D0
  3
Dim
350
E5D2
  3
EdgeColorOff
350
E5DA
  3
Facepattern
350
E5D6
  3
Flat
350
E5C8
  3
FlatWithEdges
350
E5C9
  3
Gouraud
350
E5CA
  3
GouraudWithEdges
350
E5CB
  3
JitterOff
350
E5D8
  3
Linepattern
350
E5D5
  3
OverhangOff
350
E5D9
  3
Realistic
350
E5D1
  3
Thicken
350
E5D4
  0
XRECORD
  5
D95F
102
{ACAD_REACTORS
330
C
102
}
330
C
100
AcDbXrecord
280
     1
 90
   990106
  3

 60
     0
 61
     0
 62
     1
 63
     3
 64
     0
 65
     0
 66
     0
 67
     3
 68
     1
 69
     0
 70
     0
 71
     0
 72
     0
 40
0.0
170
     0
  0
XRECORD
  5
E637
102
{ACAD_REACTORS
330
C
102
}
330
C
100
AcDbXrecord
280
     1
 90
        1
330
E5DD
  0
DICTIONARY
  5
6CB8
102
{ACAD_REACTORS
330
C
102
}
330
C
100
AcDbDictionary
281
     1
  3
CANNOSCALE
350
E632
  3
CMLEADERSTYLE
350
E631
  3
CTABLESTYLE
350
E630
  3
DIMASSOC
350
81A4
  3
INDEXCTL
350
E633
  3
SORTENTS
350
6CB9
  3
XCLIPFRAME
350
E634
  0
XRECORD
  5
E638
102
{ACAD_REACTORS
330
C
102
}
330
C
100
AcDbXrecord
280
     1
  1
DWGPROPS COOKIE
  2

  3

  4

  6

  7

  8
CAD-PC
  9

300
=
301
=
302
=
303
=
304
=
305
=
306
=
307
=
308
=
309
=
 40
2.151051967592592
 41
2452286.555658658
 42
2456974.366407338
  1

 90
        0
  0
DICTIONARY
  5
E608
102
{ACAD_REACTORS
330
E607
102
}
330
E607
100
AcDbDictionary
281
     1
  0
XRECORD
  5
E619
102
{ACAD_REACTORS
330
E618
102
}
330
E618
100
AcDbXrecord
280
     1
290
     1
  0
XRECORD
  5
E61B
102
{ACAD_REACTORS
330
E61A
102
}
330
E61A
100
AcDbXrecord
280
     1
290
     1
  0
XRECORD
  5
E61D
102
{ACAD_REACTORS
330
E61C
102
}
330
E61C
100
AcDbXrecord
280
     1
290
     1
  0
XRECORD
  5
E61F
102
{ACAD_REACTORS
330
E61E
102
}
330
E61E
100
AcDbXrecord
280
     1
290
     1
  0
XRECORD
  5
E621
102
{ACAD_REACTORS
330
E620
102
}
330
E620
100
AcDbXrecord
280
     1
290
     1
  0
XRECORD
  5
E623
102
{ACAD_REACTORS
330
E622
102
}
330
E622
100
AcDbXrecord
280
     1
290
     1
  0
XRECORD
  5
E625
102
{ACAD_REACTORS
330
E624
102
}
330
E624
100
AcDbXrecord
280
     1
290
     1
  0
XRECORD
  5
E627
102
{ACAD_REACTORS
330
E626
102
}
330
E626
100
AcDbXrecord
280
     1
290
     1
  0
XRECORD
  5
E629
102
{ACAD_REACTORS
330
E628
102
}
330
E628
100
AcDbXrecord
280
     1
290
     1
  0
XRECORD
  5
E62B
102
{ACAD_REACTORS
330
E62A
102
}
330
E62A
100
AcDbXrecord
280
     1
290
     1
  0
XRECORD
  5
E62D
102
{ACAD_REACTORS
330
E62C
102
}
330
E62C
100
AcDbXrecord
280
     1
290
     1
  0
XRECORD
  5
E62F
102
{ACAD_REACTORS
330
E62E
102
}
330
E62E
100
AcDbXrecord
280
     1
290
     1
  0
XRECORD
  5
818C
102
{ACAD_REACTORS
330
178
102
}
330
178
100
AcDbXrecord
280
     1
340
1E
  0
XRECORD
  5
818B
102
{ACAD_REACTORS
330
17A
102
}
330
17A
100
AcDbXrecord
280
     1
340
1A
  0
XRECORD
  5
E63C
102
{ACAD_REACTORS
330
E63B
102
}
330
E63B
100
AcDbXrecord
280
     1
102
SHADEPLOT
 70
     0
  0
GROUP
  5
133D
102
{ACAD_REACTORS
330
D
102
}
330
D
100
AcDbGroup
300

 70
     0
 71
     1
  0
GROUP
  5
1341
102
{ACAD_REACTORS
330
D
102
}
330
D
100
AcDbGroup
300

 70
     1
 71
     1
  0
LAYOUT
  5
21
102
{ACAD_XDICTIONARY
360
E60D
102
}
102
{ACAD_REACTORS
330
19
102
}
330
19
100
AcDbPlotSettings
  1

  2
DocuWorks Printer
  4
A3
  6
OLE1
 40
5.408083438873291
 41
5.408078670501708
 42
5.4080810546875
 43
5.4080810546875
 44
297.0106506347656
 45
419.9889831542968
 46
53.36
 47
-3.77
 48
0.0
 49
0.0
140
0.0
141
0.0
142
1.0
143
10.0
 70
 11940
 72
     1
 73
     1
 74
     1
  7
monochrome.ctb
 75
     0
147
0.1
148
1546.006701975371
149
263.98944311611
100
AcDbLayout
  1
Model
 70
     1
 71
     0
 10
0.0
 20
0.0
 11
12.0
 21
9.0
 12
0.0
 22
0.0
 32
0.0
 14
0.0
 24
0.0
 34
0.0
 15
0.0
 25
0.0
 35
0.0
146
0.0
 13
0.0
 23
0.0
 33
0.0
 16
1.0
 26
0.0
 36
0.0
 17
0.0
 27
1.0
 37
0.0
 76
     0
330
1E
331
E583
  0
LAYOUT
  5
1D
102
{ACAD_XDICTIONARY
360
E616
102
}
102
{ACAD_REACTORS
330
19
102
}
330
19
100
AcDbPlotSettings
  1

  2
EPSON LP-8300
  4
A4
  6

 40
5.873749732971191
 41
5.873747825622557
 42
5.873748779296875
 43
5.873748779296875
 44
297.0106506347656
 45
209.9733276367186
 46
0.0
 47
0.0
 48
0.0
 49
0.0
140
0.0
141
0.0
142
1.0
143
1.0
 70
   672
 72
     1
 73
     1
 74
     5
  7
MCCB.ctb
 75
     0
147
1.0
148
0.0
149
0.0
100
AcDbLayout
  1
ﾚｲｱｳﾄ1
 70
     0
 71
     1
 10
-5.873748779296875
 20
-5.873749732971191
 11
204.0995788574218
 21
291.1369009017943
 12
0.0
 22
0.0
 32
0.0
 14
4.273573370203976
 24
5.205246163471457
 34
0.0
 15
194.6100952986349
 25
283.0697008572914
 35
0.0
146
0.0
 13
0.0
 23
0.0
 33
0.0
 16
1.0
 26
0.0
 36
0.0
 17
0.0
 27
1.0
 37
0.0
 76
     0
330
1A
331
9AC
  0
MATERIAL
  5
E5B7
102
{ACAD_XDICTIONARY
360
E5B8
102
}
102
{ACAD_REACTORS
330
E5AE
102
}
330
E5AE
100
AcDbMaterial
  1
ByBlock
 72
     0
 43
0.0208333333333333
 43
0.0
 43
0.0
 43
0.0
 43
0.0
 43
0.0208333333333333
 43
0.0
 43
0.0
 43
0.0
 43
0.0
 43
1.0
 43
0.0
 43
0.0
 43
0.0
 43
0.0
 43
1.0
 77
     0
 47
0.0208333333333333
 47
0.0
 47
0.0
 47
0.0
 47
0.0
 47
0.0208333333333333
 47
0.0
 47
0.0
 47
0.0
 47
0.0
 47
1.0
 47
0.0
 47
0.0
 47
0.0
 47
0.0
 47
1.0
171
     0
 49
0.0208333333333333
 49
0.0
 49
0.0
 49
0.0
 49
0.0
 49
0.0208333333333333
 49
0.0
 49
0.0
 49
0.0
 49
0.0
 49
1.0
 49
0.0
 49
0.0
 49
0.0
 49
0.0
 49
1.0
175
     0
142
0.0208333333333333
142
0.0
142
0.0
142
0.0
142
0.0
142
0.0208333333333333
142
0.0
142
0.0
142
0.0
142
0.0
142
1.0
142
0.0
142
0.0
142
0.0
142
0.0
142
1.0
179
     0
144
0.0208333333333333
144
0.0
144
0.0
144
0.0
144
0.0
144
0.0208333333333333
144
0.0
144
0.0
144
0.0
144
0.0
144
1.0
144
0.0
144
0.0
144
0.0
144
0.0
144
1.0
147
0.0208333333333333
147
0.0
147
0.0
147
0.0
147
0.0
147
0.0208333333333333
147
0.0
147
0.0
147
0.0
147
0.0
147
1.0
147
0.0
147
0.0
147
0.0
147
0.0
147
1.0
  0
MATERIAL
  5
E5AF
102
{ACAD_XDICTIONARY
360
E5B0
102
}
102
{ACAD_REACTORS
330
E5AE
102
}
330
E5AE
100
AcDbMaterial
  1
ByLayer
 72
     0
 43
0.0208333333333333
 43
0.0
 43
0.0
 43
0.0
 43
0.0
 43
0.0208333333333333
 43
0.0
 43
0.0
 43
0.0
 43
0.0
 43
1.0
 43
0.0
 43
0.0
 43
0.0
 43
0.0
 43
1.0
 77
     0
 47
0.0208333333333333
 47
0.0
 47
0.0
 47
0.0
 47
0.0
 47
0.0208333333333333
 47
0.0
 47
0.0
 47
0.0
 47
0.0
 47
1.0
 47
0.0
 47
0.0
 47
0.0
 47
0.0
 47
1.0
171
     0
 49
0.0208333333333333
 49
0.0
 49
0.0
 49
0.0
 49
0.0
 49
0.0208333333333333
 49
0.0
 49
0.0
 49
0.0
 49
0.0
 49
1.0
 49
0.0
 49
0.0
 49
0.0
 49
0.0
 49
1.0
175
     0
142
0.0208333333333333
142
0.0
142
0.0
142
0.0
142
0.0
142
0.0208333333333333
142
0.0
142
0.0
142
0.0
142
0.0
142
1.0
142
0.0
142
0.0
142
0.0
142
0.0
142
1.0
179
     0
144
0.0208333333333333
144
0.0
144
0.0
144
0.0
144
0.0
144
0.0208333333333333
144
0.0
144
0.0
144
0.0
144
0.0
144
1.0
144
0.0
144
0.0
144
0.0
144
0.0
144
1.0
147
0.0208333333333333
147
0.0
147
0.0
147
0.0
147
0.0
147
0.0208333333333333
147
0.0
147
0.0
147
0.0
147
0.0
147
1.0
147
0.0
147
0.0
147
0.0
147
0.0
147
1.0
  0
MATERIAL
  5
E5BF
102
{ACAD_XDICTIONARY
360
E5C0
102
}
102
{ACAD_REACTORS
330
E5AE
102
}
330
E5AE
100
AcDbMaterial
  1
Global
 72
     0
 43
0.0208333333333333
 43
0.0
 43
0.0
 43
0.0
 43
0.0
 43
0.0208333333333333
 43
0.0
 43
0.0
 43
0.0
 43
0.0
 43
1.0
 43
0.0
 43
0.0
 43
0.0
 43
0.0
 43
1.0
 77
     0
 47
0.0208333333333333
 47
0.0
 47
0.0
 47
0.0
 47
0.0
 47
0.0208333333333333
 47
0.0
 47
0.0
 47
0.0
 47
0.0
 47
1.0
 47
0.0
 47
0.0
 47
0.0
 47
0.0
 47
1.0
171
     0
 49
0.0208333333333333
 49
0.0
 49
0.0
 49
0.0
 49
0.0
 49
0.0208333333333333
 49
0.0
 49
0.0
 49
0.0
 49
0.0
 49
1.0
 49
0.0
 49
0.0
 49
0.0
 49
0.0
 49
1.0
175
     0
142
0.0208333333333333
142
0.0
142
0.0
142
0.0
142
0.0
142
0.0208333333333333
142
0.0
142
0.0
142
0.0
142
0.0
142
1.0
142
0.0
142
0.0
142
0.0
142
0.0
142
1.0
179
     0
144
0.0208333333333333
144
0.0
144
0.0
144
0.0
144
0.0
144
0.0208333333333333
144
0.0
144
0.0
144
0.0
144
0.0
144
1.0
144
0.0
144
0.0
144
0.0
144
0.0
144
1.0
147
0.0208333333333333
147
0.0
147
0.0
147
0.0
147
0.0
147
0.0208333333333333
147
0.0
147
0.0
147
0.0
147
0.0
147
1.0
147
0.0
147
0.0
147
0.0
147
0.0
147
1.0
  0
MLEADERSTYLE
  5
E601
102
{ACAD_REACTORS
330
E600
102
}
330
E600
100
AcDbMLeaderStyle
170
     2
171
     1
172
     0
 90
        2
 40
0.0
 41
0.0
173
     1
 91
-1056964608
340
13
 92
       -2
290
     1
 42
0.09
291
     1
 43
0.36
  3
Standard
 44
0.18
300

342
11
174
     1
178
     6
175
     1
176
     0
 93
-1056964608
 45
0.18
292
     0
297
     0
 46
0.18
 94
-1056964608
 47
1.0
 49
1.0
140
1.0
293
     1
141
0.0
294
     1
177
     0
142
1.0
295
     0
296
     0
143
0.125
1001
ACAD_MLEADERVER
1070
     2
  0
MLINESTYLE
  5
17
102
{ACAD_REACTORS
330
16
102
}
330
16
100
AcDbMlineStyle
  2
STANDARD
 70
     0
  3

 62
   256
 51
90.0
 52
90.0
 71
     2
 49
0.5
 62
   256
  6
BYLAYER
 49
-0.5
 62
   256
  6
BYLAYER
  0
ACDBPLACEHOLDER
  5
F
102
{ACAD_REACTORS
330
E
102
}
330
E
  0
SCALE
  5
E5DF
102
{ACAD_REACTORS
330
E5DE
102
}
330
E5DE
100
AcDbScale
 70
     0
300
1:1
140
1.0
141
1.0
290
     1
  0
SCALE
  5
E5E0
102
{ACAD_REACTORS
330
E5DE
102
}
330
E5DE
100
AcDbScale
 70
     0
300
1:2
140
1.0
141
2.0
290
     0
  0
SCALE
  5
E5E1
102
{ACAD_REACTORS
330
E5DE
102
}
330
E5DE
100
AcDbScale
 70
     0
300
1:4
140
1.0
141
4.0
290
     0
  0
SCALE
  5
E5E2
102
{ACAD_REACTORS
330
E5DE
102
}
330
E5DE
100
AcDbScale
 70
     0
300
1:5
140
1.0
141
5.0
290
     0
  0
SCALE
  5
E5E3
102
{ACAD_REACTORS
330
E5DE
102
}
330
E5DE
100
AcDbScale
 70
     0
300
1:8
140
1.0
141
8.0
290
     0
  0
SCALE
  5
E5E4
102
{ACAD_REACTORS
330
E5DE
102
}
330
E5DE
100
AcDbScale
 70
     0
300
1:10
140
1.0
141
10.0
290
     0
  0
SCALE
  5
E5E5
102
{ACAD_REACTORS
330
E5DE
102
}
330
E5DE
100
AcDbScale
 70
     0
300
1:16
140
1.0
141
16.0
290
     0
  0
SCALE
  5
E5E6
102
{ACAD_REACTORS
330
E5DE
102
}
330
E5DE
100
AcDbScale
 70
     0
300
1:20
140
1.0
141
20.0
290
     0
  0
SCALE
  5
E5E7
102
{ACAD_REACTORS
330
E5DE
102
}
330
E5DE
100
AcDbScale
 70
     0
300
1:30
140
1.0
141
30.0
290
     0
  0
SCALE
  5
E5E8
102
{ACAD_REACTORS
330
E5DE
102
}
330
E5DE
100
AcDbScale
 70
     0
300
1:40
140
1.0
141
40.0
290
     0
  0
SCALE
  5
E5E9
102
{ACAD_REACTORS
330
E5DE
102
}
330
E5DE
100
AcDbScale
 70
     0
300
1:50
140
1.0
141
50.0
290
     0
  0
SCALE
  5
E5EA
102
{ACAD_REACTORS
330
E5DE
102
}
330
E5DE
100
AcDbScale
 70
     0
300
1:100
140
1.0
141
100.0
290
     0
  0
SCALE
  5
E5EB
102
{ACAD_REACTORS
330
E5DE
102
}
330
E5DE
100
AcDbScale
 70
     0
300
2:1
140
2.0
141
1.0
290
     0
  0
SCALE
  5
E5EC
102
{ACAD_REACTORS
330
E5DE
102
}
330
E5DE
100
AcDbScale
 70
     0
300
4:1
140
4.0
141
1.0
290
     0
  0
SCALE
  5
E5ED
102
{ACAD_REACTORS
330
E5DE
102
}
330
E5DE
100
AcDbScale
 70
     0
300
8:1
140
8.0
141
1.0
290
     0
  0
SCALE
  5
E5EE
102
{ACAD_REACTORS
330
E5DE
102
}
330
E5DE
100
AcDbScale
 70
     0
300
10:1
140
10.0
141
1.0
290
     0
  0
SCALE
  5
E5EF
102
{ACAD_REACTORS
330
E5DE
102
}
330
E5DE
100
AcDbScale
 70
     0
300
100:1
140
100.0
141
1.0
290
     0
  0
SCALE
  5
E5F0
102
{ACAD_REACTORS
330
E5DE
102
}
330
E5DE
100
AcDbScale
 70
     0
300
1/128" = 1'-0"
140
0.0078125
141
12.0
290
     0
  0
SCALE
  5
E5F1
102
{ACAD_REACTORS
330
E5DE
102
}
330
E5DE
100
AcDbScale
 70
     0
300
1/64" = 1'-0"
140
0.015625
141
12.0
290
     0
  0
SCALE
  5
E5F2
102
{ACAD_REACTORS
330
E5DE
102
}
330
E5DE
100
AcDbScale
 70
     0
300
1/32" = 1'-0"
140
0.03125
141
12.0
290
     0
  0
SCALE
  5
E5F3
102
{ACAD_REACTORS
330
E5DE
102
}
330
E5DE
100
AcDbScale
 70
     0
300
1/16" = 1'-0"
140
0.0625
141
12.0
290
     0
  0
SCALE
  5
E5F4
102
{ACAD_REACTORS
330
E5DE
102
}
330
E5DE
100
AcDbScale
 70
     0
300
3/32" = 1'-0"
140
0.09375
141
12.0
290
     0
  0
SCALE
  5
E5F5
102
{ACAD_REACTORS
330
E5DE
102
}
330
E5DE
100
AcDbScale
 70
     0
300
1/8" = 1'-0"
140
0.125
141
12.0
290
     0
  0
SCALE
  5
E5F6
102
{ACAD_REACTORS
330
E5DE
102
}
330
E5DE
100
AcDbScale
 70
     0
300
3/16" = 1'-0"
140
0.1875
141
12.0
290
     0
  0
SCALE
  5
E5F7
102
{ACAD_REACTORS
330
E5DE
102
}
330
E5DE
100
AcDbScale
 70
     0
300
1/4" = 1'-0"
140
0.25
141
12.0
290
     0
  0
SCALE
  5
E5F8
102
{ACAD_REACTORS
330
E5DE
102
}
330
E5DE
100
AcDbScale
 70
     0
300
3/8" = 1'-0"
140
0.375
141
12.0
290
     0
  0
SCALE
  5
E5F9
102
{ACAD_REACTORS
330
E5DE
102
}
330
E5DE
100
AcDbScale
 70
     0
300
1/2" = 1'-0"
140
0.5
141
12.0
290
     0
  0
SCALE
  5
E5FA
102
{ACAD_REACTORS
330
E5DE
102
}
330
E5DE
100
AcDbScale
 70
     0
300
3/4" = 1'-0"
140
0.75
141
12.0
290
     0
  0
SCALE
  5
E5FB
102
{ACAD_REACTORS
330
E5DE
102
}
330
E5DE
100
AcDbScale
 70
     0
300
1" = 1'-0"
140
1.0
141
12.0
290
     0
  0
SCALE
  5
E5FC
102
{ACAD_REACTORS
330
E5DE
102
}
330
E5DE
100
AcDbScale
 70
     0
300
1-1/2" = 1'-0"
140
1.5
141
12.0
290
     0
  0
SCALE
  5
E5FD
102
{ACAD_REACTORS
330
E5DE
102
}
330
E5DE
100
AcDbScale
 70
     0
300
3" = 1'-0"
140
3.0
141
12.0
290
     0
  0
SCALE
  5
E5FE
102
{ACAD_REACTORS
330
E5DE
102
}
330
E5DE
100
AcDbScale
 70
     0
300
6" = 1'-0"
140
6.0
141
12.0
290
     0
  0
SCALE
  5
E5FF
102
{ACAD_REACTORS
330
E5DE
102
}
330
E5DE
100
AcDbScale
 70
     0
300
1'-0" = 1'-0"
140
12.0
141
12.0
290
     0
  0
TABLESTYLE
  5
E5DD
102
{ACAD_XDICTIONARY
360
E635
102
}
102
{ACAD_REACTORS
330
E5DC
102
}
330
E5DC
100
AcDbTableStyle
  3
Standard
 70
     0
 71
     0
 40
0.06
 41
0.06
280
     0
281
     0
  7
Standard
140
0.18
170
     2
 62
     0
 63
     7
283
     0
274
    -2
284
     1
 64
     0
275
    -2
285
     1
 65
     0
276
    -2
286
     1
 66
     0
277
    -2
287
     1
 67
     0
278
    -2
288
     1
 68
     0
279
    -2
289
     1
 69
     0
  7
Standard
140
0.25
170
     5
 62
     0
 63
     7
283
     0
274
    -2
284
     1
 64
     0
275
    -2
285
     1
 65
     0
276
    -2
286
     1
 66
     0
277
    -2
287
     1
 67
     0
278
    -2
288
     1
 68
     0
279
    -2
289
     1
 69
     0
  7
Standard
140
0.18
170
     5
 62
     0
 63
     7
283
     0
274
    -2
284
     1
 64
     0
275
    -2
285
     1
 65
     0
276
    -2
286
     1
 66
     0
277
    -2
287
     1
 67
     0
278
    -2
288
     1
 68
     0
279
    -2
289
     1
 69
     0
  0
VISUALSTYLE
  5
E5CD
102
{ACAD_XDICTIONARY
360
E64A
102
}
102
{ACAD_REACTORS
330
E5C7
102
}
330
E5C7
100
AcDbVisualStyle
  2
2dWireframe
 70
     4
 71
     0
 72
     2
 73
     0
 90
        0
 40
-0.6
 41
-30.0
 62
     5
 63
     7
 74
     1
 91
        4
 64
     7
 65
   257
 75
     1
175
     1
 42
1.0
 92
        0
 66
   257
 43
1.0
 76
     1
 77
     6
 78
     2
 67
     7
 79
     5
170
     0
171
     0
290
     0
174
     0
 93
        1
 44
0.0
173
     0
291
     0
 45
0.0
1001
ACAD
1000
AcDbSavedByObjectVersion
1070
     0
  0
VISUALSTYLE
  5
E5CF
102
{ACAD_XDICTIONARY
360
E64E
102
}
102
{ACAD_REACTORS
330
E5C7
102
}
330
E5C7
100
AcDbVisualStyle
  2
3D Hidden
 70
     6
 71
     1
 72
     2
 73
     2
 90
        0
 40
-0.6
 41
-30.0
 62
     5
 63
     7
 74
     2
 91
        2
 64
     7
 65
   257
 75
     2
175
     1
 42
179.0
 92
        0
 66
   257
 43
1.0
 76
     1
 77
     6
 78
     2
 67
     7
 79
     3
170
     0
171
     0
290
     0
174
     0
 93
        1
 44
0.0
173
     0
291
     0
 45
0.0
1001
ACAD
1000
AcDbSavedByObjectVersion
1070
     0
  0
VISUALSTYLE
  5
E5CE
102
{ACAD_XDICTIONARY
360
E64C
102
}
102
{ACAD_REACTORS
330
E5C7
102
}
330
E5C7
100
AcDbVisualStyle
  2
3dWireframe
 70
     5
 71
     0
 72
     2
 73
     0
 90
        0
 40
-0.6
 41
-30.0
 62
     5
 63
     7
 74
     1
 91
        4
 64
     7
 65
   257
 75
     1
175
     1
 42
1.0
 92
        0
 66
   257
 43
1.0
 76
     1
 77
     6
 78
     2
 67
     7
 79
     5
170
     0
171
     0
290
     0
174
     0
 93
        1
 44
0.0
173
     0
291
     0
 45
0.0
1001
ACAD
1000
AcDbSavedByObjectVersion
1070
     0
  0
VISUALSTYLE
  5
E5CC
102
{ACAD_XDICTIONARY
360
E648
102
}
102
{ACAD_REACTORS
330
E5C7
102
}
330
E5C7
100
AcDbVisualStyle
  2
Basic
 70
     7
 71
     1
 72
     0
 73
     1
 90
        0
 40
-0.6
 41
-30.0
 62
     5
 63
     7
 74
     0
 91
        4
 64
     7
 65
   257
 75
     1
175
     1
 42
1.0
 92
        8
 66
     7
 43
1.0
 76
     1
 77
     6
 78
     2
 67
     7
 79
     5
170
     0
171
     0
290
     0
174
     0
 93
        1
 44
0.0
173
     0
291
     1
 45
0.0
1001
ACAD
1000
AcDbSavedByObjectVersion
1070
     0
  0
VISUALSTYLE
  5
E5D3
102
{ACAD_XDICTIONARY
360
E656
102
}
102
{ACAD_REACTORS
330
E5C7
102
}
330
E5C7
100
AcDbVisualStyle
  2
Brighten
 70
    12
 71
     2
 72
     2
 73
     0
 90
        0
 40
-0.6
 41
-30.0
 62
     5
 63
     7
 74
     1
 91
        4
 64
     7
 65
   257
 75
     1
175
     1
 42
1.0
 92
        8
 66
     7
 43
1.0
 76
     1
 77
     6
 78
     2
 67
     7
 79
     5
170
     0
171
     0
290
     0
174
     0
 93
        1
 44
50.0
173
     0
291
     1
 45
0.0
1001
ACAD
1000
AcDbSavedByObjectVersion
1070
     0
  0
VISUALSTYLE
  5
E5D7
102
{ACAD_XDICTIONARY
360
E65E
102
}
102
{ACAD_REACTORS
330
E5C7
102
}
330
E5C7
100
AcDbVisualStyle
  2
ColorChange
 70
    16
 71
     2
 72
     2
 73
     3
 90
        0
 40
-0.6
 41
-30.0
 62
     5
 63
     8
 74
     1
 91
        4
 64
     7
 65
   257
 75
     1
175
     1
 42
1.0
 92
        8
 66
     8
 43
1.0
 76
     1
 77
     6
 78
     2
 67
     7
 79
     5
170
     0
171
     0
290
     0
174
     0
 93
        1
 44
0.0
173
     0
291
     1
 45
0.0
1001
ACAD
1000
AcDbSavedByObjectVersion
1070
     0
  0
VISUALSTYLE
  5
E5D0
102
{ACAD_XDICTIONARY
360
E650
102
}
102
{ACAD_REACTORS
330
E5C7
102
}
330
E5C7
100
AcDbVisualStyle
  2
Conceptual
 70
     9
 71
     3
 72
     2
 73
     0
 90
        0
 40
-0.6
 41
-30.0
 62
     5
 63
     7
 74
     2
 91
        2
 64
     7
 65
   257
 75
     1
175
     1
 42
179.0
 92
        8
 66
     7
 43
1.0
 76
     1
 77
     6
 78
     2
 67
     7
 79
     3
170
     0
171
     0
290
     0
174
     0
 93
        1
 44
0.0
173
     0
291
     0
 45
0.0
1001
ACAD
1000
AcDbSavedByObjectVersion
1070
     0
  0
VISUALSTYLE
  5
E5D2
102
{ACAD_XDICTIONARY
360
E654
102
}
102
{ACAD_REACTORS
330
E5C7
102
}
330
E5C7
100
AcDbVisualStyle
  2
Dim
 70
    11
 71
     2
 72
     2
 73
     0
 90
        0
 40
-0.6
 41
-30.0
 62
     5
 63
     7
 74
     1
 91
        4
 64
     7
 65
   257
 75
     1
175
     1
 42
1.0
 92
        8
 66
     7
 43
1.0
 76
     1
 77
     6
 78
     2
 67
     7
 79
     5
170
     0
171
     0
290
     0
174
     0
 93
        1
 44
-50.0
173
     0
291
     1
 45
0.0
1001
ACAD
1000
AcDbSavedByObjectVersion
1070
     0
  0
VISUALSTYLE
  5
E5DA
102
{ACAD_XDICTIONARY
360
E664
102
}
102
{ACAD_REACTORS
330
E5C7
102
}
330
E5C7
100
AcDbVisualStyle
  2
EdgeColorOff
 70
    22
 71
     2
 72
     2
 73
     0
 90
        0
 40
-0.6
 41
-30.0
 62
     5
 63
     7
 74
     1
 91
        4
 64
     7
 65
   257
 75
     1
175
     1
 42
1.0
 92
        8
 66
     7
 43
1.0
 76
     1
 77
     6
 78
     2
 67
     7
 79
     5
170
     0
171
     0
290
     0
174
     0
 93
        1
 44
0.0
173
     0
291
     1
 45
0.0
1001
ACAD
1000
AcDbSavedByObjectVersion
1070
     0
  0
VISUALSTYLE
  5
E5D6
102
{ACAD_XDICTIONARY
360
E65C
102
}
102
{ACAD_REACTORS
330
E5C7
102
}
330
E5C7
100
AcDbVisualStyle
  2
Facepattern
 70
    15
 71
     2
 72
     2
 73
     0
 90
        0
 40
-0.6
 41
-30.0
 62
     5
 63
     7
 74
     1
 91
        4
 64
     7
 65
   257
 75
     1
175
     1
 42
1.0
 92
        8
 66
     7
 43
1.0
 76
     1
 77
     6
 78
     2
 67
     7
 79
     5
170
     0
171
     0
290
     0
174
     0
 93
        1
 44
0.0
173
     0
291
     1
 45
0.0
1001
ACAD
1000
AcDbSavedByObjectVersion
1070
     0
  0
VISUALSTYLE
  5
E5C8
102
{ACAD_XDICTIONARY
360
E640
102
}
102
{ACAD_REACTORS
330
E5C7
102
}
330
E5C7
100
AcDbVisualStyle
  2
Flat
 70
     0
 71
     2
 72
     1
 73
     1
 90
        2
 40
-0.6
 41
30.0
 62
     5
 63
     7
 74
     0
 91
        4
 64
     7
 65
   257
 75
     1
175
     1
 42
1.0
 92
        8
 66
     7
 43
1.0
 76
     1
 77
     6
 78
     2
 67
     7
 79
     5
170
     0
171
     0
290
     0
174
     0
 93
       13
 44
0.0
173
     0
291
     1
 45
0.0
1001
ACAD
1000
AcDbSavedByObjectVersion
1070
     0
  0
VISUALSTYLE
  5
E5C9
102
{ACAD_XDICTIONARY
360
E642
102
}
102
{ACAD_REACTORS
330
E5C7
102
}
330
E5C7
100
AcDbVisualStyle
  2
FlatWithEdges
 70
     1
 71
     2
 72
     1
 73
     1
 90
        2
 40
-0.6
 41
30.0
 62
     5
 63
     7
 74
     1
 91
        4
 64
     7
 65
   257
 75
     1
175
     1
 42
1.0
 92
        0
 66
   257
 43
1.0
 76
     1
 77
     6
 78
     2
 67
     7
 79
     5
170
     0
171
     0
290
     0
174
     0
 93
       13
 44
0.0
173
     0
291
     1
 45
0.0
1001
ACAD
1000
AcDbSavedByObjectVersion
1070
     0
  0
VISUALSTYLE
  5
E5CA
102
{ACAD_XDICTIONARY
360
E644
102
}
102
{ACAD_REACTORS
330
E5C7
102
}
330
E5C7
100
AcDbVisualStyle
  2
Gouraud
 70
     2
 71
     2
 72
     2
 73
     1
 90
        2
 40
-0.6
 41
30.0
 62
     5
 63
     7
 74
     0
 91
        4
 64
     7
 65
   257
 75
     1
175
     1
 42
1.0
 92
        0
 66
     7
 43
1.0
 76
     1
 77
     6
 78
     2
 67
     7
 79
     5
170
     0
171
     0
290
     0
174
     0
 93
       13
 44
0.0
173
     0
291
     1
 45
0.0
1001
ACAD
1000
AcDbSavedByObjectVersion
1070
     0
  0
VISUALSTYLE
  5
E5CB
102
{ACAD_XDICTIONARY
360
E646
102
}
102
{ACAD_REACTORS
330
E5C7
102
}
330
E5C7
100
AcDbVisualStyle
  2
GouraudWithEdges
 70
     3
 71
     2
 72
     2
 73
     1
 90
        2
 40
-0.6
 41
30.0
 62
     5
 63
     7
 74
     1
 91
        4
 64
     7
 65
   257
 75
     1
175
     1
 42
1.0
 92
        0
 66
   257
 43
1.0
 76
     1
 77
     6
 78
     2
 67
     7
 79
     5
170
     0
171
     0
290
     0
174
     0
 93
       13
 44
0.0
173
     0
291
     1
 45
0.0
1001
ACAD
1000
AcDbSavedByObjectVersion
1070
     0
  0
VISUALSTYLE
  5
E5D8
102
{ACAD_XDICTIONARY
360
E660
102
}
102
{ACAD_REACTORS
330
E5C7
102
}
330
E5C7
100
AcDbVisualStyle
  2
JitterOff
 70
    20
 71
     2
 72
     2
 73
     0
 90
        0
 40
-0.6
 41
-30.0
 62
     5
 63
     7
 74
     1
 91
        4
 64
     7
 65
   257
 75
     1
175
     1
 42
1.0
 92
       10
 66
     7
 43
1.0
 76
     1
 77
     6
 78
     2
 67
     7
 79
     5
170
     0
171
     0
290
     0
174
     0
 93
        1
 44
0.0
173
     0
291
     1
 45
0.0
1001
ACAD
1000
AcDbSavedByObjectVersion
1070
     0
  0
VISUALSTYLE
  5
E5D5
102
{ACAD_XDICTIONARY
360
E65A
102
}
102
{ACAD_REACTORS
330
E5C7
102
}
330
E5C7
100
AcDbVisualStyle
  2
Linepattern
 70
    14
 71
     2
 72
     2
 73
     0
 90
        0
 40
-0.6
 41
-30.0
 62
     5
 63
     7
 74
     1
 91
        4
 64
     7
 65
   257
 75
     7
175
     7
 42
1.0
 92
        8
 66
     7
 43
1.0
 76
     1
 77
     6
 78
     2
 67
     7
 79
     5
170
     0
171
     0
290
     0
174
     0
 93
        1
 44
0.0
173
     0
291
     1
 45
0.0
1001
ACAD
1000
AcDbSavedByObjectVersion
1070
     0
  0
VISUALSTYLE
  5
E5D9
102
{ACAD_XDICTIONARY
360
E662
102
}
102
{ACAD_REACTORS
330
E5C7
102
}
330
E5C7
100
AcDbVisualStyle
  2
OverhangOff
 70
    21
 71
     2
 72
     2
 73
     0
 90
        0
 40
-0.6
 41
-30.0
 62
     5
 63
     7
 74
     1
 91
        4
 64
     7
 65
   257
 75
     1
175
     1
 42
1.0
 92
        9
 66
     7
 43
1.0
 76
     1
 77
     6
 78
     2
 67
     7
 79
     5
170
     0
171
     0
290
     0
174
     0
 93
        1
 44
0.0
173
     0
291
     1
 45
0.0
1001
ACAD
1000
AcDbSavedByObjectVersion
1070
     0
  0
VISUALSTYLE
  5
E5D1
102
{ACAD_XDICTIONARY
360
E652
102
}
102
{ACAD_REACTORS
330
E5C7
102
}
330
E5C7
100
AcDbVisualStyle
  2
Realistic
 70
     8
 71
     2
 72
     2
 73
     0
 90
        0
 40
-0.6
 41
-30.0
 62
     5
 63
     7
 74
     1
 91
        0
 64
     7
 65
   257
 75
     1
175
     1
 42
1.0
 92
        8
 66
     8
 43
1.0
 76
     1
 77
     6
 78
     2
 67
     7
 79
     5
170
     0
171
     0
290
     0
174
     0
 93
       13
 44
0.0
173
     0
291
     0
 45
0.0
1001
ACAD
1000
AcDbSavedByObjectVersion
1070
     0
  0
VISUALSTYLE
  5
E5D4
102
{ACAD_XDICTIONARY
360
E658
102
}
102
{ACAD_REACTORS
330
E5C7
102
}
330
E5C7
100
AcDbVisualStyle
  2
Thicken
 70
    13
 71
     2
 72
     2
 73
     0
 90
        0
 40
-0.6
 41
-30.0
 62
     5
 63
     7
 74
     1
 91
        4
 64
     7
 65
   257
 75
     1
175
     1
 42
1.0
 92
       12
 66
     7
 43
1.0
 76
     1
 77
     6
 78
     2
 67
     7
 79
     5
170
     0
171
     0
290
     0
174
     0
 93
        1
 44
0.0
173
     0
291
     1
 45
0.0
1001
ACAD
1000
AcDbSavedByObjectVersion
1070
     0
  0
DICTIONARYVAR
  5
E632
102
{ACAD_REACTORS
330
6CB8
102
}
330
6CB8
100
DictionaryVariables
280
     0
  1
1:1
  0
DICTIONARYVAR
  5
E631
102
{ACAD_REACTORS
330
6CB8
102
}
330
6CB8
100
DictionaryVariables
280
     0
  1
STANDARD
  0
DICTIONARYVAR
  5
E630
102
{ACAD_REACTORS
330
6CB8
102
}
330
6CB8
100
DictionaryVariables
280
     0
  1
STANDARD
  0
DICTIONARYVAR
  5
81A4
102
{ACAD_REACTORS
330
6CB8
102
}
330
6CB8
100
DictionaryVariables
280
     0
  1
1
  0
DICTIONARYVAR
  5
E633
102
{ACAD_REACTORS
330
6CB8
102
}
330
6CB8
100
DictionaryVariables
280
     0
  1
0
  0
DICTIONARYVAR
  5
6CB9
102
{ACAD_REACTORS
330
6CB8
102
}
330
6CB8
100
DictionaryVariables
280
     0
  1
96
  0
DICTIONARYVAR
  5
E634
102
{ACAD_REACTORS
330
6CB8
102
}
330
6CB8
100
DictionaryVariables
280
     0
  1
2
  0
DICTIONARY
  5
E60D
330
21
100
AcDbDictionary
280
     1
281
     1
  3
ACAD_XREC_ROUNDTRIP
360
E63A
  3
ADSK_XREC_LAYOUTTHUMBNAIL
360
E60E
  0
DICTIONARY
  5
E616
330
1D
100
AcDbDictionary
280
     1
281
     1
  3
ACAD_XREC_ROUNDTRIP
360
E639
  3
ADSK_XREC_LAYOUTTHUMBNAIL
360
E617
  0
DICTIONARY
  5
E5B8
330
E5B7
100
AcDbDictionary
280
     1
281
     1
  3
ACAD_XREC_ROUNDTRIP
360
E63E
  3
BUMPTILE
360
E5BA
  3
DIFFUSETILE
360
E5B9
  3
OPACITYTILE
360
E5BD
  3
REFLECTIONTILE
360
E5BC
  3
REFRACTIONTILE
360
E5BE
  3
SPECULARTILE
360
E5BB
  0
DICTIONARY
  5
E5B0
330
E5AF
100
AcDbDictionary
280
     1
281
     1
  3
ACAD_XREC_ROUNDTRIP
360
E63D
  3
BUMPTILE
360
E5B2
  3
DIFFUSETILE
360
E5B1
  3
OPACITYTILE
360
E5B5
  3
REFLECTIONTILE
360
E5B4
  3
REFRACTIONTILE
360
E5B6
  3
SPECULARTILE
360
E5B3
  0
DICTIONARY
  5
E5C0
330
E5BF
100
AcDbDictionary
280
     1
281
     1
  3
ACAD_XREC_ROUNDTRIP
360
E63F
  3
BUMPTILE
360
E5C2
  3
DIFFUSETILE
360
E5C1
  3
OPACITYTILE
360
E5C5
  3
REFLECTIONTILE
360
E5C4
  3
REFRACTIONTILE
360
E5C6
  3
SPECULARTILE
360
E5C3
  0
DICTIONARY
  5
E635
330
E5DD
100
AcDbDictionary
280
     1
281
     1
  3
ACAD_ROUNDTRIP_2008_TABLESTYLE_CELLSTYLEMAP
360
E636
  3
ACAD_XREC_ROUNDTRIP
360
E666
  0
DICTIONARY
  5
E64A
330
E5CD
100
AcDbDictionary
280
     1
281
     1
  3
ACAD_XREC_ROUNDTRIP
360
E64B
  0
DICTIONARY
  5
E64E
330
E5CF
100
AcDbDictionary
280
     1
281
     1
  3
ACAD_XREC_ROUNDTRIP
360
E64F
  0
DICTIONARY
  5
E64C
330
E5CE
100
AcDbDictionary
280
     1
281
     1
  3
ACAD_XREC_ROUNDTRIP
360
E64D
  0
DICTIONARY
  5
E648
330
E5CC
100
AcDbDictionary
280
     1
281
     1
  3
ACAD_XREC_ROUNDTRIP
360
E649
  0
DICTIONARY
  5
E656
330
E5D3
100
AcDbDictionary
280
     1
281
     1
  3
ACAD_XREC_ROUNDTRIP
360
E657
  0
DICTIONARY
  5
E65E
330
E5D7
100
AcDbDictionary
280
     1
281
     1
  3
ACAD_XREC_ROUNDTRIP
360
E65F
  0
DICTIONARY
  5
E650
330
E5D0
100
AcDbDictionary
280
     1
281
     1
  3
ACAD_XREC_ROUNDTRIP
360
E651
  0
DICTIONARY
  5
E654
330
E5D2
100
AcDbDictionary
280
     1
281
     1
  3
ACAD_XREC_ROUNDTRIP
360
E655
  0
DICTIONARY
  5
E664
330
E5DA
100
AcDbDictionary
280
     1
281
     1
  3
ACAD_XREC_ROUNDTRIP
360
E665
  0
DICTIONARY
  5
E65C
330
E5D6
100
AcDbDictionary
280
     1
281
     1
  3
ACAD_XREC_ROUNDTRIP
360
E65D
  0
DICTIONARY
  5
E640
330
E5C8
100
AcDbDictionary
280
     1
281
     1
  3
ACAD_XREC_ROUNDTRIP
360
E641
  0
DICTIONARY
  5
E642
330
E5C9
100
AcDbDictionary
280
     1
281
     1
  3
ACAD_XREC_ROUNDTRIP
360
E643
  0
DICTIONARY
  5
E644
330
E5CA
100
AcDbDictionary
280
     1
281
     1
  3
ACAD_XREC_ROUNDTRIP
360
E645
  0
DICTIONARY
  5
E646
330
E5CB
100
AcDbDictionary
280
     1
281
     1
  3
ACAD_XREC_ROUNDTRIP
360
E647
  0
DICTIONARY
  5
E660
330
E5D8
100
AcDbDictionary
280
     1
281
     1
  3
ACAD_XREC_ROUNDTRIP
360
E661
  0
DICTIONARY
  5
E65A
330
E5D5
100
AcDbDictionary
280
     1
281
     1
  3
ACAD_XREC_ROUNDTRIP
360
E65B
  0
DICTIONARY
  5
E662
330
E5D9
100
AcDbDictionary
280
     1
281
     1
  3
ACAD_XREC_ROUNDTRIP
360
E663
  0
DICTIONARY
  5
E652
330
E5D1
100
AcDbDictionary
280
     1
281
     1
  3
ACAD_XREC_ROUNDTRIP
360
E653
  0
DICTIONARY
  5
E658
330
E5D4
100
AcDbDictionary
280
     1
281
     1
  3
ACAD_XREC_ROUNDTRIP
360
E659
  0
XRECORD
  5
E63A
102
{ACAD_REACTORS
330
E60D
102
}
330
E60D
100
AcDbXrecord
280
     1
102
SHADEPLOT
 70
     0
102
SHADEPLOTRESLEVEL
 70
     2
102
SHADEPLOTCUSTOMDPI
 70
   300
  0
XRECORD
  5
E60E
102
{ACAD_REACTORS
330
E60D
102
}
330
E60D
100
AcDbXrecord
280
     1
310
28000000000100008A0000000100080000000000008A0000000000000000000000010000000000000000000000000000FFFFFF000000000000000000000000000000000000000000000000000000000000000000330000006600000099000000CC000000FF00000000330000333300006633000099330000CC330000FF3300
310
0000660000336600006666000099660000CC660000FF66000000990000339900006699000099990000CC990000FF99000000CC000033CC000066CC000099CC0000CCCC0000FFCC000000FF000033FF000066FF000099FF0000CCFF0000FFFF000000003300330033006600330099003300CC003300FF003300003333003333
310
33006633330099333300CC333300FF33330000663300336633006666330099663300CC663300FF66330000993300339933006699330099993300CC993300FF99330000CC330033CC330066CC330099CC3300CCCC3300FFCC330000FF330033FF330066FF330099FF3300CCFF3300FFFF330000006600330066006600660099
310
006600CC006600FF00660000336600333366006633660099336600CC336600FF33660000666600336666006666660099666600CC666600FF66660000996600339966006699660099996600CC996600FF99660000CC660033CC660066CC660099CC6600CCCC6600FFCC660000FF660033FF660066FF660099FF6600CCFF6600
310
FFFF660000009900330099006600990099009900CC009900FF00990000339900333399006633990099339900CC339900FF33990000669900336699006666990099669900CC669900FF66990000999900339999006699990099999900CC999900FF99990000CC990033CC990066CC990099CC9900CCCC9900FFCC990000FF99
310
0033FF990066FF990099FF9900CCFF9900FFFF99000000CC003300CC006600CC009900CC00CC00CC00FF00CC000033CC003333CC006633CC009933CC00CC33CC00FF33CC000066CC003366CC006666CC009966CC00CC66CC00FF66CC000099CC003399CC006699CC009999CC00CC99CC00FF99CC0000CCCC0033CCCC0066CC
310
CC0099CCCC00CCCCCC00FFCCCC0000FFCC0033FFCC0066FFCC0099FFCC00CCFFCC00FFFFCC000000FF003300FF006600FF009900FF00CC00FF00FF00FF000033FF003333FF006633FF009933FF00CC33FF00FF33FF000066FF003366FF006666FF009966FF00CC66FF00FF66FF000099FF003399FF006699FF009999FF00CC
310
99FF00FF99FF0000CCFF0033CCFF0066CCFF0099CCFF00CCCCFF00FFCCFF0000FFFF0033FFFF0066FFFF0099FFFF00CCFFFF00FFFFFF00000000000D0D0D001A1A1A00282828003535350043434300505050005D5D5D006B6B6B00787878008686860093939300A1A1A100AEAEAE00BBBBBB00C9C9C900D6D6D600E4E4E400
310
F1F1F100FFFFFF0000000000000000000000000000000000000000000000000000000000000000000000000000000000E2E2E2E2E2E2E2E2E2E2E2E2E2E2E2E2E2E2E2E2E2E2E2E2E2E2E2E2E2E2E2E2E2E2E2E2E2E2E2E2E2E2E2E2E2E2E2E2E2E2E2E2E2E2E2E2E2E2E2E2E2E2E2E2E2E2E2E2E2E2E2E2E2E2E2E2E2E2E2
310
E2E2E2E2E2E2E2E2E2E2E2E2E2E2E2E2E2E2E2E2E2E2E2E2E2E2E2E2E2E2E2E2E2E2E2E2E2E2E2E2E2E2E2E2E2E2E2E2E2E2E2E2E2E2E2E2E2E2E2E2E2E2E2E2E2E2E2E2E2E2E2E2E2E2E2E2E2E2E2E2E2E2E2E2E2E2E2E2E2E2E2E2E2E2E2E2E2E2E2E2E2E2E2E2E2E2E2E2E2E2E2E2E2E2E2E2E2E2E2E2E2E2E2E2E2E2E2
310
E2E2E2E2E2E2E2E2E2E2E2E2E2E2E2E2E2E2E2E2E2E2E2E2E2E2E2E2E2E2E2E2E2E2E2E2E2E2E2E2E2E2E2E2E2E2E2E2E2E2E2E2E2E2E2E2E2E2E2E2E2E2E2E2E2E2E2E2E2E2E2E2E2E2E2E2E2E2E2E2E2E2E2E2E2E2E2E2E2E2E2E2E2E2E2E2E2E2E2E2E2E2E2E2E2E2E2E2E2E2E2E2E2E2E2E2E2E2E2E2E2E2E2E2E2E2E2
310
E2E2E2E2E2E2E2E2E2E2E2E2E2E2E2E2E2E2E2E2E2E2E2E2E2E2E2E2E2E2E2E2E2E2E2E2E2E2E2E2E2E2E2E2E2E2E2E2E2E2E2E2E2E2E2E2E2E2E2E2E2E2E2E2E2E2E2E2E2E2E2E2E2E2E2E2E2E2E2E2E2E2E2E2E2E2E2E2E2E2E2E2E2E2E2E2E2E2E2E2E2E2E2E2E2E2E2E2E2E2E2E2E2E2E2E2E2E2E2E2E2E2E2E2E2E2E2
310
E2E2E2E2E2E2E2E2E2E2E2E2E2E2E2E2E2E2E2E2E2E2E2E2E2E2E2E2E2E2E2E2E2E2E2E2E2E2E2E2E2E2E2E2E2E2E2E2E2E2E2E2E2E2E2E2E2E2E2E2E2E2E2E2E2E2E2E2E2E2E2E2E2E2E2E2E2E2E2E2E2E2E2E2E2E2E2E2E2E2E2E2E2E2E2E2E2E2E2E2E2E2E2E2E2E2E2E2E2E2E2E2E2E2E2E2E2E2E2E2E2E2E2E2E2E2E2
310
E2E2E2E2E2E2E2E2E2E2E2E2E2E2E2E2E2E2E2E2E2E2E2E2E2E2E2E2E2E2E2E2E2E2E2E2E2E2E2E2E2E2E2E2E2E2E2E2E2E2E2E2E2E2E2E2E2E2E2E2E2E2E2E2E2E2E2E2E2E2E2E2E2E2E2E2E2E2E2E2E2E2E2E2E2E2E2E2E2E2E2E2E2E2E2E2E2E2E2E2E2E2E2E2E2E2E2E2E2E2E2E2E2E2E2E2E2E2E2E2E2E2E2E2E2E2E2
310
E2E2E2E2E2E2E2E2E2E2E2E2E2E2E2E2E2E2E2E2E2E2E2E2E2E2E2E2E2E2E2E2E2E2E2E2E2E2E2E2E2E2E2E2E2E2E2E2E2E2E2E2E2E2E2E2E2E2E2E2E2E2E2E2E2E2E2E2E2E2E2E2E2E2E2E2E2E2E2E2E2E2E2E2E2E2E2E2E2E2E2E2E2E2E2E2E2E2E2E2E2E2E2E2E2E2E2E2E2E2E2E2E2E2E2E2E2E2E2E2E2E2E2E2E2E2E2
310
E2E2E2E2E2E2E2E2E2E2E2E2E2E2E2E2E2E2E2E2E2E2E2E2E2E2E2E2E2E2E2E2E2E2E2E2E2E2E2E2E2E2E2E2E2E2E2E2E2E2E2E2E2E2E2E2E2E2E2E2E2E2E2E2E2E2E2E2E2E2E2E2E2E2E2E2E2E2E2E2E2E2E2E2E2E2E2E2E2E2E2E2E2E2E2E2E2E2E2E2E2E2E2E2E2E2E2E2E2E2E2E2E2E2E2E2E2E2E2E2E2E2E2E2E2E2E2
310
E2E2E2E2E2E2E2E2E2E2E2E2E2E2E2E2E2E2E2E2E2E2E2E2E2E2E2E2E2E2E2E2E2E2E2E2E2E2E2E2E2E2E2E2E2E2E2E2E2E2E2E2E2E2E2E2E2E2E2E2E2E2E2E2E2E2E2E2E2E2E2E2E2E2E2E2E2E2E2E2E2E2E2E2E2E2E2E2E2E2E2E2E2E2E2E2E2E2E2E2E2E2E2E2E2E2E2E2E2E2E2E2E2E2E2E2E2E2E2E2E2E2E2E2E2E2E2
310
E2E2E2E2E2E2E2E2E2E2E2E2E2E2E2E2E2E2E2E2E2E2E2E2E2E2E2E2E2E2E2E2E2E2E2E2E2E2E2E2E2E2E2E2E2E2E2E2E2E2E2E2E2E2E2E2E2E2E2E2E2E2E2E2E2E2E2E2E2E2E2E2E2E2E2E2E2E2E2E2E2E2E2E2E2E2E2E2E2E2E2E2E2E2E2E2E2E2E2E2E2E2E2E2E2E2E2E2E2E2E2E2E2E2E2E2E2E2E2E2E2E2E2E2E2E2E2
310
E2E2E2E2E2E2E2E2E2E2E2E2E2E2E2E2E2E2E2E2E2E2E2E2E2E2E2E2E2E2E2E2E2E2E2E2E2E2E2E2E2E2E2E2E2E2E2E2E2E2E2E2E2E2E2E2E2E2E2E2E2E2E2E2E2E2E2E2E2E2E2E2E2E2E2E2E2E2E2E2E2E2E2E2E2E2E2E2E2E2E2E2E2E2E2E2E2E2E2E2E2E2E2E2E2E2E2E2E2E2E2E2E2E2E2E2E2E2E2E2E2E2E2E2E2E2E2
310
E2E2E2E2E2E2E2E2E2E2E2E2E2E2E2E2E2E2E2E2E2E2E2E2E2E2E2E2E2E2E2E2E2E2E2E2E2E2E2E2E2E2E2E2E2E2E2E2E2E2E2E2E2E2E2E2E2E2E2E2E2E2E2E2E2E2E2E2E2E2E2E2E2E2E2E2E2E2E2E2E2E2E2E2E2E2E2E2E2E2E2E2E2E2E2E2E2E2E2E2E2E2E2E2E2E2E2E2E2E2E2E2E2E2E2E2E2E2E2E2E2E2E2E2E2E2E2
310
E2E2E2E2E2E2E2E2E2E2E2E2E2E2E2E2E2E2E2E2E2E2E2E2E2E2E2E2E2E2E2E2E2E2E2E2E2E2E2E2E2E2E2E2E2E2E2E2E2E2E2E2E2E2E2E2E2E2E2E2E2E2E2E2E2E2E2E2E2E2E2E2E2E2E2E2E2E2E2E2E2E2E2E2E2E2E2E2E2E2E2E2E2E2E2E2E2E2E2E2E2E2E2E2E2E2E2E2E2E2E2E2E2E2E2E2E2E2E2E2E2E2E2E2E2E2E2
310
E2E2E2E2E2E2E2E2E2E2E2E2E2E2E2E2E2E2E2E2E2E2E2E2E2E2E2E2E2E2E2E2E2E2E2E2E2E2E2E2E2E2E2E2E2E2E2E2E2E2E2E2E2E2E2E2E2E2E2E2E2E2E2E2E2E2E2E2E2E2E2E2E2E2E2E2E2E2E2E2E2E2E2E2E2E2E2E2E2E2E2E2E2E2E2E2E2E2E2E2E2E2E2E2E2E2E2E2E2E2E2E2E2E2E2E2E2E2E2E2E2E2E2E2E2E2E2
310
E2E2E2E2E2E2E2E2E2E2E2E2E2E2E2E2E2E2E2E2E2E2E2E2E2E2E2E2E2E2E2E2E2E2E2E2E2E2E2E2E2E2E2E2E2E2E2E2E2E2E2E2E2E2E2E2E2E2E2E2E2E2E2E2E2E2E2E2E2E2E2E2E2E2E2E2E2E2E2E2E2E2E2E2E2E2E2E2E2E2E2E2E2E2E2E2E2E2E2E2E2E2E2E2E2E2E2E2E2E2E2E2E2E2E2E2E2E2E2E2E2E2E2E2E2E2E2
310
E2E2E2E2E2E2E2E2E2E2E2E2E2E2E2E2E2E2E2E2E2E2E2E2E2E2E2E2E2E2E2E2E2E2E2E2E2E2E2E2E2E2E2E2E2E2E2E2E2E2E2E2E2E2E2E2E2E2E2E2E2E2E2E2E2E2E2E2E2E2E2E2E2E2E2E2E2E2E2E2E2E2E2E2E2E2E2E2E2E2E2E2E2E2E2E2E2E2E2E2E2E2E2E2E2E2E2E2E2E2E2E2E2E2E2E2E2E2E2E2E2E2E2E2E2E2E2
310
E2E2E2E2E2E2E2E2E2E2E2E2E2E2E2E2E2E2E2E2E2E2E2E2E2E2E2E2E2E2E2E2E2E2E2E2E2E2E2E2E2E2E2E2E2E2E2E2E2E2E2E2E2E2E2E2E2E2E2E2E2E2E2E2E2E2E2E2E2E2E2E2E2E2E2E2E2E2E2E2E2E2E2E2E2E2E2E2E2E2E2E2E2E2E2E2E2E2E2E2E2E2E2E2E2E2E2E2E2E2E2E2E2E2E2E2E2E2E2E2E2E2E2E2E2E2E2
310
E2E2E2E2E2E2E2E2E2E2E2E2E2E2E2E2E2E2E2E2E2E2E2E2E2E2E2E2E2E2E2E2E2E2E2E2E2E2E2E2E2E2E2E2E2E2E2E2E2E2E2E2E2E2E2E2E2E2E2E2E2E2E2E2E2E2E2E2E2E2E2E2E2E2E2E2E2E2E2E2E2E2E2E2E2E2E2E2E2E2E2E2E2E2E2E2E2E2E2E2E2E2E2E2E2E2E2E2E2E2E2E2E2E2E2E2E2E2E2E2E2E2E2E2E2E2E2
310
E2E2E2E2E2E2E2E2E2E2E2E2E2E2E2E2E2E2E2E2E2E2E2E2E2E2E2E2E2E2E2E2E2E2E2E2E2E2E2E2E2E2E2E2E2E2E2E2E2E2E2E2E2E2E2E2E2E2E2E2E2E2E2E2E2E2E2E2E2E2E2E2E2E2E2E2E2E2E2E2E2E2E2E2E2E2E2E2E2E2E2E2E2E2E2E2E2E2E2E2E2E2E2E2E2E2E2E2E2E2E2E2E2E2E2E2E2E2E2E2E2E2E2E2E2E2E2
310
E2E2E2E2E2E2E2E2E2E2E2E2E2E2E2E2E2E2E2E2E2E2E2E2E2E2E2E2E2E2E2E2E2E2E2E2E2E2E2E2E2E2E2E2E2E2E2E2E2E2E2E2E2E2E2E2E2E2E2E2E2E2E2E2E2E2E2E2E2E2E2E2E2E2E2E2E2E2E2E2E2E2E2E2E2E2E2E2E2E2E2E2E2E2E2E2E2E2E2E2E2E2E2E2E2E2E2E2E2E2E2E2E2E2E2E2E2E2E2E2E2E2E2E2E2E2E2
310
E2E2E2E2E2E2E2E2E2E2E2E2E2E2E2E2E2E2E2E2E2E2E2E2E2E2E2E2E2E2E2E2E2E2E2E2E2E2E2E2E2E2E2E2E2E2E2E2E2E2E2E2E2E2E2E2E2E2E2E2E2E2E2E2E2E2E2E2E2E2E2E2E2E2E2E2E2E2E2E2E2E2E2E2E2E2E2E2E2E2E2E2E2E2E2E2E2E2E2E2E2E2E2E2E2E2E2E2E2E2E2E2E2E2E2E2E2E2E2E2E2E2E2E2E2E2E2
310
E2E2E2E2E2E2E2E2E2E2E2E2E2E2E2E2E2E2E2E2E2E2E2E2E2E2E2E2E2E2E2E2E2E2E2E2E2E2E2E2E2E2E2E2E2E2E2E2E2E2E2E2E2E2E2E2E2E2E2E2E2E2E2E2E2E2E2E2E2E2E2E2E2E2E2E2E2E2E2E2E2E2E2E2E2E2E2E2E2E2E2E2E2E2E2E2E2E2E2E2E2E2E2E2E2E2E2E2E2E2E2E2E2E2E2E2E2E2E2E2E2E2E2E2E2E2E2
310
E2E2E2E2E2E2E2E2E2E2E2E2E2E2E2E2E2E2E2E2E2E2E2E2E2E2E2E2E2E2E2E2E2E2E2E2E2E2E2E2E2E2E2E2E2E2E2E2E2E2E2E2E2E2E2E2E2E2E2E2E2E2E2E2E2E2E2E2E2E2E2E2E2E2E2E2E2E2E2E2E2E2E2E2E2E2E2E2E2E2E2E2E2E2E2E2E2E2E2E2E2E2E2E2E2E2E2E2E2E2E2E2E2E2E2E2E2E2E2E2E2E2E2E2E2E2E2
310
E2E2E2E2E2E2E2E2E2E2E2E2E2E2E2E2E2E2E2E2E2E2E2E2E2E2E2E2E2E2E2E2E2E2E2E2E2E2E2E2E2E2E2E2E2E2E2E2E2E2E2E2E2E2E2E2E2E2E2E2E2E2E2E2E2E2E2E2E2E2E2E2E2E2E2E2E2E2E2E2E2E2E2E2E2E2E2E2E2E2E2E2E2E2E2E2E2E2E2E2E2E2E2E2E2E2E2E2E2E2E2E2E2E2E2E2E2E2E2E2E2E2E2E2E2E2E2
310
E2E2E2E2E2E2E2E2E2E2E2E2E2E2E2E2E2E2E2E2E2E2E2E2E2E2E2E2E2E2E2E2E2E2E2E2E2E2E2E2E2E2E2E2E2E2E2E2E2E2E2E2E2E2E2E2E2E2E2E2E2E2E2E2E2E2E2E2E2E2E2E2E2E2E2E2E2E2E2E2E2E2E2E2E2E2E2E2E2E2E2E2E2E2E2E2E2E2E2E2E2E2E2E2E2E2E2E2E2E2E2E2E2E2E2E2E2E2E2E2E2E2E2E2E2E2E2
310
E2E2E2E2E2E2E2E2E2E2E2E2E2E2E2E2E2E2E2E2E2E2E2E2E2E2E2E2E2E2E2E2E2E2E2E2E2E2E2E2E2E2E2E2E2E2E2E2E2E2E2E2E2E2E2E2E2E2E2E2E2E2E2E2E2E2E2E2E2E2E2E2E2E2E2E2E2E2E2E2E2E2E2E2E2E2E2E2E2E2E2E2E2E2E2E2E2E2E2E2E2E2E2E2E2E2E2E2E2E2E2E2E2E2E2E2E2E2E2E2E2E2E2E2E2E2E2
310
E2E2E2E2E2E2E2E2E2E2E2E2E2E2E2E2E2E2E2E2E2E2E2E2E2E2E2E2E2E2E2E2E2E2E2E2E2E2E2E2E2E2E2E2E2E2E2E2E2E2E2E2E2E2E2E2E2E2E2E2E2E2E2E2E2E2E2E2E2E2E2E2E2E2E2E2E2E2E2E2E2E2E2E2E2E2E2E2E2E2E2E2E2E2E2E2E2E2E2E2E2E2E2E2E2E2E2E2E2E2E2E2E2E2E2E2E2E2E2E2E2E2E2E2E2E2E2
310
E2E2E2E2E2E2E2E2E2E2E2E2E2E2E2E2E2E2E2E2E2E2E2E2E2E2E2E2E2E2E2E2E2E2E2E2E2E2E2E2E2E2E2E2E2E2E2E2E2E2E2E2E2E2E2E2E2E2E2E2E2E2E2E2E2E2E2E2E2E2E2E2E2E2E2E2E2E2E2E2E2E2E2E2E2E2E2E2E2E2E2E2E2E2E2E2E2E2E2E2E2E2E2E2E2E2E2E2E2E2E2E2E2E2E2E2E2E2E2E2E2E2E2E2E2E2E2
310
E2E2E2E2E2E2E2E2E2E2E2E2E2E2E2E2E2E2E2E2E2E2E2E2E2E2E2E2E2E2E2E2E2E2E2E2E2E2E2E2E2E2E2E2E2E2E2E2E2E2E2E2E2E2E2E2E2E2E2E2E2E2E2E2E2E2E2E2E2E2E2E2E2E2E2E2E2E2E2E2E2E2E2E2E2E2E2E2E2E2E2E2E2E2E2E2E2E2E2E2E2E2E2E2E2E2E2E2E2E2E2E2E2E2E2E2E2E2E2E2E2E2E2E2E2E2E2
310
E2E2E2E2E2E2E2E2E2E2E2E2E2E2E2E2E2E2E2E2E2E2E2E2E2E2E2E2E2E2E2E2E2E2E2E2E2E2E2E2E2E2E2E2E2E2E2E2E2E2E2E2E2E2E2E2E2E2E2E2E2E2E2E2E2E2E2E2E2E2E2E2E2E2E2E2E2E2E2E2E2E2E2E2E2E2E2E2E2E2E2E2E2E2E2E2E2E2E2E2E2E2E2E2E2E2E2E2E2E2E2E2E2E2E2E2E2E2E2E2E2E2E2E2E2E2E2
310
E2E2E2E2E2E2E2E2E2E2E2E2E2E2E2E2E2E2E2E2E2E2E2E2E2E2E2E2E2E2E2E2E2E2E2E2E2E2E2E2E2E2E2E2E2E2E2E2E2E2E2E2E2E2E2E2E2E2E2E2E2E2E2E2E2E2E2E2E2E2E2E2E2E2E2E2E2E2E2E2E2E2E2E2E2E2E2E2E2E2E2E2E2E2E2E2E2E2E2E2E2E2E2E2E2E2E2E2E2E2E2E2E2E2E2E2E2E2E2E2E2E2E2E2E2E2E2
310
E2E2E2E2E2E2E2E2E2E2E2E2E2E2E2E2E2E2E2E2E2E2E2E2E2E2E2E2E2E2E2E2E2E2E2E2E2E2E2E2E2E2E2E2E2E2E2E2E2E2E2E2E2E2E2E2E2E2E2E2E2E2E2E2E2E2E2E2E2E2E2E2E2E2E2E2E2E2E2E2E2E2E2E2E2E2E2E2E2E2E2E2E2E2E2E2E2E2E2E2E2E2E2E2E2E2E2E2E2E2E2E2E2E2E2E2E2E2E2E2E2E2E2E2E2E2E2
310
E2E2E2E2E2E2E2E2E2E2E2E2E2E2E2E2E2E2E2E2E2E2E2E2E2E2E2E2E2E2E2E2E2E2E2E2E2E2E2E2E2E2E2E2E2E2E2E2E2E2E2E2E2E2E2E2E2E2E2E2E2E2E2E2E2E2E2E2E2E2E2E2E2E2E2E2E2E2E2E2E2E2E2E2E2E2E2E2E2E2E2E2E2E2E2E2E2E2E2E2E2E2E2E2E2E2E2E2E2E2E2E2E2E2E2E2E2E2E2E2E2E2E2E2E2E2E2
310
E2E2E2E2E2E2E2E2E2E2E2E2E2E2E2E2E2E2E2E2E2E2E2E2E2E2E2E2E2E2E2E2E2E2E2E2E2E2E2E2E2E2E2E2E2E2E2E2E2E2E2E2E2E2E2E2E2E2E2E2E2E2E2E2E2E2E2E2E2E2E2E2E2E2E2E2E2E2E2E2E2E2E2E2E2E2E2E2E2E2E2E2E2E2E2E2E2E2E2E2E2E2E2E2E2E2E2E2E2E2E2E2E2E2E2E2E2E2E2E2E2E2E2E2E2E2E2
310
E2E2E2E2E2E2E2E2E2E2E2E2E2E2E2E2E2E2E2E2E2E2E2E2E2E2E2E2E2E2E2E2E2E2E2E2E2E2E2E2E2E2E2E2E2E2E2E2E2E2E2E2E2E2E2E2E2E2E2E2E2E2E2E2E2E2E2E2E2E2E2E2E2E2E2E2E2E2E2E2E2E2E2E2E2E2E2E2E2E2E2E2E2E2E2E2E2E2E2E2E2E2E2E2E2E2E2E2E2E2E2E2E2E2E2E2E2E2E2E2E2E2E2E2E2E2E2
310
E2E2E2E2E2E2E2E2E2E2E2E2E2E2E2E2E2E2E2E2E2E2E2E2E2E2E2E2E2E2E2E2E2E2E2E2E2E2E2E2E2E2E2E2E2E2E2E2E2E2E2E2E2E2E2E2E2E2E2E2E2E2E2E2E2E2E2E2E2E2E2E2E2E2E2E2E2E2E2E2E2E2E2E2E2E2E2E2E2E2E2E2E2E2E2E2E2E2E2E2E2E2E2E2E2E2E2E2E2E2E2E2E2E2E2E2E2E2E2E2E2E2E2E2E2E2E2
310
E2E2E2E2E2E2E2E2E2E2E2E2E2E2E2E2E2E2E2E2E2E2E2E2E2E2E2E2E2E2E2E2E2E2E2E2E2E2E2E2E2E2E2E2E2E2E2E2E2E2E2E2E2E2E2E2E2E2E2E2E2E2E2E2E2E2E2E2E2E2E2E2E2E2E2E2E2E2E2E2E2E2E2E2E2E2E2E2E2E2E2E2E2E2E2E2E2E2E2E2E2E2E2E2E2E2E2E2E2E2E2E2E2E2E2E2E2E2E2E2E2E2E2E2E2E2E2
310
E2E2E2E2E2E2E2E2E2E2E2E2E2E2E2E2E2E2E2E2E2E2E2E2E2E2E2E2E2E2E2E2E2E2E2E2E2E2E2E2E2E2E2E2E2E2E2E2E2E2E2E2E2E2E2E2E2E2E2E2E2E2E2E2E2E2E2E2E2E2E2E2E2E2E2E2E2E2E2E2E2E2E2E2E2E2E2E2E2E2E2E2E2E2E2E2E2E2E2E2E2E2E2E2E2E2E2E2E2E2E2E2E2E2E2E2E2E2E2E2E2E2E2E2E2E2E2
310
E2E2E2E2E2E2E2E2E2E2E2E2E2E2E2E2E2E2E2E2E2E2E2E2E2E2E2E2E2E2E2E2E2E2E2E2E2E2E2E2E2E2E2E2E2E2E2E2E2E2E2E2E2E2E2E2E2E2E2E2E2E2E2E2E2E2E2E2E2E2E2E2E2E2E2E2E2E2E2E2E2E2E2E2E2E2E2E2E2E2E2E2E2E2E2E2E2E2E2E2E2E2E2E2E2E2E2E2E2E2E2E2E2E2E2E2E2E2E2E2E2E2E2E2E2E2E2
310
E2E2E2E2E2E2E2E2E2E2E2E2E2E2E2E2E2E2E2E2E2E2E2E2E2E2E2E2E2E2E2E2E2E2E2E2E2E2E2E2E2E2E2E2E2E2E2E2E2E2E2E2E2E2E2E2E2E2E2E2E2E2E2E2E2E2E2E2E2E2E2E2E2E2E2E2E2E2E2E2E2E2E2E2E2E2E2E2E2E2E2E2E2E2E2E2E2E2E2E2E2E2E2E2E2E2E2E2E2E2E2E2E2E2E2E2E2E2E2E2E2E2E2E2E2E2E2
310
E2E2E2E2E2E2E2E2E2E2E2E2E2E2E2E2E2E2E2E2E2E2E2E2E2E2E2E2E2E2E2E2E2E2E2E2E2E2E2E2E2E2E2E2E2E2E2E2E2E2E2E2E2E2E2E2E2E2E2E2E2E2E2E2E2E2E2E2E2E2E2E2E2E2E2E2E2E2E2E2E2E2E2E2E2E2E2E2E2E2E2E2E2E2E2E2E2E2E2E2E2E2E2E2E2E2E2E2E2E2E2E2E2E2E2E2E2E2E2E2E2E2E2E2E2E2E2
310
E2E2E2E2E2E2E2E2E2E2E2E2E2E2E2E2E2E2E2E2E2E2E2E2E2E2E2E2E2E2E2E2E2E2E2E2E2E2E2E2E2E2E2E2E2E2E2E2E2E2E2E2E2E2E2E2E2E2E2E2E2E2E2E2E2E2E2E2E2E2E2E2E2E2E2E2E2E2E2E2E2E2E2E2E2E2E2E2E2E2E2E2E2E2E2E2E2E2E2E2E2E2E2E2E2E2E2E2E2E2E2E2E2E2E2E2E2E2E2E2E2E2E2E2E2E2E2
310
E2E2E2E2E2E2E2E2E2E2E2E2E2E2E2E2E2E2E2E2E2E2E2E2E2E2E2E2E2E2E2E2E2E2E2E2E2E2E2E2E2E2E2E2E2E2E2E2E2E2E2E2E2E2E2E2E2E2E2E2E2E2E2E2E2E2E2E2E2E2E2E2E2E2E2E2E2E2E2E2E2E2E2E2E2E2E2E2E2E2E2E2E2E2E2E2E2E2E2E2E2E2E2E2E2E2E2E2E2E2E2E2E2E2E2E2E2E2E2E2E2E2E2E2E2E2E2
310
E2E2E2E2E2E2E2E2E2E2E2E2E2E2E2E2E2E2E2E2E2E2E2E2E2E2E2E2E2E2E2E2E2E2E2E2E2E2E2E2E2E2E2E2E2E2E2E2E2E2E2E2E2E2E2E2E2E2E2E2E2E2E2E2E2E2E2E2E2E2E2E2E2E2E2E2E2E2E2E2E2E2E2E2E2E2E2E2E2E2E2E2E2E2E2E2E2E2E2E2E2E2E2E2E2E2E2E2E2E2E2E2E2E2E2E2E2E2E2E2E2E2E2E2E2E2E2
310
E2E2E2E2E2E2E2E2E2E2E2E2E2E2E2E2E2E2E2E2E2E2E2E2E2E2E2E2E2E2E2E2E2E2E2E2E2E2E2E2E2E2E2E2E2E2E2E2E2E2E2E2E2E2E2E2E2E2E2E2E2E2E2E2E2E2E2E2E2E2E2E2E2E2E2E2E2E2E2E2E2E2E2E2E2E2E2E2E2E2E2E2E2E2E2E2E2E2E2E2E2E2E2E2E2E2E2E2E2E2E2E2E2E2E2E2E2E2E2E2E2E2E2E2E2E2E2
310
E2E2E2E2E2E2E2E2E2E2E2E2E2E2E2E2E2E2E2E2E2E2E2E2E2E2E2E2E2E2E2E2E2E2E2E2E2E2E2E2E2E2E2E2E2E2E2E2E2E2E2E2E2E2E2E2E2E2E2E2E2E2E2E2E2E2E2E2E2E2E2E2E2E2E2E2E2E2E2E2E2E2E2E2E2E2E2E2E2E2E2E2E2E2E2E2E2E2E2E2E2E2E2E2E2E2E2E2E2E2E2E2E2E2E2E2E2E2E2E2E2E2E2E2E2E2E2
310
E2E2E2E2E2E2E2E2E2E2E2E2E2E2E2E2E2E2E2E2E2E2E2E2E2E2E2E2E2E2E2E2E2E2E2E2E2E2E2E2E2E2E2E2E2E2E2E2E2E2E2E2E2E2E2E2E2E2E2E2E2E2E2E2E2E2E2E2E2E2E2E2E2E2E2E2E2E2E2E2E2E2E2E2E2E2E2E2E2E2E2E2E2E2E2E2E2E2E2E2E2E2E2E2E2E2E2E2E2E2E2E2E2E2E2E2F5E2F5F5F5F5F5F5E2F5F5
310
F5F5F5F5F5F5E2E2E2E2E2E2E2E2E2E2E2E2E2E2E2E2E2E2E2E2E2E2E2E2E2E2E2E2E2E2E2E2E2E2E2E2E2E2E2E2E2E2E2E2E2E2E2E2E2E2E2E2E2E2E2E2E2E2E2E2E2E2E2E2E2E2E2E2E2E2E2F5F5F5F5F5E2E2E2E2E2E2E2E2E2E2E2E2E2E2E2E2E2E2E2E2E2E2E2E2E2E2E2E2E2E2E2E2E2E2E2E2E2E2E2E2E2E2E2E2E2
310
E2E2E2E2E2E2E2E2E2E2E2E2E2E2E2E2E2E2E2E2E2E2E2E2E2E2E2E2E2E2E2E2E2E2E2E2E2E2E2E2E2E2E2E2E2E2E2E2E2E2E2E2E2E2E2E2E2E2E2E2E2E2E2E2E2E2E2E2E2E2E2E2E2E2E2E2E2E2E2E2E2E2E2E2E2E2E2E2E2E2E2E2E2E2E2E2E2E2E2E2E2E2E2E2E2E2E2E2E2E2E2E2E2E2E2E2E2E2F5F5F5F5F5F5F5E2E2
310
F5F5F5F5F5F5F5F5E2E2E2E2E2E2E2E2E2E2E2E2E2E2E2E2E2E2E2E2E2E2E2E2E2E2E2E2E2E2E2E2E2E2E2E2E2E2E2E2E2E2E2E2E2E2E2E2E2E2E2E2E2E2E2E2E2E2E2E2E2E2E2E2E2E2E2E2E2E2E2F5F5F5F5F5E2E2E2E2E2E2E2E2E2E2E2E2E2E2E2E2E2E2E2E2E2E2E2E2E2E2E2E2E2E2E2E2E2E2E2E2E2E2E2E2E2E2E2
310
E2E2E2E2E2E2E2E2E2E2E2E2E2E2E2E2E2E2E2E2E2E2E2E2E2E2E2E2E2E2E2E2E2E2E2E2E2E2E2E2E2E2E2E2E2E2E2E2E2E2E2E2E2E2E2E2E2E2E2E2E2E2E2E2E2E2E2E2E2E2E2E2E2E2E2E2E2E2E2E2E2E2E2E2E2E2E2E2E2E2E2E2E2E2E2E2E2E2E2E2E2E2E2E2E2E2E2E2E2E2E2E2E2E2E2E2E2E2E2E2F5F5F5F5F5F5F5
310
E2E2F5F5F5F5F5F5F5F5F5E2E2E2E2E2E2E2E2E2E2E2E2E2E2E2E2E2E2E2E2E2E2E2E2E2E2E2E2E2E2E2E2E2E2E2E2E2E2E2E2E2E2E2E2E2E2E2E2E2E2E2E2E2E2E2E2E2E2E2E2E2E2E2E2E2F5F5F5F5F5F5F5F5F5F5F5F5F5F5F5F5F5F5F5E2E2E2E2E2E2E2E2E2E2E2E2E2E2E2E2E2E2E2E2E2E2E2E2E2E2E2E2E2E2E2E2
310
E2E2E2E2E2E2E2E2E2E2E2E2E2E2E2E2E2E2E2E2E2E2E2E2E2E2E2E2E2E2E2E2E2E2E2E2E2E2E2E2E2E2E2E2E2E2E2E2E2E2E2E2E2E2E2E2E2E2E2E2E2E2E2E2E2E2E2E2E2E2E2E2E2E2E2E2E2E2E2E2E2E2E2E2E2E2E2E2E2E2E2E2E2E2E2E2E2E2E2E2E2E2E2E2E2E2E2E2E2E2E2E2E2E2E2E2E2E2E2E2E2E2E2E2E2E2E2
310
E2E2E2E2E2E2E2E2E2E2E2E2E2E2E2E2E2E2E2E2E2E2E2E2E2E2E2E2E2E2E2E2E2E2E2E2E2E2E2E2E2E2E2E2E2E2E2E2E2E2E2E2E2E2E2E2E2E2E2E2E2E2E2E2E2E2E2E2E2E2E2E2E2E2E2E2E2E2E2F5F5F5F5F5F5F5F5F5F5F5F5F5F5F5F5F5F5F5F5E2E2E2E2E2E2E2E2E2E2E2E2E2E2E2E2E2E2E2E2E2E2E2E2F5F5F5F5
310
F5E2F5F5F5F5F5F5F5F5F5E2E2E2E2E2E2E2E2E2E2E2E2E2E2E2E2E2E2E2E2E2E2E2E2E2E2E2E2E2E2E2E2E2E2E2E2E2E2E2E2E2E2E2E2E2E2E2E2E2E2E2E2E2E2E2E2E2E2E2E2E2E2E2E2E2E2E2E2E2E2E2E2E2E2E2E2E2E2E2E2E2E2E2E2E2E2E2E2E2E2E2E2E2E2E2E2E2E2E2E2E2E2E2E2E2F0F0F0F0F0F0F0F0F0F0F0
310
F0F0F0F0F0F0F0F0F0F0F0F0F0F0F0F0F0F0F0F0F0F0E2E2E2E2E2E2E2E2E2E2E2E2E2E2E2E2E2E2E2E2E2E2E2E2E2E2E2E2E2E2E2E2E2E2E2E2E2E2E2E2E2E2E2E2E2E2E2E2E2E2E2E2E2E2E2E2E2E2E2E2E2E2E2E2E2E2E2E2E2E2E2E2E2E2E2E2E2E2E2F5F5F0F0F0F0F0F0F0F0F0F0F0F0F0F0F0F0F0F0F0F0F0F5F5F5
310
F5F5F5F5F5F5F5F5F5F5F5F5F5E2E2E2E2E2E2E2E2E2E2E2E2E2E2E2E2E2E2E2E2E2E2E2E2E2E2E2E2E2E2E2E2E2E2E2E2E2E2E2E2E2E2E2E2E2E2E2E2E2E2E2E2E2E2E2E2E2E2E2E2E2E2E2E2E2E2E2E2E2E2E2E2E2E2E2E2E2E2E2E2E2E2E2E2E2E2E2E2E2E2E2E2E2E2E2E2E2E2E2E2E2E2E2E2E2F0E2E2E2E2E2E2E2F0
310
F0E2E2E2E2E2E2F0E2E2E2E2E2E2E2F0F0E2E2E2E2E2E2F0E2E2E2E2E2E2E2E2E2E2E2E2E2E2E2E2E2E2E2E2E2E2E2E2F0F0F0F0F0F0F0F0F0F0F0F0F0F0F0F0F0F0F0F0F0F0F0F0F0F0E2E2E2E2E2E2E2E2E2E2E2E2E2E2E2E2E2E2E2E2E2E2E2E2E2E2E2E2E2E2E2F5E2E2E2E2E2E2E2E2F0F0E2E2E2E2E2E2E2E2E2F0E2
310
F5F5F5F5F5F5F5F5F5F5F5F5F5F5F5E2E2E2E2E2E2E2E2E2E2E2E2E2E2E2E2E2E2E2E2E2E2E2E2E2E2E2E2E2E2E2E2E2E2E2E2E2E2E2E2E2E2E2E2E2E2E2E2E2E2E2E2E2E2E2E2E2E2E2E2E2E2E2E2E2E2E2E2E2E2E2E2E2E2E2E2E2E2E2E2E2E2E2E2E2E2E2E2E2E2E2E2E2E2E2E2E2E2E2E2E2E2E2E2E2F0E2E2E2E2E2E2
310
E2E2E2E2E2E2E2E2E2F0E2E2E2E2E2E2E2E2E2E2E2E2E2E2E2F0E2E2E2E2E2E2E2E2E2E2E2E2E2E2E2E2E2E2E2E2E2E2E2E2F0E2E2E2E2E2F0F0F0E2E2E2E2F0E2E2E2E2E2F0F0E2E2E2E2F0E2E2E2E2E2E2E2E2E2E2E2E2E2E2E2E2E2E2E2E2E2E2E2E2E2E2E2E2E2E2E2F0F5F5E2E2F0F0F0F0F0F0F0F0F0F0E2E2E2E2E2
310
F0E2E2E2E2F5F5F5F5F5F5F5F5F5E2E2E2E2E2E2E2E2E2E2E2E2E2E2E2E2E2E2E2E2E2E2E2E2E2E2E2E2E2E2E2E2E2E2E2E2E2E2E2E2E2E2E2E2E2E2E2E2E2E2E2E2E2E2E2E2E2E2E2E2E2E2E2E2E2E2E2E2E2E2E2E2E2E2E2E2E2E2E2E2E2E2E2E2E2E2E2E2E2E2E2E2E2E2E2E2E2E2E2E2E2E2E2E2E2E2E2E2F0E2E2E2E2
310
E2E2E2E2E2E2E2E2E2E2E2F0E2E2E2E2E2E2E2E2E2E2E2E2E2E2E2F0E2E2E2E2E2E2E2E2E2E2E2E2E2E2E2E2E2E2E2E2E2E2E2E2F0E2E2E2E2E2E2E2E2E2E2E2E2F0E2E2E2E2E2E2E2E2E2E2E2F0E2E2E2E2E2E2E2E2E2E2E2E2E2E2E2E2E2E2F5F5F5F5F5F5E2E2E2E2E2E2E2F0E2E2F5E2F0F0F0E2F0F0E2F0F0F0E2E2E2
310
E2E2F0E2E2F5F5F5F5F5F5F5F5F5F5F5F5F5F5F5F5E2E2E2E2E2E2E2E2E2E2E2E2E2E2E2E2E2E2E2E2E2E2E2E2E2E2E2E2E2E2E2E2E2E2E2E2E2E2E2E2E2E2E2E2E2E2E2E2E2E2E2E2E2E2E2E2E2E2E2E2E2E2E2E2E2E2E2E2E2E2E2E2E2E2E2E2E2E2E2E2E2E2E2E2E2E2E2E2E2E2E2E2E2E2E2E2E2E2E2E2E2E2E2F0E2E2
310
E2E2E2E2E2E2E2E2E2E2E2E2E2F0E2E2E2E2E2E2E2E2E2E2E2E2E2E2E2F0E2E2E2E2E2E2E2E2E2E2E2E2E2E2E2E2E2E2E2E2E2E2E2E2F0E2E2E2E2E2E2E2E2E2E2E2E2F0E2E2E2E2E2E2E2E2E2E2E2F0E2E2E2E2E2E2E2E2E2E2E2E2E2E2E2E2E2E2F5F5F5F5F5F5F5F5E2E2E2E2E2F0E2E2E2F5F5E2F0E2E2E2E2F0E2F0E2
310
E2E2E2E2F0E2F5F5F5F5F5F5F5F5F5F5F5F5F5F5F5E2E2E2E2E2E2E2E2E2E2E2E2E2E2E2E2E2E2E2E2E2E2E2E2E2E2E2E2E2E2E2E2E2E2E2E2E2E2E2E2E2E2E2E2E2E2E2E2E2E2E2E2E2E2E2E2E2E2E2E2E2E2E2E2E2E2E2E2E2E2E2E2E2E2E2E2E2E2E2E2E2E2E2E2E2E2E2E2E2E2E2E2E2E2E2E2E2E2E2E2E2E2E2E2E2F0
310
0F0F0F0F0F0F0F0F0F0F0F0F0F0F0FF00F0F0F0F0F0F0F0F0F0F0F0F0F0F0FF0F0F0F0F0F0F0E2E2E2E2E2E2E2E2E2E2E2E2E2E2E2E2E2E2F0E2E2E2E2E2E2E2E2E2E2E2E2F0E2E2E2E2E2E2E2E2E2E2E2F0E2E2E2E2E2E2E2E2E2E2E2E2E2E2E2E2E2E2E2E2E2E2E2E2E2E2F5F5E2E2E2F0E2E2E2E2F0F5F50F0F0F0FF0E2
310
F0E2E2E2E2E2F0F5E2E2E2E2E2E2E2E2E2E2E2E2E2E2E2E2E2E2E2E2E2E2E2E2E2E2E2E2E2E2E2E2E2E2E2E2E2E2E2E2E2E2E2E2E2E2E2E2E2E2E2E2E2E2E2E2E2E2E2E2E2E2E2E2E2E2E2E2E2E2E2E2E2E2E2E2E2E2E2E2E2E2E2E2E2E2E2E2E2E2E2E2E2E2E2E2E2E2E2E2E2E2E2E2E2E2E2E2E2E2E2E2E2E2E2E2E2E2E2
310
E20FE2E2E2E2E2E2E2E2F0F0F0F0F0F0F0F0F0F0F0F0F0F0F0E2E2E2E2E2E2E2E20FE2E2E2E2E2F0E2E2E2E2E2E2E2E2E2E2E2E2E2E2E2E2E2E2F0E2E2E2E2E2F0F0F0F0F0F0F0F0F0F0F0F0F0F0E2E2E2E2E2F0E2E2E2E2E2E2E2E2E2E2E2E2E2E2E2E2E2E2E2E2E2E2E2E2E2E2E2E2F5E2E2BEBEE2E2E2F0E20FF5E2E2E2
310
0FE2F0F0F0F0F0F0F5E2E2E2E2E2E2E2E2E2E2E2E2E2E2E2E2E2E2E2E2E2E2E2E2E2E2E2E2E2E2E2E2E2E2E2E2E2E2E2E2E2E2E2E2E2E2E2E2E2E2E2E2E2E2E2E2E2E2E2E2E2E2E2E2E2E2E2E2E2E2E2E2E2E2E2E2E2E2E2E2E2E2E2E2E2E2E2E2E2E2E2E2E2E2E2E2E2E2E2E2E2E2E2E2E2E2E2E2E2E2E2E2E2E2E2E2E2E2
310
E2E2E20FE2E2E2E2E2E2E2E2F0E2E2E2E2E2E2F0F0E2E2E2E2E2F0E2E2E2E2E2E2E2E20FE2E2E2E2F0F0E2E2E2E2E2E2E2E2E2E2E2E2E2E2E2E2E2E2F0E2E2E2E2E2F0E2E2E2E2E2F0F0F0E2E2E2E2F0E2E2E2E2E2F0E2E2E2E2E2E2E2E2E2E2E2E2E2E2E2E2E2E2E2E2E2E2E2E2E2E2E2E2E2F5F5BEBEE2E2E2F0280FE2E2
310
E2E22828F0F0E2E2E2F5F0E2E2E2E2E2E2E2E2E2E2E2E2E2E2E2E2E2E2E2E2E2E2E2E2E2E2E2E2E2E2E2E2E2E2E2E2E2E2E2E2E2E2E2E2E2E2E2E2E2E2E2E2E2E2E2E2E2E2E2E2E2E2E2E2E2E2E2E2E2E2E2E2E2E2E2E2E2E2E2E2E2E2E2E2E2E2E2E2E2E2E2E2E2E2E2E2E2E2E2E2E2E2E2E2E2E2E2E2E2E2E2E2E2E2E2E2
310
E2E2E2E2E20FE2E2E2E2E2E2E2E2F0E2E2E2E2E2E2C3E2E2E2E2E2E2F0E2E2E2F0F0E2E2E20FE2E2E2E2F0F0E2E2E2E2E2E2E2E2E2E2E2E2E2E2E2E2E2E2F0E2E2E2E2E2F0E2E2E2E2E2E2E2E2E2E2E2E2F0E2E2E2E2E2F0E2E2E2E2E2E2E2E2E2E2E2E2E2E2E2E2E2E2E2E2E2E2E2E2E2E2E2E2E2E2E2F5BEE2E2E2F0280F
310
E2E2E2E22828F0F0E2E2E2F5F0E2E2E2E2E2E2E2E2E2E2E2E2E2E2E2E2E2E2E2E2E2E2E2E2E2E2E2E2E2E2E2E2E2E2E2E2E2E2E2E2E2E2C3E2E2E2E2E2E2E2E2E2E2E2E2E2E2E2E2E2E2E2E2E2E2E2E2E2E2E2E2E2E2E2E2E2E2E2E2E2E2E2E2E2E2E2E2E2E2E2E2E2E2E2E2E2E2E2E2E2E2E2E2E2E2E2E2E2E2E2E2E2E2E2
310
E2E2E2E2E2E2E20FE2E2E2E2E2E2E2E2F0E2E2E2E2E2E2C3E2E2E2E2E2E2F0E2E2E2F0F0E2E2E20FE2E2E2E2E2F0E2E2E2E2E2E2E2E2E2E2E2E2E2E2E2E2E2E2F0E2E2E2E2E2F0E2E2E2E2E2E2C3E2E2E2E2E2F0E2E2E2E2E2F0E2E2E2E2E2E2E2E2E2E2E2E2E2E2E2E2E2E2E2E2E2E2E2E2E2E2E2E2E2E2E2BEBEE2E2E228
310
280FE2E2E2E2282828F0E2E2F5E2F0E2E2E2E2E2E2E2E2E2E2E2E2E2E2E2E2E2E2E2E2E2E2E2E2E2E2E2E2E2E2E2E2E2E2E2E2E2E2E2E2E2E2C3E2E2E2E2E2E2E2E2E2E2E2E2E2E2E2E2E2E2E2E2E2E2E2E2E2E2E2E2E2E2E2E2E2E2E2E2E2E2E2E2E2E2E2E2E2E2E2E2E2E2E2E2E2E2E2E2E2E2E2E2E2E2E2E2E2DCDCDCDC
310
DCDCDCDCDCDCDCDCDC0FDCDCDCDCDCDCDCDCF0DCDCDCDCDCDCDCDCDCDCDCDCDCF0F0F0F0F0F0F0F0F0F0F0F0F0F0F0F0DCDCDCDCDCDCDCDCDCDCDCDCDCDCDCDCDCDC2D2D2D2D2DDCF0DCDCDCDCDCDCC3DCDCDCDCDCF0DCDC2D2D2D2DDCDCDCDCDCDCDCDCDCDCDCDCDCDCDCDCDCDCDCF0F0F0F0F0F0F0F0F0F0F0F0BEBEF0F0
310
2D282D2D2D2D2D2D2D2D282DF0F5F0F0F0F0F0F0F0F0F0F0F0F0F0F0F0F0F0F0F0DCDCDCDCDCDCDCDCDCDCDCDCDCDCDC2D2D2D2D2D2D2D2D2D2D2DC32D2D2D2D2D2D2D2D2D2D2DDCDCDCDCDCDCDCDCDCDCDCDCDCDCDCDCDCDCDCDCDCDCDCE2E2E2E2E2E2E2E2E2E2E2E2E2E2E2E2E2E2E2E2E2E2E2E2E2E2E2E2E2E2E2E2E2
310
E2E2E2E2E2E2E2E2E2E2E20FE2E2E2E2E2E2E2E2F0E2E2E2E2E2E2C3E2E2E2E2E2E2F0E2E2E2E2F0E2E2E20FE2E2E2E2E2F0E2E2E2E2E2E2E2E2E2E2E2E2E2E2E2E2E2E2E2E22D2D2D2D2D2D2D2D2D2D2D2D2D2D2D2D2D2D2D2D2D2DE2E2E2E2E2E2E2E2E2E2E2E2E2E2E2E2E2E2E2E2E2F0E2E2E2E2F0F0E2E2E2E2E2BEBE
310
E2E22D28E2E2E2E2E2E2E2E2282DF5E2E2E2F0F0F0E2F0E2E2E2E2E2E2F0E2F0E2E2F0E2E2E2E2E2E2E2E2E2E2E2E2E2E2E22DE2E2E2E2E2E2E2E2E2E2C3E2E2E2E2E2E2E2E2E2E22DE2E2E2E2E2E2E2E2E2E2E2E2E2E2E2E2E2E2E2E2E2E2E2E2E2E2E2E2E2E2E2E2E2E2E2E2E2E2E2E2E2E2E2E2E2E2E2E2E2E2E2E2E2E2
310
E2E2E2E2E2E2E2E2E2E2E2E2E20FE2E2E2E2E2E2E2E2F0BEBEBEBEBEBEBEBEBEBEBEBEBEF0F0F0F0F0F0E2E2E20FE2E2E2E2E2F0E2E2E2E2E2E2E2E2E2E2E2E2E2E2E2E2E2E2E2E22D2D2D2D2D2D2D2D2D2D2D2D2D2D2D2D2D2D2D2D2D2DE2E2E2E2E2E2E2E2E2E2E2E2E2E2E2E2E2E2E2E2E2F0E2E2E2E2F0F0F0F0F0F0F0
310
2D2D2D2D2DE2E2E2E2E2E2E2E2E22DF5F0F0F0F0F0F0F0E2F0E2E2E2E2E2E2F0E2F0E2E2F0E2E2E2E2E2E2E2E2E2E2E2E2E2E2E22DE2E2E2E2E2E2E2E2E2E2C3E2E2E2E2E2E2E2E2E2E22DE2E2E2E2E2E2E2E2E2E2E2E2E2E2E2E2E2E2E2E2E2E2E2E2E2E2E2E2E2E2E2E2E2E2E2E2E2E2E2E2E2E2E2E2E2E2E2E2E2E2E2E2
310
E2E2E2E2E2E2E2E2E2E2E2E2E2E2E20FE2E2E2E2E2E2E2E2BEE2E2E2E2E2E2C3E2E2E2E2E2E2BEE2E2E2E2F0E2E2E20FE2E2E2E2E2F0E2E2E2E2E2E2E2E2E2E2E2E2E2E2E2E2E2E2E2E22D2DE2E22DE2E22D2D2D2D2D2D2D2DE2E22DE2E2E22DE2E2E2E2E2E2E2E2E2E2E2E2E2E2E2E2E2E2E2E2E2F0F5F5E2E2E2F0E2E2E2
310
E2E22DE2E22D2DE2E2E2E2E2E2E2E2E2E22DE2DCDCDCDCF0F0F0F0F0F0F0F0E2E2F0E2F0E2E2F0E2E2E2E2E2E2E2E2E2E2E2E2E2E2E22DE2E2E2DCDCE2E2E2E2E2C3DCE2E2E2E2E2DCDCE2E22DE2E2E2E2E2E2E2E2E2E2E2E2E2E2E2E2E2E2E2E2E2E2E2E2E2E2E2E2E2E2E2E2E2E2E2E2E2E2E2E2E2E2E2E2E2E2E2E2E2E2
310
E2E2E2E2E2E2E2E2E2E2E2E2E2E2E2E2E20FE2E2E2E2E2E2E2E2BEE2E2E2E2E2E2C3E2E2E2E2E2E2BEE2E2E2E2F0E2E2E20FE2E2E2E2E2F0E2E2E2E2E2E2E2E2E2E2E2E2E2E2E2E2E2E2E2E22D2DE2E22DE2E22DE2E2E2C3E2E2E2E22D2DE2E2E22DE2E2E2E2E2E2E2E2E2E2E2E2E2E2E2E2E2E2E2E2E2F0F5F5E2E2E2F0E2
310
E2E2E2E22DE2E22D2DE2E2E2E2E2E2E2E2E2E22D2DDCE2F0DCF0F0F0F0E2E2E2F0E2E2F0E2F0E2E2F0E2E2E2E2E2E2E2E2E2E2E2E2E2E2E22DE2E2E2DCDCE2E2E2E2E2C3DCE2E2E2E2E2DCDCE2E22DE2E2E2E2E2E2E2E2E2E2E2E2E2E2E2E2E2E2E2E2E2E2E2E2E2E2E2E2E2E2E2E2E2E2E2E2E2E2E2E2E2E2E2E2E2E2E2E2
310
E2E2E2E2E2E2E2E2E2E2E2E2E2E2E2E2E2E2E20FE2E2E2E2E2E2E2E2BEE2E2E2E2E2E2C3E2E2E2E2E2E2BEE2E2E2E2F0E2E2E20FE2E2E2E2E2F0E2E2E2E2E2E2E2E2E2E2E2E2E2E2E2E2E2E2E2E22D2DE2E22DE22DE22DE2E2C3E2E2E2E22D2DE2E2E22DE2E2E2E2E2E2E2E2E2E2E2E2E2E2E2E2E2E2E2E2E2F0F5F5E2E2E2
310
F0E2E2E2E2E22DE2E22D2DE2E2E2E2E2E2E2E2E2E22D2DDCE2F0DCF0F0F0F0E2E2E2F0E2E2F0E2F0E2E2F0E2E2E2E2E2E2E2E2E2E2E2E2E2E2E22DE2E2E2DCDCE2E2E2E2E2C3DCE2E2E2E2E2DCDCE2E22DE2E2E2E2E2E2E2E2E2E2E2E2E2E2E2E2E2E2E2E2E2E2E2E2E2E2E2E2E2E2E2E2E2E2E2E2E2E2E2E2E2E2E2E2E2E2
310
E2E2E2E2E2E2E2E2E2E2E2E2E2E2E2E2E2E2E2E2E20FE2E2E2E2E2E2E2E2BEE2E2E2E2E2E2C3E2E2E2E2E2E2BEE2E2E2E2F0E2E2E20FE2E2E2E2E2F0E2E2E2E2E2E2E2E2E2E2E2E2E2E2E2E2E2E2E2E22D2DE2E22DE22DE22DE2E2C3E2E2E2E22D2DE2E2E22DE2E2E2E2E2E2E2E2E2E2E2E2E2E2E2E2E2E2E2E2E2F0F5F5E2
310
E2E2F0E2E2E2E2E22DE2E22D2DE2E2E2E2E2E2E2E2E2E22D2DDCE2DCDCE2E2E2F0E2E2E2F0E2E2F0E2F0E2E2F0E2E2E2E2E2E2E2E2E2E2E2E2E2E2E22DE2E2E2DCDCE2E2E2E2E2C3DCE2E2E2E2E2DCDCE2E22DE2E2E2E2E2E2E2E2E2E2E2E2E2E2E2E2E2E2E2E2E2E2E2E2E2E2E2E2E2E2E2E2E2E2E2E2E2E2E2E2E2E2E2E2
310
E2E2E2E2E2E2E2E2E2E2E2E2E2E2E2E2E2E2E2E2E2E2E20FE2E2E2E2E2E2E2E2BEE2E2E2E2E2E2C3E2E2E2E2E2E2BEE2E2E2E2F0E2E2E20FE2E2E2E2E2F0E2E2E2E2E2E2E2E2E2E2E2E2E2E2E2E2E2E2E22D2D2DE2E22D2D2D2D2DE2E2C3E2E2E2E22D2DE2E2E22D2DE2E2E2E2E2E2E2E2E2E2E2E2E2E2E2E2E2E2E2E2F0F5
310
F5E2E2E2F0E2E2E2E2E22DE2E22D2D2D2D2D2D2D2D2D2D2D2D2D2DDCE2F0DCF0F0F0F0E2E2E2F0E2E2F0E2F0E2E2F0E2E2E2E2E2E2E2E2E2E2E2E2E2E2E22DE2E2E2DCDCE2E2E2E2E2C3DCE2E2E2E2E2DCDCE2E22DE2E2E2E2E2E2E2E2E2E2E2E2E2E2E2E2E2E2E2E2E2E2E2E2E2E2E2E2E2E2E2E2E2E2E2E2E2E2E2E2E2E2
310
E2E2E2E2E2E2E2E2E2E2E2E2E2E2E2E2E2E2E2E2E2E2E2E2E20FE2E2E2E2E2E2E2E2BEE2E2E2E2E2E2C3E2E2E2E2E2E2BEE2E2E2E2F0E2E2E20FE2E2E2E2E2F0E2E2E2E2E2E2E2E2E2E2E2E2E2E2E2E2E2E2E22D2D2DE2E22D2DE2E22DE2E2C3E2E2E2E22D2DE2E2E22D2DE2E2E2E2E2E2E2E2E2E2E2E2E2E2E2E2E2E2E2E2
310
F0F5F5E2E2E2F0E2E2E2E2E22DE2E22D2DE2E2E2E2E2E2E2E2E2E22D2DDCE2F0DCF0F0F0F0E2E2E2F0E2E2F0E2F0E2E2F0E2E2E2E2E2E2E2E2E2E2E2E2E2E2E22DE2E2E2DCDCE2E2E2E2E2C3DCE2E2E2E2E2DCDCE2E22DE2E2E2E2E2E2E2E2E2E2E2E2E2E2E2E2E2E2E2E2E2E2E2E2E2E2E2E2E2E2E2E2E2E2E2E2E2E2E2E2
310
E2E2E2E2E2E2E2E2E2E2E2E2E2E2E2E2E2E2E2E2E2E2E2E2E2E2E20FE2E2E2E2E2E2E2E2BEE2E2E2E2E2E2C3E2E2E2E2E2E2BEE2E2E2E2F0E2E2E20FE2E2E2E2E2F0E2E2E2E2E2E2E2E2E2E2E2E2E2E2E2E2E2E2E22D2D2DE2E22D2DE2E22DE2E2C3E2E2E2E22D2DE2E2E22D2DE2E2E2E2E2E2E2E2E2E2E2E2E2E2E2F5F5F5
310
F5E2F0F5E2E2E2F0F0E2E2E2E2E22DE2E22DE2E2E2E2E2E2E2E2E2E2E22D2DDCDCDCDCF0F0F0F0F0F0F0F0F0F0F0E2F0E2E2F0E2E2E2E2E2E2E2E2E2E2E2E2E2E2E22DE2E2E2DCDCE2E2E2E2E2C3DCE2E2E2E2E2DCDCE2E22DE2E2E2E2E2E2E2E2E2E2E2E2E2E2E2E2E2E2E2E2E2E2E2E2E2E2E2E2E2E2E2E2E2E2E2E2E2E2
310
E2E2E2E2E2E2E2E2E2E2E2E2E2E2E2E2E2E2E2E2E2E2E2E2E2E2E2E2E20FE2E2E2E2E2E2E2E2BEE2E2E2E2E2E2C3E2E2E2E2E2E2BEE2E2E2E2F0E2E2E20FE2E2E2E2E2F0E2E2E2E2E2E2E2E2E2E2E2E2E2E2E2E2E2E2E22D2D2DE2E22D2DE2E22DE2E2C3E2E2E2E22D2DE2E2E22D2DE2E2E2E2E2E2E2E2E2E2E2E2E2E2E2F5
310
F5F5F5E2F0F5F5E2E2F0F0E2E2E2E2E22DE2E22DE2E2E2E2E2E2E2E2E2E2E22D2DE2E2E2F0E2E2E2F0E2E2E2F0E2E2E2E2F0E2E2F0E2E2E2E2E2E2E2E2E2E2E2E2E2E2E22DE2E2E2E2E2E2E2E2E2E2C3E2E2E2E2E2E2E2E2E2E22DE2E2E2E2E2E2E2E2E2E2E2E2E2E2E2E2E2E2E2E2E2E2E2E2E2E2E2E2E2E2E2E2E2E2E2E2
310
E2E2E2E2E2E2E2E2E2E2E2E2E2E2E2E2E2E2E2E2E2E2E2E2E2E2E2E2E2E2E20FE2E2E2E2E2E2E2E2BEE2E2E2E2E2E2C3E2E2E2E2E2E2BEE2E2E2F0F0E2E2E20FE2E2E2E2E2F0E2E2E2E2E2E2E2E2E2E2E2E2E2E2E2E2E2E2E22D2D2DE2E22D2DE2E22DE2E2C3E2E2E2E22D2DE2E2E22D2DE2E2E2E2E2E2E2E2E2E2E2E2E2E2
310
E2F5F5F5F5E2F0F5F5E2E2F0F0E2E2E2E2E22DE2E22DE2E2E2E2E2E2E2E2E2E2E22D2DE2E2E2F0E2E2E2F0E2E2E2F0E2E2E2E2F0E2E2F0E2E2E2E2E2E2E2E2E2E2E2E2E2E2E22DE2E2E2E2E2E2E2E2E2E2C3E2E2E2E2E2E2E2E2E2E22DE2E2E2E2E2E2E2E2E2E2E2E2E2E2E2E2E2E2E2E2E2E2E2E2E2E2E2E2E2E2E2E2E2E2
310
E2E2E2E2E2E2E2E2E2E2E2E2E2E2E2E2E2E2E2E2E2E2E2E2E2E2E2E2E2E2E2E2E20FE2E2E2E2E2E2E2E2BEE2E2E2E2E2E2C3E2E2E2E2E2E2BEE2E2E2F0F0E2E2E20FE2E2E2E2E2F0E2E2E2E2E2E2E2E2E2E2E2E2E2E2E2E2E2E2E22D2D2DE2E22D2DE2E22DE2E2C3E2E2E2E22D2DE2E2E22D2DE2E2E2E2E2E2E2E2E2E2E2E2
310
E2E2E2F5F5F5F5E2F0F5F5E2E2E2F0E2E2E2E22D2DE2E22DE2E2E2E2E2E2E2E2E2E2E22D2DE2E2E2F0E2E2E2E2E2E2E2F0E2E2E2F0F0E2F0F0E2E2E2E2E2E2E2E2E2E2E2E2E2E2E22DE2E2E2E2E2E2E2E2E2E2C3E2E2E2E2E2E2E2E2E2E22DE2E2E2E2E2E2E2E2E2E2E2E2E2E2E2E2E2E2E2E2E2E2E2E2E2E2E2E2E2E2E2E2
310
E2E2E2E2E2E2E2E2E2E2E2E2E2E2E2E2E2E2E2E2E2E2E2E2E2E2E2E2E2E2E2E2E2E2E20FE2E2E2E2E2E2E2E2BEE2E2E2E2E2E2C3E2E2E2E2E2E2BEE2E2E2E2F0E2E2E20FE2E2E2E2E2F0E2E2E2E2E2E2E2E2E2E2E2E2E2E2E2E2E2E2E22D2D2DE2E22D2DE2E22DE2E22D2D2D2D2D2D2DE2E2E22D2DE2E2E2E2E2E2E2E2E2E2
310
E2E2E2E2E2F5F5F5F5E2F0F5F5E2E2E2F0E2E2E2E22D2DE2E22DE2E2E2E2E2E2E2E2E2E2E22D2DE2E2E2F0E2E2E2F0E2E2E2F0E2E2E2F0F0E2F0F0E2E2E2E2E2E2E2E2E2E2E2E2E2E2E22DE2E2E2E2E2E2E2E2E2E2C3E2E2E2E2E2E2E2E2E2E22DE2E2E2E2E2E2E2E2E2E2E2E2E2E2E2E2E2E2E2E2E2E2E2E2E2E2E2E2E2E2
310
E2E2E2E2E2E2E2E2E2E2E2E2E2E2E2E2E2E2E2E2E2E2E2E2E2E2E2E2E2E2E2E2E2E2E2E2E20FE2E2E2E2E2E2E2E2BEE2E2E2E2E2E2C3E2E2E2E2E2E2BEE2E2E2E2F0E2E2E20FE2E2E2E2F0F0E2E2E2E2E2E2E2E2E2E2E2E2E2E2E2E2E2E2E22D2D2DE2E22D2DE2E22DE2E22D2D2D2D2D2D2DE2E2E22D2DE2E2E2E2E2E2E2E2
310
E2E2E2E2E2E2E2F5F5F5F5E2F0F5F5E2E2E2F0E2E2E2E2F52DE2E22DE2E2E2E2E2E2E2E2E2E2E22D2DE2E2E2F0E2E2E2F0E2E2E2F0E2E2E2E2F0E2F0F0E2E2E2E2E2E2E2E2E2E2E2E2E2E2E22DE2F0F0F0F0E2E2E2E2E2C3E2E2E2E2E2E2E2E2E2E22DE2E2E2E2E2E2E2E2E2E2E2E2E2E2E2E2E2E2E2E2E2E2E2E2E2E2E2E2
310
E2E2E2E2E2E2E2E2E2E2E2E2E2E2E2E2E2E2E2E2E2E2E2E2E2E2E2E2E2E2E2E2E2E2E2E2E2E2E20FE2E2E2E2E2E2E2E2BEE2E2E2E2E2E2C3E2E2E2E2E2E2BEE2E2E2E2F0E2E2E20FE2E2E2E2F0F0E2E2E2E2E2E2E2E2E2E2E2E2E2E2E2E2E2E2E22D2D2DE2E22D2DE2E22DE2E22D2D2D2D2D2D2DE2E2E22D2DE2E2E2E2E2E2
310
E2E2E2E2E2E2E2E2E2F5F5F5F5E2F0F5F5E2E2E2F0E2E2E2E2F52DE2E22DE2E2E2E2E2E2E2E2E2E2E22D2DDCDCDCDCF0F0F0F0F0F0F0F0E2E2E2E2F0E2E2F0E2E2E2E2E2E2E2E2E2E2E2E2E2E2E22DE2F0F0F0F0E2E2E2E2E2C3DCE2E2E2E2E2DCDCE2E22DE2E2E2E2E2E2E2E2E2E2E2E2E2E2E2E2E2E2E2E2E2E2E2E2E2E2
310
E2E2E2E2E2E2E2E2E2E2E2E2E2E2E2E2E2E2E2E2E2E2E2E2E2E2E2E2E2E2E2E2E2E2E2E2E2E2E2E2E20FE2E2E2E2E2E2E2E2BEE2E2E2E2E2E2C3E2E2E2E2E2E2BEE2E2E2E2F0E2E2E20FE2E2E2E2E2F0E2E2E2E2E2E2E2E2E2E2E2E2E2E2E2E2E2E2E22D2D2DE2E22D2DE2E22DE2E22D2D2D2D2D2D2DE2E2E22D2DE2E2E2E2
310
E2E2E2E2E2E2E2E2E2E2E2F5F5F5F5E2F0F5F5E2E2E2F0E2E2E2F5E22DE2E22DE2E2E2E2E2E2E2E2E2E2E22D2DDCE2F0DCF0F0F0F0E2E2E2F0E2E2E2E2F0E2E2F0E2E2E2E2E2E2E2E2E2E2E2E2E2E2E22DE2E2E2DCDCE2E2E2E2E2C3DCE2E2E2E2E2DCDCE2E22DE2E2E2E2E2E2E2E2E2E2E2E2E2E2E2E2E2E2E2E2E2E2E2E2
310
E2E2E2E2E2E2E2E2E2E2E2E2E2E2E2E2E2E2E2E2E2E2E2E2E2E2E2E2E2E2E2E2E2E2E2E2E2E2E2E2E2E2E20FE2E2E2E2E2E2E2E2BEE2E2E2E2E2E2C3E2E2E2E2E2E2BEE2E2E2E2F0E2E2E20FE2E2E2E2E2F0E2E2E2E2E2E2E2E2E2E2E2E2E2E2E2E2E2E2E22D2D2DE2E22D2DE2E22DE2E2C3E2E2E2E22D2DE2E2E22D2DE2E2
310
E2E2E2E2E2E2E2E2E2E2E2E2E2F5F5F5F5E2F0F5F5E2E2E2F0E2E2E2F5E22DE2E22DE2E2E2E2E2E2E2E2E2E2E22D2DDCE2DCDCF0F0F0F0E2E2E2F0E2E2E2E2F0E2E2F0E2E2E2E2E2E2E2E2E2E2E2E2E2E2E22DE2E2E2DCDCE2E2E2E2E2C3DCE2E2E2E2E2DCDCE2E22DE2E2E2E2E2E2E2E2E2E2E2E2E2E2E2E2E2E2E2E2E2E2
310
E2E2E2E2E2E2E2E2E2E2E2E2E2E2E2E2E2E2E2E2E2E2E2E2E2E2E2E2E2E2E2E2E2E2E2E2E2E2E2E2E2E2E2E2E20FE2E2E2E2E2E2E2E2BEE2E2E2E2E2E2C3E2E2E2E2E2E2BEE2E2E2E2F0E2E2E20FE2E2E2E2E2F0E2E2E2E2E2E2E2E2E2E2E2E2E2E2E2E2E2E2E22D2D2DE2E22D2D2D2D2DE2E2C3E2E2E2E22D2DE2E2E22D2D
310
E2E2E2E2E2E2E2E2E2E2E2E2E2E2E2F5F5F5F5E2F0F5F5E2E2E2F0E2E2F5E2E22DE2E22DE2E2E2E2E2E2E2E2E2E22D2D2DDCE2DCDCE2E2E2F0E2E2E2F0E2E2E2E2F0E2E2F0E2E2E2E2E2E2E2E2E2E2E2E2E2E2E22DE2E2E2DCDCE2E2E2E2E2C3DCE2E2E2E2E2DCDCE2E22DE2E2E2E2E2E2E2E2E2E2E2E2E2E2E2E2E2E2E2E2
310
E2E2E2E2E2E2E2E2E2E2E2E2E2E2E2E2E2E2E2E2E2E2E2E2E2E2E2E2E2E2E2E2E2E2E2E2E2E2E2E2E2E2E2E2E2E2E20FE2E2E2E2E2E2E2E2BEBEBEBEBEBEBEBEBEBEBEBEBEBEBEF0F0F0F0F0E2E2E20FE2E2E2E2E2F0E2E2E2E2E2E2E2E2E2E2E2E2E2E2E2E2E2E2E22D2D2DE2E22D2D2D2D2D2D2D2D2D2D2D2D2D2DE2E2E2
310
2D2DE2E2E2E2E2E2E2E2E2E2E2E2E2E2E2F5F5E2E2E2F0F5F5E2E2E2F0F0F0F5F0F02D2D2D2DE2E2E2E2E2E2E2E2E22DE22D2DDCE2DCDCF0F0F0F0E2E2E2F0E2E2E2E2F0E2E2F0E2E2E2E2E2E2E2E2E2E2E2E2E2E2E22DE2E2E2DCDCE2E2E2E2E2C3DCE2E2E2E2E2DCDCE2E22DE2E2E2E2E2E2E2E2E2E2E2E2E2E2E2E2E2E2
310
E2E2E2E2E2E2E2E2E2E2E2E2E2E2E2E2E2E2E2E2E2E2E2E2E2E2E2E2E2E2E2E2E2E2E2E2E2E2E2E2E2E2E2E2E2E2E2E2E20FE2E2E2E2E2E2E2E2E2E2E2E2E2E2E2C3E2E2E2E2E2E2E2E2E2E2E2E2E2E2E20FE2E2E2E2E2F0E2E2E2E2E2E2E2E2E2E2E2E2E2E2E2E2E2E2E22D2D2D2D2D2DE2E2E2E2E2E2C3E2E2E2E2E2E22D
310
2D2D2D2DE2E2E2E2E2E2E2E2E2E2E2E2E2E2E2F5F5E2E2E2F0F5F5E2E2E2E2E2E2F5E2E2BEBEE22DE2E2E2E2E2E2E2E22D2D2D2D2DDCF0F0DCF0F0F0F0E2E2E2F0E2E2E2E2F0E2E2F0E2E2E2E2E2E2E2E2E2E2E2E2E2E2E22DE2E2E2DCDCE2E2E2E2E2C3DCE2E2E2E2E2DCDCE2E22DE2E2E2E2E2E2E2E2E2E2E2E2E2E2E2E2
310
E2E2E2E2E2E2E2E2E2E2E2E2E2E2E2E2E2E2E2E2E2E2E2E2E2E2E2E2E2E2E2E2E2E2E2E2E2E2E2E2E2E2E2E2E2E2E2E2E2E2E20FE2E2E2E2E2E2E2E2E2E2E2E2E2E2E2C3E2E2E2E2E2E2E2E2E2E2E2E2E2E2E20FE2E2E2E2E2F0E2E2E2E2E2E2E2E2E2E2E2E2E2E2E2E2E2E2E22D2D2D2D2D2DE2E2E2E2E2E2C3E2E2E2E2E2
310
E22D2D2D2D2DE2E2E2E2E2E2E2E2E2E2E2E2E2E2E2F5F5E2E2E2F0F5F5E2E2E2E2E2F5E2E2E2BEBEE22DE2E2E2E2E2E2E2E22DE2E2E2E2DCDCDCF0F0F0F0F0F0F0F0F0E2E2E2E2F0E2E2F0E2E2E2E2E2E2E2E2E2E2E2E2E2E2E22DE2E2E2DCDCE2E2E2E2E2C3DCE2E2E2E2E2DCDCE2E22DE2E2E2E2E2E2E2E2E2E2E2E2E2E2
310
E2E2E2E2E2E2E2E2E2E2E2E2E2E2E2E2E2E2E2E2E2E2E2E2E2E2E2E2E2E2E2E2E2E2E2E2E2E2E2E2E2E2E2E2E2E2E2E2E2E2E2E2E20FE2E2E2E2E2E2E2E2E2E2E2E2E2E2E2C3E2E2E2E2E2E2E2E2E2E2E2E2E2E2E20FE2E2E2E2E2F0E2E2E2E2E2E2E2E2E2E2E2E2E2E2E2E2E2E2E22D2DE2E2E22D2D2D2D2D2D2D2D2D2D2D
310
2D2D2D2DE2E2E22DE2E2E2E2E2E2E2E2E2E2E2E2E2E2E2F5F5E2E2E2F0F5F5E2E2E2E2E2F5E2E2E2BEBEE22DE2E2E2E2E2E2E2E22DE2E2F0E2E2F0F0F0E2E2E2F0E2E2E2E2E2E2E2E2F0E2E2F0E2E2E2E2E2E2E2E2E2E2E2E2E2E2E22DE2E2E2E2E2E2E2E2E2E2C3E2E2E2E2E2E2E2E2E2E22DE2E2E2E2E2E2E2E2E2E2E2E2
310
E2E2E2E2E2E2E2E2E2E2E2E2E2E2E2E2E2E2E2E2E2E2E2E2E2E2E2E2E2E2E2E2E2E2E2E2E2E2E2E2E2E2E2E2E2E2E2E2E2E2E2E2E2E2E20FE2E2E2E2E2E2E2E2E2E2E2E2E2E2E2C3E2E2E2E2E2E2E2E2E2E2E2E2E2E2E20FE2E2E2E2E2F0E2E2E2E2E2E2E2E2E2E2E2E2E2E2E2E2E2E2E22D2D2D2D2D2D2D2D2D2D2D2D2D2D
310
2D2D2D2D2D2D2D2D2D2DE2E2E2E2E2E2E2E2E2E2E2E2E2E2E2E2E2E2E2E2F0E2E2E2E2E2E2F5E2E2E2E2BEDCDC2DE2E2E2E2E2E2E22D2DE2E2F0E2E2F0F0F0F0F0F0F0F0E2E2E2E2E2E2E2F0E2E2F0E2E2E2E2E2E2E2E2E2E2E2E2E2E2E22DE2E2E2E2E2E2E2E2E2E2C3E2E2E2E2E2E2E2E2E2E22DE2E2E2E2E2E2E2E2E2E2
310
E2E2E2E2E2E2E2E2E2E2E2E2E2E2E2E2E2E2E2E2E2E2E2E2E2E2E2E2E2E2E2E2E2E2E2E2E2E2E2E2E2E2E2E2E2E2E2E2E2E2E2E2E2E2E2E2E20FE2E2E2E2E2E2E2E2E2E2E2E2E2E2E2C3E2E2E2E2E2E2E2E2E2E2E2E2E2E2E20FE2E2E2E2E2F0E2E2E2E2E2E2E2E2E2E2E2E2E2E2E2E2E2E2E22D2D2D2D2D2D2D2D2D2D2D2D
310
2D2D2D2D2D2D2D2D2D2D2D2DE2E2E2E2E2E2E2E2E2E2E2E2E2E2E2E2E2E2E2E2F0E2E2E2E2E2E2F5E2E2E2E2BEDCE22D2DE2E2E2E2E22DF02DF0F0F0E2E2F0F0F0E2F5F5F5F5E2E2E2E2E2E2E2F0E2E2F0E2E2E2E2E2E2E2E2E2E2E2E2E2E2E22DE2E2E2E2E2E2E2E2E2E2C3E2E2E2E2E2E2E2E2E2E22DE2E2E2E2E2E2E2E2
310
E2E2E2E2E2E2E2E2E2E2E2E2E2E2E2E2E2E2E2E2E2E2E2E2E2E2E2E2E2E2E2E2E2E2E2E2E2E2E2E2E2E2E2E2E2E2E2E2E2E2E2E2E2E2E2E2E2E2E20FE2E2E2E2E2E2E2E2E2E2E2E2E2E2E2C3E2E2E2E2E2E2E2E2E2E2E2E2E2E2E20FE2E2E2E2E2F0E2E2E2E2E2E2E2E2E2E2E2E2E2E2E2E2E2E2E2DC2DE2E2E2E2E2E2E2E2
310
E2E2C3E2E2E2E2E2E2E2E2E2E2DCE2E2E2E2E2E2E2E2E2E2E2E2E2E2E2E2E2E2E2E2F0E2E2E2E2E2E2F5E2E2E2E2F0DCE2E22D2D2D2D2D2D2DF0F0F0F0F0F0F0F0F0F0F0F0F0F0F0F0F0F0F0F0F0F0F0E2E2F0E2E2E2E2E2E2E2E2E2E2E2E2E2E2E22D2D2D2D2D2D2D2D2D2D2DC32D2D2D2D2D2D2D2D2D2D2DE2E2E2E2E2E2
310
E2E2E2E2E2E2E2E2E2E2E2E2E2E2E2E2E2E2E2E2E2E2E2E2E2E2E2E2E2E2E2E2E2E2E2E2E2E2E2E2E2E2E2E2E2E2E2E2E2E2E2E2E2E2E2E2E2E2E2E2E20FE2E2E2E2E2E2E2E2E2E2E2E2E2E2E2C3E2E2E2E2E2E2E2E2E2E2E2E2E2E2E20FE2E2E2E2E2F0E2E2E2E2E2E2E2E2E2E2E2E2E2E2E2E2E2E2E2DCDCDCDCDCDCDCDC
310
DCDCDCDCDCDCDCDCDCDCDCDCDCDCDCDCE2E2E2E2E2E2E2E2E2E2E2E2E2E2E2E2E2E2E2E2F0E2E2E2E2E2F5E2E2E2E2E2F0DCDCDCDCDCDCDCF0F0F0F0F0F0F0F0F0F0F0F0F0F0F0F0F0F0F0F0F5F0F0F0F0F0F0F0F0E2E2E2E2E2E2E2E2E2E2E2E2E2E2E2E2E2E2E2E2E2E2E2E2E2E2C3E2E2E2E2E2E2E2E2E2E2E2E2E2E2E2
310
E2E2E2E2E2E2E2E2E2E2E2E2E2E2E2E2E2E2E2E2E2E2E2E2E2E2E2E2E2E2E2E2E2E2E2E2E2E2E2E2E2E2E2E2E2E2E2E2E2E2E2E2E2E2E2E2E2E2E2E2E2E2E20FE2E2E2E2E2E2E2E2E2E2E2E2E2E2E2C3E2E2E2E2E2E2E2E2E2E2E2E2E2E2E20FE2E2E2E2E2F0E2E2E2E2E2E2E2E2E2E2E2E2E2E2E2E2E2E2E2E2E2E2E2E2E2
310
E2E2E2E2E2E2C3E2E2E2E2E2E2E2E2E2E2E2E2E2E2E2E2E2E2E2E2E2E2E2E2E2E2E2E2E2E2E2F0E2E2E2E2E2F5E2E2E2E2E2F0E2E2E2E2E2E2E2E2E2E2F0E2F0E2E2E2E2F0F0F0E2E2E2E2E2E2E2F5E2E2E2E2E2E2E2E2E2E2E2E2E2E2E2E2E2E2E2E2E2E2E2E2E2E2E2E2E2E2E2E2E2E2C3E2E2E2E2E2E2E2E2E2E2E2E2E2
310
E2E2E2E2E2E2E2E2E2E2E2E2E2E2E2E2E2E2E2E2E2E2E2E2E2E2E2E2E2E2E2E2E2E2E2E2E2E2E2E2E2E2E2E2E2E2E2E2E2E2E2E2E2E2E2E2E2E2E2E2E2E2E2E2E20FE2E2E2E2E2E2E2E2E2E2E2E2E2E2E2C3E2E2E2E2E2E2E2E2E2E2E2E2E2E2E20FE2E2E2E2E2F0E2E2E2E2E2E2E2E2E2E2E2E2E2E2E2E2E2E2E2E2E2E2E2
310
E2E2E2E2E2E2E2E2C3E2E2E2E2E2E2E2E2E2E2E2E2E2E2E2E2E2E2E2E2E2E2E2E2E2E2E2E2E2E2E2F0E2E2E2E2F5E2E2E2E2E2E2F0E2E2E2E2E2E2E2E2E2E2F0E2E2F0E2E2E2F0F0F0E2E2E2E2E2E2E2E2F5E2E2E2E2E2E2E2E2E2E2E2E2E2E2E2E2E2E2E2E2E2E2E2E2E2E2F0E2E2E2E2E2E2F0E2E2E2E2E2E2F0E2E2E2E2
310
E2E2E2E2E2E2E2E2E2E2E2E2E2E2E2E2E2E2E2E2E2E2E2E2E2E2E2E2E2E2E2E2E2E2E2E2E2E2E2E2E2E2E2E2E2E2E2E2E2E2E2E2E2E2E2E2E2E2E2E2E2E2E2E2E2E2E20F0F0F0F0F0F0F0F0F0F0F0F0F0F0F0F0F0F0F0F0F0F0F0F0F0F0F0F0F0F0F0F0FF0F0F0F0F0F0E2E2E2E2E2E2E2E2E2E2E2E2E2E2E2E2E2E2E2E2E2
310
E2E2E2E2E2E2E2E2E2E2C3E2E2E2E2E2E2E2E2E2E2E2E2E2E2E2E2E2E2E2E2E2E2E2E2E2E2E2E2E2E2E2F0F0F0F0F0F5F0F0F0F0F0F0F0F0F0F0F0F00F0F0F0F0F0F0F0FF00FE2E2F0F0F0E2E2E2E2E2E2E2E2F5E2E2E2E2E2E2E2E2E2E2E2E2E2E2E2E2E2E2E2E2E2E2E2E2E2E2F0E2E2E2E2E2E2F0E2E2E2E2E2E2F0E2E2
310
E2E2E2E2E2E2E2E2E2E2E2E2E2E2E2E2E2E2E2E2E2E2E2E2E2E2E2E2E2E2E2E2E2E2E2E2E2E2E2E2E2E2E2E2E2E2E2E2E2E2E2E2E2E2E2E2E2E2E2E2E2E2E2E2E2E2E2E2E2E2E2E2E2E2E2E2E2E2F5E2E2E2E2E2E2C3E2E2E2E2E2E2E2E2E2E2E2E2E2E2E2E2E2E2E2E2E2E2E2E2E2E2E2E2E2E2E2E2E2E2E2E2E2E2E2E2E2
310
F00F0F0FF50F0F0F0F0F0F0F0F0F0F0F0F0F0F0F0F0F0F0FF0E2E2E2E2E2E2E2E2E2E2E2E2E2E2E2E2E2E2E2E2E2E2E2E2F5E2E2E2E2E2E2F0E2E2E2E2E2F00F0F0F0F0F0F0F0FF0E2E2F0F0F0E2E2E2E2E2E2E2E2E2F5E2E2E2E2E2E2E2E2E2E2E2E2E2E2E2E2E2E2E2E2E2E2E2E2E2F0F0F0F0F0F0F0F0F0F0F0F0F0F0F0
310
E2E2E2E2E2E2E2E2E2E2E2E2E2E2E2E2E2E2E2E2E2E2E2E2E2E2E2E2E2E2E2E2E2E2E2E2E2E2E2E2E2E2E2E2E2E2E2E2E2E2E2E2E2E2E2E2E2E2E2E2E2E2E2E2E2E2E2E2E2E2E2E2E2E2E2E2E2E2E2E2F5E2E2E2E2E2E2C3E2E2E2E2E2E2E2E2E2E2E2E2E2E2E2E2E2E2E2E2E2E2E2E2E2E2E2E2E2E2E2E2E2E2E2E2E2E2E2
310
E2E2F0E2E2F5E2E2E2E2E2E2E2E2C3E2E2E2E2E2E2E2E2E2E2E2F0E2E2E2E2E2E2E2E2E2E2E2E2E2E2E2E2E2E2E2E2E2E2E2F5E2E2E2E2E2E2E2F0E2E2E2E2E2F0E2E2E2E2F0E2E2E2F0F0E2F0F0E2E2E2E2E2E2E2E2E2E2F5F5F5F5F5F5F5F5F5F5F5F5F5F5F5F5F5F5F5E2E2E2E2E2E2E2E2E2E2F0F0E2E2C3E2E2F0F0E2
310
E2E2E2E2E2E2E2E2E2E2E2E2E2E2E2E2E2E2E2E2E2E2E2E2E2E2E2E2E2E2E2E2E2E2E2E2E2E2E2E2E2E2E2E2E2E2E2E2E2E2E2E2E2E2E2E2E2E2E2E2E2E2E2E2E2E2E2E2E2E2E2E2E2E2E2E2E2E2E2E2E2F5E2E2E2E2E2E2E2C3E2E2E2E2E2E2E2E2E2E2E2E2E2E2E2E2E2E2E2E2E2E2E2E2E2E2E2E2E2E2E2E2E2E2E2E2E2
310
E2E2E2E2F0E2F5E2E2E2E2E2E2E2E2E2F0E2E2E2E2E2E2E2E2E2E2E2F0E2E2E2E2E2E2E2F5F5F5F5F5F5F5F5E2F5F5F5F5F5E2E2F5E2E2E2E2E2E2E2F0E2E2E2E2E2F0E2E2E2E2F0E2E2E2F0F0E2E2E2E2E2E2E2E2E2E2E2E2E2F5F5F5F5E2F5F5F5F5F5F5F5E2F5F5F5F5F5F5E2E2E2E2E2E2E2E2E2E2E2E2E2E2C3E2E2E2
310
E2E2E2E2E2E2E2E2E2E2E2E2E2E2E2E2E2E2E2E2E2E2E2E2E2E2E2E2E2E2E2E2E2E2E2E2E2E2E2E2E2E2E2E2E2E2E2E2E2E2E2E2E2E2E2E2E2E2E2E2E2E2E2E2E2E2E2E2E2E2E2E2E2E2E2E2E2E2E2E2E2E2E2F5E2E2E2E2E2E2E2C3E2E2E2E2E2E2E2E2E2E2E2E2E2E2E2E2E2E2E2E2E2E2E2E2E2E2E2E2E2E2E2E2E2E2E2
310
E2E2E2E2E2E2F0F5E2E2E2E2E2E2E2E2E2E2F0E2E2E2E2E2E2E2E2E2E2E2F0E2E2E2E2E2E2E2F5F5F5F5F5F5F5F5F5F5F5F5F5F5E2F5E2E2E2E2E2E2E2E2F0F0F0F0F0F0F0F0F0F0F0F0F0F0F0F0E2F0F0F0F0F0F0F0F0E2E2E2E2E2F5F5F5F5F5F5F5F5F5F5F5F5E2F5F5F5F5F5F5E2E2E2E2E2E2E2E2E2E2E2E2E2E2F0F0
310
E2E2E2E2E2E2E2E2E2E2E2E2E2E2E2E2E2E2E2E2E2E2E2E2E2E2E2E2E2E2E2E2E2E2E2E2E2E2E2E2E2E2E2E2E2E2E2E2E2E2E2E2E2E2E2E2E2E2E2E2E2E2E2E2E2E2E2E2E2E2E2E2E2E2E2E2E2E2E2E2E2E2E2E2E2F5E2E2E2E2E2E2E2C3E2E2E2E2E2E2E2E2E2E2E2E2E2E2E2E2E2E2E2E2E2E2E2E2E2E2E2E2E2E2E2E2E2
310
E2E2E2E2E2E2E2E2F5F0F0F0F0F0F0F0F0F0F0F0F0F0F0F0F0F0F0F0F0F0F0F0F0E2E2E2E2E2E2F5F5F5F5F5F5F5F5F5F5F5F5F5F5F5F5F5E2E2E2E2E2E2E2E2F0E2F0F0E2E2E2E2F0F0F0F0E2E2E2E2E2E2F5E2F5F5F5F5E2E2E2E2E2E2E2E2E2E2E2E2E2E2E2E2E2E2E2E2E2E2E2E2E2E2E2E2E2E2E2E2E2E2E2E2E2E2E2
310
E2F0E2E2E2E2E2E2E2E2E2E2E2E2E2E2E2E2E2E2E2E2E2E2E2E2E2E2E2E2E2E2E2E2E2E2E2E2E2E2E2E2E2E2E2E2E2E2E2E2E2E2E2E2E2E2E2E2E2E2E2E2E2E2E2E2E2E2E2E2E2E2E2E2E2E2E2E2E2E2E2E2E2E2E2E2F5E2E2E2E2E2E2E2E2C3E2E2E2E2E2E2E2E2E2E2E2E2E2E2E2E2E2E2E2E2E2E2E2E2E2E2E2E2E2E2E2
310
E2E2E2E2E2E2E2E2E2F5E2E2E2E2E2F0F0F0E2E2E2E2C3E2E2E2E2F0F0E2E2E2E2E2E2E2E2E2E2E2E2F5F5F5F5F5F5F5F5F5F5F5F5F5F5F5F5E2E2E2E2E2E2E2E2E2F0E2E2E2E2E2E2E2E2E2E2F0E2E2F5F5F5F5F5F5F5F5F5F5F5F5F5E2E2E2E2E2E2E2E2E2E2E2E2E2E2E2E2E2E2E2E2E2E2E2E2E2E2E2E2E2E2E2E2E2E2
310
E2F5F5E2E2E2E2E2E2E2E2E2E2E2E2E2E2E2E2E2E2E2E2E2E2E2E2E2E2E2E2E2E2E2E2E2E2E2E2E2E2E2E2E2E2E2E2E2E2E2E2E2E2E2E2E2E2E2E2E2E2E2E2E2E2E2E2E2E2E2E2E2E2E2E2E2E2E2E2E2E2E2E2E2E2E2E2E2F5F5F5F5F5F5F5F5F5F5F5F5F5F5F5F5F5F5F5F5F5F5F5E2E2E2E2E2E2E2E2E2E2E2E2F5F5F5F5
310
F5F5F5F5F5F5F5F5F5E2F5E2E2E2E2E2E2E2E2E2E2E2E2F5F5E2E2E2E2E2E2E2E2E2E2E2E2E2E2E2E2E2E2E2E2E2E2E2E2E2E2E2E2E2E2E2E2E2E2E2E2E2E2E2E2E2E2E2F0E2E2E2E2E2E2E2E2E2E2F0E2E2F5F5F5F5F5F5F5F5F5F5F5F5F5E2E2E2E2E2E2E2E2E2E2E2E2E2E2E2E2E2E2E2E2E2E2E2E2E2E2E2E2E2E2E2E2
310
E2E2E2F5F5E2E2E2E2E2E2E2E2E2E2E2E2E2E2E2E2E2E2E2E2E2E2E2E2E2E2E2E2E2E2E2E2E2E2E2E2E2E2E2E2E2E2E2E2E2E2E2E2E2E2E2E2E2E2E2E2E2E2E2E2E2E2E2E2E2E2E2E2E2E2E2E2E2E2E2E2E2E2E2E2E2E2E2E2E2F5F5F5F5F5F5F5F5F5F5F5F5F5F5F5F5F5F5F5F5F5F5E2E2E2E2E2E2E2E2E2E2E2E2E2F5F5
310
F5F5F5F5F5F5F5F5F5F5F5F5E2E2E2E2E2E2E2E2E2E2E2E2E2F5F5E2E2E2E2E2E2E2E2E2E2E2E2E2E2E2E2E2E2E2E2E2E2E2E2E2E2E2E2E2E2E2E2E2E2E2E2E2E2E2E2E2E2E2F0F0F0F0F0F0F0F0F0F0F0F0E2E2E2E2E2E2E2E2E2E2E2E2E2E2E2E2E2E2E2E2E2E2E2E2E2E2E2E2E2E2E2E2E2E2E2E2E2E2E2E2E2E2E2E2E2
310
E2E2E2E2E2E2E2E2E2E2E2E2E2E2E2E2E2E2E2E2E2E2E2E2E2E2E2E2E2E2E2E2E2E2E2E2E2E2E2E2E2E2E2E2E2E2E2E2E2E2E2E2E2E2E2E2E2E2E2E2E2E2E2E2E2E2E2E2E2E2E2E2E2E2E2E2E2E2E2E2E2E2E2E2E2E2E2E2E2E2E2E2E2E2E2E2E2E2E2E2E2E2E2E2E2E2E2E2E2E2E2E2E2E2E2E2E2E2E2E2E2E2E2E2E2E2E2
310
F5F5F5F5F5F5F5F5F5F5F5F5F5E2E2E2E2E2E2E2E2E2E2E2E2E2E2E2F5F5E2E2E2E2E2E2E2E2E2E2E2E2E2E2E2E2E2E2E2E2E2E2E2E2E2E2E2E2E2E2E2E2E2E2E2E2E2E2E2E2E2E2E2E2E2E2E2E2E2E2E2E2E2E2E2E2E2E2E2E2E2E2E2E2E2E2E2E2E2E2E2E2E2E2E2E2E2E2E2E2E2E2E2E2E2E2E2E2E2E2E2E2E2E2E2E2E2
310
E2E2E2E2E2E2E2E2E2E2E2E2E2E2E2E2E2E2E2E2E2E2E2E2E2E2E2E2E2E2E2E2E2E2E2E2E2E2E2E2E2E2E2E2E2E2E2E2E2E2E2E2E2E2E2E2E2E2E2E2E2E2E2E2E2E2E2E2E2E2E2E2E2E2E2E2E2E2E2E2E2E2E2E2E2E2E2E2E2E2E2E2E2E2E2E2E2E2E2E2E2E2E2E2E2E2E2E2E2E2E2E2E2E2E2E2E2E2E2E2E2E2E2E2E2E2E2
310
E2E2F5F5F5F5F5F5F5F5F5F5F5E2E2E2E2E2E2E2E2E2E2E2E2E2E2E2E2E2E2E2E2E2E2E2E2E2E2E2E2E2E2E2E2E2E2E2E2E2E2E2E2E2E2E2E2E2E2E2E2E2E2E2E2E2E2E2E2E2E2E2E2E2E2E2E2E2E2E2E2E2E2E2E2E2E2E2E2E2E2E2E2E2E2E2E2E2E2E2E2E2E2E2E2E2E2E2E2E2E2E2E2E2E2E2E2E2E2E2E2E2E2E2E2E2E2
310
E2E2E2E2E2E2E2E2E2E2E2E2E2E2E2E2E2E2E2E2E2E2E2E2E2E2E2E2E2E2E2E2E2E2E2E2E2E2E2E2E2E2E2E2E2E2E2E2E2E2E2E2E2E2E2E2E2E2E2E2E2E2E2E2E2E2E2E2E2E2E2E2E2E2E2E2E2E2E2E2E2E2E2E2E2E2E2E2E2E2E2E2E2E2E2E2E2E2E2E2E2E2E2E2E2E2E2E2E2E2E2E2E2E2E2E2E2E2E2E2E2E2E2E2E2E2E2
310
E2E2E2E2E2E2E2E2E2E2E2E2E2E2E2E2E2E2E2E2E2E2E2E2E2E2E2E2E2E2E2E2E2E2E2E2E2E2E2E2E2E2E2E2E2E2E2E2E2E2E2E2E2E2E2E2E2E2E2E2E2E2E2E2E2E2E2E2E2E2E2E2E2E2E2E2E2E2E2E2E2E2E2E2E2E2E2E2E2E2E2E2E2E2E2E2E2E2E2E2E2E2E2E2E2E2E2E2E2E2E2E2E2E2E2E2E2E2E2E2E2E2E2E2E2E2E2
310
E2E2E2E2E2E2E2E2E2E2E2E2E2E2E2E2E2E2E2E2E2E2E2E2E2E2E2E2E2E2E2E2E2E2E2E2E2E2E2E2E2E2E2E2E2E2E2E2E2E2E2E2E2E2E2E2E2E2E2E2E2E2E2E2E2E2E2E2E2E2E2E2E2E2E2E2E2E2E2E2E2E2E2E2E2E2E2E2E2E2E2E2E2E2E2E2E2E2E2E2E2E2E2E2E2E2E2E2E2E2E2E2E2E2E2E2E2E2E2E2E2E2E2E2E2E2E2
310
E2E2E2E2E2E2E2E2E2E2E2E2E2E2E2E2E2E2E2E2E2E2E2E2E2E2E2E2E2E2E2E2E2E2E2E2E2E2E2E2E2E2E2E2E2E2E2E2E2E2E2E2E2E2E2E2E2E2E2E2E2E2E2E2E2E2E2E2E2E2E2E2E2E2E2E2E2E2E2E2E2E2E2E2E2E2E2E2E2E2E2E2E2E2E2E2E2E2E2E2E2E2E2E2E2E2E2E2E2E2E2E2E2E2E2E2E2E2E2E2E2E2E2E2E2E2E2
310
E2E2E2E2E2E2E2E2E2E2E2E2E2E2E2E2E2E2E2E2E2E2E2E2E2E2E2E2E2E2E2E2E2E2E2E2E2E2E2E2E2E2E2E2E2E2E2E2E2E2E2E2E2E2E2E2E2E2E2E2E2E2E2E2E2E2E2E2E2E2E2E2E2E2E2E2E2E2E2E2E2E2E2E2E2E2E2E2E2E2E2E2E2E2E2E2E2E2E2E2E2E2E2E2E2E2E2E2E2E2E2E2E2E2E2E2E2E2E2E2E2E2E2E2E2E2E2
310
E2E2E2E2E2E2E2E2E2E2E2E2E2E2E2E2E2E2E2E2E2E2E2E2E2E2E2E2E2E2E2E2E2E2E2E2E2E2E2E2E2E2E2E2E2E2E2E2E2E2E2E2E2E2E2E2E2E2E2E2E2E2E2E2E2E2E2E2E2E2E2E2E2E2E2E2E2E2E2E2E2E2E2E2E2E2E2E2E2E2E2E2E2E2E2E2E2E2E2E2E2E2E2E2E2E2E2E2E2E2E2E2E2E2E2E2E2E2E2E2E2E2E2E2E2E2E2
310
E2E2E2E2E2E2E2E2E2E2E2E2E2E2E2E2E2E2E2E2E2E2E2E2E2E2E2E2E2E2E2E2E2E2E2E2E2E2E2E2E2E2E2E2E2E2E2E2E2E2E2E2E2E2E2E2E2E2E2E2E2E2E2E2E2E2E2E2E2E2E2E2E2E2E2E2E2E2E2E2E2E2E2E2E2E2E2E2E2E2E2E2E2E2E2E2E2E2E2E2E2E2E2E2E2E2E2E2E2E2E2E2E2E2E2E2E2E2E2E2E2E2E2E2E2E2E2
310
E2E2E2E2E2E2E2E2E2E2E2E2E2E2E2E2E2E2E2E2E2E2E2E2E2E2E2E2E2E2E2E2E2E2E2E2E2E2E2E2E2E2E2E2E2E2E2E2E2E2E2E2E2E2E2E2E2E2E2E2E2E2E2E2E2E2E2E2E2E2E2E2E2E2E2E2E2E2E2E2E2E2E2E2E2E2E2E2E2E2E2E2E2E2E2E2E2E2E2E2E2E2E2E2E2E2E2E2E2E2E2E2E2E2E2E2E2E2E2E2E2E2E2E2E2E2E2
310
E2E2E2E2E2E2E2E2E2E2E2E2E2E2E2E2E2E2E2E2E2E2E2E2E2E2E2E2E2E2E2E2E2E2E2E2E2E2E2E2E2E2E2E2E2E2E2E2E2E2E2E2E2E2E2E2E2E2E2E2E2E2E2E2E2E2E2E2E2E2E2E2E2E2E2E2E2E2E2E2E2E2E2E2E2E2E2E2E2E2E2E2E2E2E2E2E2E2E2E2E2E2E2E2E2E2E2E2E2E2E2E2E2E2E2E2E2E2E2E2E2E2E2E2E2E2E2
310
E2E2E2E2E2E2E2E2E2E2E2E2E2E2E2E2E2E2E2E2E2E2E2E2E2E2E2E2E2E2E2E2E2E2E2E2E2E2E2E2E2E2E2E2E2E2E2E2E2E2E2E2E2E2E2E2E2E2E2E2E2E2E2E2E2E2E2E2E2E2E2E2E2E2E2E2E2E2E2E2E2E2E2E2E2E2E2E2E2E2E2E2E2E2E2E2E2E2E2E2E2E2E2E2E2E2E2E2E2E2E2E2E2E2E2E2E2E2E2E2E2E2E2E2E2E2E2
310
E2E2E2E2E2E2E2E2E2E2E2E2E2E2E2E2E2E2E2E2E2E2E2E2E2E2E2E2E2E2E2E2E2E2E2E2E2E2E2E2E2E2E2E2E2E2E2E2E2E2E2E2E2E2E2E2E2E2E2E2E2E2E2E2E2E2E2E2E2E2E2E2E2E2E2E2E2E2E2E2E2E2E2E2E2E2E2E2E2E2E2E2E2E2E2E2E2E2E2E2E2E2E2E2E2E2E2E2E2E2E2E2E2E2E2E2E2E2E2E2E2E2E2E2E2E2E2
310
E2E2E2E2E2E2E2E2E2E2E2E2E2E2E2E2E2E2E2E2E2E2E2E2E2E2E2E2E2E2E2E2E2E2E2E2E2E2E2E2E2E2E2E2E2E2E2E2E2E2E2E2E2E2E2E2E2E2E2E2E2E2E2E2E2E2E2E2E2E2E2E2E2E2E2E2E2E2E2E2E2E2E2E2E2E2E2E2E2E2E2E2E2E2E2E2E2E2E2E2E2E2E2E2E2E2E2E2E2E2E2E2E2E2E2E2E2E2E2E2E2E2E2E2E2E2E2
310
E2E2E2E2E2E2E2E2E2E2E2E2E2E2E2E2E2E2E2E2E2E2E2E2E2E2E2E2E2E2E2E2E2E2E2E2E2E2E2E2E2E2E2E2E2E2E2E2E2E2E2E2E2E2E2E2E2E2E2E2E2E2E2E2E2E2E2E2E2E2E2E2E2E2E2E2E2E2E2E2E2E2E2E2E2E2E2E2E2E2E2E2E2E2E2E2E2E2E2E2E2E2E2E2E2E2E2E2E2E2E2E2E2E2E2E2E2E2E2E2E2E2E2E2E2E2E2
310
E2E2E2E2E2E2E2E2E2E2E2E2E2E2E2E2E2E2E2E2E2E2E2E2E2E2E2E2E2E2E2E2E2E2E2E2E2E2E2E2E2E2E2E2E2E2E2E2E2E2E2E2E2E2E2E2E2E2E2E2E2E2E2E2E2E2E2E2E2E2E2E2E2E2E2E2E2E2E2E2E2E2E2E2E2E2E2E2E2E2E2E2E2E2E2E2E2E2E2E2E2E2E2E2E2E2E2E2E2E2E2E2E2E2E2E2E2E2E2E2E2E2E2E2E2E2E2
310
E2E2E2E2E2E2E2E2E2E2E2E2E2E2E2E2E2E2E2E2E2E2E2E2E2E2E2E2E2E2E2E2E2E2E2E2E2E2E2E2E2E2E2E2E2E2E2E2E2E2E2E2E2E2E2E2E2E2E2E2E2E2E2E2E2E2E2E2E2E2E2E2E2E2E2E2E2E2E2E2E2E2E2E2E2E2E2E2E2E2E2E2E2E2E2E2E2E2E2E2E2E2E2E2E2E2E2E2E2E2E2E2E2E2E2E2E2E2E2E2E2E2E2E2E2E2E2
310
E2E2E2E2E2E2E2E2E2E2E2E2E2E2E2E2E2E2E2E2E2E2E2E2E2E2E2E2E2E2E2E2E2E2E2E2E2E2E2E2E2E2E2E2E2E2E2E2E2E2E2E2E2E2E2E2E2E2E2E2E2E2E2E2E2E2E2E2E2E2E2E2E2E2E2E2E2E2E2E2E2E2E2E2E2E2E2E2E2E2E2E2E2E2E2E2E2E2E2E2E2E2E2E2E2E2E2E2E2E2E2E2E2E2E2E2E2E2E2E2E2E2E2E2E2E2E2
310
E2E2E2E2E2E2E2E2E2E2E2E2E2E2E2E2E2E2E2E2E2E2E2E2E2E2E2E2E2E2E2E2E2E2E2E2E2E2E2E2E2E2E2E2E2E2E2E2E2E2E2E2E2E2E2E2E2E2E2E2E2E2E2E2E2E2E2E2E2E2E2E2E2E2E2E2E2E2E2E2E2E2E2E2E2E2E2E2E2E2E2E2E2E2E2E2E2E2E2E2E2E2E2E2E2E2E2E2E2E2E2E2E2E2E2E2E2E2E2E2E2C3E2E2E2E2E2
310
E2E2E2E2E2E2E2E2E2E2E2E2E2E2E2E2E2E2E2E2E2E2E2E2E2E2E2E2E2E2E2E2E2E2E2E2E2E2E2E2E2E2E2E2E2E2E2E2E2E2E2E2E2E2E2E2E2E2E2E2E2E2E2E2E2E2E2E2E2E2E2E2E2E2E2E2E2E2E2E2E2E2E2E2E2E2E2E2E2E2E2E2E2E2E2E2E2E2E2E2E2E2E2E2E2E2E2E2E2E2E2E2E2E2E2E2E2E2E2E2E2E2E2E2E2E2E2
310
E2E2E2E2E2E2E2E2E2E2E2E2E2E2E2E2E2E2E2E2E2E2E2E2E2E2E2E2E2E2E2E2E2E2E2E2E2E2E2E2E2E2E2E2E2E2E2E2E2E2E2E2E2E2E2E2E2E2E2E2E2E2E2E2E2E2E2E2E2E2E2E2E2E2E2E2E2E2E2E2E2E2E2E2E2E2E2E2E2E2E2E2E2E2E2E2E2E2E2E2E2E2E2E2E2E2E2E2E2E2E2E2E2E2E2E2E2E2E2E2E2E2E2C3E2E2E2
310
E2E2E2E2E2E2E2E2E2E2E2E2E2E2E2E2E2E2E2E2E2E2E2E2E2E2E2E2E2E2E2E2E2E2E2E2E2E2E2E2E2E2E2E2E2E2E2E2E2E2C3E2E2E2E2E2E2E2E2E2E2E2E2E2E2E2E2E2E2E2E2E2E2E2E2E2E2E2E2E2E2E2E2E2E2E2E2E2E2E2E2E2E2E2E2E2E2E2E2E2E2E2E2E2E2E2E2E2E2E2E2E2E2E2E2E2E2E2E2E2E2E2E2E2E2E2E2
310
E2E2E2E2E2E2E2E2E2E2E2E2E2E2E2E2E2E2E2E2E2E2E2E2E2E2E2E2E2E2E2E2E2E2E2E2E2E2E2E2E2E2E2E2E2E2E2E2E2E2E2E2E2E2E2E2E2E2E2E2E2E2E2E2E2E2E2E2E2E2E2E2E2E2E2E2E2E2E2E2E2E2E2E2E2E2E2E2E2E2E2E2E2E2E2E2E2E2E2E2E2E2E2E2E2E2E2E2E2E2E2E2E2E2E2E2E2E2E2E2E2E2E2E2E2C3E2
310
E2E2E2E2E2E2E2E2E2E2E2E2E2E2E2E2E2E2E2E2E2E2E2E2E2E2E2E2E2E2E2E2E2E2E2E2E2E2E2E2E2E2E2E2E2E2E2E2E2E2E2E2C3E2E2E2E2E2E2E2E2E2E2E2E2E2E2E2E2E2E2E2E2E2E2E2E2E2E2E2E2E2E2E2E2E2E2E2E2E2E2E2E2E2E2E2E2E2E2E2E2E2E2E2E2E2E2E2E2E2E2E2E2E2E2E2E2E2E2E2E2E2E2E2E2E2E2
310
E2E2E2E2E2E2E2E2E2E2E2E2E2E2E2E2E2E2E2E2E2E2E2E2E2E2E2E2E2E2E2E2E2E2E2E2E2E2E2E2E2E2E2E2E2E2E2E2E2E2E2E2E2E2E2E2E2E2E2E2E2E2E2E2E2E2E2E2E2E2E2E2E2E2E2E2E2E2E2E2E2E2E2E2E2E2E2E2E2E2E2E2E2E2E2E2E2E2E2E2E2E2E2E2E2E2E2E2E2E2E2E2E2E2E2F0F0F0F0F0F0F0F0F0F0F0F0
310
F0F0F0F0F0F0F0F0F0F0F0F0F0E2E2E2E2E2E2E2E2E2E2E2E2E2E2E2E2E2E2E2E2E2E2E2E2E2E2E2E2E2E2E2E2E2E2F0F0F0F0F0F0F0F0F0F0F0F0F0F0E2E2E2E2E2E2E2E2E2E2E2E2E2E2E2E2E2E2E2E2E2E2E2E2E2E2E2E2E2E2E2E2E2E2E2E2E2E2E2E2E2E2E2E2E2E2E2E2E2E2E2E2E2E2E2E2E2E2E2E2E2E2E2E2E2E2
310
E2E2E2E2E2E2E2E2E2E2E2E2E2E2E2E2E2E2E2E2E2E2E2E2E2E2E2E2E2E2E2E2E2E2E2E2E2E2E2E2E2E2E2E2E2E2E2E2E2E2E2E2E2E2E2E2E2E2E2E2E2E2E2E2E2E2E2E2E2E2E2E2E2E2E2E2E2E2E2E2E2E2E2E2E2E2E2E2E2E2E2E2E2E2E2E2E2E2E2E2E2E2E2E2E2E2E2E2E2E2E2E2E2E2E2E2E2F0E2E2E2E2E2E2E2E2E2
310
E2E2F0E2E2E2E2E2E2E2E2E2E2E2F0E2E2E2E2E2E2E2E2E2E2E2E2E2E2E2E2E2E2E2E2E2E2E2E2E2E2E2E2E2E2E2E2E2E2F0E2E2F0F0E2E2F0E2F0F0F0E2F0E2E2E2E2E2E2E2E2E2E2E2E2E2E2E2E2E2E2E2E2E2E2E2E2E2E2E2E2E2E2E2E2E2E2E2E2E2E2E2E2E2E2E2E2E2E2E2E2E2E2E2E2E2E2E2E2E2E2E2E2E2E2E2E2
310
E2E2E2E2E2E2E2E2E2E2E2E2E2E2E2E2E2E2E2E2E2E2E2E2E2E2E2E2E2E2E2E2E2E2E2E2E2E2E2E2E2E2E2E2E2E2E2E2E2E2E2E2E2E2E2E2E2E2E2E2E2E2E2E2E2E2E2E2E2E2E2E2E2E2E2E2E2E2E2E2E2E2E2E2E2E2E2E2E2E2E2E2E2E2E2E2E2E2E2E2E2E2DCDCDCDCDCDCDCDCDCDCDCDCDCDCDCDCDCF0DCDCDCDCDCDCDC
310
DCDCDCDCF0DCDCDCDCDCDCDCDCDCDCDCF0F0F0F0F0F0DCDCDCDCDCDCDCDCDCDCDCDCDCDCDCDCDCDCDCDCDCDCDCDC2D2D2D2D2D2D2D2D2D2D2D2D2D2D2D2D2D2D2D2D2D2D2D2DDCDCDCDCDCDCDCDCDCDCDCDCDCDCDCDCDCDCDCDCDCDCDCDCDCDCDCDCDCDCDCDCDCDCDCDCDCDCDCDCDCDCDCE2E2E2E2E2E2E2E2E2E2E2E2E2E2
310
E2E2E2E2E2E2E2E2E2E2E2E2E2E2E2E2E2E2E2E2E2E2E2E2E2E2E2E2E2E2E2E2E2E2E2E2E2E2E2E2E2E2E2E2E2E2E2E2E2E2E2E2E2E2E2E2E2E2E2E2E2E2E2E2E2E2E2E2E2E2E2E2E2E2E2E2E2E2E2E2E2E2E2E2E2E2E2E2E2E2E2E2E2E2E2E2E2E2E2E2E2E2E2E2E2E2E2E2E2E2E2E2E2E2E2E2E2E2E2E2E2F0E2E2E2E2E2
310
E2E2E2E2E2E2C3E2E2E2E2E2E2E2E2E2E2E2F0E2E2E2F0F0E2E2E2E2E2E2E2E2E2E2E2E2E2E2E2E2E2E2E2E2E2E2E2E22DE2E2E2E2E2E2E2E2E2E2E2C3E2E2E2E2E2E2E2E2E2E22DE2E2E2E2E2E2E2E2E2E2E2E2E2E2E2E2E2E2E2E2E2E2E2E2E2E2E2E2E2E2E2E2E2E2E2E2E2E2E2E2E2E2E2E2E2E2E2E2E2E2E2E2E2E2E2
310
E2E2E2E2E2E2E2E2E2E2E2E2E2E2E2E2E2E2E2E2E2E2E2E2E2E2E2E2E2E2E2E2E2E2E2E2E2E2E2E2E2E2E2E2E2E2E2E2E2E2E2E2E2E2E2E2E2E2E2E2E2E2E2E2E2E2E2E2E2E2E2E2E2E2E2E2E2E2E2E2E2E2E2E2E2E2E2E2E2E2E2E2E2E2E2E2E2E2E2E2E2E2E2E2E2E2E2E2E2E2E2E2E2E2E2E2E2E2E2E2E2E2E2F0E2E2E2
310
E2E2E2E2E2E2E2E2C3E2E2E2E2E2E2E2E2E2E2E2F0E2E2E2F0F0E2E2E2E2E2E2E2E2E2E2E2E2E2E2E2E2E2E2E2E2E2E2E2E22DE2E2E2E2E2E2E2E2E2E2E2C3E2E2E2E2E2E2E2E2E2E22DE2E2E2E2E2E2E2E2E2E2E2E2E2E2E2E2E2E2E2E2E2E2E2E2E2E2E2E2E2E2E2E2E2E2E2E2E2E2E2E2E2E2E2E2E2E2E2E2E2E2E2E2E2
310
E2E2E2E2E2E2E2E2E2E2E2E2E2E2E2E2E2E2E2E2E2E2E2E2E2E2E2E2E2E2E2E2E2E2E2E2E2E2E2E2E2E2E2E2E2E2E2E2E2E2E2E2E2E2E2E2E2E2E2E2E2E2E2E2E2E2E2E2E2E2E2E2E2E2E2E2E2E2E2E2E2E2E2E2E2E2E2E2E2E2E2E2E2E2E2E2E2E2E2E2E2E2E2E2E2E2E2E2E2E2E2E2E2E2E2E2E2E2E2E2E2E2E2E2E2F0E2
310
E2E2E2E2E2E2E2E2E2E2C3E2E2E2E2E2E2E2E2E2E2E2F0E2E2E2F0F0E2E2E2E2E2E2E2E2E2E2E2E2E2E2E2E2E2E2E2E2E2E2E2E22DE2E2E2E2E2E2E2E2E2E2E2C3E2E2E2E2E2E2E2E2E2E22DE2E2E2E2E2E2E2E2E2E2E2E2E2E2E2E2E2E2E2E2E2E2E2E2E2E2E2E2E2E2E2E2E2E2E2E2E2E2E2E2E2E2E2E2E2E2E2E2E2E2E2
310
E2E2E2E2E2E2E2E2E2E2E2E2E2E2E2E2E2E2E2E2E2E2E2E2E2E2E2E2E2E2E2E2E2E2E2E2E2E2E2E2E2E2E2E2E2E2E2E2E2E2E2E2E2E2E2E2E2E2E2E2E2E2E2E2E2E2E2E2E2E2E2E2E2E2E2E2E2E2E2E2E2E2E2E2E2E2E2E2E2E2E2E2E2E2E2E2E2E2E2E2E2E2E2E2E2E2E2E2E2E2E2E2E2E2E2E2E2E2E2E2E2E2E2E2E2E2E2
310
28E2E2E2E2E2E2E2E2E2E2E2C3E2E2E2E2E2E2E2E2E2E2E228E2E2E2E2F0E2E2E2E2E2E2E2E2E2E2E2E2E2E2E2E2E2E2E2E2E2E2E2E22DE2E2E2E2E2E2E2E2E2E2E2C3E2E2E2E2E2E2E2E2E2E22DE2E2E2E2E2E2E2E2E2E2E2E2E2E2E2E2E2E2E2E2E2E2E2E2E2E2E2E2E2E2E2E2E2E2E2E2E2E2E2E2E2E2E2E2E2E2E2E2E2
310
E2E2E2E2E2E2E2E2E2E2E2E2E2E2E2E2E2E2E2E2E2E2E2E2E2E2E2E2E2E2E2E2F5F5F5F5F5F5F5F5F5F5F5F5F5F5F5F5F5F5F5F5F5F5F5F5F5E2E2E2E2E2E2E2E2E2E2E2E2E2E2E2E2E2E2E2E2E2E2E2E2E2E2E2E2E2E2E2E2E2E2E2E2E2E2E2E2E2E2E2E2E2E2E2E2E2E2E2E2E2E2E2E2E2E2E2E2E2E2E2E2E2E2E2E2E2E2
310
E2E22828E2E2E2E2E2E2E2E2E2E2C3E2E2E2E2E2E2E2E2E2E22828F0F0F0F0F0E2E2E2E2E2E2E2E2E2E2E2E2E2E2E2E2E2E2E2E2E2E2E2E22DE2E2E2E2E2E2E2E2E2E2E2C3E2E2E2E2E2E2E2E2E2E22DE2E2E2E2E2E2E2E2E2E2E2E2E2E2E2E2E2E2E2E2E2E2E2E2E2E2E2E2E2E2E2E2E2E2E2E2E2E2E2E2E2E2E2E2E2E2E2
310
E2E2E2E2E2E2E2E2E2E2E2E2E2E2E2E2E2E2E2E2E2E2E2E2E2E2E2E2E2E2E2E2E2E2F5F5F5F5F5F5F5F5F5F5F5F5F5F5F5F5F5F5F5F5F5F5F5F5F5E2E2E2E2E2E2E2E2E2E2E2E2E2E2E2E2E2E2E2E2E2E2E2E2E2E2E2E2E2E2E2E2E2E2E2E2E2E2E2E2E2E2E2E2E2E2E2E2E2E2E2E2E2E2E2E2E2E2E2E2E2E2E2E2E2E2E2E2
310
E2E2E2E2E2E2E2E2E2E2E2E2E2E2E2E2C3E2E2E2E2E2E2E2E2E2E2E2E2E2E2E2E2F0E2E2E2E2E2E2E2E2E2E2E2E2E2E2E2E2E2E2E2E2E2E2E2E22DE2E2E2E2E2E2E2E2E2E2E2C3E2E2E2E2E2E2E2E2E2E22DE2E2E2E2E2E2E2E2E2E2E2E2E2E2E2E2E2E2E2E2E2E2E2E2E2E2E2E2E2E2E2E2E2E2E2E2E2E2E2E2E2E2E2E2E2
310
E2E2E2E2E2E2E2E2E2E2E2E2E2E2E2E2E2E2E2E2E2E2E2E2E2E2E2E2E2E2E2E2E2E2E2E2F5F5F5F5F5F5F5F5F5F5F5F5F5F5F5F5F5F5F5F5F5F5F5F5F5F5E2E2E2E2E2E2E2E2E2E2E2E2E2E2E2E2E2E2E2E2E2E2E2E2E2E2E2E2E2E2E2E2E2E2E2E2E2E2E2E2E2E2E2E2E2E2E2E2E2E2E2E2E2E2E2E2E2E2E2E2E2E2E2E2E2
310
E2E2E2E2E2E2E2E2E2E2E2E2E2E2E2E2E2E2C3E2E2E2E2E2E2E2E2E2E2E2E2E2E2E2E2F0E2E2E2E2E2E2E2E2E2E2E2E2E2E2E2E2E2E2E2E2E2E2E2E22DE2E2E2E2E2E2E2E2E2E2E2C3E2E2E2E2E2E2E2E2E2E22DE2E2E2E2E2E2E2E2E2E2E2E2E2E2E2E2E2E2E2E2E2E2E2E2E2E2E2E2E2E2E2E2E2E2E2E2E2E2E2E2E2E2E2
310
E2E2E2E2E2E2E2E2E2E2E2E2E2E2E2E2E2E2E2E2E2E2E2E2E2E2E2E2E2E2E2E2E2E2E2E2E2E2F5F5F5F5F5F5F5F5F5F5F5F5F5F5E2F5F5F5F5F5F5F5F5F5F5F5E2E2E2E2E2E2E2E2E2E2E2E2E2E2E2E2E2E2E2E2E2E2E2E2E2E2E2E2E2E2E2E2E2E2E2E2E2E2E2E2E2E2E2E2E2E2E2E2E2E2E2E2E2E2E2E2E2E2E2E2E2E2E2
310
E2E2E2E2E2E2E2E2E2E2E2E2E2E2E2E2E2E2E2E2C3E2E2E2E2E2E2E2E2E2E2E2E2E2E2E2E2F0E2E2E2E2E2E2E2E2E2E2E2E2E2E2E2E2E2E2E2E2E2E2E2E22DE2E2E2E2E2E2E2E2E2E2E2C3E2E2E2E2E2E2E2E2E2E22DE2E2E2E2E2E2E2E2E2E2E2E2E2E2E2E2E2E2E2E2E2E2E2E2E2E2E2E2E2E2E2E2E2E2E2E2E2E2E2E2E2
310
E2E2E2E2E2E2E2E2E2E2E2E2E2E2E2E2E2E2E2E2E2E2E2E2E2E2E2E2E2E2E2E2E2E2E2E2E2E2E2E2E2F5E2E2E2E2E2E2E2E2E2E2E2E2E2E2E2E2E2E2E2E2E2E2E2E2E2E2E2E2E2E2E2E2E2E2E2E2E2E2E2E2E2E2E2E2E2E2E2E2E2E2E2E2E2E2E2E2E2E2E2E2E2E2E2E2E2E2E2E2E2E2E2E2E2E2E2E2E2E2E2E2E2E2E2E2E2
310
E2E2E2E2E2E2E2E2E2E2E2E2E2E2E2E2E2E2E2E2E2E2C3E2E2E2E2E2E2E2E2E2E2E2E2E2E2E2F0F0E2E2E2E2E2E2E2E2E2E2E2E2E2E2E2E2E2E2E2E2E2E2E2E22DE2E2E2E2E2E2E2E2E2E2E2C3E2E2E2E2E2E2E2E2E2E22DE2E2E2E2E2E2E2E2E2E2E2E2E2E2E2E2E2E2E2E2E2E2E2E2E2E2E2E2E2E2E2E2E2E2E2E2E2E2E2
310
E2E2E2E2E2E2E2E2E2E2E2E2E2E2E2E2E2E2E2E2E2E2E2E2E2E2E2E2E2E2E2E2E2E2E2E2E2E2E2E2E2E2E2E2E2E2E2E2E2E2E2E2E2E2E2E2E2E2E2E2E2E2E2E2E2E2E2E2E2E2E2E2E2E2E2E2E2E2E2E2E2E2E2E2E2E2E2E2E2E2E2E2E2E2E2E2E2E2E2E2E2E2E2E2E2E2E2E2E2E2E2E2E2E2E2E2E2E2E2E2E2E2E2E2E2E2E2
310
E2E2E2E2E2E2E2E2E2E2E2E2E2E2E2E2E2E2E2E2E2E2E2E2C3E2E2E2E2E2E2E2E2E2E2E2E2E2E2E2F0F0E2E2E2E2E2E2E2E2E2E2E2E2E2E2E2E2E2E2E2E2E2E2E2E22DE2E2E2E2E2E2E2E2E2E2E2C3E2E2E2E2E2E2E2E2E2E22DE2E2E2E2E2E2E2E2E2E2E2E2E2E2E2E2E2E2E2E2E2E2E2E2E2E2E2E2E2E2E2E2E2E2E2E2E2
310
E2E2E2E2E2E2E2E2E2E2E2E2E2E2E2E2E2E2E2E2E2E2E2E2E2E2E2E2E2E2E2E2E2E2E2E2E2E2E2E2E2E2E2E2E2E2E2E2E2E2E2E2E2E2E2E2E2E2E2E2E2E2E2E2E2E2E2E2E2E2E2E2E2E2E2E2E2E2E2E2E2E2E2E2E2E2E2E2E2E2E2E2E2E2E2E2E2E2E2E2E2E2E2E2E2E2E2E2E2E2E2E2E2E2E2E2E2E2E2E2E2E2E2E2E2E2E2
310
E2E2E2E2E2E2E2E2E2E2E2E2E2E2E2E2E2E2E2E2E2E2E2E2E2E2C3E2E2E2E2E2E2E2E2E2E2E2E2E2E2E2E2F0E2E2E2E2E2E2E2E2E2E2E2E2E2E2E2E2E2E2E2E2E2E2E2E22DE2E2E2E2E2E2E2E2E2E2E2C3E2E2E2E2E2E2E2E2E2E22DE2E2E2E2E2E2E2E2E2E2E2E2E2E2E2E2E2E2E2E2E2E2E2E2E2E2E2E2E2E2E2E2E2E2E2
310
E2E2E2E2E2E2E2E2E2E2E2E2E2E2E2E2E2E2E2E2E2E2E2E2E2E2E2E2E2E2E2E2E2E2E2E2E2E2E2E2E2E2E2E2E2E2E2E2F5F5F5F5F5F5F5F5F5F5F5F5F5F5F5F5F5F5F5F5F5F5E2E2E2E2E2E2E2E2E2E2E2E2E2E2E2E2E2E2E2E2E2E2E2E2E2E2E2E2E2E2E2E2E2E2E2E2E2E2E2E2E2E2E2E2E2E2E2E2E2E2E2E2E2E2E2E2E2
310
E2E2E2E2E2E2E2E2E2E2E2E2E2E2E2E2E2E2E2E2E2E2E2E2E2E2E2E2C3E2E2E2E2E2E2E2E2E2E2E2E2E2E2E2E2F0E2E2E2E2E2E2E2E2E2E2E2E2E2E2E2E2E2E2E2E2E2E2E2E22DE2E2E2E2E2E2E2E2E2E2E2C3E2E2E2E2E2E2E2E2E2E22DE2E2E2E2E2E2E2E2E2E2E2E2E2E2E2E2E2E2E2E2E2E2E2E2E2E2E2E2E2E2E2E2E2
310
E2E2E2E2E2E2E2E2E2E2E2E2E2E2E2E2E2E2E2E2E2E2E2E2E2E2E2E2E2E2E2E2E2E2E2E2E2E2E2E2E2E2E2E2E2E2E2E2E2E2F5F5F5F5F5F5F5F5E2F5F5F5F5F5F5F5F5F5F5F5F5F5E2E2E2E2E2E2E2E2E2E2E2E2E2E2E2E2E2E2E2E2E2E2E2E2E2E2E2E2E2E2E2E2E2E2E2E2E2E2E2E2E2E2E2E2E2E2E2E2E2E2E2E2E2E2E2
310
E2E2E2E2E2E2E2E2E2E2E2E2E2E2E2E2E2E22828E2E2E2E2E2E2E2E2E2E2C3E2E2E2E2E2E2E2E2E2E22828E2E2E2F0F0E2E2E2E2E2E2E2E2E2E2E2E2E2E2E2E2E2E2E2E2E2E2E2E22DE2E2E2E2E2E2E2E2E2E2E2C3E2E2E2E2E2E2E2E2E2E22DE2E2E2E2E2E2E2E2E2E2E2E2E2E2E2E2E2E2E2E2E2E2E2E2E2E2E2E2E2E2E2
310
E2E2E2E2E2E2E2E2E2E2E2E2E2E2E2E2E2E2E2E2E2E2E2E2E2E2E2E2E2E2E2E2E2E2E2E2E2E2E2E2E2E2E2E2E2E2E2E2E2E2E2F5F5F5F5F5F5F5F5F5E2E2F5F5F5F5F5F5F5F5F5F5F5F5E2E2E2E2E2E2E2E2E2E2E2E2E2E2E2E2E2E2E2E2E2E2E2E2E2E2E2E2E2E2E2E2E2E2E2E2E2E2E2E2E2E2E2E2E2E2E2E2E2E2E2E2E2
310
E2E2E2E2E2E2E2E2E2E2E2E2E2E2E2E2E2E2E2E22828E2E2E2E2E2E2E2E2E2E2C3E2E2E2E2E2E2E2E2E2E228F0F0F0F0F0F0E2E2E2E2E2E2E2E2E2E2E2E2E2E2E2E2E2E2E2E2E2E2E2E22DE2E2E2E2E2E2E2E2E2E2E2C3E2E2E2E2E2E2E2E2E2E22DE2E2E2E2E2E2E2E2E2E2E2E2E2E2E2E2E2E2E2E2E2E2E2E2E2E2E2E2E2
310
E2E2E2E2E2E2E2E2E2E2E2E2E2E2E2E2E2E2E2E2E2E2E2E2E2E2E2E2E2E2E2E2E2E2E2E2E2E2E2E2E2E2E2E2E2E2E2E2E2E2E2E2E2E2E2E2E2E2E2E2E2E2E2E2E2E2E2E2E2E2E2E2E2E2E2E2E2E2E2E2E2E2E2E2E2E2E2E2E2E2E2E2E2E2E2E2E2E2E2E2E2E2E2E2E2E2E2E2E2E2E2E2E2E2E2E2E2E2E2E2E2E2E2E2E2E2E2
310
E2E2E2E2E2E2E2E2E2E2E2E2E2E2E2E2E2E2E2E2E2E2E2E2E2E2E2E2E2E2E2E2E2E2C3E2E2E2E2E2E2E2E2E2E2E2E2F0F0F0F0E2E2E2E2E2E2E2E2E2E2E2E2E2E2E2E2E2E2E2E2E2E2E2E2E22D2D2D2DDCDC2D2D2D2D2DDCDC2D2D2D2D2DDCDC2D2D2D2DE2E2E2E2E2E2E2E2E2E2E2E2E2E2E2E2E2E2E2E2E2E2E2E2E2E2E2
310
E2E2E2E2E2E2E2E2E2E2E2E2E2E2E2E2E2E2E2E2E2E2E2E2E2E2E2E2E2E2E2E2E2E2E2E2E2E2E2E2E2E2E2E2E2E2E2E2E2E2E2E2E2E2E2F5F5F5F5F5F5F5F5F5F5F5F5F5F5E2E2E2E2E2E2E2E2E2E2E2E2E2E2E2E2E2E2E2E2E2E2E2E2E2E2E2E2E2E2E2E2E2E2E2E2E2E2E2E2E2E2E2E2E2E2E2E2E2E2E2E2E2E2E2E2E2E2
310
E2E2E2E2E2E2E2E2E2E2E2E2E2E2E2E2E2E2E2E2E2E2E2E2E2E2E2E2E2E2E2E2E2E2E2E2C3E2E2E2E2E2E2E2E2E2E2E2E2E2F0F0E2E2E2E2E2E2E2E2E2E2E2E2E2E2E2E2E2E2E2E2E2E2E2E2E2E2E2E2E2E2DCDCE2E2E2E2E2DCDCE2E2E2E2E2DCDCE2E2E2E2E2E2E2E2E2E2E2E2E2E2E2E2E2E2E2E2E2E2E2E2E2E2E2E2E2
310
E2E2E2E2E2E2E2E2E2E2E2E2E2E2E2E2E2E2E2E2E2E2E2E2E2E2E2E2E2E2E2E2E2E2E2E2E2E2E2E2E2E2E2E2E2E2E2E2E2E2E2E2E2E2E2E2E2F5F5F5F5F5F5F5F5F5F5F5F5F5F5E2E2E2E2E2F5F5F5F5F5F5E2F5F5F5F5F5E2E2E2E2E2E2E2E2E2E2E2E2E2E2E2E2E2E2E2E2E2E2E2E2E2E2E2E2E2E2E2E2E2E2E2E2E2E2E2
310
E2E2E2E2E2E2E2E2E2E2E2E2E2E2E2E2E2E2E2E2E2E2E2E2E2E2E2E2E2E2E2E2E2E2E2E2E2E2C3E2E2E2E2E2E2E2E2E2E2E2E2E2E2E2E2E2E2E2E2E2E2E2E2E2E2E2E2E2E2E2E2E2E2E2E2E2E2E2E2E2E2E2E2E2DCDCE2E2E2E2E2DCDCE2E2E2E2E2DCDCE2E2E2E2E2E2E2E2E2E2E2E2E2E2E2E2E2E2E2E2E2E2E2E2E2E2E2
310
E2E2E2E2E2E2E2E2E2E2E2E2E2E2E2E2E2E2E2E2E2E2E2E2E2E2E2E2E2E2E2E2E2E2E2E2E2E2E2E2E2E2E2E2E2E2E2E2E2E2E2E2E2E2E2E2E2E2E2F5F5F5F5F5F5F5F5F5F5F5F5F5F5E2E2E2E2E2F5F5E2F5F5F5E2F5F5F5F5F5E2E2E2E2E2E2E2E2E2E2E2E2E2E2E2E2E2E2E2E2E2E2E2E2E2E2E2E2E2E2E2E2E2E2E2E2E2
310
E2E2E2E2E2E2E2E2E2E2E2E2E2E2E2E2E2E2E2E2E2E2E2E2E2E2E2E2E2E2E2E2E2E2E2E2E2E2E2E2C3E2E2E2E2E2E2E2E2E2E2E2E2E2E2E2E2E2E2E2E2E2E2E2E2E2E2E2E2E2E2E2E2E2E2E2E2E2E2E2E2E2E2E2E2E2DCDCE2E2E2E2E2DCDCE2E2E2E2E2DCDCE2E2E2E2E2E2E2E2E2E2E2E2E2E2E2E2E2E2E2E2E2E2E2E2E2
310
E2E2E2E2E2E2E2E2E2E2E2E2E2E2E2E2E2E2E2E2E2E2E2E2E2E2E2E2E2E2E2E2E2E2E2E2E2E2E2E2E2E2E2E2E2E2E2E2E2E2E2E2E2E2E2E2E2E2E2E2E2F5F5F5F5F5F5F5F5F5F5F5F5F5F5E2E2E2E2E2F5F5F5F5F5F5E2F5F5F5F5F5E2E2E2E2E2E2E2E2E2E2E2E2E2E2E2E2E2E2E2E2E2E2E2E2E2E2E2E2E2E2E2E2E2E2E2
310
E2E2E2E2E2E2E2E2E2E2E2E2E2E2E2E2E2E2E2E2E2E2E2E2E2E2E2E2E2E2E2E2E2E2E2E2E2E2E2E2E2E2C3E2E2E2E2E2E2E2E2E2E2E2E2E2E2E2E2E2E2E2E2E2E2E2E2E2E2E2E2E2E2E2E2E2E2E2E2E2E2E2E2E2E2E2E2E2DCDCE2E2E2E2E2DCDCE2E2E2E2E2DCDCE2E2E2E2E2E2E2E2E2E2E2E2E2E2E2E2E2E2E2E2E2E2E2
310
E2E2E2E2E2E2E2E2E2E2E2E2E2E2E2E2E2E2E2E2E2E2E2E2E2E2E2E2E2E2E2E2E2E2E2E2E2E2E2E2E2E2E2E2E2E2E2E2E2E2E2E2E2E2E2E2E2E2E2E2E2E2E2F5F5F5F5F5F5F5F5F5F5F5F5F5F5E2E2E2E2E2E2E2E2E2E2E2E2E2E2E2E2E2E2E2E2E2E2E2E2E2E2E2E2E2E2E2E2E2E2E2E2E2E2E2E2E2E2E2E2E2E2E2E2E2E2
310
E2E2E2E2E2E2E2E2E2E2E2E2E2E2E2E2E2E2E2E2E2E2E2E2E2E2E2E2E2E2E2E2E2E2E2E2E2E2E2E2E2E2E2E2E2E2E2E2E2E2E2E2E2E2E2E2E2E2E2E2E2E2E2E2E2E2E2E2E2E2E2E2E2E2E2E2E2E2E2E2E2E2E2E2E2E2E2E2E2E2DCDCE2E2E2E2E2DCDCE2E2E2E2E2DCDCE2E2E2E2E2E2E2E2E2E2E2E2E2E2E2E2E2E2E2E2E2
310
E2E2E2E2E2E2E2E2E2E2E2E2E2E2E2E2E2E2E2E2E2E2E2E2E2E2E2E2E2E2E2E2E2E2E2E2E2E2E2E2E2E2E2E2E2E2E2E2E2E2E2E2E2E2E2E2E2E2E2E2E2E2E2E2E2F5F5F5F5F5F5F5F5F5F5F5F5F5F5E2E2E2E2E2E2E2E2E2E2E2E2E2E2E2E2E2E2E2E2E2E2E2E2E2E2E2E2E2E2E2E2E2E2E2E2E2E2E2E2E2E2E2E2E2E2E2E2
310
E2E2E2E2E2E2E2E2E2E2E2E2E2E2E2E2E2E2E2E2E2E2E2E2E2E2E2E2E2E2E2E2E2E2E2E2E2E2E2E2E2E2E2E2E2E2E2E2E2E2E2E2E2E2E2E2E2E2E2E2E2E2E2E2E2E2E2E2E2E2E2E2E2E2E2E2E2E2E2E2E2E2E2E2E2E2E2E2E2E2E2E2E2E2E2E2E2E2E2E2C3E2E2E2E2E2E2E2E2E2E2E2E2E2E2E2E2E2E2E2E2E2E2E2E2E2E2
310
E2E2E2E2E2E2E2E2E2E2E2E2E2E2E2E2E2E2E2E2E2E2E2E2E2E2E2E2E2E2E2E2E2E2E2E2E2E2E2E2E2E2E2E2E2E2E2E2E2E2E2E2E2E2E2E2E2E2E2E2E2E2E2E2E2E2E2E2E2E2E2E2E2E2E2E2E2E2E2E2E2E2E2E2E2E2E2E2E2E2E2E2E2E2E2E2E2E2E2E2E2E2E2E2E2E2E2E2E2E2E2E2E2E2E2E2E2E2E2E2E2E2E2E2E2E2E2
310
E2E2E2E2E2E2E2E2E2E2E2E2E2E2E2E2E2E2E2E2E2E2E2E2E2E2E2E2E2E2E2E2E2E2E2E2E2E2E2E2E2E2E2E2E2E2E2E2E2E2E2E2E2E2E2E2E2E2E2E2E2E2E2E2E2E2E2E2E2E2E2E2E2E2E2E2E2E2E2E2E2E2E2E2E2E2E2E2E2E2E2E2E2E2E2E2E2E2E2E2E2F5E2E2E2E2E2E2E2E2E2E2E2E2E2E2E2E2E2E2E2E2E2E2E2E2E2
310
E2E2E2E2E2E2E2E2E2E2E2E2E2E2E2E2E2E2E2E2E2E2E2E2E2E2E2E2E2E2E2E2E2E2E2E2E2E2E2E2E2E2E2E2E2E2E2E2E2E2E2E2E2E2E2E2E2E2E2E2E2E2E2E2E2E2E2E2E2E2E2E2E2E2E2E2E2E2E2E2E2E2E2E2E2E2E2E2E2E2E2E2E2E2E2E2E2E2E2E2E2E2E2E2E2E2E2E2E2E2E2E2E2E2E2E2E2E2E2E2E2E2E2E2E2E2E2
310
E2E2E2E2E2E2E2E2E2E2E2E2E2E2E2E2E2E2E2E2E2E2E2E2E2E2E2E2E2E2E2E2E2E2E2E2E2E2E2E2E2E2E2E2E2E2E2E2E2E2E2E2E2E2E2E2E2E2E2E2E2E2E2E2E2E2E2E2E2E2E2E2E2E2E2E2E2E2E2E2E2E2E2E2E2E2E2E2E2E2E2E2E2E2E2E2E2E2E2E2E2E2E2F5E2E2E2E2E2E2E2E2E2E2E2E2E2E2E2E2E2E2E2E2E2E2E2
310
E2E2E2E2E2E2E2E2E2E2E2E2E2E2E2E2E2E2E2E2E2E2E2E2E2E2E2E2E2E2E2E2E2E2E2E2E2E2E2E2E2E2E2E2E2E2E2E2E2E2E2E2E2E2E2E2E2E2E2E2E2E2E2E2E2E2E2E2E2E2E2E2E2E2E2E2E2E2E2E2E2E2E2E2E2E2E2E2E2E2E2E2E2E2E2E2E2E2E2E2E2E2E2E2E2E2E2E2E2E2E2E2E2E2E2E2E2E2E2E2E2E2E2E2E2E2E2
310
E2E2E2E2E2E2E2E2E2E2E2E2E2E2E2E2E2E2E2E2E2E2E2E2E2E2E2E2E2E2E2E2E2E2E2E2E2E2E2E2E2E2E2E2E2E2E2E2E2E2E2E2E2E2E2E2E2E2E2E2E2E2E2E2E2E2E2E2E2E2E2E2E2E2E2E2E2E2E2E2E2E2E2E2E2E2E2E2E2E2E2E2E2E2E2E2E2E2E2E2E2E2E2E2E2F5F5E2E2E2E2E2E2E2E2E2E2E2E2E2E2E2E2E2E2E2E2
310
E2E2E2E2E2E2E2E2E2E2E2E2E2E2E2E2E2E2E2E2E2E2E2E2E2E2E2E2E2E2E2E2E2E2E2E2E2E2E2E2E2E2E2E2E2E2E2E2E2E2E2E2E2E2E2E2E2E2E2E2E2E2E2E2E2E2E2E2E2E2E2E2E2E2E2E2E2E2E2E2E2E2E2E2E2E2E2E2E2E2E2E2E2E2E2E2E2E2E2E2E2E2E2E2E2E2E2E2E2E2E2E2E2E2E2E2E2E2E2E2E2E2E2E2E2E2E2
310
E2E2E2E2E2E2E2E2E2E2E2E2E2E2E2E2E2E2E2E2E2E2E2E2E2E2E2E2E2E2E2E2E2E2E2E2E2E2E2E2E2E2E2E2E2E2E2E2E2E2E2E2E2E2E2E2E2E2E2E2E2E2E2E2E2E2E2E2E2E2E2E2E2E2E2E2E2E2E2E2E2E2E2E2E2E2E2E2E2E2E2E2E2E2E2E2E2E2E2E2E2E2E2E2E2E2E2E2E2E2E2E2E2E2E2E2E2E2E2E2E2E2E2E2E2E2E2
310
E2E2E2E2E2E2E2E2E2E2E2E2E2E2E2E2E2E2E2E2E2E2E2E2E2E2E2E2E2E2E2E2E2E2E2E2E2E2E2E2E2E2E2E2E2E2E2E2E2E2E2E2E2E2E2E2E2E2E2E2E2E2E2E2E2E2E2E2E2E2E2E2E2E2E2E2E2E2E2E2E2E2E2E2E2E2E2E2E2E2E2E2E2E2E2E2E2E2E2E2E2E2E2E2E2E2E2E2E2E2E2E2E2E2E2E2E2E2E2E2E2E2E2E2E2E2E2
310
E2E2E2E2E2E2E2E2E2E2E2E2E2E2E2E2E2E2E2E2E2E2E2E2E2E2E2E2E2E2E2E2E2E2E2E2E2E2E2E2E2E2E2E2E2E2E2E2E2E2E2E2E2E2E2E2E2E2E2E2E2E2E2E2E2E2E2E2E2E2E2E2E2E2E2E2E2E2E2E2E2E2E2E2E2E2E2E2E2E2E2E2E2E2E2E2E2E2E2E2E2E2E2E2E2E2E2E2E2E2E2E2E2E2E2E2E2E2E2E2E2E2E2E2E2E2E2
310
E2E2E2E2E2E2E2E2E2E2E2E2E2E2E2E2E2E2E2E2E2E2E2E2E2E2E2E2E2E2E2E2E2E2E2E2E2E2E2E2E2E2E2E2E2E2E2E2E2E2E2E2E2E2E2E2E2E2E2E2E2E2E2E2E2E2E2E2E2E2E2E2E2E2E2E2E2E2E2E2E2E2E2E2E2E2E2E2E2E2E2E2E2E2E2E2E2E2E2E2E2E2E2E2E2E2E2E2E2E2E2E2E2E2E2E2E2E2E2E2E2E2E2E2E2E2E2
310
E2E2E2E2E2E2E2E2E2E2E2E2E2E2E2E2E2E2E2E2E2E2E2E2E2E2E2E2E2E2E2E2E2E2E2E2E2E2E2E2E2E2E2E2E2E2E2E2E2E2E2E2E2E2E2E2E2E2E2E2E2E2E2E2E2E2E2E2E2E2E2E2E2E2E2E2E2E2E2E2E2E2E2E2E2E2E2E2E2E2E2E2E2E2E2E2E2E2E2E2E2E2E2E2E2E2E2E2E2E2E2E2E2E2E2E2E2E2E2E2E2E2E2E2E2E2E2
310
E2E2E2E2E2E2E2E2E2E2E2E2E2E2E2E2E2E2E2E2E2E2E2E2E2E2E2E2E2E2E2E2E2E2E2E2E2E2E2E2E2E2E2E2E2E2E2E2E2E2E2E2E2E2E2E2E2E2E2E2E2E2E2E2E2E2E2E2E2E2E2E2E2E2E2E2E2E2E2E2E2E2E2E2E2E2E2E2E2E2E2E2E2E2E2E2E2E2E2E2E2E2E2E2E2E2E2E2E2E2E2E2E2E2E2E2E2E2E2E2E2E2E2E2E2E2E2
310
E2E2E2E2E2E2E2E2E2E2E2E2E2E2E2E2E2E2E2E2E2E2E2E2E2E2E2E2E2E2E2E2E2E2E2E2E2E2E2E2E2E2E2E2E2E2E2E2E2E2E2E2E2E2E2E2E2E2E2E2E2E2E2E2E2E2E2E2E2E2E2E2E2E2E2E2E2E2E2E2E2E2E2E2E2E2E2E2E2E2E2E2E2E2E2E2E2E2E2E2E2E2E2E2E2E2E2E2E2E2E2E2E2E2E2E2E2E2E2E2E2E2E2E2E2E2E2
310
E2E2E2E2E2E2E2E2E2E2E2E2E2E2E2E2E2E2E2E2E2E2E2E2E2E2E2E2E2E2E2E2E2E2E2E2E2E2E2E2E2E2E2E2E2E2E2E2E2E2E2E2E2E2E2E2E2E2E2E2E2E2E2E2E2E2E2E2E2E2E2E2E2E2E2E2E2E2E2E2E2E2E2E2E2E2E2E2E2E2E2E2E2E2E2E2E2E2E2E2E2E2E2E2E2E2E2E2E2E2E2E2E2E2E2E2E2E2E2E2E2E2E2E2E2E2E2
310
E2E2E2E2E2E2E2E2E2E2E2E2E2E2E2E2E2E2E2E2E2E2E2E2E2E2E2E2E2E2E2E2E2E2E2E2E2E2E2E2E2E2E2E2E2E2E2E2E2E2E2E2E2E2E2E2E2E2E2E2E2E2E2E2E2E2E2E2E2E2E2E2E2E2E2E2E2E2E2E2E2E2E2E2E2E2E2E2E2E2E2E2E2E2E2E2E2E2E2E2E2E2E2E2E2E2E2E2E2E2E2E2E2E2E2E2E2E2E2E2E2E2E2E2E2E2E2
310
E2E2E2E2E2E2E2E2E2E2E2E2E2E2E2E2E2E2E2E2E2E2E2E2E2E2E2E2E2E2E2E2E2E2E2E2E2E2E2E2E2E2E2E2E2E2E2E2E2E2E2E2E2E2E2E2E2E2E2E2E2E2E2E2E2E2E2E2E2E2E2E2E2E2E2E2E2E2E2E2E2E2E2E2E2E2E2E2E2E2E2E2E2E2E2E2E2E2E2E2E2E2E2E2E2E2E2E2E2E2E2E2E2E2E2E2E2E2E2E2E2E2E2E2E2E2E2
310
E2E2E2E2E2E2E2E2E2E2E2E2E2E2E2E2E2E2E2E2E2E2E2E2E2E2E2E2E2E2E2E2E2E2E2E2E2E2E2E2E2E2E2E2E2E2E2E2E2E2E2E2E2E2E2E2E2E2E2E2E2E2E2E2E2E2E2E2E2E2E2E2E2E2E2E2E2E2E2E2E2E2E2E2E2E2E2E2E2E2E2E2E2E2E2E2E2E2E2E2E2E2E2E2E2E2E2E2E2E2E2E2E2E2E2E2E2E2E2E2E2E2E2E2E2E2E2
310
E2E2E2E2E2E2E2E2E2E2E2E2E2E2E2E2E2E2E2E2E2E2E2E2E2E2E2E2E2E2E2E2E2E2E2E2E2E2E2E2E2E2E2E2E2E2E2E2E2E2E2E2E2E2E2E2E2E2E2E2E2E2E2E2E2E2E2E2E2E2E2E2E2E2E2E2E2E2E2E2E2E2E2E2E2E2E2E2E2E2E2E2E2E2E2E2E2E2E2E2E2E2E2E2E2E2E2E2E2E2E2E2E2E2E2E2E2E2E2E2E2E2E2E2E2E2E2
310
E2E2E2E2E2E2E2E2E2E2E2E2E2E2E2E2E2E2E2E2E2E2E2E2E2E2E2E2E2E2E2E2E2E2E2E2E2E2E2E2E2E2E2E2E2E2E2E2E2E2E2E2E2E2E2E2E2E2E2E2E2E2E2E2E2E2E2E2E2E2E2E2E2E2E2E2E2E2E2E2E2E2E2E2E2E2E2E2E2E2E2E2E2E2E2E2E2E2E2E2E2E2E2E2E2E2E2E2E2E2E2E2E2E2E2E2E2E2E2E2E2E2E2E2E2E2E2
310
E2E2E2E2E2E2E2E2E2E2E2E2E2E2E2E2E2E2E2E2E2E2E2E2E2E2E2E2E2E2E2E2E2E2E2E2E2E2E2E2E2E2E2E2E2E2E2E2E2E2E2E2E2E2E2E2E2E2E2E2E2E2E2E2E2E2E2E2E2E2E2E2E2E2E2E2E2E2E2E2E2E2E2E2E2E2E2E2E2E2E2E2E2E2E2E2E2E2E2E2E2E2E2E2E2E2E2E2E2E2E2E2E2E2E2E2E2E2E2E2E2E2E2E2E2E2E2
310
E2E2E2E2E2E2E2E2E2E2E2E2E2E2E2E2E2E2E2E2E2E2E2E2E2E2E2E2E2E2E2E2E2E2E2E2E2E2E2E2E2E2E2E2E2E2E2E2E2E2E2E2E2E2E2E2E2E2E2E2E2E2E2E2E2E2E2E2E2E2E2E2E2E2E2E2E2E2E2E2E2E2E2E2E2E2E2E2E2E2E2E2E2E2E2E2E2E2E2E2E2E2E2E2E2E2E2E2E2E2E2E2E2E2E2E2E2E2E2E2E2E2E2E2E2E2E2
310
E2E2E2E2E2E2E2E2E2E2E2E2E2E2E2E2E2E2E2E2E2E2E2E2E2E2E2E2E2E2E2E2E2E2E2E2E2E2E2E2E2E2E2E2E2E2E2E2E2E2E2E2E2E2E2E2E2E2E2E2E2E2E2E2E2E2E2E2E2E2E2E2E2E2E2E2E2E2E2E2E2E2E2E2E2E2E2E2E2E2E2E2E2E2E2E2E2E2E2E2E2E2E2E2E2E2E2E2E2E2E2E2E2E2E2E2E2E2E2E2E2E2E2E2E2E2E2
310
E2E2E2E2E2E2E2E2E2E2E2E2E2E2E2E2E2E2E2E2E2E2E2E2E2E2E2E2E2E2E2E2E2E2E2E2E2E2E2E2E2E2E2E2E2E2E2E2E2E2E2E2E2E2E2E2E2E2E2E2E2E2E2E2E2E2E2E2E2E2E2E2E2E2E2E2E2E2E2E2E2E2E2E2E2E2E2E2E2E2E2E2E2E2E2E2E2E2E2E2E2E2E2E2E2E2E2E2E2E2E2E2E2E2E2E2E2E2E2E2E2E2E2E2E2E2E2
310
E2E2E2E2E2E2E2E2E2E2E2E2E2E2E2E2E2E2E2E2E2E2E2E2E2E2E2E2E2E2E2E2E2E2E2E2E2E2E2E2E2E2E2E2E2E2E2E2E2E2E2E2E2E2E2E2E2E2E2E2E2E2E2E2E2E2E2E2E2E2E2E2E2E2E2E2E2E2E2E2E2E2E2E2E2E2E2E2E2E2E2E2E2E2E2E2E2E2E2E2E2E2E2E2E2E2E2E2E2E2E2E2E2E2E2E2E2E2E2E2E2E2E2E2E2E2E2
310
E2E2E2E2E2E2E2E2E2E2E2E2E2E2E2E2E2E2E2E2E2E2E2E2E2E2E2E2E2E2E2E2E2E2E2E2E2E2E2E2E2E2E2E2E2E2E2E2E2E2E2E2E2E2E2E2E2E2E2E2E2E2E2E2E2E2E2E2E2E2E2E2E2E2E2E2E2E2E2E2E2E2E2E2E2E2E2E2E2E2E2E2E2E2E2E2E2E2E2E2E2E2E2E2E2E2E2E2E2E2E2E2E2E2E2E2E2E2E2E2E2E2E2E2E2E2E2
310
E2E2E2E2E2E2E2E2E2E2E2E2E2E2E2E2E2E2E2E2E2E2E2E2E2E2E2E2E2E2E2E2E2E2E2E2E2E2E2E2E2E2E2E2E2E2E2E2E2E2E2E2E2E2E2E2E2E2E2E2E2E2E2E2E2E2E2E2E2E2E2E2E2E2E2E2E2E2E2E2E2E2E2E2E2E2E2E2E2E2E2E2E2E2E2E2E2E2E2E2E2E2E2E2E2E2E2E2E2E2E2E2E2E2E2E2E2E2E2E2E2E2E2E2E2E2E2
310
E2E2E2E2E2E2E2E2E2E2E2E2E2E2E2E2E2E2E2E2E2E2E2E2E2E2E2E2E2E2E2E2E2E2E2E2E2E2E2E2E2E2E2E2E2E2E2E2E2E2E2E2E2E2E2E2E2E2E2E2E2E2E2E2E2E2E2E2E2E2E2E2E2E2E2E2E2E2E2E2E2E2E2E2E2E2E2E2E2E2E2E2E2E2E2E2E2E2E2E2E2E2E2E2E2E2E2E2E2E2E2E2E2E2E2E2E2E2E2E2E2E2E2E2E2E2E2
310
E2E2E2E2E2E2E2E2E2E2E2E2E2E2E2E2E2E2E2E2E2E2E2E2E2E2E2E2E2E2E2E2E2E2E2E2E2E2E2E2E2E2E2E2E2E2E2E2E2E2E2E2E2E2E2E2E2E2E2E2E2E2E2E2E2E2E2E2E2E2E2E2E2E2E2E2E2E2E2E2E2E2E2E2E2E2E2E2E2E2E2E2E2E2E2E2E2E2E2E2E2E2E2E2E2E2E2E2E2E2E2E2E2E2E2E2E2E2E2E2E2E2E2E2E2E2E2
310
E2E2E2E2E2E2E2E2E2E2E2E2E2E2E2E2E2E2E2E2E2E2E2E2E2E2E2E2E2E2E2E2E2E2E2E2E2E2E2E2E2E2E2E2E2E2E2E2E2E2E2E2E2E2E2E2E2E2E2E2E2E2E2E2E2E2E2E2E2E2E2E2E2E2E2E2E2E2E2E2E2E2E2E2E2E2E2E2E2E2E2E2E2E2E2E2E2E2E2E2E2E2E2E2E2E2E2E2E2E2E2E2E2E2E2E2E2E2E2E2E2E2E2E2E2E2E2
310
E2E2E2E2E2E2E2E2E2E2E2E2E2E2E2E2E2E2E2E2E2E2E2E2E2E2E2E2E2E2E2E2E2E2E2E2E2E2E2E2E2E2E2E2E2E2E2E2E2E2E2E2E2E2E2E2E2E2E2E2E2E2E2E2E2E2E2E2E2E2E2E2E2E2E2E2E2E2E2E2E2E2E2E2E2E2E2E2E2E2E2E2E2E2E2E2E2E2E2E2E2E2E2E2E2E2E2E2E2E2E2E2E2E2E2E2E2E2E2E2E2E2E2E2E2E2E2
310
E2E2E2E2E2E2E2E2E2E2E2E2E2E2E2E2E2E2E2E2E2E2E2E2E2E2E2E2E2E2E2E2E2E2E2E2E2E2E2E2E2E2E2E2E2E2E2E2E2E2E2E2E2E2E2E2E2E2E2E2E2E2E2E2E2E2E2E2E2E2E2E2E2E2E2E2E2E2E2E2E2E2E2E2E2E2E2E2E2E2E2E2E2E2E2E2E2E2E2E2E2E2E2E2E2E2E2E2E2E2E2E2E2E2E2E2E2E2E2E2E2E2E2E2E2E2E2
310
E2E2E2E2E2E2E2E2E2E2E2E2E2E2E2E2E2E2E2E2E2E2E2E2E2E2E2E2E2E2E2E2E2E2E2E2E2E2E2E2E2E2E2E2E2E2E2E2E2E2E2E2E2E2E2E2E2E2E2E2E2E2E2E2E2E2E2E2E2E2E2E2E2E2E2E2E2E2E2E2E2E2E2E2E2E2E2E2E2E2E2E2E2E2E2E2E2E2E2E2E2E2E2E2E2E2E2E2E2E2E2E2E2E2E2E2E2E2E2E2E2E2E2E2E2E2E2
310
E2E2E2E2E2E2E2E2E2E2E2E2E2E2E2E2E2E2E2E2E2E2E2E2E2E2E2E2E2E2E2E2E2E2E2E2E2E2E2E2E2E2E2E2E2E2E2E2E2E2E2E2E2E2E2E2E2E2E2E2E2E2E2E2E2E2E2E2E2E2E2E2E2E2E2E2E2E2E2E2E2E2E2E2E2E2E2E2E2E2E2E2E2E2E2E2E2E2E2E2E2E2E2E2E2E2E2E2E2E2E2E2E2E2E2E2E2E2E2E2E2E2E2E2E2E2E2
310
E2E2E2E2E2E2E2E2E2E2E2E2E2E2E2E2E2E2E2E2E2E2E2E2E2E2E2E2E2E2E2E2E2E2E2E2E2E2E2E2E2E2E2E2E2E2E2E2E2E2E2E2E2E2E2E2E2E2E2E2E2E2E2E2E2E2E2E2E2E2E2E2E2E2E2E2E2E2E2E2E2E2E2E2E2E2E2E2E2E2E2E2E2E2E2E2E2E2E2E2E2E2E2E2E2E2E2E2E2E2E2E2E2E2E2E2E2E2E2E2E2E2E2E2E2E2E2
310
E2E2E2E2E2E2E2E2E2E2E2E2E2E2E2E2E2E2E2E2E2E2E2E2E2E2E2E2E2E2E2E2E2E2E2E2E2E2E2E2E2E2E2E2E2E2E2E2E2E2E2E2E2E2E2E2E2E2E2E2E2E2E2E2E2E2E2E2E2E2E2E2E2E2E2E2E2E2E2E2E2E2E2E2E2E2E2E2E2E2E2E2E2E2E2E2E2E2E2E2E2E2E2E2E2E2E2E2E2E2E2E2E2E2E2E2E2E2E2E2E2E2E2E2E2E2E2
310
E2E2E2E2E2E2E2E2E2E2E2E2E2E2E2E2E2E2E2E2E2E2E2E2E2E2E2E2E2E2E2E2E2E2E2E2E2E2E2E2E2E2E2E2E2E2E2E2E2E2E2E2E2E2E2E2E2E2E2E2E2E2E2E2E2E2E2E2E2E2E2E2E2E2E2E2E2E2E2E2E2E2E2E2E2E2E2E2E2E2E2E2E2E2E2E2E2E2E2E2E2E2E2E2E2E2E2E2E2E2E2E2E2E2E2E2E2E2E2E2E2E2E2E2E2E2E2
310
E2E2E2E2E2E2E2E2E2E2E2E2E2E2E2E2E2E2E2E2E2E2E2E2E2E2E2E2E2E2E2E2E2E2E2E2E2E2E2E2E2E2E2E2E2E2E2E2E2E2E2E2E2E2E2E2E2E2E2E2E2E2E2E2E2E2E2E2E2E2E2E2E2E2E2E2E2E2E2E2E2E2E2E2E2E2E2E2E2E2E2E2E2E2E2E2E2E2E2E2E2E2E2E2E2E2E2E2E2E2E2E2E2E2E2E2E2E2E2E2E2E2E2E2E2E2E2
310
E2E2E2E2E2E2E2E2E2E2E2E2E2E2E2E2E2E2E2E2E2E2E2E2E2E2E2E2E2E2E2E2E2E2E2E2E2E2E2E2E2E2E2E2E2E2E2E2E2E2E2E2E2E2E2E2E2E2E2E2E2E2E2E2E2E2E2E2E2E2E2E2E2E2E2E2E2E2E2E2E2E2E2E2E2E2E2E2E2E2E2E2E2E2E2E2E2E2E2E2E2E2E2E2E2E2E2E2E2E2E2E2E2E2E2E2E2E2E2E2E2E2E2E2E2E2E2
310
E2E2E2E2E2E2E2E2E2E2E2E2E2E2E2E2E2E2E2E2E2E2E2E2E2E2E2E2E2E2E2E2E2E2E2E2E2E2E2E2E2E2E2E2E2E2E2E2E2E2E2E2E2E2E2E2E2E2E2E2E2E2E2E2E2E2E2E2E2E2E2E2E2E2E2E2E2E2E2E2E2E2E2E2E2E2E2E2E2E2E2E2E2E2E2E2E2E2E2E2E2E2E2E2E2E2E2E2E2E2E2E2E2E2E2E2E2E2E2E2E2E2E2E2E2E2E2
310
E2E2E2E2E2E2E2E2E2E2E2E2E2E2E2E2E2E2E2E2E2E2E2E2E2E2E2E2E2E2E2E2E2E2E2E2E2E2E2E2E2E2E2E2E2E2E2E2E2E2E2E2E2E2E2E2E2E2E2E2E2E2E2E2E2E2E2E2E2E2E2E2E2E2E2E2E2E2E2E2E2E2E2E2E2E2E2E2E2E2E2E2E2E2E2E2E2E2E2E2E2E2E2E2E2E2E2E2E2E2E2E2E2E2E2E2E2E2E2E2E2E2E2E2E2E2E2
310
E2E2E2E2E2E2E2E2E2E2E2E2E2E2E2E2E2E2E2E2E2E2E2E2E2E2E2E2E2E2E2E2E2E2E2E2E2E2E2E2E2E2E2E2E2E2E2E2E2E2E2E2E2E2E2E2E2E2E2E2E2E2E2E2E2E2E2E2E2E2E2E2E2E2E2E2E2E2E2E2E2E2E2E2E2E2E2E2E2E2E2E2E2E2E2E2E2E2E2E2E2E2E2E2E2E2E2E2E2E2E2E2E2E2E2E2E2E2E2E2E2E2E2E2E2E2E2
310
E2E2E2E2E2E2E2E2E2E2E2E2E2E2E2E2E2E2E2E2E2E2E2E2E2E2E2E2E2E2E2E2E2E2E2E2E2E2E2E2E2E2E2E2E2E2E2E2E2E2E2E2E2E2E2E2E2E2E2E2E2E2E2E2E2E2E2E2E2E2E2E2E2E2E2E2E2E2E2E2E2E2E2E2E2E2E2E2E2E2E2E2E2E2E2E2E2E2E2E2E2E2E2E2E2E2E2E2E2E2E2E2E2E2E2E2E2E2E2E2E2E2E2E2E2E2E2
310
E2E2E2E2E2E2E2E2E2E2E2E2E2E2E2E2E2E2E2E2E2E2E2E2E2E2E2E2E2E2E2E2E2E2E2E2E2E2E2E2E2E2E2E2E2E2E2E2E2E2E2E2E2E2E2E2E2E2E2E2E2E2E2E2E2E2E2E2E2E2E2E2E2E2E2E2E2E2E2E2E2E2E2E2E2E2E2E2E2E2E2E2E2E2E2E2E2E2E2E2E2E2E2E2E2E2E2E2E2E2E2E2E2E2E2E2E2E2E2E2E2E2E2E2E2E2E2
310
E2E2E2E2E2E2E2E2E2E2E2E2E2E2E2E2E2E2E2E2E2E2E2E2E2E2E2E2E2E2E2E2E2E2E2E2E2E2E2E2E2E2E2E2E2E2E2E2E2E2E2E2E2E2E2E2E2E2E2E2E2E2E2E2E2E2E2E2E2E2E2E2E2E2E2E2E2E2E2E2E2E2E2E2E2E2E2E2E2E2E2E2E2E2E2E2E2E2E2E2E2E2E2E2E2E2E2E2E2E2E2E2E2E2E2E2E2E2E2E2E2E2E2E2E2E2E2
310
E2E2E2E2E2E2E2E2E2E2E2E2E2E2E2E2E2E2E2E2E2E2E2E2E2E2E2E2E2E2E2E2E2E2E2E2E2E2E2E2E2E2E2E2E2E2E2E2E2E2E2E2E2E2E2E2E2E2E2E2E2E2E2E2E2E2E2E2E2E2E2E2E2E2E2E2E2E2E2E2E2E2E2E2E2E2E2E2E2E2E2E2E2E2E2E2E2E2E2E2E2E2E2E2E2E2E2E2E2E2E2E2E2E2E2E2E2E2E2E2E2E2E2E2E2E2E2
310
E2E2E2E2E2E2E2E2E2E2E2E2E2E2E2E2E2E2E2E2E2E2E2E2E2E2E2E2E2E2E2E2E2E2E2E2E2E2E2E2E2E2E2E2E2E2E2E2E2E2E2E2E2E2E2E2E2E2E2E2E2E2E2E2E2E2E2E2E2E2E2E2E2E2E2E2E2E2E2E2E2E2E2E2E2E2E2E2E2E2E2E2E2E2E2E2E2E2E2E2E2E2E2E2E2E2E2E2E2E2E2E2E2E2E2E2E2E2E2E2E2E2E2E2E2E2E2
310
E2E2E2E2E2E2E2E2E2E2E2E2E2E2E2E2E2E2E2E2E2E2E2E2E2E2E2E2E2E2E2E2E2E2E2E2E2E2E2E2E2E2E2E2E2E2E2E2E2E2E2E2E2E2E2E2E2E2E2E2E2E2E2E2E2E2E2E2E2E2E2E2E2E2E2E2E2E2E2E2E2E2E2E2E2E2E2E2E2E2E2E2E2E2E2E2E2E2E2E2E2E2E2E2E2E2E2E2E2E2E2E2E2E2E2E2E2E2E2E2E2E2E2E2E2E2E2
310
E2E2E2E2E2E2E2E2E2E2E2E2E2E2E2E2E2E2E2E2E2E2E2E2E2E2E2E2E2E2E2E2E2E2E2E2E2E2E2E2E2E2E2E2E2E2E2E2E2E2E2E2E2E2E2E2E2E2E2E2E2E2E2E2E2E2E2E2E2E2E2E2E2E2E2E2E2E2E2E2E2E2E2E2E2E2E2E2E2E2E2E2E2E2E2E2E2E2E2E2E2E2E2E2E2E2E2E2E2E2E2E2E2E2E2E2E2E2E2E2E2E2E2E2E2E2E2
310
E2E2E2E2E2E2E2E2E2E2E2E2E2E2E2E2E2E2E2E2E2E2E2E2E2E2E2E2E2E2E2E2E2E2E2E2E2E2E2E2E2E2E2E2E2E2E2E2E2E2E2E2E2E2E2E2E2E2E2E2E2E2E2E2E2E2E2E2E2E2E2E2E2E2E2E2E2E2E2E2E2E2E2E2E2E2E2E2E2E2E2E2E2E2E2E2E2E2E2E2E2E2E2E2E2E2E2E2E2E2E2E2E2E2E2E2E2E2E2E2E2E2E2E2E2E2E2
310
E2E2E2E2E2E2E2E2E2E2E2E2E2E2E2E2E2E2E2E2E2E2E2E2E2E2E2E2E2E2E2E2E2E2E2E2E2E2E2E2E2E2E2E2E2E2E2E2E2E2E2E2E2E2E2E2E2E2E2E2E2E2E2E2E2E2E2E2E2E2E2E2E2E2E2E2E2E2E2E2E2E2E2E2E2E2E2E2E2E2E2E2E2E2E2E2E2E2E2E2E2E2E2E2E2E2E2E2E2E2E2E2E2E2E2E2E2E2E2E2E2E2E2E2E2E2E2
310
E2E2E2E2E2E2E2E2E2E2E2E2E2E2E2E2E2E2E2E2E2E2E2E2E2E2E2E2E2E2E2E2E2E2E2E2E2E2E2E2E2E2E2E2E2E2E2E2E2E2E2E2E2E2E2E2E2E2E2E2E2E2E2E2E2E2E2E2E2E2E2E2E2E2E2E2E2E2E2E2E2E2E2E2E2E2E2E2E2E2E2E2E2E2E2E2E2E2E2E2E2E2E2E2E2E2E2E2E2E2E2E2E2E2E2E2E2E2E2E2E2E2E2E2E2E2E2
310
E2E2E2E2E2E2E2E2E2E2E2E2E2E2E2E2E2E2E2E2E2E2E2E2E2E2E2E2E2E2E2E2E2E2E2E2E2E2E2E2E2E2E2E2E2E2E2E2E2E2E2E2E2E2E2E2E2E2E2E2E2E2E2E2E2E2E2E2E2E2E2E2E2E2E2E2E2E2E2E2E2E2E2E2E2E2E2E2E2E2E2E2E2E2E2E2E2E2E2E2E2E2E2E2E2E2E2E2E2E2E2E2E2E2E2E2E2E2E2E2E2E2E2E2E2E2E2
310
E2E2E2E2E2E2E2E2E2E2E2E2E2E2E2E2E2E2E2E2E2E2E2E2E2E2E2E2E2E2E2E2E2E2E2E2E2E2E2E2E2E2E2E2E2E2E2E2E2E2E2E2E2E2E2E2E2E2E2E2E2E2E2E2E2E2E2E2E2E2
  0
XRECORD
  5
E639
102
{ACAD_REACTORS
330
E616
102
}
330
E616
100
AcDbXrecord
280
     1
102
SHADEPLOT
 70
     0
102
SHADEPLOTRESLEVEL
 70
     2
102
SHADEPLOTCUSTOMDPI
 70
   300
  0
XRECORD
  5
E617
102
{ACAD_REACTORS
330
E616
102
}
330
E616
100
AcDbXrecord
280
     1
310
28000000630000008C0000000100080000000000B0360000000000000000000000010000000000000000000000000000FFFFFF000000000000000000000000000000000000000000000000000000000000000000330000006600000099000000CC000000FF00000000330000333300006633000099330000CC330000FF3300
310
0000660000336600006666000099660000CC660000FF66000000990000339900006699000099990000CC990000FF99000000CC000033CC000066CC000099CC0000CCCC0000FFCC000000FF000033FF000066FF000099FF0000CCFF0000FFFF000000003300330033006600330099003300CC003300FF003300003333003333
310
33006633330099333300CC333300FF33330000663300336633006666330099663300CC663300FF66330000993300339933006699330099993300CC993300FF99330000CC330033CC330066CC330099CC3300CCCC3300FFCC330000FF330033FF330066FF330099FF3300CCFF3300FFFF330000006600330066006600660099
310
006600CC006600FF00660000336600333366006633660099336600CC336600FF33660000666600336666006666660099666600CC666600FF66660000996600339966006699660099996600CC996600FF99660000CC660033CC660066CC660099CC6600CCCC6600FFCC660000FF660033FF660066FF660099FF6600CCFF6600
310
FFFF660000009900330099006600990099009900CC009900FF00990000339900333399006633990099339900CC339900FF33990000669900336699006666990099669900CC669900FF66990000999900339999006699990099999900CC999900FF99990000CC990033CC990066CC990099CC9900CCCC9900FFCC990000FF99
310
0033FF990066FF990099FF9900CCFF9900FFFF99000000CC003300CC006600CC009900CC00CC00CC00FF00CC000033CC003333CC006633CC009933CC00CC33CC00FF33CC000066CC003366CC006666CC009966CC00CC66CC00FF66CC000099CC003399CC006699CC009999CC00CC99CC00FF99CC0000CCCC0033CCCC0066CC
310
CC0099CCCC00CCCCCC00FFCCCC0000FFCC0033FFCC0066FFCC0099FFCC00CCFFCC00FFFFCC000000FF003300FF006600FF009900FF00CC00FF00FF00FF000033FF003333FF006633FF009933FF00CC33FF00FF33FF000066FF003366FF006666FF009966FF00CC66FF00FF66FF000099FF003399FF006699FF009999FF00CC
310
99FF00FF99FF0000CCFF0033CCFF0066CCFF0099CCFF00CCCCFF00FFCCFF0000FFFF0033FFFF0066FFFF0099FFFF00CCFFFF00FFFFFF00000000000D0D0D001A1A1A00282828003535350043434300505050005D5D5D006B6B6B00787878008686860093939300A1A1A100AEAEAE00BBBBBB00C9C9C900D6D6D600E4E4E400
310
F1F1F100FFFFFF0000000000000000000000000000000000000000000000000000000000000000000000000000000000F5F5F5F5F5F5F5F5F5F5F5F5F5F5F5F5F5F5F5F5F5F5F5F5F5F5F5F5F5F5F5F5F5F5F5F5F5F5F5F5F5F5F5F5F5F5F5F5F5F5F5F5F5F5F5F5F5F5F5F5F5F5F5F5F5F5F5F5F5F5F5F5F5F5F5F5F5F5F5
310
F5F5F5F5F5F5F5F5F5F5F5F5F5F5F5F5F5F5F5F500F5E2E2E2E2E2E2E2E2E2E2E2E2E2E2E2E2E2E2E2E2E2E2E2E2E2E2E2E2E2E2E2E2E2E2E2E2E2E2E2E2E2E2E2E2E2E2E2E2E2E2E2E2E2E2E2E2E2E2E2E2E2E2E2E2E2E2E2E2E2E2E2E2E2E2E2E2E2E2E2E2E2E2E2E2E2E2E2E2E2E2E2E2E2E2E2E2E2E200F5E2E2E2E2E2
310
E2E2E2E2E2E2E2E2E2E2E2E2E2E2E2E2E2E2E2E2E2E2E2E2E2E2E2E2E2E2E2E2E2E2E2E2E2E2E2E2E2E2E2E2E2E2E2E2E2E2E2E2E2E2E2E2E2E2E2E2E2E2E2E2E2E2E2E2E2E2E2E2E2E2E2E2E2E2E2E2E2E2E2E2E2E2E2E2E2E2E2E2E200F5E2E2F5F5F5F5F5F5F5F5E2E2E2E2E2E2E2E2F5F5F5F5F5F5F5F5F5F5F5F5F5F5
310
F5E2E2E2E2E2E2E2E2E2F5F5F5F5F5F5F5F5F5F5F5F5F5F5E2E2E2E2E2E2E2E2E2F5F5F5F5F5F5F5F5F5F5F5F5F5F5F5E2E2E2E2E2E2E2E2F5F5F5F5F5F5F5F5E2E200F5E2E2F5E2E2E2E2E2E2E2E2E2E2E2E2E2E2E2E2E2E2E2E2E2E2E2E2E2E2E2E2E2E2E2E2E2E2E2E2E2E2E2E2E2E2E2E2E2E2E2E2E2E2E2E2E2E2E2E2
310
E2E2E2E2E2E2E2E2E2E2E2E2E2E2E2E2E2E2E2E2E2E2E2E2E2E2E2E2E2E2E2E2E2E2E2E2F5E2E200F5E2E2F5E2E2E2E2E2E2E2E2E2E2E2E2E2E2E2E2E2E2E2E2E2E2E2E2E2E2E2E2E2E2E2E2E2E2E2E2E2E2E2E2E2E2E2E2E2E2E2E2E2E2E2E2E2E2E2E2E2E2E2E2E2E2E2E2E2E2E2E2E2E2E2E2E2E2E2E2E2E2E2E2E2E2E2
310
E2E2E2E2E2E2E2E2E2F5E2E200F5E2E2F5E2E2E2E2E2E2E2E2E2E2E2E2E2E2E2E2E2E2E2E2E2E2E2E2E2E2E2E2E2E2E2E2E2E2E2E2E2E2E2E2E2E2E2E2E2E2E2E2E2E2E2E2E2E2E2E2E2E2E2E2E2E2E2E2E2E2E2E2E2E2E2E2E2E2E2E2E2E2E2E2E2E2E2E2E2E2E2E2E2E2E2E2F5E2E200F5E2E2F5E2E2E2E2E2E2E2E2E2E2
310
E2E2E2E2E2E2E2E2E2E2E2E2E2E2E2E2E2E2E2E2E2E2E2E2E2E2E2E2E2E2E2E2E2E2E2E2E2E2E2E2E2E2E2E2E2E2E2E2E2E2E2E2E2E2E2E2E2E2E2E2E2E2E2E2E2E2E2E2E2E2E2E2E2E2E2E2E2E2E2E2E2E2F5E2E200F5E2E2F5E2E2E2E2E2E2E2E2E2E2E2E2E2E2E2E2E2E2E2E2E2E2E2E2E2E2E2E2E2E2E2E2E2E2E2E2E2
310
E2E2E2E2E2E2E2E2E2E2E2E2E2E2E2E2E2E2E2E2E2E2E2E2E2E2E2E2E2E2E2E2E2E2E2E2E2E2E2E2E2E2E2E2E2E2E2E2E2E2E2E2E2E2E2F5E2E200F5E2E2F5E2E2E2E2E2E2E2E2E2E2E2E2E2E2E2E2E2E2E2E2E2E2E2E2E2E2E2E2E2E2E2E2E2E2E2E2E2E2E2E2E2E2E2E2E2E2E2E2E2E2E2E2E2E2E2E2E2E2E2E2E2E2E2E2
310
E2E2E2E2E2E2E2E2E2E2E2E2E2E2E2E2E2E2E2E2E2E2E2E2E2E2E2E2F5E2E200F5E2E2F5E2E2E2E2E2E2E2E2E2E2E2E2E2E2E2E2E2E2E2E2E2E2E2E2E2E2E2E2E2E2E2E2E2E2E2E2E2E2E2E2E2E2E2E2E2E2E2E2E2E2E2E2E2E2E2E2E2E2E2E2E2E2E2E2E2E2E2E2E2E2E2E2E2E2E2E2E2E2E2E2E2E2E2E2E2E2E2E2E2E2E2
310
E2F5E2E200F5E2E2F5E2E2E2E2E2E2E2E2E2E2E2E2E2E2E2E2E2E2E2E2E2E2E2E2E2E2E2E2E2E2E2E2E2E2E2E2E2E2E2E2E2E2E2E2E2E2E2E2E2E2E2E2E2E2E2E2E2E2E2E2E2E2E2E2E2E2E2E2E2E2E2E2E2E2E2E2E2E2E2E2E2E2E2E2E2E2E2E2E2E2E2E2F5E2E200F5E2E2E2E2E2E2E2E2E2E2E2E2E2E2E2E2E2E2E2E2E2
310
E2E2E2E2E2E2E2E2E2E2E2E2E2E2E2E2E2E2E2E2E2E2E2E2E2E2E2E2E2E2E2E2E2E2E2E2E2E2E2E2E2E2E2E2E2E2E2E2E2E2E2E2E2E2E2E2E2E2E2E2E2E2E2E2E2E2E2E2E2E2E2E2E2E2E2E2E200F5E2E2E2E2E2E2E2E2E2E2E2E2E2E2E2E2E2E2E2E2E2E2E2E2E2E2E2E2E2E2E2E2E2E2E2E2E2E2E2E2E2E2E2E2E2E2E2E2
310
E2E2E2E2E2E2E2E2E2E2E2E2E2E2E2E2E2E2E2E2E2E2E2E2E2E2E2E2E2E2E2E2E2E2E2E2E2E2E2E2E2E2E2E2E2E2E2E2E2E240F5E2E2E2E2E2E2E2E2E2E2E2E2E2E2E2E2E2E2E2E2E2E2E2E2E2E2E2E2E2E2E2E2E2E2E2E2E2E2E2E2E2E2E2E2E2E2E2E2E2E2E2E2E2E2E2E2E2E2E2E2E2E2E2E2E2E2E2E2E2E2E2E2E2E2E2
310
E2E2E2E2E2E2E2E2E2E2E2E2E2E2E2E2E2E2E2E2E2E2E200F5E2E2E2E2E2E2E2E2E2E2E2E2E2E2E2E2E2E2E2E2E2E2E2E2E2E2E2E2E2E2E2E2E2E2E2E2E2E2E2E2E2E2E2E2E2E2E2E2E2E2E2E2E2E2E2E2E2E2E2E2E2E2E2E2E2E2E2E2E2E2E2E2E2E2E2E2E2E2E2E2E2E2E2E2E2E2E2E2E2E2E2E2E2E2E2E2E2E200F5E2E2
310
E2E2E2E2E2E2E2E2E2E2E2E2E2E2E2E2E2E2E2E2E2E2E2E2E2E2E2E2E2E2E2E2E2E2E2E2E2E2E2E2E2E2E2E2E2E2E2E2E2E2E2E2E2E2E2E2E2E2E2E2E2E2E2E2E2E2E2E2E2E2E2E2E2E2E2E2E2E2E2E2E2E2E2E2E2E2E2E2E2E2E2E2E2E2E2E200F5E2E2E2E2E2E2E2E2E2E2E2E2E2E2E2E2E2E2E2E2E2E2E2E2E2E2E2E2E2
310
E2E2E2E2E2E2E2E2E2E2E2E2E2E2E2E2E2E2E2E2E2E2E2E2E2E2E2E2E2E2E2E2E2E2E2E2E2E2E2E2E2E2E2E2E2E2E2E2E2E2E2E2E2E2E2E2E2E2E2E2E2E2E2E2E2E2E2E2E200F5E2E2E2E2E2E2E2E2E2E2E2E2E2E2E2E2E2E2E2E2E2E2E2E2E2E2E2E2E2E2E2E2E2E2E2E2E2E2E2E2E2E2E2E2E2E2E2E2E2E2E2E2E2E2E2E2
310
E2E2E2E2E2E2E2E2E2E2E2E2E2E2E2E2E2E2E2E2E2E2E2E2E2E2E2E2E2E2E2E2E2E2E2E2E2E2E2E2E2E200F5E2E2E2E2E2E2E2E2E2E2E2E2E2E2E2E2E2E2E2E2E2E2E2E2E2E2E2E2E2E2E2E2E2E2E2E2E2E2E2E2E2E2E2E2E2E2E2E2E2E2E2E2E2E2E2E2E2E2E2E2E2E2E2E2E2E2E2E2E2E2E2E2E2E2E2E2E2E2E2E2E2E2E2
310
E2E2E2E2E2E2E2E2E2E2E2E2E2E2E200F5E2E2E2E2E2E2E2E2E2E2E2E2E2E2E2E2E2E2E2E2E2E2E2E2E2E2E2E2E2E2E2E2E2E2E2E2E2E2E2E2E2E2E2E2E2E2E2E2E2E2E2E2E2E2E2E2E2E2E2E2E2E2E2E2E2E2E2E2E2E2E2E2E2E2E2E2E2E2E2E2E2E2E2E2E2E2E2E2E2E2E2E2E2E2E2E2E2E200F5E2E2E2E2E2E2E2E2E2E2
310
E2E2E2E2E2E2E2E2E2E2E2E2E2E2E2E2E2E2E2E2E2E2E2E2E2E2E2E2E2E2E2E2E2E2E2E2E2E2E2E2E2E2E2E2E2E2E2E2E2E2E2E2E2E2E2E2E2E2E2E2E2E2E2E2E2E2E2E2E2E2E2E2E2E2E2E2E2E2E2E2E2E2E2E2E2E2E2E240F5E2E2F5E2E2E2E2E2E2E2E2E2E2E2E2E2E2E2E2E2E2E2E2E2E2E2E2E2E2E2E2E2E2E2E2E2E2
310
E2E2E2E2E2E2E2E2E2E2E2E2E2E2E2E2E2E2E2E2E2E2E2E2E2E2E2E2E2E2E2E2E2E2E2E2E2E2E2E2E2E2E2E2E2E2E2E2E2E2E2E2E2E2E2E2E2E2F5E2E200F5E2E2F5E2E2E2E2E2E2E2E2E2E2E2E2E2E2E2E2E2E2E2E2E2E2E2E2E2E2E2E2E2E2E2E2E2E2E2E2E2E2E2E2E2E2E2E2E2E2E2E2E2E2E2E2E2E2E2E2E2E2E2E2E2
310
E2E2E2E2E2E2E2E2E2E2E2E2E2E2E2E2E2E2E2E2E2E2E2E2E2E2E2E2E2E2E2F5E2E200F5E2E2F5E2E2E2E2E2E2E2E2E2E2E2E2E2E2E2E2E2E2E2E2E2E2E2E2E2E2E2E2E2E2E2E2E2E2E2E2E2E2E2E2E2E2E2E2E2E2E2E2E2E2E2E2E2E2E2E2E2E2E2E2E2E2E2E2E2E2E2E2E2E2E2E2E2E2E2E2E2E2E2E2E2E2E2E2E2E2E2E2
310
E2E2E2E2F5E2E200F5E2E2F5E2E2E2E2E2E2E2E2E2E2E2E2E2E2E2E2E2E2E2E2E2E2E2E2E2E2E2E2E2E2E2E2E2E2E2E2E2E2E2E2E2E2E2E2E2E2E2E2E2E2E2E2E2E2E2E2E2E2E2E2E2E2E2E2E2E2E2E2E2E2E2E2E2E2E2E2E2E2E2E2E2E2E2E2E2E2E2E2E2E2E2E2F5E2E200F5E2E2F5E2E2E2E2E2E2E2E2E2E2E2E2E2E2E2
310
E2E2E2E2E2E2E2E2E2E2E2E2E2E2E2E2E2E2E2E2E2E2E2E2E2E2E2E2E2E2E2E2E2E2E2E2E2E2E2E2E2E2E2E2E2E2E2E2E2E2E2E2E2E2E2E2E2E2E2E2E2E2E2E2E2E2E2E2E2E2E2E2E2E2E2E2E2F5E2E200F5E2E2F5E2E2E2E2E2E2E2E2E2E2E2E2E2E2E2E2E2E2E2E2E2E2E2E2E2E2E2E2E2E2E2E2E2E2E2E2E2E2E2E2E2E2
310
E2E2E2E2E2E2E2E2E2E2E2E2E2E2E2E2E2E2E2E2E2E2E2E2E2E2E2E2E2E2E2E2E2E2E2E2E2E2E2E2E2E2E2E2E2E2E2E2E2E2F5E2E229F5E2E2F5E2E2E2E2E2E2E2E2E2E2E2E2E2E2E2E2E2E2E2E2E2E2E2E2E2E2E2E2E2E2E2E2E2E2E2E2E2E2E2E2E2E2E2E2E2E2E2E2E2E2E2E2E2E2E2E2E2E2E2E2E2E2E2E2E2E2E2E2E2
310
E2E2E2E2E2E2E2E2E2E2E2E2E2E2E2E2E2E2E2E2E2E2E2F5E2E2C2F5E2E2F5E2E2E2E2E2E2E2E2E2E2E2E2E2E2E2E2E2E2E2E2E2E2E2E2E2E2E2E2E2E2E2E2E2E2E2E2E2E2E2E2E2E2E2E2E2E2E2E2E2E2E2E2E2E2E2E2E2E2E2E2E2E2E2E2E2E2E2E2E2E2E2E2E2E2E2E2E2E2E2E2E2E2E2E2E2E2E2E2E2E2E2E2F5E2E200
310
F5E2E2F5E2E2E2E2E2E2E2E2E2E2E2E2E2E2E2E2E2E2E2E2E2E2E2E2E2E2E2E2E2E2E2E2E2E2E2E2E2E2E2E2E2E2E2E2E2E2E2E2E2E2E2E2E2E2E2E2E2E2E2E2E2E2E2E2E2E2E2E2E2E2E2E2E2E2E2E2E2E2E2E2E2E2E2E2E2E2E2E2E2E2E2E2F5E2E200F5E2E2F5E2E2E2E2E2E2E2E2E2E2E2E2E2E2E2E2E2E2E2E2E2E2E2
310
E2E2E2E2E2E2E2E2E2E2E2E2E2E2E2E2E2E2E2E2E2E2E2E2E2E2E2E2E2E2E2E2E2E2E2E2E2E2E2E2E2E2E2E2E2E2E2E2E2E2E2E2E2E2E2E2E2E2E2E2E2E2E2E2E2E2E2E2E2F5E2E200F5E2E2F5E2E2E2E2E2E2E2E2E2E2E2E2E2E2E2E2E2E2E2E2E2E2E2E2E2E2E2E2E2E2E2E2E2E2E2E2E2E2E2E2E2E2E2E2E2E2E2E2E2E2
310
E2E2E2E2E2E2E2E2E2E2E2E2E2E2E2E2E2E2E2E2E2E2E2E2E2E2E2E2E2E2E2E2E2E2E2E2E2E2E2E2E2E2F5E2E200F5E2E2F5E2E2E2E2E2E2E2E2E2E2E2E2E2E2E2E2E2E2E2E2E2E2E2E2E2E2E2E2E2E2E2E2E2E2E2E2E2E2E2E2E2E2E2E2E2E2E2E2E2E2E2E2E2E2E2E2E2E2E2E2E2E2E2E2E2E2E2E2E2E2E2E2E2E2E2E2E2
310
E2E2E2E2E2E2E2E2E2E2E2E2E2E2E2F5E2E200F5E2E2F5E2E2E2E2E2E2E2E2E2E2E2E2E2E2E2E2E2E2E2E2E2E2E2E2E2E2E2E2E2E2E2E2E2E2E2E2E2E2E2E2E2E2E2E2E2E2E2E2E2E2E2E2E2E2E2E2E2E2E2E2E2E2E2E2E2E2E2E2E2E2E2E2E2E2E2E2E2E2E2E2E2E2E2E2E2E2E2E2E2E2E2E2F5E2E23EF5E2E2F5E2E2E2E2
310
E2E2E2E2E2E2E2E2E2E2E2E2E2E2E2E2E2E2E2E2E2E2E2E2E2E2E2E2E2E2E2E2E2E2E2E2E2E2E2E2E2E2E2E2E2E2E2E2E2E2E2E2E2E2E2E2E2E2E2E2E2E2E2E2E2E2E2E2E2E2E2E2E2E2E2E2E2E2E2E2E2E2E2E2E2E2E2E2F5E2E246F5E2E2F5E2E2E2E2E2E2E2E2E2E2E2E2E2E2E2E2E2E2E2E2E2E2E2E2E2E2E2E2E2E2E2
310
E2E2E2E2E2E2E2E2E2E2E2E2E2E2E2E2E2E2E2E2E2E2E2E2E2E2E2E2E2E2E2E2E2E2E2E2E2E2E2E2E2E2E2E2E2E2E2E2E2E2E2E2E2E2E2E2E2E2E2E2E2F5E2E23EF5E2E2F5E2E2E2E2E2E2E2E2E2E2E2E2E2E2E2E2E2E2E2E2E2E2E2E2E2E2E2E2E2E2E2E2E2E2E2E2E2E2E2E2E2E2E2E2E2E2E2E2E2E2E2E2E2E2E2E2E2E2
310
E2E2E2E2E2E2E2E2E2E2E2E2E2E2E2E2E2E2E2E2E2E2E2E2E2E2E2E2E2E2E2E2E2E2F5E2E246F5E2E2F5E2E2E2E2E2E2E2E2E2E2E2E2E2E2E2E2E2E2E2E2E2E2E2E2E2E2E2E2E2E2E2E2E2E2E2E2E2E2E2E2E2E2E2E2E2E2E2E2E2E2E2E2E2E2E2E2E2E2E2E2E2E2E2E2E2E2E2E2E2E2E2E2E2E2E2E2E2E2E2E2E2E2E2E2E2
310
E2E2E2E2E2E2E2F5E2E23EF5E2E2E2E2E2E2E2E2E2E2E2E2E2E2E2E2E2E2E2E2E2E2E2E2E2E2E2E2E2E2E2E2E2E2E2E2E2E2E2E2E2E2E2E2E2E2E2E2E2E2E2E2E2E2E2E2E2E2E2E2E2E2E2E2E2E2E2E2E2E2E2E2E2E2E2E2E2E2E2E2E2E2E2E2E2E2E2E2E2E2E2E2E2E2E2E2E2E246F5E2E2E2E2E2E2E2E2E2E2E2E2E2E2E2
310
E2E2E2E2E2E2E2E2E2E2E2E2E2E2E2E2E2E2E2E2E2E2E2E2E2E2E2E2E2E2E2E2E2E2E2E2E2E2E2E2E2E2E2E2E2E2E2E2E2E2E2E2E2E2E2E2E2E2E2E2E2E2E2E2E2E2E2E2E2E2E2E2E2E2E2E2E2E2E2E2E2E2E23FF5E2E2E2E2E2E2E2E2E2E2E2E2E2E2E2E2E2E2E2E2E2E2E2E2E2E2E2E2E2E2E2E2E2E2E2E2E2E2E2E2E2E2
310
E2E2E2E2E2E2E2E2E2E2E2E2E2E2E2E2E2E2E2E2E2E2E2E2E2E2E2E2E2E2E2E2E2E2E2E2E2E2E2E2E2E2E2E2E2E2E2E2E2E2E2E2E2E2E2E246F5E2E2E2E2E2E2E2E2E2E2E2E2E2E2E2E2E2E2E2E2E2E2E2E2E2E2E2E2E2E2E2E2E2E2E2E2E2E2E2E2E2E2E2E2E2E2E2E2E2E2E2E2E2E2E2E2E2E2E2E2E2E2E2E2E2E2E2E2E2
310
E2E2E2E2E2E2E2E2E2E2E2E2E2E2E2E2E2E2E2E2E2E2E2E2E2E2E2E2E23FF5E2E2E2E2E2E2E2E2E2E2E2E2E2E2E2E2E2E2E2E2E2E2E2E2E2E2E2E2E2E2E2E2E2E2E2E2E2E2E2E2E2E2E2E2E2E2E2E2E2E2E2E2E2E2E2E2E2E2E2E2E2E2E2E2E2E2E2E2E2E2E2E2E2E2E2E2E2E2E2E2E2E2E2E2E2E2E2E2E2E2E2E2E2E2E2E2
310
E2E246F5E2E2E2E2E2E2E2E2E2E2E2E2E2E2E2E2E2E2E2E2E2E2E2E2E2E2E2E2E2E2E2E2E2E2E2E2E2E2E2E2E2E2E2E2E2E2E2E2E2E2E2E2E2E2E2E2E2E2E2E2E2E2E2E2E2E2E2E2E2E2E2E2E2E2E2E2E2E2E2E2E2E2E2E2E2E2E2E2E2E2E2E2E2E2E2E2E2E23FF5E2E2E2E2E2E2E2E2E2E2E2E2E2E2E2E2E2E2E2E2E2E2E2
310
E2E2E2E2E2E2E2E2E2E2E2E2E2E2E2E2E2E2E2E2E2E2E2E2E2E2E2E2E2E2E2E2E2E2E2E2E2E2E2E2E2E2E2E2E2E2E2E2E2E2E2E2E2E2E2E2E2E2E2E2E2E2E2E2E2E2E2E2E2E2E2E2E2E2E246F5E2E2E2E2E2E2E2E2E2E2E2E2E2E2E2E2E2E2E2E2E2E2E2E2E2E2E2E2E2E2E2E2E2E2E2E2E2E2E2E2E2E2E2E2E2E2E2E2E2E2
310
E2E2E2E2E2E2E2E2E2E2E2E2E2E2E2E2E2E2E2E2E2E2E2E2E2E2E2E2E2E2E2E2E2E2E2E2E2E2E2E2E2E2E2E2E2E2E2E23FF5E2E2E2E2E2E2E2E2E2E2E2E2E2E2E2E2E2E2E2E2E2E2E2E2E2E2E2E2E2E2E2E2E2E2E2E2E2E2E2E2E2E2E2E2E2E2E2E2E2E2E2E2E2E2E2E2E2E2E2E2E2E2E2E2E2E2E2E2E2E2E2E2E2E2E2E2E2
310
E2E2E2E2E2E2E2E2E2E2E2E2E2E2E2E2E2E2E2E2E246F5E2E2E2E2E2E2E2E2E2E2E2E2E2E2E2E2E2E2E2E2E2E2E2E2E2E2E2E2E2E2E2E2E2E2E2E2E2E2E2E2E2E2E2E2E2E2E2E2E2E2E2E2E2E2E2E2E2E2E2E2E2E2E2E2E2E2E2E2E2E2E2E2E2E2E2E2E2E2E2E2E2E2E2E2E2E2E2E2E2E2E2E2E2E2E2E2E2E240F5E2E2F5E2
310
E2E2E2E2E2E2E2E2E2E2E2E2E2E2E2E2E2E2E2E2E2E2E2E2E2E2E2E2E2E2E2E2E2E2E2E2E2E2E2E2E2E2E2E2E2E2E2E2E2E2E2E2E2E2E2E2E2E2E2E2E2E2E2E2E2E2E2E2E2E2E2E2E2E2E2E2E2E2E2E2E2E2E2E2E2E2E2E2E2E2E2F5E2E246F5E2E2F5E2E2E2E2E2E2E2E2E2E2E2E2E2E2E2E2E2E2E2E2E2E2E2E2E2E2E2E2
310
E2E2E2E2E2E2E2E2E2E2E2E2E2E2E2E2E2E2E2E2E2E2E2E2E2E2E2E2E2E2E2E2E2E2E2E2E2E2E2E2E2E2E2E2E2E2E2E2E2E2E2E2E2E2E2E2E2E2E2E2E2E2E2E2F5E2E240F5E2E2F5E2E2E2E2E2E2E2E2E2E2E2E2E2E2E2E2E2E2E2E2E2E2E2E2E2E2E2E2E2E2E2E2E2E2E2E2E2E2E2E2E2E2E2E2E2E2E2E2E2E2E2E2E2E2E2
310
E2E2E2E2E2E2E2E2E2E2E2E2E2E2E2E2E2E2E2E2E2E2E2E2E2E2E2E2E2E2E2E2E2E2E2E2E2F5E2E246F5E2E2F5E2E2E2E2E2E2E2E2E2E2E2E2E2E2E2E2E2E2E2E2E2E2E2E2E2E2E2E2E2E2E2E2E2E2E2E2E2E2E2E2E2E2E2E2E2E2E2E2E2E2E2E2E2E2E2E2E2E2E2E2E2E2E2E2E2E2E2E2E2E2E2E2E2E2E2E2E2E2E2E2E2E2
310
E2E2E2E2E2E2E2E2E2E2F5E2E240F5E2E2F5E2E2E2E2E2E2E2E2E2E2E2E2E2E2E2E2E2E2E2E2E2E2E2E2E2E2E2E2E2E2E2E2E2E2E2E2E2E2E2E2E2E2E2E2E2E2E2E2E2E2E2E2E2E2E2E2E2E2E2E2E2E2E2E2E2E2E2E2E2E2E2E2E2E2E2E2E2E2E2E2E2E2E2E2E2E2E2E2E2E2E2E2F5E2E200F5E2E2F5E2E2E2E2E2E2E2E2E2
310
E2E2E2E2E2E2E2E2E2E2E2E2E2E2E2E2E2E2E2E2E2E2E2E2E2E2E2E2E2E2E2E2E2E2E2E2E2E2E2E2E2E2E2E2E2E2E2E2E2E2E2E2E2E2E2E2E2E2E2E2E2E2E2E2E2E2E2E2E2E2E2E2E2E2E2E2E2E2E2E2E2E2E2F5E2E200F5E2E2F5E2E2E2E2E2E2E2E2E2E2E2E2E2E2E2E2E2E2E2E2E2E2E2E2E2E2E2E2E2E2E2E2E2E2E2E2
310
E2E2E2E2E2E2E2E2E2E2E2E2E2E2E2E2E2E2E2E2E2E2E2E2E2E2E2E2E2E2E2E2E2E2E2E2E2E2E2E2E2E2E2E2E2E2E2E2E2E2E2E2E2E2E2E2F5E2E246F5E2E2F5E2E2E2E2E2E2E2E2E2E2E2E2E2E2E2E2E2E2E2E2E2E2E2E2E2E2E2E2E2E2E2E2E2E2E2E2E2E2E2E2E2E2E2E2E2E2E2E2E2E2E2E2E2E2E2E2E2E2E2E2E2E2E2
310
E2E2E2E2E2E2E2E2E2E2E2E2E2E2E2E2E2E2E2E2E2E2E2E2E2E2E2E2E2F5E2E23EF5E2E2F5E2E2E2E2E2E2E2E2E2E2E2E2E2E2E2E2E2E2E2E2E2E2E2E2E2E2E2E2E2E2E2E2E2E2E2E2E2E2E2E2E2E2E2E2E2E2E2E2E2E2E2E2E2E2E2E2E2E2E2E2E2E2E2E2E2E2E2E2E2E2E2E2E2E2E2E2E2E2E2E2E2E2E2E2E2E2E2E2E2E2
310
E2E2F5E2E246F5E2E2F5E2E2E2E2E2E2E2E2E2E2E2E2E2E2E2E2E2E2E2E2E2E2E2E2E2E2E2E2E2E2E2E2E2E2E2E2E2E2E2E2E2E2E2E2E2E2E2E2E2E2E2E2E2E2E2E2E2E2E2E2E2E2E2E2E2E2E2E2E2E2E2E2E2E2E2E2E2E2E2E2E2E2E2E2E2E2E2E2E2E2E2E2F5E2E23FF5E2E2F5E2E2E2E2E2E2E2E2E2E2E2E2E2E2E2E2E2
310
E2E2E2E2E2E2E2E2E2E2E2E2E2E2E2E2E2E2E2E2E2E2E2E2E2E2E2E2E2E2E2E2E2E2E2E2E2E2E2E2E2E2E2E2E2E2E2E2E2E2E2E2E2E2E2E2E2E2E2E2E2E2E2E2E2E2E2E2E2E2E2E2E2E2E2F5E2E246F5E2E2F5E2E2E2E2E2E2E2E2E2E2E2E2E2E2E2E2E2E2E2E2E2E2E2E2E2E2E2E2E2E2E2E2E2E2E2E2E2E2E2E2E2E2E2E2
310
E2E2E2E2E2E2E2E2E2E2E2E2E2E2E2E2E2E2E2E2E2E2E2E2E2E2E2E2E2E2E2E2E2E2E2E2E2E2E2E2E2E2E2E2E2E2E2E2F5E2E23FF5E2E2F5E2E2E2E2E2E2E2E2E2E2E2E2E2E2E2E2E2E2E2E2E2E2E2E2E2E2E2E2E2E2E2E2E2E2E2E2E2E2E2E2E2E2E2E2E2E2E2E2E2E2E2E2E2E2E2E2E2E2E2E2E2E2E2E2E2E2E2E2E2E2E2
310
E2E2E2E2E2E2E2E2E2E2E2E2E2E2E2E2E2E2E2E2E2F5E2E246F5E2E2F5E2E2E2E2E2E2E2E2E2E2E2E2E2E2E2E2E2E2E2E2E2E2E2E2E2E2E2E2E2E2E2E2E2E2E2E2E2E2E2E2E2E2E2E2E2E2E2E2E2E2E2E2E2E2E2E2E2E2E2E2E2E2E2E2E2E2E2E2E2E2E2E2E2E2E2E2E2E2E2E2E2E2E2E2E2E2E2E2E2E2E2E2F5E2E23FF5E2
310
E2F5E2E2E2E2E2E2E2E2E2E2E2E2E2E2E2E2E2E2E2E2E2E2E2E2E2E2E2E2E2E2E2E2E2E2E2E2E2E2E2E2E2E2E2E2E2E2E2E2E2E2E2E2E2E2E2E2E2E2E2E2E2E2E2E2E2E2E2E2E2E2E2E2E2E2E2E2E2E2E2E2E2E2E2E2E2E2E2E2E2E2E2E2F5E2E246F5E2E2F5E2E2E2E2E2E2E2E2E2E2E2E2E2E2E2E2E2E2E2E2E2E2E2E2E2
310
E2E2E2E2E2E2E2E2E2E2E2E2E2E2E2E2E2E2E2E2E2E2E2E2E2E2E2E2E2E2E2E2E2E2E2E2E2E2E2E2E2E2E2E2E2E2E2E2E2E2E2E2E2E2E2E2E2E2E2E2E2E2E2E2E2E2E2F5E2E23FF5E2E2F5E2E2E2E2E2E2E2E2E2E2E2E2E2E2E2E2E2E2E2E2E2E2E2E2E2E2E2E2E2E2E2E2E2E2E2E2E2E2E2E2E2E2E2E2E2E2E2E2E2E2E2E2
310
E2E2E2E2E2E2E2E2E2E2E2E2E2E2E2E2E2E2E2E2E2E2E2E2E2E2E2E2E2E2E2E2E2E2E2E2E2E2E2E2F5E2E246F5E2E2E2E2E2E2E2E2E2E2E2E2E2E2E2E2E2E2E2E2E2E2E2E2E2E2E2E2E2E2E2E2E2E2E2E2E2E2E2E2E2E2E2E2E2E2E2E2E2E2E2E2E2E2E2E2E2E2E2E2E2E2E2E2E2E2E2E2E2E2E2E2E2E2E2E2E2E2E2E2E2E2
310
E2E2E2E2E2E2E2E2E2E2E2E2E2E2E2E240F5E2E2E2E2E2E2E2E2E2E2E2E2E2E2E2E2E2E2E2E2E2E2E2E2E2E2E2E2E2E2E2E2E2E2E2E2E2E2E2E2E2E2E2E2E2E2E2E2E2E2E2E2E2E2E2E2E2E2E2E2E2E2E2E2E2E2E2E2E2E2E2E2E2E2E2E2E2E2E2E2E2E2E2E2E2E2E2E2E2E2E2E2E2E2E2E2E2E246F5E2E2E2E2E2E2E2E2E2
310
E2E2E2E2E2E2E2E2E2E2E2E2E2E2E2E2E2E2E2E2E2E2E2E2E2E2E2E2E2E2E2E2E2E2E2E2E2E2E2E2E2E2E2E2E2E2E2E2E2E2E2E2E2E2E2E2E2E2E2E2E2E2E2E2E2E2E2E2E2E2E2E2E2E2E2E2E2E2E2E2E2E2E2E2E2E2E2E2E240F5E2E2E2E2E2E2E2E2E2E2E2E2E2E2E2E2E2E2E2E2E2E2E2E2E2E2E2E2E2E2E2E2E2E2E2E2
310
E2E2E2E2E2E2E2E2E2E2E2E2E2E2E2E2E2E2E2E2E2E2E2E2E2E2E2E2E2E2E2E2E2E2E2E2E2E2E2E2E2E2E2E2E2E2E2E2E2E2E2E2E2E2E2E2E2E2E2E2E2E246F5E2E2E2E2E2E2E2E2E2E2E2E2E2E2E2E2E2E2E2E2E2E2E2E2E2E2E2E2E2E2E2E2E2E2E2E2E2E2E2E2E2E2E2E2E2E2E2E2E2E2E2E2E2E2E2E2E2E2E2E2E2E2E2
310
E2E2E2E2E2E2E2E2E2E2E2E2E2E2E2E2E2E2E2E2E2E2E2E2E2E2E2E2E2E2E2E2E2E2E200F5E2E2E2E2E2E2E2E2E2E2E2E2E2E2E2E2E2E2E2E2E2E2E2E2E2E2E2E2E2E2E2E2E2E2E2E2E2E2E2E2E2E2E2E2E2E2E2E2E2E2E2E2E2E2E2E2E2E2E2E2E2E2E2E2E2E2E2E2E2E2E2E2E2E2E2E2E2E2E2E2E2E2E2E2E2E2E2E2E2E2
310
E2E2E2E2E2E2E2E200F5E2E2E2E2E2E2E2E2E2E2E2E2E2E2E2E2E2E2E2E2E2E2E2E2E2E2E2E2E2E2E2E2E2E2E2E2E2E2E2E2E2E2E2E2E2E2E2E2E2E2E2E2E2E2E2E2E2E2E2E2E2E2E2E2E2E2E2E2E2E2E2E2E2E2E2E2E2E2E2E2E2E2E2E2E2E2E2E2E2E2E2E2E2E2E2E2E2E21EF5E2E2E2E2E2E2E2E2E2E2E2E2E2E2E2E2E2
310
E2E2E2E2E2E2E2E2E2E2E2E2E2E2E2E2E2E2E2E2E2E2E2E2E2E2E2E2E2E2E2E2E2E2E2E2E2E2E2E2E2E2E2E2E2E2E2E2E2E2E2E2E2E2E2E2E2E2E2E2E2E2E2E2E2E2E2E2E2E2E2E2E2E2E2E2E2E2E2E2E245F5E2E2E2E2E2E2E2E2E2E2E2E2E2E2E2E2E2E2E2E2E2E2E2E2E2E2E2E2E2E2E2E2E2E2E2E2E2E2E2E2E2E2E2E2
310
E2E2E2E2E2E2E2E2E2E2E2E2E2E2E2E2E2E2E2E2E2E2E2E2E2E2E2E2E2E2E2E2E2E2E2E2E2E2E2E2E2E2E2E2E2E2E2E2E2E2E2E2E2E23FF5E2E2F5E2E2E2E2E2E2E2E2E2E2E2E2E2E2E2E2E2E2E2E2E2E2E2E2E2E2E2E2E2E2E2E2E2E2E2E2E2E2E2E2E2E2E2E2E2E2E2E2E2E2E2E2E2E2E2E2E2E2E2E2E2E2E2E2E2E2E2E2
310
E2E2E2E2E2E2E2E2E2E2E2E2E2E2E2E2E2E2E2E2E2E2E2E2F5E2E245F5E2E2F5E2E2E2E2E2E2E2E2E2E2E2E2E2E2E2E2E2E2E2E2E2E2E2E2E2E2E2E2E2E2E2E2E2E2E2E2E2E2E2E2E2E2E2E2E2E2E2E2E2E2E2E2E2E2E2E2E2E2E2E2E2E2E2E2E2E2E2E2E2E2E2E2E2E2E2E2E2E2E2E2E2E2E2E2E2E2E2E2E2E2E2E2F5E2E2
310
3FF5E2E2F5E2E2E2E2E2E2E2E2E2E2E2E2E2E2E2E2E2E2E2E2E2E2E2E2E2E2E2E2E2E2E2E2E2E2E2E2E2E2E2E2E2E2E2E2E2E2E2E2E2E2E2E2E2E2E2E2E2E2E2E2E2E2E2E2E2E2E2E2E2E2E2E2E2E2E2E2E2E2E2E2E2E2E2E2E2E2E2E2E2E2E2E2F5E2E245F5E2E2F5E2E2E2E2E2E2E2E2E2E2E2E2E2E2E2E2E2E2E2E2E2E2
310
E2E2E2E2E2E2E2E2E2E2E2E2E2E2E2E2E2E2E2E2E2E2E2E2E2E2E2E2E2E2E2E2E2E2E2E2E2E2E2E2E2E2E2E2E2E2E2E2E2E2E2E2E2E2E2E2E2E2E2E2E2E2E2E2E2E2E2E2E2E2F5E2E240F5E2E2F5E2E2E2E2E2E2E2E2E2E2E2E2E2E2E2E2E2E2E2E2E2E2E2E2E2E2E2E2E2E2E2E2E2E2E2E2E2E2E2E2E2E2E2E2E2E2E2E2E2
310
E2E2E2E2E2E2E2E2E2E2E2E2E2E2E2E2E2E2E2E2E2E2E2E2E2E2E2E2E2E2E2E2E2E2E2E2E2E2E2E2E2E2E2F5E2E245F5E2E2F5E2E2E2E2E2E2E2E2E2E2E2E2E2E2E2E2E2E2E2E2E2E2E2E2E2E2E2E2E2E2E2E2E2E2E2E2E2E2E2E2E2E2E2E2E2E2E2E2E2E2E2E2E2E2E2E2E2E2E2E2E2E2E2E2E2E2E2E2E2E2E2E2E2E2E2E2
310
E2E2E2E2E2E2E2E2E2E2E2E2E2E2E2E2F5E2E23FF5E2E2F5E2E2E2E2E2E2E2E2E2E2E2E2E2E2E2E2E2E2E2E2E2E2E2E2E2E2E2E2E2E2E2E2E2E2E2E2E2E2E2E2E2E2E2E2E2E2E2E2E2E2E2E2E2E2E2E2E2E2E2E2E2E2E2E2E2E2E2E2E2E2E2E2E2E2E2E2E2E2E2E2E2E2E2E2E2E2E2E2E2E2E2E2F5E2E245F5E2E2F5E2E2E2
310
E2E2E2E2E2E2E2E2E2E2E2E2E2E2E2E2E2E2E2E2E2E2E2E2E2E2E2E2E2E2E2E2E2E2E2E2E2E2E2E2E2E2E2E2E2E2E2E2E2E2E2E2E2E2E2E2E2E2E2E2E2E2E2E2E2E2E2E2E2E2E2E2E2E2E2E2E2E2E2E2E2E2E2E2E2E2E2E2E2F5E2E23FF5E2E2F5E2E2E2E2E2E2E2E2E2E2E2E2E2E2E2E2E2E2E2E2E2E2E2E2E2E2E2E2E2E2
310
E2E2E2E2E2E2E2E2E2E2E2E2E2E2E2E2E2E2E2E2E2E2E2E2E2E2E2E2E2E2E2E2E2E2E2E2E2E2E2E2E2E2E2E2E2E2E2E2E2E2E2E2E2E2E2E2E2E2E2E2E2E2F5E2E245F5E2E2F5E2E2E2E2E2E2E2E2E2E2E2E2E2E2E2E2E2E2E2E2E2E2E2E2E2E2E2E2E2E2E2E2E2E2E2E2E2E2E2E2E2E2E2E2E2E2E2E2E2E2E2E2E2E2E2E2E2
310
E2E2E2E2E2E2E2E2E2E2E2E2E2E2E2E2E2E2E2E2E2E2E2E2E2E2E2E2E2E2E2E2E2E2E2F5E2E23FF5E2E2F5E2E2E2E2E2E2E2E2E2E2E2E2E2E2E2E2E2E2E2E2E2E2E2E2E2E2E2E2E2E2E2E2E2E2E2E2E2E2E2E2E2E2E2E2E2E2E2E2E2E2E2E2E2E2E2E2E2E2E2E2E2E2E2E2E2E2E2E2E2E2E2E2E2E2E2E2E2E2E2E2E2E2E2E2
310
E2E2E2E2E2E2E2E2F5E2E245F5E2E2F5E2E2E2E2E2E2E2E2E2E2E2E2E2E2E2E2E2E2E2E2E2E2E2E2E2E2E2E2E2E2E2E2E2E2E2E2E2E2E2E2E2E2E2E2E2E2E2E2E2E2E2E2E2E2E2E2E2E2E2E2E2E2E2E2E2E2E2E2E2E2E2E2E2E2E2E2E2E2E2E2E2E2E2E2E2E2E2E2E2E2E2E2F5E2E23FF5E2E2F5E2E2E2E2E2E2E2E2E2E2E2
310
E2E2E2E2E2E2E2E2E2E2E2E2E2E2E2E2E2E2E2E2E2E2E2E2E2E2E2E2E2E2E2E2E2E2E2E2E2E2E2E2E2E2E2E2E2E2E2E2E2E2E2E2E2E2E2E2E2E2E2E2E2E2E2E2E2E2E2E2E2E2E2E2E2E2E2E2E2E2E2E2E2F5E2E245F5E2E2F5E2E2E2E2E2E2E2E2E2E2E2E2E2E2E2E2E2E2E2E2E2E2E2E2E2E2E2E2E2E2E2E2E2E2E2E2E2E2
310
E2E2E2E2E2E2E2E2E2E2E2E2E2E2E2E2E2E2E2E2E2E2E2E2E2E2E2E2E2E2E2E2E2E2E2E2E2E2E2E2E2E2E2E2E2E2E2E2E2E2E2E2E2E2F5E2E23FF5E2E2F5E2E2E2E2E2E2E2E2E2E2E2E2E2E2E2E2E2E2E2E2E2E2E2E2E2E2E2E2E2E2E2E2E2E2E2E2E2E2E2E2E2E2E2E2E2E2E2E2E2E2E2E2E2E2E2E2E2E2E2E2E2E2E2E2E2
310
E2E2E2E2E2E2E2E2E2E2E2E2E2E2E2E2E2E2E2E2E2E2E2E2E2E2E2F5E2E245F5E2E2F5E2E2E2E2E2E2E2E2E2E2E2E2E2E2E2E2E2E2E2E2E2E2E2E2E2E2E2E2E2E2E2E2E2E2E2E2E2E2E2E2E2E2E2E2E2E2E2E2E2E2E2E2E2E2E2E2E2E2E2E2E2E2E2E2E2E2E2E2E2E2E2E2E2E2E2E2E2E2E2E2E2E2E2E2E2E2E2E2E2E2E2E2
310
F5E2E23FF5E2E2F5E2E2E2E2E2E2E2E2E2E2E2E2E2E2E2E2E2E2E2E2E2E2E2E2E2E2E2E2E2E2E2E2E2E2E2E2E2E2E2E2E2E2E2E2E2E2E2E2E2E2E2E2E2E2E2E2E2E2E2E2E2E2E2E2E2E2E2E2E2E2E2E2E2E2E2E2E2E2E2E2E2E2E2E2E2E2E2E2E2E2E2E2F5E2E245F5E2E2E2E2E2E2E2E2E2E2E2E2E2E2E2E2E2E2E2E2E2E2
310
E2E2E2E2E2E2E2E2E2E2E2E2E2E2E2E2E2E2E2E2E2E2E2E2E2E2E2E2E2E2E2E2E2E2E2E2E2E2E2E2E2E2E2E2E2E2E2E2E2E2E2E2E2E2E2E2E2E2E2E2E2E2E2E2E2E2E2E2E2E2E2E2E2E2E2E23FF5E2E2E2E2E2E2E2E2E2E2E2E2E2E2E2E2E2E2E2E2E2E2E2E2E2E2E2E2E2E2E2E2E2E2E2E2E2E2E2E2E2E2E2E2E2E2E2E2E2
310
E2E2E2E2E2E2E2E2E2E2E2E2E2E2E2E2E2E2E2E2E2E2E2E2E2E2E2E2E2E2E2E2E2E2E2E2E2E2E2E2E2E2E2E2E2E2E2E2E200F5E2E2E2E2E2E2E2E2E2E2E2E2E2E2E2E2E2E2E2E2E2E2E2E2E2E2E2E2E2E2E2E2E2E2E2E2E2E2E2E2E2E2E2E2E2E2E2E2E2E2E2E2E2E2E2E2E2E2E2E2E2E2E2E2E2E2E2E2E2E2E2E2E2E2E2E2
310
E2E2E2E2E2E2E2E2E2E2E2E2E2E2E2E2E2E2E2E2E2E200F5E2E2E2E2E2E2E2E2E2E2E2E2E2E2E2E2E2E2E2E2E2E2E2E2E2E2E2E2E2E2E2E2E2E2E2E2E2E2E2E2E2E2E2E2E2E2E2E2E2E2E2E2E2E2E2E2E2E2E2E2E2E2E2E2E2E2E2E2E2E2E2E2E2E2E2E2E2E2E2E2E2E2E2E2E2E2E2E2E2E2E2E2E2E2E2E2E2E247F5E2E2E2
310
E2E2E2E2E2E2E2E2E2E2E2E2E2E2E2E2E2E2E2E2E2E2E2E2E2E2E2E2E2E2E2E2E2E2E2E2E2E2E2E2E2E2E2E2E2E2E2E2E2E2E2E2E2E2E2E2E2E2E2E2E2E2E2E2E2E2E2E2E2E2E2E2E2E2E2E2E2E2E2E2E2E2E2E2E2E2E2E2E2E2E2E2E2E2E23EF5E2E2E2E2E2E2E2E2E2E2E2E2E2E2E2E2E2E2E2E2E2E2E2E2E2E2E2E2E2E2
310
E2E2E2E2E2E2E2E2E2E2E2E2E2E2E2E2E2E2E2E2E2E2E2E2E2E2E2E2E2E2E2E2E2E2E2E2E2E2E2E2E2E2E2E2E2E2E2E2E2E2E2E2E2E2E2E2E2E2E2E2E2E2E2E2E2E2E2E247F5E2E2E2E2E2E2E2E2E2E2E2E2E2E2E2E2E2E2E2E2E2E2E2E2E2E2E2E2E2E2E2E2E2E2E2E2E2E2E2E2E2E2E2E2E2E2E2E2E2E2E2E2E2E2E2E2E2
310
E2E2E2E2E2E2E2E2E2E2E2E2E2E2E2E2E2E2E2E2E2E2E2E2E2E2E2E2E2E2E2E2E2E2E2E2E2E2E2E2E23EF5E2E2E2E2E2E2E2E2E2E2E2E2E2E2E2E2E2E2E2E2E2E2E2E2E2E2E2E2E2E2E2E2E2E2E2E2E2E2E2E2E2E2E2E2E2E2E2E2E2E2E2E2E2E2E2E2E2E2E2E2E2E2E2E2E2E2E2E2E2E2E2E2E2E2E2E2E2E2E2E2E2E2E2E2
310
E2E2E2E2E2E2E2E2E2E2E2E2E2E247F5E2E2E2E2E2E2E2E2E2E2E2E2E2E2E2E2E2E2E2E2E2E2E2E2E2E2E2E2E2E2E2E2E2E2E2E2E2E2E2E2E2E2E2E2E2E2E2E2E2E2E2E2E2E2E2E2E2E2E2E2E2E2E2E2E2E2E2E2E2E2E2E2E2E2E2E2E2E2E2E2E2E2E2E2E2E2E2E2E2E2E2E2E2E2E2E2E2E23EF5E2E2E2E2E2E2E2E2E2E2E2
310
E2E2E2E2E2E2E2E2E2E2E2E2E2E2E2E2E2E2E2E2E2E2E2E2E2E2E2E2E2E2E2E2E2E2E2E2E2E2E2E2E2E2E2E2E2E2E2E2E2E2E2E2E2E2E2E2E2E2E2E2E2E2E2E2E2E2E2E2E2E2E2E2E2E2E2E2E2E2E2E2E2E2E2E2E2E2E200F5E2E2F5E2E2E2E2E2E2E2E2E2E2E2E2E2E2E2E2E2E2E2E2E2E2E2E2E2E2E2E2E2E2E2E2E2E2E2
310
E2E2E2E2E2E2E2E2E2E2E2E2E2E2E2E2E2E2E2E2E2E2E2E2E2E2E2E2E2E2E2E2E2E2E2E2E2E2E2E2E2E2E2E2E2E2E2E2E2E2E2E2E2E2E2E2E2F5E2E2DAF5E2E2F5E2E2E2E2E2E2E2E2E2E2E2E2E2E2E2E2E2E2E2E2E2E2E2E2E2E2E2E2E2E2E2E2E2E2E2E2E2E2E2E2E2E2E2E2E2E2E2E2E2E2E2E2E2E2E2E2E2E2E2E2E2E2
310
E2E2E2E2E2E2E2E2E2E2E2E2E2E2E2E2E2E2E2E2E2E2E2E2E2E2E2E2E2E2F5E2E201F5E2E2F5E2E2E2E2E2E2E2E2E2E2E2E2E2E2E2E2E2E2E2E2E2E2E2E2E2E2E2E2E2E2E2E2E2E2E2E2E2E2E2E2E2E2E2E2E2E2E2E2E2E2E2E2E2E2E2E2E2E2E2E2E2E2E2E2E2E2E2E2E2E2E2E2E2E2E2E2E2E2E2E2E2E2E2E2E2E2E2E2E2
310
E2E2E2F5E2E200F5E2E2F5E2E2E2E2E2E2E2E2E2E2E2E2E2E2E2E2E2E2E2E2E2E2E2E2E2E2E2E2E2E2E2E2E2E2E2E2E2E2E2E2E2E2E2E2E2E2E2E2E2E2E2E2E2E2E2E2E2E2E2E2E2E2E2E2E2E2E2E2E2E2E2E2E2E2E2E2E2E2E2E2E2E2E2E2E2E2E2E2E2E2E2E2F5E2E200F5E2E2F5E2E2E2E2E2E2E2E2E2E2E2E2E2E2E2E2
310
E2E2E2E2E2E2E2E2E2E2E2E2E2E2E2E2E2E2E2E2E2E2E2E2E2E2E2E2E2E2E2E2E2E2E2E2E2E2E2E2E2E2E2E2E2E2E2E2E2E2E2E2E2E2E2E2E2E2E2E2E2E2E2E2E2E2E2E2E2E2E2E2E2E2E2E2F5E2E200F5E2E2F5E2E2E2E2E2E2E2E2E2E2E2E2E2E2E2E2E2E2E2E2E2E2E2E2E2E2E2E2E2E2E2E2E2E2E2E2E2E2E2E2E2E2E2
310
E2E2E2E2E2E2E2E2E2E2E2E2E2E2E2E2E2E2E2E2E2E2E2E2E2E2E2E2E2E2E2E2E2E2E2E2E2E2E2E2E2E2E2E2E2E2E2E2E2F5E2E200F5E2E2F5E2E2E2E2E2E2E2E2E2E2E2E2E2E2E2E2E2E2E2E2E2E2E2E2E2E2E2E2E2E2E2E2E2E2E2E2E2E2E2E2E2E2E2E2E2E2E2E2E2E2E2E2E2E2E2E2E2E2E2E2E2E2E2E2E2E2E2E2E2E2
310
E2E2E2E2E2E2E2E2E2E2E2E2E2E2E2E2E2E2E2E2E2E2F5E2E200F5E2E2F5E2E2E2E2E2E2E2E2E2E2E2E2E2E2E2E2E2E2E2E2E2E2E2E2E2E2E2E2E2E2E2E2E2E2E2E2E2E2E2E2E2E2E2E2E2E2E2E2E2E2E2E2E2E2E2E2E2E2E2E2E2E2E2E2E2E2E2E2E2E2E2E2E2E2E2E2E2E2E2E2E2E2E2E2E2E2E2E2E2E2E2E2F5E2E200F5
310
E2E2F5E2E2E2E2E2E2E2E2E2E2E2E2E2E2E2E2E2E2E2E2E2E2E2E2E2E2E2E2E2E2E2E2E2E2E2E2E2E2E2E2E2E2E2E2E2E2E2E2E2E2E2E2E2E2E2E2E2E2E2E2E2E2E2E2E2E2E2E2E2E2E2E2E2E2E2E2E2E2E2E2E2E2E2E2E2E2E2E2E2E2E2E2F5E2E229F5E2E2F5E2E2E2E2E2E2E2E2E2E2E2E2E2E2E2E2E2E2E2E2E2E2E2E2
310
E2E2E2E2E2E2E2E2E2E2E2E2E2E2E2E2E2E2E2E2E2E2E2E2E2E2E2E2E2E2E2E2E2E2E2E2E2E2E2E2E2E2E2E2E2E2E2E2E2E2E2E2E2E2E2E2E2E2E2E2E2E2E2E2E2E2E2E2F5E2E200F5E2E2F5E2E2E2E2E2E2E2E2E2E2E2E2E2E2E2E2E2E2E2E2E2E2E2E2E2E2E2E2E2E2E2E2E2E2E2E2E2E2E2E2E2E2E2E2E2E2E2E2E2E2E2
310
E2E2E2E2E2E2E2E2E2E2E2E2E2E2E2E2E2E2E2E2E2E2E2E2E2E2E2E2E2E2E2E2E2E2E2E2E2E2E2E2E2F5E2E200F5E2E2F5E2E2E2E2E2E2E2E2E2E2E2E2E2E2E2E2E2E2E2E2E2E2E2E2E2E2E2E2E2E2E2E2E2E2E2E2E2E2E2E2E2E2E2E2E2E2E2E2E2E2E2E2E2E2E2E2E2E2E2E2E2E2E2E2E2E2E2E2E2E2E2E2E2E2E2E2E2E2
310
E2E2E2E2E2E2E2E2E2E2E2E2E2E2F5E2E200F5E2E2F5E2E2E2E2E2E2E2E2E2E2E2E2E2E2E2E2E2E2E2E2E2E2E2E2E2E2E2E2E2E2E2E2E2E2E2E2E2E2E2E2E2E2E2E2E2E2E2E2E2E2E2E2E2E2E2E2E2E2E2E2E2E2E2E2E2E2E2E2E2E2E2E2E2E2E2E2E2E2E2E2E2E2E2E2E2E2E2E2E2E2E2E2F5E2E200F5E2E2F5E2E2E2E2E2
310
E2E2E2E2E2E2E2E2E2E2E2E2E2E2E2E2E2E2E2E2E2E2E2E2E2E2E2E2E2E2E2E2E2E2E2E2E2E2E2E2E2E2E2E2E2E2E2E2E2E2E2E2E2E2E2E2E2E2E2E2E2E2E2E2E2E2E2E2E2E2E2E2E2E2E2E2E2E2E2E2E2E2E2E2E2E2E2F5E2E200F5E2E2F5E2E2E2E2E2E2E2E2E2E2E2E2E2E2E2E2E2E2E2E2E2E2E2E2E2E2E2E2E2E2E2E2
310
E2E2E2E2E2E2E2E2E2E2E2E2E2E2E2E2E2E2E2E2E2E2E2E2E2E2E2E2E2E2E2E2E2E2E2E2E2E2E2E2E2E2E2E2E2E2E2E2E2E2E2E2E2E2E2E2E2E2E2E2F5E2E200F5E2E2F5E2E2E2E2E2E2E2E2E2E2E2E2E2E2E2E2E2E2E2E2E2E2E2E2E2E2E2E2E2E2E2E2E2E2E2E2E2E2E2E2E2E2E2E2E2E2E2E2E2E2E2E2E2E2E2E2E2E2E2
310
E2E2E2E2E2E2E2E2E2E2E2E2E2E2E2E2E2E2E2E2E2E2E2E2E2E2E2E2E2E2E2E2E2F5E2E200F5E2E2F5E2E2E2E2E2E2E2E2E2E2E2E2E2E2E2E2E2E2E2E2E2E2E2E2E2E2E2E2E2E2E2E2E2E2E2E2E2E2E2E2E2E2E2E2E2E2E2E2E2E2E2E2E2E2E2E2E2E2E2E2E2E2E2E2E2E2E2E2E2E2E2E2E2E2E2E2E2E2E2E2E2E2E2E2E2E2
310
E2E2E2E2E2E2F5E2E200F5E2E2E2E2E2E2E2E2E2E2E2E2E2E2E2E2E2E2E2E2E2E2E2E2E2E2E2E2E2E2E2E2E2E2E2E2E2E2E2E2E2E2E2E2E2E2E2E2E2E2E2E2E2E2E2E2E2E2E2E2E2E2E2E2E2E2E2E2E2E2E2E2E2E2E2E2E2E2E2E2E2E2E2E2E2E2E2E2E2E2E2E2E2E2E2E2E2E200F5E2E2E2E2E2E2E2E2E2E2E2E2E2E2E2E2
310
E2E2E2E2E2E2E2E2E2E2E2E2E2E2E2E2E2E2E2E2E2E2E2E2E2E2E2E2E2E2E2E2E2E2E2E2E2E2E2E2E2E2E2E2E2E2E2E2E2E2E2E2E2E2E2E2E2E2E2E2E2E2E2E2E2E2E2E2E2E2E2E2E2E2E2E2E2E2E2E2E2E200F5E2E2E2E2E2E2E2E2E2E2E2E2E2E2E2E2E2E2E2E2E2E2E2E2E2E2E2E2E2E2E2E2E2E2E2E2E2E2E2E2E2E2E2
310
E2E2E2E2E2E2E2E2E2E2E2E2E2E2E2E2E2E2E2E2E2E2E2E2E2E2E2E2E2E2E2E2E2E2E2E2E2E2E2E2E2E2E2E2E2E2E2E2E2E2E2E2E2E2E200F5E2E2E2E2E2E2E2E2E2E2E2E2E2E2E2E2E2E2E2E2E2E2E2E2E2E2E2E2E2E2E2E2E2E2E2E2E2E2E2E2E2E2E2E2E2E2E2E2E2E2E2E2E2E2E2E2E2E2E2E2E2E2E2E2E2E2E2E2E2E2
310
E2E2E2E2E2E2E2E2E2E2E2E2E2E2E2E2E2E2E2E2E2E2E2E2E2E2E2E200F5E2E2E2E2E2E2E2E2E2E2E2E2E2E2E2E2E2E2E2E2E2E2E2E2E2E2E2E2E2E2E2E2E2E2E2E2E2E2E2E2E2E2E2E2E2E2E2E2E2E2E2E2E2E2E2E2E2E2E2E2E2E2E2E2E2E2E2E2E2E2E2E2E2E2E2E2E2E2E2E2E2E2E2E2E2E2E2E2E2E2E2E2E2E2E2E2E2
310
E200F5E2E2E2E2E2E2E2E2E2E2E2E2E2E2E2E2E2E2E2E2E2E2E2E2E2E2E2E2E2E2E2E2E2E2E2E2E2E2E2E2E2E2E2E2E2E2E2E2E2E2E2E2E2E2E2E2E2E2E2E2E2E2E2E2E2E2E2E2E2E2E2E2E2E2E2E2E2E2E2E2E2E2E2E2E2E2E2E2E2E2E2E2E2E2E2E2E2E200F5E2E2E2E2E2E2E2E2E2E2E2E2E2E2E2E2E2E2E2E2E2E2E2E2
310
E2E2E2E2E2E2E2E2E2E2E2E2E2E2E2E2E2E2E2E2E2E2E2E2E2E2E2E2E2E2E2E2E2E2E2E2E2E2E2E2E2E2E2E2E2E2E2E2E2E2E2E2E2E2E2E2E2E2E2E2E2E2E2E2E2E2E2E2E2E2E2E2E2E240F5E2E2E2E2E2E2E2E2E2E2E2E2E2E2E2E2E2E2E2E2E2E2E2E2E2E2E2E2E2E2E2E2E2E2E2E2E2E2E2E2E2E2E2E2E2E2E2E2E2E2E2
310
E2E2E2E2E2E2E2E2E2E2E2E2E2E2E2E2E2E2E2E2E2E2E2E2E2E2E2E2E2E2E2E2E2E2E2E2E2E2E2E2E2E2E2E2E2E2E200F5E2E2E2E2E2E2E2E2E2E2E2E2E2E2E2E2E2E2E2E2E2E2E2E2E2E2E2E2E2E2E2E2E2E2E2E2E2E2E2E2E2E2E2E2E2E2E2E2E2E2E2E2E2E2E2E2E2E2E2E2E2E2E2E2E2E2E2E2E2E2E2E2E2E2E2E2E2E2
310
E2E2E2E2E2E2E2E2E2E2E2E2E2E2E2E2E2E2E2E200F5E2E2E2E2E2E2E2E2E2E2E2E2E2E2E2E2E2E2E2E2E2E2E2E2E2E2E2E2E2E2E2E2E2E2E2E2E2E2E2E2E2E2E2E2E2E2E2E2E2E2E2E2E2E2E2E2E2E2E2E2E2E2E2E2E2E2E2E2E2E2E2E2E2E2E2E2E2E2E2E2E2E2E2E2E2E2E2E2E2E2E2E2E2E2E2E2E2E200F5E2E2F5E2E2
310
E2E2E2E2E2E2E2E2E2E2E2E2E2E2E2E2E2E2E2E2E2E2E2E2E2E2E2E2E2E2E2E2E2E2E2E2E2E2E2E2E2E2E2E2E2E2E2E2E2E2E2E2E2E2E2E2E2E2E2E2E2E2E2E2E2E2E2E2E2E2E2E2E2E2E2E2E2E2E2E2E2E2E2E2E2E2E2E2E2E2F5E2E200F5E2E2F5E2E2E2E2E2E2E2E2E2E2E2E2E2E2E2E2E2E2E2E2E2E2E2E2E2E2E2E2E2
310
E2E2E2E2E2E2E2E2E2E2E2E2E2E2E2E2E2E2E2E2E2E2E2E2E2E2E2E2E2E2E2E2E2E2E2E2E2E2E2E2E2E2E2E2E2E2E2E2E2E2E2E2E2E2E2E2E2E2E2E2E2E2E2F5E2E200F5E2E2F5E2E2E2E2E2E2E2E2E2E2E2E2E2E2E2E2E2E2E2E2E2E2E2E2E2E2E2E2E2E2E2E2E2E2E2E2E2E2E2E2E2E2E2E2E2E2E2E2E2E2E2E2E2E2E2E2
310
E2E2E2E2E2E2E2E2E2E2E2E2E2E2E2E2E2E2E2E2E2E2E2E2E2E2E2E2E2E2E2E2E2E2E2E2F5E2E200F5E2E2F5E2E2E2E2E2E2E2E2E2E2E2E2E2E2E2E2E2E2E2E2E2E2E2E2E2E2E2E2E2E2E2E2E2E2E2E2E2E2E2E2E2E2E2E2E2E2E2E2E2E2E2E2E2E2E2E2E2E2E2E2E2E2E2E2E2E2E2E2E2E2E2E2E2E2E2E2E2E2E2E2E2E2E2
310
E2E2E2E2E2E2E2E2E2F5E2E200F5E2E2F5E2E2E2E2E2E2E2E2E2E2E2E2E2E2E2E2E2E2E2E2E2E2E2E2E2E2E2E2E2E2E2E2E2E2E2E2E2E2E2E2E2E2E2E2E2E2E2E2E2E2E2E2E2E2E2E2E2E2E2E2E2E2E2E2E2E2E2E2E2E2E2E2E2E2E2E2E2E2E2E2E2E2E2E2E2E2E2E2E2E2E2E2F5E2E294F5E2E2F5E2E2E2E2E2E2E2E2E2E2
310
E2E2E2E2E2E2E2E2E2E2E2E2E2E2E2E2E2E2E2E2E2E2E2E2E2E2E2E2E2E2E2E2E2E2E2E2E2E2E2E2E2E2E2E2E2E2E2E2E2E2E2E2E2E2E2E2E2E2E2E2E2E2E2E2E2E2E2E2E2E2E2E2E2E2E2E2E2E2E2E2E2E2F5E2E2C2F5E2E2F5E2E2E2E2E2E2E2E2E2E2E2E2E2E2E2E2E2E2E2E2E2E2E2E2E2E2E2E2E2E2E2E2E2E2E2E2E2
310
E2E2E2E2E2E2E2E2E2E2E2E2E2E2E2E2E2E2E2E2E2E2E2E2E2E2E2E2E2E2E2E2E2E2E2E2E2E2E2E2E2E2E2E2E2E2E2E2E2E2E2E2E2E2E2F5E2E240F5E2E2F5E2E2E2E2E2E2E2E2E2E2E2E2E2E2E2E2E2E2E2E2E2E2E2E2E2E2E2E2E2E2E2E2E2E2E2E2E2E2E2E2E2E2E2E2E2E2E2E2E2E2E2E2E2E2E2E2E2E2E2E2E2E2E2E2
310
E2E2E2E2E2E2E2E2E2E2E2E2E2E2E2E2E2E2E2E2E2E2E2E2E2E2E2E2F5E2E200F5E2E2F5F5F5F5F5F5F5F5E2E2E2E2E2E2E2E2F5F5F5F5F5F5F5F5F5F5F5F5F5F5F5E2E2E2E2E2E2E2E2E2F5F5F5F5F5F5F5F5F5F5F5F5F5F5E2E2E2E2E2E2E2E2E2F5F5F5F5F5F5F5F5F5F5F5F5F5F5F5E2E2E2E2E2E2E2E2F5F5F5F5F5F5
310
F5F5E2E200F5E2E2E2E2E2E2E2E2E2E2E2E2E2E2E2E2E2E2E2E2E2E2E2E2E2E2E2E2E2E2E2E2E2E2E2E2E2E2E2E2E2E2E2E2E2E2E2E2E2E2E2E2E2E2E2E2E2E2E2E2E2E2E2E2E2E2E2E2E2E2E2E2E2E2E2E2E2E2E2E2E2E2E2E2E2E2E2E2E2E2E2E2E2E2E2E2E2E200F5E2E2E2E2E2E2E2E2E2E2E2E2E2E2E2E2E2E2E2E2E2
310
E2E2E2E2E2E2E2E2E2E2E2E2E2E2E2E2E2E2E2E2E2E2E2E2E2E2E2E2E2E2E2E2E2E2E2E2E2E2E2E2E2E2E2E2E2E2E2E2E2E2E2E2E2E2E2E2E2E2E2E2E2E2E2E2E2E2E2E2E2E2E2E2E2E2E2E2E200
  0
XRECORD
  5
E63E
102
{ACAD_REACTORS
330
E5B8
102
}
330
E5B8
100
AcDbXrecord
280
     1
102
MATERIAL
148
0.0
149
0.0
149
0.0
 93
        0
 94
      127
282
     0
 72
     0
 77
     0
171
     0
175
     0
179
     0
273
     0
  0
XRECORD
  5
E5BA
102
{ACAD_REACTORS
330
E5B8
102
}
330
E5B8
100
AcDbXrecord
280
     1
270
     1
271
     1
  0
XRECORD
  5
E5B9
102
{ACAD_REACTORS
330
E5B8
102
}
330
E5B8
100
AcDbXrecord
280
     1
270
     1
271
     1
  0
XRECORD
  5
E5BD
102
{ACAD_REACTORS
330
E5B8
102
}
330
E5B8
100
AcDbXrecord
280
     1
270
     1
271
     1
  0
XRECORD
  5
E5BC
102
{ACAD_REACTORS
330
E5B8
102
}
330
E5B8
100
AcDbXrecord
280
     1
270
     1
271
     1
  0
XRECORD
  5
E5BE
102
{ACAD_REACTORS
330
E5B8
102
}
330
E5B8
100
AcDbXrecord
280
     1
270
     1
271
     1
  0
XRECORD
  5
E5BB
102
{ACAD_REACTORS
330
E5B8
102
}
330
E5B8
100
AcDbXrecord
280
     1
270
     1
271
     1
  0
XRECORD
  5
E63D
102
{ACAD_REACTORS
330
E5B0
102
}
330
E5B0
100
AcDbXrecord
280
     1
102
MATERIAL
148
0.0
149
0.0
149
0.0
 93
        0
 94
      127
282
     0
 72
     0
 77
     0
171
     0
175
     0
179
     0
273
     0
  0
XRECORD
  5
E5B2
102
{ACAD_REACTORS
330
E5B0
102
}
330
E5B0
100
AcDbXrecord
280
     1
270
     1
271
     1
  0
XRECORD
  5
E5B1
102
{ACAD_REACTORS
330
E5B0
102
}
330
E5B0
100
AcDbXrecord
280
     1
270
     1
271
     1
  0
XRECORD
  5
E5B5
102
{ACAD_REACTORS
330
E5B0
102
}
330
E5B0
100
AcDbXrecord
280
     1
270
     1
271
     1
  0
XRECORD
  5
E5B4
102
{ACAD_REACTORS
330
E5B0
102
}
330
E5B0
100
AcDbXrecord
280
     1
270
     1
271
     1
  0
XRECORD
  5
E5B6
102
{ACAD_REACTORS
330
E5B0
102
}
330
E5B0
100
AcDbXrecord
280
     1
270
     1
271
     1
  0
XRECORD
  5
E5B3
102
{ACAD_REACTORS
330
E5B0
102
}
330
E5B0
100
AcDbXrecord
280
     1
270
     1
271
     1
  0
XRECORD
  5
E63F
102
{ACAD_REACTORS
330
E5C0
102
}
330
E5C0
100
AcDbXrecord
280
     1
102
MATERIAL
148
0.0
149
0.0
149
0.0
 93
        0
 94
      127
282
     0
 72
     0
 77
     0
171
     0
175
     0
179
     0
273
     0
  0
XRECORD
  5
E5C2
102
{ACAD_REACTORS
330
E5C0
102
}
330
E5C0
100
AcDbXrecord
280
     1
270
     1
271
     1
  0
XRECORD
  5
E5C1
102
{ACAD_REACTORS
330
E5C0
102
}
330
E5C0
100
AcDbXrecord
280
     1
270
     1
271
     1
  0
XRECORD
  5
E5C5
102
{ACAD_REACTORS
330
E5C0
102
}
330
E5C0
100
AcDbXrecord
280
     1
270
     1
271
     1
  0
XRECORD
  5
E5C4
102
{ACAD_REACTORS
330
E5C0
102
}
330
E5C0
100
AcDbXrecord
280
     1
270
     1
271
     1
  0
XRECORD
  5
E5C6
102
{ACAD_REACTORS
330
E5C0
102
}
330
E5C0
100
AcDbXrecord
280
     1
270
     1
271
     1
  0
XRECORD
  5
E5C3
102
{ACAD_REACTORS
330
E5C0
102
}
330
E5C0
100
AcDbXrecord
280
     1
270
     1
271
     1
  0
CELLSTYLEMAP
  5
E636
102
{ACAD_REACTORS
330
E635
102
}
330
E635
100
AcDbCellStyleMap
 90
        3
300
CELLSTYLE
  1
TABLEFORMAT_BEGIN
 90
        5
170
     1
 91
        0
 92
    32768
 62
   257
 93
        1
300
CONTENTFORMAT
  1
CONTENTFORMAT_BEGIN
 90
        0
 91
        0
 92
      512
 93
        0
300

 40
0.0
140
1.0
 94
        5
 62
     0
340
11
144
0.25
309
CONTENTFORMAT_END
171
     0
 94
        0
309
TABLEFORMAT_END
  1
CELLSTYLE_BEGIN
 90
        1
 91
        1
300
_TITLE
309
CELLSTYLE_END
300
CELLSTYLE
  1
TABLEFORMAT_BEGIN
 90
        5
170
     1
 91
        0
 92
        0
 62
   257
 93
        1
300
CONTENTFORMAT
  1
CONTENTFORMAT_BEGIN
 90
        0
 91
        0
 92
      512
 93
        0
300

 40
0.0
140
1.0
 94
        5
 62
     0
340
11
144
0.18
309
CONTENTFORMAT_END
171
     0
 94
        0
309
TABLEFORMAT_END
  1
CELLSTYLE_BEGIN
 90
        2
 91
        1
300
_HEADER
309
CELLSTYLE_END
300
CELLSTYLE
  1
TABLEFORMAT_BEGIN
 90
        5
170
     1
 91
        0
 92
        0
 62
   257
 93
        1
300
CONTENTFORMAT
  1
CONTENTFORMAT_BEGIN
 90
        0
 91
        0
 92
      512
 93
        0
300

 40
0.0
140
1.0
 94
        2
 62
     0
340
11
144
0.18
309
CONTENTFORMAT_END
171
     0
 94
        0
309
TABLEFORMAT_END
  1
CELLSTYLE_BEGIN
 90
        3
 91
        2
300
_DATA
309
CELLSTYLE_END
  0
XRECORD
  5
E666
102
{ACAD_REACTORS
330
E635
102
}
330
E635
100
AcDbXrecord
280
     1
102
ACAD_ROUNDTRIP_PRE2007_TABLESTYLE
 90
      512
 91
        0
  1

 92
      512
 93
        0
  2

 94
      512
 95
        0
  3

  0
XRECORD
  5
E64B
102
{ACAD_REACTORS
330
E64A
102
}
330
E64A
100
AcDbXrecord
280
     1
102
RTVSPropertyOp0
 70
     1
102
RTVSPropertyOp1
 70
     1
102
RTVSPropertyOp2
 70
     1
102
RTVSPropertyOp3
 70
     1
102
RTVSPropertyOp4
 70
     1
102
RTVSPropertyOp5
 70
     1
102
RTVSPropertyOp6
 70
     1
102
RTVSPropertyOp7
 70
     1
102
RTVSPropertyOp8
 70
     1
102
RTVSPropertyOp9
 70
     1
102
RTVSPropertyOp10
 70
     1
102
RTVSPropertyOp11
 70
     1
102
RTVSPropertyOp12
 70
     1
102
RTVSPropertyOp13
 70
     1
102
RTVSPropertyOp14
 70
     1
102
RTVSPropertyOp15
 70
     1
102
RTVSPropertyOp16
 70
     1
102
RTVSPropertyOp17
 70
     1
102
RTVSPropertyOp18
 70
     1
102
RTVSPropertyOp19
 70
     1
102
RTVSPropertyOp20
 70
     1
102
RTVSPropertyOp21
 70
     1
102
RTVSPropertyOp22
 70
     1
102
RTVSPropertyOp23
 70
     1
102
RTVSPropertyOp24
 70
     1
102
RTVSPropertyOp25
 70
     1
102
RTVSPropertyOp26
 70
     1
102
RTVSPropertyOp27
 70
     1
  0
XRECORD
  5
E64F
102
{ACAD_REACTORS
330
E64E
102
}
330
E64E
100
AcDbXrecord
280
     1
102
RTVSPropertyOp0
 70
     1
102
RTVSPropertyOp1
 70
     1
102
RTVSPropertyOp2
 70
     1
102
RTVSPropertyOp3
 70
     1
102
RTVSPropertyOp4
 70
     1
102
RTVSPropertyOp5
 70
     1
102
RTVSPropertyOp6
 70
     1
102
RTVSPropertyOp7
 70
     1
102
RTVSPropertyOp8
 70
     1
102
RTVSPropertyOp9
 70
     1
102
RTVSPropertyOp10
 70
     1
102
RTVSPropertyOp11
 70
     1
102
RTVSPropertyOp12
 70
     1
102
RTVSPropertyOp13
 70
     1
102
RTVSPropertyOp14
 70
     1
102
RTVSPropertyOp15
 70
     1
102
RTVSPropertyOp16
 70
     1
102
RTVSPropertyOp17
 70
     1
102
RTVSPropertyOp18
 70
     1
102
RTVSPropertyOp19
 70
     1
102
RTVSPropertyOp20
 70
     1
102
RTVSPropertyOp21
 70
     1
102
RTVSPropertyOp22
 70
     1
102
RTVSPropertyOp23
 70
     1
102
RTVSPropertyOp24
 70
     1
102
RTVSPropertyOp25
 70
     1
102
RTVSPropertyOp26
 70
     1
102
RTVSPropertyOp27
 70
     1
  0
XRECORD
  5
E64D
102
{ACAD_REACTORS
330
E64C
102
}
330
E64C
100
AcDbXrecord
280
     1
102
RTVSPropertyOp0
 70
     1
102
RTVSPropertyOp1
 70
     1
102
RTVSPropertyOp2
 70
     1
102
RTVSPropertyOp3
 70
     1
102
RTVSPropertyOp4
 70
     1
102
RTVSPropertyOp5
 70
     1
102
RTVSPropertyOp6
 70
     1
102
RTVSPropertyOp7
 70
     1
102
RTVSPropertyOp8
 70
     1
102
RTVSPropertyOp9
 70
     1
102
RTVSPropertyOp10
 70
     1
102
RTVSPropertyOp11
 70
     1
102
RTVSPropertyOp12
 70
     1
102
RTVSPropertyOp13
 70
     1
102
RTVSPropertyOp14
 70
     1
102
RTVSPropertyOp15
 70
     1
102
RTVSPropertyOp16
 70
     1
102
RTVSPropertyOp17
 70
     1
102
RTVSPropertyOp18
 70
     1
102
RTVSPropertyOp19
 70
     1
102
RTVSPropertyOp20
 70
     1
102
RTVSPropertyOp21
 70
     1
102
RTVSPropertyOp22
 70
     1
102
RTVSPropertyOp23
 70
     1
102
RTVSPropertyOp24
 70
     1
102
RTVSPropertyOp25
 70
     1
102
RTVSPropertyOp26
 70
     1
102
RTVSPropertyOp27
 70
     1
  0
XRECORD
  5
E649
102
{ACAD_REACTORS
330
E648
102
}
330
E648
100
AcDbXrecord
280
     1
102
RTVSPropertyOp0
 70
     1
102
RTVSPropertyOp1
 70
     1
102
RTVSPropertyOp2
 70
     1
102
RTVSPropertyOp3
 70
     1
102
RTVSPropertyOp4
 70
     1
102
RTVSPropertyOp5
 70
     1
102
RTVSPropertyOp6
 70
     1
102
RTVSPropertyOp7
 70
     1
102
RTVSPropertyOp8
 70
     1
102
RTVSPropertyOp9
 70
     1
102
RTVSPropertyOp10
 70
     1
102
RTVSPropertyOp11
 70
     1
102
RTVSPropertyOp12
 70
     1
102
RTVSPropertyOp13
 70
     1
102
RTVSPropertyOp14
 70
     1
102
RTVSPropertyOp15
 70
     1
102
RTVSPropertyOp16
 70
     1
102
RTVSPropertyOp17
 70
     1
102
RTVSPropertyOp18
 70
     1
102
RTVSPropertyOp19
 70
     1
102
RTVSPropertyOp20
 70
     1
102
RTVSPropertyOp21
 70
     1
102
RTVSPropertyOp22
 70
     1
102
RTVSPropertyOp23
 70
     1
102
RTVSPropertyOp24
 70
     1
102
RTVSPropertyOp25
 70
     1
102
RTVSPropertyOp26
 70
     1
102
RTVSPropertyOp27
 70
     1
  0
XRECORD
  5
E657
102
{ACAD_REACTORS
330
E656
102
}
330
E656
100
AcDbXrecord
280
     1
102
RTVSPropertyOp0
 70
     1
102
RTVSPropertyOp1
 70
     1
102
RTVSPropertyOp2
 70
     1
102
RTVSPropertyOp3
 70
     1
102
RTVSPropertyOp4
 70
     1
102
RTVSPropertyOp5
 70
     1
102
RTVSPropertyOp6
 70
     1
102
RTVSPropertyOp7
 70
     1
102
RTVSPropertyOp8
 70
     1
102
RTVSPropertyOp9
 70
     1
102
RTVSPropertyOp10
 70
     1
102
RTVSPropertyOp11
 70
     1
102
RTVSPropertyOp12
 70
     1
102
RTVSPropertyOp13
 70
     1
102
RTVSPropertyOp14
 70
     1
102
RTVSPropertyOp15
 70
     1
102
RTVSPropertyOp16
 70
     1
102
RTVSPropertyOp17
 70
     1
102
RTVSPropertyOp18
 70
     1
102
RTVSPropertyOp19
 70
     1
102
RTVSPropertyOp20
 70
     1
102
RTVSPropertyOp21
 70
     1
102
RTVSPropertyOp22
 70
     1
102
RTVSPropertyOp23
 70
     1
102
RTVSPropertyOp24
 70
     1
102
RTVSPropertyOp25
 70
     1
102
RTVSPropertyOp26
 70
     1
102
RTVSPropertyOp27
 70
     1
  0
XRECORD
  5
E65F
102
{ACAD_REACTORS
330
E65E
102
}
330
E65E
100
AcDbXrecord
280
     1
102
RTVSPropertyOp0
 70
     1
102
RTVSPropertyOp1
 70
     1
102
RTVSPropertyOp2
 70
     1
102
RTVSPropertyOp3
 70
     1
102
RTVSPropertyOp4
 70
     1
102
RTVSPropertyOp5
 70
     1
102
RTVSPropertyOp6
 70
     1
102
RTVSPropertyOp7
 70
     1
102
RTVSPropertyOp8
 70
     1
102
RTVSPropertyOp9
 70
     1
102
RTVSPropertyOp10
 70
     1
102
RTVSPropertyOp11
 70
     1
102
RTVSPropertyOp12
 70
     1
102
RTVSPropertyOp13
 70
     1
102
RTVSPropertyOp14
 70
     1
102
RTVSPropertyOp15
 70
     1
102
RTVSPropertyOp16
 70
     1
102
RTVSPropertyOp17
 70
     1
102
RTVSPropertyOp18
 70
     1
102
RTVSPropertyOp19
 70
     1
102
RTVSPropertyOp20
 70
     1
102
RTVSPropertyOp21
 70
     1
102
RTVSPropertyOp22
 70
     1
102
RTVSPropertyOp23
 70
     1
102
RTVSPropertyOp24
 70
     1
102
RTVSPropertyOp25
 70
     1
102
RTVSPropertyOp26
 70
     1
102
RTVSPropertyOp27
 70
     1
  0
XRECORD
  5
E651
102
{ACAD_REACTORS
330
E650
102
}
330
E650
100
AcDbXrecord
280
     1
102
RTVSPropertyOp0
 70
     1
102
RTVSPropertyOp1
 70
     1
102
RTVSPropertyOp2
 70
     1
102
RTVSPropertyOp3
 70
     1
102
RTVSPropertyOp4
 70
     1
102
RTVSPropertyOp5
 70
     1
102
RTVSPropertyOp6
 70
     1
102
RTVSPropertyOp7
 70
     1
102
RTVSPropertyOp8
 70
     1
102
RTVSPropertyOp9
 70
     1
102
RTVSPropertyOp10
 70
     1
102
RTVSPropertyOp11
 70
     1
102
RTVSPropertyOp12
 70
     1
102
RTVSPropertyOp13
 70
     1
102
RTVSPropertyOp14
 70
     1
102
RTVSPropertyOp15
 70
     1
102
RTVSPropertyOp16
 70
     1
102
RTVSPropertyOp17
 70
     1
102
RTVSPropertyOp18
 70
     1
102
RTVSPropertyOp19
 70
     1
102
RTVSPropertyOp20
 70
     1
102
RTVSPropertyOp21
 70
     1
102
RTVSPropertyOp22
 70
     1
102
RTVSPropertyOp23
 70
     1
102
RTVSPropertyOp24
 70
     1
102
RTVSPropertyOp25
 70
     1
102
RTVSPropertyOp26
 70
     1
102
RTVSPropertyOp27
 70
     1
  0
XRECORD
  5
E655
102
{ACAD_REACTORS
330
E654
102
}
330
E654
100
AcDbXrecord
280
     1
102
RTVSPropertyOp0
 70
     1
102
RTVSPropertyOp1
 70
     1
102
RTVSPropertyOp2
 70
     1
102
RTVSPropertyOp3
 70
     1
102
RTVSPropertyOp4
 70
     1
102
RTVSPropertyOp5
 70
     1
102
RTVSPropertyOp6
 70
     1
102
RTVSPropertyOp7
 70
     1
102
RTVSPropertyOp8
 70
     1
102
RTVSPropertyOp9
 70
     1
102
RTVSPropertyOp10
 70
     1
102
RTVSPropertyOp11
 70
     1
102
RTVSPropertyOp12
 70
     1
102
RTVSPropertyOp13
 70
     1
102
RTVSPropertyOp14
 70
     1
102
RTVSPropertyOp15
 70
     1
102
RTVSPropertyOp16
 70
     1
102
RTVSPropertyOp17
 70
     1
102
RTVSPropertyOp18
 70
     1
102
RTVSPropertyOp19
 70
     1
102
RTVSPropertyOp20
 70
     1
102
RTVSPropertyOp21
 70
     1
102
RTVSPropertyOp22
 70
     1
102
RTVSPropertyOp23
 70
     1
102
RTVSPropertyOp24
 70
     1
102
RTVSPropertyOp25
 70
     1
102
RTVSPropertyOp26
 70
     1
102
RTVSPropertyOp27
 70
     1
  0
XRECORD
  5
E665
102
{ACAD_REACTORS
330
E664
102
}
330
E664
100
AcDbXrecord
280
     1
102
RTVSPropertyOp0
 70
     0
102
RTVSPropertyOp1
 70
     0
102
RTVSPropertyOp2
 70
     0
102
RTVSPropertyOp3
 70
     0
102
RTVSPropertyOp4
 70
     0
102
RTVSPropertyOp5
 70
     0
102
RTVSPropertyOp6
 70
     0
102
RTVSPropertyOp7
 70
     0
102
RTVSPropertyOp8
 70
     0
102
RTVSPropertyOp9
 70
     0
102
RTVSPropertyOp10
 70
     0
102
RTVSPropertyOp11
 70
     0
102
RTVSPropertyOp12
 70
     0
102
RTVSPropertyOp13
 70
     0
102
RTVSPropertyOp14
 70
     2
102
RTVSPropertyOp15
 70
     0
102
RTVSPropertyOp16
 70
     0
102
RTVSPropertyOp17
 70
     0
102
RTVSPropertyOp18
 70
     0
102
RTVSPropertyOp19
 70
     0
102
RTVSPropertyOp20
 70
     0
102
RTVSPropertyOp21
 70
     0
102
RTVSPropertyOp22
 70
     0
102
RTVSPropertyOp23
 70
     0
102
RTVSPropertyOp24
 70
     0
102
RTVSPropertyOp25
 70
     0
102
RTVSPropertyOp26
 70
     0
102
RTVSPropertyOp27
 70
     0
  0
XRECORD
  5
E65D
102
{ACAD_REACTORS
330
E65C
102
}
330
E65C
100
AcDbXrecord
280
     1
102
RTVSPropertyOp0
 70
     1
102
RTVSPropertyOp1
 70
     1
102
RTVSPropertyOp2
 70
     1
102
RTVSPropertyOp3
 70
     1
102
RTVSPropertyOp4
 70
     1
102
RTVSPropertyOp5
 70
     1
102
RTVSPropertyOp6
 70
     1
102
RTVSPropertyOp7
 70
     1
102
RTVSPropertyOp8
 70
     1
102
RTVSPropertyOp9
 70
     1
102
RTVSPropertyOp10
 70
     1
102
RTVSPropertyOp11
 70
     1
102
RTVSPropertyOp12
 70
     1
102
RTVSPropertyOp13
 70
     1
102
RTVSPropertyOp14
 70
     1
102
RTVSPropertyOp15
 70
     1
102
RTVSPropertyOp16
 70
     1
102
RTVSPropertyOp17
 70
     1
102
RTVSPropertyOp18
 70
     1
102
RTVSPropertyOp19
 70
     1
102
RTVSPropertyOp20
 70
     1
102
RTVSPropertyOp21
 70
     1
102
RTVSPropertyOp22
 70
     1
102
RTVSPropertyOp23
 70
     1
102
RTVSPropertyOp24
 70
     1
102
RTVSPropertyOp25
 70
     1
102
RTVSPropertyOp26
 70
     1
102
RTVSPropertyOp27
 70
     1
  0
XRECORD
  5
E641
102
{ACAD_REACTORS
330
E640
102
}
330
E640
100
AcDbXrecord
280
     1
102
RTVSPropertyOp0
 70
     1
102
RTVSPropertyOp1
 70
     1
102
RTVSPropertyOp2
 70
     1
102
RTVSPropertyOp3
 70
     1
102
RTVSPropertyOp4
 70
     1
102
RTVSPropertyOp5
 70
     1
102
RTVSPropertyOp6
 70
     1
102
RTVSPropertyOp7
 70
     1
102
RTVSPropertyOp8
 70
     1
102
RTVSPropertyOp9
 70
     1
102
RTVSPropertyOp10
 70
     1
102
RTVSPropertyOp11
 70
     1
102
RTVSPropertyOp12
 70
     1
102
RTVSPropertyOp13
 70
     1
102
RTVSPropertyOp14
 70
     1
102
RTVSPropertyOp15
 70
     1
102
RTVSPropertyOp16
 70
     1
102
RTVSPropertyOp17
 70
     1
102
RTVSPropertyOp18
 70
     1
102
RTVSPropertyOp19
 70
     1
102
RTVSPropertyOp20
 70
     1
102
RTVSPropertyOp21
 70
     1
102
RTVSPropertyOp22
 70
     1
102
RTVSPropertyOp23
 70
     1
102
RTVSPropertyOp24
 70
     1
102
RTVSPropertyOp25
 70
     1
102
RTVSPropertyOp26
 70
     1
102
RTVSPropertyOp27
 70
     1
  0
XRECORD
  5
E643
102
{ACAD_REACTORS
330
E642
102
}
330
E642
100
AcDbXrecord
280
     1
102
RTVSPropertyOp0
 70
     1
102
RTVSPropertyOp1
 70
     1
102
RTVSPropertyOp2
 70
     1
102
RTVSPropertyOp3
 70
     1
102
RTVSPropertyOp4
 70
     1
102
RTVSPropertyOp5
 70
     1
102
RTVSPropertyOp6
 70
     1
102
RTVSPropertyOp7
 70
     1
102
RTVSPropertyOp8
 70
     1
102
RTVSPropertyOp9
 70
     1
102
RTVSPropertyOp10
 70
     1
102
RTVSPropertyOp11
 70
     1
102
RTVSPropertyOp12
 70
     1
102
RTVSPropertyOp13
 70
     1
102
RTVSPropertyOp14
 70
     1
102
RTVSPropertyOp15
 70
     1
102
RTVSPropertyOp16
 70
     1
102
RTVSPropertyOp17
 70
     1
102
RTVSPropertyOp18
 70
     1
102
RTVSPropertyOp19
 70
     1
102
RTVSPropertyOp20
 70
     1
102
RTVSPropertyOp21
 70
     1
102
RTVSPropertyOp22
 70
     1
102
RTVSPropertyOp23
 70
     1
102
RTVSPropertyOp24
 70
     1
102
RTVSPropertyOp25
 70
     1
102
RTVSPropertyOp26
 70
     1
102
RTVSPropertyOp27
 70
     1
  0
XRECORD
  5
E645
102
{ACAD_REACTORS
330
E644
102
}
330
E644
100
AcDbXrecord
280
     1
102
RTVSPropertyOp0
 70
     1
102
RTVSPropertyOp1
 70
     1
102
RTVSPropertyOp2
 70
     1
102
RTVSPropertyOp3
 70
     1
102
RTVSPropertyOp4
 70
     1
102
RTVSPropertyOp5
 70
     1
102
RTVSPropertyOp6
 70
     1
102
RTVSPropertyOp7
 70
     1
102
RTVSPropertyOp8
 70
     1
102
RTVSPropertyOp9
 70
     1
102
RTVSPropertyOp10
 70
     1
102
RTVSPropertyOp11
 70
     1
102
RTVSPropertyOp12
 70
     1
102
RTVSPropertyOp13
 70
     1
102
RTVSPropertyOp14
 70
     1
102
RTVSPropertyOp15
 70
     1
102
RTVSPropertyOp16
 70
     1
102
RTVSPropertyOp17
 70
     1
102
RTVSPropertyOp18
 70
     1
102
RTVSPropertyOp19
 70
     1
102
RTVSPropertyOp20
 70
     1
102
RTVSPropertyOp21
 70
     1
102
RTVSPropertyOp22
 70
     1
102
RTVSPropertyOp23
 70
     1
102
RTVSPropertyOp24
 70
     1
102
RTVSPropertyOp25
 70
     1
102
RTVSPropertyOp26
 70
     1
102
RTVSPropertyOp27
 70
     1
  0
XRECORD
  5
E647
102
{ACAD_REACTORS
330
E646
102
}
330
E646
100
AcDbXrecord
280
     1
102
RTVSPropertyOp0
 70
     1
102
RTVSPropertyOp1
 70
     1
102
RTVSPropertyOp2
 70
     1
102
RTVSPropertyOp3
 70
     1
102
RTVSPropertyOp4
 70
     1
102
RTVSPropertyOp5
 70
     1
102
RTVSPropertyOp6
 70
     1
102
RTVSPropertyOp7
 70
     1
102
RTVSPropertyOp8
 70
     1
102
RTVSPropertyOp9
 70
     1
102
RTVSPropertyOp10
 70
     1
102
RTVSPropertyOp11
 70
     1
102
RTVSPropertyOp12
 70
     1
102
RTVSPropertyOp13
 70
     1
102
RTVSPropertyOp14
 70
     1
102
RTVSPropertyOp15
 70
     1
102
RTVSPropertyOp16
 70
     1
102
RTVSPropertyOp17
 70
     1
102
RTVSPropertyOp18
 70
     1
102
RTVSPropertyOp19
 70
     1
102
RTVSPropertyOp20
 70
     1
102
RTVSPropertyOp21
 70
     1
102
RTVSPropertyOp22
 70
     1
102
RTVSPropertyOp23
 70
     1
102
RTVSPropertyOp24
 70
     1
102
RTVSPropertyOp25
 70
     1
102
RTVSPropertyOp26
 70
     1
102
RTVSPropertyOp27
 70
     1
  0
XRECORD
  5
E661
102
{ACAD_REACTORS
330
E660
102
}
330
E660
100
AcDbXrecord
280
     1
102
RTVSPropertyOp0
 70
     0
102
RTVSPropertyOp1
 70
     0
102
RTVSPropertyOp2
 70
     0
102
RTVSPropertyOp3
 70
     0
102
RTVSPropertyOp4
 70
     0
102
RTVSPropertyOp5
 70
     0
102
RTVSPropertyOp6
 70
     0
102
RTVSPropertyOp7
 70
     0
102
RTVSPropertyOp8
 70
     0
102
RTVSPropertyOp9
 70
     0
102
RTVSPropertyOp10
 70
     0
102
RTVSPropertyOp11
 70
     0
102
RTVSPropertyOp12
 70
     0
102
RTVSPropertyOp13
 70
     0
102
RTVSPropertyOp14
 70
     2
102
RTVSPropertyOp15
 70
     0
102
RTVSPropertyOp16
 70
     0
102
RTVSPropertyOp17
 70
     0
102
RTVSPropertyOp18
 70
     0
102
RTVSPropertyOp19
 70
     0
102
RTVSPropertyOp20
 70
     0
102
RTVSPropertyOp21
 70
     0
102
RTVSPropertyOp22
 70
     0
102
RTVSPropertyOp23
 70
     0
102
RTVSPropertyOp24
 70
     0
102
RTVSPropertyOp25
 70
     0
102
RTVSPropertyOp26
 70
     0
102
RTVSPropertyOp27
 70
     0
  0
XRECORD
  5
E65B
102
{ACAD_REACTORS
330
E65A
102
}
330
E65A
100
AcDbXrecord
280
     1
102
RTVSPropertyOp0
 70
     1
102
RTVSPropertyOp1
 70
     1
102
RTVSPropertyOp2
 70
     1
102
RTVSPropertyOp3
 70
     1
102
RTVSPropertyOp4
 70
     1
102
RTVSPropertyOp5
 70
     1
102
RTVSPropertyOp6
 70
     1
102
RTVSPropertyOp7
 70
     1
102
RTVSPropertyOp8
 70
     1
102
RTVSPropertyOp9
 70
     1
102
RTVSPropertyOp10
 70
     1
102
RTVSPropertyOp11
 70
     1
102
RTVSPropertyOp12
 70
     1
102
RTVSPropertyOp13
 70
     1
102
RTVSPropertyOp14
 70
     1
102
RTVSPropertyOp15
 70
     1
102
RTVSPropertyOp16
 70
     1
102
RTVSPropertyOp17
 70
     1
102
RTVSPropertyOp18
 70
     1
102
RTVSPropertyOp19
 70
     1
102
RTVSPropertyOp20
 70
     1
102
RTVSPropertyOp21
 70
     1
102
RTVSPropertyOp22
 70
     1
102
RTVSPropertyOp23
 70
     1
102
RTVSPropertyOp24
 70
     1
102
RTVSPropertyOp25
 70
     1
102
RTVSPropertyOp26
 70
     1
102
RTVSPropertyOp27
 70
     1
  0
XRECORD
  5
E663
102
{ACAD_REACTORS
330
E662
102
}
330
E662
100
AcDbXrecord
280
     1
102
RTVSPropertyOp0
 70
     0
102
RTVSPropertyOp1
 70
     0
102
RTVSPropertyOp2
 70
     0
102
RTVSPropertyOp3
 70
     0
102
RTVSPropertyOp4
 70
     0
102
RTVSPropertyOp5
 70
     0
102
RTVSPropertyOp6
 70
     0
102
RTVSPropertyOp7
 70
     0
102
RTVSPropertyOp8
 70
     0
102
RTVSPropertyOp9
 70
     0
102
RTVSPropertyOp10
 70
     0
102
RTVSPropertyOp11
 70
     0
102
RTVSPropertyOp12
 70
     0
102
RTVSPropertyOp13
 70
     0
102
RTVSPropertyOp14
 70
     2
102
RTVSPropertyOp15
 70
     0
102
RTVSPropertyOp16
 70
     0
102
RTVSPropertyOp17
 70
     0
102
RTVSPropertyOp18
 70
     0
102
RTVSPropertyOp19
 70
     0
102
RTVSPropertyOp20
 70
     0
102
RTVSPropertyOp21
 70
     0
102
RTVSPropertyOp22
 70
     0
102
RTVSPropertyOp23
 70
     0
102
RTVSPropertyOp24
 70
     0
102
RTVSPropertyOp25
 70
     0
102
RTVSPropertyOp26
 70
     0
102
RTVSPropertyOp27
 70
     0
  0
XRECORD
  5
E653
102
{ACAD_REACTORS
330
E652
102
}
330
E652
100
AcDbXrecord
280
     1
102
RTVSPropertyOp0
 70
     1
102
RTVSPropertyOp1
 70
     1
102
RTVSPropertyOp2
 70
     1
102
RTVSPropertyOp3
 70
     1
102
RTVSPropertyOp4
 70
     1
102
RTVSPropertyOp5
 70
     1
102
RTVSPropertyOp6
 70
     1
102
RTVSPropertyOp7
 70
     1
102
RTVSPropertyOp8
 70
     1
102
RTVSPropertyOp9
 70
     1
102
RTVSPropertyOp10
 70
     1
102
RTVSPropertyOp11
 70
     1
102
RTVSPropertyOp12
 70
     1
102
RTVSPropertyOp13
 70
     1
102
RTVSPropertyOp14
 70
     1
102
RTVSPropertyOp15
 70
     1
102
RTVSPropertyOp16
 70
     1
102
RTVSPropertyOp17
 70
     1
102
RTVSPropertyOp18
 70
     1
102
RTVSPropertyOp19
 70
     1
102
RTVSPropertyOp20
 70
     1
102
RTVSPropertyOp21
 70
     1
102
RTVSPropertyOp22
 70
     1
102
RTVSPropertyOp23
 70
     1
102
RTVSPropertyOp24
 70
     1
102
RTVSPropertyOp25
 70
     1
102
RTVSPropertyOp26
 70
     1
102
RTVSPropertyOp27
 70
     1
  0
XRECORD
  5
E659
102
{ACAD_REACTORS
330
E658
102
}
330
E658
100
AcDbXrecord
280
     1
102
RTVSPropertyOp0
 70
     1
102
RTVSPropertyOp1
 70
     1
102
RTVSPropertyOp2
 70
     1
102
RTVSPropertyOp3
 70
     1
102
RTVSPropertyOp4
 70
     1
102
RTVSPropertyOp5
 70
     1
102
RTVSPropertyOp6
 70
     1
102
RTVSPropertyOp7
 70
     1
102
RTVSPropertyOp8
 70
     1
102
RTVSPropertyOp9
 70
     1
102
RTVSPropertyOp10
 70
     1
102
RTVSPropertyOp11
 70
     1
102
RTVSPropertyOp12
 70
     1
102
RTVSPropertyOp13
 70
     1
102
RTVSPropertyOp14
 70
     1
102
RTVSPropertyOp15
 70
     1
102
RTVSPropertyOp16
 70
     1
102
RTVSPropertyOp17
 70
     1
102
RTVSPropertyOp18
 70
     1
102
RTVSPropertyOp19
 70
     1
102
RTVSPropertyOp20
 70
     1
102
RTVSPropertyOp21
 70
     1
102
RTVSPropertyOp22
 70
     1
102
RTVSPropertyOp23
 70
     1
102
RTVSPropertyOp24
 70
     1
102
RTVSPropertyOp25
 70
     1
102
RTVSPropertyOp26
 70
     1
102
RTVSPropertyOp27
 70
     1
  0
ENDSEC
  0
EOF
