  0
SECTION
  2
HEADER
  9
$ACADVER
  1
AC1015
  9
$ACADMAINTVER
 70
    20
  9
$DWGCODEPAGE
  3
ANSI_932
  9
$INSBASE
 10
0.0
 20
0.0
 30
0.0
  9
$EXTMIN
 10
-1546.0
 20
-358.7584635241903
 30
-0.0000000000000136
  9
$EXTMAX
 10
2621.04102329482
 20
1475.901372868
 30
0.0
  9
$LIMMIN
 10
-1981.0
 20
-1245.0
  9
$LIMMAX
 10
2725.0
 20
1972.0
  9
$ORTHOMODE
 70
     1
  9
$REGENMODE
 70
     1
  9
$FILLMODE
 70
     1
  9
$QTEXTMODE
 70
     0
  9
$MIRRTEXT
 70
     1
  9
$LTSCALE
 40
30.0
  9
$ATTMODE
 70
     1
  9
$TEXTSIZE
 40
2.0
  9
$TRACEWID
 40
0.05
  9
$TEXTSTYLE
  7
Standard
  9
$CLAYER
  8
30
  9
$CELTYPE
  6
ByLayer
  9
$CECOLOR
 62
   256
  9
$CELTSCALE
 40
1.0
  9
$DISPSILH
 70
     0
  9
$DIMSCALE
 40
1.0
  9
$DIMASZ
 40
5.0
  9
$DIMEXO
 40
10.0
  9
$DIMDLI
 40
0.5
  9
$DIMRND
 40
0.0
  9
$DIMDLE
 40
0.0
  9
$DIMEXE
 40
1.0
  9
$DIMTP
 40
0.0
  9
$DIMTM
 40
0.0
  9
$DIMTXT
 40
10.0
  9
$DIMCEN
 40
0.09
  9
$DIMTSZ
 40
0.0
  9
$DIMTOL
 70
     0
  9
$DIMLIM
 70
     0
  9
$DIMTIH
 70
     0
  9
$DIMTOH
 70
     0
  9
$DIMSE1
 70
     0
  9
$DIMSE2
 70
     0
  9
$DIMTAD
 70
     3
  9
$DIMZIN
 70
    12
  9
$DIMBLK
  1
Open
  9
$DIMASO
 70
     1
  9
$DIMSHO
 70
     1
  9
$DIMPOST
  1

  9
$DIMAPOST
  1

  9
$DIMALT
 70
     0
  9
$DIMALTD
 70
     2
  9
$DIMALTF
 40
25.4
  9
$DIMLFAC
 40
1.0
  9
$DIMTOFL
 70
     1
  9
$DIMTVP
 40
0.0
  9
$DIMTIX
 70
     1
  9
$DIMSOXD
 70
     1
  9
$DIMSAH
 70
     0
  9
$DIMBLK1
  1

  9
$DIMBLK2
  1

  9
$DIMSTYLE
  2
Standard
  9
$DIMCLRD
 70
     0
  9
$DIMCLRE
 70
     0
  9
$DIMCLRT
 70
     0
  9
$DIMTFAC
 40
1.0
  9
$DIMGAP
 40
3.0
  9
$DIMJUST
 70
     0
  9
$DIMSD1
 70
     0
  9
$DIMSD2
 70
     0
  9
$DIMTOLJ
 70
     1
  9
$DIMTZIN
 70
     0
  9
$DIMALTZ
 70
     0
  9
$DIMALTTZ
 70
     0
  9
$DIMUPT
 70
     0
  9
$DIMDEC
 70
     1
  9
$DIMTDEC
 70
     1
  9
$DIMALTU
 70
     2
  9
$DIMALTTD
 70
     2
  9
$DIMTXSTY
  7
Standard
  9
$DIMAUNIT
 70
     0
  9
$DIMADEC
 70
     0
  9
$DIMALTRND
 40
0.0
  9
$DIMAZIN
 70
     3
  9
$DIMDSEP
 70
    46
  9
$DIMATFIT
 70
     3
  9
$DIMFRAC
 70
     0
  9
$DIMLDRBLK
  1
Open
  9
$DIMLUNIT
 70
     2
  9
$DIMLWD
 70
    -2
  9
$DIMLWE
 70
    -2
  9
$DIMTMOVE
 70
     1
  9
$LUNITS
 70
     2
  9
$LUPREC
 70
     5
  9
$SKETCHINC
 40
0.1
  9
$FILLETRAD
 40
0.0
  9
$AUNITS
 70
     0
  9
$AUPREC
 70
     0
  9
$MENU
  1
.
  9
$ELEVATION
 40
0.0
  9
$PELEVATION
 40
0.0
  9
$THICKNESS
 40
0.0
  9
$LIMCHECK
 70
     0
  9
$CHAMFERA
 40
0.0
  9
$CHAMFERB
 40
0.0
  9
$CHAMFERC
 40
0.0
  9
$CHAMFERD
 40
0.0
  9
$SKPOLY
 70
     0
  9
$TDCREATE
 40
2452286.555658658
  9
$TDUCREATE
 40
2452286.180658658
  9
$TDUPDATE
 40
2456974.368269734
  9
$TDUUPDATE
 40
2456973.993269734
  9
$TDINDWG
 40
1.9754973032
  9
$TDUSRTIMER
 40
1.9754971181
  9
$USRTIMER
 70
     1
  9
$ANGBASE
 50
0.0
  9
$ANGDIR
 70
     0
  9
$PDMODE
 70
     0
  9
$PDSIZE
 40
0.0
  9
$PLINEWID
 40
0.0
  9
$SPLFRAME
 70
     0
  9
$SPLINETYPE
 70
     6
  9
$SPLINESEGS
 70
     8
  9
$HANDSEED
  5
C67A
  9
$SURFTAB1
 70
     6
  9
$SURFTAB2
 70
     6
  9
$SURFTYPE
 70
     6
  9
$SURFU
 70
     6
  9
$SURFV
 70
     6
  9
$UCSBASE
  2

  9
$UCSNAME
  2

  9
$UCSORG
 10
0.0
 20
0.0
 30
0.0
  9
$UCSXDIR
 10
1.0
 20
0.0
 30
0.0
  9
$UCSYDIR
 10
0.0
 20
1.0
 30
0.0
  9
$UCSORTHOREF
  2

  9
$UCSORTHOVIEW
 70
     0
  9
$UCSORGTOP
 10
0.0
 20
0.0
 30
0.0
  9
$UCSORGBOTTOM
 10
0.0
 20
0.0
 30
0.0
  9
$UCSORGLEFT
 10
0.0
 20
0.0
 30
0.0
  9
$UCSORGRIGHT
 10
0.0
 20
0.0
 30
0.0
  9
$UCSORGFRONT
 10
0.0
 20
0.0
 30
0.0
  9
$UCSORGBACK
 10
0.0
 20
0.0
 30
0.0
  9
$PUCSBASE
  2

  9
$PUCSNAME
  2

  9
$PUCSORG
 10
0.0
 20
0.0
 30
0.0
  9
$PUCSXDIR
 10
1.0
 20
0.0
 30
0.0
  9
$PUCSYDIR
 10
0.0
 20
1.0
 30
0.0
  9
$PUCSORTHOREF
  2

  9
$PUCSORTHOVIEW
 70
     0
  9
$PUCSORGTOP
 10
0.0
 20
0.0
 30
0.0
  9
$PUCSORGBOTTOM
 10
0.0
 20
0.0
 30
0.0
  9
$PUCSORGLEFT
 10
0.0
 20
0.0
 30
0.0
  9
$PUCSORGRIGHT
 10
0.0
 20
0.0
 30
0.0
  9
$PUCSORGFRONT
 10
0.0
 20
0.0
 30
0.0
  9
$PUCSORGBACK
 10
0.0
 20
0.0
 30
0.0
  9
$USERI1
 70
     0
  9
$USERI2
 70
     0
  9
$USERI3
 70
     0
  9
$USERI4
 70
     0
  9
$USERI5
 70
     0
  9
$USERR1
 40
0.0
  9
$USERR2
 40
0.0
  9
$USERR3
 40
0.0
  9
$USERR4
 40
0.0
  9
$USERR5
 40
0.0
  9
$WORLDVIEW
 70
     1
  9
$SHADEDGE
 70
     3
  9
$SHADEDIF
 70
    70
  9
$TILEMODE
 70
     1
  9
$MAXACTVP
 70
    48
  9
$PINSBASE
 10
0.0
 20
0.0
 30
0.0
  9
$PLIMCHECK
 70
     0
  9
$PEXTMIN
 10
1.000000000000000E+20
 20
1.000000000000000E+20
 30
1.000000000000000E+20
  9
$PEXTMAX
 10
-1.000000000000000E+20
 20
-1.000000000000000E+20
 30
-1.000000000000000E+20
  9
$PLIMMIN
 10
-5.873748779296875
 20
-5.873749732971191
  9
$PLIMMAX
 10
204.0995788574218
 20
291.1369009017943
  9
$UNITMODE
 70
     0
  9
$VISRETAIN
 70
     1
  9
$PLINEGEN
 70
     0
  9
$PSLTSCALE
 70
     0
  9
$TREEDEPTH
 70
  3020
  9
$CMLSTYLE
  2
Standard
  9
$CMLJUST
 70
     0
  9
$CMLSCALE
 40
1.0
  9
$PROXYGRAPHICS
 70
     1
  9
$MEASUREMENT
 70
     0
  9
$CELWEIGHT
370
    -1
  9
$ENDCAPS
280
     0
  9
$JOINSTYLE
280
     0
  9
$LWDISPLAY
290
     0
  9
$INSUNITS
 70
     0
  9
$HYPERLINKBASE
  1

  9
$STYLESHEET
  1
monochrome.ctb
  9
$XEDIT
290
     1
  9
$CEPSNTYPE
380
     0
  9
$PSTYLEMODE
290
     1
  9
$FINGERPRINTGUID
  2

  9
$VERSIONGUID
  2
{8CBB1F3D-EE05-4263-BCA6-2C91DC892528}
  9
$EXTNAMES
290
     1
  9
$PSVPSCALE
 40
0.0
  9
$OLESTARTUP
290
     0
  0
ENDSEC
  0
SECTION
  2
CLASSES
  0
CLASS
  1
ACDBDICTIONARYWDFLT
  2
AcDbDictionaryWithDefault
  3
ObjectDBX Classes
 90
        0
280
     0
281
     0
  0
CLASS
  1
ACDBPLACEHOLDER
  2
AcDbPlaceHolder
  3
ObjectDBX Classes
 90
        0
280
     0
281
     0
  0
CLASS
  1
LAYOUT
  2
AcDbLayout
  3
ObjectDBX Classes
 90
        0
280
     0
281
     0
  0
CLASS
  1
DICTIONARYVAR
  2
AcDbDictionaryVar
  3
ObjectDBX Classes
 90
        0
280
     0
281
     0
  0
CLASS
  1
MATERIAL
  2
AcDbMaterial
  3
ObjectDBX Classes
 90
     1153
280
     0
281
     0
  0
CLASS
  1
VISUALSTYLE
  2
AcDbVisualStyle
  3
ObjectDBX Classes
 90
     4095
280
     0
281
     0
  0
CLASS
  1
TABLESTYLE
  2
AcDbTableStyle
  3
ObjectDBX Classes
 90
     4095
280
     0
281
     0
  0
CLASS
  1
SCALE
  2
AcDbScale
  3
ObjectDBX Classes
 90
     1153
280
     0
281
     0
  0
CLASS
  1
MLEADERSTYLE
  2
AcDbMLeaderStyle
  3
ACDB_MLEADERSTYLE_CLASS
 90
     4095
280
     0
281
     0
  0
CLASS
  1
CELLSTYLEMAP
  2
AcDbCellStyleMap
  3
ObjectDBX Classes
 90
     1152
280
     0
281
     0
  0
ENDSEC
  0
SECTION
  2
TABLES
  0
TABLE
  2
VPORT
  5
8
330
0
100
AcDbSymbolTable
 70
     1
  0
VPORT
  5
C59A
330
8
100
AcDbSymbolTableRecord
100
AcDbViewportTableRecord
  2
*Active
 70
     0
 10
0.0
 20
0.0
 11
1.0
 21
1.0
 12
537.5171315110256
 22
558.6229172632129
 13
0.0
 23
0.0
 14
1.0
 24
1.0
 15
50.0
 25
50.0
 16
0.0
 26
0.0
 36
1.0
 17
0.0
 27
0.0
 37
0.0
 40
2259.862421177551
 41
1.851449275362318
 42
50.0
 43
0.0
 44
0.0
 50
0.0
 51
0.0
 71
     0
 72
   100
 73
     1
 74
     1
 75
     0
 76
     1
 77
     0
 78
     0
281
     0
 65
     1
110
0.0
120
0.0
130
0.0
111
1.0
121
0.0
131
0.0
112
0.0
122
1.0
132
0.0
 79
     0
146
0.0
  0
ENDTAB
  0
TABLE
  2
LTYPE
  5
5
330
0
100
AcDbSymbolTable
 70
     5
  0
LTYPE
  5
13
330
5
100
AcDbSymbolTableRecord
100
AcDbLinetypeTableRecord
  2
ByBlock
 70
     0
  3

 72
    65
 73
     0
 40
0.0
  0
LTYPE
  5
14
330
5
100
AcDbSymbolTableRecord
100
AcDbLinetypeTableRecord
  2
ByLayer
 70
     0
  3

 72
    65
 73
     0
 40
0.0
  0
LTYPE
  5
15
330
5
100
AcDbSymbolTableRecord
100
AcDbLinetypeTableRecord
  2
Continuous
 70
     0
  3
Solid line
 72
    65
 73
     0
 40
0.0
  0
LTYPE
  5
22
330
5
100
AcDbSymbolTableRecord
100
AcDbLinetypeTableRecord
  2
CONTINOUS
 70
     0
  3
Solid line
 72
    65
 73
     0
 40
0.0
  0
LTYPE
  5
24
330
5
100
AcDbSymbolTableRecord
100
AcDbLinetypeTableRecord
  2
DASHDOT
 70
     0
  3
__ . __ . __ . __ . __ . __ . __ . __ . __ . __
 72
    65
 73
     4
 40
1.0
 49
0.5
 74
     0
 49
-0.25
 74
     0
 49
0.0
 74
     0
 49
-0.25
 74
     0
  0
LTYPE
  5
33CB
330
5
100
AcDbSymbolTableRecord
100
AcDbLinetypeTableRecord
  2
DIVIDE
 70
     0
  3
Divide ____ . . ____ . . ____ . . ____ . . ____
 72
    65
 73
     6
 40
1.25
 49
0.5
 74
     0
 49
-0.25
 74
     0
 49
0.0
 74
     0
 49
-0.25
 74
     0
 49
0.0
 74
     0
 49
-0.25
 74
     0
  0
LTYPE
  5
941B
330
5
100
AcDbSymbolTableRecord
100
AcDbLinetypeTableRecord
  2
HIDDEN
 70
     0
  3
Hidden __ __ __ __ __ __ __ __ __ __ __ __ __ __
 72
    65
 73
     2
 40
1.905
 49
1.27
 74
     0
 49
-0.635
 74
     0
  0
ENDTAB
  0
TABLE
  2
LAYER
  5
2
102
{ACAD_XDICTIONARY
360
C61D
102
}
330
0
100
AcDbSymbolTable
 70
    11
  0
LAYER
  5
10
102
{ACAD_XDICTIONARY
360
C62E
102
}
330
2
100
AcDbSymbolTableRecord
100
AcDbLayerTableRecord
  2
0
 70
     0
 62
     6
  6
DASHDOT
370
    -3
390
F
  0
LAYER
  5
2F
102
{ACAD_XDICTIONARY
360
C630
102
}
330
2
100
AcDbSymbolTableRecord
100
AcDbLayerTableRecord
  2
10
 70
     0
 62
     4
  6
CONTINOUS
370
    -3
390
F
  0
LAYER
  5
31
102
{ACAD_XDICTIONARY
360
C632
102
}
330
2
100
AcDbSymbolTableRecord
100
AcDbLayerTableRecord
  2
12
 70
     0
 62
     3
  6
CONTINOUS
370
    -3
390
F
  0
LAYER
  5
35
102
{ACAD_XDICTIONARY
360
C634
102
}
330
2
100
AcDbSymbolTableRecord
100
AcDbLayerTableRecord
  2
16
 70
     0
 62
     6
  6
DASHDOT
370
    -3
390
F
  0
LAYER
  5
38
102
{ACAD_XDICTIONARY
360
C636
102
}
330
2
100
AcDbSymbolTableRecord
100
AcDbLayerTableRecord
  2
19
 70
     0
 62
     7
  6
CONTINOUS
370
    -3
390
F
  0
LAYER
  5
3C
102
{ACAD_XDICTIONARY
360
C638
102
}
330
2
100
AcDbSymbolTableRecord
100
AcDbLayerTableRecord
  2
11
 70
     0
 62
     1
  6
CONTINOUS
370
    -3
390
F
  0
LAYER
  5
3A2
102
{ACAD_XDICTIONARY
360
C63A
102
}
330
2
100
AcDbSymbolTableRecord
100
AcDbLayerTableRecord
  2
30
 70
     0
 62
     9
  6
Continuous
370
    -3
390
F
  0
LAYER
  5
3A4
330
2
100
AcDbSymbolTableRecord
100
AcDbLayerTableRecord
  2
Defpoints
 70
     0
 62
     2
  6
DASHDOT
290
     0
370
    -3
390
F
  0
LAYER
  5
33C8
102
{ACAD_XDICTIONARY
360
C63C
102
}
330
2
100
AcDbSymbolTableRecord
100
AcDbLayerTableRecord
  2
18
 70
     0
 62
     5
  6
DIVIDE
370
    -3
390
F
  0
LAYER
  5
39DB
102
{ACAD_XDICTIONARY
360
C63E
102
}
330
2
100
AcDbSymbolTableRecord
100
AcDbLayerTableRecord
  2
27
 70
     0
 62
     2
  6
Continuous
370
    -3
390
F
  0
LAYER
  5
BE62
102
{ACAD_XDICTIONARY
360
C640
102
}
330
2
100
AcDbSymbolTableRecord
100
AcDbLayerTableRecord
  2
34
 70
     0
 62
     2
  6
DIVIDE
370
    -3
390
F
  0
ENDTAB
  0
TABLE
  2
STYLE
  5
3
330
0
100
AcDbSymbolTable
 70
     2
  0
STYLE
  5
11
330
3
100
AcDbSymbolTableRecord
100
AcDbTextStyleTableRecord
  2
Standard
 70
     0
 40
0.0
 41
1.0
 50
0.0
 71
     0
 42
2.0
  3
simplex.shx
  4
bigfont.shx
  0
STYLE
  5
941E
330
3
100
AcDbSymbolTableRecord
100
AcDbTextStyleTableRecord
  2
SLDTEXTSTYLE1
 70
     0
 40
0.0
 41
0.75
 50
0.0
 71
     0
 42
0.0
  3
txt
  4

  0
ENDTAB
  0
TABLE
  2
VIEW
  5
6
330
0
100
AcDbSymbolTable
 70
     4
  0
VIEW
  5
3817
330
6
100
AcDbSymbolTableRecord
100
AcDbViewTableRecord
  2
OLE1
 70
     0
 40
440.4976618414746
 10
298.4341836359813
 20
-51.57564428994924
 41
312.0191771377112
 11
0.0
 21
0.0
 31
1.0
 12
0.0
 22
0.0
 32
0.0
 42
50.0
 43
0.0
 44
0.0
 50
0.0
 71
     0
281
     0
 72
     0
  0
VIEW
  5
3819
330
6
100
AcDbSymbolTableRecord
100
AcDbViewTableRecord
  2
OLE2
 70
     0
 40
1141.80233015935
 10
166.182610057254
 20
-77.11925276944589
 41
611.5415870006012
 11
0.0
 21
0.0
 31
1.0
 12
0.0
 22
0.0
 32
0.0
 42
50.0
 43
0.0
 44
0.0
 50
0.0
 71
     0
281
     0
 72
     0
  0
ENDTAB
  0
TABLE
  2
UCS
  5
7
330
0
100
AcDbSymbolTable
 70
     0
  0
ENDTAB
  0
TABLE
  2
APPID
  5
9
330
0
100
AcDbSymbolTable
 70
     3
  0
APPID
  5
12
330
9
100
AcDbSymbolTableRecord
100
AcDbRegAppTableRecord
  2
ACAD
 70
     0
  0
APPID
  5
ECD
330
9
100
AcDbSymbolTableRecord
100
AcDbRegAppTableRecord
  2
CONTENTBLOCKICON
 70
     0
  0
APPID
  5
C679
330
9
100
AcDbSymbolTableRecord
100
AcDbRegAppTableRecord
  2
ACAD_MLEADERVER
 70
     0
  0
ENDTAB
  0
TABLE
  2
DIMSTYLE
  5
A
330
0
100
AcDbSymbolTable
 70
     1
100
AcDbDimStyleTable
 71
     1
340
175
  0
DIMSTYLE
105
175
102
{ACAD_REACTORS
330
9991
330
9944
330
993F
330
997D
330
9997
330
9949
330
994C
330
990F
330
9912
330
990D
330
990E
330
9950
330
ABF4
330
B28F
330
B290
330
B291
330
B467
330
B58E
330
B536
330
B53F
330
B535
330
B538
330
B839
330
B845
330
B837
330
B838
330
B83B
330
B83C
330
BB44
330
AC6E
330
BD09
330
BD0C
330
BD0F
330
BD11
330
BD12
330
BD13
330
BDE3
330
BEFA
330
C0FA
330
C0FB
330
C102
330
C103
330
975C
330
977B
330
9917
330
992F
330
9934
330
994E
330
A208
330
B6CB
330
BD17
330
C10A
102
}
330
A
100
AcDbSymbolTableRecord
100
AcDbDimStyleTableRecord
  2
Standard
 70
     0
 41
5.0
 42
10.0
 43
0.5
 44
1.0
 73
     0
 74
     0
 77
     3
 78
    12
 79
     3
140
10.0
147
3.0
172
     1
174
     1
175
     1
271
     1
272
     1
279
     1
340
11
341
3B2
342
3B2
  0
ENDTAB
  0
TABLE
  2
BLOCK_RECORD
  5
1
330
0
100
AcDbSymbolTable
 70
    53
  0
BLOCK_RECORD
  5
1E
102
{ACAD_XDICTIONARY
360
178
102
}
330
1
100
AcDbSymbolTableRecord
100
AcDbBlockTableRecord
  2
*Model_Space
340
21
  0
BLOCK_RECORD
  5
1A
102
{ACAD_XDICTIONARY
360
17A
102
}
330
1
100
AcDbSymbolTableRecord
100
AcDbBlockTableRecord
  2
*Paper_Space
340
1D
  0
BLOCK_RECORD
  5
3B2
330
1
100
AcDbSymbolTableRecord
100
AcDbBlockTableRecord
  2
_Open
340
0
102
{BLKREFS
331
C004
331
C005
331
C00D
331
C00E
331
C016
331
C017
331
C01F
331
C020
331
C0DC
331
C0DD
331
C0D0
331
C0D1
331
C0C4
331
C0C5
331
C0B8
331
C0B9
331
C424
331
C425
331
C42D
331
C42E
331
C436
331
C437
331
C43F
331
C440
331
C448
331
C449
331
C451
331
C452
331
C45A
331
C45B
331
C463
331
C464
331
C46D
331
C46E
331
C476
331
C477
331
C47F
331
C480
331
C488
331
C489
331
C491
331
C492
331
C49A
331
C49B
331
C4A3
331
C4A4
331
C4B4
331
C4B5
331
C4BE
331
C4BF
331
C4C7
331
C4C8
331
C4D0
331
C4D1
331
C4D9
331
C4DA
331
C4E2
331
C4E3
331
C4EB
331
C4EC
331
C4F4
331
C4F5
331
C4FE
331
C4FF
331
C507
331
C508
331
C510
331
C511
331
C519
331
C51A
331
C522
331
C523
331
C52B
331
C52C
331
C534
331
C535
331
C53C
331
C53D
331
C545
331
C546
331
C54F
331
C550
331
C558
331
C559
331
C567
331
C568
331
C570
331
C571
331
C579
331
C57A
331
C582
331
C583
331
C58B
331
C58C
331
C594
331
C595
102
}
  0
BLOCK_RECORD
  5
9BD3
330
1
100
AcDbSymbolTableRecord
100
AcDbBlockTableRecord
  2
*D1
340
0
  0
BLOCK_RECORD
  5
9BDF
330
1
100
AcDbSymbolTableRecord
100
AcDbBlockTableRecord
  2
*D2
340
0
  0
BLOCK_RECORD
  5
9BEB
330
1
100
AcDbSymbolTableRecord
100
AcDbBlockTableRecord
  2
*D3
340
0
  0
BLOCK_RECORD
  5
9C0F
330
1
100
AcDbSymbolTableRecord
100
AcDbBlockTableRecord
  2
*D4
340
0
  0
BLOCK_RECORD
  5
9C7B
330
1
100
AcDbSymbolTableRecord
100
AcDbBlockTableRecord
  2
*D5
340
0
  0
BLOCK_RECORD
  5
9C88
330
1
100
AcDbSymbolTableRecord
100
AcDbBlockTableRecord
  2
*D6
340
0
  0
BLOCK_RECORD
  5
9C94
330
1
100
AcDbSymbolTableRecord
100
AcDbBlockTableRecord
  2
*D7
340
0
  0
BLOCK_RECORD
  5
9CAD
330
1
100
AcDbSymbolTableRecord
100
AcDbBlockTableRecord
  2
*D8
340
0
  0
BLOCK_RECORD
  5
9CB8
330
1
100
AcDbSymbolTableRecord
100
AcDbBlockTableRecord
  2
*D9
340
0
  0
BLOCK_RECORD
  5
9CDE
330
1
100
AcDbSymbolTableRecord
100
AcDbBlockTableRecord
  2
*D10
340
0
  0
BLOCK_RECORD
  5
9D04
330
1
100
AcDbSymbolTableRecord
100
AcDbBlockTableRecord
  2
*D11
340
0
  0
BLOCK_RECORD
  5
9D2A
330
1
100
AcDbSymbolTableRecord
100
AcDbBlockTableRecord
  2
*D12
340
0
  0
BLOCK_RECORD
  5
AD63
330
1
100
AcDbSymbolTableRecord
100
AcDbBlockTableRecord
  2
*D13
340
0
  0
BLOCK_RECORD
  5
AE8A
330
1
100
AcDbSymbolTableRecord
100
AcDbBlockTableRecord
  2
*D14
340
0
  0
BLOCK_RECORD
  5
B292
330
1
100
AcDbSymbolTableRecord
100
AcDbBlockTableRecord
  2
*D15
340
0
  0
BLOCK_RECORD
  5
B29E
330
1
100
AcDbSymbolTableRecord
100
AcDbBlockTableRecord
  2
*D16
340
0
  0
BLOCK_RECORD
  5
B2AA
330
1
100
AcDbSymbolTableRecord
100
AcDbBlockTableRecord
  2
*D17
340
0
  0
BLOCK_RECORD
  5
B33A
330
1
100
AcDbSymbolTableRecord
100
AcDbBlockTableRecord
  2
_DotSmall
340
0
102
{BLKREFS
331
C4AC
331
C4AD
102
}
  0
BLOCK_RECORD
  5
B468
330
1
100
AcDbSymbolTableRecord
100
AcDbBlockTableRecord
  2
*D19
340
0
  0
BLOCK_RECORD
  5
B595
330
1
100
AcDbSymbolTableRecord
100
AcDbBlockTableRecord
  2
*D20
340
0
  0
BLOCK_RECORD
  5
B5A1
330
1
100
AcDbSymbolTableRecord
100
AcDbBlockTableRecord
  2
*D21
340
0
  0
BLOCK_RECORD
  5
B5AD
330
1
100
AcDbSymbolTableRecord
100
AcDbBlockTableRecord
  2
*D22
340
0
  0
BLOCK_RECORD
  5
B5B9
330
1
100
AcDbSymbolTableRecord
100
AcDbBlockTableRecord
  2
*D23
340
0
  0
BLOCK_RECORD
  5
B5C5
330
1
100
AcDbSymbolTableRecord
100
AcDbBlockTableRecord
  2
*D24
340
0
  0
BLOCK_RECORD
  5
B6E1
330
1
100
AcDbSymbolTableRecord
100
AcDbBlockTableRecord
  2
*D25
340
0
  0
BLOCK_RECORD
  5
B6ED
330
1
100
AcDbSymbolTableRecord
100
AcDbBlockTableRecord
  2
*D26
340
0
  0
BLOCK_RECORD
  5
B6F9
330
1
100
AcDbSymbolTableRecord
100
AcDbBlockTableRecord
  2
*D27
340
0
  0
BLOCK_RECORD
  5
B705
330
1
100
AcDbSymbolTableRecord
100
AcDbBlockTableRecord
  2
*D28
340
0
  0
BLOCK_RECORD
  5
B846
330
1
100
AcDbSymbolTableRecord
100
AcDbBlockTableRecord
  2
*D29
340
0
  0
BLOCK_RECORD
  5
B853
330
1
100
AcDbSymbolTableRecord
100
AcDbBlockTableRecord
  2
*D30
340
0
  0
BLOCK_RECORD
  5
B85F
330
1
100
AcDbSymbolTableRecord
100
AcDbBlockTableRecord
  2
*D31
340
0
  0
BLOCK_RECORD
  5
B86B
330
1
100
AcDbSymbolTableRecord
100
AcDbBlockTableRecord
  2
*D32
340
0
  0
BLOCK_RECORD
  5
B877
330
1
100
AcDbSymbolTableRecord
100
AcDbBlockTableRecord
  2
*D33
340
0
  0
BLOCK_RECORD
  5
B88F
330
1
100
AcDbSymbolTableRecord
100
AcDbBlockTableRecord
  2
*D34
340
0
  0
BLOCK_RECORD
  5
BB6C
330
1
100
AcDbSymbolTableRecord
100
AcDbBlockTableRecord
  2
*D35
340
0
  0
BLOCK_RECORD
  5
BD1E
330
1
100
AcDbSymbolTableRecord
100
AcDbBlockTableRecord
  2
*D36
340
0
  0
BLOCK_RECORD
  5
BD2A
330
1
100
AcDbSymbolTableRecord
100
AcDbBlockTableRecord
  2
*D37
340
0
  0
BLOCK_RECORD
  5
BD36
330
1
100
AcDbSymbolTableRecord
100
AcDbBlockTableRecord
  2
*D38
340
0
  0
BLOCK_RECORD
  5
BD42
330
1
100
AcDbSymbolTableRecord
100
AcDbBlockTableRecord
  2
*D39
340
0
  0
BLOCK_RECORD
  5
BD4E
330
1
100
AcDbSymbolTableRecord
100
AcDbBlockTableRecord
  2
*D40
340
0
  0
BLOCK_RECORD
  5
BD5A
330
1
100
AcDbSymbolTableRecord
100
AcDbBlockTableRecord
  2
*D41
340
0
  0
BLOCK_RECORD
  5
BDE4
330
1
100
AcDbSymbolTableRecord
100
AcDbBlockTableRecord
  2
*D42
340
0
  0
BLOCK_RECORD
  5
BEB3
330
1
100
AcDbSymbolTableRecord
100
AcDbBlockTableRecord
  2
A$C63BB1B40
340
0
  0
BLOCK_RECORD
  5
BEFB
330
1
100
AcDbSymbolTableRecord
100
AcDbBlockTableRecord
  2
*D44
340
0
  0
BLOCK_RECORD
  5
C0B4
330
1
100
AcDbSymbolTableRecord
100
AcDbBlockTableRecord
  2
*D45
340
0
  0
BLOCK_RECORD
  5
C0C0
330
1
100
AcDbSymbolTableRecord
100
AcDbBlockTableRecord
  2
*D46
340
0
  0
BLOCK_RECORD
  5
C0CC
330
1
100
AcDbSymbolTableRecord
100
AcDbBlockTableRecord
  2
*D47
340
0
  0
BLOCK_RECORD
  5
C0D8
330
1
100
AcDbSymbolTableRecord
100
AcDbBlockTableRecord
  2
*D48
340
0
  0
BLOCK_RECORD
  5
C10C
330
1
100
AcDbSymbolTableRecord
100
AcDbBlockTableRecord
  2
*D49
340
0
  0
BLOCK_RECORD
  5
C118
330
1
100
AcDbSymbolTableRecord
100
AcDbBlockTableRecord
  2
*D50
340
0
  0
BLOCK_RECORD
  5
C124
330
1
100
AcDbSymbolTableRecord
100
AcDbBlockTableRecord
  2
*D51
340
0
  0
BLOCK_RECORD
  5
C130
330
1
100
AcDbSymbolTableRecord
100
AcDbBlockTableRecord
  2
*D52
340
0
  0
ENDTAB
  0
ENDSEC
  0
SECTION
  2
BLOCKS
  0
BLOCK
  5
1F
330
1E
100
AcDbEntity
  8
0
100
AcDbBlockBegin
  2
*Model_Space
 70
     0
 10
0.0
 20
0.0
 30
0.0
  3
*Model_Space
  1

  0
ENDBLK
  5
20
330
1E
100
AcDbEntity
  8
0
100
AcDbBlockEnd
  0
BLOCK
  5
1B
330
1A
100
AcDbEntity
 67
     1
  8
0
100
AcDbBlockBegin
  2
*Paper_Space
 70
     0
 10
0.0
 20
0.0
 30
0.0
  3
*Paper_Space
  1

  0
ENDBLK
  5
1C
330
1A
100
AcDbEntity
 67
     1
  8
0
100
AcDbBlockEnd
  0
BLOCK
  5
3B6
330
3B2
100
AcDbEntity
  8
0
100
AcDbBlockBegin
  2
_Open
 70
     0
 10
0.0
 20
0.0
 30
0.0
  3
_Open
  1

  0
LINE
  5
3B3
330
3B2
100
AcDbEntity
  8
30
  6
Continuous
 62
     0
370
    -2
100
AcDbLine
 10
-1.0
 20
0.1666666666666666
 30
0.0
 11
0.0
 21
0.0
 31
0.0
  0
LINE
  5
3B4
330
3B2
100
AcDbEntity
  8
30
  6
Continuous
 62
     0
370
    -2
100
AcDbLine
 10
-1.0
 20
-0.1666666666666666
 30
0.0
 11
0.0
 21
0.0
 31
0.0
  0
LINE
  5
3B5
330
3B2
100
AcDbEntity
  8
30
  6
Continuous
 62
     0
370
    -2
100
AcDbLine
 10
0.0
 20
0.0
 30
0.0
 11
-1.0
 21
0.0
 31
0.0
  0
ENDBLK
  5
3B7
330
3B2
100
AcDbEntity
  8
0
100
AcDbBlockEnd
  0
BLOCK
  5
9BDD
330
9BD3
100
AcDbEntity
  8
0
100
AcDbBlockBegin
  2
*D1
 70
     1
 10
0.0
 20
0.0
 30
0.0
  3
*D1
  1

  0
LINE
  5
C472
330
9BD3
100
AcDbEntity
  8
30
 62
     0
370
    -2
100
AcDbLine
 10
1106.0
 20
-48.39230421199999
 30
0.0
 11
1106.0
 21
-175.576228356
 31
0.0
  0
LINE
  5
C473
330
9BD3
100
AcDbEntity
  8
30
 62
     0
370
    -2
100
AcDbLine
 10
1078.0
 20
-122.2872557789999
 30
0.0
 11
1078.0
 21
-175.576228356
 31
0.0
  0
LINE
  5
C474
330
9BD3
100
AcDbEntity
  8
30
 62
     0
370
    -2
100
AcDbLine
 10
1101.0
 20
-174.5762283559999
 30
0.0
 11
1083.0
 21
-174.5762283559999
 31
0.0
  0
MTEXT
  5
C475
330
9BD3
100
AcDbEntity
  8
30
 62
     0
100
AcDbMText
 10
1093.139112677999
 20
-166.5762283560001
 30
0.0
 40
10.0
 41
0.0
 71
     5
 72
     1
  1
\A1;28
 73
     1
 44
1.0
1001
ACAD
1000
MTEXTBEGIN
1070
    73
1070
     1
1070
    44
1040
1.0
1070
    74
1070
     0
1000
MTEXTEND
  0
INSERT
  5
C476
330
9BD3
100
AcDbEntity
  8
30
 62
     0
370
    -2
100
AcDbBlockReference
  2
_Open
 10
1106.0
 20
-174.5762283559999
 30
0.0
 41
5.0
 42
5.0
 43
5.0
  0
INSERT
  5
C477
330
9BD3
100
AcDbEntity
  8
30
 62
     0
370
    -2
100
AcDbBlockReference
  2
_Open
 10
1078.0
 20
-174.5762283559999
 30
0.0
 41
5.0
 42
5.0
 43
5.0
 50
180.0
  0
POINT
  5
C478
330
9BD3
100
AcDbEntity
  8
Defpoints
 62
     0
100
AcDbPoint
 10
1106.0
 20
-38.39230421199999
 30
0.0
  0
POINT
  5
C479
330
9BD3
100
AcDbEntity
  8
Defpoints
 62
     0
100
AcDbPoint
 10
1078.0
 20
-112.2872557789999
 30
0.0
  0
POINT
  5
C47A
330
9BD3
100
AcDbEntity
  8
Defpoints
 62
     0
100
AcDbPoint
 10
1078.0
 20
-174.5762283559999
 30
0.0
  0
ENDBLK
  5
9BDE
330
9BD3
100
AcDbEntity
  8
0
100
AcDbBlockEnd
  0
BLOCK
  5
9BE9
330
9BDF
100
AcDbEntity
  8
0
100
AcDbBlockBegin
  2
*D2
 70
     1
 10
0.0
 20
0.0
 30
0.0
  3
*D2
  1

  0
LINE
  5
C47B
330
9BDF
100
AcDbEntity
  8
30
 62
     0
370
    -2
100
AcDbLine
 10
1141.0
 20
-10.0
 30
0.0
 11
1141.0
 21
-175.4092456659999
 31
0.0
  0
LINE
  5
C47C
330
9BDF
100
AcDbEntity
  8
30
 62
     0
370
    -2
100
AcDbLine
 10
1106.0
 20
-29.99999999999999
 30
0.0
 11
1106.0
 21
-175.4092456659999
 31
0.0
  0
LINE
  5
C47D
330
9BDF
100
AcDbEntity
  8
30
 62
     0
370
    -2
100
AcDbLine
 10
1136.0
 20
-174.4092456659999
 30
0.0
 11
1111.0
 21
-174.4092456659999
 31
0.0
  0
MTEXT
  5
C47E
330
9BDF
100
AcDbEntity
  8
30
 62
     0
100
AcDbMText
 10
1122.282431669999
 20
-166.4092456659999
 30
0.0
 40
10.0
 41
0.0
 71
     5
 72
     1
  1
\A1;35
 73
     1
 44
1.0
1001
ACAD
1000
MTEXTBEGIN
1070
    73
1070
     1
1070
    44
1040
1.0
1070
    74
1070
     0
1000
MTEXTEND
  0
INSERT
  5
C47F
330
9BDF
100
AcDbEntity
  8
30
 62
     0
370
    -2
100
AcDbBlockReference
  2
_Open
 10
1141.0
 20
-174.4092456659999
 30
0.0
 41
5.0
 42
5.0
 43
5.0
  0
INSERT
  5
C480
330
9BDF
100
AcDbEntity
  8
30
 62
     0
370
    -2
100
AcDbBlockReference
  2
_Open
 10
1106.0
 20
-174.4092456659999
 30
0.0
 41
5.0
 42
5.0
 43
5.0
 50
180.0
  0
POINT
  5
C481
330
9BDF
100
AcDbEntity
  8
Defpoints
 62
     0
100
AcDbPoint
 10
1141.0
 20
0.0
 30
0.0
  0
POINT
  5
C482
330
9BDF
100
AcDbEntity
  8
Defpoints
 62
     0
100
AcDbPoint
 10
1106.0
 20
-19.99999999999999
 30
0.0
  0
POINT
  5
C483
330
9BDF
100
AcDbEntity
  8
Defpoints
 62
     0
100
AcDbPoint
 10
1106.0
 20
-174.4092456659999
 30
0.0
  0
ENDBLK
  5
9BEA
330
9BDF
100
AcDbEntity
  8
0
100
AcDbBlockEnd
  0
BLOCK
  5
9BF5
330
9BEB
100
AcDbEntity
  8
0
100
AcDbBlockBegin
  2
*D3
 70
     1
 10
0.0
 20
0.0
 30
0.0
  3
*D3
  1

  0
LINE
  5
C45F
330
9BEB
100
AcDbEntity
  8
30
 62
     0
370
    -2
100
AcDbLine
 10
978.0
 20
-122.2872557789999
 30
0.0
 11
978.0
 21
-175.3558023999999
 31
0.0
  0
LINE
  5
C460
330
9BEB
100
AcDbEntity
  8
30
 62
     0
370
    -2
100
AcDbLine
 10
1078.0
 20
-122.2872557789999
 30
0.0
 11
1078.0
 21
-175.3558023999999
 31
0.0
  0
LINE
  5
C461
330
9BEB
100
AcDbEntity
  8
30
 62
     0
370
    -2
100
AcDbLine
 10
983.0
 20
-174.3558023999999
 30
0.0
 11
1073.0
 21
-174.3558023999999
 31
0.0
  0
MTEXT
  5
C462
330
9BEB
100
AcDbEntity
  8
30
 62
     0
100
AcDbMText
 10
1030.592592592
 20
-166.3558023999999
 30
0.0
 40
10.0
 41
0.0
 71
     5
 72
     1
  1
\A1;100
 73
     1
 44
1.0
1001
ACAD
1000
MTEXTBEGIN
1070
    73
1070
     1
1070
    44
1040
1.0
1070
    74
1070
     0
1000
MTEXTEND
  0
INSERT
  5
C463
330
9BEB
100
AcDbEntity
  8
30
 62
     0
370
    -2
100
AcDbBlockReference
  2
_Open
 10
978.0
 20
-174.3558023999999
 30
0.0
 41
5.0
 42
5.0
 43
5.0
 50
180.0
  0
INSERT
  5
C464
330
9BEB
100
AcDbEntity
  8
30
 62
     0
370
    -2
100
AcDbBlockReference
  2
_Open
 10
1078.0
 20
-174.3558023999999
 30
0.0
 41
5.0
 42
5.0
 43
5.0
  0
POINT
  5
C465
330
9BEB
100
AcDbEntity
  8
Defpoints
 62
     0
100
AcDbPoint
 10
978.0
 20
-112.2872557789999
 30
0.0
  0
POINT
  5
C466
330
9BEB
100
AcDbEntity
  8
Defpoints
 62
     0
100
AcDbPoint
 10
1078.0
 20
-112.2872557789999
 30
0.0
  0
POINT
  5
C467
330
9BEB
100
AcDbEntity
  8
Defpoints
 62
     0
100
AcDbPoint
 10
1078.0
 20
-174.3558023999999
 30
0.0
  0
ENDBLK
  5
9BF6
330
9BEB
100
AcDbEntity
  8
0
100
AcDbBlockEnd
  0
BLOCK
  5
9C1A
330
9C0F
100
AcDbEntity
  8
0
100
AcDbBlockBegin
  2
*D4
 70
     1
 10
0.0
 20
0.0
 30
0.0
  3
*D4
  1

  0
LINE
  5
C468
330
9C0F
100
AcDbEntity
  8
30
 62
     0
370
    -2
100
AcDbLine
 10
978.0
 20
-122.2872557789999
 30
0.0
 11
978.0
 21
-175.3558023999999
 31
0.0
  0
LINE
  5
C469
330
9C0F
100
AcDbEntity
  8
30
 62
     0
370
    -2
100
AcDbLine
 10
941.0
 20
-29.12765978699985
 30
0.0
 11
941.0
 21
-175.3558023999999
 31
0.0
  0
LINE
  5
C46A
330
9C0F
100
AcDbEntity
  8
30
 62
     0
370
    -2
100
AcDbLine
 10
973.0
 20
-174.3558023999999
 30
0.0
 11
946.0
 21
-174.3558023999999
 31
0.0
  0
LINE
  5
C46B
330
9C0F
100
AcDbEntity
  8
30
 62
     0
370
    -2
100
AcDbLine
 10
903.2187789707617
 20
-174.3558023999999
 30
0.0
 11
941.0
 21
-174.3558023999999
 31
0.0
  0
MTEXT
  5
C46C
330
9C0F
100
AcDbEntity
  8
30
 62
     0
100
AcDbMText
 10
914.3140170659998
 20
-166.3558023999999
 30
0.0
 40
10.0
 41
0.0
 71
     5
 72
     1
  1
\A1;37
 73
     1
 44
1.0
1001
ACAD
1000
MTEXTBEGIN
1070
    73
1070
     1
1070
    44
1040
1.0
1070
    74
1070
     0
1000
MTEXTEND
  0
INSERT
  5
C46D
330
9C0F
100
AcDbEntity
  8
30
 62
     0
370
    -2
100
AcDbBlockReference
  2
_Open
 10
978.0
 20
-174.3558023999999
 30
0.0
 41
5.0
 42
5.0
 43
5.0
  0
INSERT
  5
C46E
330
9C0F
100
AcDbEntity
  8
30
 62
     0
370
    -2
100
AcDbBlockReference
  2
_Open
 10
941.0
 20
-174.3558023999999
 30
0.0
 41
5.0
 42
5.0
 43
5.0
 50
180.0
  0
POINT
  5
C46F
330
9C0F
100
AcDbEntity
  8
Defpoints
 62
     0
100
AcDbPoint
 10
978.0
 20
-112.2872557789999
 30
0.0
  0
POINT
  5
C470
330
9C0F
100
AcDbEntity
  8
Defpoints
 62
     0
100
AcDbPoint
 10
941.0
 20
-19.12765978699985
 30
0.0
  0
POINT
  5
C471
330
9C0F
100
AcDbEntity
  8
Defpoints
 62
     0
100
AcDbPoint
 10
941.0
 20
-174.3558023999999
 30
0.0
  0
ENDBLK
  5
9C1B
330
9C0F
100
AcDbEntity
  8
0
100
AcDbBlockEnd
  0
BLOCK
  5
9C86
330
9C7B
100
AcDbEntity
  8
0
100
AcDbBlockBegin
  2
*D5
 70
     1
 10
0.0
 20
0.0
 30
0.0
  3
*D5
  1

  0
LINE
  5
C432
330
9C7B
100
AcDbEntity
  8
30
 62
     0
370
    -2
100
AcDbLine
 10
1068.0
 20
441.9999999999998
 30
0.0
 11
1240.725593749999
 21
441.9999999999998
 31
0.0
  0
LINE
  5
C433
330
9C7B
100
AcDbEntity
  8
30
 62
     0
370
    -2
100
AcDbLine
 10
1076.0
 20
460.0000000000001
 30
0.0
 11
1240.725593749999
 21
460.0000000000001
 31
0.0
  0
LINE
  5
C434
330
9C7B
100
AcDbEntity
  8
30
 62
     0
370
    -2
100
AcDbLine
 10
1239.725593749999
 20
446.9999999999997
 30
0.0
 11
1239.725593749999
 21
455.0000000000001
 31
0.0
  0
MTEXT
  5
C435
330
9C7B
100
AcDbEntity
  8
30
 62
     0
100
AcDbMText
 10
1232.554533340105
 20
451.1011607721363
 30
0.0
 40
10.0
 41
0.0
 71
     5
 72
     1
  1
\A1;18
 11
0.0000000000000001
 21
1.0
 31
0.0
 73
     1
 44
1.0
1001
ACAD
1000
MTEXTBEGIN
1070
    73
1070
     1
1070
    44
1040
1.0
1070
    74
1070
     0
1000
MTEXTEND
  0
INSERT
  5
C436
330
9C7B
100
AcDbEntity
  8
30
 62
     0
370
    -2
100
AcDbBlockReference
  2
_Open
 10
1239.725593749999
 20
441.9999999999998
 30
0.0
 41
5.0
 42
5.0
 43
5.0
 50
270.0
  0
INSERT
  5
C437
330
9C7B
100
AcDbEntity
  8
30
 62
     0
370
    -2
100
AcDbBlockReference
  2
_Open
 10
1239.725593749999
 20
460.0000000000001
 30
0.0
 41
5.0
 42
5.0
 43
5.0
 50
90.0
  0
POINT
  5
C438
330
9C7B
100
AcDbEntity
  8
Defpoints
 62
     0
100
AcDbPoint
 10
1058.0
 20
441.9999999999998
 30
0.0
  0
POINT
  5
C439
330
9C7B
100
AcDbEntity
  8
Defpoints
 62
     0
100
AcDbPoint
 10
1066.0
 20
460.0000000000001
 30
0.0
  0
POINT
  5
C43A
330
9C7B
100
AcDbEntity
  8
Defpoints
 62
     0
100
AcDbPoint
 10
1239.725593749999
 20
460.0000000000001
 30
0.0
  0
ENDBLK
  5
9C87
330
9C7B
100
AcDbEntity
  8
0
100
AcDbBlockEnd
  0
BLOCK
  5
9C92
330
9C88
100
AcDbEntity
  8
0
100
AcDbBlockBegin
  2
*D6
 70
     1
 10
0.0
 20
0.0
 30
0.0
  3
*D6
  1

  0
LINE
  5
C429
330
9C88
100
AcDbEntity
  8
30
 62
     0
370
    -2
100
AcDbLine
 10
991.0
 20
490.0000000000003
 30
0.0
 11
1351.0
 21
490.0000000000002
 31
0.0
  0
LINE
  5
C42A
330
9C88
100
AcDbEntity
  8
30
 62
     0
370
    -2
100
AcDbLine
 10
1151.0
 20
-0.0000000000000028
 30
0.0
 11
1351.0
 21
-0.0000000000000595
 31
0.0
  0
LINE
  5
C42B
330
9C88
100
AcDbEntity
  8
30
 62
     0
370
    -2
100
AcDbLine
 10
1350.0
 20
485.0000000000001
 30
0.0
 11
1350.0
 21
4.999999999999941
 31
0.0
  0
MTEXT
  5
C42C
330
9C88
100
AcDbEntity
  8
30
 62
     0
100
AcDbMText
 10
1342.0
 20
244.9999999999999
 30
0.0
 40
10.0
 41
0.0
 71
     5
 72
     1
  1
\A1;490
 11
0.0000000000000001
 21
1.0
 31
0.0
 73
     1
 44
1.0
1001
ACAD
1000
MTEXTBEGIN
1070
    73
1070
     1
1070
    44
1040
1.0
1070
    74
1070
     0
1000
MTEXTEND
  0
INSERT
  5
C42D
330
9C88
100
AcDbEntity
  8
30
 62
     0
370
    -2
100
AcDbBlockReference
  2
_Open
 10
1350.0
 20
490.0000000000002
 30
0.0
 41
5.0
 42
5.0
 43
5.0
 50
90.0
  0
INSERT
  5
C42E
330
9C88
100
AcDbEntity
  8
30
 62
     0
370
    -2
100
AcDbBlockReference
  2
_Open
 10
1350.0
 20
-0.0000000000000592
 30
0.0
 41
5.0
 42
5.0
 43
5.0
 50
270.0
  0
POINT
  5
C42F
330
9C88
100
AcDbEntity
  8
Defpoints
 62
     0
100
AcDbPoint
 10
981.0
 20
490.0000000000003
 30
0.0
  0
POINT
  5
C430
330
9C88
100
AcDbEntity
  8
Defpoints
 62
     0
100
AcDbPoint
 10
1141.0
 20
0.0
 30
0.0
  0
POINT
  5
C431
330
9C88
100
AcDbEntity
  8
Defpoints
 62
     0
100
AcDbPoint
 10
1350.0
 20
-0.0000000000000592
 30
0.0
  0
ENDBLK
  5
9C93
330
9C88
100
AcDbEntity
  8
0
100
AcDbBlockEnd
  0
BLOCK
  5
9C9E
330
9C94
100
AcDbEntity
  8
0
100
AcDbBlockBegin
  2
*D7
 70
     1
 10
0.0
 20
0.0
 30
0.0
  3
*D7
  1

  0
LINE
  5
C44D
330
9C94
100
AcDbEntity
  8
30
 62
     0
370
    -2
100
AcDbLine
 10
837.0
 20
361.9999999999998
 30
0.0
 11
767.4562246197718
 21
361.9999999999998
 31
0.0
  0
LINE
  5
C44E
330
9C94
100
AcDbEntity
  8
30
 62
     0
370
    -2
100
AcDbLine
 10
854.0
 20
32.99999999999975
 30
0.0
 11
767.4562246197718
 21
32.99999999999978
 31
0.0
  0
LINE
  5
C44F
330
9C94
100
AcDbEntity
  8
30
 62
     0
370
    -2
100
AcDbLine
 10
768.4562246197717
 20
356.9999999999998
 30
0.0
 11
768.4562246197717
 21
37.99999999999978
 31
0.0
  0
MTEXT
  5
C450
330
9C94
100
AcDbEntity
  8
30
 62
     0
100
AcDbMText
 10
760.456224619772
 20
185.608429837
 30
0.0
 40
10.0
 41
0.0
 71
     5
 72
     1
  1
\A1;329
 11
0.0000000000000001
 21
1.0
 31
0.0
 73
     1
 44
1.0
1001
ACAD
1000
MTEXTBEGIN
1070
    73
1070
     1
1070
    44
1040
1.0
1070
    74
1070
     0
1000
MTEXTEND
  0
INSERT
  5
C451
330
9C94
100
AcDbEntity
  8
30
 62
     0
370
    -2
100
AcDbBlockReference
  2
_Open
 10
768.4562246197717
 20
361.9999999999998
 30
0.0
 41
5.0
 42
5.0
 43
5.0
 50
90.0
  0
INSERT
  5
C452
330
9C94
100
AcDbEntity
  8
30
 62
     0
370
    -2
100
AcDbBlockReference
  2
_Open
 10
768.4562246197717
 20
32.99999999999978
 30
0.0
 41
5.0
 42
5.0
 43
5.0
 50
270.0
  0
POINT
  5
C453
330
9C94
100
AcDbEntity
  8
Defpoints
 62
     0
100
AcDbPoint
 10
847.0
 20
361.9999999999998
 30
0.0
  0
POINT
  5
C454
330
9C94
100
AcDbEntity
  8
Defpoints
 62
     0
100
AcDbPoint
 10
864.0
 20
32.99999999999975
 30
0.0
  0
POINT
  5
C455
330
9C94
100
AcDbEntity
  8
Defpoints
 62
     0
100
AcDbPoint
 10
768.4562246197717
 20
32.99999999999978
 30
0.0
  0
ENDBLK
  5
9C9F
330
9C94
100
AcDbEntity
  8
0
100
AcDbBlockEnd
  0
BLOCK
  5
9CB6
330
9CAD
100
AcDbEntity
  8
0
100
AcDbBlockBegin
  2
*D8
 70
     1
 10
0.0
 20
0.0
 30
0.0
  3
*D8
  1

  0
LINE
  5
C456
330
9CAD
100
AcDbEntity
  8
30
 62
     0
370
    -2
100
AcDbLine
 10
951.0
 20
550.0
 30
0.0
 11
725.0960629859137
 21
550.0
 31
0.0
  0
LINE
  5
C457
330
9CAD
100
AcDbEntity
  8
30
 62
     0
370
    -2
100
AcDbLine
 10
911.0
 20
0.0000000000000028
 30
0.0
 11
725.0960629859137
 21
0.0000000000000555
 31
0.0
  0
LINE
  5
C458
330
9CAD
100
AcDbEntity
  8
30
 62
     0
370
    -2
100
AcDbLine
 10
726.0960629859137
 20
545.0000000000001
 30
0.0
 11
726.0960629859137
 21
5.000000000000055
 31
0.0
  0
MTEXT
  5
C459
330
9CAD
100
AcDbEntity
  8
30
 62
     0
100
AcDbMText
 10
718.0960629859137
 20
275.0
 30
0.0
 40
10.0
 41
0.0
 71
     5
 72
     1
  1
\A1;550 
 11
0.0000000000000001
 21
1.0
 31
0.0
 73
     1
 44
1.0
1001
ACAD
1000
MTEXTBEGIN
1070
    73
1070
     1
1070
    44
1040
1.0
1070
    74
1070
     0
1000
MTEXTEND
  0
INSERT
  5
C45A
330
9CAD
100
AcDbEntity
  8
30
 62
     0
370
    -2
100
AcDbBlockReference
  2
_Open
 10
726.0960629859137
 20
550.0
 30
0.0
 41
5.0
 42
5.0
 43
5.0
 50
90.0
  0
INSERT
  5
C45B
330
9CAD
100
AcDbEntity
  8
30
 62
     0
370
    -2
100
AcDbBlockReference
  2
_Open
 10
726.0960629859137
 20
0.0000000000000552
 30
0.0
 41
5.0
 42
5.0
 43
5.0
 50
270.0
  0
POINT
  5
C45C
330
9CAD
100
AcDbEntity
  8
Defpoints
 62
     0
100
AcDbPoint
 10
961.0
 20
550.0
 30
0.0
  0
POINT
  5
C45D
330
9CAD
100
AcDbEntity
  8
Defpoints
 62
     0
100
AcDbPoint
 10
921.0
 20
0.0
 30
0.0
  0
POINT
  5
C45E
330
9CAD
100
AcDbEntity
  8
Defpoints
 62
     0
100
AcDbPoint
 10
726.0960629859137
 20
0.0000000000000552
 30
0.0
  0
ENDBLK
  5
9CB7
330
9CAD
100
AcDbEntity
  8
0
100
AcDbBlockEnd
  0
BLOCK
  5
9CC3
330
9CB8
100
AcDbEntity
  8
0
100
AcDbBlockBegin
  2
*D9
 70
     1
 10
0.0
 20
0.0
 30
0.0
  3
*D9
  1

  0
LINE
  5
C484
330
9CB8
100
AcDbEntity
  8
30
 62
     0
370
    -2
100
AcDbLine
 10
854.0
 20
32.99999999999975
 30
0.0
 11
767.4562246197718
 21
32.99999999999978
 31
0.0
  0
LINE
  5
C485
330
9CB8
100
AcDbEntity
  8
30
 62
     0
370
    -2
100
AcDbLine
 10
911.0
 20
0.0000000000000028
 30
0.0
 11
767.4562246197718
 21
0.0000000000000435
 31
0.0
  0
LINE
  5
C486
330
9CB8
100
AcDbEntity
  8
30
 62
     0
370
    -2
100
AcDbLine
 10
768.4562246197717
 20
27.99999999999978
 30
0.0
 11
768.4562246197717
 21
5.000000000000042
 31
0.0
  0
MTEXT
  5
C487
330
9CB8
100
AcDbEntity
  8
30
 62
     0
100
AcDbMText
 10
760.456224619772
 20
17.24416644114603
 30
0.0
 40
10.0
 41
0.0
 71
     5
 72
     1
  1
\A1;33
 11
0.0000000000000001
 21
1.0
 31
0.0
 73
     1
 44
1.0
1001
ACAD
1000
MTEXTBEGIN
1070
    73
1070
     1
1070
    44
1040
1.0
1070
    74
1070
     0
1000
MTEXTEND
  0
INSERT
  5
C488
330
9CB8
100
AcDbEntity
  8
30
 62
     0
370
    -2
100
AcDbBlockReference
  2
_Open
 10
768.4562246197717
 20
32.99999999999978
 30
0.0
 41
5.0
 42
5.0
 43
5.0
 50
90.0
  0
INSERT
  5
C489
330
9CB8
100
AcDbEntity
  8
30
 62
     0
370
    -2
100
AcDbBlockReference
  2
_Open
 10
768.4562246197717
 20
0.0000000000000432
 30
0.0
 41
5.0
 42
5.0
 43
5.0
 50
270.0
  0
POINT
  5
C48A
330
9CB8
100
AcDbEntity
  8
Defpoints
 62
     0
100
AcDbPoint
 10
864.0
 20
32.99999999999975
 30
0.0
  0
POINT
  5
C48B
330
9CB8
100
AcDbEntity
  8
Defpoints
 62
     0
100
AcDbPoint
 10
921.0
 20
0.0
 30
0.0
  0
POINT
  5
C48C
330
9CB8
100
AcDbEntity
  8
Defpoints
 62
     0
100
AcDbPoint
 10
768.4562246197717
 20
0.0000000000000432
 30
0.0
  0
ENDBLK
  5
9CC4
330
9CB8
100
AcDbEntity
  8
0
100
AcDbBlockEnd
  0
BLOCK
  5
9CE8
330
9CDE
100
AcDbEntity
  8
0
100
AcDbBlockBegin
  2
*D10
 70
     1
 10
0.0
 20
0.0
 30
0.0
  3
*D10
  1

  0
LINE
  5
C43B
330
9CDE
100
AcDbEntity
  8
30
 62
     0
370
    -2
100
AcDbLine
 10
1058.0
 20
451.9999999999998
 30
0.0
 11
1058.0
 21
596.4335693581047
 31
0.0
  0
LINE
  5
C43C
330
9CDE
100
AcDbEntity
  8
30
 62
     0
370
    -2
100
AcDbLine
 10
859.0
 20
481.9999999999998
 30
0.0
 11
859.0
 21
596.4335693581047
 31
0.0
  0
LINE
  5
C43D
330
9CDE
100
AcDbEntity
  8
30
 62
     0
370
    -2
100
AcDbLine
 10
1053.0
 20
595.4335693581048
 30
0.0
 11
864.0
 21
595.4335693581048
 31
0.0
  0
MTEXT
  5
C43E
330
9CDE
100
AcDbEntity
  8
30
 62
     0
100
AcDbMText
 10
955.02872842019
 20
602.4335693581048
 30
0.0
 40
10.0
 41
0.0
 71
     5
 72
     1
  1
\A1;199
 73
     1
 44
1.0
1001
ACAD
1000
MTEXTBEGIN
1070
    73
1070
     1
1070
    44
1040
1.0
1070
    74
1070
     0
1000
MTEXTEND
  0
INSERT
  5
C43F
330
9CDE
100
AcDbEntity
  8
30
 62
     0
370
    -2
100
AcDbBlockReference
  2
_Open
 10
1058.0
 20
595.4335693581048
 30
0.0
 41
5.0
 42
5.0
 43
5.0
  0
INSERT
  5
C440
330
9CDE
100
AcDbEntity
  8
30
 62
     0
370
    -2
100
AcDbBlockReference
  2
_Open
 10
859.0
 20
595.4335693581048
 30
0.0
 41
5.0
 42
5.0
 43
5.0
 50
180.0
  0
POINT
  5
C441
330
9CDE
100
AcDbEntity
  8
Defpoints
 62
     0
100
AcDbPoint
 10
1058.0
 20
441.9999999999998
 30
0.0
  0
POINT
  5
C442
330
9CDE
100
AcDbEntity
  8
Defpoints
 62
     0
100
AcDbPoint
 10
859.0
 20
471.9999999999997
 30
0.0
  0
POINT
  5
C443
330
9CDE
100
AcDbEntity
  8
Defpoints
 62
     0
100
AcDbPoint
 10
859.0
 20
595.4335693581048
 30
0.0
  0
ENDBLK
  5
9CE9
330
9CDE
100
AcDbEntity
  8
0
100
AcDbBlockEnd
  0
BLOCK
  5
9D0E
330
9D04
100
AcDbEntity
  8
0
100
AcDbBlockBegin
  2
*D11
 70
     1
 10
0.0
 20
0.0
 30
0.0
  3
*D11
  1

  0
LINE
  5
C420
330
9D04
100
AcDbEntity
  8
30
 62
     0
370
    -2
100
AcDbLine
 10
1076.0
 20
460.0000000000001
 30
0.0
 11
1322.0
 21
460.0000000000001
 31
0.0
  0
LINE
  5
C421
330
9D04
100
AcDbEntity
  8
30
 62
     0
370
    -2
100
AcDbLine
 10
1151.0
 20
-0.0000000000000028
 30
0.0
 11
1322.0
 21
-0.0000000000000513
 31
0.0
  0
LINE
  5
C422
330
9D04
100
AcDbEntity
  8
30
 62
     0
370
    -2
100
AcDbLine
 10
1321.0
 20
455.0000000000001
 30
0.0
 11
1321.0
 21
4.999999999999949
 31
0.0
  0
MTEXT
  5
C423
330
9D04
100
AcDbEntity
  8
30
 62
     0
100
AcDbMText
 10
1313.0
 20
229.9999999999999
 30
0.0
 40
10.0
 41
0.0
 71
     5
 72
     1
  1
\A1;460
 11
0.0000000000000001
 21
1.0
 31
0.0
 73
     1
 44
1.0
1001
ACAD
1000
MTEXTBEGIN
1070
    73
1070
     1
1070
    44
1040
1.0
1070
    74
1070
     0
1000
MTEXTEND
  0
INSERT
  5
C424
330
9D04
100
AcDbEntity
  8
30
 62
     0
370
    -2
100
AcDbBlockReference
  2
_Open
 10
1321.0
 20
460.0000000000001
 30
0.0
 41
5.0
 42
5.0
 43
5.0
 50
90.0
  0
INSERT
  5
C425
330
9D04
100
AcDbEntity
  8
30
 62
     0
370
    -2
100
AcDbBlockReference
  2
_Open
 10
1321.0
 20
-0.000000000000051
 30
0.0
 41
5.0
 42
5.0
 43
5.0
 50
270.0
  0
POINT
  5
C426
330
9D04
100
AcDbEntity
  8
Defpoints
 62
     0
100
AcDbPoint
 10
1066.0
 20
460.0000000000001
 30
0.0
  0
POINT
  5
C427
330
9D04
100
AcDbEntity
  8
Defpoints
 62
     0
100
AcDbPoint
 10
1141.0
 20
0.0
 30
0.0
  0
POINT
  5
C428
330
9D04
100
AcDbEntity
  8
Defpoints
 62
     0
100
AcDbPoint
 10
1321.0
 20
-0.000000000000051
 30
0.0
  0
ENDBLK
  5
9D0F
330
9D04
100
AcDbEntity
  8
0
100
AcDbBlockEnd
  0
BLOCK
  5
9D35
330
9D2A
100
AcDbEntity
  8
0
100
AcDbBlockBegin
  2
*D12
 70
     1
 10
0.0
 20
0.0
 30
0.0
  3
*D12
  1

  0
LINE
  5
C444
330
9D2A
100
AcDbEntity
  8
30
 62
     0
370
    -2
100
AcDbLine
 10
1136.0
 20
34.99999999999998
 30
0.0
 11
1249.104021733264
 21
34.99999999999996
 31
0.0
  0
LINE
  5
C445
330
9D2A
100
AcDbEntity
  8
30
 62
     0
370
    -2
100
AcDbLine
 10
1174.0
 20
-0.0000000000000028
 30
0.0
 11
1249.104021733264
 21
-0.0000000000000241
 31
0.0
  0
LINE
  5
C446
330
9D2A
100
AcDbEntity
  8
30
 62
     0
370
    -2
100
AcDbLine
 10
1248.104021733264
 20
29.99999999999996
 30
0.0
 11
1248.104021733264
 21
4.999999999999976
 31
0.0
  0
MTEXT
  5
C447
330
9D2A
100
AcDbEntity
  8
30
 62
     0
100
AcDbMText
 10
1239.104021733264
 20
17.82298464493464
 30
0.0
 40
10.0
 41
0.0
 71
     5
 72
     1
  1
\A1;35
 11
0.0000000000000001
 21
1.0
 31
0.0
 73
     1
 44
1.0
1001
ACAD
1000
MTEXTBEGIN
1070
    73
1070
     1
1070
    44
1040
1.0
1070
    74
1070
     0
1000
MTEXTEND
  0
INSERT
  5
C448
330
9D2A
100
AcDbEntity
  8
30
 62
     0
370
    -2
100
AcDbBlockReference
  2
_Open
 10
1248.104021733264
 20
34.99999999999996
 30
0.0
 41
5.0
 42
5.0
 43
5.0
 50
90.0
  0
INSERT
  5
C449
330
9D2A
100
AcDbEntity
  8
30
 62
     0
370
    -2
100
AcDbBlockReference
  2
_Open
 10
1248.104021733264
 20
-0.0000000000000238
 30
0.0
 41
5.0
 42
5.0
 43
5.0
 50
270.0
  0
POINT
  5
C44A
330
9D2A
100
AcDbEntity
  8
Defpoints
 62
     0
100
AcDbPoint
 10
1126.0
 20
35.0
 30
0.0
  0
POINT
  5
C44B
330
9D2A
100
AcDbEntity
  8
Defpoints
 62
     0
100
AcDbPoint
 10
1164.0
 20
0.0
 30
0.0
  0
POINT
  5
C44C
330
9D2A
100
AcDbEntity
  8
Defpoints
 62
     0
100
AcDbPoint
 10
1248.104021733264
 20
-0.0000000000000238
 30
0.0
  0
ENDBLK
  5
9D36
330
9D2A
100
AcDbEntity
  8
0
100
AcDbBlockEnd
  0
BLOCK
  5
AD6D
330
AD63
100
AcDbEntity
  8
0
100
AcDbBlockBegin
  2
*D13
 70
     1
 10
0.0
 20
0.0
 30
0.0
  3
*D13
  1

  0
LINE
  5
C48D
330
AD63
100
AcDbEntity
  8
30
 62
     0
370
    -2
100
AcDbLine
 10
1915.0
 20
538.997400984
 30
0.0
 11
1915.0
 21
572.2650820209999
 31
0.0
  0
LINE
  5
C48E
330
AD63
100
AcDbEntity
  8
30
 62
     0
370
    -2
100
AcDbLine
 10
2000.0
 20
538.6787719999999
 30
0.0
 11
2000.0
 21
572.2650820209999
 31
0.0
  0
LINE
  5
C48F
330
AD63
100
AcDbEntity
  8
30
 62
     0
370
    -2
100
AcDbLine
 10
1920.0
 20
571.2650820209999
 30
0.0
 11
1995.0
 21
571.2650820209999
 31
0.0
  0
MTEXT
  5
C490
330
AD63
100
AcDbEntity
  8
30
 62
     0
100
AcDbMText
 10
1957.220238844
 20
579.2650820209997
 30
0.0
 40
10.0
 41
0.0
 71
     5
 72
     1
  1
\A1;85
 73
     1
 44
1.0
1001
ACAD
1000
MTEXTBEGIN
1070
    73
1070
     1
1070
    44
1040
1.0
1070
    74
1070
     0
1000
MTEXTEND
  0
INSERT
  5
C491
330
AD63
100
AcDbEntity
  8
30
 62
     0
370
    -2
100
AcDbBlockReference
  2
_Open
 10
1915.0
 20
571.2650820209999
 30
0.0
 41
5.0
 42
5.0
 43
5.0
 50
180.0
  0
INSERT
  5
C492
330
AD63
100
AcDbEntity
  8
30
 62
     0
370
    -2
100
AcDbBlockReference
  2
_Open
 10
2000.0
 20
571.2650820209999
 30
0.0
 41
5.0
 42
5.0
 43
5.0
  0
POINT
  5
C493
330
AD63
100
AcDbEntity
  8
Defpoints
 62
     0
100
AcDbPoint
 10
1915.0
 20
528.997400984
 30
0.0
  0
POINT
  5
C494
330
AD63
100
AcDbEntity
  8
Defpoints
 62
     0
100
AcDbPoint
 10
2000.0
 20
528.6787719999998
 30
0.0
  0
POINT
  5
C495
330
AD63
100
AcDbEntity
  8
Defpoints
 62
     0
100
AcDbPoint
 10
2000.0
 20
571.2650820209999
 30
0.0
  0
ENDBLK
  5
AD6E
330
AD63
100
AcDbEntity
  8
0
100
AcDbBlockEnd
  0
BLOCK
  5
AE94
330
AE8A
100
AcDbEntity
  8
0
100
AcDbBlockBegin
  2
*D14
 70
     1
 10
0.0
 20
0.0
 30
0.0
  3
*D14
  1

  0
LINE
  5
C527
330
AE8A
100
AcDbEntity
  8
30
 62
     0
370
    -2
100
AcDbLine
 10
2000.0
 20
538.6787719999999
 30
0.0
 11
2000.0
 21
572.2650820209999
 31
0.0
  0
LINE
  5
C528
330
AE8A
100
AcDbEntity
  8
30
 62
     0
370
    -2
100
AcDbLine
 10
2085.0
 20
538.997400984
 30
0.0
 11
2085.0
 21
572.2650820209999
 31
0.0
  0
LINE
  5
C529
330
AE8A
100
AcDbEntity
  8
30
 62
     0
370
    -2
100
AcDbLine
 10
2005.0
 20
571.2650820209999
 30
0.0
 11
2080.0
 21
571.2650820209999
 31
0.0
  0
MTEXT
  5
C52A
330
AE8A
100
AcDbEntity
  8
30
 62
     0
100
AcDbMText
 10
2039.697849705
 20
579.2650820209997
 30
0.0
 40
10.0
 41
0.0
 71
     5
 72
     1
  1
\A1;85
 73
     1
 44
1.0
1001
ACAD
1000
MTEXTBEGIN
1070
    73
1070
     1
1070
    44
1040
1.0
1070
    74
1070
     0
1000
MTEXTEND
  0
INSERT
  5
C52B
330
AE8A
100
AcDbEntity
  8
30
 62
     0
370
    -2
100
AcDbBlockReference
  2
_Open
 10
2000.0
 20
571.2650820209999
 30
0.0
 41
5.0
 42
5.0
 43
5.0
 50
180.0
  0
INSERT
  5
C52C
330
AE8A
100
AcDbEntity
  8
30
 62
     0
370
    -2
100
AcDbBlockReference
  2
_Open
 10
2085.0
 20
571.2650820209999
 30
0.0
 41
5.0
 42
5.0
 43
5.0
  0
POINT
  5
C52D
330
AE8A
100
AcDbEntity
  8
Defpoints
 62
     0
100
AcDbPoint
 10
2000.0
 20
528.6787719999998
 30
0.0
  0
POINT
  5
C52E
330
AE8A
100
AcDbEntity
  8
Defpoints
 62
     0
100
AcDbPoint
 10
2085.0
 20
528.997400984
 30
0.0
  0
POINT
  5
C52F
330
AE8A
100
AcDbEntity
  8
Defpoints
 62
     0
100
AcDbPoint
 10
2085.0
 20
571.2650820209999
 30
0.0
  0
ENDBLK
  5
AE95
330
AE8A
100
AcDbEntity
  8
0
100
AcDbBlockEnd
  0
BLOCK
  5
B29C
330
B292
100
AcDbEntity
  8
0
100
AcDbBlockBegin
  2
*D15
 70
     1
 10
0.0
 20
0.0
 30
0.0
  3
*D15
  1

  0
LINE
  5
C496
330
B292
100
AcDbEntity
  8
30
 62
     0
370
    -2
100
AcDbLine
 10
1234.0
 20
137.9999999999997
 30
0.0
 11
1291.252270915998
 21
137.9999999999997
 31
0.0
  0
LINE
  5
C497
330
B292
100
AcDbEntity
  8
30
 62
     0
370
    -2
100
AcDbLine
 10
1151.0
 20
-0.0000000000000028
 30
0.0
 11
1291.252270915998
 21
-0.0000000000000426
 31
0.0
  0
LINE
  5
C498
330
B292
100
AcDbEntity
  8
30
 62
     0
370
    -2
100
AcDbLine
 10
1290.252270915998
 20
132.9999999999996
 30
0.0
 11
1290.252270915998
 21
4.999999999999957
 31
0.0
  0
MTEXT
  5
C499
330
B292
100
AcDbEntity
  8
30
 62
     0
100
AcDbMText
 10
1282.252270916
 20
75.92028629100015
 30
0.0
 40
10.0
 41
0.0
 71
     5
 72
     1
  1
\A1;138
 11
0.0000000000000001
 21
1.0
 31
0.0
 73
     1
 44
1.0
1001
ACAD
1000
MTEXTBEGIN
1070
    73
1070
     1
1070
    44
1040
1.0
1070
    74
1070
     0
1000
MTEXTEND
  0
INSERT
  5
C49A
330
B292
100
AcDbEntity
  8
30
 62
     0
370
    -2
100
AcDbBlockReference
  2
_Open
 10
1290.252270915998
 20
137.9999999999997
 30
0.0
 41
5.0
 42
5.0
 43
5.0
 50
90.0
  0
INSERT
  5
C49B
330
B292
100
AcDbEntity
  8
30
 62
     0
370
    -2
100
AcDbBlockReference
  2
_Open
 10
1290.252270915998
 20
-0.0000000000000423
 30
0.0
 41
5.0
 42
5.0
 43
5.0
 50
270.0
  0
POINT
  5
C49C
330
B292
100
AcDbEntity
  8
Defpoints
 62
     0
100
AcDbPoint
 10
1224.0
 20
137.9999999999997
 30
0.0
  0
POINT
  5
C49D
330
B292
100
AcDbEntity
  8
Defpoints
 62
     0
100
AcDbPoint
 10
1141.0
 20
0.0
 30
0.0
  0
POINT
  5
C49E
330
B292
100
AcDbEntity
  8
Defpoints
 62
     0
100
AcDbPoint
 10
1290.252270915998
 20
-0.0000000000000423
 30
0.0
  0
ENDBLK
  5
B29D
330
B292
100
AcDbEntity
  8
0
100
AcDbBlockEnd
  0
BLOCK
  5
B2A8
330
B29E
100
AcDbEntity
  8
0
100
AcDbBlockBegin
  2
*D16
 70
     1
 10
0.0
 20
0.0
 30
0.0
  3
*D16
  1

  0
LINE
  5
C49F
330
B29E
100
AcDbEntity
  8
30
 62
     0
370
    -2
100
AcDbLine
 10
1243.999995130001
 20
311.9999999999998
 30
0.0
 11
1291.252270915998
 21
311.9999999999998
 31
0.0
  0
LINE
  5
C4A0
330
B29E
100
AcDbEntity
  8
30
 62
     0
370
    -2
100
AcDbLine
 10
1234.0
 20
137.9999999999997
 30
0.0
 11
1291.252270915998
 21
137.9999999999997
 31
0.0
  0
LINE
  5
C4A1
330
B29E
100
AcDbEntity
  8
30
 62
     0
370
    -2
100
AcDbLine
 10
1290.252270915998
 20
306.9999999999998
 30
0.0
 11
1290.252270915998
 21
142.9999999999996
 31
0.0
  0
MTEXT
  5
C4A2
330
B29E
100
AcDbEntity
  8
30
 62
     0
100
AcDbMText
 10
1282.252270916
 20
220.5808001459996
 30
0.0
 40
10.0
 41
0.0
 71
     5
 72
     1
  1
\A1;174
 11
0.0000000000000001
 21
1.0
 31
0.0
 73
     1
 44
1.0
1001
ACAD
1000
MTEXTBEGIN
1070
    73
1070
     1
1070
    44
1040
1.0
1070
    74
1070
     0
1000
MTEXTEND
  0
INSERT
  5
C4A3
330
B29E
100
AcDbEntity
  8
30
 62
     0
370
    -2
100
AcDbBlockReference
  2
_Open
 10
1290.252270915998
 20
311.9999999999998
 30
0.0
 41
5.0
 42
5.0
 43
5.0
 50
90.0
  0
INSERT
  5
C4A4
330
B29E
100
AcDbEntity
  8
30
 62
     0
370
    -2
100
AcDbBlockReference
  2
_Open
 10
1290.252270915998
 20
137.9999999999997
 30
0.0
 41
5.0
 42
5.0
 43
5.0
 50
270.0
  0
POINT
  5
C4A5
330
B29E
100
AcDbEntity
  8
Defpoints
 62
     0
100
AcDbPoint
 10
1233.999995130001
 20
311.9999999999998
 30
0.0
  0
POINT
  5
C4A6
330
B29E
100
AcDbEntity
  8
Defpoints
 62
     0
100
AcDbPoint
 10
1224.0
 20
137.9999999999997
 30
0.0
  0
POINT
  5
C4A7
330
B29E
100
AcDbEntity
  8
Defpoints
 62
     0
100
AcDbPoint
 10
1290.252270915998
 20
137.9999999999997
 30
0.0
  0
ENDBLK
  5
B2A9
330
B29E
100
AcDbEntity
  8
0
100
AcDbBlockEnd
  0
BLOCK
  5
B2B4
330
B2AA
100
AcDbEntity
  8
0
100
AcDbBlockBegin
  2
*D17
 70
     1
 10
0.0
 20
0.0
 30
0.0
  3
*D17
  1

  0
LINE
  5
C4A8
330
B2AA
100
AcDbEntity
  8
30
 62
     0
370
    -2
100
AcDbLine
 10
1233.999995130001
 20
306.9999999999998
 30
0.0
 11
1264.780344893
 21
306.9999999999998
 31
0.0
  0
LINE
  5
C4A9
330
B2AA
100
AcDbEntity
  8
30
 62
     0
370
    -2
100
AcDbLine
 10
1233.999995130001
 20
316.9999999999999
 30
0.0
 11
1264.780344893
 21
316.9999999999999
 31
0.0
  0
LINE
  5
C4AA
330
B2AA
100
AcDbEntity
  8
30
 62
     0
370
    -2
100
AcDbLine
 10
1263.780344893
 20
306.9999999999998
 30
0.0
 11
1263.780344893
 21
316.9999999999999
 31
0.0
  0
MTEXT
  5
C4AB
330
B2AA
100
AcDbEntity
  8
30
 62
     0
100
AcDbMText
 10
1255.780344893
 20
331.8015095079997
 30
0.0
 40
10.0
 41
0.0
 71
     5
 72
     1
  1
\A1;10
 11
0.0000000000000001
 21
1.0
 31
0.0
 73
     1
 44
1.0
1001
ACAD
1000
MTEXTBEGIN
1070
    73
1070
     1
1070
    44
1040
1.0
1070
    74
1070
     0
1000
MTEXTEND
  0
INSERT
  5
C4AC
330
B2AA
100
AcDbEntity
  8
30
 62
     0
370
    -2
100
AcDbBlockReference
  2
_DotSmall
 10
1263.780344893
 20
306.9999999999998
 30
0.0
 41
5.0
 42
5.0
 43
5.0
 50
270.0
  0
INSERT
  5
C4AD
330
B2AA
100
AcDbEntity
  8
30
 62
     0
370
    -2
100
AcDbBlockReference
  2
_DotSmall
 10
1263.780344893
 20
316.9999999999999
 30
0.0
 41
5.0
 42
5.0
 43
5.0
 50
90.0
  0
POINT
  5
C4AE
330
B2AA
100
AcDbEntity
  8
Defpoints
 62
     0
100
AcDbPoint
 10
1223.999995130001
 20
306.9999999999998
 30
0.0
  0
POINT
  5
C4AF
330
B2AA
100
AcDbEntity
  8
Defpoints
 62
     0
100
AcDbPoint
 10
1223.999995130001
 20
316.9999999999999
 30
0.0
  0
POINT
  5
C4B0
330
B2AA
100
AcDbEntity
  8
Defpoints
 62
     0
100
AcDbPoint
 10
1263.780344893
 20
316.9999999999999
 30
0.0
  0
ENDBLK
  5
B2B5
330
B2AA
100
AcDbEntity
  8
0
100
AcDbBlockEnd
  0
BLOCK
  5
B33C
330
B33A
100
AcDbEntity
  8
0
100
AcDbBlockBegin
  2
_DotSmall
 70
     0
 10
0.0
 20
0.0
 30
0.0
  3
_DotSmall
  1

  0
LWPOLYLINE
  5
B33B
330
B33A
100
AcDbEntity
  8
0
  6
ByBlock
 62
     0
100
AcDbPolyline
 90
        2
 70
     1
 43
0.5
 10
-0.0625
 20
0.0
 42
1.0
 10
0.0625
 20
0.0
 42
1.0
  0
ENDBLK
  5
B33D
330
B33A
100
AcDbEntity
  8
0
100
AcDbBlockEnd
  0
BLOCK
  5
B472
330
B468
100
AcDbEntity
  8
0
100
AcDbBlockBegin
  2
*D19
 70
     1
 10
0.0
 20
0.0
 30
0.0
  3
*D19
  1

  0
LINE
  5
C4B1
330
B468
100
AcDbEntity
  8
30
 62
     0
370
    -2
100
AcDbLine
 10
1126.0
 20
44.99999999999999
 30
0.0
 11
1126.0
 21
47.80150950799975
 31
0.0
  0
LINE
  5
C4B2
330
B468
100
AcDbEntity
  8
30
 62
     0
370
    -2
100
AcDbLine
 10
1224.0
 20
123.000001948
 30
0.0
 11
1224.0
 21
45.80150950799975
 31
0.0
  0
LINE
  5
C4B3
330
B468
100
AcDbEntity
  8
30
 62
     0
370
    -2
100
AcDbLine
 10
1131.0
 20
46.80150950799975
 30
0.0
 11
1219.0
 21
46.80150950799975
 31
0.0
  0
INSERT
  5
C4B4
330
B468
100
AcDbEntity
  8
30
 62
     0
370
    -2
100
AcDbBlockReference
  2
_Open
 10
1126.0
 20
46.80150950799975
 30
0.0
 41
5.0
 42
5.0
 43
5.0
 50
180.0
  0
INSERT
  5
C4B5
330
B468
100
AcDbEntity
  8
30
 62
     0
370
    -2
100
AcDbBlockReference
  2
_Open
 10
1224.0
 20
46.80150950799975
 30
0.0
 41
5.0
 42
5.0
 43
5.0
  0
MTEXT
  5
C4B6
330
B468
100
AcDbEntity
  8
30
 62
     0
100
AcDbMText
 10
1175.0
 20
54.80150950799975
 30
0.0
 40
10.0
 41
0.0
 71
     5
 72
     1
  1
\A1;98
 73
     1
 44
1.0
1001
ACAD
1000
MTEXTBEGIN
1070
    73
1070
     1
1070
    44
1040
1.0
1070
    74
1070
     0
1000
MTEXTEND
  0
POINT
  5
C4B7
330
B468
100
AcDbEntity
  8
Defpoints
 62
     0
100
AcDbPoint
 10
1126.0
 20
35.0
 30
0.0
  0
POINT
  5
C4B8
330
B468
100
AcDbEntity
  8
Defpoints
 62
     0
100
AcDbPoint
 10
1224.0
 20
133.000001948
 30
0.0
  0
POINT
  5
C4B9
330
B468
100
AcDbEntity
  8
Defpoints
 62
     0
100
AcDbPoint
 10
1224.0
 20
46.80150950799975
 30
0.0
  0
ENDBLK
  5
B473
330
B468
100
AcDbEntity
  8
0
100
AcDbBlockEnd
  0
BLOCK
  5
B59F
330
B595
100
AcDbEntity
  8
0
100
AcDbBlockBegin
  2
*D20
 70
     1
 10
0.0
 20
0.0
 30
0.0
  3
*D20
  1

  0
LINE
  5
C4D5
330
B595
100
AcDbEntity
  8
30
 62
     0
370
    -2
100
AcDbLine
 10
-119.9999999999999
 20
22.9999999999997
 30
0.0
 11
-119.9999999999999
 21
-51.43418283800003
 31
0.0
  0
LINE
  5
C4D6
330
B595
100
AcDbEntity
  8
30
 62
     0
370
    -2
100
AcDbLine
 10
117.9999999999997
 20
22.9999999999997
 30
0.0
 11
117.9999999999997
 21
-51.43418283800003
 31
0.0
  0
LINE
  5
C4D7
330
B595
100
AcDbEntity
  8
30
 62
     0
370
    -2
100
AcDbLine
 10
-114.9999999999999
 20
-50.43418283800003
 30
0.0
 11
112.9999999999997
 21
-50.43418283800003
 31
0.0
  0
MTEXT
  5
C4D8
330
B595
100
AcDbEntity
  8
30
 62
     0
100
AcDbMText
 10
0.9795717110000911
 20
-42.43418283800003
 30
0.0
 40
10.0
 41
0.0
 71
     5
 72
     1
  1
\A1;238
 73
     1
 44
1.0
1001
ACAD
1000
MTEXTBEGIN
1070
    73
1070
     1
1070
    44
1040
1.0
1070
    74
1070
     0
1000
MTEXTEND
  0
INSERT
  5
C4D9
330
B595
100
AcDbEntity
  8
30
 62
     0
370
    -2
100
AcDbBlockReference
  2
_Open
 10
-119.9999999999999
 20
-50.43418283800003
 30
0.0
 41
5.0
 42
5.0
 43
5.0
 50
180.0
  0
INSERT
  5
C4DA
330
B595
100
AcDbEntity
  8
30
 62
     0
370
    -2
100
AcDbBlockReference
  2
_Open
 10
117.9999999999997
 20
-50.43418283800003
 30
0.0
 41
5.0
 42
5.0
 43
5.0
  0
POINT
  5
C4DB
330
B595
100
AcDbEntity
  8
Defpoints
 62
     0
100
AcDbPoint
 10
-119.9999999999999
 20
32.9999999999997
 30
0.0
  0
POINT
  5
C4DC
330
B595
100
AcDbEntity
  8
Defpoints
 62
     0
100
AcDbPoint
 10
117.9999999999997
 20
32.9999999999997
 30
0.0
  0
POINT
  5
C4DD
330
B595
100
AcDbEntity
  8
Defpoints
 62
     0
100
AcDbPoint
 10
117.9999999999997
 20
-50.43418283800003
 30
0.0
  0
ENDBLK
  5
B5A0
330
B595
100
AcDbEntity
  8
0
100
AcDbBlockEnd
  0
BLOCK
  5
B5AB
330
B5A1
100
AcDbEntity
  8
0
100
AcDbBlockBegin
  2
*D21
 70
     1
 10
0.0
 20
0.0
 30
0.0
  3
*D21
  1

  0
LINE
  5
C4C3
330
B5A1
100
AcDbEntity
  8
30
 62
     0
370
    -2
100
AcDbLine
 10
0.0000000000000651
 20
573.2000000000002
 30
0.0
 11
0.0000000000000666
 21
596.8015095079997
 31
0.0
  0
LINE
  5
C4C4
330
B5A1
100
AcDbEntity
  8
30
 62
     0
370
    -2
100
AcDbLine
 10
-174.9999999999999
 20
573.2
 30
0.0
 11
-174.9999999999999
 21
596.8015095079997
 31
0.0
  0
LINE
  5
C4C5
330
B5A1
100
AcDbEntity
  8
30
 62
     0
370
    -2
100
AcDbLine
 10
-4.999999999999934
 20
595.8015095079997
 30
0.0
 11
-169.9999999999999
 21
595.8015095079997
 31
0.0
  0
MTEXT
  5
C4C6
330
B5A1
100
AcDbEntity
  8
30
 62
     0
100
AcDbMText
 10
-86.01458980000025
 20
603.8015095079997
 30
0.0
 40
10.0
 41
0.0
 71
     5
 72
     1
  1
\A1;175
 73
     1
 44
1.0
1001
ACAD
1000
MTEXTBEGIN
1070
    73
1070
     1
1070
    44
1040
1.0
1070
    74
1070
     0
1000
MTEXTEND
  0
INSERT
  5
C4C7
330
B5A1
100
AcDbEntity
  8
30
 62
     0
370
    -2
100
AcDbBlockReference
  2
_Open
 10
0.0000000000000665
 20
595.8015095079997
 30
0.0
 41
5.0
 42
5.0
 43
5.0
  0
INSERT
  5
C4C8
330
B5A1
100
AcDbEntity
  8
30
 62
     0
370
    -2
100
AcDbBlockReference
  2
_Open
 10
-174.9999999999999
 20
595.8015095079997
 30
0.0
 41
5.0
 42
5.0
 43
5.0
 50
180.0
  0
POINT
  5
C4C9
330
B5A1
100
AcDbEntity
  8
Defpoints
 62
     0
100
AcDbPoint
 10
0.0000000000000645
 20
563.2000000000003
 30
0.0
  0
POINT
  5
C4CA
330
B5A1
100
AcDbEntity
  8
Defpoints
 62
     0
100
AcDbPoint
 10
-174.9999999999999
 20
563.2
 30
0.0
  0
POINT
  5
C4CB
330
B5A1
100
AcDbEntity
  8
Defpoints
 62
     0
100
AcDbPoint
 10
-174.9999999999999
 20
595.8015095079997
 30
0.0
  0
ENDBLK
  5
B5AC
330
B5A1
100
AcDbEntity
  8
0
100
AcDbBlockEnd
  0
BLOCK
  5
B5B7
330
B5AD
100
AcDbEntity
  8
0
100
AcDbBlockBegin
  2
*D22
 70
     1
 10
0.0
 20
0.0
 30
0.0
  3
*D22
  1

  0
LINE
  5
C4DE
330
B5AD
100
AcDbEntity
  8
30
 62
     0
370
    -2
100
AcDbLine
 10
0.0000000000000278
 20
-67.3336118910002
 30
0.0
 11
0.0000000000000257
 21
-101.734736882
 31
0.0
  0
LINE
  5
C4DF
330
B5AD
100
AcDbEntity
  8
30
 62
     0
370
    -2
100
AcDbLine
 10
-179.9999999999999
 20
-10.00000000000005
 30
0.0
 11
-179.9999999999999
 21
-101.734736882
 31
0.0
  0
LINE
  5
C4E0
330
B5AD
100
AcDbEntity
  8
30
 62
     0
370
    -2
100
AcDbLine
 10
-4.999999999999973
 20
-100.734736882
 30
0.0
 11
-174.9999999999999
 21
-100.734736882
 31
0.0
  0
MTEXT
  5
C4E1
330
B5AD
100
AcDbEntity
  8
30
 62
     0
100
AcDbMText
 10
-86.01458980000026
 20
-92.73473688200001
 30
0.0
 40
10.0
 41
0.0
 71
     5
 72
     1
  1
\A1;180
 73
     1
 44
1.0
1001
ACAD
1000
MTEXTBEGIN
1070
    73
1070
     1
1070
    44
1040
1.0
1070
    74
1070
     0
1000
MTEXTEND
  0
INSERT
  5
C4E2
330
B5AD
100
AcDbEntity
  8
30
 62
     0
370
    -2
100
AcDbBlockReference
  2
_Open
 10
0.0000000000000257
 20
-100.734736882
 30
0.0
 41
5.0
 42
5.0
 43
5.0
  0
INSERT
  5
C4E3
330
B5AD
100
AcDbEntity
  8
30
 62
     0
370
    -2
100
AcDbBlockReference
  2
_Open
 10
-179.9999999999999
 20
-100.734736882
 30
0.0
 41
5.0
 42
5.0
 43
5.0
 50
180.0
  0
POINT
  5
C4E4
330
B5AD
100
AcDbEntity
  8
Defpoints
 62
     0
100
AcDbPoint
 10
0.0000000000000284
 20
-57.3336118910002
 30
0.0
  0
POINT
  5
C4E5
330
B5AD
100
AcDbEntity
  8
Defpoints
 62
     0
100
AcDbPoint
 10
-179.9999999999999
 20
-0.0000000000000568
 30
0.0
  0
POINT
  5
C4E6
330
B5AD
100
AcDbEntity
  8
Defpoints
 62
     0
100
AcDbPoint
 10
-179.9999999999999
 20
-100.734736882
 30
0.0
  0
ENDBLK
  5
B5B8
330
B5AD
100
AcDbEntity
  8
0
100
AcDbBlockEnd
  0
BLOCK
  5
B5C3
330
B5B9
100
AcDbEntity
  8
0
100
AcDbBlockBegin
  2
*D23
 70
     1
 10
0.0
 20
0.0
 30
0.0
  3
*D23
  1

  0
LINE
  5
C4CC
330
B5B9
100
AcDbEntity
  8
30
 62
     0
370
    -2
100
AcDbLine
 10
0.0000000000000278
 20
-67.3336118910002
 30
0.0
 11
0.0000000000000257
 21
-100.9135722189999
 31
0.0
  0
LINE
  5
C4CD
330
B5B9
100
AcDbEntity
  8
30
 62
     0
370
    -2
100
AcDbLine
 10
265.0
 20
-10.00000000000005
 30
0.0
 11
265.0
 21
-100.9135722189999
 31
0.0
  0
LINE
  5
C4CE
330
B5B9
100
AcDbEntity
  8
30
 62
     0
370
    -2
100
AcDbLine
 10
5.000000000000025
 20
-99.91357221899995
 30
0.0
 11
260.0
 21
-99.91357221899995
 31
0.0
  0
MTEXT
  5
C4CF
330
B5B9
100
AcDbEntity
  8
30
 62
     0
100
AcDbMText
 10
136.5210339739998
 20
-91.91357221899997
 30
0.0
 40
10.0
 41
0.0
 71
     5
 72
     1
  1
\A1;265
 73
     1
 44
1.0
1001
ACAD
1000
MTEXTBEGIN
1070
    73
1070
     1
1070
    44
1040
1.0
1070
    74
1070
     0
1000
MTEXTEND
  0
INSERT
  5
C4D0
330
B5B9
100
AcDbEntity
  8
30
 62
     0
370
    -2
100
AcDbBlockReference
  2
_Open
 10
0.0000000000000258
 20
-99.91357221899995
 30
0.0
 41
5.0
 42
5.0
 43
5.0
 50
180.0
  0
INSERT
  5
C4D1
330
B5B9
100
AcDbEntity
  8
30
 62
     0
370
    -2
100
AcDbBlockReference
  2
_Open
 10
265.0
 20
-99.91357221899995
 30
0.0
 41
5.0
 42
5.0
 43
5.0
  0
POINT
  5
C4D2
330
B5B9
100
AcDbEntity
  8
Defpoints
 62
     0
100
AcDbPoint
 10
0.0000000000000284
 20
-57.3336118910002
 30
0.0
  0
POINT
  5
C4D3
330
B5B9
100
AcDbEntity
  8
Defpoints
 62
     0
100
AcDbPoint
 10
265.0
 20
-0.0000000000000568
 30
0.0
  0
POINT
  5
C4D4
330
B5B9
100
AcDbEntity
  8
Defpoints
 62
     0
100
AcDbPoint
 10
265.0
 20
-99.91357221899995
 30
0.0
  0
ENDBLK
  5
B5C4
330
B5B9
100
AcDbEntity
  8
0
100
AcDbBlockEnd
  0
BLOCK
  5
B5CF
330
B5C5
100
AcDbEntity
  8
0
100
AcDbBlockBegin
  2
*D24
 70
     1
 10
0.0
 20
0.0
 30
0.0
  3
*D24
  1

  0
LINE
  5
C4BA
330
B5C5
100
AcDbEntity
  8
30
 62
     0
370
    -2
100
AcDbLine
 10
0.000000000000029
 20
600.0385861509995
 30
0.0
 11
0.0000000000000288
 21
596.8015095079997
 31
0.0
  0
LINE
  5
C4BB
330
B5C5
100
AcDbEntity
  8
30
 62
     0
370
    -2
100
AcDbLine
 10
260.0
 20
573.2
 30
0.0
 11
260.0
 21
596.8015095079997
 31
0.0
  0
LINE
  5
C4BC
330
B5C5
100
AcDbEntity
  8
30
 62
     0
370
    -2
100
AcDbLine
 10
5.000000000000028
 20
595.8015095079997
 30
0.0
 11
255.0
 21
595.8015095079997
 31
0.0
  0
MTEXT
  5
C4BD
330
B5C5
100
AcDbEntity
  8
30
 62
     0
100
AcDbMText
 10
130.0
 20
602.8015095079997
 30
0.0
 40
10.0
 41
0.0
 71
     5
 72
     1
  1
\A1;260
 73
     1
 44
1.0
1001
ACAD
1000
MTEXTBEGIN
1070
    73
1070
     1
1070
    44
1040
1.0
1070
    74
1070
     0
1000
MTEXTEND
  0
INSERT
  5
C4BE
330
B5C5
100
AcDbEntity
  8
30
 62
     0
370
    -2
100
AcDbBlockReference
  2
_Open
 10
0.0000000000000288
 20
595.8015095079997
 30
0.0
 41
5.0
 42
5.0
 43
5.0
 50
180.0
  0
INSERT
  5
C4BF
330
B5C5
100
AcDbEntity
  8
30
 62
     0
370
    -2
100
AcDbBlockReference
  2
_Open
 10
260.0
 20
595.8015095079997
 30
0.0
 41
5.0
 42
5.0
 43
5.0
  0
POINT
  5
C4C0
330
B5C5
100
AcDbEntity
  8
Defpoints
 62
     0
100
AcDbPoint
 10
0.0000000000000284
 20
590.0385861509995
 30
0.0
  0
POINT
  5
C4C1
330
B5C5
100
AcDbEntity
  8
Defpoints
 62
     0
100
AcDbPoint
 10
260.0
 20
563.2
 30
0.0
  0
POINT
  5
C4C2
330
B5C5
100
AcDbEntity
  8
Defpoints
 62
     0
100
AcDbPoint
 10
260.0
 20
595.8015095079997
 30
0.0
  0
ENDBLK
  5
B5D0
330
B5C5
100
AcDbEntity
  8
0
100
AcDbBlockEnd
  0
BLOCK
  5
B6EB
330
B6E1
100
AcDbEntity
  8
0
100
AcDbBlockBegin
  2
*D25
 70
     1
 10
0.0
 20
0.0
 30
0.0
  3
*D25
  1

  0
LINE
  5
C001
330
B6E1
100
AcDbEntity
  8
30
 62
     0
370
    -2
100
AcDbLine
 10
-1165.0
 20
1062.0
 30
0.0
 11
-1165.0
 21
947.3842652287068
 31
0.0
  0
LINE
  5
C002
330
B6E1
100
AcDbEntity
  8
30
 62
     0
370
    -2
100
AcDbLine
 10
-1000.0
 20
990.0
 30
0.0
 11
-1000.0
 21
947.3842652287068
 31
0.0
  0
LINE
  5
C003
330
B6E1
100
AcDbEntity
  8
30
 62
     0
370
    -2
100
AcDbLine
 10
-1160.0
 20
948.3842652287068
 30
0.0
 11
-1005.0
 21
948.3842652287068
 31
0.0
  0
INSERT
  5
C004
330
B6E1
100
AcDbEntity
  8
30
 62
     0
370
    -2
100
AcDbBlockReference
  2
_Open
 10
-1165.0
 20
948.3842652287068
 30
0.0
 41
5.0
 42
5.0
 43
5.0
 50
180.0
  0
INSERT
  5
C005
330
B6E1
100
AcDbEntity
  8
30
 62
     0
370
    -2
100
AcDbBlockReference
  2
_Open
 10
-1000.0
 20
948.3842652287068
 30
0.0
 41
5.0
 42
5.0
 43
5.0
  0
MTEXT
  5
C006
330
B6E1
100
AcDbEntity
  8
30
 62
     0
100
AcDbMText
 10
-1082.5
 20
956.3842652287068
 30
0.0
 40
10.0
 41
0.0
 71
     5
 72
     1
  1
\A1;165
 73
     1
 44
1.0
1001
ACAD
1000
MTEXTBEGIN
1070
    73
1070
     1
1070
    44
1040
1.0
1070
    74
1070
     0
1000
MTEXTEND
  0
POINT
  5
C007
330
B6E1
100
AcDbEntity
  8
Defpoints
 62
     0
100
AcDbPoint
 10
-1165.0
 20
1072.0
 30
0.0
  0
POINT
  5
C008
330
B6E1
100
AcDbEntity
  8
Defpoints
 62
     0
100
AcDbPoint
 10
-1000.0
 20
1000.0
 30
0.0
  0
POINT
  5
C009
330
B6E1
100
AcDbEntity
  8
Defpoints
 62
     0
100
AcDbPoint
 10
-1000.0
 20
948.3842652287068
 30
0.0
  0
ENDBLK
  5
B6EC
330
B6E1
100
AcDbEntity
  8
0
100
AcDbBlockEnd
  0
BLOCK
  5
B6F7
330
B6ED
100
AcDbEntity
  8
0
100
AcDbBlockBegin
  2
*D26
 70
     1
 10
0.0
 20
0.0
 30
0.0
  3
*D26
  1

  0
LINE
  5
C00A
330
B6ED
100
AcDbEntity
  8
30
 62
     0
370
    -2
100
AcDbLine
 10
-729.9999389999997
 20
1247.000122
 30
0.0
 11
-660.1453061497758
 21
1247.000122
 31
0.0
  0
LINE
  5
C00B
330
B6ED
100
AcDbEntity
  8
30
 62
     0
370
    -2
100
AcDbLine
 10
-729.9999390000002
 20
1081.999999999997
 30
0.0
 11
-660.1453061497758
 21
1081.999999999997
 31
0.0
  0
LINE
  5
C00C
330
B6ED
100
AcDbEntity
  8
30
 62
     0
370
    -2
100
AcDbLine
 10
-661.1453061497758
 20
1242.000122
 30
0.0
 11
-661.1453061497758
 21
1086.999999999997
 31
0.0
  0
INSERT
  5
C00D
330
B6ED
100
AcDbEntity
  8
30
 62
     0
370
    -2
100
AcDbBlockReference
  2
_Open
 10
-661.1453061497758
 20
1247.000122
 30
0.0
 41
5.0
 42
5.0
 43
5.0
 50
90.0
  0
INSERT
  5
C00E
330
B6ED
100
AcDbEntity
  8
30
 62
     0
370
    -2
100
AcDbBlockReference
  2
_Open
 10
-661.1453061497758
 20
1081.999999999997
 30
0.0
 41
5.0
 42
5.0
 43
5.0
 50
270.0
  0
MTEXT
  5
C00F
330
B6ED
100
AcDbEntity
  8
30
 62
     0
100
AcDbMText
 10
-669.1453061497758
 20
1164.500060999998
 30
0.0
 40
10.0
 41
0.0
 71
     5
 72
     1
  1
\A1;165.000122
 11
0.0000000000000001
 21
1.0
 31
0.0
 73
     1
 44
1.0
1001
ACAD
1000
MTEXTBEGIN
1070
    73
1070
     1
1070
    44
1040
1.0
1070
    74
1070
     0
1000
MTEXTEND
  0
POINT
  5
C010
330
B6ED
100
AcDbEntity
  8
Defpoints
 62
     0
100
AcDbPoint
 10
-739.9999389999996
 20
1247.000122
 30
0.0
  0
POINT
  5
C011
330
B6ED
100
AcDbEntity
  8
Defpoints
 62
     0
100
AcDbPoint
 10
-739.9999390000003
 20
1081.999999999997
 30
0.0
  0
POINT
  5
C012
330
B6ED
100
AcDbEntity
  8
Defpoints
 62
     0
100
AcDbPoint
 10
-661.1453061497758
 20
1081.999999999997
 30
0.0
  0
ENDBLK
  5
B6F8
330
B6ED
100
AcDbEntity
  8
0
100
AcDbBlockEnd
  0
BLOCK
  5
B703
330
B6F9
100
AcDbEntity
  8
0
100
AcDbBlockBegin
  2
*D27
 70
     1
 10
0.0
 20
0.0
 30
0.0
  3
*D27
  1

  0
LINE
  5
C013
330
B6F9
100
AcDbEntity
  8
30
 62
     0
370
    -2
100
AcDbLine
 10
-732.9999389999997
 20
1081.999999999997
 30
0.0
 11
-659.6453061497758
 21
1081.999999999997
 31
0.0
  0
LINE
  5
C014
330
B6F9
100
AcDbEntity
  8
30
 62
     0
370
    -2
100
AcDbLine
 10
-732.9999389999997
 20
1000.0
 30
0.0
 11
-659.6453061497758
 21
1000.0
 31
0.0
  0
LINE
  5
C015
330
B6F9
100
AcDbEntity
  8
30
 62
     0
370
    -2
100
AcDbLine
 10
-660.6453061497758
 20
1076.999999999997
 30
0.0
 11
-660.6453061497758
 21
1005.0
 31
0.0
  0
INSERT
  5
C016
330
B6F9
100
AcDbEntity
  8
30
 62
     0
370
    -2
100
AcDbBlockReference
  2
_Open
 10
-660.6453061497758
 20
1081.999999999997
 30
0.0
 41
5.0
 42
5.0
 43
5.0
 50
90.0
  0
INSERT
  5
C017
330
B6F9
100
AcDbEntity
  8
30
 62
     0
370
    -2
100
AcDbBlockReference
  2
_Open
 10
-660.6453061497758
 20
1000.0
 30
0.0
 41
5.0
 42
5.0
 43
5.0
 50
270.0
  0
MTEXT
  5
C018
330
B6F9
100
AcDbEntity
  8
30
 62
     0
100
AcDbMText
 10
-668.6453061497758
 20
1040.999999999999
 30
0.0
 40
10.0
 41
0.0
 71
     5
 72
     1
  1
\A1;82
 11
0.0000000000000001
 21
1.0
 31
0.0
 73
     1
 44
1.0
1001
ACAD
1000
MTEXTBEGIN
1070
    73
1070
     1
1070
    44
1040
1.0
1070
    74
1070
     0
1000
MTEXTEND
  0
POINT
  5
C019
330
B6F9
100
AcDbEntity
  8
Defpoints
 62
     0
100
AcDbPoint
 10
-742.9999389999997
 20
1081.999999999997
 30
0.0
  0
POINT
  5
C01A
330
B6F9
100
AcDbEntity
  8
Defpoints
 62
     0
100
AcDbPoint
 10
-742.9999389999997
 20
1000.0
 30
0.0
  0
POINT
  5
C01B
330
B6F9
100
AcDbEntity
  8
Defpoints
 62
     0
100
AcDbPoint
 10
-660.6453061497758
 20
1000.0
 30
0.0
  0
ENDBLK
  5
B704
330
B6F9
100
AcDbEntity
  8
0
100
AcDbBlockEnd
  0
BLOCK
  5
B70F
330
B705
100
AcDbEntity
  8
0
100
AcDbBlockBegin
  2
*D28
 70
     1
 10
0.0
 20
0.0
 30
0.0
  3
*D28
  1

  0
LINE
  5
C01C
330
B705
100
AcDbEntity
  8
30
 62
     0
370
    -2
100
AcDbLine
 10
-1000.0
 20
988.0
 30
0.0
 11
-1000.0
 21
947.3842652287068
 31
0.0
  0
LINE
  5
C01D
330
B705
100
AcDbEntity
  8
30
 62
     0
370
    -2
100
AcDbLine
 10
-749.9999390000002
 20
1061.999999999998
 30
0.0
 11
-749.9999390000002
 21
947.3842652287068
 31
0.0
  0
LINE
  5
C01E
330
B705
100
AcDbEntity
  8
30
 62
     0
370
    -2
100
AcDbLine
 10
-995.0
 20
948.3842652287068
 30
0.0
 11
-754.9999390000002
 21
948.3842652287068
 31
0.0
  0
INSERT
  5
C01F
330
B705
100
AcDbEntity
  8
30
 62
     0
370
    -2
100
AcDbBlockReference
  2
_Open
 10
-1000.0
 20
948.3842652287068
 30
0.0
 41
5.0
 42
5.0
 43
5.0
 50
180.0
  0
INSERT
  5
C020
330
B705
100
AcDbEntity
  8
30
 62
     0
370
    -2
100
AcDbBlockReference
  2
_Open
 10
-749.9999390000002
 20
948.3842652287068
 30
0.0
 41
5.0
 42
5.0
 43
5.0
  0
MTEXT
  5
C021
330
B705
100
AcDbEntity
  8
30
 62
     0
100
AcDbMText
 10
-874.9999695000001
 20
956.3842652287068
 30
0.0
 40
10.0
 41
0.0
 71
     5
 72
     1
  1
\A1;250.000061
 73
     1
 44
1.0
1001
ACAD
1000
MTEXTBEGIN
1070
    73
1070
     1
1070
    44
1040
1.0
1070
    74
1070
     0
1000
MTEXTEND
  0
POINT
  5
C022
330
B705
100
AcDbEntity
  8
Defpoints
 62
     0
100
AcDbPoint
 10
-1000.0
 20
998.0
 30
0.0
  0
POINT
  5
C023
330
B705
100
AcDbEntity
  8
Defpoints
 62
     0
100
AcDbPoint
 10
-749.9999390000002
 20
1071.999999999998
 30
0.0
  0
POINT
  5
C024
330
B705
100
AcDbEntity
  8
Defpoints
 62
     0
100
AcDbPoint
 10
-749.9999390000002
 20
948.3842652287068
 30
0.0
  0
ENDBLK
  5
B710
330
B705
100
AcDbEntity
  8
0
100
AcDbBlockEnd
  0
BLOCK
  5
B851
330
B846
100
AcDbEntity
  8
0
100
AcDbBlockBegin
  2
*D29
 70
     1
 10
0.0
 20
0.0
 30
0.0
  3
*D29
  1

  0
LINE
  5
C4F9
330
B846
100
AcDbEntity
  8
30
 62
     0
370
    -2
100
AcDbLine
 10
-865.0
 20
29.99999999999987
 30
0.0
 11
-775.493442411
 21
29.99999999999984
 31
0.0
  0
LINE
  5
C4FA
330
B846
100
AcDbEntity
  8
30
 62
     0
370
    -2
100
AcDbLine
 10
-865.0
 20
-0.0000000000000028
 30
0.0
 11
-775.493442411
 21
-0.0000000000000282
 31
0.0
  0
LINE
  5
C4FB
330
B846
100
AcDbEntity
  8
30
 62
     0
370
    -2
100
AcDbLine
 10
-776.493442411
 20
24.99999999999984
 30
0.0
 11
-776.493442411
 21
4.999999999999971
 31
0.0
  0
LINE
  5
C4FC
330
B846
100
AcDbEntity
  8
30
 62
     0
370
    -2
100
AcDbLine
 10
-776.493442411
 20
-35.89086825023811
 30
0.0
 11
-776.493442411
 21
-0.0000000000000279
 31
0.0
  0
MTEXT
  5
C4FD
330
B846
100
AcDbEntity
  8
30
 62
     0
100
AcDbMText
 10
-784.493442411
 20
-24.79563015500013
 30
0.0
 40
10.0
 41
0.0
 71
     5
 72
     1
  1
\A1;30
 11
0.0000000000000001
 21
1.0
 31
0.0
 73
     1
 44
1.0
1001
ACAD
1000
MTEXTBEGIN
1070
    73
1070
     1
1070
    44
1040
1.0
1070
    74
1070
     0
1000
MTEXTEND
  0
INSERT
  5
C4FE
330
B846
100
AcDbEntity
  8
30
 62
     0
370
    -2
100
AcDbBlockReference
  2
_Open
 10
-776.493442411
 20
29.99999999999984
 30
0.0
 41
5.0
 42
5.0
 43
5.0
 50
90.0
  0
INSERT
  5
C4FF
330
B846
100
AcDbEntity
  8
30
 62
     0
370
    -2
100
AcDbBlockReference
  2
_Open
 10
-776.493442411
 20
-0.0000000000000279
 30
0.0
 41
5.0
 42
5.0
 43
5.0
 50
270.0
  0
POINT
  5
C500
330
B846
100
AcDbEntity
  8
Defpoints
 62
     0
100
AcDbPoint
 10
-875.0
 20
29.99999999999987
 30
0.0
  0
POINT
  5
C501
330
B846
100
AcDbEntity
  8
Defpoints
 62
     0
100
AcDbPoint
 10
-875.0
 20
0.0
 30
0.0
  0
POINT
  5
C502
330
B846
100
AcDbEntity
  8
Defpoints
 62
     0
100
AcDbPoint
 10
-776.493442411
 20
-0.0000000000000279
 30
0.0
  0
ENDBLK
  5
B852
330
B846
100
AcDbEntity
  8
0
100
AcDbBlockEnd
  0
BLOCK
  5
B85D
330
B853
100
AcDbEntity
  8
0
100
AcDbBlockBegin
  2
*D30
 70
     1
 10
0.0
 20
0.0
 30
0.0
  3
*D30
  1

  0
LINE
  5
C503
330
B853
100
AcDbEntity
  8
30
 62
     0
370
    -2
100
AcDbLine
 10
-1125.0
 20
19.99999999999987
 30
0.0
 11
-1125.0
 21
-69.34452665800006
 31
0.0
  0
LINE
  5
C504
330
B853
100
AcDbEntity
  8
30
 62
     0
370
    -2
100
AcDbLine
 10
-875.0
 20
19.99999999999987
 30
0.0
 11
-875.0
 21
-69.34452665800006
 31
0.0
  0
LINE
  5
C505
330
B853
100
AcDbEntity
  8
30
 62
     0
370
    -2
100
AcDbLine
 10
-1120.0
 20
-68.34452665800006
 30
0.0
 11
-880.0
 21
-68.34452665800006
 31
0.0
  0
MTEXT
  5
C506
330
B853
100
AcDbEntity
  8
30
 62
     0
100
AcDbMText
 10
-996.0432078769999
 20
-60.34452665800007
 30
0.0
 40
10.0
 41
0.0
 71
     5
 72
     1
  1
\A1;250
 73
     1
 44
1.0
1001
ACAD
1000
MTEXTBEGIN
1070
    73
1070
     1
1070
    44
1040
1.0
1070
    74
1070
     0
1000
MTEXTEND
  0
INSERT
  5
C507
330
B853
100
AcDbEntity
  8
30
 62
     0
370
    -2
100
AcDbBlockReference
  2
_Open
 10
-1125.0
 20
-68.34452665800006
 30
0.0
 41
5.0
 42
5.0
 43
5.0
 50
180.0
  0
INSERT
  5
C508
330
B853
100
AcDbEntity
  8
30
 62
     0
370
    -2
100
AcDbBlockReference
  2
_Open
 10
-875.0
 20
-68.34452665800006
 30
0.0
 41
5.0
 42
5.0
 43
5.0
  0
POINT
  5
C509
330
B853
100
AcDbEntity
  8
Defpoints
 62
     0
100
AcDbPoint
 10
-1125.0
 20
29.99999999999987
 30
0.0
  0
POINT
  5
C50A
330
B853
100
AcDbEntity
  8
Defpoints
 62
     0
100
AcDbPoint
 10
-875.0
 20
29.99999999999987
 30
0.0
  0
POINT
  5
C50B
330
B853
100
AcDbEntity
  8
Defpoints
 62
     0
100
AcDbPoint
 10
-875.0
 20
-68.34452665800006
 30
0.0
  0
ENDBLK
  5
B85E
330
B853
100
AcDbEntity
  8
0
100
AcDbBlockEnd
  0
BLOCK
  5
B869
330
B85F
100
AcDbEntity
  8
0
100
AcDbBlockBegin
  2
*D31
 70
     1
 10
0.0
 20
0.0
 30
0.0
  3
*D31
  1

  0
LINE
  5
C4E7
330
B85F
100
AcDbEntity
  8
30
 62
     0
370
    -2
100
AcDbLine
 10
-701.8355980780001
 20
-0.0000000000001165
 30
0.0
 11
-586.6109068119999
 21
-0.0000000000001492
 31
0.0
  0
LINE
  5
C4E8
330
B85F
100
AcDbEntity
  8
30
 62
     0
370
    -2
100
AcDbLine
 10
-665.0
 20
549.9999999999996
 30
0.0
 11
-586.6109068119999
 21
549.9999999999996
 31
0.0
  0
LINE
  5
C4E9
330
B85F
100
AcDbEntity
  8
30
 62
     0
370
    -2
100
AcDbLine
 10
-587.6109068119999
 20
4.999999999999849
 30
0.0
 11
-587.6109068119999
 21
544.9999999999996
 31
0.0
  0
MTEXT
  5
C4EA
330
B85F
100
AcDbEntity
  8
30
 62
     0
100
AcDbMText
 10
-595.6109068119999
 20
265.9598367739998
 30
0.0
 40
10.0
 41
0.0
 71
     5
 72
     1
  1
\A1;550
 11
0.0000000000000001
 21
1.0
 31
0.0
 73
     1
 44
1.0
1001
ACAD
1000
MTEXTBEGIN
1070
    73
1070
     1
1070
    44
1040
1.0
1070
    74
1070
     0
1000
MTEXTEND
  0
INSERT
  5
C4EB
330
B85F
100
AcDbEntity
  8
30
 62
     0
370
    -2
100
AcDbBlockReference
  2
_Open
 10
-587.6109068119999
 20
-0.0000000000001489
 30
0.0
 41
5.0
 42
5.0
 43
5.0
 50
270.0
  0
INSERT
  5
C4EC
330
B85F
100
AcDbEntity
  8
30
 62
     0
370
    -2
100
AcDbBlockReference
  2
_Open
 10
-587.6109068119999
 20
549.9999999999996
 30
0.0
 41
5.0
 42
5.0
 43
5.0
 50
90.0
  0
POINT
  5
C4ED
330
B85F
100
AcDbEntity
  8
Defpoints
 62
     0
100
AcDbPoint
 10
-711.8355980780002
 20
-0.0000000000001137
 30
0.0
  0
POINT
  5
C4EE
330
B85F
100
AcDbEntity
  8
Defpoints
 62
     0
100
AcDbPoint
 10
-675.0
 20
549.9999999999996
 30
0.0
  0
POINT
  5
C4EF
330
B85F
100
AcDbEntity
  8
Defpoints
 62
     0
100
AcDbPoint
 10
-587.6109068119999
 20
549.9999999999996
 30
0.0
  0
ENDBLK
  5
B86A
330
B85F
100
AcDbEntity
  8
0
100
AcDbBlockEnd
  0
BLOCK
  5
B875
330
B86B
100
AcDbEntity
  8
0
100
AcDbBlockBegin
  2
*D32
 70
     1
 10
0.0
 20
0.0
 30
0.0
  3
*D32
  1

  0
LINE
  5
C50C
330
B86B
100
AcDbEntity
  8
30
 62
     0
370
    -2
100
AcDbLine
 10
-1000.0
 20
-87.8840870380003
 30
0.0
 11
-1000.0
 21
-184.8987974260001
 31
0.0
  0
LINE
  5
C50D
330
B86B
100
AcDbEntity
  8
30
 62
     0
370
    -2
100
AcDbLine
 10
-675.0
 20
-110.0
 30
0.0
 11
-675.0
 21
-184.8987974260001
 31
0.0
  0
LINE
  5
C50E
330
B86B
100
AcDbEntity
  8
30
 62
     0
370
    -2
100
AcDbLine
 10
-995.0
 20
-183.8987974260001
 30
0.0
 11
-680.0
 21
-183.8987974260001
 31
0.0
  0
MTEXT
  5
C50F
330
B86B
100
AcDbEntity
  8
30
 62
     0
100
AcDbMText
 10
-842.7943398449999
 20
-175.898797426
 30
0.0
 40
10.0
 41
0.0
 71
     5
 72
     1
  1
\A1;325
 73
     1
 44
1.0
1001
ACAD
1000
MTEXTBEGIN
1070
    73
1070
     1
1070
    44
1040
1.0
1070
    74
1070
     0
1000
MTEXTEND
  0
INSERT
  5
C510
330
B86B
100
AcDbEntity
  8
30
 62
     0
370
    -2
100
AcDbBlockReference
  2
_Open
 10
-1000.0
 20
-183.8987974260001
 30
0.0
 41
5.0
 42
5.0
 43
5.0
 50
180.0
  0
INSERT
  5
C511
330
B86B
100
AcDbEntity
  8
30
 62
     0
370
    -2
100
AcDbBlockReference
  2
_Open
 10
-675.0
 20
-183.8987974260001
 30
0.0
 41
5.0
 42
5.0
 43
5.0
  0
POINT
  5
C512
330
B86B
100
AcDbEntity
  8
Defpoints
 62
     0
100
AcDbPoint
 10
-1000.0
 20
-77.8840870380003
 30
0.0
  0
POINT
  5
C513
330
B86B
100
AcDbEntity
  8
Defpoints
 62
     0
100
AcDbPoint
 10
-675.0
 20
-100.0000000000001
 30
0.0
  0
POINT
  5
C514
330
B86B
100
AcDbEntity
  8
Defpoints
 62
     0
100
AcDbPoint
 10
-675.0
 20
-183.8987974260001
 30
0.0
  0
ENDBLK
  5
B876
330
B86B
100
AcDbEntity
  8
0
100
AcDbBlockEnd
  0
BLOCK
  5
B881
330
B877
100
AcDbEntity
  8
0
100
AcDbBlockBegin
  2
*D33
 70
     1
 10
0.0
 20
0.0
 30
0.0
  3
*D33
  1

  0
LINE
  5
C515
330
B877
100
AcDbEntity
  8
30
 62
     0
370
    -2
100
AcDbLine
 10
-1000.0
 20
-87.8840870380003
 30
0.0
 11
-1000.0
 21
-184.8987974260001
 31
0.0
  0
LINE
  5
C516
330
B877
100
AcDbEntity
  8
30
 62
     0
370
    -2
100
AcDbLine
 10
-1240.0
 20
-110.0
 30
0.0
 11
-1240.0
 21
-184.8987974260001
 31
0.0
  0
LINE
  5
C517
330
B877
100
AcDbEntity
  8
30
 62
     0
370
    -2
100
AcDbLine
 10
-1005.0
 20
-183.8987974260001
 30
0.0
 11
-1235.0
 21
-183.8987974260001
 31
0.0
  0
MTEXT
  5
C518
330
B877
100
AcDbEntity
  8
30
 62
     0
100
AcDbMText
 10
-1120.40545096
 20
-175.898797426
 30
0.0
 40
10.0
 41
0.0
 71
     5
 72
     1
  1
\A1;240
 73
     1
 44
1.0
1001
ACAD
1000
MTEXTBEGIN
1070
    73
1070
     1
1070
    44
1040
1.0
1070
    74
1070
     0
1000
MTEXTEND
  0
INSERT
  5
C519
330
B877
100
AcDbEntity
  8
30
 62
     0
370
    -2
100
AcDbBlockReference
  2
_Open
 10
-1000.0
 20
-183.8987974260001
 30
0.0
 41
5.0
 42
5.0
 43
5.0
  0
INSERT
  5
C51A
330
B877
100
AcDbEntity
  8
30
 62
     0
370
    -2
100
AcDbBlockReference
  2
_Open
 10
-1240.0
 20
-183.8987974260001
 30
0.0
 41
5.0
 42
5.0
 43
5.0
 50
180.0
  0
POINT
  5
C51B
330
B877
100
AcDbEntity
  8
Defpoints
 62
     0
100
AcDbPoint
 10
-1000.0
 20
-77.8840870380003
 30
0.0
  0
POINT
  5
C51C
330
B877
100
AcDbEntity
  8
Defpoints
 62
     0
100
AcDbPoint
 10
-1240.0
 20
-100.0000000000001
 30
0.0
  0
POINT
  5
C51D
330
B877
100
AcDbEntity
  8
Defpoints
 62
     0
100
AcDbPoint
 10
-1240.0
 20
-183.8987974260001
 30
0.0
  0
ENDBLK
  5
B882
330
B877
100
AcDbEntity
  8
0
100
AcDbBlockEnd
  0
BLOCK
  5
B899
330
B88F
100
AcDbEntity
  8
0
100
AcDbBlockBegin
  2
*D34
 70
     1
 10
0.0
 20
0.0
 30
0.0
  3
*D34
  1

  0
LINE
  5
C4F0
330
B88F
100
AcDbEntity
  8
30
 62
     0
370
    -2
100
AcDbLine
 10
-865.0
 20
364.9999999999995
 30
0.0
 11
-775.4934424109999
 21
364.9999999999995
 31
0.0
  0
LINE
  5
C4F1
330
B88F
100
AcDbEntity
  8
30
 62
     0
370
    -2
100
AcDbLine
 10
-865.0
 20
29.99999999999987
 30
0.0
 11
-775.493442411
 21
29.99999999999984
 31
0.0
  0
LINE
  5
C4F2
330
B88F
100
AcDbEntity
  8
30
 62
     0
370
    -2
100
AcDbLine
 10
-776.4934424109999
 20
359.9999999999994
 30
0.0
 11
-776.493442411
 21
34.99999999999984
 31
0.0
  0
MTEXT
  5
C4F3
330
B88F
100
AcDbEntity
  8
30
 62
     0
100
AcDbMText
 10
-784.493442411
 20
211.8006790989999
 30
0.0
 40
10.0
 41
0.0
 71
     5
 72
     1
  1
\A1;335
 11
0.0000000000000001
 21
1.0
 31
0.0
 73
     1
 44
1.0
1001
ACAD
1000
MTEXTBEGIN
1070
    73
1070
     1
1070
    44
1040
1.0
1070
    74
1070
     0
1000
MTEXTEND
  0
INSERT
  5
C4F4
330
B88F
100
AcDbEntity
  8
30
 62
     0
370
    -2
100
AcDbBlockReference
  2
_Open
 10
-776.4934424109999
 20
364.9999999999995
 30
0.0
 41
5.0
 42
5.0
 43
5.0
 50
90.0
  0
INSERT
  5
C4F5
330
B88F
100
AcDbEntity
  8
30
 62
     0
370
    -2
100
AcDbBlockReference
  2
_Open
 10
-776.493442411
 20
29.99999999999984
 30
0.0
 41
5.0
 42
5.0
 43
5.0
 50
270.0
  0
POINT
  5
C4F6
330
B88F
100
AcDbEntity
  8
Defpoints
 62
     0
100
AcDbPoint
 10
-875.0
 20
364.9999999999995
 30
0.0
  0
POINT
  5
C4F7
330
B88F
100
AcDbEntity
  8
Defpoints
 62
     0
100
AcDbPoint
 10
-875.0
 20
29.99999999999987
 30
0.0
  0
POINT
  5
C4F8
330
B88F
100
AcDbEntity
  8
Defpoints
 62
     0
100
AcDbPoint
 10
-776.493442411
 20
29.99999999999984
 30
0.0
  0
ENDBLK
  5
B89A
330
B88F
100
AcDbEntity
  8
0
100
AcDbBlockEnd
  0
BLOCK
  5
BB76
330
BB6C
100
AcDbEntity
  8
0
100
AcDbBlockBegin
  2
*D35
 70
     1
 10
0.0
 20
0.0
 30
0.0
  3
*D35
  1

  0
LINE
  5
C51E
330
BB6C
100
AcDbEntity
  8
30
 62
     0
370
    -2
100
AcDbLine
 10
1830.0
 20
533.0
 30
0.0
 11
1830.0
 21
572.2650820209998
 31
0.0
  0
LINE
  5
C51F
330
BB6C
100
AcDbEntity
  8
30
 62
     0
370
    -2
100
AcDbLine
 10
1915.0
 20
538.9974009839996
 30
0.0
 11
1915.0
 21
572.2650820209998
 31
0.0
  0
LINE
  5
C520
330
BB6C
100
AcDbEntity
  8
30
 62
     0
370
    -2
100
AcDbLine
 10
1835.0
 20
571.2650820209997
 30
0.0
 11
1910.0
 21
571.2650820209997
 31
0.0
  0
MTEXT
  5
C521
330
BB6C
100
AcDbEntity
  8
30
 62
     0
100
AcDbMText
 10
1874.773589039999
 20
579.2650820209997
 30
0.0
 40
10.0
 41
0.0
 71
     5
 72
     1
  1
\A1;85
 73
     1
 44
1.0
1001
ACAD
1000
MTEXTBEGIN
1070
    73
1070
     1
1070
    44
1040
1.0
1070
    74
1070
     0
1000
MTEXTEND
  0
INSERT
  5
C522
330
BB6C
100
AcDbEntity
  8
30
 62
     0
370
    -2
100
AcDbBlockReference
  2
_Open
 10
1830.0
 20
571.2650820209997
 30
0.0
 41
5.0
 42
5.0
 43
5.0
 50
180.0
  0
INSERT
  5
C523
330
BB6C
100
AcDbEntity
  8
30
 62
     0
370
    -2
100
AcDbBlockReference
  2
_Open
 10
1915.0
 20
571.2650820209997
 30
0.0
 41
5.0
 42
5.0
 43
5.0
  0
POINT
  5
C524
330
BB6C
100
AcDbEntity
  8
Defpoints
 62
     0
100
AcDbPoint
 10
1830.0
 20
523.0
 30
0.0
  0
POINT
  5
C525
330
BB6C
100
AcDbEntity
  8
Defpoints
 62
     0
100
AcDbPoint
 10
1915.0
 20
528.9974009839998
 30
0.0
  0
POINT
  5
C526
330
BB6C
100
AcDbEntity
  8
Defpoints
 62
     0
100
AcDbPoint
 10
1915.0
 20
571.2650820209997
 30
0.0
  0
ENDBLK
  5
BB77
330
BB6C
100
AcDbEntity
  8
0
100
AcDbBlockEnd
  0
BLOCK
  5
BD28
330
BD1E
100
AcDbEntity
  8
0
100
AcDbBlockBegin
  2
*D36
 70
     1
 10
0.0
 20
0.0
 30
0.0
  3
*D36
  1

  0
LINE
  5
C530
330
BD1E
100
AcDbEntity
  8
30
 62
     0
370
    -2
100
AcDbLine
 10
-109.4342708139995
 20
1330.0
 30
0.0
 11
-208.5679535139994
 21
1330.0
 31
0.0
  0
LINE
  5
C531
330
BD1E
100
AcDbEntity
  8
30
 62
     0
370
    -2
100
AcDbLine
 10
-119.2864998979999
 20
1365.0
 30
0.0
 11
-208.5679535139994
 21
1365.0
 31
0.0
  0
LINE
  5
C532
330
BD1E
100
AcDbEntity
  8
30
 62
     0
370
    -2
100
AcDbLine
 10
-207.5679535139994
 20
1335.0
 30
0.0
 11
-207.5679535139994
 21
1360.0
 31
0.0
  0
MTEXT
  5
C533
330
BD1E
100
AcDbEntity
  8
30
 62
     0
100
AcDbMText
 10
-215.5679535139994
 20
1347.5
 30
0.0
 40
10.0
 41
0.0
 71
     5
 72
     1
  1
\A1;35*
 11
0.0000000000000001
 21
1.0
 31
0.0
 73
     1
 44
1.0
1001
ACAD
1000
MTEXTBEGIN
1070
    73
1070
     1
1070
    44
1040
1.0
1070
    74
1070
     0
1000
MTEXTEND
  0
INSERT
  5
C534
330
BD1E
100
AcDbEntity
  8
30
 62
     0
370
    -2
100
AcDbBlockReference
  2
_Open
 10
-207.5679535139994
 20
1330.0
 30
0.0
 41
5.0
 42
5.0
 43
5.0
 50
270.0
  0
INSERT
  5
C535
330
BD1E
100
AcDbEntity
  8
30
 62
     0
370
    -2
100
AcDbBlockReference
  2
_Open
 10
-207.5679535139994
 20
1365.0
 30
0.0
 41
5.0
 42
5.0
 43
5.0
 50
90.0
  0
POINT
  5
C536
330
BD1E
100
AcDbEntity
  8
Defpoints
 62
     0
100
AcDbPoint
 10
-99.43427081399953
 20
1330.0
 30
0.0
  0
POINT
  5
C537
330
BD1E
100
AcDbEntity
  8
Defpoints
 62
     0
100
AcDbPoint
 10
-109.2864998979998
 20
1365.0
 30
0.0
  0
POINT
  5
C538
330
BD1E
100
AcDbEntity
  8
Defpoints
 62
     0
100
AcDbPoint
 10
-207.5679535139994
 20
1365.0
 30
0.0
  0
ENDBLK
  5
BD29
330
BD1E
100
AcDbEntity
  8
0
100
AcDbBlockEnd
  0
BLOCK
  5
BD34
330
BD2A
100
AcDbEntity
  8
0
100
AcDbBlockBegin
  2
*D37
 70
     1
 10
0.0
 20
0.0
 30
0.0
  3
*D37
  1

  0
LINE
  5
C539
330
BD2A
100
AcDbEntity
  8
30
 62
     0
370
    -2
100
AcDbLine
 10
-0.0001008250008147
 20
973.0
 30
0.0
 11
-0.000100825000816
 21
952.0091017753019
 31
0.0
  0
LINE
  5
C53A
330
BD2A
100
AcDbEntity
  8
30
 62
     0
370
    -2
100
AcDbLine
 10
118.999899174999
 20
973.0
 30
0.0
 11
118.999899174999
 21
952.0091017753019
 31
0.0
  0
LINE
  5
C53B
330
BD2A
100
AcDbEntity
  8
30
 62
     0
370
    -2
100
AcDbLine
 10
4.999899174999183
 20
953.0091017753019
 30
0.0
 11
113.9998991749989
 21
953.0091017753019
 31
0.0
  0
INSERT
  5
C53C
330
BD2A
100
AcDbEntity
  8
30
 62
     0
370
    -2
100
AcDbBlockReference
  2
_Open
 10
-0.0001008250008159
 20
953.0091017753019
 30
0.0
 41
5.0
 42
5.0
 43
5.0
 50
180.0
  0
INSERT
  5
C53D
330
BD2A
100
AcDbEntity
  8
30
 62
     0
370
    -2
100
AcDbBlockReference
  2
_Open
 10
118.999899174999
 20
953.0091017753019
 30
0.0
 41
5.0
 42
5.0
 43
5.0
  0
MTEXT
  5
C53E
330
BD2A
100
AcDbEntity
  8
30
 62
     0
100
AcDbMText
 10
59.49989917499909
 20
961.0091017753019
 30
0.0
 40
10.0
 41
0.0
 71
     5
 72
     1
  1
\A1;119
 73
     1
 44
1.0
1001
ACAD
1000
MTEXTBEGIN
1070
    73
1070
     1
1070
    44
1040
1.0
1070
    74
1070
     0
1000
MTEXTEND
  0
POINT
  5
C53F
330
BD2A
100
AcDbEntity
  8
Defpoints
 62
     0
100
AcDbPoint
 10
-0.0001008250008141
 20
983.0
 30
0.0
  0
POINT
  5
C540
330
BD2A
100
AcDbEntity
  8
Defpoints
 62
     0
100
AcDbPoint
 10
118.999899174999
 20
983.0
 30
0.0
  0
POINT
  5
C541
330
BD2A
100
AcDbEntity
  8
Defpoints
 62
     0
100
AcDbPoint
 10
118.999899174999
 20
953.0091017753019
 30
0.0
  0
ENDBLK
  5
BD35
330
BD2A
100
AcDbEntity
  8
0
100
AcDbBlockEnd
  0
BLOCK
  5
BD40
330
BD36
100
AcDbEntity
  8
0
100
AcDbBlockBegin
  2
*D38
 70
     1
 10
0.0
 20
0.0
 30
0.0
  3
*D38
  1

  0
LINE
  5
C542
330
BD36
100
AcDbEntity
  8
30
 62
     0
370
    -2
100
AcDbLine
 10
-0.0001008250008147
 20
973.0
 30
0.0
 11
-0.000100825000816
 21
951.1757684419686
 31
0.0
  0
LINE
  5
C543
330
BD36
100
AcDbEntity
  8
30
 62
     0
370
    -2
100
AcDbLine
 10
-119.0001008250008
 20
973.0
 30
0.0
 11
-119.0001008250008
 21
951.1757684419686
 31
0.0
  0
LINE
  5
C544
330
BD36
100
AcDbEntity
  8
30
 62
     0
370
    -2
100
AcDbLine
 10
-5.000100825000814
 20
952.1757684419686
 30
0.0
 11
-114.0001008250008
 21
952.1757684419686
 31
0.0
  0
INSERT
  5
C545
330
BD36
100
AcDbEntity
  8
30
 62
     0
370
    -2
100
AcDbBlockReference
  2
_Open
 10
-0.000100825000816
 20
952.1757684419686
 30
0.0
 41
5.0
 42
5.0
 43
5.0
  0
INSERT
  5
C546
330
BD36
100
AcDbEntity
  8
30
 62
     0
370
    -2
100
AcDbBlockReference
  2
_Open
 10
-119.0001008250008
 20
952.1757684419686
 30
0.0
 41
5.0
 42
5.0
 43
5.0
 50
180.0
  0
MTEXT
  5
C547
330
BD36
100
AcDbEntity
  8
30
 62
     0
100
AcDbMText
 10
-59.50010082500082
 20
960.1757684419686
 30
0.0
 40
10.0
 41
0.0
 71
     5
 72
     1
  1
\A1;119
 73
     1
 44
1.0
1001
ACAD
1000
MTEXTBEGIN
1070
    73
1070
     1
1070
    44
1040
1.0
1070
    74
1070
     0
1000
MTEXTEND
  0
POINT
  5
C548
330
BD36
100
AcDbEntity
  8
Defpoints
 62
     0
100
AcDbPoint
 10
-0.0001008250008141
 20
983.0
 30
0.0
  0
POINT
  5
C549
330
BD36
100
AcDbEntity
  8
Defpoints
 62
     0
100
AcDbPoint
 10
-119.0001008250008
 20
983.0
 30
0.0
  0
POINT
  5
C54A
330
BD36
100
AcDbEntity
  8
Defpoints
 62
     0
100
AcDbPoint
 10
-119.0001008250008
 20
952.1757684419686
 30
0.0
  0
ENDBLK
  5
BD41
330
BD36
100
AcDbEntity
  8
0
100
AcDbBlockEnd
  0
BLOCK
  5
BD4C
330
BD42
100
AcDbEntity
  8
0
100
AcDbBlockBegin
  2
*D39
 70
     1
 10
0.0
 20
0.0
 30
0.0
  3
*D39
  1

  0
LINE
  5
C54B
330
BD42
100
AcDbEntity
  8
30
 62
     0
370
    -2
100
AcDbLine
 10
-109.2864998979998
 20
1375.0
 30
0.0
 11
-109.2864998979998
 21
1463.901372868
 31
0.0
  0
LINE
  5
C54C
330
BD42
100
AcDbEntity
  8
30
 62
     0
370
    -2
100
AcDbLine
 10
-57.28649989800008
 20
1375.0
 30
0.0
 11
-57.28649989800008
 21
1463.901372868
 31
0.0
  0
LINE
  5
C54D
330
BD42
100
AcDbEntity
  8
30
 62
     0
370
    -2
100
AcDbLine
 10
-104.2864998979998
 20
1462.901372868
 30
0.0
 11
-62.28649989800008
 21
1462.901372868
 31
0.0
  0
MTEXT
  5
C54E
330
BD42
100
AcDbEntity
  8
30
 62
     0
100
AcDbMText
 10
-82.27009280899958
 20
1470.901372868
 30
0.0
 40
10.0
 41
0.0
 71
     5
 72
     1
  1
\A1;52
 73
     1
 44
1.0
1001
ACAD
1000
MTEXTBEGIN
1070
    73
1070
     1
1070
    44
1040
1.0
1070
    74
1070
     0
1000
MTEXTEND
  0
INSERT
  5
C54F
330
BD42
100
AcDbEntity
  8
30
 62
     0
370
    -2
100
AcDbBlockReference
  2
_Open
 10
-109.2864998979998
 20
1462.901372868
 30
0.0
 41
5.0
 42
5.0
 43
5.0
 50
180.0
  0
INSERT
  5
C550
330
BD42
100
AcDbEntity
  8
30
 62
     0
370
    -2
100
AcDbBlockReference
  2
_Open
 10
-57.28649989800008
 20
1462.901372868
 30
0.0
 41
5.0
 42
5.0
 43
5.0
  0
POINT
  5
C551
330
BD42
100
AcDbEntity
  8
Defpoints
 62
     0
100
AcDbPoint
 10
-109.2864998979998
 20
1365.0
 30
0.0
  0
POINT
  5
C552
330
BD42
100
AcDbEntity
  8
Defpoints
 62
     0
100
AcDbPoint
 10
-57.28649989800008
 20
1365.0
 30
0.0
  0
POINT
  5
C553
330
BD42
100
AcDbEntity
  8
Defpoints
 62
     0
100
AcDbPoint
 10
-57.28649989800008
 20
1462.901372868
 30
0.0
  0
ENDBLK
  5
BD4D
330
BD42
100
AcDbEntity
  8
0
100
AcDbBlockEnd
  0
BLOCK
  5
BD58
330
BD4E
100
AcDbEntity
  8
0
100
AcDbBlockBegin
  2
*D40
 70
     1
 10
0.0
 20
0.0
 30
0.0
  3
*D40
  1

  0
LINE
  5
C554
330
BD4E
100
AcDbEntity
  8
30
 62
     0
370
    -2
100
AcDbLine
 10
-97.49999999999978
 20
1360.0
 30
0.0
 11
-97.49999999999978
 21
1423.824129261998
 31
0.0
  0
LINE
  5
C555
330
BD4E
100
AcDbEntity
  8
30
 62
     0
370
    -2
100
AcDbLine
 10
-72.49999999999976
 20
1360.0
 30
0.0
 11
-72.49999999999976
 21
1423.824129261998
 31
0.0
  0
LINE
  5
C556
330
BD4E
100
AcDbEntity
  8
30
 62
     0
370
    -2
100
AcDbLine
 10
-92.49999999999978
 20
1422.824129261998
 30
0.0
 11
-77.49999999999976
 21
1422.824129261998
 31
0.0
  0
MTEXT
  5
C557
330
BD4E
100
AcDbEntity
  8
30
 62
     0
100
AcDbMText
 10
-84.24881497999965
 20
1430.824129261998
 30
0.0
 40
10.0
 41
0.0
 71
     5
 72
     1
  1
\A1;25
 73
     1
 44
1.0
1001
ACAD
1000
MTEXTBEGIN
1070
    73
1070
     1
1070
    44
1040
1.0
1070
    74
1070
     0
1000
MTEXTEND
  0
INSERT
  5
C558
330
BD4E
100
AcDbEntity
  8
30
 62
     0
370
    -2
100
AcDbBlockReference
  2
_Open
 10
-97.49999999999978
 20
1422.824129261998
 30
0.0
 41
5.0
 42
5.0
 43
5.0
 50
180.0
  0
INSERT
  5
C559
330
BD4E
100
AcDbEntity
  8
30
 62
     0
370
    -2
100
AcDbBlockReference
  2
_Open
 10
-72.49999999999976
 20
1422.824129261998
 30
0.0
 41
5.0
 42
5.0
 43
5.0
  0
POINT
  5
C55A
330
BD4E
100
AcDbEntity
  8
Defpoints
 62
     0
100
AcDbPoint
 10
-97.49999999999978
 20
1350.0
 30
0.0
  0
POINT
  5
C55B
330
BD4E
100
AcDbEntity
  8
Defpoints
 62
     0
100
AcDbPoint
 10
-72.49999999999976
 20
1350.0
 30
0.0
  0
POINT
  5
C55C
330
BD4E
100
AcDbEntity
  8
Defpoints
 62
     0
100
AcDbPoint
 10
-72.49999999999976
 20
1422.824129261998
 30
0.0
  0
ENDBLK
  5
BD59
330
BD4E
100
AcDbEntity
  8
0
100
AcDbBlockEnd
  0
BLOCK
  5
BD62
330
BD5A
100
AcDbEntity
  8
0
100
AcDbBlockBegin
  2
*D41
 70
     1
 10
0.0
 20
0.0
 30
0.0
  3
*D41
  1

  0
LINE
  5
C55D
330
BD5A
100
AcDbEntity
  8
30
 62
     0
370
    -2
100
AcDbLine
 10
-107.4999999999997
 20
1350.0
 30
0.0
 11
-157.333915846
 21
1350.0
 31
0.0
  0
LINE
  5
C55E
330
BD5A
100
AcDbEntity
  8
30
 62
     0
370
    -2
100
AcDbLine
 10
-119.2864998979999
 20
1365.0
 30
0.0
 11
-157.333915846
 21
1365.0
 31
0.0
  0
MTEXT
  5
C55F
330
BD5A
100
AcDbEntity
  8
30
 62
     0
100
AcDbMText
 10
-164.3339158459999
 20
1357.318341476
 30
0.0
 40
10.0
 41
0.0
 71
     5
 72
     1
  1
\A1;15
 11
0.0000000000000001
 21
1.0
 31
0.0
 73
     1
 44
1.0
1001
ACAD
1000
MTEXTBEGIN
1070
    73
1070
     1
1070
    44
1040
1.0
1070
    74
1070
     0
1000
MTEXTEND
  0
LINE
  5
C560
330
BD5A
100
AcDbEntity
  8
30
 62
     0
370
    -2
100
AcDbLine
 10
-156.333915846
 20
1350.0
 30
0.0
 11
-156.333915846
 21
1365.0
 31
0.0
  0
POINT
  5
C561
330
BD5A
100
AcDbEntity
  8
Defpoints
 62
     0
100
AcDbPoint
 10
-97.49999999999978
 20
1350.0
 30
0.0
  0
POINT
  5
C562
330
BD5A
100
AcDbEntity
  8
Defpoints
 62
     0
100
AcDbPoint
 10
-109.2864998979998
 20
1365.0
 30
0.0
  0
POINT
  5
C563
330
BD5A
100
AcDbEntity
  8
Defpoints
 62
     0
100
AcDbPoint
 10
-156.333915846
 20
1365.0
 30
0.0
  0
ENDBLK
  5
BD63
330
BD5A
100
AcDbEntity
  8
0
100
AcDbBlockEnd
  0
BLOCK
  5
BDEE
330
BDE4
100
AcDbEntity
  8
0
100
AcDbBlockBegin
  2
*D42
 70
     1
 10
0.0
 20
0.0
 30
0.0
  3
*D42
  1

  0
LINE
  5
C564
330
BDE4
100
AcDbEntity
  8
30
 62
     0
370
    -2
100
AcDbLine
 10
-665.0
 20
-0.0000000000001165
 30
0.0
 11
-587.4442401453334
 21
-0.0000000000001385
 31
0.0
  0
LINE
  5
C565
330
BDE4
100
AcDbEntity
  8
30
 62
     0
370
    -2
100
AcDbLine
 10
-665.0
 20
-99.99999999999996
 30
0.0
 11
-587.4442401453334
 21
-100.0
 31
0.0
  0
LINE
  5
C566
330
BDE4
100
AcDbEntity
  8
30
 62
     0
370
    -2
100
AcDbLine
 10
-588.4442401453334
 20
-5.000000000000137
 30
0.0
 11
-588.4442401453334
 21
-94.99999999999998
 31
0.0
  0
INSERT
  5
C567
330
BDE4
100
AcDbEntity
  8
30
 62
     0
370
    -2
100
AcDbBlockReference
  2
_Open
 10
-588.4442401453334
 20
-0.0000000000001382
 30
0.0
 41
5.0
 42
5.0
 43
5.0
 50
90.0
  0
INSERT
  5
C568
330
BDE4
100
AcDbEntity
  8
30
 62
     0
370
    -2
100
AcDbBlockReference
  2
_Open
 10
-588.4442401453334
 20
-100.0
 30
0.0
 41
5.0
 42
5.0
 43
5.0
 50
270.0
  0
MTEXT
  5
C569
330
BDE4
100
AcDbEntity
  8
30
 62
     0
100
AcDbMText
 10
-596.4442401453334
 20
-50.00000000000015
 30
0.0
 40
10.0
 41
0.0
 71
     5
 72
     1
  1
\A1;100
 11
0.0000000000000001
 21
1.0
 31
0.0
 73
     1
 44
1.0
1001
ACAD
1000
MTEXTBEGIN
1070
    73
1070
     1
1070
    44
1040
1.0
1070
    74
1070
     0
1000
MTEXTEND
  0
POINT
  5
C56A
330
BDE4
100
AcDbEntity
  8
Defpoints
 62
     0
100
AcDbPoint
 10
-675.0
 20
-0.0000000000001137
 30
0.0
  0
POINT
  5
C56B
330
BDE4
100
AcDbEntity
  8
Defpoints
 62
     0
100
AcDbPoint
 10
-675.0
 20
-99.99999999999994
 30
0.0
  0
POINT
  5
C56C
330
BDE4
100
AcDbEntity
  8
Defpoints
 62
     0
100
AcDbPoint
 10
-588.4442401453334
 20
-100.0
 30
0.0
  0
ENDBLK
  5
BDEF
330
BDE4
100
AcDbEntity
  8
0
100
AcDbBlockEnd
  0
BLOCK
  5
BEB6
330
BEB3
100
AcDbEntity
  8
0
100
AcDbBlockBegin
  2
A$C63BB1B40
 70
     0
 10
0.0
 20
0.0
 30
0.0
  3
A$C63BB1B40
  1

  0
LWPOLYLINE
  5
BEB4
330
BEB3
100
AcDbEntity
  8
10
100
AcDbPolyline
 90
        4
 70
     1
 43
0.0
 10
-158.5000000000003
 20
277.0
 10
244.9999999999997
 20
277.0
 10
244.9999999999997
 20
0.0
 10
-158.5000000000003
 20
0.0
  0
LINE
  5
BEB5
330
BEB3
100
AcDbEntity
  8
10
100
AcDbLine
 10
118.9999999999997
 20
-17.0
 30
0.0
 11
-119.0000000000002
 21
-17.0
 31
0.0
  0
ENDBLK
  5
BEB7
330
BEB3
100
AcDbEntity
  8
0
100
AcDbBlockEnd
  0
BLOCK
  5
BF05
330
BEFB
100
AcDbEntity
  8
0
100
AcDbBlockBegin
  2
*D44
 70
     1
 10
0.0
 20
0.0
 30
0.0
  3
*D44
  1

  0
LINE
  5
C56D
330
BEFB
100
AcDbEntity
  8
30
 62
     0
370
    -2
100
AcDbLine
 10
859.0
 20
-87.00000000000022
 30
0.0
 11
859.0
 21
-230.9069754793083
 31
0.0
  0
LINE
  5
C56E
330
BEFB
100
AcDbEntity
  8
30
 62
     0
370
    -2
100
AcDbLine
 10
1224.0
 20
123.000001948
 30
0.0
 11
1224.0
 21
-230.9069754793083
 31
0.0
  0
LINE
  5
C56F
330
BEFB
100
AcDbEntity
  8
30
 62
     0
370
    -2
100
AcDbLine
 10
864.0
 20
-229.9069754793083
 30
0.0
 11
1219.0
 21
-229.9069754793083
 31
0.0
  0
INSERT
  5
C570
330
BEFB
100
AcDbEntity
  8
30
 62
     0
370
    -2
100
AcDbBlockReference
  2
_Open
 10
859.0
 20
-229.9069754793083
 30
0.0
 41
5.0
 42
5.0
 43
5.0
 50
180.0
  0
INSERT
  5
C571
330
BEFB
100
AcDbEntity
  8
30
 62
     0
370
    -2
100
AcDbBlockReference
  2
_Open
 10
1224.0
 20
-229.9069754793083
 30
0.0
 41
5.0
 42
5.0
 43
5.0
  0
MTEXT
  5
C572
330
BEFB
100
AcDbEntity
  8
30
 62
     0
100
AcDbMText
 10
1041.5
 20
-221.9069754793083
 30
0.0
 40
10.0
 41
0.0
 71
     5
 72
     1
  1
\A1;365
 73
     1
 44
1.0
1001
ACAD
1000
MTEXTBEGIN
1070
    73
1070
     1
1070
    44
1040
1.0
1070
    74
1070
     0
1000
MTEXTEND
  0
POINT
  5
C573
330
BEFB
100
AcDbEntity
  8
Defpoints
 62
     0
100
AcDbPoint
 10
859.0
 20
-77.00000000000024
 30
0.0
  0
POINT
  5
C574
330
BEFB
100
AcDbEntity
  8
Defpoints
 62
     0
100
AcDbPoint
 10
1224.0
 20
133.000001948
 30
0.0
  0
POINT
  5
C575
330
BEFB
100
AcDbEntity
  8
Defpoints
 62
     0
100
AcDbPoint
 10
1224.0
 20
-229.9069754793083
 30
0.0
  0
ENDBLK
  5
BF06
330
BEFB
100
AcDbEntity
  8
0
100
AcDbBlockEnd
  0
BLOCK
  5
C0BE
330
C0B4
100
AcDbEntity
  8
0
100
AcDbBlockBegin
  2
*D45
 70
     1
 10
0.0
 20
0.0
 30
0.0
  3
*D45
  1

  0
LINE
  5
C0B5
330
C0B4
100
AcDbEntity
  8
30
 62
     0
370
    -2
100
AcDbLine
 10
-729.9999999999997
 20
1246.999999999997
 30
0.0
 11
-659.6453671497756
 21
1246.999999999997
 31
0.0
  0
LINE
  5
C0B6
330
C0B4
100
AcDbEntity
  8
30
 62
     0
370
    -2
100
AcDbLine
 10
-730.0000000000001
 20
1081.999999999996
 30
0.0
 11
-659.6453671497756
 21
1081.999999999996
 31
0.0
  0
LINE
  5
C0B7
330
C0B4
100
AcDbEntity
  8
30
 62
     0
370
    -2
100
AcDbLine
 10
-660.6453671497757
 20
1241.999999999997
 30
0.0
 11
-660.6453671497757
 21
1086.999999999996
 31
0.0
  0
INSERT
  5
C0B8
330
C0B4
100
AcDbEntity
  8
30
 62
     0
370
    -2
100
AcDbBlockReference
  2
_Open
 10
-660.6453671497757
 20
1246.999999999997
 30
0.0
 41
5.0
 42
5.0
 43
5.0
 50
90.0
  0
INSERT
  5
C0B9
330
C0B4
100
AcDbEntity
  8
30
 62
     0
370
    -2
100
AcDbBlockReference
  2
_Open
 10
-660.6453671497757
 20
1081.999999999996
 30
0.0
 41
5.0
 42
5.0
 43
5.0
 50
270.0
  0
MTEXT
  5
C0BA
330
C0B4
100
AcDbEntity
  8
30
 62
     0
100
AcDbMText
 10
-668.6453671497758
 20
1164.499999999996
 30
0.0
 40
10.0
 41
0.0
 71
     5
 72
     1
  1
\A1;165
 11
0.0000000000000001
 21
1.0
 31
0.0
 73
     1
 44
1.0
1001
ACAD
1000
MTEXTBEGIN
1070
    73
1070
     1
1070
    44
1040
1.0
1070
    74
1070
     0
1000
MTEXTEND
  0
POINT
  5
C0BB
330
C0B4
100
AcDbEntity
  8
Defpoints
 62
     0
100
AcDbPoint
 10
-739.9999999999996
 20
1246.999999999997
 30
0.0
  0
POINT
  5
C0BC
330
C0B4
100
AcDbEntity
  8
Defpoints
 62
     0
100
AcDbPoint
 10
-740.0000000000001
 20
1081.999999999996
 30
0.0
  0
POINT
  5
C0BD
330
C0B4
100
AcDbEntity
  8
Defpoints
 62
     0
100
AcDbPoint
 10
-660.6453671497757
 20
1081.999999999996
 30
0.0
  0
ENDBLK
  5
C0BF
330
C0B4
100
AcDbEntity
  8
0
100
AcDbBlockEnd
  0
BLOCK
  5
C0CA
330
C0C0
100
AcDbEntity
  8
0
100
AcDbBlockBegin
  2
*D46
 70
     1
 10
0.0
 20
0.0
 30
0.0
  3
*D46
  1

  0
LINE
  5
C0C1
330
C0C0
100
AcDbEntity
  8
30
 62
     0
370
    -2
100
AcDbLine
 10
-732.9999999999996
 20
1081.999999999996
 30
0.0
 11
-659.6453671497756
 21
1081.999999999996
 31
0.0
  0
LINE
  5
C0C2
330
C0C0
100
AcDbEntity
  8
30
 62
     0
370
    -2
100
AcDbLine
 10
-732.9999999999996
 20
1000.0
 30
0.0
 11
-659.6453671497756
 21
1000.0
 31
0.0
  0
LINE
  5
C0C3
330
C0C0
100
AcDbEntity
  8
30
 62
     0
370
    -2
100
AcDbLine
 10
-660.6453671497757
 20
1076.999999999996
 30
0.0
 11
-660.6453671497757
 21
1005.0
 31
0.0
  0
INSERT
  5
C0C4
330
C0C0
100
AcDbEntity
  8
30
 62
     0
370
    -2
100
AcDbBlockReference
  2
_Open
 10
-660.6453671497757
 20
1081.999999999996
 30
0.0
 41
5.0
 42
5.0
 43
5.0
 50
90.0
  0
INSERT
  5
C0C5
330
C0C0
100
AcDbEntity
  8
30
 62
     0
370
    -2
100
AcDbBlockReference
  2
_Open
 10
-660.6453671497757
 20
1000.0
 30
0.0
 41
5.0
 42
5.0
 43
5.0
 50
270.0
  0
MTEXT
  5
C0C6
330
C0C0
100
AcDbEntity
  8
30
 62
     0
100
AcDbMText
 10
-668.6453671497758
 20
1040.999999999998
 30
0.0
 40
10.0
 41
0.0
 71
     5
 72
     1
  1
\A1;82
 11
0.0000000000000001
 21
1.0
 31
0.0
 73
     1
 44
1.0
1001
ACAD
1000
MTEXTBEGIN
1070
    73
1070
     1
1070
    44
1040
1.0
1070
    74
1070
     0
1000
MTEXTEND
  0
POINT
  5
C0C7
330
C0C0
100
AcDbEntity
  8
Defpoints
 62
     0
100
AcDbPoint
 10
-742.9999999999997
 20
1081.999999999996
 30
0.0
  0
POINT
  5
C0C8
330
C0C0
100
AcDbEntity
  8
Defpoints
 62
     0
100
AcDbPoint
 10
-742.9999999999997
 20
1000.0
 30
0.0
  0
POINT
  5
C0C9
330
C0C0
100
AcDbEntity
  8
Defpoints
 62
     0
100
AcDbPoint
 10
-660.6453671497757
 20
1000.0
 30
0.0
  0
ENDBLK
  5
C0CB
330
C0C0
100
AcDbEntity
  8
0
100
AcDbBlockEnd
  0
BLOCK
  5
C0D6
330
C0CC
100
AcDbEntity
  8
0
100
AcDbBlockBegin
  2
*D47
 70
     1
 10
0.0
 20
0.0
 30
0.0
  3
*D47
  1

  0
LINE
  5
C0CD
330
C0CC
100
AcDbEntity
  8
30
 62
     0
370
    -2
100
AcDbLine
 10
-1165.0
 20
1062.0
 30
0.0
 11
-1165.0
 21
947.3842652287068
 31
0.0
  0
LINE
  5
C0CE
330
C0CC
100
AcDbEntity
  8
30
 62
     0
370
    -2
100
AcDbLine
 10
-999.9999999999996
 20
990.0
 30
0.0
 11
-999.9999999999996
 21
947.3842652287068
 31
0.0
  0
LINE
  5
C0CF
330
C0CC
100
AcDbEntity
  8
30
 62
     0
370
    -2
100
AcDbLine
 10
-1160.0
 20
948.3842652287068
 30
0.0
 11
-1004.999999999999
 21
948.3842652287068
 31
0.0
  0
INSERT
  5
C0D0
330
C0CC
100
AcDbEntity
  8
30
 62
     0
370
    -2
100
AcDbBlockReference
  2
_Open
 10
-1165.0
 20
948.3842652287068
 30
0.0
 41
5.0
 42
5.0
 43
5.0
 50
180.0
  0
INSERT
  5
C0D1
330
C0CC
100
AcDbEntity
  8
30
 62
     0
370
    -2
100
AcDbBlockReference
  2
_Open
 10
-999.9999999999996
 20
948.3842652287068
 30
0.0
 41
5.0
 42
5.0
 43
5.0
  0
MTEXT
  5
C0D2
330
C0CC
100
AcDbEntity
  8
30
 62
     0
100
AcDbMText
 10
-1082.499999999998
 20
956.3842652287068
 30
0.0
 40
10.0
 41
0.0
 71
     5
 72
     1
  1
\A1;165
 73
     1
 44
1.0
1001
ACAD
1000
MTEXTBEGIN
1070
    73
1070
     1
1070
    44
1040
1.0
1070
    74
1070
     0
1000
MTEXTEND
  0
POINT
  5
C0D3
330
C0CC
100
AcDbEntity
  8
Defpoints
 62
     0
100
AcDbPoint
 10
-1165.0
 20
1072.0
 30
0.0
  0
POINT
  5
C0D4
330
C0CC
100
AcDbEntity
  8
Defpoints
 62
     0
100
AcDbPoint
 10
-999.9999999999996
 20
1000.0
 30
0.0
  0
POINT
  5
C0D5
330
C0CC
100
AcDbEntity
  8
Defpoints
 62
     0
100
AcDbPoint
 10
-999.9999999999996
 20
948.3842652287068
 30
0.0
  0
ENDBLK
  5
C0D7
330
C0CC
100
AcDbEntity
  8
0
100
AcDbBlockEnd
  0
BLOCK
  5
C0E2
330
C0D8
100
AcDbEntity
  8
0
100
AcDbBlockBegin
  2
*D48
 70
     1
 10
0.0
 20
0.0
 30
0.0
  3
*D48
  1

  0
LINE
  5
C0D9
330
C0D8
100
AcDbEntity
  8
30
 62
     0
370
    -2
100
AcDbLine
 10
-999.9999999999996
 20
988.0
 30
0.0
 11
-999.9999999999996
 21
947.3842652287068
 31
0.0
  0
LINE
  5
C0DA
330
C0D8
100
AcDbEntity
  8
30
 62
     0
370
    -2
100
AcDbLine
 10
-749.9999999999996
 20
1061.999999999998
 30
0.0
 11
-749.9999999999996
 21
947.3842652287068
 31
0.0
  0
LINE
  5
C0DB
330
C0D8
100
AcDbEntity
  8
30
 62
     0
370
    -2
100
AcDbLine
 10
-994.9999999999997
 20
948.3842652287068
 30
0.0
 11
-754.9999999999997
 21
948.3842652287068
 31
0.0
  0
INSERT
  5
C0DC
330
C0D8
100
AcDbEntity
  8
30
 62
     0
370
    -2
100
AcDbBlockReference
  2
_Open
 10
-999.9999999999996
 20
948.3842652287068
 30
0.0
 41
5.0
 42
5.0
 43
5.0
 50
180.0
  0
INSERT
  5
C0DD
330
C0D8
100
AcDbEntity
  8
30
 62
     0
370
    -2
100
AcDbBlockReference
  2
_Open
 10
-749.9999999999996
 20
948.3842652287068
 30
0.0
 41
5.0
 42
5.0
 43
5.0
  0
MTEXT
  5
C0DE
330
C0D8
100
AcDbEntity
  8
30
 62
     0
100
AcDbMText
 10
-874.9999999999996
 20
956.3842652287068
 30
0.0
 40
10.0
 41
0.0
 71
     5
 72
     1
  1
\A1;250
 73
     1
 44
1.0
1001
ACAD
1000
MTEXTBEGIN
1070
    73
1070
     1
1070
    44
1040
1.0
1070
    74
1070
     0
1000
MTEXTEND
  0
POINT
  5
C0DF
330
C0D8
100
AcDbEntity
  8
Defpoints
 62
     0
100
AcDbPoint
 10
-999.9999999999996
 20
998.0
 30
0.0
  0
POINT
  5
C0E0
330
C0D8
100
AcDbEntity
  8
Defpoints
 62
     0
100
AcDbPoint
 10
-749.9999999999996
 20
1071.999999999998
 30
0.0
  0
POINT
  5
C0E1
330
C0D8
100
AcDbEntity
  8
Defpoints
 62
     0
100
AcDbPoint
 10
-749.9999999999996
 20
948.3842652287068
 30
0.0
  0
ENDBLK
  5
C0E3
330
C0D8
100
AcDbEntity
  8
0
100
AcDbBlockEnd
  0
BLOCK
  5
C116
330
C10C
100
AcDbEntity
  8
0
100
AcDbBlockBegin
  2
*D49
 70
     1
 10
0.0
 20
0.0
 30
0.0
  3
*D49
  1

  0
LINE
  5
C576
330
C10C
100
AcDbEntity
  8
30
 62
     0
370
    -2
100
AcDbLine
 10
-999.9999999999996
 20
988.0
 30
0.0
 11
-999.9999999999996
 21
947.3842652287068
 31
0.0
  0
LINE
  5
C577
330
C10C
100
AcDbEntity
  8
30
 62
     0
370
    -2
100
AcDbLine
 10
-749.9999999999996
 20
1061.999999999998
 30
0.0
 11
-749.9999999999996
 21
947.3842652287068
 31
0.0
  0
LINE
  5
C578
330
C10C
100
AcDbEntity
  8
30
 62
     0
370
    -2
100
AcDbLine
 10
-994.9999999999997
 20
948.3842652287068
 30
0.0
 11
-754.9999999999997
 21
948.3842652287068
 31
0.0
  0
INSERT
  5
C579
330
C10C
100
AcDbEntity
  8
30
 62
     0
370
    -2
100
AcDbBlockReference
  2
_Open
 10
-999.9999999999996
 20
948.3842652287068
 30
0.0
 41
5.0
 42
5.0
 43
5.0
 50
180.0
  0
INSERT
  5
C57A
330
C10C
100
AcDbEntity
  8
30
 62
     0
370
    -2
100
AcDbBlockReference
  2
_Open
 10
-749.9999999999996
 20
948.3842652287068
 30
0.0
 41
5.0
 42
5.0
 43
5.0
  0
MTEXT
  5
C57B
330
C10C
100
AcDbEntity
  8
30
 62
     0
100
AcDbMText
 10
-874.9999999999996
 20
956.3842652287068
 30
0.0
 40
10.0
 41
0.0
 71
     5
 72
     1
  1
\A1;250
 73
     1
 44
1.0
1001
ACAD
1000
MTEXTBEGIN
1070
    73
1070
     1
1070
    44
1040
1.0
1070
    74
1070
     0
1000
MTEXTEND
  0
POINT
  5
C57C
330
C10C
100
AcDbEntity
  8
Defpoints
 62
     0
100
AcDbPoint
 10
-999.9999999999996
 20
998.0
 30
0.0
  0
POINT
  5
C57D
330
C10C
100
AcDbEntity
  8
Defpoints
 62
     0
100
AcDbPoint
 10
-749.9999999999996
 20
1071.999999999998
 30
0.0
  0
POINT
  5
C57E
330
C10C
100
AcDbEntity
  8
Defpoints
 62
     0
100
AcDbPoint
 10
-749.9999999999996
 20
948.3842652287068
 30
0.0
  0
ENDBLK
  5
C117
330
C10C
100
AcDbEntity
  8
0
100
AcDbBlockEnd
  0
BLOCK
  5
C122
330
C118
100
AcDbEntity
  8
0
100
AcDbBlockBegin
  2
*D50
 70
     1
 10
0.0
 20
0.0
 30
0.0
  3
*D50
  1

  0
LINE
  5
C57F
330
C118
100
AcDbEntity
  8
30
 62
     0
370
    -2
100
AcDbLine
 10
-1165.0
 20
1062.0
 30
0.0
 11
-1165.0
 21
947.3842652287068
 31
0.0
  0
LINE
  5
C580
330
C118
100
AcDbEntity
  8
30
 62
     0
370
    -2
100
AcDbLine
 10
-999.9999999999996
 20
990.0
 30
0.0
 11
-999.9999999999996
 21
947.3842652287068
 31
0.0
  0
LINE
  5
C581
330
C118
100
AcDbEntity
  8
30
 62
     0
370
    -2
100
AcDbLine
 10
-1160.0
 20
948.3842652287068
 30
0.0
 11
-1004.999999999999
 21
948.3842652287068
 31
0.0
  0
INSERT
  5
C582
330
C118
100
AcDbEntity
  8
30
 62
     0
370
    -2
100
AcDbBlockReference
  2
_Open
 10
-1165.0
 20
948.3842652287068
 30
0.0
 41
5.0
 42
5.0
 43
5.0
 50
180.0
  0
INSERT
  5
C583
330
C118
100
AcDbEntity
  8
30
 62
     0
370
    -2
100
AcDbBlockReference
  2
_Open
 10
-999.9999999999996
 20
948.3842652287068
 30
0.0
 41
5.0
 42
5.0
 43
5.0
  0
MTEXT
  5
C584
330
C118
100
AcDbEntity
  8
30
 62
     0
100
AcDbMText
 10
-1082.499999999999
 20
956.3842652287068
 30
0.0
 40
10.0
 41
0.0
 71
     5
 72
     1
  1
\A1;165
 73
     1
 44
1.0
1001
ACAD
1000
MTEXTBEGIN
1070
    73
1070
     1
1070
    44
1040
1.0
1070
    74
1070
     0
1000
MTEXTEND
  0
POINT
  5
C585
330
C118
100
AcDbEntity
  8
Defpoints
 62
     0
100
AcDbPoint
 10
-1165.0
 20
1072.0
 30
0.0
  0
POINT
  5
C586
330
C118
100
AcDbEntity
  8
Defpoints
 62
     0
100
AcDbPoint
 10
-999.9999999999996
 20
1000.0
 30
0.0
  0
POINT
  5
C587
330
C118
100
AcDbEntity
  8
Defpoints
 62
     0
100
AcDbPoint
 10
-999.9999999999996
 20
948.3842652287068
 30
0.0
  0
ENDBLK
  5
C123
330
C118
100
AcDbEntity
  8
0
100
AcDbBlockEnd
  0
BLOCK
  5
C12E
330
C124
100
AcDbEntity
  8
0
100
AcDbBlockBegin
  2
*D51
 70
     1
 10
0.0
 20
0.0
 30
0.0
  3
*D51
  1

  0
LINE
  5
C588
330
C124
100
AcDbEntity
  8
30
 62
     0
370
    -2
100
AcDbLine
 10
-732.9999999999996
 20
1081.999999999996
 30
0.0
 11
-659.6453671497758
 21
1081.999999999996
 31
0.0
  0
LINE
  5
C589
330
C124
100
AcDbEntity
  8
30
 62
     0
370
    -2
100
AcDbLine
 10
-732.9999999999996
 20
1000.0
 30
0.0
 11
-659.6453671497758
 21
1000.0
 31
0.0
  0
LINE
  5
C58A
330
C124
100
AcDbEntity
  8
30
 62
     0
370
    -2
100
AcDbLine
 10
-660.6453671497757
 20
1076.999999999996
 30
0.0
 11
-660.6453671497757
 21
1005.0
 31
0.0
  0
INSERT
  5
C58B
330
C124
100
AcDbEntity
  8
30
 62
     0
370
    -2
100
AcDbBlockReference
  2
_Open
 10
-660.6453671497757
 20
1081.999999999996
 30
0.0
 41
5.0
 42
5.0
 43
5.0
 50
90.0
  0
INSERT
  5
C58C
330
C124
100
AcDbEntity
  8
30
 62
     0
370
    -2
100
AcDbBlockReference
  2
_Open
 10
-660.6453671497757
 20
1000.0
 30
0.0
 41
5.0
 42
5.0
 43
5.0
 50
270.0
  0
MTEXT
  5
C58D
330
C124
100
AcDbEntity
  8
30
 62
     0
100
AcDbMText
 10
-668.6453671497758
 20
1040.999999999998
 30
0.0
 40
10.0
 41
0.0
 71
     5
 72
     1
  1
\A1;82
 11
0.0000000000000001
 21
1.0
 31
0.0
 73
     1
 44
1.0
1001
ACAD
1000
MTEXTBEGIN
1070
    73
1070
     1
1070
    44
1040
1.0
1070
    74
1070
     0
1000
MTEXTEND
  0
POINT
  5
C58E
330
C124
100
AcDbEntity
  8
Defpoints
 62
     0
100
AcDbPoint
 10
-742.9999999999997
 20
1081.999999999996
 30
0.0
  0
POINT
  5
C58F
330
C124
100
AcDbEntity
  8
Defpoints
 62
     0
100
AcDbPoint
 10
-742.9999999999997
 20
1000.0
 30
0.0
  0
POINT
  5
C590
330
C124
100
AcDbEntity
  8
Defpoints
 62
     0
100
AcDbPoint
 10
-660.6453671497757
 20
1000.0
 30
0.0
  0
ENDBLK
  5
C12F
330
C124
100
AcDbEntity
  8
0
100
AcDbBlockEnd
  0
BLOCK
  5
C13A
330
C130
100
AcDbEntity
  8
0
100
AcDbBlockBegin
  2
*D52
 70
     1
 10
0.0
 20
0.0
 30
0.0
  3
*D52
  1

  0
LINE
  5
C591
330
C130
100
AcDbEntity
  8
30
 62
     0
370
    -2
100
AcDbLine
 10
-729.9999999999997
 20
1246.999999999997
 30
0.0
 11
-659.6453671497758
 21
1246.999999999997
 31
0.0
  0
LINE
  5
C592
330
C130
100
AcDbEntity
  8
30
 62
     0
370
    -2
100
AcDbLine
 10
-730.0000000000003
 20
1081.999999999996
 30
0.0
 11
-659.6453671497758
 21
1081.999999999996
 31
0.0
  0
LINE
  5
C593
330
C130
100
AcDbEntity
  8
30
 62
     0
370
    -2
100
AcDbLine
 10
-660.6453671497757
 20
1241.999999999997
 30
0.0
 11
-660.6453671497757
 21
1086.999999999996
 31
0.0
  0
INSERT
  5
C594
330
C130
100
AcDbEntity
  8
30
 62
     0
370
    -2
100
AcDbBlockReference
  2
_Open
 10
-660.6453671497757
 20
1246.999999999997
 30
0.0
 41
5.0
 42
5.0
 43
5.0
 50
90.0
  0
INSERT
  5
C595
330
C130
100
AcDbEntity
  8
30
 62
     0
370
    -2
100
AcDbBlockReference
  2
_Open
 10
-660.6453671497757
 20
1081.999999999996
 30
0.0
 41
5.0
 42
5.0
 43
5.0
 50
270.0
  0
MTEXT
  5
C596
330
C130
100
AcDbEntity
  8
30
 62
     0
100
AcDbMText
 10
-668.6453671497758
 20
1164.499999999996
 30
0.0
 40
10.0
 41
0.0
 71
     5
 72
     1
  1
\A1;165
 11
0.0000000000000001
 21
1.0
 31
0.0
 73
     1
 44
1.0
1001
ACAD
1000
MTEXTBEGIN
1070
    73
1070
     1
1070
    44
1040
1.0
1070
    74
1070
     0
1000
MTEXTEND
  0
POINT
  5
C597
330
C130
100
AcDbEntity
  8
Defpoints
 62
     0
100
AcDbPoint
 10
-739.9999999999996
 20
1246.999999999997
 30
0.0
  0
POINT
  5
C598
330
C130
100
AcDbEntity
  8
Defpoints
 62
     0
100
AcDbPoint
 10
-740.0000000000003
 20
1081.999999999996
 30
0.0
  0
POINT
  5
C599
330
C130
100
AcDbEntity
  8
Defpoints
 62
     0
100
AcDbPoint
 10
-660.6453671497757
 20
1081.999999999996
 30
0.0
  0
ENDBLK
  5
C13B
330
C130
100
AcDbEntity
  8
0
100
AcDbBlockEnd
  0
ENDSEC
  0
SECTION
  2
ENTITIES
  0
LINE
  5
47EF
330
1E
100
AcDbEntity
  8
16
100
AcDbLine
 10
-999.9999999999996
 20
900.0
 30
0.0
 11
-999.9999999999996
 21
1343.000122
 31
0.0
  0
LINE
  5
4815
330
1E
100
AcDbEntity
  8
16
100
AcDbLine
 10
-1000.0
 20
649.9999849999998
 30
0.0
 11
-1000.0
 21
-100.0
 31
0.0
  0
MTEXT
  5
4816
330
1E
100
AcDbEntity
  8
19
100
AcDbMText
 10
193.0507158932632
 20
-238.0159935205936
 30
0.0
 40
10.0
 41
0.0
 71
     1
 72
     1
  1
 \A1;
 73
     1
 44
1.0
1001
ACAD
1000
MTEXTBEGIN
1070
    73
1070
     1
1070
    44
1040
1.0
1070
    74
1070
     0
1000
MTEXTEND
  0
MTEXT
  5
4821
330
1E
100
AcDbEntity
  8
19
100
AcDbMText
 10
-806.9492841067367
 20
749.9840064794061
 30
0.0
 40
10.0
 41
0.0
 71
     1
 72
     1
  1
 \A1;
 73
     1
 44
1.0
1001
ACAD
1000
MTEXTBEGIN
1070
    73
1070
     1
1070
    44
1040
1.0
1070
    74
1070
     0
1000
MTEXTEND
  0
TEXT
  5
49B8
330
1E
100
AcDbEntity
  8
19
100
AcDbText
 10
2045.888184
 20
1309.478026999999
 30
0.0
 40
30.0
  1
FIXED TYPE
 41
0.833333
100
AcDbText
  0
TEXT
  5
49BA
330
1E
100
AcDbEntity
  8
19
100
AcDbText
 10
1766.606201
 20
1314.029445270118
 30
0.0
 40
25.0
  1
AR212S  4P
100
AcDbText
  0
TEXT
  5
4ACC
330
1E
100
AcDbEntity
  8
19
100
AcDbText
 10
1738.013184
 20
1117.178101
 30
0.0
 40
20.0
  1
*:CONDUCTOR OVERLAP.MAX
100
AcDbText
  0
TEXT
  5
4B12
330
1E
100
AcDbEntity
  8
19
100
AcDbText
 10
2028.202148
 20
1114.541626
 30
0.0
 40
20.0
  1

100
AcDbText
  0
LINE
  5
58B0
330
1E
100
AcDbEntity
  8
Defpoints
100
AcDbLine
 10
-1546.0
 20
0.0
 30
0.0
 11
2621.04102329482
 21
0.0
 31
0.0
  0
LINE
  5
5A04
330
1E
100
AcDbEntity
  8
Defpoints
100
AcDbLine
 10
-1533.0
 20
1000.0
 30
0.0
 11
1000.0
 21
1000.0
 31
0.0
  0
LINE
  5
6A68
330
1E
100
AcDbEntity
  8
16
100
AcDbLine
 10
2000.0
 20
-31.00920100000007
 30
0.0
 11
2000.0
 21
528.6787719999998
 31
0.0
  0
TEXT
  5
6F91
330
1E
100
AcDbEntity
  8
19
100
AcDbText
 10
1784.331070345976
 20
1251.378903112565
 30
0.0
 40
30.0
  1
HORIZONTAL CONNECTION
 41
0.833333
100
AcDbText
  0
TEXT
  5
7CAB
330
1E
100
AcDbEntity
  8
19
100
AcDbText
 10
1766.606201
 20
1353.567873130905
 30
0.0
 40
25.0
  1
AR208S  4P
100
AcDbText
  0
MTEXT
  5
7E44
330
1E
100
AcDbEntity
  8
30
100
AcDbMText
 10
1593.944797869426
 20
-94.55833755944604
 30
0.0
 40
10.0
 41
0.0
 71
     1
 72
     1
  1
\A1;
 73
     1
 44
1.0
1001
ACAD
1000
MTEXTBEGIN
1070
    73
1070
     1
1070
    44
1040
1.0
1070
    74
1070
     0
1000
MTEXTEND
  0
LEADER
  5
975C
330
1E
100
AcDbEntity
  8
19
100
AcDbLeader
  3
Standard
 76
     3
 10
1016.465290281999
 20
-79.40515634200027
 30
0.0
 10
895.7482048910001
 20
-322.58992052
 30
0.0
 10
553.4108369979999
 20
-322.58992052
 30
0.0
  0
MTEXT
  5
975D
330
1E
100
AcDbEntity
  8
19
100
AcDbMText
 10
553.4316304389998
 20
-295.2168115056267
 30
0.0
 40
20.0
 41
0.0
 71
     1
 72
     5
  1
MAINTENANCE SPACE
 73
     1
 44
1.0
1001
ACAD
1000
MTEXTBEGIN
1070
    73
1070
     1
1070
    44
1040
1.0
1070
    74
1070
     0
1000
MTEXTEND
  0
MTEXT
  5
977A
330
1E
100
AcDbEntity
  8
19
100
AcDbMText
 10
-524.6604435992685
 20
695.4266929660002
 30
0.0
 40
20.0
 41
0.0
 71
     1
 72
     5
  1
(NOT SUPPLIED)
 73
     1
 44
1.0
1001
ACAD
1000
MTEXTBEGIN
1070
    73
1070
     1
1070
    44
1040
1.0
1070
    74
1070
     0
1000
MTEXTEND
  0
LEADER
  5
977B
330
1E
100
AcDbEntity
  8
19
100
AcDbLeader
  3
Standard
 76
     3
 10
-145.2837289439998
 20
563.2000000000003
 30
0.0
 10
-300.1401105639997
 20
704.0740025570004
 30
0.0
 10
-523.4291506969998
 20
704.0740025570004
 30
0.0
  0
MTEXT
  5
977C
330
1E
100
AcDbEntity
  8
19
100
AcDbMText
 10
-523.3936190539998
 20
737.8759808249647
 30
0.0
 40
20.0
 41
0.0
 71
     1
 72
     5
  1
ARC BARRIER
 73
     1
 44
1.0
1001
ACAD
1000
MTEXTBEGIN
1070
    73
1070
     1
1070
    44
1040
1.0
1070
    74
1070
     0
1000
MTEXTEND
  0
DIMENSION
  5
990D
330
1E
100
AcDbEntity
  8
30
100
AcDbDimension
  2
*D1
 10
1078.0
 20
-174.5762283559999
 30
0.0
 11
1093.139112677999
 21
-174.5762283559999
 31
0.0
 70
   160
 71
     5
 42
28.0
  3
Standard
100
AcDbAlignedDimension
 13
1106.0
 23
-38.39230421199999
 33
0.0
 14
1078.0
 24
-112.2872557789999
 34
0.0
100
AcDbRotatedDimension
  0
DIMENSION
  5
990E
330
1E
100
AcDbEntity
  8
30
100
AcDbDimension
  2
*D2
 10
1106.0
 20
-174.4092456659999
 30
0.0
 11
1122.282431669999
 21
-174.4092456659999
 31
0.0
 70
   160
 71
     5
 42
35.0
  3
Standard
100
AcDbAlignedDimension
 13
1141.0
 23
0.0
 33
0.0
 14
1106.0
 24
-19.99999999999999
 34
0.0
100
AcDbRotatedDimension
  0
DIMENSION
  5
990F
330
1E
100
AcDbEntity
  8
30
100
AcDbDimension
  2
*D3
 10
1078.0
 20
-174.3558023999999
 30
0.0
 11
1030.592592592
 21
-174.3558023999999
 31
0.0
 70
   160
 71
     5
 42
100.0
  3
Standard
100
AcDbAlignedDimension
 13
978.0
 23
-112.2872557789999
 33
0.0
 14
1078.0
 24
-112.2872557789999
 34
0.0
100
AcDbRotatedDimension
  0
DIMENSION
  5
9912
330
1E
100
AcDbEntity
  8
30
100
AcDbDimension
  2
*D4
 10
941.0
 20
-174.3558023999999
 30
0.0
 11
914.3140170659998
 21
-174.3558023999999
 31
0.0
 70
   160
 71
     5
 42
37.0
  3
Standard
100
AcDbAlignedDimension
 13
978.0
 23
-112.2872557789999
 33
0.0
 14
941.0
 24
-19.12765978699985
 34
0.0
100
AcDbRotatedDimension
  0
LEADER
  5
9917
330
1E
100
AcDbEntity
  8
19
100
AcDbLeader
  3
Standard
 74
     0
 76
     3
 10
1126.0
 20
35.0
 30
0.0
 10
1357.639629639999
 20
-150.7436496170002
 30
0.0
 10
1640.452833654
 20
-150.7436496170002
 30
0.0
  0
MTEXT
  5
9918
330
1E
100
AcDbEntity
  8
19
100
AcDbMText
 10
1362.650914169998
 20
-123.5458790449924
 30
0.0
 40
20.0
 41
0.0
 71
     1
 72
     5
  1
EARTH TERMINAL
 73
     1
 44
1.0
1001
ACAD
1000
MTEXTBEGIN
1070
    73
1070
     1
1070
    44
1040
1.0
1070
    74
1070
     0
1000
MTEXTEND
  0
MTEXT
  5
9919
330
1E
100
AcDbEntity
  8
19
100
AcDbMText
 10
1355.805243818455
 20
-155.4390665703474
 30
0.0
 40
20.0
 41
0.0
 71
     1
 72
     5
  1
(RIGHT SIDE ONLY)
 73
     1
 44
1.0
1001
ACAD
1000
MTEXTBEGIN
1070
    73
1070
     1
1070
    44
1040
1.0
1070
    74
1070
     0
1000
MTEXTEND
  0
MTEXT
  5
9928
330
1E
100
AcDbEntity
  8
19
100
AcDbMText
 10
649.731664978
 20
-328.2822730479999
 30
0.0
 40
20.0
 41
0.0
 71
     1
 72
     5
  1
(min)
 73
     1
 44
1.0
1001
ACAD
1000
MTEXTBEGIN
1070
    73
1070
     1
1070
    44
1040
1.0
1070
    74
1070
     0
1000
MTEXTEND
  0
LEADER
  5
992F
330
1E
100
AcDbEntity
  8
19
100
AcDbLeader
  3
Standard
 74
     0
 76
     3
 10
1266.445079172149
 20
489.5767041169999
 30
0.0
 10
1299.118423725148
 20
580.4663771389996
 30
0.0
 10
1627.577566282724
 20
580.4886151641152
 30
0.0
  0
MTEXT
  5
9930
330
1E
100
AcDbEntity
  8
19
100
AcDbMText
 10
1304.166888633149
 20
606.2426006036144
 30
0.0
 40
20.0
 41
0.0
 71
     1
 72
     5
  1
WITH TERMINAL COVER
 73
     1
 44
1.0
1001
ACAD
1000
MTEXTBEGIN
1070
    73
1070
     1
1070
    44
1040
1.0
1070
    74
1070
     0
1000
MTEXTEND
  0
MTEXT
  5
9932
330
1E
100
AcDbEntity
  8
19
100
AcDbMText
 10
1131.909022972606
 20
676.7910921119882
 30
0.0
 40
20.0
 41
0.0
 71
     1
 72
     5
  1
LIFTING HOLES
 73
     1
 44
1.0
1001
ACAD
1000
MTEXTBEGIN
1070
    73
1070
     1
1070
    44
1040
1.0
1070
    74
1070
     0
1000
MTEXTEND
  0
MTEXT
  5
9933
330
1E
100
AcDbEntity
  8
19
100
AcDbMText
 10
475.7259882326175
 20
695.1701932293324
 30
0.0
 40
20.0
 41
0.0
 71
     1
 72
     5
  1
PADLOCK COVER
 73
     1
 44
1.0
1001
ACAD
1000
MTEXTBEGIN
1070
    73
1070
     1
1070
    44
1040
1.0
1070
    74
1070
     0
1000
MTEXTEND
  0
LEADER
  5
9934
330
1E
100
AcDbEntity
  8
19
100
AcDbLeader
  3
Standard
 76
     3
 10
842.0
 20
256.9999999999999
 30
0.0
 10
754.9713420149997
 20
700.2745878409997
 30
0.0
 10
452.2998637539997
 20
700.2745878409997
 30
0.0
  0
MTEXT
  5
9935
330
1E
100
AcDbEntity
  8
19
100
AcDbMText
 10
474.1429799925744
 20
725.6237090751158
 30
0.0
 40
20.0
 41
0.0
 71
     1
 72
     5
  1
WITH PUSHBUTTON
 73
     1
 44
1.0
1001
ACAD
1000
MTEXTBEGIN
1070
    73
1070
     1
1070
    44
1040
1.0
1070
    74
1070
     0
1000
MTEXTEND
  0
CIRCLE
  5
993A
330
1E
100
AcDbEntity
  8
10
100
AcDbCircle
 10
1058.0
 20
441.9999999999998
 30
0.0
 40
10.0
  0
LINE
  5
993C
330
1E
100
AcDbEntity
  8
10
100
AcDbLine
 10
921.0
 20
129.1756275409996
 30
0.0
 11
1125.724947483
 21
129.1756275409996
 31
0.0
  0
LINE
  5
993D
330
1E
100
AcDbEntity
  8
10
100
AcDbLine
 10
921.0
 20
136.8243724599997
 30
0.0
 11
1126.0
 21
136.8243724599997
 31
0.0
  0
DIMENSION
  5
993F
330
1E
100
AcDbEntity
  8
30
100
AcDbDimension
  2
*D5
 10
1239.725593749999
 20
460.0000000000001
 30
0.0
 11
1240.554533340105
 21
451.1011607721363
 31
0.0
 70
   160
 71
     5
 42
18.00000000000034
  3
Standard
100
AcDbAlignedDimension
 13
1058.0
 23
441.9999999999998
 33
0.0
 14
1066.0
 24
460.0000000000001
 34
0.0
 50
90.0
100
AcDbRotatedDimension
  0
LINE
  5
9940
330
1E
100
AcDbEntity
  8
0
  6
HIDDEN
 62
     7
100
AcDbLine
 10
978.0
 20
-0.1984904920002464
 30
0.0
 11
1078.0
 21
-0.1984904920002464
 31
0.0
  0
LINE
  5
9943
330
1E
100
AcDbEntity
  8
0
  6
Continuous
 62
     7
100
AcDbLine
 10
1131.0
 20
0.0
 30
0.0
 11
931.0
 21
0.0
 31
0.0
  0
DIMENSION
  5
9944
330
1E
100
AcDbEntity
  8
30
100
AcDbDimension
  2
*D6
 10
1350.0
 20
-0.0000000000000592
 30
0.0
 11
1350.0
 21
244.9999999999999
 31
0.0
 70
   160
 71
     5
 42
490.0000000000003
  3
Standard
100
AcDbAlignedDimension
 13
981.0
 23
490.0000000000003
 33
0.0
 14
1141.0
 24
0.0
 34
0.0
 50
90.0
100
AcDbRotatedDimension
  0
DIMENSION
  5
9949
330
1E
100
AcDbEntity
  8
30
100
AcDbDimension
  2
*D7
 10
768.4562246197717
 20
32.99999999999978
 30
0.0
 11
768.456224619772
 21
185.608429837
 31
0.0
 70
   160
 71
     5
 42
329.0
  3
Standard
100
AcDbAlignedDimension
 13
847.0
 23
361.9999999999998
 33
0.0
 14
864.0
 24
32.99999999999975
 34
0.0
 50
90.0
100
AcDbRotatedDimension
  0
MTEXT
  5
994B
330
1E
100
AcDbEntity
  8
19
100
AcDbMText
 10
679.4985689320979
 20
88.8010534563134
 30
0.0
 40
20.0
 41
0.0
 71
     1
 72
     5
  1
AIR GAP DISTANCE (min)
 11
0.0000000000000001
 21
1.0
 31
0.0
 73
     1
 44
1.0
1001
ACAD
1000
MTEXTBEGIN
1070
    73
1070
     1
1070
    44
1040
1.0
1070
    74
1070
     0
1000
MTEXTEND
  0
DIMENSION
  5
994C
330
1E
100
AcDbEntity
  8
30
100
AcDbDimension
  2
*D8
 10
726.0960629859137
 20
0.0000000000000552
 30
0.0
 11
726.0960629859137
 21
275.0
 31
0.0
 70
   160
  1
<> 
 71
     5
 42
550.0
  3
Standard
100
AcDbAlignedDimension
 13
961.0
 23
550.0
 33
0.0
 14
921.0
 24
0.0
 34
0.0
 50
270.0
100
AcDbRotatedDimension
  0
MTEXT
  5
994D
330
1E
100
AcDbEntity
  8
19
100
AcDbMText
 10
603.9608824052933
 20
94.77104985784492
 30
0.0
 40
20.0
 41
0.0
 71
     1
 72
     5
  1
500(INSULATION)\P550(METAL)
 11
0.0000000000000001
 21
1.0
 31
0.0
 73
     1
 44
1.0
1001
ACAD
1000
MTEXTBEGIN
1070
    73
1070
     1
1070
    44
1040
1.0
1070
    74
1070
     0
1000
MTEXTEND
  0
LEADER
  5
994E
330
1E
100
AcDbEntity
  8
19
100
AcDbLeader
  3
Standard
 76
     3
 10
859.0
 20
-31.05850214499993
 30
0.0
 10
754.4140945230001
 20
-128.200455637
 30
0.0
 10
650.1733821489997
 20
-128.200455637
 30
0.0
  0
MTEXT
  5
994F
330
1E
100
AcDbEntity
  8
19
100
AcDbMText
 10
650.2184051379997
 20
-95.82817192033598
 30
0.0
 40
20.0
 41
0.0
 71
     1
 72
     5
  1
PANEL
 73
     1
 44
1.0
1001
ACAD
1000
MTEXTBEGIN
1070
    73
1070
     1
1070
    44
1040
1.0
1070
    74
1070
     0
1000
MTEXTEND
  0
DIMENSION
  5
9950
330
1E
100
AcDbEntity
  8
30
100
AcDbDimension
  2
*D9
 10
768.4562246197717
 20
0.0000000000000432
 30
0.0
 11
768.456224619772
 21
17.24416644114603
 31
0.0
 70
   160
 71
     5
 42
32.99999999999974
  3
Standard
100
AcDbAlignedDimension
 13
864.0
 23
32.99999999999975
 33
0.0
 14
921.0
 24
0.0
 34
0.0
 50
90.0
100
AcDbRotatedDimension
  0
LINE
  5
995F
330
1E
100
AcDbEntity
  8
12
100
AcDbLine
 10
941.0
 20
-19.12765978699985
 30
0.0
 11
941.0
 21
23.19999999999981
 31
0.0
  0
DIMENSION
  5
997D
330
1E
100
AcDbEntity
  8
30
100
AcDbDimension
  2
*D10
 10
859.0
 20
595.4335693581048
 30
0.0
 11
955.02872842019
 21
594.4335693581048
 31
0.0
 70
   160
 71
     5
 42
199.0
  3
Standard
100
AcDbAlignedDimension
 13
1058.0
 23
441.9999999999998
 33
0.0
 14
859.0
 24
471.9999999999997
 34
0.0
100
AcDbRotatedDimension
  0
DIMENSION
  5
9991
330
1E
100
AcDbEntity
  8
30
100
AcDbDimension
  2
*D11
 10
1321.0
 20
-0.000000000000051
 30
0.0
 11
1321.0
 21
229.9999999999999
 31
0.0
 70
   160
 71
     5
 42
460.0000000000001
  3
Standard
100
AcDbAlignedDimension
 13
1066.0
 23
460.0000000000001
 33
0.0
 14
1141.0
 24
0.0
 34
0.0
 50
90.0
100
AcDbRotatedDimension
  0
DIMENSION
  5
9997
330
1E
100
AcDbEntity
  8
30
100
AcDbDimension
  2
*D12
 10
1248.104021733264
 20
-0.0000000000000238
 30
0.0
 11
1247.104021733264
 21
17.82298464493464
 31
0.0
 70
   160
 71
     5
 42
34.99999999999998
  3
Standard
100
AcDbAlignedDimension
 13
1126.0
 23
35.0
 33
0.0
 14
1164.0
 24
0.0
 34
0.0
 50
90.0
100
AcDbRotatedDimension
  0
LINE
  5
999D
330
1E
100
AcDbEntity
  8
0
  6
Continuous
 62
     7
100
AcDbLine
 10
1106.0
 20
-38.39230421199999
 30
0.0
 11
1106.0
 21
-56.48283355099989
 31
0.0
  0
LINE
  5
99A0
330
1E
100
AcDbEntity
  8
0
  6
Continuous
 62
     7
100
AcDbLine
 10
1141.0
 20
0.0
 30
0.0
 11
1131.0
 21
0.0
 31
0.0
  0
LINE
  5
99A2
330
1E
100
AcDbEntity
  8
12
100
AcDbLine
 10
1106.0
 20
-19.99999999999999
 30
0.0
 11
1106.0
 21
23.19999999999981
 31
0.0
  0
CIRCLE
  5
99AB
330
1E
100
AcDbEntity
  8
12
  6
DASHDOT
100
AcDbCircle
 10
1126.0
 20
35.0
 30
0.0
 40
4.0
  0
LINE
  5
99D1
330
1E
100
AcDbEntity
  8
27
100
AcDbLine
 10
1164.0
 20
132.9999999999996
 30
0.0
 11
1136.0
 21
132.9999999999996
 31
0.0
  0
TEXT
  5
A1B6
330
1E
100
AcDbEntity
  8
19
100
AcDbText
 10
1991.356813493693
 20
586.6894823177402
 30
0.0
 40
20.0
  1
Ｃ
 41
0.75
100
AcDbText
  0
TEXT
  5
A1B7
330
1E
100
AcDbEntity
  8
19
100
AcDbText
 10
2002.772380920899
 20
600.4457115220692
 30
0.0
 40
20.0
  1
P
 41
0.75
100
AcDbText
  0
LWPOLYLINE
  5
A1EE
330
1E
100
AcDbEntity
  8
18
100
AcDbPolyline
 90
        4
 70
     1
 43
0.0
 10
1126.0
 20
550.0
 10
1126.0
 20
560.0000000000001
 10
961.0
 20
560.0000000000001
 10
961.0
 20
550.0
  0
LWPOLYLINE
  5
A1F2
330
1E
100
AcDbEntity
  8
11
  6
DASHDOT
100
AcDbPolyline
 90
        4
 70
     0
 43
0.0
 10
859.0
 20
471.9999999999997
 10
859.0
 20
371.9999999999998
 10
869.0
 20
371.9999999999998
 10
869.0
 20
471.9999999999997
  0
LWPOLYLINE
  5
A1F5
330
1E
100
AcDbEntity
  8
11
  6
DASHDOT
100
AcDbPolyline
 90
        4
 70
     0
 43
0.0
 10
859.0
 20
-77.00000000000024
 10
859.0
 20
22.99999999999976
 10
869.0
 20
22.99999999999976
 10
869.0
 20
-77.00000000000024
  0
LEADER
  5
A208
330
1E
100
AcDbEntity
  8
30
100
AcDbLeader
  3
Standard
 76
     3
 10
1064.917608011749
 20
449.330930543855
 30
0.0
 10
1164.189270386118
 20
626.9990766993568
 30
0.0
 10
1330.743981529215
 20
626.9990766993568
 30
0.0
1001
ACAD
1000
DSTYLE
1002
{
1070
   147
1040
3.0
1070
    77
1070
     0
1002
}
  0
MTEXT
  5
A209
330
1E
100
AcDbEntity
  8
30
100
AcDbMText
 10
1205.165410556401
 20
650.3713834008246
 30
0.0
 40
20.0
 41
0.0
 71
     1
 72
     5
  1
2-%%C20
  7
SLDTEXTSTYLE1
 73
     1
 44
1.0
1001
ACAD
1000
MTEXTBEGIN
1070
    73
1070
     1
1070
    44
1040
1.0
1070
    74
1070
     0
1000
MTEXTEND
  0
LWPOLYLINE
  5
A2C5
330
1E
100
AcDbEntity
  8
10
100
AcDbPolyline
 90
        6
 70
     0
 43
0.0
 10
859.0
 20
229.9999999999999
 10
842.0
 20
229.9999999999999
 10
842.0
 20
256.9999999999999
 10
849.0
 20
258.9999999999999
 10
849.0
 20
279.0
 10
859.0
 20
279.0
  0
LWPOLYLINE
  5
A2C6
330
1E
100
AcDbEntity
  8
10
100
AcDbPolyline
 90
        9
 70
     0
 43
0.0
 10
921.0
 20
29.99999999999999
 10
902.0
 20
29.99999999999999
 10
902.0
 20
32.99999999999975
 10
864.0
 20
32.99999999999975
 10
859.0
 20
32.99999999999975
 10
859.0
 20
320.9999999999999
 10
847.0
 20
355.9999999999998
 10
847.0
 20
361.9999999999998
 10
902.0
 20
361.9999999999998
  0
LWPOLYLINE
  5
A2C8
330
1E
100
AcDbEntity
  8
10
100
AcDbPolyline
 90
        5
 70
     0
 43
0.0
 10
864.0
 20
32.99999999999975
 10
864.0
 20
39.0
 10
902.0
 20
39.0
 10
902.0
 20
418.4999999999998
 10
916.0
 20
418.4999999999998
  0
LWPOLYLINE
  5
A2CC
330
1E
100
AcDbEntity
  8
10
100
AcDbPolyline
 90
        4
 70
     0
 43
0.0
 10
859.0
 20
133.7431201279997
 10
850.0
 20
133.7431201279997
 10
850.0
 20
130.7431201279998
 10
859.0
 20
130.7431201279998
  0
LWPOLYLINE
  5
A2D8
330
1E
100
AcDbEntity
  8
10
100
AcDbPolyline
 90
        2
 70
     0
 43
0.0
 10
902.0
 20
39.0
 10
921.0
 20
39.0
  0
LWPOLYLINE
  5
A2D9
330
1E
100
AcDbEntity
  8
10
100
AcDbPolyline
 90
       20
 70
     0
 43
0.0
 10
1126.0
 20
136.8243724599997
 10
1126.0
 20
332.8578643769998
 42
0.1989123673821482
 10
1123.071067811797
 20
339.9289321889332
 10
1071.0
 20
391.9999999999999
 10
1071.0
 20
450.0
 42
0.5239433179324801
 10
1066.0
 20
460.0000000000001
 10
926.0
 20
460.0000000000001
 42
0.4142135623730951
 10
916.0
 20
450.0
 10
915.9999999999996
 20
161.414213563
 42
0.1989123673520185
 10
916.2928932187382
 20
160.7071067818886
 10
921.0
 20
155.9999999999996
 10
921.0
 20
136.8243724599997
 10
921.0
 20
132.7015038679998
 10
921.0
 20
130.1572629199999
 10
921.0
 20
129.1756275409996
 10
921.0
 20
6.199999999999817
 10
921.0
 20
3.199999999999817
 10
931.0
 20
3.199999999999817
 10
1131.0
 20
3.199999999999817
 10
1141.0
 20
3.199999999999817
  0
LWPOLYLINE
  5
A2E9
330
1E
100
AcDbEntity
  8
10
100
AcDbPolyline
 90
        8
 70
     0
 43
0.0
 10
1141.0
 20
3.199999999999817
 10
1141.0
 20
105.8578643769994
 42
0.198912367390427
 10
1138.071067811572
 20
112.928932189158
 10
1126.0
 20
124.9999999999999
 10
1126.0
 20
129.1756275409996
 10
1126.0
 20
130.1572629199999
 10
1126.0
 20
132.7015038679998
 10
1126.0
 20
136.8243724599997
  0
LWPOLYLINE
  5
A2F5
330
1E
100
AcDbEntity
  8
10
100
AcDbPolyline
 90
        6
 70
     0
 43
0.0
 10
1136.0
 20
114.9999999999999
 10
1136.0
 20
117.5499999999995
 10
1136.0
 20
312.4499999999997
 10
1136.0
 20
320.5499999999998
 10
1136.0
 20
381.9999999999998
 10
1081.0
 20
381.9999999999998
  0
LWPOLYLINE
  5
A2FA
330
1E
100
AcDbEntity
  8
10
100
AcDbPolyline
 90
        2
 70
     0
 43
0.0
 10
1136.0
 20
117.5499999999995
 10
1133.45
 20
117.5499999999995
  0
LWPOLYLINE
  5
A302
330
1E
100
AcDbEntity
  8
12
  6
DASHDOT
100
AcDbPolyline
 90
        8
 70
     1
 43
0.0
 10
965.0
 20
-39.46471037899982
 10
965.0
 20
-50.19849049200025
 10
971.0
 20
-50.19849049200025
 10
971.0
 20
-39.46471037899982
 10
971.0
 20
-0.1984904920002464
 10
921.0
 20
0.0
 10
921.0
 20
-6.198490492000246
 10
965.0
 20
-6.198490492000246
  0
LWPOLYLINE
  5
A308
330
1E
100
AcDbEntity
  8
12
  6
DASHDOT
100
AcDbPolyline
 90
        8
 70
     1
 43
0.0
 10
1086.0
 20
-39.46471037899982
 10
1086.0
 20
-50.19849049200025
 10
1080.0
 20
-50.19849049200025
 10
1080.0
 20
-39.46471037899982
 10
1080.0
 20
-0.1984904920002464
 10
1130.0
 20
0.0
 10
1130.0
 20
-6.198490492000246
 10
1086.0
 20
-6.198490492000246
  0
LWPOLYLINE
  5
A51C
330
1E
100
AcDbEntity
  8
10
100
AcDbPolyline
 90
        6
 70
   128
 43
0.0
 10
920.9999999999991
 20
3.199999999999588
 10
920.9999999999991
 20
0.0000000000006821
 10
930.9999999999991
 20
0.0000000000006821
 10
1130.999999999998
 20
0.0000000000006821
 10
1140.999999999998
 20
0.0000000000006821
 10
1140.999999999998
 20
3.199999999999588
  0
LWPOLYLINE
  5
A532
330
1E
100
AcDbEntity
  8
34
100
AcDbPolyline
 90
        4
 70
     0
 43
0.0
 10
981.0
 20
490.0000000000003
 10
874.0
 20
490.0000000000003
 10
874.0
 20
428.9999999999998
 10
888.4999999999999
 20
428.9999999999998
  0
LWPOLYLINE
  5
A559
330
1E
100
AcDbEntity
  8
18
100
AcDbPolyline
 90
        4
 70
     0
 43
0.0
 10
1078.0
 20
-0.1984904920002464
 10
1078.0
 20
-112.2872557789999
 10
978.0
 20
-112.2872557789999
 10
978.0
 20
-0.1984904920002464
  0
TEXT
  5
A580
330
1E
100
AcDbEntity
  8
19
100
AcDbText
 10
-0.8055864487669166
 20
674.9071811729574
 30
0.0
 40
20.0
  1
P
 41
0.75
100
AcDbText
  0
TEXT
  5
A581
330
1E
100
AcDbEntity
  8
19
100
AcDbText
 10
-12.22115387597205
 20
661.1509519686278
 30
0.0
 40
20.0
  1
C
 41
0.75
100
AcDbText
  0
LWPOLYLINE
  5
A5B7
330
1E
100
AcDbEntity
  8
16
100
AcDbPolyline
 90
        2
 70
     0
 43
0.0
 10
0.000000000000199
 20
915.4944792356037
 10
0.000000000000199
 20
1428.0
  0
DIMENSION
  5
ABF4
330
1E
100
AcDbEntity
  8
30
100
AcDbDimension
  2
*D13
 10
2000.0
 20
571.2650820209999
 30
0.0
 11
1957.220238844
 21
571.2650820209999
 31
0.0
 70
   160
 71
     5
 42
85.0
  3
Standard
100
AcDbAlignedDimension
 13
1915.0
 23
528.997400984
 33
0.0
 14
2000.0
 24
528.6787719999998
 34
0.0
100
AcDbRotatedDimension
  0
DIMENSION
  5
AC6E
330
1E
100
AcDbEntity
  8
30
100
AcDbDimension
  2
*D14
 10
2085.0
 20
571.2650820209999
 30
0.0
 11
2039.697849705
 21
571.2650820209999
 31
0.0
 70
   160
 71
     5
 42
85.0
  3
Standard
100
AcDbAlignedDimension
 13
2000.0
 23
528.6787719999998
 33
0.0
 14
2085.0
 24
528.997400984
 34
0.0
100
AcDbRotatedDimension
  0
LWPOLYLINE
  5
B281
330
1E
100
AcDbEntity
  8
27
100
AcDbPolyline
 90
        5
 70
   128
 43
0.0
 10
1136.0
 20
142.9999999999996
 42
-73183493944770.0
 10
1136.0
 20
142.9999999999999
 10
1224.0
 20
142.9999998619998
 10
1224.0
 20
133.000001948
 10
1135.999997897
 20
133.000001948
  0
LWPOLYLINE
  5
B28D
330
1E
100
AcDbEntity
  8
10
100
AcDbPolyline
 90
        2
 70
   128
 43
0.0
 10
1141.000000578999
 20
71.50000397500001
 10
1149.999996466
 20
71.50000397500001
  0
LWPOLYLINE
  5
B28E
330
1E
100
AcDbEntity
  8
10
100
AcDbPolyline
 90
        2
 70
   128
 43
0.0
 10
1149.999996466
 20
83.49999849100006
 10
1141.000000578999
 20
83.49999849100006
  0
DIMENSION
  5
B28F
330
1E
100
AcDbEntity
  8
30
100
AcDbDimension
  2
*D15
 10
1290.252270915998
 20
-0.0000000000000423
 30
0.0
 11
1290.252270916
 21
75.92028629100015
 31
0.0
 70
   160
 71
     5
 42
137.9999999999997
  3
Standard
100
AcDbAlignedDimension
 13
1224.0
 23
137.9999999999997
 33
0.0
 14
1141.0
 24
0.0
 34
0.0
 50
90.0
100
AcDbRotatedDimension
  0
DIMENSION
  5
B290
330
1E
100
AcDbEntity
  8
30
100
AcDbDimension
  2
*D16
 10
1290.252270915998
 20
137.9999999999997
 30
0.0
 11
1290.252270916
 21
220.5808001459996
 31
0.0
 70
   160
 71
     5
 42
174.0000000000001
  3
Standard
100
AcDbAlignedDimension
 13
1233.999995130001
 23
311.9999999999998
 33
0.0
 14
1224.0
 24
137.9999999999997
 34
0.0
 50
90.0
100
AcDbRotatedDimension
  0
DIMENSION
  5
B291
330
1E
100
AcDbEntity
  8
30
100
AcDbDimension
  2
*D17
 10
1263.780344893
 20
316.9999999999999
 30
0.0
 11
1263.780344893
 21
331.8015095079997
 31
0.0
 70
   160
 71
     5
 42
10.0
  3
Standard
100
AcDbAlignedDimension
 13
1223.999995130001
 23
306.9999999999998
 33
0.0
 14
1223.999995130001
 24
316.9999999999999
 34
0.0
 50
90.0
100
AcDbRotatedDimension
1001
ACAD
1000
DSTYLE
1002
{
1070
   343
1005
B33A
1070
   342
1005
0
1070
   173
1070
     1
1070
   344
1005
B33A
1002
}
  0
LWPOLYLINE
  5
B2F5
330
1E
100
AcDbEntity
  8
10
100
AcDbPolyline
 90
        2
 70
   128
 43
0.0
 10
1149.999996466
 20
378.5000002789997
 10
1135.999997897
 20
378.5000002789997
  0
LWPOLYLINE
  5
B2F6
330
1E
100
AcDbEntity
  8
10
100
AcDbPolyline
 90
        2
 70
   128
 43
0.0
 10
1135.999997897
 20
366.5000057629995
 10
1149.999996466
 20
366.5000057629995
  0
LWPOLYLINE
  5
B2F8
330
1E
100
AcDbEntity
  8
10
100
AcDbPolyline
 90
        8
 70
   129
 43
0.0
 10
1150.0
 20
322.2000000000002
 42
0.4142135896074396
 10
1155.200000483515
 20
317.0000000000003
 10
1179.999997657999
 20
317.0000023059996
 10
1179.999997657999
 20
320.1999968700001
 10
1155.19999974758
 20
320.2000000000002
 42
-0.4142135177097272
 10
1153.2
 20
322.1999999474395
 10
1153.199998480999
 20
379.9999958689998
 10
1149.999996466
 20
379.9999958689998
  0
LWPOLYLINE
  5
B2F9
330
1E
100
AcDbEntity
  8
10
100
AcDbPolyline
 90
        7
 70
   129
 43
0.0
 10
1150.000000317937
 20
132.9999995915482
 10
1149.999996466
 20
69.9999934839998
 10
1153.199998480999
 20
69.9999934839998
 10
1153.2
 20
127.8000000525602
 42
-0.4142135554552061
 10
1155.200000005321
 20
129.7999999999996
 10
1179.999997657999
 20
129.7999999339997
 10
1179.999997657999
 20
133.000001948
  0
LWPOLYLINE
  5
B2FA
330
1E
100
AcDbEntity
  8
10
100
AcDbPolyline
 90
        2
 70
   128
 43
0.0
 10
1141.000000578999
 20
71.50000397500001
 10
1149.999996466
 20
71.50000397500001
  0
LWPOLYLINE
  5
B2FB
330
1E
100
AcDbEntity
  8
10
100
AcDbPolyline
 90
        2
 70
   128
 43
0.0
 10
1149.999996466
 20
83.49999849100006
 10
1141.000000578999
 20
83.49999849100006
  0
LWPOLYLINE
  5
B2FC
330
1E
100
AcDbEntity
  8
10
100
AcDbPolyline
 90
        4
 70
   128
 43
0.0
 10
1176.999999028999
 20
303.800002377
 10
1143.699999857237
 20
303.7999999999996
 42
0.4142135163157848
 10
1141.699999999999
 20
301.8000001717361
 10
1141.699997527
 20
272.9999988189995
  0
LWPOLYLINE
  5
B2FD
330
1E
100
AcDbEntity
  8
10
100
AcDbPolyline
 90
       19
 70
   128
 43
0.0
 10
1179.999997657999
 20
306.9999969419997
 10
1179.999997657999
 20
303.800002377
 10
1176.999999028999
 20
303.800002377
 10
1176.999999028999
 20
306.9999969419997
 10
1143.700000477525
 20
306.9999999999997
 42
0.4142136194034338
 10
1138.5
 20
301.7999994650137
 10
1138.500002962999
 20
272.9999988189995
 10
1141.699997527
 20
272.9999988189995
 10
1141.699997527
 20
267.0000015610002
 10
1138.500002962999
 20
267.0000015610002
 10
1138.500002962999
 20
265.0000012329998
 10
1153.999997121999
 20
265.0000012329998
 10
1153.999997121999
 20
184.9999992959995
 10
1138.500002962999
 20
184.9999992959995
 10
1138.500002962999
 20
183.0000008309998
 10
1141.699997527
 20
183.0000008309998
 10
1141.699997527
 20
177.0000017099998
 10
1138.500002962999
 20
177.0000017099998
 10
1138.500002962999
 20
183.0000008309998
  0
LWPOLYLINE
  5
B2FE
330
1E
100
AcDbEntity
  8
10
100
AcDbPolyline
 90
        2
 70
   128
 43
0.0
 10
1138.500002962999
 20
177.0000017099998
 10
1138.5
 20
142.9999999999996
  0
LWPOLYLINE
  5
B2FF
330
1E
100
AcDbEntity
  8
10
100
AcDbPolyline
 90
        2
 70
   128
 43
0.0
 10
1138.500002962999
 20
272.9999988189995
 10
1138.500002962999
 20
267.0000015610002
  0
LWPOLYLINE
  5
B300
330
1E
100
AcDbEntity
  8
10
100
AcDbPolyline
 90
        6
 70
   128
 43
0.0
 10
1141.699997527
 20
177.0000017099998
 10
1141.699999999999
 20
148.1999998282634
 42
0.4142135537322803
 10
1143.700000112733
 20
146.1999999999997
 10
1176.999999028999
 20
146.2000018769995
 10
1176.999999028999
 20
142.9999998619998
 10
1143.699999999997
 20
142.9999999999996
  0
LWPOLYLINE
  5
B301
330
1E
100
AcDbEntity
  8
10
100
AcDbPolyline
 90
        3
 70
   128
 43
0.0
 10
1179.999997657999
 20
142.9999998619998
 10
1179.999997657999
 20
146.2000018769995
 10
1176.999999028999
 20
146.2000018769995
  0
LWPOLYLINE
  5
B302
330
1E
100
AcDbEntity
  8
10
100
AcDbPolyline
 90
        2
 70
   128
 43
0.0
 10
1141.699997527
 20
184.9999992959995
 10
1141.699997527
 20
183.0000008309998
  0
LWPOLYLINE
  5
B303
330
1E
100
AcDbEntity
  8
10
100
AcDbPolyline
 90
        2
 70
   128
 43
0.0
 10
1141.699997527
 20
267.0000015610002
 10
1141.699997527
 20
265.0000012329998
  0
LWPOLYLINE
  5
B357
330
1E
100
AcDbEntity
  8
27
100
AcDbPolyline
 90
        4
 70
     0
 43
0.0
 10
1135.999997769272
 20
317.0000023059996
 10
1224.0
 20
317.0000023059996
 10
1224.0
 20
306.9999969419997
 10
1135.999997897
 20
306.9999969419997
  0
DIMENSION
  5
B467
330
1E
100
AcDbEntity
  8
30
100
AcDbDimension
  2
*D19
 10
1224.0
 20
46.80150950799975
 30
0.0
 11
1175.0
 21
54.80150950799975
 31
0.0
 70
    32
 71
     5
 42
98.0
  3
Standard
100
AcDbAlignedDimension
 13
1126.0
 23
35.0
 33
0.0
 14
1224.0
 24
133.000001948
 34
0.0
100
AcDbRotatedDimension
  0
LWPOLYLINE
  5
B532
330
1E
100
AcDbEntity
  8
10
100
AcDbPolyline
 90
       25
 70
   128
 43
0.0
 10
-138.000000195
 20
286.299996715
 10
-138.0
 20
129.1756275409998
 10
-138.0
 20
6.199999999999986
 42
-0.4142135623730951
 10
-144.2000000000001
 20
0.0000000000000568
 10
-170.0
 20
-0.0000000000000568
 10
-180.0
 20
-0.0000000000000568
 10
-180.0
 20
3.199999999999988
 10
-170.0
 20
3.199999999999988
 10
-144.2000000000001
 20
3.199999999999988
 42
0.4142135623730951
 10
-141.1999999999999
 20
6.199999999999986
 10
-141.1999999999999
 20
129.1756275409998
 42
0.3590488101077241
 10
-142.0092331720916
 20
130.1572629200333
 10
-155.1012206772094
 20
132.7015038680591
 42
-0.3590487989075565
 10
-158.4999999999999
 20
136.8243722933196
 10
-158.5000007609998
 20
156.0000001299999
 10
-155.2999987469999
 20
156.0000001299999
 10
-155.3
 20
160.7071067820001
 10
-155.3
 20
161.414213563
 10
-155.3
 20
450.0000000000001
 10
-155.3
 20
460.0000000000001
 10
-158.5
 20
460.0000000000001
 10
-158.5
 20
450.0000000000001
 10
-158.5
 20
161.414213563
 10
-158.5
 20
160.7071067820001
 10
-158.5000007609998
 20
156.0000001299999
  0
LWPOLYLINE
  5
B533
330
1E
100
AcDbEntity
  8
10
100
AcDbPolyline
 90
       25
 70
   128
 43
0.0
 10
222.9999900599999
 20
286.299996715
 10
223.0
 20
129.1756275409998
 10
223.0
 20
6.199999999999986
 42
0.414213562373098
 10
229.1999999999999
 20
0.0000000000000568
 10
255.0
 20
-0.0000000000000568
 10
265.0
 20
-0.0000000000000568
 10
265.0
 20
3.199999999999988
 10
255.0
 20
3.199999999999988
 10
229.1999999999999
 20
3.199999999999988
 42
-0.4142135623730951
 10
226.2
 20
6.199999999999986
 10
226.2
 20
129.1756275409998
 42
-0.3590488101117551
 10
227.0092331721059
 20
130.1572629200359
 10
240.1012206771506
 20
132.7015038680477
 42
0.3590488932546812
 10
243.4999999999998
 20
136.8243736972894
 10
243.4999943509998
 20
156.0000001299999
 10
243.5
 20
160.7071067820001
 10
243.5
 20
161.414213563
 10
243.5
 20
450.0000000000001
 10
243.5
 20
460.0000000000001
 10
240.2999999999999
 20
460.0000000000001
 10
240.2999999999999
 20
450.0000000000001
 10
240.2999999999999
 20
161.414213563
 10
240.2999999999999
 20
160.7071067820001
 10
240.299999787
 20
156.0000001299999
 10
243.4999943509998
 20
156.0000001299999
  0
DIMENSION
  5
B535
330
1E
100
AcDbEntity
  8
30
100
AcDbDimension
  2
*D20
 10
117.9999999999997
 20
-50.43418283800003
 30
0.0
 11
0.9795717110000907
 21
-50.43418283800003
 31
0.0
 70
   160
 71
     5
 42
237.9999999999995
  3
Standard
100
AcDbAlignedDimension
 13
-119.9999999999999
 23
32.9999999999997
 33
0.0
 14
117.9999999999997
 24
32.9999999999997
 34
0.0
100
AcDbRotatedDimension
  0
DIMENSION
  5
B536
330
1E
100
AcDbEntity
  8
30
100
AcDbDimension
  2
*D21
 10
-174.9999999999999
 20
595.8015095079997
 30
0.0
 11
-86.01458980000025
 21
595.8015095079997
 31
0.0
 70
   160
 71
     5
 42
174.9999999999999
  3
Standard
100
AcDbAlignedDimension
 13
0.0000000000000645
 23
563.2000000000003
 33
0.0
 14
-174.9999999999999
 24
563.2
 34
0.0
100
AcDbRotatedDimension
  0
LWPOLYLINE
  5
B537
330
1E
100
AcDbEntity
  8
10
100
AcDbPolyline
 90
        4
 70
   129
 43
0.0
 10
215.999990775
 20
12.60000531000008
 10
-131.0000009100002
 20
12.60000531000008
 10
-131.0000009100002
 20
10.60000125700019
 10
215.999990775
 20
10.60000125700019
  0
DIMENSION
  5
B538
330
1E
100
AcDbEntity
  8
30
100
AcDbDimension
  2
*D22
 10
-179.9999999999999
 20
-100.734736882
 30
0.0
 11
-86.01458980000026
 21
-100.734736882
 31
0.0
 70
   160
 71
     5
 42
179.9999999999999
  3
Standard
100
AcDbAlignedDimension
 13
0.0000000000000284
 23
-57.3336118910002
 33
0.0
 14
-179.9999999999999
 24
-0.0000000000000568
 34
0.0
100
AcDbRotatedDimension
  0
LWPOLYLINE
  5
B539
330
1E
100
AcDbEntity
  8
10
100
AcDbPolyline
 90
        9
 70
   128
 43
0.0
 10
-122.500000448
 20
9.000003975000081
 10
-122.500000448
 20
10.60000125700019
 10
-136.3999991879998
 20
10.60000125700019
 10
-136.3999991879998
 20
18.00000731300001
 10
-138.000000195
 20
18.00000731300001
 10
-138.000000195
 20
9.000003975000081
 10
-122.500000448
 20
9.000003975000081
 10
-119.499999957
 20
9.000003975000081
 10
-119.499999957
 20
10.60000125700019
  0
LWPOLYLINE
  5
B53A
330
1E
100
AcDbEntity
  8
10
100
AcDbPolyline
 90
        5
 70
   128
 43
0.0
 10
-138.000000195
 20
20.9999984910002
 10
-136.3999991879998
 20
20.9999984910002
 10
-128.000000419
 20
20.9999984910002
 10
-128.000000419
 20
13.09999887300016
 10
-136.3999991879998
 20
13.09999887300016
  0
LWPOLYLINE
  5
B53B
330
1E
100
AcDbEntity
  8
10
100
AcDbPolyline
 90
        3
 70
   128
 43
0.0
 10
-133.9999995389999
 20
10.60000125700019
 10
-133.9999995389999
 20
12.60000531000008
 10
-131.0000009100002
 20
12.60000531000008
  0
LWPOLYLINE
  5
B53C
330
1E
100
AcDbEntity
  8
10
100
AcDbPolyline
 90
        2
 70
   128
 43
0.0
 10
-136.3999991879998
 20
20.9999984910002
 10
-136.3999991879998
 20
18.00000731300001
  0
LWPOLYLINE
  5
B53D
330
1E
100
AcDbEntity
  8
10
100
AcDbPolyline
 90
        4
 70
   128
 43
0.0
 10
-129.100000413
 20
9.000003975000081
 10
-129.0999999999999
 20
7.499999999999943
 10
-123.9
 20
7.499999999999943
 10
-123.8999999329998
 20
9.000003975000081
  0
LWPOLYLINE
  5
B53E
330
1E
100
AcDbEntity
  8
10
100
AcDbPolyline
 90
       11
 70
   128
 43
0.0
 10
221.3999927779999
 20
18.00000731300001
 10
222.9999900599999
 20
18.00000731300001
 10
222.9999900599999
 20
9.000003975000081
 10
207.5000108019998
 20
9.000003975000081
 10
207.5000108019998
 20
10.60000125700019
 10
221.3999927779999
 20
10.60000125700019
 10
221.3999927779999
 20
18.00000731300001
 10
221.3999927779999
 20
20.9999984910002
 10
212.9999995959999
 20
20.9999984910002
 10
212.9999995959999
 20
13.09999887300016
 10
221.3999927779999
 20
13.09999887300016
  0
DIMENSION
  5
B53F
330
1E
100
AcDbEntity
  8
30
100
AcDbDimension
  2
*D23
 10
265.0
 20
-99.91357221899995
 30
0.0
 11
136.5210339739998
 21
-99.91357221899995
 31
0.0
 70
   160
 71
     5
 42
265.0
  3
Standard
100
AcDbAlignedDimension
 13
0.0000000000000284
 23
-57.3336118910002
 33
0.0
 14
265.0
 24
-0.0000000000000568
 34
0.0
100
AcDbRotatedDimension
  0
LWPOLYLINE
  5
B541
330
1E
100
AcDbEntity
  8
10
100
AcDbPolyline
 90
        3
 70
   128
 43
0.0
 10
207.5000108019998
 20
9.000003975000081
 10
204.4999898209999
 20
9.000003975000081
 10
204.4999898209999
 20
10.60000125700019
  0
LWPOLYLINE
  5
B542
330
1E
100
AcDbEntity
  8
10
100
AcDbPolyline
 90
        4
 70
   128
 43
0.0
 10
208.9000046979999
 20
9.000003975000081
 10
208.8999999999999
 20
7.499999999999943
 10
214.1
 20
7.499999999999943
 10
214.1000033159999
 20
9.000003975000081
  0
LWPOLYLINE
  5
B543
330
1E
100
AcDbEntity
  8
10
100
AcDbPolyline
 90
        3
 70
   128
 43
0.0
 10
219.0000117559998
 20
10.60000125700019
 10
219.0000117559998
 20
12.60000531000008
 10
215.999990775
 20
12.60000531000008
  0
LWPOLYLINE
  5
B544
330
1E
100
AcDbEntity
  8
10
100
AcDbPolyline
 90
        2
 70
   128
 43
0.0
 10
221.3999927779999
 20
20.9999984910002
 10
222.9999900599999
 20
20.9999984910002
  0
LWPOLYLINE
  5
B545
330
1E
100
AcDbEntity
  8
10
100
AcDbPolyline
 90
        8
 70
   128
 43
0.0
 10
118.0000007879999
 20
33.99999503400016
 10
214.5000100869998
 20
33.99999503400016
 10
214.5000100869998
 20
379.5000023059998
 10
128.999993278
 20
379.5000023059998
 10
128.999993278
 20
418.5000068360002
 10
-131.0000009100002
 20
418.5000068360002
 10
-131.0000009100002
 20
39.00000516700009
 10
-120.0000000389999
 20
39.00000516700009
  0
LWPOLYLINE
  5
B546
330
1E
100
AcDbEntity
  8
10
100
AcDbPolyline
 90
        5
 70
   128
 43
0.0
 10
118.0000007879999
 20
356.0000068360003
 10
118.0000007879999
 20
362.0000040939998
 10
-120.0000000389999
 20
362.0000040939998
 10
-120.0000000389999
 20
356.0000068360003
 10
-120.0000000389999
 20
321.0000029619998
  0
LWPOLYLINE
  5
B547
330
1E
100
AcDbEntity
  8
10
100
AcDbPolyline
 90
       13
 70
   128
 43
0.0
 10
118.0000007879999
 20
321.0000029619998
 10
114.9999947089998
 20
321.0000029619998
 10
114.9999947089998
 20
356.0000068360003
 10
118.0000007879999
 20
356.0000068360003
 10
118.0000007879999
 20
321.0000029619998
 10
118.0000007879999
 20
32.99999300799977
 10
-120.0000000389999
 20
32.99999300799977
 10
-120.0000000389999
 20
321.0000029619998
 10
-117.0000000129998
 20
321.0000029619998
 10
-117.0000000129998
 20
356.0000068360003
 10
-117.0000000129998
 20
358.999998014
 10
114.9999947089998
 20
358.999998014
 10
114.9999947089998
 20
356.0000068360003
  0
LWPOLYLINE
  5
B548
330
1E
100
AcDbEntity
  8
10
100
AcDbPolyline
 90
        4
 70
   129
 43
0.0
 10
234.8000109929996
 20
422.1999949629998
 10
234.8000109929996
 20
424.5000040939998
 10
-149.799998777
 20
424.5000040939998
 10
-149.799998777
 20
422.1999949629998
  0
LWPOLYLINE
  5
B549
330
1E
100
AcDbEntity
  8
10
100
AcDbPolyline
 90
        2
 70
   128
 43
0.0
 10
-155.3
 20
455.0000000000001
 10
240.2999999999999
 20
455.0000000000001
  0
LWPOLYLINE
  5
B54A
330
1E
100
AcDbEntity
  8
34
100
AcDbPolyline
 90
        4
 70
   128
 43
0.0
 10
-158.5
 20
460.0000000000001
 10
-158.5
 20
490.0000000000002
 10
243.5
 20
490.0000000000002
 10
243.5
 20
460.0000000000001
  0
LWPOLYLINE
  5
B54B
330
1E
100
AcDbEntity
  8
10
100
AcDbPolyline
 90
        4
 70
   128
 43
0.0
 10
-94.33333382200004
 20
32.99999300799977
 10
-90.99999994200004
 20
30.00000182900016
 10
89.00000162299987
 20
30.00000182900016
 10
92.33333177699988
 20
32.99999300799977
  0
LWPOLYLINE
  5
B54C
330
1E
100
AcDbEntity
  8
10
100
AcDbPolyline
 90
        4
 70
   129
 43
0.0
 10
-45.00000171500004
 20
328.9999968219997
 10
-115.00000015
 20
328.9999968219997
 10
-115.00000015
 20
138.9999992070002
 10
-45.00000171500004
 20
138.9999992070002
  0
LWPOLYLINE
  5
B54D
330
1E
100
AcDbEntity
  8
10
100
AcDbPolyline
 90
        4
 70
   129
 43
0.0
 10
-67.49999888399996
 20
350.9999967030001
 10
-97.5000000760002
 20
350.9999967030001
 10
-97.5000000760002
 20
341.0000062399998
 10
-67.49999888399996
 20
341.0000062399998
  0
LINE
  5
B54E
330
1E
100
AcDbEntity
  8
18
100
AcDbLine
 10
-175.0
 20
553.2000000000001
 30
0.0
 11
260.0
 21
553.2000000000001
 31
0.0
  0
LINE
  5
B54F
330
1E
100
AcDbEntity
  8
18
100
AcDbLine
 10
-175.0
 20
563.2000000000003
 30
0.0
 11
260.0
 21
563.2000000000003
 31
0.0
  0
LWPOLYLINE
  5
B550
330
1E
100
AcDbEntity
  8
10
100
AcDbPolyline
 90
        5
 70
   128
 43
0.0
 10
-138.0
 20
129.1756275409998
 42
0.3590488100909824
 10
-141.3987793225413
 20
133.2984961328924
 10
-154.4907668279095
 20
135.8427370809669
 42
-0.3590488285491303
 10
-155.3
 20
136.8243725253433
 10
-155.2999987469999
 20
156.0000001299999
  0
LWPOLYLINE
  5
B551
330
1E
100
AcDbEntity
  8
10
100
AcDbPolyline
 90
        3
 70
   128
 43
0.0
 10
-131.0000009100002
 20
68.00000433300003
 10
-132.9999891674947
 20
68.00000000001154
 42
-0.4142141969267084
 10
-138.0
 20
72.99999999999982
  0
LWPOLYLINE
  5
B552
330
1E
100
AcDbEntity
  8
10
100
AcDbPolyline
 90
        6
 70
   128
 43
0.0
 10
-138.000000195
 20
100.9999967029999
 10
-137.7000000000001
 20
100.9999999999999
 10
-137.7000000000001
 20
101.9999999999999
 10
-137.7000000000001
 20
124.9999999999999
 10
-137.7000000000001
 20
125.9999999999999
 10
-138.000000195
 20
126.0000026639999
  0
LWPOLYLINE
  5
B553
330
1E
100
AcDbEntity
  8
10
100
AcDbPolyline
 90
        2
 70
   128
 43
0.0
 10
-131.000000000001
 20
187.487468592765
 42
0.3015113445775663
 10
-131.000000000001
 20
182.5125314072346
  0
LWPOLYLINE
  5
B554
330
1E
100
AcDbEntity
  8
10
100
AcDbPolyline
 90
        6
 70
   128
 43
0.0
 10
-138.000000195
 20
324.699998539
 10
-138.0
 20
379.0000000107734
 42
-0.4142135727441417
 10
-134.9999998829995
 20
381.9999999999998
 10
-132.9999993759999
 20
381.9999999219998
 10
-132.9999993759999
 20
378.0000067169996
 10
-131.0000009100002
 20
378.0000067169996
  0
LWPOLYLINE
  5
B555
330
1E
100
AcDbEntity
  8
10
100
AcDbPolyline
 90
        2
 70
   128
 43
0.0
 10
-138.000000195
 20
289.4999987299998
 10
-138.000000195
 20
321.4999965239998
  0
LWPOLYLINE
  5
B556
330
1E
100
AcDbEntity
  8
10
100
AcDbPolyline
 90
        8
 70
   129
 43
0.0
 10
-133.5
 20
321.4999999999999
 10
-136.7000000000001
 20
321.4999999999999
 10
-136.7000000000001
 20
318.5000000000001
 10
-136.7000000000001
 20
292.5000000000001
 10
-136.7000000000001
 20
289.5000000000001
 10
-133.5
 20
289.5000000000001
 10
-133.5
 20
292.5000000000001
 10
-133.5
 20
318.5000000000001
  0
LWPOLYLINE
  5
B557
330
1E
100
AcDbEntity
  8
10
100
AcDbPolyline
 90
        6
 70
   128
 43
0.0
 10
-133.4999999999999
 20
289.5000000000001
 42
-0.4142134998955482
 10
-136.6999993174027
 20
286.3000000000001
 10
-152.1000004570001
 20
286.299996715
 10
-152.0999999999999
 20
272.5
 10
-152.0999999999999
 20
269.5
 10
-155.2999987469999
 20
269.499999177
  0
LWPOLYLINE
  5
B558
330
1E
100
AcDbEntity
  8
10
100
AcDbPolyline
 90
        2
 70
   128
 43
0.0
 10
-131.000000000001
 20
267.4874685927653
 42
0.3015113445775663
 10
-131.000000000001
 20
262.5125314072349
  0
LWPOLYLINE
  5
B559
330
1E
100
AcDbEntity
  8
10
100
AcDbPolyline
 90
        3
 70
   128
 43
0.0
 10
-155.3
 20
286.3000000000001
 42
-0.4142135623730946
 10
-152.0999999999999
 20
289.5000000000001
 10
-136.7000000000001
 20
289.5000000000001
  0
LWPOLYLINE
  5
B55A
330
1E
100
AcDbEntity
  8
10
100
AcDbPolyline
 90
        2
 70
   128
 43
0.0
 10
-155.2999987469999
 20
308.519967537
 10
-138.000000195
 20
308.519967537
  0
LWPOLYLINE
  5
B55B
330
1E
100
AcDbEntity
  8
10
100
AcDbPolyline
 90
        4
 70
   128
 43
0.0
 10
-158.5000007609998
 20
326.4999992070002
 10
-159.6
 20
326.5
 10
-159.6
 20
306.4999999999999
 10
-158.5000007609998
 20
306.5000033789999
  0
LWPOLYLINE
  5
B55C
330
1E
100
AcDbEntity
  8
10
100
AcDbPolyline
 90
        4
 70
   128
 43
0.0
 10
-155.2949323520001
 20
324.5199701600001
 10
-155.294931807834
 20
324.5199701600001
 42
0.3978213496080842
 10
-152.0999999999999
 20
321.5000000000001
 10
-136.7000000000001
 20
321.4999999999999
  0
LWPOLYLINE
  5
B55D
330
1E
100
AcDbEntity
  8
10
100
AcDbPolyline
 90
        6
 70
   128
 43
0.0
 10
-133.4999999999999
 20
321.4999999999999
 42
0.4142135901599144
 10
-136.7000003035844
 20
324.6999999999998
 10
-152.1000004570001
 20
324.699998539
 10
-152.0999999999999
 20
338.5000000000001
 10
-152.0999999999999
 20
341.5
 10
-155.2999987469999
 20
341.4999998029998
  0
LWPOLYLINE
  5
B55E
330
1E
100
AcDbEntity
  8
10
100
AcDbPolyline
 90
       10
 70
   128
 43
0.0
 10
-131.0000009100002
 20
386.500001591
 10
-138.7999999999999
 20
386.4999999999998
 10
-138.7999999999999
 20
389.8
 10
-138.800000699
 20
390.0000012329997
 10
-151.0000000000002
 20
390.0000000000002
 10
-153.0
 20
390.0000000000002
 10
-153.0000007910001
 20
393.0000073129996
 10
-153.0000007910001
 20
434.0000009950001
 10
-153.0000007910001
 20
437.0000070739997
 10
-155.2999987469999
 20
437.0000070739997
  0
LWPOLYLINE
  5
B55F
330
1E
100
AcDbEntity
  8
10
100
AcDbPolyline
 90
        2
 70
   128
 43
0.0
 10
-153.0
 20
390.0000000000002
 10
-155.2999987469999
 20
390.0000012329997
  0
LWPOLYLINE
  5
B560
330
1E
100
AcDbEntity
  8
10
100
AcDbPolyline
 90
        2
 70
   128
 43
0.0
 10
-153.0000007910001
 20
393.0000073129996
 10
-155.2999987469999
 20
393.0000073129996
  0
LWPOLYLINE
  5
B561
330
1E
100
AcDbEntity
  8
10
100
AcDbPolyline
 90
        2
 70
   128
 43
0.0
 10
-120.0000000389999
 20
356.0000068360003
 10
-117.0000000129998
 20
356.0000068360003
  0
LWPOLYLINE
  5
B562
330
1E
100
AcDbEntity
  8
10
100
AcDbPolyline
 90
        4
 70
   128
 43
0.0
 10
-153.0
 20
421.0
 10
-151.0000000000002
 20
421.0
 10
-149.799998777
 20
421.000004452
 10
-149.799998777
 20
422.1999949629998
  0
LWPOLYLINE
  5
B563
330
1E
100
AcDbEntity
  8
10
100
AcDbPolyline
 90
        2
 70
   128
 43
0.0
 10
-153.0000007910001
 20
434.0000009950001
 10
-155.2999987469999
 20
434.0000009950001
  0
LWPOLYLINE
  5
B564
330
1E
100
AcDbEntity
  8
10
100
AcDbPolyline
 90
        2
 70
   128
 43
0.0
 10
-114.3500000899999
 20
422.1999949629998
 10
-114.3500000899999
 20
418.5000068360002
  0
LWPOLYLINE
  5
B565
330
1E
100
AcDbEntity
  8
10
100
AcDbPolyline
 90
        2
 70
   128
 43
0.0
 10
-109.250000023
 20
418.5000068360002
 10
-109.250000023
 20
422.1999949629998
  0
LINE
  5
B566
330
1E
100
AcDbEntity
  8
18
100
AcDbLine
 10
-175.0
 20
563.2000000000003
 30
0.0
 11
-175.0
 21
553.2000000000001
 31
0.0
  0
LWPOLYLINE
  5
B567
330
1E
100
AcDbEntity
  8
10
100
AcDbPolyline
 90
       12
 70
   128
 43
0.0
 10
222.9999900599999
 20
324.699998539
 10
223.0
 20
378.9999994508288
 42
0.4142136274121236
 10
219.9999998829996
 20
381.9999999999998
 10
217.9999948279998
 20
381.9999999219998
 10
217.9999948279998
 20
378.0000067169996
 10
215.0000036489998
 20
378.0000067169996
 10
214.9999999999966
 20
380.0000036490122
 42
0.4142130299320661
 10
212.9999999867234
 20
382.0000000000002
 10
201.24998696
 20
381.9999999219998
 10
138.7500018610001
 20
381.9999999219998
 10
129.9999953049996
 20
381.9999999219998
 10
129.9999953049996
 20
379.5000023059998
  0
LWPOLYLINE
  5
B568
330
1E
100
AcDbEntity
  8
10
100
AcDbPolyline
 90
        3
 70
   128
 43
0.0
 10
214.5000100869998
 20
68.00000433300003
 10
217.999993809982
 20
68.0000000000037
 42
0.4142139249760063
 10
223.0
 20
72.99999999999982
  0
LWPOLYLINE
  5
B569
330
1E
100
AcDbEntity
  8
10
100
AcDbPolyline
 90
       10
 70
   128
 43
0.0
 10
218.0000000000001
 20
289.5000000000001
 42
0.4142134998955953
 10
221.1999993174031
 20
286.3000000000001
 10
236.6000116599999
 20
286.299996715
 10
236.5999999999999
 20
272.5
 10
236.5999999999999
 20
269.5
 10
239.8
 20
269.5
 10
239.8
 20
272.5
 10
239.7999999999999
 20
286.3000000000001
 42
0.4142135623730903
 10
236.6
 20
289.5000000000001
 10
221.1999999999999
 20
289.5000000000001
  0
LWPOLYLINE
  5
B56A
330
1E
100
AcDbEntity
  8
10
100
AcDbPolyline
 90
       10
 70
   128
 43
0.0
 10
221.1999999999999
 20
321.4999999999999
 10
236.6
 20
321.5000000000001
 42
0.4142135623730903
 10
239.7999999999999
 20
324.7000000000002
 10
239.8
 20
338.5000000000001
 10
239.8
 20
341.5
 10
236.5999999999999
 20
341.5
 10
236.5999999999999
 20
338.5000000000001
 10
236.6000116599999
 20
324.699998539
 10
221.2000003035841
 20
324.6999999999998
 42
0.4142135901598962
 10
218.0000000000001
 20
321.4999999999999
  0
LWPOLYLINE
  5
B56B
330
1E
100
AcDbEntity
  8
10
100
AcDbPolyline
 90
        8
 70
   129
 43
0.0
 10
221.1999999999999
 20
318.5000000000001
 10
221.1999999999999
 20
292.5000000000001
 10
221.1999999999999
 20
289.5000000000001
 10
218.0000000000001
 20
289.5000000000001
 10
218.0000000000001
 20
292.5000000000001
 10
218.0000000000001
 20
318.5000000000001
 10
218.0000000000001
 20
321.4999999999999
 10
221.1999999999999
 20
321.4999999999999
  0
LWPOLYLINE
  5
B56C
330
1E
100
AcDbEntity
  8
10
100
AcDbPolyline
 90
       10
 70
   128
 43
0.0
 10
240.299999787
 20
437.0000070739997
 10
238.0000055569999
 20
437.0000070739997
 10
238.0000055569999
 20
434.0000009950001
 10
238.0000055569999
 20
393.0000073129996
 10
238.0
 20
390.0000000000002
 10
236.0000000000002
 20
390.0000000000002
 10
223.8000036019995
 20
390.0000012329997
 10
223.7999999999999
 20
389.8
 10
223.7999999999999
 20
386.4999999999998
 10
128.999993278
 20
386.500001591
  0
LWPOLYLINE
  5
B56D
330
1E
100
AcDbEntity
  8
10
100
AcDbPolyline
 90
        2
 70
   128
 43
0.0
 10
175.2999999999999
 20
435.0000000000001
 10
225.2999999999999
 20
435.0000000000001
  0
LWPOLYLINE
  5
B56E
330
1E
100
AcDbEntity
  8
10
100
AcDbPolyline
 90
        2
 70
   128
 43
0.0
 10
175.2999999999999
 20
445.0000000000001
 10
225.2999999999999
 20
445.0000000000001
  0
LWPOLYLINE
  5
B56F
330
1E
100
AcDbEntity
  8
10
100
AcDbPolyline
 90
        4
 70
   129
 43
0.0
 10
87.999999596
 20
344.999999445
 10
87.999999596
 20
69.99999348399997
 10
113.0000055569999
 20
69.99999348399997
 10
113.0000055569999
 20
344.999999445
  0
LWPOLYLINE
  5
B570
330
1E
100
AcDbEntity
  8
10
100
AcDbPolyline
 90
        4
 70
   129
 43
0.0
 10
63.99999566199994
 20
64.999998253
 10
-65.99999956900006
 20
64.999998253
 10
-65.99999956900006
 20
34.99999706099998
 10
63.99999566199994
 20
34.99999706099998
  0
CIRCLE
  5
B571
330
1E
100
AcDbEntity
  8
10
100
AcDbCircle
 10
-66.00000000000021
 20
103.4999999999999
 30
0.0
 40
21.0
  0
LWPOLYLINE
  5
B572
330
1E
100
AcDbEntity
  8
10
100
AcDbPolyline
 90
        3
 70
   128
 43
0.0
 10
90.11110670699993
 20
31.00000385599997
 10
116.2499935169998
 20
31.00000385599997
 10
116.2499935169998
 20
32.99999300799977
  0
LWPOLYLINE
  5
B573
330
1E
100
AcDbEntity
  8
10
100
AcDbPolyline
 90
        4
 70
   128
 43
0.0
 10
116.2499935169998
 20
31.00000385599997
 10
117.4999938304319
 20
31.00000000000937
 42
0.4142155267512652
 10
119.4999999999869
 20
33.00000724403565
 10
119.4999963779998
 20
33.99999503400016
  0
LWPOLYLINE
  5
B574
330
1E
100
AcDbEntity
  8
10
100
AcDbPolyline
 90
        2
 70
   128
 43
0.0
 10
214.5000000000002
 20
181.1028856829698
 42
0.5773502691896255
 10
214.5000000000002
 20
188.8971143170298
  0
LWPOLYLINE
  5
B575
330
1E
100
AcDbEntity
  8
10
100
AcDbPolyline
 90
        4
 70
   129
 43
0.0
 10
70.99999494699972
 20
265.9999995340001
 10
45.0000018610001
 20
265.9999995340001
 10
45.0000018610001
 20
240.9999991619999
 10
70.99999494699972
 20
240.9999991619999
  0
LWPOLYLINE
  5
B576
330
1E
100
AcDbEntity
  8
10
100
AcDbPolyline
 90
        4
 70
   129
 43
0.0
 10
70.99999494699972
 20
300.9999996829998
 10
45.0000018610001
 20
300.9999996829998
 10
45.0000018610001
 20
285.9999990869999
 10
70.99999494699972
 20
285.9999990869999
  0
LWPOLYLINE
  5
B577
330
1E
100
AcDbEntity
  8
10
100
AcDbPolyline
 90
        4
 70
   129
 43
0.0
 10
-1.000001953000263
 20
300.9999996829998
 10
-1.000001953000263
 20
285.9999990869999
 10
25.00000603399997
 20
285.9999990869999
 10
25.00000603399997
 20
300.9999996829998
  0
LWPOLYLINE
  5
B578
330
1E
100
AcDbEntity
  8
10
100
AcDbPolyline
 90
        4
 70
   129
 43
0.0
 10
-1.000001953000263
 20
240.9999991619999
 10
25.00000603399997
 20
240.9999991619999
 10
25.00000603399997
 20
265.9999995340001
 10
-1.000001953000263
 20
265.9999995340001
  0
LWPOLYLINE
  5
B579
330
1E
100
AcDbEntity
  8
10
100
AcDbPolyline
 90
        3
 70
   128
 43
0.0
 10
-88.25000000000017
 20
430.4732817129997
 10
-88.25000000000017
 20
435.0000000000001
 10
21.74999999999982
 20
435.0000000000001
  0
LWPOLYLINE
  5
B57A
330
1E
100
AcDbEntity
  8
10
100
AcDbPolyline
 90
        2
 70
   128
 43
0.0
 10
-88.25000000000017
 20
445.0000000000001
 10
21.74999999999982
 20
445.0000000000001
  0
LWPOLYLINE
  5
B57B
330
1E
100
AcDbEntity
  8
10
100
AcDbPolyline
 90
        2
 70
   128
 43
0.0
 10
-88.25000000000017
 20
455.0000000000001
 10
-88.25000000000017
 20
424.5
  0
LWPOLYLINE
  5
B57C
330
1E
100
AcDbEntity
  8
10
100
AcDbPolyline
 90
        2
 70
   128
 43
0.0
 10
-76.99999951000023
 20
422.1999949629998
 10
-76.99999951000023
 20
418.5000068360002
  0
LWPOLYLINE
  5
B57D
330
1E
100
AcDbEntity
  8
10
100
AcDbPolyline
 90
        2
 70
   128
 43
0.0
 10
21.74999999999982
 20
455.0000000000001
 10
21.74999999999982
 20
424.5
  0
LWPOLYLINE
  5
B57E
330
1E
100
AcDbEntity
  8
10
100
AcDbPolyline
 90
        2
 70
   128
 43
0.0
 10
10.49999899999986
 20
418.5000068360002
 10
10.49999899999986
 20
422.1999949629998
  0
LWPOLYLINE
  5
B57F
330
1E
100
AcDbEntity
  8
10
100
AcDbPolyline
 90
        2
 70
   128
 43
0.0
 10
214.5000000000002
 20
261.1028856829703
 42
0.5773502691896255
 10
214.5000000000002
 20
268.8971143170301
  0
LWPOLYLINE
  5
B580
330
1E
100
AcDbEntity
  8
10
100
AcDbPolyline
 90
        2
 70
   128
 43
0.0
 10
138.7500018610001
 20
381.9999999219998
 10
138.7500018610001
 20
379.5000023059998
  0
LWPOLYLINE
  5
B581
330
1E
100
AcDbEntity
  8
10
100
AcDbPolyline
 90
        2
 70
   128
 43
0.0
 10
201.24998696
 20
379.5000023059998
 10
201.24998696
 20
381.9999999219998
  0
LWPOLYLINE
  5
B582
330
1E
100
AcDbEntity
  8
10
100
AcDbPolyline
 90
        2
 70
   128
 43
0.0
 10
175.2999999999999
 20
455.0000000000001
 10
175.2999999999999
 20
424.5
  0
LWPOLYLINE
  5
B583
330
1E
100
AcDbEntity
  8
10
100
AcDbPolyline
 90
        5
 70
   128
 43
0.0
 10
240.299999787
 20
156.0000001299999
 10
240.3
 20
136.8243724711077
 42
-0.3590488132423017
 10
239.4907668279095
 20
135.8427370809669
 10
226.3987793224822
 20
133.2984961328808
 42
0.3590488100869422
 10
223.0
 20
129.1756275409998
  0
LWPOLYLINE
  5
B584
330
1E
100
AcDbEntity
  8
10
100
AcDbPolyline
 90
        5
 70
   128
 43
0.0
 10
222.9999900599999
 20
40.99999431899987
 10
221.0000000000002
 20
40.99999999999993
 10
221.0000000000002
 20
34.99999999999995
 10
221.0000000000002
 20
29.00000000000006
 10
222.9999900599999
 20
28.99999980300009
  0
LWPOLYLINE
  5
B585
330
1E
100
AcDbEntity
  8
10
100
AcDbPolyline
 90
        6
 70
   128
 43
0.0
 10
222.9999900599999
 20
100.9999967029999
 10
222.6999999999999
 20
100.9999999999999
 10
222.6999999999999
 20
101.9999999999999
 10
222.6999999999999
 20
124.9999999999999
 10
222.6999999999999
 20
125.9999999999999
 10
222.9999900599999
 20
126.0000026639999
  0
LWPOLYLINE
  5
B586
330
1E
100
AcDbEntity
  8
10
100
AcDbPolyline
 90
        2
 70
   128
 43
0.0
 10
222.9999900599999
 20
321.4999965239998
 10
222.9999900599999
 20
289.4999987299998
  0
LWPOLYLINE
  5
B587
330
1E
100
AcDbEntity
  8
10
100
AcDbPolyline
 90
        2
 70
   128
 43
0.0
 10
222.9999900599999
 20
308.519967537
 10
240.299999787
 20
308.519967537
  0
LWPOLYLINE
  5
B588
330
1E
100
AcDbEntity
  8
10
100
AcDbPolyline
 90
        2
 70
   128
 43
0.0
 10
240.299999787
 20
324.5199701600001
 10
239.7949398299999
 20
324.5199701600001
  0
LWPOLYLINE
  5
B589
330
1E
100
AcDbEntity
  8
10
100
AcDbPolyline
 90
        2
 70
   128
 43
0.0
 10
240.299999787
 20
390.0000012329997
 10
238.0
 20
390.0000000000002
  0
LWPOLYLINE
  5
B58A
330
1E
100
AcDbEntity
  8
10
100
AcDbPolyline
 90
        2
 70
   128
 43
0.0
 10
238.0000055569999
 20
393.0000073129996
 10
240.299999787
 20
393.0000073129996
  0
LWPOLYLINE
  5
B58B
330
1E
100
AcDbEntity
  8
10
100
AcDbPolyline
 90
        2
 70
   128
 43
0.0
 10
225.2999999999999
 20
455.0000000000001
 10
225.2999999999999
 20
424.5
  0
LWPOLYLINE
  5
B58C
330
1E
100
AcDbEntity
  8
10
100
AcDbPolyline
 90
        4
 70
   128
 43
0.0
 10
234.8000109929996
 20
422.1999949629998
 10
234.8000109929996
 20
421.000004452
 10
236.0000000000002
 20
421.0
 10
238.0
 20
421.0
  0
LWPOLYLINE
  5
B58D
330
1E
100
AcDbEntity
  8
10
100
AcDbPolyline
 90
        2
 70
   128
 43
0.0
 10
240.299999787
 20
434.0000009950001
 10
238.0000055569999
 20
434.0000009950001
  0
DIMENSION
  5
B58E
330
1E
100
AcDbEntity
  8
30
100
AcDbDimension
  2
*D24
 10
260.0
 20
595.8015095079997
 30
0.0
 11
130.0
 21
594.8015095079997
 31
0.0
 70
   160
 71
     5
 42
260.0
  3
Standard
100
AcDbAlignedDimension
 13
0.0000000000000284
 23
590.0385861509995
 33
0.0
 14
260.0
 24
563.2
 34
0.0
100
AcDbRotatedDimension
  0
LINE
  5
B591
330
1E
100
AcDbEntity
  8
18
100
AcDbLine
 10
260.0
 20
563.2000000000003
 30
0.0
 11
260.0
 21
553.2000000000001
 31
0.0
  0
LWPOLYLINE
  5
B6BF
330
1E
100
AcDbEntity
  8
16
100
AcDbPolyline
 90
        2
 70
     0
 43
0.0
 10
0.000000000000199
 20
-32.19849049200007
 10
0.000000000000199
 20
649.8015095079997
  0
MTEXT
  5
B6C6
330
1E
100
AcDbEntity
  8
19
100
AcDbMText
 10
-1114.32873818
 20
-231.4711700350003
 30
0.0
 40
20.0
 41
0.0
 71
     1
 72
     5
  1
PANEL CUTOUT
 73
     1
 44
1.0
1001
ACAD
1000
MTEXTBEGIN
1070
    73
1070
     1
1070
    44
1040
1.0
1070
    74
1070
     0
1000
MTEXTEND
  0
LEADER
  5
B6CB
330
1E
100
AcDbEntity
  8
19
100
AcDbLeader
  3
Standard
 74
     0
 76
     3
 10
-1128.880913773
 20
547.9391534589995
 30
0.0
 10
-1176.682251760998
 20
657.9143388149997
 30
0.0
 10
-762.880913773
 20
658.9391534589995
 30
0.0
  0
MTEXT
  5
B6CC
330
1E
100
AcDbEntity
  8
19
100
AcDbMText
 10
-1171.634200468
 20
687.9000191939995
 30
0.0
 40
20.0
 41
0.0
 71
     1
 72
     5
  1
MAINTENANCE SPACE(min)
 73
     1
 44
1.0
1001
ACAD
1000
MTEXTBEGIN
1070
    73
1070
     1
1070
    44
1040
1.0
1070
    74
1070
     0
1000
MTEXTEND
  0
LINE
  5
B6D5
330
1E
100
AcDbEntity
  8
16
100
AcDbLine
 10
-1000.0
 20
1000.0
 30
0.0
 11
-1000.0
 21
1343.000122
 31
0.0
  0
DIMENSION
  5
B837
330
1E
100
AcDbEntity
  8
30
100
AcDbDimension
  2
*D29
 10
-776.493442411
 20
-0.0000000000000279
 30
0.0
 11
-776.493442411
 21
-24.79563015500014
 31
0.0
 70
   160
 71
     5
 42
29.99999999999987
  3
Standard
100
AcDbAlignedDimension
 13
-875.0
 23
29.99999999999987
 33
0.0
 14
-875.0
 24
0.0
 34
0.0
 50
90.0
100
AcDbRotatedDimension
  0
DIMENSION
  5
B838
330
1E
100
AcDbEntity
  8
30
100
AcDbDimension
  2
*D30
 10
-875.0
 20
-68.34452665800006
 30
0.0
 11
-996.0432078769999
 21
-68.34452665800006
 31
0.0
 70
   160
 71
     5
 42
250.0
  3
Standard
100
AcDbAlignedDimension
 13
-1125.0
 23
29.99999999999987
 33
0.0
 14
-875.0
 24
29.99999999999987
 34
0.0
100
AcDbRotatedDimension
  0
DIMENSION
  5
B839
330
1E
100
AcDbEntity
  8
30
100
AcDbDimension
  2
*D31
 10
-587.6109068119999
 20
549.9999999999996
 30
0.0
 11
-587.6109068119999
 21
265.9598367739998
 31
0.0
 70
   160
 71
     5
 42
549.9999999999999
  3
Standard
100
AcDbAlignedDimension
 13
-711.8355980780002
 23
-0.0000000000001137
 33
0.0
 14
-675.0
 24
549.9999999999996
 34
0.0
 50
90.0
100
AcDbRotatedDimension
  0
DIMENSION
  5
B83B
330
1E
100
AcDbEntity
  8
30
100
AcDbDimension
  2
*D32
 10
-675.0
 20
-183.8987974260001
 30
0.0
 11
-842.7943398449999
 21
-183.8987974260001
 31
0.0
 70
   160
 71
     5
 42
325.0
  3
Standard
100
AcDbAlignedDimension
 13
-1000.0
 23
-77.8840870380003
 33
0.0
 14
-675.0
 24
-100.0000000000001
 34
0.0
100
AcDbRotatedDimension
  0
DIMENSION
  5
B83C
330
1E
100
AcDbEntity
  8
30
100
AcDbDimension
  2
*D33
 10
-1240.0
 20
-183.8987974260001
 30
0.0
 11
-1120.40545096
 21
-183.8987974260001
 31
0.0
 70
   160
 71
     5
 42
240.0
  3
Standard
100
AcDbAlignedDimension
 13
-1000.0
 23
-77.8840870380003
 33
0.0
 14
-1240.0
 24
-100.0000000000001
 34
0.0
100
AcDbRotatedDimension
  0
DIMENSION
  5
B845
330
1E
100
AcDbEntity
  8
30
100
AcDbDimension
  2
*D34
 10
-776.493442411
 20
29.99999999999984
 30
0.0
 11
-776.493442411
 21
211.8006790989999
 31
0.0
 70
   160
 71
     5
 42
334.9999999999996
  3
Standard
100
AcDbAlignedDimension
 13
-875.0
 23
364.9999999999995
 33
0.0
 14
-875.0
 24
29.99999999999987
 34
0.0
 50
90.0
100
AcDbRotatedDimension
  0
LWPOLYLINE
  5
B912
330
1E
100
AcDbEntity
  8
11
100
AcDbPolyline
 90
        4
 70
     1
 43
0.0
 10
-875.0
 20
364.9999999999997
 10
-1125.0
 20
364.9999999999997
 10
-1125.0
 20
30.00000000000005
 10
-875.0
 20
30.00000000000005
  0
LWPOLYLINE
  5
B916
330
1E
100
AcDbEntity
  8
18
100
AcDbPolyline
 90
        4
 70
     1
 43
0.0
 10
-1240.0
 20
-99.99999999999994
 10
-1240.0
 20
549.9999999999999
 10
-675.0
 20
549.9999999999999
 10
-675.0
 20
-99.99999999999994
  0
DIMENSION
  5
BB44
330
1E
100
AcDbEntity
  8
30
100
AcDbDimension
  2
*D35
 10
1915.0
 20
571.2650820209997
 30
0.0
 11
1874.773589039999
 21
571.2650820209997
 31
0.0
 70
   160
 71
     5
 42
85.0
  3
Standard
100
AcDbAlignedDimension
 13
1830.0
 23
523.0
 33
0.0
 14
1915.0
 24
528.9974009839998
 34
0.0
100
AcDbRotatedDimension
  0
LWPOLYLINE
  5
BB93
330
1E
100
AcDbEntity
  8
10
100
AcDbPolyline
 90
        4
 70
     1
 43
0.0
 10
2158.5
 20
460.1984904920005
 10
2158.5
 20
0.0
 10
1755.0
 20
0.0
 10
1755.0
 20
460.1984904920005
  0
LWPOLYLINE
  5
BB95
330
1E
100
AcDbEntity
  8
27
100
AcDbPolyline
 90
        4
 70
     1
 43
0.0
 10
1855.999999999999
 20
306.9999999999998
 10
1804.0
 20
306.9999999999998
 10
1804.0
 20
317.0
 10
1855.999999999999
 20
317.0
  0
LWPOLYLINE
  5
BB97
330
1E
100
AcDbEntity
  8
27
100
AcDbPolyline
 90
        4
 70
     1
 43
0.0
 10
1855.999999999999
 20
133.0
 10
1804.0
 20
133.0
 10
1804.0
 20
143.0
 10
1855.999999999999
 20
143.0
  0
LWPOLYLINE
  5
BB9C
330
1E
100
AcDbEntity
  8
27
100
AcDbPolyline
 90
        4
 70
     1
 43
0.0
 10
2026.0
 20
306.9999999999998
 10
1974.0
 20
306.9999999999998
 10
1974.0
 20
317.0
 10
2026.0
 20
317.0
  0
LWPOLYLINE
  5
BB9E
330
1E
100
AcDbEntity
  8
27
100
AcDbPolyline
 90
        4
 70
     1
 43
0.0
 10
2026.0
 20
133.0
 10
1974.0
 20
133.0
 10
1974.0
 20
143.0
 10
2026.0
 20
143.0
  0
LWPOLYLINE
  5
BBA0
330
1E
100
AcDbEntity
  8
27
100
AcDbPolyline
 90
        4
 70
     1
 43
0.0
 10
1941.0
 20
133.0
 10
1889.0
 20
133.0
 10
1889.0
 20
143.0
 10
1941.0
 20
143.0
  0
LWPOLYLINE
  5
BBA6
330
1E
100
AcDbEntity
  8
27
100
AcDbPolyline
 90
        4
 70
     1
 43
0.0
 10
1941.0
 20
306.9999999999998
 10
1889.0
 20
306.9999999999998
 10
1889.0
 20
317.0
 10
1941.0
 20
317.0
  0
LWPOLYLINE
  5
BBAC
330
1E
100
AcDbEntity
  8
27
100
AcDbPolyline
 90
        4
 70
     1
 43
0.0
 10
2111.0
 20
133.0
 10
2059.0
 20
133.0
 10
2059.0
 20
143.0
 10
2111.0
 20
143.0
  0
LWPOLYLINE
  5
BBB1
330
1E
100
AcDbEntity
  8
27
100
AcDbPolyline
 90
        4
 70
     1
 43
0.0
 10
2111.0
 20
306.9999999999998
 10
2059.0
 20
306.9999999999998
 10
2059.0
 20
317.0
 10
2111.0
 20
317.0
  0
LWPOLYLINE
  5
BD05
330
1E
100
AcDbEntity
  8
27
100
AcDbPolyline
 90
        4
 70
     0
 43
0.0
 10
144.0
 20
1277.0
 10
144.0
 20
1365.0
 10
196.0
 20
1365.0
 10
196.0
 20
1277.0
  0
LWPOLYLINE
  5
BD06
330
1E
100
AcDbEntity
  8
27
100
AcDbPolyline
 90
        4
 70
   128
 43
0.0
 10
59.00000000000042
 20
1277.0
 10
59.00000000000042
 20
1365.0
 10
111.0000000000002
 20
1365.0
 10
111.0000000000002
 20
1277.0
  0
LWPOLYLINE
  5
BD07
330
1E
100
AcDbEntity
  8
27
100
AcDbPolyline
 90
        4
 70
   128
 43
0.0
 10
-110.9999999999998
 20
1277.0
 10
-110.9999999999998
 20
1365.0
 10
-59.00000000000003
 20
1365.0
 10
-59.00000000000003
 20
1277.0
  0
LWPOLYLINE
  5
BD08
330
1E
100
AcDbEntity
  8
27
100
AcDbPolyline
 90
        4
 70
   128
 43
0.0
 10
-26.00000000000003
 20
1277.0
 10
-26.00000000000003
 20
1365.0
 10
26.00000000000042
 20
1365.0
 10
26.00000000000042
 20
1277.0
  0
DIMENSION
  5
BD09
330
1E
100
AcDbEntity
  8
30
100
AcDbDimension
  2
*D36
 10
-207.5679535139994
 20
1365.0
 30
0.0
 11
-207.5679535139994
 21
1347.5
 31
0.0
 70
   160
  1
<>*
 71
     5
 42
35.0
  3
Standard
100
AcDbAlignedDimension
 13
-99.43427081399953
 23
1330.0
 33
0.0
 14
-109.2864998979998
 24
1365.0
 34
0.0
 50
90.0
100
AcDbRotatedDimension
  0
LWPOLYLINE
  5
BD0A
330
1E
100
AcDbEntity
  8
16
100
AcDbPolyline
 90
        2
 70
     0
 43
0.0
 10
0.000000000000199
 20
915.4944792356037
 10
0.000000000000199
 20
1428.0
  0
DIMENSION
  5
BD0C
330
1E
100
AcDbEntity
  8
30
100
AcDbDimension
  2
*D37
 10
118.999899174999
 20
953.0091017753019
 30
0.0
 11
59.49989917499909
 21
961.0091017753019
 31
0.0
 70
    32
 71
     5
 42
118.9999999999998
  3
Standard
100
AcDbAlignedDimension
 13
-0.0001008250008141
 23
983.0
 33
0.0
 14
118.999899174999
 24
983.0
 34
0.0
100
AcDbRotatedDimension
  0
DIMENSION
  5
BD0F
330
1E
100
AcDbEntity
  8
30
100
AcDbDimension
  2
*D38
 10
-119.0001008250008
 20
952.1757684419686
 30
0.0
 11
-59.50010082500082
 21
960.1757684419686
 31
0.0
 70
    32
 71
     5
 42
118.9999999999999
  3
Standard
100
AcDbAlignedDimension
 13
-0.0001008250008141
 23
983.0
 33
0.0
 14
-119.0001008250008
 24
983.0
 34
0.0
100
AcDbRotatedDimension
  0
DIMENSION
  5
BD11
330
1E
100
AcDbEntity
  8
30
100
AcDbDimension
  2
*D39
 10
-57.28649989800008
 20
1462.901372868
 30
0.0
 11
-82.27009280899958
 21
1462.901372868
 31
0.0
 70
   160
 71
     5
 42
51.99999999999981
  3
Standard
100
AcDbAlignedDimension
 13
-109.2864998979998
 23
1365.0
 33
0.0
 14
-57.28649989800008
 24
1365.0
 34
0.0
 50
180.0
100
AcDbRotatedDimension
  0
DIMENSION
  5
BD12
330
1E
100
AcDbEntity
  8
30
100
AcDbDimension
  2
*D40
 10
-72.49999999999976
 20
1422.824129261998
 30
0.0
 11
-84.24881497999965
 21
1422.824129261998
 31
0.0
 70
   160
 71
     5
 42
25.00000000000003
  3
Standard
100
AcDbAlignedDimension
 13
-97.49999999999978
 23
1350.0
 33
0.0
 14
-72.49999999999976
 24
1350.0
 34
0.0
 50
180.0
100
AcDbRotatedDimension
  0
DIMENSION
  5
BD13
330
1E
100
AcDbEntity
  8
30
100
AcDbDimension
  2
*D41
 10
-156.333915846
 20
1365.0
 30
0.0
 11
-156.333915846
 21
1357.318341476
 31
0.0
 70
   160
 71
     5
 42
15.0
  3
Standard
100
AcDbAlignedDimension
 13
-97.49999999999978
 23
1350.0
 33
0.0
 14
-109.2864998979998
 24
1365.0
 34
0.0
 50
90.0
100
AcDbRotatedDimension
  0
CIRCLE
  5
BD14
330
1E
100
AcDbEntity
  8
27
100
AcDbCircle
 10
-97.4999999999995
 20
1350.0
 30
0.0
 40
5.5
  0
CIRCLE
  5
BD15
330
1E
100
AcDbEntity
  8
27
100
AcDbCircle
 10
-72.49999999999949
 20
1350.0
 30
0.0
 40
5.5
  0
CIRCLE
  5
BD16
330
1E
100
AcDbEntity
  8
27
100
AcDbCircle
 10
-12.49999999999951
 20
1350.0
 30
0.0
 40
5.5
  0
LEADER
  5
BD17
330
1E
100
AcDbEntity
  8
30
100
AcDbLeader
  3
Standard
 76
     3
 10
102.682766734037
 20
1351.84090439202
 30
0.0
 10
156.0
 20
1400.0
 30
0.0
 10
242.0
 20
1400.0
 30
0.0
1001
ACAD
1000
DSTYLE
1002
{
1070
   147
1040
3.0
1070
    77
1070
     0
1002
}
  0
MTEXT
  5
BD18
330
1E
100
AcDbEntity
  8
30
100
AcDbMText
 10
172.4181207419999
 20
1423.571013654
 30
0.0
 40
20.0
 41
0.0
 71
     1
 72
     5
  1
2-%%C11
  7
SLDTEXTSTYLE1
 73
     1
 44
1.0
1001
ACAD
1000
MTEXTBEGIN
1070
    73
1070
     1
1070
    44
1040
1.0
1070
    74
1070
     0
1000
MTEXTEND
  0
CIRCLE
  5
BD19
330
1E
100
AcDbEntity
  8
27
100
AcDbCircle
 10
97.50000000000049
 20
1350.0
 30
0.0
 40
5.5
  0
CIRCLE
  5
BD1A
330
1E
100
AcDbEntity
  8
27
100
AcDbCircle
 10
12.50000000000048
 20
1350.0
 30
0.0
 40
5.5
  0
CIRCLE
  5
BD1B
330
1E
100
AcDbEntity
  8
27
100
AcDbCircle
 10
72.50000000000048
 20
1350.0
 30
0.0
 40
5.5
  0
CIRCLE
  5
BD1C
330
1E
100
AcDbEntity
  8
27
100
AcDbCircle
 10
157.5
 20
1350.0
 30
0.0
 40
5.5
  0
CIRCLE
  5
BD1D
330
1E
100
AcDbEntity
  8
27
100
AcDbCircle
 10
182.5
 20
1350.0
 30
0.0
 40
5.5
  0
TEXT
  5
BDD6
330
1E
100
AcDbEntity
  8
19
100
AcDbText
 10
1781.375992527211
 20
1167.411716685818
 30
0.0
 40
20.0
  1
:FRONT PANEL CENTER LINE
100
AcDbText
  0
TEXT
  5
BDD7
330
1E
100
AcDbEntity
  8
19
100
AcDbText
 10
1751.127761621656
 20
1172.134931797841
 30
-0.0000000000000136
 40
20.0
  1
P
 50
0.000002504494757
100
AcDbText
  0
TEXT
  5
BDD8
330
1E
100
AcDbEntity
  8
19
100
AcDbText
 10
1743.80964638728
 20
1158.257978672841
 30
-0.0000000000000136
 40
20.0
  1
C
 50
0.000002504494757
100
AcDbText
  0
DIMENSION
  5
BDE3
330
1E
100
AcDbEntity
  8
30
100
AcDbDimension
  2
*D42
 10
-588.4442401453334
 20
-100.0
 30
0.0
 11
-596.4442401453334
 21
-50.00000000000015
 31
0.0
 70
    32
 71
     5
 42
99.99999999999985
  3
Standard
100
AcDbAlignedDimension
 13
-675.0
 23
-0.0000000000001137
 33
0.0
 14
-675.0
 24
-99.99999999999994
 34
0.0
 50
90.0
100
AcDbRotatedDimension
  0
LWPOLYLINE
  5
BEB9
330
1E
100
AcDbEntity
  8
10
100
AcDbPolyline
 90
        4
 70
     1
 43
0.0
 10
-158.5
 20
1277.0
 10
244.9999999999999
 20
1277.0
 10
244.9999999999999
 20
1000.0
 10
-158.5
 20
1000.0
  0
LINE
  5
BEBA
330
1E
100
AcDbEntity
  8
10
100
AcDbLine
 10
119.0
 20
983.0
 30
0.0
 11
-119.0
 21
983.0
 31
0.0
  0
LWPOLYLINE
  5
BEBB
330
1E
100
AcDbEntity
  8
10
100
AcDbPolyline
 90
        2
 70
     0
 43
0.0
 10
-119.0
 20
983.0
 10
-119.0
 20
1000.0
  0
LWPOLYLINE
  5
BEBC
330
1E
100
AcDbEntity
  8
10
100
AcDbPolyline
 90
        2
 70
     0
 43
0.0
 10
119.0
 20
983.0
 10
119.0
 20
1000.0
  0
DIMENSION
  5
BEFA
330
1E
100
AcDbEntity
  8
30
100
AcDbDimension
  2
*D44
 10
1224.0
 20
-229.9069754793083
 30
0.0
 11
1041.5
 21
-221.9069754793083
 31
0.0
 70
    32
 71
     5
 42
365.0
  3
Standard
100
AcDbAlignedDimension
 13
859.0
 23
-77.00000000000024
 33
0.0
 14
1224.0
 24
133.000001948
 34
0.0
100
AcDbRotatedDimension
  0
DIMENSION
  5
C0FA
330
1E
100
AcDbEntity
  8
30
100
AcDbDimension
  2
*D49
 10
-749.9999999999996
 20
948.3842652287068
 30
0.0
 11
-874.9999999999996
 21
956.3842652287068
 31
0.0
 70
    32
 71
     5
 42
250.0
  3
Standard
100
AcDbAlignedDimension
 13
-999.9999999999996
 23
998.0
 33
0.0
 14
-749.9999999999996
 24
1071.999999999998
 34
0.0
100
AcDbRotatedDimension
  0
DIMENSION
  5
C0FB
330
1E
100
AcDbEntity
  8
30
100
AcDbDimension
  2
*D50
 10
-999.9999999999996
 20
948.3842652287068
 30
0.0
 11
-1082.499999999999
 21
956.3842652287068
 31
0.0
 70
    32
 71
     5
 42
165.0000000000003
  3
Standard
100
AcDbAlignedDimension
 13
-1165.0
 23
1072.0
 33
0.0
 14
-999.9999999999996
 24
1000.0
 34
0.0
100
AcDbRotatedDimension
  0
LINE
  5
C0FC
330
1E
100
AcDbEntity
  8
12
100
AcDbLine
 10
-1154.999999999998
 20
1247.000122
 30
0.0
 11
-1174.999999999998
 21
1247.000122
 31
0.0
  0
CIRCLE
  5
C0FD
330
1E
100
AcDbEntity
  8
12
100
AcDbCircle
 10
-1164.999999999998
 20
1247.000122
 30
0.0
 40
7.0
  0
CIRCLE
  5
C0FE
330
1E
100
AcDbEntity
  8
12
100
AcDbCircle
 10
-1164.999999999998
 20
1081.999999999996
 30
0.0
 40
7.0
  0
LINE
  5
C0FF
330
1E
100
AcDbEntity
  8
12
100
AcDbLine
 10
-1155.0
 20
1082.0
 30
0.0
 11
-1175.0
 21
1082.0
 31
0.0
  0
LINE
  5
C100
330
1E
100
AcDbEntity
  8
12
100
AcDbLine
 10
-1164.999999999998
 20
1257.000121999999
 30
0.0
 11
-1164.999999999998
 21
1237.000121999999
 31
0.0
  0
LINE
  5
C101
330
1E
100
AcDbEntity
  8
12
100
AcDbLine
 10
-1165.0
 20
1092.0
 30
0.0
 11
-1165.0
 21
1072.0
 31
0.0
  0
DIMENSION
  5
C102
330
1E
100
AcDbEntity
  8
30
100
AcDbDimension
  2
*D51
 10
-660.6453671497757
 20
1000.0
 30
0.0
 11
-668.6453671497758
 21
1040.999999999998
 31
0.0
 70
    32
 71
     5
 42
81.99999999999603
  3
Standard
100
AcDbAlignedDimension
 13
-742.9999999999997
 23
1081.999999999996
 33
0.0
 14
-742.9999999999997
 24
1000.0
 34
0.0
 50
90.0
100
AcDbRotatedDimension
  0
DIMENSION
  5
C103
330
1E
100
AcDbEntity
  8
30
100
AcDbDimension
  2
*D52
 10
-660.6453671497757
 20
1081.999999999996
 30
0.0
 11
-668.6453671497758
 21
1164.499999999996
 31
0.0
 70
    32
 71
     5
 42
165.0000000000009
  3
Standard
100
AcDbAlignedDimension
 13
-739.9999999999996
 23
1246.999999999997
 33
0.0
 14
-740.0000000000003
 24
1081.999999999996
 34
0.0
 50
90.0
100
AcDbRotatedDimension
  0
LINE
  5
C104
330
1E
100
AcDbEntity
  8
12
100
AcDbLine
 10
-749.9999999999996
 20
1256.999999999996
 30
0.0
 11
-749.9999999999996
 21
1236.999999999996
 31
0.0
  0
LINE
  5
C105
330
1E
100
AcDbEntity
  8
12
100
AcDbLine
 10
-740.0000000000003
 20
1081.999999999996
 30
0.0
 11
-760.0000000000001
 21
1081.999999999996
 31
0.0
  0
CIRCLE
  5
C106
330
1E
100
AcDbEntity
  8
12
100
AcDbCircle
 10
-749.9999999999996
 20
1081.999999999996
 30
0.0
 40
7.0
  0
LINE
  5
C107
330
1E
100
AcDbEntity
  8
12
100
AcDbLine
 10
-749.9999999999996
 20
1091.999999999998
 30
0.0
 11
-749.9999999999996
 21
1071.999999999998
 31
0.0
  0
CIRCLE
  5
C108
330
1E
100
AcDbEntity
  8
12
100
AcDbCircle
 10
-749.9999999999996
 20
1246.999999999997
 30
0.0
 40
7.0
  0
LINE
  5
C109
330
1E
100
AcDbEntity
  8
12
100
AcDbLine
 10
-739.9999999999996
 20
1246.999999999997
 30
0.0
 11
-759.9999999999996
 21
1246.999999999997
 31
0.0
  0
LEADER
  5
C10A
330
1E
100
AcDbEntity
  8
30
100
AcDbLeader
  3
Standard
 76
     3
 10
-749.9999999999996
 20
1253.999999999995
 30
0.0
 10
-722.3635968900135
 20
1279.717112470873
 30
0.0
 10
-677.0646758933267
 20
1279.717112470873
 30
0.0
1001
ACAD
1000
DSTYLE
1002
{
1070
     5
1000
OPEN
1070
   342
1005
3B2
1002
}
  0
TEXT
  5
C10B
330
1E
100
AcDbEntity
  8
30
100
AcDbText
 10
-714.4610932706902
 20
1284.523724235808
 30
0.0
 40
10.0
  1
%%C14
100
AcDbText
  0
VIEWPORT
  5
9AC
102
{ACAD_XDICTIONARY
360
C64D
102
}
330
1A
100
AcDbEntity
 67
     1
  8
0
  6
Continuous
100
AcDbViewport
 10
99.11291503906245
 20
142.6315755844115
 30
0.0
 40
553.8801308809937
 41
299.1603055247638
 68
     1
 69
     1
 12
99.11291503906245
 22
142.6315755844115
 13
0.0
 23
0.0
 14
10.0
 24
10.0
 15
10.0
 25
10.0
 16
0.0
 26
0.0
 36
1.0
 17
0.0
 27
0.0
 37
0.0
 42
50.0
 43
0.0
 44
0.0
 45
299.1603055247638
 50
0.0
 51
0.0
 72
   100
 90
    32800
  1

281
     0
 71
     1
 74
     0
110
0.0
120
0.0
130
0.0
111
1.0
121
0.0
131
0.0
112
0.0
122
1.0
132
0.0
 79
     0
146
0.0
  0
ENDSEC
  0
SECTION
  2
OBJECTS
  0
DICTIONARY
  5
C
330
0
100
AcDbDictionary
281
     1
  3
ACAD_COLOR
350
C5F2
  3
ACAD_GROUP
350
D
  3
ACAD_LAYOUT
350
19
  3
ACAD_MATERIAL
350
C5C5
  3
ACAD_MLEADERSTYLE
350
C617
  3
ACAD_MLINESTYLE
350
16
  3
ACAD_PLOTSETTINGS
350
18
  3
ACAD_PLOTSTYLENAME
350
E
  3
ACAD_SCALELIST
350
C5F5
  3
ACAD_TABLESTYLE
350
C5F3
  3
ACAD_VISUALSTYLE
350
C5DE
  3
ACDB_RECOMPOSE_DATA
350
C649
  3
AcDbVariableDictionary
350
6CB8
  3
DWGPROPS
350
C64A
  0
DICTIONARY
  5
C61D
330
2
100
AcDbDictionary
280
     1
281
     1
  3
ACAD_LAYERSTATES
360
C61E
  0
DICTIONARY
  5
C62E
330
10
100
AcDbDictionary
280
     1
281
     1
  3
ADSK_XREC_LAYER_RECONCILED
360
C62F
  0
DICTIONARY
  5
C630
330
2F
100
AcDbDictionary
280
     1
281
     1
  3
ADSK_XREC_LAYER_RECONCILED
360
C631
  0
DICTIONARY
  5
C632
330
31
100
AcDbDictionary
280
     1
281
     1
  3
ADSK_XREC_LAYER_RECONCILED
360
C633
  0
DICTIONARY
  5
C634
330
35
100
AcDbDictionary
280
     1
281
     1
  3
ADSK_XREC_LAYER_RECONCILED
360
C635
  0
DICTIONARY
  5
C636
330
38
100
AcDbDictionary
280
     1
281
     1
  3
ADSK_XREC_LAYER_RECONCILED
360
C637
  0
DICTIONARY
  5
C638
330
3C
100
AcDbDictionary
280
     1
281
     1
  3
ADSK_XREC_LAYER_RECONCILED
360
C639
  0
DICTIONARY
  5
C63A
330
3A2
100
AcDbDictionary
280
     1
281
     1
  3
ADSK_XREC_LAYER_RECONCILED
360
C63B
  0
DICTIONARY
  5
C63C
330
33C8
100
AcDbDictionary
280
     1
281
     1
  3
ADSK_XREC_LAYER_RECONCILED
360
C63D
  0
DICTIONARY
  5
C63E
330
39DB
100
AcDbDictionary
280
     1
281
     1
  3
ADSK_XREC_LAYER_RECONCILED
360
C63F
  0
DICTIONARY
  5
C640
330
BE62
100
AcDbDictionary
280
     1
281
     1
  3
ADSK_XREC_LAYER_RECONCILED
360
C641
  0
DICTIONARY
  5
178
330
1E
100
AcDbDictionary
280
     1
281
     1
  3
ACAD_LAYOUTSELFREF
360
818C
  0
DICTIONARY
  5
17A
330
1A
100
AcDbDictionary
280
     1
281
     1
  3
ACAD_LAYOUTSELFREF
360
818B
  0
DICTIONARY
  5
C64D
330
9AC
100
AcDbDictionary
280
     1
281
     1
  3
ACAD_XREC_ROUNDTRIP
360
C64E
  0
DICTIONARY
  5
C5F2
102
{ACAD_REACTORS
330
C
102
}
330
C
100
AcDbDictionary
281
     1
  0
DICTIONARY
  5
D
102
{ACAD_REACTORS
330
C
102
}
330
C
100
AcDbDictionary
281
     1
  3
*A1
350
133D
  3
*A2
350
1341
  0
DICTIONARY
  5
19
102
{ACAD_REACTORS
330
C
102
}
330
C
100
AcDbDictionary
281
     1
  3
Model
350
21
  3
ﾚｲｱｳﾄ1
350
1D
  0
DICTIONARY
  5
C5C5
102
{ACAD_REACTORS
330
C
102
}
330
C
100
AcDbDictionary
281
     1
  3
ByBlock
350
C5CE
  3
ByLayer
350
C5C6
  3
Global
350
C5D6
  0
DICTIONARY
  5
C617
102
{ACAD_REACTORS
330
C
102
}
330
C
100
AcDbDictionary
281
     1
  3
Standard
350
C618
  0
DICTIONARY
  5
16
102
{ACAD_REACTORS
330
C
102
}
330
C
100
AcDbDictionary
281
     1
  3
Standard
350
17
  0
DICTIONARY
  5
18
102
{ACAD_REACTORS
330
C
102
}
330
C
100
AcDbDictionary
281
     1
  0
ACDBDICTIONARYWDFLT
  5
E
102
{ACAD_REACTORS
330
C
102
}
330
C
100
AcDbDictionary
281
     1
  3
Normal
350
F
100
AcDbDictionaryWithDefault
340
F
  0
DICTIONARY
  5
C5F5
102
{ACAD_REACTORS
330
C
102
}
330
C
100
AcDbDictionary
281
     1
  3
A0
350
C5F6
  3
A1
350
C5F7
  3
A2
350
C5F8
  3
A3
350
C5F9
  3
A4
350
C5FA
  3
A5
350
C5FB
  3
A6
350
C5FC
  3
A7
350
C5FD
  3
A8
350
C5FE
  3
A9
350
C5FF
  3
B0
350
C600
  3
B1
350
C601
  3
B2
350
C602
  3
B3
350
C603
  3
B4
350
C604
  3
B5
350
C605
  3
B6
350
C606
  3
B7
350
C607
  3
B8
350
C608
  3
B9
350
C609
  3
C0
350
C60A
  3
C1
350
C60B
  3
C2
350
C60C
  3
C3
350
C60D
  3
C4
350
C60E
  3
C5
350
C60F
  3
C6
350
C610
  3
C7
350
C611
  3
C8
350
C612
  3
C9
350
C613
  3
D0
350
C614
  3
D1
350
C615
  3
D2
350
C616
  0
DICTIONARY
  5
C5F3
102
{ACAD_REACTORS
330
C
102
}
330
C
100
AcDbDictionary
281
     1
  3
Standard
350
C5F4
  0
DICTIONARY
  5
C5DE
102
{ACAD_REACTORS
330
C
102
}
330
C
100
AcDbDictionary
281
     1
  3
2dWireframe
350
C5E4
  3
3D Hidden
350
C5E6
  3
3dWireframe
350
C5E5
  3
Basic
350
C5E3
  3
Brighten
350
C5EA
  3
ColorChange
350
C5EE
  3
Conceptual
350
C5E7
  3
Dim
350
C5E9
  3
EdgeColorOff
350
C5F1
  3
Facepattern
350
C5ED
  3
Flat
350
C5DF
  3
FlatWithEdges
350
C5E0
  3
Gouraud
350
C5E1
  3
GouraudWithEdges
350
C5E2
  3
JitterOff
350
C5EF
  3
Linepattern
350
C5EC
  3
OverhangOff
350
C5F0
  3
Realistic
350
C5E8
  3
Thicken
350
C5EB
  0
XRECORD
  5
C649
102
{ACAD_REACTORS
330
C
102
}
330
C
100
AcDbXrecord
280
     1
 90
        1
330
C5F4
  0
DICTIONARY
  5
6CB8
102
{ACAD_REACTORS
330
C
102
}
330
C
100
AcDbDictionary
281
     1
  3
CANNOSCALE
350
C644
  3
CMLEADERSTYLE
350
C643
  3
CTABLESTYLE
350
C642
  3
DIMASSOC
350
81A4
  3
INDEXCTL
350
C645
  3
SORTENTS
350
6CB9
  3
XCLIPFRAME
350
C646
  0
XRECORD
  5
C64A
102
{ACAD_REACTORS
330
C
102
}
330
C
100
AcDbXrecord
280
     1
  1
DWGPROPS COOKIE
  2

  3

  4

  6

  7

  8
CAD-PC
  9

300
=
301
=
302
=
303
=
304
=
305
=
306
=
307
=
308
=
309
=
 40
1.975497118055555
 41
2452286.555658658
 42
2456974.368269734
  1

 90
        0
  0
DICTIONARY
  5
C61E
102
{ACAD_REACTORS
330
C61D
102
}
330
C61D
100
AcDbDictionary
281
     1
  0
XRECORD
  5
C62F
102
{ACAD_REACTORS
330
C62E
102
}
330
C62E
100
AcDbXrecord
280
     1
290
     1
  0
XRECORD
  5
C631
102
{ACAD_REACTORS
330
C630
102
}
330
C630
100
AcDbXrecord
280
     1
290
     1
  0
XRECORD
  5
C633
102
{ACAD_REACTORS
330
C632
102
}
330
C632
100
AcDbXrecord
280
     1
290
     1
  0
XRECORD
  5
C635
102
{ACAD_REACTORS
330
C634
102
}
330
C634
100
AcDbXrecord
280
     1
290
     1
  0
XRECORD
  5
C637
102
{ACAD_REACTORS
330
C636
102
}
330
C636
100
AcDbXrecord
280
     1
290
     1
  0
XRECORD
  5
C639
102
{ACAD_REACTORS
330
C638
102
}
330
C638
100
AcDbXrecord
280
     1
290
     1
  0
XRECORD
  5
C63B
102
{ACAD_REACTORS
330
C63A
102
}
330
C63A
100
AcDbXrecord
280
     1
290
     1
  0
XRECORD
  5
C63D
102
{ACAD_REACTORS
330
C63C
102
}
330
C63C
100
AcDbXrecord
280
     1
290
     1
  0
XRECORD
  5
C63F
102
{ACAD_REACTORS
330
C63E
102
}
330
C63E
100
AcDbXrecord
280
     1
290
     1
  0
XRECORD
  5
C641
102
{ACAD_REACTORS
330
C640
102
}
330
C640
100
AcDbXrecord
280
     1
290
     1
  0
XRECORD
  5
818C
102
{ACAD_REACTORS
330
178
102
}
330
178
100
AcDbXrecord
280
     1
340
1E
  0
XRECORD
  5
818B
102
{ACAD_REACTORS
330
17A
102
}
330
17A
100
AcDbXrecord
280
     1
340
1A
  0
XRECORD
  5
C64E
102
{ACAD_REACTORS
330
C64D
102
}
330
C64D
100
AcDbXrecord
280
     1
102
SHADEPLOT
 70
     0
  0
GROUP
  5
133D
102
{ACAD_REACTORS
330
D
102
}
330
D
100
AcDbGroup
300

 70
     0
 71
     1
  0
GROUP
  5
1341
102
{ACAD_REACTORS
330
D
102
}
330
D
100
AcDbGroup
300

 70
     1
 71
     1
  0
LAYOUT
  5
21
102
{ACAD_XDICTIONARY
360
C623
102
}
102
{ACAD_REACTORS
330
19
102
}
330
19
100
AcDbPlotSettings
  1

  2
DocuWorks Printer
  4
A3
  6
OLE1
 40
5.408083438873291
 41
5.408078670501708
 42
5.4080810546875
 43
5.4080810546875
 44
297.0106506347656
 45
419.9889831542968
 46
49.96999999999999
 47
-3.799999999999998
 48
0.0
 49
0.0
140
0.0
141
0.0
142
1.0
143
10.0
 70
 11940
 72
     1
 73
     1
 74
     1
  7
monochrome.ctb
 75
     0
147
0.1
148
1546.347003917846
149
358.5774756087666
100
AcDbLayout
  1
Model
 70
     1
 71
     0
 10
0.0
 20
0.0
 11
12.0
 21
9.0
 12
0.0
 22
0.0
 32
0.0
 14
0.0
 24
0.0
 34
0.0
 15
0.0
 25
0.0
 35
0.0
146
0.0
 13
0.0
 23
0.0
 33
0.0
 16
1.0
 26
0.0
 36
0.0
 17
0.0
 27
1.0
 37
0.0
 76
     0
330
1E
331
C59A
  0
LAYOUT
  5
1D
102
{ACAD_XDICTIONARY
360
C62C
102
}
102
{ACAD_REACTORS
330
19
102
}
330
19
100
AcDbPlotSettings
  1

  2
EPSON LP-8300
  4
A4
  6

 40
5.873749732971191
 41
5.873747825622557
 42
5.873748779296875
 43
5.873748779296875
 44
297.0106506347656
 45
209.9733276367186
 46
0.0
 47
0.0
 48
0.0
 49
0.0
140
0.0
141
0.0
142
1.0
143
1.0
 70
   672
 72
     1
 73
     1
 74
     5
  7
MCCB.ctb
 75
     0
147
1.0
148
0.0
149
0.0
100
AcDbLayout
  1
ﾚｲｱｳﾄ1
 70
     0
 71
     1
 10
-5.873748779296875
 20
-5.873749732971191
 11
204.0995788574218
 21
291.1369009017943
 12
0.0
 22
0.0
 32
0.0
 14
1.000000000000000E+20
 24
1.000000000000000E+20
 34
1.000000000000000E+20
 15
-1.000000000000000E+20
 25
-1.000000000000000E+20
 35
-1.000000000000000E+20
146
0.0
 13
0.0
 23
0.0
 33
0.0
 16
1.0
 26
0.0
 36
0.0
 17
0.0
 27
1.0
 37
0.0
 76
     0
330
1A
331
9AC
  0
MATERIAL
  5
C5CE
102
{ACAD_XDICTIONARY
360
C5CF
102
}
102
{ACAD_REACTORS
330
C5C5
102
}
330
C5C5
100
AcDbMaterial
  1
ByBlock
 72
     0
 43
0.0208333333333333
 43
0.0
 43
0.0
 43
0.0
 43
0.0
 43
0.0208333333333333
 43
0.0
 43
0.0
 43
0.0
 43
0.0
 43
1.0
 43
0.0
 43
0.0
 43
0.0
 43
0.0
 43
1.0
 77
     0
 47
0.0208333333333333
 47
0.0
 47
0.0
 47
0.0
 47
0.0
 47
0.0208333333333333
 47
0.0
 47
0.0
 47
0.0
 47
0.0
 47
1.0
 47
0.0
 47
0.0
 47
0.0
 47
0.0
 47
1.0
171
     0
 49
0.0208333333333333
 49
0.0
 49
0.0
 49
0.0
 49
0.0
 49
0.0208333333333333
 49
0.0
 49
0.0
 49
0.0
 49
0.0
 49
1.0
 49
0.0
 49
0.0
 49
0.0
 49
0.0
 49
1.0
175
     0
142
0.0208333333333333
142
0.0
142
0.0
142
0.0
142
0.0
142
0.0208333333333333
142
0.0
142
0.0
142
0.0
142
0.0
142
1.0
142
0.0
142
0.0
142
0.0
142
0.0
142
1.0
179
     0
144
0.0208333333333333
144
0.0
144
0.0
144
0.0
144
0.0
144
0.0208333333333333
144
0.0
144
0.0
144
0.0
144
0.0
144
1.0
144
0.0
144
0.0
144
0.0
144
0.0
144
1.0
147
0.0208333333333333
147
0.0
147
0.0
147
0.0
147
0.0
147
0.0208333333333333
147
0.0
147
0.0
147
0.0
147
0.0
147
1.0
147
0.0
147
0.0
147
0.0
147
0.0
147
1.0
  0
MATERIAL
  5
C5C6
102
{ACAD_XDICTIONARY
360
C5C7
102
}
102
{ACAD_REACTORS
330
C5C5
102
}
330
C5C5
100
AcDbMaterial
  1
ByLayer
 72
     0
 43
0.0208333333333333
 43
0.0
 43
0.0
 43
0.0
 43
0.0
 43
0.0208333333333333
 43
0.0
 43
0.0
 43
0.0
 43
0.0
 43
1.0
 43
0.0
 43
0.0
 43
0.0
 43
0.0
 43
1.0
 77
     0
 47
0.0208333333333333
 47
0.0
 47
0.0
 47
0.0
 47
0.0
 47
0.0208333333333333
 47
0.0
 47
0.0
 47
0.0
 47
0.0
 47
1.0
 47
0.0
 47
0.0
 47
0.0
 47
0.0
 47
1.0
171
     0
 49
0.0208333333333333
 49
0.0
 49
0.0
 49
0.0
 49
0.0
 49
0.0208333333333333
 49
0.0
 49
0.0
 49
0.0
 49
0.0
 49
1.0
 49
0.0
 49
0.0
 49
0.0
 49
0.0
 49
1.0
175
     0
142
0.0208333333333333
142
0.0
142
0.0
142
0.0
142
0.0
142
0.0208333333333333
142
0.0
142
0.0
142
0.0
142
0.0
142
1.0
142
0.0
142
0.0
142
0.0
142
0.0
142
1.0
179
     0
144
0.0208333333333333
144
0.0
144
0.0
144
0.0
144
0.0
144
0.0208333333333333
144
0.0
144
0.0
144
0.0
144
0.0
144
1.0
144
0.0
144
0.0
144
0.0
144
0.0
144
1.0
147
0.0208333333333333
147
0.0
147
0.0
147
0.0
147
0.0
147
0.0208333333333333
147
0.0
147
0.0
147
0.0
147
0.0
147
1.0
147
0.0
147
0.0
147
0.0
147
0.0
147
1.0
  0
MATERIAL
  5
C5D6
102
{ACAD_XDICTIONARY
360
C5D7
102
}
102
{ACAD_REACTORS
330
C5C5
102
}
330
C5C5
100
AcDbMaterial
  1
Global
 72
     0
 43
0.0208333333333333
 43
0.0
 43
0.0
 43
0.0
 43
0.0
 43
0.0208333333333333
 43
0.0
 43
0.0
 43
0.0
 43
0.0
 43
1.0
 43
0.0
 43
0.0
 43
0.0
 43
0.0
 43
1.0
 77
     0
 47
0.0208333333333333
 47
0.0
 47
0.0
 47
0.0
 47
0.0
 47
0.0208333333333333
 47
0.0
 47
0.0
 47
0.0
 47
0.0
 47
1.0
 47
0.0
 47
0.0
 47
0.0
 47
0.0
 47
1.0
171
     0
 49
0.0208333333333333
 49
0.0
 49
0.0
 49
0.0
 49
0.0
 49
0.0208333333333333
 49
0.0
 49
0.0
 49
0.0
 49
0.0
 49
1.0
 49
0.0
 49
0.0
 49
0.0
 49
0.0
 49
1.0
175
     0
142
0.0208333333333333
142
0.0
142
0.0
142
0.0
142
0.0
142
0.0208333333333333
142
0.0
142
0.0
142
0.0
142
0.0
142
1.0
142
0.0
142
0.0
142
0.0
142
0.0
142
1.0
179
     0
144
0.0208333333333333
144
0.0
144
0.0
144
0.0
144
0.0
144
0.0208333333333333
144
0.0
144
0.0
144
0.0
144
0.0
144
1.0
144
0.0
144
0.0
144
0.0
144
0.0
144
1.0
147
0.0208333333333333
147
0.0
147
0.0
147
0.0
147
0.0
147
0.0208333333333333
147
0.0
147
0.0
147
0.0
147
0.0
147
1.0
147
0.0
147
0.0
147
0.0
147
0.0
147
1.0
  0
MLEADERSTYLE
  5
C618
102
{ACAD_REACTORS
330
C617
102
}
330
C617
100
AcDbMLeaderStyle
170
     2
171
     1
172
     0
 90
        2
 40
0.0
 41
0.0
173
     1
 91
-1056964608
340
13
 92
       -2
290
     1
 42
0.09
291
     1
 43
0.36
  3
Standard
 44
0.18
300

342
11
174
     1
178
     6
175
     1
176
     0
 93
-1056964608
 45
0.18
292
     0
297
     0
 46
0.18
 94
-1056964608
 47
1.0
 49
1.0
140
1.0
293
     1
141
0.0
294
     1
177
     0
142
1.0
295
     0
296
     0
143
0.125
1001
ACAD_MLEADERVER
1070
     2
  0
MLINESTYLE
  5
17
102
{ACAD_REACTORS
330
16
102
}
330
16
100
AcDbMlineStyle
  2
STANDARD
 70
     0
  3

 62
   256
 51
90.0
 52
90.0
 71
     2
 49
0.5
 62
   256
  6
BYLAYER
 49
-0.5
 62
   256
  6
BYLAYER
  0
ACDBPLACEHOLDER
  5
F
102
{ACAD_REACTORS
330
E
102
}
330
E
  0
SCALE
  5
C5F6
102
{ACAD_REACTORS
330
C5F5
102
}
330
C5F5
100
AcDbScale
 70
     0
300
1:1
140
1.0
141
1.0
290
     1
  0
SCALE
  5
C5F7
102
{ACAD_REACTORS
330
C5F5
102
}
330
C5F5
100
AcDbScale
 70
     0
300
1:2
140
1.0
141
2.0
290
     0
  0
SCALE
  5
C5F8
102
{ACAD_REACTORS
330
C5F5
102
}
330
C5F5
100
AcDbScale
 70
     0
300
1:4
140
1.0
141
4.0
290
     0
  0
SCALE
  5
C5F9
102
{ACAD_REACTORS
330
C5F5
102
}
330
C5F5
100
AcDbScale
 70
     0
300
1:5
140
1.0
141
5.0
290
     0
  0
SCALE
  5
C5FA
102
{ACAD_REACTORS
330
C5F5
102
}
330
C5F5
100
AcDbScale
 70
     0
300
1:8
140
1.0
141
8.0
290
     0
  0
SCALE
  5
C5FB
102
{ACAD_REACTORS
330
C5F5
102
}
330
C5F5
100
AcDbScale
 70
     0
300
1:10
140
1.0
141
10.0
290
     0
  0
SCALE
  5
C5FC
102
{ACAD_REACTORS
330
C5F5
102
}
330
C5F5
100
AcDbScale
 70
     0
300
1:16
140
1.0
141
16.0
290
     0
  0
SCALE
  5
C5FD
102
{ACAD_REACTORS
330
C5F5
102
}
330
C5F5
100
AcDbScale
 70
     0
300
1:20
140
1.0
141
20.0
290
     0
  0
SCALE
  5
C5FE
102
{ACAD_REACTORS
330
C5F5
102
}
330
C5F5
100
AcDbScale
 70
     0
300
1:30
140
1.0
141
30.0
290
     0
  0
SCALE
  5
C5FF
102
{ACAD_REACTORS
330
C5F5
102
}
330
C5F5
100
AcDbScale
 70
     0
300
1:40
140
1.0
141
40.0
290
     0
  0
SCALE
  5
C600
102
{ACAD_REACTORS
330
C5F5
102
}
330
C5F5
100
AcDbScale
 70
     0
300
1:50
140
1.0
141
50.0
290
     0
  0
SCALE
  5
C601
102
{ACAD_REACTORS
330
C5F5
102
}
330
C5F5
100
AcDbScale
 70
     0
300
1:100
140
1.0
141
100.0
290
     0
  0
SCALE
  5
C602
102
{ACAD_REACTORS
330
C5F5
102
}
330
C5F5
100
AcDbScale
 70
     0
300
2:1
140
2.0
141
1.0
290
     0
  0
SCALE
  5
C603
102
{ACAD_REACTORS
330
C5F5
102
}
330
C5F5
100
AcDbScale
 70
     0
300
4:1
140
4.0
141
1.0
290
     0
  0
SCALE
  5
C604
102
{ACAD_REACTORS
330
C5F5
102
}
330
C5F5
100
AcDbScale
 70
     0
300
8:1
140
8.0
141
1.0
290
     0
  0
SCALE
  5
C605
102
{ACAD_REACTORS
330
C5F5
102
}
330
C5F5
100
AcDbScale
 70
     0
300
10:1
140
10.0
141
1.0
290
     0
  0
SCALE
  5
C606
102
{ACAD_REACTORS
330
C5F5
102
}
330
C5F5
100
AcDbScale
 70
     0
300
100:1
140
100.0
141
1.0
290
     0
  0
SCALE
  5
C607
102
{ACAD_REACTORS
330
C5F5
102
}
330
C5F5
100
AcDbScale
 70
     0
300
1/128" = 1'-0"
140
0.0078125
141
12.0
290
     0
  0
SCALE
  5
C608
102
{ACAD_REACTORS
330
C5F5
102
}
330
C5F5
100
AcDbScale
 70
     0
300
1/64" = 1'-0"
140
0.015625
141
12.0
290
     0
  0
SCALE
  5
C609
102
{ACAD_REACTORS
330
C5F5
102
}
330
C5F5
100
AcDbScale
 70
     0
300
1/32" = 1'-0"
140
0.03125
141
12.0
290
     0
  0
SCALE
  5
C60A
102
{ACAD_REACTORS
330
C5F5
102
}
330
C5F5
100
AcDbScale
 70
     0
300
1/16" = 1'-0"
140
0.0625
141
12.0
290
     0
  0
SCALE
  5
C60B
102
{ACAD_REACTORS
330
C5F5
102
}
330
C5F5
100
AcDbScale
 70
     0
300
3/32" = 1'-0"
140
0.09375
141
12.0
290
     0
  0
SCALE
  5
C60C
102
{ACAD_REACTORS
330
C5F5
102
}
330
C5F5
100
AcDbScale
 70
     0
300
1/8" = 1'-0"
140
0.125
141
12.0
290
     0
  0
SCALE
  5
C60D
102
{ACAD_REACTORS
330
C5F5
102
}
330
C5F5
100
AcDbScale
 70
     0
300
3/16" = 1'-0"
140
0.1875
141
12.0
290
     0
  0
SCALE
  5
C60E
102
{ACAD_REACTORS
330
C5F5
102
}
330
C5F5
100
AcDbScale
 70
     0
300
1/4" = 1'-0"
140
0.25
141
12.0
290
     0
  0
SCALE
  5
C60F
102
{ACAD_REACTORS
330
C5F5
102
}
330
C5F5
100
AcDbScale
 70
     0
300
3/8" = 1'-0"
140
0.375
141
12.0
290
     0
  0
SCALE
  5
C610
102
{ACAD_REACTORS
330
C5F5
102
}
330
C5F5
100
AcDbScale
 70
     0
300
1/2" = 1'-0"
140
0.5
141
12.0
290
     0
  0
SCALE
  5
C611
102
{ACAD_REACTORS
330
C5F5
102
}
330
C5F5
100
AcDbScale
 70
     0
300
3/4" = 1'-0"
140
0.75
141
12.0
290
     0
  0
SCALE
  5
C612
102
{ACAD_REACTORS
330
C5F5
102
}
330
C5F5
100
AcDbScale
 70
     0
300
1" = 1'-0"
140
1.0
141
12.0
290
     0
  0
SCALE
  5
C613
102
{ACAD_REACTORS
330
C5F5
102
}
330
C5F5
100
AcDbScale
 70
     0
300
1-1/2" = 1'-0"
140
1.5
141
12.0
290
     0
  0
SCALE
  5
C614
102
{ACAD_REACTORS
330
C5F5
102
}
330
C5F5
100
AcDbScale
 70
     0
300
3" = 1'-0"
140
3.0
141
12.0
290
     0
  0
SCALE
  5
C615
102
{ACAD_REACTORS
330
C5F5
102
}
330
C5F5
100
AcDbScale
 70
     0
300
6" = 1'-0"
140
6.0
141
12.0
290
     0
  0
SCALE
  5
C616
102
{ACAD_REACTORS
330
C5F5
102
}
330
C5F5
100
AcDbScale
 70
     0
300
1'-0" = 1'-0"
140
12.0
141
12.0
290
     0
  0
TABLESTYLE
  5
C5F4
102
{ACAD_XDICTIONARY
360
C647
102
}
102
{ACAD_REACTORS
330
C5F3
102
}
330
C5F3
100
AcDbTableStyle
  3
Standard
 70
     0
 71
     0
 40
0.06
 41
0.06
280
     0
281
     0
  7
Standard
140
0.18
170
     2
 62
     0
 63
     7
283
     0
274
    -2
284
     1
 64
     0
275
    -2
285
     1
 65
     0
276
    -2
286
     1
 66
     0
277
    -2
287
     1
 67
     0
278
    -2
288
     1
 68
     0
279
    -2
289
     1
 69
     0
  7
Standard
140
0.25
170
     5
 62
     0
 63
     7
283
     0
274
    -2
284
     1
 64
     0
275
    -2
285
     1
 65
     0
276
    -2
286
     1
 66
     0
277
    -2
287
     1
 67
     0
278
    -2
288
     1
 68
     0
279
    -2
289
     1
 69
     0
  7
Standard
140
0.18
170
     5
 62
     0
 63
     7
283
     0
274
    -2
284
     1
 64
     0
275
    -2
285
     1
 65
     0
276
    -2
286
     1
 66
     0
277
    -2
287
     1
 67
     0
278
    -2
288
     1
 68
     0
279
    -2
289
     1
 69
     0
  0
VISUALSTYLE
  5
C5E4
102
{ACAD_XDICTIONARY
360
C65C
102
}
102
{ACAD_REACTORS
330
C5DE
102
}
330
C5DE
100
AcDbVisualStyle
  2
2dWireframe
 70
     4
 71
     0
 72
     2
 73
     0
 90
        0
 40
-0.6
 41
-30.0
 62
     5
 63
     7
 74
     1
 91
        4
 64
     7
 65
   257
 75
     1
175
     1
 42
1.0
 92
        0
 66
   257
 43
1.0
 76
     1
 77
     6
 78
     2
 67
     7
 79
     5
170
     0
171
     0
290
     0
174
     0
 93
        1
 44
0.0
173
     0
291
     0
 45
0.0
1001
ACAD
1000
AcDbSavedByObjectVersion
1070
     0
  0
VISUALSTYLE
  5
C5E6
102
{ACAD_XDICTIONARY
360
C660
102
}
102
{ACAD_REACTORS
330
C5DE
102
}
330
C5DE
100
AcDbVisualStyle
  2
3D Hidden
 70
     6
 71
     1
 72
     2
 73
     2
 90
        0
 40
-0.6
 41
-30.0
 62
     5
 63
     7
 74
     2
 91
        2
 64
     7
 65
   257
 75
     2
175
     1
 42
179.0
 92
        0
 66
   257
 43
1.0
 76
     1
 77
     6
 78
     2
 67
     7
 79
     3
170
     0
171
     0
290
     0
174
     0
 93
        1
 44
0.0
173
     0
291
     0
 45
0.0
1001
ACAD
1000
AcDbSavedByObjectVersion
1070
     0
  0
VISUALSTYLE
  5
C5E5
102
{ACAD_XDICTIONARY
360
C65E
102
}
102
{ACAD_REACTORS
330
C5DE
102
}
330
C5DE
100
AcDbVisualStyle
  2
3dWireframe
 70
     5
 71
     0
 72
     2
 73
     0
 90
        0
 40
-0.6
 41
-30.0
 62
     5
 63
     7
 74
     1
 91
        4
 64
     7
 65
   257
 75
     1
175
     1
 42
1.0
 92
        0
 66
   257
 43
1.0
 76
     1
 77
     6
 78
     2
 67
     7
 79
     5
170
     0
171
     0
290
     0
174
     0
 93
        1
 44
0.0
173
     0
291
     0
 45
0.0
1001
ACAD
1000
AcDbSavedByObjectVersion
1070
     0
  0
VISUALSTYLE
  5
C5E3
102
{ACAD_XDICTIONARY
360
C65A
102
}
102
{ACAD_REACTORS
330
C5DE
102
}
330
C5DE
100
AcDbVisualStyle
  2
Basic
 70
     7
 71
     1
 72
     0
 73
     1
 90
        0
 40
-0.6
 41
-30.0
 62
     5
 63
     7
 74
     0
 91
        4
 64
     7
 65
   257
 75
     1
175
     1
 42
1.0
 92
        8
 66
     7
 43
1.0
 76
     1
 77
     6
 78
     2
 67
     7
 79
     5
170
     0
171
     0
290
     0
174
     0
 93
        1
 44
0.0
173
     0
291
     1
 45
0.0
1001
ACAD
1000
AcDbSavedByObjectVersion
1070
     0
  0
VISUALSTYLE
  5
C5EA
102
{ACAD_XDICTIONARY
360
C668
102
}
102
{ACAD_REACTORS
330
C5DE
102
}
330
C5DE
100
AcDbVisualStyle
  2
Brighten
 70
    12
 71
     2
 72
     2
 73
     0
 90
        0
 40
-0.6
 41
-30.0
 62
     5
 63
     7
 74
     1
 91
        4
 64
     7
 65
   257
 75
     1
175
     1
 42
1.0
 92
        8
 66
     7
 43
1.0
 76
     1
 77
     6
 78
     2
 67
     7
 79
     5
170
     0
171
     0
290
     0
174
     0
 93
        1
 44
50.0
173
     0
291
     1
 45
0.0
1001
ACAD
1000
AcDbSavedByObjectVersion
1070
     0
  0
VISUALSTYLE
  5
C5EE
102
{ACAD_XDICTIONARY
360
C670
102
}
102
{ACAD_REACTORS
330
C5DE
102
}
330
C5DE
100
AcDbVisualStyle
  2
ColorChange
 70
    16
 71
     2
 72
     2
 73
     3
 90
        0
 40
-0.6
 41
-30.0
 62
     5
 63
     8
 74
     1
 91
        4
 64
     7
 65
   257
 75
     1
175
     1
 42
1.0
 92
        8
 66
     8
 43
1.0
 76
     1
 77
     6
 78
     2
 67
     7
 79
     5
170
     0
171
     0
290
     0
174
     0
 93
        1
 44
0.0
173
     0
291
     1
 45
0.0
1001
ACAD
1000
AcDbSavedByObjectVersion
1070
     0
  0
VISUALSTYLE
  5
C5E7
102
{ACAD_XDICTIONARY
360
C662
102
}
102
{ACAD_REACTORS
330
C5DE
102
}
330
C5DE
100
AcDbVisualStyle
  2
Conceptual
 70
     9
 71
     3
 72
     2
 73
     0
 90
        0
 40
-0.6
 41
-30.0
 62
     5
 63
     7
 74
     2
 91
        2
 64
     7
 65
   257
 75
     1
175
     1
 42
179.0
 92
        8
 66
     7
 43
1.0
 76
     1
 77
     6
 78
     2
 67
     7
 79
     3
170
     0
171
     0
290
     0
174
     0
 93
        1
 44
0.0
173
     0
291
     0
 45
0.0
1001
ACAD
1000
AcDbSavedByObjectVersion
1070
     0
  0
VISUALSTYLE
  5
C5E9
102
{ACAD_XDICTIONARY
360
C666
102
}
102
{ACAD_REACTORS
330
C5DE
102
}
330
C5DE
100
AcDbVisualStyle
  2
Dim
 70
    11
 71
     2
 72
     2
 73
     0
 90
        0
 40
-0.6
 41
-30.0
 62
     5
 63
     7
 74
     1
 91
        4
 64
     7
 65
   257
 75
     1
175
     1
 42
1.0
 92
        8
 66
     7
 43
1.0
 76
     1
 77
     6
 78
     2
 67
     7
 79
     5
170
     0
171
     0
290
     0
174
     0
 93
        1
 44
-50.0
173
     0
291
     1
 45
0.0
1001
ACAD
1000
AcDbSavedByObjectVersion
1070
     0
  0
VISUALSTYLE
  5
C5F1
102
{ACAD_XDICTIONARY
360
C676
102
}
102
{ACAD_REACTORS
330
C5DE
102
}
330
C5DE
100
AcDbVisualStyle
  2
EdgeColorOff
 70
    22
 71
     2
 72
     2
 73
     0
 90
        0
 40
-0.6
 41
-30.0
 62
     5
 63
     7
 74
     1
 91
        4
 64
     7
 65
   257
 75
     1
175
     1
 42
1.0
 92
        8
 66
     7
 43
1.0
 76
     1
 77
     6
 78
     2
 67
     7
 79
     5
170
     0
171
     0
290
     0
174
     0
 93
        1
 44
0.0
173
     0
291
     1
 45
0.0
1001
ACAD
1000
AcDbSavedByObjectVersion
1070
     0
  0
VISUALSTYLE
  5
C5ED
102
{ACAD_XDICTIONARY
360
C66E
102
}
102
{ACAD_REACTORS
330
C5DE
102
}
330
C5DE
100
AcDbVisualStyle
  2
Facepattern
 70
    15
 71
     2
 72
     2
 73
     0
 90
        0
 40
-0.6
 41
-30.0
 62
     5
 63
     7
 74
     1
 91
        4
 64
     7
 65
   257
 75
     1
175
     1
 42
1.0
 92
        8
 66
     7
 43
1.0
 76
     1
 77
     6
 78
     2
 67
     7
 79
     5
170
     0
171
     0
290
     0
174
     0
 93
        1
 44
0.0
173
     0
291
     1
 45
0.0
1001
ACAD
1000
AcDbSavedByObjectVersion
1070
     0
  0
VISUALSTYLE
  5
C5DF
102
{ACAD_XDICTIONARY
360
C652
102
}
102
{ACAD_REACTORS
330
C5DE
102
}
330
C5DE
100
AcDbVisualStyle
  2
Flat
 70
     0
 71
     2
 72
     1
 73
     1
 90
        2
 40
-0.6
 41
30.0
 62
     5
 63
     7
 74
     0
 91
        4
 64
     7
 65
   257
 75
     1
175
     1
 42
1.0
 92
        8
 66
     7
 43
1.0
 76
     1
 77
     6
 78
     2
 67
     7
 79
     5
170
     0
171
     0
290
     0
174
     0
 93
       13
 44
0.0
173
     0
291
     1
 45
0.0
1001
ACAD
1000
AcDbSavedByObjectVersion
1070
     0
  0
VISUALSTYLE
  5
C5E0
102
{ACAD_XDICTIONARY
360
C654
102
}
102
{ACAD_REACTORS
330
C5DE
102
}
330
C5DE
100
AcDbVisualStyle
  2
FlatWithEdges
 70
     1
 71
     2
 72
     1
 73
     1
 90
        2
 40
-0.6
 41
30.0
 62
     5
 63
     7
 74
     1
 91
        4
 64
     7
 65
   257
 75
     1
175
     1
 42
1.0
 92
        0
 66
   257
 43
1.0
 76
     1
 77
     6
 78
     2
 67
     7
 79
     5
170
     0
171
     0
290
     0
174
     0
 93
       13
 44
0.0
173
     0
291
     1
 45
0.0
1001
ACAD
1000
AcDbSavedByObjectVersion
1070
     0
  0
VISUALSTYLE
  5
C5E1
102
{ACAD_XDICTIONARY
360
C656
102
}
102
{ACAD_REACTORS
330
C5DE
102
}
330
C5DE
100
AcDbVisualStyle
  2
Gouraud
 70
     2
 71
     2
 72
     2
 73
     1
 90
        2
 40
-0.6
 41
30.0
 62
     5
 63
     7
 74
     0
 91
        4
 64
     7
 65
   257
 75
     1
175
     1
 42
1.0
 92
        0
 66
     7
 43
1.0
 76
     1
 77
     6
 78
     2
 67
     7
 79
     5
170
     0
171
     0
290
     0
174
     0
 93
       13
 44
0.0
173
     0
291
     1
 45
0.0
1001
ACAD
1000
AcDbSavedByObjectVersion
1070
     0
  0
VISUALSTYLE
  5
C5E2
102
{ACAD_XDICTIONARY
360
C658
102
}
102
{ACAD_REACTORS
330
C5DE
102
}
330
C5DE
100
AcDbVisualStyle
  2
GouraudWithEdges
 70
     3
 71
     2
 72
     2
 73
     1
 90
        2
 40
-0.6
 41
30.0
 62
     5
 63
     7
 74
     1
 91
        4
 64
     7
 65
   257
 75
     1
175
     1
 42
1.0
 92
        0
 66
   257
 43
1.0
 76
     1
 77
     6
 78
     2
 67
     7
 79
     5
170
     0
171
     0
290
     0
174
     0
 93
       13
 44
0.0
173
     0
291
     1
 45
0.0
1001
ACAD
1000
AcDbSavedByObjectVersion
1070
     0
  0
VISUALSTYLE
  5
C5EF
102
{ACAD_XDICTIONARY
360
C672
102
}
102
{ACAD_REACTORS
330
C5DE
102
}
330
C5DE
100
AcDbVisualStyle
  2
JitterOff
 70
    20
 71
     2
 72
     2
 73
     0
 90
        0
 40
-0.6
 41
-30.0
 62
     5
 63
     7
 74
     1
 91
        4
 64
     7
 65
   257
 75
     1
175
     1
 42
1.0
 92
       10
 66
     7
 43
1.0
 76
     1
 77
     6
 78
     2
 67
     7
 79
     5
170
     0
171
     0
290
     0
174
     0
 93
        1
 44
0.0
173
     0
291
     1
 45
0.0
1001
ACAD
1000
AcDbSavedByObjectVersion
1070
     0
  0
VISUALSTYLE
  5
C5EC
102
{ACAD_XDICTIONARY
360
C66C
102
}
102
{ACAD_REACTORS
330
C5DE
102
}
330
C5DE
100
AcDbVisualStyle
  2
Linepattern
 70
    14
 71
     2
 72
     2
 73
     0
 90
        0
 40
-0.6
 41
-30.0
 62
     5
 63
     7
 74
     1
 91
        4
 64
     7
 65
   257
 75
     7
175
     7
 42
1.0
 92
        8
 66
     7
 43
1.0
 76
     1
 77
     6
 78
     2
 67
     7
 79
     5
170
     0
171
     0
290
     0
174
     0
 93
        1
 44
0.0
173
     0
291
     1
 45
0.0
1001
ACAD
1000
AcDbSavedByObjectVersion
1070
     0
  0
VISUALSTYLE
  5
C5F0
102
{ACAD_XDICTIONARY
360
C674
102
}
102
{ACAD_REACTORS
330
C5DE
102
}
330
C5DE
100
AcDbVisualStyle
  2
OverhangOff
 70
    21
 71
     2
 72
     2
 73
     0
 90
        0
 40
-0.6
 41
-30.0
 62
     5
 63
     7
 74
     1
 91
        4
 64
     7
 65
   257
 75
     1
175
     1
 42
1.0
 92
        9
 66
     7
 43
1.0
 76
     1
 77
     6
 78
     2
 67
     7
 79
     5
170
     0
171
     0
290
     0
174
     0
 93
        1
 44
0.0
173
     0
291
     1
 45
0.0
1001
ACAD
1000
AcDbSavedByObjectVersion
1070
     0
  0
VISUALSTYLE
  5
C5E8
102
{ACAD_XDICTIONARY
360
C664
102
}
102
{ACAD_REACTORS
330
C5DE
102
}
330
C5DE
100
AcDbVisualStyle
  2
Realistic
 70
     8
 71
     2
 72
     2
 73
     0
 90
        0
 40
-0.6
 41
-30.0
 62
     5
 63
     7
 74
     1
 91
        0
 64
     7
 65
   257
 75
     1
175
     1
 42
1.0
 92
        8
 66
     8
 43
1.0
 76
     1
 77
     6
 78
     2
 67
     7
 79
     5
170
     0
171
     0
290
     0
174
     0
 93
       13
 44
0.0
173
     0
291
     0
 45
0.0
1001
ACAD
1000
AcDbSavedByObjectVersion
1070
     0
  0
VISUALSTYLE
  5
C5EB
102
{ACAD_XDICTIONARY
360
C66A
102
}
102
{ACAD_REACTORS
330
C5DE
102
}
330
C5DE
100
AcDbVisualStyle
  2
Thicken
 70
    13
 71
     2
 72
     2
 73
     0
 90
        0
 40
-0.6
 41
-30.0
 62
     5
 63
     7
 74
     1
 91
        4
 64
     7
 65
   257
 75
     1
175
     1
 42
1.0
 92
       12
 66
     7
 43
1.0
 76
     1
 77
     6
 78
     2
 67
     7
 79
     5
170
     0
171
     0
290
     0
174
     0
 93
        1
 44
0.0
173
     0
291
     1
 45
0.0
1001
ACAD
1000
AcDbSavedByObjectVersion
1070
     0
  0
DICTIONARYVAR
  5
C644
102
{ACAD_REACTORS
330
6CB8
102
}
330
6CB8
100
DictionaryVariables
280
     0
  1
1:1
  0
DICTIONARYVAR
  5
C643
102
{ACAD_REACTORS
330
6CB8
102
}
330
6CB8
100
DictionaryVariables
280
     0
  1
STANDARD
  0
DICTIONARYVAR
  5
C642
102
{ACAD_REACTORS
330
6CB8
102
}
330
6CB8
100
DictionaryVariables
280
     0
  1
STANDARD
  0
DICTIONARYVAR
  5
81A4
102
{ACAD_REACTORS
330
6CB8
102
}
330
6CB8
100
DictionaryVariables
280
     0
  1
1
  0
DICTIONARYVAR
  5
C645
102
{ACAD_REACTORS
330
6CB8
102
}
330
6CB8
100
DictionaryVariables
280
     0
  1
0
  0
DICTIONARYVAR
  5
6CB9
102
{ACAD_REACTORS
330
6CB8
102
}
330
6CB8
100
DictionaryVariables
280
     0
  1
96
  0
DICTIONARYVAR
  5
C646
102
{ACAD_REACTORS
330
6CB8
102
}
330
6CB8
100
DictionaryVariables
280
     0
  1
2
  0
DICTIONARY
  5
C623
330
21
100
AcDbDictionary
280
     1
281
     1
  3
ACAD_XREC_ROUNDTRIP
360
C64C
  3
ADSK_XREC_LAYOUTTHUMBNAIL
360
C624
  0
DICTIONARY
  5
C62C
330
1D
100
AcDbDictionary
280
     1
281
     1
  3
ACAD_XREC_ROUNDTRIP
360
C64B
  3
ADSK_XREC_LAYOUTTHUMBNAIL
360
C62D
  0
DICTIONARY
  5
C5CF
330
C5CE
100
AcDbDictionary
280
     1
281
     1
  3
ACAD_XREC_ROUNDTRIP
360
C650
  3
BUMPTILE
360
C5D1
  3
DIFFUSETILE
360
C5D0
  3
OPACITYTILE
360
C5D4
  3
REFLECTIONTILE
360
C5D3
  3
REFRACTIONTILE
360
C5D5
  3
SPECULARTILE
360
C5D2
  0
DICTIONARY
  5
C5C7
330
C5C6
100
AcDbDictionary
280
     1
281
     1
  3
ACAD_XREC_ROUNDTRIP
360
C64F
  3
BUMPTILE
360
C5C9
  3
DIFFUSETILE
360
C5C8
  3
OPACITYTILE
360
C5CC
  3
REFLECTIONTILE
360
C5CB
  3
REFRACTIONTILE
360
C5CD
  3
SPECULARTILE
360
C5CA
  0
DICTIONARY
  5
C5D7
330
C5D6
100
AcDbDictionary
280
     1
281
     1
  3
ACAD_XREC_ROUNDTRIP
360
C651
  3
BUMPTILE
360
C5D9
  3
DIFFUSETILE
360
C5D8
  3
OPACITYTILE
360
C5DC
  3
REFLECTIONTILE
360
C5DB
  3
REFRACTIONTILE
360
C5DD
  3
SPECULARTILE
360
C5DA
  0
DICTIONARY
  5
C647
330
C5F4
100
AcDbDictionary
280
     1
281
     1
  3
ACAD_ROUNDTRIP_2008_TABLESTYLE_CELLSTYLEMAP
360
C648
  3
ACAD_XREC_ROUNDTRIP
360
C678
  0
DICTIONARY
  5
C65C
330
C5E4
100
AcDbDictionary
280
     1
281
     1
  3
ACAD_XREC_ROUNDTRIP
360
C65D
  0
DICTIONARY
  5
C660
330
C5E6
100
AcDbDictionary
280
     1
281
     1
  3
ACAD_XREC_ROUNDTRIP
360
C661
  0
DICTIONARY
  5
C65E
330
C5E5
100
AcDbDictionary
280
     1
281
     1
  3
ACAD_XREC_ROUNDTRIP
360
C65F
  0
DICTIONARY
  5
C65A
330
C5E3
100
AcDbDictionary
280
     1
281
     1
  3
ACAD_XREC_ROUNDTRIP
360
C65B
  0
DICTIONARY
  5
C668
330
C5EA
100
AcDbDictionary
280
     1
281
     1
  3
ACAD_XREC_ROUNDTRIP
360
C669
  0
DICTIONARY
  5
C670
330
C5EE
100
AcDbDictionary
280
     1
281
     1
  3
ACAD_XREC_ROUNDTRIP
360
C671
  0
DICTIONARY
  5
C662
330
C5E7
100
AcDbDictionary
280
     1
281
     1
  3
ACAD_XREC_ROUNDTRIP
360
C663
  0
DICTIONARY
  5
C666
330
C5E9
100
AcDbDictionary
280
     1
281
     1
  3
ACAD_XREC_ROUNDTRIP
360
C667
  0
DICTIONARY
  5
C676
330
C5F1
100
AcDbDictionary
280
     1
281
     1
  3
ACAD_XREC_ROUNDTRIP
360
C677
  0
DICTIONARY
  5
C66E
330
C5ED
100
AcDbDictionary
280
     1
281
     1
  3
ACAD_XREC_ROUNDTRIP
360
C66F
  0
DICTIONARY
  5
C652
330
C5DF
100
AcDbDictionary
280
     1
281
     1
  3
ACAD_XREC_ROUNDTRIP
360
C653
  0
DICTIONARY
  5
C654
330
C5E0
100
AcDbDictionary
280
     1
281
     1
  3
ACAD_XREC_ROUNDTRIP
360
C655
  0
DICTIONARY
  5
C656
330
C5E1
100
AcDbDictionary
280
     1
281
     1
  3
ACAD_XREC_ROUNDTRIP
360
C657
  0
DICTIONARY
  5
C658
330
C5E2
100
AcDbDictionary
280
     1
281
     1
  3
ACAD_XREC_ROUNDTRIP
360
C659
  0
DICTIONARY
  5
C672
330
C5EF
100
AcDbDictionary
280
     1
281
     1
  3
ACAD_XREC_ROUNDTRIP
360
C673
  0
DICTIONARY
  5
C66C
330
C5EC
100
AcDbDictionary
280
     1
281
     1
  3
ACAD_XREC_ROUNDTRIP
360
C66D
  0
DICTIONARY
  5
C674
330
C5F0
100
AcDbDictionary
280
     1
281
     1
  3
ACAD_XREC_ROUNDTRIP
360
C675
  0
DICTIONARY
  5
C664
330
C5E8
100
AcDbDictionary
280
     1
281
     1
  3
ACAD_XREC_ROUNDTRIP
360
C665
  0
DICTIONARY
  5
C66A
330
C5EB
100
AcDbDictionary
280
     1
281
     1
  3
ACAD_XREC_ROUNDTRIP
360
C66B
  0
XRECORD
  5
C64C
102
{ACAD_REACTORS
330
C623
102
}
330
C623
100
AcDbXrecord
280
     1
102
SHADEPLOT
 70
     0
102
SHADEPLOTRESLEVEL
 70
     2
102
SHADEPLOTCUSTOMDPI
 70
   300
  0
XRECORD
  5
C624
102
{ACAD_REACTORS
330
C623
102
}
330
C623
100
AcDbXrecord
280
     1
310
28000000000100008A0000000100080000000000008A0000000000000000000000010000000000000000000000000000FFFFFF000000000000000000000000000000000000000000000000000000000000000000330000006600000099000000CC000000FF00000000330000333300006633000099330000CC330000FF3300
310
0000660000336600006666000099660000CC660000FF66000000990000339900006699000099990000CC990000FF99000000CC000033CC000066CC000099CC0000CCCC0000FFCC000000FF000033FF000066FF000099FF0000CCFF0000FFFF000000003300330033006600330099003300CC003300FF003300003333003333
310
33006633330099333300CC333300FF33330000663300336633006666330099663300CC663300FF66330000993300339933006699330099993300CC993300FF99330000CC330033CC330066CC330099CC3300CCCC3300FFCC330000FF330033FF330066FF330099FF3300CCFF3300FFFF330000006600330066006600660099
310
006600CC006600FF00660000336600333366006633660099336600CC336600FF33660000666600336666006666660099666600CC666600FF66660000996600339966006699660099996600CC996600FF99660000CC660033CC660066CC660099CC6600CCCC6600FFCC660000FF660033FF660066FF660099FF6600CCFF6600
310
FFFF660000009900330099006600990099009900CC009900FF00990000339900333399006633990099339900CC339900FF33990000669900336699006666990099669900CC669900FF66990000999900339999006699990099999900CC999900FF99990000CC990033CC990066CC990099CC9900CCCC9900FFCC990000FF99
310
0033FF990066FF990099FF9900CCFF9900FFFF99000000CC003300CC006600CC009900CC00CC00CC00FF00CC000033CC003333CC006633CC009933CC00CC33CC00FF33CC000066CC003366CC006666CC009966CC00CC66CC00FF66CC000099CC003399CC006699CC009999CC00CC99CC00FF99CC0000CCCC0033CCCC0066CC
310
CC0099CCCC00CCCCCC00FFCCCC0000FFCC0033FFCC0066FFCC0099FFCC00CCFFCC00FFFFCC000000FF003300FF006600FF009900FF00CC00FF00FF00FF000033FF003333FF006633FF009933FF00CC33FF00FF33FF000066FF003366FF006666FF009966FF00CC66FF00FF66FF000099FF003399FF006699FF009999FF00CC
310
99FF00FF99FF0000CCFF0033CCFF0066CCFF0099CCFF00CCCCFF00FFCCFF0000FFFF0033FFFF0066FFFF0099FFFF00CCFFFF00FFFFFF00000000000D0D0D001A1A1A00282828003535350043434300505050005D5D5D006B6B6B00787878008686860093939300A1A1A100AEAEAE00BBBBBB00C9C9C900D6D6D600E4E4E400
310
F1F1F100FFFFFF0000000000000000000000000000000000000000000000000000000000000000000000000000000000E2E2E2E2E2E2E2E2E2E2E2E2E2E2E2E2E2E2E2E2E2E2E2E2E2E2E2E2E2E2E2E2E2E2E2E2E2E2E2E2E2E2E2E2E2E2E2E2E2E2E2E2E2E2E2E2E2E2E2E2E2E2E2E2E2E2E2E2E2E2E2E2E2E2E2E2E2E2E2
310
E2E2E2E2E2E2E2E2E2E2E2E2E2E2E2E2E2E2E2E2E2E2E2E2E2E2E2E2E2E2E2E2E2E2E2E2E2E2E2E2E2E2E2E2E2E2E2E2E2E2E2E2E2E2E2E2E2E2E2E2E2E2E2E2E2E2E2E2E2E2E2E2E2E2E2E2E2E2E2E2E2E2E2E2E2E2E2E2E2E2E2E2E2E2E2E2E2E2E2E2E2E2E2E2E2E2E2E2E2E2E2E2E2E2E2E2E2E2E2E2E2E2E2E2E2E2E2
310
E2E2E2E2E2E2E2E2E2E2E2E2E2E2E2E2E2E2E2E2E2E2E2E2E2E2E2E2E2E2E2E2E2E2E2E2E2E2E2E2E2E2E2E2E2E2E2E2E2E2E2E2E2E2E2E2E2E2E2E2E2E2E2E2E2E2E2E2E2E2E2E2E2E2E2E2E2E2E2E2E2E2E2E2E2E2E2E2E2E2E2E2E2E2E2E2E2E2E2E2E2E2E2E2E2E2E2E2E2E2E2E2E2E2E2E2E2E2E2E2E2E2E2E2E2E2E2
310
E2E2E2E2E2E2E2E2E2E2E2E2E2E2E2E2E2E2E2E2E2E2E2E2E2E2E2E2E2E2E2E2E2E2E2E2E2E2E2E2E2E2E2E2E2E2E2E2E2E2E2E2E2E2E2E2E2E2E2E2E2E2E2E2E2E2E2E2E2E2E2E2E2E2E2E2E2E2E2E2E2E2E2E2E2E2E2E2E2E2E2E2E2E2E2E2E2E2E2E2E2E2E2E2E2E2E2E2E2E2E2E2E2E2E2E2E2E2E2E2E2E2E2E2E2E2E2
310
E2E2E2E2E2E2E2E2E2E2E2E2E2E2E2E2E2E2E2E2E2E2E2E2E2E2E2E2E2E2E2E2E2E2E2E2E2E2E2E2E2E2E2E2E2E2E2E2E2E2E2E2E2E2E2E2E2E2E2E2E2E2E2E2E2E2E2E2E2E2E2E2E2E2E2E2E2E2E2E2E2E2E2E2E2E2E2E2E2E2E2E2E2E2E2E2E2E2E2E2E2E2E2E2E2E2E2E2E2E2E2E2E2E2E2E2E2E2E2E2E2E2E2E2E2E2E2
310
E2E2E2E2E2E2E2E2E2E2E2E2E2E2E2E2E2E2E2E2E2E2E2E2E2E2E2E2E2E2E2E2E2E2E2E2E2E2E2E2E2E2E2E2E2E2E2E2E2E2E2E2E2E2E2E2E2E2E2E2E2E2E2E2E2E2E2E2E2E2E2E2E2E2E2E2E2E2E2E2E2E2E2E2E2E2E2E2E2E2E2E2E2E2E2E2E2E2E2E2E2E2E2E2E2E2E2E2E2E2E2E2E2E2E2E2E2E2E2E2E2E2E2E2E2E2E2
310
E2E2E2E2E2E2E2E2E2E2E2E2E2E2E2E2E2E2E2E2E2E2E2E2E2E2E2E2E2E2E2E2E2E2E2E2E2E2E2E2E2E2E2E2E2E2E2E2E2E2E2E2E2E2E2E2E2E2E2E2E2E2E2E2E2E2E2E2E2E2E2E2E2E2E2E2E2E2E2E2E2E2E2E2E2E2E2E2E2E2E2E2E2E2E2E2E2E2E2E2E2E2E2E2E2E2E2E2E2E2E2E2E2E2E2E2E2E2E2E2E2E2E2E2E2E2E2
310
E2E2E2E2E2E2E2E2E2E2E2E2E2E2E2E2E2E2E2E2E2E2E2E2E2E2E2E2E2E2E2E2E2E2E2E2E2E2E2E2E2E2E2E2E2E2E2E2E2E2E2E2E2E2E2E2E2E2E2E2E2E2E2E2E2E2E2E2E2E2E2E2E2E2E2E2E2E2E2E2E2E2E2E2E2E2E2E2E2E2E2E2E2E2E2E2E2E2E2E2E2E2E2E2E2E2E2E2E2E2E2E2E2E2E2E2E2E2E2E2E2E2E2E2E2E2E2
310
E2E2E2E2E2E2E2E2E2E2E2E2E2E2E2E2E2E2E2E2E2E2E2E2E2E2E2E2E2E2E2E2E2E2E2E2E2E2E2E2E2E2E2E2E2E2E2E2E2E2E2E2E2E2E2E2E2E2E2E2E2E2E2E2E2E2E2E2E2E2E2E2E2E2E2E2E2E2E2E2E2E2E2E2E2E2E2E2E2E2E2E2E2E2E2E2E2E2E2E2E2E2E2E2E2E2E2E2E2E2E2E2E2E2E2E2E2E2E2E2E2E2E2E2E2E2E2
310
E2E2E2E2E2E2E2E2E2E2E2E2E2E2E2E2E2E2E2E2E2E2E2E2E2E2E2E2E2E2E2E2E2E2E2E2E2E2E2E2E2E2E2E2E2E2E2E2E2E2E2E2E2E2E2E2E2E2E2E2E2E2E2E2E2E2E2E2E2E2E2E2E2E2E2E2E2E2E2E2E2E2E2E2E2E2E2E2E2E2E2E2E2E2E2E2E2E2E2E2E2E2E2E2E2E2E2E2E2E2E2E2E2E2E2E2E2E2E2E2E2E2E2E2E2E2E2
310
E2E2E2E2E2E2E2E2E2E2E2E2E2E2E2E2E2E2E2E2E2E2E2E2E2E2E2E2E2E2E2E2E2E2E2E2E2E2E2E2E2E2E2E2E2E2E2E2E2E2E2E2E2E2E2E2E2E2E2E2E2E2E2E2E2E2E2E2E2E2E2E2E2E2E2E2E2E2E2E2E2E2E2E2E2E2E2E2E2E2E2E2E2E2E2E2E2E2E2E2E2E2E2E2E2E2E2E2E2E2E2E2E2E2E2E2E2E2E2E2E2E2E2E2E2E2E2
310
E2E2E2E2E2E2E2E2E2E2E2E2E2E2E2E2E2E2E2E2E2E2E2E2E2E2E2E2E2E2E2E2E2E2E2E2E2E2E2E2E2E2E2E2E2E2E2E2E2E2E2E2E2E2E2E2E2E2E2E2E2E2E2E2E2E2E2E2E2E2E2E2E2E2E2E2E2E2E2E2E2E2E2E2E2E2E2E2E2E2E2E2E2E2E2E2E2E2E2E2E2E2E2E2E2E2E2E2E2E2E2E2E2E2E2E2E2E2E2E2E2E2E2E2E2E2E2
310
E2E2E2E2E2E2E2E2E2E2E2E2E2E2E2E2E2E2E2E2E2E2E2E2E2E2E2E2E2E2E2E2E2E2E2E2E2E2E2E2E2E2E2E2E2E2E2E2E2E2E2E2E2E2E2E2E2E2E2E2E2E2E2E2E2E2E2E2E2E2E2E2E2E2E2E2E2E2E2E2E2E2E2E2E2E2E2E2E2E2E2E2E2E2E2E2E2E2E2E2E2E2E2E2E2E2E2E2E2E2E2E2E2E2E2E2E2E2E2E2E2E2E2E2E2E2E2
310
E2E2E2E2E2E2E2E2E2E2E2E2E2E2E2E2E2E2E2E2E2E2E2E2E2E2E2E2E2E2E2E2E2E2E2E2E2E2E2E2E2E2E2E2E2E2E2E2E2E2E2E2E2E2E2E2E2E2E2E2E2E2E2E2E2E2E2E2E2E2E2E2E2E2E2E2E2E2E2E2E2E2E2E2E2E2E2E2E2E2E2E2E2E2E2E2E2E2E2E2E2E2E2E2E2E2E2E2E2E2E2E2E2E2E2E2E2E2E2E2E2E2E2E2E2E2E2
310
E2E2E2E2E2E2E2E2E2E2E2E2E2E2E2E2E2E2E2E2E2E2E2E2E2E2E2E2E2E2E2E2E2E2E2E2E2E2E2E2E2E2E2E2E2E2E2E2E2E2E2E2E2E2E2E2E2E2E2E2E2E2E2E2E2E2E2E2E2E2E2E2E2E2E2E2E2E2E2E2E2E2E2E2E2E2E2E2E2E2E2E2E2E2E2E2E2E2E2E2E2E2E2E2E2E2E2E2E2E2E2E2E2E2E2E2E2E2E2E2E2E2E2E2E2E2E2
310
E2E2E2E2E2E2E2E2E2E2E2E2E2E2E2E2E2E2E2E2E2E2E2E2E2E2E2E2E2E2E2E2E2E2E2E2E2E2E2E2E2E2E2E2E2E2E2E2E2E2E2E2E2E2E2E2E2E2E2E2E2E2E2E2E2E2E2E2E2E2E2E2E2E2E2E2E2E2E2E2E2E2E2E2E2E2E2E2E2E2E2E2E2E2E2E2E2E2E2E2E2E2E2E2E2E2E2E2E2E2E2E2E2E2E2E2E2E2E2E2E2E2E2E2E2E2E2
310
E2E2E2E2E2E2E2E2E2E2E2E2E2E2E2E2E2E2E2E2E2E2E2E2E2E2E2E2E2E2E2E2E2E2E2E2E2E2E2E2E2E2E2E2E2E2E2E2E2E2E2E2E2E2E2E2E2E2E2E2E2E2E2E2E2E2E2E2E2E2E2E2E2E2E2E2E2E2E2E2E2E2E2E2E2E2E2E2E2E2E2E2E2E2E2E2E2E2E2E2E2E2E2E2E2E2E2E2E2E2E2E2E2E2E2E2E2E2E2E2E2E2E2E2E2E2E2
310
E2E2E2E2E2E2E2E2E2E2E2E2E2E2E2E2E2E2E2E2E2E2E2E2E2E2E2E2E2E2E2E2E2E2E2E2E2E2E2E2E2E2E2E2E2E2E2E2E2E2E2E2E2E2E2E2E2E2E2E2E2E2E2E2E2E2E2E2E2E2E2E2E2E2E2E2E2E2E2E2E2E2E2E2E2E2E2E2E2E2E2E2E2E2E2E2E2E2E2E2E2E2E2E2E2E2E2E2E2E2E2E2E2E2E2E2E2E2E2E2E2E2E2E2E2E2E2
310
E2E2E2E2E2E2E2E2E2E2E2E2E2E2E2E2E2E2E2E2E2E2E2E2E2E2E2E2E2E2E2E2E2E2E2E2E2E2E2E2E2E2E2E2E2E2E2E2E2E2E2E2E2E2E2E2E2E2E2E2E2E2E2E2E2E2E2E2E2E2E2E2E2E2E2E2E2E2E2E2E2E2E2E2E2E2E2E2E2E2E2E2E2E2E2E2E2E2E2E2E2E2E2E2E2E2E2E2E2E2E2E2E2E2E2E2E2E2E2E2E2E2E2E2E2E2E2
310
E2E2E2E2E2E2E2E2E2E2E2E2E2E2E2E2E2E2E2E2E2E2E2E2E2E2E2E2E2E2E2E2E2E2E2E2E2E2E2E2E2E2E2E2E2E2E2E2E2E2E2E2E2E2E2E2E2E2E2E2E2E2E2E2E2E2E2E2E2E2E2E2E2E2E2E2E2E2E2E2E2E2E2E2E2E2E2E2E2E2E2E2E2E2E2E2E2E2E2E2E2E2E2E2E2E2E2E2E2E2E2E2E2E2E2E2E2E2E2E2E2E2E2E2E2E2E2
310
E2E2E2E2E2E2E2E2E2E2E2E2E2E2E2E2E2E2E2E2E2E2E2E2E2E2E2E2E2E2E2E2E2E2E2E2E2E2E2E2E2E2E2E2E2E2E2E2E2E2E2E2E2E2E2E2E2E2E2E2E2E2E2E2E2E2E2E2E2E2E2E2E2E2E2E2E2E2E2E2E2E2E2E2E2E2E2E2E2E2E2E2E2E2E2E2E2E2E2E2E2E2E2E2E2E2E2E2E2E2E2E2E2E2E2E2E2E2E2E2E2E2E2E2E2E2E2
310
E2E2E2E2E2E2E2E2E2E2E2E2E2E2E2E2E2E2E2E2E2E2E2E2E2E2E2E2E2E2E2E2E2E2E2E2E2E2E2E2E2E2E2E2E2E2E2E2E2E2E2E2E2E2E2E2E2E2E2E2E2E2E2E2E2E2E2E2E2E2E2E2E2E2E2E2E2E2E2E2E2E2E2E2E2E2E2E2E2E2E2E2E2E2E2E2E2E2E2E2E2E2E2E2E2E2E2E2E2E2E2E2E2E2E2E2E2E2E2E2E2E2E2E2E2E2E2
310
E2E2E2E2E2E2E2E2E2E2E2E2E2E2E2E2E2E2E2E2E2E2E2E2E2E2E2E2E2E2E2E2E2E2E2E2E2E2E2E2E2E2E2E2E2E2E2E2E2E2E2E2E2E2E2E2E2E2E2E2E2E2E2E2E2E2E2E2E2E2E2E2E2E2E2E2E2E2E2E2E2E2E2E2E2E2E2E2E2E2E2E2E2E2E2E2E2E2E2E2E2E2E2E2E2E2E2E2E2E2E2E2E2E2E2E2E2E2E2E2E2E2E2E2E2E2E2
310
E2E2E2E2E2E2E2E2E2E2E2E2E2E2E2E2E2E2E2E2E2E2E2E2E2E2E2E2E2E2E2E2E2E2E2E2E2E2E2E2E2E2E2E2E2E2E2E2E2E2E2E2E2E2E2E2E2E2E2E2E2E2E2E2E2E2E2E2E2E2E2E2E2E2E2E2E2E2E2E2E2E2E2E2E2E2E2E2E2E2E2E2E2E2E2E2E2E2E2E2E2E2E2E2E2E2E2E2E2E2E2E2E2E2E2E2E2E2E2E2E2E2E2E2E2E2E2
310
E2E2E2E2E2E2E2E2E2E2E2E2E2E2E2E2E2E2E2E2E2E2E2E2E2E2E2E2E2E2E2E2E2E2E2E2E2E2E2E2E2E2E2E2E2E2E2E2E2E2E2E2E2E2E2E2E2E2E2E2E2E2E2E2E2E2E2E2E2E2E2E2E2E2E2E2E2E2E2E2E2E2E2E2E2E2E2E2E2E2E2E2E2E2E2E2E2E2E2E2E2E2E2E2E2E2E2E2E2E2E2E2E2E2E2E2E2E2E2E2E2E2E2E2E2E2E2
310
E2E2E2E2E2E2E2E2E2E2E2E2E2E2E2E2E2E2E2E2E2E2E2E2E2E2E2E2E2E2E2E2E2E2E2E2E2E2E2E2E2E2E2E2E2E2E2E2E2E2E2E2E2E2E2E2E2E2E2E2E2E2E2E2E2E2E2E2E2E2E2E2E2E2E2E2E2E2E2E2E2E2E2E2E2E2E2E2E2E2E2E2E2E2E2E2E2E2E2E2E2E2E2E2E2E2E2E2E2E2E2E2E2E2E2E2E2E2E2E2E2E2E2E2E2E2E2
310
E2E2E2E2E2E2E2E2E2E2E2E2E2E2E2E2E2E2E2E2E2E2E2E2E2E2E2E2E2E2E2E2E2E2E2E2E2E2E2E2E2E2E2E2E2E2E2E2E2E2E2E2E2E2E2E2E2E2E2E2E2E2E2E2E2E2E2E2E2E2E2E2E2E2E2E2E2E2E2E2E2E2E2E2E2E2E2E2E2E2E2E2E2E2E2E2E2E2E2E2E2E2E2E2E2E2E2E2E2E2E2E2E2E2E2E2E2E2E2E2E2E2E2E2E2E2E2
310
E2E2E2E2E2E2E2E2E2E2E2E2E2E2E2E2E2E2E2E2E2E2E2E2E2E2E2E2E2E2E2E2E2E2E2E2E2E2E2E2E2E2E2E2E2E2E2E2E2E2E2E2E2E2E2E2E2E2E2E2E2E2E2E2E2E2E2E2E2E2E2E2E2E2E2E2E2E2E2E2E2F5F5F5F5F5F5E2E2E2E2E2E2E2E2E2E2E2E2E2E2E2E2E2E2E2E2E2E2E2E2E2E2E2E2E2E2E2E2E2E2E2E2E2E2E2E2
310
E2E2E2E2E2E2E2E2E2E2E2E2E2E2E2E2E2E2E2E2E2E2E2E2E2E2E2E2E2E2E2E2E2E2E2E2E2E2E2E2E2E2E2E2E2E2E2E2E2E2E2E2E2E2E2E2E2E2E2E2E2E2E2E2E2E2E2E2E2E2E2E2E2E2E2E2E2E2E2E2E2E2E2E2E2E2E2E2E2E2E2E2E2E2E2E2E2E2E2E2E2E2E2E2E2E2E2E2E2E2E2E2E2E2E2E2E2E2E2E2E2E2E2E2E2E2E2
310
E2E2E2E2E2E2E2E2E2E2E2E2E2E2E2E2E2E2E2E2E2E2E2E2E2E2E2E2E2E2E2E2E2E2E2E2E2E2E2E2E2E2E2E2E2E2E2E2E2E2E2E2E2E2E2E2E2E2E2E2E2E2E2E2E2E2E2E2E2E2E2E2E2E2E2E2E2E2E2E2E2E2E2F5F5F5F5F5F5E2E2E2E2E2E2E2E2E2E2E2E2E2E2E2E2E2E2E2E2E2E2E2E2E2E2E2E2E2E2E2E2E2E2E2E2E2E2
310
E2E2E2E2E2E2E2E2E2E2E2E2E2E2E2E2E2E2E2E2E2E2E2E2E2E2E2E2E2E2E2E2E2E2E2E2E2E2E2E2E2E2E2E2E2E2E2E2E2E2E2E2E2E2E2E2E2E2E2E2E2E2E2E2E2E2E2E2E2E2E2E2E2E2E2E2E2E2E2E2E2E2E2E2E2E2E2E2E2E2E2E2E2E2E2E2E2E2E2E2E2E2E2E2E2E2E2E2E2E2E2E2E2E2E2E2E2E2E2E2E2E2E2E2E2E2E2
310
E2E2E2E2E2E2E2E2E2E2E2E2E2E2E2E2E2E2E2E2E2E2E2E2E2E2E2E2E2E2E2E2E2E2E2E2E2E2E2E2E2E2E2E2E2E2E2E2E2E2E2E2E2E2E2E2E2E2E2E2E2E2E2E2E2E2E2E2E2E2E2E2E2E2E2E2E2E2E2F5F5F5F5F5F5F5F5F5F5F5F5F5F5F5F5F5F5F5F5F5F5E2E2E2E2E2E2E2E2E2E2E2E2E2E2E2E2E2E2E2E2E2E2E2E2E2E2
310
E2E2E2E2E2E2E2E2E2E2E2E2E2E2E2E2E2E2E2E2E2E2E2E2E2E2E2E2E2E2E2E2E2E2E2E2E2E2E2E2E2E2E2E2E2E2E2E2E2E2E2E2E2E2E2E2E2E2E2E2E2E2E2E2E2E2E2E2E2E2E2E2E2E2E2E2E2E2E2E2E2E2E2E2E2E2E2E2E2E2E2E2E2E2E2E2E2E2E2E2E2E2E2E2E2E2E2E2E2E2E2E2E2E2E2E2E2E2E2E2E2E2E2E2E2E2E2
310
E2E2E2E2E2E2E2E2E2E2E2E2E2E2E2E2E2E2E2E2E2E2E2E2E2E2E2E2E2E2E2E2E2E2E2E2E2E2E2E2E2E2E2E2E2E2E2E2E2E2E2E2E2E2E2E2E2E2E2E2E2E2E2E2E2E2E2E2E2E2E2E2E2E2E2E2E2E2E2E2E2F5F5F5F5F5F5F5F5F5F5F5F5F5F5F5F5F5F5F5F5F5E2F5E2E2E2E2E2E2E2E2E2E2E2E2E2E2E2E2E2E2E2E2E2E2E2
310
E2E2E2E2E2E2E2E2E2E2E2E2E2E2E2E2E2E2E2E2E2E2E2E2E2E2E2E2E2E2E2E2E2E2E2E2E2E2E2E2E2E2E2E2E2E2E2E2E2E2E2E2E2E2E2E2E2E2E2E2E2E2E2E2E2E2E2E2E2E2E2E2E2E2E2E2E2E2E2E2E2E2E2E2E2E2E2E2E2E2E2E2E2E2E2E2E2E2E2E2E2E2E2E2E2E2E2E2E2E2E2E2E2E2E2E2E2E2E2E2E2E2E2E2E2E2E2
310
E2E2E2E2E2E2E2E2E2E2E2E2E2E2E2E2E2E2E2E2E2E2E2E2E2E2E2E2E2E2E2E2E2E2E2E2E2E2E2E2E2E2E2E2E2E2E2E2E2E2E2E2E2E2E2E2E2E2E2E2E2E2E2E2E2E2E2E2E2E2E2E2E2E2E2E2E2E2E2E2E2E2E2F5F5F5F5F5F5F5F5F5F5F5F5F5F5F5F5F5F5F5F5F5E2F5E2E2E2E2E2E2E2E2E2E2E2E2E2E2E2E2E2E2E2E2E2
310
E2E2E2E2E2E2E2E2E2E2E2E2E2E2E2E2E2E2E2E2E2E2E2E2E2E2E2E2E2E2E2E2E2E2E2E2E2E2E2E2E2E2E2E2E2E2E2E2E2E2E2E2E2E2E2E2E2E2E2E2E2E2E2E2E2E2E2E2E2E2E2E2E2E2E2E2E2E2E2E2E2E2E2E2E2E2E2E2E2E2E2E2E2E2E2E2E2E2E2E2E2E2E2E2E2E2E2E2E2E2E2E2E2E2E2E2E2E2E2E2E2E2E2E2E2E2E2
310
E2E2E2E2E2E2E2E2E2E2E2E2E2E2E2E2E2E2E2E2E2E2E2E2E2E2E2E2E2E2E2E2E2E2E2E2E2E2E2E2E2E2E2E2E2E2E2E2E2E2E2E2E2E2E2E2E2E2E2E2E2E2E2E2E2E2E2E2E2E2E2E2E2E2E2E2E2E2E2E2E2E2E2E2E2E2E2E2E2E2E2E2E2E2E2E2E2E2E2E2E2E2E2E2E2E2E2E2F5E2E2E2E2E2E2E2E2E2E2E2E2E2E2E2E2E2E2
310
E2E2E2E2E2E2E2E2E2E2E2E2E2E2E2E2E2E2E2E2E2E2E2E2E2E2E2E2E2E2E2E2E2E2E2E2E2E2E2E2E2E2E2E2E2E2E2E2E2E2E2E2E2E2E2E2E2E2E2E2E2E2E2E2E2E2E2E2E2E2E2E2E2E2E2E2E2E2E2E2E2E2E2E2E2E2E2E2E2E2E2E2E2E2E2E2E2E2E2E2E2E2E2E2E2E2E2E2E2E2E2E2E2F5F5F5F5F5F5E2F5F5F5F5F5F5F5
310
E2E2E2E2E2E2E2E2E2E2E2E2E2E2E2E2E2E2E2E2E2E2E2E2E2E2E2E2E2E2E2E2E2E2E2E2E2E2E2E2E2E2E2E2E2E2E2E2E2E2E2E2E2E2E2E2E2E2E2E2E2E2E2E2E2E2E2E2E2E2E2E2E2E2E2E2E2E2E2E2E2E2E2E2E2E2E2E2E2E2E2E2E2E2E2E2E2E2E2E2E2E2E2E2E2E2E2E2E2E2F5E2E2E2E2E2E2E2E2E2E2E2E2E2E2E2E2
310
E2E2E2E2E2E2E2E2E2E2E2E2E2E2E2E2E2E2E2E2E2E2E2E2E2E2E2E2E2E2E2E2E2E2E2E2E2E2E2E2E2E2E2E2E2E2E2E2E2E2E2E2E2E2E2E2E2E2E2E2E2E2E2E2E2E2E2E2E2E2E2E2E2E2E2E2E2E2E2E2E2E2E2E2E2E2E2E2E2E2E2E2E2E2E2E2E2E2E2E2E2E2E2E2E2E2E2E2E2E2E2E2E2E2E2F5F5F5F5F5F5F5F5F5F5F5F5
310
F5F5E2E2E2E2E2E2E2E2E2E2E2E2E2E2E2E2E2E2E2E2E2E2E2E2E2E2E2E2E2E2E2E2E2E2E2E2E2E2E2E2E2E2E2E2E2E2E2E2E2E2E2E2E2E2E2E2E2E2E2E2E2E2E2E2E2E2E2E2E2E2E2E2E2E2E2E2E2E2E2E2E2E2E2E2E2E2E2E2E2E2E2E2E2E2E2E2E2E2E2E2E2E2E2E2E2E2E2E2E2E2E2F5E2E2E2E2E2E2E2E2E2E2E2E2E2
310
E2E2E2E2E2E2E2E2E2E2E2E2E2E2E2E2E2E2E2E2E2E2E2E2E2E2E2E2E2E2E2E2E2E2E2E2E2E2E2E2E2E2E2E2E2E2E2E2E2E2E2E2E2E2E2E2E2E2E2E2E2E2E2E2E2E2E2E2E2E2E2E2E2E2E2E2E2E2E2E2E2E2E2E2E2E2E2E2E2E2E2E2E2E2E2E2E2E2E2E2E2E2E2E2E2E2E2E2E2E2E2E2E2E2E2E2E2F5F5F5F5F5F5E2F5F5F5
310
F5F5F5F5E2E2E2E2E2E2E2E2E2E2E2E2E2E2E2E2E2E2E2E2E2E2E2E2E2E2E2E2E2E2E2E2E2E2E2E2E2E2E2E2E2E2E2E2E2E2E2E2E2E2E2E2E2E2E2E2E2E2E2E2E2E2E2E2E2E2E2E2E2E2E2E2E2E2E2E2E2E2E2E2E2E2E2E2E2E2E2E2E2E2E2E2E2E2E2E2E2E2E2E2E2E2E2E2E2E2F0F0F0F0F0F5F0F0F0F0F0F0F0F0F0F0F0
310
F0F0F0F0F0F0E2E2E2E2E2E2E2E2E2E2E2E2E2E2E2E2E2E2E2E2E2E2E2E2E2E2E2E2E2E2E2E2E2E2E2E2E2E2E2E2E2E2E2E2E2E2E2E2E2E2E2E2E2E2E2E2E2E2E2E2E2E2E2E2E2E2E2E2E2E2E2E2E2E2E2E2E2E2E2E2E2E2E2E2E2E2E2E2E2E2E2E2E2E2E2E2E2E2E2E2E2E2E2E2E2E2E2E2E2E2E2E2E2E2E2E2E2E2E2E2E2
310
E2E2E2E2E2E2E2E2E2E2E2E2E2E2E2E2E2E2E2E2E2E2E2E2E2E2E2E2E2E2E2E2E2E2E2E2E2E2E2E2E2E2E2E2E2E2E2E2E2E2E2E2E2E2E2E2E2E2E2E2E2E2E2E2E2E2E2E2E2E2E2E2E2E2E2E2E2E2E2E2E2E2E2E2E2E2E2E2E2E2E2E2E2E2E2E2E2E2E2E2E2E2E2E2E2E2E2E2E2E2E2E2F0E2E2E2E2E2F5E2E2E2E2E2E2E2E2
310
E2E2E2E2E2E2E2F0E2E2E2E2E2E2E2E2E2E2E2E2E2E2E2E2E2E2E2E2E2E2E2E2E2E2E2E2E2E2E2E2E2E2E2E2E2E2E2E2E2E2E2E2E2E2E2E2E2E2E2E2E2E2E2E2E2E2E2E2E2E2E2E2E2E2E2E2E2E2E2E2E2E2E2E2E2E2E2E2E2E2E2E2E2E2E2E2E2E2E2E2E2E2E2E2E2E2E2E2E2E2E2E2E2F0F0F0F0F0F0F0F0F0F0F0F0F0F0
310
F0F0F0F0F0F0F0F0F0F0F0F0F0F0F0F0F0F0F0F0F0F0E2E2E2E2E2E2E2E2E2E2E2E2E2E2E2E2E2E2E2E2E2E2E2E2E2E2E2E2E2E2E2E2E2E2E2E2E2E2E2E2E2E2E2E2E2E2E2E2E2E2E2E2E2E2E2E2E2E2E2E2E2E2E2E2E2E2E2E2E2E2E2E2E2E2E2E2E2E2E2E2E2E2E2E2E2E2E2E2E2E2E2E2F0E2E2E2E2E2F5E2E2E2E2E2E2
310
E2E2E2E2E2E2E2E2E2F0E2E2E2E2E2E2E2E2F5E2E2E2E2E2E2E2E2E2E2E2E2E2E2E2F5E2E2E2E2E2E2E2E2E2E2E2E2E2E2E2E2E2E2E2E2E2E2E2E2E2E2E2E2E2E2E2E2E2E2E2E2E2E2E2E2E2E2E2E2E2E2E2E2E2E2E2E2E2E2E2E2E2E2E2E2E2E2E2E2E2E2E2E2E2E2E2E2E2E2E2E2E2E2E2E2F0E2E2E2E2E2E2F0F0E2E2E2
310
E2E2F0F0E2E2E2E2E2E2E2E2F0F0E2E2E2E2E2E2E2E2F0F0E2E2E2E2E2E2E2E2E2E2E2E2E2E2E2E2E2E2E2E2E2E2E2E2E2E2E2E2E2E2E2E2E2E2E2E2E2E2E2E2E2E2E2E2E2E2E2E2E2E2E2E2E2E2E2E2E2E2E2E2E2E2E2E2E2E2E2E2E2E2E2E2E2E2E2E2E2E2E2E2E2E2E2E2E2E2E2E2E2E2E2E2F0E2E2F0F0F0F0F5F0F0F0
310
F0F0F0F0F0F0F0E2E2E2E2F0E2E2E2E2E2E2E2F5F5F5F5F5F5F5F5F5F5F5F5F5F5F5F5F5F5E2E2E2E2E2E2E2E2E2E2E2E2E2E2E2E2E2E2E2E2E2E2E2E2E2E2E2E2E2E2E2E2E2E2E2E2E2E2E2E2E2E2E2E2E2E2E2E2E2E2E2E2E2E2E2E2E2E2E2E2E2E2E2E2E2E2E2E2E2E2E2E2E2E2E2E2E2E2E2E2F0E2E2E2E2E2E2E2E2E2
310
E2E2E2E2E2F0E2E2E2E2E2E2E2E2E2E2E2E2E2E2E2E2E2E2E2F0E2E2E2E2E2E2E2E2E2E2E2E2E2E2E2E2E2E2E2E2E2E2E2E2E2E2E2E2E2E2E2E2E2E2E2E2E2E2E2E2E2E2E2E2E2E2E2E2E2E2E2E2E2E2E2E2E2E2E2E2E2E2E2E2E2E2E2E2E2E2E2E2E2E2E2E2E2E2E2E2E2E2E2E2E2E2E2E2E2E2E2E2F0E2E2F0F0F0E2F5E2
310
E2F0F0E2F0F0F0F0F0E2E2E2E2F0E2E2E2E2E2E2E2F5F5F5F5F5F5F5F5F5F5F5F5F5F5F5F5F5F5F5E2E2E2E2E2E2E2E2E2E2E2E2E2E2E2E2E2E2E2E2E2E2E2E2E2E2E2E2E2E2E2E2E2E2E2E2E2E2E2E2E2E2E2E2E2E2E2E2E2E2E2E2E2E2E2E2E2E2E2E2E2E2E2E2E2E2E2E2E2E2E2E2E2E2E2E2E2E2E2F0E2E2E2E2E2E2E2
310
E2E2E2E2E2E2E2F0E2E2E2E2E2E2E2E2E2E2E2E2E2E2E2E2E2E2E2F0E2E2E2E2E2E2E2E2E2E2E2E2E2E2E2E2E2E2E2E2E2E2E2E2E2E2E2E2E2E2E2E2E2E2E2E2E2E2E2E2E2E2E2E2E2E2E2E2E2E2E2E2E2E2E2E2E2E2E2E2E2E2E2E2E2E2E2E2E2E2E2E2E2E2E2E2E2E2E2E2E2E2E2E2E2E2E2E2E2E2E2E2F0E2E2E2E2F0E2
310
F0F5E2E2E2E2F0E2F0E2F0E2E2E2E2F0E2E2E2E2E2E2F5E2F5F5F5F5F5F5E2F5F5F5F5F5F5F5F5F5E2E2E2E2E2E2E2E2E2E2E2E2E2E2E2E2E2E2E2E2E2E2E2E2E2E2E2E2E2E2E2E2E2E2E2E2E2E2E2E2E2E2E2E2E2E2E2E2E2E2E2E2E2E2E2E2E2E2E2E2E2E2E2E2E2E2E2E2E2E2E2E2E2E2E2E2E2E2E2E2E2F0E2E2E2E2E2
310
E2E2E2E2E2E2E2E2E2F0E2E2E2E2E2E2E2E2E2E2E2E2E2E2E2E2E2E2E2F0E2E2E2E2E2E2E2E2E2E2E2E2E2E2E2E2E2E2E2E2E2E2E2E2E2E2E2E2E2E2E2E2E2E2E2E2E2E2E2E2E2E2E2E2E2E2E2E2E2E2E2E2E2E2E2E2E2E2E2E2E2E2E2E2E2E2E2E2E2E2E2E2E2E2E2E2E2E2E2F5F5F5F5F5F5F5F5E2E2E2E2E2F0E2E2E2E2
310
F0E2F0F5E2E2E2E2F0E2F0E2F0E2E2E2E2F0E2E2E2E2E2F5E2E2F5F5F5F5F5F5F5F5F5F5F5F5F5F5F5E2E2E2E2E2E2E2E2E2E2E2E2E2E2E2E2E2E2E2E2E2E2E2E2E2E2E2E2E2E2E2E2E2E2E2E2E2E2E2E2E2E2E2E2E2E2E2E2E2E2E2E2E2E2E2E2E2E2E2E2E2E2E2E2E2E2E2E2E2E2E2E2E2E2E2E2E2E2E2E2E2E2F0E2E2E2
310
E2E2E2E2E2E2E2E2E2E2E2F0E2E2E2E2E2E2E2E2E2E2E2E2E2E2E2E2E2E2E2F0E2E2E2E2E2E2E2E2E2E2E2E2E2E2E2E2E2E2E2E2E2E2E2E2E2E2E2E2E2F0E2E2E2E2E2E2E2E2E2F0F0E2E2E2E2E2E2E2E2E2E2E2E2E2E2E2E2E2E2E2E2E2E2E2E2E2E2E2E2E2E2E2E2E2E2E2E2E2E2F5F5F5F5F5F5F5E2F5E2E2E2E2F0E2E2
310
E2E2F0E20F0FF50F0F0F0FE2F0E2F0E2E2E2E2F0E2E2E2E2F5E2E2E2E2E2E2E2E2E2E2E2E2E2E2E2E2E2E2E2E2E2E2E2E2E2E2E2E2E2E2E2E2E2E2E2E2E2E2E2E2E2E2E2E2E2E2E2E2E2E2E2E2E2E2E2E2E2E2E2E2E2E2E2E2E2E2E2E2E2E2E2E2E2E2E2E2E2E2E2E2E2E2E2E2E2E2E2E2E2E2E2E2E2E2E2E2E2E2E2E20F0F
310
0F0F0F0F0F0F0F0F0F0F0F0F0F0F0F0F0F0F0F0F0F0F0F0F0F0F0F0F0F0F0F0F0FF0F0F0F0F0F0E2E2E2E2E2E2E2E2E2E2E2E2E2E2E2E2E2E2E2E2E2E2E2E2F0F0F0F0F0F0F0F0F0F0F0F0F0F0F0F0F0F0F0F0F0F0F0F0F0F0F0F0E2E2E2E2E2E2E2E2E2E2E2E2E2E2E2E2E2E2E2E2E2E2F5F5F5F5F5F5E2E2E2F5E2E2E2F0
310
E2E2E2E2F0E20FE2F5E2E2E20FE2F0E2F0E2E2E2E2F0E2E2E2F5E2E2E2E2E2E2E2E2E2E2E2E2E2E2E2E2E2E2E2E2E2E2E2E2E2E2E2E2E2E2E2E2E2E2E2E2E2E2E2E2E2E2E2E2E2E2E2E2E2E2E2E2E2E2E2E2E2E2E2E2E2E2E2E2E2E2E2E2E2E2E2E2E2E2E2E2E2E2E2E2E2E2E2E2E2E2E2E2E2E2E2E2E2E2E2E2E2E2E2E2E2
310
0FE2E2E2E2E2E2F0F0F0F0F0F0F0F0F0F0F0F0F0F0F0F0E2E2E2E2E2E2E2E2E2E2E2E20FE2E2E2E2F0E2E2E2E2E2E2E2E2E2E2E2E2E2E2E2E2E2E2E2E2E2E2E2E2F0E2E2E2E2E2E2E2E2E2E2F0E2E2E2E2E2E2E2E2E2E2E2E2E2E2E2F0E2E2E2E2E2E2E2E2E2E2E2E2E2E2E2E2E2E2E2E2E2E2E2E2E2E2E2E2E2E2E2E2F5E2
310
E2F0BEE2E2E2F0E20FE2E2F5E2E20FE2F0E2F0E2E2E2E2F0E2E2F5E2E2E2E2E2E2E2E2E2E2E2E2E2E2E2E2E2E2E2E2E2E2E2E2E2E2E2E2E2E2E2E2E2E2E2E2E2E2E2E2E2E2E2E2E2E2E2E2E2E2E2E2E2E2E2E2E2E2E2E2E2E2E2E2E2E2E2E2E2E2E2E2E2E2E2E2E2E2E2E2E2E2E2E2E2E2E2E2E2E2E2E2E2E2E2E2E2E2E2E2
310
E2E20FE2E2E2E2E2E2F0E2E2E2E2E2E2F0F0F0E2E2E2E2E2F0E2E2E2E2E2E2E2E2E2E2E2E20FE2E2E2F0F0E2E2E2E2E2E2E2E2E2E2E2E2E2E2E2E2E2E2E2E2E2E2E2E2F0E2E2E2E2E2E2E2E2E2E2F0E2E2E2E2E2E2E2E2E2E2E2E2E2E2E2F0E2E2E2E2E2E2E2E2E2E2E2E2E2E2E2E2E2E2E2E2E2E2E2E2E2E2E2E2E2E2E2E2
310
E2F5E2BEBEE2E2E2F0E20FE2E2E2E2E20FE2F5E2F0E2E2E2E2F0F5F5E2E2E2E2E2E2E2E2E2E2E2E2E2E2E2E2E2E2E2E2E2E2E2E2E2E2E2E2E2E2E2E2E2E2E2E2E2E2E2E2E2E2E2E2E2E2E2E2E2E2E2E2E2E2E2E2E2E2E2E2E2E2E2E2E2E2E2E2E2E2E2E2E2E2E2E2E2E2E2E2E2E2E2E2E2E2E2E2E2E2E2E2E2E2E2E2E2E2E2
310
E2E2E2E20FE2E2E2E2E2E2F0E2E2E2E2E2E2E2C3E2E2E2E2E2E2F0E2E2E2E2E2F0E2E2E2E2E2E20FE2E2E2F0F0E2E2E2E2E2E2E2E2E2E2E2E2E2E2E2E2E2E2E2E2E2E2E2E2F0E2E2F0F0F0F0F0F0F0F0F0F0F0F0F0F0F0F0E2E2E2E2E2E2E2E2F0E2E2E2E2E2E2E2E2E2E2E2E2E2E2E2E2E2E2E2E2E2E2E2E2E2E2E2E2E2E2
310
E2E2E2E2F5BEBEE2E2E2F0E20FE2E2E2E2E20F28F5E2F0E2E2E2E2F5E2E2E2E2E2E2E2E2E2E2E2E2E2E2E2E2E2E2E2E2E2E2E2E2E2E2E2E2E2E2E2E2E2E2E2E2E2E2E2E2E2E2E2E2E2E2E2E2E2E2E2E2E2E2E2E2E2E2E2E2E2E2E2E2E2E2E2E2E2E2E2E2E2E2E2E2E2E2E2E2E2E2E2E2E2E2E2E2E2E2E2E2E2E2E2E2E2E2E2
310
E2E2E2E2E2E20FE2E2E2E2E2E2F0E2E2E2E2E2E2E2C3E2E2E2E2E2E2F0E2E2E2E2E2F0E2E2E2E2E2E20FE2E2E2E2F0E2E2E2E2E2E2E2E2E2E2E2E2E2E2E2E2E2E2E2E2E2E2E2E2F0E2E2F0E2E2E2E2E2E2E2C3E2E2E2E2E2E2F0E2E2E2E2E2E2E2E2F0E2E2E2E2E2E2E2E2E2E2E2E2E2E2E2E2E2E2E2E2E2E2E2E2E2E2E2E2
310
E2E2E2E2E2E2E2F5BEE2E2E228E20FE2E2E2E2E20F2828E2F0E2E2E2F5F0E2E2E2E2E2E2E2E2E2E2E2E2E2E2E2E2E2E2E2E2E2E2E2E2E2E2E2E2E2E2E2E2E2E2E2E2E2E2E2E2E2E2E2E2E2E2E2C3E2E2E2E2E2E2E2E2E2E2E2E2E2E2E2E2E2E2E2E2E2E2E2E2E2E2E2E2E2E2E2E2E2E2E2E2E2E2E2E2E2E2E2E2E2E2E2E2E2
310
E2E2E2E2E2E2E2E20FE2E2E2E2E2E2F0E2E2E2E2E2E2E2C3E2E2E2E2E2E2F0E2E2E2E2E2F0E2E2E2E2E2E20FE2E2E2E2F0E2E2E2E2E2E2E2E2E2E2E2E2E2E2E2E2E2E2E2E2E2E2E2E2F0E2E2F0E2E2E2E2E2E2E2C3E2E2E2E2E2E2F0E2E2E2E2E2E2E2E2F0E2E2E2E2E2E2E2E2E2E2E2E2E2E2E2E2E2E2E2E2E2E2E2E2E2E2
310
E2E2E2E2E2E2E2E2E2BEBEE2E22828280FE2E2E2E2E20F28282828E2E2F5E2F0E2E2E2E2E2E2E2E2E2E2E2E2E2E2E2E2E2E2E2E2E2E2E2E2E2E2E2E2E2E2E2E2E2E2E2E2E2E2E2E2E2E2E2E2E2E2E2C3E2E2E2E2E2E2E2E2E2E2E2E2E2E2E2E2E2E2E2E2E2E2E2E2E2E2E2E2E2E2E2E2E2E2E2E2E2E2E2DCDCDCDCDCDCDCDC
310
DCDCDCDCDCDCDCDCDCDC0FDCDCDCDCDCDCF0DCDCDCDCDCDCDCDCDCDCDCDCDCDCF0F0F0F0F0F0F0DCDCDCF0F0F0F0F0F0F0F0F0DCDCDCDCDCDCDCDCDCDCDCDCDCDCDCDCDCDCDCDCDCDCDCDCF02D2D2D2D2D2D2D2D2D2DC32D2D2D2D2D2D2D2D2D2D2D2D2D2D2DF0DCDCDCDCDCDCDCDCDCDCDCDCDCDCDCDCDCDCDCDCDCDCDCDC
310
DCDCDCF0F0F0F0F0F0F0F0BEBEF0F02D2D2D0F2D2D2D2D2D0F2D2D2DF0F0F5F0F0F0F0F0F0F0F0F0F0F0DCDCDCDCDCDCDCDCDCDCDCDCDCDCDCDCDCDCDCDCDCDCDCDC2D2D2D2D2D2D2D2D2D2D2D2D2D2D2D2D2D2D2D2D2D2D2D2D2DDCDCDCDCDCDCDCDCDCDCDCDCDCDCDCDCDCDCDCDCDCDCDCDCDCDCDCDCE2E2E2E2E2E2E2E2
310
E2E2E2E2E2E2E2E2E2E2E2E20FE2E2E2E2E2E2BEBEBEBEBEBEBEBEBEBEBEBEBEBEBEBEF0F0F0F0F0F0E2E2E2E2E2E20FE2E2E2E2F0E2E2E2E2E2E2E2E2E2E2E2E2E2E2E2E2E2E2E2E2E2E2E2E2E2E22D2DE22D2D2D2D2D2DC32D2D2D2D2DE2F0E2E2E2E2E22D2DE2E2E2E2E2E2E2E2E2E2E2E2E2E2E2E2E2E2E2E2E2E2E2E2
310
E2E2E2E2E2F0E2F0F0E2E2E2E2BEBEE22D2D28E2E2E2E2E2E2E2E2E228E22DF5E2E2E2F0F0F0E2F0E2F0E2F0E2E2E2E2E2E2E2E2E2E2E2E2E2E2E2E2E2E2E2E2E2E2E2E22DE2E2E2E2E2E2E2E2E2E2E2E2E2E2C3E2E2E2E2E2E2E2E22DE2E2E2E2E2E2E2E2E2E2E2E2E2E2E2E2E2E2E2E2E2E2E2E2E2E2E2E2E2E2E2E2E2E2
310
E2E2E2E2E2E2E2E2E2E2E2E2E2E20FE2E2E2E2E2E2BEE2E2E2E2E2E2E2C3E2E2E2E2E2E2BEE2E2E2E2E2F0E2E2E2E2E2E20FE2E2E2E2F0E2E2E2E2E2E2E2E2E2E2E2E2E2E2E2E2E2E2E2E2E2E2E2E2E2E22D2D2D2D2D2D2D2D2DC32D2D2D2D2D2D2D2D2D2D2D2D2D2DE2E2E2E2E2E2E2E2E2E2E2E2E2E2E2E2E2E2E2E2E2E2
310
E2E2E2E2E2E2E2F0E2E2F0F0F0F0F02D2D2D2D2DE2E2E2E2E2E2E2E2E2E2E2F5F5F0F0F0F0F0F0F0E2F0E2F0E2F0E2E2E2E2E2E2E2E2E2E2E2E2E2E2E2E2E2E2E2E2E2E2E2E22DE2E2E2E2E2E2E2E2E2E2E2E2E2E2C3E2E2E2E2E2E2E2E22DE2E2E2E2E2E2E2E2E2E2E2E2E2E2E2E2E2E2E2E2E2E2E2E2E2E2E2E2E2E2E2E2
310
E2E2E2E2E2E2E2E2E2E2E2E2E2E2E2E20FE2E2E2E2E2E2BEE2E2E2E2E2E2E2C3E2E2E2E2E2E2BEE2E2E2E2E2F0E2E2E2E2E2E20FE2E2E2E2F0E2E2E2E2E2E2E2E2E2E2E2E2E2E2E2E2E2E2E2E2E2E2E2E2E2E22D2DE2E2E22DE2E2E2C3E2E2E22DE2E22DE2E2E2E2E22D2DE2E2E2E2E2E2E2E2E2E2E2E2E2E2E2E2E2E2E2E2
310
E2E2E2E2E2E2E2E2E2F0E2E2F0E2E2E2E22DE2E22D2DE2E2E2E2E2E2E2E2E2E2E2F0F0E2F0F0E2F0E2E2E2F0E2F0E2F0E2E2E2E2E2E2E2E2E2E2E2E2E2E2E2E2E2E2E2E2E2E2E2E22DE2E2E2E2E2E2E2E2E2E2E2E2E2E2C3E2E2E2E2E2E2E2E22DE2E2E2E2E2E2E2E2E2E2E2E2E2E2E2E2E2E2E2E2E2E2E2E2E2E2E2E2E2E2
310
E2E2E2E2E2E2E2E2E2E2E2E2E2E2E2E2E2E20FE2E2E2E2E2E2BEE2E2E2E2E2E2E2C3E2E2E2E2E2E2BEE2E2E2E2E2F0E2E2E2E2E2E20FE2E2E2E2F0E2E2E2E2E2E2E2E2E2E2E2E2E2E2E2E2E2E2E2E2E2E2E2E2E2E22D2DE2E2E22D2D2D2DC32D2D2D2D2D2D2DE2E2E2E2E22D2DE2E2E2E2E2E2E2E2E2E2E2E2E2E2E2E2E2E2
310
E2E2E2E2E2E2E2E2E2E2E2F0E2E2F0E2E2E2E22DE2E22D2DE2E2E2E2E2E2E2E2E2E2E2E22D2DE2E2E2F0E2E2E2F0E2F0E2F0E2E2E2E2E2E2E2E2E2E2E2E2E2E2E2E2E2E2E2E2E2E2E2E22DE2E2E2E2E2E2E2E2E2E2E2E2E2E2C3E2E2E2E2E2E2E2E22DE2E2E2E2E2E2E2E2E2E2E2E2E2E2E2E2E2E2E2E2E2E2E2E2E2E2E2E2
310
E2E2E2E2E2E2E2E2E2E2E2E2E2E2E2E2E2E2E2E20FE2E2E2E2E2E2BEE2E2E2E2E2E2E2C3E2E2E2E2E2E2BEE2E2E2E2E2F0E2E2E2E2E2E20FE2E2E2E2F0E2E2E2E2E2E2E2E2E2E2E2E2E2E2E2E2E2E2E2E2E2E2E2E2E2E22D2DE2E22D2D2DE2E2C3E2E2E2E22DE22DE2E2E2E2E22D2DE2E2E2E2E2E2E2E2E2E2E2E2E2E2E2E2
310
E2E2E2E2E2E2F5F5F5F5F5F5F5F0E2E2F0E2E2E2E22DE2E22D2DE2E2E2E2E2E2E2E2E2E2E2E22D2DE2E2E2F0E2E2E2F0E2F0E2F0E2E2E2E2E2E2E2E2E2E2E2E2E2E2E2E2E2E2E2E2E2E2E2E22DE2E2E2E2E2E2E2E2E2E2E2E2E2E2C3E2E2E2E2E2E2E2E22DE2E2E2E2E2E2E2E2E2E2E2E2E2E2E2E2E2E2E2E2E2E2E2E2E2E2
310
E2E2E2E2E2E2E2E2E2E2E2E2E2E2E2E2E2E2E2E2E2E20FE2E2E2E2E2E2BEE2E2E2E2E2E2E2C3E2E2E2E2E2E2BEE2E2E2E2E2F0E2E2E2E2E2E20FE2E2E2E2F0E2E2E2E2E2E2E2E2E2E2E2E2E2E2E2E2E2E2E2E2E2E2E2E2E2E22D2DE22DE2E22DE2E2C3E2E2E2E22DE22DE2E2E2E2E22D2DE2E2E2E2E2E2E2E2E2E2E2E2E2E2
310
E2E2E2E2E2E2E2E2F5F5F5F5F5F5F5F0E2E2F0E2E2E2E22DE2E22D2DE2E2E2E2E2E2E2E2E2E2E2E22D2DE2E2E2F0E2E2E2F0E2F0E2F0E2E2E2E2E2E2E2E2E2E2E2E2E2E2E2E2E2E2E2E2E2E2E2E22DE2E2E2E2E2E2E2E2E2E2E2E2E2E2C3E2E2E2E2E2E2E2E22DE2E2E2E2E2E2E2E2E2E2E2E2E2E2E2E2E2E2E2E2E2E2E2E2
310
E2E2E2E2E2E2E2E2E2E2E2E2E2E2E2E2E2E2E2E2E2E2E2E20FE2E2E2E2E2E2BEE2E2E2E2E2E2E2C3E2E2E2E2E2E2BEE2E2E2E2E2F0E2E2E2E2E2E20FE2E2E2E2F0E2E2E2E2E2E2E2E2E2E2E2E2E2E2E2E2E2E2E2E2E2E2E2E2E2E22D2DE2E22D2D2DE2E2C3E2E2E2E22DE22DE2E2E2E2E22D2DE2E2E2E2E2E2E2E2E2E2E2E2
310
E2E2E2E2E2E2E2E2E2E2F5F5F5F5F5F5F5F0E2E2F0E2E2E2E22DE2E22D2D2D2D2D2D2D2D2D2D2D2D2D2D2D2DE2E2E2F0E2E2E2F0E2F0E2F0E2E2E2E2E2E2E2E2E2E2E2E2E2E2E2E2E2E2E2E2E2E2E2E22DE2E2E2E2E2E2E2E2E2E2E2E2E2E2C3E2E2E2E2E2E2E2E22DE2E2E2E2E2E2E2E2E2E2E2E2E2E2E2E2E2E2E2E2E2E2
310
E2E2E2E2E2E2E2E2E2E2E2E2E2E2E2E2E2E2E2E2E2E2E2E2E2E20FE2E2E2E2E2E2BEE2E2E2E2E2E2E2C3E2E2E2E2E2E2BEE2E2E2E2E2F0E2E2E2E2E2E20FE2E2E2E2F0E2E2E2E2E2E2E2E2E2E2E2E2E2E2E2E2E2E2E2E2E2E2E2E2E22D2D2D2D2D2D2D2DE2E2C3E2E2E2E22DE22DE2E2E2E2E22D2D2DE2E2E2E2E2E2E2E2E2
310
E2E2E2E2E2E2E2E2E2E2E2E2F5F5F5F5E2F5F5F0E2E2F0E2E2E2E22DE2E22D2D2D2D2D2D2D2D2D2D2D2D2D2D2D2D2D2DDCF0F0F0F0F0E2F0E2F0E2E2E2E2E2E2E2E2E2E2E2E2E2E2E2E2E2E2E2E2E2E2E2E22DE2E2DCDCDCDCE2DCDCDCDCE2DCDCDCDCE2DCDCDCDCE2E22DE2E2E2E2E2E2E2E2E2E2E2E2E2E2E2E2E2E2E2E2
310
E2E2E2E2E2E2E2E2E2E2E2E2E2E2E2E2E2E2E2E2E2E2E2E2E2E2E2E20FE2E2E2E2E2E2BEE2E2E2E2E2E2E2C3E2E2E2E2E2E2BEE2E2E2E2E2F0E2E2E2E2E2E20FE2E2E2E2F0E2E2E2E2E2E2E2E2E2E2E2E2E2E2E2E2E2E2E2E2E2E2E2E2E22D2D2D2DE2E2E22DE2E2C3E2E2E2E22DE22DE2E2E2E2E22D2D2DE2E2E2E2E2E2E2
310
E2E2E2E2E2E2E2E2E2E2E2E2E2E2F5F5F5F5F5F5F5F0E2E2F0E2E2E2E22DE2E22D2DE2E2E2E2E2E2E2E2E2E2E22D2DE2E2E2E2E2E2E2E2F0E2F0E2F0E2E2E2E2E2E2E2E2E2E2E2E2E2E2E2E2E2E2E2E2E2E2E2E22DE2E2E2E2E2E2E2E2E2E2E2E2E2E2C3E2E2E2E2E2E2E2E22DE2E2E2E2E2E2E2E2E2E2E2E2E2E2E2E2E2E2
310
E2E2E2E2E2E2E2E2E2E2E2E2E2E2E2E2E2E2E2E2E2E2E2E2E2E2E2E2E2E20FE2E2E2E2E2E2BEE2E2E2E2E2E2E2C3E2E2E2E2E2E2BEE2E2E2E2E2F0E2E2E2E2E2E20FE2E2E2E2F0E2E2E2E2E2E2E2E2E2E2E2E2E2E2E2E2E2E2E2E2E2E2E2E2E22D2D2D2DE2E2E22DE2E2C3E2E2E2E22DE22DE2E2E2E2E22D2D2DE2E2E2E2E2
310
E2E2E2E2E2E2E2E2E2E2E2E2E2E2E2E2F5F5F5F5F5F5F5F0E2F0F0E2E2E2E22DE2E22D2DE2E2E2E2E2E2E2E2E2E2E22D2DE2E2E2E2E2E2E2E2F0E2F0E2F0E2E2E2E2E2E2E2E2E2E2E2E2E2E2E2E2E2E2E2E2E2E2E2E22DE2E2E2E2E2E2E2E2E2E2E2E2E2E2C3E2E2E2E2E2E2E2E22DE2E2E2E2E2E2E2E2E2E2E2E2E2E2E2E2
310
E2E2E2E2E2E2E2E2E2E2E2E2E2E2E2E2E2E2E2E2E2E2E2E2E2E2E2E2E2E2E2E20FE2E2E2E2E2E2BEE2E2E2E2E2E2E2C3E2E2E2E2E2E2BEE2E2E2E2E2F0E2E2E2E2E2E20FE2E2E2E2F0E2E2E2E2E2E2E2E2E2E2E2E2E2E2E2E2E2E2E2E2E2E2E2E2E22D2D2D2DE2E2E22DE2E2C3E2E2E2E22DE22DE2E2E2E2E22D2D2DE2E2E2
310
E2E2E2E2E2E2E2E2E2E2E2E2E2E2E2E2E2E2F5F5F5F5F5F5F5F0E2F0F0E2E2E2E22DE2E22D2DE2E2E2E2E2E2E2E2E2E2E22D2D2DE2E2E2E2E2E2E2F0E2F0E2F0E2E2E2E2E2E2E2E2E2E2E2E2E2E2E2E2E2E2E2E2E2E2E2E22DE2E2E2E2E2E2E2E2E2E2E2E2E2E2C3E2E2E2E2E2E2E2E22DE2E2E2E2E2E2E2E2E2E2E2E2E2E2
310
E2E2E2E2E2E2E2E2E2E2E2E2E2E2E2E2E2E2E2E2E2E2E2E2E2E2E2E2E2E2E2E2E2E20FE2E2E2E2E2E2BEE2E2E2E2E2E2E2C3E2E2E2E2E2E2BEE2E2E2E2E2F0E2E2E2E2E2E20FE2E2E2E2F0E2E2E2E2E2E2E2E2E2E2E2E2E2E2E2E2E2E2E2E2E2E2E2E2E22D2D2D2DE2E2E22DE2E2C3E2E2E2E22DE22DE2E2E2E2E22D2D2DE2
310
E2E2E2E2E2E2E2E2E2E2E2E2E2E2E2E2E2E2E2E2F5F5F5F5F5F5E2F0E2F0F0E2E2E2E22DE2E22D2DE2E2E2E2E2E2E2E2E2E2E22D2D2DE2E2E2E2E2E2E2F0E2F0E2F0E2E2E2E2E2E2E2E2E2E2E2E2E2E2E2E2E2E2E2E2E2E2E2E22DE2E2E2E2E2E2E2E2E2E2E2E2E2E2C3E2E2E2E2E2E2E2E22DE2E2E2E2E2E2E2E2E2E2E2E2
310
E2E2E2E2E2E2E2E2E2E2E2E2E2E2E2E2E2E2E2E2E2E2E2E2E2E2E2E2E2E2E2E2E2E2E2E20FE2E2E2E2E2E2BEE2E2E2E2E2E2E2C3E2E2E2E2E2E2BEE2E2E2E2E2F0E2E2E2E2E2E20FE2E2E2E2F0E2E2E2E2E2E2E2E2E2E2E2E2E2E2E2E2E2E2E2E2E2E2E2E2E22D2D2D2DE2E2E22DE2E2C3E2E2E2E22DE22DE2E2E2E2E22D2D
310
2DE2E2E2E2E2E2E2E2E2E2E2E2E2E2E2E2E2E2E2E2E2F5F5F5F5F5F5F5F0E2E2F0E2E2E2E22DE2E22D2DE2E2E2E2E2E2E2E2E2E2E22D2D2DE2E2E2E2E2E2E2F0F0F0E2F0E2E2E2E2E2E2E2E2E2E2E2E2E2E2E2E2E2E2E2E2E2E2E2E22DE2E2E2E2E2E2E2E2E2E2E2E2E2E2C3E2E2E2E2E2E2E2E22DE2E2E2E2E2E2E2E2E2E2
310
E2E2E2E2E2E2E2E2E2E2E2E2E2E2E2E2E2E2E2E2E2E2E2E2E2E2E2E2E2E2E2E2E2E2E2E2E2E20FE2E2E2E2E2E2BEE2E2E2E2E2E2E2C3E2E2E2E2E2E2BEE2E2E2E2E2F0E2E2E2E2E2E20FE2E2E2E2F0E2E2E2E2E2E2E2E2E2E2E2E2E2E2E2E2E2E2E2E2E2E2E2E2E22D2D2D2DE2E2E22DE2E2C32D2D2D2D2DE22DE2E2E2E2E2
310
2D2D2DE2E2E2E2E2E2E2E2E2E2E2E2E2E2E2E2E2E2E2E2E2F5F5F5F5F5F5F5F0E2E2F0E2E2E22D2DE2E22D2DE2E2E2E2E2E2E2E2E2E2E22D2D2DE2E2E2E2E2E2E2F0F0F0F0F0E2E2E2E2E2E2E2E2E2E2E2E2E2E2E2E2E2E2E2E2E2E2E2E22DE2E2E2E2E2E2E2E2E2E2E2E2E2E2C3E2E2E2E2E2E2E2E22DE2E2E2E2E2E2E2E2
310
E2E2E2E2E2E2E2E2E2E2E2E2E2E2E2E2E2E2E2E2E2E2E2E2E2E2E2E2E2E2E2E2E2E2E2E2E2E2E2E20FE2E2E2E2E2E2BEE2E2E2E2E2E2E2C3E2E2E2E2E2E2BEE2E2E2E2E2F0E2E2E2E2E2E20FE2E2E2F0F0E2E2E2E2E2E2E2E2E2E2E2E2E2E2E2E2E2E2E2E2E2E2E2E2E22D2D2D2DE2E2E22DE2E2C32D2DE22D2DE22DE2E2E2
310
E2E22D2D2DE2E2E2E2E2E2E2E2E2E2E2E2E2E2E2E2E2E2E2E2E2F5F5F5F5F5F5F5F0E2E2F0E2E2E2F52DE2E22D2DE2E2E2E2E2E2E2E2E2E2E22D2D2DE2E2E2E2E2E2E2F0E2F0F0F0E2E2E2E2E2E2E2E2E2E2E2E2E2E2E2E2E2E2E2E2E2E2E2E22DE2E2E2E2E2E2E2E2E2E2E2E2E2E2C3E2E2E2E2E2E2E2E22DE2E2E2E2E2E2
310
E2E2E2E2E2E2E2E2E2E2E2E2E2E2E2E2E2E2E2E2E2E2E2E2E2E2E2E2E2E2E2E2E2E2E2E2E2E2E2E2E2E20FE2E2E2E2E2E2BEE2E2E2E2E2E2E2C3E2E2E2E2E2E2BEE2E2E2E2E2F0E2E2E2E2E2E20FE2E2E2F0F0E2E2E2E2E2E2E2E2E2E2E2E2E2E2E2E2E2E2E2E2E2E2E2E2E22D2D2D2DE2E2E22DE2E2C32D2D2D2D2DE22DE2
310
E2E2E2E22D2D2DE2E2E2E2E2E2E2E2E2E2E2E2E2E2E2E2E2E2E2E2E2F5F5F5F5F5F5F0F0E2E2F0E2E2E2F52DE2E22D2DE2E2E2E2E2E2E2E2E2E2E22D2D2DE2E2E2E2E2E2E2F0E2F0E2F0E2E2E2E2E2E2E2E2E2E2E2E2E2E2E2E2E2E2E2E2E2E2E2E22DE2E2E2E2E2E2E2E2E2E2E2E2E2E2C3E2E2E2E2E2E2E2E22DE2E2E2E2
310
E2E2E2E2E2E2E2E2E2E2E2E2E2E2E2E2E2E2E2E2E2E2E2E2E2E2E2E2E2E2E2E2E2E2E2E2E2E2E2E2E2E2E2E20FE2E2E2E2E2E2BEE2E2E2E2E2E2E2C3E2E2E2E2E2E2BEE2E2E2E2E2F0E2E2E2E2E2E20FE2E2E2F0F0E2E2E2E2E2E2E2E2E2E2E2E2E2E2E2E2E2E2E2E2E2E2E2E2E22D2D2D2DE2E2E22DE2E2C32D2D2D2D2DE2
310
2DE2E2E2E2E22D2D2DE2E2E2E2E2E2E2E2E2E2E2E2E2E2E2E2E2E2E2E2E2F5F5E2E2F5F5F0F0E2E2F0E2E2E2F52DE2E22D2DE2E2E2E2E2E2E2E2E2E2E22D2DE2E2E2E2E2E2E2E2F0E2F0E2F0E2E2E2E2E2E2E2E2E2E2E2E2E2E2E2E2E2E2E2E2E2E2E2E22DE2E2E2E2E2E2E2E2E2E2E2E2E2E2C3E2E2E2E2E2E2E2E22DE2E2
310
E2E2E2E2E2E2E2E2E2E2E2E2E2E2E2E2E2E2E2E2E2E2E2E2E2E2E2E2E2E2E2E2E2E2E2E2E2E2E2E2E2E2E2E2E2E20FE2E2E2E2E2E2BEE2E2E2E2E2E2E2C3E2E2E2E2E2E2BEE2E2E2E2E2F0E2E2E2E2E2E20FE2E2E2E2F0E2E2E2E2E2E2E2E2E2E2E2E2E2E2E2E2E2E2E2E2E2E2E2E2E22D2D2D2DE2E2E22DE2E2C32D2D2D2D
310
2DE22DE2E2E2E2E22D2D2DE2E2E2E2E2E2E2E2E2E2E2E2E2E2E2E2E2E2E2E2E2F5F5E2E2F5F5F5F0E2E2F0E2E2E2F52DE2E22D2DE2E2E2E2E2E2E2E2E2E2E22DDCDCDCDCDCDCF0F0F0F0E2F0E2F0E2E2E2E2E2E2E2E2E2E2E2E2E2E2E2E2E2E2E2E2E2E2E2E22DE2E2DCDCDCDCE2DCDCDCDCE2DCDCDCDCE2DCDCDCDCE2E22D
310
E2E2E2E2E2E2E2E2E2E2E2E2E2E2E2E2E2E2E2E2E2E2E2E2E2E2E2E2E2E2E2E2E2E2E2E2E2E2E2E2E2E2E2E2E2E2E2E20FE2E2E2E2E2E2BEE2E2E2E2E2E2E2C3E2E2E2E2E2E2BEE2E2E2E2E2F0E2E2E2E2E2E20FE2E2E2E2F0E2E2E2E2E2E2E2E2E2E2E2E2E2E2E2E2E2E2E2E2E2E2E2E2E22D2D2D2DE2E2E22DE2E2C3E2E2
310
E2E22DE22DE2E2E2E2E22D2D2DE2E2E2E2E2E2E2E2E2E2E2E2E2E2E2E2E2E2E2E2E2F5F5E2E2F5F5F5F0E2E2F0E2E2F5E22DE2E22D2DE2E2E2E2E2E2E2E2E2E2E22DDCDCDCDCDCDCF0F0F0F0E2F0E2F0E2E2E2E2E2E2E2E2E2E2E2E2E2E2E2E2E2E2E2E2E2E2E2E22DE2E2DCDCDCDCE2DCDCDCDCE2DCDCDCDCE2DCDCDCDCE2
310
E22DE2E2E2E2E2E2E2E2E2E2E2E2E2E2E2E2E2E2E2E2E2E2E2E2E2E2E2E2E2E2E2E2E2E2E2E2E2E2E2E2E2E2E2E2E2E2E2E20FE2E2E2E2E2E2BEE2E2E2E2E2E2E2C3E2E2E2E2E2E2BEE2E2E2E2E2F0E2E2E2E2E2E20FE2E2E2E2F0E2E2E2E2E2E2E2E2E2E2E2E2E2E2E2E2E2E2E2E2E2E2E2E2E22D2D2D2D2D2D2D2DE2E2C3
310
E2E2E2E22DE22DE2E2E2E2E22D2D2DE2E2E2E2E2E2E2E2E2E2E2E2E2E2E2E2E2E2E2E2E2F5F5E2E2F5F5F5F0E2E2F0E2E2F5E22DE2E22D2DE2E2E2E2E2E2E2E2E2E2E22D2D2DE2E2E2E2E2F0F0E2E2F0E2F0E2E2E2E2E2E2E2E2E2E2E2E2E2E2E2E2E2E2E2E2E2E2E2E22DE2E2E2E2E2E2E2E2E2E2E2E2E2E2C3E2E2E2E2E2
310
E2E2E22DE2E2E2E2E2E2E2E2E2E2E2E2E2E2E2E2E2E2E2E2E2E2E2E2E2E2E2E2E2E2E2E2E2E2E2E2E2E2E2E2E2E2E2E2E2E2E2E20FE2E2E2E2E2E2BEE2E2E2E2E2E2E2C3E2E2E2E2E2E2BEE2E2E2E2E2F0E2E2E2E2E2E20FE2E2E2E2F0E2E2E2E2E2E2E2E2E2E2E2E2E2E2E2E2E2E2E2E2E2E2E2E2E22D2D2D2D2D2D2D2D2D
310
2DC32D2D2D2D2D2D2DE2E2E2E2E22D2D2DE2E2E2E2E2E2E2E2E2E2E2E2E2E2E2E2E2E2E2E2E2F5F5E2E2F5F5F5F0E2E2F0E2E2F52DE2E2E22D2DE2E2E2E2E2E2E2E2E2E22DE22D2DE2E2E2E2E2E2E2E2E2F0E2F0E2E2E2E2E2E2E2E2E2E2E2E2E2E2E2E2E2E2E2E2E2E2E2E22DE2E2E2E2E2E2E2E2E2E2E2E2E2E2C3E2E2E2
310
E2E2E2E2E22DE2E2E2E2E2E2E2E2E2E2E2E2E2E2E2E2E2E2E2E2E2E2E2E2E2E2E2E2E2E2E2E2E2E2E2E2E2E2E2E2E2E2E2E2E2E2E2E20FE2E2E2E2E2E2BEBEBEBEBEBEBEBEBEBEBEBEBEBEBEBEF0F0F0F0F0F0E2E2E2E2E2E20FE2E2E2E2F0E2E2E2E2E2E2E2E2E2E2E2E2E2E2E2E2E2E2E2E2E2E2E2E2E22D2D2D2D2D2D2D
310
2D2D2DC32D2D2D2D2D2D2DE2E2E2E2E22D2D2DE2E2E2E2E2E2E2E2E2E2E2E2E2E2E2E2E2E2E2E2E2E2E2E2E2E2E2E2F0E2E2F0F0F0F52D2D2D2D2D2DE2E2E2E2E2E2E2E2E22DE2E22D2DE2E2E2E2E2E2E2E2E2F0E2F0E2E2E2E2E2E2E2E2E2E2E2E2E2E2E2E2E2E2E2E2E2E2E2E22DE2E2E2E2E2E2E2E2E2E2E2E2E2E2C3E2
310
E2E2E2E2E2E2E22DE2E2E2E2E2E2E2E2E2E2E2E2E2E2E2E2E2E2E2E2E2E2E2E2E2E2E2E2E2E2E2E2E2E2E2E2E2E2E2E2E2E2E2E2E2E2E2E20FE2E2E2E2E2E2E2E2E2E2E2E2E2E2C3E2E2E2E2E2E2E2E2E2E2E2E2E2E2E2E2E2E2E20FE2E2E2E2F0E2E2E2E2E2E2E2E2E2E2E2E2E2E2E2E2E2E2E2E2E2E2E2E2E22D2D2DE2E2
310
E2E2E2E2E2C3E2E2E2E2E2E2E22D2D2D2D2D2D2D2DE2E2E2E2E2E2E2E2E2E2E2E2E2E2E2E2E2E2E2E2E2E2E2E2E2F5F5F5F0E2E2E2E2E2F5E2BEBEE22D2DE2E2E2E2E2E2E2E22D2D2D2D2D2DE2E2E2E2E2E2E2E2E2F0E2F0E2E2E2E2E2E2E2E2E2E2E2E2E2E2E2E2E2E2E2E2E2E2E2E22DE2E2E2E2E2E2E2E2E2E2E2E2E2E2
310
C3E2E2E2E2E2E2E2E22DE2E2E2E2E2E2E2E2E2E2E2E2E2E2E2E2E2E2E2E2E2E2E2E2E2E2E2E2E2E2E2E2E2E2E2E2E2E2E2E2E2E2E2E2E2E2E2E20FE2E2E2E2E2E2E2E2E2E2E2E2E2E2C3E2E2E2E2E2E2E2E2E2E2E2E2E2E2E2E2E2E2E20FE2E2E2E2F0E2E2E2E2E2E2E2E2E2E2E2E2E2E2E2E2E2E2E2E2E2E2E2E2E22DE22D
310
E2E2E2E2E2E2E2C3E2E2E2E2E2E2E22DE2E2E2E2E22D2DE2E2E2E2E2E2E2E2E2E2E2E2E2E2E2E2E2E2E2E2E2E2E2E2E2E2F5F5F0E2E2E2E2F5E2E2BEBEE22D2DE2E2E2E2E2E2E2E22DE2E2E2E2E2E2E2E2E2E2E2E2E2E2F0E2F0E2E2E2E2E2E2E2E2E2E2E2E2E2E2E2E2E2E2E2E2E2E2E2E22DE2E2E2E2E2E2E2E2E2E2E2E2
310
E2E2C3E2E2E2E2E2E2E2E22DE2E2E2E2E2E2E2E2E2E2E2E2E2E2E2E2E2E2E2E2E2E2E2E2E2E2E2E2E2E2E2E2E2E2E2E2E2E2E2E2E2E2E2E2E2E2E2E20FE2E2E2E2E2E2E2E2E2E2E2E2E2E2C3E2E2E2E2E2E2E2E2E2E2E2E2E2E2E2E2E2E2E20FE2E2E2E2F0E2E2E2E2E2E2E2E2E2E2E2E2E2E2E2E2E2E2E2E2E2E2E2E2E22D
310
2D2D2D2D2D2D2D2D2DC32D2D2D2D2D2D2D2D2D2D2D2D2D2D2DE2E2E2E2E2E2E2E2E2E2E2E2E2E2E2E2E2E2E2E2E2E2E2E2E2F5F5F5F0E2E2E2E2F5E2E2BEBEE22D2DE2E2E2E2E2E2E2E22DE2E2E2E2E2E2E2E2E2E2E2E2E2E2F0E2F0E2E2E2E2E2E2E2E2E2E2E2E2E2E2E2E2E2E2E2E2E2E2E2E22DE2E2E2E2E2E2E2E2E2E2
310
E2E2E2E2C3E2E2E2E2E2E2E2E22DE2E2E2E2E2E2E2E2E2E2E2E2E2E2E2E2E2E2E2E2E2E2E2E2E2E2E2E2E2E2E2E2E2E2E2E2E2E2E2E2E2E2E2E2E2E2E2E20FE2E2E2E2E2E2E2E2E2E2E2E2E2E2C3E2E2E2E2E2E2E2E2E2E2E2E2E2E2E2E2E2E2E20FE2E2E2E2F0E2E2E2E2E2E2E2E2E2E2E2E2E2E2E2E2E2E2E2E2E2E2E2E2
310
E22DE2E2E22D2D2D2D2D2DC32DE2E2E2E2E2E2E2E22D2D2D2D2D2DE2E2E2E2E2E2E2E2E2E2E2E2E2E2E2E2E2E2E2E2E2E2E2E2E2E2F5F5F0E2E2E2E2F5E2E2BEDCDCE22DE2E2E2E2E2E2E2F02DF0F0F0F0F0F0F0F0F0F0E2E2E2E2F0E2F0E2E2E2E2E2E2E2E2E2E2E2E2E2E2E2E2E2E2E2E2E2E2E2E22DE2E2E2E2E2E2E2E2
310
E2E2E2E2E2E2C3E2E2E2E2E2E2E2E22DE2E2E2E2E2E2E2E2E2E2E2E2E2E2E2E2E2E2E2E2E2E2E2E2E2E2E2E2E2E2E2E2E2E2E2E2E2E2E2E2E2E2E2E2E2E2E2E20FE2E2E2E2E2E2E2E2E2E2E2E2E2E2C3E2E2E2E2E2E2E2E2E2E2E2E2E2E2E2E2E2E2E20FE2E2E2E2F0E2E2E2E2E2E2E2E2E2E2E2E2E2E2E2E2E2E2E2E2E2E2
310
E2E2E22D2D2D2D2D2D2D2D2D2DC32D2D2D2D2D2D2D2D2D2D2D2D2D2D2DE2E2E2E2E2E2E2E2E2E2E2E2E2E2E2E2E2E2E2E2E2E2E2E2E2F5F5F5F0E2E2E2E2F5E2E2BEDCE2E22DE2E2E2E2E2E2E2F0F0E2E2E2E2E2E2E2E2E2F0E2E2E2E2F0E2F0E2E2E2E2E2E2E2E2E2E2E2E2E2E2E2E2E2E2E2E2E2E2E2E22DE2E2E2E2E2E2
310
E2E2E2E2E2E2E2E2C3E2E2E2E2E2E2E2E22DE2E2E2E2E2E2E2E2E2E2E2E2E2E2E2E2E2E2E2E2E2E2E2E2E2E2E2E2E2E2E2E2E2E2E2E2E2E2E2E2E2E2E2E2E2E2E2E20FE2E2E2E2E2E2E2E2E2E2E2E2E2E2C3E2E2E2E2E2E2E2E2E2E2E2E2E2E2E2E2E2E2E20FE2E2E2E2F0E2E2E2E2E2E2E2E2E2E2E2E2E2E2E2E2E2E2E2E2
310
E2E2E2E2E2DCE2E2E2E2E2E2E2E2E2C3E2E2E2E2E2E2E2E2E2E2E2E2E22DDCE2E2E2E2E2E2E2E2E2E2E2E2E2E2E2E2E2E2E2E2E2E2E2E2E2E2E2E2F0E2E2E2E2F5E2E2BEDCE2E22D2D2D2D2D2D2D2D2D2DF0F0F0F0F0F0F0F0F0F0F0F0F0F0F0E2F0E2E2E2E2E2E2E2E2E2E2E2E2E2E2E2E2E2E2E2E2E2E2E2E22D2D2D2D2D
310
2D2D2D2D2D2D2D2D2D2D2D2D2D2D2D2D2D2D2D2DE2E2E2E2E2E2E2E2E2E2E2E2E2E2E2E2E2E2E2E2E2E2E2E2E2E2E2E2E2E2E2E2E2E2E2E2E2E2E2E2E2E2E2E2E2E2E2E20FE2E2E2E2E2E2E2E2E2E2E2E2E2E2C3E2E2E2E2E2E2E2E2E2E2E2E2E2E2E2E2E2E2E20FE2E2E2E2F0E2E2E2E2E2E2E2E2E2E2E2E2E2E2E2E2E2E2
310
E2E2E2E2E2E2E2DCDCDCDCDCDCDCDCDCDCC3DCDCDCDCDCDCDCDCDCDCDCDCDCDCDCE2E2E2E2E2E2E2E2E2E2E2E2E2E2E2E2E2E2E2E2E2E2E2E2E2E2E2E2F0E2E2E2E2F5E2E2F0DCDCDCDCDCDCDCDCF0F0F0F0F0F0F0F0F0F0F0F0F0F0F0F0F5F0F0F0F0F0E2E2E2E2E2E2E2E2E2E2E2E2E2E2E2E2E2E2E2E2E2E2E2E2E2E2E2
310
E2E2E2E2E2E2E2E2E2E2E2E2C3E2E2E2E2E2E2E2E2E2E2E2E2E2E2E2E2E2E2E2E2E2E2E2E2E2E2E2E2E2E2E2E2E2E2E2E2E2E2E2E2E2E2E2E2E2E2E2E2E2E2E2E2E2E2E2E2E20FE2E2E2E2E2E2E2E2E2E2E2E2E2E2C3E2E2E2E2E2E2E2E2E2E2E2E2E2E2E2E2E2E2E20FE2E2E2E2F0E2E2E2E2E2E2E2E2E2E2E2E2E2E2E2E2
310
E2E2E2E2E2E2E2E2E2E2E2E2E2E2E2E2E2E2E2C3E2E2E2E2E2E2E2E2E2E2E2E2E2E2E2E2E2E2E2E2E2E2E2E2E2E2E2E2E2E2E2E2E2E2E2E2E2E2E2E2E2E2E2F0E2E2E2F5E2E2E2F0E2E2E2E2E2E2E2E2E2E2E2F0E2E2F0E2E2E2E2E2E2E2E2E2F5E2E2E2E2E2E2E2E2E2E2E2E2E2E2E2E2E2E2E2E2E2E2E2E2E2E2E2E2E2E2
310
E2E2E2E2E2E2E2E2E2E2E2E2E2E2C3E2E2E2E2E2E2E2E2E2E2E2E2E2E2E2E2E2E2E2E2E2E2E2E2E2E2E2E2E2E2E2E2E2E2E2E2E2E2E2E2E2E2E2E2E2E2E2E2E2E2E2E2E2E2E2E2E20FE2E2E2E2E2E2E2E2E2E2E2E2E2E2C3E2E2E2E2E2E2E2E2E2E2E2E2E2E2E2E2E2E2E20FE2E2E2E2F0E2E2E2E2E2E2E2E2E2E2E2E2E2E2
310
E2E2E2E2E2E2E2E2E2E2E2E2E2E2E2E2E2E2E2E2E2C3E2E2E2E2E2E2E2E2E2E2E2E2E2E2E2E2E2E2E2E2E2E2E2E2E2E2E2E2E2E2E2E2E2E2E2E2E2E2E2E2E2E2E2F0E2E2E2F5E2E2E2F0E2E2E2E2E2E2E2E2E2E2E2F0E2E2F0E2E2E2E2E2E2E2E2E2F5E2E2E2E2E2E2E2E2E2E2E2E2E2E2E2E2E2E2E2E2E2E2E2E2E2E2E2E2
310
E2E2E2E2E2F0E2E2E2E2E2E2E2E2E2E2C3E2E2E2E2E2E2E2E2E2E2E2E2E2E2E2E2E2E2E2E2E2E2E2E2E2E2E2E2E2E2E2E2E2E2E2E2E2E2E2E2E2E2E2E2E2E2E2E2E2E2E2E2E2E2E2E2E20FE2E2E2E2E2E2E2E2E2E2E2E2E2E2C3E2E2E2E2E2E2E2E2E2E2E2E2E2E2E2E2E2E2E20FE2E2E2E2F0E2E2E2E2E2E2E2E2E2E2E2E2
310
E2E2E2E2E2E2E2E2E2E2E2E2E2E2E2E2E2E2E2E2E2E2E2C3E2E2E2E2E2E2E2E2E2E2E2E2E2E2E2E2E2E2E2E2E2E2E2E2E2E2E2E2E2E2E2E2E2E2E2E2E2E2E2E2E2E2E2F0E2E2E2F5E2E2E2F0E2E2E2E2E2E2E2E2E2E2E2F0E2E2E2F0E2E2E2E2E2E2E2E2E2F5E2E2E2E2E2E2E2E2E2E2E2E2E2E2E2E2E2E2E2E2E2E2E2E2E2
310
E2E2E2E2E2E2E2F0E2E2E2E2F0E2E2E2E2E2F0E2E2E2E2F0E2E2E2E2E2E2E2E2E2E2E2E2E2E2E2E2E2E2E2E2E2E2E2E2E2E2E2E2E2E2E2E2E2E2E2E2E2E2E2E2E2E2E2E2E2E2E2E2E2E2E2E20F0F0F0F0F0F0FF50F0F0F0F0F0F0F0F0F0F0F0F0F0F0F0F0F0F0F0F0F0F0F0F0F0F0F0FF0F0F0F0F0E2E2E2E2E2E2E2E2E2E2
310
E2E2E2E2E2E2E2E2E2E2E2E2E2E20F0F0F0F0F0F0F0F0F0F0FC30F0F0F0F0F0F0F0F0F0F0F0F0F0F0F0FE2E2E2E2E2E2E2E2E2E2E2E2E2E2E2E2E2E2E2E2E2E2E2E2E2E2E2F0F0F0F0F5F0F0F0F0F0F0F0F0F00F0F0F0F0F0F0F0F0F0FF0E2E2E2E2E2E2E2E2E2F5E2E2E2E2E2E2E2E2E2E2E2E2E2E2E2E2E2E2E2E2E2E2E2
310
E2E2E2E2E2E2E2E2E2F0E2E2E2E2F0E2E2E2E2E2F0E2E2E2E2F0E2E2E2E2E2E2E2E2E2E2E2E2E2E2E2E2E2E2E2E2E2E2E2E2E2E2E2E2E2E2E2E2E2E2E2E2E2E2E2E2E2E2E2E2E2E2E2E2E2E2E2E2E2E2E2E2E2E2E2F5E2E2E2E2E2E2E2C3E2E2E2E2E2E2E2E2E2E2E2E2E2E2E2E2E2E2E2E2E2E2E2E2E2E2E2E2E2E2E2E2E2
310
E2E2E2E2E2E2E2E2E2E2E2E2E2E2E2E20F0FF50F0F0F0F0F0F0F0FC30F0F0F0F0F0F0F0F0F0F0F0F0F0F0F0FE2E2E2E2E2E2E2E2E2E2E2E2E2E2E2E2E2E2E2E2E2E2E2E2E2E2E2E2E2E2E2F5E2E2E2F0E2E2E2E2E20F0F0F0F0F0F0F0F0F0F0FF0E2E2E2E2E2E2E2E2E2F5E2E2E2E2E2E2E2E2E2E2E2E2E2E2E2E2E2E2E2E2
310
E2E2E2E2E2E2E2E2E2E2E2F0F0F0F0F0F0F0F0F0F0F0F0F0F0F0F0F0E2E2E2E2E2E2E2E2E2E2E2E2E2E2E2E2E2E2E2E2E2E2E2E2E2E2E2E2E2E2E2E2E2E2E2E2E2E2E2E2E2E2E2E2E2E2E2E2E2E2E2E2E2E2E2E2E2E2F5E2E2E2E2E2E2E2E2C3E2E2E2E2E2E2E2E2E2E2E2E2E2E2E2E2E2E2E2E2E2E2E2E2E2E2E2E2E2E2E2
310
E2E2E2E2E2E2E2E2E2E2E2E2E2E2E2E2E2E2F0F5E2E2E2E2E2E2E2E2E2C3E2E2E2E2E2E2E2E2E2E2E2E2E2E2E2F0E2E2E2E2E2E2E2E2E2E2E2E2E2E2E2E2E2E2E2E2E2E2E2E2E2E2E2E2E2E2F5E2E2E2E2F0E2E2E2E2E2E2E2E2E2E2E2F0E2E2E2E2F0E2E2E2E2E2E2E2E2E2F5F5F5F5F5F5F5F5F5F5F5F5F5F5F5F5F5F5F5
310
F5F5E2E2E2E2E2E2E2E2E2E2E2E2E2E2F0E2E2E2E2F0F0F5F5E2F0F0E2E2E2E2E2E2E2E2E2E2E2E2E2E2E2E2E2E2E2E2E2E2E2E2E2E2E2E2E2E2E2E2E2E2E2E2E2E2E2E2E2E2E2E2E2E2E2E2E2E2E2E2E2E2E2E2E2E2E2E2F5E2E2E2E2E2E2E2E2C3E2E2E2E2E2E2E2E2E2E2E2E2E2E2E2E2E2E2E2E2E2E2E2E2E2E2E2E2E2
310
E2E2E2E2E2E2E2E2E2E2E2E2E2E2E2E2E2E2E2F5F5F0F0F0F0F0F0F0F0F0F0C3F0F0F0F0F0F0F0F0F0F0F0F0F0F0F0F0E2E2E2E2E2E2E2E2E2E2E2E2E2E2E2E2E2E2E2E2E2E2E2E2E2E2E2E2E2E2F5E2E2E2E2F0F0F0F0F0F0F0F0F0F0F0F0F0E2E2E2E2E2F0E2E2E2E2E2E2E2E2F5F5F5F5F5F5F5F5F5F5F5F5F5F5E2F5F5
310
F5F5F5F5E2E2E2E2E2E2E2E2E2E2E2E2E2E2E2E2E2E2E2E2E2F5F5E2E2E2E2E2E2E2E2E2E2E2E2E2E2E2E2E2E2E2E2E2E2E2E2E2E2E2E2E2E2E2E2E2E2E2E2E2E2E2E2E2E2E2E2E2E2E2E2E2E2E2E2E2E2E2E2E2E2E2E2E2E2F5E2E2E2E2E2E2E2E2E2C3E2E2E2E2E2E2E2E2E2E2E2E2E2E2E2E2E2E2E2E2E2E2E2E2E2E2E2
310
E2E2E2E2E2E2E2E2E2E2E2E2E2E2E2E2E2E2E2E2F5E2E2E2E2E2E2F0F0E2E2E2E2C3E2E2E2E2E2E2E2E2E2E2E2E2E2E2E2E2E2E2E2E2E2E2E2E2E2E2E2E2E2E2E2E2E2E2E2E2E2E2E2E2E2E2E2E2E2E2F5E2E2E2E2E2E2E2E2E2E2E2E2E2E2E2E2E2E2E2E2E2E2F0E2E2E2E2E2E2E2E2E2E2E2E2E2E2E2E2E2E2E2E2E2E2E2
310
E2E2E2E2E2E2E2E2E2E2E2E2E2E2E2E2E2E2E2E2E2E2E2E2E2E2E2E2F5E2E2E2E2E2E2E2E2E2E2E2E2E2E2E2E2E2E2E2E2E2E2E2E2E2E2E2E2E2E2E2E2E2E2E2E2E2E2E2E2E2E2E2E2E2E2E2E2E2E2E2E2E2E2E2E2E2E2E2E2E2E2F5E2E2E2E2E2E2E2E2E2C3E2E2E2E2E2E2E2E2E2E2E2E2E2E2E2E2E2E2E2E2E2E2E2E2E2
310
E2E2E2E2E2E2E2E2E2E2E2E2E2E2E2E2E2E2E2E2E2F5E2E2E2E2E2E2E2E2E2E2E2E2E2C3E2E2E2E2E2E2E2E2E2E2E2E2E2E2E2E2E2E2E2E2E2E2E2E2E2E2E2E2E2E2E2E2E2E2E2E2E2E2E2E2E2E2E2E2E2E2F5E2E2E2E2E2E2E2E2E2E2E2E2E2E2E2E2E2E2E2E2E2E2E2F0F0F0F0F0F0F0F0F0F0F0E2E2E2E2E2E2E2E2E2E2
310
E2E2E2E2E2E2E2E2E2E2E2E2E2E2E2E2E2E2E2E2E2E2E2E2E2E2E2E2E2E2E2E2E2E2E2E2E2E2E2E2E2E2E2E2E2E2E2E2E2E2E2E2E2E2E2E2E2E2E2E2E2E2E2E2E2E2E2E2E2E2E2E2E2E2E2E2E2E2E2E2E2E2E2E2E2E2E2E2E2E2E2E2F5E2E2E2E2E2E2E2E2E2E2C3E2E2E2E2E2E2E2E2F5E2E2E2F5E2E2E2E2E2E2E2E2E2E2
310
E2E2E2E2E2E2E2E2E2E2E2E2E2E2E2E2E2E2E2E2E2E2F5E2E2E2E2E2E2E2E2E2E2E2E2E2E2C3E2E2E2E2E2E2E2E2E2E2E2E2E2E2E2E2E2E2E2E2E2E2E2E2E2E2E2E2E2E2E2E2E2E2E2E2E2E2E2E2E2E2E2E2E2E2F5E2E2E2E2E2E2E2E2E2E2E2E2E2E2E2E2E2E2E2E2E2F5F5E2F5F0F0F0F0F0F5F5F5F5E2E2E2E2E2E2E2E2
310
E2E2E2E2E2E2E2E2E2E2E2E2E2E2E2E2E2E2E2E2E2E2E2E2E2E2E2E2E2E2E2E2E2E2E2E2E2E2E2E2E2E2E2E2E2E2E2E2E2E2E2E2E2E2E2E2E2E2E2E2E2E2E2E2E2E2E2E2E2E2E2E2E2E2E2E2E2E2E2E2E2E2E2E2E2E2E2E2E2E2E2E2E2E2F5F5F5F5F5F5F5F5F5F5F5F5F5F5F5F5F5F5F5F5F5F5F5F5F5F5E2E2E2E2E2E2E2
310
E2E2E2E2E2E2E2F5F5F5F5F5F5F5F5E2F5F5F5F5F5F5F5F5E2E2E2E2E2E2E2E2E2E2E2E2E2E2F5F5E2E2E2E2E2E2E2E2E2E2E2E2E2E2E2E2E2E2E2E2E2E2E2E2E2E2E2E2E2E2E2E2E2E2E2E2E2E2E2E2E2E2E2E2E2F5E2E2E2E2E2E2E2E2E2E2E2E2E2E2E2E2E2E2E2E2E2E2F5F5F5F5F5F5F5F5F5F5F5F5F5E2E2E2E2E2E2
310
E2E2E2E2E2E2E2E2E2E2E2E2E2E2E2E2E2E2E2E2E2E2E2E2E2E2E2E2E2E2E2E2E2E2E2E2E2E2E2E2E2E2E2E2E2E2E2E2E2E2E2E2E2E2E2E2E2E2E2E2E2E2E2E2E2E2E2E2E2E2E2E2E2E2E2E2E2E2E2E2E2E2E2E2E2E2E2E2E2E2E2E2E2E2E2E2F5F5F5F5F5F5F5F5F5F5F5F5F5F5F5F5F5F5F5F5F5F5F5F5F5E2E2E2E2E2E2
310
E2E2E2E2E2E2E2E2E2F5F5F5F5F5F5F5F5F5F5F5F5F5F5F5E2E2E2E2E2E2E2E2E2E2E2E2E2E2E2E2F5F5E2E2E2E2E2E2E2E2E2E2E2E2E2E2E2E2E2E2E2E2E2E2E2E2E2E2E2E2F5F5F5F5F5F5F5F5F5F5F5F5F5F5F5E2E2F5E2E2E2E2E2E2E2E2E2E2E2E2E2E2E2E2E2E2E2E2E2E2F5F5F5F5F5F5F5F5F5F5F5F5F5E2E2E2E2
310
E2E2E2E2E2E2E2E2E2E2E2E2E2E2E2E2E2E2E2E2E2E2E2E2E2E2E2E2E2E2E2E2E2E2E2E2E2E2E2E2E2E2E2E2E2E2E2E2E2E2E2E2E2E2E2E2E2E2E2E2E2E2E2E2E2E2E2E2E2E2E2E2E2E2E2E2E2E2E2E2E2E2E2E2E2E2E2E2E2E2E2E2E2E2E2E2E2E2E2E2E2E2E2E2E2E2E2E2E2E2E2E2E2E2E2E2E2E2E2E2E2E2E2E2E2E2E2
310
E2E2E2E2E2E2E2E2E2E2E2F5F5F5F5F5F5F5F5F5F5F5F5F5F5F5E2E2E2E2E2E2E2E2E2E2E2E2E2E2E2E2E2F5E2E2E2E2E2E2E2E2E2E2E2E2E2E2E2E2E2E2E2E2E2E2E2E2E2E2F5F5F5F5F5F5F5F5F5F5F5F5F5F5F5F5F5F5F5F5E2E2E2E2E2E2E2E2E2E2E2E2E2E2E2E2E2E2E2E2E2E2E2E2E2E2E2E2E2E2E2E2E2E2E2E2E2
310
E2E2E2E2E2E2E2E2E2E2E2E2E2E2E2E2E2E2E2E2E2E2E2E2E2E2E2E2E2E2E2E2E2E2E2E2E2E2E2E2E2E2E2E2E2E2E2E2E2E2E2E2E2E2E2E2E2E2E2E2E2E2E2E2E2E2E2E2E2E2E2E2E2E2E2E2E2E2E2E2E2E2E2E2E2E2E2E2E2E2E2E2E2E2E2E2E2E2E2E2E2E2E2E2E2E2E2E2E2E2E2E2E2E2E2E2E2E2E2E2E2E2E2E2E2E2E2
310
E2E2E2E2E2E2E2E2E2E2E2E2E2F5F5F5F5F5F5F5F5F5F5F5F5F5E2E2E2E2E2E2E2E2E2E2E2E2E2E2E2E2E2E2E2E2E2E2E2E2E2E2E2E2E2E2E2E2E2E2E2E2E2E2E2E2E2E2E2E2E2E2E2E2F5F5F5F5E2F5F5F5F5F5F5F5F5F5F5F5F5E2E2E2E2E2E2E2E2E2E2E2E2E2E2E2E2E2E2E2E2E2E2E2E2E2E2E2E2E2E2E2E2E2E2E2E2
310
E2E2E2E2E2E2E2E2E2E2E2E2E2E2E2E2E2E2E2E2E2E2E2E2E2E2E2E2E2E2E2E2E2E2E2E2E2E2E2E2E2E2E2E2E2E2E2E2E2E2E2E2E2E2E2E2E2E2E2E2E2E2E2E2E2E2E2E2E2E2E2E2E2E2E2E2E2E2E2E2E2E2E2E2E2E2E2E2E2E2E2E2E2E2E2E2E2E2E2E2E2E2E2E2E2E2E2E2E2E2E2E2E2E2E2E2E2E2E2E2E2E2E2E2E2E2E2
310
E2E2E2E2E2E2E2E2E2E2E2E2E2E2E2F5F5F5F5F5F5F5F5F5F5F5F5F5E2E2E2E2E2E2E2E2E2E2E2E2E2E2E2E2E2E2E2E2E2E2E2E2E2E2E2E2E2E2E2E2E2E2E2E2E2E2E2E2E2E2E2E2E2E2E2E2F5F5F5F5E2F5F5F5F5F5F5F5F5F5F5F5F5E2E2E2E2E2E2E2E2E2E2E2E2E2E2E2E2E2E2E2E2E2E2E2E2E2E2E2E2E2E2E2E2E2E2
310
E2E2E2E2E2E2E2E2E2E2E2E2E2E2E2E2E2E2E2E2E2E2E2E2E2E2E2E2E2E2E2E2E2E2E2E2E2E2E2E2E2E2E2E2E2E2E2E2E2E2E2E2E2E2E2E2E2E2E2E2E2E2E2E2E2E2E2E2E2E2E2E2E2E2E2E2E2E2E2E2E2E2E2E2E2E2E2E2E2E2E2E2E2E2E2E2E2E2E2E2E2E2E2E2E2E2E2E2E2E2E2E2E2E2E2E2E2E2E2E2E2E2E2E2E2E2E2
310
E2E2E2E2E2E2E2E2E2E2E2E2E2E2E2E2E2E2E2E2E2E2E2E2E2E2E2E2E2E2E2E2E2E2E2E2E2E2E2E2E2E2E2E2E2E2E2E2E2E2E2E2E2E2E2E2E2E2E2E2E2E2E2E2E2E2E2E2E2E2E2E2E2E2E2E2E2E2E2E2E2E2E2E2E2E2E2E2E2E2E2E2E2E2E2E2E2E2E2E2E2E2E2E2E2E2E2E2E2E2E2E2E2E2E2E2E2E2E2E2E2E2E2E2E2E2E2
310
E2E2E2E2E2E2E2E2E2E2E2E2E2E2E2E2E2E2E2E2E2E2E2E2E2E2E2E2E2E2E2E2E2E2E2E2E2E2E2E2E2E2E2E2E2E2E2E2E2E2E2E2E2E2E2E2E2E2E2E2E2E2E2E2E2E2E2E2E2E2E2E2E2E2E2E2E2E2E2E2E2E2E2E2E2E2E2E2E2E2E2E2E2E2E2E2E2E2E2E2E2E2E2E2E2E2E2E2E2E2E2E2E2E2E2E2E2E2E2E2E2E2E2E2E2E2E2
310
E2E2E2E2E2E2E2E2E2E2E2E2E2E2E2E2E2E2E2E2E2E2E2E2E2E2E2E2E2E2E2E2E2E2E2E2E2E2E2E2E2E2E2E2E2E2E2E2E2E2E2E2E2E2E2E2E2E2E2E2E2E2E2E2E2E2E2E2E2E2E2E2E2E2E2E2E2E2E2E2E2E2E2E2E2E2E2E2E2E2E2E2E2E2E2E2E2E2E2E2E2E2E2E2E2E2E2E2E2E2E2E2E2E2E2E2E2E2E2E2E2E2E2E2E2E2E2
310
E2E2E2E2E2E2E2E2E2E2E2E2E2E2E2E2E2E2E2E2E2E2E2E2E2E2E2E2E2E2E2E2E2E2E2E2E2E2E2E2E2E2E2E2E2E2E2E2E2E2E2E2E2E2E2E2E2E2E2E2E2E2E2E2E2E2E2E2E2E2E2E2E2E2E2E2E2E2E2E2E2E2E2E2E2E2E2E2E2E2E2E2E2E2E2E2E2E2E2E2E2E2E2E2E2E2E2E2E2E2E2E2E2E2E2E2E2E2E2E2E2E2E2E2E2E2E2
310
E2E2E2E2E2E2E2E2E2E2E2E2E2E2E2E2E2E2E2E2E2E2E2E2E2E2E2E2E2E2E2E2E2E2E2E2E2E2E2E2E2E2E2E2E2E2E2E2E2E2E2E2E2E2E2E2E2E2E2E2E2E2E2E2E2E2E2E2E2E2E2E2E2E2E2E2E2E2E2E2E2E2E2E2E2E2E2E2E2E2E2E2E2E2E2E2E2E2E2E2E2E2E2E2E2E2E2E2E2E2E2E2E2E2E2E2E2E2E2E2E2E2E2E2E2E2E2
310
E2E2E2E2E2E2E2E2E2E2E2E2E2E2E2E2E2E2E2E2E2E2E2E2E2E2E2E2E2E2E2E2E2E2E2E2E2E2E2E2E2E2E2E2E2E2E2E2E2E2E2E2E2E2E2E2E2E2E2E2E2E2E2E2E2E2E2E2E2E2E2E2E2E2E2E2E2E2E2E2E2E2E2E2E2E2E2E2E2E2E2E2E2E2E2E2E2E2E2E2E2E2E2E2E2E2E2E2E2E2E2E2E2E2E2E2E2E2E2E2E2E2E2E2E2E2E2
310
E2E2E2E2E2E2E2E2E2E2E2E2E2E2E2E2E2E2E2E2E2E2E2E2E2E2E2E2E2E2E2E2E2E2E2E2E2E2E2E2E2E2E2E2E2E2E2E2E2E2E2E2E2E2E2E2E2E2E2E2E2E2E2E2E2E2E2E2E2E2E2E2E2E2E2E2E2E2E2E2E2E2E2E2E2E2E2E2E2E2E2E2E2E2E2E2E2E2E2E2E2E2E2E2E2E2E2E2E2E2E2E2E2E2E2E2E2E2E2E2E2E2E2E2E2E2E2
310
E2E2E2E2E2E2E2E2E2E2E2E2E2E2E2E2E2E2E2E2E2E2E2E2E2E2E2E2E2E2E2E2E2E2E2E2E2E2E2E2E2E2E2E2E2E2E2E2E2E2E2E2E2E2E2E2E2E2E2E2E2E2E2E2E2E2E2E2E2E2E2E2E2E2E2E2E2E2E2E2E2E2E2E2E2E2E2E2E2E2E2E2E2E2E2E2E2E2E2E2E2E2E2E2E2E2E2E2E2E2E2E2E2E2E2E2E2E2E2E2E2E2E2E2E2E2E2
310
E2E2E2E2E2E2E2E2E2E2E2E2E2E2E2E2E2E2E2E2E2E2E2E2E2E2E2E2E2E2E2E2E2E2E2E2E2E2E2E2E2E2E2E2E2E2E2E2E2E2E2E2E2E2E2E2E2E2E2E2E2E2E2E2E2E2E2E2E2E2E2E2E2E2E2E2E2E2E2E2E2E2E2E2E2E2E2E2E2E2E2E2E2E2E2E2E2E2E2E2E2E2E2E2E2E2E2E2E2E2E2E2E2E2E2E2E2E2E2E2E2E2E2E2E2E2E2
310
E2E2E2E2E2E2E2E2E2E2E2E2E2E2E2E2E2E2E2E2E2E2E2E2E2E2E2E2E2E2E2E2E2E2E2E2E2E2E2E2E2E2E2E2E2E2E2E2E2E2E2E2E2E2E2E2E2E2E2E2E2E2E2E2E2E2E2E2E2E2E2E2E2E2E2E2E2E2E2E2E2E2E2E2E2E2E2E2E2E2E2E2E2E2E2E2E2E2E2E2E2E2E2E2E2E2E2E2E2E2E2E2E2E2E2E2E2E2E2E2E2E2E2E2E2E2E2
310
E2E2E2E2E2E2E2E2E2E2E2E2E2E2E2E2E2E2E2E2E2E2E2E2E2E2E2E2E2E2E2E2E2E2E2E2E2E2E2E2E2E2E2E2E2E2E2E2E2E2E2E2E2E2E2E2E2E2E2E2E2E2E2E2E2E2E2E2E2E2E2E2E2E2E2E2E2E2E2E2E2E2E2E2E2E2E2E2E2E2E2E2E2E2E2E2E2E2E2E2E2E2E2E2E2E2E2E2E2E2E2E2E2E2E2E2E2E2E2E2E2E2E2E2E2E2E2
310
E2E2E2E2E2E2E2E2E2E2E2E2E2E2E2E2E2E2E2E2E2E2E2E2E2E2E2E2E2E2E2E2E2E2E2E2E2E2E2E2E2E2E2E2E2E2E2E2E2E2E2E2E2E2E2E2E2E2E2E2E2E2E2E2E2E2E2E2E2E2E2E2E2E2E2E2E2E2E2E2E2E2E2E2E2E2E2E2E2E2E2E2E2E2E2E2E2E2E2E2E2E2E2E2E2E2E2E2E2E2E2E2E2E2E2E2E2E2E2E2E2E2E2E2E2E2E2
310
E2E2E2E2E2E2E2E2E2E2E2E2E2E2E2E2E2E2E2E2E2E2E2E2E2E2E2E2E2E2E2E2E2E2E2E2E2E2E2E2E2E2E2E2E2E2E2E2E2E2E2E2E2E2E2E2E2E2E2E2E2E2E2E2E2E2E2E2E2E2E2E2E2E2E2E2E2E2E2E2E2E2E2E2E2E2E2E2E2E2E2E2E2E2E2E2E2E2E2E2E2E2E2E2E2E2E2E2E2E2E2E2E2E2E2E2E2E2E2E2E2E2E2E2E2E2E2
310
E2E2E2E2E2E2E2E2E2E2E2E2E2E2E2E2E2E2E2E2E2E2E2E2E2E2E2E2E2E2E2E2E2E2E2E2E2E2E2E2E2E2E2E2E2E2E2E2E2E2E2E2E2E2E2E2E2E2E2E2E2E2E2E2E2E2E2E2E2E2E2E2E2E2E2E2E2E2E2E2E2E2E2E2E2E2E2E2E2E2E2E2E2E2E2E2E2E2E2E2E2E2E2E2E2E2E2E2E2E2E2E2E2E2E2E2E2E2E2E2E2E2E2E2E2E2E2
310
E2E2E2E2E2E2E2E2E2E2E2E2E2E2E2E2E2E2E2E2E2E2E2E2E2E2E2E2E2E2E2E2E2E2E2E2E2E2E2E2E2E2E2E2E2E2E2E2E2E2E2E2E2E2E2E2E2E2E2E2E2E2E2E2E2E2E2E2E2E2E2E2E2E2E2E2E2E2E2E2E2E2E2E2E2E2E2E2E2E2E2E2E2E2E2E2E2E2E2E2E2E2E2E2E2E2E2E2E2E2E2E2E2E2E2E2E2E2E2E2E2E2E2E2E2E2E2
310
E2E2E2E2E2E2E2E2E2E2E2E2E2E2E2E2E2E2E2E2E2E2E2E2E2E2E2E2E2E2E2E2E2E2E2E2E2E2E2E2E2E2E2E2E2E2E2E2E2E2E2E2E2E2E2E2E2E2E2E2E2E2E2E2E2E2E2E2E2E2E2E2E2E2E2E2E2E2E2E2E2E2E2E2E2E2E2E2E2E2E2E2E2E2E2E2E2E2E2E2E2E2E2E2E2E2E2E2E2E2E2E2E2E2E2E2E2E2E2E2E2E2E2E2E2E2E2
310
E2E2E2E2E2E2E2E2E2E2E2E2E2E2E2E2E2E2E2E2E2E2E2E2E2E2E2E2E2E2E2E2E2E2E2E2E2E2E2E2E2E2E2E2E2E2E2E2E2E2E2E2E2E2E2E2E2E2E2E2E2E2E2E2E2E2E2E2E2E2E2E2E2E2E2E2E2E2E2E2E2E2E2E2E2E2E2E2E2E2E2E2E2E2E2E2E2E2E2E2E2E2E2E2E2E2E2E2E2E2E2E2E2E2E2E2E2E2E2E2E2E2E2E2E2E2E2
310
E2E2E2E2E2E2E2E2E2E2E2E2E2E2E2E2E2E2E2E2E2E2E2E2E2E2E2E2E2E2E2E2E2E2E2E2E2E2E2E2E2E2E2E2E2E2E2E2E2E2E2E2E2E2E2E2E2E2E2E2E2E2E2E2E2E2E2E2E2E2E2E2E2E2E2E2E2E2E2E2E2E2E2E2E2E2E2E2E2E2E2E2E2E2E2E2E2E2E2E2E2E2E2E2E2E2E2E2E2E2E2E2E2E2E2E2E2E2E2E2E2E2E2E2E2E2E2
310
E2E2E2E2E2E2C3E2E2E2E2E2E2E2E2E2E2E2E2E2E2E2E2E2E2E2E2E2E2E2E2E2E2E2E2E2E2E2E2E2E2E2E2E2E2E2E2E2E2E2E2E2E2E2E2E2E2E2E2E2E2E2E2E2E2E2E2E2E2E2E2E2E2E2E2E2E2E2E2E2E2E2E2E2E2E2E2E2E2E2E2E2E2E2E2E2E2E2E2E2E2E2E2E2E2E2E2E2E2E2E2E2E2E2E2E2E2E2E2E2E2E2E2E2E2E2E2
310
E2E2E2E2E2E2E2E2E2E2E2E2E2E2E2E2E2E2E2E2E2E2E2E2E2E2E2E2E2E2E2E2E2E2E2E2E2E2E2E2E2E2E2E2E2E2E2E2E2E2E2E2E2E2E2E2E2E2E2E2E2E2E2E2E2E2E2E2E2E2E2E2E2E2E2E2E2E2E2E2E2E2E2E2E2E2E2E2E2E2E2E2E2E2E2E2E2E2E2E2E2E2E2E2E2E2E2E2E2E2E2E2E2E2E2E2E2E2E2E2E2E2E2E2E2E2E2
310
E2E2E2E2E2E2E2E2C3E2E2E2E2E2E2E2E2E2E2E2E2E2E2E2E2E2E2E2E2E2E2E2E2E2E2E2E2E2E2E2E2E2E2E2E2E2E2E2E2E2E2E2E2E2E2E2E2E2E2E2E2E2E2E2E2E2E2E2E2C3E2E2E2E2E2E2E2E2E2E2E2E2E2E2E2E2E2E2E2E2E2E2E2E2E2E2E2E2E2E2E2E2E2E2E2E2E2E2E2E2E2E2E2E2E2E2E2E2E2E2E2E2E2E2E2E2E2
310
E2E2E2E2E2E2E2E2E2E2E2E2E2E2E2E2E2E2E2E2E2E2E2E2E2E2E2E2E2E2E2E2E2E2E2E2E2E2E2E2E2E2E2E2E2E2E2E2E2E2E2E2E2E2E2E2E2E2E2E2E2E2E2E2E2E2E2E2E2E2E2E2E2E2E2E2E2E2E2E2E2E2E2E2E2E2E2E2E2E2E2E2E2E2E2E2E2E2E2E2E2E2E2E2E2E2E2E2E2E2E2E2E2E2E2E2E2E2E2E2E2E2E2E2E2E2E2
310
E2E2E2E2E2E2E2E2E2E2C3E2E2E2E2E2E2E2E2E2E2E2E2E2E2E2E2E2E2E2E2E2E2E2E2E2E2E2E2E2E2E2E2E2E2E2E2E2E2E2E2E2E2E2E2E2E2E2E2E2E2E2E2E2E2E2E2E2E2E2E2C3E2E2E2E2E2E2E2E2E2E2E2E2E2E2E2E2E2E2E2E2E2E2E2E2E2E2E2E2E2E2E2E2E2E2E2E2E2E2E2E2E2E2E2E2E2E2E2E2E2E2E2E2E2E2E2
310
E2E2E2E2E2E2E2E2E2E2E2E2E2E2E2E2E2E2E2E2E2E2E2E2E2E2E2E2E2E2E2E2E2E2E2E2E2E2E2E2E2E2E2E2E2E2E2E2E2E2E2E2E2E2E2E2E2E2E2E2E2E2E2E2E2E2E2E2E2E2E2E2E2E2E2E2E2E2E2E2E2E2E2E2E2E2E2E2E2E2E2E2E2E2E2E2E2E2E2E2E2E2E2E2E2E2E2E2E2E2E2E2E2E2E2E2E2E2E2E2E2E2E2E2E2E2E2
310
E2E2F0F0F0F0F0F0F0F0F0F0F0F0F0F0F0F0F0F0F0F0F0F0F0F0F0F0E2E2E2E2E2E2E2E2E2E2E2E2E2E2E2E2E2E2E2E2E2E2E2E2E2E2E2E2E2E2E2E2E2E2E2E2E2F0F0F0F0F0F0F0F0F0F0F0F0F0F0F0F0E2E2E2E2E2E2E2E2E2E2E2E2E2E2E2E2E2E2E2E2E2E2E2E2E2E2E2E2E2E2E2E2E2E2E2E2E2E2E2E2E2E2E2E2E2E2
310
E2E2E2E2E2E2E2E2E2E2E2E2E2E2E2E2E2E2E2E2E2E2E2E2E2E2E2E2E2E2E2E2E2E2E2E2E2E2E2E2E2E2E2E2E2E2E2E2E2E2E2E2E2E2E2E2E2E2E2E2E2E2E2E2E2E2E2E2E2E2E2E2E2E2E2E2E2E2E2E2E2E2E2E2E2E2E2E2E2E2E2E2E2E2E2E2E2E2E2E2E2E2E2E2E2E2E2E2E2E2E2E2E2E2E2E2E2E2E2E2E2E2E2E2E2E2E2
310
E2E2E2E2F0E2E2E2F0F0E2E2E2E2F0E2E2E2E2E2E2F0F0E2E2E2E2E2E2F0E2E2E2E2E2E2E2E2E2E2E2E2E2E2E2E2E2E2E2E2E2E2E2E2E2E2E2E2E2E2E2E2E2E2E2E2E2F0E2E2F0F0F0E2E2F0E2E2F0F0E2E2F0E2E2E2E2E2E2E2E2E2E2E2E2E2E2E2E2E2E2E2E2E2E2E2E2E2E2E2E2E2E2E2E2E2E2E2E2E2E2E2E2E2E2E2E2
310
E2E2E2E2E2E2E2E2E2E2E2E2E2E2E2E2E2E2E2E2E2E2E2E2E2E2E2E2E2E2E2E2E2E2E2E2E2E2E2E2E2E2E2E2E2E2E2E2E2E2E2E2E2E2E2E2E2E2E2E2E2E2E2E2E2E2E2E2E2E2E2E2E2E2E2E2E2E2E2E2E2E2E2E2E2E2E2E2E2E2E2E2E2E2E2E2E2E2E2E2E2E2E2E2E2E2E2E2E2E2E2E2E2E2E2E2E2E2E2E2E2E2E2E2E2E2E2
310
E2E2E2E2E2E2F0E2E2E2E2E2E2E2E2E2F0E2E2E2E2E2E2E2E2E2E2E2E2E2E2F0E2E2E2E2E2E2E2E2E2E2E2E2E2E2E2E2E2E2E2E2E2E2E2E2E2E2E2E2E2E2E2E2E2E2E2E2E22D2D2D2D2D2D2D2D2D2D2D2D2D2D2D2DE2E2E2E2E2E2E2E2E2E2E2E2E2E2E2E2E2E2E2E2E2E2E2E2E2E2E2E2E2E2E2E2E2E2E2E2E2E2E2E2E2E2
310
E2E2E2E2E2E2E2E2E2E2E2E2E2E2E2E2E2E2E2E2E2E2E2E2E2E2E2E2E2E2E2E2E2E2E2E2E2E2E2E2E2E2E2E2E2E2E2E2E2E2E2E2E2E2E2E2E2E2E2E2E2E2E2E2E2E2E2E2E2E2E2E2E2E2E2E2E2E2E2E2E2E2E2E2E2E2E2E2E2E2E2E2E2E2E2E2E2E2E2E2E2E2E2E2E2E2E2E2E2E2E2E2DCDCDCDCDCDCDCDCDCDCDCDCDCDCDC
310
DCDCDCDCDCDCDCDCF0DCDCDCDCDCDCDCDCDCF0DCDCDCDCDCDCDCDCDCDCDCDCDCDCF0F0F0F0F0F0F0DCDCDCDCDCDCDCDCDCDCDCDCDCDCDCDCDCDCDCDCDCDCDCDCDCDCDCDCDC2D2D2D2D2D2D2D2D2D2D2D2D2D2D2D2D2D2D2D2D2D2D2D2D2D2DDCDCDCDCDCDCDCDCDCDCDCDCDCDCDCDCDCDCDCDCDCDCDCDCDCDCDCDCDCDCDCDC
310
DCDCDCDCDCDCDCDCDCDCDCDCDCDCE2E2E2E2E2E2E2E2E2E2E2E2E2E2E2E2E2E2E2E2E2E2E2E2E2E2E2E2E2E2E2E2E2E2E2E2E2E2E2E2E2E2E2E2E2E2E2E2E2E2E2E2E2E2E2E2E2E2E2E2E2E2E2E2E2E2E2E2E2E2E2E2E2E2E2E2E2E2E2E2E2E2E2E2E2E2E2E2E2E2E2E2E2E2E2E2E2E2E2E2E2E2E2E2E2E2E2E2E2E2E2E2E2
310
E2E2E2E2E2E2E2E2E2E2F0E2E2E2E2E2E2E2E2E2C3E2E2E2E2E2E2E2E2E2E2E2E2E2E2F0E2E2E2E2F0F0E2E2E2E2E2E2E2E2E2E2E2E2E2E2E2E2E2E2E2E2E2E2E2E2E2E2E2E2E22DE2E2E2E2E2E2E2E2E2C3E2E2E2E2E2E2E2E2E2E2E2E2E2E22DE2E2E2E2E2E2E2E2E2E2E2E2E2E2E2E2E2E2E2E2E2E2E2E2E2E2E2E2E2E2
310
E2E2E2E2E2E2E2E2E2E2E2E2E2E2E2E2E2E2E2E2E2E2E2E2E2E2E2E2E2E2E2E2E2E2E2E2E2E2E2E2E2E2E2E2E2E2E2E2E2E2E2E2E2E2E2E2E2E2E2E2E2E2E2E2E2E2E2E2E2E2E2E2E2E2E2E2E2E2E2E2E2E2E2E2E2E2E2E2E2E2E2E2E2E2E2E2E2E2E2E2E2E2E2E2E2E2E2E2E2E2E2E2E2E2E2E2E2E2E2E2E2E2E2E2E2E2E2
310
E2E2E2E2E2E2E2E2E2E2E2E2F0E2E2E2E2E2E2E2E2E2C3E2E2E2E2E2E2E2E2E2E2E2E2E2E2F0E2E2E2E2F0E2E2E2E2E2E2E2E2E2E2E2E2E2E2E2E2E2E2E2E2E2E2E2E2E2E2E2E2E2E22DE2E2E2E2E2E2E2E2E2C3E2E2E2E2E2E2E2E2E2E2E2E2E2E22DE2E2E2E2E2E2E2E2E2E2E2E2E2E2E2E2E2E2E2E2E2E2E2E2E2E2E2E2
310
E2E2E2E2E2E2E2E2E2E2E2E2E2E2E2E2E2E2E2E2E2E2E2E2E2E2E2E2E2E2E2E2E2E2E2E2E2E2E2E2E2E2E2E2E2E2E2E2E2E2E2E2E2E2E2E2E2E2E2E2E2E2E2E2E2E2E2E2E2E2E2E2E2E2E2E2E2E2E2E2E2E2E2E2E2E2E2E2E2E2E2E2E2E2E2E2E2E2E2E2E2E2E2E2E2E2E2E2E2E2E2E2E2E2E2E2E2E2E2E2E2E2E2E2E2E2E2
310
E2E2E2E2E2E2E2E2E2E2E2E2E2E2F0E2E2E2E2E2E2E2E2E2C3E2E2E2E2E2E2E2E2E2E2E2E2E2E2F0E2E2E2E2F0E2E2E2E2E2E2E2E2E2E2E2E2E2E2E2E2E2E2E2E2E2E2E2E2E2E2E2E2E2E22DE2E2E2E2E2E2E2E2E2C3E2E2E2E2E2E2E2E2E2E2E2E2E2E22DE2E2E2E2E2E2E2E2E2E2E2E2E2E2E2E2E2E2E2E2E2E2E2E2E2E2
310
E2E2E2E2E2E2E2E2E2E2E2E2E2E2E2E2E2E2E2E2E2E2E2E2E2E2E2E2E2E2E2E2E2E2E2E2E2E2E2E2E2E2E2E2E2E2E2E2E2E2E2E2E2E2E2E2E2E2E2E2E2E2E2E2E2E2E2E2E2E2E2E2E2E2E2E2E2E2E2E2E2E2E2E2E2E2E2E2E2E2E2E2E2E2E2E2E2E2E2E2E2E2E2E2E2E2E2E2E2E2E2E2E2E2E2E2E2E2E2E2E2E2E2E2E2E2E2
310
E2E2E2E2E2E2E2E2E2E2E2E2E2E2E2E2F0E2E2E2E2E2E2E2E2E2C3E2E2E2E2E2E2E2E2E2E2E2E2E2E2F0E2E2E2E2F0E2E2E2E2E2E2E2E2E2E2E2E2E2E2E2E2E2E2E2E2E2E2E2E2E2E2E2E2E2E22DE2E2E2E2E2E2E2E2E2C3E2E2E2E2E2E2E2E2E2E2E2E2E2E22DE2E2E2E2E2E2E2E2E2E2E2E2E2E2E2E2E2E2E2E2E2E2E2E2
310
E2E2E2E2E2E2E2E2E2E2E2E2E2E2E2E2E2E2E2E2E2E2E2E2E2E2E2E2E2E2E2E2E2E2E2E2E2E2E2E2E2E2E2E2E2E2E2E2E2E2E2E2E2E2E2E2E2E2E2E2E2E2E2E2E2E2E2E2E2E2E2E2E2E2E2E2E2E2E2E2E2E2E2E2E2E2E2E2E2E2E2E2E2E2E2E2E2E2E2E2E2E2E2E2E2E2E2E2E2E2E2E2E2E2E2E2E2E2E2E2E2E2E2E2E2E2E2
310
E2E2E2E2E2E2E2E2E2E2E2E2E2E2E2E2E22828E2E2E2E2E2E2E2E2E2C3E2E2E2E2E2E2E2E2E2E2E2E2E2282828F0F0F0F0F0E2E2E2E2E2E2E2E2E2E2E2E2E2E2E2E2E2E2E2E2E2E2E2E2E2E2E2E2E22DE2E2E2E2E2E2E2E2E2C3E2E2E2E2E2E2E2E2E2E2E2E2E2E22DE2E2E2E2E2E2E2E2E2E2E2E2E2E2E2E2E2E2E2E2E2E2
310
E2E2E2E2E2E2E2E2E2E2E2E2E2E2E2E2E2E2E2E2E2E2E2E2E2E2E2E2E2E2E2E2E2E2E2E2E2E2E2E2E2E2E2E2E2E2E2E2E2E2E2E2E2E2E2E2E2E2E2E2E2E2E2E2E2E2E2E2E2E2E2E2E2E2E2E2E2E2E2E2E2E2E2E2E2E2E2E2E2E2E2E2E2E2E2E2E2E2E2E2E2E2E2E2E2E2E2E2E2E2E2E2E2E2E2E2E2E2E2E2E2E2E2E2E2E2E2
310
E2E2E2E2E2E2E2E2E2E2E2E2E2E2E2E2E2E2E22828E2E2E2E2E2E2E2E2E2C3E2E2E2E2E2E2E2E2E2E2E2E2E2E228E2E2E2E2F0F0E2E2E2E2E2E2E2E2E2E2E2E2E2E2E2E2E2E2E2E2E2E2E2E2E2E2E2E2E22DE2E2E2E2E2E2E2E2E2C3E2E2E2E2E2E2E2E2E2E2E2E2E2E22DE2E2E2E2E2E2E2E2E2E2E2E2E2E2E2E2E2E2E2E2
310
E2E2E2E2E2E2E2E2E2E2E2E2E2E2E2E2E2E2E2E2E2E2E2E2E2E2E2E2E2E2E2E2E2E2E2E2E2E2E2E2E2E2E2E2E2E2E2E2E2E2E2E2E2E2E2E2E2E2E2E2E2E2E2E2E2E2E2E2E2E2E2E2E2E2E2E2E2E2E2E2E2E2E2E2E2E2E2E2E2E2E2E2E2E2E2E2E2E2E2E2E2E2E2E2E2E2E2E2E2E2E2E2E2E2E2E2E2E2E2E2E2E2E2E2E2E2E2
310
E2E2E2E2E2E2E2E2E2E2E2E2E2E2E2E2E2E2E2E2E2E2E2E2E2E2E2E2E2E2E2E2C3E2E2E2E2E2E2E2E2E2E2E2E2E2E2E2E2E2E2E2F0E2E2E2E2E2E2E2E2E2E2E2E2E2E2E2E2E2E2E2E2E2E2E2E2E2E2E2E2E2E22DE2E2E2E2E2E2E2E2E2C3E2E2E2E2E2E2E2E2E2E2E2E2E2E22DE2E2E2E2E2E2E2E2E2E2E2E2E2E2E2E2E2E2
310
E2E2E2E2E2E2E2E2E2E2E2E2E2E2E2E2E2E2E2E2E2E2E2E2E2E2E2E2E2E2E2E2E2E2E2E2E2E2E2E2E2E2E2E2E2E2E2E2E2E2E2E2E2E2E2E2E2E2E2E2E2E2E2E2E2E2E2E2E2E2E2E2E2F5F5F5F5F5F5F5F5F5F5F5F5F5F5F5F5F5F5F5F5F5F5F5F5F5F5E2E2E2E2E2E2E2E2E2E2E2E2E2E2E2E2E2E2E2E2E2E2E2E2E2E2E2E2
310
E2E2E2E2E2E2E2E2E2E2E2E2E2E2E2E2E2E2E2E2E2E2E2E2E2E2E2E2E2E2E2E2E2E2C3E2E2E2E2E2E2E2E2E2E2E2E2E2E2E2E2E2E2E2F0E2E2E2E2E2E2E2E2E2E2E2E2E2E2E2E2E2E2E2E2E2E2E2E2E2E2E2E2E2E22DE2E2E2E2E2E2E2E2E2C3E2E2E2E2E2E2E2E2E2E2E2E2E2E22DE2E2E2E2E2E2E2E2E2E2E2E2E2E2E2E2
310
E2E2E2E2E2E2E2E2E2E2E2E2E2E2E2E2E2E2E2E2E2E2E2E2E2E2E2E2E2E2E2E2E2E2E2E2E2E2E2E2E2E2E2E2E2E2E2E2E2E2E2E2E2E2E2E2E2E2E2E2E2E2E2E2E2E2E2E2E2E2E2E2E2E2F5F5F5F5F5F5F5F5F5F5F5F5F5F5F5F5F5F5F5F5F5F5F5F5F5E2F5E2E2E2E2E2E2E2E2E2E2E2E2E2E2E2E2E2E2E2E2E2E2E2E2E2E2
310
E2E2E2E2E2E2E2E2E2E2E2E2E2E2E2E2E2E2E2E2E2E2E2E2E2E2E2E2E2E2E2E2E2E2E2E2C3E2E2E2E2E2E2E2E2E2E2E2E2E2E2E2E2E2E2E2F0E2E2E2E2E2E2E2E2E2E2E2E2E2E2E2E2E2E2E2E2E2E2E2E2E2E2E2E2E2E22DE2E2E2E2E2E2E2E2E2C3E2E2E2E2E2E2E2E2E2E2E2E2E2E22DE2E2E2E2E2E2E2E2E2E2E2E2E2E2
310
E2E2E2E2E2E2E2E2E2E2E2E2E2E2E2E2E2E2E2E2E2E2E2E2E2E2E2E2E2E2E2E2E2E2E2E2E2E2E2E2E2E2E2E2E2E2E2E2E2E2E2E2E2E2E2E2E2E2E2E2E2E2E2E2E2E2E2E2E2E2E2E2E2E2E2E2F5E2F5F5F5F5F5F5F5F5F5F5F5F5F5F5F5F5F5F5F5F5F5F5F5F5F5E2E2E2E2E2E2E2E2E2E2E2E2E2E2E2E2E2E2E2E2E2E2E2E2
310
E2E2E2E2E2E2E2E2E2E2E2E2E2E2E2E2E2E2E2E2E2E2E2E2E2E2E2E2E2E2E2E2E2E2E2E2E2E2C3E2E2E2E2E2E2E2E2E2E2E2E2E2E2E2E2E2E2E2F0E2E2E2E2E2E2E2E2E2E2E2E2E2E2E2E2E2E2E2E2E2E2E2E2E2E2E2E2E2E22DE2E2E2E2E2E2E2E2E2C3E2E2E2E2E2E2E2E2E2E2E2E2E2E22DE2E2E2E2E2E2E2E2E2E2E2E2
310
E2E2E2E2E2E2E2E2E2E2E2E2E2E2E2E2E2E2E2E2E2E2E2E2E2E2E2E2E2E2E2E2E2E2E2E2E2E2E2E2E2E2E2E2E2E2E2E2E2E2E2E2E2E2E2E2E2E2E2E2E2E2E2E2E2E2E2E2E2E2E2E2E2E2E2E2E2E2F5F5F5F5F5F5F5F5F5E2F5F5F5F5F5F5E2F5F5F5F5F5F5F5F5F5F5F5F5E2E2E2E2E2E2E2E2E2E2E2E2E2E2E2E2E2E2E2E2
310
E2E2E2E2E2E2E2E2E2E2E2E2E2E2E2E2E2E2E2E2E2E2E2E2E2E2E2E2E2E2E2E2E2E2E2E2E2E2E2E2C3E2E2E2E2E2E2E2E2E2E2E2E2E2E2E2E2E2E2E2F0E2E2E2E2E2E2E2E2E2E2E2E2E2E2E2E2E2E2E2E2E2E2E2E2E2E2E2E2E2E22DE2E2E2E2E2E2E2E2E2C3E2E2E2E2E2E2E2E2E2E2E2E2E2E22DE2E2E2E2E2E2E2E2E2E2
310
E2E2E2E2E2E2E2E2E2E2E2E2E2E2E2E2E2E2E2E2E2E2E2E2E2E2E2E2E2E2E2E2E2E2E2E2E2E2E2E2E2E2E2E2E2E2E2E2E2E2E2E2E2E2E2E2E2E2E2E2E2E2E2E2E2E2E2E2E2E2E2E2E2E2E2E2E2E2E2E2F5F5F5F5F5F5F5F5F5E2F5F5F5F5F5F5F5F5F5F5F5F5F5F5F5F5F5F5E2E2E2E2E2E2E2E2E2E2E2E2E2E2E2E2E2E2E2
310
E2E2E2E2E2E2E2E2E2E2E2E2E2E2E2E2E2E2E2E2E2E2E2E2E2E2E2E2E2E2E2E2E2E2E2E2E2E2E2E2E2E2C3E2E2E2E2E2E2E2E2E2E2E2E2E2E2E2E2E2E2E2F0E2E2E2E2E2E2E2E2E2E2E2E2E2E2E2E2E2E2E2E2E2E2E2E2E2E2E2E2E2E22DE2E2E2E2E2E2E2E2E2C3E2E2E2E2E2E2E2E2E2E2E2E2E2E22DE2E2E2E2E2E2E2E2
310
E2E2E2E2E2E2E2E2E2E2E2E2E2E2E2E2E2E2E2E2E2E2E2E2E2E2E2E2E2E2E2E2E2E2E2E2E2E2E2E2E2E2E2E2E2E2E2E2E2E2E2E2E2E2E2E2E2E2E2E2E2E2E2E2E2E2E2E2E2E2E2E2E2E2E2E2E2E2E2E2E2E2F5F5E2F5F5F5F5F5F5F5F5F5F5F5F5F5E2F5F5F5F5F5F5F5F5F5F5F5F5E2E2E2E2E2E2E2E2E2E2E2E2E2E2E2E2
310
E2E2E2E2E2E2E2E2E2E2E2E2E2E2E2E2E2E2E2E2E2E2E2E2E2E2E2E2E2E2E2E2E2E2E2E2E2E2E2E2E2E2E2E2C3E2E2E2E2E2E2E2E2E2E2E2E2E2E2E2E2E2E2E2F0E2E2E2E2E2E2E2E2E2E2E2E2E2E2E2E2E2E2E2E2E2E2E2E2E2E2E2E2E2E22DE2E2E2E2E2E2E2E2E2C3E2E2E2E2E2E2E2E2E2E2E2E2E2E22DE2E2E2E2E2E2
310
E2E2E2E2E2E2E2E2E2E2E2E2E2E2E2E2E2E2E2E2E2E2E2E2E2E2E2E2E2E2E2E2E2E2E2E2E2E2E2E2E2E2E2E2E2E2E2E2E2E2E2E2E2E2E2E2E2E2E2E2E2E2E2E2E2E2E2E2E2E2E2E2E2E2E2E2E2E2E2E2E2E2E2E2E2E2E2E2E2E2E2E2E2E2E2E2E2E2E2E2E2E2E2E2E2E2E2E2E2E2E2E2E2E2E2E2E2E2E2E2E2E2E2E2E2E2E2
310
E2E2E2E2E2E2E2E2E2E2E2E2E2E2E2E2E2E2E2E2E2E2E2E2E2E2E2E2E2E2E2E2E2E2E2E2E2E2E2E2E2E2E2E2E2E2C3E2E2E2E2E2E2E2E2E2E2E2E2E2E2E2E2E2E2E2F0E2E2E2E2E2E2E2E2E2E2E2E2E2E2E2E2E2E2E2E2E2E2E2E2E2E2E2E2E2E22DE2E2E2E2E2E2E2E2E2C3E2E2E2E2E2E2E2E2E2E2E2E2E2E22DE2E2E2E2
310
E2E2E2E2E2E2E2E2E2E2E2E2E2E2E2E2E2E2E2E2E2E2E2E2E2E2E2E2E2E2E2E2E2E2E2E2E2E2E2E2E2E2E2E2E2E2E2E2E2E2E2E2E2E2E2E2E2E2E2E2E2E2E2E2E2E2E2E2E2E2E2E2E2E2E2E2E2E2E2E2E2E2E2E2E2E2E2E2E2E2E2E2E2E2E2E2E2E2E2E2E2E2E2E2E2E2E2E2E2E2E2E2E2E2E2E2E2E2E2E2E2E2E2E2E2E2E2
310
E2E2E2E2E2E2E2E2E2E2E2E2E2E2E2E2E2E2E2E2E2E2E2E2E2E2E2E2E2E2E2E2E2E2E2E2E22828E2E2E2E2E2E2E2E2E2C3E2E2E2E2E2E2E2E2E2E2E2E2E2282828F0F0F0F0F0E2E2E2E2E2E2E2E2E2E2E2E2E2E2E2E2E2E2E2E2E2E2E2E2E2E2E2E2E22DE2E2E2E2E2E2E2E2E2C3E2E2E2E2E2E2E2E2E2E2E2E2E2E22DE2E2
310
E2E2E2E2E2E2E2E2E2E2E2E2E2E2E2E2E2E2E2E2E2E2E2E2E2E2E2E2E2E2E2E2E2E2E2E2E2E2E2E2E2E2E2E2E2E2E2E2E2E2E2E2E2E2E2E2E2E2E2E2E2E2E2E2E2E2E2E2E2E2E2E2E2E2E2E2E2E2E2E2E2E2E2E2E2E2E2E2E2E2F5E2F5F5F5F5F5F5F5F5F5F5F5F5F5E2F5F5F5F5F5F5F5F5F5F5F5F5F5F5E2E2E2E2E2E2E2
310
E2E2E2E2E2E2E2E2E2E2E2E2E2E2E2E2E2E2E2E2E2E2E2E2E2E2E2E2E2E2E2E2E2E2E2E2E2E2E22828E2E2E2E2E2E2E2E2E2C3E2E2E2E2E2E2E2E2E2E2E2E2E2E2F0E2E2E2E2E2E2E2E2E2E2E2E2E2E2E2E2E2E2E2E2E2E2E2E2E2E2E2E2E2E2E2E2E2E2E22DE2E2E2E2E2E2E2E2E2C3E2E2E2E2E2E2E2E2E2E2E2E2E2E22D
310
E2E2E2E2E2E2E2E2E2E2E2E2E2E2E2E2E2E2E2E2E2E2E2E2E2E2E2E2E2E2E2E2E2E2E2E2E2E2E2E2E2E2E2E2E2E2E2E2E2E2E2E2E2E2E2E2E2E2E2E2E2E2E2E2E2E2E2E2E2E2E2E2E2E2E2E2E2E2E2E2E2E2E2E2E2E2E2E2E2E2E2E2F5F5F5F5F5F5E2F5F5F5F5F5F5F5E2F5F5F5F5F5F5F5F5F5F5F5F5F5F5F5E2E2E2E2E2
310
E2E2E2E2E2E2E2E2E2E2E2E2E2E2E2E2E2E2E2E2E2E2E2E2E2E2E2E2E2E2E2E2E2E2E2E2E2E2E2E2E2E2E2E2E2E2E2E2E2E2E2E2C3E2E2E2E2E2E2E2E2E2E2E2E2E2E2E2F0F0F0F0E2E2E2E2E2E2E2E2E2E2E2E2E2E2E2E2E2E2E2E2E2E2E2E2E2E2E2E2E2E2E22D2D2D2D2D2D2D2D2D2D2D2D2D2D2D2D2D2D2D2D2D2D2D2D
310
2D2DE2E2E2E2E2E2E2E2E2E2E2E2E2E2E2E2E2E2E2E2E2E2E2E2E2E2E2E2E2E2E2E2E2E2E2E2E2E2E2E2E2E2E2E2E2E2E2E2E2E2E2E2E2E2E2E2E2E2E2E2E2E2E2E2E2E2E2E2E2E2E2E2E2E2E2E2E2E2E2E2E2E2E2E2E2E2E2E2E2E2E2E2F5E2F5F5F5F5F5F5F5F5F5F5F5F5E2F5F5F5F5F5F5F5F5F5F5F5F5F5F5F5E2E2E2
310
E2E2E2E2E2E2E2E2E2E2E2E2E2E2E2E2E2E2E2E2E2E2E2E2E2E2E2E2E2E2E2E2E2E2E2E2E2E2E2E2E2E2E2E2E2E2E2E2E2E2E2E2E2E2C3E2E2E2E2E2E2E2E2E2E2E2E2E2E2E2E2F0F0F0E2E2E2E2E2E2E2E2E2E2E2E2E2E2E2E2E2E2E2E2E2E2E2E2E2E2E2E2E2E2E2E2E2E2DCE2E2DCE2DCE2C3DCE2DCE2E2E2DCE2DCE2E2
310
DCE2E2E2E2E2E2E2E2E2E2E2E2E2E2E2E2E2E2E2E2E2E2E2E2E2E2E2E2E2E2E2E2E2E2E2E2E2E2E2E2E2E2E2E2E2E2E2E2E2E2E2E2E2E2E2E2E2E2E2E2E2E2E2E2E2E2E2E2E2E2E2E2E2E2E2E2E2E2E2E2E2E2E2E2E2E2E2E2E2E2E2E2E2E2E2E2E2E2E2E2E2E2E2E2E2E2E2E2E2E2E2E2E2E2E2E2E2E2E2E2E2E2E2E2E2E2
310
E2E2E2E2E2E2E2E2E2E2E2E2E2E2E2E2E2E2E2E2E2E2E2E2E2E2E2E2E2E2E2E2E2E2E2E2E2E2E2E2E2E2E2E2E2E2E2E2E2E2E2E2E2E2E2E2C3E2E2E2E2E2E2E2E2E2E2E2E2E2E2E2E2E2E2E2E2E2E2E2E2E2E2E2E2E2E2E2E2E2E2E2E2E2E2E2E2E2E2E2E2E2E2E2E2E2E2E2E2E2DCE2E2DCE2DCE2C3DCE2DCE2E2E2DCE2DC
310
E2E2DCE2E2E2E2E2E2E2E2E2E2E2E2E2E2E2E2E2E2E2E2E2E2E2E2E2E2E2E2E2E2E2E2E2E2E2E2E2E2E2E2E2E2E2E2E2E2E2E2E2E2E2E2E2E2E2E2E2E2E2E2E2E2E2E2E2E2E2E2E2E2E2E2E2E2E2E2E2E2E2E2E2E2E2E2E2E2E2E2E2E2E2E2E2E2F5E2F5F5F5F5F5F5F5E2E2E2F5E2E2E2E2F5E2F5F5F5F5F5E2F5F5F5E2F5
310
F5E2E2E2E2E2E2E2E2E2E2E2E2E2E2E2E2E2E2E2E2E2E2E2E2E2E2E2E2E2E2E2E2E2E2E2E2E2E2E2E2E2E2E2E2E2E2E2E2E2E2E2E2E2E2E2E2E2C3E2E2E2E2E2E2E2E2E2E2E2E2E2E2E2E2E2E2E2E2E2E2E2E2E2E2E2E2E2E2E2E2E2E2E2E2E2E2E2E2E2E2E2E2E2E2E2F0F0F0F0F0F0F0F0E2DCE2DCE2C3DCE2DCE2E2E2DC
310
E2DCE2E2DCE2E2E2E2E2E2E2E2E2E2E2E2E2E2E2E2E2E2E2E2E2E2E2E2E2E2E2E2E2E2E2E2E2E2E2E2E2E2E2E2E2E2E2E2E2E2E2E2E2E2E2E2E2E2E2E2E2E2E2E2E2E2E2E2E2E2E2E2E2E2E2E2E2E2E2E2E2E2E2E2E2E2E2E2E2E2E2E2E2E2E2E2E2E2E2F5F5F5F5F5F5F5F5F5E2F5F5F5E2E2E2F5F5F5F5F5F5F5E2F5F5F5
310
F5F5E2E2E2E2E2E2E2E2E2E2E2E2E2E2E2E2E2E2E2E2E2E2E2E2E2E2E2E2E2E2E2E2E2E2E2E2E2E2E2E2E2E2E2E2E2E2E2E2E2E2E2E2E2E2E2E2E2E2C3E2E2E2E2E2E2E2E2E2E2E2E2E2E2E2E2E2E2E2E2E2E2E2E2E2E2E2E2E2E2E2E2E2E2E2E2E2E2E2E2E2E2E2E2E2E2F0F0E2E2F0F0F0DCDCDCDCE2DCDCDCDCE2DCDCDC
310
DCDCE2DCDCDCDCE2E2E2E2E2E2E2E2E2E2E2E2E2E2E2E2E2E2E2E2E2E2E2E2E2E2E2E2E2E2E2E2E2E2E2E2E2E2E2E2E2E2E2E2E2E2E2E2E2E2E2E2E2E2E2E2E2E2E2E2E2E2E2E2E2E2E2E2E2E2E2E2E2E2E2E2E2E2E2E2E2E2E2E2E2E2E2E2E2E2E2E2E2E2E2F5F5F5F5F5F5F5F5F5E2E2F5F5E2E2E2F5F5F5F5F5F5F5E2F5
310
F5F5F5F5F5E2E2E2E2E2E2E2E2E2E2E2E2E2E2E2E2E2E2E2E2E2E2E2E2E2E2E2E2E2E2E2E2E2E2E2E2E2E2E2E2E2E2E2E2E2E2E2E2E2E2E2E2E2E2E2E2E2E2E2E2E2E2E2E2E2E2E2E2E2E2E2E2E2E2E2E2E2E2E2E2E2E2E2E2E2E2E2E2E2E2E2E2E2E2E2E2E2E2E2E2E2E2E2E2F0F0F0F0F0F0F0F0DCDCDCE2DCDCDCDCE2DC
310
DCDCF0DCE2DCDCDCDCE2E2E2E2E2E2E2E2E2E2E2E2E2E2E2E2E2E2E2E2E2E2E2E2E2E2E2E2E2E2E2E2E2E2E2E2E2E2E2E2E2E2E2E2E2E2E2E2E2E2E2E2E2E2E2E2E2E2E2E2E2E2E2E2E2E2E2E2E2E2E2E2E2E2E2E2E2E2E2E2E2E2E2E2E2E2E2E2E2E2E2E2E2E2F5F5F5F5F5F5F5F5F5F5E2F5F5F5E2E2E2E2E2E2E2E2E2E2
310
E2E2E2E2E2E2E2E2E2E2E2E2E2E2E2E2E2E2E2E2E2E2E2E2E2E2E2E2E2E2E2E2E2E2E2E2E2E2E2E2E2E2E2E2E2E2E2E2E2E2E2E2E2E2E2E2E2E2E2E2E2E2E2E2E2E2E2E2E2E2E2E2E2E2E2E2E2E2E2E2E2E2E2E2E2E2E2E2E2E2E2E2E2E2E2E2E2E2E2E2E2E2E2E2E2E2E2E2E2E2E2E2E2E2E2E2E2E2F0F0F0F0E2E2E2C3E2
310
E2E2E2E2E2F0E2E2E2E2E2E2E2E2E2E2E2E2E2E2E2E2E2E2E2E2E2E2E2E2E2E2E2E2E2E2E2E2E2E2E2E2E2E2E2E2E2E2E2E2E2E2E2E2E2E2E2E2E2E2E2E2E2E2E2E2E2E2E2E2E2E2E2E2E2E2E2E2E2E2E2E2E2E2E2E2E2E2E2E2E2E2E2E2E2E2E2E2E2E2E2E2E2E2E2E2F5F5F5F5F5F5F5F5F5E2E2F5F5F5E2E2E2E2E2E2E2
310
E2E2E2E2E2E2E2E2E2E2E2E2E2E2E2E2E2E2E2E2E2E2E2E2E2E2E2E2E2E2E2E2E2E2E2E2E2E2E2E2E2E2E2E2E2E2E2E2E2E2E2E2E2E2E2E2E2E2E2E2E2E2E2E2E2E2E2E2E2E2E2E2E2E2E2E2E2E2E2E2E2E2E2E2E2E2E2E2E2E2E2E2E2E2E2E2E2E2E2E2E2E2E2E2E2E2E2E2E2E2E2E2E2E2E2E2E2E2E2E2F0F0F0F0E2E2E2
310
C3E2E2E2E2E2E2E2F0E2E2E2E2E2E2E2E2E2E2E2E2E2E2E2E2E2E2E2E2E2E2E2E2E2E2E2E2E2E2E2E2E2E2E2E2E2E2E2E2E2E2E2E2E2E2E2E2E2E2E2E2E2E2E2E2E2E2E2E2E2E2E2E2E2E2E2E2E2E2E2E2E2E2E2E2E2E2E2E2E2E2E2E2E2E2E2E2E2E2E2E2E2E2E2E2E2E2E2E2E2E2E2E2E2E2E2E2E2E2E2E2E2E2E2E2E2E2
310
E2E2E2E2E2E2E2E2E2E2E2E2E2E2E2E2E2E2E2E2E2E2E2E2E2E2E2E2E2E2E2E2E2E2E2E2E2E2E2E2E2E2E2E2E2E2E2E2E2E2E2E2E2E2E2E2E2E2E2E2E2E2E2E2E2E2E2E2E2E2E2E2E2E2E2E2E2E2E2E2E2E2E2E2E2E2E2E2E2E2E2E2E2E2E2E2E2E2E2E2E2E2E2E2E2E2E2E2E2E2E2E2E2E2E2E2E2E2E2E2E2E2F0F0F0F0E2
310
E2E2C3E2E2E2E2E2E2E2E2F0F0F0F0F0F0E2E2E2E2E2E2E2E2E2E2E2E2E2E2E2E2E2E2E2E2E2E2E2E2E2E2E2E2E2E2E2E2E2E2E2E2E2E2E2E2E2E2E2E2E2E2E2E2E2E2E2E2E2E2E2E2E2E2E2E2E2E2E2E2E2E2E2E2E2E2E2E2E2E2E2E2E2E2E2E2E2E2E2E2E2E2E2E2E2E2E2E2E2E2E2E2E2E2E2E2E2E2E2E2E2E2E2E2E2E2
310
E2E2E2E2E2E2E2E2E2E2E2E2E2E2E2E2E2E2E2E2E2E2E2E2E2E2E2E2E2E2E2E2E2E2E2E2E2E2E2E2E2E2E2E2E2E2E2E2E2E2E2E2E2E2E2E2E2E2E2E2E2E2E2E2E2E2E2E2E2E2E2E2E2E2E2E2E2E2E2E2E2E2E2E2E2E2E2E2E2E2E2E2E2E2E2E2E2E2E2E2E2E2E2E2E2E2E2E2E2E2E2E2E2E2E2E2E2E2E2E2E2E2E2E2F0F0F0
310
F0E2E2E2C3E2E2E2E2E2E2E2E2E2F0F0F0F0F0E2E2E2E2E2E2E2E2E2E2E2E2E2E2E2E2E2E2E2E2E2E2E2E2E2E2E2E2E2E2E2E2E2E2E2E2E2E2E2E2E2E2E2E2E2E2E2E2E2E2E2E2E2E2E2E2E2E2E2E2E2E2E2E2E2E2E2E2E2E2E2E2E2E2E2E2E2E2E2E2E2E2E2E2E2E2E2E2E2E2E2E2E2E2E2E2E2E2E2E2E2E2E2E2E2E2E2E2
310
E2E2E2E2E2E2E2E2E2E2E2E2E2E2E2E2E2E2E2E2E2E2E2E2E2E2E2E2E2E2E2E2E2E2E2E2E2E2E2E2E2E2E2E2E2E2E2E2E2E2E2E2E2E2E2E2E2E2E2E2E2E2E2E2E2E2E2E2E2E2E2E2E2E2E2E2E2E2E2E2E2E2E2E2E2E2E2E2E2E2E2E2E2E2E2E2E2E2E2E2E2E2E2E2E2E2E2E2E2E2E2E2E2E2E2E2E2E2E2E2E2E2E2E2E2E2F0
310
F0F0F0E2E2E2E2E2E2E2E2E2E2E2E2E2E2E2E2E2E2E2E2E2E2E2E2E2E2E2E2E2E2E2E2E2E2E2E2E2E2E2E2E2E2E2E2E2E2E2E2E2E2E2E2E2E2E2E2E2E2E2E2E2E2E2E2E2E2E2E2E2E2E2E2E2E2E2E2E2E2E2E2E2E2E2E2E2E2E2E2E2E2E2E2E2E2E2E2E2E2E2E2E2E2E2E2E2E2E2E2E2E2E2E2E2E2E2E2E2E2E2E2E2E2E2E2
310
E2E2E2E2E2E2E2E2E2E2E2E2E2E2E2E2E2E2E2E2E2E2E2E2E2E2E2E2E2E2E2E2E2E2E2E2E2E2E2E2E2E2E2E2E2E2E2E2E2E2E2E2E2E2E2E2E2E2E2E2E2E2E2E2E2E2E2E2E2E2E2E2E2E2E2E2E2E2E2E2E2E2E2E2E2E2E2E2E2E2E2E2E2E2E2E2E2E2E2E2E2E2E2E2E2E2E2E2E2E2E2E2E2E2E2E2E2E2E2E2E2E2E2E2E2E2E2
310
E2F0F0F0F0E2E2E2E2E2E2E2E2E2E2E2E2E2E2E2E2E2E2E2E2E2E2E2E2E2E2E2E2E2E2E2E2E2E2E2E2E2E2E2E2E2E2E2E2E2E2E2E2E2E2E2E2E2E2E2E2E2E2E2E2E2E2E2E2E2E2E2E2E2E2E2E2E2E2E2E2E2E2E2E2E2E2E2E2E2E2E2E2E2E2E2E2E2E2E2E2E2E2E2E2E2E2E2E2E2E2E2E2E2E2E2E2E2E2E2E2E2E2E2E2E2E2
310
E2E2E2E2E2E2E2E2E2E2E2E2E2E2E2E2E2E2E2E2E2E2E2E2E2E2E2E2E2E2E2E2E2E2E2E2E2E2E2E2E2E2E2E2E2E2E2E2E2E2E2E2E2E2E2E2E2E2E2E2E2E2E2E2E2E2E2E2E2E2E2E2E2E2E2E2E2E2E2E2E2E2E2E2E2E2E2E2E2E2E2E2E2E2E2E2E2E2E2E2E2E2E2E2E2E2E2E2E2E2E2E2E2E2E2E2E2E2E2E2E2E2E2E2E2E2E2
310
E2E2E2E2F0F0E2E2E2E2E2E2E2E2E2E2E2E2E2E2E2E2E2E2E2E2E2E2E2E2E2E2E2E2E2E2E2E2E2E2E2E2E2E2E2E2E2E2E2E2E2E2E2E2E2E2E2E2E2E2E2E2E2E2E2E2E2E2E2E2E2E2E2E2E2E2E2E2E2E2E2E2E2E2E2E2E2E2E2E2E2E2E2E2E2E2E2E2E2E2E2E2E2E2E2E2E2E2E2E2E2E2E2E2E2E2E2E2E2E2E2E2E2E2E2E2E2
310
E2E2E2E2E2E2E2E2E2E2E2E2E2E2E2E2E2E2E2E2E2E2E2E2E2E2E2E2E2E2E2E2E2E2E2E2E2E2E2E2E2E2E2E2E2E2E2E2E2E2E2E2E2E2E2E2E2E2E2E2E2E2E2E2E2E2E2E2E2E2E2E2E2E2E2E2E2E2E2E2E2E2E2E2E2E2E2E2E2E2E2E2E2E2E2E2E2E2E2E2E2E2E2E2E2E2E2E2E2E2E2E2E2E2E2E2E2E2E2E2E2E2E2E2E2E2E2
310
E2E2E2E2E2E2E2E2E2E2E2E2E2E2E2E2E2E2E2E2E2E2E2E2E2E2E2E2E2E2E2E2E2E2E2E2E2E2E2E2E2E2E2E2E2E2E2E2E2E2E2E2E2E2E2E2E2E2E2E2E2E2E2E2E2E2E2E2E2E2E2E2E2E2E2E2E2E2E2E2E2E2E2E2E2E2E2E2E2E2E2E2E2E2E2E2E2E2E2E2E2E2E2E2E2E2E2E2E2E2E2E2E2E2E2E2E2E2E2E2E2E2E2E2E2E2E2
310
E2E2E2E2E2E2E2E2E2E2E2E2E2E2E2E2E2E2E2E2E2E2E2E2E2E2E2E2E2E2E2E2E2E2E2E2E2E2E2E2E2E2E2E2E2E2E2E2E2E2E2E2E2E2E2E2E2E2E2E2E2E2E2E2E2E2E2E2E2E2E2E2E2E2E2E2E2E2E2E2E2E2E2E2E2E2E2E2E2E2E2E2E2E2E2E2E2E2E2E2E2E2E2E2E2E2E2E2E2E2E2E2E2E2E2E2E2E2E2E2E2E2E2E2E2E2E2
310
E2E2E2E2E2E2E2E2E2E2E2E2E2E2E2E2E2E2E2E2E2E2E2E2E2E2E2E2E2E2E2E2E2E2E2E2E2E2E2E2E2E2E2E2E2E2E2E2E2E2E2E2E2E2E2E2E2E2E2E2E2E2E2E2E2E2E2E2E2E2E2E2E2E2E2E2E2E2E2E2E2E2E2E2E2E2E2E2E2E2E2E2E2E2E2E2E2E2E2E2E2E2E2E2E2E2E2E2E2E2E2E2E2E2E2E2E2E2E2E2E2E2E2E2E2E2E2
310
E2E2E2E2E2E2E2E2E2E2E2E2E2E2E2E2E2E2E2E2E2E2E2E2E2E2E2E2E2E2E2E2E2E2E2E2E2E2E2E2E2E2E2E2E2E2E2E2E2E2E2E2E2E2E2E2E2E2E2E2E2E2E2E2E2E2E2E2E2E2E2E2E2E2E2E2E2E2E2E2E2E2E2E2E2E2E2E2E2E2E2E2E2E2E2E2E2E2E2E2E2E2E2E2E2E2E2E2E2E2E2E2E2E2E2E2E2E2E2E2E2E2E2E2E2E2E2
310
E2E2E2E2E2E2E2E2E2E2E2E2E2E2E2E2E2E2E2E2E2E2E2E2E2E2E2E2E2E2E2E2E2E2E2E2E2E2E2E2E2E2E2E2E2E2E2E2E2E2E2E2E2E2E2E2E2E2E2E2E2E2E2E2E2E2E2E2E2E2E2E2E2E2E2E2E2E2E2E2E2E2E2E2E2E2E2E2E2E2E2E2E2E2E2E2E2E2E2E2E2E2E2E2E2E2E2E2E2E2E2E2E2E2E2E2E2E2E2E2E2E2E2E2E2E2E2
310
E2E2E2E2E2E2E2E2E2E2E2E2E2E2E2E2E2E2E2E2E2E2E2E2E2E2E2E2E2E2E2E2E2E2E2E2E2E2E2E2E2E2E2E2E2E2E2E2E2E2E2E2E2E2E2E2E2E2E2E2E2E2E2E2E2E2E2E2E2E2E2E2E2E2E2E2E2E2E2E2E2E2E2E2E2E2E2E2E2E2E2E2E2E2E2E2E2E2E2E2E2E2E2E2E2E2E2E2E2E2E2E2E2E2E2E2E2E2E2E2E2E2E2E2E2E2E2
310
E2E2E2E2E2E2E2E2E2E2E2E2E2E2E2E2E2E2E2E2E2E2E2E2E2E2E2E2E2E2E2E2E2E2E2E2E2E2E2E2E2E2E2E2E2E2E2E2E2E2E2E2E2E2E2E2E2E2E2E2E2E2E2E2E2E2E2E2E2E2E2E2E2E2E2E2E2E2E2E2E2E2E2E2E2E2E2E2E2E2E2E2E2E2E2E2E2E2E2E2E2E2E2E2E2E2E2E2E2E2E2E2E2E2E2E2E2E2E2E2E2E2E2E2E2E2E2
310
E2E2E2E2E2E2E2E2E2E2E2E2E2E2E2E2E2E2E2E2E2E2E2E2E2E2E2E2E2E2E2E2E2E2E2E2E2E2E2E2E2E2E2E2E2E2E2E2E2E2E2E2E2E2E2E2E2E2E2E2E2E2E2E2E2E2E2E2E2E2E2E2E2E2E2E2E2E2E2E2E2E2E2E2E2E2E2E2E2E2E2E2E2E2E2E2E2E2E2E2E2E2E2E2E2E2E2E2E2E2E2E2E2E2E2E2E2E2E2E2E2E2E2E2E2E2E2
310
E2E2E2E2E2E2E2E2E2E2E2E2E2E2E2E2E2E2E2E2E2E2E2E2E2E2E2E2E2E2E2E2E2E2E2E2E2E2E2E2E2E2E2E2E2E2E2E2E2E2E2E2E2E2E2E2E2E2E2E2E2E2E2E2E2E2E2E2E2E2E2E2E2E2E2E2E2E2E2E2E2E2E2E2E2E2E2E2E2E2E2E2E2E2E2E2E2E2E2E2E2E2E2E2E2E2E2E2E2E2E2E2E2E2E2E2E2E2E2E2E2E2E2E2E2E2E2
310
E2E2E2E2E2E2E2E2E2E2E2E2E2E2E2E2E2E2E2E2E2E2E2E2E2E2E2E2E2E2E2E2E2E2E2E2E2E2E2E2E2E2E2E2E2E2E2E2E2E2E2E2E2E2E2E2E2E2E2E2E2E2E2E2E2E2E2E2E2E2E2E2E2E2E2E2E2E2E2E2E2E2E2E2E2E2E2E2E2E2E2E2E2E2E2E2E2E2E2E2E2E2E2E2E2E2E2E2E2E2E2E2E2E2E2E2E2E2E2E2E2E2E2E2E2E2E2
310
E2E2E2E2E2E2E2E2E2E2E2E2E2E2E2E2E2E2E2E2E2E2E2E2E2E2E2E2E2E2E2E2E2E2E2E2E2E2E2E2E2E2E2E2E2E2E2E2E2E2E2E2E2E2E2E2E2E2E2E2E2E2E2E2E2E2E2E2E2E2E2E2E2E2E2E2E2E2E2E2E2E2E2E2E2E2E2E2E2E2E2E2E2E2E2E2E2E2E2E2E2E2E2E2E2E2E2E2E2E2E2E2E2E2E2E2E2E2E2E2E2E2E2E2E2E2E2
310
E2E2E2E2E2E2E2E2E2E2E2E2E2E2E2E2E2E2E2E2E2E2E2E2E2E2E2E2E2E2E2E2E2E2E2E2E2E2E2E2E2E2E2E2E2E2E2E2E2E2E2E2E2E2E2E2E2E2E2E2E2E2E2E2E2E2E2E2E2E2E2E2E2E2E2E2E2E2E2E2E2E2E2E2E2E2E2E2E2E2E2E2E2E2E2E2E2E2E2E2E2E2E2E2E2E2E2E2E2E2E2E2E2E2E2E2E2E2E2E2E2E2E2E2E2E2E2
310
E2E2E2E2E2E2E2E2E2E2E2E2E2E2E2E2E2E2E2E2E2E2E2E2E2E2E2E2E2E2E2E2E2E2E2E2E2E2E2E2E2E2E2E2E2E2E2E2E2E2E2E2E2E2E2E2E2E2E2E2E2E2E2E2E2E2E2E2E2E2E2E2E2E2E2E2E2E2E2E2E2E2E2E2E2E2E2E2E2E2E2E2E2E2E2E2E2E2E2E2E2E2E2E2E2E2E2E2E2E2E2E2E2E2E2E2E2E2E2E2E2E2E2E2E2E2E2
310
E2E2E2E2E2E2E2E2E2E2E2E2E2E2E2E2E2E2E2E2E2E2E2E2E2E2E2E2E2E2E2E2E2E2E2E2E2E2E2E2E2E2E2E2E2E2E2E2E2E2E2E2E2E2E2E2E2E2E2E2E2E2E2E2E2E2E2E2E2E2E2E2E2E2E2E2E2E2E2E2E2E2E2E2E2E2E2E2E2E2E2E2E2E2E2E2E2E2E2E2E2E2E2E2E2E2E2E2E2E2E2E2E2E2E2E2E2E2E2E2E2E2E2E2E2E2E2
310
E2E2E2E2E2E2E2E2E2E2E2E2E2E2E2E2E2E2E2E2E2E2E2E2E2E2E2E2E2E2E2E2E2E2E2E2E2E2E2E2E2E2E2E2E2E2E2E2E2E2E2E2E2E2E2E2E2E2E2E2E2E2E2E2E2E2E2E2E2E2E2E2E2E2E2E2E2E2E2E2E2E2E2E2E2E2E2E2E2E2E2E2E2E2E2E2E2E2E2E2E2E2E2E2E2E2E2E2E2E2E2E2E2E2E2E2E2E2E2E2E2E2E2E2E2E2E2
310
E2E2E2E2E2E2E2E2E2E2E2E2E2E2E2E2E2E2E2E2E2E2E2E2E2E2E2E2E2E2E2E2E2E2E2E2E2E2E2E2E2E2E2E2E2E2E2E2E2E2E2E2E2E2E2E2E2E2E2E2E2E2E2E2E2E2E2E2E2E2E2E2E2E2E2E2E2E2E2E2E2E2E2E2E2E2E2E2E2E2E2E2E2E2E2E2E2E2E2E2E2E2E2E2E2E2E2E2E2E2E2E2E2E2E2E2E2E2E2E2E2E2E2E2E2E2E2
310
E2E2E2E2E2E2E2E2E2E2E2E2E2E2E2E2E2E2E2E2E2E2E2E2E2E2E2E2E2E2E2E2E2E2E2E2E2E2E2E2E2E2E2E2E2E2E2E2E2E2E2E2E2E2E2E2E2E2E2E2E2E2E2E2E2E2E2E2E2E2E2E2E2E2E2E2E2E2E2E2E2E2E2E2E2E2E2E2E2E2E2E2E2E2E2E2E2E2E2E2E2E2E2E2E2E2E2E2E2E2E2E2E2E2E2E2E2E2E2E2E2E2E2E2E2E2E2
310
E2E2E2E2E2E2E2E2E2E2E2E2E2E2E2E2E2E2E2E2E2E2E2E2E2E2E2E2E2E2E2E2E2E2E2E2E2E2E2E2E2E2E2E2E2E2E2E2E2E2E2E2E2E2E2E2E2E2E2E2E2E2E2E2E2E2E2E2E2E2E2E2E2E2E2E2E2E2E2E2E2E2E2E2E2E2E2E2E2E2E2E2E2E2E2E2E2E2E2E2E2E2E2E2E2E2E2E2E2E2E2E2E2E2E2E2E2E2E2E2E2E2E2E2E2E2E2
310
E2E2E2E2E2E2E2E2E2E2E2E2E2E2E2E2E2E2E2E2E2E2E2E2E2E2E2E2E2E2E2E2E2E2E2E2E2E2E2E2E2E2E2E2E2E2E2E2E2E2E2E2E2E2E2E2E2E2E2E2E2E2E2E2E2E2E2E2E2E2E2E2E2E2E2E2E2E2E2E2E2E2E2E2E2E2E2E2E2E2E2E2E2E2E2E2E2E2E2E2E2E2E2E2E2E2E2E2E2E2E2E2E2E2E2E2E2E2E2E2E2E2E2E2E2E2E2
310
E2E2E2E2E2E2E2E2E2E2E2E2E2E2E2E2E2E2E2E2E2E2E2E2E2E2E2E2E2E2E2E2E2E2E2E2E2E2E2E2E2E2E2E2E2E2E2E2E2E2E2E2E2E2E2E2E2E2E2E2E2E2E2E2E2E2E2E2E2E2E2E2E2E2E2E2E2E2E2E2E2E2E2E2E2E2E2E2E2E2E2E2E2E2E2E2E2E2E2E2E2E2E2E2E2E2E2E2E2E2E2E2E2E2E2E2E2E2E2E2E2E2E2E2E2E2E2
310
E2E2E2E2E2E2E2E2E2E2E2E2E2E2E2E2E2E2E2E2E2E2E2E2E2E2E2E2E2E2E2E2E2E2E2E2E2E2E2E2E2E2E2E2E2E2E2E2E2E2E2E2E2E2E2E2E2E2E2E2E2E2E2E2E2E2E2E2E2E2E2E2E2E2E2E2E2E2E2E2E2E2E2E2E2E2E2E2E2E2E2E2E2E2E2E2E2E2E2E2E2E2E2E2E2E2E2E2E2E2E2E2E2E2E2E2E2E2E2E2E2E2E2E2E2E2E2
310
E2E2E2E2E2E2E2E2E2E2E2E2E2E2E2E2E2E2E2E2E2E2E2E2E2E2E2E2E2E2E2E2E2E2E2E2E2E2E2E2E2E2E2E2E2E2E2E2E2E2E2E2E2E2E2E2E2E2E2E2E2E2E2E2E2E2E2E2E2E2E2E2E2E2E2E2E2E2E2E2E2E2E2E2E2E2E2E2E2E2E2E2E2E2E2E2E2E2E2E2E2E2E2E2E2E2E2E2E2E2E2E2E2E2E2E2E2E2E2E2E2E2E2E2E2E2E2
310
E2E2E2E2E2E2E2E2E2E2E2E2E2E2E2E2E2E2E2E2E2E2E2E2E2E2E2E2E2E2E2E2E2E2E2E2E2E2E2E2E2E2E2E2E2E2E2E2E2E2E2E2E2E2E2E2E2E2E2E2E2E2E2E2E2E2E2E2E2E2E2E2E2E2E2E2E2E2E2E2E2E2E2E2E2E2E2E2E2E2E2E2E2E2E2E2E2E2E2E2E2E2E2E2E2E2E2E2E2E2E2E2E2E2E2E2E2E2E2E2E2E2E2E2E2E2E2
310
E2E2E2E2E2E2E2E2E2E2E2E2E2E2E2E2E2E2E2E2E2E2E2E2E2E2E2E2E2E2E2E2E2E2E2E2E2E2E2E2E2E2E2E2E2E2E2E2E2E2E2E2E2E2E2E2E2E2E2E2E2E2E2E2E2E2E2E2E2E2E2E2E2E2E2E2E2E2E2E2E2E2E2E2E2E2E2E2E2E2E2E2E2E2E2E2E2E2E2E2E2E2E2E2E2E2E2E2E2E2E2E2E2E2E2E2E2E2E2E2E2E2E2E2E2E2E2
310
E2E2E2E2E2E2E2E2E2E2E2E2E2E2E2E2E2E2E2E2E2E2E2E2E2E2E2E2E2E2E2E2E2E2E2E2E2E2E2E2E2E2E2E2E2E2E2E2E2E2E2E2E2E2E2E2E2E2E2E2E2E2E2E2E2E2E2E2E2E2E2E2E2E2E2E2E2E2E2E2E2E2E2E2E2E2E2E2E2E2E2E2E2E2E2E2E2E2E2E2E2E2E2E2E2E2E2E2E2E2E2E2E2E2E2E2E2E2E2E2E2E2E2E2E2E2E2
310
E2E2E2E2E2E2E2E2E2E2E2E2E2E2E2E2E2E2E2E2E2E2E2E2E2E2E2E2E2E2E2E2E2E2E2E2E2E2E2E2E2E2E2E2E2E2E2E2E2E2E2E2E2E2E2E2E2E2E2E2E2E2E2E2E2E2E2E2E2E2
  0
XRECORD
  5
C64B
102
{ACAD_REACTORS
330
C62C
102
}
330
C62C
100
AcDbXrecord
280
     1
102
SHADEPLOT
 70
     0
102
SHADEPLOTRESLEVEL
 70
     2
102
SHADEPLOTCUSTOMDPI
 70
   300
  0
XRECORD
  5
C62D
102
{ACAD_REACTORS
330
C62C
102
}
330
C62C
100
AcDbXrecord
280
     1
310
28000000630000008C0000000100080000000000B0360000000000000000000000010000000000000000000000000000FFFFFF000000000000000000000000000000000000000000000000000000000000000000330000006600000099000000CC000000FF00000000330000333300006633000099330000CC330000FF3300
310
0000660000336600006666000099660000CC660000FF66000000990000339900006699000099990000CC990000FF99000000CC000033CC000066CC000099CC0000CCCC0000FFCC000000FF000033FF000066FF000099FF0000CCFF0000FFFF000000003300330033006600330099003300CC003300FF003300003333003333
310
33006633330099333300CC333300FF33330000663300336633006666330099663300CC663300FF66330000993300339933006699330099993300CC993300FF99330000CC330033CC330066CC330099CC3300CCCC3300FFCC330000FF330033FF330066FF330099FF3300CCFF3300FFFF330000006600330066006600660099
310
006600CC006600FF00660000336600333366006633660099336600CC336600FF33660000666600336666006666660099666600CC666600FF66660000996600339966006699660099996600CC996600FF99660000CC660033CC660066CC660099CC6600CCCC6600FFCC660000FF660033FF660066FF660099FF6600CCFF6600
310
FFFF660000009900330099006600990099009900CC009900FF00990000339900333399006633990099339900CC339900FF33990000669900336699006666990099669900CC669900FF66990000999900339999006699990099999900CC999900FF99990000CC990033CC990066CC990099CC9900CCCC9900FFCC990000FF99
310
0033FF990066FF990099FF9900CCFF9900FFFF99000000CC003300CC006600CC009900CC00CC00CC00FF00CC000033CC003333CC006633CC009933CC00CC33CC00FF33CC000066CC003366CC006666CC009966CC00CC66CC00FF66CC000099CC003399CC006699CC009999CC00CC99CC00FF99CC0000CCCC0033CCCC0066CC
310
CC0099CCCC00CCCCCC00FFCCCC0000FFCC0033FFCC0066FFCC0099FFCC00CCFFCC00FFFFCC000000FF003300FF006600FF009900FF00CC00FF00FF00FF000033FF003333FF006633FF009933FF00CC33FF00FF33FF000066FF003366FF006666FF009966FF00CC66FF00FF66FF000099FF003399FF006699FF009999FF00CC
310
99FF00FF99FF0000CCFF0033CCFF0066CCFF0099CCFF00CCCCFF00FFCCFF0000FFFF0033FFFF0066FFFF0099FFFF00CCFFFF00FFFFFF00000000000D0D0D001A1A1A00282828003535350043434300505050005D5D5D006B6B6B00787878008686860093939300A1A1A100AEAEAE00BBBBBB00C9C9C900D6D6D600E4E4E400
310
F1F1F100FFFFFF0000000000000000000000000000000000000000000000000000000000000000000000000000000000F5F5F5F5F5F5F5F5F5F5F5F5F5F5F5F5F5F5F5F5F5F5F5F5F5F5F5F5F5F5F5F5F5F5F5F5F5F5F5F5F5F5F5F5F5F5F5F5F5F5F5F5F5F5F5F5F5F5F5F5F5F5F5F5F5F5F5F5F5F5F5F5F5F5F5F5F5F5F5
310
F5F5F5F5F5F5F5F5F5F5F5F5F5F5F5F5F5F5F5F539F5E2E2E2E2E2E2E2E2E2E2E2E2E2E2E2E2E2E2E2E2E2E2E2E2E2E2E2E2E2E2E2E2E2E2E2E2E2E2E2E2E2E2E2E2E2E2E2E2E2E2E2E2E2E2E2E2E2E2E2E2E2E2E2E2E2E2E2E2E2E2E2E2E2E2E2E2E2E2E2E2E2E2E2E2E2E2E2E2E2E2E2E2E2E2E2E2E2E245F5E2E2E2E2E2
310
E2E2E2E2E2E2E2E2E2E2E2E2E2E2E2E2E2E2E2E2E2E2E2E2E2E2E2E2E2E2E2E2E2E2E2E2E2E2E2E2E2E2E2E2E2E2E2E2E2E2E2E2E2E2E2E2E2E2E2E2E2E2E2E2E2E2E2E2E2E2E2E2E2E2E2E2E2E2E2E2E2E2E2E2E2E2E2E2E2E2E2E2E23AF5E2E2F5F5F5F5F5F5F5F5E2E2E2E2E2E2E2E2F5F5F5F5F5F5F5F5F5F5F5F5F5F5
310
F5E2E2E2E2E2E2E2E2E2F5F5F5F5F5F5F5F5F5F5F5F5F5F5E2E2E2E2E2E2E2E2E2F5F5F5F5F5F5F5F5F5F5F5F5F5F5F5E2E2E2E2E2E2E2E2F5F5F5F5F5F5F5F5E2E245F5E2E2F5E2E2E2E2E2E2E2E2E2E2E2E2E2E2E2E2E2E2E2E2E2E2E2E2E2E2E2E2E2E2E2E2E2E2E2E2E2E2E2E2E2E2E2E2E2E2E2E2E2E2E2E2E2E2E2E2
310
E2E2E2E2E2E2E2E2E2E2E2E2E2E2E2E2E2E2E2E2E2E2E2E2E2E2E2E2E2E2E2E2E2E2E2E2F5E2E23BF5E2E2F5E2E2E2E2E2E2E2E2E2E2E2E2E2E2E2E2E2E2E2E2E2E2E2E2E2E2E2E2E2E2E2E2E2E2E2E2E2E2E2E2E2E2E2E2E2E2E2E2E2E2E2E2E2E2E2E2E2E2E2E2E2E2E2E2E2E2E2E2E2E2E2E2E2E2E2E2E2E2E2E2E2E2E2
310
E2E2E2E2E2E2E2E2E2F5E2E245F5E2E2F5E2E2E2E2E2E2E2E2E2E2E2E2E2E2E2E2E2E2E2E2E2E2E2E2E2E2E2E2E2E2E2E2E2E2E2E2E2E2E2E2E2E2E2E2E2E2E2E2E2E2E2E2E2E2E2E2E2E2E2E2E2E2E2E2E2E2E2E2E2E2E2E2E2E2E2E2E2E2E2E2E2E2E2E2E2E2E2E2E2E2E2E2F5E2E23CF5E2E2F5E2E2E2E2E2E2E2E2E2E2
310
E2E2E2E2E2E2E2E2E2E2E2E2E2E2E2E2E2E2E2E2E2E2E2E2E2E2E2E2E2E2E2E2E2E2E2E2E2E2E2E2E2E2E2E2E2E2E2E2E2E2E2E2E2E2E2E2E2E2E2E2E2E2E2E2E2E2E2E2E2E2E2E2E2E2E2E2E2E2E2E2E2E2F5E2E245F5E2E2F5E2E2E2E2E2E2E2E2E2E2E2E2E2E2E2E2E2E2E2E2E2E2E2E2E2E2E2E2E2E2E2E2E2E2E2E2E2
310
E2E2E2E2E2E2E2E2E2E2E2E2E2E2E2E2E2E2E2E2E2E2E2E2E2E2E2E2E2E2E2E2E2E2E2E2E2E2E2E2E2E2E2E2E2E2E2E2E2E2E2E2E2E2E2F5E2E23DF5E2E2F5E2E2E2E2E2E2E2E2E2E2E2E2E2E2E2E2E2E2E2E2E2E2E2E2E2E2E2E2E2E2E2E2E2E2E2E2E2E2E2E2E2E2E2E2E2E2E2E2E2E2E2E2E2E2E2E2E2E2E2E2E2E2E2E2
310
E2E2E2E2E2E2E2E2E2E2E2E2E2E2E2E2E2E2E2E2E2E2E2E2E2E2E2E2F5E2E245F5E2E2F5E2E2E2E2E2E2E2E2E2E2E2E2E2E2E2E2E2E2E2E2E2E2E2E2E2E2E2E2E2E2E2E2E2E2E2E2E2E2E2E2E2E2E2E2E2E2E2E2E2E2E2E2E2E2E2E2E2E2E2E2E2E2E2E2E2E2E2E2E2E2E2E2E2E2E2E2E2E2E2E2E2E2E2E2E2E2E2E2E2E2E2
310
E2F5E2E23EF5E2E2F5E2E2E2E2E2E2E2E2E2E2E2E2E2E2E2E2E2E2E2E2E2E2E2E2E2E2E2E2E2E2E2E2E2E2E2E2E2E2E2E2E2E2E2E2E2E2E2E2E2E2E2E2E2E2E2E2E2E2E2E2E2E2E2E2E2E2E2E2E2E2E2E2E2E2E2E2E2E2E2E2E2E2E2E2E2E2E2E2E2E2E2E2F5E2E245F5E2E2E2E2E2E2E2E2E2E2E2E2E2E2E2E2E2E2E2E2E2
310
E2E2E2E2E2E2E2E2E2E2E2E2E2E2E2E2E2E2E2E2E2E2E2E2E2E2E2E2E2E2E2E2E2E2E2E2E2E2E2E2E2E2E2E2E2E2E2E2E2E2E2E2E2E2E2E2E2E2E2E2E2E2E2E2E2E2E2E2E2E2E2E2E2E2E2E2E23FF5E2E2E2E2E2E2E2E2E2E2E2E2E2E2E2E2E2E2E2E2E2E2E2E2E2E2E2E2E2E2E2E2E2E2E2E2E2E2E2E2E2E2E2E2E2E2E2E2
310
E2E2E2E2E2E2E2E2E2E2E2E2E2E2E2E2E2E2E2E2E2E2E2E2E2E2E2E2E2E2E2E2E2E2E2E2E2E2E2E2E2E2E2E2E2E2E2E2E2E245F5E2E2E2E2E2E2E2E2E2E2E2E2E2E2E2E2E2E2E2E2E2E2E2E2E2E2E2E2E2E2E2E2E2E2E2E2E2E2E2E2E2E2E2E2E2E2E2E2E2E2E2E2E2E2E2E2E2E2E2E2E2E2E2E2E2E2E2E2E2E2E2E2E2E2E2
310
E2E2E2E2E2E2E2E2E2E2E2E2E2E2E2E2E2E2E2E2E2E2E240F5E2E2E2E2E2E2E2E2E2E2E2E2E2E2E2E2E2E2E2E2E2E2E2E2E2E2E2E2E2E2E2E2E2E2E2E2E2E2E2E2E2E2E2E2E2E2E2E2E2E2E2E2E2E2E2E2E2E2E2E2E2E2E2E2E2E2E2E2E2E2E2E2E2E2E2E2E2E2E2E2E2E2E2E2E2E2E2E2E2E2E2E2E2E2E2E2E2E245F5E2E2
310
E2E2E2E2E2E2E2E2E2E2E2E2E2E2E2E2E2E2E2E2E2E2E2E2E2E2E2E2E2E2E2E2E2E2E2E2E2E2E2E2E2E2E2E2E2E2E2E2E2E2E2E2E2E2E2E2E2E2E2E2E2E2E2E2E2E2E2E2E2E2E2E2E2E2E2E2E2E2E2E2E2E2E2E2E2E2E2E2E2E2E2E2E2E2E2E241F5E2E2E2E2E2E2E2E2E2E2E2E2E2E2E2E2E2E2E2E2E2E2E2E2E2E2E2E2E2
310
E2E2E2E2E2E2E2E2E2E2E2E2E2E2E2E2E2E2E2E2E2E2E2E2E2E2E2E2E2E2E2E2E2E2E2E2E2E2E2E2E2E2E2E2E2E2E2E2E2E2E2E2E2E2E2E2E2E2E2E2E2E2E2E2E2E2E2E2E200F5E2E2E2E2E2E2E2E2E2E2E2E2E2E2E2E2E2E2E2E2E2E2E2E2E2E2E2E2E2E2E2E2E2E2E2E2E2E2E2E2E2E2E2E2E2E2E2E2E2E2E2E2E2E2E2E2
310
E2E2E2E2E2E2E2E2E2E2E2E2E2E2E2E2E2E2E2E2E2E2E2E2E2E2E2E2E2E2E2E2E2E2E2E2E2E2E2E2E2E200F5E2E2E2E2E2E2E2E2E2E2E2E2E2E2E2E2E2E2E2E2E2E2E2E2E2E2E2E2E2E2E2E2E2E2E2E2E2E2E2E2E2E2E2E2E2E2E2E2E2E2E2E2E2E2E2E2E2E2E2E2E2E2E2E2E2E2E2E2E2E2E2E2E2E2E2E2E2E2E2E2E2E2E2
310
E2E2E2E2E2E2E2E2E2E2E2E2E2E2E200F5E2E2E2E2E2E2E2E2E2E2E2E2E2E2E2E2E2E2E2E2E2E2E2E2E2E2E2E2E2E2E2E2E2E2E2E2E2E2E2E2E2E2E2E2E2E2E2E2E2E2E2E2E2E2E2E2E2E2E2E2E2E2E2E2E2E2E2E2E2E2E2E2E2E2E2E2E2E2E2E2E2E2E2E2E2E2E2E2E2E2E2E2E2E2E2E2E2E200F5E2E2E2E2E2E2E2E2E2E2
310
E2E2E2E2E2E2E2E2E2E2E2E2E2E2E2E2E2E2E2E2E2E2E2E2E2E2E2E2E2E2E2E2E2E2E2E2E2E2E2E2E2E2E2E2E2E2E2E2E2E2E2E2E2E2E2E2E2E2E2E2E2E2E2E2E2E2E2E2E2E2E2E2E2E2E2E2E2E2E2E2E2E2E2E2E2E2E2E200F5E2E2F5E2E2E2E2E2E2E2E2E2E2E2E2E2E2E2E2E2E2E2E2E2E2E2E2E2E2E2E2E2E2E2E2E2E2
310
E2E2E2E2E2E2E2E2E2E2E2E2E2E2E2E2E2E2E2E2E2E2E2E2E2E2E2E2E2E2E2E2E2E2E2E2E2E2E2E2E2E2E2E2E2E2E2E2E2E2E2E2E2E2E2E2E2E2F5E2E200F5E2E2F5E2E2E2E2E2E2E2E2E2E2E2E2E2E2E2E2E2E2E2E2E2E2E2E2E2E2E2E2E2E2E2E2E2E2E2E2E2E2E2E2E2E2E2E2E2E2E2E2E2E2E2E2E2E2E2E2E2E2E2E2E2
310
E2E2E2E2E2E2E2E2E2E2E2E2E2E2E2E2E2E2E2E2E2E2E2E2E2E2E2E2E2E2E2F5E2E200F5E2E2F5E2E2E2E2E2E2E2E2E2E2E2E2E2E2E2E2E2E2E2E2E2E2E2E2E2E2E2E2E2E2E2E2E2E2E2E2E2E2E2E2E2E2E2E2E2E2E2E2E2E2E2E2E2E2E2E2E2E2E2E2E2E2E2E2E2E2E2E2E2E2E2E2E2E2E2E2E2E2E2E2E2E2E2E2E2E2E2E2
310
E2E2E2E2F5E2E200F5E2E2F5E2E2E2E2E2E2E2E2E2E2E2E2E2E2E2E2E2E2E2E2E2E2E2E2E2E2E2E2E2E2E2E2E2E2E2E2E2E2E2E2E2E2E2E2E2E2E2E2E2E2E2E2E2E2E2E2E2E2E2E2E2E2E2E2E2E2E2E2E2E2E2E2E2E2E2E2E2E2E2E2E2E2E2E2E2E2E2E2E2E2E2E2F5E2E200F5E2E2F5E2E2E2E2E2E2E2E2E2E2E2E2E2E2E2
310
E2E2E2E2E2E2E2E2E2E2E2E2E2E2E2E2E2E2E2E2E2E2E2E2E2E2E2E2E2E2E2E2E2E2E2E2E2E2E2E2E2E2E2E2E2E2E2E2E2E2E2E2E2E2E2E2E2E2E2E2E2E2E2E2E2E2E2E2E2E2E2E2E2E2E2E2E2F5E2E200F5E2E2F5E2E2E2E2E2E2E2E2E2E2E2E2E2E2E2E2E2E2E2E2E2E2E2E2E2E2E2E2E2E2E2E2E2E2E2E2E2E2E2E2E2E2
310
E2E2E2E2E2E2E2E2E2E2E2E2E2E2E2E2E2E2E2E2E2E2E2E2E2E2E2E2E2E2E2E2E2E2E2E2E2E2E2E2E2E2E2E2E2E2E2E2E2E2F5E2E2FFF5E2E2F5E2E2E2E2E2E2E2E2E2E2E2E2E2E2E2E2E2E2E2E2E2E2E2E2E2E2E2E2E2E2E2E2E2E2E2E2E2E2E2E2E2E2E2E2E2E2E2E2E2E2E2E2E2E2E2E2E2E2E2E2E2E2E2E2E2E2E2E2E2
310
E2E2E2E2E2E2E2E2E2E2E2E2E2E2E2E2E2E2E2E2E2E2E2F5E2E200F5E2E2F5E2E2E2E2E2E2E2E2E2E2E2E2E2E2E2E2E2E2E2E2E2E2E2E2E2E2E2E2E2E2E2E2E2E2E2E2E2E2E2E2E2E2E2E2E2E2E2E2E2E2E2E2E2E2E2E2E2E2E2E2E2E2E2E2E2E2E2E2E2E2E2E2E2E2E2E2E2E2E2E2E2E2E2E2E2E2E2E2E2E2E2E2F5E2E200
310
F5E2E2F5E2E2E2E2E2E2E2E2E2E2E2E2E2E2E2E2E2E2E2E2E2E2E2E2E2E2E2E2E2E2E2E2E2E2E2E2E2E2E2E2E2E2E2E2E2E2E2E2E2E2E2E2E2E2E2E2E2E2E2E2E2E2E2E2E2E2E2E2E2E2E2E2E2E2E2E2E2E2E2E2E2E2E2E2E2E2E2E2E2E2E2E2F5E2E200F5E2E2F5E2E2E2E2E2E2E2E2E2E2E2E2E2E2E2E2E2E2E2E2E2E2E2
310
E2E2E2E2E2E2E2E2E2E2E2E2E2E2E2E2E2E2E2E2E2E2E2E2E2E2E2E2E2E2E2E2E2E2E2E2E2E2E2E2E2E2E2E2E2E2E2E2E2E2E2E2E2E2E2E2E2E2E2E2E2E2E2E2E2E2E2E2E2F5E2E200F5E2E2F5E2E2E2E2E2E2E2E2E2E2E2E2E2E2E2E2E2E2E2E2E2E2E2E2E2E2E2E2E2E2E2E2E2E2E2E2E2E2E2E2E2E2E2E2E2E2E2E2E2E2
310
E2E2E2E2E2E2E2E2E2E2E2E2E2E2E2E2E2E2E2E2E2E2E2E2E2E2E2E2E2E2E2E2E2E2E2E2E2E2E2E2E2E2F5E2E200F5E2E2F5E2E2E2E2E2E2E2E2E2E2E2E2E2E2E2E2E2E2E2E2E2E2E2E2E2E2E2E2E2E2E2E2E2E2E2E2E2E2E2E2E2E2E2E2E2E2E2E2E2E2E2E2E2E2E2E2E2E2E2E2E2E2E2E2E2E2E2E2E2E2E2E2E2E2E2E2E2
310
E2E2E2E2E2E2E2E2E2E2E2E2E2E2E2F5E2E200F5E2E2F5E2E2E2E2E2E2E2E2E2E2E2E2E2E2E2E2E2E2E2E2E2E2E2E2E2E2E2E2E2E2E2E2E2E2E2E2E2E2E2E2E2E2E2E2E2E2E2E2E2E2E2E2E2E2E2E2E2E2E2E2E2E2E2E2E2E2E2E2E2E2E2E2E2E2E2E2E2E2E2E2E2E2E2E2E2E2E2E2E2E2E2E2F5E2E200F5E2E2F5E2E2E2E2
310
E2E2E2E2E2E2E2E2E2E2E2E2E2E2E2E2E2E2E2E2E2E2E2E2E2E2E2E2E2E2E2E2E2E2E2E2E2E2E2E2E2E2E2E2E2E2E2E2E2E2E2E2E2E2E2E2E2E2E2E2E2E2E2E2E2E2E2E2E2E2E2E2E2E2E2E2E2E2E2E2E2E2E2E2E2E2E2E2F5E2E200F5E2E2F5E2E2E2E2E2E2E2E2E2E2E2E2E2E2E2E2E2E2E2E2E2E2E2E2E2E2E2E2E2E2E2
310
E2E2E2E2E2E2E2E2E2E2E2E2E2E2E2E2E2E2E2E2E2E2E2E2E2E2E2E2E2E2E2E2E2E2E2E2E2E2E2E2E2E2E2E2E2E2E2E2E2E2E2E2E2E2E2E2E2E2E2E2E2F5E2E200F5E2E2F5E2E2E2E2E2E2E2E2E2E2E2E2E2E2E2E2E2E2E2E2E2E2E2E2E2E2E2E2E2E2E2E2E2E2E2E2E2E2E2E2E2E2E2E2E2E2E2E2E2E2E2E2E2E2E2E2E2E2
310
E2E2E2E2E2E2E2E2E2E2E2E2E2E2E2E2E2E2E2E2E2E2E2E2E2E2E2E2E2E2E2E2E2E2F5E2E200F5E2E2F5E2E2E2E2E2E2E2E2E2E2E2E2E2E2E2E2E2E2E2E2E2E2E2E2E2E2E2E2E2E2E2E2E2E2E2E2E2E2E2E2E2E2E2E2E2E2E2E2E2E2E2E2E2E2E2E2E2E2E2E2E2E2E2E2E2E2E2E2E2E2E2E2E2E2E2E2E2E2E2E2E2E2E2E2E2
310
E2E2E2E2E2E2E2F5E2E200F5E2E2E2E2E2E2E2E2E2E2E2E2E2E2E2E2E2E2E2E2E2E2E2E2E2E2E2E2E2E2E2E2E2E2E2E2E2E2E2E2E2E2E2E2E2E2E2E2E2E2E2E2E2E2E2E2E2E2E2E2E2E2E2E2E2E2E2E2E2E2E2E2E2E2E2E2E2E2E2E2E2E2E2E2E2E2E2E2E2E2E2E2E2E2E2E2E2E200F5E2E2E2E2E2E2E2E2E2E2E2E2E2E2E2
310
E2E2E2E2E2E2E2E2E2E2E2E2E2E2E2E2E2E2E2E2E2E2E2E2E2E2E2E2E2E2E2E2E2E2E2E2E2E2E2E2E2E2E2E2E2E2E2E2E2E2E2E2E2E2E2E2E2E2E2E2E2E2E2E2E2E2E2E2E2E2E2E2E2E2E2E2E2E2E2E2E2E2E200F5E2E2E2E2E2E2E2E2E2E2E2E2E2E2E2E2E2E2E2E2E2E2E2E2E2E2E2E2E2E2E2E2E2E2E2E2E2E2E2E2E2E2
310
E2E2E2E2E2E2E2E2E2E2E2E2E2E2E2E2E2E2E2E2E2E2E2E2E2E2E2E2E2E2E2E2E2E2E2E2E2E2E2E2E2E2E2E2E2E2E2E2E2E2E2E2E2E2E2E200F5E2E2E2E2E2E2E2E2E2E2E2E2E2E2E2E2E2E2E2E2E2E2E2E2E2E2E2E2E2E2E2E2E2E2E2E2E2E2E2E2E2E2E2E2E2E2E2E2E2E2E2E2E2E2E2E2E2E2E2E2E2E2E2E2E2E2E2E2E2
310
E2E2E2E2E2E2E2E2E2E2E2E2E2E2E2E2E2E2E2E2E2E2E2E2E2E2E2E2E200F5E2E2E2E2E2E2E2E2E2E2E2E2E2E2E2E2E2E2E2E2E2E2E2E2E2E2E2E2E2E2E2E2E2E2E2E2E2E2E2E2E2E2E2E2E2E2E2E2E2E2E2E2E2E2E2E2E2E2E2E2E2E2E2E2E2E2E2E2E2E2E2E2E2E2E2E2E2E2E2E2E2E2E2E2E2E2E2E2E2E2E2E2E2E2E2E2
310
E2E200F5E2E2E2E2E2E2E2E2E2E2E2E2E2E2E2E2E2E2E2E2E2E2E2E2E2E2E2E2E2E2E2E2E2E2E2E2E2E2E2E2E2E2E2E2E2E2E2E2E2E2E2E2E2E2E2E2E2E2E2E2E2E2E2E2E2E2E2E2E2E2E2E2E2E2E2E2E2E2E2E2E2E2E2E2E2E2E2E2E2E2E2E2E2E2E2E2E2E200F5E2E2E2E2E2E2E2E2E2E2E2E2E2E2E2E2E2E2E2E2E2E2E2
310
E2E2E2E2E2E2E2E2E2E2E2E2E2E2E2E2E2E2E2E2E2E2E2E2E2E2E2E2E2E2E2E2E2E2E2E2E2E2E2E2E2E2E2E2E2E2E2E2E2E2E2E2E2E2E2E2E2E2E2E2E2E2E2E2E2E2E2E2E2E2E2E2E2E2E200F5E2E2E2E2E2E2E2E2E2E2E2E2E2E2E2E2E2E2E2E2E2E2E2E2E2E2E2E2E2E2E2E2E2E2E2E2E2E2E2E2E2E2E2E2E2E2E2E2E2E2
310
E2E2E2E2E2E2E2E2E2E2E2E2E2E2E2E2E2E2E2E2E2E2E2E2E2E2E2E2E2E2E2E2E2E2E2E2E2E2E2E2E2E2E2E2E2E2E2E200F5E2E2E2E2E2E2E2E2E2E2E2E2E2E2E2E2E2E2E2E2E2E2E2E2E2E2E2E2E2E2E2E2E2E2E2E2E2E2E2E2E2E2E2E2E2E2E2E2E2E2E2E2E2E2E2E2E2E2E2E2E2E2E2E2E2E2E2E2E2E2E2E2E2E2E2E2E2
310
E2E2E2E2E2E2E2E2E2E2E2E2E2E2E2E2E2E2E2E2E200F5E2E2E2E2E2E2E2E2E2E2E2E2E2E2E2E2E2E2E2E2E2E2E2E2E2E2E2E2E2E2E2E2E2E2E2E2E2E2E2E2E2E2E2E2E2E2E2E2E2E2E2E2E2E2E2E2E2E2E2E2E2E2E2E2E2E2E2E2E2E2E2E2E2E2E2E2E2E2E2E2E2E2E2E2E2E2E2E2E2E2E2E2E2E2E2E2E2E200F5E2E2F5E2
310
E2E2E2E2E2E2E2E2E2E2E2E2E2E2E2E2E2E2E2E2E2E2E2E2E2E2E2E2E2E2E2E2E2E2E2E2E2E2E2E2E2E2E2E2E2E2E2E2E2E2E2E2E2E2E2E2E2E2E2E2E2E2E2E2E2E2E2E2E2E2E2E2E2E2E2E2E2E2E2E2E2E2E2E2E2E2E2E2E2E2E2F5E2E200F5E2E2F5E2E2E2E2E2E2E2E2E2E2E2E2E2E2E2E2E2E2E2E2E2E2E2E2E2E2E2E2
310
E2E2E2E2E2E2E2E2E2E2E2E2E2E2E2E2E2E2E2E2E2E2E2E2E2E2E2E2E2E2E2E2E2E2E2E2E2E2E2E2E2E2E2E2E2E2E2E2E2E2E2E2E2E2E2E2E2E2E2E2E2E2E2E2F5E2E200F5E2E2F5E2E2E2E2E2E2E2E2E2E2E2E2E2E2E2E2E2E2E2E2E2E2E2E2E2E2E2E2E2E2E2E2E2E2E2E2E2E2E2E2E2E2E2E2E2E2E2E2E2E2E2E2E2E2E2
310
E2E2E2E2E2E2E2E2E2E2E2E2E2E2E2E2E2E2E2E2E2E2E2E2E2E2E2E2E2E2E2E2E2E2E2E2E2F5E2E200F5E2E2F5E2E2E2E2E2E2E2E2E2E2E2E2E2E2E2E2E2E2E2E2E2E2E2E2E2E2E2E2E2E2E2E2E2E2E2E2E2E2E2E2E2E2E2E2E2E2E2E2E2E2E2E2E2E2E2E2E2E2E2E2E2E2E2E2E2E2E2E2E2E2E2E2E2E2E2E2E2E2E2E2E2E2
310
E2E2E2E2E2E2E2E2E2E2F5E2E200F5E2E2F5E2E2E2E2E2E2E2E2E2E2E2E2E2E2E2E2E2E2E2E2E2E2E2E2E2E2E2E2E2E2E2E2E2E2E2E2E2E2E2E2E2E2E2E2E2E2E2E2E2E2E2E2E2E2E2E2E2E2E2E2E2E2E2E2E2E2E2E2E2E2E2E2E2E2E2E2E2E2E2E2E2E2E2E2E2E2E2E2E2E2E2E2F5E2E200F5E2E2F5E2E2E2E2E2E2E2E2E2
310
E2E2E2E2E2E2E2E2E2E2E2E2E2E2E2E2E2E2E2E2E2E2E2E2E2E2E2E2E2E2E2E2E2E2E2E2E2E2E2E2E2E2E2E2E2E2E2E2E2E2E2E2E2E2E2E2E2E2E2E2E2E2E2E2E2E2E2E2E2E2E2E2E2E2E2E2E2E2E2E2E2E2E2F5E2E200F5E2E2F5E2E2E2E2E2E2E2E2E2E2E2E2E2E2E2E2E2E2E2E2E2E2E2E2E2E2E2E2E2E2E2E2E2E2E2E2
310
E2E2E2E2E2E2E2E2E2E2E2E2E2E2E2E2E2E2E2E2E2E2E2E2E2E2E2E2E2E2E2E2E2E2E2E2E2E2E2E2E2E2E2E2E2E2E2E2E2E2E2E2E2E2E2E2F5E2E200F5E2E2F5E2E2E2E2E2E2E2E2E2E2E2E2E2E2E2E2E2E2E2E2E2E2E2E2E2E2E2E2E2E2E2E2E2E2E2E2E2E2E2E2E2E2E2E2E2E2E2E2E2E2E2E2E2E2E2E2E2E2E2E2E2E2E2
310
E2E2E2E2E2E2E2E2E2E2E2E2E2E2E2E2E2E2E2E2E2E2E2E2E2E2E2E2E2F5E2E200F5E2E2F5E2E2E2E2E2E2E2E2E2E2E2E2E2E2E2E2E2E2E2E2E2E2E2E2E2E2E2E2E2E2E2E2E2E2E2E2E2E2E2E2E2E2E2E2E2E2E2E2E2E2E2E2E2E2E2E2E2E2E2E2E2E2E2E2E2E2E2E2E2E2E2E2E2E2E2E2E2E2E2E2E2E2E2E2E2E2E2E2E2E2
310
E2E2F5E2E200F5E2E2F5E2E2E2E2E2E2E2E2E2E2E2E2E2E2E2E2E2E2E2E2E2E2E2E2E2E2E2E2E2E2E2E2E2E2E2E2E2E2E2E2E2E2E2E2E2E2E2E2E2E2E2E2E2E2E2E2E2E2E2E2E2E2E2E2E2E2E2E2E2E2E2E2E2E2E2E2E2E2E2E2E2E2E2E2E2E2E2E2E2E2E2E2F5E2E200F5E2E2F5E2E2E2E2E2E2E2E2E2E2E2E2E2E2E2E2E2
310
E2E2E2E2E2E2E2E2E2E2E2E2E2E2E2E2E2E2E2E2E2E2E2E2E2E2E2E2E2E2E2E2E2E2E2E2E2E2E2E2E2E2E2E2E2E2E2E2E2E2E2E2E2E2E2E2E2E2E2E2E2E2E2E2E2E2E2E2E2E2E2E2E2E2E2F5E2E200F5E2E2F5E2E2E2E2E2E2E2E2E2E2E2E2E2E2E2E2E2E2E2E2E2E2E2E2E2E2E2E2E2E2E2E2E2E2E2E2E2E2E2E2E2E2E2E2
310
E2E2E2E2E2E2E2E2E2E2E2E2E2E2E2E2E2E2E2E2E2E2E2E2E2E2E2E2E2E2E2E2E2E2E2E2E2E2E2E2E2E2E2E2E2E2E2E2F5E2E200F5E2E2F5E2E2E2E2E2E2E2E2E2E2E2E2E2E2E2E2E2E2E2E2E2E2E2E2E2E2E2E2E2E2E2E2E2E2E2E2E2E2E2E2E2E2E2E2E2E2E2E2E2E2E2E2E2E2E2E2E2E2E2E2E2E2E2E2E2E2E2E2E2E2E2
310
E2E2E2E2E2E2E2E2E2E2E2E2E2E2E2E2E2E2E2E2E2F5E2E200F5E2E2F5E2E2E2E2E2E2E2E2E2E2E2E2E2E2E2E2E2E2E2E2E2E2E2E2E2E2E2E2E2E2E2E2E2E2E2E2E2E2E2E2E2E2E2E2E2E2E2E2E2E2E2E2E2E2E2E2E2E2E2E2E2E2E2E2E2E2E2E2E2E2E2E2E2E2E2E2E2E2E2E2E2E2E2E2E2E2E2E2E2E2E2E2F5E2E200F5E2
310
E2F5E2E2E2E2E2E2E2E2E2E2E2E2E2E2E2E2E2E2E2E2E2E2E2E2E2E2E2E2E2E2E2E2E2E2E2E2E2E2E2E2E2E2E2E2E2E2E2E2E2E2E2E2E2E2E2E2E2E2E2E2E2E2E2E2E2E2E2E2E2E2E2E2E2E2E2E2E2E2E2E2E2E2E2E2E2E2E2E2E2E2E2E2F5E2E200F5E2E2F5E2E2E2E2E2E2E2E2E2E2E2E2E2E2E2E2E2E2E2E2E2E2E2E2E2
310
E2E2E2E2E2E2E2E2E2E2E2E2E2E2E2E2E2E2E2E2E2E2E2E2E2E2E2E2E2E2E2E2E2E2E2E2E2E2E2E2E2E2E2E2E2E2E2E2E2E2E2E2E2E2E2E2E2E2E2E2E2E2E2E2E2E2E2F5E2E200F5E2E2F5E2E2E2E2E2E2E2E2E2E2E2E2E2E2E2E2E2E2E2E2E2E2E2E2E2E2E2E2E2E2E2E2E2E2E2E2E2E2E2E2E2E2E2E2E2E2E2E2E2E2E2E2
310
E2E2E2E2E2E2E2E2E2E2E2E2E2E2E2E2E2E2E2E2E2E2E2E2E2E2E2E2E2E2E2E2E2E2E2E2E2E2E2E2F5E2E200F5E2E2E2E2E2E2E2E2E2E2E2E2E2E2E2E2E2E2E2E2E2E2E2E2E2E2E2E2E2E2E2E2E2E2E2E2E2E2E2E2E2E2E2E2E2E2E2E2E2E2E2E2E2E2E2E2E2E2E2E2E2E2E2E2E2E2E2E2E2E2E2E2E2E2E2E2E2E2E2E2E2E2
310
E2E2E2E2E2E2E2E2E2E2E2E2E2E2E2E200F5E2E2E2E2E2E2E2E2E2E2E2E2E2E2E2E2E2E2E2E2E2E2E2E2E2E2E2E2E2E2E2E2E2E2E2E2E2E2E2E2E2E2E2E2E2E2E2E2E2E2E2E2E2E2E2E2E2E2E2E2E2E2E2E2E2E2E2E2E2E2E2E2E2E2E2E2E2E2E2E2E2E2E2E2E2E2E2E2E2E2E2E2E2E2E2E2E2E200F5E2E2E2E2E2E2E2E2E2
310
E2E2E2E2E2E2E2E2E2E2E2E2E2E2E2E2E2E2E2E2E2E2E2E2E2E2E2E2E2E2E2E2E2E2E2E2E2E2E2E2E2E2E2E2E2E2E2E2E2E2E2E2E2E2E2E2E2E2E2E2E2E2E2E2E2E2E2E2E2E2E2E2E2E2E2E2E2E2E2E2E2E2E2E2E2E2E2E2E200F5E2E2E2E2E2E2E2E2E2E2E2E2E2E2E2E2E2E2E2E2E2E2E2E2E2E2E2E2E2E2E2E2E2E2E2E2
310
E2E2E2E2E2E2E2E2E2E2E2E2E2E2E2E2E2E2E2E2E2E2E2E2E2E2E2E2E2E2E2E2E2E2E2E2E2E2E2E2E2E2E2E2E2E2E2E2E2E2E2E2E2E2E2E2E2E2E2E2E2E200F5E2E2E2E2E2E2E2E2E2E2E2E2E2E2E2E2E2E2E2E2E2E2E2E2E2E2E2E2E2E2E2E2E2E2E2E2E2E2E2E2E2E2E2E2E2E2E2E2E2E2E2E2E2E2E2E2E2E2E2E2E2E2E2
310
E2E2E2E2E2E2E2E2E2E2E2E2E2E2E2E2E2E2E2E2E2E2E2E2E2E2E2E2E2E2E2E2E2E2E200F5E2E2E2E2E2E2E2E2E2E2E2E2E2E2E2E2E2E2E2E2E2E2E2E2E2E2E2E2E2E2E2E2E2E2E2E2E2E2E2E2E2E2E2E2E2E2E2E2E2E2E2E2E2E2E2E2E2E2E2E2E2E2E2E2E2E2E2E2E2E2E2E2E2E2E2E2E2E2E2E2E2E2E2E2E2E2E2E2E2E2
310
E2E2E2E2E2E2E2E200F5E2E2E2E2E2E2E2E2E2E2E2E2E2E2E2E2E2E2E2E2E2E2E2E2E2E2E2E2E2E2E2E2E2E2E2E2E2E2E2E2E2E2E2E2E2E2E2E2E2E2E2E2E2E2E2E2E2E2E2E2E2E2E2E2E2E2E2E2E2E2E2E2E2E2E2E2E2E2E2E2E2E2E2E2E2E2E2E2E2E2E2E2E2E2E2E2E2E200F5E2E2E2E2E2E2E2E2E2E2E2E2E2E2E2E2E2
310
E2E2E2E2E2E2E2E2E2E2E2E2E2E2E2E2E2E2E2E2E2E2E2E2E2E2E2E2E2E2E2E2E2E2E2E2E2E2E2E2E2E2E2E2E2E2E2E2E2E2E2E2E2E2E2E2E2E2E2E2E2E2E2E2E2E2E2E2E2E2E2E2E2E2E2E2E2E2E2E2E200F5E2E2E2E2E2E2E2E2E2E2E2E2E2E2E2E2E2E2E2E2E2E2E2E2E2E2E2E2E2E2E2E2E2E2E2E2E2E2E2E2E2E2E2E2
310
E2E2E2E2E2E2E2E2E2E2E2E2E2E2E2E2E2E2E2E2E2E2E2E2E2E2E2E2E2E2E2E2E2E2E2E2E2E2E2E2E2E2E2E2E2E2E2E2E2E2E2E2E2E200F5E2E2F5E2E2E2E2E2E2E2E2E2E2E2E2E2E2E2E2E2E2E2E2E2E2E2E2E2E2E2E2E2E2E2E2E2E2E2E2E2E2E2E2E2E2E2E2E2E2E2E2E2E2E2E2E2E2E2E2E2E2E2E2E2E2E2E2E2E2E2E2
310
E2E2E2E2E2E2E2E2E2E2E2E2E2E2E2E2E2E2E2E2E2E2E2E2F5E2E200F5E2E2F5E2E2E2E2E2E2E2E2E2E2E2E2E2E2E2E2E2E2E2E2E2E2E2E2E2E2E2E2E2E2E2E2E2E2E2E2E2E2E2E2E2E2E2E2E2E2E2E2E2E2E2E2E2E2E2E2E2E2E2E2E2E2E2E2E2E2E2E2E2E2E2E2E2E2E2E2E2E2E2E2E2E2E2E2E2E2E2E2E2E2E2E2F5E2E2
310
00F5E2E2F5E2E2E2E2E2E2E2E2E2E2E2E2E2E2E2E2E2E2E2E2E2E2E2E2E2E2E2E2E2E2E2E2E2E2E2E2E2E2E2E2E2E2E2E2E2E2E2E2E2E2E2E2E2E2E2E2E2E2E2E2E2E2E2E2E2E2E2E2E2E2E2E2E2E2E2E2E2E2E2E2E2E2E2E2E2E2E2E2E2E2E2E2F5E2E200F5E2E2F5E2E2E2E2E2E2E2E2E2E2E2E2E2E2E2E2E2E2E2E2E2E2
310
E2E2E2E2E2E2E2E2E2E2E2E2E2E2E2E2E2E2E2E2E2E2E2E2E2E2E2E2E2E2E2E2E2E2E2E2E2E2E2E2E2E2E2E2E2E2E2E2E2E2E2E2E2E2E2E2E2E2E2E2E2E2E2E2E2E2E2E2E2E2F5E2E200F5E2E2F5E2E2E2E2E2E2E2E2E2E2E2E2E2E2E2E2E2E2E2E2E2E2E2E2E2E2E2E2E2E2E2E2E2E2E2E2E2E2E2E2E2E2E2E2E2E2E2E2E2
310
E2E2E2E2E2E2E2E2E2E2E2E2E2E2E2E2E2E2E2E2E2E2E2E2E2E2E2E2E2E2E2E2E2E2E2E2E2E2E2E2E2E2E2F5E2E200F5E2E2F5E2E2E2E2E2E2E2E2E2E2E2E2E2E2E2E2E2E2E2E2E2E2E2E2E2E2E2E2E2E2E2E2E2E2E2E2E2E2E2E2E2E2E2E2E2E2E2E2E2E2E2E2E2E2E2E2E2E2E2E2E2E2E2E2E2E2E2E2E2E2E2E2E2E2E2E2
310
E2E2E2E2E2E2E2E2E2E2E2E2E2E2E2E2F5E2E200F5E2E2F5E2E2E2E2E2E2E2E2E2E2E2E2E2E2E2E2E2E2E2E2E2E2E2E2E2E2E2E2E2E2E2E2E2E2E2E2E2E2E2E2E2E2E2E2E2E2E2E2E2E2E2E2E2E2E2E2E2E2E2E2E2E2E2E2E2E2E2E2E2E2E2E2E2E2E2E2E2E2E2E2E2E2E2E2E2E2E2E2E2E2E2E2F5E2E200F5E2E2F5E2E2E2
310
E2E2E2E2E2E2E2E2E2E2E2E2E2E2E2E2E2E2E2E2E2E2E2E2E2E2E2E2E2E2E2E2E2E2E2E2E2E2E2E2E2E2E2E2E2E2E2E2E2E2E2E2E2E2E2E2E2E2E2E2E2E2E2E2E2E2E2E2E2E2E2E2E2E2E2E2E2E2E2E2E2E2E2E2E2E2E2E2E2F5E2E200F5E2E2F5E2E2E2E2E2E2E2E2E2E2E2E2E2E2E2E2E2E2E2E2E2E2E2E2E2E2E2E2E2E2
310
E2E2E2E2E2E2E2E2E2E2E2E2E2E2E2E2E2E2E2E2E2E2E2E2E2E2E2E2E2E2E2E2E2E2E2E2E2E2E2E2E2E2E2E2E2E2E2E2E2E2E2E2E2E2E2E2E2E2E2E2E2E2F5E2E200F5E2E2F5E2E2E2E2E2E2E2E2E2E2E2E2E2E2E2E2E2E2E2E2E2E2E2E2E2E2E2E2E2E2E2E2E2E2E2E2E2E2E2E2E2E2E2E2E2E2E2E2E2E2E2E2E2E2E2E2E2
310
E2E2E2E2E2E2E2E2E2E2E2E2E2E2E2E2E2E2E2E2E2E2E2E2E2E2E2E2E2E2E2E2E2E2E2F5E2E200F5E2E2F5E2E2E2E2E2E2E2E2E2E2E2E2E2E2E2E2E2E2E2E2E2E2E2E2E2E2E2E2E2E2E2E2E2E2E2E2E2E2E2E2E2E2E2E2E2E2E2E2E2E2E2E2E2E2E2E2E2E2E2E2E2E2E2E2E2E2E2E2E2E2E2E2E2E2E2E2E2E2E2E2E2E2E2E2
310
E2E2E2E2E2E2E2E2F5E2E200F5E2E2F5E2E2E2E2E2E2E2E2E2E2E2E2E2E2E2E2E2E2E2E2E2E2E2E2E2E2E2E2E2E2E2E2E2E2E2E2E2E2E2E2E2E2E2E2E2E2E2E2E2E2E2E2E2E2E2E2E2E2E2E2E2E2E2E2E2E2E2E2E2E2E2E2E2E2E2E2E2E2E2E2E2E2E2E2E2E2E2E2E2E2E2E2F5E2E200F5E2E2F5E2E2E2E2E2E2E2E2E2E2E2
310
E2E2E2E2E2E2E2E2E2E2E2E2E2E2E2E2E2E2E2E2E2E2E2E2E2E2E2E2E2E2E2E2E2E2E2E2E2E2E2E2E2E2E2E2E2E2E2E2E2E2E2E2E2E2E2E2E2E2E2E2E2E2E2E2E2E2E2E2E2E2E2E2E2E2E2E2E2E2E2E2E2F5E2E200F5E2E2F5E2E2E2E2E2E2E2E2E2E2E2E2E2E2E2E2E2E2E2E2E2E2E2E2E2E2E2E2E2E2E2E2E2E2E2E2E2E2
310
E2E2E2E2E2E2E2E2E2E2E2E2E2E2E2E2E2E2E2E2E2E2E2E2E2E2E2E2E2E2E2E2E2E2E2E2E2E2E2E2E2E2E2E2E2E2E2E2E2E2E2E2E2E2F5E2E200F5E2E2F5E2E2E2E2E2E2E2E2E2E2E2E2E2E2E2E2E2E2E2E2E2E2E2E2E2E2E2E2E2E2E2E2E2E2E2E2E2E2E2E2E2E2E2E2E2E2E2E2E2E2E2E2E2E2E2E2E2E2E2E2E2E2E2E2E2
310
E2E2E2E2E2E2E2E2E2E2E2E2E2E2E2E2E2E2E2E2E2E2E2E2E2E2E2F5E2E200F5E2E2F5E2E2E2E2E2E2E2E2E2E2E2E2E2E2E2E2E2E2E2E2E2E2E2E2E2E2E2E2E2E2E2E2E2E2E2E2E2E2E2E2E2E2E2E2E2E2E2E2E2E2E2E2E2E2E2E2E2E2E2E2E2E2E2E2E2E2E2E2E2E2E2E2E2E2E2E2E2E2E2E2E2E2E2E2E2E2E2E2E2E2E2E2
310
F5E2E200F5E2E2F5E2E2E2E2E2E2E2E2E2E2E2E2E2E2E2E2E2E2E2E2E2E2E2E2E2E2E2E2E2E2E2E2E2E2E2E2E2E2E2E2E2E2E2E2E2E2E2E2E2E2E2E2E2E2E2E2E2E2E2E2E2E2E2E2E2E2E2E2E2E2E2E2E2E2E2E2E2E2E2E2E2E2E2E2E2E2E2E2E2E2E2E2F5E2E200F5E2E2E2E2E2E2E2E2E2E2E2E2E2E2E2E2E2E2E2E2E2E2
310
E2E2E2E2E2E2E2E2E2E2E2E2E2E2E2E2E2E2E2E2E2E2E2E2E2E2E2E2E2E2E2E2E2E2E2E2E2E2E2E2E2E2E2E2E2E2E2E2E2E2E2E2E2E2E2E2E2E2E2E2E2E2E2E2E2E2E2E2E2E2E2E2E2E2E2E200F5E2E2E2E2E2E2E2E2E2E2E2E2E2E2E2E2E2E2E2E2E2E2E2E2E2E2E2E2E2E2E2E2E2E2E2E2E2E2E2E2E2E2E2E2E2E2E2E2E2
310
E2E2E2E2E2E2E2E2E2E2E2E2E2E2E2E2E2E2E2E2E2E2E2E2E2E2E2E2E2E2E2E2E2E2E2E2E2E2E2E2E2E2E2E2E2E2E2E2E200F5E2E2E2E2E2E2E2E2E2E2E2E2E2E2E2E2E2E2E2E2E2E2E2E2E2E2E2E2E2E2E2E2E2E2E2E2E2E2E2E2E2E2E2E2E2E2E2E2E2E2E2E2E2E2E2E2E2E2E2E2E2E2E2E2E2E2E2E2E2E2E2E2E2E2E2E2
310
E2E2E2E2E2E2E2E2E2E2E2E2E2E2E2E2E2E2E2E2E2E200F5E2E2E2E2E2E2E2E2E2E2E2E2E2E2E2E2E2E2E2E2E2E2E2E2E2E2E2E2E2E2E2E2E2E2E2E2E2E2E2E2E2E2E2E2E2E2E2E2E2E2E2E2E2E2E2E2E2E2E2E2E2E2E2E2E2E2E2E2E2E2E2E2E2E2E2E2E2E2E2E2E2E2E2E2E2E2E2E2E2E2E2E2E2E2E2E2E2E200F5E2E2E2
310
E2E2E2E2E2E2E2E2E2E2E2E2E2E2E2E2E2E2E2E2E2E2E2E2E2E2E2E2E2E2E2E2E2E2E2E2E2E2E2E2E2E2E2E2E2E2E2E2E2E2E2E2E2E2E2E2E2E2E2E2E2E2E2E2E2E2E2E2E2E2E2E2E2E2E2E2E2E2E2E2E2E2E2E2E2E2E2E2E2E2E2E2E2E2E200F5E2E2E2E2E2E2E2E2E2E2E2E2E2E2E2E2E2E2E2E2E2E2E2E2E2E2E2E2E2E2
310
E2E2E2E2E2E2E2E2E2E2E2E2E2E2E2E2E2E2E2E2E2E2E2E2E2E2E2E2E2E2E2E2E2E2E2E2E2E2E2E2E2E2E2E2E2E2E2E2E2E2E2E2E2E2E2E2E2E2E2E2E2E2E2E2E2E2E2E200F5E2E2E2E2E2E2E2E2E2E2E2E2E2E2E2E2E2E2E2E2E2E2E2E2E2E2E2E2E2E2E2E2E2E2E2E2E2E2E2E2E2E2E2E2E2E2E2E2E2E2E2E2E2E2E2E2E2
310
E2E2E2E2E2E2E2E2E2E2E2E2E2E2E2E2E2E2E2E2E2E2E2E2E2E2E2E2E2E2E2E2E2E2E2E2E2E2E2E2E200F5E2E2E2E2E2E2E2E2E2E2E2E2E2E2E2E2E2E2E2E2E2E2E2E2E2E2E2E2E2E2E2E2E2E2E2E2E2E2E2E2E2E2E2E2E2E2E2E2E2E2E2E2E2E2E2E2E2E2E2E2E2E2E2E2E2E2E2E2E2E2E2E2E2E2E2E2E2E2E2E2E2E2E2E2
310
E2E2E2E2E2E2E2E2E2E2E2E2E2E200F5E2E2E2E2E2E2E2E2E2E2E2E2E2E2E2E2E2E2E2E2E2E2E2E2E2E2E2E2E2E2E2E2E2E2E2E2E2E2E2E2E2E2E2E2E2E2E2E2E2E2E2E2E2E2E2E2E2E2E2E2E2E2E2E2E2E2E2E2E2E2E2E2E2E2E2E2E2E2E2E2E2E2E2E2E2E2E2E2E2E2E2E2E2E2E2E2E2E200F5E2E2E2E2E2E2E2E2E2E2E2
310
E2E2E2E2E2E2E2E2E2E2E2E2E2E2E2E2E2E2E2E2E2E2E2E2E2E2E2E2E2E2E2E2E2E2E2E2E2E2E2E2E2E2E2E2E2E2E2E2E2E2E2E2E2E2E2E2E2E2E2E2E2E2E2E2E2E2E2E2E2E2E2E2E2E2E2E2E2E2E2E2E2E2E2E2E2E2E200F5E2E2F5E2E2E2E2E2E2E2E2E2E2E2E2E2E2E2E2E2E2E2E2E2E2E2E2E2E2E2E2E2E2E2E2E2E2E2
310
E2E2E2E2E2E2E2E2E2E2E2E2E2E2E2E2E2E2E2E2E2E2E2E2E2E2E2E2E2E2E2E2E2E2E2E2E2E2E2E2E2E2E2E2E2E2E2E2E2E2E2E2E2E2E2E2E2F5E2E200F5E2E2F5E2E2E2E2E2E2E2E2E2E2E2E2E2E2E2E2E2E2E2E2E2E2E2E2E2E2E2E2E2E2E2E2E2E2E2E2E2E2E2E2E2E2E2E2E2E2E2E2E2E2E2E2E2E2E2E2E2E2E2E2E2E2
310
E2E2E2E2E2E2E2E2E2E2E2E2E2E2E2E2E2E2E2E2E2E2E2E2E2E2E2E2E2E2F5E2E200F5E2E2F5E2E2E2E2E2E2E2E2E2E2E2E2E2E2E2E2E2E2E2E2E2E2E2E2E2E2E2E2E2E2E2E2E2E2E2E2E2E2E2E2E2E2E2E2E2E2E2E2E2E2E2E2E2E2E2E2E2E2E2E2E2E2E2E2E2E2E2E2E2E2E2E2E2E2E2E2E2E2E2E2E2E2E2E2E2E2E2E2E2
310
E2E2E2F5E2E200F5E2E2F5E2E2E2E2E2E2E2E2E2E2E2E2E2E2E2E2E2E2E2E2E2E2E2E2E2E2E2E2E2E2E2E2E2E2E2E2E2E2E2E2E2E2E2E2E2E2E2E2E2E2E2E2E2E2E2E2E2E2E2E2E2E2E2E2E2E2E2E2E2E2E2E2E2E2E2E2E2E2E2E2E2E2E2E2E2E2E2E2E2E2E2E2F5E2E200F5E2E2F5E2E2E2E2E2E2E2E2E2E2E2E2E2E2E2E2
310
E2E2E2E2E2E2E2E2E2E2E2E2E2E2E2E2E2E2E2E2E2E2E2E2E2E2E2E2E2E2E2E2E2E2E2E2E2E2E2E2E2E2E2E2E2E2E2E2E2E2E2E2E2E2E2E2E2E2E2E2E2E2E2E2E2E2E2E2E2E2E2E2E2E2E2E2F5E2E200F5E2E2F5E2E2E2E2E2E2E2E2E2E2E2E2E2E2E2E2E2E2E2E2E2E2E2E2E2E2E2E2E2E2E2E2E2E2E2E2E2E2E2E2E2E2E2
310
E2E2E2E2E2E2E2E2E2E2E2E2E2E2E2E2E2E2E2E2E2E2E2E2E2E2E2E2E2E2E2E2E2E2E2E2E2E2E2E2E2E2E2E2E2E2E2E2E2F5E2E200F5E2E2F5E2E2E2E2E2E2E2E2E2E2E2E2E2E2E2E2E2E2E2E2E2E2E2E2E2E2E2E2E2E2E2E2E2E2E2E2E2E2E2E2E2E2E2E2E2E2E2E2E2E2E2E2E2E2E2E2E2E2E2E2E2E2E2E2E2E2E2E2E2E2
310
E2E2E2E2E2E2E2E2E2E2E2E2E2E2E2E2E2E2E2E2E2E2F5E2E200F5E2E2F5E2E2E2E2E2E2E2E2E2E2E2E2E2E2E2E2E2E2E2E2E2E2E2E2E2E2E2E2E2E2E2E2E2E2E2E2E2E2E2E2E2E2E2E2E2E2E2E2E2E2E2E2E2E2E2E2E2E2E2E2E2E2E2E2E2E2E2E2E2E2E2E2E2E2E2E2E2E2E2E2E2E2E2E2E2E2E2E2E2E2E2E2F5E2E200F5
310
E2E2F5E2E2E2E2E2E2E2E2E2E2E2E2E2E2E2E2E2E2E2E2E2E2E2E2E2E2E2E2E2E2E2E2E2E2E2E2E2E2E2E2E2E2E2E2E2E2E2E2E2E2E2E2E2E2E2E2E2E2E2E2E2E2E2E2E2E2E2E2E2E2E2E2E2E2E2E2E2E2E2E2E2E2E2E2E2E2E2E2E2E2E2E2F5E2E248F5E2E2F5E2E2E2E2E2E2E2E2E2E2E2E2E2E2E2E2E2E2E2E2E2E2E2E2
310
E2E2E2E2E2E2E2E2E2E2E2E2E2E2E2E2E2E2E2E2E2E2E2E2E2E2E2E2E2E2E2E2E2E2E2E2E2E2E2E2E2E2E2E2E2E2E2E2E2E2E2E2E2E2E2E2E2E2E2E2E2E2E2E2E2E2E2E2F5E2E239F5E2E2F5E2E2E2E2E2E2E2E2E2E2E2E2E2E2E2E2E2E2E2E2E2E2E2E2E2E2E2E2E2E2E2E2E2E2E2E2E2E2E2E2E2E2E2E2E2E2E2E2E2E2E2
310
E2E2E2E2E2E2E2E2E2E2E2E2E2E2E2E2E2E2E2E2E2E2E2E2E2E2E2E2E2E2E2E2E2E2E2E2E2E2E2E2E2F5E2E249F5E2E2F5E2E2E2E2E2E2E2E2E2E2E2E2E2E2E2E2E2E2E2E2E2E2E2E2E2E2E2E2E2E2E2E2E2E2E2E2E2E2E2E2E2E2E2E2E2E2E2E2E2E2E2E2E2E2E2E2E2E2E2E2E2E2E2E2E2E2E2E2E2E2E2E2E2E2E2E2E2E2
310
E2E2E2E2E2E2E2E2E2E2E2E2E2E2F5E2E239F5E2E2F5E2E2E2E2E2E2E2E2E2E2E2E2E2E2E2E2E2E2E2E2E2E2E2E2E2E2E2E2E2E2E2E2E2E2E2E2E2E2E2E2E2E2E2E2E2E2E2E2E2E2E2E2E2E2E2E2E2E2E2E2E2E2E2E2E2E2E2E2E2E2E2E2E2E2E2E2E2E2E2E2E2E2E2E2E2E2E2E2E2E2E2E2F5E2E24AF5E2E2F5E2E2E2E2E2
310
E2E2E2E2E2E2E2E2E2E2E2E2E2E2E2E2E2E2E2E2E2E2E2E2E2E2E2E2E2E2E2E2E2E2E2E2E2E2E2E2E2E2E2E2E2E2E2E2E2E2E2E2E2E2E2E2E2E2E2E2E2E2E2E2E2E2E2E2E2E2E2E2E2E2E2E2E2E2E2E2E2E2E2E2E2E2E2F5E2E239F5E2E2F5E2E2E2E2E2E2E2E2E2E2E2E2E2E2E2E2E2E2E2E2E2E2E2E2E2E2E2E2E2E2E2E2
310
E2E2E2E2E2E2E2E2E2E2E2E2E2E2E2E2E2E2E2E2E2E2E2E2E2E2E2E2E2E2E2E2E2E2E2E2E2E2E2E2E2E2E2E2E2E2E2E2E2E2E2E2E2E2E2E2E2E2E2E2F5E2E24BF5E2E2F5E2E2E2E2E2E2E2E2E2E2E2E2E2E2E2E2E2E2E2E2E2E2E2E2E2E2E2E2E2E2E2E2E2E2E2E2E2E2E2E2E2E2E2E2E2E2E2E2E2E2E2E2E2E2E2E2E2E2E2
310
E2E2E2E2E2E2E2E2E2E2E2E2E2E2E2E2E2E2E2E2E2E2E2E2E2E2E2E2E2E2E2E2E2F5E2E239F5E2E2F5E2E2E2E2E2E2E2E2E2E2E2E2E2E2E2E2E2E2E2E2E2E2E2E2E2E2E2E2E2E2E2E2E2E2E2E2E2E2E2E2E2E2E2E2E2E2E2E2E2E2E2E2E2E2E2E2E2E2E2E2E2E2E2E2E2E2E2E2E2E2E2E2E2E2E2E2E2E2E2E2E2E2E2E2E2E2
310
E2E2E2E2E2E2F5E2E24CF5E2E2E2E2E2E2E2E2E2E2E2E2E2E2E2E2E2E2E2E2E2E2E2E2E2E2E2E2E2E2E2E2E2E2E2E2E2E2E2E2E2E2E2E2E2E2E2E2E2E2E2E2E2E2E2E2E2E2E2E2E2E2E2E2E2E2E2E2E2E2E2E2E2E2E2E2E2E2E2E2E2E2E2E2E2E2E2E2E2E2E2E2E2E2E2E2E2E200F5E2E2E2E2E2E2E2E2E2E2E2E2E2E2E2E2
310
E2E2E2E2E2E2E2E2E2E2E2E2E2E2E2E2E2E2E2E2E2E2E2E2E2E2E2E2E2E2E2E2E2E2E2E2E2E2E2E2E2E2E2E2E2E2E2E2E2E2E2E2E2E2E2E2E2E2E2E2E2E2E2E2E2E2E2E2E2E2E2E2E2E2E2E2E2E2E2E2E2E200F5E2E2E2E2E2E2E2E2E2E2E2E2E2E2E2E2E2E2E2E2E2E2E2E2E2E2E2E2E2E2E2E2E2E2E2E2E2E2E2E2E2E2E2
310
E2E2E2E2E2E2E2E2E2E2E2E2E2E2E2E2E2E2E2E2E2E2E2E2E2E2E2E2E2E2E2E2E2E2E2E2E2E2E2E2E2E2E2E2E2E2E2E2E2E2E2E2E2E2E200F5E2E2E2E2E2E2E2E2E2E2E2E2E2E2E2E2E2E2E2E2E2E2E2E2E2E2E2E2E2E2E2E2E2E2E2E2E2E2E2E2E2E2E2E2E2E2E2E2E2E2E2E2E2E2E2E2E2E2E2E2E2E2E2E2E2E2E2E2E2E2
310
E2E2E2E2E2E2E2E2E2E2E2E2E2E2E2E2E2E2E2E2E2E2E2E2E2E2E2E200F5E2E2E2E2E2E2E2E2E2E2E2E2E2E2E2E2E2E2E2E2E2E2E2E2E2E2E2E2E2E2E2E2E2E2E2E2E2E2E2E2E2E2E2E2E2E2E2E2E2E2E2E2E2E2E2E2E2E2E2E2E2E2E2E2E2E2E2E2E2E2E2E2E2E2E2E2E2E2E2E2E2E2E2E2E2E2E2E2E2E2E2E2E2E2E2E2E2
310
E200F5E2E2E2E2E2E2E2E2E2E2E2E2E2E2E2E2E2E2E2E2E2E2E2E2E2E2E2E2E2E2E2E2E2E2E2E2E2E2E2E2E2E2E2E2E2E2E2E2E2E2E2E2E2E2E2E2E2E2E2E2E2E2E2E2E2E2E2E2E2E2E2E2E2E2E2E2E2E2E2E2E2E2E2E2E2E2E2E2E2E2E2E2E2E2E2E2E2E200F5E2E2E2E2E2E2E2E2E2E2E2E2E2E2E2E2E2E2E2E2E2E2E2E2
310
E2E2E2E2E2E2E2E2E2E2E2E2E2E2E2E2E2E2E2E2E2E2E2E2E2E2E2E2E2E2E2E2E2E2E2E2E2E2E2E2E2E2E2E2E2E2E2E2E2E2E2E2E2E2E2E2E2E2E2E2E2E2E2E2E2E2E2E2E2E2E2E2E2E200F5E2E2E2E2E2E2E2E2E2E2E2E2E2E2E2E2E2E2E2E2E2E2E2E2E2E2E2E2E2E2E2E2E2E2E2E2E2E2E2E2E2E2E2E2E2E2E2E2E2E2E2
310
E2E2E2E2E2E2E2E2E2E2E2E2E2E2E2E2E2E2E2E2E2E2E2E2E2E2E2E2E2E2E2E2E2E2E2E2E2E2E2E2E2E2E2E2E2E2E200F5E2E2E2E2E2E2E2E2E2E2E2E2E2E2E2E2E2E2E2E2E2E2E2E2E2E2E2E2E2E2E2E2E2E2E2E2E2E2E2E2E2E2E2E2E2E2E2E2E2E2E2E2E2E2E2E2E2E2E2E2E2E2E2E2E2E2E2E2E2E2E2E2E2E2E2E2E2E2
310
E2E2E2E2E2E2E2E2E2E2E2E2E2E2E2E2E2E2E2E200F5E2E2E2E2E2E2E2E2E2E2E2E2E2E2E2E2E2E2E2E2E2E2E2E2E2E2E2E2E2E2E2E2E2E2E2E2E2E2E2E2E2E2E2E2E2E2E2E2E2E2E2E2E2E2E2E2E2E2E2E2E2E2E2E2E2E2E2E2E2E2E2E2E2E2E2E2E2E2E2E2E2E2E2E2E2E2E2E2E2E2E2E2E2E2E2E2E2E200F5E2E2F5E2E2
310
E2E2E2E2E2E2E2E2E2E2E2E2E2E2E2E2E2E2E2E2E2E2E2E2E2E2E2E2E2E2E2E2E2E2E2E2E2E2E2E2E2E2E2E2E2E2E2E2E2E2E2E2E2E2E2E2E2E2E2E2E2E2E2E2E2E2E2E2E2E2E2E2E2E2E2E2E2E2E2E2E2E2E2E2E2E2E2E2E2E2F5E2E200F5E2E2F5E2E2E2E2E2E2E2E2E2E2E2E2E2E2E2E2E2E2E2E2E2E2E2E2E2E2E2E2E2
310
E2E2E2E2E2E2E2E2E2E2E2E2E2E2E2E2E2E2E2E2E2E2E2E2E2E2E2E2E2E2E2E2E2E2E2E2E2E2E2E2E2E2E2E2E2E2E2E2E2E2E2E2E2E2E2E2E2E2E2E2E2E2E2F5E2E200F5E2E2F5E2E2E2E2E2E2E2E2E2E2E2E2E2E2E2E2E2E2E2E2E2E2E2E2E2E2E2E2E2E2E2E2E2E2E2E2E2E2E2E2E2E2E2E2E2E2E2E2E2E2E2E2E2E2E2E2
310
E2E2E2E2E2E2E2E2E2E2E2E2E2E2E2E2E2E2E2E2E2E2E2E2E2E2E2E2E2E2E2E2E2E2E2E2F5E2E200F5E2E2F5E2E2E2E2E2E2E2E2E2E2E2E2E2E2E2E2E2E2E2E2E2E2E2E2E2E2E2E2E2E2E2E2E2E2E2E2E2E2E2E2E2E2E2E2E2E2E2E2E2E2E2E2E2E2E2E2E2E2E2E2E2E2E2E2E2E2E2E2E2E2E2E2E2E2E2E2E2E2E2E2E2E2E2
310
E2E2E2E2E2E2E2E2E2F5E2E200F5E2E2F5E2E2E2E2E2E2E2E2E2E2E2E2E2E2E2E2E2E2E2E2E2E2E2E2E2E2E2E2E2E2E2E2E2E2E2E2E2E2E2E2E2E2E2E2E2E2E2E2E2E2E2E2E2E2E2E2E2E2E2E2E2E2E2E2E2E2E2E2E2E2E2E2E2E2E2E2E2E2E2E2E2E2E2E2E2E2E2E2E2E2E2E2F5E2E200F5E2E2F5E2E2E2E2E2E2E2E2E2E2
310
E2E2E2E2E2E2E2E2E2E2E2E2E2E2E2E2E2E2E2E2E2E2E2E2E2E2E2E2E2E2E2E2E2E2E2E2E2E2E2E2E2E2E2E2E2E2E2E2E2E2E2E2E2E2E2E2E2E2E2E2E2E2E2E2E2E2E2E2E2E2E2E2E2E2E2E2E2E2E2E2E2E2F5E2E200F5E2E2F5E2E2E2E2E2E2E2E2E2E2E2E2E2E2E2E2E2E2E2E2E2E2E2E2E2E2E2E2E2E2E2E2E2E2E2E2E2
310
E2E2E2E2E2E2E2E2E2E2E2E2E2E2E2E2E2E2E2E2E2E2E2E2E2E2E2E2E2E2E2E2E2E2E2E2E2E2E2E2E2E2E2E2E2E2E2E2E2E2E2E2E2E2E2F5E2E200F5E2E2F5E2E2E2E2E2E2E2E2E2E2E2E2E2E2E2E2E2E2E2E2E2E2E2E2E2E2E2E2E2E2E2E2E2E2E2E2E2E2E2E2E2E2E2E2E2E2E2E2E2E2E2E2E2E2E2E2E2E2E2E2E2E2E2E2
310
E2E2E2E2E2E2E2E2E2E2E2E2E2E2E2E2E2E2E2E2E2E2E2E2E2E2E2E2F5E2E200F5E2E2F5F5F5F5F5F5F5F5E2E2E2E2E2E2E2E2F5F5F5F5F5F5F5F5F5F5F5F5F5F5F5E2E2E2E2E2E2E2E2E2F5F5F5F5F5F5F5F5F5F5F5F5F5F5E2E2E2E2E2E2E2E2E2F5F5F5F5F5F5F5F5F5F5F5F5F5F5F5E2E2E2E2E2E2E2E2F5F5F5F5F5F5
310
F5F5E2E201F5E2E2E2E2E2E2E2E2E2E2E2E2E2E2E2E2E2E2E2E2E2E2E2E2E2E2E2E2E2E2E2E2E2E2E2E2E2E2E2E2E2E2E2E2E2E2E2E2E2E2E2E2E2E2E2E2E2E2E2E2E2E2E2E2E2E2E2E2E2E2E2E2E2E2E2E2E2E2E2E2E2E2E2E2E2E2E2E2E2E2E2E2E2E2E2E2E2E200F5E2E2E2E2E2E2E2E2E2E2E2E2E2E2E2E2E2E2E2E2E2
310
E2E2E2E2E2E2E2E2E2E2E2E2E2E2E2E2E2E2E2E2E2E2E2E2E2E2E2E2E2E2E2E2E2E2E2E2E2E2E2E2E2E2E2E2E2E2E2E2E2E2E2E2E2E2E2E2E2E2E2E2E2E2E2E2E2E2E2E2E2E2E2E2E2E2E2E2E200
  0
XRECORD
  5
C650
102
{ACAD_REACTORS
330
C5CF
102
}
330
C5CF
100
AcDbXrecord
280
     1
102
MATERIAL
148
0.0
149
0.0
149
0.0
 93
        0
 94
      127
282
     0
 72
     0
 77
     0
171
     0
175
     0
179
     0
273
     0
  0
XRECORD
  5
C5D1
102
{ACAD_REACTORS
330
C5CF
102
}
330
C5CF
100
AcDbXrecord
280
     1
270
     1
271
     1
  0
XRECORD
  5
C5D0
102
{ACAD_REACTORS
330
C5CF
102
}
330
C5CF
100
AcDbXrecord
280
     1
270
     1
271
     1
  0
XRECORD
  5
C5D4
102
{ACAD_REACTORS
330
C5CF
102
}
330
C5CF
100
AcDbXrecord
280
     1
270
     1
271
     1
  0
XRECORD
  5
C5D3
102
{ACAD_REACTORS
330
C5CF
102
}
330
C5CF
100
AcDbXrecord
280
     1
270
     1
271
     1
  0
XRECORD
  5
C5D5
102
{ACAD_REACTORS
330
C5CF
102
}
330
C5CF
100
AcDbXrecord
280
     1
270
     1
271
     1
  0
XRECORD
  5
C5D2
102
{ACAD_REACTORS
330
C5CF
102
}
330
C5CF
100
AcDbXrecord
280
     1
270
     1
271
     1
  0
XRECORD
  5
C64F
102
{ACAD_REACTORS
330
C5C7
102
}
330
C5C7
100
AcDbXrecord
280
     1
102
MATERIAL
148
0.0
149
0.0
149
0.0
 93
        0
 94
      127
282
     0
 72
     0
 77
     0
171
     0
175
     0
179
     0
273
     0
  0
XRECORD
  5
C5C9
102
{ACAD_REACTORS
330
C5C7
102
}
330
C5C7
100
AcDbXrecord
280
     1
270
     1
271
     1
  0
XRECORD
  5
C5C8
102
{ACAD_REACTORS
330
C5C7
102
}
330
C5C7
100
AcDbXrecord
280
     1
270
     1
271
     1
  0
XRECORD
  5
C5CC
102
{ACAD_REACTORS
330
C5C7
102
}
330
C5C7
100
AcDbXrecord
280
     1
270
     1
271
     1
  0
XRECORD
  5
C5CB
102
{ACAD_REACTORS
330
C5C7
102
}
330
C5C7
100
AcDbXrecord
280
     1
270
     1
271
     1
  0
XRECORD
  5
C5CD
102
{ACAD_REACTORS
330
C5C7
102
}
330
C5C7
100
AcDbXrecord
280
     1
270
     1
271
     1
  0
XRECORD
  5
C5CA
102
{ACAD_REACTORS
330
C5C7
102
}
330
C5C7
100
AcDbXrecord
280
     1
270
     1
271
     1
  0
XRECORD
  5
C651
102
{ACAD_REACTORS
330
C5D7
102
}
330
C5D7
100
AcDbXrecord
280
     1
102
MATERIAL
148
0.0
149
0.0
149
0.0
 93
        0
 94
      127
282
     0
 72
     0
 77
     0
171
     0
175
     0
179
     0
273
     0
  0
XRECORD
  5
C5D9
102
{ACAD_REACTORS
330
C5D7
102
}
330
C5D7
100
AcDbXrecord
280
     1
270
     1
271
     1
  0
XRECORD
  5
C5D8
102
{ACAD_REACTORS
330
C5D7
102
}
330
C5D7
100
AcDbXrecord
280
     1
270
     1
271
     1
  0
XRECORD
  5
C5DC
102
{ACAD_REACTORS
330
C5D7
102
}
330
C5D7
100
AcDbXrecord
280
     1
270
     1
271
     1
  0
XRECORD
  5
C5DB
102
{ACAD_REACTORS
330
C5D7
102
}
330
C5D7
100
AcDbXrecord
280
     1
270
     1
271
     1
  0
XRECORD
  5
C5DD
102
{ACAD_REACTORS
330
C5D7
102
}
330
C5D7
100
AcDbXrecord
280
     1
270
     1
271
     1
  0
XRECORD
  5
C5DA
102
{ACAD_REACTORS
330
C5D7
102
}
330
C5D7
100
AcDbXrecord
280
     1
270
     1
271
     1
  0
CELLSTYLEMAP
  5
C648
102
{ACAD_REACTORS
330
C647
102
}
330
C647
100
AcDbCellStyleMap
 90
        3
300
CELLSTYLE
  1
TABLEFORMAT_BEGIN
 90
        5
170
     1
 91
        0
 92
    32768
 62
   257
 93
        1
300
CONTENTFORMAT
  1
CONTENTFORMAT_BEGIN
 90
        0
 91
        0
 92
      512
 93
        0
300

 40
0.0
140
1.0
 94
        5
 62
     0
340
11
144
0.25
309
CONTENTFORMAT_END
171
     0
 94
        0
309
TABLEFORMAT_END
  1
CELLSTYLE_BEGIN
 90
        1
 91
        1
300
_TITLE
309
CELLSTYLE_END
300
CELLSTYLE
  1
TABLEFORMAT_BEGIN
 90
        5
170
     1
 91
        0
 92
        0
 62
   257
 93
        1
300
CONTENTFORMAT
  1
CONTENTFORMAT_BEGIN
 90
        0
 91
        0
 92
      512
 93
        0
300

 40
0.0
140
1.0
 94
        5
 62
     0
340
11
144
0.18
309
CONTENTFORMAT_END
171
     0
 94
        0
309
TABLEFORMAT_END
  1
CELLSTYLE_BEGIN
 90
        2
 91
        1
300
_HEADER
309
CELLSTYLE_END
300
CELLSTYLE
  1
TABLEFORMAT_BEGIN
 90
        5
170
     1
 91
        0
 92
        0
 62
   257
 93
        1
300
CONTENTFORMAT
  1
CONTENTFORMAT_BEGIN
 90
        0
 91
        0
 92
      512
 93
        0
300

 40
0.0
140
1.0
 94
        2
 62
     0
340
11
144
0.18
309
CONTENTFORMAT_END
171
     0
 94
        0
309
TABLEFORMAT_END
  1
CELLSTYLE_BEGIN
 90
        3
 91
        2
300
_DATA
309
CELLSTYLE_END
  0
XRECORD
  5
C678
102
{ACAD_REACTORS
330
C647
102
}
330
C647
100
AcDbXrecord
280
     1
102
ACAD_ROUNDTRIP_PRE2007_TABLESTYLE
 90
      512
 91
        0
  1

 92
      512
 93
        0
  2

 94
      512
 95
        0
  3

  0
XRECORD
  5
C65D
102
{ACAD_REACTORS
330
C65C
102
}
330
C65C
100
AcDbXrecord
280
     1
102
RTVSPropertyOp0
 70
     1
102
RTVSPropertyOp1
 70
     1
102
RTVSPropertyOp2
 70
     1
102
RTVSPropertyOp3
 70
     1
102
RTVSPropertyOp4
 70
     1
102
RTVSPropertyOp5
 70
     1
102
RTVSPropertyOp6
 70
     1
102
RTVSPropertyOp7
 70
     1
102
RTVSPropertyOp8
 70
     1
102
RTVSPropertyOp9
 70
     1
102
RTVSPropertyOp10
 70
     1
102
RTVSPropertyOp11
 70
     1
102
RTVSPropertyOp12
 70
     1
102
RTVSPropertyOp13
 70
     1
102
RTVSPropertyOp14
 70
     1
102
RTVSPropertyOp15
 70
     1
102
RTVSPropertyOp16
 70
     1
102
RTVSPropertyOp17
 70
     1
102
RTVSPropertyOp18
 70
     1
102
RTVSPropertyOp19
 70
     1
102
RTVSPropertyOp20
 70
     1
102
RTVSPropertyOp21
 70
     1
102
RTVSPropertyOp22
 70
     1
102
RTVSPropertyOp23
 70
     1
102
RTVSPropertyOp24
 70
     1
102
RTVSPropertyOp25
 70
     1
102
RTVSPropertyOp26
 70
     1
102
RTVSPropertyOp27
 70
     1
  0
XRECORD
  5
C661
102
{ACAD_REACTORS
330
C660
102
}
330
C660
100
AcDbXrecord
280
     1
102
RTVSPropertyOp0
 70
     1
102
RTVSPropertyOp1
 70
     1
102
RTVSPropertyOp2
 70
     1
102
RTVSPropertyOp3
 70
     1
102
RTVSPropertyOp4
 70
     1
102
RTVSPropertyOp5
 70
     1
102
RTVSPropertyOp6
 70
     1
102
RTVSPropertyOp7
 70
     1
102
RTVSPropertyOp8
 70
     1
102
RTVSPropertyOp9
 70
     1
102
RTVSPropertyOp10
 70
     1
102
RTVSPropertyOp11
 70
     1
102
RTVSPropertyOp12
 70
     1
102
RTVSPropertyOp13
 70
     1
102
RTVSPropertyOp14
 70
     1
102
RTVSPropertyOp15
 70
     1
102
RTVSPropertyOp16
 70
     1
102
RTVSPropertyOp17
 70
     1
102
RTVSPropertyOp18
 70
     1
102
RTVSPropertyOp19
 70
     1
102
RTVSPropertyOp20
 70
     1
102
RTVSPropertyOp21
 70
     1
102
RTVSPropertyOp22
 70
     1
102
RTVSPropertyOp23
 70
     1
102
RTVSPropertyOp24
 70
     1
102
RTVSPropertyOp25
 70
     1
102
RTVSPropertyOp26
 70
     1
102
RTVSPropertyOp27
 70
     1
  0
XRECORD
  5
C65F
102
{ACAD_REACTORS
330
C65E
102
}
330
C65E
100
AcDbXrecord
280
     1
102
RTVSPropertyOp0
 70
     1
102
RTVSPropertyOp1
 70
     1
102
RTVSPropertyOp2
 70
     1
102
RTVSPropertyOp3
 70
     1
102
RTVSPropertyOp4
 70
     1
102
RTVSPropertyOp5
 70
     1
102
RTVSPropertyOp6
 70
     1
102
RTVSPropertyOp7
 70
     1
102
RTVSPropertyOp8
 70
     1
102
RTVSPropertyOp9
 70
     1
102
RTVSPropertyOp10
 70
     1
102
RTVSPropertyOp11
 70
     1
102
RTVSPropertyOp12
 70
     1
102
RTVSPropertyOp13
 70
     1
102
RTVSPropertyOp14
 70
     1
102
RTVSPropertyOp15
 70
     1
102
RTVSPropertyOp16
 70
     1
102
RTVSPropertyOp17
 70
     1
102
RTVSPropertyOp18
 70
     1
102
RTVSPropertyOp19
 70
     1
102
RTVSPropertyOp20
 70
     1
102
RTVSPropertyOp21
 70
     1
102
RTVSPropertyOp22
 70
     1
102
RTVSPropertyOp23
 70
     1
102
RTVSPropertyOp24
 70
     1
102
RTVSPropertyOp25
 70
     1
102
RTVSPropertyOp26
 70
     1
102
RTVSPropertyOp27
 70
     1
  0
XRECORD
  5
C65B
102
{ACAD_REACTORS
330
C65A
102
}
330
C65A
100
AcDbXrecord
280
     1
102
RTVSPropertyOp0
 70
     1
102
RTVSPropertyOp1
 70
     1
102
RTVSPropertyOp2
 70
     1
102
RTVSPropertyOp3
 70
     1
102
RTVSPropertyOp4
 70
     1
102
RTVSPropertyOp5
 70
     1
102
RTVSPropertyOp6
 70
     1
102
RTVSPropertyOp7
 70
     1
102
RTVSPropertyOp8
 70
     1
102
RTVSPropertyOp9
 70
     1
102
RTVSPropertyOp10
 70
     1
102
RTVSPropertyOp11
 70
     1
102
RTVSPropertyOp12
 70
     1
102
RTVSPropertyOp13
 70
     1
102
RTVSPropertyOp14
 70
     1
102
RTVSPropertyOp15
 70
     1
102
RTVSPropertyOp16
 70
     1
102
RTVSPropertyOp17
 70
     1
102
RTVSPropertyOp18
 70
     1
102
RTVSPropertyOp19
 70
     1
102
RTVSPropertyOp20
 70
     1
102
RTVSPropertyOp21
 70
     1
102
RTVSPropertyOp22
 70
     1
102
RTVSPropertyOp23
 70
     1
102
RTVSPropertyOp24
 70
     1
102
RTVSPropertyOp25
 70
     1
102
RTVSPropertyOp26
 70
     1
102
RTVSPropertyOp27
 70
     1
  0
XRECORD
  5
C669
102
{ACAD_REACTORS
330
C668
102
}
330
C668
100
AcDbXrecord
280
     1
102
RTVSPropertyOp0
 70
     1
102
RTVSPropertyOp1
 70
     1
102
RTVSPropertyOp2
 70
     1
102
RTVSPropertyOp3
 70
     1
102
RTVSPropertyOp4
 70
     1
102
RTVSPropertyOp5
 70
     1
102
RTVSPropertyOp6
 70
     1
102
RTVSPropertyOp7
 70
     1
102
RTVSPropertyOp8
 70
     1
102
RTVSPropertyOp9
 70
     1
102
RTVSPropertyOp10
 70
     1
102
RTVSPropertyOp11
 70
     1
102
RTVSPropertyOp12
 70
     1
102
RTVSPropertyOp13
 70
     1
102
RTVSPropertyOp14
 70
     1
102
RTVSPropertyOp15
 70
     1
102
RTVSPropertyOp16
 70
     1
102
RTVSPropertyOp17
 70
     1
102
RTVSPropertyOp18
 70
     1
102
RTVSPropertyOp19
 70
     1
102
RTVSPropertyOp20
 70
     1
102
RTVSPropertyOp21
 70
     1
102
RTVSPropertyOp22
 70
     1
102
RTVSPropertyOp23
 70
     1
102
RTVSPropertyOp24
 70
     1
102
RTVSPropertyOp25
 70
     1
102
RTVSPropertyOp26
 70
     1
102
RTVSPropertyOp27
 70
     1
  0
XRECORD
  5
C671
102
{ACAD_REACTORS
330
C670
102
}
330
C670
100
AcDbXrecord
280
     1
102
RTVSPropertyOp0
 70
     1
102
RTVSPropertyOp1
 70
     1
102
RTVSPropertyOp2
 70
     1
102
RTVSPropertyOp3
 70
     1
102
RTVSPropertyOp4
 70
     1
102
RTVSPropertyOp5
 70
     1
102
RTVSPropertyOp6
 70
     1
102
RTVSPropertyOp7
 70
     1
102
RTVSPropertyOp8
 70
     1
102
RTVSPropertyOp9
 70
     1
102
RTVSPropertyOp10
 70
     1
102
RTVSPropertyOp11
 70
     1
102
RTVSPropertyOp12
 70
     1
102
RTVSPropertyOp13
 70
     1
102
RTVSPropertyOp14
 70
     1
102
RTVSPropertyOp15
 70
     1
102
RTVSPropertyOp16
 70
     1
102
RTVSPropertyOp17
 70
     1
102
RTVSPropertyOp18
 70
     1
102
RTVSPropertyOp19
 70
     1
102
RTVSPropertyOp20
 70
     1
102
RTVSPropertyOp21
 70
     1
102
RTVSPropertyOp22
 70
     1
102
RTVSPropertyOp23
 70
     1
102
RTVSPropertyOp24
 70
     1
102
RTVSPropertyOp25
 70
     1
102
RTVSPropertyOp26
 70
     1
102
RTVSPropertyOp27
 70
     1
  0
XRECORD
  5
C663
102
{ACAD_REACTORS
330
C662
102
}
330
C662
100
AcDbXrecord
280
     1
102
RTVSPropertyOp0
 70
     1
102
RTVSPropertyOp1
 70
     1
102
RTVSPropertyOp2
 70
     1
102
RTVSPropertyOp3
 70
     1
102
RTVSPropertyOp4
 70
     1
102
RTVSPropertyOp5
 70
     1
102
RTVSPropertyOp6
 70
     1
102
RTVSPropertyOp7
 70
     1
102
RTVSPropertyOp8
 70
     1
102
RTVSPropertyOp9
 70
     1
102
RTVSPropertyOp10
 70
     1
102
RTVSPropertyOp11
 70
     1
102
RTVSPropertyOp12
 70
     1
102
RTVSPropertyOp13
 70
     1
102
RTVSPropertyOp14
 70
     1
102
RTVSPropertyOp15
 70
     1
102
RTVSPropertyOp16
 70
     1
102
RTVSPropertyOp17
 70
     1
102
RTVSPropertyOp18
 70
     1
102
RTVSPropertyOp19
 70
     1
102
RTVSPropertyOp20
 70
     1
102
RTVSPropertyOp21
 70
     1
102
RTVSPropertyOp22
 70
     1
102
RTVSPropertyOp23
 70
     1
102
RTVSPropertyOp24
 70
     1
102
RTVSPropertyOp25
 70
     1
102
RTVSPropertyOp26
 70
     1
102
RTVSPropertyOp27
 70
     1
  0
XRECORD
  5
C667
102
{ACAD_REACTORS
330
C666
102
}
330
C666
100
AcDbXrecord
280
     1
102
RTVSPropertyOp0
 70
     1
102
RTVSPropertyOp1
 70
     1
102
RTVSPropertyOp2
 70
     1
102
RTVSPropertyOp3
 70
     1
102
RTVSPropertyOp4
 70
     1
102
RTVSPropertyOp5
 70
     1
102
RTVSPropertyOp6
 70
     1
102
RTVSPropertyOp7
 70
     1
102
RTVSPropertyOp8
 70
     1
102
RTVSPropertyOp9
 70
     1
102
RTVSPropertyOp10
 70
     1
102
RTVSPropertyOp11
 70
     1
102
RTVSPropertyOp12
 70
     1
102
RTVSPropertyOp13
 70
     1
102
RTVSPropertyOp14
 70
     1
102
RTVSPropertyOp15
 70
     1
102
RTVSPropertyOp16
 70
     1
102
RTVSPropertyOp17
 70
     1
102
RTVSPropertyOp18
 70
     1
102
RTVSPropertyOp19
 70
     1
102
RTVSPropertyOp20
 70
     1
102
RTVSPropertyOp21
 70
     1
102
RTVSPropertyOp22
 70
     1
102
RTVSPropertyOp23
 70
     1
102
RTVSPropertyOp24
 70
     1
102
RTVSPropertyOp25
 70
     1
102
RTVSPropertyOp26
 70
     1
102
RTVSPropertyOp27
 70
     1
  0
XRECORD
  5
C677
102
{ACAD_REACTORS
330
C676
102
}
330
C676
100
AcDbXrecord
280
     1
102
RTVSPropertyOp0
 70
     0
102
RTVSPropertyOp1
 70
     0
102
RTVSPropertyOp2
 70
     0
102
RTVSPropertyOp3
 70
     0
102
RTVSPropertyOp4
 70
     0
102
RTVSPropertyOp5
 70
     0
102
RTVSPropertyOp6
 70
     0
102
RTVSPropertyOp7
 70
     0
102
RTVSPropertyOp8
 70
     0
102
RTVSPropertyOp9
 70
     0
102
RTVSPropertyOp10
 70
     0
102
RTVSPropertyOp11
 70
     0
102
RTVSPropertyOp12
 70
     0
102
RTVSPropertyOp13
 70
     0
102
RTVSPropertyOp14
 70
     2
102
RTVSPropertyOp15
 70
     0
102
RTVSPropertyOp16
 70
     0
102
RTVSPropertyOp17
 70
     0
102
RTVSPropertyOp18
 70
     0
102
RTVSPropertyOp19
 70
     0
102
RTVSPropertyOp20
 70
     0
102
RTVSPropertyOp21
 70
     0
102
RTVSPropertyOp22
 70
     0
102
RTVSPropertyOp23
 70
     0
102
RTVSPropertyOp24
 70
     0
102
RTVSPropertyOp25
 70
     0
102
RTVSPropertyOp26
 70
     0
102
RTVSPropertyOp27
 70
     0
  0
XRECORD
  5
C66F
102
{ACAD_REACTORS
330
C66E
102
}
330
C66E
100
AcDbXrecord
280
     1
102
RTVSPropertyOp0
 70
     1
102
RTVSPropertyOp1
 70
     1
102
RTVSPropertyOp2
 70
     1
102
RTVSPropertyOp3
 70
     1
102
RTVSPropertyOp4
 70
     1
102
RTVSPropertyOp5
 70
     1
102
RTVSPropertyOp6
 70
     1
102
RTVSPropertyOp7
 70
     1
102
RTVSPropertyOp8
 70
     1
102
RTVSPropertyOp9
 70
     1
102
RTVSPropertyOp10
 70
     1
102
RTVSPropertyOp11
 70
     1
102
RTVSPropertyOp12
 70
     1
102
RTVSPropertyOp13
 70
     1
102
RTVSPropertyOp14
 70
     1
102
RTVSPropertyOp15
 70
     1
102
RTVSPropertyOp16
 70
     1
102
RTVSPropertyOp17
 70
     1
102
RTVSPropertyOp18
 70
     1
102
RTVSPropertyOp19
 70
     1
102
RTVSPropertyOp20
 70
     1
102
RTVSPropertyOp21
 70
     1
102
RTVSPropertyOp22
 70
     1
102
RTVSPropertyOp23
 70
     1
102
RTVSPropertyOp24
 70
     1
102
RTVSPropertyOp25
 70
     1
102
RTVSPropertyOp26
 70
     1
102
RTVSPropertyOp27
 70
     1
  0
XRECORD
  5
C653
102
{ACAD_REACTORS
330
C652
102
}
330
C652
100
AcDbXrecord
280
     1
102
RTVSPropertyOp0
 70
     1
102
RTVSPropertyOp1
 70
     1
102
RTVSPropertyOp2
 70
     1
102
RTVSPropertyOp3
 70
     1
102
RTVSPropertyOp4
 70
     1
102
RTVSPropertyOp5
 70
     1
102
RTVSPropertyOp6
 70
     1
102
RTVSPropertyOp7
 70
     1
102
RTVSPropertyOp8
 70
     1
102
RTVSPropertyOp9
 70
     1
102
RTVSPropertyOp10
 70
     1
102
RTVSPropertyOp11
 70
     1
102
RTVSPropertyOp12
 70
     1
102
RTVSPropertyOp13
 70
     1
102
RTVSPropertyOp14
 70
     1
102
RTVSPropertyOp15
 70
     1
102
RTVSPropertyOp16
 70
     1
102
RTVSPropertyOp17
 70
     1
102
RTVSPropertyOp18
 70
     1
102
RTVSPropertyOp19
 70
     1
102
RTVSPropertyOp20
 70
     1
102
RTVSPropertyOp21
 70
     1
102
RTVSPropertyOp22
 70
     1
102
RTVSPropertyOp23
 70
     1
102
RTVSPropertyOp24
 70
     1
102
RTVSPropertyOp25
 70
     1
102
RTVSPropertyOp26
 70
     1
102
RTVSPropertyOp27
 70
     1
  0
XRECORD
  5
C655
102
{ACAD_REACTORS
330
C654
102
}
330
C654
100
AcDbXrecord
280
     1
102
RTVSPropertyOp0
 70
     1
102
RTVSPropertyOp1
 70
     1
102
RTVSPropertyOp2
 70
     1
102
RTVSPropertyOp3
 70
     1
102
RTVSPropertyOp4
 70
     1
102
RTVSPropertyOp5
 70
     1
102
RTVSPropertyOp6
 70
     1
102
RTVSPropertyOp7
 70
     1
102
RTVSPropertyOp8
 70
     1
102
RTVSPropertyOp9
 70
     1
102
RTVSPropertyOp10
 70
     1
102
RTVSPropertyOp11
 70
     1
102
RTVSPropertyOp12
 70
     1
102
RTVSPropertyOp13
 70
     1
102
RTVSPropertyOp14
 70
     1
102
RTVSPropertyOp15
 70
     1
102
RTVSPropertyOp16
 70
     1
102
RTVSPropertyOp17
 70
     1
102
RTVSPropertyOp18
 70
     1
102
RTVSPropertyOp19
 70
     1
102
RTVSPropertyOp20
 70
     1
102
RTVSPropertyOp21
 70
     1
102
RTVSPropertyOp22
 70
     1
102
RTVSPropertyOp23
 70
     1
102
RTVSPropertyOp24
 70
     1
102
RTVSPropertyOp25
 70
     1
102
RTVSPropertyOp26
 70
     1
102
RTVSPropertyOp27
 70
     1
  0
XRECORD
  5
C657
102
{ACAD_REACTORS
330
C656
102
}
330
C656
100
AcDbXrecord
280
     1
102
RTVSPropertyOp0
 70
     1
102
RTVSPropertyOp1
 70
     1
102
RTVSPropertyOp2
 70
     1
102
RTVSPropertyOp3
 70
     1
102
RTVSPropertyOp4
 70
     1
102
RTVSPropertyOp5
 70
     1
102
RTVSPropertyOp6
 70
     1
102
RTVSPropertyOp7
 70
     1
102
RTVSPropertyOp8
 70
     1
102
RTVSPropertyOp9
 70
     1
102
RTVSPropertyOp10
 70
     1
102
RTVSPropertyOp11
 70
     1
102
RTVSPropertyOp12
 70
     1
102
RTVSPropertyOp13
 70
     1
102
RTVSPropertyOp14
 70
     1
102
RTVSPropertyOp15
 70
     1
102
RTVSPropertyOp16
 70
     1
102
RTVSPropertyOp17
 70
     1
102
RTVSPropertyOp18
 70
     1
102
RTVSPropertyOp19
 70
     1
102
RTVSPropertyOp20
 70
     1
102
RTVSPropertyOp21
 70
     1
102
RTVSPropertyOp22
 70
     1
102
RTVSPropertyOp23
 70
     1
102
RTVSPropertyOp24
 70
     1
102
RTVSPropertyOp25
 70
     1
102
RTVSPropertyOp26
 70
     1
102
RTVSPropertyOp27
 70
     1
  0
XRECORD
  5
C659
102
{ACAD_REACTORS
330
C658
102
}
330
C658
100
AcDbXrecord
280
     1
102
RTVSPropertyOp0
 70
     1
102
RTVSPropertyOp1
 70
     1
102
RTVSPropertyOp2
 70
     1
102
RTVSPropertyOp3
 70
     1
102
RTVSPropertyOp4
 70
     1
102
RTVSPropertyOp5
 70
     1
102
RTVSPropertyOp6
 70
     1
102
RTVSPropertyOp7
 70
     1
102
RTVSPropertyOp8
 70
     1
102
RTVSPropertyOp9
 70
     1
102
RTVSPropertyOp10
 70
     1
102
RTVSPropertyOp11
 70
     1
102
RTVSPropertyOp12
 70
     1
102
RTVSPropertyOp13
 70
     1
102
RTVSPropertyOp14
 70
     1
102
RTVSPropertyOp15
 70
     1
102
RTVSPropertyOp16
 70
     1
102
RTVSPropertyOp17
 70
     1
102
RTVSPropertyOp18
 70
     1
102
RTVSPropertyOp19
 70
     1
102
RTVSPropertyOp20
 70
     1
102
RTVSPropertyOp21
 70
     1
102
RTVSPropertyOp22
 70
     1
102
RTVSPropertyOp23
 70
     1
102
RTVSPropertyOp24
 70
     1
102
RTVSPropertyOp25
 70
     1
102
RTVSPropertyOp26
 70
     1
102
RTVSPropertyOp27
 70
     1
  0
XRECORD
  5
C673
102
{ACAD_REACTORS
330
C672
102
}
330
C672
100
AcDbXrecord
280
     1
102
RTVSPropertyOp0
 70
     0
102
RTVSPropertyOp1
 70
     0
102
RTVSPropertyOp2
 70
     0
102
RTVSPropertyOp3
 70
     0
102
RTVSPropertyOp4
 70
     0
102
RTVSPropertyOp5
 70
     0
102
RTVSPropertyOp6
 70
     0
102
RTVSPropertyOp7
 70
     0
102
RTVSPropertyOp8
 70
     0
102
RTVSPropertyOp9
 70
     0
102
RTVSPropertyOp10
 70
     0
102
RTVSPropertyOp11
 70
     0
102
RTVSPropertyOp12
 70
     0
102
RTVSPropertyOp13
 70
     0
102
RTVSPropertyOp14
 70
     2
102
RTVSPropertyOp15
 70
     0
102
RTVSPropertyOp16
 70
     0
102
RTVSPropertyOp17
 70
     0
102
RTVSPropertyOp18
 70
     0
102
RTVSPropertyOp19
 70
     0
102
RTVSPropertyOp20
 70
     0
102
RTVSPropertyOp21
 70
     0
102
RTVSPropertyOp22
 70
     0
102
RTVSPropertyOp23
 70
     0
102
RTVSPropertyOp24
 70
     0
102
RTVSPropertyOp25
 70
     0
102
RTVSPropertyOp26
 70
     0
102
RTVSPropertyOp27
 70
     0
  0
XRECORD
  5
C66D
102
{ACAD_REACTORS
330
C66C
102
}
330
C66C
100
AcDbXrecord
280
     1
102
RTVSPropertyOp0
 70
     1
102
RTVSPropertyOp1
 70
     1
102
RTVSPropertyOp2
 70
     1
102
RTVSPropertyOp3
 70
     1
102
RTVSPropertyOp4
 70
     1
102
RTVSPropertyOp5
 70
     1
102
RTVSPropertyOp6
 70
     1
102
RTVSPropertyOp7
 70
     1
102
RTVSPropertyOp8
 70
     1
102
RTVSPropertyOp9
 70
     1
102
RTVSPropertyOp10
 70
     1
102
RTVSPropertyOp11
 70
     1
102
RTVSPropertyOp12
 70
     1
102
RTVSPropertyOp13
 70
     1
102
RTVSPropertyOp14
 70
     1
102
RTVSPropertyOp15
 70
     1
102
RTVSPropertyOp16
 70
     1
102
RTVSPropertyOp17
 70
     1
102
RTVSPropertyOp18
 70
     1
102
RTVSPropertyOp19
 70
     1
102
RTVSPropertyOp20
 70
     1
102
RTVSPropertyOp21
 70
     1
102
RTVSPropertyOp22
 70
     1
102
RTVSPropertyOp23
 70
     1
102
RTVSPropertyOp24
 70
     1
102
RTVSPropertyOp25
 70
     1
102
RTVSPropertyOp26
 70
     1
102
RTVSPropertyOp27
 70
     1
  0
XRECORD
  5
C675
102
{ACAD_REACTORS
330
C674
102
}
330
C674
100
AcDbXrecord
280
     1
102
RTVSPropertyOp0
 70
     0
102
RTVSPropertyOp1
 70
     0
102
RTVSPropertyOp2
 70
     0
102
RTVSPropertyOp3
 70
     0
102
RTVSPropertyOp4
 70
     0
102
RTVSPropertyOp5
 70
     0
102
RTVSPropertyOp6
 70
     0
102
RTVSPropertyOp7
 70
     0
102
RTVSPropertyOp8
 70
     0
102
RTVSPropertyOp9
 70
     0
102
RTVSPropertyOp10
 70
     0
102
RTVSPropertyOp11
 70
     0
102
RTVSPropertyOp12
 70
     0
102
RTVSPropertyOp13
 70
     0
102
RTVSPropertyOp14
 70
     2
102
RTVSPropertyOp15
 70
     0
102
RTVSPropertyOp16
 70
     0
102
RTVSPropertyOp17
 70
     0
102
RTVSPropertyOp18
 70
     0
102
RTVSPropertyOp19
 70
     0
102
RTVSPropertyOp20
 70
     0
102
RTVSPropertyOp21
 70
     0
102
RTVSPropertyOp22
 70
     0
102
RTVSPropertyOp23
 70
     0
102
RTVSPropertyOp24
 70
     0
102
RTVSPropertyOp25
 70
     0
102
RTVSPropertyOp26
 70
     0
102
RTVSPropertyOp27
 70
     0
  0
XRECORD
  5
C665
102
{ACAD_REACTORS
330
C664
102
}
330
C664
100
AcDbXrecord
280
     1
102
RTVSPropertyOp0
 70
     1
102
RTVSPropertyOp1
 70
     1
102
RTVSPropertyOp2
 70
     1
102
RTVSPropertyOp3
 70
     1
102
RTVSPropertyOp4
 70
     1
102
RTVSPropertyOp5
 70
     1
102
RTVSPropertyOp6
 70
     1
102
RTVSPropertyOp7
 70
     1
102
RTVSPropertyOp8
 70
     1
102
RTVSPropertyOp9
 70
     1
102
RTVSPropertyOp10
 70
     1
102
RTVSPropertyOp11
 70
     1
102
RTVSPropertyOp12
 70
     1
102
RTVSPropertyOp13
 70
     1
102
RTVSPropertyOp14
 70
     1
102
RTVSPropertyOp15
 70
     1
102
RTVSPropertyOp16
 70
     1
102
RTVSPropertyOp17
 70
     1
102
RTVSPropertyOp18
 70
     1
102
RTVSPropertyOp19
 70
     1
102
RTVSPropertyOp20
 70
     1
102
RTVSPropertyOp21
 70
     1
102
RTVSPropertyOp22
 70
     1
102
RTVSPropertyOp23
 70
     1
102
RTVSPropertyOp24
 70
     1
102
RTVSPropertyOp25
 70
     1
102
RTVSPropertyOp26
 70
     1
102
RTVSPropertyOp27
 70
     1
  0
XRECORD
  5
C66B
102
{ACAD_REACTORS
330
C66A
102
}
330
C66A
100
AcDbXrecord
280
     1
102
RTVSPropertyOp0
 70
     1
102
RTVSPropertyOp1
 70
     1
102
RTVSPropertyOp2
 70
     1
102
RTVSPropertyOp3
 70
     1
102
RTVSPropertyOp4
 70
     1
102
RTVSPropertyOp5
 70
     1
102
RTVSPropertyOp6
 70
     1
102
RTVSPropertyOp7
 70
     1
102
RTVSPropertyOp8
 70
     1
102
RTVSPropertyOp9
 70
     1
102
RTVSPropertyOp10
 70
     1
102
RTVSPropertyOp11
 70
     1
102
RTVSPropertyOp12
 70
     1
102
RTVSPropertyOp13
 70
     1
102
RTVSPropertyOp14
 70
     1
102
RTVSPropertyOp15
 70
     1
102
RTVSPropertyOp16
 70
     1
102
RTVSPropertyOp17
 70
     1
102
RTVSPropertyOp18
 70
     1
102
RTVSPropertyOp19
 70
     1
102
RTVSPropertyOp20
 70
     1
102
RTVSPropertyOp21
 70
     1
102
RTVSPropertyOp22
 70
     1
102
RTVSPropertyOp23
 70
     1
102
RTVSPropertyOp24
 70
     1
102
RTVSPropertyOp25
 70
     1
102
RTVSPropertyOp26
 70
     1
102
RTVSPropertyOp27
 70
     1
  0
ENDSEC
  0
EOF
