  0
SECTION
  2
HEADER
  9
$ACADVER
  1
AC1015
  9
$ACADMAINTVER
 70
    10
  9
$DWGCODEPAGE
  3
ANSI_932
  9
$INSBASE
 10
0.0
 20
0.0
 30
0.0
  9
$EXTMIN
 10
-1500.037389523626
 20
-358.7643476495695
 30
-0.0000000000000221
  9
$EXTMAX
 10
2621.06780450543
 20
1378.678133782875
 30
0.0000000000000085
  9
$LIMMIN
 10
-1541.0
 20
-321.0
  9
$LIMMAX
 10
2634.0
 20
1874.0
  9
$ORTHOMODE
 70
     1
  9
$REGENMODE
 70
     1
  9
$FILLMODE
 70
     1
  9
$QTEXTMODE
 70
     0
  9
$MIRRTEXT
 70
     1
  9
$LTSCALE
 40
30.0
  9
$ATTMODE
 70
     1
  9
$TEXTSIZE
 40
2.0
  9
$TRACEWID
 40
0.05
  9
$TEXTSTYLE
  7
Standard
  9
$CLAYER
  8
30
  9
$CELTYPE
  6
ByLayer
  9
$CECOLOR
 62
   256
  9
$CELTSCALE
 40
1.0
  9
$DISPSILH
 70
     0
  9
$DIMSCALE
 40
1.0
  9
$DIMASZ
 40
5.0
  9
$DIMEXO
 40
10.0
  9
$DIMDLI
 40
0.5
  9
$DIMRND
 40
0.0
  9
$DIMDLE
 40
0.0
  9
$DIMEXE
 40
1.0
  9
$DIMTP
 40
0.0
  9
$DIMTM
 40
0.0
  9
$DIMTXT
 40
10.0
  9
$DIMCEN
 40
0.09
  9
$DIMTSZ
 40
0.0
  9
$DIMTOL
 70
     0
  9
$DIMLIM
 70
     0
  9
$DIMTIH
 70
     0
  9
$DIMTOH
 70
     0
  9
$DIMSE1
 70
     0
  9
$DIMSE2
 70
     0
  9
$DIMTAD
 70
     3
  9
$DIMZIN
 70
    12
  9
$DIMBLK
  1
Open
  9
$DIMASO
 70
     1
  9
$DIMSHO
 70
     1
  9
$DIMPOST
  1

  9
$DIMAPOST
  1

  9
$DIMALT
 70
     0
  9
$DIMALTD
 70
     2
  9
$DIMALTF
 40
25.4
  9
$DIMLFAC
 40
1.0
  9
$DIMTOFL
 70
     1
  9
$DIMTVP
 40
0.0
  9
$DIMTIX
 70
     1
  9
$DIMSOXD
 70
     1
  9
$DIMSAH
 70
     0
  9
$DIMBLK1
  1

  9
$DIMBLK2
  1

  9
$DIMSTYLE
  2
Standard
  9
$DIMCLRD
 70
     0
  9
$DIMCLRE
 70
     0
  9
$DIMCLRT
 70
     0
  9
$DIMTFAC
 40
1.0
  9
$DIMGAP
 40
3.0
  9
$DIMJUST
 70
     0
  9
$DIMSD1
 70
     0
  9
$DIMSD2
 70
     0
  9
$DIMTOLJ
 70
     1
  9
$DIMTZIN
 70
     0
  9
$DIMALTZ
 70
     0
  9
$DIMALTTZ
 70
     0
  9
$DIMUPT
 70
     0
  9
$DIMDEC
 70
     1
  9
$DIMTDEC
 70
     1
  9
$DIMALTU
 70
     2
  9
$DIMALTTD
 70
     2
  9
$DIMTXSTY
  7
Standard
  9
$DIMAUNIT
 70
     0
  9
$DIMADEC
 70
     0
  9
$DIMALTRND
 40
0.0
  9
$DIMAZIN
 70
     3
  9
$DIMDSEP
 70
    46
  9
$DIMATFIT
 70
     3
  9
$DIMFRAC
 70
     0
  9
$DIMLDRBLK
  1
Open
  9
$DIMLUNIT
 70
     2
  9
$DIMLWD
 70
    -2
  9
$DIMLWE
 70
    -2
  9
$DIMTMOVE
 70
     1
  9
$LUNITS
 70
     2
  9
$LUPREC
 70
     4
  9
$SKETCHINC
 40
0.1
  9
$FILLETRAD
 40
0.0
  9
$AUNITS
 70
     0
  9
$AUPREC
 70
     0
  9
$MENU
  1
.
  9
$ELEVATION
 40
0.0
  9
$PELEVATION
 40
0.0
  9
$THICKNESS
 40
0.0
  9
$LIMCHECK
 70
     0
  9
$CHAMFERA
 40
0.0
  9
$CHAMFERB
 40
0.0
  9
$CHAMFERC
 40
0.0
  9
$CHAMFERD
 40
0.0
  9
$SKPOLY
 70
     0
  9
$TDCREATE
 40
2452286.555658657
  9
$TDUCREATE
 40
2452286.180658657
  9
$TDUPDATE
 40
2455034.507703263
  9
$TDUUPDATE
 40
2455034.132703263
  9
$TDINDWG
 40
2.0357310764
  9
$TDUSRTIMER
 40
2.0357280093
  9
$USRTIMER
 70
     1
  9
$ANGBASE
 50
0.0
  9
$ANGDIR
 70
     0
  9
$PDMODE
 70
     0
  9
$PDSIZE
 40
0.0
  9
$PLINEWID
 40
0.0
  9
$SPLFRAME
 70
     0
  9
$SPLINETYPE
 70
     6
  9
$SPLINESEGS
 70
     8
  9
$HANDSEED
  5
B020
  9
$SURFTAB1
 70
     6
  9
$SURFTAB2
 70
     6
  9
$SURFTYPE
 70
     6
  9
$SURFU
 70
     6
  9
$SURFV
 70
     6
  9
$UCSBASE
  2

  9
$UCSNAME
  2

  9
$UCSORG
 10
0.0
 20
0.0
 30
0.0
  9
$UCSXDIR
 10
1.0
 20
0.0
 30
0.0
  9
$UCSYDIR
 10
0.0
 20
1.0
 30
0.0
  9
$UCSORTHOREF
  2

  9
$UCSORTHOVIEW
 70
     0
  9
$UCSORGTOP
 10
0.0
 20
0.0
 30
0.0
  9
$UCSORGBOTTOM
 10
0.0
 20
0.0
 30
0.0
  9
$UCSORGLEFT
 10
0.0
 20
0.0
 30
0.0
  9
$UCSORGRIGHT
 10
0.0
 20
0.0
 30
0.0
  9
$UCSORGFRONT
 10
0.0
 20
0.0
 30
0.0
  9
$UCSORGBACK
 10
0.0
 20
0.0
 30
0.0
  9
$PUCSBASE
  2

  9
$PUCSNAME
  2

  9
$PUCSORG
 10
0.0
 20
0.0
 30
0.0
  9
$PUCSXDIR
 10
1.0
 20
0.0
 30
0.0
  9
$PUCSYDIR
 10
0.0
 20
1.0
 30
0.0
  9
$PUCSORTHOREF
  2

  9
$PUCSORTHOVIEW
 70
     0
  9
$PUCSORGTOP
 10
0.0
 20
0.0
 30
0.0
  9
$PUCSORGBOTTOM
 10
0.0
 20
0.0
 30
0.0
  9
$PUCSORGLEFT
 10
0.0
 20
0.0
 30
0.0
  9
$PUCSORGRIGHT
 10
0.0
 20
0.0
 30
0.0
  9
$PUCSORGFRONT
 10
0.0
 20
0.0
 30
0.0
  9
$PUCSORGBACK
 10
0.0
 20
0.0
 30
0.0
  9
$USERI1
 70
     0
  9
$USERI2
 70
     0
  9
$USERI3
 70
     0
  9
$USERI4
 70
     0
  9
$USERI5
 70
     0
  9
$USERR1
 40
0.0
  9
$USERR2
 40
0.0
  9
$USERR3
 40
0.0
  9
$USERR4
 40
0.0
  9
$USERR5
 40
0.0
  9
$WORLDVIEW
 70
     1
  9
$SHADEDGE
 70
     3
  9
$SHADEDIF
 70
    70
  9
$TILEMODE
 70
     1
  9
$MAXACTVP
 70
    48
  9
$PINSBASE
 10
0.0
 20
0.0
 30
0.0
  9
$PLIMCHECK
 70
     0
  9
$PEXTMIN
 10
4.273573370203973
 20
5.205246163471454
 30
0.0
  9
$PEXTMAX
 10
194.6100952986349
 20
283.0697008572913
 30
0.0
  9
$PLIMMIN
 10
-5.873748779296875
 20
-5.873749732971191
  9
$PLIMMAX
 10
204.0995788574218
 20
291.1369009017943
  9
$UNITMODE
 70
     0
  9
$VISRETAIN
 70
     1
  9
$PLINEGEN
 70
     0
  9
$PSLTSCALE
 70
     0
  9
$TREEDEPTH
 70
  3020
  9
$CMLSTYLE
  2
Standard
  9
$CMLJUST
 70
     0
  9
$CMLSCALE
 40
1.0
  9
$PROXYGRAPHICS
 70
     1
  9
$MEASUREMENT
 70
     0
  9
$CELWEIGHT
370
    -1
  9
$ENDCAPS
280
     0
  9
$JOINSTYLE
280
     0
  9
$LWDISPLAY
290
     0
  9
$INSUNITS
 70
     0
  9
$HYPERLINKBASE
  1

  9
$STYLESHEET
  1
monochrome.ctb
  9
$XEDIT
290
     1
  9
$CEPSNTYPE
380
     0
  9
$PSTYLEMODE
290
     1
  9
$FINGERPRINTGUID
  2

  9
$VERSIONGUID
  2
{6FB5CE33-7D30-429A-9013-9D4D96373B3A}
  9
$EXTNAMES
290
     1
  9
$PSVPSCALE
 40
0.0
  9
$OLESTARTUP
290
     0
  0
ENDSEC
  0
SECTION
  2
CLASSES
  0
CLASS
  1
ACDBDICTIONARYWDFLT
  2
AcDbDictionaryWithDefault
  3
AutoCAD 2000
 90
        0
280
     0
281
     0
  0
CLASS
  1
ACDBPLACEHOLDER
  2
AcDbPlaceHolder
  3
AutoCAD 2000
 90
        0
280
     0
281
     0
  0
CLASS
  1
LAYOUT
  2
AcDbLayout
  3
AutoCAD 2000
 90
        0
280
     0
281
     0
  0
CLASS
  1
LONG_TRANSACTION
  2
AcDbLongTransaction
  3
AutoCAD 2000
 90
    32768
280
     0
281
     0
  0
CLASS
  1
LWPOLYLINE
  2
AcDbPolyline
  3
AutoCAD 2000
 90
    32768
280
     0
281
     1
  0
CLASS
  1
HATCH
  2
AcDbHatch
  3
AutoCAD 2000
 90
    32768
280
     0
281
     1
  0
CLASS
  1
XRECORD
  2
AcDbXrecord
  3
AutoCAD 2000
 90
    32768
280
     0
281
     0
  0
CLASS
  1
LONG_TRANSACTION
  2
AcDbLongTransaction
  3
AutoCAD 2000
 90
    32768
280
     0
281
     0
  0
CLASS
  1
LWPOLYLINE
  2
AcDbPolyline
  3
AutoCAD 2000
 90
    32768
280
     0
281
     1
  0
CLASS
  1
HATCH
  2
AcDbHatch
  3
AutoCAD 2000
 90
    32768
280
     0
281
     1
  0
CLASS
  1
XRECORD
  2
AcDbXrecord
  3
AutoCAD 2000
 90
    32768
280
     0
281
     0
  0
CLASS
  1
LONG_TRANSACTION
  2
AcDbLongTransaction
  3
AutoCAD 2000
 90
    32768
280
     0
281
     0
  0
CLASS
  1
LWPOLYLINE
  2
AcDbPolyline
  3
AutoCAD 2000
 90
    32768
280
     0
281
     1
  0
CLASS
  1
HATCH
  2
AcDbHatch
  3
AutoCAD 2000
 90
    32768
280
     0
281
     1
  0
CLASS
  1
XRECORD
  2
AcDbXrecord
  3
AutoCAD 2000
 90
    32768
280
     0
281
     0
  0
CLASS
  1
LONG_TRANSACTION
  2
AcDbLongTransaction
  3
AutoCAD 2000
 90
    32768
280
     0
281
     0
  0
CLASS
  1
LWPOLYLINE
  2
AcDbPolyline
  3
AutoCAD 2000
 90
    32768
280
     0
281
     1
  0
CLASS
  1
HATCH
  2
AcDbHatch
  3
AutoCAD 2000
 90
    32768
280
     0
281
     1
  0
CLASS
  1
XRECORD
  2
AcDbXrecord
  3
AutoCAD 2000
 90
    32768
280
     0
281
     0
  0
CLASS
  1
LONG_TRANSACTION
  2
AcDbLongTransaction
  3
AutoCAD 2000
 90
    32768
280
     0
281
     0
  0
CLASS
  1
LWPOLYLINE
  2
AcDbPolyline
  3
AutoCAD 2000
 90
    32768
280
     0
281
     1
  0
CLASS
  1
HATCH
  2
AcDbHatch
  3
AutoCAD 2000
 90
    32768
280
     0
281
     1
  0
CLASS
  1
XRECORD
  2
AcDbXrecord
  3
AutoCAD 2000
 90
    32768
280
     0
281
     0
  0
CLASS
  1
LONG_TRANSACTION
  2
AcDbLongTransaction
  3
AutoCAD 2000
 90
    32768
280
     0
281
     0
  0
CLASS
  1
LWPOLYLINE
  2
AcDbPolyline
  3
AutoCAD 2000
 90
    32768
280
     0
281
     1
  0
CLASS
  1
HATCH
  2
AcDbHatch
  3
AutoCAD 2000
 90
    32768
280
     0
281
     1
  0
CLASS
  1
XRECORD
  2
AcDbXrecord
  3
AutoCAD 2000
 90
    32768
280
     0
281
     0
  0
CLASS
  1
LONG_TRANSACTION
  2
AcDbLongTransaction
  3
AutoCAD 2000
 90
    32768
280
     0
281
     0
  0
CLASS
  1
LWPOLYLINE
  2
AcDbPolyline
  3
AutoCAD 2000
 90
    32768
280
     0
281
     1
  0
CLASS
  1
HATCH
  2
AcDbHatch
  3
AutoCAD 2000
 90
    32768
280
     0
281
     1
  0
CLASS
  1
XRECORD
  2
AcDbXrecord
  3
AutoCAD 2000
 90
    32768
280
     0
281
     0
  0
CLASS
  1
LONG_TRANSACTION
  2
AcDbLongTransaction
  3
AutoCAD 2000
 90
    32768
280
     0
281
     0
  0
CLASS
  1
LWPOLYLINE
  2
AcDbPolyline
  3
AutoCAD 2000
 90
    32768
280
     0
281
     1
  0
CLASS
  1
HATCH
  2
AcDbHatch
  3
AutoCAD 2000
 90
    32768
280
     0
281
     1
  0
CLASS
  1
XRECORD
  2
AcDbXrecord
  3
AutoCAD 2000
 90
    32768
280
     0
281
     0
  0
CLASS
  1
LONG_TRANSACTION
  2
AcDbLongTransaction
  3
AutoCAD 2000
 90
    32768
280
     0
281
     0
  0
CLASS
  1
LWPOLYLINE
  2
AcDbPolyline
  3
AutoCAD 2000
 90
    32768
280
     0
281
     1
  0
CLASS
  1
HATCH
  2
AcDbHatch
  3
AutoCAD 2000
 90
    32768
280
     0
281
     1
  0
CLASS
  1
XRECORD
  2
AcDbXrecord
  3
AutoCAD 2000
 90
    32768
280
     0
281
     0
  0
CLASS
  1
LONG_TRANSACTION
  2
AcDbLongTransaction
  3
AutoCAD 2000
 90
    32768
280
     0
281
     0
  0
CLASS
  1
LWPOLYLINE
  2
AcDbPolyline
  3
AutoCAD 2000
 90
    32768
280
     0
281
     1
  0
CLASS
  1
HATCH
  2
AcDbHatch
  3
AutoCAD 2000
 90
    32768
280
     0
281
     1
  0
CLASS
  1
XRECORD
  2
AcDbXrecord
  3
AutoCAD 2000
 90
    32768
280
     0
281
     0
  0
CLASS
  1
LONG_TRANSACTION
  2
AcDbLongTransaction
  3
AutoCAD 2000
 90
    32768
280
     0
281
     0
  0
CLASS
  1
LWPOLYLINE
  2
AcDbPolyline
  3
AutoCAD 2000
 90
    32768
280
     0
281
     1
  0
CLASS
  1
HATCH
  2
AcDbHatch
  3
AutoCAD 2000
 90
    32768
280
     0
281
     1
  0
CLASS
  1
XRECORD
  2
AcDbXrecord
  3
AutoCAD 2000
 90
    32768
280
     0
281
     0
  0
CLASS
  1
LONG_TRANSACTION
  2
AcDbLongTransaction
  3
AutoCAD 2000
 90
    32768
280
     0
281
     0
  0
CLASS
  1
LWPOLYLINE
  2
AcDbPolyline
  3
AutoCAD 2000
 90
    32768
280
     0
281
     1
  0
CLASS
  1
HATCH
  2
AcDbHatch
  3
AutoCAD 2000
 90
    32768
280
     0
281
     1
  0
CLASS
  1
XRECORD
  2
AcDbXrecord
  3
AutoCAD 2000
 90
    32768
280
     0
281
     0
  0
CLASS
  1
LONG_TRANSACTION
  2
AcDbLongTransaction
  3
AutoCAD 2000
 90
    32768
280
     0
281
     0
  0
CLASS
  1
LWPOLYLINE
  2
AcDbPolyline
  3
AutoCAD 2000
 90
    32768
280
     0
281
     1
  0
CLASS
  1
HATCH
  2
AcDbHatch
  3
AutoCAD 2000
 90
    32768
280
     0
281
     1
  0
CLASS
  1
XRECORD
  2
AcDbXrecord
  3
AutoCAD 2000
 90
    32768
280
     0
281
     0
  0
CLASS
  1
LONG_TRANSACTION
  2
AcDbLongTransaction
  3
AutoCAD 2000
 90
    32768
280
     0
281
     0
  0
CLASS
  1
LWPOLYLINE
  2
AcDbPolyline
  3
AutoCAD 2000
 90
    32768
280
     0
281
     1
  0
CLASS
  1
HATCH
  2
AcDbHatch
  3
AutoCAD 2000
 90
    32768
280
     0
281
     1
  0
CLASS
  1
XRECORD
  2
AcDbXrecord
  3
AutoCAD 2000
 90
    32768
280
     0
281
     0
  0
CLASS
  1
LONG_TRANSACTION
  2
AcDbLongTransaction
  3
AutoCAD 2000
 90
    32768
280
     0
281
     0
  0
CLASS
  1
LWPOLYLINE
  2
AcDbPolyline
  3
AutoCAD 2000
 90
    32768
280
     0
281
     1
  0
CLASS
  1
HATCH
  2
AcDbHatch
  3
AutoCAD 2000
 90
    32768
280
     0
281
     1
  0
CLASS
  1
XRECORD
  2
AcDbXrecord
  3
AutoCAD 2000
 90
    32768
280
     0
281
     0
  0
CLASS
  1
LONG_TRANSACTION
  2
AcDbLongTransaction
  3
AutoCAD 2000
 90
    32768
280
     0
281
     0
  0
CLASS
  1
LWPOLYLINE
  2
AcDbPolyline
  3
AutoCAD 2000
 90
    32768
280
     0
281
     1
  0
CLASS
  1
HATCH
  2
AcDbHatch
  3
AutoCAD 2000
 90
    32768
280
     0
281
     1
  0
CLASS
  1
XRECORD
  2
AcDbXrecord
  3
AutoCAD 2000
 90
    32768
280
     0
281
     0
  0
CLASS
  1
LONG_TRANSACTION
  2
AcDbLongTransaction
  3
AutoCAD 2000
 90
    32768
280
     0
281
     0
  0
CLASS
  1
LWPOLYLINE
  2
AcDbPolyline
  3
AutoCAD 2000
 90
    32768
280
     0
281
     1
  0
CLASS
  1
HATCH
  2
AcDbHatch
  3
AutoCAD 2000
 90
    32768
280
     0
281
     1
  0
CLASS
  1
XRECORD
  2
AcDbXrecord
  3
AutoCAD 2000
 90
    32768
280
     0
281
     0
  0
CLASS
  1
LONG_TRANSACTION
  2
AcDbLongTransaction
  3
AutoCAD 2000
 90
    32768
280
     0
281
     0
  0
CLASS
  1
LWPOLYLINE
  2
AcDbPolyline
  3
AutoCAD 2000
 90
    32768
280
     0
281
     1
  0
CLASS
  1
HATCH
  2
AcDbHatch
  3
AutoCAD 2000
 90
    32768
280
     0
281
     1
  0
CLASS
  1
XRECORD
  2
AcDbXrecord
  3
AutoCAD 2000
 90
    32768
280
     0
281
     0
  0
CLASS
  1
LONG_TRANSACTION
  2
AcDbLongTransaction
  3
AutoCAD 2000
 90
    32768
280
     0
281
     0
  0
CLASS
  1
LWPOLYLINE
  2
AcDbPolyline
  3
AutoCAD 2000
 90
    32768
280
     0
281
     1
  0
CLASS
  1
HATCH
  2
AcDbHatch
  3
AutoCAD 2000
 90
    32768
280
     0
281
     1
  0
CLASS
  1
XRECORD
  2
AcDbXrecord
  3
AutoCAD 2000
 90
    32768
280
     0
281
     0
  0
CLASS
  1
LONG_TRANSACTION
  2
AcDbLongTransaction
  3
AutoCAD 2000
 90
    32768
280
     0
281
     0
  0
CLASS
  1
LWPOLYLINE
  2
AcDbPolyline
  3
AutoCAD 2000
 90
    32768
280
     0
281
     1
  0
CLASS
  1
HATCH
  2
AcDbHatch
  3
AutoCAD 2000
 90
    32768
280
     0
281
     1
  0
CLASS
  1
XRECORD
  2
AcDbXrecord
  3
AutoCAD 2000
 90
    32768
280
     0
281
     0
  0
CLASS
  1
LONG_TRANSACTION
  2
AcDbLongTransaction
  3
AutoCAD 2000
 90
    32768
280
     0
281
     0
  0
CLASS
  1
LWPOLYLINE
  2
AcDbPolyline
  3
AutoCAD 2000
 90
    32768
280
     0
281
     1
  0
CLASS
  1
HATCH
  2
AcDbHatch
  3
AutoCAD 2000
 90
    32768
280
     0
281
     1
  0
CLASS
  1
XRECORD
  2
AcDbXrecord
  3
AutoCAD 2000
 90
    32768
280
     0
281
     0
  0
CLASS
  1
LONG_TRANSACTION
  2
AcDbLongTransaction
  3
AutoCAD 2000
 90
    32768
280
     0
281
     0
  0
CLASS
  1
LWPOLYLINE
  2
AcDbPolyline
  3
AutoCAD 2000
 90
    32768
280
     0
281
     1
  0
CLASS
  1
HATCH
  2
AcDbHatch
  3
AutoCAD 2000
 90
    32768
280
     0
281
     1
  0
CLASS
  1
XRECORD
  2
AcDbXrecord
  3
AutoCAD 2000
 90
    32768
280
     0
281
     0
  0
CLASS
  1
LONG_TRANSACTION
  2
AcDbLongTransaction
  3
AutoCAD 2000
 90
    32768
280
     0
281
     0
  0
CLASS
  1
LWPOLYLINE
  2
AcDbPolyline
  3
AutoCAD 2000
 90
    32768
280
     0
281
     1
  0
CLASS
  1
HATCH
  2
AcDbHatch
  3
AutoCAD 2000
 90
    32768
280
     0
281
     1
  0
CLASS
  1
XRECORD
  2
AcDbXrecord
  3
AutoCAD 2000
 90
    32768
280
     0
281
     0
  0
CLASS
  1
LONG_TRANSACTION
  2
AcDbLongTransaction
  3
AutoCAD 2000
 90
    32768
280
     0
281
     0
  0
CLASS
  1
LWPOLYLINE
  2
AcDbPolyline
  3
AutoCAD 2000
 90
    32768
280
     0
281
     1
  0
CLASS
  1
HATCH
  2
AcDbHatch
  3
AutoCAD 2000
 90
    32768
280
     0
281
     1
  0
CLASS
  1
XRECORD
  2
AcDbXrecord
  3
AutoCAD 2000
 90
    32768
280
     0
281
     0
  0
CLASS
  1
LONG_TRANSACTION
  2
AcDbLongTransaction
  3
AutoCAD 2000
 90
    32768
280
     0
281
     0
  0
CLASS
  1
LWPOLYLINE
  2
AcDbPolyline
  3
AutoCAD 2000
 90
    32768
280
     0
281
     1
  0
CLASS
  1
HATCH
  2
AcDbHatch
  3
AutoCAD 2000
 90
    32768
280
     0
281
     1
  0
CLASS
  1
XRECORD
  2
AcDbXrecord
  3
AutoCAD 2000
 90
    32768
280
     0
281
     0
  0
CLASS
  1
LONG_TRANSACTION
  2
AcDbLongTransaction
  3
AutoCAD 2000
 90
    32768
280
     0
281
     0
  0
CLASS
  1
LWPOLYLINE
  2
AcDbPolyline
  3
AutoCAD 2000
 90
    32768
280
     0
281
     1
  0
CLASS
  1
HATCH
  2
AcDbHatch
  3
AutoCAD 2000
 90
    32768
280
     0
281
     1
  0
CLASS
  1
XRECORD
  2
AcDbXrecord
  3
AutoCAD 2000
 90
    32768
280
     0
281
     0
  0
CLASS
  1
LONG_TRANSACTION
  2
AcDbLongTransaction
  3
AutoCAD 2000
 90
    32768
280
     0
281
     0
  0
CLASS
  1
LWPOLYLINE
  2
AcDbPolyline
  3
AutoCAD 2000
 90
    32768
280
     0
281
     1
  0
CLASS
  1
HATCH
  2
AcDbHatch
  3
AutoCAD 2000
 90
    32768
280
     0
281
     1
  0
CLASS
  1
XRECORD
  2
AcDbXrecord
  3
AutoCAD 2000
 90
    32768
280
     0
281
     0
  0
CLASS
  1
LONG_TRANSACTION
  2
AcDbLongTransaction
  3
AutoCAD 2000
 90
    32768
280
     0
281
     0
  0
CLASS
  1
LWPOLYLINE
  2
AcDbPolyline
  3
AutoCAD 2000
 90
    32768
280
     0
281
     1
  0
CLASS
  1
HATCH
  2
AcDbHatch
  3
AutoCAD 2000
 90
    32768
280
     0
281
     1
  0
CLASS
  1
XRECORD
  2
AcDbXrecord
  3
AutoCAD 2000
 90
    32768
280
     0
281
     0
  0
CLASS
  1
LONG_TRANSACTION
  2
AcDbLongTransaction
  3
AutoCAD 2000
 90
    32768
280
     0
281
     0
  0
CLASS
  1
LWPOLYLINE
  2
AcDbPolyline
  3
AutoCAD 2000
 90
    32768
280
     0
281
     1
  0
CLASS
  1
HATCH
  2
AcDbHatch
  3
AutoCAD 2000
 90
    32768
280
     0
281
     1
  0
CLASS
  1
XRECORD
  2
AcDbXrecord
  3
AutoCAD 2000
 90
    32768
280
     0
281
     0
  0
CLASS
  1
LONG_TRANSACTION
  2
AcDbLongTransaction
  3
AutoCAD 2000
 90
    32768
280
     0
281
     0
  0
CLASS
  1
LWPOLYLINE
  2
AcDbPolyline
  3
AutoCAD 2000
 90
    32768
280
     0
281
     1
  0
CLASS
  1
HATCH
  2
AcDbHatch
  3
AutoCAD 2000
 90
    32768
280
     0
281
     1
  0
CLASS
  1
XRECORD
  2
AcDbXrecord
  3
AutoCAD 2000
 90
    32768
280
     0
281
     0
  0
CLASS
  1
LONG_TRANSACTION
  2
AcDbLongTransaction
  3
AutoCAD 2000
 90
    32768
280
     0
281
     0
  0
CLASS
  1
LWPOLYLINE
  2
AcDbPolyline
  3
AutoCAD 2000
 90
    32768
280
     0
281
     1
  0
CLASS
  1
HATCH
  2
AcDbHatch
  3
AutoCAD 2000
 90
    32768
280
     0
281
     1
  0
CLASS
  1
XRECORD
  2
AcDbXrecord
  3
AutoCAD 2000
 90
    32768
280
     0
281
     0
  0
CLASS
  1
LONG_TRANSACTION
  2
AcDbLongTransaction
  3
AutoCAD 2000
 90
    32768
280
     0
281
     0
  0
CLASS
  1
LWPOLYLINE
  2
AcDbPolyline
  3
AutoCAD 2000
 90
    32768
280
     0
281
     1
  0
CLASS
  1
HATCH
  2
AcDbHatch
  3
AutoCAD 2000
 90
    32768
280
     0
281
     1
  0
CLASS
  1
XRECORD
  2
AcDbXrecord
  3
AutoCAD 2000
 90
    32768
280
     0
281
     0
  0
CLASS
  1
LONG_TRANSACTION
  2
AcDbLongTransaction
  3
AutoCAD 2000
 90
    32768
280
     0
281
     0
  0
CLASS
  1
LWPOLYLINE
  2
AcDbPolyline
  3
AutoCAD 2000
 90
    32768
280
     0
281
     1
  0
CLASS
  1
HATCH
  2
AcDbHatch
  3
AutoCAD 2000
 90
    32768
280
     0
281
     1
  0
CLASS
  1
XRECORD
  2
AcDbXrecord
  3
AutoCAD 2000
 90
    32768
280
     0
281
     0
  0
CLASS
  1
LONG_TRANSACTION
  2
AcDbLongTransaction
  3
AutoCAD 2000
 90
    32768
280
     0
281
     0
  0
CLASS
  1
LWPOLYLINE
  2
AcDbPolyline
  3
AutoCAD 2000
 90
    32768
280
     0
281
     1
  0
CLASS
  1
HATCH
  2
AcDbHatch
  3
AutoCAD 2000
 90
    32768
280
     0
281
     1
  0
CLASS
  1
XRECORD
  2
AcDbXrecord
  3
AutoCAD 2000
 90
    32768
280
     0
281
     0
  0
CLASS
  1
LONG_TRANSACTION
  2
AcDbLongTransaction
  3
AutoCAD 2000
 90
    32768
280
     0
281
     0
  0
CLASS
  1
LWPOLYLINE
  2
AcDbPolyline
  3
AutoCAD 2000
 90
    32768
280
     0
281
     1
  0
CLASS
  1
HATCH
  2
AcDbHatch
  3
AutoCAD 2000
 90
    32768
280
     0
281
     1
  0
CLASS
  1
XRECORD
  2
AcDbXrecord
  3
AutoCAD 2000
 90
    32768
280
     0
281
     0
  0
CLASS
  1
DICTIONARYVAR
  2
AcDbDictionaryVar
  3
AutoCAD 2000
 90
        0
280
     0
281
     0
  0
CLASS
  1
LONG_TRANSACTION
  2
AcDbLongTransaction
  3
AutoCAD 2000
 90
    32768
280
     0
281
     0
  0
CLASS
  1
LWPOLYLINE
  2
AcDbPolyline
  3
AutoCAD 2000
 90
    32768
280
     0
281
     1
  0
CLASS
  1
HATCH
  2
AcDbHatch
  3
AutoCAD 2000
 90
    32768
280
     0
281
     1
  0
CLASS
  1
XRECORD
  2
AcDbXrecord
  3
AutoCAD 2000
 90
    32768
280
     0
281
     0
  0
CLASS
  1
LONG_TRANSACTION
  2
AcDbLongTransaction
  3
AutoCAD 2000
 90
    32768
280
     0
281
     0
  0
CLASS
  1
LWPOLYLINE
  2
AcDbPolyline
  3
AutoCAD 2000
 90
    32768
280
     0
281
     1
  0
CLASS
  1
HATCH
  2
AcDbHatch
  3
AutoCAD 2000
 90
    32768
280
     0
281
     1
  0
CLASS
  1
XRECORD
  2
AcDbXrecord
  3
AutoCAD 2000
 90
    32768
280
     0
281
     0
  0
CLASS
  1
LONG_TRANSACTION
  2
AcDbLongTransaction
  3
AutoCAD 2000
 90
    32768
280
     0
281
     0
  0
CLASS
  1
LWPOLYLINE
  2
AcDbPolyline
  3
AutoCAD 2000
 90
    32768
280
     0
281
     1
  0
CLASS
  1
HATCH
  2
AcDbHatch
  3
AutoCAD 2000
 90
    32768
280
     0
281
     1
  0
CLASS
  1
XRECORD
  2
AcDbXrecord
  3
AutoCAD 2000
 90
    32768
280
     0
281
     0
  0
CLASS
  1
LONG_TRANSACTION
  2
AcDbLongTransaction
  3
AutoCAD 2000
 90
    32768
280
     0
281
     0
  0
CLASS
  1
LWPOLYLINE
  2
AcDbPolyline
  3
AutoCAD 2000
 90
    32768
280
     0
281
     1
  0
CLASS
  1
HATCH
  2
AcDbHatch
  3
AutoCAD 2000
 90
    32768
280
     0
281
     1
  0
CLASS
  1
XRECORD
  2
AcDbXrecord
  3
AutoCAD 2000
 90
    32768
280
     0
281
     0
  0
CLASS
  1
LONG_TRANSACTION
  2
AcDbLongTransaction
  3
AutoCAD 2000
 90
    32768
280
     0
281
     0
  0
CLASS
  1
LWPOLYLINE
  2
AcDbPolyline
  3
AutoCAD 2000
 90
    32768
280
     0
281
     1
  0
CLASS
  1
HATCH
  2
AcDbHatch
  3
AutoCAD 2000
 90
    32768
280
     0
281
     1
  0
CLASS
  1
XRECORD
  2
AcDbXrecord
  3
AutoCAD 2000
 90
    32768
280
     0
281
     0
  0
CLASS
  1
LONG_TRANSACTION
  2
AcDbLongTransaction
  3
AutoCAD 2000
 90
    32768
280
     0
281
     0
  0
CLASS
  1
LWPOLYLINE
  2
AcDbPolyline
  3
AutoCAD 2000
 90
    32768
280
     0
281
     1
  0
CLASS
  1
HATCH
  2
AcDbHatch
  3
AutoCAD 2000
 90
    32768
280
     0
281
     1
  0
CLASS
  1
XRECORD
  2
AcDbXrecord
  3
AutoCAD 2000
 90
    32768
280
     0
281
     0
  0
CLASS
  1
LONG_TRANSACTION
  2
AcDbLongTransaction
  3
AutoCAD 2000
 90
    32768
280
     0
281
     0
  0
CLASS
  1
LWPOLYLINE
  2
AcDbPolyline
  3
AutoCAD 2000
 90
    32768
280
     0
281
     1
  0
CLASS
  1
HATCH
  2
AcDbHatch
  3
AutoCAD 2000
 90
    32768
280
     0
281
     1
  0
CLASS
  1
XRECORD
  2
AcDbXrecord
  3
AutoCAD 2000
 90
    32768
280
     0
281
     0
  0
CLASS
  1
LONG_TRANSACTION
  2
AcDbLongTransaction
  3
AutoCAD 2000
 90
    32768
280
     0
281
     0
  0
CLASS
  1
LWPOLYLINE
  2
AcDbPolyline
  3
AutoCAD 2000
 90
    32768
280
     0
281
     1
  0
CLASS
  1
HATCH
  2
AcDbHatch
  3
AutoCAD 2000
 90
    32768
280
     0
281
     1
  0
CLASS
  1
XRECORD
  2
AcDbXrecord
  3
AutoCAD 2000
 90
    32768
280
     0
281
     0
  0
CLASS
  1
LONG_TRANSACTION
  2
AcDbLongTransaction
  3
AutoCAD 2000
 90
    32768
280
     0
281
     0
  0
CLASS
  1
LWPOLYLINE
  2
AcDbPolyline
  3
AutoCAD 2000
 90
    32768
280
     0
281
     1
  0
CLASS
  1
HATCH
  2
AcDbHatch
  3
AutoCAD 2000
 90
    32768
280
     0
281
     1
  0
CLASS
  1
XRECORD
  2
AcDbXrecord
  3
AutoCAD 2000
 90
    32768
280
     0
281
     0
  0
CLASS
  1
LONG_TRANSACTION
  2
AcDbLongTransaction
  3
AutoCAD 2000
 90
    32768
280
     0
281
     0
  0
CLASS
  1
LWPOLYLINE
  2
AcDbPolyline
  3
AutoCAD 2000
 90
    32768
280
     0
281
     1
  0
CLASS
  1
HATCH
  2
AcDbHatch
  3
AutoCAD 2000
 90
    32768
280
     0
281
     1
  0
CLASS
  1
XRECORD
  2
AcDbXrecord
  3
AutoCAD 2000
 90
    32768
280
     0
281
     0
  0
ENDSEC
  0
SECTION
  2
TABLES
  0
TABLE
  2
VPORT
  5
8
330
0
100
AcDbSymbolTable
 70
     2
  0
VPORT
  5
AFFE
330
8
100
AcDbSymbolTableRecord
100
AcDbViewportTableRecord
  2
*Active
 70
     0
 10
0.0
 20
0.0
 11
1.0
 21
1.0
 12
560.5152074909019
 22
509.9568930666528
 13
0.0
 23
0.0
 14
1.0
 24
1.0
 15
50.0
 25
50.0
 16
0.0
 26
0.0
 36
1.0
 17
0.0
 27
0.0
 37
0.0
 40
2534.545848510231
 41
1.636524822695035
 42
50.0
 43
0.0
 44
0.0
 50
0.0
 51
0.0
 71
     0
 72
   100
 73
     1
 74
     1
 75
     0
 76
     1
 77
     0
 78
     0
281
     0
 65
     1
110
0.0
120
0.0
130
0.0
111
1.0
121
0.0
131
0.0
112
0.0
122
1.0
132
0.0
 79
     0
146
0.0
  0
ENDTAB
  0
TABLE
  2
LTYPE
  5
5
330
0
100
AcDbSymbolTable
 70
     5
  0
LTYPE
  5
13
330
5
100
AcDbSymbolTableRecord
100
AcDbLinetypeTableRecord
  2
ByBlock
 70
     0
  3

 72
    65
 73
     0
 40
0.0
  0
LTYPE
  5
14
330
5
100
AcDbSymbolTableRecord
100
AcDbLinetypeTableRecord
  2
ByLayer
 70
     0
  3

 72
    65
 73
     0
 40
0.0
  0
LTYPE
  5
15
330
5
100
AcDbSymbolTableRecord
100
AcDbLinetypeTableRecord
  2
Continuous
 70
     0
  3
Solid line
 72
    65
 73
     0
 40
0.0
  0
LTYPE
  5
22
330
5
100
AcDbSymbolTableRecord
100
AcDbLinetypeTableRecord
  2
CONTINOUS
 70
     0
  3
Solid line
 72
    65
 73
     0
 40
0.0
  0
LTYPE
  5
24
330
5
100
AcDbSymbolTableRecord
100
AcDbLinetypeTableRecord
  2
DASHDOT
 70
     0
  3
__ . __ . __ . __ . __ . __ . __ . __ . __ . __
 72
    65
 73
     4
 40
1.0
 49
0.5
 74
     0
 49
-0.25
 74
     0
 49
0.0
 74
     0
 49
-0.25
 74
     0
  0
LTYPE
  5
33CB
330
5
100
AcDbSymbolTableRecord
100
AcDbLinetypeTableRecord
  2
DIVIDE
 70
     0
  3
Divide ____ . . ____ . . ____ . . ____ . . ____
 72
    65
 73
     6
 40
1.25
 49
0.5
 74
     0
 49
-0.25
 74
     0
 49
0.0
 74
     0
 49
-0.25
 74
     0
 49
0.0
 74
     0
 49
-0.25
 74
     0
  0
LTYPE
  5
941B
330
5
100
AcDbSymbolTableRecord
100
AcDbLinetypeTableRecord
  2
HIDDEN
 70
     0
  3
Hidden __ __ __ __ __ __ __ __ __ __ __ __ __ __
 72
    65
 73
     2
 40
1.905
 49
1.27
 74
     0
 49
-0.635
 74
     0
  0
ENDTAB
  0
TABLE
  2
LAYER
  5
2
330
0
100
AcDbSymbolTable
 70
    12
  0
LAYER
  5
10
330
2
100
AcDbSymbolTableRecord
100
AcDbLayerTableRecord
  2
0
 70
     0
 62
     6
  6
DASHDOT
370
    -3
390
F
  0
LAYER
  5
2F
330
2
100
AcDbSymbolTableRecord
100
AcDbLayerTableRecord
  2
10
 70
     0
 62
     4
  6
CONTINOUS
370
    -3
390
F
  0
LAYER
  5
31
330
2
100
AcDbSymbolTableRecord
100
AcDbLayerTableRecord
  2
12
 70
     0
 62
     3
  6
CONTINOUS
370
    -3
390
F
  0
LAYER
  5
35
330
2
100
AcDbSymbolTableRecord
100
AcDbLayerTableRecord
  2
16
 70
     0
 62
     6
  6
DASHDOT
370
    -3
390
F
  0
LAYER
  5
38
330
2
100
AcDbSymbolTableRecord
100
AcDbLayerTableRecord
  2
19
 70
     0
 62
     7
  6
CONTINOUS
370
    -3
390
F
  0
LAYER
  5
3C
330
2
100
AcDbSymbolTableRecord
100
AcDbLayerTableRecord
  2
11
 70
     0
 62
     1
  6
CONTINOUS
370
    -3
390
F
  0
LAYER
  5
3A2
330
2
100
AcDbSymbolTableRecord
100
AcDbLayerTableRecord
  2
30
 70
     0
 62
     9
  6
Continuous
370
    -3
390
F
  0
LAYER
  5
3A4
330
2
100
AcDbSymbolTableRecord
100
AcDbLayerTableRecord
  2
Defpoints
 70
     0
 62
     2
  6
DASHDOT
290
     0
370
    -3
390
F
  0
LAYER
  5
33C8
330
2
100
AcDbSymbolTableRecord
100
AcDbLayerTableRecord
  2
18
 70
     0
 62
     5
  6
DIVIDE
370
    -3
390
F
  0
LAYER
  5
39DB
330
2
100
AcDbSymbolTableRecord
100
AcDbLayerTableRecord
  2
27
 70
     0
 62
     2
  6
Continuous
370
    -3
390
F
  0
LAYER
  5
A5CF
330
2
100
AcDbSymbolTableRecord
100
AcDbLayerTableRecord
  2
17
 70
     0
 62
     2
  6
DASHDOT
370
    -3
390
F
  0
LAYER
  5
A8B3
330
2
100
AcDbSymbolTableRecord
100
AcDbLayerTableRecord
  2
34
 70
     0
 62
     2
  6
DIVIDE
370
    -3
390
F
  0
ENDTAB
  0
TABLE
  2
STYLE
  5
3
330
0
100
AcDbSymbolTable
 70
     2
  0
STYLE
  5
11
330
3
100
AcDbSymbolTableRecord
100
AcDbTextStyleTableRecord
  2
Standard
 70
     0
 40
0.0
 41
1.0
 50
0.0
 71
     0
 42
2.0
  3
simplex.shx
  4
bigfont.shx
  0
STYLE
  5
941E
330
3
100
AcDbSymbolTableRecord
100
AcDbTextStyleTableRecord
  2
SLDTEXTSTYLE1
 70
     0
 40
0.0
 41
0.75
 50
0.0
 71
     0
 42
0.0
  3
txt
  4

  0
ENDTAB
  0
TABLE
  2
VIEW
  5
6
330
0
100
AcDbSymbolTable
 70
     2
  0
VIEW
  5
3817
330
6
100
AcDbSymbolTableRecord
100
AcDbViewTableRecord
  2
OLE1
 70
     0
 40
440.4976618414746
 10
298.4341836359813
 20
-51.57564428994924
 41
312.0191771377111
 11
0.0
 21
0.0
 31
1.0
 12
0.0
 22
0.0
 32
0.0
 42
50.0
 43
0.0
 44
0.0
 50
0.0
 71
     0
281
     0
 72
     0
  0
VIEW
  5
3819
330
6
100
AcDbSymbolTableRecord
100
AcDbViewTableRecord
  2
OLE2
 70
     0
 40
1141.80233015935
 10
166.182610057254
 20
-77.11925276944589
 41
611.5415870006012
 11
0.0
 21
0.0
 31
1.0
 12
0.0
 22
0.0
 32
0.0
 42
50.0
 43
0.0
 44
0.0
 50
0.0
 71
     0
281
     0
 72
     0
  0
ENDTAB
  0
TABLE
  2
UCS
  5
7
330
0
100
AcDbSymbolTable
 70
     0
  0
ENDTAB
  0
TABLE
  2
APPID
  5
9
330
0
100
AcDbSymbolTable
 70
     2
  0
APPID
  5
12
330
9
100
AcDbSymbolTableRecord
100
AcDbRegAppTableRecord
  2
ACAD
 70
     0
  0
APPID
  5
ECD
330
9
100
AcDbSymbolTableRecord
100
AcDbRegAppTableRecord
  2
CONTENTBLOCKICON
 70
     0
  0
ENDTAB
  0
TABLE
  2
DIMSTYLE
  5
A
330
0
100
AcDbSymbolTable
 70
     1
100
AcDbDimStyleTable
 71
     1
340
175
  0
DIMSTYLE
105
175
102
{ACAD_REACTORS
330
47D5
330
47D4
330
5C97
330
5CC8
330
9A4E
330
9A6D
330
9A6B
330
9A70
330
9A81
330
9A46
330
9A47
330
9991
330
9944
330
993F
330
997D
330
9997
330
9992
330
9949
330
994C
330
990F
330
9912
330
990D
330
9765
330
9764
330
9766
330
975E
330
9767
330
975F
330
9768
330
9799
330
9905
330
9834
330
9780
330
9784
330
9782
330
9786
330
9763
330
9762
330
9771
330
9785
330
9950
330
9A4D
330
9993
330
9798
330
A8BA
330
A8F3
330
A8F6
330
A98B
330
AA20
330
57F8
330
975C
330
9760
330
977B
330
977D
330
9915
330
9917
330
992F
330
9934
330
994E
330
9A74
330
A208
102
}
330
A
100
AcDbSymbolTableRecord
100
AcDbDimStyleTableRecord
  2
Standard
 70
     0
 41
5.0
 42
10.0
 43
0.5
 44
1.0
 73
     0
 74
     0
 77
     3
 78
    12
 79
     3
140
10.0
147
3.0
172
     1
174
     1
175
     1
271
     1
272
     1
279
     1
340
11
341
3B2
342
3B2
  0
ENDTAB
  0
TABLE
  2
BLOCK_RECORD
  5
1
330
0
100
AcDbSymbolTable
 70
    55
  0
BLOCK_RECORD
  5
1E
102
{ACAD_XDICTIONARY
360
178
102
}
330
1
100
AcDbSymbolTableRecord
100
AcDbBlockTableRecord
  2
*Model_Space
340
21
  0
BLOCK_RECORD
  5
1A
102
{ACAD_XDICTIONARY
360
17A
102
}
330
1
100
AcDbSymbolTableRecord
100
AcDbBlockTableRecord
  2
*Paper_Space
340
1D
  0
BLOCK_RECORD
  5
3B2
330
1
100
AcDbSymbolTableRecord
100
AcDbBlockTableRecord
  2
_Open
340
0
102
{BLKREFS
331
7FBA
331
7FBB
331
7FB1
331
7FB2
331
7FC3
331
7FC4
331
7FCC
331
7FCD
331
A640
331
A641
331
A652
331
A653
331
A65B
331
A65C
331
A66D
331
A66E
331
A677
331
A678
331
A680
331
A681
331
A692
331
A693
331
A6A4
331
A6A5
331
A6AE
331
A6AF
331
A6D0
331
A6D1
331
A6D9
331
A6DA
331
A6EC
331
A6ED
331
A710
331
A711
331
A785
331
A786
331
A78E
331
A78F
331
A797
331
A798
331
A7A0
331
A7A1
331
A7A9
331
A7AA
331
A7B2
331
A7B3
331
A7BB
331
A7BC
331
A7C4
331
A7C5
331
A7CD
331
A7CE
331
A7D6
331
A7D7
331
A7DF
331
A7E0
331
A7E8
331
A7E9
331
A7F2
331
A7F3
331
A7FB
331
A7FC
331
A804
331
A805
331
A81F
331
A820
331
A828
331
A829
331
A831
331
A832
331
A83A
331
A83B
331
A913
331
A914
331
A91C
331
A91D
331
A954
331
A955
331
A95D
331
A95E
331
A968
331
A969
331
A971
331
A972
331
A97A
331
A97B
331
A9A3
331
A9A4
331
AA0B
331
AA0C
331
AA18
331
AA19
331
AA25
331
AA26
331
AA32
331
AA33
331
AA3D
331
AA3E
331
AA46
331
AA47
331
AA4F
331
AA50
331
AA5F
331
AA60
331
AA68
331
AA69
331
AA73
331
AA74
331
AA7E
331
AA7F
331
AAD5
331
AAD6
331
AADE
331
AADF
331
AAE7
331
AAE8
331
AAF0
331
AAF1
331
AAFA
331
AAFB
331
AB03
331
AB04
331
AB0C
331
AB0D
331
AB15
331
AB16
331
AB27
331
AB28
331
AB30
331
AB31
331
AB39
331
AB3A
331
AB42
331
AB43
331
AB4B
331
AB4C
331
AB54
331
AB55
331
AB5D
331
AB5E
331
AB67
331
AB68
331
AB70
331
AB71
331
AB79
331
AB7A
331
AB82
331
AB83
331
AB8C
331
AB8D
331
AB95
331
AB96
331
AB9E
331
AB9F
331
ABA7
331
ABA8
331
ABB0
331
ABB1
331
ABB9
331
ABBA
331
ABC2
331
ABC3
331
ABCB
331
ABCC
331
ABD4
331
ABD5
331
ABDD
331
ABDE
331
ABE6
331
ABE7
331
ABEF
331
ABF0
331
ABF8
331
ABF9
331
AC01
331
AC02
331
AC0A
331
AC0B
331
AC14
331
AC15
331
AC1D
331
AC1E
331
AC26
331
AC27
331
AC2F
331
AC30
331
AC38
331
AC39
331
AC41
331
AC42
331
AC4A
331
AC4B
331
AC5A
331
AC5B
331
AC69
331
AC6A
331
AC72
331
AC73
331
AC82
331
AC83
331
AC8E
331
AC8F
331
AC97
331
AC98
331
AC9F
331
ACA0
331
ACA8
331
ACA9
331
ACB1
331
ACB2
331
ACBA
331
ACBB
331
ACF1
331
ACF2
331
AD06
331
AD07
331
AD0F
331
AD10
331
AD18
331
AD19
331
AD21
331
AD22
331
AD2A
331
AD2B
331
AD33
331
AD34
331
AD3B
331
AD3C
331
AD45
331
AD46
331
AD4F
331
AD50
331
AD58
331
AD59
331
AD61
331
AD62
331
AD6A
331
AD6B
331
AD73
331
AD74
331
AD83
331
AD84
331
AD8C
331
AD8D
331
AD95
331
AD96
331
AD9E
331
AD9F
331
ADA7
331
ADA8
331
ADB0
331
ADB1
331
ADB9
331
ADBA
331
ADC2
331
ADC3
331
ADCB
331
ADCC
331
ADD4
331
ADD5
331
ADDD
331
ADDE
331
ADE6
331
ADE7
331
AE4B
331
AE4C
331
AE54
331
AE55
331
AE5D
331
AE5E
331
AE66
331
AE67
331
AE70
331
AE71
331
AE79
331
AE7A
331
AE82
331
AE83
331
AE8B
331
AE8C
331
AE9D
331
AE9E
331
AEA6
331
AEA7
331
AEAF
331
AEB0
331
AEB8
331
AEB9
331
AEC1
331
AEC2
331
AECA
331
AECB
331
AED3
331
AED4
331
AEDD
331
AEDE
331
AEE6
331
AEE7
331
AEEF
331
AEF0
331
AEF8
331
AEF9
331
AF02
331
AF03
331
AF0B
331
AF0C
331
AF14
331
AF15
331
AF1D
331
AF1E
331
AF26
331
AF27
331
AF2F
331
AF30
331
AF38
331
AF39
331
AF41
331
AF42
331
AF4A
331
AF4B
331
AF53
331
AF54
331
AF5C
331
AF5D
331
AF65
331
AF66
331
AF6E
331
AF6F
331
AF77
331
AF78
331
AF80
331
AF81
331
AF8A
331
AF8B
331
AF93
331
AF94
331
AF9C
331
AF9D
331
AFA5
331
AFA6
331
AFAE
331
AFAF
331
AFB7
331
AFB8
331
AFC0
331
AFC1
331
AFD0
331
AFD1
331
AFDF
331
AFE0
331
AFE8
331
AFE9
331
AFF8
331
AFF9
102
}
  0
BLOCK_RECORD
  5
4C0E
330
1
100
AcDbSymbolTableRecord
100
AcDbBlockTableRecord
  2
*D1
340
0
  0
BLOCK_RECORD
  5
4C1A
330
1
100
AcDbSymbolTableRecord
100
AcDbBlockTableRecord
  2
*D2
340
0
  0
BLOCK_RECORD
  5
5C98
330
1
100
AcDbSymbolTableRecord
100
AcDbBlockTableRecord
  2
*D3
340
0
  0
BLOCK_RECORD
  5
5CC9
330
1
100
AcDbSymbolTableRecord
100
AcDbBlockTableRecord
  2
*D4
340
0
  0
BLOCK_RECORD
  5
9A8A
330
1
100
AcDbSymbolTableRecord
100
AcDbBlockTableRecord
  2
*D5
340
0
  0
BLOCK_RECORD
  5
9A96
330
1
100
AcDbSymbolTableRecord
100
AcDbBlockTableRecord
  2
*D6
340
0
  0
BLOCK_RECORD
  5
9AA2
330
1
100
AcDbSymbolTableRecord
100
AcDbBlockTableRecord
  2
*D7
340
0
  0
BLOCK_RECORD
  5
9AAE
330
1
100
AcDbSymbolTableRecord
100
AcDbBlockTableRecord
  2
*D8
340
0
  0
BLOCK_RECORD
  5
9ABA
330
1
100
AcDbSymbolTableRecord
100
AcDbBlockTableRecord
  2
*D9
340
0
  0
BLOCK_RECORD
  5
9AC7
330
1
100
AcDbSymbolTableRecord
100
AcDbBlockTableRecord
  2
*D10
340
0
  0
BLOCK_RECORD
  5
9AD4
330
1
100
AcDbSymbolTableRecord
100
AcDbBlockTableRecord
  2
*D11
340
0
  0
BLOCK_RECORD
  5
9AE1
330
1
100
AcDbSymbolTableRecord
100
AcDbBlockTableRecord
  2
*D12
340
0
  0
BLOCK_RECORD
  5
9AEE
330
1
100
AcDbSymbolTableRecord
100
AcDbBlockTableRecord
  2
*D13
340
0
  0
BLOCK_RECORD
  5
9AFA
330
1
100
AcDbSymbolTableRecord
100
AcDbBlockTableRecord
  2
*D14
340
0
  0
BLOCK_RECORD
  5
9B06
330
1
100
AcDbSymbolTableRecord
100
AcDbBlockTableRecord
  2
*D15
340
0
  0
BLOCK_RECORD
  5
9B12
330
1
100
AcDbSymbolTableRecord
100
AcDbBlockTableRecord
  2
*D16
340
0
  0
BLOCK_RECORD
  5
9B1E
330
1
100
AcDbSymbolTableRecord
100
AcDbBlockTableRecord
  2
*D17
340
0
  0
BLOCK_RECORD
  5
9B2A
330
1
100
AcDbSymbolTableRecord
100
AcDbBlockTableRecord
  2
*D18
340
0
  0
BLOCK_RECORD
  5
9B36
330
1
100
AcDbSymbolTableRecord
100
AcDbBlockTableRecord
  2
*D19
340
0
  0
BLOCK_RECORD
  5
9B42
330
1
100
AcDbSymbolTableRecord
100
AcDbBlockTableRecord
  2
*D20
340
0
  0
BLOCK_RECORD
  5
9B4E
330
1
100
AcDbSymbolTableRecord
100
AcDbBlockTableRecord
  2
*D21
340
0
  0
BLOCK_RECORD
  5
9B5A
330
1
100
AcDbSymbolTableRecord
100
AcDbBlockTableRecord
  2
*D22
340
0
  0
BLOCK_RECORD
  5
9B66
330
1
100
AcDbSymbolTableRecord
100
AcDbBlockTableRecord
  2
*D23
340
0
  0
BLOCK_RECORD
  5
9B72
330
1
100
AcDbSymbolTableRecord
100
AcDbBlockTableRecord
  2
*D24
340
0
  0
BLOCK_RECORD
  5
9B7E
330
1
100
AcDbSymbolTableRecord
100
AcDbBlockTableRecord
  2
*D25
340
0
  0
BLOCK_RECORD
  5
9B8A
330
1
100
AcDbSymbolTableRecord
100
AcDbBlockTableRecord
  2
*D26
340
0
  0
BLOCK_RECORD
  5
9B96
330
1
100
AcDbSymbolTableRecord
100
AcDbBlockTableRecord
  2
*D27
340
0
  0
BLOCK_RECORD
  5
9BA3
330
1
100
AcDbSymbolTableRecord
100
AcDbBlockTableRecord
  2
*D28
340
0
  0
BLOCK_RECORD
  5
9BAF
330
1
100
AcDbSymbolTableRecord
100
AcDbBlockTableRecord
  2
*D29
340
0
  0
BLOCK_RECORD
  5
9BBB
330
1
100
AcDbSymbolTableRecord
100
AcDbBlockTableRecord
  2
*D30
340
0
  0
BLOCK_RECORD
  5
9BC7
330
1
100
AcDbSymbolTableRecord
100
AcDbBlockTableRecord
  2
*D31
340
0
  0
BLOCK_RECORD
  5
9BD3
330
1
100
AcDbSymbolTableRecord
100
AcDbBlockTableRecord
  2
*D32
340
0
  0
BLOCK_RECORD
  5
9BEB
330
1
100
AcDbSymbolTableRecord
100
AcDbBlockTableRecord
  2
*D33
340
0
  0
BLOCK_RECORD
  5
9C0F
330
1
100
AcDbSymbolTableRecord
100
AcDbBlockTableRecord
  2
*D34
340
0
  0
BLOCK_RECORD
  5
9C7B
330
1
100
AcDbSymbolTableRecord
100
AcDbBlockTableRecord
  2
*D35
340
0
  0
BLOCK_RECORD
  5
9C88
330
1
100
AcDbSymbolTableRecord
100
AcDbBlockTableRecord
  2
*D36
340
0
  0
BLOCK_RECORD
  5
9C94
330
1
100
AcDbSymbolTableRecord
100
AcDbBlockTableRecord
  2
*D37
340
0
  0
BLOCK_RECORD
  5
9CAD
330
1
100
AcDbSymbolTableRecord
100
AcDbBlockTableRecord
  2
*D38
340
0
  0
BLOCK_RECORD
  5
9CB8
330
1
100
AcDbSymbolTableRecord
100
AcDbBlockTableRecord
  2
*D39
340
0
  0
BLOCK_RECORD
  5
9CDE
330
1
100
AcDbSymbolTableRecord
100
AcDbBlockTableRecord
  2
*D40
340
0
  0
BLOCK_RECORD
  5
9D04
330
1
100
AcDbSymbolTableRecord
100
AcDbBlockTableRecord
  2
*D41
340
0
  0
BLOCK_RECORD
  5
9D10
330
1
100
AcDbSymbolTableRecord
100
AcDbBlockTableRecord
  2
*D42
340
0
  0
BLOCK_RECORD
  5
9D1D
330
1
100
AcDbSymbolTableRecord
100
AcDbBlockTableRecord
  2
*D43
340
0
  0
BLOCK_RECORD
  5
9D2A
330
1
100
AcDbSymbolTableRecord
100
AcDbBlockTableRecord
  2
*D44
340
0
  0
BLOCK_RECORD
  5
A8BB
330
1
100
AcDbSymbolTableRecord
100
AcDbBlockTableRecord
  2
*D45
340
0
  0
BLOCK_RECORD
  5
A8C6
330
1
100
AcDbSymbolTableRecord
100
AcDbBlockTableRecord
  2
*D46
340
0
  0
BLOCK_RECORD
  5
A8F8
330
1
100
AcDbSymbolTableRecord
100
AcDbBlockTableRecord
  2
*D47
340
0
  0
BLOCK_RECORD
  5
A904
330
1
100
AcDbSymbolTableRecord
100
AcDbBlockTableRecord
  2
*D48
340
0
  0
BLOCK_RECORD
  5
A98C
330
1
100
AcDbSymbolTableRecord
100
AcDbBlockTableRecord
  2
*D49
340
0
  0
BLOCK_RECORD
  5
AA07
330
1
100
AcDbSymbolTableRecord
100
AcDbBlockTableRecord
  2
*D50
340
0
  0
BLOCK_RECORD
  5
AA14
330
1
100
AcDbSymbolTableRecord
100
AcDbBlockTableRecord
  2
*D51
340
0
  0
BLOCK_RECORD
  5
AA21
330
1
100
AcDbSymbolTableRecord
100
AcDbBlockTableRecord
  2
*D52
340
0
  0
BLOCK_RECORD
  5
AA2E
330
1
100
AcDbSymbolTableRecord
100
AcDbBlockTableRecord
  2
*D53
340
0
  0
BLOCK_RECORD
  5
AA6F
330
1
100
AcDbSymbolTableRecord
100
AcDbBlockTableRecord
  2
*D54
340
0
  0
ENDTAB
  0
ENDSEC
  0
SECTION
  2
BLOCKS
  0
BLOCK
  5
1F
330
1E
100
AcDbEntity
  8
0
100
AcDbBlockBegin
  2
*Model_Space
 70
     0
 10
0.0
 20
0.0
 30
0.0
  3
*Model_Space
  1

  0
ENDBLK
  5
20
330
1E
100
AcDbEntity
  8
0
100
AcDbBlockEnd
  0
BLOCK
  5
1B
330
1A
100
AcDbEntity
 67
     1
  8
0
100
AcDbBlockBegin
  2
*Paper_Space
 70
     0
 10
0.0
 20
0.0
 30
0.0
  3
*Paper_Space
  1

  0
ENDBLK
  5
1C
330
1A
100
AcDbEntity
 67
     1
  8
0
100
AcDbBlockEnd
  0
BLOCK
  5
3B6
330
3B2
100
AcDbEntity
  8
0
100
AcDbBlockBegin
  2
_Open
 70
     0
 10
0.0
 20
0.0
 30
0.0
  3
_Open
  1

  0
LINE
  5
3B3
330
3B2
100
AcDbEntity
  8
30
  6
Continuous
 62
     0
370
    -2
100
AcDbLine
 10
-1.0
 20
0.1666666666666666
 30
0.0
 11
0.0
 21
0.0
 31
0.0
  0
LINE
  5
3B4
330
3B2
100
AcDbEntity
  8
30
  6
Continuous
 62
     0
370
    -2
100
AcDbLine
 10
-1.0
 20
-0.1666666666666666
 30
0.0
 11
0.0
 21
0.0
 31
0.0
  0
LINE
  5
3B5
330
3B2
100
AcDbEntity
  8
30
  6
Continuous
 62
     0
370
    -2
100
AcDbLine
 10
0.0
 20
0.0
 30
0.0
 11
-1.0
 21
0.0
 31
0.0
  0
ENDBLK
  5
3B7
330
3B2
100
AcDbEntity
  8
0
100
AcDbBlockEnd
  0
BLOCK
  5
4C18
330
4C0E
100
AcDbEntity
  8
0
100
AcDbBlockBegin
  2
*D1
 70
     1
 10
0.0
 20
0.0
 30
0.0
  3
*D1
  1

  0
LINE
  5
AE51
330
4C0E
100
AcDbEntity
  8
30
 62
     0
370
    -2
100
AcDbLine
 10
-1165.0
 20
1062.0
 30
0.0
 11
-1165.0
 21
947.3842652287068
 31
0.0
  0
LINE
  5
AE52
330
4C0E
100
AcDbEntity
  8
30
 62
     0
370
    -2
100
AcDbLine
 10
-999.9999999999996
 20
990.0
 30
0.0
 11
-999.9999999999996
 21
947.3842652287068
 31
0.0
  0
LINE
  5
AE53
330
4C0E
100
AcDbEntity
  8
30
 62
     0
370
    -2
100
AcDbLine
 10
-1160.0
 20
948.3842652287068
 30
0.0
 11
-1004.999999999999
 21
948.3842652287068
 31
0.0
  0
INSERT
  5
AE54
330
4C0E
100
AcDbEntity
  8
30
 62
     0
370
    -2
100
AcDbBlockReference
  2
_Open
 10
-1165.0
 20
948.3842652287068
 30
0.0
 41
5.0
 42
5.0
 43
5.0
 50
180.0
  0
INSERT
  5
AE55
330
4C0E
100
AcDbEntity
  8
30
 62
     0
370
    -2
100
AcDbBlockReference
  2
_Open
 10
-999.9999999999996
 20
948.3842652287068
 30
0.0
 41
5.0
 42
5.0
 43
5.0
  0
MTEXT
  5
AE56
330
4C0E
100
AcDbEntity
  8
30
 62
     0
100
AcDbMText
 10
-1082.499999999999
 20
956.3842652287068
 30
0.0
 40
10.0
 41
0.0
 71
     5
 72
     1
  1
\A1;165
 73
     1
 44
1.0
  0
POINT
  5
AE57
330
4C0E
100
AcDbEntity
  8
Defpoints
 62
     0
100
AcDbPoint
 10
-1165.0
 20
1072.0
 30
0.0
  0
POINT
  5
AE58
330
4C0E
100
AcDbEntity
  8
Defpoints
 62
     0
100
AcDbPoint
 10
-999.9999999999996
 20
1000.0
 30
0.0
  0
POINT
  5
AE59
330
4C0E
100
AcDbEntity
  8
Defpoints
 62
     0
100
AcDbPoint
 10
-999.9999999999996
 20
948.3842652287068
 30
0.0
  0
ENDBLK
  5
4C19
330
4C0E
100
AcDbEntity
  8
0
100
AcDbBlockEnd
  0
BLOCK
  5
4C24
330
4C1A
100
AcDbEntity
  8
0
100
AcDbBlockBegin
  2
*D2
 70
     1
 10
0.0
 20
0.0
 30
0.0
  3
*D2
  1

  0
LINE
  5
AE48
330
4C1A
100
AcDbEntity
  8
30
 62
     0
370
    -2
100
AcDbLine
 10
-814.9999999999996
 20
1246.999999999997
 30
0.0
 11
-744.6453671497756
 21
1246.999999999997
 31
0.0
  0
LINE
  5
AE49
330
4C1A
100
AcDbEntity
  8
30
 62
     0
370
    -2
100
AcDbLine
 10
-815.0000000000002
 20
1081.999999999996
 30
0.0
 11
-744.6453671497756
 21
1081.999999999996
 31
0.0
  0
LINE
  5
AE4A
330
4C1A
100
AcDbEntity
  8
30
 62
     0
370
    -2
100
AcDbLine
 10
-745.6453671497756
 20
1241.999999999997
 30
0.0
 11
-745.6453671497756
 21
1086.999999999996
 31
0.0
  0
INSERT
  5
AE4B
330
4C1A
100
AcDbEntity
  8
30
 62
     0
370
    -2
100
AcDbBlockReference
  2
_Open
 10
-745.6453671497756
 20
1246.999999999997
 30
0.0
 41
5.0
 42
5.0
 43
5.0
 50
90.0
  0
INSERT
  5
AE4C
330
4C1A
100
AcDbEntity
  8
30
 62
     0
370
    -2
100
AcDbBlockReference
  2
_Open
 10
-745.6453671497756
 20
1081.999999999996
 30
0.0
 41
5.0
 42
5.0
 43
5.0
 50
270.0
  0
MTEXT
  5
AE4D
330
4C1A
100
AcDbEntity
  8
30
 62
     0
100
AcDbMText
 10
-753.6453671497757
 20
1164.499999999996
 30
0.0
 40
10.0
 41
0.0
 71
     5
 72
     1
  1
\A1;165
 11
0.0000000000000001
 21
1.0
 31
0.0
 73
     1
 44
1.0
  0
POINT
  5
AE4E
330
4C1A
100
AcDbEntity
  8
Defpoints
 62
     0
100
AcDbPoint
 10
-824.9999999999996
 20
1246.999999999997
 30
0.0
  0
POINT
  5
AE4F
330
4C1A
100
AcDbEntity
  8
Defpoints
 62
     0
100
AcDbPoint
 10
-825.0000000000001
 20
1081.999999999996
 30
0.0
  0
POINT
  5
AE50
330
4C1A
100
AcDbEntity
  8
Defpoints
 62
     0
100
AcDbPoint
 10
-745.6453671497756
 20
1081.999999999996
 30
0.0
  0
ENDBLK
  5
4C25
330
4C1A
100
AcDbEntity
  8
0
100
AcDbBlockEnd
  0
BLOCK
  5
5CA2
330
5C98
100
AcDbEntity
  8
0
100
AcDbBlockBegin
  2
*D3
 70
     1
 10
0.0
 20
0.0
 30
0.0
  3
*D3
  1

  0
LINE
  5
AE5A
330
5C98
100
AcDbEntity
  8
30
 62
     0
370
    -2
100
AcDbLine
 10
-817.9999999999996
 20
1081.999999999996
 30
0.0
 11
-744.6453671497756
 21
1081.999999999996
 31
0.0
  0
LINE
  5
AE5B
330
5C98
100
AcDbEntity
  8
30
 62
     0
370
    -2
100
AcDbLine
 10
-817.9999999999996
 20
1000.0
 30
0.0
 11
-744.6453671497756
 21
999.9999999999998
 31
0.0
  0
LINE
  5
AE5C
330
5C98
100
AcDbEntity
  8
30
 62
     0
370
    -2
100
AcDbLine
 10
-745.6453671497756
 20
1076.999999999996
 30
0.0
 11
-745.6453671497756
 21
1004.999999999999
 31
0.0
  0
INSERT
  5
AE5D
330
5C98
100
AcDbEntity
  8
30
 62
     0
370
    -2
100
AcDbBlockReference
  2
_Open
 10
-745.6453671497756
 20
1081.999999999996
 30
0.0
 41
5.0
 42
5.0
 43
5.0
 50
90.0
  0
INSERT
  5
AE5E
330
5C98
100
AcDbEntity
  8
30
 62
     0
370
    -2
100
AcDbBlockReference
  2
_Open
 10
-745.6453671497756
 20
999.9999999999998
 30
0.0
 41
5.0
 42
5.0
 43
5.0
 50
270.0
  0
MTEXT
  5
AE5F
330
5C98
100
AcDbEntity
  8
30
 62
     0
100
AcDbMText
 10
-753.6453671497757
 20
1040.999999999997
 30
0.0
 40
10.0
 41
0.0
 71
     5
 72
     1
  1
\A1;82
 11
0.0000000000000001
 21
1.0
 31
0.0
 73
     1
 44
1.0
  0
POINT
  5
AE60
330
5C98
100
AcDbEntity
  8
Defpoints
 62
     0
100
AcDbPoint
 10
-827.9999999999997
 20
1081.999999999996
 30
0.0
  0
POINT
  5
AE61
330
5C98
100
AcDbEntity
  8
Defpoints
 62
     0
100
AcDbPoint
 10
-827.9999999999997
 20
1000.0
 30
0.0
  0
POINT
  5
AE62
330
5C98
100
AcDbEntity
  8
Defpoints
 62
     0
100
AcDbPoint
 10
-745.6453671497756
 20
999.9999999999998
 30
0.0
  0
ENDBLK
  5
5CA3
330
5C98
100
AcDbEntity
  8
0
100
AcDbBlockEnd
  0
BLOCK
  5
5CD3
330
5CC9
100
AcDbEntity
  8
0
100
AcDbBlockBegin
  2
*D4
 70
     1
 10
0.0
 20
0.0
 30
0.0
  3
*D4
  1

  0
LINE
  5
AE63
330
5CC9
100
AcDbEntity
  8
30
 62
     0
370
    -2
100
AcDbLine
 10
-999.9999999999996
 20
988.0
 30
0.0
 11
-999.9999999999996
 21
947.3842652287068
 31
0.0
  0
LINE
  5
AE64
330
5CC9
100
AcDbEntity
  8
30
 62
     0
370
    -2
100
AcDbLine
 10
-834.9999999999996
 20
1061.999999999998
 30
0.0
 11
-834.9999999999996
 21
947.3842652287068
 31
0.0
  0
LINE
  5
AE65
330
5CC9
100
AcDbEntity
  8
30
 62
     0
370
    -2
100
AcDbLine
 10
-994.9999999999997
 20
948.3842652287068
 30
0.0
 11
-839.9999999999996
 21
948.3842652287068
 31
0.0
  0
INSERT
  5
AE66
330
5CC9
100
AcDbEntity
  8
30
 62
     0
370
    -2
100
AcDbBlockReference
  2
_Open
 10
-999.9999999999996
 20
948.3842652287068
 30
0.0
 41
5.0
 42
5.0
 43
5.0
 50
180.0
  0
INSERT
  5
AE67
330
5CC9
100
AcDbEntity
  8
30
 62
     0
370
    -2
100
AcDbBlockReference
  2
_Open
 10
-834.9999999999996
 20
948.3842652287068
 30
0.0
 41
5.0
 42
5.0
 43
5.0
  0
MTEXT
  5
AE68
330
5CC9
100
AcDbEntity
  8
30
 62
     0
100
AcDbMText
 10
-917.4999999999997
 20
956.3842652287068
 30
0.0
 40
10.0
 41
0.0
 71
     5
 72
     1
  1
\A1;165
 73
     1
 44
1.0
  0
POINT
  5
AE69
330
5CC9
100
AcDbEntity
  8
Defpoints
 62
     0
100
AcDbPoint
 10
-999.9999999999996
 20
998.0
 30
0.0
  0
POINT
  5
AE6A
330
5CC9
100
AcDbEntity
  8
Defpoints
 62
     0
100
AcDbPoint
 10
-834.9999999999996
 20
1071.999999999998
 30
0.0
  0
POINT
  5
AE6B
330
5CC9
100
AcDbEntity
  8
Defpoints
 62
     0
100
AcDbPoint
 10
-834.9999999999996
 20
948.3842652287068
 30
0.0
  0
ENDBLK
  5
5CD4
330
5CC9
100
AcDbEntity
  8
0
100
AcDbBlockEnd
  0
BLOCK
  5
9A94
330
9A8A
100
AcDbEntity
  8
0
100
AcDbBlockBegin
  2
*D5
 70
     1
 10
0.0
 20
0.0
 30
0.0
  3
*D5
  1

  0
LINE
  5
AE99
330
9A8A
100
AcDbEntity
  8
30
 62
     0
370
    -2
100
AcDbLine
 10
2120.0
 20
515.0
 30
0.0
 11
2226.716753100773
 21
515.0
 31
0.0
  0
LINE
  5
AE9A
330
9A8A
100
AcDbEntity
  8
30
 62
     0
370
    -2
100
AcDbLine
 10
2171.0
 20
-0.0000000000000028
 30
0.0
 11
2226.716753100773
 21
-0.0000000000000186
 31
0.0
  0
LINE
  5
AE9B
330
9A8A
100
AcDbEntity
  8
30
 62
     0
370
    -2
100
AcDbLine
 10
2225.716753100773
 20
509.9999999999999
 30
0.0
 11
2225.716753100773
 21
4.999999999999982
 31
0.0
  0
MTEXT
  5
AE9C
330
9A8A
100
AcDbEntity
  8
30
 62
     0
100
AcDbMText
 10
2217.716753100773
 20
223.1741244240004
 30
0.0
 40
10.0
 41
0.0
 71
     5
 72
     1
  1
\A1;515
 11
0.0000000000000001
 21
1.0
 31
0.0
 73
     1
 44
1.0
  0
INSERT
  5
AE9D
330
9A8A
100
AcDbEntity
  8
30
 62
     0
370
    -2
100
AcDbBlockReference
  2
_Open
 10
2225.716753100773
 20
515.0
 30
0.0
 41
5.0
 42
5.0
 43
5.0
 50
90.0
  0
INSERT
  5
AE9E
330
9A8A
100
AcDbEntity
  8
30
 62
     0
370
    -2
100
AcDbBlockReference
  2
_Open
 10
2225.716753100773
 20
-0.0000000000000183
 30
0.0
 41
5.0
 42
5.0
 43
5.0
 50
270.0
  0
POINT
  5
AE9F
330
9A8A
100
AcDbEntity
  8
Defpoints
 62
     0
100
AcDbPoint
 10
2110.0
 20
515.0
 30
0.0
  0
POINT
  5
AEA0
330
9A8A
100
AcDbEntity
  8
Defpoints
 62
     0
100
AcDbPoint
 10
2161.0
 20
0.0
 30
0.0
  0
POINT
  5
AEA1
330
9A8A
100
AcDbEntity
  8
Defpoints
 62
     0
100
AcDbPoint
 10
2225.716753100773
 20
-0.0000000000000183
 30
0.0
  0
ENDBLK
  5
9A95
330
9A8A
100
AcDbEntity
  8
0
100
AcDbBlockEnd
  0
BLOCK
  5
9AA0
330
9A96
100
AcDbEntity
  8
0
100
AcDbBlockBegin
  2
*D6
 70
     1
 10
0.0
 20
0.0
 30
0.0
  3
*D6
  1

  0
LINE
  5
AEA2
330
9A96
100
AcDbEntity
  8
30
 62
     0
370
    -2
100
AcDbLine
 10
2120.0
 20
-65.0
 30
0.0
 11
2226.716753100773
 21
-65.00000000000004
 31
0.0
  0
LINE
  5
AEA3
330
9A96
100
AcDbEntity
  8
30
 62
     0
370
    -2
100
AcDbLine
 10
2171.0
 20
-0.0000000000000028
 30
0.0
 11
2226.716753100773
 21
-0.0000000000000186
 31
0.0
  0
LINE
  5
AEA4
330
9A96
100
AcDbEntity
  8
30
 62
     0
370
    -2
100
AcDbLine
 10
2225.716753100773
 20
-60.00000000000003
 30
0.0
 11
2225.716753100773
 21
-5.000000000000017
 31
0.0
  0
MTEXT
  5
AEA5
330
9A96
100
AcDbEntity
  8
30
 62
     0
100
AcDbMText
 10
2217.716753100773
 20
-33.81090582099977
 30
0.0
 40
10.0
 41
0.0
 71
     5
 72
     1
  1
\A1;65
 11
0.0000000000000001
 21
1.0
 31
0.0
 73
     1
 44
1.0
  0
INSERT
  5
AEA6
330
9A96
100
AcDbEntity
  8
30
 62
     0
370
    -2
100
AcDbBlockReference
  2
_Open
 10
2225.716753100773
 20
-65.00000000000003
 30
0.0
 41
5.0
 42
5.0
 43
5.0
 50
270.0
  0
INSERT
  5
AEA7
330
9A96
100
AcDbEntity
  8
30
 62
     0
370
    -2
100
AcDbBlockReference
  2
_Open
 10
2225.716753100773
 20
-0.0000000000000183
 30
0.0
 41
5.0
 42
5.0
 43
5.0
 50
90.0
  0
POINT
  5
AEA8
330
9A96
100
AcDbEntity
  8
Defpoints
 62
     0
100
AcDbPoint
 10
2110.0
 20
-65.0
 30
0.0
  0
POINT
  5
AEA9
330
9A96
100
AcDbEntity
  8
Defpoints
 62
     0
100
AcDbPoint
 10
2161.0
 20
0.0
 30
0.0
  0
POINT
  5
AEAA
330
9A96
100
AcDbEntity
  8
Defpoints
 62
     0
100
AcDbPoint
 10
2225.716753100773
 20
-0.0000000000000183
 30
0.0
  0
ENDBLK
  5
9AA1
330
9A96
100
AcDbEntity
  8
0
100
AcDbBlockEnd
  0
BLOCK
  5
9AAC
330
9AA2
100
AcDbEntity
  8
0
100
AcDbBlockBegin
  2
*D7
 70
     1
 10
0.0
 20
0.0
 30
0.0
  3
*D7
  1

  0
LINE
  5
AFBC
330
9AA2
100
AcDbEntity
  8
30
 62
     0
370
    -2
100
AcDbLine
 10
2085.0
 20
538.997400984
 30
0.0
 11
2085.0
 21
685.5771341900001
 31
0.0
  0
LINE
  5
AFBD
330
9AA2
100
AcDbEntity
  8
30
 62
     0
370
    -2
100
AcDbLine
 10
2000.0
 20
650.9416106199998
 30
0.0
 11
2000.0
 21
685.5771341900001
 31
0.0
  0
LINE
  5
AFBE
330
9AA2
100
AcDbEntity
  8
30
 62
     0
370
    -2
100
AcDbLine
 10
2080.0
 20
684.5771341900001
 30
0.0
 11
2005.0
 21
684.5771341900001
 31
0.0
  0
MTEXT
  5
AFBF
330
9AA2
100
AcDbEntity
  8
30
 62
     0
100
AcDbMText
 10
2033.218914380999
 20
692.5771341900001
 30
0.0
 40
10.0
 41
0.0
 71
     5
 72
     1
  1
\A1;85
 73
     1
 44
1.0
  0
INSERT
  5
AFC0
330
9AA2
100
AcDbEntity
  8
30
 62
     0
370
    -2
100
AcDbBlockReference
  2
_Open
 10
2085.0
 20
684.5771341900001
 30
0.0
 41
5.0
 42
5.0
 43
5.0
  0
INSERT
  5
AFC1
330
9AA2
100
AcDbEntity
  8
30
 62
     0
370
    -2
100
AcDbBlockReference
  2
_Open
 10
2000.0
 20
684.5771341900001
 30
0.0
 41
5.0
 42
5.0
 43
5.0
 50
180.0
  0
POINT
  5
AFC2
330
9AA2
100
AcDbEntity
  8
Defpoints
 62
     0
100
AcDbPoint
 10
2085.0
 20
528.997400984
 30
0.0
  0
POINT
  5
AFC3
330
9AA2
100
AcDbEntity
  8
Defpoints
 62
     0
100
AcDbPoint
 10
2000.0
 20
640.9416106199999
 30
0.0
  0
POINT
  5
AFC4
330
9AA2
100
AcDbEntity
  8
Defpoints
 62
     0
100
AcDbPoint
 10
2000.0
 20
684.5771341900001
 30
0.0
  0
ENDBLK
  5
9AAD
330
9AA2
100
AcDbEntity
  8
0
100
AcDbBlockEnd
  0
BLOCK
  5
9AB8
330
9AAE
100
AcDbEntity
  8
0
100
AcDbBlockBegin
  2
*D8
 70
     1
 10
0.0
 20
0.0
 30
0.0
  3
*D8
  1

  0
LINE
  5
AE6C
330
9AAE
100
AcDbEntity
  8
30
 62
     0
370
    -2
100
AcDbLine
 10
1915.0
 20
640.6637050109999
 30
0.0
 11
1915.0
 21
685.5771341900001
 31
0.0
  0
LINE
  5
AE6D
330
9AAE
100
AcDbEntity
  8
30
 62
     0
370
    -2
100
AcDbLine
 10
2000.0
 20
650.9416106199998
 30
0.0
 11
2000.0
 21
685.5771341900001
 31
0.0
  0
LINE
  5
AE6E
330
9AAE
100
AcDbEntity
  8
30
 62
     0
370
    -2
100
AcDbLine
 10
1920.0
 20
684.5771341900001
 30
0.0
 11
1995.0
 21
684.5771341900001
 31
0.0
  0
MTEXT
  5
AE6F
330
9AAE
100
AcDbEntity
  8
30
 62
     0
100
AcDbMText
 10
1957.220238844
 20
692.5771341900001
 30
0.0
 40
10.0
 41
0.0
 71
     5
 72
     1
  1
\A1;85
 73
     1
 44
1.0
  0
INSERT
  5
AE70
330
9AAE
100
AcDbEntity
  8
30
 62
     0
370
    -2
100
AcDbBlockReference
  2
_Open
 10
1915.0
 20
684.5771341900001
 30
0.0
 41
5.0
 42
5.0
 43
5.0
 50
180.0
  0
INSERT
  5
AE71
330
9AAE
100
AcDbEntity
  8
30
 62
     0
370
    -2
100
AcDbBlockReference
  2
_Open
 10
2000.0
 20
684.5771341900001
 30
0.0
 41
5.0
 42
5.0
 43
5.0
  0
POINT
  5
AE72
330
9AAE
100
AcDbEntity
  8
Defpoints
 62
     0
100
AcDbPoint
 10
1915.0
 20
630.6637050109999
 30
0.0
  0
POINT
  5
AE73
330
9AAE
100
AcDbEntity
  8
Defpoints
 62
     0
100
AcDbPoint
 10
2000.0
 20
640.9416106199999
 30
0.0
  0
POINT
  5
AE74
330
9AAE
100
AcDbEntity
  8
Defpoints
 62
     0
100
AcDbPoint
 10
2000.0
 20
684.5771341900001
 30
0.0
  0
ENDBLK
  5
9AB9
330
9AAE
100
AcDbEntity
  8
0
100
AcDbBlockEnd
  0
BLOCK
  5
9AC5
330
9ABA
100
AcDbEntity
  8
0
100
AcDbBlockBegin
  2
*D9
 70
     1
 10
0.0
 20
0.0
 30
0.0
  3
*D9
  1

  0
LINE
  5
AE7E
330
9ABA
100
AcDbEntity
  8
30
 62
     0
370
    -2
100
AcDbLine
 10
1902.5
 20
510.0
 30
0.0
 11
1902.5
 21
565.045841324
 31
0.0
  0
LINE
  5
AE7F
330
9ABA
100
AcDbEntity
  8
30
 62
     0
370
    -2
100
AcDbLine
 10
1927.5
 20
510.0
 30
0.0
 11
1927.5
 21
565.045841324
 31
0.0
  0
LINE
  5
AE80
330
9ABA
100
AcDbEntity
  8
30
 62
     0
370
    -2
100
AcDbLine
 10
1907.499999999999
 20
564.0458413240001
 30
0.0
 11
1922.5
 21
564.0458413240001
 31
0.0
  0
MTEXT
  5
AE81
330
9ABA
100
AcDbEntity
  8
30
 62
     0
100
AcDbMText
 10
1915.0
 20
572.0458413240001
 30
0.0
 40
10.0
 41
0.0
 71
     5
 72
     1
  1
\A1;25
 73
     1
 44
1.0
  0
INSERT
  5
AE82
330
9ABA
100
AcDbEntity
  8
30
 62
     0
370
    -2
100
AcDbBlockReference
  2
_Open
 10
1902.5
 20
564.0458413240001
 30
0.0
 41
5.0
 42
5.0
 43
5.0
 50
180.0
  0
INSERT
  5
AE83
330
9ABA
100
AcDbEntity
  8
30
 62
     0
370
    -2
100
AcDbBlockReference
  2
_Open
 10
1927.5
 20
564.0458413240001
 30
0.0
 41
5.0
 42
5.0
 43
5.0
  0
POINT
  5
AE84
330
9ABA
100
AcDbEntity
  8
Defpoints
 62
     0
100
AcDbPoint
 10
1902.5
 20
500.0
 30
0.0
  0
POINT
  5
AE85
330
9ABA
100
AcDbEntity
  8
Defpoints
 62
     0
100
AcDbPoint
 10
1927.5
 20
500.0
 30
0.0
  0
POINT
  5
AE86
330
9ABA
100
AcDbEntity
  8
Defpoints
 62
     0
100
AcDbPoint
 10
1927.5
 20
564.0458413240001
 30
0.0
  0
ENDBLK
  5
9AC6
330
9ABA
100
AcDbEntity
  8
0
100
AcDbBlockEnd
  0
BLOCK
  5
9AD2
330
9AC7
100
AcDbEntity
  8
0
100
AcDbBlockBegin
  2
*D10
 70
     1
 10
0.0
 20
0.0
 30
0.0
  3
*D10
  1

  0
LINE
  5
AE75
330
9AC7
100
AcDbEntity
  8
30
 62
     0
370
    -2
100
AcDbLine
 10
1890.0
 20
525.0
 30
0.0
 11
1890.0
 21
621.6637050109999
 31
0.0
  0
LINE
  5
AE76
330
9AC7
100
AcDbEntity
  8
30
 62
     0
370
    -2
100
AcDbLine
 10
1940.0
 20
525.0
 30
0.0
 11
1940.0
 21
621.6637050109999
 31
0.0
  0
LINE
  5
AE77
330
9AC7
100
AcDbEntity
  8
30
 62
     0
370
    -2
100
AcDbLine
 10
1895.0
 20
620.6637050109999
 30
0.0
 11
1935.0
 21
620.6637050109999
 31
0.0
  0
MTEXT
  5
AE78
330
9AC7
100
AcDbEntity
  8
30
 62
     0
100
AcDbMText
 10
1915.0
 20
628.6637050109999
 30
0.0
 40
10.0
 41
0.0
 71
     5
 72
     1
  1
\A1;50
 73
     1
 44
1.0
  0
INSERT
  5
AE79
330
9AC7
100
AcDbEntity
  8
30
 62
     0
370
    -2
100
AcDbBlockReference
  2
_Open
 10
1890.0
 20
620.6637050109999
 30
0.0
 41
5.0
 42
5.0
 43
5.0
 50
180.0
  0
INSERT
  5
AE7A
330
9AC7
100
AcDbEntity
  8
30
 62
     0
370
    -2
100
AcDbBlockReference
  2
_Open
 10
1940.0
 20
620.6637050109999
 30
0.0
 41
5.0
 42
5.0
 43
5.0
  0
POINT
  5
AE7B
330
9AC7
100
AcDbEntity
  8
Defpoints
 62
     0
100
AcDbPoint
 10
1890.0
 20
515.0
 30
0.0
  0
POINT
  5
AE7C
330
9AC7
100
AcDbEntity
  8
Defpoints
 62
     0
100
AcDbPoint
 10
1940.0
 20
515.0
 30
0.0
  0
POINT
  5
AE7D
330
9AC7
100
AcDbEntity
  8
Defpoints
 62
     0
100
AcDbPoint
 10
1940.0
 20
620.6637050109999
 30
0.0
  0
ENDBLK
  5
9AD3
330
9AC7
100
AcDbEntity
  8
0
100
AcDbBlockEnd
  0
BLOCK
  5
9ADF
330
9AD4
100
AcDbEntity
  8
0
100
AcDbBlockBegin
  2
*D11
 70
     1
 10
0.0
 20
0.0
 30
0.0
  3
*D11
  1

  0
LINE
  5
AE87
330
9AD4
100
AcDbEntity
  8
30
 62
     0
370
    -2
100
AcDbLine
 10
1880.0
 20
515.0
 30
0.0
 11
1836.396487101997
 21
515.0
 31
0.0
  0
LINE
  5
AE88
330
9AD4
100
AcDbEntity
  8
30
 62
     0
370
    -2
100
AcDbLine
 10
1891.575953726998
 20
480.0
 30
0.0
 11
1836.396487101997
 21
480.0
 31
0.0
  0
LINE
  5
AE89
330
9AD4
100
AcDbEntity
  8
30
 62
     0
370
    -2
100
AcDbLine
 10
1837.396487101997
 20
510.0
 30
0.0
 11
1837.396487101997
 21
485.0
 31
0.0
  0
MTEXT
  5
AE8A
330
9AD4
100
AcDbEntity
  8
30
 62
     0
100
AcDbMText
 10
1829.396487102
 20
500.0
 30
0.0
 40
10.0
 41
0.0
 71
     5
 72
     1
  1
\A1;35*
 11
0.0000000000000001
 21
1.0
 31
0.0
 73
     1
 44
1.0
  0
INSERT
  5
AE8B
330
9AD4
100
AcDbEntity
  8
30
 62
     0
370
    -2
100
AcDbBlockReference
  2
_Open
 10
1837.396487101997
 20
515.0
 30
0.0
 41
5.0
 42
5.0
 43
5.0
 50
90.0
  0
INSERT
  5
AE8C
330
9AD4
100
AcDbEntity
  8
30
 62
     0
370
    -2
100
AcDbBlockReference
  2
_Open
 10
1837.396487101997
 20
480.0
 30
0.0
 41
5.0
 42
5.0
 43
5.0
 50
270.0
  0
POINT
  5
AE8D
330
9AD4
100
AcDbEntity
  8
Defpoints
 62
     0
100
AcDbPoint
 10
1890.0
 20
515.0
 30
0.0
  0
POINT
  5
AE8E
330
9AD4
100
AcDbEntity
  8
Defpoints
 62
     0
100
AcDbPoint
 10
1901.575953726998
 20
480.0
 30
0.0
  0
POINT
  5
AE8F
330
9AD4
100
AcDbEntity
  8
Defpoints
 62
     0
100
AcDbPoint
 10
1837.396487101997
 20
480.0
 30
0.0
  0
ENDBLK
  5
9AE0
330
9AD4
100
AcDbEntity
  8
0
100
AcDbBlockEnd
  0
BLOCK
  5
9AEC
330
9AE1
100
AcDbEntity
  8
0
100
AcDbBlockBegin
  2
*D12
 70
     1
 10
0.0
 20
0.0
 30
0.0
  3
*D12
  1

  0
LINE
  5
AE90
330
9AE1
100
AcDbEntity
  8
30
 62
     0
370
    -2
100
AcDbLine
 10
2107.499999999999
 20
500.0
 30
0.0
 11
2181.820577271631
 21
499.9999999999999
 31
0.0
  0
LINE
  5
AE91
330
9AE1
100
AcDbEntity
  8
30
 62
     0
370
    -2
100
AcDbLine
 10
2120.0
 20
515.0
 30
0.0
 11
2181.820577271631
 21
515.0
 31
0.0
  0
LINE
  5
AE92
330
9AE1
100
AcDbEntity
  8
30
 62
     0
370
    -2
100
AcDbLine
 10
2180.820577271632
 20
473.2009207649745
 30
0.0
 11
2180.820577271632
 21
499.9999999999999
 31
0.0
  0
MTEXT
  5
AE93
330
9AE1
100
AcDbEntity
  8
30
 62
     0
100
AcDbMText
 10
2172.820577271632
 20
483.3437779078321
 30
0.0
 40
10.0
 41
0.0
 71
     5
 72
     1
  1
\A1;15
 11
0.0000000000000001
 21
1.0
 31
0.0
 73
     1
 44
1.0
  0
LINE
  5
AE94
330
9AE1
100
AcDbEntity
  8
30
 62
     0
370
    -2
100
AcDbLine
 10
2180.820577271632
 20
499.9999999999999
 30
0.0
 11
2180.820577271632
 21
515.0
 31
0.0
  0
LINE
  5
AE95
330
9AE1
100
AcDbEntity
  8
30
 62
     0
370
    -2
100
AcDbLine
 10
2180.820577271632
 20
499.9999999999999
 30
0.0
 11
2180.820577271632
 21
515.0
 31
0.0
  0
POINT
  5
AE96
330
9AE1
100
AcDbEntity
  8
Defpoints
 62
     0
100
AcDbPoint
 10
2097.5
 20
500.0
 30
0.0
  0
POINT
  5
AE97
330
9AE1
100
AcDbEntity
  8
Defpoints
 62
     0
100
AcDbPoint
 10
2110.0
 20
515.0
 30
0.0
  0
POINT
  5
AE98
330
9AE1
100
AcDbEntity
  8
Defpoints
 62
     0
100
AcDbPoint
 10
2180.820577271632
 20
515.0
 30
0.0
  0
ENDBLK
  5
9AED
330
9AE1
100
AcDbEntity
  8
0
100
AcDbBlockEnd
  0
BLOCK
  5
9AF8
330
9AEE
100
AcDbEntity
  8
0
100
AcDbBlockBegin
  2
*D13
 70
     1
 10
0.0
 20
0.0
 30
0.0
  3
*D13
  1

  0
LINE
  5
AF2B
330
9AEE
100
AcDbEntity
  8
30
 62
     0
370
    -2
100
AcDbLine
 10
0.0000000000002268
 20
-158.6413961729998
 30
0.0
 11
0.0000000000002251
 21
-186.6597756850474
 31
0.0
  0
LINE
  5
AF2C
330
9AEE
100
AcDbEntity
  8
30
 62
     0
370
    -2
100
AcDbLine
 10
-179.9999999999995
 20
-9.999999999999996
 30
0.0
 11
-179.9999999999995
 21
-186.6597756850474
 31
0.0
  0
LINE
  5
AF2D
330
9AEE
100
AcDbEntity
  8
30
 62
     0
370
    -2
100
AcDbLine
 10
-4.999999999999775
 20
-185.6597756850474
 30
0.0
 11
-174.9999999999995
 21
-185.6597756850474
 31
0.0
  0
MTEXT
  5
AF2E
330
9AEE
100
AcDbEntity
  8
30
 62
     0
100
AcDbMText
 10
-76.63675420100003
 20
-177.6597756850474
 30
0.0
 40
10.0
 41
0.0
 71
     5
 72
     1
  1
\A1;180
 73
     1
 44
1.0
  0
INSERT
  5
AF2F
330
9AEE
100
AcDbEntity
  8
30
 62
     0
370
    -2
100
AcDbBlockReference
  2
_Open
 10
0.0000000000002251
 20
-185.6597756850474
 30
0.0
 41
5.0
 42
5.0
 43
5.0
  0
INSERT
  5
AF30
330
9AEE
100
AcDbEntity
  8
30
 62
     0
370
    -2
100
AcDbBlockReference
  2
_Open
 10
-179.9999999999995
 20
-185.6597756850474
 30
0.0
 41
5.0
 42
5.0
 43
5.0
 50
180.0
  0
POINT
  5
AF31
330
9AEE
100
AcDbEntity
  8
Defpoints
 62
     0
100
AcDbPoint
 10
0.0000000000002274
 20
-148.6413961729998
 30
0.0
  0
POINT
  5
AF32
330
9AEE
100
AcDbEntity
  8
Defpoints
 62
     0
100
AcDbPoint
 10
-179.9999999999995
 20
0.0000000000000028
 30
0.0
  0
POINT
  5
AF33
330
9AEE
100
AcDbEntity
  8
Defpoints
 62
     0
100
AcDbPoint
 10
-179.9999999999995
 20
-185.6597756850474
 30
0.0
  0
ENDBLK
  5
9AF9
330
9AEE
100
AcDbEntity
  8
0
100
AcDbBlockEnd
  0
BLOCK
  5
9B04
330
9AFA
100
AcDbEntity
  8
0
100
AcDbBlockBegin
  2
*D14
 70
     1
 10
0.0
 20
0.0
 30
0.0
  3
*D14
  1

  0
LINE
  5
AF3D
330
9AFA
100
AcDbEntity
  8
30
 62
     0
370
    -2
100
AcDbLine
 10
180.0000000000002
 20
-9.999999999999996
 30
0.0
 11
180.0000000000002
 21
-186.6597756850474
 31
0.0
  0
LINE
  5
AF3E
330
9AFA
100
AcDbEntity
  8
30
 62
     0
370
    -2
100
AcDbLine
 10
0.0000000000002268
 20
-179.9598917089994
 30
0.0
 11
0.0000000000002264
 21
-186.6597756850474
 31
0.0
  0
LINE
  5
AF3F
330
9AFA
100
AcDbEntity
  8
30
 62
     0
370
    -2
100
AcDbLine
 10
175.0000000000001
 20
-185.6597756850474
 30
0.0
 11
5.000000000000226
 21
-185.6597756850474
 31
0.0
  0
MTEXT
  5
AF40
330
9AFA
100
AcDbEntity
  8
30
 62
     0
100
AcDbMText
 10
80.98967571400022
 20
-177.6597756850474
 30
0.0
 40
10.0
 41
0.0
 71
     5
 72
     1
  1
\A1;180
 73
     1
 44
1.0
  0
INSERT
  5
AF41
330
9AFA
100
AcDbEntity
  8
30
 62
     0
370
    -2
100
AcDbBlockReference
  2
_Open
 10
180.0000000000002
 20
-185.6597756850474
 30
0.0
 41
5.0
 42
5.0
 43
5.0
  0
INSERT
  5
AF42
330
9AFA
100
AcDbEntity
  8
30
 62
     0
370
    -2
100
AcDbBlockReference
  2
_Open
 10
0.0000000000002264
 20
-185.6597756850474
 30
0.0
 41
5.0
 42
5.0
 43
5.0
 50
180.0
  0
POINT
  5
AF43
330
9AFA
100
AcDbEntity
  8
Defpoints
 62
     0
100
AcDbPoint
 10
180.0000000000002
 20
0.0000000000000028
 30
0.0
  0
POINT
  5
AF44
330
9AFA
100
AcDbEntity
  8
Defpoints
 62
     0
100
AcDbPoint
 10
0.0000000000002274
 20
-169.9598917089994
 30
0.0
  0
POINT
  5
AF45
330
9AFA
100
AcDbEntity
  8
Defpoints
 62
     0
100
AcDbPoint
 10
0.0000000000002264
 20
-185.6597756850474
 30
0.0
  0
ENDBLK
  5
9B05
330
9AFA
100
AcDbEntity
  8
0
100
AcDbBlockEnd
  0
BLOCK
  5
9B10
330
9B06
100
AcDbEntity
  8
0
100
AcDbBlockBegin
  2
*D15
 70
     1
 10
0.0
 20
0.0
 30
0.0
  3
*D15
  1

  0
LINE
  5
AF98
330
9B06
100
AcDbEntity
  8
30
 62
     0
370
    -2
100
AcDbLine
 10
-1000.0
 20
-110.0
 30
0.0
 11
-1000.0
 21
-183.3309887360001
 31
0.0
  0
LINE
  5
AF99
330
9B06
100
AcDbEntity
  8
30
 62
     0
370
    -2
100
AcDbLine
 10
-1240.0
 20
-110.0
 30
0.0
 11
-1240.0
 21
-183.3309887360001
 31
0.0
  0
LINE
  5
AF9A
330
9B06
100
AcDbEntity
  8
30
 62
     0
370
    -2
100
AcDbLine
 10
-1005.0
 20
-182.3309887360001
 30
0.0
 11
-1235.0
 21
-182.3309887360001
 31
0.0
  0
MTEXT
  5
AF9B
330
9B06
100
AcDbEntity
  8
30
 62
     0
100
AcDbMText
 10
-1120.40545096
 20
-174.3309887360001
 30
0.0
 40
10.0
 41
0.0
 71
     5
 72
     1
  1
\A1;240
 73
     1
 44
1.0
  0
INSERT
  5
AF9C
330
9B06
100
AcDbEntity
  8
30
 62
     0
370
    -2
100
AcDbBlockReference
  2
_Open
 10
-1000.0
 20
-182.3309887360001
 30
0.0
 41
5.0
 42
5.0
 43
5.0
  0
INSERT
  5
AF9D
330
9B06
100
AcDbEntity
  8
30
 62
     0
370
    -2
100
AcDbBlockReference
  2
_Open
 10
-1240.0
 20
-182.3309887360001
 30
0.0
 41
5.0
 42
5.0
 43
5.0
 50
180.0
  0
POINT
  5
AF9E
330
9B06
100
AcDbEntity
  8
Defpoints
 62
     0
100
AcDbPoint
 10
-1000.0
 20
-100.0
 30
0.0
  0
POINT
  5
AF9F
330
9B06
100
AcDbEntity
  8
Defpoints
 62
     0
100
AcDbPoint
 10
-1240.0
 20
-100.0
 30
0.0
  0
POINT
  5
AFA0
330
9B06
100
AcDbEntity
  8
Defpoints
 62
     0
100
AcDbPoint
 10
-1240.0
 20
-182.3309887360001
 30
0.0
  0
ENDBLK
  5
9B11
330
9B06
100
AcDbEntity
  8
0
100
AcDbBlockEnd
  0
BLOCK
  5
9B1C
330
9B12
100
AcDbEntity
  8
0
100
AcDbBlockBegin
  2
*D16
 70
     1
 10
0.0
 20
0.0
 30
0.0
  3
*D16
  1

  0
LINE
  5
AF8F
330
9B12
100
AcDbEntity
  8
30
 62
     0
370
    -2
100
AcDbLine
 10
-1000.0
 20
-110.0
 30
0.0
 11
-1000.0
 21
-183.3309887360001
 31
0.0
  0
LINE
  5
AF90
330
9B12
100
AcDbEntity
  8
30
 62
     0
370
    -2
100
AcDbLine
 10
-760.0
 20
-110.0
 30
0.0
 11
-760.0
 21
-183.3309887360001
 31
0.0
  0
LINE
  5
AF91
330
9B12
100
AcDbEntity
  8
30
 62
     0
370
    -2
100
AcDbLine
 10
-995.0
 20
-182.3309887360001
 30
0.0
 11
-765.0
 21
-182.3309887360001
 31
0.0
  0
MTEXT
  5
AF92
330
9B12
100
AcDbEntity
  8
30
 62
     0
100
AcDbMText
 10
-883.9096663479999
 20
-174.3309887360001
 30
0.0
 40
10.0
 41
0.0
 71
     5
 72
     1
  1
\A1;240
 73
     1
 44
1.0
  0
INSERT
  5
AF93
330
9B12
100
AcDbEntity
  8
30
 62
     0
370
    -2
100
AcDbBlockReference
  2
_Open
 10
-1000.0
 20
-182.3309887360001
 30
0.0
 41
5.0
 42
5.0
 43
5.0
 50
180.0
  0
INSERT
  5
AF94
330
9B12
100
AcDbEntity
  8
30
 62
     0
370
    -2
100
AcDbBlockReference
  2
_Open
 10
-760.0
 20
-182.3309887360001
 30
0.0
 41
5.0
 42
5.0
 43
5.0
  0
POINT
  5
AF95
330
9B12
100
AcDbEntity
  8
Defpoints
 62
     0
100
AcDbPoint
 10
-1000.0
 20
-100.0
 30
0.0
  0
POINT
  5
AF96
330
9B12
100
AcDbEntity
  8
Defpoints
 62
     0
100
AcDbPoint
 10
-760.0
 20
-100.0
 30
0.0
  0
POINT
  5
AF97
330
9B12
100
AcDbEntity
  8
Defpoints
 62
     0
100
AcDbPoint
 10
-760.0
 20
-182.3309887360001
 30
0.0
  0
ENDBLK
  5
9B1D
330
9B12
100
AcDbEntity
  8
0
100
AcDbBlockEnd
  0
BLOCK
  5
9B28
330
9B1E
100
AcDbEntity
  8
0
100
AcDbBlockBegin
  2
*D17
 70
     1
 10
0.0
 20
0.0
 30
0.0
  3
*D17
  1

  0
LINE
  5
AF19
330
9B1E
100
AcDbEntity
  8
30
 62
     0
370
    -2
100
AcDbLine
 10
0.0000000000002268
 20
-158.6413961729998
 30
0.0
 11
0.0000000000002191
 21
-283.7146748159115
 31
0.0
  0
LINE
  5
AF1A
330
9B1E
100
AcDbEntity
  8
30
 62
     0
370
    -2
100
AcDbLine
 10
-208.4999999999999
 20
268.4999999999997
 30
0.0
 11
-208.4999999999999
 21
-283.7146748159114
 31
0.0
  0
LINE
  5
AF1B
330
9B1E
100
AcDbEntity
  8
30
 62
     0
370
    -2
100
AcDbLine
 10
-4.99999999999978
 20
-282.7146748159115
 30
0.0
 11
-203.4999999999999
 21
-282.7146748159115
 31
0.0
  0
MTEXT
  5
AF1C
330
9B1E
100
AcDbEntity
  8
30
 62
     0
100
AcDbMText
 10
-107.1855864899996
 20
-274.7146748159114
 30
0.0
 40
10.0
 41
0.0
 71
     5
 72
     1
  1
\A1;208.5
 73
     1
 44
1.0
  0
INSERT
  5
AF1D
330
9B1E
100
AcDbEntity
  8
30
 62
     0
370
    -2
100
AcDbBlockReference
  2
_Open
 10
0.0000000000002192
 20
-282.7146748159115
 30
0.0
 41
5.0
 42
5.0
 43
5.0
  0
INSERT
  5
AF1E
330
9B1E
100
AcDbEntity
  8
30
 62
     0
370
    -2
100
AcDbBlockReference
  2
_Open
 10
-208.4999999999999
 20
-282.7146748159115
 30
0.0
 41
5.0
 42
5.0
 43
5.0
 50
180.0
  0
POINT
  5
AF1F
330
9B1E
100
AcDbEntity
  8
Defpoints
 62
     0
100
AcDbPoint
 10
0.0000000000002274
 20
-148.6413961729998
 30
0.0
  0
POINT
  5
AF20
330
9B1E
100
AcDbEntity
  8
Defpoints
 62
     0
100
AcDbPoint
 10
-208.4999999999999
 20
278.4999999999997
 30
0.0
  0
POINT
  5
AF21
330
9B1E
100
AcDbEntity
  8
Defpoints
 62
     0
100
AcDbPoint
 10
-208.4999999999999
 20
-282.7146748159115
 30
0.0
  0
ENDBLK
  5
9B29
330
9B1E
100
AcDbEntity
  8
0
100
AcDbBlockEnd
  0
BLOCK
  5
9B34
330
9B2A
100
AcDbEntity
  8
0
100
AcDbBlockBegin
  2
*D18
 70
     1
 10
0.0
 20
0.0
 30
0.0
  3
*D18
  1

  0
LINE
  5
AF10
330
9B2A
100
AcDbEntity
  8
30
 62
     0
370
    -2
100
AcDbLine
 10
0.0000000000002268
 20
-158.6413961729998
 30
0.0
 11
0.0000000000002191
 21
-283.7146748159115
 31
0.0
  0
LINE
  5
AF11
330
9B2A
100
AcDbEntity
  8
30
 62
     0
370
    -2
100
AcDbLine
 10
208.5000000000004
 20
268.4999999999997
 30
0.0
 11
208.5000000000003
 21
-283.7146748159114
 31
0.0
  0
LINE
  5
AF12
330
9B2A
100
AcDbEntity
  8
30
 62
     0
370
    -2
100
AcDbLine
 10
5.000000000000219
 20
-282.7146748159115
 30
0.0
 11
203.5000000000004
 21
-282.7146748159115
 31
0.0
  0
MTEXT
  5
AF13
330
9B2A
100
AcDbEntity
  8
30
 62
     0
100
AcDbMText
 10
107.7143458360001
 20
-274.7146748159114
 30
0.0
 40
10.0
 41
0.0
 71
     5
 72
     1
  1
\A1;208.5
 73
     1
 44
1.0
  0
INSERT
  5
AF14
330
9B2A
100
AcDbEntity
  8
30
 62
     0
370
    -2
100
AcDbBlockReference
  2
_Open
 10
0.0000000000002192
 20
-282.7146748159115
 30
0.0
 41
5.0
 42
5.0
 43
5.0
 50
180.0
  0
INSERT
  5
AF15
330
9B2A
100
AcDbEntity
  8
30
 62
     0
370
    -2
100
AcDbBlockReference
  2
_Open
 10
208.5000000000003
 20
-282.7146748159115
 30
0.0
 41
5.0
 42
5.0
 43
5.0
  0
POINT
  5
AF16
330
9B2A
100
AcDbEntity
  8
Defpoints
 62
     0
100
AcDbPoint
 10
0.0000000000002274
 20
-148.6413961729998
 30
0.0
  0
POINT
  5
AF17
330
9B2A
100
AcDbEntity
  8
Defpoints
 62
     0
100
AcDbPoint
 10
208.5000000000004
 20
278.4999999999997
 30
0.0
  0
POINT
  5
AF18
330
9B2A
100
AcDbEntity
  8
Defpoints
 62
     0
100
AcDbPoint
 10
208.5000000000003
 20
-282.7146748159115
 30
0.0
  0
ENDBLK
  5
9B35
330
9B2A
100
AcDbEntity
  8
0
100
AcDbBlockEnd
  0
BLOCK
  5
9B40
330
9B36
100
AcDbEntity
  8
0
100
AcDbBlockBegin
  2
*D19
 70
     1
 10
0.0
 20
0.0
 30
0.0
  3
*D19
  1

  0
LINE
  5
AF22
330
9B36
100
AcDbEntity
  8
30
 62
     0
370
    -2
100
AcDbLine
 10
0.0000000000002268
 20
-158.6413961729998
 30
0.0
 11
0.0000000000002223
 21
-231.5886006696935
 31
0.0
  0
LINE
  5
AF23
330
9B36
100
AcDbEntity
  8
30
 62
     0
370
    -2
100
AcDbLine
 10
-188.4999999999999
 20
295.4999999999998
 30
0.0
 11
-188.4999999999999
 21
-231.5886006696935
 31
0.0
  0
LINE
  5
AF24
330
9B36
100
AcDbEntity
  8
30
 62
     0
370
    -2
100
AcDbLine
 10
-4.999999999999777
 20
-230.5886006696935
 30
0.0
 11
-183.4999999999999
 21
-230.5886006696935
 31
0.0
  0
MTEXT
  5
AF25
330
9B36
100
AcDbEntity
  8
30
 62
     0
100
AcDbMText
 10
-91.32958501299979
 20
-222.5886006696935
 30
0.0
 40
10.0
 41
0.0
 71
     5
 72
     1
  1
\A1;188.5
 73
     1
 44
1.0
  0
INSERT
  5
AF26
330
9B36
100
AcDbEntity
  8
30
 62
     0
370
    -2
100
AcDbBlockReference
  2
_Open
 10
0.0000000000002224
 20
-230.5886006696935
 30
0.0
 41
5.0
 42
5.0
 43
5.0
  0
INSERT
  5
AF27
330
9B36
100
AcDbEntity
  8
30
 62
     0
370
    -2
100
AcDbBlockReference
  2
_Open
 10
-188.4999999999999
 20
-230.5886006696935
 30
0.0
 41
5.0
 42
5.0
 43
5.0
 50
180.0
  0
POINT
  5
AF28
330
9B36
100
AcDbEntity
  8
Defpoints
 62
     0
100
AcDbPoint
 10
0.0000000000002274
 20
-148.6413961729998
 30
0.0
  0
POINT
  5
AF29
330
9B36
100
AcDbEntity
  8
Defpoints
 62
     0
100
AcDbPoint
 10
-188.4999999999999
 20
305.4999999999998
 30
0.0
  0
POINT
  5
AF2A
330
9B36
100
AcDbEntity
  8
Defpoints
 62
     0
100
AcDbPoint
 10
-188.4999999999999
 20
-230.5886006696935
 30
0.0
  0
ENDBLK
  5
9B41
330
9B36
100
AcDbEntity
  8
0
100
AcDbBlockEnd
  0
BLOCK
  5
9B4C
330
9B42
100
AcDbEntity
  8
0
100
AcDbBlockBegin
  2
*D20
 70
     1
 10
0.0
 20
0.0
 30
0.0
  3
*D20
  1

  0
LINE
  5
AF34
330
9B42
100
AcDbEntity
  8
30
 62
     0
370
    -2
100
AcDbLine
 10
0.0000000000002268
 20
-158.6413961729998
 30
0.0
 11
0.0000000000002223
 21
-231.5886006696935
 31
0.0
  0
LINE
  5
AF35
330
9B42
100
AcDbEntity
  8
30
 62
     0
370
    -2
100
AcDbLine
 10
188.5000000000004
 20
295.4999999999998
 30
0.0
 11
188.5000000000004
 21
-231.5886006696935
 31
0.0
  0
LINE
  5
AF36
330
9B42
100
AcDbEntity
  8
30
 62
     0
370
    -2
100
AcDbLine
 10
5.000000000000222
 20
-230.5886006696935
 30
0.0
 11
183.5000000000004
 21
-230.5886006696935
 31
0.0
  0
MTEXT
  5
AF37
330
9B42
100
AcDbEntity
  8
30
 62
     0
100
AcDbMText
 10
97.28986648299995
 20
-222.5886006696935
 30
0.0
 40
10.0
 41
0.0
 71
     5
 72
     1
  1
\A1;188.5
 73
     1
 44
1.0
  0
INSERT
  5
AF38
330
9B42
100
AcDbEntity
  8
30
 62
     0
370
    -2
100
AcDbBlockReference
  2
_Open
 10
0.0000000000002224
 20
-230.5886006696935
 30
0.0
 41
5.0
 42
5.0
 43
5.0
 50
180.0
  0
INSERT
  5
AF39
330
9B42
100
AcDbEntity
  8
30
 62
     0
370
    -2
100
AcDbBlockReference
  2
_Open
 10
188.5000000000004
 20
-230.5886006696935
 30
0.0
 41
5.0
 42
5.0
 43
5.0
  0
POINT
  5
AF3A
330
9B42
100
AcDbEntity
  8
Defpoints
 62
     0
100
AcDbPoint
 10
0.0000000000002274
 20
-148.6413961729998
 30
0.0
  0
POINT
  5
AF3B
330
9B42
100
AcDbEntity
  8
Defpoints
 62
     0
100
AcDbPoint
 10
188.5000000000004
 20
305.4999999999998
 30
0.0
  0
POINT
  5
AF3C
330
9B42
100
AcDbEntity
  8
Defpoints
 62
     0
100
AcDbPoint
 10
188.5000000000004
 20
-230.5886006696935
 30
0.0
  0
ENDBLK
  5
9B4D
330
9B42
100
AcDbEntity
  8
0
100
AcDbBlockEnd
  0
BLOCK
  5
9B58
330
9B4E
100
AcDbEntity
  8
0
100
AcDbBlockBegin
  2
*D21
 70
     1
 10
0.0
 20
0.0
 30
0.0
  3
*D21
  1

  0
LINE
  5
AF46
330
9B4E
100
AcDbEntity
  8
30
 62
     0
370
    -2
100
AcDbLine
 10
-119.0
 20
22.99999999999975
 30
0.0
 11
-119.0
 21
-141.1349932769999
 31
0.0
  0
LINE
  5
AF47
330
9B4E
100
AcDbEntity
  8
30
 62
     0
370
    -2
100
AcDbLine
 10
119.0000000000002
 20
22.99999999999975
 30
0.0
 11
119.0000000000001
 21
-141.1349932769999
 31
0.0
  0
LINE
  5
AF48
330
9B4E
100
AcDbEntity
  8
30
 62
     0
370
    -2
100
AcDbLine
 10
-114.0
 20
-140.1349932769999
 30
0.0
 11
114.0000000000002
 21
-140.1349932769999
 31
0.0
  0
MTEXT
  5
AF49
330
9B4E
100
AcDbEntity
  8
30
 62
     0
100
AcDbMText
 10
-0.3281205969999514
 20
-132.1349932769999
 30
0.0
 40
10.0
 41
0.0
 71
     5
 72
     1
  1
\A1;238
 73
     1
 44
1.0
  0
INSERT
  5
AF4A
330
9B4E
100
AcDbEntity
  8
30
 62
     0
370
    -2
100
AcDbBlockReference
  2
_Open
 10
-119.0
 20
-140.1349932769999
 30
0.0
 41
5.0
 42
5.0
 43
5.0
 50
180.0
  0
INSERT
  5
AF4B
330
9B4E
100
AcDbEntity
  8
30
 62
     0
370
    -2
100
AcDbBlockReference
  2
_Open
 10
119.0000000000001
 20
-140.1349932769999
 30
0.0
 41
5.0
 42
5.0
 43
5.0
  0
POINT
  5
AF4C
330
9B4E
100
AcDbEntity
  8
Defpoints
 62
     0
100
AcDbPoint
 10
-119.0
 20
32.99999999999975
 30
0.0
  0
POINT
  5
AF4D
330
9B4E
100
AcDbEntity
  8
Defpoints
 62
     0
100
AcDbPoint
 10
119.0000000000002
 20
32.99999999999975
 30
0.0
  0
POINT
  5
AF4E
330
9B4E
100
AcDbEntity
  8
Defpoints
 62
     0
100
AcDbPoint
 10
119.0000000000001
 20
-140.1349932769999
 30
0.0
  0
ENDBLK
  5
9B59
330
9B4E
100
AcDbEntity
  8
0
100
AcDbBlockEnd
  0
BLOCK
  5
9B64
330
9B5A
100
AcDbEntity
  8
0
100
AcDbBlockBegin
  2
*D22
 70
     1
 10
0.0
 20
0.0
 30
0.0
  3
*D22
  1

  0
LINE
  5
AFA1
330
9B5A
100
AcDbEntity
  8
30
 62
     0
370
    -2
100
AcDbLine
 10
-1125.0
 20
20.0
 30
0.0
 11
-1125.0
 21
-69.34452665899994
 31
0.0
  0
LINE
  5
AFA2
330
9B5A
100
AcDbEntity
  8
30
 62
     0
370
    -2
100
AcDbLine
 10
-875.0
 20
20.0
 30
0.0
 11
-875.0
 21
-69.34452665899994
 31
0.0
  0
LINE
  5
AFA3
330
9B5A
100
AcDbEntity
  8
30
 62
     0
370
    -2
100
AcDbLine
 10
-1120.0
 20
-68.34452665899994
 30
0.0
 11
-880.0
 21
-68.34452665899994
 31
0.0
  0
MTEXT
  5
AFA4
330
9B5A
100
AcDbEntity
  8
30
 62
     0
100
AcDbMText
 10
-996.0432078769999
 20
-60.34452665899994
 30
0.0
 40
10.0
 41
0.0
 71
     5
 72
     1
  1
\A1;250
 73
     1
 44
1.0
  0
INSERT
  5
AFA5
330
9B5A
100
AcDbEntity
  8
30
 62
     0
370
    -2
100
AcDbBlockReference
  2
_Open
 10
-1125.0
 20
-68.34452665899994
 30
0.0
 41
5.0
 42
5.0
 43
5.0
 50
180.0
  0
INSERT
  5
AFA6
330
9B5A
100
AcDbEntity
  8
30
 62
     0
370
    -2
100
AcDbBlockReference
  2
_Open
 10
-875.0
 20
-68.34452665899994
 30
0.0
 41
5.0
 42
5.0
 43
5.0
  0
POINT
  5
AFA7
330
9B5A
100
AcDbEntity
  8
Defpoints
 62
     0
100
AcDbPoint
 10
-1125.0
 20
30.0
 30
0.0
  0
POINT
  5
AFA8
330
9B5A
100
AcDbEntity
  8
Defpoints
 62
     0
100
AcDbPoint
 10
-875.0
 20
30.0
 30
0.0
  0
POINT
  5
AFA9
330
9B5A
100
AcDbEntity
  8
Defpoints
 62
     0
100
AcDbPoint
 10
-875.0
 20
-68.34452665899994
 30
0.0
  0
ENDBLK
  5
9B65
330
9B5A
100
AcDbEntity
  8
0
100
AcDbBlockEnd
  0
BLOCK
  5
9B70
330
9B66
100
AcDbEntity
  8
0
100
AcDbBlockBegin
  2
*D23
 70
     1
 10
0.0
 20
0.0
 30
0.0
  3
*D23
  1

  0
LINE
  5
AF6A
330
9B66
100
AcDbEntity
  8
30
 62
     0
370
    -2
100
AcDbLine
 10
-198.4999999999999
 20
305.4999999999998
 30
0.0
 11
-278.9115469439999
 21
305.4999999999998
 31
0.0
  0
LINE
  5
AF6B
330
9B66
100
AcDbEntity
  8
30
 62
     0
370
    -2
100
AcDbLine
 10
-179.9999999999995
 20
0.0000000000000056
 30
0.0
 11
-278.9115469439999
 21
0.0000000000000337
 31
0.0
  0
LINE
  5
AF6C
330
9B66
100
AcDbEntity
  8
30
 62
     0
370
    -2
100
AcDbLine
 10
-277.9115469439999
 20
300.4999999999998
 30
0.0
 11
-277.911546944
 21
5.000000000000032
 31
0.0
  0
MTEXT
  5
AF6D
330
9B66
100
AcDbEntity
  8
30
 62
     0
100
AcDbMText
 10
-285.9115469439998
 20
142.2446684829994
 30
0.0
 40
10.0
 41
0.0
 71
     5
 72
     1
  1
\A1;305.5
 11
0.0000000000000001
 21
1.0
 31
0.0
 73
     1
 44
1.0
  0
INSERT
  5
AF6E
330
9B66
100
AcDbEntity
  8
30
 62
     0
370
    -2
100
AcDbBlockReference
  2
_Open
 10
-277.9115469439999
 20
305.4999999999998
 30
0.0
 41
5.0
 42
5.0
 43
5.0
 50
90.0
  0
INSERT
  5
AF6F
330
9B66
100
AcDbEntity
  8
30
 62
     0
370
    -2
100
AcDbBlockReference
  2
_Open
 10
-277.911546944
 20
0.0000000000000334
 30
0.0
 41
5.0
 42
5.0
 43
5.0
 50
270.0
  0
POINT
  5
AF70
330
9B66
100
AcDbEntity
  8
Defpoints
 62
     0
100
AcDbPoint
 10
-188.4999999999999
 20
305.4999999999998
 30
0.0
  0
POINT
  5
AF71
330
9B66
100
AcDbEntity
  8
Defpoints
 62
     0
100
AcDbPoint
 10
-169.9999999999995
 20
0.0000000000000028
 30
0.0
  0
POINT
  5
AF72
330
9B66
100
AcDbEntity
  8
Defpoints
 62
     0
100
AcDbPoint
 10
-277.911546944
 20
0.0000000000000334
 30
0.0
  0
ENDBLK
  5
9B71
330
9B66
100
AcDbEntity
  8
0
100
AcDbBlockEnd
  0
BLOCK
  5
9B7C
330
9B72
100
AcDbEntity
  8
0
100
AcDbBlockBegin
  2
*D24
 70
     1
 10
0.0
 20
0.0
 30
0.0
  3
*D24
  1

  0
LINE
  5
AF7C
330
9B72
100
AcDbEntity
  8
30
 62
     0
370
    -2
100
AcDbLine
 10
-865.0
 20
365.0
 30
0.0
 11
-807.2913262432068
 21
365.0
 31
0.0
  0
LINE
  5
AF7D
330
9B72
100
AcDbEntity
  8
30
 62
     0
370
    -2
100
AcDbLine
 10
-865.0
 20
30.0
 30
0.0
 11
-807.291326243207
 21
29.99999999999998
 31
0.0
  0
LINE
  5
AF7E
330
9B72
100
AcDbEntity
  8
30
 62
     0
370
    -2
100
AcDbLine
 10
-808.2913262432068
 20
360.0
 30
0.0
 11
-808.291326243207
 21
34.99999999999998
 31
0.0
  0
MTEXT
  5
AF7F
330
9B72
100
AcDbEntity
  8
30
 62
     0
100
AcDbMText
 10
-816.2913262432066
 20
211.8006790989998
 30
0.0
 40
10.0
 41
0.0
 71
     5
 72
     1
  1
\A1;335
 11
0.0000000000000001
 21
1.0
 31
0.0
 73
     1
 44
1.0
  0
INSERT
  5
AF80
330
9B72
100
AcDbEntity
  8
30
 62
     0
370
    -2
100
AcDbBlockReference
  2
_Open
 10
-808.2913262432068
 20
365.0
 30
0.0
 41
5.0
 42
5.0
 43
5.0
 50
90.0
  0
INSERT
  5
AF81
330
9B72
100
AcDbEntity
  8
30
 62
     0
370
    -2
100
AcDbBlockReference
  2
_Open
 10
-808.291326243207
 20
29.99999999999998
 30
0.0
 41
5.0
 42
5.0
 43
5.0
 50
270.0
  0
POINT
  5
AF82
330
9B72
100
AcDbEntity
  8
Defpoints
 62
     0
100
AcDbPoint
 10
-875.0
 20
365.0
 30
0.0
  0
POINT
  5
AF83
330
9B72
100
AcDbEntity
  8
Defpoints
 62
     0
100
AcDbPoint
 10
-875.0
 20
30.0
 30
0.0
  0
POINT
  5
AF84
330
9B72
100
AcDbEntity
  8
Defpoints
 62
     0
100
AcDbPoint
 10
-808.291326243207
 20
29.99999999999998
 30
0.0
  0
ENDBLK
  5
9B7D
330
9B72
100
AcDbEntity
  8
0
100
AcDbBlockEnd
  0
BLOCK
  5
9B88
330
9B7E
100
AcDbEntity
  8
0
100
AcDbBlockBegin
  2
*D25
 70
     1
 10
0.0
 20
0.0
 30
0.0
  3
*D25
  1

  0
LINE
  5
AF73
330
9B7E
100
AcDbEntity
  8
30
 62
     0
370
    -2
100
AcDbLine
 10
-722.1500515649999
 20
-0.0000000000000028
 30
0.0
 11
-670.5211279634138
 21
-0.0000000000000175
 31
0.0
  0
LINE
  5
AF74
330
9B7E
100
AcDbEntity
  8
30
 62
     0
370
    -2
100
AcDbLine
 10
-750.0
 20
550.0
 30
0.0
 11
-670.5211279634137
 21
550.0
 31
0.0
  0
LINE
  5
AF75
330
9B7E
100
AcDbEntity
  8
30
 62
     0
370
    -2
100
AcDbLine
 10
-671.5211279634138
 20
4.999999999999983
 30
0.0
 11
-671.5211279634137
 21
545.0
 31
0.0
  0
MTEXT
  5
AF76
330
9B7E
100
AcDbEntity
  8
30
 62
     0
100
AcDbMText
 10
-679.5211279634137
 20
265.959836774
 30
0.0
 40
10.0
 41
0.0
 71
     5
 72
     1
  1
\A1;550
 11
0.0000000000000001
 21
1.0
 31
0.0
 73
     1
 44
1.0
  0
INSERT
  5
AF77
330
9B7E
100
AcDbEntity
  8
30
 62
     0
370
    -2
100
AcDbBlockReference
  2
_Open
 10
-671.5211279634138
 20
-0.0000000000000172
 30
0.0
 41
5.0
 42
5.0
 43
5.0
 50
270.0
  0
INSERT
  5
AF78
330
9B7E
100
AcDbEntity
  8
30
 62
     0
370
    -2
100
AcDbBlockReference
  2
_Open
 10
-671.5211279634137
 20
550.0
 30
0.0
 41
5.0
 42
5.0
 43
5.0
 50
90.0
  0
POINT
  5
AF79
330
9B7E
100
AcDbEntity
  8
Defpoints
 62
     0
100
AcDbPoint
 10
-732.150051565
 20
0.0
 30
0.0
  0
POINT
  5
AF7A
330
9B7E
100
AcDbEntity
  8
Defpoints
 62
     0
100
AcDbPoint
 10
-760.0
 20
550.0
 30
0.0
  0
POINT
  5
AF7B
330
9B7E
100
AcDbEntity
  8
Defpoints
 62
     0
100
AcDbPoint
 10
-671.5211279634137
 20
550.0
 30
0.0
  0
ENDBLK
  5
9B89
330
9B7E
100
AcDbEntity
  8
0
100
AcDbBlockEnd
  0
BLOCK
  5
9B94
330
9B8A
100
AcDbEntity
  8
0
100
AcDbBlockBegin
  2
*D26
 70
     1
 10
0.0
 20
0.0
 30
0.0
  3
*D26
  1

  0
LINE
  5
AFAA
330
9B8A
100
AcDbEntity
  8
30
 62
     0
370
    -2
100
AcDbLine
 10
-722.1500515649999
 20
-0.0000000000000028
 30
0.0
 11
-670.5211279634141
 21
-0.0000000000000175
 31
0.0
  0
LINE
  5
AFAB
330
9B8A
100
AcDbEntity
  8
30
 62
     0
370
    -2
100
AcDbLine
 10
-750.0
 20
-100.0
 30
0.0
 11
-670.5211279634141
 21
-100.0
 31
0.0
  0
LINE
  5
AFAC
330
9B8A
100
AcDbEntity
  8
30
 62
     0
370
    -2
100
AcDbLine
 10
-671.5211279634141
 20
-5.000000000000016
 30
0.0
 11
-671.5211279634141
 21
-95.00000000000003
 31
0.0
  0
MTEXT
  5
AFAD
330
9B8A
100
AcDbEntity
  8
30
 62
     0
100
AcDbMText
 10
-679.5211279634137
 20
-47.95708235300003
 30
0.0
 40
10.0
 41
0.0
 71
     5
 72
     1
  1
\A1;100
 11
0.0000000000000001
 21
1.0
 31
0.0
 73
     1
 44
1.0
  0
INSERT
  5
AFAE
330
9B8A
100
AcDbEntity
  8
30
 62
     0
370
    -2
100
AcDbBlockReference
  2
_Open
 10
-671.5211279634141
 20
-0.0000000000000172
 30
0.0
 41
5.0
 42
5.0
 43
5.0
 50
90.0
  0
INSERT
  5
AFAF
330
9B8A
100
AcDbEntity
  8
30
 62
     0
370
    -2
100
AcDbBlockReference
  2
_Open
 10
-671.5211279634141
 20
-100.0
 30
0.0
 41
5.0
 42
5.0
 43
5.0
 50
270.0
  0
POINT
  5
AFB0
330
9B8A
100
AcDbEntity
  8
Defpoints
 62
     0
100
AcDbPoint
 10
-732.150051565
 20
0.0
 30
0.0
  0
POINT
  5
AFB1
330
9B8A
100
AcDbEntity
  8
Defpoints
 62
     0
100
AcDbPoint
 10
-760.0
 20
-100.0
 30
0.0
  0
POINT
  5
AFB2
330
9B8A
100
AcDbEntity
  8
Defpoints
 62
     0
100
AcDbPoint
 10
-671.5211279634141
 20
-100.0
 30
0.0
  0
ENDBLK
  5
9B95
330
9B8A
100
AcDbEntity
  8
0
100
AcDbBlockEnd
  0
BLOCK
  5
9BA1
330
9B96
100
AcDbEntity
  8
0
100
AcDbBlockBegin
  2
*D27
 70
     1
 10
0.0
 20
0.0
 30
0.0
  3
*D27
  1

  0
LINE
  5
AF85
330
9B96
100
AcDbEntity
  8
30
 62
     0
370
    -2
100
AcDbLine
 10
-865.0
 20
30.0
 30
0.0
 11
-807.291326243207
 21
29.99999999999998
 31
0.0
  0
LINE
  5
AF86
330
9B96
100
AcDbEntity
  8
30
 62
     0
370
    -2
100
AcDbLine
 10
-742.150051565
 20
0.0000000000000028
 30
0.0
 11
-809.291326243207
 21
0.0000000000000219
 31
0.0
  0
LINE
  5
AF87
330
9B96
100
AcDbEntity
  8
30
 62
     0
370
    -2
100
AcDbLine
 10
-808.291326243207
 20
24.99999999999998
 30
0.0
 11
-808.291326243207
 21
5.000000000000021
 31
0.0
  0
LINE
  5
AF88
330
9B96
100
AcDbEntity
  8
30
 62
     0
370
    -2
100
AcDbLine
 10
-808.291326243207
 20
-35.89086825123819
 30
0.0
 11
-808.291326243207
 21
0.0000000000000216
 31
0.0
  0
MTEXT
  5
AF89
330
9B96
100
AcDbEntity
  8
30
 62
     0
100
AcDbMText
 10
-816.291326243207
 20
-24.79563015600023
 30
0.0
 40
10.0
 41
0.0
 71
     5
 72
     1
  1
\A1;30
 11
0.0000000000000001
 21
1.0
 31
0.0
 73
     1
 44
1.0
  0
INSERT
  5
AF8A
330
9B96
100
AcDbEntity
  8
30
 62
     0
370
    -2
100
AcDbBlockReference
  2
_Open
 10
-808.291326243207
 20
29.99999999999998
 30
0.0
 41
5.0
 42
5.0
 43
5.0
 50
90.0
  0
INSERT
  5
AF8B
330
9B96
100
AcDbEntity
  8
30
 62
     0
370
    -2
100
AcDbBlockReference
  2
_Open
 10
-808.291326243207
 20
0.0000000000000216
 30
0.0
 41
5.0
 42
5.0
 43
5.0
 50
270.0
  0
POINT
  5
AF8C
330
9B96
100
AcDbEntity
  8
Defpoints
 62
     0
100
AcDbPoint
 10
-875.0
 20
30.0
 30
0.0
  0
POINT
  5
AF8D
330
9B96
100
AcDbEntity
  8
Defpoints
 62
     0
100
AcDbPoint
 10
-732.150051565
 20
0.0
 30
0.0
  0
POINT
  5
AF8E
330
9B96
100
AcDbEntity
  8
Defpoints
 62
     0
100
AcDbPoint
 10
-808.291326243207
 20
0.0000000000000216
 30
0.0
  0
ENDBLK
  5
9BA2
330
9B96
100
AcDbEntity
  8
0
100
AcDbBlockEnd
  0
BLOCK
  5
9BAD
330
9BA3
100
AcDbEntity
  8
0
100
AcDbBlockBegin
  2
*D28
 70
     1
 10
0.0
 20
0.0
 30
0.0
  3
*D28
  1

  0
LINE
  5
AFCC
330
9BA3
100
AcDbEntity
  8
30
 62
     0
370
    -2
100
AcDbLine
 10
0.000000000000228
 20
600.0385861509998
 30
0.0
 11
0.0000000000002304
 21
639.4743204849994
 31
0.0
  0
LINE
  5
AFCD
330
9BA3
100
AcDbEntity
  8
30
 62
     0
370
    -2
100
AcDbLine
 10
-174.9999999999995
 20
573.2
 30
0.0
 11
-174.9999999999995
 21
639.4743204849994
 31
0.0
  0
LINE
  5
AFCE
330
9BA3
100
AcDbEntity
  8
30
 62
     0
370
    -2
100
AcDbLine
 10
-4.999999999999769
 20
638.4743204849995
 30
0.0
 11
-169.9999999999995
 21
638.4743204849995
 31
0.0
  0
MTEXT
  5
AFCF
330
9BA3
100
AcDbEntity
  8
30
 62
     0
100
AcDbMText
 10
-91.32958501299979
 20
646.4743204849995
 30
0.0
 40
10.0
 41
0.0
 71
     5
 72
     1
  1
\A1;175
 73
     1
 44
1.0
  0
INSERT
  5
AFD0
330
9BA3
100
AcDbEntity
  8
30
 62
     0
370
    -2
100
AcDbBlockReference
  2
_Open
 10
0.0000000000002304
 20
638.4743204849995
 30
0.0
 41
5.0
 42
5.0
 43
5.0
  0
INSERT
  5
AFD1
330
9BA3
100
AcDbEntity
  8
30
 62
     0
370
    -2
100
AcDbBlockReference
  2
_Open
 10
-174.9999999999995
 20
638.4743204849995
 30
0.0
 41
5.0
 42
5.0
 43
5.0
 50
180.0
  0
POINT
  5
AFD2
330
9BA3
100
AcDbEntity
  8
Defpoints
 62
     0
100
AcDbPoint
 10
0.0000000000002274
 20
590.0385861509999
 30
0.0
  0
POINT
  5
AFD3
330
9BA3
100
AcDbEntity
  8
Defpoints
 62
     0
100
AcDbPoint
 10
-174.9999999999995
 20
563.2
 30
0.0
  0
POINT
  5
AFD4
330
9BA3
100
AcDbEntity
  8
Defpoints
 62
     0
100
AcDbPoint
 10
-174.9999999999995
 20
638.4743204849995
 30
0.0
  0
ENDBLK
  5
9BAE
330
9BA3
100
AcDbEntity
  8
0
100
AcDbBlockEnd
  0
BLOCK
  5
9BB9
330
9BAF
100
AcDbEntity
  8
0
100
AcDbBlockBegin
  2
*D29
 70
     1
 10
0.0
 20
0.0
 30
0.0
  3
*D29
  1

  0
LINE
  5
AF4F
330
9BAF
100
AcDbEntity
  8
30
 62
     0
370
    -2
100
AcDbLine
 10
218.5000000000004
 20
278.4999999999997
 30
0.0
 11
291.7659130439997
 21
278.4999999999997
 31
0.0
  0
LINE
  5
AF50
330
9BAF
100
AcDbEntity
  8
30
 62
     0
370
    -2
100
AcDbLine
 10
180.0
 20
0.0
 30
0.0
 11
291.7659130439996
 21
-0.0000000000000317
 31
0.0
  0
LINE
  5
AF51
330
9BAF
100
AcDbEntity
  8
30
 62
     0
370
    -2
100
AcDbLine
 10
290.7659130439997
 20
273.4999999999997
 30
0.0
 11
290.7659130439996
 21
4.999999999999968
 31
0.0
  0
MTEXT
  5
AF52
330
9BAF
100
AcDbEntity
  8
30
 62
     0
100
AcDbMText
 10
282.7659130439998
 20
139.8834724419996
 30
0.0
 40
10.0
 41
0.0
 71
     5
 72
     1
  1
\A1;278.5
 11
0.0000000000000001
 21
1.0
 31
0.0
 73
     1
 44
1.0
  0
INSERT
  5
AF53
330
9BAF
100
AcDbEntity
  8
30
 62
     0
370
    -2
100
AcDbBlockReference
  2
_Open
 10
290.7659130439997
 20
278.4999999999997
 30
0.0
 41
5.0
 42
5.0
 43
5.0
 50
90.0
  0
INSERT
  5
AF54
330
9BAF
100
AcDbEntity
  8
30
 62
     0
370
    -2
100
AcDbBlockReference
  2
_Open
 10
290.7659130439996
 20
-0.0000000000000314
 30
0.0
 41
5.0
 42
5.0
 43
5.0
 50
270.0
  0
POINT
  5
AF55
330
9BAF
100
AcDbEntity
  8
Defpoints
 62
     0
100
AcDbPoint
 10
208.5000000000004
 20
278.4999999999997
 30
0.0
  0
POINT
  5
AF56
330
9BAF
100
AcDbEntity
  8
Defpoints
 62
     0
100
AcDbPoint
 10
170.0
 20
0.0000000000000028
 30
0.0
  0
POINT
  5
AF57
330
9BAF
100
AcDbEntity
  8
Defpoints
 62
     0
100
AcDbPoint
 10
290.7659130439996
 20
-0.0000000000000314
 30
0.0
  0
ENDBLK
  5
9BBA
330
9BAF
100
AcDbEntity
  8
0
100
AcDbBlockEnd
  0
BLOCK
  5
9BC5
330
9BBB
100
AcDbEntity
  8
0
100
AcDbBlockBegin
  2
*D30
 70
     1
 10
0.0
 20
0.0
 30
0.0
  3
*D30
  1

  0
LINE
  5
AF61
330
9BBB
100
AcDbEntity
  8
30
 62
     0
370
    -2
100
AcDbLine
 10
0.000000000000228
 20
600.0385861509998
 30
0.0
 11
0.0000000000002304
 21
639.7632507779999
 31
0.0
  0
LINE
  5
AF62
330
9BBB
100
AcDbEntity
  8
30
 62
     0
370
    -2
100
AcDbLine
 10
175.0
 20
573.2
 30
0.0
 11
175.0
 21
639.7632507779999
 31
0.0
  0
LINE
  5
AF63
330
9BBB
100
AcDbEntity
  8
30
 62
     0
370
    -2
100
AcDbLine
 10
5.00000000000023
 20
638.7632507779999
 30
0.0
 11
170.0
 21
638.7632507779999
 31
0.0
  0
MTEXT
  5
AF64
330
9BBB
100
AcDbEntity
  8
30
 62
     0
100
AcDbMText
 10
80.98967571400022
 20
646.7632507779999
 30
0.0
 40
10.0
 41
0.0
 71
     5
 72
     1
  1
\A1;175
 73
     1
 44
1.0
  0
INSERT
  5
AF65
330
9BBB
100
AcDbEntity
  8
30
 62
     0
370
    -2
100
AcDbBlockReference
  2
_Open
 10
0.0000000000002304
 20
638.7632507779999
 30
0.0
 41
5.0
 42
5.0
 43
5.0
 50
180.0
  0
INSERT
  5
AF66
330
9BBB
100
AcDbEntity
  8
30
 62
     0
370
    -2
100
AcDbBlockReference
  2
_Open
 10
175.0
 20
638.7632507779999
 30
0.0
 41
5.0
 42
5.0
 43
5.0
  0
POINT
  5
AF67
330
9BBB
100
AcDbEntity
  8
Defpoints
 62
     0
100
AcDbPoint
 10
0.0000000000002274
 20
590.0385861509999
 30
0.0
  0
POINT
  5
AF68
330
9BBB
100
AcDbEntity
  8
Defpoints
 62
     0
100
AcDbPoint
 10
175.0
 20
563.2
 30
0.0
  0
POINT
  5
AF69
330
9BBB
100
AcDbEntity
  8
Defpoints
 62
     0
100
AcDbPoint
 10
175.0
 20
638.7632507779999
 30
0.0
  0
ENDBLK
  5
9BC6
330
9BBB
100
AcDbEntity
  8
0
100
AcDbBlockEnd
  0
BLOCK
  5
9BD1
330
9BC7
100
AcDbEntity
  8
0
100
AcDbBlockBegin
  2
*D31
 70
     1
 10
0.0
 20
0.0
 30
0.0
  3
*D31
  1

  0
LINE
  5
AF58
330
9BC7
100
AcDbEntity
  8
30
 62
     0
370
    -2
100
AcDbLine
 10
218.5000000000004
 20
332.5000000000001
 30
0.0
 11
292.2851980070003
 21
332.5000000000001
 31
0.0
  0
LINE
  5
AF59
330
9BC7
100
AcDbEntity
  8
30
 62
     0
370
    -2
100
AcDbLine
 10
218.5000000000004
 20
278.4999999999997
 30
0.0
 11
292.2851980070003
 21
278.4999999999997
 31
0.0
  0
LINE
  5
AF5A
330
9BC7
100
AcDbEntity
  8
30
 62
     0
370
    -2
100
AcDbLine
 10
291.2851980070003
 20
327.5000000000001
 30
0.0
 11
291.2851980070003
 21
283.4999999999997
 31
0.0
  0
MTEXT
  5
AF5B
330
9BC7
100
AcDbEntity
  8
30
 62
     0
100
AcDbMText
 10
283.2851980070003
 20
306.4314027629997
 30
0.0
 40
10.0
 41
0.0
 71
     5
 72
     1
  1
\A1;54
 11
0.0000000000000001
 21
1.0
 31
0.0
 73
     1
 44
1.0
  0
INSERT
  5
AF5C
330
9BC7
100
AcDbEntity
  8
30
 62
     0
370
    -2
100
AcDbBlockReference
  2
_Open
 10
291.2851980070003
 20
332.5000000000001
 30
0.0
 41
5.0
 42
5.0
 43
5.0
 50
90.0
  0
INSERT
  5
AF5D
330
9BC7
100
AcDbEntity
  8
30
 62
     0
370
    -2
100
AcDbBlockReference
  2
_Open
 10
291.2851980070003
 20
278.4999999999997
 30
0.0
 41
5.0
 42
5.0
 43
5.0
 50
270.0
  0
POINT
  5
AF5E
330
9BC7
100
AcDbEntity
  8
Defpoints
 62
     0
100
AcDbPoint
 10
208.5000000000004
 20
332.5000000000001
 30
0.0
  0
POINT
  5
AF5F
330
9BC7
100
AcDbEntity
  8
Defpoints
 62
     0
100
AcDbPoint
 10
208.5000000000004
 20
278.4999999999997
 30
0.0
  0
POINT
  5
AF60
330
9BC7
100
AcDbEntity
  8
Defpoints
 62
     0
100
AcDbPoint
 10
291.2851980070003
 20
278.4999999999997
 30
0.0
  0
ENDBLK
  5
9BD2
330
9BC7
100
AcDbEntity
  8
0
100
AcDbBlockEnd
  0
BLOCK
  5
9BDD
330
9BD3
100
AcDbEntity
  8
0
100
AcDbBlockBegin
  2
*D32
 70
     1
 10
0.0
 20
0.0
 30
0.0
  3
*D32
  1

  0
LINE
  5
AF07
330
9BD3
100
AcDbEntity
  8
30
 62
     0
370
    -2
100
AcDbLine
 10
1106.0
 20
-48.39230421200023
 30
0.0
 11
1106.0
 21
-175.5762283560003
 31
0.0
  0
LINE
  5
AF08
330
9BD3
100
AcDbEntity
  8
30
 62
     0
370
    -2
100
AcDbLine
 10
1078.0
 20
-122.2872557790002
 30
0.0
 11
1078.0
 21
-175.5762283560003
 31
0.0
  0
LINE
  5
AF09
330
9BD3
100
AcDbEntity
  8
30
 62
     0
370
    -2
100
AcDbLine
 10
1101.0
 20
-174.5762283560003
 30
0.0
 11
1083.0
 21
-174.5762283560003
 31
0.0
  0
MTEXT
  5
AF0A
330
9BD3
100
AcDbEntity
  8
30
 62
     0
100
AcDbMText
 10
1093.139112677999
 20
-166.5762283560003
 30
0.0
 40
10.0
 41
0.0
 71
     5
 72
     1
  1
\A1;28
 73
     1
 44
1.0
  0
INSERT
  5
AF0B
330
9BD3
100
AcDbEntity
  8
30
 62
     0
370
    -2
100
AcDbBlockReference
  2
_Open
 10
1106.0
 20
-174.5762283560003
 30
0.0
 41
5.0
 42
5.0
 43
5.0
  0
INSERT
  5
AF0C
330
9BD3
100
AcDbEntity
  8
30
 62
     0
370
    -2
100
AcDbBlockReference
  2
_Open
 10
1078.0
 20
-174.5762283560003
 30
0.0
 41
5.0
 42
5.0
 43
5.0
 50
180.0
  0
POINT
  5
AF0D
330
9BD3
100
AcDbEntity
  8
Defpoints
 62
     0
100
AcDbPoint
 10
1106.0
 20
-38.39230421200023
 30
0.0
  0
POINT
  5
AF0E
330
9BD3
100
AcDbEntity
  8
Defpoints
 62
     0
100
AcDbPoint
 10
1078.0
 20
-112.2872557790002
 30
0.0
  0
POINT
  5
AF0F
330
9BD3
100
AcDbEntity
  8
Defpoints
 62
     0
100
AcDbPoint
 10
1078.0
 20
-174.5762283560003
 30
0.0
  0
ENDBLK
  5
9BDE
330
9BD3
100
AcDbEntity
  8
0
100
AcDbBlockEnd
  0
BLOCK
  5
9BF5
330
9BEB
100
AcDbEntity
  8
0
100
AcDbBlockBegin
  2
*D33
 70
     1
 10
0.0
 20
0.0
 30
0.0
  3
*D33
  1

  0
LINE
  5
AEF4
330
9BEB
100
AcDbEntity
  8
30
 62
     0
370
    -2
100
AcDbLine
 10
978.0
 20
-122.2872557790002
 30
0.0
 11
978.0
 21
-175.3558024
 31
0.0
  0
LINE
  5
AEF5
330
9BEB
100
AcDbEntity
  8
30
 62
     0
370
    -2
100
AcDbLine
 10
1078.0
 20
-122.2872557790002
 30
0.0
 11
1078.0
 21
-175.3558024
 31
0.0
  0
LINE
  5
AEF6
330
9BEB
100
AcDbEntity
  8
30
 62
     0
370
    -2
100
AcDbLine
 10
983.0
 20
-174.3558024
 30
0.0
 11
1073.0
 21
-174.3558024
 31
0.0
  0
MTEXT
  5
AEF7
330
9BEB
100
AcDbEntity
  8
30
 62
     0
100
AcDbMText
 10
1030.592592592
 20
-166.3558024
 30
0.0
 40
10.0
 41
0.0
 71
     5
 72
     1
  1
\A1;100
 73
     1
 44
1.0
  0
INSERT
  5
AEF8
330
9BEB
100
AcDbEntity
  8
30
 62
     0
370
    -2
100
AcDbBlockReference
  2
_Open
 10
978.0
 20
-174.3558024
 30
0.0
 41
5.0
 42
5.0
 43
5.0
 50
180.0
  0
INSERT
  5
AEF9
330
9BEB
100
AcDbEntity
  8
30
 62
     0
370
    -2
100
AcDbBlockReference
  2
_Open
 10
1078.0
 20
-174.3558024
 30
0.0
 41
5.0
 42
5.0
 43
5.0
  0
POINT
  5
AEFA
330
9BEB
100
AcDbEntity
  8
Defpoints
 62
     0
100
AcDbPoint
 10
978.0
 20
-112.2872557790002
 30
0.0
  0
POINT
  5
AEFB
330
9BEB
100
AcDbEntity
  8
Defpoints
 62
     0
100
AcDbPoint
 10
1078.0
 20
-112.2872557790002
 30
0.0
  0
POINT
  5
AEFC
330
9BEB
100
AcDbEntity
  8
Defpoints
 62
     0
100
AcDbPoint
 10
1078.0
 20
-174.3558024
 30
0.0
  0
ENDBLK
  5
9BF6
330
9BEB
100
AcDbEntity
  8
0
100
AcDbBlockEnd
  0
BLOCK
  5
9C1A
330
9C0F
100
AcDbEntity
  8
0
100
AcDbBlockBegin
  2
*D34
 70
     1
 10
0.0
 20
0.0
 30
0.0
  3
*D34
  1

  0
LINE
  5
AEFD
330
9C0F
100
AcDbEntity
  8
30
 62
     0
370
    -2
100
AcDbLine
 10
978.0
 20
-122.2872557790002
 30
0.0
 11
978.0
 21
-175.3558024
 31
0.0
  0
LINE
  5
AEFE
330
9C0F
100
AcDbEntity
  8
30
 62
     0
370
    -2
100
AcDbLine
 10
941.0
 20
-29.12765978700008
 30
0.0
 11
941.0
 21
-175.3558024
 31
0.0
  0
LINE
  5
AEFF
330
9C0F
100
AcDbEntity
  8
30
 62
     0
370
    -2
100
AcDbLine
 10
973.0
 20
-174.3558024
 30
0.0
 11
946.0
 21
-174.3558024
 31
0.0
  0
LINE
  5
AF00
330
9C0F
100
AcDbEntity
  8
30
 62
     0
370
    -2
100
AcDbLine
 10
903.2187789707617
 20
-174.3558024
 30
0.0
 11
941.0
 21
-174.3558024
 31
0.0
  0
MTEXT
  5
AF01
330
9C0F
100
AcDbEntity
  8
30
 62
     0
100
AcDbMText
 10
914.3140170659998
 20
-166.3558024
 30
0.0
 40
10.0
 41
0.0
 71
     5
 72
     1
  1
\A1;37
 73
     1
 44
1.0
  0
INSERT
  5
AF02
330
9C0F
100
AcDbEntity
  8
30
 62
     0
370
    -2
100
AcDbBlockReference
  2
_Open
 10
978.0
 20
-174.3558024
 30
0.0
 41
5.0
 42
5.0
 43
5.0
  0
INSERT
  5
AF03
330
9C0F
100
AcDbEntity
  8
30
 62
     0
370
    -2
100
AcDbBlockReference
  2
_Open
 10
941.0
 20
-174.3558024
 30
0.0
 41
5.0
 42
5.0
 43
5.0
 50
180.0
  0
POINT
  5
AF04
330
9C0F
100
AcDbEntity
  8
Defpoints
 62
     0
100
AcDbPoint
 10
978.0
 20
-112.2872557790002
 30
0.0
  0
POINT
  5
AF05
330
9C0F
100
AcDbEntity
  8
Defpoints
 62
     0
100
AcDbPoint
 10
941.0
 20
-19.12765978700008
 30
0.0
  0
POINT
  5
AF06
330
9C0F
100
AcDbEntity
  8
Defpoints
 62
     0
100
AcDbPoint
 10
941.0
 20
-174.3558024
 30
0.0
  0
ENDBLK
  5
9C1B
330
9C0F
100
AcDbEntity
  8
0
100
AcDbBlockEnd
  0
BLOCK
  5
9C86
330
9C7B
100
AcDbEntity
  8
0
100
AcDbBlockBegin
  2
*D35
 70
     1
 10
0.0
 20
0.0
 30
0.0
  3
*D35
  1

  0
LINE
  5
AEBD
330
9C7B
100
AcDbEntity
  8
30
 62
     0
370
    -2
100
AcDbLine
 10
1068.0
 20
441.9999999999997
 30
0.0
 11
1240.725593749999
 21
441.9999999999996
 31
0.0
  0
LINE
  5
AEBE
330
9C7B
100
AcDbEntity
  8
30
 62
     0
370
    -2
100
AcDbLine
 10
1076.0
 20
459.9999999999996
 30
0.0
 11
1240.725593749999
 21
459.9999999999995
 31
0.0
  0
LINE
  5
AEBF
330
9C7B
100
AcDbEntity
  8
30
 62
     0
370
    -2
100
AcDbLine
 10
1239.725593749999
 20
446.9999999999997
 30
0.0
 11
1239.725593749999
 21
454.9999999999995
 31
0.0
  0
MTEXT
  5
AEC0
330
9C7B
100
AcDbEntity
  8
30
 62
     0
100
AcDbMText
 10
1232.554533340105
 20
451.1011607721362
 30
0.0
 40
10.0
 41
0.0
 71
     5
 72
     1
  1
\A1;18
 11
0.0000000000000001
 21
1.0
 31
0.0
 73
     1
 44
1.0
  0
INSERT
  5
AEC1
330
9C7B
100
AcDbEntity
  8
30
 62
     0
370
    -2
100
AcDbBlockReference
  2
_Open
 10
1239.725593749999
 20
441.9999999999996
 30
0.0
 41
5.0
 42
5.0
 43
5.0
 50
270.0
  0
INSERT
  5
AEC2
330
9C7B
100
AcDbEntity
  8
30
 62
     0
370
    -2
100
AcDbBlockReference
  2
_Open
 10
1239.725593749999
 20
459.9999999999995
 30
0.0
 41
5.0
 42
5.0
 43
5.0
 50
90.0
  0
POINT
  5
AEC3
330
9C7B
100
AcDbEntity
  8
Defpoints
 62
     0
100
AcDbPoint
 10
1058.0
 20
441.9999999999997
 30
0.0
  0
POINT
  5
AEC4
330
9C7B
100
AcDbEntity
  8
Defpoints
 62
     0
100
AcDbPoint
 10
1066.0
 20
459.9999999999996
 30
0.0
  0
POINT
  5
AEC5
330
9C7B
100
AcDbEntity
  8
Defpoints
 62
     0
100
AcDbPoint
 10
1239.725593749999
 20
459.9999999999995
 30
0.0
  0
ENDBLK
  5
9C87
330
9C7B
100
AcDbEntity
  8
0
100
AcDbBlockEnd
  0
BLOCK
  5
9C92
330
9C88
100
AcDbEntity
  8
0
100
AcDbBlockBegin
  2
*D36
 70
     1
 10
0.0
 20
0.0
 30
0.0
  3
*D36
  1

  0
LINE
  5
AEB4
330
9C88
100
AcDbEntity
  8
30
 62
     0
370
    -2
100
AcDbLine
 10
991.0
 20
490.0
 30
0.0
 11
1333.527021913607
 21
489.9999999999999
 31
0.0
  0
LINE
  5
AEB5
330
9C88
100
AcDbEntity
  8
30
 62
     0
370
    -2
100
AcDbLine
 10
1151.0
 20
-0.0000000000002301
 30
0.0
 11
1333.527021913607
 21
-0.0000000000002818
 31
0.0
  0
LINE
  5
AEB6
330
9C88
100
AcDbEntity
  8
30
 62
     0
370
    -2
100
AcDbLine
 10
1332.527021913608
 20
484.9999999999999
 30
0.0
 11
1332.527021913608
 21
4.999999999999718
 31
0.0
  0
MTEXT
  5
AEB7
330
9C88
100
AcDbEntity
  8
30
 62
     0
100
AcDbMText
 10
1324.527021913608
 20
240.5724822019993
 30
0.0
 40
10.0
 41
0.0
 71
     5
 72
     1
  1
\A1;490
 11
0.0000000000000001
 21
1.0
 31
0.0
 73
     1
 44
1.0
  0
INSERT
  5
AEB8
330
9C88
100
AcDbEntity
  8
30
 62
     0
370
    -2
100
AcDbBlockReference
  2
_Open
 10
1332.527021913608
 20
489.9999999999999
 30
0.0
 41
5.0
 42
5.0
 43
5.0
 50
90.0
  0
INSERT
  5
AEB9
330
9C88
100
AcDbEntity
  8
30
 62
     0
370
    -2
100
AcDbBlockReference
  2
_Open
 10
1332.527021913608
 20
-0.0000000000002816
 30
0.0
 41
5.0
 42
5.0
 43
5.0
 50
270.0
  0
POINT
  5
AEBA
330
9C88
100
AcDbEntity
  8
Defpoints
 62
     0
100
AcDbPoint
 10
981.0
 20
490.0
 30
0.0
  0
POINT
  5
AEBB
330
9C88
100
AcDbEntity
  8
Defpoints
 62
     0
100
AcDbPoint
 10
1141.0
 20
-0.0000000000002273
 30
0.0
  0
POINT
  5
AEBC
330
9C88
100
AcDbEntity
  8
Defpoints
 62
     0
100
AcDbPoint
 10
1332.527021913608
 20
-0.0000000000002816
 30
0.0
  0
ENDBLK
  5
9C93
330
9C88
100
AcDbEntity
  8
0
100
AcDbBlockEnd
  0
BLOCK
  5
9C9E
330
9C94
100
AcDbEntity
  8
0
100
AcDbBlockBegin
  2
*D37
 70
     1
 10
0.0
 20
0.0
 30
0.0
  3
*D37
  1

  0
LINE
  5
AEE2
330
9C94
100
AcDbEntity
  8
30
 62
     0
370
    -2
100
AcDbLine
 10
837.0
 20
361.9999999999996
 30
0.0
 11
767.4562246197718
 21
361.9999999999996
 31
0.0
  0
LINE
  5
AEE3
330
9C94
100
AcDbEntity
  8
30
 62
     0
370
    -2
100
AcDbLine
 10
854.0
 20
32.99999999999954
 30
0.0
 11
767.4562246197718
 21
32.99999999999956
 31
0.0
  0
LINE
  5
AEE4
330
9C94
100
AcDbEntity
  8
30
 62
     0
370
    -2
100
AcDbLine
 10
768.4562246197718
 20
356.9999999999996
 30
0.0
 11
768.4562246197717
 21
37.99999999999956
 31
0.0
  0
MTEXT
  5
AEE5
330
9C94
100
AcDbEntity
  8
30
 62
     0
100
AcDbMText
 10
760.456224619772
 20
185.6084298369998
 30
0.0
 40
10.0
 41
0.0
 71
     5
 72
     1
  1
\A1;329
 11
0.0000000000000001
 21
1.0
 31
0.0
 73
     1
 44
1.0
  0
INSERT
  5
AEE6
330
9C94
100
AcDbEntity
  8
30
 62
     0
370
    -2
100
AcDbBlockReference
  2
_Open
 10
768.4562246197718
 20
361.9999999999996
 30
0.0
 41
5.0
 42
5.0
 43
5.0
 50
90.0
  0
INSERT
  5
AEE7
330
9C94
100
AcDbEntity
  8
30
 62
     0
370
    -2
100
AcDbBlockReference
  2
_Open
 10
768.4562246197717
 20
32.99999999999956
 30
0.0
 41
5.0
 42
5.0
 43
5.0
 50
270.0
  0
POINT
  5
AEE8
330
9C94
100
AcDbEntity
  8
Defpoints
 62
     0
100
AcDbPoint
 10
847.0
 20
361.9999999999996
 30
0.0
  0
POINT
  5
AEE9
330
9C94
100
AcDbEntity
  8
Defpoints
 62
     0
100
AcDbPoint
 10
864.0
 20
32.99999999999954
 30
0.0
  0
POINT
  5
AEEA
330
9C94
100
AcDbEntity
  8
Defpoints
 62
     0
100
AcDbPoint
 10
768.4562246197717
 20
32.99999999999956
 30
0.0
  0
ENDBLK
  5
9C9F
330
9C94
100
AcDbEntity
  8
0
100
AcDbBlockEnd
  0
BLOCK
  5
9CB6
330
9CAD
100
AcDbEntity
  8
0
100
AcDbBlockBegin
  2
*D38
 70
     1
 10
0.0
 20
0.0
 30
0.0
  3
*D38
  1

  0
LINE
  5
AEEB
330
9CAD
100
AcDbEntity
  8
30
 62
     0
370
    -2
100
AcDbLine
 10
951.0
 20
549.9999999999999
 30
0.0
 11
725.0960629859138
 21
550.0
 31
0.0
  0
LINE
  5
AEEC
330
9CAD
100
AcDbEntity
  8
30
 62
     0
370
    -2
100
AcDbLine
 10
911.0
 20
-0.0000000000002245
 30
0.0
 11
725.0960629859137
 21
-0.0000000000001718
 31
0.0
  0
LINE
  5
AEED
330
9CAD
100
AcDbEntity
  8
30
 62
     0
370
    -2
100
AcDbLine
 10
726.0960629859138
 20
545.0
 30
0.0
 11
726.0960629859137
 21
4.999999999999827
 31
0.0
  0
MTEXT
  5
AEEE
330
9CAD
100
AcDbEntity
  8
30
 62
     0
100
AcDbMText
 10
718.0960629859137
 20
274.9999999999999
 30
0.0
 40
10.0
 41
0.0
 71
     5
 72
     1
  1
\A1;550 
 11
0.0000000000000001
 21
1.0
 31
0.0
 73
     1
 44
1.0
  0
INSERT
  5
AEEF
330
9CAD
100
AcDbEntity
  8
30
 62
     0
370
    -2
100
AcDbBlockReference
  2
_Open
 10
726.0960629859138
 20
550.0
 30
0.0
 41
5.0
 42
5.0
 43
5.0
 50
90.0
  0
INSERT
  5
AEF0
330
9CAD
100
AcDbEntity
  8
30
 62
     0
370
    -2
100
AcDbBlockReference
  2
_Open
 10
726.0960629859137
 20
-0.0000000000001721
 30
0.0
 41
5.0
 42
5.0
 43
5.0
 50
270.0
  0
POINT
  5
AEF1
330
9CAD
100
AcDbEntity
  8
Defpoints
 62
     0
100
AcDbPoint
 10
961.0
 20
549.9999999999999
 30
0.0
  0
POINT
  5
AEF2
330
9CAD
100
AcDbEntity
  8
Defpoints
 62
     0
100
AcDbPoint
 10
921.0
 20
-0.0000000000002273
 30
0.0
  0
POINT
  5
AEF3
330
9CAD
100
AcDbEntity
  8
Defpoints
 62
     0
100
AcDbPoint
 10
726.0960629859137
 20
-0.0000000000001721
 30
0.0
  0
ENDBLK
  5
9CB7
330
9CAD
100
AcDbEntity
  8
0
100
AcDbBlockEnd
  0
BLOCK
  5
9CC3
330
9CB8
100
AcDbEntity
  8
0
100
AcDbBlockBegin
  2
*D39
 70
     1
 10
0.0
 20
0.0
 30
0.0
  3
*D39
  1

  0
LINE
  5
AFB3
330
9CB8
100
AcDbEntity
  8
30
 62
     0
370
    -2
100
AcDbLine
 10
854.0
 20
32.99999999999954
 30
0.0
 11
767.4562246197718
 21
32.99999999999956
 31
0.0
  0
LINE
  5
AFB4
330
9CB8
100
AcDbEntity
  8
30
 62
     0
370
    -2
100
AcDbLine
 10
911.0
 20
-0.0000000000002245
 30
0.0
 11
767.4562246197718
 21
-0.0000000000001838
 31
0.0
  0
LINE
  5
AFB5
330
9CB8
100
AcDbEntity
  8
30
 62
     0
370
    -2
100
AcDbLine
 10
768.4562246197717
 20
27.99999999999956
 30
0.0
 11
768.4562246197717
 21
4.999999999999816
 31
0.0
  0
MTEXT
  5
AFB6
330
9CB8
100
AcDbEntity
  8
30
 62
     0
100
AcDbMText
 10
760.456224619772
 20
17.24416644114579
 30
0.0
 40
10.0
 41
0.0
 71
     5
 72
     1
  1
\A1;33
 11
0.0000000000000001
 21
1.0
 31
0.0
 73
     1
 44
1.0
  0
INSERT
  5
AFB7
330
9CB8
100
AcDbEntity
  8
30
 62
     0
370
    -2
100
AcDbBlockReference
  2
_Open
 10
768.4562246197717
 20
32.99999999999956
 30
0.0
 41
5.0
 42
5.0
 43
5.0
 50
90.0
  0
INSERT
  5
AFB8
330
9CB8
100
AcDbEntity
  8
30
 62
     0
370
    -2
100
AcDbBlockReference
  2
_Open
 10
768.4562246197717
 20
-0.0000000000001841
 30
0.0
 41
5.0
 42
5.0
 43
5.0
 50
270.0
  0
POINT
  5
AFB9
330
9CB8
100
AcDbEntity
  8
Defpoints
 62
     0
100
AcDbPoint
 10
864.0
 20
32.99999999999954
 30
0.0
  0
POINT
  5
AFBA
330
9CB8
100
AcDbEntity
  8
Defpoints
 62
     0
100
AcDbPoint
 10
921.0
 20
-0.0000000000002273
 30
0.0
  0
POINT
  5
AFBB
330
9CB8
100
AcDbEntity
  8
Defpoints
 62
     0
100
AcDbPoint
 10
768.4562246197717
 20
-0.0000000000001841
 30
0.0
  0
ENDBLK
  5
9CC4
330
9CB8
100
AcDbEntity
  8
0
100
AcDbBlockEnd
  0
BLOCK
  5
9CE8
330
9CDE
100
AcDbEntity
  8
0
100
AcDbBlockBegin
  2
*D40
 70
     1
 10
0.0
 20
0.0
 30
0.0
  3
*D40
  1

  0
LINE
  5
AEC6
330
9CDE
100
AcDbEntity
  8
30
 62
     0
370
    -2
100
AcDbLine
 10
1058.0
 20
451.9999999999996
 30
0.0
 11
1058.0
 21
596.4335693581042
 31
0.0
  0
LINE
  5
AEC7
330
9CDE
100
AcDbEntity
  8
30
 62
     0
370
    -2
100
AcDbLine
 10
859.0
 20
481.9999999999997
 30
0.0
 11
859.0
 21
596.4335693581042
 31
0.0
  0
LINE
  5
AEC8
330
9CDE
100
AcDbEntity
  8
30
 62
     0
370
    -2
100
AcDbLine
 10
1053.0
 20
595.4335693581042
 30
0.0
 11
864.0
 21
595.4335693581042
 31
0.0
  0
MTEXT
  5
AEC9
330
9CDE
100
AcDbEntity
  8
30
 62
     0
100
AcDbMText
 10
955.02872842019
 20
602.4335693581043
 30
0.0
 40
10.0
 41
0.0
 71
     5
 72
     1
  1
\A1;199
 73
     1
 44
1.0
  0
INSERT
  5
AECA
330
9CDE
100
AcDbEntity
  8
30
 62
     0
370
    -2
100
AcDbBlockReference
  2
_Open
 10
1058.0
 20
595.4335693581042
 30
0.0
 41
5.0
 42
5.0
 43
5.0
  0
INSERT
  5
AECB
330
9CDE
100
AcDbEntity
  8
30
 62
     0
370
    -2
100
AcDbBlockReference
  2
_Open
 10
859.0
 20
595.4335693581042
 30
0.0
 41
5.0
 42
5.0
 43
5.0
 50
180.0
  0
POINT
  5
AECC
330
9CDE
100
AcDbEntity
  8
Defpoints
 62
     0
100
AcDbPoint
 10
1058.0
 20
441.9999999999997
 30
0.0
  0
POINT
  5
AECD
330
9CDE
100
AcDbEntity
  8
Defpoints
 62
     0
100
AcDbPoint
 10
859.0
 20
471.9999999999997
 30
0.0
  0
POINT
  5
AECE
330
9CDE
100
AcDbEntity
  8
Defpoints
 62
     0
100
AcDbPoint
 10
859.0
 20
595.4335693581042
 30
0.0
  0
ENDBLK
  5
9CE9
330
9CDE
100
AcDbEntity
  8
0
100
AcDbBlockEnd
  0
BLOCK
  5
9D0E
330
9D04
100
AcDbEntity
  8
0
100
AcDbBlockBegin
  2
*D41
 70
     1
 10
0.0
 20
0.0
 30
0.0
  3
*D41
  1

  0
LINE
  5
AEAB
330
9D04
100
AcDbEntity
  8
30
 62
     0
370
    -2
100
AcDbLine
 10
1076.0
 20
459.9999999999996
 30
0.0
 11
1282.40392555479
 21
459.9999999999995
 31
0.0
  0
LINE
  5
AEAC
330
9D04
100
AcDbEntity
  8
30
 62
     0
370
    -2
100
AcDbLine
 10
1151.0
 20
-0.0000000000002301
 30
0.0
 11
1282.40392555479
 21
-0.0000000000002674
 31
0.0
  0
LINE
  5
AEAD
330
9D04
100
AcDbEntity
  8
30
 62
     0
370
    -2
100
AcDbLine
 10
1281.403925554791
 20
454.9999999999995
 30
0.0
 11
1281.403925554791
 21
4.999999999999733
 31
0.0
  0
MTEXT
  5
AEAE
330
9D04
100
AcDbEntity
  8
30
 62
     0
100
AcDbMText
 10
1273.403925554791
 20
229.9999999999995
 30
0.0
 40
10.0
 41
0.0
 71
     5
 72
     1
  1
\A1;460
 11
0.0000000000000001
 21
1.0
 31
0.0
 73
     1
 44
1.0
  0
INSERT
  5
AEAF
330
9D04
100
AcDbEntity
  8
30
 62
     0
370
    -2
100
AcDbBlockReference
  2
_Open
 10
1281.403925554791
 20
459.9999999999995
 30
0.0
 41
5.0
 42
5.0
 43
5.0
 50
90.0
  0
INSERT
  5
AEB0
330
9D04
100
AcDbEntity
  8
30
 62
     0
370
    -2
100
AcDbBlockReference
  2
_Open
 10
1281.403925554791
 20
-0.0000000000002671
 30
0.0
 41
5.0
 42
5.0
 43
5.0
 50
270.0
  0
POINT
  5
AEB1
330
9D04
100
AcDbEntity
  8
Defpoints
 62
     0
100
AcDbPoint
 10
1066.0
 20
459.9999999999996
 30
0.0
  0
POINT
  5
AEB2
330
9D04
100
AcDbEntity
  8
Defpoints
 62
     0
100
AcDbPoint
 10
1141.0
 20
-0.0000000000002273
 30
0.0
  0
POINT
  5
AEB3
330
9D04
100
AcDbEntity
  8
Defpoints
 62
     0
100
AcDbPoint
 10
1281.403925554791
 20
-0.0000000000002671
 30
0.0
  0
ENDBLK
  5
9D0F
330
9D04
100
AcDbEntity
  8
0
100
AcDbBlockEnd
  0
BLOCK
  5
9D1B
330
9D10
100
AcDbEntity
  8
0
100
AcDbBlockBegin
  2
*D42
 70
     1
 10
0.0
 20
0.0
 30
0.0
  3
*D42
  1

  0
LINE
  5
AED8
330
9D10
100
AcDbEntity
  8
30
 62
     0
370
    -2
100
AcDbLine
 10
1126.0
 20
48.99999999999975
 30
0.0
 11
1126.0
 21
95.43654578599966
 31
0.0
  0
LINE
  5
AED9
330
9D10
100
AcDbEntity
  8
30
 62
     0
370
    -2
100
AcDbLine
 10
1164.0
 20
93.49999999999955
 30
0.0
 11
1164.0
 21
95.43654578599966
 31
0.0
  0
LINE
  5
AEDA
330
9D10
100
AcDbEntity
  8
30
 62
     0
370
    -2
100
AcDbLine
 10
1131.0
 20
94.43654578599966
 30
0.0
 11
1159.0
 21
94.43654578599966
 31
0.0
  0
LINE
  5
AEDB
330
9D10
100
AcDbEntity
  8
30
 62
     0
370
    -2
100
AcDbLine
 10
1098.587550282537
 20
94.43654578599966
 30
0.0
 11
1126.0
 21
94.43654578599966
 31
0.0
  0
MTEXT
  5
AEDC
330
9D10
100
AcDbEntity
  8
30
 62
     0
100
AcDbMText
 10
1109.682788377776
 20
102.4365457859996
 30
0.0
 40
10.0
 41
0.0
 71
     5
 72
     1
  1
\A1;38
 73
     1
 44
1.0
  0
INSERT
  5
AEDD
330
9D10
100
AcDbEntity
  8
30
 62
     0
370
    -2
100
AcDbBlockReference
  2
_Open
 10
1126.0
 20
94.43654578599966
 30
0.0
 41
5.0
 42
5.0
 43
5.0
 50
180.0
  0
INSERT
  5
AEDE
330
9D10
100
AcDbEntity
  8
30
 62
     0
370
    -2
100
AcDbBlockReference
  2
_Open
 10
1164.0
 20
94.43654578599966
 30
0.0
 41
5.0
 42
5.0
 43
5.0
  0
POINT
  5
AEDF
330
9D10
100
AcDbEntity
  8
Defpoints
 62
     0
100
AcDbPoint
 10
1126.0
 20
38.99999999999975
 30
0.0
  0
POINT
  5
AEE0
330
9D10
100
AcDbEntity
  8
Defpoints
 62
     0
100
AcDbPoint
 10
1164.0
 20
83.49999999999955
 30
0.0
  0
POINT
  5
AEE1
330
9D10
100
AcDbEntity
  8
Defpoints
 62
     0
100
AcDbPoint
 10
1164.0
 20
94.43654578599966
 30
0.0
  0
ENDBLK
  5
9D1C
330
9D10
100
AcDbEntity
  8
0
100
AcDbBlockEnd
  0
BLOCK
  5
9D28
330
9D1D
100
AcDbEntity
  8
0
100
AcDbBlockBegin
  2
*D43
 70
     1
 10
0.0
 20
0.0
 30
0.0
  3
*D43
  1

  0
LINE
  5
AFC5
330
9D1D
100
AcDbEntity
  8
30
 62
     0
370
    -2
100
AcDbLine
 10
1189.499999999998
 20
70.45938472999975
 30
0.0
 11
1189.499999999998
 21
43.6712433529999
 31
0.0
  0
LINE
  5
AFC6
330
9D1D
100
AcDbEntity
  8
30
 62
     0
370
    -2
100
AcDbLine
 10
1179.0
 20
60.49999999999954
 30
0.0
 11
1179.0
 21
43.6712433529999
 31
0.0
  0
MTEXT
  5
AFC7
330
9D1D
100
AcDbEntity
  8
30
 62
     0
100
AcDbMText
 10
1189.499999999998
 20
52.67124335299991
 30
0.0
 40
10.0
 41
0.0
 71
     5
 72
     1
  1
\A1;10.5
 73
     1
 44
1.0
  0
LINE
  5
AFC8
330
9D1D
100
AcDbEntity
  8
30
 62
     0
370
    -2
100
AcDbLine
 10
1189.499999999998
 20
44.67124335299991
 30
0.0
 11
1179.0
 21
44.67124335299991
 31
0.0
  0
POINT
  5
AFC9
330
9D1D
100
AcDbEntity
  8
Defpoints
 62
     0
100
AcDbPoint
 10
1189.499999999998
 20
80.45938472999976
 30
0.0
  0
POINT
  5
AFCA
330
9D1D
100
AcDbEntity
  8
Defpoints
 62
     0
100
AcDbPoint
 10
1179.0
 20
70.49999999999954
 30
0.0
  0
POINT
  5
AFCB
330
9D1D
100
AcDbEntity
  8
Defpoints
 62
     0
100
AcDbPoint
 10
1179.0
 20
44.67124335299991
 30
0.0
  0
ENDBLK
  5
9D29
330
9D1D
100
AcDbEntity
  8
0
100
AcDbBlockEnd
  0
BLOCK
  5
9D35
330
9D2A
100
AcDbEntity
  8
0
100
AcDbBlockBegin
  2
*D44
 70
     1
 10
0.0
 20
0.0
 30
0.0
  3
*D44
  1

  0
LINE
  5
AECF
330
9D2A
100
AcDbEntity
  8
30
 62
     0
370
    -2
100
AcDbLine
 10
1136.0
 20
34.99999999999976
 30
0.0
 11
1249.104021733264
 21
34.99999999999972
 31
0.0
  0
LINE
  5
AED0
330
9D2A
100
AcDbEntity
  8
30
 62
     0
370
    -2
100
AcDbLine
 10
1174.0
 20
-0.0000000000002301
 30
0.0
 11
1249.104021733264
 21
-0.0000000000002514
 31
0.0
  0
LINE
  5
AED1
330
9D2A
100
AcDbEntity
  8
30
 62
     0
370
    -2
100
AcDbLine
 10
1248.104021733264
 20
29.99999999999972
 30
0.0
 11
1248.104021733264
 21
4.999999999999748
 31
0.0
  0
MTEXT
  5
AED2
330
9D2A
100
AcDbEntity
  8
30
 62
     0
100
AcDbMText
 10
1239.104021733264
 20
17.82298464493441
 30
0.0
 40
10.0
 41
0.0
 71
     5
 72
     1
  1
\A1;35
 11
0.0000000000000001
 21
1.0
 31
0.0
 73
     1
 44
1.0
  0
INSERT
  5
AED3
330
9D2A
100
AcDbEntity
  8
30
 62
     0
370
    -2
100
AcDbBlockReference
  2
_Open
 10
1248.104021733264
 20
34.99999999999972
 30
0.0
 41
5.0
 42
5.0
 43
5.0
 50
90.0
  0
INSERT
  5
AED4
330
9D2A
100
AcDbEntity
  8
30
 62
     0
370
    -2
100
AcDbBlockReference
  2
_Open
 10
1248.104021733264
 20
-0.0000000000002511
 30
0.0
 41
5.0
 42
5.0
 43
5.0
 50
270.0
  0
POINT
  5
AED5
330
9D2A
100
AcDbEntity
  8
Defpoints
 62
     0
100
AcDbPoint
 10
1126.0
 20
34.99999999999976
 30
0.0
  0
POINT
  5
AED6
330
9D2A
100
AcDbEntity
  8
Defpoints
 62
     0
100
AcDbPoint
 10
1164.0
 20
-0.0000000000002273
 30
0.0
  0
POINT
  5
AED7
330
9D2A
100
AcDbEntity
  8
Defpoints
 62
     0
100
AcDbPoint
 10
1248.104021733264
 20
-0.0000000000002511
 30
0.0
  0
ENDBLK
  5
9D36
330
9D2A
100
AcDbEntity
  8
0
100
AcDbBlockEnd
  0
BLOCK
  5
A8C3
330
A8BB
100
AcDbEntity
  8
0
100
AcDbBlockBegin
  2
*D45
 70
     1
 10
0.0
 20
0.0
 30
0.0
  3
*D45
  1

  0
LINE
  5
AFD5
330
A8BB
100
AcDbEntity
  8
30
 62
     0
370
    -2
100
AcDbLine
 10
1164.0
 20
525.0
 30
0.0
 11
1164.0
 21
530.8015095079995
 31
0.0
  0
LINE
  5
AFD6
330
A8BB
100
AcDbEntity
  8
30
 62
     0
370
    -2
100
AcDbLine
 10
1179.0
 20
525.0
 30
0.0
 11
1179.0
 21
530.8015095079995
 31
0.0
  0
LINE
  5
AFD7
330
A8BB
100
AcDbEntity
  8
30
 62
     0
370
    -2
100
AcDbLine
 10
1164.0
 20
529.8015095079995
 30
0.0
 11
1179.0
 21
529.8015095079995
 31
0.0
  0
MTEXT
  5
AFD8
330
A8BB
100
AcDbEntity
  8
30
 62
     0
100
AcDbMText
 10
1171.499999999999
 20
537.8015095079994
 30
0.0
 40
10.0
 41
0.0
 71
     5
 72
     1
  1
\A1;15
 73
     1
 44
1.0
  0
POINT
  5
AFD9
330
A8BB
100
AcDbEntity
  8
Defpoints
 62
     0
100
AcDbPoint
 10
1164.0
 20
515.0
 30
0.0
  0
POINT
  5
AFDA
330
A8BB
100
AcDbEntity
  8
Defpoints
 62
     0
100
AcDbPoint
 10
1179.0
 20
515.0
 30
0.0
  0
POINT
  5
AFDB
330
A8BB
100
AcDbEntity
  8
Defpoints
 62
     0
100
AcDbPoint
 10
1179.0
 20
529.8015095079995
 30
0.0
  0
ENDBLK
  5
A8C4
330
A8BB
100
AcDbEntity
  8
0
100
AcDbBlockEnd
  0
BLOCK
  5
A8CE
330
A8C6
100
AcDbEntity
  8
0
100
AcDbBlockBegin
  2
*D46
 70
     1
 10
0.0
 20
0.0
 30
0.0
  3
*D46
  1

  0
LINE
  5
AA55
330
A8C6
100
AcDbEntity
  8
30
 62
     0
370
    -2
100
AcDbLine
 10
120.0000000000002
 20
1320.0
 30
0.0
 11
176.0
 21
1320.0
 31
0.0
  0
LINE
  5
AA56
330
A8C6
100
AcDbEntity
  8
30
 62
     0
370
    -2
100
AcDbLine
 10
120.0000000000002
 20
1305.0
 30
0.0
 11
176.0
 21
1305.0
 31
0.0
  0
LINE
  5
AA57
330
A8C6
100
AcDbEntity
  8
30
 62
     0
370
    -2
100
AcDbLine
 10
175.0
 20
1320.0
 30
0.0
 11
175.0
 21
1305.0
 31
0.0
  0
MTEXT
  5
AA58
330
A8C6
100
AcDbEntity
  8
30
 62
     0
100
AcDbMText
 10
166.9999999999998
 20
1312.5
 30
0.0
 40
10.0
 41
0.0
 71
     5
 72
     1
  1
\A1;15
 11
0.0000000000000001
 21
1.0
 31
0.0
 73
     1
 44
1.0
  0
POINT
  5
AA59
330
A8C6
100
AcDbEntity
  8
Defpoints
 62
     0
100
AcDbPoint
 10
110.0000000000002
 20
1320.0
 30
0.0
  0
POINT
  5
AA5A
330
A8C6
100
AcDbEntity
  8
Defpoints
 62
     0
100
AcDbPoint
 10
110.0000000000002
 20
1305.0
 30
0.0
  0
POINT
  5
AA5B
330
A8C6
100
AcDbEntity
  8
Defpoints
 62
     0
100
AcDbPoint
 10
175.0
 20
1305.0
 30
0.0
  0
ENDBLK
  5
A8CF
330
A8C6
100
AcDbEntity
  8
0
100
AcDbBlockEnd
  0
BLOCK
  5
A902
330
A8F8
100
AcDbEntity
  8
0
100
AcDbBlockBegin
  2
*D47
 70
     1
 10
0.0
 20
0.0
 30
0.0
  3
*D47
  1

  0
LINE
  5
AFDC
330
A8F8
100
AcDbEntity
  8
30
 62
     0
370
    -2
100
AcDbLine
 10
-0.0001008250007863
 20
973.0
 30
0.0
 11
-0.0001008250007877
 21
951.0091017753019
 31
0.0
  0
LINE
  5
AFDD
330
A8F8
100
AcDbEntity
  8
30
 62
     0
370
    -2
100
AcDbLine
 10
118.9998991749992
 20
973.0
 30
0.0
 11
118.9998991749992
 21
951.0091017753019
 31
0.0
  0
LINE
  5
AFDE
330
A8F8
100
AcDbEntity
  8
30
 62
     0
370
    -2
100
AcDbLine
 10
4.999899174999212
 20
952.0091017753019
 30
0.0
 11
113.9998991749991
 21
952.0091017753019
 31
0.0
  0
INSERT
  5
AFDF
330
A8F8
100
AcDbEntity
  8
30
 62
     0
370
    -2
100
AcDbBlockReference
  2
_Open
 10
-0.0001008250007876
 20
952.0091017753019
 30
0.0
 41
5.0
 42
5.0
 43
5.0
 50
180.0
  0
INSERT
  5
AFE0
330
A8F8
100
AcDbEntity
  8
30
 62
     0
370
    -2
100
AcDbBlockReference
  2
_Open
 10
118.9998991749992
 20
952.0091017753019
 30
0.0
 41
5.0
 42
5.0
 43
5.0
  0
MTEXT
  5
AFE1
330
A8F8
100
AcDbEntity
  8
30
 62
     0
100
AcDbMText
 10
59.4998991749992
 20
960.0091017753019
 30
0.0
 40
10.0
 41
0.0
 71
     5
 72
     1
  1
\A1;119
 73
     1
 44
1.0
  0
POINT
  5
AFE2
330
A8F8
100
AcDbEntity
  8
Defpoints
 62
     0
100
AcDbPoint
 10
-0.0001008250007857
 20
983.0
 30
0.0
  0
POINT
  5
AFE3
330
A8F8
100
AcDbEntity
  8
Defpoints
 62
     0
100
AcDbPoint
 10
118.9998991749992
 20
983.0
 30
0.0
  0
POINT
  5
AFE4
330
A8F8
100
AcDbEntity
  8
Defpoints
 62
     0
100
AcDbPoint
 10
118.9998991749992
 20
952.0091017753019
 30
0.0
  0
ENDBLK
  5
A903
330
A8F8
100
AcDbEntity
  8
0
100
AcDbBlockEnd
  0
BLOCK
  5
A90E
330
A904
100
AcDbEntity
  8
0
100
AcDbBlockBegin
  2
*D48
 70
     1
 10
0.0
 20
0.0
 30
0.0
  3
*D48
  1

  0
LINE
  5
AFE5
330
A904
100
AcDbEntity
  8
30
 62
     0
370
    -2
100
AcDbLine
 10
-0.0001008250007863
 20
973.0
 30
0.0
 11
-0.0001008250007876
 21
951.1757684419686
 31
0.0
  0
LINE
  5
AFE6
330
A904
100
AcDbEntity
  8
30
 62
     0
370
    -2
100
AcDbLine
 10
-119.0001008250004
 20
973.0
 30
0.0
 11
-119.0001008250004
 21
951.1757684419686
 31
0.0
  0
LINE
  5
AFE7
330
A904
100
AcDbEntity
  8
30
 62
     0
370
    -2
100
AcDbLine
 10
-5.000100825000787
 20
952.1757684419686
 30
0.0
 11
-114.0001008250004
 21
952.1757684419686
 31
0.0
  0
INSERT
  5
AFE8
330
A904
100
AcDbEntity
  8
30
 62
     0
370
    -2
100
AcDbBlockReference
  2
_Open
 10
-0.0001008250007876
 20
952.1757684419686
 30
0.0
 41
5.0
 42
5.0
 43
5.0
  0
INSERT
  5
AFE9
330
A904
100
AcDbEntity
  8
30
 62
     0
370
    -2
100
AcDbBlockReference
  2
_Open
 10
-119.0001008250004
 20
952.1757684419686
 30
0.0
 41
5.0
 42
5.0
 43
5.0
 50
180.0
  0
MTEXT
  5
AFEA
330
A904
100
AcDbEntity
  8
30
 62
     0
100
AcDbMText
 10
-59.50010082500059
 20
960.1757684419686
 30
0.0
 40
10.0
 41
0.0
 71
     5
 72
     1
  1
\A1;119
 73
     1
 44
1.0
  0
POINT
  5
AFEB
330
A904
100
AcDbEntity
  8
Defpoints
 62
     0
100
AcDbPoint
 10
-0.0001008250007857
 20
983.0
 30
0.0
  0
POINT
  5
AFEC
330
A904
100
AcDbEntity
  8
Defpoints
 62
     0
100
AcDbPoint
 10
-119.0001008250004
 20
983.0
 30
0.0
  0
POINT
  5
AFED
330
A904
100
AcDbEntity
  8
Defpoints
 62
     0
100
AcDbPoint
 10
-119.0001008250004
 20
952.1757684419686
 30
0.0
  0
ENDBLK
  5
A90F
330
A904
100
AcDbEntity
  8
0
100
AcDbBlockEnd
  0
BLOCK
  5
A994
330
A98C
100
AcDbEntity
  8
0
100
AcDbBlockBegin
  2
*D49
 70
     1
 10
0.0
 20
0.0
 30
0.0
  3
*D49
  1

  0
LINE
  5
AFEE
330
A98C
100
AcDbEntity
  8
30
 62
     0
370
    -2
100
AcDbLine
 10
1880.0
 20
515.0
 30
0.0
 11
1864.0
 21
515.0
 31
0.0
  0
LINE
  5
AFEF
330
A98C
100
AcDbEntity
  8
30
 62
     0
370
    -2
100
AcDbLine
 10
1892.5
 20
500.0
 30
0.0
 11
1864.0
 21
500.0
 31
0.0
  0
LINE
  5
AFF0
330
A98C
100
AcDbEntity
  8
30
 62
     0
370
    -2
100
AcDbLine
 10
1865.0
 20
515.0
 30
0.0
 11
1865.0
 21
500.0
 31
0.0
  0
MTEXT
  5
AFF1
330
A98C
100
AcDbEntity
  8
30
 62
     0
100
AcDbMText
 10
1857.0
 20
507.5000000000003
 30
0.0
 40
10.0
 41
0.0
 71
     5
 72
     1
  1
\A1;15
 11
0.0000000000000001
 21
1.0
 31
0.0
 73
     1
 44
1.0
  0
POINT
  5
AFF2
330
A98C
100
AcDbEntity
  8
Defpoints
 62
     0
100
AcDbPoint
 10
1890.0
 20
515.0
 30
0.0
  0
POINT
  5
AFF3
330
A98C
100
AcDbEntity
  8
Defpoints
 62
     0
100
AcDbPoint
 10
1902.5
 20
500.0
 30
0.0
  0
POINT
  5
AFF4
330
A98C
100
AcDbEntity
  8
Defpoints
 62
     0
100
AcDbPoint
 10
1865.0
 20
500.0
 30
0.0
  0
ENDBLK
  5
A995
330
A98C
100
AcDbEntity
  8
0
100
AcDbBlockEnd
  0
BLOCK
  5
AA11
330
AA07
100
AcDbEntity
  8
0
100
AcDbBlockBegin
  2
*D50
 70
     1
 10
0.0
 20
0.0
 30
0.0
  3
*D50
  1

  0
LINE
  5
AA5C
330
AA07
100
AcDbEntity
  8
30
 62
     0
370
    -2
100
AcDbLine
 10
168.5000000000003
 20
1277.0
 30
0.0
 11
223.0
 21
1277.0
 31
0.0
  0
LINE
  5
AA5D
330
AA07
100
AcDbEntity
  8
30
 62
     0
370
    -2
100
AcDbLine
 10
168.5000000000002
 20
1000.0
 30
0.0
 11
223.0
 21
1000.0
 31
0.0
  0
LINE
  5
AA5E
330
AA07
100
AcDbEntity
  8
30
 62
     0
370
    -2
100
AcDbLine
 10
222.0
 20
1272.0
 30
0.0
 11
222.0
 21
1005.0
 31
0.0
  0
INSERT
  5
AA5F
330
AA07
100
AcDbEntity
  8
30
 62
     0
370
    -2
100
AcDbBlockReference
  2
_Open
 10
222.0
 20
1277.0
 30
0.0
 41
5.0
 42
5.0
 43
5.0
 50
90.0
  0
INSERT
  5
AA60
330
AA07
100
AcDbEntity
  8
30
 62
     0
370
    -2
100
AcDbBlockReference
  2
_Open
 10
222.0
 20
1000.0
 30
0.0
 41
5.0
 42
5.0
 43
5.0
 50
270.0
  0
MTEXT
  5
AA61
330
AA07
100
AcDbEntity
  8
30
 62
     0
100
AcDbMText
 10
213.9999999999997
 20
1138.5
 30
0.0
 40
10.0
 41
0.0
 71
     5
 72
     1
  1
\A1;277
 11
0.0000000000000001
 21
1.0
 31
0.0
 73
     1
 44
1.0
  0
POINT
  5
AA62
330
AA07
100
AcDbEntity
  8
Defpoints
 62
     0
100
AcDbPoint
 10
158.5000000000003
 20
1277.0
 30
0.0
  0
POINT
  5
AA63
330
AA07
100
AcDbEntity
  8
Defpoints
 62
     0
100
AcDbPoint
 10
158.4999999999999
 20
1000.0
 30
0.0
  0
POINT
  5
AA64
330
AA07
100
AcDbEntity
  8
Defpoints
 62
     0
100
AcDbPoint
 10
222.0
 20
1000.0
 30
0.0
  0
ENDBLK
  5
AA12
330
AA07
100
AcDbEntity
  8
0
100
AcDbBlockEnd
  0
BLOCK
  5
AA1E
330
AA14
100
AcDbEntity
  8
0
100
AcDbBlockBegin
  2
*D51
 70
     1
 10
0.0
 20
0.0
 30
0.0
  3
*D51
  1

  0
LINE
  5
AA65
330
AA14
100
AcDbEntity
  8
30
 62
     0
370
    -2
100
AcDbLine
 10
168.5000000000003
 20
1277.0
 30
0.0
 11
221.0
 21
1277.0
 31
0.0
  0
LINE
  5
AA66
330
AA14
100
AcDbEntity
  8
30
 62
     0
370
    -2
100
AcDbLine
 10
120.0000000000002
 20
1320.0
 30
0.0
 11
221.0
 21
1320.0
 31
0.0
  0
LINE
  5
AA67
330
AA14
100
AcDbEntity
  8
30
 62
     0
370
    -2
100
AcDbLine
 10
220.0
 20
1282.0
 30
0.0
 11
220.0
 21
1315.0
 31
0.0
  0
INSERT
  5
AA68
330
AA14
100
AcDbEntity
  8
30
 62
     0
370
    -2
100
AcDbBlockReference
  2
_Open
 10
220.0
 20
1277.0
 30
0.0
 41
5.0
 42
5.0
 43
5.0
 50
270.0
  0
INSERT
  5
AA69
330
AA14
100
AcDbEntity
  8
30
 62
     0
370
    -2
100
AcDbBlockReference
  2
_Open
 10
220.0
 20
1320.0
 30
0.0
 41
5.0
 42
5.0
 43
5.0
 50
90.0
  0
MTEXT
  5
AA6A
330
AA14
100
AcDbEntity
  8
30
 62
     0
100
AcDbMText
 10
211.9999999999995
 20
1298.499999999997
 30
0.0
 40
10.0
 41
0.0
 71
     5
 72
     1
  1
\A1;43
 11
0.0000000000000001
 21
1.0
 31
0.0
 73
     1
 44
1.0
  0
POINT
  5
AA6B
330
AA14
100
AcDbEntity
  8
Defpoints
 62
     0
100
AcDbPoint
 10
158.5000000000003
 20
1277.0
 30
0.0
  0
POINT
  5
AA6C
330
AA14
100
AcDbEntity
  8
Defpoints
 62
     0
100
AcDbPoint
 10
110.0000000000002
 20
1320.0
 30
0.0
  0
POINT
  5
AA6D
330
AA14
100
AcDbEntity
  8
Defpoints
 62
     0
100
AcDbPoint
 10
220.0
 20
1320.0
 30
0.0
  0
ENDBLK
  5
AA1F
330
AA14
100
AcDbEntity
  8
0
100
AcDbBlockEnd
  0
BLOCK
  5
AA2B
330
AA21
100
AcDbEntity
  8
0
100
AcDbBlockBegin
  2
*D52
 70
     1
 10
0.0
 20
0.0
 30
0.0
  3
*D52
  1

  0
LINE
  5
AFF5
330
AA21
100
AcDbEntity
  8
30
 62
     0
370
    -2
100
AcDbLine
 10
859.0
 20
-87.00000000000045
 30
0.0
 11
859.0
 21
-196.1984904920003
 31
0.0
  0
LINE
  5
AFF6
330
AA21
100
AcDbEntity
  8
30
 62
     0
370
    -2
100
AcDbLine
 10
1179.0
 20
-75.00000000000023
 30
0.0
 11
1179.0
 21
-196.1984904920003
 31
0.0
  0
LINE
  5
AFF7
330
AA21
100
AcDbEntity
  8
30
 62
     0
370
    -2
100
AcDbLine
 10
864.0
 20
-195.1984904920004
 30
0.0
 11
1174.0
 21
-195.1984904920004
 31
0.0
  0
INSERT
  5
AFF8
330
AA21
100
AcDbEntity
  8
30
 62
     0
370
    -2
100
AcDbBlockReference
  2
_Open
 10
859.0
 20
-195.1984904920004
 30
0.0
 41
5.0
 42
5.0
 43
5.0
 50
180.0
  0
INSERT
  5
AFF9
330
AA21
100
AcDbEntity
  8
30
 62
     0
370
    -2
100
AcDbBlockReference
  2
_Open
 10
1179.0
 20
-195.1984904920004
 30
0.0
 41
5.0
 42
5.0
 43
5.0
  0
MTEXT
  5
AFFA
330
AA21
100
AcDbEntity
  8
30
 62
     0
100
AcDbMText
 10
1019.0
 20
-187.1984904920003
 30
0.0
 40
10.0
 41
0.0
 71
     5
 72
     1
  1
\A1;320
 73
     1
 44
1.0
  0
POINT
  5
AFFB
330
AA21
100
AcDbEntity
  8
Defpoints
 62
     0
100
AcDbPoint
 10
859.0
 20
-77.00000000000045
 30
0.0
  0
POINT
  5
AFFC
330
AA21
100
AcDbEntity
  8
Defpoints
 62
     0
100
AcDbPoint
 10
1179.0
 20
-65.00000000000023
 30
0.0
  0
POINT
  5
AFFD
330
AA21
100
AcDbEntity
  8
Defpoints
 62
     0
100
AcDbPoint
 10
1179.0
 20
-195.1984904920004
 30
0.0
  0
ENDBLK
  5
AA2C
330
AA21
100
AcDbEntity
  8
0
100
AcDbBlockEnd
  0
BLOCK
  5
AA38
330
AA2E
100
AcDbEntity
  8
0
100
AcDbBlockBegin
  2
*D53
 70
     1
 10
0.0
 20
0.0
 30
0.0
  3
*D53
  1

  0
LINE
  5
AA3A
330
AA2E
100
AcDbEntity
  8
30
 62
     0
370
    -2
100
AcDbLine
 10
120.0000000000002
 20
1320.0
 30
0.0
 11
315.0
 21
1320.0
 31
0.0
  0
LINE
  5
AA3B
330
AA2E
100
AcDbEntity
  8
30
 62
     0
370
    -2
100
AcDbLine
 10
168.5000000000002
 20
1000.0
 30
0.0
 11
315.0
 21
999.9999999999996
 31
0.0
  0
LINE
  5
AA3C
330
AA2E
100
AcDbEntity
  8
30
 62
     0
370
    -2
100
AcDbLine
 10
314.0
 20
1315.0
 30
0.0
 11
314.0
 21
1004.999999999999
 31
0.0
  0
INSERT
  5
AA3D
330
AA2E
100
AcDbEntity
  8
30
 62
     0
370
    -2
100
AcDbBlockReference
  2
_Open
 10
314.0
 20
1320.0
 30
0.0
 41
5.0
 42
5.0
 43
5.0
 50
90.0
  0
INSERT
  5
AA3E
330
AA2E
100
AcDbEntity
  8
30
 62
     0
370
    -2
100
AcDbBlockReference
  2
_Open
 10
314.0
 20
999.9999999999996
 30
0.0
 41
5.0
 42
5.0
 43
5.0
 50
270.0
  0
MTEXT
  5
AA3F
330
AA2E
100
AcDbEntity
  8
30
 62
     0
100
AcDbMText
 10
305.9999999999998
 20
1160.0
 30
0.0
 40
10.0
 41
0.0
 71
     5
 72
     1
  1
\A1;320
 11
0.0000000000000001
 21
1.0
 31
0.0
 73
     1
 44
1.0
  0
POINT
  5
AA40
330
AA2E
100
AcDbEntity
  8
Defpoints
 62
     0
100
AcDbPoint
 10
110.0000000000002
 20
1320.0
 30
0.0
  0
POINT
  5
AA41
330
AA2E
100
AcDbEntity
  8
Defpoints
 62
     0
100
AcDbPoint
 10
158.4999999999999
 20
1000.0
 30
0.0
  0
POINT
  5
AA42
330
AA2E
100
AcDbEntity
  8
Defpoints
 62
     0
100
AcDbPoint
 10
314.0
 20
999.9999999999996
 30
0.0
  0
ENDBLK
  5
AA39
330
AA2E
100
AcDbEntity
  8
0
100
AcDbBlockEnd
  0
BLOCK
  5
AA79
330
AA6F
100
AcDbEntity
  8
0
100
AcDbBlockBegin
  2
*D54
 70
     1
 10
0.0
 20
0.0
 30
0.0
  3
*D54
  1

  0
LINE
  5
AA70
330
AA6F
100
AcDbEntity
  8
30
 62
     0
370
    -2
100
AcDbLine
 10
120.0000000000002
 20
1305.0
 30
0.0
 11
232.0
 21
1305.0
 31
0.0
  0
LINE
  5
AA71
330
AA6F
100
AcDbEntity
  8
30
 62
     0
370
    -2
100
AcDbLine
 10
120.0000000000002
 20
1277.0
 30
0.0
 11
232.0
 21
1277.0
 31
0.0
  0
LINE
  5
AA72
330
AA6F
100
AcDbEntity
  8
30
 62
     0
370
    -2
100
AcDbLine
 10
231.0
 20
1300.0
 30
0.0
 11
231.0
 21
1282.0
 31
0.0
  0
INSERT
  5
AA73
330
AA6F
100
AcDbEntity
  8
30
 62
     0
370
    -2
100
AcDbBlockReference
  2
_Open
 10
231.0
 20
1305.0
 30
0.0
 41
5.0
 42
5.0
 43
5.0
 50
90.0
  0
INSERT
  5
AA74
330
AA6F
100
AcDbEntity
  8
30
 62
     0
370
    -2
100
AcDbBlockReference
  2
_Open
 10
231.0
 20
1277.0
 30
0.0
 41
5.0
 42
5.0
 43
5.0
 50
270.0
  0
MTEXT
  5
AA75
330
AA6F
100
AcDbEntity
  8
30
 62
     0
100
AcDbMText
 10
222.9999999999998
 20
1291.0
 30
0.0
 40
10.0
 41
0.0
 71
     5
 72
     1
  1
\A1;28
 11
0.0000000000000001
 21
1.0
 31
0.0
 73
     1
 44
1.0
  0
POINT
  5
AA76
330
AA6F
100
AcDbEntity
  8
Defpoints
 62
     0
100
AcDbPoint
 10
110.0000000000002
 20
1305.0
 30
0.0
  0
POINT
  5
AA77
330
AA6F
100
AcDbEntity
  8
Defpoints
 62
     0
100
AcDbPoint
 10
110.0000000000002
 20
1277.0
 30
0.0
  0
POINT
  5
AA78
330
AA6F
100
AcDbEntity
  8
Defpoints
 62
     0
100
AcDbPoint
 10
231.0
 20
1277.0
 30
0.0
  0
ENDBLK
  5
AA7A
330
AA6F
100
AcDbEntity
  8
0
100
AcDbBlockEnd
  0
ENDSEC
  0
SECTION
  2
ENTITIES
  0
TEXT
  5
47C5
330
1E
100
AcDbEntity
  8
30
100
AcDbText
 10
-799.4610932706903
 20
1284.523724235808
 30
0.0
 40
10.0
  1
%%C14
100
AcDbText
  0
DIMENSION
  5
47D4
330
1E
100
AcDbEntity
  8
30
100
AcDbDimension
  2
*D1
 10
-999.9999999999996
 20
948.3842652287068
 30
0.0
 11
-1082.499999999999
 21
956.3842652287068
 31
0.0
 70
    32
 71
     5
 42
165.0000000000003
  3
Standard
100
AcDbAlignedDimension
 13
-1165.0
 23
1072.0
 33
0.0
 14
-999.9999999999996
 24
1000.0
 34
0.0
100
AcDbRotatedDimension
  0
DIMENSION
  5
47D5
330
1E
100
AcDbEntity
  8
30
100
AcDbDimension
  2
*D2
 10
-745.6453671497756
 20
1081.999999999996
 30
0.0
 11
-753.6453671497757
 21
1164.499999999996
 31
0.0
 70
    32
 71
     5
 42
165.0000000000009
  3
Standard
100
AcDbAlignedDimension
 13
-824.9999999999996
 23
1246.999999999997
 33
0.0
 14
-825.0000000000001
 24
1081.999999999996
 34
0.0
 50
90.0
100
AcDbRotatedDimension
  0
LINE
  5
47D8
330
1E
100
AcDbEntity
  8
12
100
AcDbLine
 10
-824.9999999999996
 20
1246.999999999997
 30
0.0
 11
-844.9999999999997
 21
1246.999999999997
 31
0.0
  0
CIRCLE
  5
47D9
330
1E
100
AcDbEntity
  8
12
100
AcDbCircle
 10
-834.9999999999996
 20
1246.999999999997
 30
0.0
 40
7.0
  0
LINE
  5
47DA
330
1E
100
AcDbEntity
  8
12
100
AcDbLine
 10
-834.9999999999996
 20
1256.999999999996
 30
0.0
 11
-834.9999999999996
 21
1236.999999999996
 31
0.0
  0
CIRCLE
  5
47E4
330
1E
100
AcDbEntity
  8
12
100
AcDbCircle
 10
-834.9999999999996
 20
1081.999999999996
 30
0.0
 40
7.0
  0
LINE
  5
47E5
330
1E
100
AcDbEntity
  8
12
100
AcDbLine
 10
-825.0000000000001
 20
1081.999999999996
 30
0.0
 11
-845.0
 21
1081.999999999996
 31
0.0
  0
LINE
  5
47E6
330
1E
100
AcDbEntity
  8
12
100
AcDbLine
 10
-834.9999999999996
 20
1091.999999999998
 30
0.0
 11
-834.9999999999996
 21
1071.999999999998
 31
0.0
  0
LINE
  5
47EF
330
1E
100
AcDbEntity
  8
16
100
AcDbLine
 10
-999.9999999999996
 20
1000.0
 30
0.0
 11
-999.9999999999996
 21
1343.000122
 31
0.0
  0
LINE
  5
47F0
330
1E
100
AcDbEntity
  8
12
100
AcDbLine
 10
-1154.999999999998
 20
1247.000122
 30
0.0
 11
-1174.999999999998
 21
1247.000122
 31
0.0
  0
CIRCLE
  5
47F1
330
1E
100
AcDbEntity
  8
12
100
AcDbCircle
 10
-1164.999999999998
 20
1247.000122
 30
0.0
 40
7.0
  0
LINE
  5
47F2
330
1E
100
AcDbEntity
  8
12
100
AcDbLine
 10
-1164.999999999998
 20
1257.000121999999
 30
0.0
 11
-1164.999999999998
 21
1237.000121999999
 31
0.0
  0
CIRCLE
  5
47F3
330
1E
100
AcDbEntity
  8
12
100
AcDbCircle
 10
-1164.999999999998
 20
1081.999999999996
 30
0.0
 40
7.0
  0
LINE
  5
47F4
330
1E
100
AcDbEntity
  8
12
100
AcDbLine
 10
-1155.0
 20
1082.0
 30
0.0
 11
-1175.0
 21
1082.0
 31
0.0
  0
LINE
  5
47F5
330
1E
100
AcDbEntity
  8
12
100
AcDbLine
 10
-1165.0
 20
1092.0
 30
0.0
 11
-1165.0
 21
1072.0
 31
0.0
  0
LINE
  5
4815
330
1E
100
AcDbEntity
  8
16
100
AcDbLine
 10
-1000.0
 20
649.9999849999998
 30
0.0
 11
-1000.0
 21
-100.0
 31
0.0
  0
MTEXT
  5
4816
330
1E
100
AcDbEntity
  8
19
100
AcDbMText
 10
193.0507158932632
 20
-238.0159935205936
 30
0.0
 40
10.0
 41
0.0
 71
     1
 72
     1
  1
 \A1;
 73
     1
 44
1.0
  0
MTEXT
  5
4821
330
1E
100
AcDbEntity
  8
19
100
AcDbMText
 10
-806.9492841067367
 20
749.9840064794061
 30
0.0
 40
10.0
 41
0.0
 71
     1
 72
     1
  1
 \A1;
 73
     1
 44
1.0
  0
LINE
  5
483D
330
1E
100
AcDbEntity
  8
16
100
AcDbLine
 10
0.0
 20
609.0903448879141
 30
0.0
 11
0.0
 21
-50.19847549200025
 31
0.0
  0
TEXT
  5
49B8
330
1E
100
AcDbEntity
  8
19
100
AcDbText
 10
2045.888184
 20
1309.478026999999
 30
0.0
 40
30.0
  1
FIXED TYPE
 41
0.833333
100
AcDbText
  0
TEXT
  5
49BA
330
1E
100
AcDbEntity
  8
19
100
AcDbText
 10
1766.606201
 20
1314.029445270118
 30
0.0
 40
25.0
  1
AR212S  3P
100
AcDbText
  0
TEXT
  5
4ACC
330
1E
100
AcDbEntity
  8
19
100
AcDbText
 10
1738.013184
 20
1117.178101
 30
0.0
 40
20.0
  1
* : CONDUCTOR OVERLAP.MAX
100
AcDbText
  0
LEADER
  5
57F8
330
1E
100
AcDbEntity
  8
30
100
AcDbLeader
  3
Standard
 76
     3
 10
-834.9999999999996
 20
1253.999999999995
 30
0.0
 10
-807.3635968900136
 20
1279.717112470873
 30
0.0
 10
-762.0646758933266
 20
1279.717112470873
 30
0.0
1001
ACAD
1000
DSTYLE
1002
{
1070
     5
1000
OPEN
1070
   342
1005
3B2
1002
}
  0
LINE
  5
58B0
330
1E
100
AcDbEntity
  8
Defpoints
100
AcDbLine
 10
-1498.49864938606
 20
0.0
 30
0.0
 11
2621.04102329482
 21
0.0
 31
0.0
  0
LINE
  5
5A04
330
1E
100
AcDbEntity
  8
Defpoints
100
AcDbLine
 10
-1500.0
 20
1000.0
 30
0.0
 11
1000.0
 21
1000.0
 31
0.0
  0
DIMENSION
  5
5C97
330
1E
100
AcDbEntity
  8
30
100
AcDbDimension
  2
*D3
 10
-745.6453671497756
 20
999.9999999999998
 30
0.0
 11
-753.6453671497757
 21
1040.999999999997
 31
0.0
 70
    32
 71
     5
 42
81.99999999999613
  3
Standard
100
AcDbAlignedDimension
 13
-827.9999999999997
 23
1081.999999999996
 33
0.0
 14
-827.9999999999997
 24
1000.0
 34
0.0
 50
90.0
100
AcDbRotatedDimension
  0
DIMENSION
  5
5CC8
330
1E
100
AcDbEntity
  8
30
100
AcDbDimension
  2
*D4
 10
-834.9999999999996
 20
948.3842652287068
 30
0.0
 11
-917.4999999999997
 21
956.3842652287068
 31
0.0
 70
    32
 71
     5
 42
165.0
  3
Standard
100
AcDbAlignedDimension
 13
-999.9999999999996
 23
998.0
 33
0.0
 14
-834.9999999999996
 24
1071.999999999998
 34
0.0
100
AcDbRotatedDimension
  0
LINE
  5
6A68
330
1E
100
AcDbEntity
  8
16
100
AcDbLine
 10
2000.0
 20
-31.00920100000007
 30
0.0
 11
2000.0
 21
528.6787719999998
 31
0.0
  0
TEXT
  5
6F91
330
1E
100
AcDbEntity
  8
19
100
AcDbText
 10
1784.331070345976
 20
1251.378903112565
 30
0.0
 40
30.0
  1
(FRONT CONNECTION）
 41
0.833333
100
AcDbText
  0
TEXT
  5
7CAB
330
1E
100
AcDbEntity
  8
19
100
AcDbText
 10
1766.606201
 20
1353.567873130905
 30
0.0
 40
25.0
  1
AR208S  3P
100
AcDbText
  0
MTEXT
  5
7E44
330
1E
100
AcDbEntity
  8
30
100
AcDbMText
 10
1593.944797869426
 20
-94.55833755944604
 30
0.0
 40
10.0
 41
0.0
 71
     1
 72
     1
  1
\A1;
 73
     1
 44
1.0
  0
LEADER
  5
975C
330
1E
100
AcDbEntity
  8
19
100
AcDbLeader
  3
Standard
 76
     3
 10
1016.465290281999
 20
-79.40515634200051
 30
0.0
 10
895.7482048910001
 20
-322.5899205200001
 30
0.0
 10
553.4108369979999
 20
-322.5899205200001
 30
0.0
  0
MTEXT
  5
975D
330
1E
100
AcDbEntity
  8
19
100
AcDbMText
 10
553.4316304389998
 20
-295.2168115056268
 30
0.0
 40
20.0
 41
0.0
 71
     1
 72
     5
  1
MAINTENANCE SPACE
 73
     1
 44
1.0
  0
DIMENSION
  5
975E
330
1E
100
AcDbEntity
  8
30
100
AcDbDimension
  2
*D13
 10
-179.9999999999995
 20
-185.6597756850474
 30
0.0
 11
-76.63675420100003
 21
-185.6597756850474
 31
0.0
 70
   160
 71
     5
 42
179.9999999999997
  3
Standard
100
AcDbAlignedDimension
 13
0.0000000000002274
 23
-148.6413961729998
 33
0.0
 14
-179.9999999999995
 24
0.0000000000000028
 34
0.0
100
AcDbRotatedDimension
  0
DIMENSION
  5
975F
330
1E
100
AcDbEntity
  8
30
100
AcDbDimension
  2
*D14
 10
0.0000000000002264
 20
-185.6597756850474
 30
0.0
 11
80.98967571400022
 21
-185.6597756850474
 31
0.0
 70
   160
 71
     5
 42
179.9999999999999
  3
Standard
100
AcDbAlignedDimension
 13
180.0000000000002
 23
0.0000000000000028
 33
0.0
 14
0.0000000000002274
 24
-169.9598917089994
 34
0.0
100
AcDbRotatedDimension
  0
LEADER
  5
9760
330
1E
100
AcDbEntity
  8
19
100
AcDbLeader
  3
Standard
 74
     0
 76
     3
 10
-1128.880913773
 20
547.9391534589997
 30
0.0
 10
-1176.682251760998
 20
657.9143388150002
 30
0.0
 10
-762.8809137730002
 20
658.9391534589998
 30
0.0
  0
MTEXT
  5
9761
330
1E
100
AcDbEntity
  8
19
100
AcDbMText
 10
-1171.634200468
 20
687.9000191939999
 30
0.0
 40
20.0
 41
0.0
 71
     1
 72
     5
  1
MAINTENANCE SPACE(min)
 73
     1
 44
1.0
  0
DIMENSION
  5
9762
330
1E
100
AcDbEntity
  8
30
100
AcDbDimension
  2
*D15
 10
-1240.0
 20
-182.3309887360001
 30
0.0
 11
-1120.40545096
 21
-182.3309887360001
 31
0.0
 70
   160
 71
     5
 42
240.0
  3
Standard
100
AcDbAlignedDimension
 13
-1000.0
 23
-100.0
 33
0.0
 14
-1240.0
 24
-100.0
 34
0.0
100
AcDbRotatedDimension
  0
DIMENSION
  5
9763
330
1E
100
AcDbEntity
  8
30
100
AcDbDimension
  2
*D16
 10
-760.0
 20
-182.3309887360001
 30
0.0
 11
-883.9096663479999
 21
-182.3309887360001
 31
0.0
 70
   160
 71
     5
 42
240.0
  3
Standard
100
AcDbAlignedDimension
 13
-1000.0
 23
-100.0
 33
0.0
 14
-760.0
 24
-100.0
 34
0.0
100
AcDbRotatedDimension
  0
DIMENSION
  5
9764
330
1E
100
AcDbEntity
  8
30
100
AcDbDimension
  2
*D17
 10
-208.4999999999999
 20
-282.7146748159115
 30
0.0
 11
-107.1855864899996
 21
-282.7146748159115
 31
0.0
 70
   160
 71
     5
 42
208.5000000000001
  3
Standard
100
AcDbAlignedDimension
 13
0.0000000000002274
 23
-148.6413961729998
 33
0.0
 14
-208.4999999999999
 24
278.4999999999997
 34
0.0
100
AcDbRotatedDimension
  0
DIMENSION
  5
9765
330
1E
100
AcDbEntity
  8
30
100
AcDbDimension
  2
*D18
 10
208.5000000000003
 20
-282.7146748159115
 30
0.0
 11
107.7143458360001
 21
-282.7146748159115
 31
0.0
 70
   160
 71
     5
 42
208.5000000000002
  3
Standard
100
AcDbAlignedDimension
 13
0.0000000000002274
 23
-148.6413961729998
 33
0.0
 14
208.5000000000004
 24
278.4999999999997
 34
0.0
100
AcDbRotatedDimension
  0
DIMENSION
  5
9766
330
1E
100
AcDbEntity
  8
30
100
AcDbDimension
  2
*D19
 10
-188.4999999999999
 20
-230.5886006696935
 30
0.0
 11
-91.32958501299979
 21
-230.5886006696935
 31
0.0
 70
   160
 71
     5
 42
188.5000000000001
  3
Standard
100
AcDbAlignedDimension
 13
0.0000000000002274
 23
-148.6413961729998
 33
0.0
 14
-188.4999999999999
 24
305.4999999999998
 34
0.0
100
AcDbRotatedDimension
  0
DIMENSION
  5
9767
330
1E
100
AcDbEntity
  8
30
100
AcDbDimension
  2
*D20
 10
188.5000000000004
 20
-230.5886006696935
 30
0.0
 11
97.28986648299995
 21
-230.5886006696935
 31
0.0
 70
   160
 71
     5
 42
188.5000000000001
  3
Standard
100
AcDbAlignedDimension
 13
0.0000000000002274
 23
-148.6413961729998
 33
0.0
 14
188.5000000000004
 24
305.4999999999998
 34
0.0
100
AcDbRotatedDimension
  0
DIMENSION
  5
9768
330
1E
100
AcDbEntity
  8
30
100
AcDbDimension
  2
*D21
 10
119.0000000000001
 20
-140.1349932769999
 30
0.0
 11
-0.3281205969999519
 21
-140.1349932769999
 31
0.0
 70
   160
 71
     5
 42
238.0000000000002
  3
Standard
100
AcDbAlignedDimension
 13
-119.0
 23
32.99999999999975
 33
0.0
 14
119.0000000000002
 24
32.99999999999975
 34
0.0
100
AcDbRotatedDimension
  0
MTEXT
  5
9769
330
1E
100
AcDbEntity
  8
19
100
AcDbMText
 10
-1114.32873818
 20
-231.4711700350001
 30
0.0
 40
20.0
 41
0.0
 71
     1
 72
     5
  1
PANEL CUTOUT
 73
     1
 44
1.0
  0
DIMENSION
  5
9771
330
1E
100
AcDbEntity
  8
30
100
AcDbDimension
  2
*D22
 10
-875.0
 20
-68.34452665899994
 30
0.0
 11
-996.0432078769999
 21
-68.34452665899994
 31
0.0
 70
   160
 71
     5
 42
250.0
  3
Standard
100
AcDbAlignedDimension
 13
-1125.0
 23
30.0
 33
0.0
 14
-875.0
 24
30.0
 34
0.0
100
AcDbRotatedDimension
  0
LINE
  5
9776
330
1E
100
AcDbEntity
  8
0
  6
Continuous
 62
     7
100
AcDbLine
 10
-1000.0
 20
451.4166701679998
 30
0.0
 11
-1000.0
 21
444.0385316249994
 31
0.0
  0
MTEXT
  5
977A
330
1E
100
AcDbEntity
  8
19
100
AcDbMText
 10
-524.6604435992685
 20
695.4266929660002
 30
0.0
 40
20.0
 41
0.0
 71
     1
 72
     5
  1
(NOT SUPPLIED)
 73
     1
 44
1.0
  0
LEADER
  5
977B
330
1E
100
AcDbEntity
  8
19
100
AcDbLeader
  3
Standard
 76
     3
 10
-145.2837289439998
 20
563.2
 30
0.0
 10
-300.1401105639996
 20
704.0740025570003
 30
0.0
 10
-523.4291506969998
 20
704.0740025570003
 30
0.0
  0
MTEXT
  5
977C
330
1E
100
AcDbEntity
  8
19
100
AcDbMText
 10
-523.3936190539998
 20
737.8759808249644
 30
0.0
 40
20.0
 41
0.0
 71
     1
 72
     5
  1
ARC BARRIER
 73
     1
 44
1.0
  0
LEADER
  5
977D
330
1E
100
AcDbEntity
  8
19
100
AcDbLeader
  3
Standard
 76
     3
 10
-190.6199021059999
 20
313.235557877
 30
0.0
 10
-208.8528396609999
 20
422.815995868
 30
0.0
 10
-454.6344149109999
 20
422.815995868
 30
0.0
  0
MTEXT
  5
977E
330
1E
100
AcDbEntity
  8
19
100
AcDbMText
 10
-454.5983702469998
 20
458.1039200750001
 30
0.0
 40
20.0
 41
0.0
 71
     1
 72
     5
  1
    2-φ14    
 73
     1
 44
1.0
  0
MTEXT
  5
977F
330
1E
100
AcDbEntity
  8
19
100
AcDbMText
 10
-453.1748721350306
 20
411.8541113829998
 30
0.0
 40
20.0
 41
0.0
 71
     1
 72
     5
  1
FIXING SUPPORT
 73
     1
 44
1.0
  0
DIMENSION
  5
9780
330
1E
100
AcDbEntity
  8
30
100
AcDbDimension
  2
*D23
 10
-277.911546944
 20
0.0000000000000334
 30
0.0
 11
-277.9115469439998
 21
142.2446684829994
 31
0.0
 70
   160
 71
     5
 42
305.4999999999998
  3
Standard
100
AcDbAlignedDimension
 13
-188.4999999999999
 23
305.4999999999998
 33
0.0
 14
-169.9999999999995
 24
0.0000000000000028
 34
0.0
 50
270.0
100
AcDbRotatedDimension
  0
DIMENSION
  5
9782
330
1E
100
AcDbEntity
  8
30
100
AcDbDimension
  2
*D24
 10
-808.291326243207
 20
29.99999999999998
 30
0.0
 11
-808.2913262432068
 21
211.8006790989998
 31
0.0
 70
   160
 71
     5
 42
335.0
  3
Standard
100
AcDbAlignedDimension
 13
-875.0
 23
365.0
 33
0.0
 14
-875.0
 24
30.0
 34
0.0
 50
270.0
100
AcDbRotatedDimension
  0
DIMENSION
  5
9784
330
1E
100
AcDbEntity
  8
30
100
AcDbDimension
  2
*D25
 10
-671.5211279634137
 20
550.0
 30
0.0
 11
-671.5211279634137
 21
265.959836774
 31
0.0
 70
   160
 71
     5
 42
550.0
  3
Standard
100
AcDbAlignedDimension
 13
-732.150051565
 23
0.0
 33
0.0
 14
-760.0
 24
550.0
 34
0.0
 50
90.0
100
AcDbRotatedDimension
  0
DIMENSION
  5
9785
330
1E
100
AcDbEntity
  8
30
100
AcDbDimension
  2
*D26
 10
-671.5211279634141
 20
-100.0
 30
0.0
 11
-671.5211279634137
 21
-47.95708235300003
 31
0.0
 70
   160
 71
     5
 42
100.0
  3
Standard
100
AcDbAlignedDimension
 13
-732.150051565
 23
0.0
 33
0.0
 14
-760.0
 24
-100.0
 34
0.0
 50
90.0
100
AcDbRotatedDimension
  0
DIMENSION
  5
9786
330
1E
100
AcDbEntity
  8
30
100
AcDbDimension
  2
*D27
 10
-808.291326243207
 20
0.0000000000000216
 30
0.0
 11
-808.2913262432068
 21
-24.79563015600023
 31
0.0
 70
   160
 71
     5
 42
29.99999999999996
  3
Standard
100
AcDbAlignedDimension
 13
-875.0
 23
30.0
 33
0.0
 14
-732.150051565
 24
0.0
 34
0.0
 50
90.0
100
AcDbRotatedDimension
  0
DIMENSION
  5
9798
330
1E
100
AcDbEntity
  8
30
100
AcDbDimension
  2
*D28
 10
-174.9999999999995
 20
638.4743204849995
 30
0.0
 11
-91.32958501299979
 21
638.4743204849995
 31
0.0
 70
   160
 71
     5
 42
174.9999999999997
  3
Standard
100
AcDbAlignedDimension
 13
0.0000000000002274
 23
590.0385861509999
 33
0.0
 14
-174.9999999999995
 24
563.2
 34
0.0
100
AcDbRotatedDimension
  0
DIMENSION
  5
9799
330
1E
100
AcDbEntity
  8
30
100
AcDbDimension
  2
*D29
 10
290.7659130439996
 20
-0.0000000000000314
 30
0.0
 11
290.7659130439999
 21
139.8834724419996
 31
0.0
 70
   160
 71
     5
 42
278.4999999999997
  3
Standard
100
AcDbAlignedDimension
 13
208.5000000000004
 23
278.4999999999997
 33
0.0
 14
170.0
 24
0.0000000000000028
 34
0.0
 50
90.0
100
AcDbRotatedDimension
  0
LINE
  5
97AB
330
1E
100
AcDbEntity
  8
0
  6
Continuous
 62
     7
100
AcDbLine
 10
-144.1999999999999
 20
0.0000000000000028
 30
0.0
 11
-169.9999999999995
 21
0.0000000000000028
 31
0.0
  0
LINE
  5
97AC
330
1E
100
AcDbEntity
  8
0
  6
Continuous
 62
     7
100
AcDbLine
 10
-144.1999999999999
 20
3.199999999999818
 30
0.0
 11
-169.9999999999995
 21
3.199999999999818
 31
0.0
  0
LINE
  5
97AD
330
1E
100
AcDbEntity
  8
0
  6
Continuous
 62
     7
100
AcDbLine
 10
-179.9999999999995
 20
3.199999999999818
 30
0.0
 11
-179.9999999999995
 21
0.0000000000000028
 31
0.0
  0
LINE
  5
97AE
330
1E
100
AcDbEntity
  8
0
  6
Continuous
 62
     7
100
AcDbLine
 10
-179.9999999999995
 20
0.0000000000000028
 30
0.0
 11
-169.9999999999995
 21
0.0000000000000028
 31
0.0
  0
LINE
  5
97AF
330
1E
100
AcDbEntity
  8
0
  6
Continuous
 62
     7
100
AcDbLine
 10
-169.9999999999995
 20
3.199999999999818
 30
0.0
 11
-179.9999999999995
 21
3.199999999999818
 31
0.0
  0
CIRCLE
  5
97C1
330
1E
100
AcDbEntity
  8
27
100
AcDbCircle
 10
-97.49999999899999
 20
-49.99999999900023
 30
0.0
 40
5.5
  0
CIRCLE
  5
97C2
330
1E
100
AcDbEntity
  8
27
100
AcDbCircle
 10
-72.49999999900001
 20
-49.99999999900023
 30
0.0
 40
5.5
  0
CIRCLE
  5
97C4
330
1E
100
AcDbEntity
  8
27
100
AcDbCircle
 10
-12.49999999999976
 20
-50.0
 30
0.0
 40
5.5
  0
CIRCLE
  5
97C5
330
1E
100
AcDbEntity
  8
27
100
AcDbCircle
 10
12.50000000000022
 20
-50.0
 30
0.0
 40
5.5
  0
CIRCLE
  5
97E4
330
1E
100
AcDbEntity
  8
10
100
AcDbCircle
 10
-64.99999999999977
 20
103.4999999999997
 30
0.0
 40
21.0
  0
CIRCLE
  5
97EF
330
1E
100
AcDbEntity
  8
27
100
AcDbCircle
 10
97.50000000000023
 20
-50.0
 30
0.0
 40
5.5
  0
CIRCLE
  5
97F0
330
1E
100
AcDbEntity
  8
27
100
AcDbCircle
 10
72.50000000000024
 20
-50.0
 30
0.0
 40
5.5
  0
LINE
  5
9805
330
1E
100
AcDbEntity
  8
0
  6
Continuous
 62
     7
100
AcDbLine
 10
180.0000000000002
 20
3.199999999999818
 30
0.0
 11
180.0000000000002
 21
0.0000000000000028
 31
0.0
  0
LINE
  5
9808
330
1E
100
AcDbEntity
  8
0
  6
Continuous
 62
     7
100
AcDbLine
 10
170.0
 20
3.199999999999818
 30
0.0
 11
180.0000000000002
 21
3.199999999999818
 31
0.0
  0
LINE
  5
9809
330
1E
100
AcDbEntity
  8
0
  6
Continuous
 62
     7
100
AcDbLine
 10
180.0000000000002
 20
0.0000000000000028
 30
0.0
 11
170.0
 21
0.0000000000000028
 31
0.0
  0
DIMENSION
  5
9834
330
1E
100
AcDbEntity
  8
30
100
AcDbDimension
  2
*D30
 10
175.0
 20
638.7632507779999
 30
0.0
 11
80.98967571400022
 21
638.7632507779999
 31
0.0
 70
   160
 71
     5
 42
174.9999999999997
  3
Standard
100
AcDbAlignedDimension
 13
0.0000000000002274
 23
590.0385861509999
 33
0.0
 14
175.0
 24
563.2
 34
0.0
100
AcDbRotatedDimension
  0
CIRCLE
  5
984C
330
1E
100
AcDbEntity
  8
10
100
AcDbCircle
 10
-188.4999999999998
 20
305.4999999999998
 30
0.0
 40
7.049999999999998
  0
LWPOLYLINE
  5
9891
330
1E
100
AcDbEntity
  8
10
100
AcDbPolyline
 90
        6
 70
   128
 43
0.0
 10
-109.25
 20
418.4999999999996
 10
-109.25
 20
421.1999999999998
 10
-109.25
 20
421.8614378279998
 10
-109.2622678679999
 20
422.0659279219995
 10
-109.3097568939999
 20
422.1795516489994
 10
-109.362788478
 20
422.2000000000003
  0
LWPOLYLINE
  5
9894
330
1E
100
AcDbEntity
  8
10
100
AcDbPolyline
 90
        6
 70
   128
 43
0.0
 10
-114.2372115209997
 20
422.2000000000003
 10
-114.3118026509998
 20
422.1506428999998
 10
-114.3453390579998
 20
422.0030641079993
 10
-114.3499999999999
 20
421.8614378279998
 10
-114.3499999999999
 20
421.1999999999998
 10
-114.3499999999999
 20
418.4999999999996
  0
CIRCLE
  5
98A0
330
1E
100
AcDbEntity
  8
27
100
AcDbCircle
 10
-97.49999999999978
 20
500.0
 30
0.0
 40
5.5
  0
CIRCLE
  5
98A1
330
1E
100
AcDbEntity
  8
27
100
AcDbCircle
 10
-72.49999999999976
 20
500.0
 30
0.0
 40
5.5
  0
CIRCLE
  5
98A2
330
1E
100
AcDbEntity
  8
27
100
AcDbCircle
 10
-12.49999999999976
 20
500.0
 30
0.0
 40
5.5
  0
CIRCLE
  5
98A4
330
1E
100
AcDbEntity
  8
27
100
AcDbCircle
 10
12.50000000000022
 20
500.0
 30
0.0
 40
5.5
  0
LWPOLYLINE
  5
98DA
330
1E
100
AcDbEntity
  8
10
100
AcDbPolyline
 90
        6
 70
   128
 43
0.0
 10
59.86278847900007
 20
422.2000000000003
 10
59.78819734900003
 20
422.1506428999998
 10
59.7546609420001
 20
422.0030641079993
 10
59.75
 20
421.8614378279998
 10
59.75
 20
421.1999999999998
 10
59.75
 20
418.4999999999996
  0
LWPOLYLINE
  5
98DB
330
1E
100
AcDbEntity
  8
10
100
AcDbPolyline
 90
        6
 70
   128
 43
0.0
 10
64.84999999999991
 20
418.4999999999996
 10
64.84999999999991
 20
421.1999999999998
 10
64.84999999999991
 20
421.8614378279998
 10
64.83773213199993
 20
422.0659279219995
 10
64.79024310599993
 20
422.1795516489994
 10
64.73721152199981
 20
422.2000000000003
  0
LWPOLYLINE
  5
98E0
330
1E
100
AcDbEntity
  8
10
100
AcDbPolyline
 90
        6
 70
   128
 43
0.0
 10
99.86278847899985
 20
422.2000000000003
 10
99.78819734900007
 20
422.1506428999998
 10
99.7546609420001
 20
422.0030641079993
 10
99.75000000000044
 20
421.8614378279998
 10
99.75000000000044
 20
421.1999999999998
 10
99.75000000000044
 20
418.4999999999996
  0
LWPOLYLINE
  5
98E3
330
1E
100
AcDbEntity
  8
10
100
AcDbPolyline
 90
        6
 70
   128
 43
0.0
 10
79.86278847900006
 20
422.2000000000003
 10
79.78819734900003
 20
422.1506428999998
 10
79.7546609420001
 20
422.0030641079993
 10
79.75
 20
421.8614378279998
 10
79.75
 20
421.1999999999998
 10
79.75
 20
418.4999999999996
  0
LWPOLYLINE
  5
98E4
330
1E
100
AcDbEntity
  8
10
100
AcDbPolyline
 90
        6
 70
   128
 43
0.0
 10
84.85000000000036
 20
418.4999999999996
 10
84.85000000000036
 20
421.1999999999998
 10
84.85000000000036
 20
421.8614378279998
 10
84.83773213200038
 20
422.0659279219995
 10
84.79024310599994
 20
422.1795516489994
 10
84.73721152199983
 20
422.2000000000003
  0
LWPOLYLINE
  5
98EE
330
1E
100
AcDbEntity
  8
10
100
AcDbPolyline
 90
        6
 70
   128
 43
0.0
 10
104.8500000000003
 20
418.4999999999996
 10
104.8500000000003
 20
421.1999999999998
 10
104.8500000000003
 20
421.8614378279998
 10
104.8377321320002
 20
422.0659279219995
 10
104.7902431059999
 20
422.1795516489994
 10
104.7372115219997
 20
422.2000000000003
  0
DIMENSION
  5
9905
330
1E
100
AcDbEntity
  8
30
100
AcDbDimension
  2
*D31
 10
291.2851980070003
 20
278.4999999999997
 30
0.0
 11
291.2851980070004
 21
306.4314027629997
 31
0.0
 70
   160
 71
     5
 42
54.0000000000004
  3
Standard
100
AcDbAlignedDimension
 13
208.5000000000004
 23
332.5000000000001
 33
0.0
 14
208.5000000000004
 24
278.4999999999997
 34
0.0
 50
90.0
100
AcDbRotatedDimension
  0
CIRCLE
  5
9907
330
1E
100
AcDbEntity
  8
10
100
AcDbCircle
 10
188.5000000000004
 20
305.4999999999998
 30
0.0
 40
7.049999999999998
  0
CIRCLE
  5
990A
330
1E
100
AcDbEntity
  8
27
100
AcDbCircle
 10
72.50000000000024
 20
500.0
 30
0.0
 40
5.5
  0
CIRCLE
  5
990B
330
1E
100
AcDbEntity
  8
27
100
AcDbCircle
 10
97.50000000000023
 20
500.0
 30
0.0
 40
5.5
  0
DIMENSION
  5
990D
330
1E
100
AcDbEntity
  8
30
100
AcDbDimension
  2
*D32
 10
1078.0
 20
-174.5762283560003
 30
0.0
 11
1093.139112677999
 21
-174.5762283560003
 31
0.0
 70
   160
 71
     5
 42
28.0
  3
Standard
100
AcDbAlignedDimension
 13
1106.0
 23
-38.39230421200023
 33
0.0
 14
1078.0
 24
-112.2872557790002
 34
0.0
100
AcDbRotatedDimension
  0
DIMENSION
  5
990F
330
1E
100
AcDbEntity
  8
30
100
AcDbDimension
  2
*D33
 10
1078.0
 20
-174.3558024
 30
0.0
 11
1030.592592592
 21
-174.3558024
 31
0.0
 70
   160
 71
     5
 42
100.0
  3
Standard
100
AcDbAlignedDimension
 13
978.0
 23
-112.2872557790002
 33
0.0
 14
1078.0
 24
-112.2872557790002
 34
0.0
100
AcDbRotatedDimension
  0
DIMENSION
  5
9912
330
1E
100
AcDbEntity
  8
30
100
AcDbDimension
  2
*D34
 10
941.0
 20
-174.3558024
 30
0.0
 11
914.3140170659998
 21
-174.3558024
 31
0.0
 70
   160
 71
     5
 42
37.0
  3
Standard
100
AcDbAlignedDimension
 13
978.0
 23
-112.2872557790002
 33
0.0
 14
941.0
 24
-19.12765978700008
 34
0.0
100
AcDbRotatedDimension
  0
LEADER
  5
9915
330
1E
100
AcDbEntity
  8
19
100
AcDbLeader
  3
Standard
 74
     0
 76
     3
 10
1151.720849482999
 20
-11.54143521500031
 30
0.0
 10
1378.156469104999
 20
-332.5076496170003
 30
0.0
 10
1581.587234991
 20
-332.5076496170003
 30
0.0
  0
MTEXT
  5
9916
330
1E
100
AcDbEntity
  8
19
100
AcDbMText
 10
1385.595541369487
 20
-305.2995531527161
 30
0.0
 40
20.0
 41
0.0
 71
     1
 72
     5
  1
INSULATION
 73
     1
 44
1.0
  0
LEADER
  5
9917
330
1E
100
AcDbEntity
  8
19
100
AcDbLeader
  3
Standard
 74
     0
 76
     3
 10
1126.0
 20
34.99999999999976
 30
0.0
 10
1357.639629639999
 20
-150.7436496170003
 30
0.0
 10
1640.452833654
 20
-150.7436496170003
 30
0.0
  0
MTEXT
  5
9918
330
1E
100
AcDbEntity
  8
19
100
AcDbMText
 10
1362.650914169998
 20
-123.5458790449927
 30
0.0
 40
20.0
 41
0.0
 71
     1
 72
     5
  1
EARTH TERMINAL
 73
     1
 44
1.0
  0
MTEXT
  5
9919
330
1E
100
AcDbEntity
  8
19
100
AcDbMText
 10
1355.805243818455
 20
-155.4390665703474
 30
0.0
 40
20.0
 41
0.0
 71
     1
 72
     5
  1
(RIGHT SIDE ONLY)
 73
     1
 44
1.0
  0
MTEXT
  5
9928
330
1E
100
AcDbEntity
  8
19
100
AcDbMText
 10
649.731664978
 20
-328.2822730480002
 30
0.0
 40
20.0
 41
0.0
 71
     1
 72
     5
  1
(min)
 73
     1
 44
1.0
  0
LEADER
  5
992F
330
1E
100
AcDbEntity
  8
19
100
AcDbLeader
  3
Standard
 74
     0
 76
     3
 10
1266.445079172149
 20
489.5767041169995
 30
0.0
 10
1299.118423725148
 20
580.4663771389994
 30
0.0
 10
1627.577566282724
 20
580.4886151641149
 30
0.0
  0
MTEXT
  5
9930
330
1E
100
AcDbEntity
  8
19
100
AcDbMText
 10
1304.166888633149
 20
606.2426006036141
 30
0.0
 40
20.0
 41
0.0
 71
     1
 72
     5
  1
WITH TERMINAL COVER
 73
     1
 44
1.0
  0
MTEXT
  5
9932
330
1E
100
AcDbEntity
  8
19
100
AcDbMText
 10
1131.909022972606
 20
676.7910921119878
 30
0.0
 40
20.0
 41
0.0
 71
     1
 72
     5
  1
LIFTING HOLES
 73
     1
 44
1.0
  0
MTEXT
  5
9933
330
1E
100
AcDbEntity
  8
19
100
AcDbMText
 10
475.7259882326175
 20
695.1701932293324
 30
0.0
 40
20.0
 41
0.0
 71
     1
 72
     5
  1
PADLOCK COVER
 73
     1
 44
1.0
  0
LEADER
  5
9934
330
1E
100
AcDbEntity
  8
19
100
AcDbLeader
  3
Standard
 76
     3
 10
842.0
 20
256.9999999999997
 30
0.0
 10
754.9713420149997
 20
700.2745878409997
 30
0.0
 10
452.2998637539997
 20
700.2745878409997
 30
0.0
  0
MTEXT
  5
9935
330
1E
100
AcDbEntity
  8
19
100
AcDbMText
 10
474.1429799925744
 20
725.6237090751152
 30
0.0
 40
20.0
 41
0.0
 71
     1
 72
     5
  1
WITH PUSHBUTTON
 73
     1
 44
1.0
  0
CIRCLE
  5
993A
330
1E
100
AcDbEntity
  8
10
100
AcDbCircle
 10
1058.0
 20
441.9999999999997
 30
0.0
 40
10.0
  0
LINE
  5
993C
330
1E
100
AcDbEntity
  8
10
100
AcDbLine
 10
921.0
 20
129.1756275409994
 30
0.0
 11
1125.724947483
 21
129.1756275409994
 31
0.0
  0
LINE
  5
993D
330
1E
100
AcDbEntity
  8
10
100
AcDbLine
 10
921.0
 20
136.8243724599996
 30
0.0
 11
1126.0
 21
136.8243724599996
 31
0.0
  0
DIMENSION
  5
993F
330
1E
100
AcDbEntity
  8
30
100
AcDbDimension
  2
*D35
 10
1239.725593749999
 20
459.9999999999995
 30
0.0
 11
1240.554533340105
 21
451.1011607721362
 31
0.0
 70
   160
 71
     5
 42
17.99999999999988
  3
Standard
100
AcDbAlignedDimension
 13
1058.0
 23
441.9999999999997
 33
0.0
 14
1066.0
 24
459.9999999999996
 34
0.0
 50
90.0
100
AcDbRotatedDimension
  0
LINE
  5
9940
330
1E
100
AcDbEntity
  8
0
  6
HIDDEN
 62
     7
100
AcDbLine
 10
978.0
 20
-0.1984904920004737
 30
0.0
 11
1078.0
 21
-0.1984904920004737
 31
0.0
  0
LINE
  5
9943
330
1E
100
AcDbEntity
  8
0
  6
Continuous
 62
     7
100
AcDbLine
 10
1131.0
 20
-0.0000000000002274
 30
0.0
 11
931.0
 21
-0.0000000000002274
 31
0.0
  0
DIMENSION
  5
9944
330
1E
100
AcDbEntity
  8
30
100
AcDbDimension
  2
*D36
 10
1332.527021913608
 20
-0.0000000000002816
 30
0.0
 11
1332.527021913608
 21
240.5724822019993
 31
0.0
 70
   160
 71
     5
 42
490.0000000000002
  3
Standard
100
AcDbAlignedDimension
 13
981.0
 23
490.0
 33
0.0
 14
1141.0
 24
-0.0000000000002273
 34
0.0
 50
90.0
100
AcDbRotatedDimension
  0
DIMENSION
  5
9949
330
1E
100
AcDbEntity
  8
30
100
AcDbDimension
  2
*D37
 10
768.4562246197717
 20
32.99999999999956
 30
0.0
 11
768.456224619772
 21
185.6084298369998
 31
0.0
 70
   160
 71
     5
 42
329.0
  3
Standard
100
AcDbAlignedDimension
 13
847.0
 23
361.9999999999996
 33
0.0
 14
864.0
 24
32.99999999999954
 34
0.0
 50
90.0
100
AcDbRotatedDimension
  0
MTEXT
  5
994B
330
1E
100
AcDbEntity
  8
19
100
AcDbMText
 10
679.4985689320979
 20
88.80105345631319
 30
0.0
 40
20.0
 41
0.0
 71
     1
 72
     5
  1
AIR GAP DISTANCE (min)
 11
0.0000000000000001
 21
1.0
 31
0.0
 73
     1
 44
1.0
  0
DIMENSION
  5
994C
330
1E
100
AcDbEntity
  8
30
100
AcDbDimension
  2
*D38
 10
726.0960629859137
 20
-0.0000000000001721
 30
0.0
 11
726.0960629859137
 21
274.9999999999999
 31
0.0
 70
   160
  1
<> 
 71
     5
 42
550.0
  3
Standard
100
AcDbAlignedDimension
 13
961.0
 23
549.9999999999999
 33
0.0
 14
921.0
 24
-0.0000000000002273
 34
0.0
 50
270.0
100
AcDbRotatedDimension
  0
MTEXT
  5
994D
330
1E
100
AcDbEntity
  8
19
100
AcDbMText
 10
603.9608824052933
 20
94.77104985784469
 30
0.0
 40
20.0
 41
0.0
 71
     1
 72
     5
  1
500(INSULATION)\P550(METAL)
 11
0.0000000000000001
 21
1.0
 31
0.0
 73
     1
 44
1.0
  0
LEADER
  5
994E
330
1E
100
AcDbEntity
  8
19
100
AcDbLeader
  3
Standard
 76
     3
 10
859.0
 20
-31.05850214500013
 30
0.0
 10
754.4140945230001
 20
-128.2004556370001
 30
0.0
 10
650.1733821489997
 20
-128.2004556370001
 30
0.0
  0
MTEXT
  5
994F
330
1E
100
AcDbEntity
  8
19
100
AcDbMText
 10
650.2184051379997
 20
-95.82817192033621
 30
0.0
 40
20.0
 41
0.0
 71
     1
 72
     5
  1
PANEL
 73
     1
 44
1.0
  0
DIMENSION
  5
9950
330
1E
100
AcDbEntity
  8
30
100
AcDbDimension
  2
*D39
 10
768.4562246197717
 20
-0.0000000000001841
 30
0.0
 11
768.456224619772
 21
17.24416644114579
 31
0.0
 70
   160
 71
     5
 42
32.99999999999975
  3
Standard
100
AcDbAlignedDimension
 13
864.0
 23
32.99999999999954
 33
0.0
 14
921.0
 24
-0.0000000000002273
 34
0.0
 50
90.0
100
AcDbRotatedDimension
  0
LINE
  5
995F
330
1E
100
AcDbEntity
  8
12
100
AcDbLine
 10
941.0
 20
-19.12765978700008
 30
0.0
 11
941.0
 21
23.19999999999958
 31
0.0
  0
DIMENSION
  5
997D
330
1E
100
AcDbEntity
  8
30
100
AcDbDimension
  2
*D40
 10
859.0
 20
595.4335693581042
 30
0.0
 11
955.02872842019
 21
594.4335693581042
 31
0.0
 70
   160
 71
     5
 42
199.0
  3
Standard
100
AcDbAlignedDimension
 13
1058.0
 23
441.9999999999997
 33
0.0
 14
859.0
 24
471.9999999999997
 34
0.0
100
AcDbRotatedDimension
  0
DIMENSION
  5
9991
330
1E
100
AcDbEntity
  8
30
100
AcDbDimension
  2
*D41
 10
1281.403925554791
 20
-0.0000000000002671
 30
0.0
 11
1281.403925554791
 21
229.9999999999995
 31
0.0
 70
   160
 71
     5
 42
459.9999999999998
  3
Standard
100
AcDbAlignedDimension
 13
1066.0
 23
459.9999999999996
 33
0.0
 14
1141.0
 24
-0.0000000000002273
 34
0.0
 50
90.0
100
AcDbRotatedDimension
  0
DIMENSION
  5
9992
330
1E
100
AcDbEntity
  8
30
100
AcDbDimension
  2
*D42
 10
1164.0
 20
94.43654578599966
 30
0.0
 11
1109.682788377776
 21
94.43654578599966
 31
0.0
 70
   160
 71
     5
 42
38.0
  3
Standard
100
AcDbAlignedDimension
 13
1126.0
 23
38.99999999999975
 33
0.0
 14
1164.0
 24
83.49999999999955
 34
0.0
100
AcDbRotatedDimension
  0
DIMENSION
  5
9993
330
1E
100
AcDbEntity
  8
30
100
AcDbDimension
  2
*D43
 10
1179.0
 20
44.67124335299991
 30
0.0
 11
1189.499999999998
 21
44.67124335299991
 31
0.0
 70
   160
 71
     5
 42
10.49999999999795
  3
Standard
100
AcDbAlignedDimension
 13
1189.499999999998
 23
80.45938472999976
 33
0.0
 14
1179.0
 24
70.49999999999954
 34
0.0
100
AcDbRotatedDimension
  0
DIMENSION
  5
9997
330
1E
100
AcDbEntity
  8
30
100
AcDbDimension
  2
*D44
 10
1248.104021733264
 20
-0.0000000000002511
 30
0.0
 11
1247.104021733264
 21
17.82298464493441
 31
0.0
 70
   160
 71
     5
 42
34.99999999999998
  3
Standard
100
AcDbAlignedDimension
 13
1126.0
 23
34.99999999999976
 33
0.0
 14
1164.0
 24
-0.0000000000002273
 34
0.0
 50
90.0
100
AcDbRotatedDimension
  0
LINE
  5
99A0
330
1E
100
AcDbEntity
  8
0
  6
Continuous
 62
     7
100
AcDbLine
 10
1141.0
 20
-0.0000000000002274
 30
0.0
 11
1131.0
 21
-0.0000000000002274
 31
0.0
  0
LINE
  5
99A2
330
1E
100
AcDbEntity
  8
12
100
AcDbLine
 10
1106.0
 20
-20.00000000000022
 30
0.0
 11
1106.0
 21
23.19999999999958
 31
0.0
  0
CIRCLE
  5
99AB
330
1E
100
AcDbEntity
  8
0
  6
Continuous
 62
     7
100
AcDbCircle
 10
1126.0
 20
34.99999999999977
 30
0.0
 40
4.0
  0
LINE
  5
99B3
330
1E
100
AcDbEntity
  8
0
  6
Continuous
 62
     7
100
AcDbLine
 10
1140.8
 20
-24.99999999900046
 30
0.0
 11
1139.799999999999
 21
-24.99999999900046
 31
0.0
  0
LINE
  5
99B5
330
1E
100
AcDbEntity
  8
0
  6
Continuous
 62
     7
100
AcDbLine
 10
1139.799999999999
 20
-0.0000000000002274
 30
0.0
 11
1139.799999999999
 21
-24.99999999900046
 31
0.0
  0
LINE
  5
99C2
330
1E
100
AcDbEntity
  8
27
100
AcDbLine
 10
1141.0
 20
71.49999999999976
 30
0.0
 11
1164.0
 21
71.49999999999976
 31
0.0
  0
LINE
  5
99C3
330
1E
100
AcDbEntity
  8
27
100
AcDbLine
 10
1164.0
 20
83.49999999999955
 30
0.0
 11
1141.0
 21
83.49999999999955
 31
0.0
  0
LINE
  5
99D0
330
1E
100
AcDbEntity
  8
27
100
AcDbLine
 10
1164.0
 20
142.9999999999995
 30
0.0
 11
1136.0
 21
142.9999999999995
 31
0.0
  0
LINE
  5
99D1
330
1E
100
AcDbEntity
  8
27
100
AcDbLine
 10
1164.0
 20
132.9999999999995
 30
0.0
 11
1136.0
 21
132.9999999999995
 31
0.0
  0
LINE
  5
99DB
330
1E
100
AcDbEntity
  8
27
100
AcDbLine
 10
1154.0
 20
194.9999999999995
 30
0.0
 11
1170.0
 21
194.9999999999995
 31
0.0
  0
LINE
  5
99DC
330
1E
100
AcDbEntity
  8
27
100
AcDbLine
 10
1170.0
 20
206.9999999999995
 30
0.0
 11
1154.0
 21
206.9999999999995
 31
0.0
  0
LINE
  5
99E7
330
1E
100
AcDbEntity
  8
27
100
AcDbLine
 10
1154.0
 20
242.9999999999995
 30
0.0
 11
1170.0
 21
242.9999999999995
 31
0.0
  0
LINE
  5
99E8
330
1E
100
AcDbEntity
  8
27
100
AcDbLine
 10
1170.0
 20
254.9999999999995
 30
0.0
 11
1154.0
 21
254.9999999999995
 31
0.0
  0
CIRCLE
  5
99F9
330
1E
100
AcDbEntity
  8
10
100
AcDbCircle
 10
1063.0
 20
325.4999999999997
 30
0.0
 40
3.549999999999998
  0
CIRCLE
  5
99FC
330
1E
100
AcDbEntity
  8
10
100
AcDbCircle
 10
1063.0
 20
285.4999999999995
 30
0.0
 40
3.549999999999998
  0
LINE
  5
9A07
330
1E
100
AcDbEntity
  8
27
100
AcDbLine
 10
1164.0
 20
316.9999999999997
 30
0.0
 11
1136.0
 21
316.9999999999997
 31
0.0
  0
LINE
  5
9A08
330
1E
100
AcDbEntity
  8
27
100
AcDbLine
 10
1164.0
 20
306.9999999999997
 30
0.0
 11
1136.0
 21
306.9999999999997
 31
0.0
  0
LINE
  5
9A11
330
1E
100
AcDbEntity
  8
27
100
AcDbLine
 10
1136.0
 20
366.4999999999996
 30
0.0
 11
1164.0
 21
366.4999999999996
 31
0.0
  0
LINE
  5
9A12
330
1E
100
AcDbEntity
  8
27
100
AcDbLine
 10
1164.0
 20
378.4999999999996
 30
0.0
 11
1136.0
 21
378.4999999999996
 31
0.0
  0
LINE
  5
9A1B
330
1E
100
AcDbEntity
  8
0
  6
Continuous
 62
     7
100
AcDbLine
 10
1115.799999999999
 20
455.9999999999996
 30
0.0
 11
1140.8
 21
455.9999999999996
 31
0.0
  0
LINE
  5
9A1C
330
1E
100
AcDbEntity
  8
0
  6
Continuous
 62
     7
100
AcDbLine
 10
1140.8
 20
463.9999999999997
 30
0.0
 11
1115.799999999999
 21
463.9999999999997
 31
0.0
  0
DIMENSION
  5
9A46
330
1E
100
AcDbEntity
  8
30
100
AcDbDimension
  2
*D5
 10
2225.716753100773
 20
-0.0000000000000183
 30
0.0
 11
2225.716753100774
 21
223.1741244240004
 31
0.0
 70
   160
 71
     5
 42
515.0
  3
Standard
100
AcDbAlignedDimension
 13
2110.0
 23
515.0
 33
0.0
 14
2161.0
 24
0.0
 34
0.0
 50
270.0
100
AcDbRotatedDimension
  0
DIMENSION
  5
9A47
330
1E
100
AcDbEntity
  8
30
100
AcDbDimension
  2
*D6
 10
2225.716753100773
 20
-0.0000000000000183
 30
0.0
 11
2225.716753100774
 21
-33.81090582099977
 31
0.0
 70
   160
 71
     5
 42
65.00000000000001
  3
Standard
100
AcDbAlignedDimension
 13
2110.0
 23
-65.0
 33
0.0
 14
2161.0
 24
0.0
 34
0.0
 50
90.0
100
AcDbRotatedDimension
  0
LINE
  5
9A4A
330
1E
100
AcDbEntity
  8
0
  6
Continuous
 62
     7
100
AcDbLine
 10
1915.0
 20
528.997400984
 30
0.0
 11
1915.0
 21
528.997400984
 31
0.0
  0
DIMENSION
  5
9A4D
330
1E
100
AcDbEntity
  8
30
100
AcDbDimension
  2
*D7
 10
2000.0
 20
684.5771341900001
 30
0.0
 11
2033.218914380999
 21
684.5771341900001
 31
0.0
 70
   160
 71
     5
 42
85.0
  3
Standard
100
AcDbAlignedDimension
 13
2085.0
 23
528.997400984
 33
0.0
 14
2000.0
 24
640.9416106199999
 34
0.0
100
AcDbRotatedDimension
  0
DIMENSION
  5
9A4E
330
1E
100
AcDbEntity
  8
30
100
AcDbDimension
  2
*D8
 10
2000.0
 20
684.5771341900001
 30
0.0
 11
1957.220238844
 21
684.5771341900001
 31
0.0
 70
   160
 71
     5
 42
85.0
  3
Standard
100
AcDbAlignedDimension
 13
1915.0
 23
630.6637050109999
 33
0.0
 14
2000.0
 24
640.9416106199999
 34
0.0
100
AcDbRotatedDimension
  0
LINE
  5
9A4F
330
1E
100
AcDbEntity
  8
10
100
AcDbLine
 10
1940.0
 20
5.0
 30
0.0
 11
1975.0
 21
5.0
 31
0.0
  0
LINE
  5
9A50
330
1E
100
AcDbEntity
  8
10
100
AcDbLine
 10
1940.0
 20
-25.0
 30
0.0
 11
1975.0
 21
-25.0
 31
0.0
  0
CIRCLE
  5
9A54
330
1E
100
AcDbEntity
  8
27
100
AcDbCircle
 10
1902.5
 20
-50.0
 30
0.0
 40
5.5
  0
CIRCLE
  5
9A55
330
1E
100
AcDbEntity
  8
27
100
AcDbCircle
 10
1927.5
 20
-50.0
 30
0.0
 40
5.5
  0
LINE
  5
9A57
330
1E
100
AcDbEntity
  8
0
  6
Continuous
 62
     7
100
AcDbLine
 10
1940.0
 20
5.0
 30
0.0
 11
1940.0
 21
-25.0
 31
0.0
  0
CIRCLE
  5
9A60
330
1E
100
AcDbEntity
  8
27
100
AcDbCircle
 10
1987.5
 20
-50.0
 30
0.0
 40
5.5
  0
CIRCLE
  5
9A61
330
1E
100
AcDbEntity
  8
27
100
AcDbCircle
 10
2012.5
 20
-50.0
 30
0.0
 40
5.5
  0
CIRCLE
  5
9A62
330
1E
100
AcDbEntity
  8
27
100
AcDbCircle
 10
2072.5
 20
-50.0
 30
0.0
 40
5.5
  0
CIRCLE
  5
9A64
330
1E
100
AcDbEntity
  8
27
100
AcDbCircle
 10
2097.5
 20
-50.0
 30
0.0
 40
5.5
  0
LINE
  5
9A65
330
1E
100
AcDbEntity
  8
10
100
AcDbLine
 10
2025.0
 20
5.0
 30
0.0
 11
2060.0
 21
5.0
 31
0.0
  0
LINE
  5
9A66
330
1E
100
AcDbEntity
  8
10
100
AcDbLine
 10
2025.0
 20
-25.0
 30
0.0
 11
2060.0
 21
-25.0
 31
0.0
  0
LINE
  5
9A67
330
1E
100
AcDbEntity
  8
0
  6
Continuous
 62
     7
100
AcDbLine
 10
2060.0
 20
5.0
 30
0.0
 11
2060.0
 21
-25.0
 31
0.0
  0
LINE
  5
9A6A
330
1E
100
AcDbEntity
  8
10
100
AcDbLine
 10
1940.0
 20
475.0
 30
0.0
 11
1975.0
 21
475.0
 31
0.0
  0
DIMENSION
  5
9A6B
330
1E
100
AcDbEntity
  8
30
100
AcDbDimension
  2
*D9
 10
1927.5
 20
564.0458413240001
 30
0.0
 11
1915.0
 21
564.0458413240001
 31
0.0
 70
   160
 71
     5
 42
25.0
  3
Standard
100
AcDbAlignedDimension
 13
1902.5
 23
500.0
 33
0.0
 14
1927.5
 24
500.0
 34
0.0
100
AcDbRotatedDimension
  0
LINE
  5
9A6C
330
1E
100
AcDbEntity
  8
10
100
AcDbLine
 10
1940.0
 20
445.0
 30
0.0
 11
1975.0
 21
445.0
 31
0.0
  0
DIMENSION
  5
9A6D
330
1E
100
AcDbEntity
  8
30
100
AcDbDimension
  2
*D10
 10
1940.0
 20
620.6637050109999
 30
0.0
 11
1915.0
 21
620.6637050109999
 31
0.0
 70
   160
 71
     5
 42
50.0
  3
Standard
100
AcDbAlignedDimension
 13
1890.0
 23
515.0
 33
0.0
 14
1940.0
 24
515.0
 34
0.0
100
AcDbRotatedDimension
  0
DIMENSION
  5
9A70
330
1E
100
AcDbEntity
  8
30
100
AcDbDimension
  2
*D11
 10
1837.396487101997
 20
480.0
 30
0.0
 11
1837.396487102
 21
500.0
 31
0.0
 70
   160
  1
<>*
 71
     5
 42
35.00000000000005
  3
Standard
100
AcDbAlignedDimension
 13
1890.0
 23
515.0
 33
0.0
 14
1901.575953726998
 24
480.0
 34
0.0
 50
90.0
100
AcDbRotatedDimension
  0
MTEXT
  5
9A73
330
1E
100
AcDbEntity
  8
30
100
AcDbMText
 10
1748.915861699248
 20
659.2190647328052
 30
0.0
 40
20.0
 41
0.0
 71
     1
 72
     5
  1
2-%%C11
  7
SLDTEXTSTYLE1
 73
     1
 44
1.0
  0
LEADER
  5
9A74
330
1E
100
AcDbEntity
  8
30
100
AcDbLeader
  3
Standard
 76
     3
 10
1898.245346394
 20
503.4853870229999
 30
0.0
 10
1850.866085191999
 20
634.4139211420004
 30
0.0
 10
1726.817757432999
 20
634.4139211420004
 30
0.0
  0
CIRCLE
  5
9A76
330
1E
100
AcDbEntity
  8
27
100
AcDbCircle
 10
1902.5
 20
500.0
 30
0.0
 40
5.5
  0
CIRCLE
  5
9A77
330
1E
100
AcDbEntity
  8
27
100
AcDbCircle
 10
1927.5
 20
500.0
 30
0.0
 40
5.5
  0
LINE
  5
9A7F
330
1E
100
AcDbEntity
  8
10
100
AcDbLine
 10
2025.0
 20
475.0
 30
0.0
 11
2060.0
 21
475.0
 31
0.0
  0
LINE
  5
9A80
330
1E
100
AcDbEntity
  8
10
100
AcDbLine
 10
2025.0
 20
445.0
 30
0.0
 11
2060.0
 21
445.0
 31
0.0
  0
DIMENSION
  5
9A81
330
1E
100
AcDbEntity
  8
30
100
AcDbDimension
  2
*D12
 10
2180.820577271632
 20
515.0
 30
0.0
 11
2180.820577271632
 21
483.3437779078321
 31
0.0
 70
   160
 71
     5
 42
15.0
  3
Standard
100
AcDbAlignedDimension
 13
2097.5
 23
500.0
 33
0.0
 14
2110.0
 24
515.0
 34
0.0
 50
90.0
100
AcDbRotatedDimension
  0
CIRCLE
  5
9A83
330
1E
100
AcDbEntity
  8
27
100
AcDbCircle
 10
1987.5
 20
500.0
 30
0.0
 40
5.5
  0
CIRCLE
  5
9A84
330
1E
100
AcDbEntity
  8
27
100
AcDbCircle
 10
2012.5
 20
500.0
 30
0.0
 40
5.5
  0
CIRCLE
  5
9A85
330
1E
100
AcDbEntity
  8
27
100
AcDbCircle
 10
2072.5
 20
500.0
 30
0.0
 40
5.5
  0
CIRCLE
  5
9A87
330
1E
100
AcDbEntity
  8
27
100
AcDbCircle
 10
2097.5
 20
500.0
 30
0.0
 40
5.5
  0
LWPOLYLINE
  5
A15F
330
1E
100
AcDbEntity
  8
27
100
AcDbPolyline
 90
        4
 70
     1
 43
0.0
 10
1940.0
 20
515.0
 10
1890.0
 20
515.0
 10
1890.0
 20
302.0000000000001
 10
1940.0
 20
302.0000000000001
  0
LWPOLYLINE
  5
A163
330
1E
100
AcDbEntity
  8
27
100
AcDbPolyline
 90
        4
 70
     1
 43
0.0
 10
2025.0
 20
515.0
 10
1975.0
 20
515.0
 10
1975.0
 20
302.0000000000001
 10
2025.0
 20
302.0000000000001
  0
LWPOLYLINE
  5
A167
330
1E
100
AcDbEntity
  8
27
100
AcDbPolyline
 90
        4
 70
     1
 43
0.0
 10
2110.0
 20
515.0
 10
2060.0
 20
515.0
 10
2060.0
 20
302.0000000000001
 10
2110.0
 20
302.0000000000001
  0
LWPOLYLINE
  5
A16B
330
1E
100
AcDbEntity
  8
27
100
AcDbPolyline
 90
        4
 70
     1
 43
0.0
 10
1940.0
 20
-65.0
 10
1890.0
 20
-65.0
 10
1890.0
 20
148.0
 10
1940.0
 20
148.0
  0
LWPOLYLINE
  5
A16F
330
1E
100
AcDbEntity
  8
27
100
AcDbPolyline
 90
        4
 70
     1
 43
0.0
 10
2025.0
 20
-65.0
 10
1975.0
 20
-65.0
 10
1975.0
 20
148.0
 10
2025.0
 20
148.0
  0
LWPOLYLINE
  5
A173
330
1E
100
AcDbEntity
  8
27
100
AcDbPolyline
 90
        4
 70
     1
 43
0.0
 10
2110.0
 20
-65.0
 10
2060.0
 20
-65.0
 10
2060.0
 20
148.0
 10
2110.0
 20
148.0
  0
TEXT
  5
A1B6
330
1E
100
AcDbEntity
  8
19
100
AcDbText
 10
1985.356813493694
 20
714.6894823177401
 30
0.0
 40
20.0
  1
Ｃ
 41
0.75
100
AcDbText
  0
TEXT
  5
A1B7
330
1E
100
AcDbEntity
  8
19
100
AcDbText
 10
1996.772380920899
 20
728.4457115220695
 30
0.0
 40
20.0
  1
Ｐ
 41
0.75
100
AcDbText
  0
LWPOLYLINE
  5
A1EE
330
1E
100
AcDbEntity
  8
18
100
AcDbPolyline
 90
        4
 70
     1
 43
0.0
 10
1126.0
 20
549.9999999999999
 10
1126.0
 20
559.9999999999996
 10
961.0
 20
559.9999999999996
 10
961.0
 20
549.9999999999999
  0
LWPOLYLINE
  5
A1F2
330
1E
100
AcDbEntity
  8
11
  6
DASHDOT
100
AcDbPolyline
 90
        4
 70
     0
 43
0.0
 10
859.0
 20
471.9999999999997
 10
859.0
 20
371.9999999999997
 10
869.0
 20
371.9999999999997
 10
869.0
 20
471.9999999999997
  0
LWPOLYLINE
  5
A1F5
330
1E
100
AcDbEntity
  8
11
  6
DASHDOT
100
AcDbPolyline
 90
        4
 70
     0
 43
0.0
 10
859.0
 20
-77.00000000000045
 10
859.0
 20
22.99999999999954
 10
869.0
 20
22.99999999999954
 10
869.0
 20
-77.00000000000045
  0
LEADER
  5
A208
330
1E
100
AcDbEntity
  8
30
100
AcDbLeader
  3
Standard
 76
     3
 10
1064.917608011749
 20
449.3309305438546
 30
0.0
 10
1164.189270386118
 20
626.9990766993562
 30
0.0
 10
1330.743981529215
 20
626.9990766993562
 30
0.0
1001
ACAD
1000
DSTYLE
1002
{
1070
   147
1040
3.0
1070
    77
1070
     0
1002
}
  0
MTEXT
  5
A209
330
1E
100
AcDbEntity
  8
30
100
AcDbMText
 10
1205.165410556401
 20
650.3713834008244
 30
0.0
 40
20.0
 41
0.0
 71
     1
 72
     5
  1
2-%%C20
  7
SLDTEXTSTYLE1
 73
     1
 44
1.0
  0
LWPOLYLINE
  5
A2C5
330
1E
100
AcDbEntity
  8
10
100
AcDbPolyline
 90
        6
 70
     0
 43
0.0
 10
859.0
 20
229.9999999999995
 10
842.0
 20
229.9999999999995
 10
842.0
 20
256.9999999999997
 10
849.0
 20
258.9999999999997
 10
849.0
 20
278.9999999999995
 10
859.0
 20
278.9999999999995
  0
LWPOLYLINE
  5
A2C6
330
1E
100
AcDbEntity
  8
10
100
AcDbPolyline
 90
        9
 70
     0
 43
0.0
 10
921.0
 20
29.99999999999976
 10
902.0
 20
29.99999999999976
 10
902.0
 20
32.99999999999954
 10
864.0
 20
32.99999999999954
 10
859.0
 20
32.99999999999954
 10
859.0
 20
320.9999999999995
 10
847.0
 20
355.9999999999996
 10
847.0
 20
361.9999999999996
 10
902.0
 20
361.9999999999996
  0
LWPOLYLINE
  5
A2C8
330
1E
100
AcDbEntity
  8
10
100
AcDbPolyline
 90
        5
 70
     0
 43
0.0
 10
864.0
 20
32.99999999999954
 10
864.0
 20
38.99999999999975
 10
902.0
 20
38.99999999999975
 10
902.0
 20
418.4999999999995
 10
916.0
 20
418.4999999999995
  0
LWPOLYLINE
  5
A2CC
330
1E
100
AcDbEntity
  8
10
100
AcDbPolyline
 90
        4
 70
     0
 43
0.0
 10
859.0
 20
133.7431201279995
 10
850.0
 20
133.7431201279995
 10
850.0
 20
130.7431201279995
 10
859.0
 20
130.7431201279995
  0
LWPOLYLINE
  5
A2D8
330
1E
100
AcDbEntity
  8
10
100
AcDbPolyline
 90
        2
 70
     0
 43
0.0
 10
902.0
 20
38.99999999999975
 10
921.0
 20
38.99999999999975
  0
LWPOLYLINE
  5
A2D9
330
1E
100
AcDbEntity
  8
10
100
AcDbPolyline
 90
       20
 70
     0
 43
0.0
 10
1126.0
 20
136.8243724599996
 10
1126.0
 20
332.8578643769997
 42
0.1989123673821482
 10
1123.071067811797
 20
339.9289321889331
 10
1071.0
 20
391.9999999999997
 10
1071.0
 20
449.9999999999998
 42
0.5239433179324801
 10
1066.0
 20
459.9999999999996
 10
926.0
 20
459.9999999999996
 42
0.4142135623730951
 10
916.0
 20
449.9999999999998
 10
915.9999999999996
 20
161.4142135629998
 42
0.1989123673520185
 10
916.2928932187382
 20
160.7071067818885
 10
921.0
 20
155.9999999999995
 10
921.0
 20
136.8243724599996
 10
921.0
 20
132.7015038679996
 10
921.0
 20
130.1572629199996
 10
921.0
 20
129.1756275409994
 10
921.0
 20
6.199999999999587
 10
921.0
 20
3.199999999999588
 10
931.0
 20
3.199999999999588
 10
1131.0
 20
3.199999999999588
 10
1141.0
 20
3.199999999999588
  0
LWPOLYLINE
  5
A2E9
330
1E
100
AcDbEntity
  8
10
100
AcDbPolyline
 90
        8
 70
     0
 43
0.0
 10
1141.0
 20
3.199999999999588
 10
1141.0
 20
105.8578643769993
 42
0.198912367390427
 10
1138.071067811572
 20
112.9289321891576
 10
1126.0
 20
124.9999999999997
 10
1126.0
 20
129.1756275409994
 10
1126.0
 20
130.1572629199996
 10
1126.0
 20
132.7015038679996
 10
1126.0
 20
136.8243724599996
  0
LWPOLYLINE
  5
A2F4
330
1E
100
AcDbEntity
  8
0
  6
Continuous
 62
     7
100
AcDbPolyline
 90
        5
 70
     0
 43
0.0
 10
1141.0
 20
5.000000000999531
 10
1160.8
 20
5.000000000999531
 10
1160.8
 20
-24.99999999900044
 10
1140.8
 20
-24.99999999900044
 10
1140.8
 20
-0.0000000000002273
  0
LWPOLYLINE
  5
A2F5
330
1E
100
AcDbEntity
  8
10
100
AcDbPolyline
 90
        6
 70
     0
 43
0.0
 10
1136.0
 20
114.9999999999997
 10
1136.0
 20
117.5499999999994
 10
1136.0
 20
312.4499999999993
 10
1136.0
 20
320.5499999999996
 10
1136.0
 20
381.9999999999997
 10
1081.0
 20
381.9999999999997
  0
LWPOLYLINE
  5
A2FA
330
1E
100
AcDbEntity
  8
10
100
AcDbPolyline
 90
        2
 70
     0
 43
0.0
 10
1136.0
 20
117.5499999999994
 10
1133.45
 20
117.5499999999994
  0
LWPOLYLINE
  5
A302
330
1E
100
AcDbEntity
  8
12
  6
DASHDOT
100
AcDbPolyline
 90
        8
 70
     1
 43
0.0
 10
965.0
 20
-39.46471037900003
 10
965.0
 20
-50.19849049200047
 10
971.0
 20
-50.19849049200047
 10
971.0
 20
-39.46471037900003
 10
971.0
 20
-0.1984904920004737
 10
921.0
 20
-0.0000000000002273
 10
921.0
 20
-6.198490492000472
 10
965.0
 20
-6.198490492000472
  0
LWPOLYLINE
  5
A308
330
1E
100
AcDbEntity
  8
12
  6
DASHDOT
100
AcDbPolyline
 90
        8
 70
     1
 43
0.0
 10
1086.0
 20
-39.46471037900003
 10
1086.0
 20
-50.19849049200047
 10
1080.0
 20
-50.19849049200047
 10
1080.0
 20
-39.46471037900003
 10
1080.0
 20
-0.1984904920004737
 10
1130.0
 20
-0.0000000000002273
 10
1130.0
 20
-6.198490492000472
 10
1086.0
 20
-6.198490492000472
  0
LWPOLYLINE
  5
A309
330
1E
100
AcDbEntity
  8
10
100
AcDbPolyline
 90
        6
 70
     1
 43
0.0
 10
1086.0
 20
332.4999999999998
 10
1083.0
 20
332.4999999999998
 10
1056.499999999997
 20
332.4999999999998
 10
1056.499999999997
 20
278.4999999999993
 10
1083.0
 20
278.4999999999993
 10
1086.0
 20
278.4999999999993
  0
LWPOLYLINE
  5
A30C
330
1E
100
AcDbEntity
  8
10
100
AcDbPolyline
 90
        4
 70
     0
 43
0.0
 10
1086.0
 20
278.4999999999993
 10
1092.0
 20
278.4999999999993
 10
1092.0
 20
332.4999999999998
 10
1086.0
 20
332.4999999999998
  0
LWPOLYLINE
  5
A312
330
1E
100
AcDbEntity
  8
0
  6
Continuous
 62
     7
100
AcDbPolyline
 90
        4
 70
     1
 43
0.0
 10
1115.799999999999
 20
474.9999999999998
 10
1115.799999999999
 20
382.4999999999996
 10
1114.8
 20
382.4999999999996
 10
1114.8
 20
474.9999999999998
  0
LWPOLYLINE
  5
A316
330
1E
100
AcDbEntity
  8
0
  6
Continuous
 62
     7
100
AcDbPolyline
 90
        4
 70
     1
 43
0.0
 10
1160.8
 20
474.9999999999998
 10
1140.8
 20
474.9999999999998
 10
1140.8
 20
445.0000000000001
 10
1160.8
 20
445.0000000000001
  0
LWPOLYLINE
  5
A31A
330
1E
100
AcDbEntity
  8
0
  6
Continuous
 62
     7
100
AcDbPolyline
 90
        2
 70
     0
 43
0.0
 10
1160.8
 20
445.0000000000001
 10
1164.0
 20
445.0000000000001
  0
LWPOLYLINE
  5
A31B
330
1E
100
AcDbEntity
  8
0
  6
Continuous
 62
     7
100
AcDbPolyline
 90
        2
 70
     0
 43
0.0
 10
1164.0
 20
474.9999999999998
 10
1160.8
 20
474.9999999999998
  0
LWPOLYLINE
  5
A31C
330
1E
100
AcDbEntity
  8
27
100
AcDbPolyline
 90
        7
 70
     0
 43
0.0
 10
1179.0
 20
379.4999999999997
 10
1179.0
 20
515.0
 10
1164.0
 20
515.0
 10
1164.0
 20
316.9999999999997
 10
1164.0
 20
306.9999999999997
 10
1164.0
 20
301.9999999999996
 10
1170.0
 20
301.9999999999996
  0
LWPOLYLINE
  5
A322
330
1E
100
AcDbEntity
  8
27
100
AcDbPolyline
 90
        4
 70
     0
 43
0.0
 10
1136.0
 20
264.9999999999999
 10
1154.0
 20
264.9999999999999
 10
1154.0
 20
184.9999999999995
 10
1136.0
 20
184.9999999999995
  0
LWPOLYLINE
  5
A325
330
1E
100
AcDbEntity
  8
27
100
AcDbPolyline
 90
       10
 70
     0
 43
0.0
 10
1182.0
 20
379.4999999999997
 10
1181.0
 20
379.4999999999997
 10
1170.0
 20
379.4999999999997
 10
1170.0
 20
241.9999999999995
 10
1181.0
 20
241.9999999999995
 10
1182.0
 20
241.9999999999995
 10
1182.0
 20
378.5999999999994
 10
1183.5
 20
378.5999999999994
 10
1183.5
 20
366.3999999999997
 10
1182.0
 20
366.3999999999997
  0
LWPOLYLINE
  5
A326
330
1E
100
AcDbEntity
  8
27
100
AcDbPolyline
 90
        5
 70
     0
 43
0.0
 10
1183.5
 20
367.4999999999997
 10
1189.499999999998
 20
367.4999999999997
 10
1189.499999999998
 20
370.8859053709995
 10
1189.499999999998
 20
377.4999999999997
 10
1183.5
 20
377.4999999999997
  0
LWPOLYLINE
  5
A329
330
1E
100
AcDbEntity
  8
27
100
AcDbPolyline
 90
        5
 70
     0
 43
0.0
 10
1183.5
 20
243.9999999999995
 10
1189.499999999998
 20
243.9999999999995
 10
1189.499999999998
 20
250.6689310779996
 10
1189.499999999998
 20
253.9999999999995
 10
1183.5
 20
253.9999999999995
  0
LWPOLYLINE
  5
A32B
330
1E
100
AcDbEntity
  8
27
100
AcDbPolyline
 90
        4
 70
     0
 43
0.0
 10
1182.0
 20
242.8999999999997
 10
1183.5
 20
242.8999999999997
 10
1183.5
 20
255.0999999999997
 10
1182.0
 20
255.0999999999997
  0
LWPOLYLINE
  5
A333
330
1E
100
AcDbEntity
  8
27
100
AcDbPolyline
 90
        5
 70
     0
 43
0.0
 10
1183.5
 20
305.7499999999996
 10
1189.499999999998
 20
305.7499999999996
 10
1189.499999999998
 20
311.5914102809993
 10
1189.499999999998
 20
315.7499999999997
 10
1183.5
 20
315.7499999999997
  0
LWPOLYLINE
  5
A336
330
1E
100
AcDbEntity
  8
27
100
AcDbPolyline
 90
        4
 70
     0
 43
0.0
 10
1182.0
 20
304.6499999999996
 10
1183.5
 20
304.6499999999996
 10
1183.5
 20
316.8499999999996
 10
1182.0
 20
316.8499999999996
  0
LWPOLYLINE
  5
A340
330
1E
100
AcDbEntity
  8
27
100
AcDbPolyline
 90
        6
 70
     1
 43
0.0
 10
1181.0
 20
207.9999999999995
 10
1170.0
 20
207.9999999999995
 10
1170.0
 20
70.49999999999954
 10
1181.0
 20
70.49999999999954
 10
1182.0
 20
70.49999999999954
 10
1182.0
 20
207.9999999999995
  0
LWPOLYLINE
  5
A342
330
1E
100
AcDbEntity
  8
27
100
AcDbPolyline
 90
        5
 70
     0
 43
0.0
 10
1183.5
 20
72.49999999999976
 10
1189.499999999998
 20
72.49999999999976
 10
1189.499999999998
 20
76.5362909319997
 10
1189.499999999998
 20
82.49999999999976
 10
1183.5
 20
82.49999999999976
  0
LWPOLYLINE
  5
A344
330
1E
100
AcDbEntity
  8
27
100
AcDbPolyline
 90
        4
 70
     0
 43
0.0
 10
1182.0
 20
71.39999999999941
 10
1183.5
 20
71.39999999999941
 10
1183.5
 20
83.59999999999947
 10
1182.0
 20
83.59999999999947
  0
LWPOLYLINE
  5
A34B
330
1E
100
AcDbEntity
  8
27
100
AcDbPolyline
 90
        5
 70
     0
 43
0.0
 10
1183.5
 20
134.2499999999995
 10
1189.499999999998
 20
134.2499999999995
 10
1189.499999999998
 20
141.6657632229998
 10
1189.499999999998
 20
144.2499999999995
 10
1183.5
 20
144.2499999999995
  0
LWPOLYLINE
  5
A34D
330
1E
100
AcDbEntity
  8
27
100
AcDbPolyline
 90
        4
 70
     0
 43
0.0
 10
1182.0
 20
133.1499999999996
 10
1183.5
 20
133.1499999999996
 10
1183.5
 20
145.3499999999995
 10
1182.0
 20
145.3499999999995
  0
LWPOLYLINE
  5
A352
330
1E
100
AcDbEntity
  8
27
100
AcDbPolyline
 90
        5
 70
     0
 43
0.0
 10
1183.5
 20
195.9999999999995
 10
1189.499999999998
 20
195.9999999999995
 10
1189.499999999998
 20
204.1936325359993
 10
1189.499999999998
 20
205.9999999999995
 10
1183.5
 20
205.9999999999995
  0
LWPOLYLINE
  5
A354
330
1E
100
AcDbEntity
  8
27
100
AcDbPolyline
 90
        4
 70
     0
 43
0.0
 10
1182.0
 20
194.8999999999998
 10
1183.5
 20
194.8999999999998
 10
1183.5
 20
207.0999999999995
 10
1182.0
 20
207.0999999999995
  0
LWPOLYLINE
  5
A35B
330
1E
100
AcDbEntity
  8
27
100
AcDbPolyline
 90
        7
 70
     0
 43
0.0
 10
1179.0
 20
70.49999999999954
 10
1179.0
 20
-65.00000000000023
 10
1164.0
 20
-65.00000000000023
 10
1164.0
 20
132.9999999999995
 10
1164.0
 20
142.9999999999995
 10
1164.0
 20
147.9999999999995
 10
1170.0
 20
147.9999999999995
  0
LWPOLYLINE
  5
A366
330
1E
100
AcDbEntity
  8
0
  6
Continuous
 62
     7
100
AcDbPolyline
 90
        2
 70
     0
 43
0.0
 10
1164.0
 20
4.999999999999771
 10
1160.8
 20
4.999999999999771
  0
LWPOLYLINE
  5
A367
330
1E
100
AcDbEntity
  8
0
  6
Continuous
 62
     7
100
AcDbPolyline
 90
        2
 70
     0
 43
0.0
 10
1160.8
 20
-25.00000000000022
 10
1164.0
 20
-25.00000000000022
  0
LWPOLYLINE
  5
A368
330
1E
100
AcDbEntity
  8
10
100
AcDbPolyline
 90
        2
 70
     0
 43
0.0
 10
-78.00142886309379
 20
418.5000000000012
 42
0.5144957554272797
 10
-84.99857113690621
 20
418.5000000000012
  0
LWPOLYLINE
  5
A369
330
1E
100
AcDbEntity
  8
10
100
AcDbPolyline
 90
        2
 70
     0
 43
0.0
 10
-88.25000000000001
 20
434.9999999999998
 10
21.75
 20
434.9999999999998
  0
LWPOLYLINE
  5
A36A
330
1E
100
AcDbEntity
  8
10
100
AcDbPolyline
 90
        2
 70
     0
 43
0.0
 10
-88.25000000000001
 20
445.0000000000001
 10
21.75
 20
445.0000000000001
  0
LWPOLYLINE
  5
A36B
330
1E
100
AcDbEntity
  8
10
100
AcDbPolyline
 90
        5
 70
     0
 43
0.0
 10
-88.25000000000001
 20
425.0
 10
-88.25000000000001
 20
454.9999999999998
 10
21.75
 20
454.9999999999998
 10
90.3000000000002
 20
454.9999999999998
 10
90.3000000000002
 20
425.0
  0
LWPOLYLINE
  5
A36C
330
1E
100
AcDbEntity
  8
10
100
AcDbPolyline
 90
        4
 70
     1
 43
0.0
 10
-64.5
 20
350.9999999999998
 10
-94.50000000000001
 20
350.9999999999998
 10
-94.50000000000001
 20
340.9999999999998
 10
-64.5
 20
340.9999999999998
  0
LWPOLYLINE
  5
A36E
330
1E
100
AcDbEntity
  8
10
100
AcDbPolyline
 90
        4
 70
     1
 43
0.0
 10
-44.0
 20
328.9999999999999
 10
-114.0
 20
328.9999999999999
 10
-114.0
 20
138.9999999999998
 10
-44.0
 20
138.9999999999998
  0
LWPOLYLINE
  5
A36F
330
1E
100
AcDbEntity
  8
10
100
AcDbPolyline
 90
       10
 70
     0
 43
0.0
 10
-153.0
 20
420.9999999999998
 10
-151.0
 20
420.9999999999998
 10
-149.7999999999999
 20
420.9999999999998
 10
-149.7999999999999
 20
421.1999999999998
 10
-149.7999999999999
 20
422.2000000000003
 10
149.8000000000004
 20
422.2000000000003
 10
149.8000000000004
 20
421.1999999999998
 10
149.8000000000004
 20
420.9999999999998
 10
151.0000000000004
 20
420.9999999999998
 10
153.0000000000002
 20
420.9999999999998
  0
LWPOLYLINE
  5
A370
330
1E
100
AcDbEntity
  8
10
100
AcDbPolyline
 90
        4
 70
     0
 43
0.0
 10
-149.7999999999999
 20
422.2000000000003
 10
-149.7999999999999
 20
424.4999999999998
 10
149.8000000000004
 20
424.4999999999998
 10
149.8000000000004
 20
422.2000000000003
  0
LWPOLYLINE
  5
A371
330
1E
100
AcDbEntity
  8
10
100
AcDbPolyline
 90
        6
 70
     0
 43
0.0
 10
119.0000000000002
 20
38.99999999999999
 10
130.0000000000002
 20
38.99999999999999
 10
130.0000000000002
 20
418.4999999999996
 10
-129.9999999999996
 20
418.4999999999996
 10
-129.9999999999996
 20
38.99999999999999
 10
-119.0
 20
38.99999999999999
  0
LWPOLYLINE
  5
A372
330
1E
100
AcDbEntity
  8
10
100
AcDbPolyline
 90
        8
 70
     1
 43
0.0
 10
119.0000000000002
 20
361.9999999999998
 10
-119.0
 20
361.9999999999998
 10
-119.0
 20
355.9999999999998
 10
-116.0
 20
355.9999999999998
 10
-116.0
 20
358.9999999999998
 10
116.0000000000003
 20
358.9999999999998
 10
116.0000000000003
 20
355.9999999999998
 10
119.0000000000002
 20
355.9999999999998
  0
LWPOLYLINE
  5
A374
330
1E
100
AcDbEntity
  8
10
100
AcDbPolyline
 90
        4
 70
     0
 43
0.0
 10
137.5
 20
454.9999999999998
 10
137.5
 20
475.0
 10
-137.4999999999996
 20
475.0
 10
-137.4999999999996
 20
454.9999999999998
  0
LWPOLYLINE
  5
A375
330
1E
100
AcDbEntity
  8
10
100
AcDbPolyline
 90
       12
 70
     0
 43
0.0
 10
-144.1999999999999
 20
3.199999999999818
 42
0.4142135623730951
 10
-141.1999999999999
 20
6.199999999999817
 10
-141.1999999999998
 20
129.1756275409996
 42
0.3590488101073324
 10
-142.0092331720903
 20
130.1572629200327
 10
-155.101220677214
 20
132.70150386806
 42
-0.3590488101077142
 10
-158.4999999999999
 20
136.8243724599996
 10
-158.4999999999999
 20
155.9999999999996
 10
-158.4999999999999
 20
160.7071067819999
 10
-158.4999999999999
 20
161.4142135629998
 10
-158.4999999999999
 20
450.0
 10
-158.4999999999999
 20
459.9999999999998
 10
-158.4999999999999
 20
459.9999999999998
  0
LWPOLYLINE
  5
A377
330
1E
100
AcDbEntity
  8
10
100
AcDbPolyline
 90
       10
 70
     0
 43
0.0
 10
119.5000000000004
 20
10.5999999999999
 10
119.5000000000004
 20
9.000000000000001
 10
122.5000000000002
 20
9.000000000000001
 10
137.500000001
 20
9.000000000000001
 10
137.500000001
 20
-24.99999999900021
 10
-137.4999999989998
 20
-24.99999999900021
 10
-137.4999999989998
 20
9.000000000000001
 10
-122.4999999999996
 20
9.000000000000001
 10
-119.5
 20
9.000000000000001
 10
-119.5
 20
10.5999999999999
  0
LWPOLYLINE
  5
A378
330
1E
100
AcDbEntity
  8
10
100
AcDbPolyline
 90
        4
 70
     0
 43
0.0
 10
-93.33333333299991
 20
32.99999999999975
 10
-89.99999999999976
 20
29.99999999999999
 10
90.00000000000023
 20
29.99999999999999
 10
93.33333333400036
 20
32.99999999999975
  0
LWPOLYLINE
  5
A379
330
1E
100
AcDbEntity
  8
10
100
AcDbPolyline
 90
        8
 70
     0
 43
0.0
 10
-116.0
 20
355.9999999999998
 10
-116.0
 20
320.9999999999999
 10
-119.0
 20
320.9999999999999
 10
-119.0
 20
32.99999999999975
 10
119.0000000000002
 20
32.99999999999975
 10
119.0000000000002
 20
320.9999999999999
 10
116.0000000000003
 20
320.9999999999999
 10
116.0000000000003
 20
355.9999999999998
  0
LWPOLYLINE
  5
A37A
330
1E
100
AcDbEntity
  8
10
100
AcDbPolyline
 90
        6
 70
     0
 43
0.0
 10
134.0000000000002
 20
10.5999999999999
 10
134.0000000000002
 20
12.5999999999999
 10
131.0000000000004
 20
12.5999999999999
 10
-131.0
 20
12.5999999999999
 10
-134.0
 20
12.5999999999999
 10
-134.0
 20
10.5999999999999
  0
LWPOLYLINE
  5
A37B
330
1E
100
AcDbEntity
  8
10
100
AcDbPolyline
 90
        4
 70
     0
 43
0.0
 10
131.0000000000004
 20
12.5999999999999
 10
131.0000000000004
 20
10.5999999999999
 10
-131.0
 20
10.5999999999999
 10
-131.0
 20
12.5999999999999
  0
LWPOLYLINE
  5
A37C
330
1E
100
AcDbEntity
  8
10
100
AcDbPolyline
 90
        4
 70
     0
 43
0.0
 10
-144.1999999999999
 20
-0.0000000000002246
 42
0.4142135623730951
 10
-138.0
 20
6.199999999999817
 10
-138.0
 20
129.1756275409996
 10
-138.0
 20
286.2999999999999
  0
LWPOLYLINE
  5
A381
330
1E
100
AcDbEntity
  8
10
100
AcDbPolyline
 90
       10
 70
     0
 43
0.0
 10
-158.4999999999999
 20
459.9999999999998
 10
-155.2999999999997
 20
459.9999999999998
 10
-155.2999999999997
 20
450.0
 10
-155.2999999999997
 20
161.4142135629998
 10
-155.2999999999997
 20
160.7071067819999
 10
-155.2999999999997
 20
155.9999999999996
 10
-155.2999999999999
 20
136.8243724599996
 42
0.3590488100909882
 10
-154.4907668279661
 20
135.8427370809774
 10
-141.3987793225458
 20
133.298496132893
 42
-0.3590488100913002
 10
-137.9999999999998
 20
129.1756275409996
  0
LWPOLYLINE
  5
A384
330
1E
100
AcDbEntity
  8
10
100
AcDbPolyline
 90
        3
 70
     0
 43
0.0
 10
-137.4999999989998
 20
20.99999999999976
 10
-137.4999999989998
 20
67.50000000099976
 10
-129.9999999999996
 20
67.50000000099976
  0
LWPOLYLINE
  5
A385
330
1E
100
AcDbEntity
  8
10
100
AcDbPolyline
 90
        8
 70
     0
 43
0.0
 10
-122.4999999999996
 20
9.000000000000001
 10
-122.4999999999996
 20
10.5999999999999
 10
-136.4
 20
10.5999999999999
 10
-136.4
 20
17.99999999999976
 10
-136.4
 20
20.99999999999976
 10
-128.0
 20
20.99999999999976
 10
-128.0
 20
13.0999999999999
 10
-136.4
 20
13.0999999999999
  0
LWPOLYLINE
  5
A387
330
1E
100
AcDbEntity
  8
10
100
AcDbPolyline
 90
        4
 70
     0
 43
0.0
 10
-129.0999999999999
 20
9.000000000000001
 10
-129.0999999999999
 20
7.500000000000002
 10
-123.9
 20
7.500000000000002
 10
-123.9
 20
9.000000000000001
  0
LWPOLYLINE
  5
A38A
330
1E
100
AcDbEntity
  8
10
100
AcDbPolyline
 90
        2
 70
     0
 43
0.0
 10
-136.4
 20
20.99999999999976
 10
-138.0
 20
20.99999999999976
  0
LWPOLYLINE
  5
A38B
330
1E
100
AcDbEntity
  8
10
100
AcDbPolyline
 90
        3
 70
     0
 43
0.0
 10
-136.4
 20
17.99999999999976
 10
-138.0
 20
17.99999999999976
 10
-138.0
 20
9.000000000000001
  0
LWPOLYLINE
  5
A39C
330
1E
100
AcDbEntity
  8
10
100
AcDbPolyline
 90
        3
 70
     0
 43
0.0
 10
-138.0
 20
72.99999999999975
 42
0.4142135623730951
 10
-133.0
 20
67.99999999999975
 10
-129.9999999999996
 20
67.99999999999975
  0
LWPOLYLINE
  5
A3AA
330
1E
100
AcDbEntity
  8
10
100
AcDbPolyline
 90
        2
 70
     0
 43
0.0
 10
-155.2999999999997
 20
155.9999999999996
 10
-158.4999999999999
 20
155.9999999999996
  0
LWPOLYLINE
  5
A3AB
330
1E
100
AcDbEntity
  8
10
100
AcDbPolyline
 90
        6
 70
     0
 43
0.0
 10
-138.0
 20
100.9999999999997
 10
-137.6999999999998
 20
100.9999999999997
 10
-137.6999999999998
 20
101.9999999999997
 10
-137.6999999999998
 20
124.9999999999999
 10
-137.6999999999998
 20
125.9999999999997
 10
-138.0
 20
125.9999999999997
  0
LWPOLYLINE
  5
A3B2
330
1E
100
AcDbEntity
  8
10
100
AcDbPolyline
 90
        6
 70
     0
 43
0.0
 10
-138.0
 20
324.7000000000002
 10
-137.9999999999997
 20
378.9999999999998
 42
-0.4142135623730951
 10
-134.9999999999996
 20
381.9999999999998
 10
-133.0
 20
381.9999999999998
 10
-133.0
 20
377.9999999999998
 10
-129.9999999999996
 20
377.9999999999998
  0
LWPOLYLINE
  5
A3B3
330
1E
100
AcDbEntity
  8
10
100
AcDbPolyline
 90
        4
 70
     0
 43
0.0
 10
-158.4999999999999
 20
278.4999999999997
 10
-164.5
 20
278.4999999999997
 10
-164.5
 20
332.5000000000001
 10
-158.4999999999999
 20
332.5000000000001
  0
LWPOLYLINE
  5
A3B6
330
1E
100
AcDbEntity
  8
10
100
AcDbPolyline
 90
        2
 70
     0
 43
0.0
 10
-138.0
 20
289.4999999999999
 10
-138.0
 20
321.4999999999998
  0
LWPOLYLINE
  5
A3B7
330
1E
100
AcDbEntity
  8
10
100
AcDbPolyline
 90
        9
 70
     0
 43
0.0
 10
-155.2999999999999
 20
286.2999999999999
 42
-0.4142135623730978
 10
-152.0999999999995
 20
289.5000000000001
 10
-136.6999999999999
 20
289.4999999999999
 10
-136.6999999999999
 20
292.5000000000001
 10
-136.6999999999999
 20
318.4999999999998
 10
-136.6999999999999
 20
321.4999999999998
 10
-152.0999999999995
 20
321.5000000000001
 42
-0.397821198070099
 10
-155.2949317136186
 20
324.5199684879995
 10
-155.2949317129998
 20
324.5199684879995
  0
LWPOLYLINE
  5
A3B8
330
1E
100
AcDbEntity
  8
10
100
AcDbPolyline
 90
        6
 70
     0
 43
0.0
 10
-136.6999999999999
 20
289.4999999999999
 10
-133.4999999999999
 20
289.4999999999999
 10
-133.4999999999999
 20
292.5000000000001
 10
-133.4999999999999
 20
318.4999999999998
 10
-133.4999999999999
 20
321.4999999999998
 10
-136.6999999999999
 20
321.4999999999998
  0
LWPOLYLINE
  5
A3BA
330
1E
100
AcDbEntity
  8
10
100
AcDbPolyline
 90
        6
 70
     0
 43
0.0
 10
-155.2999999999997
 20
269.4999999999999
 10
-152.0999999999999
 20
269.4999999999999
 10
-152.0999999999999
 20
272.5
 10
-152.0999999999999
 20
286.2999999999999
 10
-136.6999999999999
 20
286.2999999999999
 42
0.4142135623730978
 10
-133.4999999999999
 20
289.4999999999999
  0
LWPOLYLINE
  5
A3C3
330
1E
100
AcDbEntity
  8
10
100
AcDbPolyline
 90
        6
 70
     0
 43
0.0
 10
-133.4999999999999
 20
321.4999999999998
 42
0.4142135623730978
 10
-136.6999999999999
 20
324.6999999999998
 10
-152.0999999999999
 20
324.7000000000002
 10
-152.0999999999999
 20
338.4999999999998
 10
-152.0999999999999
 20
341.4999999999999
 10
-155.2999999999997
 20
341.4999999999999
  0
LWPOLYLINE
  5
A3C6
330
1E
100
AcDbEntity
  8
10
100
AcDbPolyline
 90
        2
 70
     0
 43
0.0
 10
-155.2999999999997
 20
308.5199684879995
 10
-138.0
 20
308.5199684879995
  0
LWPOLYLINE
  5
A3D4
330
1E
100
AcDbEntity
  8
10
100
AcDbPolyline
 90
        2
 70
     0
 43
0.0
 10
-119.0
 20
320.9999999999999
 10
-119.0
 20
355.9999999999998
  0
LWPOLYLINE
  5
A3D7
330
1E
100
AcDbEntity
  8
10
100
AcDbPolyline
 90
        4
 70
     0
 43
0.0
 10
-155.2999999999997
 20
433.9999999999998
 10
-153.0
 20
433.9999999999998
 10
-153.0
 20
436.9999999999998
 10
-155.2999999999997
 20
436.9999999999998
  0
LWPOLYLINE
  5
A3DA
330
1E
100
AcDbEntity
  8
10
100
AcDbPolyline
 90
        8
 70
     0
 43
0.0
 10
-129.9999999999996
 20
386.4999999999998
 10
-138.7999999999997
 20
386.4999999999998
 10
-138.7999999999997
 20
389.7999999999998
 10
-138.7999999999997
 20
389.9999999999998
 10
-151.0
 20
389.9999999999998
 10
-153.0
 20
389.9999999999998
 10
-153.0
 20
392.9999999999998
 10
-155.2999999999997
 20
392.9999999999998
  0
LWPOLYLINE
  5
A3DC
330
1E
100
AcDbEntity
  8
10
100
AcDbPolyline
 90
        2
 70
     0
 43
0.0
 10
-153.0
 20
389.9999999999998
 10
-155.2999999999997
 20
389.9999999999998
  0
LWPOLYLINE
  5
A3DF
330
1E
100
AcDbEntity
  8
10
100
AcDbPolyline
 90
        2
 70
     0
 43
0.0
 10
-137.4999999999996
 20
382.4999999999998
 10
-129.9999999999996
 20
382.4999999999998
  0
LWPOLYLINE
  5
A3E8
330
1E
100
AcDbEntity
  8
10
100
AcDbPolyline
 90
        2
 70
     0
 43
0.0
 10
-135.8499999999999
 20
422.1682458369998
 10
-135.8499999999999
 20
421.1999999999998
  0
LWPOLYLINE
  5
A3EA
330
1E
100
AcDbEntity
  8
10
100
AcDbPolyline
 90
        2
 70
     0
 43
0.0
 10
-153.0
 20
392.9999999999998
 10
-153.0
 20
433.9999999999998
  0
LWPOLYLINE
  5
A3F2
330
1E
100
AcDbEntity
  8
10
100
AcDbPolyline
 90
        2
 70
     0
 43
0.0
 10
-88.25000000000001
 20
454.9999999999998
 10
-155.2999999999997
 20
454.9999999999998
  0
LWPOLYLINE
  5
A3FA
330
1E
100
AcDbEntity
  8
10
100
AcDbPolyline
 90
        4
 70
     1
 43
0.0
 10
89.00000000000023
 20
344.9999999999998
 10
89.00000000000023
 20
70.0
 10
114.0000000000002
 20
70.0
 10
114.0000000000002
 20
344.9999999999998
  0
LWPOLYLINE
  5
A3FD
330
1E
100
AcDbEntity
  8
10
100
AcDbPolyline
 90
        5
 70
     0
 43
0.0
 10
138.0000000000002
 20
286.2999999999999
 10
138.0000000000002
 20
129.1756275409996
 10
138.0000000000002
 20
6.199999999999817
 42
0.4142135623730966
 10
144.2000000000003
 20
-0.0000000000002246
 10
170.0
 20
0.0000000000000028
  0
LWPOLYLINE
  5
A3FF
330
1E
100
AcDbEntity
  8
10
100
AcDbPolyline
 90
        5
 70
     0
 43
0.0
 10
158.5000000000003
 20
155.9999999999996
 10
158.5000000000003
 20
160.7071067819999
 10
158.5000000000003
 20
161.4142135629998
 10
158.5000000000003
 20
450.0
 10
158.5000000000003
 20
459.9999999999998
  0
LWPOLYLINE
  5
A400
330
1E
100
AcDbEntity
  8
10
100
AcDbPolyline
 90
        4
 70
     1
 43
0.0
 10
65.00000000000023
 20
65.0
 10
-64.99999999999977
 20
65.0
 10
-64.99999999999977
 20
34.99999999999999
 10
65.00000000000023
 20
34.99999999999999
  0
LWPOLYLINE
  5
A408
330
1E
100
AcDbEntity
  8
10
100
AcDbPolyline
 90
       12
 70
     0
 43
0.0
 10
130.0000000000002
 20
67.50000000099976
 10
137.500000001
 20
67.50000000099976
 10
137.500000001
 20
40.99999999999974
 10
136.0000000000004
 20
40.99999999999974
 10
136.0000000000004
 20
34.99999999999999
 10
136.0000000000004
 20
28.99999999999998
 10
137.500000001
 20
28.99999999999998
 10
137.500000001
 20
20.99999999999976
 10
136.4000000000003
 20
20.99999999999976
 10
128.0000000000002
 20
20.99999999999976
 10
128.0000000000002
 20
13.0999999999999
 10
136.4000000000003
 20
13.0999999999999
  0
LWPOLYLINE
  5
A40A
330
1E
100
AcDbEntity
  8
10
100
AcDbPolyline
 90
        4
 70
     0
 43
0.0
 10
136.4000000000003
 20
20.99999999999976
 10
136.4000000000003
 20
17.99999999999976
 10
138.0000000000002
 20
17.99999999999976
 10
138.0000000000002
 20
9.000000000000001
  0
LWPOLYLINE
  5
A40E
330
1E
100
AcDbEntity
  8
10
100
AcDbPolyline
 90
        4
 70
     0
 43
0.0
 10
123.9000000000002
 20
9.000000000000001
 10
123.9000000000002
 20
7.500000000000002
 10
129.1000000000001
 20
7.500000000000002
 10
129.1000000000001
 20
9.000000000000001
  0
LWPOLYLINE
  5
A413
330
1E
100
AcDbEntity
  8
10
100
AcDbPolyline
 90
        4
 70
     0
 43
0.0
 10
122.5000000000002
 20
9.000000000000001
 10
122.5000000000002
 20
10.5999999999999
 10
136.4000000000003
 20
10.5999999999999
 10
136.4000000000003
 20
17.99999999999976
  0
LWPOLYLINE
  5
A421
330
1E
100
AcDbEntity
  8
10
100
AcDbPolyline
 90
        3
 70
     0
 43
0.0
 10
130.0000000000002
 20
67.99999999999975
 10
133.0000000000002
 20
67.99999999999975
 42
0.4142135623730951
 10
138.0000000000002
 20
72.99999999999975
  0
LWPOLYLINE
  5
A42D
330
1E
100
AcDbEntity
  8
10
100
AcDbPolyline
 90
        5
 70
     0
 43
0.0
 10
155.3000000000001
 20
155.9999999999996
 10
155.3000000000001
 20
136.8243724599996
 42
-0.3590488100869451
 10
154.4907668279805
 20
135.8427370809804
 10
141.3987793224873
 20
133.2984961328814
 42
0.35904881008726
 10
138.0000000000002
 20
129.1756275409996
  0
LWPOLYLINE
  5
A430
330
1E
100
AcDbEntity
  8
10
100
AcDbPolyline
 90
        6
 70
     0
 43
0.0
 10
138.0000000000002
 20
100.9999999999997
 10
137.7000000000002
 20
100.9999999999997
 10
137.7000000000002
 20
101.9999999999997
 10
137.7000000000002
 20
124.9999999999999
 10
137.7000000000002
 20
125.9999999999997
 10
138.0000000000002
 20
125.9999999999997
  0
LWPOLYLINE
  5
A43E
330
1E
100
AcDbEntity
  8
10
100
AcDbPolyline
 90
        4
 70
     1
 43
0.0
 10
46.0
 20
300.9999999999998
 10
46.0
 20
285.9999999999999
 10
72.0
 20
285.9999999999999
 10
72.0
 20
300.9999999999998
  0
LWPOLYLINE
  5
A440
330
1E
100
AcDbEntity
  8
10
100
AcDbPolyline
 90
        4
 70
     1
 43
0.0
 10
0.0000000000002274
 20
300.9999999999998
 10
0.0000000000002274
 20
285.9999999999999
 10
26.0
 20
285.9999999999999
 10
26.0
 20
300.9999999999998
  0
LWPOLYLINE
  5
A443
330
1E
100
AcDbEntity
  8
10
100
AcDbPolyline
 90
        4
 70
     1
 43
0.0
 10
26.0
 20
265.9999999999997
 10
0.0000000000002274
 20
265.9999999999997
 10
0.0000000000002274
 20
240.9999999999997
 10
26.0
 20
240.9999999999997
  0
LWPOLYLINE
  5
A448
330
1E
100
AcDbEntity
  8
10
100
AcDbPolyline
 90
        4
 70
     1
 43
0.0
 10
46.0
 20
265.9999999999997
 10
46.0
 20
240.9999999999997
 10
72.0
 20
240.9999999999997
 10
72.0
 20
265.9999999999997
  0
LWPOLYLINE
  5
A44E
330
1E
100
AcDbEntity
  8
10
100
AcDbPolyline
 90
        3
 70
     0
 43
0.0
 10
-77.0
 20
422.2000000000003
 10
-77.0
 20
421.1999999999998
 10
-77.0
 20
418.4999999999996
  0
LWPOLYLINE
  5
A450
330
1E
100
AcDbEntity
  8
10
100
AcDbPolyline
 90
        2
 70
     0
 43
0.0
 10
21.75
 20
425.0
 10
21.75
 20
454.9999999999998
  0
LWPOLYLINE
  5
A451
330
1E
100
AcDbEntity
  8
10
100
AcDbPolyline
 90
        3
 70
     0
 43
0.0
 10
10.5
 20
418.4999999999996
 10
10.5
 20
421.1999999999998
 10
10.5
 20
422.2000000000003
  0
LWPOLYLINE
  5
A453
330
1E
100
AcDbEntity
  8
10
100
AcDbPolyline
 90
        2
 70
     0
 43
0.0
 10
18.9985711369062
 20
418.5000000000012
 42
0.5144957554272797
 10
12.00142886309379
 20
418.5000000000012
  0
LWPOLYLINE
  5
A458
330
1E
100
AcDbEntity
  8
10
100
AcDbPolyline
 90
        6
 70
     0
 43
0.0
 10
130.0000000000002
 20
377.9999999999998
 10
133.0000000000002
 20
377.9999999999998
 10
133.0000000000002
 20
381.9999999999998
 10
135.0000000000002
 20
381.9999999999998
 42
-0.4142135623730951
 10
138.0000000000002
 20
378.9999999999998
 10
138.0000000000002
 20
324.7000000000002
  0
LWPOLYLINE
  5
A459
330
1E
100
AcDbEntity
  8
10
100
AcDbPolyline
 90
        8
 70
     1
 43
0.0
 10
136.7000000000002
 20
318.4999999999998
 10
136.7000000000002
 20
321.4999999999998
 10
133.5000000000003
 20
321.4999999999998
 10
133.5000000000003
 20
318.4999999999998
 10
133.5000000000003
 20
292.5000000000001
 10
133.5000000000003
 20
289.4999999999999
 10
136.7000000000002
 20
289.4999999999999
 10
136.7000000000002
 20
292.5000000000001
  0
LWPOLYLINE
  5
A45A
330
1E
100
AcDbEntity
  8
10
100
AcDbPolyline
 90
        2
 70
     0
 43
0.0
 10
138.0000000000002
 20
321.4999999999998
 10
138.0000000000002
 20
289.4999999999999
  0
LWPOLYLINE
  5
A45C
330
1E
100
AcDbEntity
  8
10
100
AcDbPolyline
 90
        3
 70
     0
 43
0.0
 10
155.3000000000003
 20
286.2999999999999
 42
0.4142135623730978
 10
152.1000000000003
 20
289.5000000000001
 10
136.7000000000002
 20
289.4999999999999
  0
LWPOLYLINE
  5
A45D
330
1E
100
AcDbEntity
  8
10
100
AcDbPolyline
 90
        6
 70
     0
 43
0.0
 10
133.4999999999999
 20
289.4999999999999
 42
0.4142135623730978
 10
136.7000000000003
 20
286.2999999999999
 10
152.1000000000003
 20
286.2999999999999
 10
152.1000000000003
 20
272.5
 10
152.1000000000003
 20
269.4999999999999
 10
155.3000000000001
 20
269.4999999999999
  0
LWPOLYLINE
  5
A46B
330
1E
100
AcDbEntity
  8
10
100
AcDbPolyline
 90
        6
 70
     0
 43
0.0
 10
133.4999999999999
 20
321.4999999999998
 42
-0.4142135623730978
 10
136.7000000000003
 20
324.6999999999998
 10
152.1000000000003
 20
324.7000000000002
 10
152.1000000000003
 20
338.4999999999998
 10
152.1000000000003
 20
341.4999999999999
 10
155.3000000000001
 20
341.4999999999999
  0
LWPOLYLINE
  5
A46E
330
1E
100
AcDbEntity
  8
10
100
AcDbPolyline
 90
        4
 70
     0
 43
0.0
 10
136.7000000000002
 20
321.4999999999998
 10
152.1000000000003
 20
321.5000000000001
 42
0.397821198070099
 10
155.294931713619
 20
324.5199684879995
 10
155.2949317139994
 20
324.5199684879995
  0
LWPOLYLINE
  5
A476
330
1E
100
AcDbEntity
  8
10
100
AcDbPolyline
 90
        2
 70
     0
 43
0.0
 10
138.0000000000002
 20
308.5199684879995
 10
155.3000000000001
 20
308.5199684879995
  0
LWPOLYLINE
  5
A477
330
1E
100
AcDbEntity
  8
10
100
AcDbPolyline
 90
        2
 70
     0
 43
0.0
 10
119.0000000000002
 20
320.9999999999999
 10
119.0000000000002
 20
355.9999999999998
  0
LWPOLYLINE
  5
A479
330
1E
100
AcDbEntity
  8
10
100
AcDbPolyline
 90
        6
 70
     1
 43
0.0
 10
167.5000000000002
 20
332.5000000000001
 10
164.5000000000004
 20
332.5000000000001
 10
164.5000000000004
 20
278.4999999999997
 10
167.5000000000002
 20
278.4999999999997
 10
208.5000000000004
 20
278.4999999999997
 10
208.5000000000004
 20
332.5000000000001
  0
LWPOLYLINE
  5
A47B
330
1E
100
AcDbEntity
  8
10
100
AcDbPolyline
 90
        2
 70
     0
 43
0.0
 10
164.5000000000004
 20
278.4999999999997
 10
158.5000000000003
 20
278.4999999999997
  0
LWPOLYLINE
  5
A47D
330
1E
100
AcDbEntity
  8
10
100
AcDbPolyline
 90
        2
 70
     0
 43
0.0
 10
164.5000000000004
 20
332.5000000000001
 10
158.5000000000003
 20
332.5000000000001
  0
LWPOLYLINE
  5
A47F
330
1E
100
AcDbEntity
  8
10
100
AcDbPolyline
 90
        3
 70
     0
 43
0.0
 10
140.3
 20
425.0
 10
140.3
 20
454.9999999999998
 10
90.3000000000002
 20
454.9999999999998
  0
LWPOLYLINE
  5
A481
330
1E
100
AcDbEntity
  8
10
100
AcDbPolyline
 90
        2
 70
     0
 43
0.0
 10
90.3000000000002
 20
434.9999999999998
 10
140.3
 20
434.9999999999998
  0
LWPOLYLINE
  5
A48A
330
1E
100
AcDbEntity
  8
10
100
AcDbPolyline
 90
        4
 70
     0
 43
0.0
 10
155.3000000000001
 20
433.9999999999998
 10
153.0000000000002
 20
433.9999999999998
 10
153.0000000000002
 20
436.9999999999998
 10
155.3000000000001
 20
436.9999999999998
  0
LWPOLYLINE
  5
A48D
330
1E
100
AcDbEntity
  8
10
100
AcDbPolyline
 90
        8
 70
     0
 43
0.0
 10
155.3000000000001
 20
392.9999999999998
 10
153.0000000000002
 20
392.9999999999998
 10
153.0000000000002
 20
389.9999999999998
 10
151.0000000000004
 20
389.9999999999998
 10
138.8000000000004
 20
389.9999999999998
 10
138.8000000000004
 20
389.7999999999998
 10
138.8000000000004
 20
386.4999999999998
 10
130.0000000000002
 20
386.4999999999998
  0
LWPOLYLINE
  5
A48F
330
1E
100
AcDbEntity
  8
10
100
AcDbPolyline
 90
        2
 70
     0
 43
0.0
 10
155.3000000000001
 20
389.9999999999998
 10
153.0000000000002
 20
389.9999999999998
  0
LWPOLYLINE
  5
A497
330
1E
100
AcDbEntity
  8
10
100
AcDbPolyline
 90
        2
 70
     0
 43
0.0
 10
130.0000000000002
 20
382.4999999999998
 10
137.5
 20
382.4999999999998
  0
LWPOLYLINE
  5
A49C
330
1E
100
AcDbEntity
  8
10
100
AcDbPolyline
 90
        2
 70
     0
 43
0.0
 10
153.0000000000002
 20
433.9999999999998
 10
153.0000000000002
 20
392.9999999999998
  0
LWPOLYLINE
  5
A4A0
330
1E
100
AcDbEntity
  8
10
100
AcDbPolyline
 90
        2
 70
     0
 43
0.0
 10
90.3000000000002
 20
445.0000000000001
 10
140.3
 20
445.0000000000001
  0
LWPOLYLINE
  5
A4A4
330
1E
100
AcDbEntity
  8
10
100
AcDbPolyline
 90
        2
 70
     0
 43
0.0
 10
140.3
 20
454.9999999999998
 10
155.3000000000001
 20
454.9999999999998
  0
LWPOLYLINE
  5
A4A7
330
1E
100
AcDbEntity
  8
27
100
AcDbPolyline
 90
        4
 70
     0
 43
0.0
 10
-59.99999999999977
 20
475.0
 10
-59.99999999999977
 20
515.0000000000001
 10
-109.9999999999996
 20
515.0000000000001
 10
-109.9999999999996
 20
475.0
  0
LWPOLYLINE
  5
A4A9
330
1E
100
AcDbEntity
  8
27
100
AcDbPolyline
 90
        4
 70
     0
 43
0.0
 10
110.0000000000002
 20
475.0
 10
110.0000000000002
 20
515.0000000000001
 10
60.00000000000023
 20
515.0000000000001
 10
60.00000000000023
 20
475.0
  0
LWPOLYLINE
  5
A4AC
330
1E
100
AcDbEntity
  8
27
100
AcDbPolyline
 90
        4
 70
     0
 43
0.0
 10
25.00000000000023
 20
475.0
 10
25.00000000000023
 20
515.0000000000001
 10
-24.99999999999977
 20
515.0000000000001
 10
-24.99999999999977
 20
475.0
  0
LWPOLYLINE
  5
A4B0
330
1E
100
AcDbEntity
  8
27
100
AcDbPolyline
 90
        4
 70
     0
 43
0.0
 10
-109.999999999
 20
-24.99999999900021
 10
-109.999999999
 20
-64.99999999900023
 10
-59.99999999899999
 20
-64.99999999900023
 10
-59.99999999899999
 20
-24.99999999900021
  0
LWPOLYLINE
  5
A4B2
330
1E
100
AcDbEntity
  8
27
100
AcDbPolyline
 90
        4
 70
     0
 43
0.0
 10
60.00000000000023
 20
-24.99999999900021
 10
60.00000000000023
 20
-65.0
 10
110.0000000000002
 20
-65.0
 10
110.0000000000002
 20
-24.99999999900021
  0
LWPOLYLINE
  5
A4B5
330
1E
100
AcDbEntity
  8
27
100
AcDbPolyline
 90
        4
 70
     0
 43
0.0
 10
-24.99999999999977
 20
-24.99999999900021
 10
-24.99999999999977
 20
-65.0
 10
25.00000000000023
 20
-65.0
 10
25.00000000000023
 20
-24.99999999900021
  0
LWPOLYLINE
  5
A4B9
330
1E
100
AcDbEntity
  8
18
100
AcDbPolyline
 90
        4
 70
     1
 43
0.0
 10
175.0
 20
553.2
 10
175.0
 20
563.2
 10
-174.9999999999995
 20
563.2
 10
-174.9999999999995
 20
553.2
  0
LWPOLYLINE
  5
A4BD
330
1E
100
AcDbEntity
  8
11
100
AcDbPolyline
 90
        4
 70
     1
 43
0.0
 10
-875.0
 20
365.0
 10
-875.0
 20
30.0
 10
-1125.0
 20
30.0
 10
-1125.0
 20
365.0
  0
LWPOLYLINE
  5
A4C1
330
1E
100
AcDbEntity
  8
18
100
AcDbPolyline
 90
        4
 70
     1
 43
0.0
 10
-760.0
 20
-100.0
 10
-1240.0
 20
-100.0
 10
-1240.0
 20
550.0
 10
-760.0
 20
550.0
  0
LWPOLYLINE
  5
A51C
330
1E
100
AcDbEntity
  8
10
100
AcDbPolyline
 90
        6
 70
   128
 43
0.0
 10
920.9999999999991
 20
3.199999999999363
 10
920.9999999999991
 20
0.0000000000004547
 10
930.9999999999991
 20
0.0000000000004547
 10
1130.999999999998
 20
0.0000000000004547
 10
1140.999999999998
 20
0.0000000000004547
 10
1140.999999999998
 20
3.199999999999363
  0
LWPOLYLINE
  5
A532
330
1E
100
AcDbEntity
  8
34
100
AcDbPolyline
 90
        4
 70
     0
 43
0.0
 10
981.0
 20
490.0
 10
874.0
 20
490.0
 10
874.0
 20
428.9999999999997
 10
888.4999999999999
 20
428.9999999999997
  0
LWPOLYLINE
  5
A559
330
1E
100
AcDbEntity
  8
18
100
AcDbPolyline
 90
        4
 70
     0
 43
0.0
 10
1078.0
 20
-0.1984904920004737
 10
1078.0
 20
-112.2872557790002
 10
978.0
 20
-112.2872557790002
 10
978.0
 20
-0.1984904920004737
  0
LWPOLYLINE
  5
A583
330
1E
100
AcDbEntity
  8
10
100
AcDbPolyline
 90
        6
 70
     0
 43
0.0
 10
-164.5
 20
278.4999999999997
 10
-167.4999999999996
 20
278.4999999999997
 10
-208.4999999999999
 20
278.4999999999997
 10
-208.4999999999999
 20
332.5000000000001
 10
-167.4999999999996
 20
332.5000000000001
 10
-164.5
 20
332.5000000000001
  0
LWPOLYLINE
  5
A5B4
330
1E
100
AcDbEntity
  8
10
100
AcDbPolyline
 90
        4
 70
     1
 43
0.0
 10
-109.9999999999996
 20
1277.0
 10
110.0000000000002
 20
1277.0
 10
110.0000000000002
 20
1305.0
 10
-109.9999999999996
 20
1305.0
  0
LWPOLYLINE
  5
A5B6
330
1E
100
AcDbEntity
  8
17
100
AcDbPolyline
 90
        2
 70
     0
 43
0.0
 10
85.00000000000019
 20
1213.924838952999
 10
85.00000000000019
 20
1363.250045951999
  0
LWPOLYLINE
  5
A5B7
330
1E
100
AcDbEntity
  8
16
100
AcDbPolyline
 90
        2
 70
     0
 43
0.0
 10
0.000000000000199
 20
915.4944792356037
 10
0.000000000000199
 20
1363.250045951999
  0
LWPOLYLINE
  5
A5B8
330
1E
100
AcDbEntity
  8
27
100
AcDbPolyline
 90
        4
 70
     1
 43
0.0
 10
60.0000000000002
 20
1305.0
 10
110.0000000000002
 20
1305.0
 10
110.0000000000002
 20
1320.0
 10
60.0000000000002
 20
1320.0
  0
LWPOLYLINE
  5
A5BE
330
1E
100
AcDbEntity
  8
27
100
AcDbPolyline
 90
        4
 70
     0
 43
0.0
 10
-24.9999999999998
 20
1305.0
 10
-24.9999999999998
 20
1320.0
 10
25.00000000000019
 20
1320.0
 10
25.00000000000019
 20
1305.0
  0
LWPOLYLINE
  5
A5C2
330
1E
100
AcDbEntity
  8
17
100
AcDbPolyline
 90
        2
 70
     0
 43
0.0
 10
-84.9999999999998
 20
1213.924838952999
 10
-84.9999999999998
 20
1363.250045951999
  0
LWPOLYLINE
  5
A5C6
330
1E
100
AcDbEntity
  8
27
100
AcDbPolyline
 90
        4
 70
     0
 43
0.0
 10
-59.9999999999998
 20
1305.0
 10
-59.9999999999998
 20
1320.0
 10
-109.9999999999996
 20
1320.0
 10
-109.9999999999996
 20
1305.0
  0
LWPOLYLINE
  5
A5C9
330
1E
100
AcDbEntity
  8
10
100
AcDbPolyline
 90
        3
 70
     0
 43
0.0
 10
1890.0
 20
0.0
 10
1844.0
 20
0.0
 10
1844.0
 20
460.0
  0
LWPOLYLINE
  5
A5CB
330
1E
100
AcDbEntity
  8
10
100
AcDbPolyline
 90
        3
 70
     0
 43
0.0
 10
2110.0
 20
0.0
 10
2161.0
 20
0.0
 10
2161.0
 20
460.0
  0
TEXT
  5
A853
330
1E
100
AcDbEntity
  8
19
100
AcDbText
 10
1793.375992527209
 20
1170.411716685819
 30
0.0
 40
20.0
  1
:FRONT PANEL CENTER LINE
100
AcDbText
  0
TEXT
  5
A854
330
1E
100
AcDbEntity
  8
19
100
AcDbText
 10
1763.127761621656
 20
1175.134931797841
 30
-0.0000000000000136
 40
20.0
  1
P
 50
0.000002504494757
100
AcDbText
  0
TEXT
  5
A855
330
1E
100
AcDbEntity
  8
19
100
AcDbText
 10
1755.80964638728
 20
1161.257978672841
 30
-0.0000000000000136
 40
20.0
  1
C
 50
0.000002504494757
100
AcDbText
  0
TEXT
  5
A861
330
1E
100
AcDbEntity
  8
19
100
AcDbText
 10
-5.227619079100348
 20
705.2472210300692
 30
0.0
 40
20.0
  1
Ｐ
 41
0.75
100
AcDbText
  0
TEXT
  5
A862
330
1E
100
AcDbEntity
  8
19
100
AcDbText
 10
-16.64318650630548
 20
691.4909918257399
 30
0.0
 40
20.0
  1
Ｃ
 41
0.75
100
AcDbText
  0
LWPOLYLINE
  5
A8B1
330
1E
100
AcDbEntity
  8
34
100
AcDbPolyline
 90
        4
 70
     0
 43
0.0
 10
-158.4999999999999
 20
459.9999999999998
 10
-158.4999999999999
 20
490.0000000000003
 10
158.5000000000003
 20
490.0000000000003
 10
158.5000000000003
 20
459.9999999999998
  0
LWPOLYLINE
  5
A8B2
330
1E
100
AcDbEntity
  8
10
100
AcDbPolyline
 90
       15
 70
     0
 43
0.0
 10
158.5000000000003
 20
459.9999999999998
 10
158.5000000000003
 20
459.9999999999998
 10
155.3000000000001
 20
459.9999999999998
 10
155.3000000000001
 20
450.0
 10
155.3000000000001
 20
161.4142135629998
 10
155.3000000000001
 20
160.7071067819999
 10
155.3000000000001
 20
155.9999999999996
 10
158.5000000000003
 20
155.9999999999996
 10
158.4999999999999
 20
136.8243724599996
 42
-0.359048810111753
 10
155.1012206771553
 20
132.7015038680483
 10
142.0092331720903
 20
130.1572629200327
 42
0.3590488101073324
 10
141.1999999999999
 20
129.1756275409996
 10
141.1999999999999
 20
6.199999999999817
 42
0.4142135623730951
 10
144.2000000000001
 20
3.199999999999818
 10
170.0
 20
3.199999999999818
  0
DIMENSION
  5
A8BA
330
1E
100
AcDbEntity
  8
30
100
AcDbDimension
  2
*D45
 10
1179.0
 20
529.8015095079995
 30
0.0
 11
1171.499999999999
 21
537.8015095079994
 31
0.0
 70
    32
 71
     5
 42
15.0
  3
Standard
100
AcDbAlignedDimension
 13
1164.0
 23
515.0
 33
0.0
 14
1179.0
 24
515.0
 34
0.0
100
AcDbRotatedDimension
  0
LWPOLYLINE
  5
A8F2
330
1E
100
AcDbEntity
  8
10
100
AcDbPolyline
 90
        4
 70
     1
 43
0.0
 10
-158.4999999999999
 20
1277.0
 10
158.5000000000003
 20
1277.0
 10
158.5000000000003
 20
1000.0
 10
-158.4999999999999
 20
1000.0
  0
DIMENSION
  5
A8F3
330
1E
100
AcDbEntity
  8
30
100
AcDbDimension
  2
*D47
 10
118.9998991749992
 20
952.0091017753019
 30
0.0
 11
59.4998991749992
 21
960.0091017753019
 31
0.0
 70
    32
 71
     5
 42
118.9999999999999
  3
Standard
100
AcDbAlignedDimension
 13
-0.0001008250007857
 23
983.0
 33
0.0
 14
118.9998991749992
 24
983.0
 34
0.0
100
AcDbRotatedDimension
  0
LINE
  5
A8F4
330
1E
100
AcDbEntity
  8
10
100
AcDbLine
 10
119.0
 20
983.0
 30
0.0
 11
-118.9999999999999
 21
983.0
 31
0.0
  0
LINE
  5
A8F5
330
1E
100
AcDbEntity
  8
10
100
AcDbLine
 10
-118.9999999999999
 20
1000.0
 30
0.0
 11
-118.9999999999999
 21
983.0
 31
0.0
  0
DIMENSION
  5
A8F6
330
1E
100
AcDbEntity
  8
30
100
AcDbDimension
  2
*D48
 10
-119.0001008250004
 20
952.1757684419686
 30
0.0
 11
-59.50010082500059
 21
960.1757684419686
 31
0.0
 70
    32
 71
     5
 42
118.9999999999996
  3
Standard
100
AcDbAlignedDimension
 13
-0.0001008250007857
 23
983.0
 33
0.0
 14
-119.0001008250004
 24
983.0
 34
0.0
100
AcDbRotatedDimension
  0
LINE
  5
A8F7
330
1E
100
AcDbEntity
  8
10
100
AcDbLine
 10
119.0
 20
983.0
 30
0.0
 11
119.0
 21
1000.0
 31
0.0
  0
LINE
  5
A962
330
1E
100
AcDbEntity
  8
10
100
AcDbLine
 10
1844.0
 20
460.0
 30
0.0
 11
1890.0
 21
460.0
 31
0.0
  0
LINE
  5
A963
330
1E
100
AcDbEntity
  8
10
100
AcDbLine
 10
2161.0
 20
460.0
 30
0.0
 11
2110.0
 21
460.0
 31
0.0
  0
DIMENSION
  5
A98B
330
1E
100
AcDbEntity
  8
30
100
AcDbDimension
  2
*D49
 10
1865.0
 20
500.0
 30
0.0
 11
1857.0
 21
507.5000000000003
 31
0.0
 70
    32
 71
     5
 42
15.00000000000005
  3
Standard
100
AcDbAlignedDimension
 13
1890.0
 23
515.0
 33
0.0
 14
1902.5
 24
500.0
 34
0.0
 50
90.0
100
AcDbRotatedDimension
  0
DIMENSION
  5
AA20
330
1E
100
AcDbEntity
  8
30
100
AcDbDimension
  2
*D52
 10
1179.0
 20
-195.1984904920004
 30
0.0
 11
1019.0
 21
-187.1984904920003
 31
0.0
 70
    32
 71
     5
 42
320.0
  3
Standard
100
AcDbAlignedDimension
 13
859.0
 23
-77.00000000000045
 33
0.0
 14
1179.0
 24
-65.00000000000023
 34
0.0
100
AcDbRotatedDimension
  0
VIEWPORT
  5
9AC
330
1A
100
AcDbEntity
 67
     1
  8
0
  6
Continuous
100
AcDbViewport
 10
132.8597742228118
 20
170.7803131164459
 30
0.0
 40
606.3893053033792
 41
370.534743435651
 68
     1
 69
     1
 12
132.8597742228118
 22
170.7803131164459
 13
0.0
 23
0.0
 14
10.0
 24
10.0
 15
10.0
 25
10.0
 16
0.0
 26
0.0
 36
1.0
 17
0.0
 27
0.0
 37
0.0
 42
50.0
 43
0.0
 44
0.0
 45
370.534743435651
 50
0.0
 51
0.0
 72
   100
 90
    32800
  1

281
     0
 71
     1
 74
     0
110
0.0
120
0.0
130
0.0
111
1.0
121
0.0
131
0.0
112
0.0
122
1.0
132
0.0
 79
     0
146
0.0
  0
TEXT
  5
9B9
330
1A
100
AcDbEntity
 67
     1
  8
0
100
AcDbText
 10
124.3740529068525
 20
273.3587565968432
 30
0.0
 40
2.907692307692308
  1
ディレクトリ：
100
AcDbText
  0
TEXT
  5
9BA
330
1A
100
AcDbEntity
 67
     1
  8
0
100
AcDbText
 10
124.3740529068525
 20
268.8021324946379
 30
0.0
 40
2.907692307692308
  1
ファイル名　： TZ-225BA4PRC.DXF
100
AcDbText
  0
TEXT
  5
9BB
330
1A
100
AcDbEntity
 67
     1
  8
0
100
AcDbText
 10
124.3740529068525
 20
263.8657897917369
 30
0.0
 40
2.907692307692308
  1
形　　名　　： TZ-225BA 裏面形
100
AcDbText
  0
TEXT
  5
9BC
330
1A
100
AcDbEntity
 67
     1
  8
0
100
AcDbText
 10
123.9940851952215
 20
258.9294470888365
 30
0.0
 40
2.907692307692308
  1
極　　数　　： 4P
100
AcDbText
  0
VIEWPORT
  5
9BD
330
1A
100
AcDbEntity
 67
     1
  8
30
  6
Continuous
100
AcDbViewport
 10
99.44183433441949
 20
144.1374735103814
 30
0.0
 40
190.336521928431
 41
277.8644546938199
 68
     0
 69
     2
 12
135.5899827366102
 22
116.0089584211434
 13
0.0
 23
0.0
 14
1.0
 24
1.0
 15
10.0
 25
10.0
 16
0.0
 26
0.0
 36
1.0
 17
0.0
 27
0.0
 37
0.0
 42
50.0
 43
0.0
 44
0.0
 45
722.6513679085344
 50
0.0
 51
0.0
 72
   100
 90
   164128
  1

281
     0
 71
     1
 74
     0
110
0.0
120
0.0
130
0.0
111
1.0
121
0.0
131
0.0
112
0.0
122
1.0
132
0.0
 79
     0
146
0.0
  0
VIEWPORT
  5
9BE
330
1A
100
AcDbEntity
 67
     1
  8
30
  6
Continuous
100
AcDbViewport
 10
99.44183433441949
 20
144.1374735103814
 30
0.0
 40
190.336521928431
 41
277.8644546938199
 68
     0
 69
     3
 12
146.3892300852331
 22
114.0699539202981
 13
0.0
 23
0.0
 14
1.0
 24
1.0
 15
10.0
 25
10.0
 16
0.0
 26
0.0
 36
1.0
 17
0.0
 27
0.0
 37
0.0
 42
50.0
 43
0.0
 44
0.0
 45
683.2451354219511
 50
0.0
 51
0.0
 72
   100
 90
   164128
  1

281
     0
 71
     1
 74
     0
110
0.0
120
0.0
130
0.0
111
1.0
121
0.0
131
0.0
112
0.0
122
1.0
132
0.0
 79
     0
146
0.0
  0
VIEWPORT
  5
9C2
330
1A
100
AcDbEntity
 67
     1
  8
30
  6
Continuous
100
AcDbViewport
 10
99.44183433441949
 20
144.1374735103814
 30
0.0
 40
190.336521928431
 41
277.8644546938199
 68
     2
 69
     4
 12
189.4539259103703
 22
81.67033647605761
 13
0.0
 23
0.0
 14
1.0
 24
1.0
 15
10.0
 25
10.0
 16
0.0
 26
0.0
 36
1.0
 17
0.0
 27
0.0
 37
0.0
 42
50.0
 43
0.0
 44
0.0
 45
843.6388585372206
 50
0.0
 51
0.0
 72
   100
 90
    33056
  1

281
     0
 71
     1
 74
     0
110
0.0
120
0.0
130
0.0
111
1.0
121
0.0
131
0.0
112
0.0
122
1.0
132
0.0
 79
     0
146
0.0
  0
MTEXT
  5
26A2
330
1A
100
AcDbEntity
 67
     1
  8
0
100
AcDbMText
 10
150.8496797108598
 20
255.5606639487811
 30
0.0
 40
2.907692307692308
 41
41.9917
 71
     1
 72
     5
  1
同一サイズ一覧\PTZ-225BA\PTZ-225GA
 73
     1
 44
1.0
  0
ENDSEC
  0
SECTION
  2
OBJECTS
  0
DICTIONARY
  5
C
330
0
100
AcDbDictionary
281
     1
  3
ACAD_GROUP
350
D
  3
ACAD_LAYOUT
350
19
  3
ACAD_MLINESTYLE
350
16
  3
ACAD_PLOTSETTINGS
350
18
  3
ACAD_PLOTSTYLENAME
350
E
  3
ACDBHEADERROUNDTRIPXREC
350
AFFF
  3
AcDbVariableDictionary
350
6CB8
  0
DICTIONARY
  5
178
330
1E
100
AcDbDictionary
280
     1
281
     1
  3
ACAD_LAYOUTSELFREF
360
818C
  0
DICTIONARY
  5
17A
330
1A
100
AcDbDictionary
280
     1
281
     1
  3
ACAD_LAYOUTSELFREF
360
818B
  0
DICTIONARY
  5
D
102
{ACAD_REACTORS
330
C
102
}
330
C
100
AcDbDictionary
281
     1
  3
*A1
350
133D
  3
*A2
350
1341
  0
DICTIONARY
  5
19
102
{ACAD_REACTORS
330
C
102
}
330
C
100
AcDbDictionary
281
     1
  3
Model
350
21
  3
ﾚｲｱｳﾄ1
350
1D
  0
DICTIONARY
  5
16
102
{ACAD_REACTORS
330
C
102
}
330
C
100
AcDbDictionary
281
     1
  3
Standard
350
17
  0
DICTIONARY
  5
18
102
{ACAD_REACTORS
330
C
102
}
330
C
100
AcDbDictionary
281
     1
  0
ACDBDICTIONARYWDFLT
  5
E
102
{ACAD_REACTORS
330
C
102
}
330
C
100
AcDbDictionary
281
     1
  3
Normal
350
F
100
AcDbDictionaryWithDefault
340
F
  0
DICTIONARY
  5
AFFF
102
{ACAD_REACTORS
330
C
102
}
330
C
100
AcDbDictionary
281
     1
  3
CEPSNTYPE
350
B009
  3
DIMSTYLEDATA
350
B00D
  3
FINGERPRINTGUID
350
B00A
  3
HYPERLINKBASE
350
B002
  3
INSUNITS
350
B008
  3
LAYOUTDICT
350
B004
  3
LWETCUNION
350
B007
  3
PLOTSETDICT
350
B005
  3
PLOTSTYLNAMDICT
350
B006
  3
PSVPSCALE
350
B00C
  3
PUCSBASE
350
B010
  3
PUCSORGBACK
350
B016
  3
PUCSORGBOTTOM
350
B012
  3
PUCSORGFRONT
350
B015
  3
PUCSORGLEFT
350
B013
  3
PUCSORGRIGHT
350
B014
  3
PUCSORGTOP
350
B011
  3
PUCSORTHOREF
350
B00E
  3
PUCSORTHOVIEW
350
B00F
  3
STYLESHEET
350
B003
  3
TSTACKALIGN
350
B000
  3
TSTACKSIZE
350
B001
  3
UCSBASE
350
B019
  3
UCSORGBACK
350
B01F
  3
UCSORGBOTTOM
350
B01B
  3
UCSORGFRONT
350
B01E
  3
UCSORGLEFT
350
B01C
  3
UCSORGRIGHT
350
B01D
  3
UCSORGTOP
350
B01A
  3
UCSORTHOREF
350
B017
  3
UCSORTHOVIEW
350
B018
  3
VERSIONGUID
350
B00B
  0
DICTIONARY
  5
6CB8
102
{ACAD_REACTORS
330
C
102
}
330
C
100
AcDbDictionary
281
     1
  3
DIMASSOC
350
81A4
  3
SORTENTS
350
6CB9
  0
XRECORD
  5
818C
102
{ACAD_REACTORS
330
178
102
}
330
178
100
AcDbXrecord
280
     1
340
1E
  0
XRECORD
  5
818B
102
{ACAD_REACTORS
330
17A
102
}
330
17A
100
AcDbXrecord
280
     1
340
1A
  0
GROUP
  5
133D
102
{ACAD_REACTORS
330
D
102
}
330
D
100
AcDbGroup
300

 70
     0
 71
     1
  0
GROUP
  5
1341
102
{ACAD_REACTORS
330
D
102
}
330
D
100
AcDbGroup
300

 70
     1
 71
     1
  0
LAYOUT
  5
21
102
{ACAD_REACTORS
330
19
102
}
330
19
100
AcDbPlotSettings
  1

  2
DocuWorks Printer
  4
A3
  6
OLE1
 40
5.408083438873291
 41
5.408078670501708
 42
5.4080810546875
 43
5.4080810546875
 44
297.0106506347656
 45
419.9889831542968
 46
56.24
 47
-1.469999999999999
 48
0.0
 49
0.0
140
0.0
141
0.0
142
1.0
143
10.0
 70
 11940
 72
     1
 73
     1
 74
     1
  7
monochrome.ctb
 75
     0
147
0.1
148
1500.037389523626
149
358.6281001575816
100
AcDbLayout
  1
Model
 70
     1
 71
     0
 10
0.0
 20
0.0
 11
12.0
 21
9.0
 12
0.0
 22
0.0
 32
0.0
 14
0.0
 24
0.0
 34
0.0
 15
0.0
 25
0.0
 35
0.0
146
0.0
 13
0.0
 23
0.0
 33
0.0
 16
1.0
 26
0.0
 36
0.0
 17
0.0
 27
1.0
 37
0.0
 76
     0
330
1E
  0
LAYOUT
  5
1D
102
{ACAD_REACTORS
330
19
102
}
330
19
100
AcDbPlotSettings
  1

  2
EPSON LP-8300
  4
A4
  6

 40
5.873749732971191
 41
5.873747825622557
 42
5.873748779296875
 43
5.873748779296875
 44
297.0106506347656
 45
209.9733276367186
 46
0.0
 47
0.0
 48
0.0
 49
0.0
140
0.0
141
0.0
142
1.0
143
1.0
 70
   672
 72
     1
 73
     1
 74
     5
  7
MCCB.ctb
 75
     0
147
1.0
148
0.0
149
0.0
100
AcDbLayout
  1
ﾚｲｱｳﾄ1
 70
     0
 71
     1
 10
-5.873748779296875
 20
-5.873749732971191
 11
204.0995788574218
 21
291.1369009017943
 12
0.0
 22
0.0
 32
0.0
 14
4.273573370203973
 24
5.205246163471454
 34
0.0
 15
194.6100952986349
 25
283.0697008572913
 35
0.0
146
0.0
 13
0.0
 23
0.0
 33
0.0
 16
1.0
 26
0.0
 36
0.0
 17
0.0
 27
1.0
 37
0.0
 76
     0
330
1A
331
9AC
  0
MLINESTYLE
  5
17
102
{ACAD_REACTORS
330
16
102
}
330
16
100
AcDbMlineStyle
  2
STANDARD
 70
     0
  3

 62
   256
 51
90.0
 52
90.0
 71
     2
 49
0.5
 62
   256
  6
BYLAYER
 49
-0.5
 62
   256
  6
BYLAYER
  0
ACDBPLACEHOLDER
  5
F
102
{ACAD_REACTORS
330
E
102
}
330
E
  0
XRECORD
  5
B009
102
{ACAD_REACTORS
330
AFFF
102
}
330
AFFF
100
AcDbXrecord
280
     1
 90
        0
  0
XRECORD
  5
B00D
102
{ACAD_REACTORS
330
AFFF
102
}
330
AFFF
100
AcDbXrecord
280
     1
1000
DSTYLE
1002
{
1070
    79
 70
     3
1070
   279
 70
     1
1070
   341
340
3B2
1070
   342
340
3B2
1002
}
  0
XRECORD
  5
B00A
102
{ACAD_REACTORS
330
AFFF
102
}
330
AFFF
100
AcDbXrecord
280
     1
  1

  0
XRECORD
  5
B002
102
{ACAD_REACTORS
330
AFFF
102
}
330
AFFF
100
AcDbXrecord
280
     1
  1

  0
XRECORD
  5
B008
102
{ACAD_REACTORS
330
AFFF
102
}
330
AFFF
100
AcDbXrecord
280
     1
 90
        0
  0
XRECORD
  5
B004
102
{ACAD_REACTORS
330
AFFF
102
}
330
AFFF
100
AcDbXrecord
280
     1
340
19
  0
XRECORD
  5
B007
102
{ACAD_REACTORS
330
AFFF
102
}
330
AFFF
100
AcDbXrecord
280
     1
 90
    10781
  0
XRECORD
  5
B005
102
{ACAD_REACTORS
330
AFFF
102
}
330
AFFF
100
AcDbXrecord
280
     1
340
18
  0
XRECORD
  5
B006
102
{ACAD_REACTORS
330
AFFF
102
}
330
AFFF
100
AcDbXrecord
280
     1
340
E
  0
XRECORD
  5
B00C
102
{ACAD_REACTORS
330
AFFF
102
}
330
AFFF
100
AcDbXrecord
280
     1
 40
0.0
  0
XRECORD
  5
B010
102
{ACAD_REACTORS
330
AFFF
102
}
330
AFFF
100
AcDbXrecord
280
     1
340
0
  0
XRECORD
  5
B016
102
{ACAD_REACTORS
330
AFFF
102
}
330
AFFF
100
AcDbXrecord
280
     1
 10
0.0
 20
0.0
 30
0.0
  0
XRECORD
  5
B012
102
{ACAD_REACTORS
330
AFFF
102
}
330
AFFF
100
AcDbXrecord
280
     1
 10
0.0
 20
0.0
 30
0.0
  0
XRECORD
  5
B015
102
{ACAD_REACTORS
330
AFFF
102
}
330
AFFF
100
AcDbXrecord
280
     1
 10
0.0
 20
0.0
 30
0.0
  0
XRECORD
  5
B013
102
{ACAD_REACTORS
330
AFFF
102
}
330
AFFF
100
AcDbXrecord
280
     1
 10
0.0
 20
0.0
 30
0.0
  0
XRECORD
  5
B014
102
{ACAD_REACTORS
330
AFFF
102
}
330
AFFF
100
AcDbXrecord
280
     1
 10
0.0
 20
0.0
 30
0.0
  0
XRECORD
  5
B011
102
{ACAD_REACTORS
330
AFFF
102
}
330
AFFF
100
AcDbXrecord
280
     1
 10
0.0
 20
0.0
 30
0.0
  0
XRECORD
  5
B00E
102
{ACAD_REACTORS
330
AFFF
102
}
330
AFFF
100
AcDbXrecord
280
     1
340
0
  0
XRECORD
  5
B00F
102
{ACAD_REACTORS
330
AFFF
102
}
330
AFFF
100
AcDbXrecord
280
     1
 70
     0
  0
XRECORD
  5
B003
102
{ACAD_REACTORS
330
AFFF
102
}
330
AFFF
100
AcDbXrecord
280
     1
  1
monochrome.ctb
  0
XRECORD
  5
B000
102
{ACAD_REACTORS
330
AFFF
102
}
330
AFFF
100
AcDbXrecord
280
     1
 90
        1
  0
XRECORD
  5
B001
102
{ACAD_REACTORS
330
AFFF
102
}
330
AFFF
100
AcDbXrecord
280
     1
 90
       70
  0
XRECORD
  5
B019
102
{ACAD_REACTORS
330
AFFF
102
}
330
AFFF
100
AcDbXrecord
280
     1
340
0
  0
XRECORD
  5
B01F
102
{ACAD_REACTORS
330
AFFF
102
}
330
AFFF
100
AcDbXrecord
280
     1
 10
0.0
 20
0.0
 30
0.0
  0
XRECORD
  5
B01B
102
{ACAD_REACTORS
330
AFFF
102
}
330
AFFF
100
AcDbXrecord
280
     1
 10
0.0
 20
0.0
 30
0.0
  0
XRECORD
  5
B01E
102
{ACAD_REACTORS
330
AFFF
102
}
330
AFFF
100
AcDbXrecord
280
     1
 10
0.0
 20
0.0
 30
0.0
  0
XRECORD
  5
B01C
102
{ACAD_REACTORS
330
AFFF
102
}
330
AFFF
100
AcDbXrecord
280
     1
 10
0.0
 20
0.0
 30
0.0
  0
XRECORD
  5
B01D
102
{ACAD_REACTORS
330
AFFF
102
}
330
AFFF
100
AcDbXrecord
280
     1
 10
0.0
 20
0.0
 30
0.0
  0
XRECORD
  5
B01A
102
{ACAD_REACTORS
330
AFFF
102
}
330
AFFF
100
AcDbXrecord
280
     1
 10
0.0
 20
0.0
 30
0.0
  0
XRECORD
  5
B017
102
{ACAD_REACTORS
330
AFFF
102
}
330
AFFF
100
AcDbXrecord
280
     1
340
0
  0
XRECORD
  5
B018
102
{ACAD_REACTORS
330
AFFF
102
}
330
AFFF
100
AcDbXrecord
280
     1
 70
     0
  0
XRECORD
  5
B00B
102
{ACAD_REACTORS
330
AFFF
102
}
330
AFFF
100
AcDbXrecord
280
     1
  1
{6FB5CE33-7D30-429A-9013-9D4D96373B3A}
  0
DICTIONARYVAR
  5
81A4
102
{ACAD_REACTORS
330
6CB8
102
}
330
6CB8
100
DictionaryVariables
280
     0
  1
1
  0
DICTIONARYVAR
  5
6CB9
102
{ACAD_REACTORS
330
6CB8
102
}
330
6CB8
100
DictionaryVariables
280
     0
  1
96
  0
ENDSEC
  0
EOF
