  0
SECTION
  2
HEADER
  9
$ACADVER
  1
AC1014
  9
$ACADMAINTVER
 70
     9
  9
$DWGCODEPAGE
  3
ANSI_932
  9
$INSBASE
 10
0.0
 20
0.0
 30
0.0
  9
$EXTMIN
 10
-166.0447676526903
 20
-659.0273411050757
 30
-0.0000000000000053
  9
$EXTMAX
 10
415.0681319973293
 20
436.0806910831956
 30
0.0000000000000099
  9
$LIMMIN
 10
-184.0
 20
-675.0
  9
$LIMMAX
 10
509.0
 20
453.0
  9
$ORTHOMODE
 70
     1
  9
$REGENMODE
 70
     1
  9
$FILLMODE
 70
     1
  9
$QTEXTMODE
 70
     0
  9
$MIRRTEXT
 70
     1
  9
$DRAGMODE
 70
     2
  9
$LTSCALE
 40
10.0
  9
$OSMODE
 70
    37
  9
$ATTMODE
 70
     1
  9
$TEXTSIZE
 40
5.0
  9
$TRACEWID
 40
0.05
  9
$TEXTSTYLE
  7
STANDARD1
  9
$CLAYER
  8
30
  9
$CELTYPE
  6
CONTINUOUS
  9
$CECOLOR
 62
   256
  9
$CELTSCALE
 40
1.0
  9
$DELOBJ
 70
     1
  9
$DISPSILH
 70
     0
  9
$DIMSCALE
 40
1.0
  9
$DIMASZ
 40
2.0
  9
$DIMEXO
 40
1.0
  9
$DIMDLI
 40
0.5
  9
$DIMRND
 40
0.0
  9
$DIMDLE
 40
0.0
  9
$DIMEXE
 40
0.5
  9
$DIMTP
 40
0.0
  9
$DIMTM
 40
0.0
  9
$DIMTXT
 40
5.0
  9
$DIMCEN
 40
0.09
  9
$DIMTSZ
 40
0.0
  9
$DIMTOL
 70
     0
  9
$DIMLIM
 70
     0
  9
$DIMTIH
 70
     0
  9
$DIMTOH
 70
     1
  9
$DIMSE1
 70
     0
  9
$DIMSE2
 70
     0
  9
$DIMTAD
 70
     3
  9
$DIMZIN
 70
    12
  9
$DIMBLK
  1
OPEN
  9
$DIMASO
 70
     1
  9
$DIMSHO
 70
     1
  9
$DIMPOST
  1

  9
$DIMAPOST
  1

  9
$DIMALT
 70
     0
  9
$DIMALTD
 70
     2
  9
$DIMALTF
 40
25.4
  9
$DIMLFAC
 40
1.0
  9
$DIMTOFL
 70
     0
  9
$DIMTVP
 40
0.0
  9
$DIMTIX
 70
     0
  9
$DIMSOXD
 70
     0
  9
$DIMSAH
 70
     0
  9
$DIMBLK1
  1

  9
$DIMBLK2
  1

  9
$DIMSTYLE
  2
STANDARD
  9
$DIMCLRD
 70
     0
  9
$DIMCLRE
 70
     0
  9
$DIMCLRT
 70
     0
  9
$DIMTFAC
 40
1.0
  9
$DIMGAP
 40
1.0
  9
$DIMJUST
 70
     0
  9
$DIMSD1
 70
     0
  9
$DIMSD2
 70
     0
  9
$DIMTOLJ
 70
     1
  9
$DIMTZIN
 70
     0
  9
$DIMALTZ
 70
     0
  9
$DIMALTTZ
 70
     0
  9
$DIMFIT
 70
     3
  9
$DIMUPT
 70
     0
  9
$DIMUNIT
 70
     2
  9
$DIMDEC
 70
     1
  9
$DIMTDEC
 70
     1
  9
$DIMALTU
 70
     2
  9
$DIMALTTD
 70
     2
  9
$DIMTXSTY
  7
STANDARD
  9
$DIMAUNIT
 70
     0
  9
$LUNITS
 70
     2
  9
$LUPREC
 70
     4
  9
$SKETCHINC
 40
0.1
  9
$FILLETRAD
 40
6.5
  9
$AUNITS
 70
     0
  9
$AUPREC
 70
     0
  9
$MENU
  1
.
  9
$ELEVATION
 40
0.0
  9
$PELEVATION
 40
0.0
  9
$THICKNESS
 40
0.0
  9
$LIMCHECK
 70
     0
  9
$BLIPMODE
 70
     0
  9
$CHAMFERA
 40
0.0
  9
$CHAMFERB
 40
0.0
  9
$CHAMFERC
 40
0.0
  9
$CHAMFERD
 40
0.0
  9
$SKPOLY
 70
     0
  9
$TDCREATE
 40
2452286.555658657
  9
$TDUPDATE
 40
2453114.610014826
  9
$TDINDWG
 40
1.3703913426
  9
$TDUSRTIMER
 40
1.3703913426
  9
$USRTIMER
 70
     1
  9
$ANGBASE
 50
0.0
  9
$ANGDIR
 70
     0
  9
$PDMODE
 70
     0
  9
$PDSIZE
 40
0.0
  9
$PLINEWID
 40
0.0
  9
$COORDS
 70
     1
  9
$SPLFRAME
 70
     0
  9
$SPLINETYPE
 70
     6
  9
$SPLINESEGS
 70
     8
  9
$ATTDIA
 70
     0
  9
$ATTREQ
 70
     1
  9
$HANDLING
 70
 22529
  9
$HANDSEED
  5
67E0
  9
$SURFTAB1
 70
     6
  9
$SURFTAB2
 70
     6
  9
$SURFTYPE
 70
     6
  9
$SURFU
 70
     6
  9
$SURFV
 70
     6
  9
$UCSNAME
  2

  9
$UCSORG
 10
0.0
 20
0.0
 30
0.0
  9
$UCSXDIR
 10
1.0
 20
0.0
 30
0.0
  9
$UCSYDIR
 10
0.0
 20
1.0
 30
0.0
  9
$PUCSNAME
  2

  9
$PUCSORG
 10
0.0
 20
0.0
 30
0.0
  9
$PUCSXDIR
 10
1.0
 20
0.0
 30
0.0
  9
$PUCSYDIR
 10
0.0
 20
1.0
 30
0.0
  9
$USERI1
 70
     0
  9
$USERI2
 70
     0
  9
$USERI3
 70
     0
  9
$USERI4
 70
     0
  9
$USERI5
 70
     0
  9
$USERR1
 40
0.0
  9
$USERR2
 40
0.0
  9
$USERR3
 40
0.0
  9
$USERR4
 40
0.0
  9
$USERR5
 40
0.0
  9
$WORLDVIEW
 70
     1
  9
$SHADEDGE
 70
     3
  9
$SHADEDIF
 70
    70
  9
$TILEMODE
 70
     1
  9
$MAXACTVP
 70
    48
  9
$PINSBASE
 10
0.0
 20
0.0
 30
0.0
  9
$PLIMCHECK
 70
     0
  9
$PEXTMIN
 10
4.273573370203962
 20
5.205246163471485
 30
0.0
  9
$PEXTMAX
 10
194.6100952986349
 20
283.0697008572913
 30
0.0
  9
$PLIMMIN
 10
-5.873748779296875
 20
-5.873749732971191
  9
$PLIMMAX
 10
204.0995788574218
 20
291.1369009017944
  9
$UNITMODE
 70
     0
  9
$VISRETAIN
 70
     1
  9
$PLINEGEN
 70
     0
  9
$PSLTSCALE
 70
     1
  9
$TREEDEPTH
 70
  3020
  9
$PICKSTYLE
 70
     1
  9
$CMLSTYLE
  2
STANDARD
  9
$CMLJUST
 70
     0
  9
$CMLSCALE
 40
1.0
  9
$PROXYGRAPHICS
 70
     1
  9
$MEASUREMENT
 70
     0
  0
ENDSEC
  0
SECTION
  2
CLASSES
  0
CLASS
  1
ACDBDICTIONARYWDFLT
  2
AcDbDictionaryWithDefault
  3
AutoCAD 2000
 90
        0
280
     0
281
     0
  0
CLASS
  1
ACDBPLACEHOLDER
  2
AcDbPlaceHolder
  3
AutoCAD 2000
 90
        0
280
     0
281
     0
  0
CLASS
  1
LAYOUT
  2
AcDbLayout
  3
AutoCAD 2000
 90
        0
280
     0
281
     0
  0
CLASS
  1
LONG_TRANSACTION
  2
AcDbLongTransaction
  3
AutoCAD 2000
 90
        0
280
     0
281
     0
  0
CLASS
  1
LWPOLYLINE
  2
AcDbPolyline
  3
AutoCAD 2000
 90
        0
280
     0
281
     1
  0
CLASS
  1
HATCH
  2
AcDbHatch
  3
AutoCAD 2000
 90
        0
280
     0
281
     1
  0
CLASS
  1
XRECORD
  2
AcDbXrecord
  3
AutoCAD 2000
 90
        0
280
     0
281
     0
  0
CLASS
  1
LONG_TRANSACTION
  2
AcDbLongTransaction
  3
AutoCAD 2000
 90
        0
280
     0
281
     0
  0
CLASS
  1
LWPOLYLINE
  2
AcDbPolyline
  3
AutoCAD 2000
 90
        0
280
     0
281
     1
  0
CLASS
  1
HATCH
  2
AcDbHatch
  3
AutoCAD 2000
 90
        0
280
     0
281
     1
  0
CLASS
  1
XRECORD
  2
AcDbXrecord
  3
AutoCAD 2000
 90
        0
280
     0
281
     0
  0
CLASS
  1
LONG_TRANSACTION
  2
AcDbLongTransaction
  3
AutoCAD 2000
 90
        0
280
     0
281
     0
  0
CLASS
  1
LWPOLYLINE
  2
AcDbPolyline
  3
AutoCAD 2000
 90
        0
280
     0
281
     1
  0
CLASS
  1
HATCH
  2
AcDbHatch
  3
AutoCAD 2000
 90
        0
280
     0
281
     1
  0
CLASS
  1
XRECORD
  2
AcDbXrecord
  3
AutoCAD 2000
 90
        0
280
     0
281
     0
  0
CLASS
  1
LONG_TRANSACTION
  2
AcDbLongTransaction
  3
AutoCAD 2000
 90
        0
280
     0
281
     0
  0
CLASS
  1
LWPOLYLINE
  2
AcDbPolyline
  3
AutoCAD 2000
 90
        0
280
     0
281
     1
  0
CLASS
  1
HATCH
  2
AcDbHatch
  3
AutoCAD 2000
 90
        0
280
     0
281
     1
  0
CLASS
  1
XRECORD
  2
AcDbXrecord
  3
AutoCAD 2000
 90
        0
280
     0
281
     0
  0
CLASS
  1
LONG_TRANSACTION
  2
AcDbLongTransaction
  3
AutoCAD 2000
 90
        0
280
     0
281
     0
  0
CLASS
  1
LWPOLYLINE
  2
AcDbPolyline
  3
AutoCAD 2000
 90
        0
280
     0
281
     1
  0
CLASS
  1
HATCH
  2
AcDbHatch
  3
AutoCAD 2000
 90
        0
280
     0
281
     1
  0
CLASS
  1
XRECORD
  2
AcDbXrecord
  3
AutoCAD 2000
 90
        0
280
     0
281
     0
  0
CLASS
  1
LONG_TRANSACTION
  2
AcDbLongTransaction
  3
AutoCAD 2000
 90
        0
280
     0
281
     0
  0
CLASS
  1
LWPOLYLINE
  2
AcDbPolyline
  3
AutoCAD 2000
 90
        0
280
     0
281
     1
  0
CLASS
  1
HATCH
  2
AcDbHatch
  3
AutoCAD 2000
 90
        0
280
     0
281
     1
  0
CLASS
  1
XRECORD
  2
AcDbXrecord
  3
AutoCAD 2000
 90
        0
280
     0
281
     0
  0
CLASS
  1
LONG_TRANSACTION
  2
AcDbLongTransaction
  3
AutoCAD 2000
 90
        0
280
     0
281
     0
  0
CLASS
  1
LWPOLYLINE
  2
AcDbPolyline
  3
AutoCAD 2000
 90
        0
280
     0
281
     1
  0
CLASS
  1
HATCH
  2
AcDbHatch
  3
AutoCAD 2000
 90
        0
280
     0
281
     1
  0
CLASS
  1
XRECORD
  2
AcDbXrecord
  3
AutoCAD 2000
 90
        0
280
     0
281
     0
  0
CLASS
  1
LONG_TRANSACTION
  2
AcDbLongTransaction
  3
AutoCAD 2000
 90
        0
280
     0
281
     0
  0
CLASS
  1
LWPOLYLINE
  2
AcDbPolyline
  3
AutoCAD 2000
 90
        0
280
     0
281
     1
  0
CLASS
  1
HATCH
  2
AcDbHatch
  3
AutoCAD 2000
 90
        0
280
     0
281
     1
  0
CLASS
  1
XRECORD
  2
AcDbXrecord
  3
AutoCAD 2000
 90
        0
280
     0
281
     0
  0
CLASS
  1
LONG_TRANSACTION
  2
AcDbLongTransaction
  3
AutoCAD 2000
 90
        0
280
     0
281
     0
  0
CLASS
  1
LWPOLYLINE
  2
AcDbPolyline
  3
AutoCAD 2000
 90
        0
280
     0
281
     1
  0
CLASS
  1
HATCH
  2
AcDbHatch
  3
AutoCAD 2000
 90
        0
280
     0
281
     1
  0
CLASS
  1
XRECORD
  2
AcDbXrecord
  3
AutoCAD 2000
 90
        0
280
     0
281
     0
  0
CLASS
  1
LONG_TRANSACTION
  2
AcDbLongTransaction
  3
AutoCAD 2000
 90
        0
280
     0
281
     0
  0
CLASS
  1
LWPOLYLINE
  2
AcDbPolyline
  3
AutoCAD 2000
 90
        0
280
     0
281
     1
  0
CLASS
  1
HATCH
  2
AcDbHatch
  3
AutoCAD 2000
 90
        0
280
     0
281
     1
  0
CLASS
  1
XRECORD
  2
AcDbXrecord
  3
AutoCAD 2000
 90
        0
280
     0
281
     0
  0
CLASS
  1
LONG_TRANSACTION
  2
AcDbLongTransaction
  3
AutoCAD 2000
 90
        0
280
     0
281
     0
  0
CLASS
  1
LWPOLYLINE
  2
AcDbPolyline
  3
AutoCAD 2000
 90
        0
280
     0
281
     1
  0
CLASS
  1
HATCH
  2
AcDbHatch
  3
AutoCAD 2000
 90
        0
280
     0
281
     1
  0
CLASS
  1
XRECORD
  2
AcDbXrecord
  3
AutoCAD 2000
 90
        0
280
     0
281
     0
  0
CLASS
  1
LONG_TRANSACTION
  2
AcDbLongTransaction
  3
AutoCAD 2000
 90
        0
280
     0
281
     0
  0
CLASS
  1
LWPOLYLINE
  2
AcDbPolyline
  3
AutoCAD 2000
 90
        0
280
     0
281
     1
  0
CLASS
  1
HATCH
  2
AcDbHatch
  3
AutoCAD 2000
 90
        0
280
     0
281
     1
  0
CLASS
  1
XRECORD
  2
AcDbXrecord
  3
AutoCAD 2000
 90
        0
280
     0
281
     0
  0
CLASS
  1
LONG_TRANSACTION
  2
AcDbLongTransaction
  3
AutoCAD 2000
 90
        0
280
     0
281
     0
  0
CLASS
  1
LWPOLYLINE
  2
AcDbPolyline
  3
AutoCAD 2000
 90
        0
280
     0
281
     1
  0
CLASS
  1
HATCH
  2
AcDbHatch
  3
AutoCAD 2000
 90
        0
280
     0
281
     1
  0
CLASS
  1
XRECORD
  2
AcDbXrecord
  3
AutoCAD 2000
 90
        0
280
     0
281
     0
  0
CLASS
  1
LONG_TRANSACTION
  2
AcDbLongTransaction
  3
AutoCAD 2000
 90
        0
280
     0
281
     0
  0
CLASS
  1
LWPOLYLINE
  2
AcDbPolyline
  3
AutoCAD 2000
 90
        0
280
     0
281
     1
  0
CLASS
  1
HATCH
  2
AcDbHatch
  3
AutoCAD 2000
 90
        0
280
     0
281
     1
  0
CLASS
  1
XRECORD
  2
AcDbXrecord
  3
AutoCAD 2000
 90
        0
280
     0
281
     0
  0
CLASS
  1
LONG_TRANSACTION
  2
AcDbLongTransaction
  3
AutoCAD 2000
 90
        0
280
     0
281
     0
  0
CLASS
  1
LWPOLYLINE
  2
AcDbPolyline
  3
AutoCAD 2000
 90
        0
280
     0
281
     1
  0
CLASS
  1
HATCH
  2
AcDbHatch
  3
AutoCAD 2000
 90
        0
280
     0
281
     1
  0
CLASS
  1
XRECORD
  2
AcDbXrecord
  3
AutoCAD 2000
 90
        0
280
     0
281
     0
  0
CLASS
  1
LONG_TRANSACTION
  2
AcDbLongTransaction
  3
AutoCAD 2000
 90
        0
280
     0
281
     0
  0
CLASS
  1
LWPOLYLINE
  2
AcDbPolyline
  3
AutoCAD 2000
 90
        0
280
     0
281
     1
  0
CLASS
  1
HATCH
  2
AcDbHatch
  3
AutoCAD 2000
 90
        0
280
     0
281
     1
  0
CLASS
  1
XRECORD
  2
AcDbXrecord
  3
AutoCAD 2000
 90
        0
280
     0
281
     0
  0
CLASS
  1
LONG_TRANSACTION
  2
AcDbLongTransaction
  3
AutoCAD 2000
 90
        0
280
     0
281
     0
  0
CLASS
  1
LWPOLYLINE
  2
AcDbPolyline
  3
AutoCAD 2000
 90
        0
280
     0
281
     1
  0
CLASS
  1
HATCH
  2
AcDbHatch
  3
AutoCAD 2000
 90
        0
280
     0
281
     1
  0
CLASS
  1
XRECORD
  2
AcDbXrecord
  3
AutoCAD 2000
 90
        0
280
     0
281
     0
  0
CLASS
  1
LONG_TRANSACTION
  2
AcDbLongTransaction
  3
AutoCAD 2000
 90
        0
280
     0
281
     0
  0
CLASS
  1
LWPOLYLINE
  2
AcDbPolyline
  3
AutoCAD 2000
 90
        0
280
     0
281
     1
  0
CLASS
  1
HATCH
  2
AcDbHatch
  3
AutoCAD 2000
 90
        0
280
     0
281
     1
  0
CLASS
  1
XRECORD
  2
AcDbXrecord
  3
AutoCAD 2000
 90
        0
280
     0
281
     0
  0
CLASS
  1
LONG_TRANSACTION
  2
AcDbLongTransaction
  3
AutoCAD 2000
 90
        0
280
     0
281
     0
  0
CLASS
  1
LWPOLYLINE
  2
AcDbPolyline
  3
AutoCAD 2000
 90
        0
280
     0
281
     1
  0
CLASS
  1
HATCH
  2
AcDbHatch
  3
AutoCAD 2000
 90
        0
280
     0
281
     1
  0
CLASS
  1
XRECORD
  2
AcDbXrecord
  3
AutoCAD 2000
 90
        0
280
     0
281
     0
  0
CLASS
  1
LONG_TRANSACTION
  2
AcDbLongTransaction
  3
AutoCAD 2000
 90
        0
280
     0
281
     0
  0
CLASS
  1
LWPOLYLINE
  2
AcDbPolyline
  3
AutoCAD 2000
 90
        0
280
     0
281
     1
  0
CLASS
  1
HATCH
  2
AcDbHatch
  3
AutoCAD 2000
 90
        0
280
     0
281
     1
  0
CLASS
  1
XRECORD
  2
AcDbXrecord
  3
AutoCAD 2000
 90
        0
280
     0
281
     0
  0
CLASS
  1
LONG_TRANSACTION
  2
AcDbLongTransaction
  3
AutoCAD 2000
 90
        0
280
     0
281
     0
  0
CLASS
  1
LWPOLYLINE
  2
AcDbPolyline
  3
AutoCAD 2000
 90
        0
280
     0
281
     1
  0
CLASS
  1
HATCH
  2
AcDbHatch
  3
AutoCAD 2000
 90
        0
280
     0
281
     1
  0
CLASS
  1
XRECORD
  2
AcDbXrecord
  3
AutoCAD 2000
 90
        0
280
     0
281
     0
  0
CLASS
  1
LONG_TRANSACTION
  2
AcDbLongTransaction
  3
AutoCAD 2000
 90
        0
280
     0
281
     0
  0
CLASS
  1
LWPOLYLINE
  2
AcDbPolyline
  3
AutoCAD 2000
 90
        0
280
     0
281
     1
  0
CLASS
  1
HATCH
  2
AcDbHatch
  3
AutoCAD 2000
 90
        0
280
     0
281
     1
  0
CLASS
  1
XRECORD
  2
AcDbXrecord
  3
AutoCAD 2000
 90
        0
280
     0
281
     0
  0
CLASS
  1
LONG_TRANSACTION
  2
AcDbLongTransaction
  3
AutoCAD 2000
 90
        0
280
     0
281
     0
  0
CLASS
  1
LWPOLYLINE
  2
AcDbPolyline
  3
AutoCAD 2000
 90
        0
280
     0
281
     1
  0
CLASS
  1
HATCH
  2
AcDbHatch
  3
AutoCAD 2000
 90
        0
280
     0
281
     1
  0
CLASS
  1
XRECORD
  2
AcDbXrecord
  3
AutoCAD 2000
 90
        0
280
     0
281
     0
  0
CLASS
  1
LONG_TRANSACTION
  2
AcDbLongTransaction
  3
AutoCAD 2000
 90
        0
280
     0
281
     0
  0
CLASS
  1
LWPOLYLINE
  2
AcDbPolyline
  3
AutoCAD 2000
 90
        0
280
     0
281
     1
  0
CLASS
  1
HATCH
  2
AcDbHatch
  3
AutoCAD 2000
 90
        0
280
     0
281
     1
  0
CLASS
  1
XRECORD
  2
AcDbXrecord
  3
AutoCAD 2000
 90
        0
280
     0
281
     0
  0
CLASS
  1
LONG_TRANSACTION
  2
AcDbLongTransaction
  3
AutoCAD 2000
 90
        0
280
     0
281
     0
  0
CLASS
  1
LWPOLYLINE
  2
AcDbPolyline
  3
AutoCAD 2000
 90
        0
280
     0
281
     1
  0
CLASS
  1
HATCH
  2
AcDbHatch
  3
AutoCAD 2000
 90
        0
280
     0
281
     1
  0
CLASS
  1
XRECORD
  2
AcDbXrecord
  3
AutoCAD 2000
 90
        0
280
     0
281
     0
  0
CLASS
  1
LONG_TRANSACTION
  2
AcDbLongTransaction
  3
AutoCAD 2000
 90
        0
280
     0
281
     0
  0
CLASS
  1
LWPOLYLINE
  2
AcDbPolyline
  3
AutoCAD 2000
 90
        0
280
     0
281
     1
  0
CLASS
  1
HATCH
  2
AcDbHatch
  3
AutoCAD 2000
 90
        0
280
     0
281
     1
  0
CLASS
  1
XRECORD
  2
AcDbXrecord
  3
AutoCAD 2000
 90
        0
280
     0
281
     0
  0
CLASS
  1
LONG_TRANSACTION
  2
AcDbLongTransaction
  3
AutoCAD 2000
 90
        0
280
     0
281
     0
  0
CLASS
  1
LWPOLYLINE
  2
AcDbPolyline
  3
AutoCAD 2000
 90
        0
280
     0
281
     1
  0
CLASS
  1
HATCH
  2
AcDbHatch
  3
AutoCAD 2000
 90
        0
280
     0
281
     1
  0
CLASS
  1
XRECORD
  2
AcDbXrecord
  3
AutoCAD 2000
 90
        0
280
     0
281
     0
  0
CLASS
  1
LONG_TRANSACTION
  2
AcDbLongTransaction
  3
AutoCAD 2000
 90
        0
280
     0
281
     0
  0
CLASS
  1
LWPOLYLINE
  2
AcDbPolyline
  3
AutoCAD 2000
 90
        0
280
     0
281
     1
  0
CLASS
  1
HATCH
  2
AcDbHatch
  3
AutoCAD 2000
 90
        0
280
     0
281
     1
  0
CLASS
  1
XRECORD
  2
AcDbXrecord
  3
AutoCAD 2000
 90
        0
280
     0
281
     0
  0
CLASS
  1
DICTIONARYVAR
  2
AcDbDictionaryVar
  3
AutoCAD 2000
 90
        0
280
     0
281
     0
  0
CLASS
  1
LONG_TRANSACTION
  2
AcDbLongTransaction
  3
AutoCAD 2000
 90
        0
280
     0
281
     0
  0
CLASS
  1
LWPOLYLINE
  2
AcDbPolyline
  3
AutoCAD 2000
 90
        0
280
     0
281
     1
  0
CLASS
  1
HATCH
  2
AcDbHatch
  3
AutoCAD 2000
 90
        0
280
     0
281
     1
  0
CLASS
  1
XRECORD
  2
AcDbXrecord
  3
AutoCAD 2000
 90
        0
280
     0
281
     0
  0
ENDSEC
  0
SECTION
  2
TABLES
  0
TABLE
  2
VPORT
  5
8
330
0
100
AcDbSymbolTable
 70
    11
  0
VPORT
  5
67A1
330
8
100
AcDbSymbolTableRecord
100
AcDbViewportTableRecord
  2
*ACTIVE
 70
     0
 10
0.0
 20
0.0
 11
1.0
 21
1.0
 12
124.5116821723195
 22
-111.47332501094
 13
0.0
 23
0.0
 14
1.0
 24
1.0
 15
10.0
 25
10.0
 16
0.0
 26
0.0
 36
1.0
 17
0.0
 27
0.0
 37
0.0
 40
1108.408939461813
 41
1.924949290060851
 42
50.0
 43
0.0
 44
0.0
 50
0.0
 51
0.0
 71
     0
 72
   100
 73
     1
 74
     1
 75
     1
 76
     0
 77
     0
 78
     0
  0
ENDTAB
  0
TABLE
  2
LTYPE
  5
5
330
0
100
AcDbSymbolTable
 70
     5
  0
LTYPE
  5
13
330
5
100
AcDbSymbolTableRecord
100
AcDbLinetypeTableRecord
  2
BYBLOCK
 70
     0
  3

 72
    65
 73
     0
 40
0.0
  0
LTYPE
  5
14
330
5
100
AcDbSymbolTableRecord
100
AcDbLinetypeTableRecord
  2
BYLAYER
 70
     0
  3

 72
    65
 73
     0
 40
0.0
  0
LTYPE
  5
15
330
5
100
AcDbSymbolTableRecord
100
AcDbLinetypeTableRecord
  2
CONTINUOUS
 70
     0
  3
Solid line
 72
    65
 73
     0
 40
0.0
  0
LTYPE
  5
22
330
5
100
AcDbSymbolTableRecord
100
AcDbLinetypeTableRecord
  2
CONTINOUS
 70
     0
  3
Solid line
 72
    65
 73
     0
 40
0.0
  0
LTYPE
  5
23
330
5
100
AcDbSymbolTableRecord
100
AcDbLinetypeTableRecord
  2
DASHED
 70
     0
  3
__ __ __ __ __ __ __ __ __ __ __ __ __ __ __
 72
    65
 73
     2
 40
0.75
 49
0.5
 74
     0
 49
-0.25
 74
     0
  0
LTYPE
  5
24
330
5
100
AcDbSymbolTableRecord
100
AcDbLinetypeTableRecord
  2
DASHDOT
 70
     0
  3
__ . __ . __ . __ . __ . __ . __ . __ . __ . __
 72
    65
 73
     4
 40
1.0
 49
0.5
 74
     0
 49
-0.25
 74
     0
 49
0.0
 74
     0
 49
-0.25
 74
     0
  0
LTYPE
  5
3932
330
5
100
AcDbSymbolTableRecord
100
AcDbLinetypeTableRecord
  2
DIVIDE
 70
     0
  3
Divide ____ . . ____ . . ____ . . ____ . . ____
 72
    65
 73
     6
 40
1.25
 49
0.5
 74
     0
 49
-0.25
 74
     0
 49
0.0
 74
     0
 49
-0.25
 74
     0
 49
0.0
 74
     0
 49
-0.25
 74
     0
  0
ENDTAB
  0
TABLE
  2
LAYER
  5
2
330
0
100
AcDbSymbolTable
 70
    13
  0
LAYER
  5
10
330
2
100
AcDbSymbolTableRecord
100
AcDbLayerTableRecord
  2
0
 70
     0
 62
     7
  6
CONTINOUS
  0
LAYER
  5
2F
330
2
100
AcDbSymbolTableRecord
100
AcDbLayerTableRecord
  2
10
 70
     0
 62
     4
  6
CONTINOUS
  0
LAYER
  5
31
330
2
100
AcDbSymbolTableRecord
100
AcDbLayerTableRecord
  2
12
 70
     0
 62
     3
  6
CONTINOUS
  0
LAYER
  5
35
330
2
100
AcDbSymbolTableRecord
100
AcDbLayerTableRecord
  2
16
 70
     0
 62
     6
  6
DASHDOT
  0
LAYER
  5
36
330
2
100
AcDbSymbolTableRecord
100
AcDbLayerTableRecord
  2
17
 70
     0
 62
     2
  6
DASHDOT
  0
LAYER
  5
38
330
2
100
AcDbSymbolTableRecord
100
AcDbLayerTableRecord
  2
19
 70
     0
 62
     7
  6
CONTINOUS
  0
LAYER
  5
3C
330
2
100
AcDbSymbolTableRecord
100
AcDbLayerTableRecord
  2
11
 70
     0
 62
     1
  6
CONTINOUS
  0
LAYER
  5
3D
330
2
100
AcDbSymbolTableRecord
100
AcDbLayerTableRecord
  2
24
 70
     0
 62
     2
  6
CONTINOUS
  0
LAYER
  5
3A2
330
2
100
AcDbSymbolTableRecord
100
AcDbLayerTableRecord
  2
30
 70
     0
 62
     9
  6
CONTINUOUS
  0
LAYER
  5
3A4
330
2
100
AcDbSymbolTableRecord
100
AcDbLayerTableRecord
  2
DEFPOINTS
 70
     0
 62
     7
  6
CONTINUOUS
  0
LAYER
  5
3933
330
2
100
AcDbSymbolTableRecord
100
AcDbLayerTableRecord
  2
18
 70
     0
 62
     5
  6
DIVIDE
  0
LAYER
  5
4709
330
2
100
AcDbSymbolTableRecord
100
AcDbLayerTableRecord
  2
L0_
 70
     0
 62
     7
  6
CONTINUOUS
  0
LAYER
  5
470B
330
2
100
AcDbSymbolTableRecord
100
AcDbLayerTableRecord
  2
L210_
 70
     0
 62
     7
  6
CONTINUOUS
  0
ENDTAB
  0
TABLE
  2
STYLE
  5
3
330
0
100
AcDbSymbolTable
 70
     3
  0
STYLE
  5
11
330
3
100
AcDbSymbolTableRecord
100
AcDbTextStyleTableRecord
  2
STANDARD
 70
     0
 40
0.0
 41
1.0
 50
0.0
 71
     0
 42
2.0
  3
txt.shx
  4
bigfont.shx
  0
STYLE
  5
42
330
3
100
AcDbSymbolTableRecord
100
AcDbTextStyleTableRecord
  2
STANDARD1
 70
     0
 40
0.0
 41
1.0
 50
0.0
 71
     0
 42
5.0
  3
MONOTXT
  4
BIGFONT
  0
STYLE
  5
3ACF
330
3
100
AcDbSymbolTableRecord
100
AcDbTextStyleTableRecord
  2
SYMBOL3
 70
     0
 40
0.0
 41
1.0
 50
0.0
 71
     0
 42
0.2
  3
iges1003
  4

  0
ENDTAB
  0
TABLE
  2
VIEW
  5
6
330
0
100
AcDbSymbolTable
 70
     3
  0
VIEW
  5
230C
330
6
100
AcDbSymbolTableRecord
100
AcDbViewTableRecord
  2
OLE1
 70
     0
 40
148.9124878027715
 10
429.4976280407224
 20
2.560626997828478
 41
103.1458057716445
 11
0.0
 21
0.0
 31
1.0
 12
0.0
 22
0.0
 32
0.0
 42
50.0
 43
0.0
 44
0.0
 50
0.0
 71
     0
  0
VIEW
  5
230E
330
6
100
AcDbSymbolTableRecord
100
AcDbViewTableRecord
  2
OLE2
 70
     0
 40
170.7786920545776
 10
322.664969958371
 20
-5.978304054290276
 41
102.4672152327465
 11
0.0
 21
0.0
 31
1.0
 12
0.0
 22
0.0
 32
0.0
 42
50.0
 43
0.0
 44
0.0
 50
0.0
 71
     0
  0
VIEW
  5
23AA
330
6
100
AcDbSymbolTableRecord
100
AcDbViewTableRecord
  2
OLE3
 70
     0
 40
591.7897393182231
 10
84.79698158148218
 20
-46.09336010803997
 41
388.7920961799954
 11
0.0
 21
0.0
 31
1.0
 12
0.0
 22
0.0
 32
0.0
 42
50.0
 43
0.0
 44
0.0
 50
0.0
 71
     0
  0
ENDTAB
  0
TABLE
  2
UCS
  5
7
330
0
100
AcDbSymbolTable
 70
     0
  0
ENDTAB
  0
TABLE
  2
APPID
  5
9
330
0
100
AcDbSymbolTable
 70
     2
  0
APPID
  5
12
330
9
100
AcDbSymbolTableRecord
100
AcDbRegAppTableRecord
  2
ACAD
 70
     0
  0
APPID
  5
ECD
330
9
100
AcDbSymbolTableRecord
100
AcDbRegAppTableRecord
  2
CONTENTBLOCKICON
 70
     0
  0
ENDTAB
  0
TABLE
  2
DIMSTYLE
  5
A
330
0
100
AcDbSymbolTable
 70
     1
  0
DIMSTYLE
105
175
102
{ACAD_REACTORS
330
2D25
330
2D20
330
225D
330
57BC
330
5F01
330
5F20
330
5F2D
330
5F3A
330
5F46
330
5F53
330
5F60
330
61A8
330
61B5
330
61D4
330
61E2
330
61F8
330
6205
330
621F
330
622C
330
623B
330
6248
330
6294
330
62AA
330
62E0
330
62F6
330
6361
330
636E
330
63B7
330
6526
330
656B
330
6578
330
6593
330
65A0
330
65AD
102
}
330
A
100
AcDbSymbolTableRecord
100
AcDbDimStyleTableRecord
  2
STANDARD
 70
     0
  3

  4

  5
OPEN
  6

  7

 40
1.0
 41
2.0
 42
1.0
 43
0.5
 44
0.5
 45
0.0
 46
0.0
 47
0.0
 48
0.0
140
5.0
141
0.09
142
0.0
143
25.4
144
1.0
145
0.0
146
1.0
147
1.0
 71
     0
 72
     0
 73
     0
 74
     1
 75
     0
 76
     0
 77
     3
 78
    12
170
     0
171
     2
172
     0
173
     0
174
     0
175
     0
176
     0
177
     0
178
     0
270
     2
271
     1
272
     1
273
     2
274
     2
340
11
275
     0
280
     0
281
     0
282
     0
283
     1
284
     0
285
     0
286
     0
287
     3
288
     0
  0
ENDTAB
  0
TABLE
  2
BLOCK_RECORD
  5
1
330
0
100
AcDbSymbolTable
 70
    35
  0
BLOCK_RECORD
  5
1E
102
{ACAD_XDICTIONARY
360
178
102
}
330
1
100
AcDbSymbolTableRecord
100
AcDbBlockTableRecord
  2
*MODEL_SPACE
  0
BLOCK_RECORD
  5
1A
102
{ACAD_XDICTIONARY
360
17A
102
}
330
1
100
AcDbSymbolTableRecord
100
AcDbBlockTableRecord
  2
*PAPER_SPACE
  0
BLOCK_RECORD
  5
3B2
330
1
100
AcDbSymbolTableRecord
100
AcDbBlockTableRecord
  2
_OPEN
  0
BLOCK_RECORD
  5
2D33
330
1
100
AcDbSymbolTableRecord
100
AcDbBlockTableRecord
  2
*D1
  0
BLOCK_RECORD
  5
2D4A
330
1
100
AcDbSymbolTableRecord
100
AcDbBlockTableRecord
  2
*D2
  0
BLOCK_RECORD
  5
46F7
330
1
100
AcDbSymbolTableRecord
100
AcDbBlockTableRecord
  2
B837
  0
BLOCK_RECORD
  5
57BD
330
1
100
AcDbSymbolTableRecord
100
AcDbBlockTableRecord
  2
*D4
  0
BLOCK_RECORD
  5
5F02
330
1
100
AcDbSymbolTableRecord
100
AcDbBlockTableRecord
  2
*D5
  0
BLOCK_RECORD
  5
5F21
330
1
100
AcDbSymbolTableRecord
100
AcDbBlockTableRecord
  2
*D6
  0
BLOCK_RECORD
  5
5F2E
330
1
100
AcDbSymbolTableRecord
100
AcDbBlockTableRecord
  2
*D7
  0
BLOCK_RECORD
  5
5F3B
330
1
100
AcDbSymbolTableRecord
100
AcDbBlockTableRecord
  2
*D8
  0
BLOCK_RECORD
  5
5F47
330
1
100
AcDbSymbolTableRecord
100
AcDbBlockTableRecord
  2
*D9
  0
BLOCK_RECORD
  5
5F54
330
1
100
AcDbSymbolTableRecord
100
AcDbBlockTableRecord
  2
*D10
  0
BLOCK_RECORD
  5
5F61
330
1
100
AcDbSymbolTableRecord
100
AcDbBlockTableRecord
  2
*D11
  0
BLOCK_RECORD
  5
61A9
330
1
100
AcDbSymbolTableRecord
100
AcDbBlockTableRecord
  2
*D12
  0
BLOCK_RECORD
  5
61B6
330
1
100
AcDbSymbolTableRecord
100
AcDbBlockTableRecord
  2
*D13
  0
BLOCK_RECORD
  5
61D5
330
1
100
AcDbSymbolTableRecord
100
AcDbBlockTableRecord
  2
*D14
  0
BLOCK_RECORD
  5
61E3
330
1
100
AcDbSymbolTableRecord
100
AcDbBlockTableRecord
  2
*D15
  0
BLOCK_RECORD
  5
61F9
330
1
100
AcDbSymbolTableRecord
100
AcDbBlockTableRecord
  2
*D16
  0
BLOCK_RECORD
  5
6206
330
1
100
AcDbSymbolTableRecord
100
AcDbBlockTableRecord
  2
*D17
  0
BLOCK_RECORD
  5
6220
330
1
100
AcDbSymbolTableRecord
100
AcDbBlockTableRecord
  2
*D18
  0
BLOCK_RECORD
  5
622D
330
1
100
AcDbSymbolTableRecord
100
AcDbBlockTableRecord
  2
*D19
  0
BLOCK_RECORD
  5
623C
330
1
100
AcDbSymbolTableRecord
100
AcDbBlockTableRecord
  2
*D20
  0
BLOCK_RECORD
  5
6249
330
1
100
AcDbSymbolTableRecord
100
AcDbBlockTableRecord
  2
*D21
  0
BLOCK_RECORD
  5
6295
330
1
100
AcDbSymbolTableRecord
100
AcDbBlockTableRecord
  2
*D22
  0
BLOCK_RECORD
  5
62AB
330
1
100
AcDbSymbolTableRecord
100
AcDbBlockTableRecord
  2
*D23
  0
BLOCK_RECORD
  5
62E1
330
1
100
AcDbSymbolTableRecord
100
AcDbBlockTableRecord
  2
*D24
  0
BLOCK_RECORD
  5
62F7
330
1
100
AcDbSymbolTableRecord
100
AcDbBlockTableRecord
  2
*D25
  0
BLOCK_RECORD
  5
6362
330
1
100
AcDbSymbolTableRecord
100
AcDbBlockTableRecord
  2
*D26
  0
BLOCK_RECORD
  5
636F
330
1
100
AcDbSymbolTableRecord
100
AcDbBlockTableRecord
  2
*D27
  0
BLOCK_RECORD
  5
63B8
330
1
100
AcDbSymbolTableRecord
100
AcDbBlockTableRecord
  2
*D28
  0
BLOCK_RECORD
  5
6527
330
1
100
AcDbSymbolTableRecord
100
AcDbBlockTableRecord
  2
*D29
  0
BLOCK_RECORD
  5
656C
330
1
100
AcDbSymbolTableRecord
100
AcDbBlockTableRecord
  2
*D30
  0
BLOCK_RECORD
  5
6579
330
1
100
AcDbSymbolTableRecord
100
AcDbBlockTableRecord
  2
*D31
  0
BLOCK_RECORD
  5
6594
330
1
100
AcDbSymbolTableRecord
100
AcDbBlockTableRecord
  2
*D32
  0
BLOCK_RECORD
  5
65A1
330
1
100
AcDbSymbolTableRecord
100
AcDbBlockTableRecord
  2
*D33
  0
BLOCK_RECORD
  5
65AE
330
1
100
AcDbSymbolTableRecord
100
AcDbBlockTableRecord
  2
*D34
  0
ENDTAB
  0
ENDSEC
  0
SECTION
  2
BLOCKS
  0
BLOCK
  5
1F
330
1E
100
AcDbEntity
  8
0
100
AcDbBlockBegin
  2
*MODEL_SPACE
 70
     0
 10
0.0
 20
0.0
 30
0.0
  3
*MODEL_SPACE
  1

  0
ENDBLK
  5
20
330
1E
100
AcDbEntity
  8
0
100
AcDbBlockEnd
  0
BLOCK
  5
1B
330
1A
100
AcDbEntity
 67
     1
  8
0
100
AcDbBlockBegin
  2
*PAPER_SPACE
 70
     0
 10
0.0
 20
0.0
 30
0.0
  3
*PAPER_SPACE
  1

  0
ENDBLK
  5
1C
330
1A
100
AcDbEntity
 67
     1
  8
0
100
AcDbBlockEnd
  0
BLOCK
  5
3B6
330
3B2
100
AcDbEntity
  8
0
100
AcDbBlockBegin
  2
_OPEN
 70
     0
 10
0.0
 20
0.0
 30
0.0
  3
_OPEN
  1

  0
LINE
  5
3B3
330
3B2
100
AcDbEntity
  8
30
  6
CONTINUOUS
 62
     0
100
AcDbLine
 10
-1.0
 20
0.1666666666666666
 30
0.0
 11
0.0
 21
0.0
 31
0.0
  0
LINE
  5
3B4
330
3B2
100
AcDbEntity
  8
30
  6
CONTINUOUS
 62
     0
100
AcDbLine
 10
-1.0
 20
-0.1666666666666666
 30
0.0
 11
0.0
 21
0.0
 31
0.0
  0
LINE
  5
3B5
330
3B2
100
AcDbEntity
  8
30
  6
CONTINUOUS
 62
     0
100
AcDbLine
 10
0.0
 20
0.0
 30
0.0
 11
-1.0
 21
0.0
 31
0.0
  0
ENDBLK
  5
3B7
330
3B2
100
AcDbEntity
  8
0
100
AcDbBlockEnd
  0
BLOCK
  5
2D3D
330
2D33
100
AcDbEntity
  8
0
 62
     2
100
AcDbBlockBegin
  2
*D1
 70
     1
 10
0.0
 20
0.0
 30
0.0
  3
*D1
  1

  0
LINE
  5
631E
330
2D33
100
AcDbEntity
  8
30
  6
CONTINUOUS
 62
     0
100
AcDbLine
 10
223.0
 20
-547.0
 30
0.0
 11
223.0
 21
-560.5
 31
0.0
  0
LINE
  5
631F
330
2D33
100
AcDbEntity
  8
30
  6
CONTINUOUS
 62
     0
100
AcDbLine
 10
287.0
 20
-547.0
 30
0.0
 11
287.0
 21
-560.5
 31
0.0
  0
LINE
  5
6320
330
2D33
100
AcDbEntity
  8
30
  6
CONTINUOUS
 62
     0
100
AcDbLine
 10
225.0
 20
-560.0
 30
0.0
 11
285.0
 21
-560.0
 31
0.0
  0
INSERT
  5
6321
330
2D33
100
AcDbEntity
  8
30
  6
CONTINUOUS
 62
     0
100
AcDbBlockReference
  2
_OPEN
 10
223.0
 20
-560.0
 30
0.0
 41
2.0
 42
2.0
 43
2.0
 50
180.0
  0
INSERT
  5
6322
330
2D33
100
AcDbEntity
  8
30
  6
CONTINUOUS
 62
     0
100
AcDbBlockReference
  2
_OPEN
 10
287.0
 20
-560.0
 30
0.0
 41
2.0
 42
2.0
 43
2.0
  0
MTEXT
  5
6323
330
2D33
100
AcDbEntity
  8
30
  6
CONTINUOUS
 62
     0
100
AcDbMText
 10
255.0
 20
-556.5
 30
0.0
 40
5.0
 41
0.0
 71
     5
 72
     1
  1
\A1;64
1001
ACAD
1000
MTEXTBEGIN
1070
    73
1070
     1
1070
    44
1040
1.0
1070
    74
1070
     0
1000
MTEXTEND
  0
POINT
  5
6324
330
2D33
100
AcDbEntity
  8
DEFPOINTS
  6
CONTINUOUS
 62
     0
100
AcDbPoint
 10
223.0
 20
-546.0
 30
0.0
  0
POINT
  5
6325
330
2D33
100
AcDbEntity
  8
DEFPOINTS
  6
CONTINUOUS
 62
     0
100
AcDbPoint
 10
287.0
 20
-546.0
 30
0.0
  0
POINT
  5
6326
330
2D33
100
AcDbEntity
  8
DEFPOINTS
  6
CONTINUOUS
 62
     0
100
AcDbPoint
 10
287.0
 20
-560.0
 30
0.0
  0
ENDBLK
  5
2D3E
330
2D33
100
AcDbEntity
  8
0
 62
     2
100
AcDbBlockEnd
  0
BLOCK
  5
2D54
330
2D4A
100
AcDbEntity
  8
0
 62
     2
100
AcDbBlockBegin
  2
*D2
 70
     1
 10
0.0
 20
0.0
 30
0.0
  3
*D2
  1

  0
LINE
  5
6315
330
2D4A
100
AcDbEntity
  8
30
  6
CONTINUOUS
 62
     0
100
AcDbLine
 10
223.0
 20
-454.0
 30
0.0
 11
204.4999999999999
 21
-454.0
 31
0.0
  0
LINE
  5
6316
330
2D4A
100
AcDbEntity
  8
30
  6
CONTINUOUS
 62
     0
100
AcDbLine
 10
222.0
 20
-546.0
 30
0.0
 11
204.4999999999999
 21
-546.0
 31
0.0
  0
LINE
  5
6317
330
2D4A
100
AcDbEntity
  8
30
  6
CONTINUOUS
 62
     0
100
AcDbLine
 10
204.9999999999999
 20
-456.0
 30
0.0
 11
204.9999999999999
 21
-544.0
 31
0.0
  0
INSERT
  5
6318
330
2D4A
100
AcDbEntity
  8
30
  6
CONTINUOUS
 62
     0
100
AcDbBlockReference
  2
_OPEN
 10
204.9999999999999
 20
-454.0
 30
0.0
 41
2.0
 42
2.0
 43
2.0
 50
90.0
  0
INSERT
  5
6319
330
2D4A
100
AcDbEntity
  8
30
  6
CONTINUOUS
 62
     0
100
AcDbBlockReference
  2
_OPEN
 10
204.9999999999999
 20
-546.0
 30
0.0
 41
2.0
 42
2.0
 43
2.0
 50
270.0
  0
MTEXT
  5
631A
330
2D4A
100
AcDbEntity
  8
30
  6
CONTINUOUS
 62
     0
100
AcDbMText
 10
201.5
 20
-504.0
 30
0.0
 40
5.0
 41
0.0
 71
     5
 72
     1
  1
\A1;92
 11
0.0000000000000001
 21
1.0
 31
0.0
1001
ACAD
1000
MTEXTBEGIN
1070
    73
1070
     1
1070
    44
1040
1.0
1070
    74
1070
     0
1000
MTEXTEND
  0
POINT
  5
631B
330
2D4A
100
AcDbEntity
  8
DEFPOINTS
  6
CONTINUOUS
 62
     0
100
AcDbPoint
 10
224.0
 20
-454.0
 30
0.0
  0
POINT
  5
631C
330
2D4A
100
AcDbEntity
  8
DEFPOINTS
  6
CONTINUOUS
 62
     0
100
AcDbPoint
 10
223.0
 20
-546.0
 30
0.0
  0
POINT
  5
631D
330
2D4A
100
AcDbEntity
  8
DEFPOINTS
  6
CONTINUOUS
 62
     0
100
AcDbPoint
 10
204.9999999999999
 20
-546.0
 30
0.0
  0
ENDBLK
  5
2D55
330
2D4A
100
AcDbEntity
  8
0
 62
     2
100
AcDbBlockEnd
  0
BLOCK
  5
46FA
330
46F7
100
AcDbEntity
  8
L0_
  6
CONTINUOUS
100
AcDbBlockBegin
  2
B837
 70
     0
 10
0.0
 20
0.0
 30
0.0
  3
B837
  1

  0
TEXT
  5
46F8
330
46F7
100
AcDbEntity
  8
L0_
  6
CONTINUOUS
100
AcDbText
 10
1984.080078125
 20
1307.4332275391
 30
0.0
 40
12.0
  1
n
 41
2.30859375
  7
SYMBOL3
 72
     5
 11
2002.080078125
 21
1307.4332275391
 31
0.0
100
AcDbText
 73
     2
  0
TEXT
  5
46F9
330
46F7
100
AcDbEntity
  8
L0_
  6
CONTINUOUS
100
AcDbText
 10
2002.080078125
 20
1307.4332275391
 30
0.0
 40
12.0
  1
11
 41
1.077343749999997
  7
SYMBOL3
 72
     5
 11
2018.880078125
 21
1307.4332275391
 31
0.0
100
AcDbText
 73
     2
  0
ENDBLK
  5
46FB
330
46F7
100
AcDbEntity
  8
L0_
  6
CONTINUOUS
100
AcDbBlockEnd
  0
BLOCK
  5
57C7
330
57BD
100
AcDbEntity
  8
0
100
AcDbBlockBegin
  2
*D4
 70
     1
 10
0.0
 20
0.0
 30
0.0
  3
*D4
  1

  0
LINE
  5
638D
330
57BD
100
AcDbEntity
  8
30
  6
CONTINUOUS
 62
     0
100
AcDbLine
 10
-34.85003662108999
 20
-626.25
 30
0.0
 11
-34.85003662108999
 21
-654.4999999999999
 31
0.0
  0
LINE
  5
638E
330
57BD
100
AcDbEntity
  8
30
  6
CONTINUOUS
 62
     0
100
AcDbLine
 10
35.15002441406
 20
-626.25
 30
0.0
 11
35.15002441406
 21
-654.4999999999999
 31
0.0
  0
LINE
  5
638F
330
57BD
100
AcDbEntity
  8
30
  6
CONTINUOUS
 62
     0
100
AcDbLine
 10
-32.85003662109
 20
-654.0
 30
0.0
 11
33.15002441405999
 21
-654.0
 31
0.0
  0
INSERT
  5
6390
330
57BD
100
AcDbEntity
  8
30
  6
CONTINUOUS
 62
     0
100
AcDbBlockReference
  2
_OPEN
 10
-34.85003662108999
 20
-654.0
 30
0.0
 41
2.0
 42
2.0
 43
2.0
 50
180.0
  0
INSERT
  5
6391
330
57BD
100
AcDbEntity
  8
30
  6
CONTINUOUS
 62
     0
100
AcDbBlockReference
  2
_OPEN
 10
35.15002441406
 20
-654.0
 30
0.0
 41
2.0
 42
2.0
 43
2.0
  0
MTEXT
  5
6392
330
57BD
100
AcDbEntity
  8
30
  6
CONTINUOUS
 62
     0
100
AcDbMText
 10
0.1499938964850005
 20
-650.4999999999999
 30
0.0
 40
5.0
 41
0.0
 71
     5
 72
     1
  1
\A1;70
1001
ACAD
1000
MTEXTBEGIN
1070
    73
1070
     1
1070
    44
1040
1.0
1070
    74
1070
     0
1000
MTEXTEND
  0
POINT
  5
6393
330
57BD
100
AcDbEntity
  8
DEFPOINTS
  6
CONTINUOUS
 62
     0
100
AcDbPoint
 10
-34.85003662108999
 20
-625.25
 30
0.0
  0
POINT
  5
6394
330
57BD
100
AcDbEntity
  8
DEFPOINTS
  6
CONTINUOUS
 62
     0
100
AcDbPoint
 10
35.15002441406
 20
-625.25
 30
0.0
  0
POINT
  5
6395
330
57BD
100
AcDbEntity
  8
DEFPOINTS
  6
CONTINUOUS
 62
     0
100
AcDbPoint
 10
35.15002441406
 20
-654.0
 30
0.0
  0
ENDBLK
  5
57C8
330
57BD
100
AcDbEntity
  8
0
100
AcDbBlockEnd
  0
BLOCK
  5
5F0C
330
5F02
100
AcDbEntity
  8
0
100
AcDbBlockBegin
  2
*D5
 70
     1
 10
0.0
 20
0.0
 30
0.0
  3
*D5
  1

  0
LINE
  5
60CF
330
5F02
100
AcDbEntity
  8
30
  6
CONTINUOUS
 62
     0
100
AcDbLine
 10
50.0
 20
-213.0
 30
0.0
 11
50.0
 21
-232.5
 31
0.0
  0
LINE
  5
60D0
330
5F02
100
AcDbEntity
  8
30
  6
CONTINUOUS
 62
     0
100
AcDbLine
 10
90.0
 20
-213.0
 30
0.0
 11
90.0
 21
-232.5
 31
0.0
  0
LINE
  5
60D1
330
5F02
100
AcDbEntity
  8
30
  6
CONTINUOUS
 62
     0
100
AcDbLine
 10
52.0
 20
-232.0
 30
0.0
 11
88.0
 21
-232.0
 31
0.0
  0
INSERT
  5
60D2
330
5F02
100
AcDbEntity
  8
30
  6
CONTINUOUS
 62
     0
100
AcDbBlockReference
  2
_OPEN
 10
50.0
 20
-232.0
 30
0.0
 41
2.0
 42
2.0
 43
2.0
 50
180.0
  0
INSERT
  5
60D3
330
5F02
100
AcDbEntity
  8
30
  6
CONTINUOUS
 62
     0
100
AcDbBlockReference
  2
_OPEN
 10
90.0
 20
-232.0
 30
0.0
 41
2.0
 42
2.0
 43
2.0
  0
MTEXT
  5
60D4
330
5F02
100
AcDbEntity
  8
30
  6
CONTINUOUS
 62
     0
100
AcDbMText
 10
70.0
 20
-228.5
 30
0.0
 40
5.0
 41
0.0
 71
     5
 72
     1
  1
\A1;40
1001
ACAD
1000
MTEXTBEGIN
1070
    73
1070
     1
1070
    44
1040
1.0
1070
    74
1070
     0
1000
MTEXTEND
  0
POINT
  5
60D5
330
5F02
100
AcDbEntity
  8
DEFPOINTS
  6
CONTINUOUS
 62
     0
100
AcDbPoint
 10
50.0
 20
-212.0
 30
0.0
  0
POINT
  5
60D6
330
5F02
100
AcDbEntity
  8
DEFPOINTS
  6
CONTINUOUS
 62
     0
100
AcDbPoint
 10
90.0
 20
-212.0
 30
0.0
  0
POINT
  5
60D7
330
5F02
100
AcDbEntity
  8
DEFPOINTS
  6
CONTINUOUS
 62
     0
100
AcDbPoint
 10
90.0
 20
-232.0
 30
0.0
  0
ENDBLK
  5
5F0D
330
5F02
100
AcDbEntity
  8
0
100
AcDbBlockEnd
  0
BLOCK
  5
5F2B
330
5F21
100
AcDbEntity
  8
0
100
AcDbBlockBegin
  2
*D6
 70
     1
 10
0.0
 20
0.0
 30
0.0
  3
*D6
  1

  0
LINE
  5
60B4
330
5F21
100
AcDbEntity
  8
30
  6
CONTINUOUS
 62
     0
100
AcDbLine
 10
-69.99993896483999
 20
-213.0
 30
0.0
 11
-69.99993896483999
 21
-231.4999999999999
 31
0.0
  0
LINE
  5
60B5
330
5F21
100
AcDbEntity
  8
30
  6
CONTINUOUS
 62
     0
100
AcDbLine
 10
-0.0000000000000001
 20
-198.0
 30
0.0
 11
-0.0000000000000021
 21
-231.4999999999999
 31
0.0
  0
LINE
  5
60B6
330
5F21
100
AcDbEntity
  8
30
  6
CONTINUOUS
 62
     0
100
AcDbLine
 10
-67.99993896484
 20
-231.0
 30
0.0
 11
-2.000000000000002
 21
-231.0
 31
0.0
  0
INSERT
  5
60B7
330
5F21
100
AcDbEntity
  8
30
  6
CONTINUOUS
 62
     0
100
AcDbBlockReference
  2
_OPEN
 10
-69.99993896483999
 20
-231.0
 30
0.0
 41
2.0
 42
2.0
 43
2.0
 50
180.0
  0
INSERT
  5
60B8
330
5F21
100
AcDbEntity
  8
30
  6
CONTINUOUS
 62
     0
100
AcDbBlockReference
  2
_OPEN
 10
-0.0000000000000021
 20
-231.0
 30
0.0
 41
2.0
 42
2.0
 43
2.0
  0
MTEXT
  5
60B9
330
5F21
100
AcDbEntity
  8
30
  6
CONTINUOUS
 62
     0
100
AcDbMText
 10
-34.99996948241999
 20
-227.4999999999999
 30
0.0
 40
5.0
 41
0.0
 71
     5
 72
     1
  1
\A1;70
1001
ACAD
1000
MTEXTBEGIN
1070
    73
1070
     1
1070
    44
1040
1.0
1070
    74
1070
     0
1000
MTEXTEND
  0
POINT
  5
60BA
330
5F21
100
AcDbEntity
  8
DEFPOINTS
  6
CONTINUOUS
 62
     0
100
AcDbPoint
 10
-69.99993896483999
 20
-212.0
 30
0.0
  0
POINT
  5
60BB
330
5F21
100
AcDbEntity
  8
DEFPOINTS
  6
CONTINUOUS
 62
     0
100
AcDbPoint
 10
0.0
 20
-197.0
 30
0.0
  0
POINT
  5
60BC
330
5F21
100
AcDbEntity
  8
DEFPOINTS
  6
CONTINUOUS
 62
     0
100
AcDbPoint
 10
-0.0000000000000021
 20
-231.0
 30
0.0
  0
ENDBLK
  5
5F2C
330
5F21
100
AcDbEntity
  8
0
100
AcDbBlockEnd
  0
BLOCK
  5
5F38
330
5F2E
100
AcDbEntity
  8
0
100
AcDbBlockBegin
  2
*D7
 70
     1
 10
0.0
 20
0.0
 30
0.0
  3
*D7
  1

  0
LINE
  5
60AB
330
5F2E
100
AcDbEntity
  8
30
  6
CONTINUOUS
 62
     0
100
AcDbLine
 10
-105.0
 20
-133.0
 30
0.0
 11
-105.0
 21
-250.4999999999999
 31
0.0
  0
LINE
  5
60AC
330
5F2E
100
AcDbEntity
  8
30
  6
CONTINUOUS
 62
     0
100
AcDbLine
 10
105.0
 20
-133.0
 30
0.0
 11
104.9999999999999
 21
-250.4999999999999
 31
0.0
  0
LINE
  5
60AD
330
5F2E
100
AcDbEntity
  8
30
  6
CONTINUOUS
 62
     0
100
AcDbLine
 10
-103.0
 20
-250.0
 30
0.0
 11
102.9999999999999
 21
-250.0
 31
0.0
  0
INSERT
  5
60AE
330
5F2E
100
AcDbEntity
  8
30
  6
CONTINUOUS
 62
     0
100
AcDbBlockReference
  2
_OPEN
 10
-105.0
 20
-250.0
 30
0.0
 41
2.0
 42
2.0
 43
2.0
 50
180.0
  0
INSERT
  5
60AF
330
5F2E
100
AcDbEntity
  8
30
  6
CONTINUOUS
 62
     0
100
AcDbBlockReference
  2
_OPEN
 10
104.9999999999999
 20
-250.0
 30
0.0
 41
2.0
 42
2.0
 43
2.0
  0
MTEXT
  5
60B0
330
5F2E
100
AcDbEntity
  8
30
  6
CONTINUOUS
 62
     0
100
AcDbMText
 10
-0.000000000000014
 20
-246.4999999999999
 30
0.0
 40
5.0
 41
0.0
 71
     5
 72
     1
  1
\A1;210
1001
ACAD
1000
MTEXTBEGIN
1070
    73
1070
     1
1070
    44
1040
1.0
1070
    74
1070
     0
1000
MTEXTEND
  0
POINT
  5
60B1
330
5F2E
100
AcDbEntity
  8
DEFPOINTS
  6
CONTINUOUS
 62
     0
100
AcDbPoint
 10
-105.0
 20
-132.0
 30
0.0
  0
POINT
  5
60B2
330
5F2E
100
AcDbEntity
  8
DEFPOINTS
  6
CONTINUOUS
 62
     0
100
AcDbPoint
 10
105.0
 20
-132.0
 30
0.0
  0
POINT
  5
60B3
330
5F2E
100
AcDbEntity
  8
DEFPOINTS
  6
CONTINUOUS
 62
     0
100
AcDbPoint
 10
104.9999999999999
 20
-250.0
 30
0.0
  0
ENDBLK
  5
5F39
330
5F2E
100
AcDbEntity
  8
0
100
AcDbBlockEnd
  0
BLOCK
  5
5F44
330
5F3B
100
AcDbEntity
  8
0
100
AcDbBlockBegin
  2
*D8
 70
     1
 10
0.0
 20
0.0
 30
0.0
  3
*D8
  1

  0
LINE
  5
610E
330
5F3B
100
AcDbEntity
  8
30
  6
CONTINUOUS
 62
     0
100
AcDbLine
 10
113.6666666666666
 20
238.0
 30
0.0
 11
101.0
 21
238.0
 31
0.0
  0
LINE
  5
610F
330
5F3B
100
AcDbEntity
  8
30
  6
CONTINUOUS
 62
     0
100
AcDbLine
 10
101.0
 20
238.0
 30
0.0
 11
75.91425933452957
 21
212.1050418937079
 31
0.0
  0
MTEXT
  5
6110
330
5F3B
100
AcDbEntity
  8
30
  6
CONTINUOUS
 62
     0
100
AcDbMText
 10
107.8333333333333
 20
241.5
 30
0.0
 40
5.0
 41
0.0
 71
     5
 72
     1
  1
\A1;\U+220513
1001
ACAD
1000
MTEXTBEGIN
1070
    73
1070
     1
1070
    44
1040
1.0
1070
    74
1070
     0
1000
MTEXTEND
  0
INSERT
  5
6111
330
5F3B
100
AcDbEntity
  8
30
  6
CONTINUOUS
 62
     0
100
AcDbBlockReference
  2
_OPEN
 10
74.52266890287557
 20
210.6685614481295
 30
0.0
 41
2.0
 42
2.0
 43
2.0
 50
225.9093804491991
  0
LINE
  5
6112
330
5F3B
100
AcDbEntity
  8
30
  6
CONTINUOUS
 62
     0
100
AcDbLine
 10
69.90999999999999
 20
206.0
 30
0.0
 11
70.08999999999996
 21
206.0
 31
0.0
  0
LINE
  5
6113
330
5F3B
100
AcDbEntity
  8
30
  6
CONTINUOUS
 62
     0
100
AcDbLine
 10
70.00000000000001
 20
205.91
 30
0.0
 11
69.99999999999997
 21
206.0900000000001
 31
0.0
  0
POINT
  5
6114
330
5F3B
100
AcDbEntity
  8
DEFPOINTS
  6
CONTINUOUS
 62
     0
100
AcDbPoint
 10
74.52266890287557
 20
210.6685614481295
 30
0.0
  0
POINT
  5
6115
330
5F3B
100
AcDbEntity
  8
DEFPOINTS
  6
CONTINUOUS
 62
     0
100
AcDbPoint
 10
65.4773310971244
 20
201.3314385518703
 30
0.0
  0
ENDBLK
  5
5F45
330
5F3B
100
AcDbEntity
  8
0
100
AcDbBlockEnd
  0
BLOCK
  5
5F51
330
5F47
100
AcDbEntity
  8
0
100
AcDbBlockBegin
  2
*D9
 70
     1
 10
0.0
 20
0.0
 30
0.0
  3
*D9
  1

  0
LINE
  5
6562
330
5F47
100
AcDbEntity
  8
30
  6
CONTINUOUS
 62
     0
100
AcDbLine
 10
83.87994384766001
 20
166.0
 30
0.0
 11
110.4999999999999
 21
166.0
 31
0.0
  0
LINE
  5
6563
330
5F47
100
AcDbEntity
  8
30
  6
CONTINUOUS
 62
     0
100
AcDbLine
 10
71.0
 20
141.0
 30
0.0
 11
110.4999999999999
 21
141.0
 31
0.0
  0
LINE
  5
6564
330
5F47
100
AcDbEntity
  8
30
  6
CONTINUOUS
 62
     0
100
AcDbLine
 10
110.0
 20
164.0
 30
0.0
 11
109.9999999999999
 21
143.0
 31
0.0
  0
INSERT
  5
6565
330
5F47
100
AcDbEntity
  8
30
  6
CONTINUOUS
 62
     0
100
AcDbBlockReference
  2
_OPEN
 10
110.0
 20
166.0
 30
0.0
 41
2.0
 42
2.0
 43
2.0
 50
90.0
  0
INSERT
  5
6566
330
5F47
100
AcDbEntity
  8
30
  6
CONTINUOUS
 62
     0
100
AcDbBlockReference
  2
_OPEN
 10
109.9999999999999
 20
141.0
 30
0.0
 41
2.0
 42
2.0
 43
2.0
 50
270.0
  0
MTEXT
  5
6567
330
5F47
100
AcDbEntity
  8
30
  6
CONTINUOUS
 62
     0
100
AcDbMText
 10
106.4999999999999
 20
153.5
 30
0.0
 40
5.0
 41
0.0
 71
     5
 72
     1
  1
\A1;25
 11
0.0000000000000001
 21
1.0
 31
0.0
1001
ACAD
1000
MTEXTBEGIN
1070
    73
1070
     1
1070
    44
1040
1.0
1070
    74
1070
     0
1000
MTEXTEND
  0
POINT
  5
6568
330
5F47
100
AcDbEntity
  8
DEFPOINTS
  6
CONTINUOUS
 62
     0
100
AcDbPoint
 10
82.87994384765999
 20
166.0
 30
0.0
  0
POINT
  5
6569
330
5F47
100
AcDbEntity
  8
DEFPOINTS
  6
CONTINUOUS
 62
     0
100
AcDbPoint
 10
70.0
 20
141.0
 30
0.0
  0
POINT
  5
656A
330
5F47
100
AcDbEntity
  8
DEFPOINTS
  6
CONTINUOUS
 62
     0
100
AcDbPoint
 10
109.9999999999999
 20
141.0
 30
0.0
  0
ENDBLK
  5
5F52
330
5F47
100
AcDbEntity
  8
0
100
AcDbBlockEnd
  0
BLOCK
  5
5F5E
330
5F54
100
AcDbEntity
  8
0
100
AcDbBlockBegin
  2
*D10
 70
     1
 10
0.0
 20
0.0
 30
0.0
  3
*D10
  1

  0
LINE
  5
60FC
330
5F54
100
AcDbEntity
  8
30
  6
CONTINUOUS
 62
     0
100
AcDbLine
 10
91.0
 20
221.0
 30
0.0
 11
110.4999999999999
 21
221.0
 31
0.0
  0
LINE
  5
60FD
330
5F54
100
AcDbEntity
  8
30
  6
CONTINUOUS
 62
     0
100
AcDbLine
 10
84.72882080077999
 20
206.0
 30
0.0
 11
110.4999999999999
 21
206.0
 31
0.0
  0
LINE
  5
60FE
330
5F54
100
AcDbEntity
  8
30
  6
CONTINUOUS
 62
     0
100
AcDbLine
 10
110.0
 20
219.0
 30
0.0
 11
110.0
 21
208.0
 31
0.0
  0
INSERT
  5
60FF
330
5F54
100
AcDbEntity
  8
30
  6
CONTINUOUS
 62
     0
100
AcDbBlockReference
  2
_OPEN
 10
110.0
 20
221.0
 30
0.0
 41
2.0
 42
2.0
 43
2.0
 50
90.0
  0
INSERT
  5
6100
330
5F54
100
AcDbEntity
  8
30
  6
CONTINUOUS
 62
     0
100
AcDbBlockReference
  2
_OPEN
 10
110.0
 20
206.0
 30
0.0
 41
2.0
 42
2.0
 43
2.0
 50
270.0
  0
MTEXT
  5
6101
330
5F54
100
AcDbEntity
  8
30
  6
CONTINUOUS
 62
     0
100
AcDbMText
 10
106.4999999999999
 20
213.5
 30
0.0
 40
5.0
 41
0.0
 71
     5
 72
     1
  1
\A1;15
 11
0.0000000000000001
 21
1.0
 31
0.0
1001
ACAD
1000
MTEXTBEGIN
1070
    73
1070
     1
1070
    44
1040
1.0
1070
    74
1070
     0
1000
MTEXTEND
  0
POINT
  5
6102
330
5F54
100
AcDbEntity
  8
DEFPOINTS
  6
CONTINUOUS
 62
     0
100
AcDbPoint
 10
90.0
 20
221.0
 30
0.0
  0
POINT
  5
6103
330
5F54
100
AcDbEntity
  8
DEFPOINTS
  6
CONTINUOUS
 62
     0
100
AcDbPoint
 10
83.72882080077999
 20
206.0
 30
0.0
  0
POINT
  5
6104
330
5F54
100
AcDbEntity
  8
DEFPOINTS
  6
CONTINUOUS
 62
     0
100
AcDbPoint
 10
110.0
 20
206.0
 30
0.0
  0
ENDBLK
  5
5F5F
330
5F54
100
AcDbEntity
  8
0
100
AcDbBlockEnd
  0
BLOCK
  5
5F6B
330
5F61
100
AcDbEntity
  8
0
100
AcDbBlockBegin
  2
*D11
 70
     1
 10
0.0
 20
0.0
 30
0.0
  3
*D11
  1

  0
LINE
  5
60F3
330
5F61
100
AcDbEntity
  8
30
  6
CONTINUOUS
 62
     0
100
AcDbLine
 10
92.0
 20
221.0
 30
0.0
 11
131.5
 21
221.0
 31
0.0
  0
LINE
  5
60F4
330
5F61
100
AcDbEntity
  8
30
  6
CONTINUOUS
 62
     0
100
AcDbLine
 10
91.0
 20
141.0
 30
0.0
 11
131.4999999999999
 21
141.0
 31
0.0
  0
LINE
  5
60F5
330
5F61
100
AcDbEntity
  8
30
  6
CONTINUOUS
 62
     0
100
AcDbLine
 10
131.0
 20
219.0
 30
0.0
 11
131.0
 21
143.0
 31
0.0
  0
INSERT
  5
60F6
330
5F61
100
AcDbEntity
  8
30
  6
CONTINUOUS
 62
     0
100
AcDbBlockReference
  2
_OPEN
 10
131.0
 20
221.0
 30
0.0
 41
2.0
 42
2.0
 43
2.0
 50
90.0
  0
INSERT
  5
60F7
330
5F61
100
AcDbEntity
  8
30
  6
CONTINUOUS
 62
     0
100
AcDbBlockReference
  2
_OPEN
 10
131.0
 20
141.0
 30
0.0
 41
2.0
 42
2.0
 43
2.0
 50
270.0
  0
MTEXT
  5
60F8
330
5F61
100
AcDbEntity
  8
30
  6
CONTINUOUS
 62
     0
100
AcDbMText
 10
127.4999999999999
 20
181.0
 30
0.0
 40
5.0
 41
0.0
 71
     5
 72
     1
  1
\A1;80
 11
0.0000000000000001
 21
1.0
 31
0.0
1001
ACAD
1000
MTEXTBEGIN
1070
    73
1070
     1
1070
    44
1040
1.0
1070
    74
1070
     0
1000
MTEXTEND
  0
POINT
  5
60F9
330
5F61
100
AcDbEntity
  8
DEFPOINTS
  6
CONTINUOUS
 62
     0
100
AcDbPoint
 10
91.0
 20
221.0
 30
0.0
  0
POINT
  5
60FA
330
5F61
100
AcDbEntity
  8
DEFPOINTS
  6
CONTINUOUS
 62
     0
100
AcDbPoint
 10
90.0
 20
141.0
 30
0.0
  0
POINT
  5
60FB
330
5F61
100
AcDbEntity
  8
DEFPOINTS
  6
CONTINUOUS
 62
     0
100
AcDbPoint
 10
131.0
 20
141.0
 30
0.0
  0
ENDBLK
  5
5F6C
330
5F61
100
AcDbEntity
  8
0
100
AcDbBlockEnd
  0
BLOCK
  5
61B3
330
61A9
100
AcDbEntity
  8
0
100
AcDbBlockBegin
  2
*D12
 70
     1
 10
0.0
 20
0.0
 30
0.0
  3
*D12
  1

  0
LINE
  5
653E
330
61A9
100
AcDbEntity
  8
30
  6
CONTINUOUS
 62
     0
100
AcDbLine
 10
326.2913707384479
 20
222.0
 30
0.0
 11
326.2913707384479
 21
230.5
 31
0.0
  0
LINE
  5
653F
330
61A9
100
AcDbEntity
  8
30
  6
CONTINUOUS
 62
     0
100
AcDbLine
 10
336.2913707384479
 20
222.0
 30
0.0
 11
336.2913707384479
 21
230.5
 31
0.0
  0
LINE
  5
6540
330
61A9
100
AcDbEntity
  8
30
  6
CONTINUOUS
 62
     0
100
AcDbLine
 10
328.2913707384479
 20
230.0
 30
0.0
 11
334.2913707384479
 21
230.0
 31
0.0
  0
INSERT
  5
6541
330
61A9
100
AcDbEntity
  8
30
  6
CONTINUOUS
 62
     0
100
AcDbBlockReference
  2
_OPEN
 10
326.2913707384479
 20
230.0
 30
0.0
 41
2.0
 42
2.0
 43
2.0
 50
180.0
  0
INSERT
  5
6542
330
61A9
100
AcDbEntity
  8
30
  6
CONTINUOUS
 62
     0
100
AcDbBlockReference
  2
_OPEN
 10
336.2913707384479
 20
230.0
 30
0.0
 41
2.0
 42
2.0
 43
2.0
  0
MTEXT
  5
6543
330
61A9
100
AcDbEntity
  8
30
  6
CONTINUOUS
 62
     0
100
AcDbMText
 10
331.2913707384479
 20
233.4999999999999
 30
0.0
 40
5.0
 41
0.0
 71
     5
 72
     1
  1
\A1;10
1001
ACAD
1000
MTEXTBEGIN
1070
    73
1070
     1
1070
    44
1040
1.0
1070
    74
1070
     0
1000
MTEXTEND
  0
POINT
  5
6544
330
61A9
100
AcDbEntity
  8
DEFPOINTS
  6
CONTINUOUS
 62
     0
100
AcDbPoint
 10
326.2913707384479
 20
221.0
 30
0.0
  0
POINT
  5
6545
330
61A9
100
AcDbEntity
  8
DEFPOINTS
  6
CONTINUOUS
 62
     0
100
AcDbPoint
 10
336.2913707384479
 20
221.0
 30
0.0
  0
POINT
  5
6546
330
61A9
100
AcDbEntity
  8
DEFPOINTS
  6
CONTINUOUS
 62
     0
100
AcDbPoint
 10
336.2913707384479
 20
230.0
 30
0.0
  0
ENDBLK
  5
61B4
330
61A9
100
AcDbEntity
  8
0
100
AcDbBlockEnd
  0
BLOCK
  5
61C0
330
61B6
100
AcDbEntity
  8
0
100
AcDbBlockBegin
  2
*D13
 70
     1
 10
0.0
 20
0.0
 30
0.0
  3
*D13
  1

  0
LINE
  5
61CB
330
61B6
100
AcDbEntity
  8
30
  6
CONTINUOUS
 62
     0
100
AcDbLine
 10
336.2913707384479
 20
222.0
 30
0.0
 11
336.2913707384479
 21
230.5
 31
0.0
  0
LINE
  5
61CC
330
61B6
100
AcDbEntity
  8
30
  6
CONTINUOUS
 62
     0
100
AcDbLine
 10
368.2913707384479
 20
142.0
 30
0.0
 11
368.2913707384479
 21
230.5
 31
0.0
  0
LINE
  5
61CD
330
61B6
100
AcDbEntity
  8
30
  6
CONTINUOUS
 62
     0
100
AcDbLine
 10
338.2913707384479
 20
230.0
 30
0.0
 11
366.2913707384479
 21
230.0
 31
0.0
  0
INSERT
  5
61CE
330
61B6
100
AcDbEntity
  8
30
  6
CONTINUOUS
 62
     0
100
AcDbBlockReference
  2
_OPEN
 10
336.2913707384479
 20
230.0
 30
0.0
 41
2.0
 42
2.0
 43
2.0
 50
180.0
  0
INSERT
  5
61CF
330
61B6
100
AcDbEntity
  8
30
  6
CONTINUOUS
 62
     0
100
AcDbBlockReference
  2
_OPEN
 10
368.2913707384479
 20
230.0
 30
0.0
 41
2.0
 42
2.0
 43
2.0
  0
MTEXT
  5
61D0
330
61B6
100
AcDbEntity
  8
30
  6
CONTINUOUS
 62
     0
100
AcDbMText
 10
352.2913707384479
 20
233.4999999999999
 30
0.0
 40
5.0
 41
0.0
 71
     5
 72
     1
  1
\A1;32
1001
ACAD
1000
MTEXTBEGIN
1070
    73
1070
     1
1070
    44
1040
1.0
1070
    74
1070
     0
1000
MTEXTEND
  0
POINT
  5
61D1
330
61B6
100
AcDbEntity
  8
DEFPOINTS
  6
CONTINUOUS
 62
     0
100
AcDbPoint
 10
336.2913707384479
 20
221.0
 30
0.0
  0
POINT
  5
61D2
330
61B6
100
AcDbEntity
  8
DEFPOINTS
  6
CONTINUOUS
 62
     0
100
AcDbPoint
 10
368.2913707384479
 20
141.0
 30
0.0
  0
POINT
  5
61D3
330
61B6
100
AcDbEntity
  8
DEFPOINTS
  6
CONTINUOUS
 62
     0
100
AcDbPoint
 10
368.2913707384479
 20
230.0
 30
0.0
  0
ENDBLK
  5
61C1
330
61B6
100
AcDbEntity
  8
0
100
AcDbBlockEnd
  0
BLOCK
  5
61E0
330
61D5
100
AcDbEntity
  8
0
100
AcDbBlockBegin
  2
*D14
 70
     1
 10
0.0
 20
0.0
 30
0.0
  3
*D14
  1

  0
LINE
  5
61D6
330
61D5
100
AcDbEntity
  8
30
  6
CONTINUOUS
 62
     0
100
AcDbLine
 10
265.2913707384479
 20
58.0
 30
0.0
 11
265.2913707384479
 21
116.8999023438
 31
0.0
  0
LINE
  5
61D7
330
61D5
100
AcDbEntity
  8
30
  6
CONTINUOUS
 62
     0
100
AcDbLine
 10
271.2913707384479
 20
58.0
 30
0.0
 11
271.2913707384479
 21
116.8999023438
 31
0.0
  0
LINE
  5
61D8
330
61D5
100
AcDbEntity
  8
30
  6
CONTINUOUS
 62
     0
100
AcDbLine
 10
263.2913707384479
 20
116.3999023438
 30
0.0
 11
261.2913707384479
 21
116.3999023438
 31
0.0
  0
LINE
  5
61D9
330
61D5
100
AcDbEntity
  8
30
  6
CONTINUOUS
 62
     0
100
AcDbLine
 10
273.2913707384479
 20
116.3999023438
 30
0.0
 11
275.2913707384479
 21
116.3999023438
 31
0.0
  0
INSERT
  5
61DA
330
61D5
100
AcDbEntity
  8
30
  6
CONTINUOUS
 62
     0
100
AcDbBlockReference
  2
_OPEN
 10
265.2913707384479
 20
116.3999023438
 30
0.0
 41
2.0
 42
2.0
 43
2.0
  0
INSERT
  5
61DB
330
61D5
100
AcDbEntity
  8
30
  6
CONTINUOUS
 62
     0
100
AcDbBlockReference
  2
_OPEN
 10
271.2913707384479
 20
116.3999023438
 30
0.0
 41
2.0
 42
2.0
 43
2.0
 50
180.0
  0
MTEXT
  5
61DC
330
61D5
100
AcDbEntity
  8
30
  6
CONTINUOUS
 62
     0
100
AcDbMText
 10
268.2913707384479
 20
119.8999023438
 30
0.0
 40
5.0
 41
0.0
 71
     5
 72
     1
  1
\A1;6
1001
ACAD
1000
MTEXTBEGIN
1070
    73
1070
     1
1070
    44
1040
1.0
1070
    74
1070
     0
1000
MTEXTEND
  0
POINT
  5
61DD
330
61D5
100
AcDbEntity
  8
DEFPOINTS
  6
CONTINUOUS
 62
     0
100
AcDbPoint
 10
265.2913707384479
 20
57.0
 30
0.0
  0
POINT
  5
61DE
330
61D5
100
AcDbEntity
  8
DEFPOINTS
  6
CONTINUOUS
 62
     0
100
AcDbPoint
 10
271.2913707384479
 20
57.0
 30
0.0
  0
POINT
  5
61DF
330
61D5
100
AcDbEntity
  8
DEFPOINTS
  6
CONTINUOUS
 62
     0
100
AcDbPoint
 10
271.2913707384479
 20
116.3999023438
 30
0.0
  0
ENDBLK
  5
61E1
330
61D5
100
AcDbEntity
  8
0
100
AcDbBlockEnd
  0
BLOCK
  5
61ED
330
61E3
100
AcDbEntity
  8
0
100
AcDbBlockBegin
  2
*D15
 70
     1
 10
0.0
 20
0.0
 30
0.0
  3
*D15
  1

  0
LINE
  5
61EF
330
61E3
100
AcDbEntity
  8
30
  6
CONTINUOUS
 62
     0
100
AcDbLine
 10
264.2913707384479
 20
57.0
 30
0.0
 11
201.5
 21
57.00000000000002
 31
0.0
  0
LINE
  5
61F0
330
61E3
100
AcDbEntity
  8
30
  6
CONTINUOUS
 62
     0
100
AcDbLine
 10
264.2913707384479
 20
0.0000000000000003
 30
0.0
 11
201.5
 21
0.0000000000000181
 31
0.0
  0
LINE
  5
61F1
330
61E3
100
AcDbEntity
  8
30
  6
CONTINUOUS
 62
     0
100
AcDbLine
 10
202.0
 20
55.00000000000002
 30
0.0
 11
202.0
 21
2.000000000000017
 31
0.0
  0
INSERT
  5
61F2
330
61E3
100
AcDbEntity
  8
30
  6
CONTINUOUS
 62
     0
100
AcDbBlockReference
  2
_OPEN
 10
202.0
 20
57.00000000000002
 30
0.0
 41
2.0
 42
2.0
 43
2.0
 50
90.0
  0
INSERT
  5
61F3
330
61E3
100
AcDbEntity
  8
30
  6
CONTINUOUS
 62
     0
100
AcDbBlockReference
  2
_OPEN
 10
202.0
 20
0.0000000000000179
 30
0.0
 41
2.0
 42
2.0
 43
2.0
 50
270.0
  0
MTEXT
  5
61F4
330
61E3
100
AcDbEntity
  8
30
  6
CONTINUOUS
 62
     0
100
AcDbMText
 10
198.5
 20
28.50000000000005
 30
0.0
 40
5.0
 41
0.0
 71
     5
 72
     1
  1
\A1;57
 11
0.0000000000000001
 21
1.0
 31
0.0
1001
ACAD
1000
MTEXTBEGIN
1070
    73
1070
     1
1070
    44
1040
1.0
1070
    74
1070
     0
1000
MTEXTEND
  0
POINT
  5
61F5
330
61E3
100
AcDbEntity
  8
DEFPOINTS
  6
CONTINUOUS
 62
     0
100
AcDbPoint
 10
265.2913707384479
 20
57.0
 30
0.0
  0
POINT
  5
61F6
330
61E3
100
AcDbEntity
  8
DEFPOINTS
  6
CONTINUOUS
 62
     0
100
AcDbPoint
 10
265.2913707384479
 20
0.0
 30
0.0
  0
POINT
  5
61F7
330
61E3
100
AcDbEntity
  8
DEFPOINTS
  6
CONTINUOUS
 62
     0
100
AcDbPoint
 10
202.0
 20
0.0000000000000179
 30
0.0
  0
ENDBLK
  5
61EE
330
61E3
100
AcDbEntity
  8
0
100
AcDbBlockEnd
  0
BLOCK
  5
6203
330
61F9
100
AcDbEntity
  8
0
100
AcDbBlockBegin
  2
*D16
 70
     1
 10
0.0
 20
0.0
 30
0.0
  3
*D16
  1

  0
LINE
  5
61FA
330
61F9
100
AcDbEntity
  8
30
  6
CONTINUOUS
 62
     0
100
AcDbLine
 10
264.2913707384479
 20
0.0000000000000003
 30
0.0
 11
201.5
 21
0.0000000000000181
 31
0.0
  0
LINE
  5
61FB
330
61F9
100
AcDbEntity
  8
30
  6
CONTINUOUS
 62
     0
100
AcDbLine
 10
264.2913707384479
 20
-45.0
 30
0.0
 11
201.5
 21
-44.99999999999998
 31
0.0
  0
LINE
  5
61FC
330
61F9
100
AcDbEntity
  8
30
  6
CONTINUOUS
 62
     0
100
AcDbLine
 10
202.0
 20
-1.999999999999982
 30
0.0
 11
202.0
 21
-42.99999999999998
 31
0.0
  0
INSERT
  5
61FD
330
61F9
100
AcDbEntity
  8
30
  6
CONTINUOUS
 62
     0
100
AcDbBlockReference
  2
_OPEN
 10
202.0
 20
0.0000000000000179
 30
0.0
 41
2.0
 42
2.0
 43
2.0
 50
90.0
  0
INSERT
  5
61FE
330
61F9
100
AcDbEntity
  8
30
  6
CONTINUOUS
 62
     0
100
AcDbBlockReference
  2
_OPEN
 10
202.0
 20
-44.99999999999998
 30
0.0
 41
2.0
 42
2.0
 43
2.0
 50
270.0
  0
MTEXT
  5
61FF
330
61F9
100
AcDbEntity
  8
30
  6
CONTINUOUS
 62
     0
100
AcDbMText
 10
198.5
 20
-22.49999999999994
 30
0.0
 40
5.0
 41
0.0
 71
     5
 72
     1
  1
\A1;45
 11
0.0000000000000001
 21
1.0
 31
0.0
1001
ACAD
1000
MTEXTBEGIN
1070
    73
1070
     1
1070
    44
1040
1.0
1070
    74
1070
     0
1000
MTEXTEND
  0
POINT
  5
6200
330
61F9
100
AcDbEntity
  8
DEFPOINTS
  6
CONTINUOUS
 62
     0
100
AcDbPoint
 10
265.2913707384479
 20
0.0
 30
0.0
  0
POINT
  5
6201
330
61F9
100
AcDbEntity
  8
DEFPOINTS
  6
CONTINUOUS
 62
     0
100
AcDbPoint
 10
265.2913707384479
 20
-45.0
 30
0.0
  0
POINT
  5
6202
330
61F9
100
AcDbEntity
  8
DEFPOINTS
  6
CONTINUOUS
 62
     0
100
AcDbPoint
 10
202.0
 20
-44.99999999999998
 30
0.0
  0
ENDBLK
  5
6204
330
61F9
100
AcDbEntity
  8
0
100
AcDbBlockEnd
  0
BLOCK
  5
6210
330
6206
100
AcDbEntity
  8
0
100
AcDbBlockBegin
  2
*D17
 70
     1
 10
0.0
 20
0.0
 30
0.0
  3
*D17
  1

  0
LINE
  5
67C5
330
6206
100
AcDbEntity
  8
30
  6
CONTINUOUS
 62
     0
100
AcDbLine
 10
264.2913707384479
 20
-45.0
 30
0.0
 11
201.5
 21
-44.99999999999998
 31
0.0
  0
LINE
  5
67C6
330
6206
100
AcDbEntity
  8
30
  6
CONTINUOUS
 62
     0
100
AcDbLine
 10
265.2912977219459
 20
-51.00000000013278
 30
0.0
 11
201.5
 21
-51.00000000013277
 31
0.0
  0
LINE
  5
67C7
330
6206
100
AcDbEntity
  8
30
  6
CONTINUOUS
 62
     0
100
AcDbLine
 10
202.0
 20
-46.99999999999998
 30
0.0
 11
202.0
 21
-49.00000000013276
 31
0.0
  0
INSERT
  5
67C8
330
6206
100
AcDbEntity
  8
30
  6
CONTINUOUS
 62
     0
100
AcDbBlockReference
  2
_OPEN
 10
202.0
 20
-44.99999999999998
 30
0.0
 41
2.0
 42
2.0
 43
2.0
 50
90.0
  0
INSERT
  5
67C9
330
6206
100
AcDbEntity
  8
30
  6
CONTINUOUS
 62
     0
100
AcDbBlockReference
  2
_OPEN
 10
202.0
 20
-51.00000000013277
 30
0.0
 41
2.0
 42
2.0
 43
2.0
 50
270.0
  0
MTEXT
  5
67CA
330
6206
100
AcDbEntity
  8
30
  6
CONTINUOUS
 62
     0
100
AcDbMText
 10
198.5
 20
-48.00000000006634
 30
0.0
 40
5.0
 41
0.0
 71
     5
 72
     1
  1
\A1;6
 11
0.0000000000000001
 21
1.0
 31
0.0
  0
POINT
  5
67CB
330
6206
100
AcDbEntity
  8
DEFPOINTS
  6
CONTINUOUS
 62
     0
100
AcDbPoint
 10
265.2913707384479
 20
-45.0
 30
0.0
  0
POINT
  5
67CC
330
6206
100
AcDbEntity
  8
DEFPOINTS
  6
CONTINUOUS
 62
     0
100
AcDbPoint
 10
266.2912977219459
 20
-51.00000000013278
 30
0.0
  0
POINT
  5
67CD
330
6206
100
AcDbEntity
  8
DEFPOINTS
  6
CONTINUOUS
 62
     0
100
AcDbPoint
 10
202.0
 20
-51.00000000013277
 30
0.0
  0
ENDBLK
  5
6211
330
6206
100
AcDbEntity
  8
0
100
AcDbBlockEnd
  0
BLOCK
  5
622A
330
6220
100
AcDbEntity
  8
0
100
AcDbBlockBegin
  2
*D18
 70
     1
 10
0.0
 20
0.0
 30
0.0
  3
*D18
  1

  0
LINE
  5
6221
330
6220
100
AcDbEntity
  8
30
  6
CONTINUOUS
 62
     0
100
AcDbLine
 10
340.2913707384479
 20
-107.4999999999999
 30
0.0
 11
340.2913707384479
 21
-90.5
 31
0.0
  0
LINE
  5
6222
330
6220
100
AcDbEntity
  8
30
  6
CONTINUOUS
 62
     0
100
AcDbLine
 10
368.2913707384479
 20
-111.0
 30
0.0
 11
368.2913707384479
 21
-90.5
 31
0.0
  0
LINE
  5
6223
330
6220
100
AcDbEntity
  8
30
  6
CONTINUOUS
 62
     0
100
AcDbLine
 10
342.2913707384479
 20
-91.0
 30
0.0
 11
366.2913707384479
 21
-91.0
 31
0.0
  0
INSERT
  5
6224
330
6220
100
AcDbEntity
  8
30
  6
CONTINUOUS
 62
     0
100
AcDbBlockReference
  2
_OPEN
 10
340.2913707384479
 20
-91.0
 30
0.0
 41
2.0
 42
2.0
 43
2.0
 50
180.0
  0
INSERT
  5
6225
330
6220
100
AcDbEntity
  8
30
  6
CONTINUOUS
 62
     0
100
AcDbBlockReference
  2
_OPEN
 10
368.2913707384479
 20
-91.0
 30
0.0
 41
2.0
 42
2.0
 43
2.0
  0
MTEXT
  5
6226
330
6220
100
AcDbEntity
  8
30
  6
CONTINUOUS
 62
     0
100
AcDbMText
 10
354.2913707384479
 20
-87.5
 30
0.0
 40
5.0
 41
0.0
 71
     5
 72
     1
  1
\A1;28
1001
ACAD
1000
MTEXTBEGIN
1070
    73
1070
     1
1070
    44
1040
1.0
1070
    74
1070
     0
1000
MTEXTEND
  0
POINT
  5
6227
330
6220
100
AcDbEntity
  8
DEFPOINTS
  6
CONTINUOUS
 62
     0
100
AcDbPoint
 10
340.2913707384479
 20
-108.4999999999999
 30
0.0
  0
POINT
  5
6228
330
6220
100
AcDbEntity
  8
DEFPOINTS
  6
CONTINUOUS
 62
     0
100
AcDbPoint
 10
368.2913707384479
 20
-112.0
 30
0.0
  0
POINT
  5
6229
330
6220
100
AcDbEntity
  8
DEFPOINTS
  6
CONTINUOUS
 62
     0
100
AcDbPoint
 10
368.2913707384479
 20
-91.0
 30
0.0
  0
ENDBLK
  5
622B
330
6220
100
AcDbEntity
  8
0
100
AcDbBlockEnd
  0
BLOCK
  5
6237
330
622D
100
AcDbEntity
  8
0
100
AcDbBlockBegin
  2
*D19
 70
     1
 10
0.0
 20
0.0
 30
0.0
  3
*D19
  1

  0
LINE
  5
622E
330
622D
100
AcDbEntity
  8
30
  6
CONTINUOUS
 62
     0
100
AcDbLine
 10
368.2913707384479
 20
-112.0
 30
0.0
 11
368.2913707384479
 21
-90.5
 31
0.0
  0
LINE
  5
622F
330
622D
100
AcDbEntity
  8
30
  6
CONTINUOUS
 62
     0
100
AcDbLine
 10
382.2914928087479
 20
-112.0
 30
0.0
 11
382.2914928087479
 21
-90.5
 31
0.0
  0
LINE
  5
6230
330
622D
100
AcDbEntity
  8
30
  6
CONTINUOUS
 62
     0
100
AcDbLine
 10
370.2913707384479
 20
-91.0
 30
0.0
 11
380.2914928087479
 21
-91.0
 31
0.0
  0
INSERT
  5
6231
330
622D
100
AcDbEntity
  8
30
  6
CONTINUOUS
 62
     0
100
AcDbBlockReference
  2
_OPEN
 10
368.2913707384479
 20
-91.0
 30
0.0
 41
2.0
 42
2.0
 43
2.0
 50
180.0
  0
INSERT
  5
6232
330
622D
100
AcDbEntity
  8
30
  6
CONTINUOUS
 62
     0
100
AcDbBlockReference
  2
_OPEN
 10
382.2914928087479
 20
-91.0
 30
0.0
 41
2.0
 42
2.0
 43
2.0
  0
MTEXT
  5
6233
330
622D
100
AcDbEntity
  8
30
  6
CONTINUOUS
 62
     0
100
AcDbMText
 10
375.2914317735979
 20
-87.5
 30
0.0
 40
5.0
 41
0.0
 71
     5
 72
     1
  1
\A1;14
1001
ACAD
1000
MTEXTBEGIN
1070
    73
1070
     1
1070
    44
1040
1.0
1070
    74
1070
     0
1000
MTEXTEND
  0
POINT
  5
6234
330
622D
100
AcDbEntity
  8
DEFPOINTS
  6
CONTINUOUS
 62
     0
100
AcDbPoint
 10
368.2913707384479
 20
-113.0
 30
0.0
  0
POINT
  5
6235
330
622D
100
AcDbEntity
  8
DEFPOINTS
  6
CONTINUOUS
 62
     0
100
AcDbPoint
 10
382.2914928087479
 20
-113.0
 30
0.0
  0
POINT
  5
6236
330
622D
100
AcDbEntity
  8
DEFPOINTS
  6
CONTINUOUS
 62
     0
100
AcDbPoint
 10
382.2914928087479
 20
-91.0
 30
0.0
  0
ENDBLK
  5
6238
330
622D
100
AcDbEntity
  8
0
100
AcDbBlockEnd
  0
BLOCK
  5
6246
330
623C
100
AcDbEntity
  8
0
100
AcDbBlockBegin
  2
*D20
 70
     1
 10
0.0
 20
0.0
 30
0.0
  3
*D20
  1

  0
LINE
  5
678E
330
623C
100
AcDbEntity
  8
30
  6
CONTINUOUS
 62
     0
100
AcDbLine
 10
322.2913707384479
 20
-213.0
 30
0.0
 11
322.2913707384479
 21
-222.5
 31
0.0
  0
LINE
  5
678F
330
623C
100
AcDbEntity
  8
30
  6
CONTINUOUS
 62
     0
100
AcDbLine
 10
332.2913707384479
 20
-213.0
 30
0.0
 11
332.2913707384479
 21
-222.5
 31
0.0
  0
LINE
  5
6790
330
623C
100
AcDbEntity
  8
30
  6
CONTINUOUS
 62
     0
100
AcDbLine
 10
324.2913707384479
 20
-222.0
 30
0.0
 11
330.2913707384479
 21
-222.0
 31
0.0
  0
INSERT
  5
6791
330
623C
100
AcDbEntity
  8
30
  6
CONTINUOUS
 62
     0
100
AcDbBlockReference
  2
_OPEN
 10
322.2913707384479
 20
-222.0
 30
0.0
 41
2.0
 42
2.0
 43
2.0
 50
180.0
  0
INSERT
  5
6792
330
623C
100
AcDbEntity
  8
30
  6
CONTINUOUS
 62
     0
100
AcDbBlockReference
  2
_OPEN
 10
332.2913707384479
 20
-222.0
 30
0.0
 41
2.0
 42
2.0
 43
2.0
  0
MTEXT
  5
6793
330
623C
100
AcDbEntity
  8
30
  6
CONTINUOUS
 62
     0
100
AcDbMText
 10
327.2913707384479
 20
-218.5
 30
0.0
 40
5.0
 41
0.0
 71
     5
 72
     1
  1
\A1;10
1001
ACAD
1000
MTEXTBEGIN
1070
    73
1070
     1
1070
    44
1040
1.0
1070
    74
1070
     0
1000
MTEXTEND
  0
POINT
  5
6794
330
623C
100
AcDbEntity
  8
DEFPOINTS
  6
CONTINUOUS
 62
     0
100
AcDbPoint
 10
322.2913707384479
 20
-212.0
 30
0.0
  0
POINT
  5
6795
330
623C
100
AcDbEntity
  8
DEFPOINTS
  6
CONTINUOUS
 62
     0
100
AcDbPoint
 10
332.2913707384479
 20
-212.0
 30
0.0
  0
POINT
  5
6796
330
623C
100
AcDbEntity
  8
DEFPOINTS
  6
CONTINUOUS
 62
     0
100
AcDbPoint
 10
332.2913707384479
 20
-222.0
 30
0.0
  0
ENDBLK
  5
6247
330
623C
100
AcDbEntity
  8
0
100
AcDbBlockEnd
  0
BLOCK
  5
6253
330
6249
100
AcDbEntity
  8
0
100
AcDbBlockBegin
  2
*D21
 70
     1
 10
0.0
 20
0.0
 30
0.0
  3
*D21
  1

  0
LINE
  5
6797
330
6249
100
AcDbEntity
  8
30
  6
CONTINUOUS
 62
     0
100
AcDbLine
 10
332.2913707384479
 20
-213.0
 30
0.0
 11
332.2913707384479
 21
-222.5
 31
0.0
  0
LINE
  5
6798
330
6249
100
AcDbEntity
  8
30
  6
CONTINUOUS
 62
     0
100
AcDbLine
 10
368.2913707384479
 20
-133.0
 30
0.0
 11
368.2913707384479
 21
-222.5
 31
0.0
  0
LINE
  5
6799
330
6249
100
AcDbEntity
  8
30
  6
CONTINUOUS
 62
     0
100
AcDbLine
 10
334.2913707384479
 20
-222.0
 30
0.0
 11
366.2913707384479
 21
-222.0
 31
0.0
  0
INSERT
  5
679A
330
6249
100
AcDbEntity
  8
30
  6
CONTINUOUS
 62
     0
100
AcDbBlockReference
  2
_OPEN
 10
332.2913707384479
 20
-222.0
 30
0.0
 41
2.0
 42
2.0
 43
2.0
 50
180.0
  0
INSERT
  5
679B
330
6249
100
AcDbEntity
  8
30
  6
CONTINUOUS
 62
     0
100
AcDbBlockReference
  2
_OPEN
 10
368.2913707384479
 20
-222.0
 30
0.0
 41
2.0
 42
2.0
 43
2.0
  0
MTEXT
  5
679C
330
6249
100
AcDbEntity
  8
30
  6
CONTINUOUS
 62
     0
100
AcDbMText
 10
350.2913707384479
 20
-218.5
 30
0.0
 40
5.0
 41
0.0
 71
     5
 72
     1
  1
\A1;36
1001
ACAD
1000
MTEXTBEGIN
1070
    73
1070
     1
1070
    44
1040
1.0
1070
    74
1070
     0
1000
MTEXTEND
  0
POINT
  5
679D
330
6249
100
AcDbEntity
  8
DEFPOINTS
  6
CONTINUOUS
 62
     0
100
AcDbPoint
 10
332.2913707384479
 20
-212.0
 30
0.0
  0
POINT
  5
679E
330
6249
100
AcDbEntity
  8
DEFPOINTS
  6
CONTINUOUS
 62
     0
100
AcDbPoint
 10
368.2913707384479
 20
-132.0
 30
0.0
  0
POINT
  5
679F
330
6249
100
AcDbEntity
  8
DEFPOINTS
  6
CONTINUOUS
 62
     0
100
AcDbPoint
 10
368.2913707384479
 20
-222.0
 30
0.0
  0
ENDBLK
  5
6254
330
6249
100
AcDbEntity
  8
0
100
AcDbBlockEnd
  0
BLOCK
  5
629F
330
6295
100
AcDbEntity
  8
0
100
AcDbBlockBegin
  2
*D22
 70
     1
 10
0.0
 20
0.0
 30
0.0
  3
*D22
  1

  0
LINE
  5
6683
330
6295
100
AcDbEntity
  8
30
  6
CONTINUOUS
 62
     0
100
AcDbLine
 10
368.2913707384479
 20
-134.0
 30
0.0
 11
368.2913707384479
 21
-230.6666666666666
 31
0.0
  0
LINE
  5
6684
330
6295
100
AcDbEntity
  8
30
  6
CONTINUOUS
 62
     0
100
AcDbLine
 10
265.2913707384479
 20
-108.0
 30
0.0
 11
265.2913707384479
 21
-230.6666666666666
 31
0.0
  0
LINE
  5
6685
330
6295
100
AcDbEntity
  8
30
  6
CONTINUOUS
 62
     0
100
AcDbLine
 10
366.2913707384479
 20
-230.1666666666666
 30
0.0
 11
267.2913707384479
 21
-230.1666666666666
 31
0.0
  0
INSERT
  5
6686
330
6295
100
AcDbEntity
  8
30
  6
CONTINUOUS
 62
     0
100
AcDbBlockReference
  2
_OPEN
 10
368.2913707384479
 20
-230.1666666666666
 30
0.0
 41
2.0
 42
2.0
 43
2.0
  0
INSERT
  5
6687
330
6295
100
AcDbEntity
  8
30
  6
CONTINUOUS
 62
     0
100
AcDbBlockReference
  2
_OPEN
 10
265.2913707384479
 20
-230.1666666666666
 30
0.0
 41
2.0
 42
2.0
 43
2.0
 50
180.0
  0
MTEXT
  5
6688
330
6295
100
AcDbEntity
  8
30
  6
CONTINUOUS
 62
     0
100
AcDbMText
 10
315.7913707384479
 20
-226.6666666666666
 30
0.0
 40
5.0
 41
0.0
 71
     5
 72
     1
  1
\A1;103
1001
ACAD
1000
MTEXTBEGIN
1070
    73
1070
     1
1070
    44
1040
1.0
1070
    74
1070
     0
1000
MTEXTEND
  0
POINT
  5
6689
330
6295
100
AcDbEntity
  8
DEFPOINTS
  6
CONTINUOUS
 62
     0
100
AcDbPoint
 10
368.2913707384479
 20
-133.0
 30
0.0
  0
POINT
  5
668A
330
6295
100
AcDbEntity
  8
DEFPOINTS
  6
CONTINUOUS
 62
     0
100
AcDbPoint
 10
265.2913707384479
 20
-107.0
 30
0.0
  0
POINT
  5
668B
330
6295
100
AcDbEntity
  8
DEFPOINTS
  6
CONTINUOUS
 62
     0
100
AcDbPoint
 10
265.2913707384479
 20
-230.1666666666666
 30
0.0
  0
ENDBLK
  5
62A0
330
6295
100
AcDbEntity
  8
0
100
AcDbBlockEnd
  0
BLOCK
  5
62B6
330
62AB
100
AcDbEntity
  8
0
100
AcDbBlockBegin
  2
*D23
 70
     1
 10
0.0
 20
0.0
 30
0.0
  3
*D23
  1

  0
LINE
  5
62D6
330
62AB
100
AcDbEntity
  8
30
  6
CONTINUOUS
 62
     0
100
AcDbLine
 10
257.7913707384479
 20
-5.0
 30
0.0
 11
257.7913707384479
 21
-230.6666666666666
 31
0.0
  0
LINE
  5
62D7
330
62AB
100
AcDbEntity
  8
30
  6
CONTINUOUS
 62
     0
100
AcDbLine
 10
265.2913707384479
 20
-108.0
 30
0.0
 11
265.2913707384479
 21
-230.6666666666666
 31
0.0
  0
LINE
  5
62D8
330
62AB
100
AcDbEntity
  8
30
  6
CONTINUOUS
 62
     0
100
AcDbLine
 10
263.2913707384479
 20
-230.1666666666666
 30
0.0
 11
259.7913707384479
 21
-230.1666666666666
 31
0.0
  0
LINE
  5
62D9
330
62AB
100
AcDbEntity
  8
30
  6
CONTINUOUS
 62
     0
100
AcDbLine
 10
257.7913707384479
 20
-230.1666666666666
 30
0.0
 11
239.0
 21
-230.1666666666666
 31
0.0
  0
INSERT
  5
62DA
330
62AB
100
AcDbEntity
  8
30
  6
CONTINUOUS
 62
     0
100
AcDbBlockReference
  2
_OPEN
 10
265.2913707384479
 20
-230.1666666666666
 30
0.0
 41
2.0
 42
2.0
 43
2.0
  0
INSERT
  5
62DB
330
62AB
100
AcDbEntity
  8
30
  6
CONTINUOUS
 62
     0
100
AcDbBlockReference
  2
_OPEN
 10
257.7913707384479
 20
-230.1666666666666
 30
0.0
 41
2.0
 42
2.0
 43
2.0
 50
180.0
  0
MTEXT
  5
62DC
330
62AB
100
AcDbEntity
  8
30
  6
CONTINUOUS
 62
     0
100
AcDbMText
 10
245.0
 20
-226.6666666666666
 30
0.0
 40
5.0
 41
0.0
 71
     5
 72
     1
  1
\A1;7.5
1001
ACAD
1000
MTEXTBEGIN
1070
    73
1070
     1
1070
    44
1040
1.0
1070
    74
1070
     0
1000
MTEXTEND
  0
POINT
  5
62DD
330
62AB
100
AcDbEntity
  8
DEFPOINTS
  6
CONTINUOUS
 62
     0
100
AcDbPoint
 10
257.7913707384479
 20
-4.0
 30
0.0
  0
POINT
  5
62DE
330
62AB
100
AcDbEntity
  8
DEFPOINTS
  6
CONTINUOUS
 62
     0
100
AcDbPoint
 10
265.2913707384479
 20
-107.0
 30
0.0
  0
POINT
  5
62DF
330
62AB
100
AcDbEntity
  8
DEFPOINTS
  6
CONTINUOUS
 62
     0
100
AcDbPoint
 10
265.2913707384479
 20
-230.1666666666666
 30
0.0
  0
ENDBLK
  5
62B7
330
62AB
100
AcDbEntity
  8
0
100
AcDbBlockEnd
  0
BLOCK
  5
62EB
330
62E1
100
AcDbEntity
  8
0
100
AcDbBlockBegin
  2
*D24
 70
     1
 10
0.0
 20
0.0
 30
0.0
  3
*D24
  1

  0
LINE
  5
62ED
330
62E1
100
AcDbEntity
  8
30
  6
CONTINUOUS
 62
     0
100
AcDbLine
 10
368.2913707384479
 20
-223.0
 30
0.0
 11
368.2913707384479
 21
-245.5
 31
0.0
  0
LINE
  5
62EE
330
62E1
100
AcDbEntity
  8
30
  6
CONTINUOUS
 62
     0
100
AcDbLine
 10
223.2686943081848
 20
-1.0
 30
0.0
 11
223.2686943081847
 21
-245.5
 31
0.0
  0
LINE
  5
62EF
330
62E1
100
AcDbEntity
  8
30
  6
CONTINUOUS
 62
     0
100
AcDbLine
 10
366.2913707384479
 20
-245.0
 30
0.0
 11
225.2686943081847
 21
-245.0
 31
0.0
  0
INSERT
  5
62F0
330
62E1
100
AcDbEntity
  8
30
  6
CONTINUOUS
 62
     0
100
AcDbBlockReference
  2
_OPEN
 10
368.2913707384479
 20
-245.0
 30
0.0
 41
2.0
 42
2.0
 43
2.0
  0
INSERT
  5
62F1
330
62E1
100
AcDbEntity
  8
30
  6
CONTINUOUS
 62
     0
100
AcDbBlockReference
  2
_OPEN
 10
223.2686943081847
 20
-245.0
 30
0.0
 41
2.0
 42
2.0
 43
2.0
 50
180.0
  0
MTEXT
  5
62F2
330
62E1
100
AcDbEntity
  8
30
  6
CONTINUOUS
 62
     0
100
AcDbMText
 10
295.7800325233163
 20
-241.5
 30
0.0
 40
5.0
 41
0.0
 71
     5
 72
     1
  1
\A1;145
1001
ACAD
1000
MTEXTBEGIN
1070
    73
1070
     1
1070
    44
1040
1.0
1070
    74
1070
     0
1000
MTEXTEND
  0
POINT
  5
62F3
330
62E1
100
AcDbEntity
  8
DEFPOINTS
  6
CONTINUOUS
 62
     0
100
AcDbPoint
 10
368.2913707384479
 20
-222.0
 30
0.0
  0
POINT
  5
62F4
330
62E1
100
AcDbEntity
  8
DEFPOINTS
  6
CONTINUOUS
 62
     0
100
AcDbPoint
 10
223.2686943081848
 20
0.0
 30
0.0
  0
POINT
  5
62F5
330
62E1
100
AcDbEntity
  8
DEFPOINTS
  6
CONTINUOUS
 62
     0
100
AcDbPoint
 10
223.2686943081847
 20
-245.0
 30
0.0
  0
ENDBLK
  5
62EC
330
62E1
100
AcDbEntity
  8
0
100
AcDbBlockEnd
  0
BLOCK
  5
6301
330
62F7
100
AcDbEntity
  8
0
100
AcDbBlockBegin
  2
*D25
 70
     1
 10
0.0
 20
0.0
 30
0.0
  3
*D25
  1

  0
LINE
  5
62F8
330
62F7
100
AcDbEntity
  8
30
  6
CONTINUOUS
 62
     0
100
AcDbLine
 10
223.2686943081848
 20
-2.0
 30
0.0
 11
223.2686943081847
 21
-245.1666666666666
 31
0.0
  0
LINE
  5
62F9
330
62F7
100
AcDbEntity
  8
30
  6
CONTINUOUS
 62
     0
100
AcDbLine
 10
142.7686943081848
 20
-2.0
 30
0.0
 11
142.7686943081847
 21
-245.1666666666666
 31
0.0
  0
LINE
  5
62FA
330
62F7
100
AcDbEntity
  8
30
  6
CONTINUOUS
 62
     0
100
AcDbLine
 10
221.2686943081847
 20
-244.6666666666666
 30
0.0
 11
144.7686943081848
 21
-244.6666666666666
 31
0.0
  0
INSERT
  5
62FB
330
62F7
100
AcDbEntity
  8
30
  6
CONTINUOUS
 62
     0
100
AcDbBlockReference
  2
_OPEN
 10
223.2686943081847
 20
-244.6666666666666
 30
0.0
 41
2.0
 42
2.0
 43
2.0
  0
INSERT
  5
62FC
330
62F7
100
AcDbEntity
  8
30
  6
CONTINUOUS
 62
     0
100
AcDbBlockReference
  2
_OPEN
 10
142.7686943081847
 20
-244.6666666666666
 30
0.0
 41
2.0
 42
2.0
 43
2.0
 50
180.0
  0
MTEXT
  5
62FD
330
62F7
100
AcDbEntity
  8
30
  6
CONTINUOUS
 62
     0
100
AcDbMText
 10
183.0186943081848
 20
-241.1666666666666
 30
0.0
 40
5.0
 41
0.0
 71
     5
 72
     1
  1
\A1;80.5
1001
ACAD
1000
MTEXTBEGIN
1070
    73
1070
     1
1070
    44
1040
1.0
1070
    74
1070
     0
1000
MTEXTEND
  0
POINT
  5
62FE
330
62F7
100
AcDbEntity
  8
DEFPOINTS
  6
CONTINUOUS
 62
     0
100
AcDbPoint
 10
223.2686943081848
 20
-1.0
 30
0.0
  0
POINT
  5
62FF
330
62F7
100
AcDbEntity
  8
DEFPOINTS
  6
CONTINUOUS
 62
     0
100
AcDbPoint
 10
142.7686943081848
 20
-1.0
 30
0.0
  0
POINT
  5
6300
330
62F7
100
AcDbEntity
  8
DEFPOINTS
  6
CONTINUOUS
 62
     0
100
AcDbPoint
 10
142.7686943081847
 20
-244.6666666666666
 30
0.0
  0
ENDBLK
  5
6302
330
62F7
100
AcDbEntity
  8
0
100
AcDbBlockEnd
  0
BLOCK
  5
636C
330
6362
100
AcDbEntity
  8
0
100
AcDbBlockBegin
  2
*D26
 70
     1
 10
0.0
 20
0.0
 30
0.0
  3
*D26
  1

  0
LINE
  5
6363
330
6362
100
AcDbEntity
  8
30
  6
CONTINUOUS
 62
     0
100
AcDbLine
 10
-44.10003662109
 20
-374.0
 30
0.0
 11
-136.4999999999999
 21
-373.9999999999999
 31
0.0
  0
LINE
  5
6364
330
6362
100
AcDbEntity
  8
30
  6
CONTINUOUS
 62
     0
100
AcDbLine
 10
-106.0
 20
-500.0
 30
0.0
 11
-136.4999999999999
 21
-499.9999999999999
 31
0.0
  0
LINE
  5
6365
330
6362
100
AcDbEntity
  8
30
  6
CONTINUOUS
 62
     0
100
AcDbLine
 10
-135.9999999999999
 20
-375.9999999999999
 30
0.0
 11
-136.0
 21
-497.9999999999999
 31
0.0
  0
INSERT
  5
6366
330
6362
100
AcDbEntity
  8
30
  6
CONTINUOUS
 62
     0
100
AcDbBlockReference
  2
_OPEN
 10
-135.9999999999999
 20
-373.9999999999999
 30
0.0
 41
2.0
 42
2.0
 43
2.0
 50
90.0
  0
INSERT
  5
6367
330
6362
100
AcDbEntity
  8
30
  6
CONTINUOUS
 62
     0
100
AcDbBlockReference
  2
_OPEN
 10
-136.0
 20
-499.9999999999999
 30
0.0
 41
2.0
 42
2.0
 43
2.0
 50
270.0
  0
MTEXT
  5
6368
330
6362
100
AcDbEntity
  8
30
  6
CONTINUOUS
 62
     0
100
AcDbMText
 10
-139.4999999999999
 20
-437.0
 30
0.0
 40
5.0
 41
0.0
 71
     5
 72
     1
  1
\A1;126
 11
0.0000000000000001
 21
1.0
 31
0.0
1001
ACAD
1000
MTEXTBEGIN
1070
    73
1070
     1
1070
    44
1040
1.0
1070
    74
1070
     0
1000
MTEXTEND
  0
POINT
  5
6369
330
6362
100
AcDbEntity
  8
DEFPOINTS
  6
CONTINUOUS
 62
     0
100
AcDbPoint
 10
-43.10003662108999
 20
-374.0
 30
0.0
  0
POINT
  5
636A
330
6362
100
AcDbEntity
  8
DEFPOINTS
  6
CONTINUOUS
 62
     0
100
AcDbPoint
 10
-105.0
 20
-500.0
 30
0.0
  0
POINT
  5
636B
330
6362
100
AcDbEntity
  8
DEFPOINTS
  6
CONTINUOUS
 62
     0
100
AcDbPoint
 10
-136.0
 20
-499.9999999999999
 30
0.0
  0
ENDBLK
  5
636D
330
6362
100
AcDbEntity
  8
0
100
AcDbBlockEnd
  0
BLOCK
  5
6379
330
636F
100
AcDbEntity
  8
0
100
AcDbBlockBegin
  2
*D27
 70
     1
 10
0.0
 20
0.0
 30
0.0
  3
*D27
  1

  0
LINE
  5
67CE
330
636F
100
AcDbEntity
  8
30
  6
CONTINUOUS
 62
     0
100
AcDbLine
 10
-106.0
 20
-500.0
 30
0.0
 11
-136.4999999999999
 21
-499.9999999999999
 31
0.0
  0
LINE
  5
67CF
330
636F
100
AcDbEntity
  8
30
  6
CONTINUOUS
 62
     0
100
AcDbLine
 10
-44.10003662109
 20
-617.0
 30
0.0
 11
-136.5
 21
-617.0
 31
0.0
  0
LINE
  5
67D0
330
636F
100
AcDbEntity
  8
30
  6
CONTINUOUS
 62
     0
100
AcDbLine
 10
-136.0
 20
-501.9999999999999
 30
0.0
 11
-136.0
 21
-615.0
 31
0.0
  0
INSERT
  5
67D1
330
636F
100
AcDbEntity
  8
30
  6
CONTINUOUS
 62
     0
100
AcDbBlockReference
  2
_OPEN
 10
-136.0
 20
-499.9999999999999
 30
0.0
 41
2.0
 42
2.0
 43
2.0
 50
90.0
  0
INSERT
  5
67D2
330
636F
100
AcDbEntity
  8
30
  6
CONTINUOUS
 62
     0
100
AcDbBlockReference
  2
_OPEN
 10
-136.0
 20
-617.0
 30
0.0
 41
2.0
 42
2.0
 43
2.0
 50
270.0
  0
MTEXT
  5
67D3
330
636F
100
AcDbEntity
  8
30
  6
CONTINUOUS
 62
     0
100
AcDbMText
 10
-139.4999999999999
 20
-558.4999999999999
 30
0.0
 40
5.0
 41
0.0
 71
     5
 72
     1
  1
\A1;117
 11
0.0000000000000001
 21
1.0
 31
0.0
  0
POINT
  5
67D4
330
636F
100
AcDbEntity
  8
DEFPOINTS
  6
CONTINUOUS
 62
     0
100
AcDbPoint
 10
-105.0
 20
-500.0
 30
0.0
  0
POINT
  5
67D5
330
636F
100
AcDbEntity
  8
DEFPOINTS
  6
CONTINUOUS
 62
     0
100
AcDbPoint
 10
-43.10003662108999
 20
-617.0
 30
0.0
  0
POINT
  5
67D6
330
636F
100
AcDbEntity
  8
DEFPOINTS
  6
CONTINUOUS
 62
     0
100
AcDbPoint
 10
-136.0
 20
-617.0
 30
0.0
  0
ENDBLK
  5
637A
330
636F
100
AcDbEntity
  8
0
100
AcDbBlockEnd
  0
BLOCK
  5
63C1
330
63B8
100
AcDbEntity
  8
0
100
AcDbBlockBegin
  2
*D28
 70
     1
 10
0.0
 20
0.0
 30
0.0
  3
*D28
  1

  0
LINE
  5
63B9
330
63B8
100
AcDbEntity
  8
30
  6
CONTINUOUS
 62
     0
100
AcDbLine
 10
303.9999999999997
 20
-437.9999999999999
 30
0.0
 11
287.9999999999997
 21
-437.9999999999999
 31
0.0
  0
LINE
  5
63BA
330
63B8
100
AcDbEntity
  8
30
  6
CONTINUOUS
 62
     0
100
AcDbLine
 10
287.9999999999997
 20
-437.9999999999999
 30
0.0
 11
283.1879360111431
 21
-452.4361919665706
 31
0.0
  0
MTEXT
  5
63BB
330
63B8
100
AcDbEntity
  8
30
  6
CONTINUOUS
 62
     0
100
AcDbMText
 10
296.4999999999996
 20
-434.4999999999998
 30
0.0
 40
5.0
 41
0.0
 71
     5
 72
     1
  1
\A1;R6.5
1001
ACAD
1000
MTEXTBEGIN
1070
    73
1070
     1
1070
    44
1040
1.0
1070
    74
1070
     0
1000
MTEXTEND
  0
INSERT
  5
63BC
330
63B8
100
AcDbEntity
  8
30
  6
CONTINUOUS
 62
     0
100
AcDbBlockReference
  2
_OPEN
 10
282.5554804791094
 20
-454.3335585626716
 30
0.0
 41
2.0
 42
2.0
 43
2.0
 50
251.5650511770789
  0
LINE
  5
63BD
330
63B8
100
AcDbEntity
  8
30
  6
CONTINUOUS
 62
     0
100
AcDbLine
 10
280.41
 20
-460.5000000000001
 30
0.0
 11
280.5899999999999
 21
-460.5000000000001
 31
0.0
  0
LINE
  5
63BE
330
63B8
100
AcDbEntity
  8
30
  6
CONTINUOUS
 62
     0
100
AcDbLine
 10
280.5
 20
-460.5900000000001
 30
0.0
 11
280.5
 21
-460.4100000000001
 31
0.0
  0
POINT
  5
63BF
330
63B8
100
AcDbEntity
  8
DEFPOINTS
  6
CONTINUOUS
 62
     0
100
AcDbPoint
 10
282.5554804791094
 20
-454.3335585626716
 30
0.0
  0
POINT
  5
63C0
330
63B8
100
AcDbEntity
  8
DEFPOINTS
  6
CONTINUOUS
 62
     0
100
AcDbPoint
 10
280.5
 20
-460.5000000000002
 30
0.0
  0
ENDBLK
  5
63C2
330
63B8
100
AcDbEntity
  8
0
100
AcDbBlockEnd
  0
BLOCK
  5
6531
330
6527
100
AcDbEntity
  8
0
100
AcDbBlockBegin
  2
*D29
 70
     1
 10
0.0
 20
0.0
 30
0.0
  3
*D29
  1

  0
LINE
  5
6528
330
6527
100
AcDbEntity
  8
30
  6
CONTINUOUS
 62
     0
100
AcDbLine
 10
-106.0
 20
413.0
 30
0.0
 11
-119.4999999999999
 21
413.0
 31
0.0
  0
LINE
  5
6529
330
6527
100
AcDbEntity
  8
30
  6
CONTINUOUS
 62
     0
100
AcDbLine
 10
-106.0
 20
310.0
 30
0.0
 11
-119.5
 21
310.0
 31
0.0
  0
LINE
  5
652A
330
6527
100
AcDbEntity
  8
30
  6
CONTINUOUS
 62
     0
100
AcDbLine
 10
-118.9999999999999
 20
411.0
 30
0.0
 11
-119.0
 21
312.0
 31
0.0
  0
INSERT
  5
652B
330
6527
100
AcDbEntity
  8
30
  6
CONTINUOUS
 62
     0
100
AcDbBlockReference
  2
_OPEN
 10
-118.9999999999999
 20
413.0
 30
0.0
 41
2.0
 42
2.0
 43
2.0
 50
90.0
  0
INSERT
  5
652C
330
6527
100
AcDbEntity
  8
30
  6
CONTINUOUS
 62
     0
100
AcDbBlockReference
  2
_OPEN
 10
-119.0
 20
310.0
 30
0.0
 41
2.0
 42
2.0
 43
2.0
 50
270.0
  0
MTEXT
  5
652D
330
6527
100
AcDbEntity
  8
30
  6
CONTINUOUS
 62
     0
100
AcDbMText
 10
-122.5
 20
361.5
 30
0.0
 40
5.0
 41
0.0
 71
     5
 72
     1
  1
\A1;103
 11
0.0000000000000001
 21
1.0
 31
0.0
1001
ACAD
1000
MTEXTBEGIN
1070
    73
1070
     1
1070
    44
1040
1.0
1070
    74
1070
     0
1000
MTEXTEND
  0
POINT
  5
652E
330
6527
100
AcDbEntity
  8
DEFPOINTS
  6
CONTINUOUS
 62
     0
100
AcDbPoint
 10
-105.0
 20
413.0
 30
0.0
  0
POINT
  5
652F
330
6527
100
AcDbEntity
  8
DEFPOINTS
  6
CONTINUOUS
 62
     0
100
AcDbPoint
 10
-105.0
 20
310.0
 30
0.0
  0
POINT
  5
6530
330
6527
100
AcDbEntity
  8
DEFPOINTS
  6
CONTINUOUS
 62
     0
100
AcDbPoint
 10
-119.0
 20
310.0
 30
0.0
  0
ENDBLK
  5
6532
330
6527
100
AcDbEntity
  8
0
100
AcDbBlockEnd
  0
BLOCK
  5
6576
330
656C
100
AcDbEntity
  8
0
100
AcDbBlockBegin
  2
*D30
 70
     1
 10
0.0
 20
0.0
 30
0.0
  3
*D30
  1

  0
LINE
  5
656D
330
656C
100
AcDbEntity
  8
30
  6
CONTINUOUS
 62
     0
100
AcDbLine
 10
84.87994384766
 20
166.0
 30
0.0
 11
110.4999999999999
 21
166.0
 31
0.0
  0
LINE
  5
656E
330
656C
100
AcDbEntity
  8
30
  6
CONTINUOUS
 62
     0
100
AcDbLine
 10
81.33312988281
 20
174.0
 30
0.0
 11
110.4999999999999
 21
174.0
 31
0.0
  0
LINE
  5
656F
330
656C
100
AcDbEntity
  8
30
  6
CONTINUOUS
 62
     0
100
AcDbLine
 10
110.0
 20
168.0
 30
0.0
 11
110.0
 21
172.0
 31
0.0
  0
INSERT
  5
6570
330
656C
100
AcDbEntity
  8
30
  6
CONTINUOUS
 62
     0
100
AcDbBlockReference
  2
_OPEN
 10
110.0
 20
166.0
 30
0.0
 41
2.0
 42
2.0
 43
2.0
 50
270.0
  0
INSERT
  5
6571
330
656C
100
AcDbEntity
  8
30
  6
CONTINUOUS
 62
     0
100
AcDbBlockReference
  2
_OPEN
 10
110.0
 20
174.0
 30
0.0
 41
2.0
 42
2.0
 43
2.0
 50
90.0
  0
MTEXT
  5
6572
330
656C
100
AcDbEntity
  8
30
  6
CONTINUOUS
 62
     0
100
AcDbMText
 10
106.4999999999999
 20
170.0
 30
0.0
 40
5.0
 41
0.0
 71
     5
 72
     1
  1
\A1;8
 11
0.0000000000000001
 21
1.0
 31
0.0
1001
ACAD
1000
MTEXTBEGIN
1070
    73
1070
     1
1070
    44
1040
1.0
1070
    74
1070
     0
1000
MTEXTEND
  0
POINT
  5
6573
330
656C
100
AcDbEntity
  8
DEFPOINTS
  6
CONTINUOUS
 62
     0
100
AcDbPoint
 10
83.87994384766001
 20
166.0
 30
0.0
  0
POINT
  5
6574
330
656C
100
AcDbEntity
  8
DEFPOINTS
  6
CONTINUOUS
 62
     0
100
AcDbPoint
 10
80.33312988281
 20
174.0
 30
0.0
  0
POINT
  5
6575
330
656C
100
AcDbEntity
  8
DEFPOINTS
  6
CONTINUOUS
 62
     0
100
AcDbPoint
 10
110.0
 20
174.0
 30
0.0
  0
ENDBLK
  5
6577
330
656C
100
AcDbEntity
  8
0
100
AcDbBlockEnd
  0
BLOCK
  5
6583
330
6579
100
AcDbEntity
  8
0
100
AcDbBlockBegin
  2
*D31
 70
     1
 10
0.0
 20
0.0
 30
0.0
  3
*D31
  1

  0
LINE
  5
657A
330
6579
100
AcDbEntity
  8
30
  6
CONTINUOUS
 62
     0
100
AcDbLine
 10
81.33312988281
 20
174.0
 30
0.0
 11
110.4999999999999
 21
174.0
 31
0.0
  0
LINE
  5
657B
330
6579
100
AcDbEntity
  8
30
  6
CONTINUOUS
 62
     0
100
AcDbLine
 10
85.72882080078001
 20
206.0
 30
0.0
 11
110.4999999999999
 21
206.0
 31
0.0
  0
LINE
  5
657C
330
6579
100
AcDbEntity
  8
30
  6
CONTINUOUS
 62
     0
100
AcDbLine
 10
110.0
 20
176.0
 30
0.0
 11
110.0
 21
204.0
 31
0.0
  0
INSERT
  5
657D
330
6579
100
AcDbEntity
  8
30
  6
CONTINUOUS
 62
     0
100
AcDbBlockReference
  2
_OPEN
 10
110.0
 20
174.0
 30
0.0
 41
2.0
 42
2.0
 43
2.0
 50
270.0
  0
INSERT
  5
657E
330
6579
100
AcDbEntity
  8
30
  6
CONTINUOUS
 62
     0
100
AcDbBlockReference
  2
_OPEN
 10
110.0
 20
206.0
 30
0.0
 41
2.0
 42
2.0
 43
2.0
 50
90.0
  0
MTEXT
  5
657F
330
6579
100
AcDbEntity
  8
30
  6
CONTINUOUS
 62
     0
100
AcDbMText
 10
106.4999999999999
 20
190.0
 30
0.0
 40
5.0
 41
0.0
 71
     5
 72
     1
  1
\A1;32
 11
0.0000000000000001
 21
1.0
 31
0.0
1001
ACAD
1000
MTEXTBEGIN
1070
    73
1070
     1
1070
    44
1040
1.0
1070
    74
1070
     0
1000
MTEXTEND
  0
POINT
  5
6580
330
6579
100
AcDbEntity
  8
DEFPOINTS
  6
CONTINUOUS
 62
     0
100
AcDbPoint
 10
80.33312988281
 20
174.0
 30
0.0
  0
POINT
  5
6581
330
6579
100
AcDbEntity
  8
DEFPOINTS
  6
CONTINUOUS
 62
     0
100
AcDbPoint
 10
84.72882080077999
 20
206.0
 30
0.0
  0
POINT
  5
6582
330
6579
100
AcDbEntity
  8
DEFPOINTS
  6
CONTINUOUS
 62
     0
100
AcDbPoint
 10
110.0
 20
206.0
 30
0.0
  0
ENDBLK
  5
6584
330
6579
100
AcDbEntity
  8
0
100
AcDbBlockEnd
  0
BLOCK
  5
659E
330
6594
100
AcDbEntity
  8
0
100
AcDbBlockBegin
  2
*D32
 70
     1
 10
0.0
 20
0.0
 30
0.0
  3
*D32
  1

  0
LINE
  5
65DE
330
6594
100
AcDbEntity
  8
30
  6
CONTINUOUS
 62
     0
100
AcDbLine
 10
-106.0
 20
141.0
 30
0.0
 11
-139.9999999999999
 21
141.0
 31
0.0
  0
LINE
  5
65DF
330
6594
100
AcDbEntity
  8
30
  6
CONTINUOUS
 62
     0
100
AcDbLine
 10
-106.0
 20
0.0000000000000003
 30
0.0
 11
-139.9999999999999
 21
0.0000000000000099
 31
0.0
  0
LINE
  5
65E0
330
6594
100
AcDbEntity
  8
30
  6
CONTINUOUS
 62
     0
100
AcDbLine
 10
-139.4999999999999
 20
139.0
 30
0.0
 11
-139.4999999999999
 21
2.000000000000009
 31
0.0
  0
INSERT
  5
65E1
330
6594
100
AcDbEntity
  8
30
  6
CONTINUOUS
 62
     0
100
AcDbBlockReference
  2
_OPEN
 10
-139.4999999999999
 20
141.0
 30
0.0
 41
2.0
 42
2.0
 43
2.0
 50
90.0
  0
INSERT
  5
65E2
330
6594
100
AcDbEntity
  8
30
  6
CONTINUOUS
 62
     0
100
AcDbBlockReference
  2
_OPEN
 10
-139.4999999999999
 20
0.0000000000000098
 30
0.0
 41
2.0
 42
2.0
 43
2.0
 50
270.0
  0
MTEXT
  5
65E3
330
6594
100
AcDbEntity
  8
30
  6
CONTINUOUS
 62
     0
100
AcDbMText
 10
-142.9999999999999
 20
70.49999999999998
 30
0.0
 40
5.0
 41
0.0
 71
     5
 72
     1
  1
\A1;141
 11
0.0000000000000001
 21
1.0
 31
0.0
1001
ACAD
1000
MTEXTBEGIN
1070
    73
1070
     1
1070
    44
1040
1.0
1070
    74
1070
     0
1000
MTEXTEND
  0
POINT
  5
65E4
330
6594
100
AcDbEntity
  8
DEFPOINTS
  6
CONTINUOUS
 62
     0
100
AcDbPoint
 10
-105.0
 20
141.0
 30
0.0
  0
POINT
  5
65E5
330
6594
100
AcDbEntity
  8
DEFPOINTS
  6
CONTINUOUS
 62
     0
100
AcDbPoint
 10
-105.0
 20
0.0
 30
0.0
  0
POINT
  5
65E6
330
6594
100
AcDbEntity
  8
DEFPOINTS
  6
CONTINUOUS
 62
     0
100
AcDbPoint
 10
-139.4999999999999
 20
0.0000000000000098
 30
0.0
  0
ENDBLK
  5
659F
330
6594
100
AcDbEntity
  8
0
100
AcDbBlockEnd
  0
BLOCK
  5
65AB
330
65A1
100
AcDbEntity
  8
0
100
AcDbBlockBegin
  2
*D33
 70
     1
 10
0.0
 20
0.0
 30
0.0
  3
*D33
  1

  0
LINE
  5
67D7
330
65A1
100
AcDbEntity
  8
30
  6
CONTINUOUS
 62
     0
100
AcDbLine
 10
-106.0
 20
0.0000000000000003
 30
0.0
 11
-139.9999999999999
 21
0.0000000000000099
 31
0.0
  0
LINE
  5
67D8
330
65A1
100
AcDbEntity
  8
30
  6
CONTINUOUS
 62
     0
100
AcDbLine
 10
-106.0
 20
-132.0
 30
0.0
 11
-140.0
 21
-132.0
 31
0.0
  0
LINE
  5
67D9
330
65A1
100
AcDbEntity
  8
30
  6
CONTINUOUS
 62
     0
100
AcDbLine
 10
-139.4999999999999
 20
-1.99999999999999
 30
0.0
 11
-139.5
 21
-130.0
 31
0.0
  0
INSERT
  5
67DA
330
65A1
100
AcDbEntity
  8
30
  6
CONTINUOUS
 62
     0
100
AcDbBlockReference
  2
_OPEN
 10
-139.4999999999999
 20
0.0000000000000098
 30
0.0
 41
2.0
 42
2.0
 43
2.0
 50
90.0
  0
INSERT
  5
67DB
330
65A1
100
AcDbEntity
  8
30
  6
CONTINUOUS
 62
     0
100
AcDbBlockReference
  2
_OPEN
 10
-139.5
 20
-132.0
 30
0.0
 41
2.0
 42
2.0
 43
2.0
 50
270.0
  0
MTEXT
  5
67DC
330
65A1
100
AcDbEntity
  8
30
  6
CONTINUOUS
 62
     0
100
AcDbMText
 10
-142.9999999999999
 20
-66.00000000000001
 30
0.0
 40
5.0
 41
0.0
 71
     5
 72
     1
  1
\A1;132
 11
0.0000000000000001
 21
1.0
 31
0.0
  0
POINT
  5
67DD
330
65A1
100
AcDbEntity
  8
DEFPOINTS
  6
CONTINUOUS
 62
     0
100
AcDbPoint
 10
-105.0
 20
0.0
 30
0.0
  0
POINT
  5
67DE
330
65A1
100
AcDbEntity
  8
DEFPOINTS
  6
CONTINUOUS
 62
     0
100
AcDbPoint
 10
-105.0
 20
-132.0
 30
0.0
  0
POINT
  5
67DF
330
65A1
100
AcDbEntity
  8
DEFPOINTS
  6
CONTINUOUS
 62
     0
100
AcDbPoint
 10
-139.5
 20
-132.0
 30
0.0
  0
ENDBLK
  5
65AC
330
65A1
100
AcDbEntity
  8
0
100
AcDbBlockEnd
  0
BLOCK
  5
65B8
330
65AE
100
AcDbEntity
  8
0
100
AcDbBlockBegin
  2
*D34
 70
     1
 10
0.0
 20
0.0
 30
0.0
  3
*D34
  1

  0
LINE
  5
65E7
330
65AE
100
AcDbEntity
  8
30
  6
CONTINUOUS
 62
     0
100
AcDbLine
 10
-107.0
 20
141.0
 30
0.0
 11
-157.9999999999999
 21
141.0
 31
0.0
  0
LINE
  5
65E8
330
65AE
100
AcDbEntity
  8
30
  6
CONTINUOUS
 62
     0
100
AcDbLine
 10
-106.0
 20
-132.0
 30
0.0
 11
-157.9999999999999
 21
-132.0
 31
0.0
  0
LINE
  5
65E9
330
65AE
100
AcDbEntity
  8
30
  6
CONTINUOUS
 62
     0
100
AcDbLine
 10
-157.4999999999999
 20
139.0
 30
0.0
 11
-157.4999999999999
 21
-130.0
 31
0.0
  0
INSERT
  5
65EA
330
65AE
100
AcDbEntity
  8
30
  6
CONTINUOUS
 62
     0
100
AcDbBlockReference
  2
_OPEN
 10
-157.4999999999999
 20
141.0
 30
0.0
 41
2.0
 42
2.0
 43
2.0
 50
90.0
  0
INSERT
  5
65EB
330
65AE
100
AcDbEntity
  8
30
  6
CONTINUOUS
 62
     0
100
AcDbBlockReference
  2
_OPEN
 10
-157.4999999999999
 20
-132.0
 30
0.0
 41
2.0
 42
2.0
 43
2.0
 50
270.0
  0
MTEXT
  5
65EC
330
65AE
100
AcDbEntity
  8
30
  6
CONTINUOUS
 62
     0
100
AcDbMText
 10
-160.9999999999999
 20
4.499999999999981
 30
0.0
 40
5.0
 41
0.0
 71
     5
 72
     1
  1
\A1;273
 11
0.0000000000000001
 21
1.0
 31
0.0
1001
ACAD
1000
MTEXTBEGIN
1070
    73
1070
     1
1070
    44
1040
1.0
1070
    74
1070
     0
1000
MTEXTEND
  0
POINT
  5
65ED
330
65AE
100
AcDbEntity
  8
DEFPOINTS
  6
CONTINUOUS
 62
     0
100
AcDbPoint
 10
-106.0
 20
141.0
 30
0.0
  0
POINT
  5
65EE
330
65AE
100
AcDbEntity
  8
DEFPOINTS
  6
CONTINUOUS
 62
     0
100
AcDbPoint
 10
-105.0
 20
-132.0
 30
0.0
  0
POINT
  5
65EF
330
65AE
100
AcDbEntity
  8
DEFPOINTS
  6
CONTINUOUS
 62
     0
100
AcDbPoint
 10
-157.4999999999999
 20
-132.0
 30
0.0
  0
ENDBLK
  5
65B9
330
65AE
100
AcDbEntity
  8
0
100
AcDbBlockEnd
  0
ENDSEC
  0
SECTION
  2
ENTITIES
  0
LINE
  5
B4
330
1E
100
AcDbEntity
  8
16
100
AcDbLine
 10
-0.0000000000000021
 20
-231.0
 30
0.0
 11
0.0
 21
245.0
 31
0.0
  0
LINE
  5
B5
330
1E
100
AcDbEntity
  8
16
100
AcDbLine
 10
117.6361914121166
 20
0.0000000000000107
 30
0.0
 11
-117.4999999999999
 21
0.0
 31
0.0
  0
MTEXT
  5
BF3
330
1E
100
AcDbEntity
  8
24
  6
CONTINUOUS
100
AcDbMText
 10
142.1181906098743
 20
177.5
 30
0.0
 40
3.0
 41
0.0
 71
     1
 72
     1
  1
\A1;
1001
ACAD
1000
MTEXTBEGIN
1070
    73
1070
     1
1070
    44
1040
1.0
1070
    74
1070
     0
1000
MTEXTEND
  0
LINE
  5
1C9A
330
1E
100
AcDbEntity
  8
16
100
AcDbLine
 10
0.0
 20
258.0
 30
0.0
 11
0.0
 21
436.0
 31
0.0
  0
LINE
  5
1C9B
330
1E
100
AcDbEntity
  8
16
100
AcDbLine
 10
415.0
 20
0.0
 30
0.0
 11
177.0
 21
0.0
 31
0.0
  0
LINE
  5
2233
330
1E
100
AcDbEntity
  8
16
100
AcDbLine
 10
255.0
 20
-659.0
 30
0.0
 11
255.0
 21
-349.0
 31
0.0
  0
LINE
  5
2234
330
1E
100
AcDbEntity
  8
16
100
AcDbLine
 10
387.1634296945399
 20
-500.0
 30
0.0
 11
153.1043600603313
 21
-500.0
 31
0.0
  0
LEADER
  5
225D
330
1E
100
AcDbEntity
  8
30
  6
CONTINUOUS
100
AcDbLeader
  3
STANDARD
 76
     3
 10
38.14771366973889
 20
-611.9419380557058
 30
0.0
 10
41.51751298442206
 20
-600.5366684896304
 30
0.0
 10
72.2902161209679
 20
-600.59302230157
 30
0.0
1001
ACAD
1000
DSTYLE
1002
{
1070
     5
1000
OPEN
1070
   342
1005
3B2
1002
}
  0
TEXT
  5
225E
330
1E
100
AcDbEntity
  8
30
  6
CONTINUOUS
100
AcDbText
 10
53.50300660783671
 20
-596.2574206289533
 30
0.0
 40
5.0
  1
M8
100
AcDbText
  0
LINE
  5
2260
330
1E
100
AcDbEntity
  8
16
100
AcDbLine
 10
132.1634296945399
 20
-500.0
 30
0.0
 11
-166.0
 21
-500.0
 31
0.0
  0
LINE
  5
2261
330
1E
100
AcDbEntity
  8
16
100
AcDbLine
 10
0.0
 20
-659.0
 30
0.0
 11
0.0
 21
-349.0
 31
0.0
  0
DIMENSION
  5
2D20
330
1E
100
AcDbEntity
  8
30
  6
CONTINUOUS
100
AcDbDimension
  2
*D1
 10
287.0
 20
-560.0
 30
0.0
 11
255.0
 21
-560.0
 31
0.0
 70
   160
  1
<>
  3
STANDARD
100
AcDbAlignedDimension
 13
223.0
 23
-546.0
 33
0.0
 14
287.0
 24
-546.0
 34
0.0
 50
180.0
100
AcDbRotatedDimension
  0
DIMENSION
  5
2D25
330
1E
100
AcDbEntity
  8
30
  6
CONTINUOUS
100
AcDbDimension
  2
*D2
 10
204.9999999999999
 20
-546.0
 30
0.0
 11
205.0
 21
-504.0
 31
0.0
 70
   160
  3
STANDARD
100
AcDbAlignedDimension
 13
224.0
 23
-454.0
 33
0.0
 14
223.0
 24
-546.0
 34
0.0
 50
90.0
100
AcDbRotatedDimension
  0
LWPOLYLINE
  5
5730
330
1E
100
AcDbEntity
  8
11
  6
CONTINUOUS
100
AcDbPolyline
 90
        8
 70
     1
 43
0.0
 10
229.4999999999999
 20
-454.0
 10
280.5
 20
-454.0
 42
-0.4142135623730951
 10
287.0
 20
-460.5
 10
287.0
 20
-539.5
 42
-0.4142135623730951
 10
280.5
 20
-546.0
 10
229.4999999999999
 20
-546.0
 42
-0.4142135623730951
 10
223.0
 20
-539.5
 10
223.0
 20
-460.5
 42
-0.4142135623730951
  0
DIMENSION
  5
57BC
330
1E
100
AcDbEntity
  8
30
  6
CONTINUOUS
100
AcDbDimension
  2
*D4
 10
35.15002441406
 20
-654.0
 30
0.0
 11
0.1499938964850005
 21
-650.4999999999999
 31
0.0
 70
    32
  3
STANDARD
100
AcDbAlignedDimension
 13
-34.85003662108999
 23
-625.25
 33
0.0
 14
35.15002441406
 24
-625.25
 34
0.0
100
AcDbRotatedDimension
  0
MTEXT
  5
5D8A
330
1E
100
AcDbEntity
  8
19
  6
CONTINUOUS
100
AcDbMText
 10
244.0
 20
396.0
 30
0.0
 40
7.0
 41
94.0
 71
     1
 72
     5
  1
XS800NE 3P FC\PXH800NE 3P FC
  7
STANDARD1
1001
ACAD
1000
MTEXTBEGIN
1070
    73
1070
     1
1070
    44
1040
1.0
1070
    74
1070
     0
1000
MTEXTEND
  0
LINE
  5
5E97
330
1E
100
AcDbEntity
  8
17
  6
CONTINOUS
100
AcDbLine
 10
90.0
 20
-212.0
 30
0.0
 11
90.0
 21
-132.0
 31
0.0
  0
LINE
  5
5E98
330
1E
100
AcDbEntity
  8
17
  6
CONTINOUS
100
AcDbLine
 10
50.0
 20
-132.0
 30
0.0
 11
50.0
 21
-212.0
 31
0.0
  0
LWPOLYLINE
  5
5E9A
330
1E
100
AcDbEntity
  8
17
  6
CONTINOUS
100
AcDbPolyline
 90
        4
 70
     0
 43
0.0
 10
-20.0
 20
-132.0
 10
-20.0
 20
-212.0
 10
20.0
 20
-212.0
 10
20.0
 20
-132.0
  0
LWPOLYLINE
  5
5E9B
330
1E
100
AcDbEntity
  8
17
  6
CONTINOUS
100
AcDbPolyline
 90
        4
 70
     0
 43
0.0
 10
-89.99993896483999
 20
-132.0
 10
-89.99993896483999
 20
-212.0
 10
-49.99993896483999
 20
-212.0
 10
-49.99993896483999
 20
-132.0
  0
LWPOLYLINE
  5
5E9C
330
1E
100
AcDbEntity
  8
17
  6
DASHDOT
100
AcDbPolyline
 90
        2
 70
     0
 43
0.0
 10
70.0
 20
-96.99999999999999
 10
70.0
 20
-242.0
  0
LWPOLYLINE
  5
5E9D
330
1E
100
AcDbEntity
  8
17
  6
DASHDOT
100
AcDbPolyline
 90
        2
 70
     0
 43
0.0
 10
-14.28576660155999
 20
-157.0
 10
12.8798828125
 20
-157.0
  0
LWPOLYLINE
  5
5E9E
330
1E
100
AcDbEntity
  8
17
  6
DASHDOT
100
AcDbPolyline
 90
        2
 70
     0
 43
0.0
 10
10.33312988280999
 20
-165.0
 10
-15.13470458984
 20
-165.0
  0
LWPOLYLINE
  5
5E9F
330
1E
100
AcDbEntity
  8
17
  6
DASHDOT
100
AcDbPolyline
 90
        2
 70
     0
 43
0.0
 10
-13.43682861328
 20
-197.0
 10
13.72882080077999
 20
-197.0
  0
LWPOLYLINE
  5
5EA0
330
1E
100
AcDbEntity
  8
17
  6
DASHDOT
100
AcDbPolyline
 90
        4
 70
     0
 43
0.0
 10
-63.49993896484
 20
-157.0
 42
0.9999999999999998
 10
-76.49993896484
 20
-157.0
 10
-76.49993896484
 20
-165.0
 42
0.9999999999999998
 10
-63.49993896484
 20
-165.0
  0
LWPOLYLINE
  5
5EA1
330
1E
100
AcDbEntity
  8
17
  6
DASHDOT
100
AcDbPolyline
 90
        2
 70
     0
 43
0.0
 10
-84.28576660156
 20
-157.0
 10
-57.12005615234
 20
-157.0
  0
LWPOLYLINE
  5
5EA2
330
1E
100
AcDbEntity
  8
17
  6
DASHDOT
100
AcDbPolyline
 90
        2
 70
     0
 43
0.0
 10
-59.66687011719
 20
-165.0
 10
-85.13470458984
 20
-165.0
  0
LWPOLYLINE
  5
5EA3
330
1E
100
AcDbEntity
  8
17
  6
DASHDOT
100
AcDbPolyline
 90
        2
 70
     0
 43
0.0
 10
-83.43682861328
 20
-197.0
 10
-56.27117919922
 20
-197.0
  0
CIRCLE
  5
5EA4
330
1E
100
AcDbEntity
  8
17
  6
DASHDOT
100
AcDbCircle
 10
-69.99993896483999
 20
-197.0
 30
0.0
 40
6.5
  0
LWPOLYLINE
  5
5EA5
330
1E
100
AcDbEntity
  8
17
  6
DASHDOT
100
AcDbPolyline
 90
        2
 70
     0
 43
0.0
 10
-63.5
 20
-165.0
 10
-63.5
 20
-157.0
  0
LINE
  5
5EA6
330
1E
100
AcDbEntity
  8
17
  6
CONTINOUS
100
AcDbLine
 10
50.0
 20
-212.0
 30
0.0
 11
90.0
 21
-212.0
 31
0.0
  0
LWPOLYLINE
  5
5EA7
330
1E
100
AcDbEntity
  8
17
  6
DASHDOT
100
AcDbPolyline
 90
        4
 70
     1
 43
0.0
 10
6.5
 20
-165.0
 10
6.5
 20
-157.0
 42
0.9999999999999998
 10
-6.5
 20
-157.0
 10
-6.5
 20
-165.0
 42
0.9999999999999998
  0
CIRCLE
  5
5EA8
330
1E
100
AcDbEntity
  8
17
  6
DASHDOT
100
AcDbCircle
 10
0.0
 20
-197.0
 30
0.0
 40
6.5
  0
LWPOLYLINE
  5
5EA9
330
1E
100
AcDbEntity
  8
17
  6
DASHDOT
100
AcDbPolyline
 90
        4
 70
     1
 43
0.0
 10
76.5
 20
-165.0
 10
76.5
 20
-157.0
 42
0.9999999999999998
 10
63.5
 20
-157.0
 10
63.5
 20
-165.0
 42
0.9999999999999998
  0
LWPOLYLINE
  5
5EAA
330
1E
100
AcDbEntity
  8
17
  6
DASHDOT
100
AcDbPolyline
 90
        2
 70
     0
 43
0.0
 10
55.71423339844
 20
-157.0
 10
82.87994384765999
 20
-157.0
  0
LWPOLYLINE
  5
5EAB
330
1E
100
AcDbEntity
  8
17
  6
DASHDOT
100
AcDbPolyline
 90
        2
 70
     0
 43
0.0
 10
80.33312988281
 20
-165.0
 10
54.86529541016
 20
-165.0
  0
LWPOLYLINE
  5
5EAC
330
1E
100
AcDbEntity
  8
17
  6
DASHDOT
100
AcDbPolyline
 90
        2
 70
     0
 43
0.0
 10
56.56317138672
 20
-197.0
 10
83.72882080077999
 20
-197.0
  0
CIRCLE
  5
5EAD
330
1E
100
AcDbEntity
  8
17
  6
DASHDOT
100
AcDbCircle
 10
70.0
 20
-197.0
 30
0.0
 40
6.5
  0
LWPOLYLINE
  5
5EAE
330
1E
100
AcDbEntity
  8
10
  6
CONTINUOUS
100
AcDbPolyline
 90
        6
 70
     0
 43
0.0
 10
-105.0
 20
141.0
 10
105.0
 20
141.0
 10
105.0
 20
-132.0
 10
-105.0
 20
-132.0
 10
-105.0
 20
141.0
 10
-105.0
 20
-132.0
  0
LWPOLYLINE
  5
5EAF
330
1E
100
AcDbEntity
  8
10
  6
CONTINUOUS
100
AcDbPolyline
 90
        2
 70
     0
 43
0.0
 10
104.8499755859398
 20
116.0
 10
-104.84997558594
 20
116.0
  0
LWPOLYLINE
  5
5EB0
330
1E
100
AcDbEntity
  8
10
  6
CONTINUOUS
100
AcDbPolyline
 90
        2
 70
     0
 43
0.0
 10
104.8499755859398
 20
57.00000000000001
 10
-104.84997558594
 20
57.00000000000001
  0
LWPOLYLINE
  5
5EB1
330
1E
100
AcDbEntity
  8
10
  6
CONTINUOUS
100
AcDbPolyline
 90
        4
 70
     0
 43
0.0
 10
31.15002441406
 20
-44.99999999999999
 10
31.15002441406
 20
45.00000000000001
 10
-30.85003662109
 20
45.00000000000001
 10
-30.85003662109
 20
-44.99999999999999
  0
LWPOLYLINE
  5
5EB2
330
1E
100
AcDbEntity
  8
10
  6
CONTINUOUS
100
AcDbPolyline
 90
        2
 70
     0
 43
0.0
 10
104.8499755859398
 20
-106.9999999999999
 10
-104.84997558594
 20
-106.9999999999999
  0
LWPOLYLINE
  5
5EB3
330
1E
100
AcDbEntity
  8
10
  6
CONTINUOUS
100
AcDbPolyline
 90
        2
 70
     0
 43
0.0
 10
104.8499755859398
 20
-50.99999999999998
 10
-104.84997558594
 20
-50.99999999999998
  0
LWPOLYLINE
  5
5EB4
330
1E
100
AcDbEntity
  8
17
  6
CONTINOUS
100
AcDbPolyline
 90
        4
 70
     0
 43
0.0
 10
-20.0
 20
141.0
 10
-20.0
 20
221.0
 10
20.0
 20
221.0
 10
20.0
 20
141.0
  0
LWPOLYLINE
  5
5EB5
330
1E
100
AcDbEntity
  8
10
  6
CONTINUOUS
100
AcDbPolyline
 90
        2
 70
     0
 43
0.0
 10
-11.0
 20
-106.9999999999999
 42
0.9999999999999998
 10
-11.0
 20
-126.9999999999999
  0
LWPOLYLINE
  5
5EB6
330
1E
100
AcDbEntity
  8
10
  6
CONTINUOUS
100
AcDbPolyline
 90
        2
 70
     0
 43
0.0
 10
11.0
 20
116.0
 42
0.9999999999999998
 10
11.0
 20
136.0
210
0.0
220
0.0
230
-1.0
  0
LWPOLYLINE
  5
5EB7
330
1E
100
AcDbEntity
  8
10
  6
CONTINUOUS
100
AcDbPolyline
 90
        4
 70
     1
 43
0.0
 10
-22.0
 20
-26.99999999999998
 10
22.0
 20
-26.99999999999998
 10
22.0
 20
28.50000000000001
 10
-22.0
 20
28.50000000000001
  0
LWPOLYLINE
  5
5EB8
330
1E
100
AcDbEntity
  8
17
  6
DASHDOT
100
AcDbPolyline
 90
        2
 70
     0
 43
0.0
 10
-13.43682861328
 20
206.0
 10
13.72882080077999
 20
206.0
  0
LWPOLYLINE
  5
5EB9
330
1E
100
AcDbEntity
  8
17
  6
DASHDOT
100
AcDbPolyline
 90
        2
 70
     0
 43
0.0
 10
10.33312988280999
 20
174.0
 10
-15.13470458984
 20
174.0
  0
LWPOLYLINE
  5
5EBA
330
1E
100
AcDbEntity
  8
17
  6
DASHDOT
100
AcDbPolyline
 90
        2
 70
     0
 43
0.0
 10
-14.28576660155999
 20
166.0
 10
12.8798828125
 20
166.0
  0
LWPOLYLINE
  5
5EBB
330
1E
100
AcDbEntity
  8
10
  6
CONTINUOUS
100
AcDbPolyline
 90
        2
 70
     0
 43
0.0
 10
105.0
 20
-44.99999999999999
 10
-104.84997558594
 20
-44.99999999999999
  0
LINE
  5
5EBC
330
1E
100
AcDbEntity
  8
17
  6
CONTINOUS
100
AcDbLine
 10
-89.99993896483999
 20
221.0
 30
0.0
 11
-89.99993896483999
 21
141.0
 31
0.0
  0
LINE
  5
5EBD
330
1E
100
AcDbEntity
  8
17
  6
CONTINOUS
100
AcDbLine
 10
-49.99993896483999
 20
141.0
 30
0.0
 11
-49.99993896483999
 21
221.0
 31
0.0
  0
LWPOLYLINE
  5
5EBE
330
1E
100
AcDbEntity
  8
17
  6
DASHDOT
100
AcDbPolyline
 90
        2
 70
     0
 43
0.0
 10
-63.5
 20
174.0
 10
-63.5
 20
166.0
  0
LWPOLYLINE
  5
5EBF
330
1E
100
AcDbEntity
  8
17
  6
DASHDOT
100
AcDbPolyline
 90
        2
 70
     0
 43
0.0
 10
-76.49993896484
 20
166.0
 10
-76.49993896484
 20
174.0
  0
LWPOLYLINE
  5
5EC0
330
1E
100
AcDbEntity
  8
17
  6
DASHDOT
100
AcDbPolyline
 90
        2
 70
     0
 43
0.0
 10
-69.99993896483999
 20
239.2158203125
 10
-69.99993896483999
 20
106.0
  0
LWPOLYLINE
  5
5EC1
330
1E
100
AcDbEntity
  8
10
  6
CONTINUOUS
100
AcDbPolyline
 90
        2
 70
     0
 43
0.0
 10
-81.0
 20
-126.9999999999999
 10
-59.0
 20
-126.9999999999999
  0
LWPOLYLINE
  5
5EC2
330
1E
100
AcDbEntity
  8
10
  6
CONTINUOUS
100
AcDbPolyline
 90
        2
 70
     0
 43
0.0
 10
-80.99993896483999
 20
-106.9999999999999
 42
0.9999999999999998
 10
-80.99993896483999
 20
-126.9999999999999
  0
LWPOLYLINE
  5
5EC3
330
1E
100
AcDbEntity
  8
10
  6
CONTINUOUS
100
AcDbPolyline
 90
        2
 70
     0
 43
0.0
 10
-58.99993896484
 20
-126.9999999999999
 42
0.9999999999999998
 10
-58.99993896484
 20
-106.9999999999999
  0
LWPOLYLINE
  5
5EC5
330
1E
100
AcDbEntity
  8
17
  6
DASHDOT
100
AcDbPolyline
 90
        2
 70
     0
 43
0.0
 10
63.49993896484
 20
166.0
 42
0.9999999999999998
 10
76.49993896484
 20
166.0
210
0.0
220
0.0
230
-1.0
  0
LWPOLYLINE
  5
5EC6
330
1E
100
AcDbEntity
  8
10
  6
CONTINUOUS
100
AcDbPolyline
 90
        2
 70
     0
 43
0.0
 10
-81.0
 20
136.0
 10
-59.0
 20
136.0
  0
LWPOLYLINE
  5
5EC7
330
1E
100
AcDbEntity
  8
17
  6
DASHDOT
100
AcDbPolyline
 90
        2
 70
     0
 43
0.0
 10
-84.28576660156
 20
166.0
 10
-57.12005615234
 20
166.0
  0
LWPOLYLINE
  5
5EC8
330
1E
100
AcDbEntity
  8
10
  6
CONTINUOUS
100
AcDbPolyline
 90
        2
 70
     0
 43
0.0
 10
80.99993896483999
 20
116.0
 42
0.9999999999999998
 10
80.99993896483999
 20
136.0
210
0.0
220
0.0
230
-1.0
  0
LWPOLYLINE
  5
5EC9
330
1E
100
AcDbEntity
  8
10
  6
CONTINUOUS
100
AcDbPolyline
 90
        2
 70
     0
 43
0.0
 10
58.99993896484
 20
136.0
 42
0.9999999999999998
 10
58.99993896484
 20
116.0
210
0.0
220
0.0
230
-1.0
  0
LINE
  5
5ECB
330
1E
100
AcDbEntity
  8
17
  6
CONTINOUS
100
AcDbLine
 10
-49.99993896483999
 20
221.0
 30
0.0
 11
-89.99993896483999
 21
221.0
 31
0.0
  0
LWPOLYLINE
  5
5ECC
330
1E
100
AcDbEntity
  8
17
  6
DASHDOT
100
AcDbPolyline
 90
        2
 70
     0
 43
0.0
 10
76.49993896484
 20
174.0
 42
0.9999999999999998
 10
63.49993896484
 20
174.0
210
0.0
220
0.0
230
-1.0
  0
LWPOLYLINE
  5
5ECD
330
1E
100
AcDbEntity
  8
17
  6
CONTINOUS
100
AcDbPolyline
 90
        2
 70
     0
 43
0.0
 10
-59.66687011719
 20
174.0
 10
-85.13470458984
 20
174.0
  0
LWPOLYLINE
  5
5ECE
330
1E
100
AcDbEntity
  8
17
  6
DASHDOT
100
AcDbPolyline
 90
        2
 70
     0
 43
0.0
 10
-83.43682861328
 20
206.0
 10
-56.27117919922
 20
206.0
  0
CIRCLE
  5
5ECF
330
1E
100
AcDbEntity
  8
17
  6
DASHDOT
100
AcDbCircle
 10
69.99993896483999
 20
206.0
 30
0.0
 40
6.5
210
0.0
220
0.0
230
-1.0
  0
LWPOLYLINE
  5
5ED0
330
1E
100
AcDbEntity
  8
17
  6
DASHDOT
100
AcDbPolyline
 90
        2
 70
     0
 43
0.0
 10
-6.5
 20
166.0
 10
-6.5
 20
174.0
  0
LWPOLYLINE
  5
5ED1
330
1E
100
AcDbEntity
  8
17
  6
DASHDOT
100
AcDbPolyline
 90
        2
 70
     0
 43
0.0
 10
6.5
 20
174.0
 10
6.5
 20
166.0
  0
LWPOLYLINE
  5
5ED2
330
1E
100
AcDbEntity
  8
17
  6
CONTINOUS
100
AcDbPolyline
 90
        4
 70
     0
 43
0.0
 10
50.0
 20
141.0
 10
50.0
 20
221.0
 10
90.0
 20
221.0
 10
90.0
 20
141.0
  0
LWPOLYLINE
  5
5ED3
330
1E
100
AcDbEntity
  8
17
  6
DASHDOT
100
AcDbPolyline
 90
        2
 70
     0
 43
0.0
 10
70.0
 20
231.5751953124999
 10
70.0
 20
106.0
  0
LWPOLYLINE
  5
5ED4
330
1E
100
AcDbEntity
  8
17
  6
DASHDOT
100
AcDbPolyline
 90
        2
 70
     0
 43
0.0
 10
63.5
 20
166.0
 10
63.5
 20
174.0
  0
LWPOLYLINE
  5
5ED5
330
1E
100
AcDbEntity
  8
17
  6
DASHDOT
100
AcDbPolyline
 90
        2
 70
     0
 43
0.0
 10
76.5
 20
174.0
 10
76.5
 20
166.0
  0
LWPOLYLINE
  5
5ED6
330
1E
100
AcDbEntity
  8
10
  6
CONTINUOUS
100
AcDbPolyline
 90
        2
 70
     0
 43
0.0
 10
11.0
 20
-126.9999999999999
 42
0.9999999999999998
 10
11.0
 20
-106.9999999999999
  0
LWPOLYLINE
  5
5ED7
330
1E
100
AcDbEntity
  8
10
  6
CONTINUOUS
100
AcDbPolyline
 90
        2
 70
     0
 43
0.0
 10
-11.00006103516
 20
-126.9999999999999
 10
10.99993896483999
 20
-126.9999999999999
  0
LWPOLYLINE
  5
5ED9
330
1E
100
AcDbEntity
  8
10
  6
CONTINUOUS
100
AcDbPolyline
 90
        2
 70
     0
 43
0.0
 10
59.0
 20
-106.9999999999999
 42
0.9999999999999998
 10
59.0
 20
-126.9999999999999
  0
LWPOLYLINE
  5
5EDA
330
1E
100
AcDbEntity
  8
10
  6
CONTINUOUS
100
AcDbPolyline
 90
        2
 70
     0
 43
0.0
 10
81.0
 20
-126.9999999999999
 42
0.9999999999999998
 10
81.0
 20
-106.9999999999999
  0
LWPOLYLINE
  5
5EDB
330
1E
100
AcDbEntity
  8
10
  6
CONTINUOUS
100
AcDbPolyline
 90
        2
 70
     0
 43
0.0
 10
58.99993896484
 20
-126.9999999999999
 10
80.99993896483988
 20
-126.9999999999999
  0
LWPOLYLINE
  5
5EDC
330
1E
100
AcDbEntity
  8
17
  6
DASHDOT
100
AcDbPolyline
 90
        2
 70
     0
 43
0.0
 10
-6.5
 20
166.0
 42
0.9999999999999998
 10
6.5
 20
166.0
210
0.0
220
0.0
230
-1.0
  0
LWPOLYLINE
  5
5EDD
330
1E
100
AcDbEntity
  8
10
  6
CONTINUOUS
100
AcDbPolyline
 90
        2
 70
     0
 43
0.0
 10
-11.00006103516
 20
136.0
 10
10.99993896483999
 20
136.0
  0
LWPOLYLINE
  5
5EDE
330
1E
100
AcDbEntity
  8
10
  6
CONTINUOUS
100
AcDbPolyline
 90
        2
 70
     0
 43
0.0
 10
-11.0
 20
136.0
 42
0.9999999999999998
 10
-11.0
 20
116.0
210
0.0
220
0.0
230
-1.0
  0
LWPOLYLINE
  5
5EE0
330
1E
100
AcDbEntity
  8
17
  6
DASHDOT
100
AcDbPolyline
 90
        2
 70
     0
 43
0.0
 10
-76.5
 20
166.0
 42
0.9999999999999998
 10
-63.5
 20
166.0
210
0.0
220
0.0
230
-1.0
  0
LWPOLYLINE
  5
5EE1
330
1E
100
AcDbEntity
  8
10
  6
CONTINUOUS
100
AcDbPolyline
 90
        2
 70
     0
 43
0.0
 10
-59.0
 20
116.0
 42
0.9999999999999998
 10
-59.0
 20
136.0
210
0.0
220
0.0
230
-1.0
  0
LWPOLYLINE
  5
5EE2
330
1E
100
AcDbEntity
  8
10
  6
CONTINUOUS
100
AcDbPolyline
 90
        2
 70
     0
 43
0.0
 10
58.99993896484
 20
136.0
 10
80.99993896483988
 20
136.0
  0
LWPOLYLINE
  5
5EE3
330
1E
100
AcDbEntity
  8
10
  6
CONTINUOUS
100
AcDbPolyline
 90
        2
 70
     0
 43
0.0
 10
-81.0
 20
136.0
 42
0.9999999999999998
 10
-81.0
 20
116.0
210
0.0
220
0.0
230
-1.0
  0
LWPOLYLINE
  5
5EE4
330
1E
100
AcDbEntity
  8
17
  6
DASHDOT
100
AcDbPolyline
 90
        2
 70
     0
 43
0.0
 10
55.71423339844
 20
166.0
 10
82.87994384765999
 20
166.0
  0
LWPOLYLINE
  5
5EE6
330
1E
100
AcDbEntity
  8
17
  6
DASHDOT
100
AcDbPolyline
 90
        2
 70
     0
 43
0.0
 10
6.5
 20
174.0
 42
0.9999999999999998
 10
-6.5
 20
174.0
210
0.0
220
0.0
230
-1.0
  0
CIRCLE
  5
5EE7
330
1E
100
AcDbEntity
  8
17
  6
DASHDOT
100
AcDbCircle
 10
0.0
 20
206.0
 30
0.0
 40
6.5
210
0.0
220
0.0
230
-1.0
  0
LWPOLYLINE
  5
5EE8
330
1E
100
AcDbEntity
  8
17
  6
DASHDOT
100
AcDbPolyline
 90
        2
 70
     0
 43
0.0
 10
56.56317138672
 20
206.0
 10
83.72882080077999
 20
206.0
  0
LWPOLYLINE
  5
5EE9
330
1E
100
AcDbEntity
  8
17
  6
CONTINOUS
100
AcDbPolyline
 90
        2
 70
     0
 43
0.0
 10
80.33312988281
 20
174.0
 10
54.86529541016
 20
174.0
  0
LWPOLYLINE
  5
5EEA
330
1E
100
AcDbEntity
  8
17
  6
DASHDOT
100
AcDbPolyline
 90
        2
 70
     0
 43
0.0
 10
-63.5
 20
174.0
 42
0.9999999999999998
 10
-76.5
 20
174.0
210
0.0
220
0.0
230
-1.0
  0
CIRCLE
  5
5EEB
330
1E
100
AcDbEntity
  8
17
  6
DASHDOT
100
AcDbCircle
 10
-70.0
 20
206.0
 30
0.0
 40
6.5
210
0.0
220
0.0
230
-1.0
  0
DIMENSION
  5
5F01
330
1E
100
AcDbEntity
  8
30
  6
CONTINUOUS
100
AcDbDimension
  2
*D5
 10
90.0
 20
-232.0
 30
0.0
 11
70.0
 21
-228.5
 31
0.0
 70
    32
  3
STANDARD
100
AcDbAlignedDimension
 13
50.0
 23
-212.0
 33
0.0
 14
90.0
 24
-212.0
 34
0.0
100
AcDbRotatedDimension
  0
LWPOLYLINE
  5
5F0E
330
1E
100
AcDbEntity
  8
17
  6
DASHDOT
100
AcDbPolyline
 90
        2
 70
     0
 43
0.0
 10
-69.99993896483999
 20
-113.7841796875
 10
-69.99993896483999
 20
-247.0
  0
CIRCLE
  5
5F14
330
1E
100
AcDbEntity
  8
12
100
AcDbCircle
 10
-34.85003662108999
 20
126.0
 30
0.0
 40
4.0
  0
LWPOLYLINE
  5
5F15
330
1E
100
AcDbEntity
  8
12
  6
DASHED
100
AcDbPolyline
 90
        2
 70
     0
 43
0.0
 10
-34.85003662108999
 20
134.25
 10
-34.85003662108999
 20
117.75
  0
LWPOLYLINE
  5
5F16
330
1E
100
AcDbEntity
  8
12
100
AcDbPolyline
 90
        2
 70
     0
 43
0.0
 10
-26.60003662109
 20
126.0
 10
-43.10003662108999
 20
126.0
  0
CIRCLE
  5
5F17
330
1E
100
AcDbEntity
  8
12
100
AcDbCircle
 10
35.15002441406
 20
126.0
 30
0.0
 40
4.0
  0
LWPOLYLINE
  5
5F18
330
1E
100
AcDbEntity
  8
12
  6
DASHED
100
AcDbPolyline
 90
        2
 70
     0
 43
0.0
 10
35.15002441406
 20
134.25
 10
35.15002441406
 20
117.75
  0
LWPOLYLINE
  5
5F19
330
1E
100
AcDbEntity
  8
12
100
AcDbPolyline
 90
        2
 70
     0
 43
0.0
 10
43.40002441405999
 20
126.0
 10
26.90002441405999
 20
126.0
  0
CIRCLE
  5
5F1A
330
1E
100
AcDbEntity
  8
12
100
AcDbCircle
 10
35.15002441406
 20
-116.9999999999999
 30
0.0
 40
4.0
  0
LWPOLYLINE
  5
5F1B
330
1E
100
AcDbEntity
  8
12
  6
DASHED
100
AcDbPolyline
 90
        2
 70
     0
 43
0.0
 10
35.15002441406
 20
-108.7499999999999
 10
35.15002441406
 20
-125.2499999999999
  0
LWPOLYLINE
  5
5F1C
330
1E
100
AcDbEntity
  8
12
100
AcDbPolyline
 90
        2
 70
     0
 43
0.0
 10
43.40002441405999
 20
-116.9999999999999
 10
26.90002441405999
 20
-116.9999999999999
  0
CIRCLE
  5
5F1D
330
1E
100
AcDbEntity
  8
12
100
AcDbCircle
 10
-34.85003662108999
 20
-116.9999999999999
 30
0.0
 40
4.0
  0
LWPOLYLINE
  5
5F1E
330
1E
100
AcDbEntity
  8
12
  6
DASHED
100
AcDbPolyline
 90
        2
 70
     0
 43
0.0
 10
-34.85003662108999
 20
-108.7499999999999
 10
-34.85003662108999
 20
-125.2499999999999
  0
LWPOLYLINE
  5
5F1F
330
1E
100
AcDbEntity
  8
12
100
AcDbPolyline
 90
        2
 70
     0
 43
0.0
 10
-26.60003662109
 20
-116.9999999999999
 10
-43.10003662108999
 20
-116.9999999999999
  0
DIMENSION
  5
5F20
330
1E
100
AcDbEntity
  8
30
  6
CONTINUOUS
100
AcDbDimension
  2
*D6
 10
-0.0000000000000021
 20
-231.0
 30
0.0
 11
-34.99996948241999
 21
-227.4999999999999
 31
0.0
 70
    32
  3
STANDARD
100
AcDbAlignedDimension
 13
-69.99993896483999
 23
-212.0
 33
0.0
 14
0.0
 24
-197.0
 34
0.0
100
AcDbRotatedDimension
  0
DIMENSION
  5
5F2D
330
1E
100
AcDbEntity
  8
30
  6
CONTINUOUS
100
AcDbDimension
  2
*D7
 10
104.9999999999999
 20
-250.0
 30
0.0
 11
-0.000000000000014
 21
-246.4999999999999
 31
0.0
 70
    32
  3
STANDARD
100
AcDbAlignedDimension
 13
-105.0
 23
-132.0
 33
0.0
 14
105.0
 24
-132.0
 34
0.0
100
AcDbRotatedDimension
  0
DIMENSION
  5
5F3A
330
1E
100
AcDbEntity
  8
30
  6
CONTINUOUS
100
AcDbDimension
  2
*D8
 10
65.4773310971244
 20
201.3314385518703
 30
0.0
 11
107.8333333333333
 21
238.0
 31
0.0
 70
   163
  3
STANDARD
100
AcDbDiametricDimension
 15
74.52266890287557
 25
210.6685614481295
 35
0.0
 40
0.0
1001
ACAD
1000
DSTYLE
1002
{
1070
   288
1070
     1
1002
}
  0
DIMENSION
  5
5F46
330
1E
100
AcDbEntity
  8
30
  6
CONTINUOUS
100
AcDbDimension
  2
*D9
 10
109.9999999999999
 20
141.0
 30
0.0
 11
106.4999999999999
 21
153.5
 31
0.0
 70
    32
  3
STANDARD
100
AcDbAlignedDimension
 13
82.87994384765999
 23
166.0
 33
0.0
 14
70.0
 24
141.0
 34
0.0
 50
90.0
100
AcDbRotatedDimension
  0
DIMENSION
  5
5F53
330
1E
100
AcDbEntity
  8
30
  6
CONTINUOUS
100
AcDbDimension
  2
*D10
 10
110.0
 20
206.0
 30
0.0
 11
106.4999999999999
 21
213.5
 31
0.0
 70
    32
  3
STANDARD
100
AcDbAlignedDimension
 13
90.0
 23
221.0
 33
0.0
 14
83.72882080077999
 24
206.0
 34
0.0
 50
90.0
100
AcDbRotatedDimension
  0
DIMENSION
  5
5F60
330
1E
100
AcDbEntity
  8
30
  6
CONTINUOUS
100
AcDbDimension
  2
*D11
 10
131.0
 20
141.0
 30
0.0
 11
127.4999999999999
 21
181.0
 31
0.0
 70
    32
  3
STANDARD
100
AcDbAlignedDimension
 13
91.0
 23
221.0
 33
0.0
 14
90.0
 24
141.0
 34
0.0
 50
90.0
100
AcDbRotatedDimension
  0
LWPOLYLINE
  5
6007
330
1E
100
AcDbEntity
  8
17
  6
CONTINOUS
100
AcDbPolyline
 90
        4
 70
     0
 43
0.0
 10
322.2913707384479
 20
-132.0
 10
322.2913707384479
 20
-212.0
 10
332.2913707384479
 20
-212.0
 10
332.2913707384479
 20
-132.0
  0
LWPOLYLINE
  5
6008
330
1E
100
AcDbEntity
  8
17
  6
DASHDOT
100
AcDbPolyline
 90
        2
 70
     0
 43
0.0
 10
313.3052867540479
 20
-157.0
 10
343.2276500353479
 20
-157.0
  0
LWPOLYLINE
  5
6009
330
1E
100
AcDbEntity
  8
17
  6
DASHDOT
100
AcDbPolyline
 90
        2
 70
     0
 43
0.0
 10
313.3052867540479
 20
-165.0
 10
343.2276500353479
 20
-165.0
  0
LWPOLYLINE
  5
600A
330
1E
100
AcDbEntity
  8
17
  6
DASHDOT
100
AcDbPolyline
 90
        2
 70
     0
 43
0.0
 10
313.3052867540479
 20
-197.0
 10
343.2276500353479
 20
-197.0
  0
LWPOLYLINE
  5
600B
330
1E
100
AcDbEntity
  8
18
100
AcDbPolyline
 90
        6
 70
     0
 43
0.0
 10
193.4265025744479
 20
56.93969726559998
 10
226.9108775744479
 20
49.17456054690001
 10
260.7952769884479
 20
37.01538085940001
 10
252.0143931994479
 20
12.54321289059999
 10
218.1296275744479
 20
24.70190429690001
 10
187.3471568712479
 20
39.9970703125
  0
LWPOLYLINE
  5
600C
330
1E
100
AcDbEntity
  8
10
  6
CONTINUOUS
100
AcDbPolyline
 90
        4
 70
     0
 43
0.0
 10
261.2913707384479
 20
29.48217773440001
 10
232.5723765978479
 20
39.05590820309999
 10
228.6201060900479
 20
28.78198242190001
 10
260.8687633165479
 20
16.37670898440001
  0
LWPOLYLINE
  5
600E
330
1E
100
AcDbEntity
  8
10
  6
CONTINUOUS
100
AcDbPolyline
 90
        2
 70
     0
 43
0.0
 10
228.6201350231478
 20
28.78198404810018
 42
0.0831775628001488
 10
223.2962015449219
 20
-4.99997680090064
  0
LWPOLYLINE
  5
600F
330
1E
100
AcDbEntity
  8
10
  6
CONTINUOUS
100
AcDbPolyline
 90
        3
 70
     0
 43
0.0
 10
155.0489447255478
 20
62.03437822210026
 42
0.001167119079251
 10
154.742537584148
 20
61.23188645330038
 42
0.092219275593144
 10
142.7940881793546
 20
-5.000005440800578
  0
LWPOLYLINE
  5
6010
330
1E
100
AcDbEntity
  8
18
100
AcDbPolyline
 90
        2
 70
     1
 43
0.0
 10
193.5757945665479
 20
54.50073242190001
 42
0.9999999999999998
 10
153.5757945665479
 20
54.50073242190001
 42
0.9999999999999998
  0
CIRCLE
  5
6011
330
1E
100
AcDbEntity
  8
10
  6
CONTINUOUS
100
AcDbCircle
 10
168.0535777697479
 20
64.01147460940001
 30
0.0
 40
0.75
  0
CIRCLE
  5
6012
330
1E
100
AcDbEntity
  8
10
  6
CONTINUOUS
100
AcDbCircle
 10
168.0535777697479
 20
64.01147460940001
 30
0.0
 40
0.25
  0
CIRCLE
  5
6013
330
1E
100
AcDbEntity
  8
10
  6
CONTINUOUS
100
AcDbCircle
 10
168.0535777697479
 20
64.01147460940001
 30
0.0
 40
0.5
  0
LWPOLYLINE
  5
6014
330
1E
100
AcDbEntity
  8
17
  6
CONTINOUS
100
AcDbPolyline
 90
        4
 70
     0
 43
0.0
 10
336.2913707384479
 20
141.0
 10
336.2913707384479
 20
221.0
 10
326.2913707384479
 20
221.0
 10
326.2913707384479
 20
141.0
  0
LWPOLYLINE
  5
6015
330
1E
100
AcDbEntity
  8
10
  6
CONTINUOUS
100
AcDbPolyline
 90
        3
 70
     0
 43
0.0
 10
261.2913710270481
 20
17.69677482489987
 42
0.0801391525146236
 10
257.7913707384479
 20
-4.0
 42
0.080139136519446
 10
261.2913696477025
 20
-25.69677066091526
  0
LWPOLYLINE
  5
6016
330
1E
100
AcDbEntity
  8
10
  6
CONTINUOUS
100
AcDbPolyline
 90
       12
 70
     0
 43
0.0
 10
265.2913707384479
 20
-52.0
 10
265.2913707384479
 20
-107.0
 10
268.2913707384479
 20
-107.0
 10
268.2913707384479
 20
-132.0
 10
368.2913707384479
 20
-132.0
 10
368.2913707384479
 20
141.0
 10
278.2913707384479
 20
141.0
 10
278.2913707384479
 20
116.3999023438
 10
271.2913707384479
 20
116.3999023438
 10
271.2913707384479
 20
57.0
 10
265.2913707384479
 20
57.0
 10
265.2913707384479
 20
-45.0
  0
LWPOLYLINE
  5
6017
330
1E
100
AcDbEntity
  8
12
  6
DASHED
100
AcDbPolyline
 90
        2
 70
     0
 43
0.0
 10
387.1269420275479
 20
-117.0
 10
326.7347301134479
 20
-117.0
  0
LWPOLYLINE
  5
6018
330
1E
100
AcDbEntity
  8
12
  6
DASHED
100
AcDbPolyline
 90
        4
 70
     0
 43
0.0
 10
268.2913707384479
 20
-125.5
 10
340.2913707384479
 20
-125.5
 10
340.2913707384479
 20
-108.4999999999999
 10
268.2913707384479
 20
-108.4999999999999
  0
LWPOLYLINE
  5
6019
330
1E
100
AcDbEntity
  8
12
  6
DASHED
100
AcDbPolyline
 90
        4
 70
     0
 43
0.0
 10
340.2913707384479
 20
-125.0
 10
331.8914683947479
 20
-125.0
 10
331.8914683947479
 20
-109.0
 10
340.2913707384479
 20
-109.0
  0
LWPOLYLINE
  5
601A
330
1E
100
AcDbEntity
  8
10
  6
CONTINUOUS
100
AcDbPolyline
 90
        2
 70
     0
 43
0.0
 10
-271.2913707384479
 20
-49.00002306299985
 42
0.4142101848789985
 10
-269.2913707384479
 20
-51.00000000013278
210
0.0
220
0.0
230
-1.0
  0
LWPOLYLINE
  5
601B
330
1E
100
AcDbEntity
  8
10
  6
CONTINUOUS
100
AcDbPolyline
 90
        2
 70
     0
 43
0.0
 10
-265.2913707384479
 20
-51.99992882369997
 42
0.4141927154711635
 10
-266.2913707384479
 20
-50.99999999746706
210
0.0
220
0.0
230
-1.0
  0
LWPOLYLINE
  5
601C
330
1E
100
AcDbEntity
  8
10
  6
CONTINUOUS
100
AcDbPolyline
 90
        4
 70
     0
 43
0.0
 10
261.2913707384479
 20
-25.69677734369998
 10
261.2913707384479
 20
-45.0
 10
271.2913707384479
 20
-45.0
 10
271.2913707384479
 20
-49.0
  0
LWPOLYLINE
  5
601D
330
1E
100
AcDbEntity
  8
10
  6
CONTINUOUS
100
AcDbPolyline
 90
        2
 70
     0
 43
0.0
 10
266.2913707384479
 20
-51.0
 10
269.2913707384479
 20
-51.0
  0
LWPOLYLINE
  5
601E
330
1E
100
AcDbEntity
  8
12
  6
DASHED
100
AcDbPolyline
 90
        2
 70
     0
 43
0.0
 10
368.2913707384479
 20
-121.0
 10
382.2914928087479
 20
-121.0
  0
LWPOLYLINE
  5
6020
330
1E
100
AcDbEntity
  8
10
  6
CONTINUOUS
100
AcDbPolyline
 90
        3
 70
     0
 43
0.0
 10
265.2913707384479
 20
45.0
 10
261.2913707384479
 20
45.0
 10
261.2913707384479
 20
17.69677734380002
  0
LWPOLYLINE
  5
6021
330
1E
100
AcDbEntity
  8
17
  6
DASHDOT
100
AcDbPolyline
 90
        2
 70
     0
 43
0.0
 10
315.3052867540479
 20
166.0
 10
347.2276500353479
 20
166.0
  0
LWPOLYLINE
  5
6022
330
1E
100
AcDbEntity
  8
17
  6
DASHDOT
100
AcDbPolyline
 90
        2
 70
     0
 43
0.0
 10
315.3052867540479
 20
174.0
 10
347.2276500353479
 20
174.0
  0
LWPOLYLINE
  5
6023
330
1E
100
AcDbEntity
  8
17
  6
DASHDOT
100
AcDbPolyline
 90
        2
 70
     0
 43
0.0
 10
315.3052867540479
 20
206.0
 10
347.2276500353479
 20
206.0
  0
DIMENSION
  5
61A8
330
1E
100
AcDbEntity
  8
30
  6
CONTINUOUS
100
AcDbDimension
  2
*D12
 10
336.2913707384479
 20
230.0
 30
0.0
 11
331.2913707384479
 21
233.4999999999999
 31
0.0
 70
    32
  3
STANDARD
100
AcDbAlignedDimension
 13
326.2913707384479
 23
221.0
 33
0.0
 14
336.2913707384479
 24
221.0
 34
0.0
100
AcDbRotatedDimension
  0
DIMENSION
  5
61B5
330
1E
100
AcDbEntity
  8
30
  6
CONTINUOUS
100
AcDbDimension
  2
*D13
 10
368.2913707384479
 20
230.0
 30
0.0
 11
352.2913707384479
 21
233.4999999999999
 31
0.0
 70
    32
  3
STANDARD
100
AcDbAlignedDimension
 13
336.2913707384479
 23
221.0
 33
0.0
 14
368.2913707384479
 24
141.0
 34
0.0
100
AcDbRotatedDimension
  0
DIMENSION
  5
61D4
330
1E
100
AcDbEntity
  8
30
  6
CONTINUOUS
100
AcDbDimension
  2
*D14
 10
271.2913707384479
 20
116.3999023438
 30
0.0
 11
268.2913707384479
 21
119.8999023438
 31
0.0
 70
    32
  3
STANDARD
100
AcDbAlignedDimension
 13
265.2913707384479
 23
57.0
 33
0.0
 14
271.2913707384479
 24
57.0
 34
0.0
100
AcDbRotatedDimension
  0
DIMENSION
  5
61E2
330
1E
100
AcDbEntity
  8
30
  6
CONTINUOUS
100
AcDbDimension
  2
*D15
 10
202.0
 20
0.0000000000000179
 30
0.0
 11
198.5
 21
28.50000000000005
 31
0.0
 70
    32
  3
STANDARD
100
AcDbAlignedDimension
 13
265.2913707384479
 23
57.0
 33
0.0
 14
265.2913707384479
 24
0.0
 34
0.0
 50
90.0
100
AcDbRotatedDimension
  0
DIMENSION
  5
61F8
330
1E
100
AcDbEntity
  8
30
  6
CONTINUOUS
100
AcDbDimension
  2
*D16
 10
202.0
 20
-44.99999999999998
 30
0.0
 11
198.5
 21
-22.49999999999994
 31
0.0
 70
    32
  3
STANDARD
100
AcDbAlignedDimension
 13
265.2913707384479
 23
0.0
 33
0.0
 14
265.2913707384479
 24
-45.0
 34
0.0
 50
90.0
100
AcDbRotatedDimension
  0
DIMENSION
  5
6205
330
1E
100
AcDbEntity
  8
30
  6
CONTINUOUS
100
AcDbDimension
  2
*D17
 10
202.0
 20
-51.00000000013277
 30
0.0
 11
198.5
 21
-48.00000000006634
 31
0.0
 70
    32
  3
STANDARD
100
AcDbAlignedDimension
 13
265.2913707384479
 23
-45.0
 33
0.0
 14
266.2912977219459
 24
-51.00000000013278
 34
0.0
 50
90.0
100
AcDbRotatedDimension
1001
ACAD
1000
DSTYLE
1002
{
1070
   287
1070
     4
1070
   287
1070
     4
1070
   279
1070
     1
1002
}
  0
LWPOLYLINE
  5
621B
330
1E
100
AcDbEntity
  8
12
  6
DASHED
100
AcDbPolyline
 90
        2
 70
     0
 43
0.0
 10
368.2913707384479
 20
-113.0
 10
382.2914928087479
 20
-113.0
  0
LINE
  5
621C
330
1E
100
AcDbEntity
  8
12
  6
DASHED
100
AcDbLine
 10
382.2914928087479
 20
-113.0
 30
0.0
 11
382.2914928087479
 21
-121.0
 31
0.0
  0
LINE
  5
621D
330
1E
100
AcDbEntity
  8
12
  6
DASHED
100
AcDbLine
 10
368.2913707384479
 20
-112.0
 30
0.0
 11
340.2913707384479
 21
-112.0
 31
0.0
  0
LINE
  5
621E
330
1E
100
AcDbEntity
  8
12
  6
DASHED
100
AcDbLine
 10
368.2913707384479
 20
-122.0
 30
0.0
 11
340.2913707384479
 21
-122.0
 31
0.0
  0
DIMENSION
  5
621F
330
1E
100
AcDbEntity
  8
30
  6
CONTINUOUS
100
AcDbDimension
  2
*D18
 10
368.2913707384479
 20
-91.0
 30
0.0
 11
354.2913707384479
 21
-87.5
 31
0.0
 70
    32
  3
STANDARD
100
AcDbAlignedDimension
 13
340.2913707384479
 23
-108.4999999999999
 33
0.0
 14
368.2913707384479
 24
-112.0
 34
0.0
100
AcDbRotatedDimension
  0
DIMENSION
  5
622C
330
1E
100
AcDbEntity
  8
30
  6
CONTINUOUS
100
AcDbDimension
  2
*D19
 10
382.2914928087479
 20
-91.0
 30
0.0
 11
375.2914317735979
 21
-87.5
 31
0.0
 70
    32
  3
STANDARD
100
AcDbAlignedDimension
 13
368.2913707384479
 23
-113.0
 33
0.0
 14
382.2914928087479
 24
-113.0
 34
0.0
100
AcDbRotatedDimension
  0
LEADER
  5
6239
330
1E
100
AcDbEntity
  8
30
  6
CONTINUOUS
100
AcDbLeader
  3
STANDARD
 76
     3
 10
381.3937097878775
 20
-114.0
 30
0.0
 10
401.5450628219668
 20
-93.84763201255173
 30
0.0
 10
415.0638628843039
 20
-93.83706309144873
 30
0.0
211
-1.0
221
0.0
231
0.0
1001
ACAD
1000
DSTYLE
1002
{
1070
     5
1000
OPEN
1070
   342
1005
3B2
1002
}
  0
TEXT
  5
623A
330
1E
100
AcDbEntity
  8
30
  6
CONTINUOUS
100
AcDbText
 10
403.4720198017991
 20
-92.32555634370919
 30
0.0
 40
4.0
  1
M8
100
AcDbText
  0
DIMENSION
  5
623B
330
1E
100
AcDbEntity
  8
30
  6
CONTINUOUS
100
AcDbDimension
  2
*D20
 10
332.2913707384479
 20
-222.0
 30
0.0
 11
327.2913707384479
 21
-218.5
 31
0.0
 70
    32
  3
STANDARD
100
AcDbAlignedDimension
 13
322.2913707384479
 23
-212.0
 33
0.0
 14
332.2913707384479
 24
-212.0
 34
0.0
100
AcDbRotatedDimension
  0
DIMENSION
  5
6248
330
1E
100
AcDbEntity
  8
30
  6
CONTINUOUS
100
AcDbDimension
  2
*D21
 10
368.2913707384479
 20
-222.0
 30
0.0
 11
350.2913707384479
 21
-218.5
 31
0.0
 70
    32
  3
STANDARD
100
AcDbAlignedDimension
 13
332.2913707384479
 23
-212.0
 33
0.0
 14
368.2913707384479
 24
-132.0
 34
0.0
100
AcDbRotatedDimension
  0
DIMENSION
  5
6294
330
1E
100
AcDbEntity
  8
30
  6
CONTINUOUS
100
AcDbDimension
  2
*D22
 10
265.2913707384479
 20
-230.1666666666666
 30
0.0
 11
315.7913707384479
 21
-230.1666666666666
 31
0.0
 70
   160
  3
STANDARD
100
AcDbAlignedDimension
 13
368.2913707384479
 23
-133.0
 33
0.0
 14
265.2913707384479
 24
-107.0
 34
0.0
100
AcDbRotatedDimension
  0
DIMENSION
  5
62AA
330
1E
100
AcDbEntity
  8
30
  6
CONTINUOUS
100
AcDbDimension
  2
*D23
 10
265.2913707384479
 20
-230.1666666666666
 30
0.0
 11
245.0
 21
-230.1666666666666
 31
0.0
 70
   160
  3
STANDARD
100
AcDbAlignedDimension
 13
257.7913707384479
 23
-4.0
 33
0.0
 14
265.2913707384479
 24
-107.0
 34
0.0
100
AcDbRotatedDimension
  0
DIMENSION
  5
62E0
330
1E
100
AcDbEntity
  8
30
  6
CONTINUOUS
100
AcDbDimension
  2
*D24
 10
223.2686943081847
 20
-245.0
 30
0.0
 11
295.7800325233163
 21
-241.5
 31
0.0
 70
    32
  3
STANDARD
100
AcDbAlignedDimension
 13
368.2913707384479
 23
-222.0
 33
0.0
 14
223.2686943081848
 24
0.0
 34
0.0
100
AcDbRotatedDimension
  0
DIMENSION
  5
62F6
330
1E
100
AcDbEntity
  8
30
  6
CONTINUOUS
100
AcDbDimension
  2
*D25
 10
142.7686943081847
 20
-244.6666666666666
 30
0.0
 11
183.0186943081848
 21
-241.1666666666666
 31
0.0
 70
    32
  3
STANDARD
100
AcDbAlignedDimension
 13
223.2686943081848
 23
-1.0
 33
0.0
 14
142.7686943081848
 24
-1.0
 34
0.0
100
AcDbRotatedDimension
  0
LWPOLYLINE
  5
6327
330
1E
100
AcDbEntity
  8
18
100
AcDbPolyline
 90
        6
 70
     0
 43
0.0
 10
-105.0
 20
-359.0
 10
105.0
 20
-359.0
 10
105.0
 20
-632.0
 10
-105.0
 20
-632.0
 10
-105.0
 20
-359.0
 10
-105.0
 20
-632.0
  0
LWPOLYLINE
  5
6328
330
1E
100
AcDbEntity
  8
12
  6
DASHED
100
AcDbPolyline
 90
        2
 70
     0
 43
0.0
 10
-34.85003662108999
 20
-365.75
 10
-34.85003662108999
 20
-382.25
  0
CIRCLE
  5
6329
330
1E
100
AcDbEntity
  8
12
100
AcDbCircle
 10
-34.85003662108999
 20
-374.0
 30
0.0
 40
4.0
  0
LWPOLYLINE
  5
632A
330
1E
100
AcDbEntity
  8
12
100
AcDbPolyline
 90
        2
 70
     0
 43
0.0
 10
43.40002441405999
 20
-374.0
 10
26.90002441405999
 20
-374.0
  0
CIRCLE
  5
632B
330
1E
100
AcDbEntity
  8
12
100
AcDbCircle
 10
35.15002441406
 20
-374.0
 30
0.0
 40
4.0
  0
LWPOLYLINE
  5
632C
330
1E
100
AcDbEntity
  8
12
  6
DASHED
100
AcDbPolyline
 90
        2
 70
     0
 43
0.0
 10
35.15002441406
 20
-365.75
 10
35.15002441406
 20
-382.25
  0
LWPOLYLINE
  5
632D
330
1E
100
AcDbEntity
  8
12
100
AcDbPolyline
 90
        2
 70
     0
 43
0.0
 10
-26.60003662109
 20
-374.0
 10
-43.10003662108999
 20
-374.0
  0
LWPOLYLINE
  5
632E
330
1E
100
AcDbEntity
  8
12
100
AcDbPolyline
 90
        2
 70
     0
 43
0.0
 10
-26.60003662109
 20
-617.0
 10
-43.10003662108999
 20
-617.0
  0
LWPOLYLINE
  5
632F
330
1E
100
AcDbEntity
  8
12
  6
DASHED
100
AcDbPolyline
 90
        2
 70
     0
 43
0.0
 10
-34.85003662108999
 20
-608.75
 10
-34.85003662108999
 20
-625.25
  0
CIRCLE
  5
6330
330
1E
100
AcDbEntity
  8
12
100
AcDbCircle
 10
-34.85003662108999
 20
-617.0
 30
0.0
 40
4.0
  0
LWPOLYLINE
  5
6331
330
1E
100
AcDbEntity
  8
12
100
AcDbPolyline
 90
        2
 70
     0
 43
0.0
 10
43.40002441405999
 20
-617.0
 10
26.90002441405999
 20
-617.0
  0
CIRCLE
  5
6332
330
1E
100
AcDbEntity
  8
12
100
AcDbCircle
 10
35.15002441406
 20
-617.0
 30
0.0
 40
4.0
  0
LWPOLYLINE
  5
6333
330
1E
100
AcDbEntity
  8
12
  6
DASHED
100
AcDbPolyline
 90
        2
 70
     0
 43
0.0
 10
35.15002441406
 20
-608.75
 10
35.15002441406
 20
-625.25
  0
DIMENSION
  5
6361
330
1E
100
AcDbEntity
  8
30
  6
CONTINUOUS
100
AcDbDimension
  2
*D26
 10
-136.0
 20
-499.9999999999999
 30
0.0
 11
-139.4999999999999
 21
-437.0
 31
0.0
 70
    32
  3
STANDARD
100
AcDbAlignedDimension
 13
-43.10003662108999
 23
-374.0
 33
0.0
 14
-105.0
 24
-500.0
 34
0.0
 50
90.0
100
AcDbRotatedDimension
  0
DIMENSION
  5
636E
330
1E
100
AcDbEntity
  8
30
  6
CONTINUOUS
100
AcDbDimension
  2
*D27
 10
-136.0
 20
-617.0
 30
0.0
 11
-139.4999999999999
 21
-558.4999999999999
 31
0.0
 70
    32
  3
STANDARD
100
AcDbAlignedDimension
 13
-105.0
 23
-500.0
 33
0.0
 14
-43.10003662108999
 24
-617.0
 34
0.0
 50
90.0
100
AcDbRotatedDimension
1001
ACAD
1000
DSTYLE
1002
{
1070
   287
1070
     4
1070
   287
1070
     4
1070
   279
1070
     1
1002
}
  0
LWPOLYLINE
  5
6396
330
1E
100
AcDbEntity
  8
18
100
AcDbPolyline
 90
        6
 70
     0
 43
0.0
 10
150.0
 20
-359.0
 10
360.0
 20
-359.0
 10
360.0
 20
-632.0
 10
150.0
 20
-632.0
 10
150.0
 20
-359.0
 10
150.0
 20
-632.0
  0
DIMENSION
  5
63B7
330
1E
100
AcDbEntity
  8
30
  6
CONTINUOUS
100
AcDbDimension
  2
*D28
 10
280.5
 20
-460.5000000000002
 30
0.0
 11
296.4999999999996
 21
-437.9999999999999
 31
0.0
 70
   164
  3
STANDARD
100
AcDbRadialDimension
 15
282.5554804791094
 25
-454.3335585626716
 35
0.0
 40
0.0
1001
ACAD
1000
DSTYLE
1002
{
1070
   288
1070
     1
1002
}
  0
LWPOLYLINE
  5
6439
330
1E
100
AcDbEntity
  8
10
  6
CONTINUOUS
100
AcDbPolyline
 90
       12
 70
     0
 43
0.0
 10
31.15002441406
 20
310.0
 10
105.0
 20
310.0
 10
105.0
 20
313.0
 10
105.0
 20
313.0
 10
105.0
 20
413.0
 10
-105.0
 20
413.0
 10
-105.0
 20
317.0
 10
-105.0
 20
317.0
 10
-105.0
 20
310.0
 10
-51.0
 20
310.0
 10
-51.0
 20
310.0
 10
31.15002441406
 20
310.0
  0
LWPOLYLINE
  5
644B
330
1E
100
AcDbEntity
  8
10
  6
CONTINUOUS
100
AcDbPolyline
 90
        4
 70
     0
 43
0.0
 10
-22.0
 20
306.0
 10
-22.0
 20
274.0
 10
22.0
 20
274.0
 10
22.0
 20
305.0
  0
LWPOLYLINE
  5
644F
330
1E
100
AcDbEntity
  8
10
  6
CONTINUOUS
100
AcDbPolyline
 90
        3
 70
     0
 43
0.0
 10
-30.85003662109
 20
310.0
 10
-30.85003662109
 20
306.0
 10
31.15002441406
 20
306.0
  0
LINE
  5
6514
330
1E
100
AcDbEntity
  8
10
  6
CONTINUOUS
100
AcDbLine
 10
31.15002441406
 20
306.0
 30
0.0
 11
31.15002441406
 21
310.0
 31
0.0
  0
LINE
  5
6515
330
1E
100
AcDbEntity
  8
10
  6
CONTINUOUS
100
AcDbLine
 10
31.15002441406
 20
310.0
 30
0.0
 11
31.15002441406
 21
310.0
 31
0.0
  0
LWPOLYLINE
  5
651A
330
1E
100
AcDbEntity
  8
17
  6
CONTINOUS
100
AcDbPolyline
 90
        4
 70
     1
 43
0.0
 10
-89.99993896483999
 20
381.0
 10
-49.99993896483999
 20
381.0
 10
-49.99993896483999
 20
373.0
 10
-89.99993896483999
 20
373.0
  0
LWPOLYLINE
  5
651B
330
1E
100
AcDbEntity
  8
17
  6
CONTINOUS
100
AcDbPolyline
 90
        4
 70
     1
 43
0.0
 10
-20.0
 20
381.0
 10
20.0
 20
381.0
 10
20.0
 20
373.0
 10
-20.0
 20
373.0
  0
LWPOLYLINE
  5
651C
330
1E
100
AcDbEntity
  8
17
  6
CONTINOUS
100
AcDbPolyline
 90
        4
 70
     1
 43
0.0
 10
50.0
 20
381.0
 10
90.0
 20
381.0
 10
90.0
 20
373.0
 10
50.0
 20
373.0
  0
LWPOLYLINE
  5
651D
330
1E
100
AcDbEntity
  8
17
  6
CONTINOUS
100
AcDbPolyline
 90
        2
 70
     0
 43
0.0
 10
-76.49993896484
 20
381.0
 10
-76.49993896484
 20
373.0
  0
LWPOLYLINE
  5
6521
330
1E
100
AcDbEntity
  8
17
  6
CONTINOUS
100
AcDbPolyline
 90
        2
 70
     0
 43
0.0
 10
-63.5
 20
381.0
 10
-63.5
 20
373.0
  0
LWPOLYLINE
  5
6522
330
1E
100
AcDbEntity
  8
17
  6
CONTINOUS
100
AcDbPolyline
 90
        2
 70
     0
 43
0.0
 10
-6.5
 20
381.0
 10
-6.5
 20
373.0
  0
LWPOLYLINE
  5
6523
330
1E
100
AcDbEntity
  8
17
  6
CONTINOUS
100
AcDbPolyline
 90
        2
 70
     0
 43
0.0
 10
6.5
 20
381.0
 10
6.5
 20
373.0
  0
LWPOLYLINE
  5
6524
330
1E
100
AcDbEntity
  8
17
  6
CONTINOUS
100
AcDbPolyline
 90
        2
 70
     0
 43
0.0
 10
63.5
 20
381.0
 10
63.5
 20
373.0
  0
LWPOLYLINE
  5
6525
330
1E
100
AcDbEntity
  8
17
  6
CONTINOUS
100
AcDbPolyline
 90
        2
 70
     0
 43
0.0
 10
76.5
 20
381.0
 10
76.5
 20
373.0
  0
DIMENSION
  5
6526
330
1E
100
AcDbEntity
  8
30
  6
CONTINUOUS
100
AcDbDimension
  2
*D29
 10
-119.0
 20
310.0
 30
0.0
 11
-122.5
 21
361.5
 31
0.0
 70
    32
  3
STANDARD
100
AcDbAlignedDimension
 13
-105.0
 23
413.0
 33
0.0
 14
-105.0
 24
310.0
 34
0.0
 50
90.0
100
AcDbRotatedDimension
  0
DIMENSION
  5
656B
330
1E
100
AcDbEntity
  8
30
  6
CONTINUOUS
100
AcDbDimension
  2
*D30
 10
110.0
 20
174.0
 30
0.0
 11
106.4999999999999
 21
170.0
 31
0.0
 70
    32
  3
STANDARD
100
AcDbAlignedDimension
 13
83.87994384766001
 23
166.0
 33
0.0
 14
80.33312988281
 24
174.0
 34
0.0
 50
90.0
100
AcDbRotatedDimension
  0
DIMENSION
  5
6578
330
1E
100
AcDbEntity
  8
30
  6
CONTINUOUS
100
AcDbDimension
  2
*D31
 10
110.0
 20
206.0
 30
0.0
 11
106.4999999999999
 21
190.0
 31
0.0
 70
    32
  3
STANDARD
100
AcDbAlignedDimension
 13
80.33312988281
 23
174.0
 33
0.0
 14
84.72882080077999
 24
206.0
 34
0.0
 50
90.0
100
AcDbRotatedDimension
  0
DIMENSION
  5
6593
330
1E
100
AcDbEntity
  8
30
  6
CONTINUOUS
100
AcDbDimension
  2
*D32
 10
-139.4999999999999
 20
0.0000000000000098
 30
0.0
 11
-142.9999999999999
 21
70.49999999999998
 31
0.0
 70
    32
  3
STANDARD
100
AcDbAlignedDimension
 13
-105.0
 23
141.0
 33
0.0
 14
-105.0
 24
0.0
 34
0.0
 50
90.0
100
AcDbRotatedDimension
  0
DIMENSION
  5
65A0
330
1E
100
AcDbEntity
  8
30
  6
CONTINUOUS
100
AcDbDimension
  2
*D33
 10
-139.5
 20
-132.0
 30
0.0
 11
-142.9999999999999
 21
-66.00000000000001
 31
0.0
 70
    32
  3
STANDARD
100
AcDbAlignedDimension
 13
-105.0
 23
0.0
 33
0.0
 14
-105.0
 24
-132.0
 34
0.0
 50
90.0
100
AcDbRotatedDimension
1001
ACAD
1000
DSTYLE
1002
{
1070
   287
1070
     4
1070
   287
1070
     4
1070
   279
1070
     1
1002
}
  0
DIMENSION
  5
65AD
330
1E
100
AcDbEntity
  8
30
  6
CONTINUOUS
100
AcDbDimension
  2
*D34
 10
-157.4999999999999
 20
-132.0
 30
0.0
 11
-160.9999999999999
 21
4.499999999999981
 31
0.0
 70
    32
  3
STANDARD
100
AcDbAlignedDimension
 13
-106.0
 23
141.0
 33
0.0
 14
-105.0
 24
-132.0
 34
0.0
 50
90.0
100
AcDbRotatedDimension
  0
VIEWPORT
  5
9AC
330
1A
100
AcDbEntity
 67
     1
  8
0
  6
CONTINUOUS
100
AcDbViewport
 10
171.9995348790992
 20
144.1384735538403
 30
0.0
 40
488.8676857773514
 41
292.3514905034161
 68
     1
 69
     1
1001
ACAD
1000
MVIEW
1002
{
1070
    16
1010
0.0
1020
0.0
1030
0.0
1010
0.0
1020
0.0
1030
1.0
1040
0.0
1040
292.3514905034161
1040
171.9995348790992
1040
144.1384735538403
1040
50.0
1040
0.0
1040
0.0
1070
     0
1070
   100
1070
     1
1070
     1
1070
     0
1070
     0
1070
     0
1070
     0
1040
0.0
1040
0.0
1040
0.0
1040
10.0
1040
10.0
1040
10.0
1040
10.0
1070
     0
1002
{
1002
}
1002
}
  0
ENDSEC
  0
SECTION
  2
OBJECTS
  0
DICTIONARY
  5
C
330
0
100
AcDbDictionary
  3
ACAD_GROUP
350
D
  3
ACAD_LAYOUT
350
19
  3
ACAD_MLINESTYLE
350
16
  3
ACAD_PLOTSETTINGS
350
18
  3
ACAD_PLOTSTYLENAME
350
E
  3
ACDBHEADERROUNDTRIPXREC
350
67A2
  3
ACDBVARIABLEDICTIONARY
350
668D
  0
DICTIONARY
  5
178
330
1E
100
AcDbDictionary
280
     1
  3
ACAD_LAYOUTSELFREF
360
67C4
  0
DICTIONARY
  5
17A
330
1A
100
AcDbDictionary
280
     1
  3
ACAD_LAYOUTSELFREF
360
67C3
  0
DICTIONARY
  5
D
102
{ACAD_REACTORS
330
C
102
}
330
C
100
AcDbDictionary
  0
DICTIONARY
  5
19
102
{ACAD_REACTORS
330
C
102
}
330
C
100
AcDbDictionary
  0
DICTIONARY
  5
16
102
{ACAD_REACTORS
330
C
102
}
330
C
100
AcDbDictionary
  3
STANDARD
350
17
  0
DICTIONARY
  5
18
102
{ACAD_REACTORS
330
C
102
}
330
C
100
AcDbDictionary
  0
ACDBDICTIONARYWDFLT
  5
E
102
{ACAD_REACTORS
330
C
102
}
330
C
100
AcDbDictionary
281
     1
  3
Normal
350
F
100
AcDbDictionaryWithDefault
340
F
  0
DICTIONARY
  5
67A2
102
{ACAD_REACTORS
330
C
102
}
330
C
100
AcDbDictionary
  3
CEPSNTYPE
350
67AC
  3
DIMSTYLEDATA
350
67B0
  3
FINGERPRINTGUID
350
67AD
  3
HYPERLINKBASE
350
67A5
  3
INSUNITS
350
67AB
  3
LAYOUTDICT
350
67A7
  3
LWETCUNION
350
67AA
  3
PLOTSETDICT
350
67A8
  3
PLOTSTYLNAMDICT
350
67A9
  3
PSVPSCALE
350
67AF
  3
PUCSBASE
350
67B3
  3
PUCSORGBACK
350
67B9
  3
PUCSORGBOTTOM
350
67B5
  3
PUCSORGFRONT
350
67B8
  3
PUCSORGLEFT
350
67B6
  3
PUCSORGRIGHT
350
67B7
  3
PUCSORGTOP
350
67B4
  3
PUCSORTHOREF
350
67B1
  3
PUCSORTHOVIEW
350
67B2
  3
STYLESHEET
350
67A6
  3
TSTACKALIGN
350
67A3
  3
TSTACKSIZE
350
67A4
  3
UCSBASE
350
67BC
  3
UCSORGBACK
350
67C2
  3
UCSORGBOTTOM
350
67BE
  3
UCSORGFRONT
350
67C1
  3
UCSORGLEFT
350
67BF
  3
UCSORGRIGHT
350
67C0
  3
UCSORGTOP
350
67BD
  3
UCSORTHOREF
350
67BA
  3
UCSORTHOVIEW
350
67BB
  3
VERSIONGUID
350
67AE
  0
DICTIONARY
  5
668D
102
{ACAD_REACTORS
330
C
102
}
330
C
100
AcDbDictionary
  3
DIMASSOC
350
668E
  0
XRECORD
  5
67C4
102
{ACAD_REACTORS
330
178
102
}
330
178
100
AcDbXrecord
340
1E
  0
XRECORD
  5
67C3
102
{ACAD_REACTORS
330
17A
102
}
330
17A
100
AcDbXrecord
340
1A
  0
MLINESTYLE
  5
17
102
{ACAD_REACTORS
330
16
102
}
330
16
100
AcDbMlineStyle
  2
STANDARD
 70
     0
  3

 62
   256
 51
90.0
 52
90.0
 71
     2
 49
0.5
 62
   256
  6
BYLAYER
 49
-0.5
 62
   256
  6
BYLAYER
  0
ACDBPLACEHOLDER
  5
F
102
{ACAD_REACTORS
330
E
102
}
330
E
100
AcDbPlaceHolder
280
     0
  0
XRECORD
  5
67AC
102
{ACAD_REACTORS
330
67A2
102
}
330
67A2
100
AcDbXrecord
 90
        0
  0
XRECORD
  5
67B0
102
{ACAD_REACTORS
330
67A2
102
}
330
67A2
100
AcDbXrecord
1000
DSTYLE
1002
{
1070
    79
 70
     3
1070
   341
340
3B2
1070
   342
340
3B2
1002
}
  0
XRECORD
  5
67AD
102
{ACAD_REACTORS
330
67A2
102
}
330
67A2
100
AcDbXrecord
  1

  0
XRECORD
  5
67A5
102
{ACAD_REACTORS
330
67A2
102
}
330
67A2
100
AcDbXrecord
  1

  0
XRECORD
  5
67AB
102
{ACAD_REACTORS
330
67A2
102
}
330
67A2
100
AcDbXrecord
 90
        0
  0
XRECORD
  5
67A7
102
{ACAD_REACTORS
330
67A2
102
}
330
67A2
100
AcDbXrecord
340
19
  0
XRECORD
  5
67AA
102
{ACAD_REACTORS
330
67A2
102
}
330
67A2
100
AcDbXrecord
 90
    10781
  0
XRECORD
  5
67A8
102
{ACAD_REACTORS
330
67A2
102
}
330
67A2
100
AcDbXrecord
340
18
  0
XRECORD
  5
67A9
102
{ACAD_REACTORS
330
67A2
102
}
330
67A2
100
AcDbXrecord
340
E
  0
XRECORD
  5
67AF
102
{ACAD_REACTORS
330
67A2
102
}
330
67A2
100
AcDbXrecord
 40
0.0
  0
XRECORD
  5
67B3
102
{ACAD_REACTORS
330
67A2
102
}
330
67A2
100
AcDbXrecord
340
0
  0
XRECORD
  5
67B9
102
{ACAD_REACTORS
330
67A2
102
}
330
67A2
100
AcDbXrecord
 10
0.0
 20
0.0
 30
0.0
  0
XRECORD
  5
67B5
102
{ACAD_REACTORS
330
67A2
102
}
330
67A2
100
AcDbXrecord
 10
0.0
 20
0.0
 30
0.0
  0
XRECORD
  5
67B8
102
{ACAD_REACTORS
330
67A2
102
}
330
67A2
100
AcDbXrecord
 10
0.0
 20
0.0
 30
0.0
  0
XRECORD
  5
67B6
102
{ACAD_REACTORS
330
67A2
102
}
330
67A2
100
AcDbXrecord
 10
0.0
 20
0.0
 30
0.0
  0
XRECORD
  5
67B7
102
{ACAD_REACTORS
330
67A2
102
}
330
67A2
100
AcDbXrecord
 10
0.0
 20
0.0
 30
0.0
  0
XRECORD
  5
67B4
102
{ACAD_REACTORS
330
67A2
102
}
330
67A2
100
AcDbXrecord
 10
0.0
 20
0.0
 30
0.0
  0
XRECORD
  5
67B1
102
{ACAD_REACTORS
330
67A2
102
}
330
67A2
100
AcDbXrecord
340
0
  0
XRECORD
  5
67B2
102
{ACAD_REACTORS
330
67A2
102
}
330
67A2
100
AcDbXrecord
 70
     0
  0
XRECORD
  5
67A6
102
{ACAD_REACTORS
330
67A2
102
}
330
67A2
100
AcDbXrecord
  1
KIKI.ctb
  0
XRECORD
  5
67A3
102
{ACAD_REACTORS
330
67A2
102
}
330
67A2
100
AcDbXrecord
 90
        1
  0
XRECORD
  5
67A4
102
{ACAD_REACTORS
330
67A2
102
}
330
67A2
100
AcDbXrecord
 90
       70
  0
XRECORD
  5
67BC
102
{ACAD_REACTORS
330
67A2
102
}
330
67A2
100
AcDbXrecord
340
0
  0
XRECORD
  5
67C2
102
{ACAD_REACTORS
330
67A2
102
}
330
67A2
100
AcDbXrecord
 10
0.0
 20
0.0
 30
0.0
  0
XRECORD
  5
67BE
102
{ACAD_REACTORS
330
67A2
102
}
330
67A2
100
AcDbXrecord
 10
0.0
 20
0.0
 30
0.0
  0
XRECORD
  5
67C1
102
{ACAD_REACTORS
330
67A2
102
}
330
67A2
100
AcDbXrecord
 10
0.0
 20
0.0
 30
0.0
  0
XRECORD
  5
67BF
102
{ACAD_REACTORS
330
67A2
102
}
330
67A2
100
AcDbXrecord
 10
0.0
 20
0.0
 30
0.0
  0
XRECORD
  5
67C0
102
{ACAD_REACTORS
330
67A2
102
}
330
67A2
100
AcDbXrecord
 10
0.0
 20
0.0
 30
0.0
  0
XRECORD
  5
67BD
102
{ACAD_REACTORS
330
67A2
102
}
330
67A2
100
AcDbXrecord
 10
0.0
 20
0.0
 30
0.0
  0
XRECORD
  5
67BA
102
{ACAD_REACTORS
330
67A2
102
}
330
67A2
100
AcDbXrecord
340
0
  0
XRECORD
  5
67BB
102
{ACAD_REACTORS
330
67A2
102
}
330
67A2
100
AcDbXrecord
 70
     0
  0
XRECORD
  5
67AE
102
{ACAD_REACTORS
330
67A2
102
}
330
67A2
100
AcDbXrecord
  1
{4E39A825-7B7C-48F7-BB96-CAA1C0962B53}
  0
DICTIONARYVAR
  5
668E
102
{ACAD_REACTORS
330
668D
102
}
330
668D
100
DictionaryVariables
280
     0
  1
1
  0
ENDSEC
  0
EOF
