  0
SECTION
  2
HEADER
  9
$ACADVER
  1
AC1014
  9
$ACADMAINTVER
 70
     9
  9
$DWGCODEPAGE
  3
ANSI_932
  9
$INSBASE
 10
0.0
 20
0.0
 30
0.0
  9
$EXTMIN
 10
-316.7432963118326
 20
-633.5646863338811
 30
-0.0000000000000053
  9
$EXTMAX
 10
602.1106180428364
 20
258.4266511233504
 30
0.0000000000000099
  9
$LIMMIN
 10
-179.0
 20
-547.0
  9
$LIMMAX
 10
487.0
 20
238.0
  9
$ORTHOMODE
 70
     1
  9
$REGENMODE
 70
     1
  9
$FILLMODE
 70
     1
  9
$QTEXTMODE
 70
     0
  9
$MIRRTEXT
 70
     1
  9
$DRAGMODE
 70
     2
  9
$LTSCALE
 40
10.0
  9
$OSMODE
 70
    37
  9
$ATTMODE
 70
     1
  9
$TEXTSIZE
 40
2.0
  9
$TRACEWID
 40
0.05
  9
$TEXTSTYLE
  7
STANDARD
  9
$CLAYER
  8
30
  9
$CELTYPE
  6
CONTINUOUS
  9
$CECOLOR
 62
   256
  9
$CELTSCALE
 40
1.0
  9
$DELOBJ
 70
     1
  9
$DISPSILH
 70
     0
  9
$DIMSCALE
 40
1.0
  9
$DIMASZ
 40
2.0
  9
$DIMEXO
 40
1.0
  9
$DIMDLI
 40
0.5
  9
$DIMRND
 40
0.0
  9
$DIMDLE
 40
0.0
  9
$DIMEXE
 40
0.5
  9
$DIMTP
 40
0.0
  9
$DIMTM
 40
0.0
  9
$DIMTXT
 40
5.0
  9
$DIMCEN
 40
0.09
  9
$DIMTSZ
 40
0.0
  9
$DIMTOL
 70
     0
  9
$DIMLIM
 70
     0
  9
$DIMTIH
 70
     0
  9
$DIMTOH
 70
     1
  9
$DIMSE1
 70
     0
  9
$DIMSE2
 70
     0
  9
$DIMTAD
 70
     3
  9
$DIMZIN
 70
    12
  9
$DIMBLK
  1
OPEN
  9
$DIMASO
 70
     1
  9
$DIMSHO
 70
     1
  9
$DIMPOST
  1

  9
$DIMAPOST
  1

  9
$DIMALT
 70
     0
  9
$DIMALTD
 70
     2
  9
$DIMALTF
 40
25.4
  9
$DIMLFAC
 40
1.0
  9
$DIMTOFL
 70
     0
  9
$DIMTVP
 40
0.0
  9
$DIMTIX
 70
     0
  9
$DIMSOXD
 70
     0
  9
$DIMSAH
 70
     0
  9
$DIMBLK1
  1

  9
$DIMBLK2
  1

  9
$DIMSTYLE
  2
STANDARD
  9
$DIMCLRD
 70
     0
  9
$DIMCLRE
 70
     0
  9
$DIMCLRT
 70
     0
  9
$DIMTFAC
 40
1.0
  9
$DIMGAP
 40
1.0
  9
$DIMJUST
 70
     0
  9
$DIMSD1
 70
     0
  9
$DIMSD2
 70
     0
  9
$DIMTOLJ
 70
     1
  9
$DIMTZIN
 70
     0
  9
$DIMALTZ
 70
     0
  9
$DIMALTTZ
 70
     0
  9
$DIMFIT
 70
     3
  9
$DIMUPT
 70
     0
  9
$DIMUNIT
 70
     2
  9
$DIMDEC
 70
     1
  9
$DIMTDEC
 70
     1
  9
$DIMALTU
 70
     2
  9
$DIMALTTD
 70
     2
  9
$DIMTXSTY
  7
STANDARD
  9
$DIMAUNIT
 70
     0
  9
$LUNITS
 70
     2
  9
$LUPREC
 70
     4
  9
$SKETCHINC
 40
0.1
  9
$FILLETRAD
 40
0.0
  9
$AUNITS
 70
     0
  9
$AUPREC
 70
     0
  9
$MENU
  1
.
  9
$ELEVATION
 40
0.0
  9
$PELEVATION
 40
0.0
  9
$THICKNESS
 40
0.0
  9
$LIMCHECK
 70
     0
  9
$BLIPMODE
 70
     0
  9
$CHAMFERA
 40
0.0
  9
$CHAMFERB
 40
0.0
  9
$CHAMFERC
 40
0.0
  9
$CHAMFERD
 40
0.0
  9
$SKPOLY
 70
     0
  9
$TDCREATE
 40
2452286.555658657
  9
$TDUPDATE
 40
2453113.016480567
  9
$TDINDWG
 40
1.5128360417
  9
$TDUSRTIMER
 40
1.5128360417
  9
$USRTIMER
 70
     1
  9
$ANGBASE
 50
0.0
  9
$ANGDIR
 70
     0
  9
$PDMODE
 70
     0
  9
$PDSIZE
 40
0.0
  9
$PLINEWID
 40
0.0
  9
$COORDS
 70
     1
  9
$SPLFRAME
 70
     0
  9
$SPLINETYPE
 70
     6
  9
$SPLINESEGS
 70
     8
  9
$ATTDIA
 70
     0
  9
$ATTREQ
 70
     1
  9
$HANDLING
 70
 22529
  9
$HANDSEED
  5
7E7E
  9
$SURFTAB1
 70
     6
  9
$SURFTAB2
 70
     6
  9
$SURFTYPE
 70
     6
  9
$SURFU
 70
     6
  9
$SURFV
 70
     6
  9
$UCSNAME
  2

  9
$UCSORG
 10
0.0
 20
0.0
 30
0.0
  9
$UCSXDIR
 10
1.0
 20
0.0
 30
0.0
  9
$UCSYDIR
 10
0.0
 20
1.0
 30
0.0
  9
$PUCSNAME
  2

  9
$PUCSORG
 10
0.0
 20
0.0
 30
0.0
  9
$PUCSXDIR
 10
1.0
 20
0.0
 30
0.0
  9
$PUCSYDIR
 10
0.0
 20
1.0
 30
0.0
  9
$USERI1
 70
     0
  9
$USERI2
 70
     0
  9
$USERI3
 70
     0
  9
$USERI4
 70
     0
  9
$USERI5
 70
     0
  9
$USERR1
 40
0.0
  9
$USERR2
 40
0.0
  9
$USERR3
 40
0.0
  9
$USERR4
 40
0.0
  9
$USERR5
 40
0.0
  9
$WORLDVIEW
 70
     1
  9
$SHADEDGE
 70
     3
  9
$SHADEDIF
 70
    70
  9
$TILEMODE
 70
     1
  9
$MAXACTVP
 70
    48
  9
$PINSBASE
 10
0.0
 20
0.0
 30
0.0
  9
$PLIMCHECK
 70
     0
  9
$PEXTMIN
 10
1.000000000000000E+20
 20
1.000000000000000E+20
 30
1.000000000000000E+20
  9
$PEXTMAX
 10
-1.000000000000000E+20
 20
-1.000000000000000E+20
 30
-1.000000000000000E+20
  9
$PLIMMIN
 10
-5.873748779296875
 20
-5.873749732971191
  9
$PLIMMAX
 10
204.0995788574218
 20
291.1369009017944
  9
$UNITMODE
 70
     0
  9
$VISRETAIN
 70
     1
  9
$PLINEGEN
 70
     0
  9
$PSLTSCALE
 70
     1
  9
$TREEDEPTH
 70
  3020
  9
$PICKSTYLE
 70
     1
  9
$CMLSTYLE
  2
STANDARD
  9
$CMLJUST
 70
     0
  9
$CMLSCALE
 40
1.0
  9
$PROXYGRAPHICS
 70
     1
  9
$MEASUREMENT
 70
     0
  0
ENDSEC
  0
SECTION
  2
CLASSES
  0
CLASS
  1
ACDBDICTIONARYWDFLT
  2
AcDbDictionaryWithDefault
  3
AutoCAD 2000
 90
        0
280
     0
281
     0
  0
CLASS
  1
ACDBPLACEHOLDER
  2
AcDbPlaceHolder
  3
AutoCAD 2000
 90
        0
280
     0
281
     0
  0
CLASS
  1
LAYOUT
  2
AcDbLayout
  3
AutoCAD 2000
 90
        0
280
     0
281
     0
  0
CLASS
  1
LONG_TRANSACTION
  2
AcDbLongTransaction
  3
AutoCAD 2000
 90
        0
280
     0
281
     0
  0
CLASS
  1
LWPOLYLINE
  2
AcDbPolyline
  3
AutoCAD 2000
 90
        0
280
     0
281
     1
  0
CLASS
  1
HATCH
  2
AcDbHatch
  3
AutoCAD 2000
 90
        0
280
     0
281
     1
  0
CLASS
  1
XRECORD
  2
AcDbXrecord
  3
AutoCAD 2000
 90
        0
280
     0
281
     0
  0
CLASS
  1
LONG_TRANSACTION
  2
AcDbLongTransaction
  3
AutoCAD 2000
 90
        0
280
     0
281
     0
  0
CLASS
  1
LWPOLYLINE
  2
AcDbPolyline
  3
AutoCAD 2000
 90
        0
280
     0
281
     1
  0
CLASS
  1
HATCH
  2
AcDbHatch
  3
AutoCAD 2000
 90
        0
280
     0
281
     1
  0
CLASS
  1
XRECORD
  2
AcDbXrecord
  3
AutoCAD 2000
 90
        0
280
     0
281
     0
  0
CLASS
  1
LONG_TRANSACTION
  2
AcDbLongTransaction
  3
AutoCAD 2000
 90
        0
280
     0
281
     0
  0
CLASS
  1
LWPOLYLINE
  2
AcDbPolyline
  3
AutoCAD 2000
 90
        0
280
     0
281
     1
  0
CLASS
  1
HATCH
  2
AcDbHatch
  3
AutoCAD 2000
 90
        0
280
     0
281
     1
  0
CLASS
  1
XRECORD
  2
AcDbXrecord
  3
AutoCAD 2000
 90
        0
280
     0
281
     0
  0
CLASS
  1
LONG_TRANSACTION
  2
AcDbLongTransaction
  3
AutoCAD 2000
 90
        0
280
     0
281
     0
  0
CLASS
  1
LWPOLYLINE
  2
AcDbPolyline
  3
AutoCAD 2000
 90
        0
280
     0
281
     1
  0
CLASS
  1
HATCH
  2
AcDbHatch
  3
AutoCAD 2000
 90
        0
280
     0
281
     1
  0
CLASS
  1
XRECORD
  2
AcDbXrecord
  3
AutoCAD 2000
 90
        0
280
     0
281
     0
  0
CLASS
  1
LONG_TRANSACTION
  2
AcDbLongTransaction
  3
AutoCAD 2000
 90
        0
280
     0
281
     0
  0
CLASS
  1
LWPOLYLINE
  2
AcDbPolyline
  3
AutoCAD 2000
 90
        0
280
     0
281
     1
  0
CLASS
  1
HATCH
  2
AcDbHatch
  3
AutoCAD 2000
 90
        0
280
     0
281
     1
  0
CLASS
  1
XRECORD
  2
AcDbXrecord
  3
AutoCAD 2000
 90
        0
280
     0
281
     0
  0
CLASS
  1
LONG_TRANSACTION
  2
AcDbLongTransaction
  3
AutoCAD 2000
 90
        0
280
     0
281
     0
  0
CLASS
  1
LWPOLYLINE
  2
AcDbPolyline
  3
AutoCAD 2000
 90
        0
280
     0
281
     1
  0
CLASS
  1
HATCH
  2
AcDbHatch
  3
AutoCAD 2000
 90
        0
280
     0
281
     1
  0
CLASS
  1
XRECORD
  2
AcDbXrecord
  3
AutoCAD 2000
 90
        0
280
     0
281
     0
  0
CLASS
  1
LONG_TRANSACTION
  2
AcDbLongTransaction
  3
AutoCAD 2000
 90
        0
280
     0
281
     0
  0
CLASS
  1
LWPOLYLINE
  2
AcDbPolyline
  3
AutoCAD 2000
 90
        0
280
     0
281
     1
  0
CLASS
  1
HATCH
  2
AcDbHatch
  3
AutoCAD 2000
 90
        0
280
     0
281
     1
  0
CLASS
  1
XRECORD
  2
AcDbXrecord
  3
AutoCAD 2000
 90
        0
280
     0
281
     0
  0
CLASS
  1
LONG_TRANSACTION
  2
AcDbLongTransaction
  3
AutoCAD 2000
 90
        0
280
     0
281
     0
  0
CLASS
  1
LWPOLYLINE
  2
AcDbPolyline
  3
AutoCAD 2000
 90
        0
280
     0
281
     1
  0
CLASS
  1
HATCH
  2
AcDbHatch
  3
AutoCAD 2000
 90
        0
280
     0
281
     1
  0
CLASS
  1
XRECORD
  2
AcDbXrecord
  3
AutoCAD 2000
 90
        0
280
     0
281
     0
  0
CLASS
  1
LONG_TRANSACTION
  2
AcDbLongTransaction
  3
AutoCAD 2000
 90
        0
280
     0
281
     0
  0
CLASS
  1
LWPOLYLINE
  2
AcDbPolyline
  3
AutoCAD 2000
 90
        0
280
     0
281
     1
  0
CLASS
  1
HATCH
  2
AcDbHatch
  3
AutoCAD 2000
 90
        0
280
     0
281
     1
  0
CLASS
  1
XRECORD
  2
AcDbXrecord
  3
AutoCAD 2000
 90
        0
280
     0
281
     0
  0
CLASS
  1
LONG_TRANSACTION
  2
AcDbLongTransaction
  3
AutoCAD 2000
 90
        0
280
     0
281
     0
  0
CLASS
  1
LWPOLYLINE
  2
AcDbPolyline
  3
AutoCAD 2000
 90
        0
280
     0
281
     1
  0
CLASS
  1
HATCH
  2
AcDbHatch
  3
AutoCAD 2000
 90
        0
280
     0
281
     1
  0
CLASS
  1
XRECORD
  2
AcDbXrecord
  3
AutoCAD 2000
 90
        0
280
     0
281
     0
  0
CLASS
  1
LONG_TRANSACTION
  2
AcDbLongTransaction
  3
AutoCAD 2000
 90
        0
280
     0
281
     0
  0
CLASS
  1
LWPOLYLINE
  2
AcDbPolyline
  3
AutoCAD 2000
 90
        0
280
     0
281
     1
  0
CLASS
  1
HATCH
  2
AcDbHatch
  3
AutoCAD 2000
 90
        0
280
     0
281
     1
  0
CLASS
  1
XRECORD
  2
AcDbXrecord
  3
AutoCAD 2000
 90
        0
280
     0
281
     0
  0
CLASS
  1
LONG_TRANSACTION
  2
AcDbLongTransaction
  3
AutoCAD 2000
 90
        0
280
     0
281
     0
  0
CLASS
  1
LWPOLYLINE
  2
AcDbPolyline
  3
AutoCAD 2000
 90
        0
280
     0
281
     1
  0
CLASS
  1
HATCH
  2
AcDbHatch
  3
AutoCAD 2000
 90
        0
280
     0
281
     1
  0
CLASS
  1
XRECORD
  2
AcDbXrecord
  3
AutoCAD 2000
 90
        0
280
     0
281
     0
  0
CLASS
  1
LONG_TRANSACTION
  2
AcDbLongTransaction
  3
AutoCAD 2000
 90
        0
280
     0
281
     0
  0
CLASS
  1
LWPOLYLINE
  2
AcDbPolyline
  3
AutoCAD 2000
 90
        0
280
     0
281
     1
  0
CLASS
  1
HATCH
  2
AcDbHatch
  3
AutoCAD 2000
 90
        0
280
     0
281
     1
  0
CLASS
  1
XRECORD
  2
AcDbXrecord
  3
AutoCAD 2000
 90
        0
280
     0
281
     0
  0
CLASS
  1
LONG_TRANSACTION
  2
AcDbLongTransaction
  3
AutoCAD 2000
 90
        0
280
     0
281
     0
  0
CLASS
  1
LWPOLYLINE
  2
AcDbPolyline
  3
AutoCAD 2000
 90
        0
280
     0
281
     1
  0
CLASS
  1
HATCH
  2
AcDbHatch
  3
AutoCAD 2000
 90
        0
280
     0
281
     1
  0
CLASS
  1
XRECORD
  2
AcDbXrecord
  3
AutoCAD 2000
 90
        0
280
     0
281
     0
  0
CLASS
  1
LONG_TRANSACTION
  2
AcDbLongTransaction
  3
AutoCAD 2000
 90
        0
280
     0
281
     0
  0
CLASS
  1
LWPOLYLINE
  2
AcDbPolyline
  3
AutoCAD 2000
 90
        0
280
     0
281
     1
  0
CLASS
  1
HATCH
  2
AcDbHatch
  3
AutoCAD 2000
 90
        0
280
     0
281
     1
  0
CLASS
  1
XRECORD
  2
AcDbXrecord
  3
AutoCAD 2000
 90
        0
280
     0
281
     0
  0
CLASS
  1
LONG_TRANSACTION
  2
AcDbLongTransaction
  3
AutoCAD 2000
 90
        0
280
     0
281
     0
  0
CLASS
  1
LWPOLYLINE
  2
AcDbPolyline
  3
AutoCAD 2000
 90
        0
280
     0
281
     1
  0
CLASS
  1
HATCH
  2
AcDbHatch
  3
AutoCAD 2000
 90
        0
280
     0
281
     1
  0
CLASS
  1
XRECORD
  2
AcDbXrecord
  3
AutoCAD 2000
 90
        0
280
     0
281
     0
  0
CLASS
  1
LONG_TRANSACTION
  2
AcDbLongTransaction
  3
AutoCAD 2000
 90
        0
280
     0
281
     0
  0
CLASS
  1
LWPOLYLINE
  2
AcDbPolyline
  3
AutoCAD 2000
 90
        0
280
     0
281
     1
  0
CLASS
  1
HATCH
  2
AcDbHatch
  3
AutoCAD 2000
 90
        0
280
     0
281
     1
  0
CLASS
  1
XRECORD
  2
AcDbXrecord
  3
AutoCAD 2000
 90
        0
280
     0
281
     0
  0
CLASS
  1
LONG_TRANSACTION
  2
AcDbLongTransaction
  3
AutoCAD 2000
 90
        0
280
     0
281
     0
  0
CLASS
  1
LWPOLYLINE
  2
AcDbPolyline
  3
AutoCAD 2000
 90
        0
280
     0
281
     1
  0
CLASS
  1
HATCH
  2
AcDbHatch
  3
AutoCAD 2000
 90
        0
280
     0
281
     1
  0
CLASS
  1
XRECORD
  2
AcDbXrecord
  3
AutoCAD 2000
 90
        0
280
     0
281
     0
  0
CLASS
  1
LONG_TRANSACTION
  2
AcDbLongTransaction
  3
AutoCAD 2000
 90
        0
280
     0
281
     0
  0
CLASS
  1
LWPOLYLINE
  2
AcDbPolyline
  3
AutoCAD 2000
 90
        0
280
     0
281
     1
  0
CLASS
  1
HATCH
  2
AcDbHatch
  3
AutoCAD 2000
 90
        0
280
     0
281
     1
  0
CLASS
  1
XRECORD
  2
AcDbXrecord
  3
AutoCAD 2000
 90
        0
280
     0
281
     0
  0
CLASS
  1
LONG_TRANSACTION
  2
AcDbLongTransaction
  3
AutoCAD 2000
 90
        0
280
     0
281
     0
  0
CLASS
  1
LWPOLYLINE
  2
AcDbPolyline
  3
AutoCAD 2000
 90
        0
280
     0
281
     1
  0
CLASS
  1
HATCH
  2
AcDbHatch
  3
AutoCAD 2000
 90
        0
280
     0
281
     1
  0
CLASS
  1
XRECORD
  2
AcDbXrecord
  3
AutoCAD 2000
 90
        0
280
     0
281
     0
  0
CLASS
  1
LONG_TRANSACTION
  2
AcDbLongTransaction
  3
AutoCAD 2000
 90
        0
280
     0
281
     0
  0
CLASS
  1
LWPOLYLINE
  2
AcDbPolyline
  3
AutoCAD 2000
 90
        0
280
     0
281
     1
  0
CLASS
  1
HATCH
  2
AcDbHatch
  3
AutoCAD 2000
 90
        0
280
     0
281
     1
  0
CLASS
  1
XRECORD
  2
AcDbXrecord
  3
AutoCAD 2000
 90
        0
280
     0
281
     0
  0
CLASS
  1
LONG_TRANSACTION
  2
AcDbLongTransaction
  3
AutoCAD 2000
 90
        0
280
     0
281
     0
  0
CLASS
  1
LWPOLYLINE
  2
AcDbPolyline
  3
AutoCAD 2000
 90
        0
280
     0
281
     1
  0
CLASS
  1
HATCH
  2
AcDbHatch
  3
AutoCAD 2000
 90
        0
280
     0
281
     1
  0
CLASS
  1
XRECORD
  2
AcDbXrecord
  3
AutoCAD 2000
 90
        0
280
     0
281
     0
  0
CLASS
  1
LONG_TRANSACTION
  2
AcDbLongTransaction
  3
AutoCAD 2000
 90
        0
280
     0
281
     0
  0
CLASS
  1
LWPOLYLINE
  2
AcDbPolyline
  3
AutoCAD 2000
 90
        0
280
     0
281
     1
  0
CLASS
  1
HATCH
  2
AcDbHatch
  3
AutoCAD 2000
 90
        0
280
     0
281
     1
  0
CLASS
  1
XRECORD
  2
AcDbXrecord
  3
AutoCAD 2000
 90
        0
280
     0
281
     0
  0
CLASS
  1
LONG_TRANSACTION
  2
AcDbLongTransaction
  3
AutoCAD 2000
 90
        0
280
     0
281
     0
  0
CLASS
  1
LWPOLYLINE
  2
AcDbPolyline
  3
AutoCAD 2000
 90
        0
280
     0
281
     1
  0
CLASS
  1
HATCH
  2
AcDbHatch
  3
AutoCAD 2000
 90
        0
280
     0
281
     1
  0
CLASS
  1
XRECORD
  2
AcDbXrecord
  3
AutoCAD 2000
 90
        0
280
     0
281
     0
  0
CLASS
  1
LONG_TRANSACTION
  2
AcDbLongTransaction
  3
AutoCAD 2000
 90
        0
280
     0
281
     0
  0
CLASS
  1
LWPOLYLINE
  2
AcDbPolyline
  3
AutoCAD 2000
 90
        0
280
     0
281
     1
  0
CLASS
  1
HATCH
  2
AcDbHatch
  3
AutoCAD 2000
 90
        0
280
     0
281
     1
  0
CLASS
  1
XRECORD
  2
AcDbXrecord
  3
AutoCAD 2000
 90
        0
280
     0
281
     0
  0
CLASS
  1
LONG_TRANSACTION
  2
AcDbLongTransaction
  3
AutoCAD 2000
 90
        0
280
     0
281
     0
  0
CLASS
  1
LWPOLYLINE
  2
AcDbPolyline
  3
AutoCAD 2000
 90
        0
280
     0
281
     1
  0
CLASS
  1
HATCH
  2
AcDbHatch
  3
AutoCAD 2000
 90
        0
280
     0
281
     1
  0
CLASS
  1
XRECORD
  2
AcDbXrecord
  3
AutoCAD 2000
 90
        0
280
     0
281
     0
  0
CLASS
  1
LONG_TRANSACTION
  2
AcDbLongTransaction
  3
AutoCAD 2000
 90
        0
280
     0
281
     0
  0
CLASS
  1
LWPOLYLINE
  2
AcDbPolyline
  3
AutoCAD 2000
 90
        0
280
     0
281
     1
  0
CLASS
  1
HATCH
  2
AcDbHatch
  3
AutoCAD 2000
 90
        0
280
     0
281
     1
  0
CLASS
  1
XRECORD
  2
AcDbXrecord
  3
AutoCAD 2000
 90
        0
280
     0
281
     0
  0
CLASS
  1
LONG_TRANSACTION
  2
AcDbLongTransaction
  3
AutoCAD 2000
 90
        0
280
     0
281
     0
  0
CLASS
  1
LWPOLYLINE
  2
AcDbPolyline
  3
AutoCAD 2000
 90
        0
280
     0
281
     1
  0
CLASS
  1
HATCH
  2
AcDbHatch
  3
AutoCAD 2000
 90
        0
280
     0
281
     1
  0
CLASS
  1
XRECORD
  2
AcDbXrecord
  3
AutoCAD 2000
 90
        0
280
     0
281
     0
  0
CLASS
  1
LONG_TRANSACTION
  2
AcDbLongTransaction
  3
AutoCAD 2000
 90
        0
280
     0
281
     0
  0
CLASS
  1
LWPOLYLINE
  2
AcDbPolyline
  3
AutoCAD 2000
 90
        0
280
     0
281
     1
  0
CLASS
  1
HATCH
  2
AcDbHatch
  3
AutoCAD 2000
 90
        0
280
     0
281
     1
  0
CLASS
  1
XRECORD
  2
AcDbXrecord
  3
AutoCAD 2000
 90
        0
280
     0
281
     0
  0
CLASS
  1
LONG_TRANSACTION
  2
AcDbLongTransaction
  3
AutoCAD 2000
 90
        0
280
     0
281
     0
  0
CLASS
  1
LWPOLYLINE
  2
AcDbPolyline
  3
AutoCAD 2000
 90
        0
280
     0
281
     1
  0
CLASS
  1
HATCH
  2
AcDbHatch
  3
AutoCAD 2000
 90
        0
280
     0
281
     1
  0
CLASS
  1
XRECORD
  2
AcDbXrecord
  3
AutoCAD 2000
 90
        0
280
     0
281
     0
  0
CLASS
  1
LONG_TRANSACTION
  2
AcDbLongTransaction
  3
AutoCAD 2000
 90
        0
280
     0
281
     0
  0
CLASS
  1
LWPOLYLINE
  2
AcDbPolyline
  3
AutoCAD 2000
 90
        0
280
     0
281
     1
  0
CLASS
  1
HATCH
  2
AcDbHatch
  3
AutoCAD 2000
 90
        0
280
     0
281
     1
  0
CLASS
  1
XRECORD
  2
AcDbXrecord
  3
AutoCAD 2000
 90
        0
280
     0
281
     0
  0
CLASS
  1
LONG_TRANSACTION
  2
AcDbLongTransaction
  3
AutoCAD 2000
 90
        0
280
     0
281
     0
  0
CLASS
  1
LWPOLYLINE
  2
AcDbPolyline
  3
AutoCAD 2000
 90
        0
280
     0
281
     1
  0
CLASS
  1
HATCH
  2
AcDbHatch
  3
AutoCAD 2000
 90
        0
280
     0
281
     1
  0
CLASS
  1
XRECORD
  2
AcDbXrecord
  3
AutoCAD 2000
 90
        0
280
     0
281
     0
  0
CLASS
  1
LONG_TRANSACTION
  2
AcDbLongTransaction
  3
AutoCAD 2000
 90
        0
280
     0
281
     0
  0
CLASS
  1
LWPOLYLINE
  2
AcDbPolyline
  3
AutoCAD 2000
 90
        0
280
     0
281
     1
  0
CLASS
  1
HATCH
  2
AcDbHatch
  3
AutoCAD 2000
 90
        0
280
     0
281
     1
  0
CLASS
  1
XRECORD
  2
AcDbXrecord
  3
AutoCAD 2000
 90
        0
280
     0
281
     0
  0
CLASS
  1
DICTIONARYVAR
  2
AcDbDictionaryVar
  3
AutoCAD 2000
 90
        0
280
     0
281
     0
  0
CLASS
  1
LONG_TRANSACTION
  2
AcDbLongTransaction
  3
AutoCAD 2000
 90
        0
280
     0
281
     0
  0
CLASS
  1
LWPOLYLINE
  2
AcDbPolyline
  3
AutoCAD 2000
 90
        0
280
     0
281
     1
  0
CLASS
  1
HATCH
  2
AcDbHatch
  3
AutoCAD 2000
 90
        0
280
     0
281
     1
  0
CLASS
  1
XRECORD
  2
AcDbXrecord
  3
AutoCAD 2000
 90
        0
280
     0
281
     0
  0
CLASS
  1
LONG_TRANSACTION
  2
AcDbLongTransaction
  3
AutoCAD 2000
 90
        0
280
     0
281
     0
  0
CLASS
  1
LWPOLYLINE
  2
AcDbPolyline
  3
AutoCAD 2000
 90
        0
280
     0
281
     1
  0
CLASS
  1
HATCH
  2
AcDbHatch
  3
AutoCAD 2000
 90
        0
280
     0
281
     1
  0
CLASS
  1
XRECORD
  2
AcDbXrecord
  3
AutoCAD 2000
 90
        0
280
     0
281
     0
  0
ENDSEC
  0
SECTION
  2
TABLES
  0
TABLE
  2
VPORT
  5
8
330
0
100
AcDbSymbolTable
 70
     4
  0
VPORT
  5
7DC0
330
8
100
AcDbSymbolTableRecord
100
AcDbViewportTableRecord
  2
*ACTIVE
 70
     0
 10
0.0
 20
0.0
 11
1.0
 21
1.0
 12
142.6836608655019
 22
-187.5690176052653
 13
0.0
 23
0.0
 14
1.0
 24
1.0
 15
10.0
 25
10.0
 16
0.0
 26
0.0
 36
1.0
 17
0.0
 27
0.0
 37
0.0
 40
902.8252403413276
 41
1.924949290060851
 42
50.0
 43
0.0
 44
0.0
 50
0.0
 51
0.0
 71
     0
 72
   100
 73
     1
 74
     1
 75
     0
 76
     0
 77
     0
 78
     0
  0
ENDTAB
  0
TABLE
  2
LTYPE
  5
5
330
0
100
AcDbSymbolTable
 70
     7
  0
LTYPE
  5
13
330
5
100
AcDbSymbolTableRecord
100
AcDbLinetypeTableRecord
  2
BYBLOCK
 70
     0
  3

 72
    65
 73
     0
 40
0.0
  0
LTYPE
  5
14
330
5
100
AcDbSymbolTableRecord
100
AcDbLinetypeTableRecord
  2
BYLAYER
 70
     0
  3

 72
    65
 73
     0
 40
0.0
  0
LTYPE
  5
15
330
5
100
AcDbSymbolTableRecord
100
AcDbLinetypeTableRecord
  2
CONTINUOUS
 70
     0
  3
Solid line
 72
    65
 73
     0
 40
0.0
  0
LTYPE
  5
22
330
5
100
AcDbSymbolTableRecord
100
AcDbLinetypeTableRecord
  2
CONTINOUS
 70
     0
  3
Solid line
 72
    65
 73
     0
 40
0.0
  0
LTYPE
  5
23
330
5
100
AcDbSymbolTableRecord
100
AcDbLinetypeTableRecord
  2
DASHED
 70
     0
  3
__ __ __ __ __ __ __ __ __ __ __ __ __ __ __
 72
    65
 73
     2
 40
0.75
 49
0.5
 74
     0
 49
-0.25
 74
     0
  0
LTYPE
  5
24
330
5
100
AcDbSymbolTableRecord
100
AcDbLinetypeTableRecord
  2
DASHDOT
 70
     0
  3
__ . __ . __ . __ . __ . __ . __ . __ . __ . __
 72
    65
 73
     4
 40
1.0
 49
0.5
 74
     0
 49
-0.25
 74
     0
 49
0.0
 74
     0
 49
-0.25
 74
     0
  0
LTYPE
  5
4C47
330
5
100
AcDbSymbolTableRecord
100
AcDbLinetypeTableRecord
  2
DIVIDE
 70
     0
  3
Divide ____ . . ____ . . ____ . . ____ . . ____
 72
    65
 73
     6
 40
1.25
 49
0.5
 74
     0
 49
-0.25
 74
     0
 49
0.0
 74
     0
 49
-0.25
 74
     0
 49
0.0
 74
     0
 49
-0.25
 74
     0
  0
LTYPE
  5
6CA0
330
5
100
AcDbSymbolTableRecord
100
AcDbLinetypeTableRecord
  2
D1101
 70
     0
  3
IGESIN-LineFont-D1101
 72
    65
 73
     6
 40
11.29999999999999
 49
8.0
 74
     0
 49
-0.6
 74
     0
 49
0.75
 74
     0
 49
-0.6
 74
     0
 49
0.75
 74
     0
 49
-0.6
 74
     0
  0
LTYPE
  5
6CA1
330
5
100
AcDbSymbolTableRecord
100
AcDbLinetypeTableRecord
  2
D1559
 70
     0
  3
IGESIN-LineFont-D1559
 72
    65
 73
     2
 40
1.35
 49
0.75
 74
     0
 49
-0.6
 74
     0
  0
ENDTAB
  0
TABLE
  2
LAYER
  5
2
330
0
100
AcDbSymbolTable
 70
    18
  0
LAYER
  5
10
330
2
100
AcDbSymbolTableRecord
100
AcDbLayerTableRecord
  2
0
 70
     0
 62
     7
  6
CONTINOUS
  0
LAYER
  5
2F
330
2
100
AcDbSymbolTableRecord
100
AcDbLayerTableRecord
  2
10
 70
     0
 62
     4
  6
CONTINOUS
  0
LAYER
  5
31
330
2
100
AcDbSymbolTableRecord
100
AcDbLayerTableRecord
  2
12
 70
     0
 62
     3
  6
CONTINOUS
  0
LAYER
  5
35
330
2
100
AcDbSymbolTableRecord
100
AcDbLayerTableRecord
  2
16
 70
     0
 62
     6
  6
DASHDOT
  0
LAYER
  5
38
330
2
100
AcDbSymbolTableRecord
100
AcDbLayerTableRecord
  2
19
 70
     0
 62
     7
  6
CONTINOUS
  0
LAYER
  5
3C
330
2
100
AcDbSymbolTableRecord
100
AcDbLayerTableRecord
  2
11
 70
     0
 62
     1
  6
CONTINOUS
  0
LAYER
  5
3D
330
2
100
AcDbSymbolTableRecord
100
AcDbLayerTableRecord
  2
24
 70
     0
 62
     2
  6
CONTINOUS
  0
LAYER
  5
3A2
330
2
100
AcDbSymbolTableRecord
100
AcDbLayerTableRecord
  2
30
 70
     0
 62
     9
  6
CONTINUOUS
  0
LAYER
  5
3A4
330
2
100
AcDbSymbolTableRecord
100
AcDbLayerTableRecord
  2
DEFPOINTS
 70
     0
 62
     7
  6
CONTINUOUS
  0
LAYER
  5
3BBA
330
2
100
AcDbSymbolTableRecord
100
AcDbLayerTableRecord
  2
18
 70
     0
 62
     5
  6
DIVIDE
  0
LAYER
  5
5D4D
330
2
100
AcDbSymbolTableRecord
100
AcDbLayerTableRecord
  2
17
 70
     0
 62
     2
  6
DASHDOT
  0
LAYER
  5
6CA2
330
2
100
AcDbSymbolTableRecord
100
AcDbLayerTableRecord
  2
L0_
 70
     0
 62
     7
  6
CONTINUOUS
  0
LAYER
  5
6CA3
330
2
100
AcDbSymbolTableRecord
100
AcDbLayerTableRecord
  2
L150_
 70
     0
 62
     7
  6
CONTINUOUS
  0
LAYER
  5
6CA4
330
2
100
AcDbSymbolTableRecord
100
AcDbLayerTableRecord
  2
L225_
 70
     0
 62
     7
  6
CONTINUOUS
  0
LAYER
  5
6CA5
330
2
100
AcDbSymbolTableRecord
100
AcDbLayerTableRecord
  2
L230_
 70
     0
 62
     7
  6
CONTINUOUS
  0
LAYER
  5
6FFE
330
2
100
AcDbSymbolTableRecord
100
AcDbLayerTableRecord
  2
L210_
 70
     0
 62
     7
  6
CONTINUOUS
  0
LAYER
  5
7598
330
2
100
AcDbSymbolTableRecord
100
AcDbLayerTableRecord
  2
L10_
 70
     0
 62
     7
  6
CONTINUOUS
  0
LAYER
  5
7599
330
2
100
AcDbSymbolTableRecord
100
AcDbLayerTableRecord
  2
L170_
 70
     0
 62
     7
  6
CONTINUOUS
  0
ENDTAB
  0
TABLE
  2
STYLE
  5
3
330
0
100
AcDbSymbolTable
 70
     4
  0
STYLE
  5
11
330
3
100
AcDbSymbolTableRecord
100
AcDbTextStyleTableRecord
  2
STANDARD
 70
     0
 40
0.0
 41
1.0
 50
0.0
 71
     0
 42
2.0
  3
simplex.shx
  4
bigfont.shx
  0
STYLE
  5
42
330
3
100
AcDbSymbolTableRecord
100
AcDbTextStyleTableRecord
  2
STANDARD1
 70
     0
 40
0.0
 41
1.0
 50
0.0
 71
     0
 42
5.0
  3
simplex.shx
  4
BIGFONT.shx
  0
STYLE
  5
6CA6
330
3
100
AcDbSymbolTableRecord
100
AcDbTextStyleTableRecord
  2
SYMBOL3
 70
     0
 40
0.0
 41
1.0
 50
0.0
 71
     0
 42
0.2
  3
iges1003
  4

  0
STYLE
  5
759A
330
3
100
AcDbSymbolTableRecord
100
AcDbTextStyleTableRecord
  2
LEROY
 70
     0
 40
0.0
 41
1.0
 50
0.0
 71
     0
 42
0.2
  3
txt
  4

  0
ENDTAB
  0
TABLE
  2
VIEW
  5
6
330
0
100
AcDbSymbolTable
 70
     3
  0
VIEW
  5
230C
330
6
100
AcDbSymbolTableRecord
100
AcDbViewTableRecord
  2
OLE1
 70
     0
 40
148.9124878027715
 10
429.4976280407224
 20
2.560626997828478
 41
103.1458057716445
 11
0.0
 21
0.0
 31
1.0
 12
0.0
 22
0.0
 32
0.0
 42
50.0
 43
0.0
 44
0.0
 50
0.0
 71
     0
  0
VIEW
  5
230E
330
6
100
AcDbSymbolTableRecord
100
AcDbViewTableRecord
  2
OLE2
 70
     0
 40
170.7786920545776
 10
322.664969958371
 20
-5.978304054290276
 41
102.4672152327465
 11
0.0
 21
0.0
 31
1.0
 12
0.0
 22
0.0
 32
0.0
 42
50.0
 43
0.0
 44
0.0
 50
0.0
 71
     0
  0
VIEW
  5
23AA
330
6
100
AcDbSymbolTableRecord
100
AcDbViewTableRecord
  2
OLE3
 70
     0
 40
591.7897393182231
 10
84.79698158148218
 20
-46.09336010803997
 41
388.7920961799954
 11
0.0
 21
0.0
 31
1.0
 12
0.0
 22
0.0
 32
0.0
 42
50.0
 43
0.0
 44
0.0
 50
0.0
 71
     0
  0
ENDTAB
  0
TABLE
  2
UCS
  5
7
330
0
100
AcDbSymbolTable
 70
     0
  0
ENDTAB
  0
TABLE
  2
APPID
  5
9
330
0
100
AcDbSymbolTable
 70
     2
  0
APPID
  5
12
330
9
100
AcDbSymbolTableRecord
100
AcDbRegAppTableRecord
  2
ACAD
 70
     0
  0
APPID
  5
ECD
330
9
100
AcDbSymbolTableRecord
100
AcDbRegAppTableRecord
  2
CONTENTBLOCKICON
 70
     0
  0
ENDTAB
  0
TABLE
  2
DIMSTYLE
  5
A
330
0
100
AcDbSymbolTable
 70
     1
  0
DIMSTYLE
105
175
102
{ACAD_REACTORS
330
6EC8
330
6F3C
330
6F52
330
6F5F
330
6FA5
330
6FB2
330
768D
330
772D
330
773A
330
7902
330
790F
330
791C
330
7929
330
7948
330
7955
330
7A29
330
7A36
330
7A43
330
7A7A
330
7A87
330
7A94
330
7AA1
330
7AAE
330
7AC8
330
7AD5
330
7AE2
330
7AEF
330
7AFC
330
7B36
330
7B43
330
7B50
330
7B6A
330
7B77
330
7B84
330
7B91
102
}
330
A
100
AcDbSymbolTableRecord
100
AcDbDimStyleTableRecord
  2
STANDARD
 70
     0
  3

  4

  5
OPEN
  6

  7

 40
1.0
 41
2.0
 42
1.0
 43
0.5
 44
0.5
 45
0.0
 46
0.0
 47
0.0
 48
0.0
140
5.0
141
0.09
142
0.0
143
25.4
144
1.0
145
0.0
146
1.0
147
1.0
 71
     0
 72
     0
 73
     0
 74
     1
 75
     0
 76
     0
 77
     3
 78
    12
170
     0
171
     2
172
     0
173
     0
174
     0
175
     0
176
     0
177
     0
178
     0
270
     2
271
     1
272
     1
273
     2
274
     2
340
11
275
     0
280
     0
281
     0
282
     0
283
     1
284
     0
285
     0
286
     0
287
     3
288
     0
  0
ENDTAB
  0
TABLE
  2
BLOCK_RECORD
  5
1
330
0
100
AcDbSymbolTable
 70
    41
  0
BLOCK_RECORD
  5
1E
102
{ACAD_XDICTIONARY
360
178
102
}
330
1
100
AcDbSymbolTableRecord
100
AcDbBlockTableRecord
  2
*MODEL_SPACE
  0
BLOCK_RECORD
  5
1A
102
{ACAD_XDICTIONARY
360
17A
102
}
330
1
100
AcDbSymbolTableRecord
100
AcDbBlockTableRecord
  2
*PAPER_SPACE
  0
BLOCK_RECORD
  5
3B2
330
1
100
AcDbSymbolTableRecord
100
AcDbBlockTableRecord
  2
_OPEN
  0
BLOCK_RECORD
  5
6EC9
330
1
100
AcDbSymbolTableRecord
100
AcDbBlockTableRecord
  2
*D1
  0
BLOCK_RECORD
  5
6F3D
330
1
100
AcDbSymbolTableRecord
100
AcDbBlockTableRecord
  2
*D2
  0
BLOCK_RECORD
  5
6F53
330
1
100
AcDbSymbolTableRecord
100
AcDbBlockTableRecord
  2
*D3
  0
BLOCK_RECORD
  5
6F60
330
1
100
AcDbSymbolTableRecord
100
AcDbBlockTableRecord
  2
*D4
  0
BLOCK_RECORD
  5
6FA6
330
1
100
AcDbSymbolTableRecord
100
AcDbBlockTableRecord
  2
*D5
  0
BLOCK_RECORD
  5
6FB3
330
1
100
AcDbSymbolTableRecord
100
AcDbBlockTableRecord
  2
*D6
  0
BLOCK_RECORD
  5
7586
330
1
100
AcDbSymbolTableRecord
100
AcDbBlockTableRecord
  2
B4263
  0
BLOCK_RECORD
  5
758B
330
1
100
AcDbSymbolTableRecord
100
AcDbBlockTableRecord
  2
*D8
  0
BLOCK_RECORD
  5
7593
330
1
100
AcDbSymbolTableRecord
100
AcDbBlockTableRecord
  2
B4267
  0
BLOCK_RECORD
  5
768E
330
1
100
AcDbSymbolTableRecord
100
AcDbBlockTableRecord
  2
*D10
  0
BLOCK_RECORD
  5
772E
330
1
100
AcDbSymbolTableRecord
100
AcDbBlockTableRecord
  2
*D12
  0
BLOCK_RECORD
  5
773B
330
1
100
AcDbSymbolTableRecord
100
AcDbBlockTableRecord
  2
*D13
  0
BLOCK_RECORD
  5
7903
330
1
100
AcDbSymbolTableRecord
100
AcDbBlockTableRecord
  2
*D14
  0
BLOCK_RECORD
  5
7910
330
1
100
AcDbSymbolTableRecord
100
AcDbBlockTableRecord
  2
*D15
  0
BLOCK_RECORD
  5
791D
330
1
100
AcDbSymbolTableRecord
100
AcDbBlockTableRecord
  2
*D16
  0
BLOCK_RECORD
  5
792A
330
1
100
AcDbSymbolTableRecord
100
AcDbBlockTableRecord
  2
*D17
  0
BLOCK_RECORD
  5
7949
330
1
100
AcDbSymbolTableRecord
100
AcDbBlockTableRecord
  2
*D18
  0
BLOCK_RECORD
  5
7956
330
1
100
AcDbSymbolTableRecord
100
AcDbBlockTableRecord
  2
*D19
  0
BLOCK_RECORD
  5
7963
330
1
100
AcDbSymbolTableRecord
100
AcDbBlockTableRecord
  2
A$C6723354B
  0
BLOCK_RECORD
  5
7A2A
330
1
100
AcDbSymbolTableRecord
100
AcDbBlockTableRecord
  2
*D21
  0
BLOCK_RECORD
  5
7A37
330
1
100
AcDbSymbolTableRecord
100
AcDbBlockTableRecord
  2
*D22
  0
BLOCK_RECORD
  5
7A44
330
1
100
AcDbSymbolTableRecord
100
AcDbBlockTableRecord
  2
*D23
  0
BLOCK_RECORD
  5
7A7B
330
1
100
AcDbSymbolTableRecord
100
AcDbBlockTableRecord
  2
*D24
  0
BLOCK_RECORD
  5
7A88
330
1
100
AcDbSymbolTableRecord
100
AcDbBlockTableRecord
  2
*D25
  0
BLOCK_RECORD
  5
7A95
330
1
100
AcDbSymbolTableRecord
100
AcDbBlockTableRecord
  2
*D26
  0
BLOCK_RECORD
  5
7AA2
330
1
100
AcDbSymbolTableRecord
100
AcDbBlockTableRecord
  2
*D27
  0
BLOCK_RECORD
  5
7AAF
330
1
100
AcDbSymbolTableRecord
100
AcDbBlockTableRecord
  2
*D28
  0
BLOCK_RECORD
  5
7AC9
330
1
100
AcDbSymbolTableRecord
100
AcDbBlockTableRecord
  2
*D29
  0
BLOCK_RECORD
  5
7AD6
330
1
100
AcDbSymbolTableRecord
100
AcDbBlockTableRecord
  2
*D30
  0
BLOCK_RECORD
  5
7AE3
330
1
100
AcDbSymbolTableRecord
100
AcDbBlockTableRecord
  2
*D31
  0
BLOCK_RECORD
  5
7AF0
330
1
100
AcDbSymbolTableRecord
100
AcDbBlockTableRecord
  2
*D32
  0
BLOCK_RECORD
  5
7AFD
330
1
100
AcDbSymbolTableRecord
100
AcDbBlockTableRecord
  2
*D33
  0
BLOCK_RECORD
  5
7B37
330
1
100
AcDbSymbolTableRecord
100
AcDbBlockTableRecord
  2
*D34
  0
BLOCK_RECORD
  5
7B44
330
1
100
AcDbSymbolTableRecord
100
AcDbBlockTableRecord
  2
*D35
  0
BLOCK_RECORD
  5
7B51
330
1
100
AcDbSymbolTableRecord
100
AcDbBlockTableRecord
  2
*D36
  0
BLOCK_RECORD
  5
7B6B
330
1
100
AcDbSymbolTableRecord
100
AcDbBlockTableRecord
  2
*D37
  0
BLOCK_RECORD
  5
7B78
330
1
100
AcDbSymbolTableRecord
100
AcDbBlockTableRecord
  2
*D38
  0
BLOCK_RECORD
  5
7B85
330
1
100
AcDbSymbolTableRecord
100
AcDbBlockTableRecord
  2
*D39
  0
BLOCK_RECORD
  5
7B92
330
1
100
AcDbSymbolTableRecord
100
AcDbBlockTableRecord
  2
*D40
  0
ENDTAB
  0
ENDSEC
  0
SECTION
  2
BLOCKS
  0
BLOCK
  5
1F
330
1E
100
AcDbEntity
  8
0
100
AcDbBlockBegin
  2
*MODEL_SPACE
 70
     0
 10
0.0
 20
0.0
 30
0.0
  3
*MODEL_SPACE
  1

  0
ENDBLK
  5
20
330
1E
100
AcDbEntity
  8
0
100
AcDbBlockEnd
  0
BLOCK
  5
1B
330
1A
100
AcDbEntity
 67
     1
  8
0
100
AcDbBlockBegin
  2
*PAPER_SPACE
 70
     0
 10
0.0
 20
0.0
 30
0.0
  3
*PAPER_SPACE
  1

  0
ENDBLK
  5
1C
330
1A
100
AcDbEntity
 67
     1
  8
0
100
AcDbBlockEnd
  0
BLOCK
  5
3B6
330
3B2
100
AcDbEntity
  8
0
100
AcDbBlockBegin
  2
_OPEN
 70
     0
 10
0.0
 20
0.0
 30
0.0
  3
_OPEN
  1

  0
LINE
  5
3B3
330
3B2
100
AcDbEntity
  8
30
  6
CONTINUOUS
 62
     0
100
AcDbLine
 10
-1.0
 20
0.1666666666666666
 30
0.0
 11
0.0
 21
0.0
 31
0.0
  0
LINE
  5
3B4
330
3B2
100
AcDbEntity
  8
30
  6
CONTINUOUS
 62
     0
100
AcDbLine
 10
-1.0
 20
-0.1666666666666666
 30
0.0
 11
0.0
 21
0.0
 31
0.0
  0
LINE
  5
3B5
330
3B2
100
AcDbEntity
  8
30
  6
CONTINUOUS
 62
     0
100
AcDbLine
 10
0.0
 20
0.0
 30
0.0
 11
-1.0
 21
0.0
 31
0.0
  0
ENDBLK
  5
3B7
330
3B2
100
AcDbEntity
  8
0
100
AcDbBlockEnd
  0
BLOCK
  5
6ED3
330
6EC9
100
AcDbEntity
  8
0
100
AcDbBlockBegin
  2
*D1
 70
     1
 10
0.0
 20
0.0
 30
0.0
  3
*D1
  1

  0
LINE
  5
6F81
330
6EC9
100
AcDbEntity
  8
30
  6
CONTINUOUS
 62
     0
100
AcDbLine
 10
178.7658861626475
 20
-1.0
 30
0.0
 11
178.7658861626475
 21
-210.0853277737153
 31
0.0
  0
LINE
  5
6F82
330
6EC9
100
AcDbEntity
  8
30
  6
CONTINUOUS
 62
     0
100
AcDbLine
 10
323.8083619458902
 20
-148.0
 30
0.0
 11
323.8083619458902
 21
-210.0853277737153
 31
0.0
  0
LINE
  5
6F83
330
6EC9
100
AcDbEntity
  8
30
  6
CONTINUOUS
 62
     0
100
AcDbLine
 10
180.7658861626475
 20
-209.5853277737153
 30
0.0
 11
321.8083619458902
 21
-209.5853277737153
 31
0.0
  0
INSERT
  5
6F84
330
6EC9
100
AcDbEntity
  8
30
  6
CONTINUOUS
 62
     0
100
AcDbBlockReference
  2
_OPEN
 10
178.7658861626475
 20
-209.5853277737153
 30
0.0
 41
2.0
 42
2.0
 43
2.0
 50
180.0
  0
INSERT
  5
6F85
330
6EC9
100
AcDbEntity
  8
30
  6
CONTINUOUS
 62
     0
100
AcDbBlockReference
  2
_OPEN
 10
323.8083619458902
 20
-209.5853277737153
 30
0.0
 41
2.0
 42
2.0
 43
2.0
  0
MTEXT
  5
6F86
330
6EC9
100
AcDbEntity
  8
30
  6
CONTINUOUS
 62
     0
100
AcDbMText
 10
251.2871240542688
 20
-206.0853277737153
 30
0.0
 40
5.0
 41
0.0
 71
     5
 72
     1
  1
\A1;145
1001
ACAD
1000
MTEXTBEGIN
1070
    73
1070
     1
1070
    44
1040
1.0
1070
    74
1070
     0
1000
MTEXTEND
  0
POINT
  5
6F87
330
6EC9
100
AcDbEntity
  8
DEFPOINTS
  6
CONTINUOUS
 62
     0
100
AcDbPoint
 10
178.7658861626475
 20
0.0
 30
0.0
  0
POINT
  5
6F88
330
6EC9
100
AcDbEntity
  8
DEFPOINTS
  6
CONTINUOUS
 62
     0
100
AcDbPoint
 10
323.8083619458902
 20
-147.0
 30
0.0
  0
POINT
  5
6F89
330
6EC9
100
AcDbEntity
  8
DEFPOINTS
  6
CONTINUOUS
 62
     0
100
AcDbPoint
 10
323.8083619458902
 20
-209.5853277737153
 30
0.0
  0
ENDBLK
  5
6ED4
330
6EC9
100
AcDbEntity
  8
0
100
AcDbBlockEnd
  0
BLOCK
  5
6F47
330
6F3D
100
AcDbEntity
  8
0
100
AcDbBlockBegin
  2
*D2
 70
     1
 10
0.0
 20
0.0
 30
0.0
  3
*D2
  1

  0
LINE
  5
6F8A
330
6F3D
100
AcDbEntity
  8
30
  6
CONTINUOUS
 62
     0
100
AcDbLine
 10
220.8083619458903
 20
-107.9997558594
 30
0.0
 11
220.8083619458903
 21
-192.5387863989474
 31
0.0
  0
LINE
  5
6F8B
330
6F3D
100
AcDbEntity
  8
30
  6
CONTINUOUS
 62
     0
100
AcDbLine
 10
341.8084840162903
 20
-86.0
 30
0.0
 11
341.8084840162903
 21
-192.5387863989474
 31
0.0
  0
LINE
  5
6F8C
330
6F3D
100
AcDbEntity
  8
30
  6
CONTINUOUS
 62
     0
100
AcDbLine
 10
222.8083619458903
 20
-192.0387863989474
 30
0.0
 11
339.8084840162903
 21
-192.0387863989474
 31
0.0
  0
INSERT
  5
6F8D
330
6F3D
100
AcDbEntity
  8
30
  6
CONTINUOUS
 62
     0
100
AcDbBlockReference
  2
_OPEN
 10
220.8083619458903
 20
-192.0387863989474
 30
0.0
 41
2.0
 42
2.0
 43
2.0
 50
180.0
  0
INSERT
  5
6F8E
330
6F3D
100
AcDbEntity
  8
30
  6
CONTINUOUS
 62
     0
100
AcDbBlockReference
  2
_OPEN
 10
341.8084840162903
 20
-192.0387863989474
 30
0.0
 41
2.0
 42
2.0
 43
2.0
  0
MTEXT
  5
6F8F
330
6F3D
100
AcDbEntity
  8
30
  6
CONTINUOUS
 62
     0
100
AcDbMText
 10
281.3084229810903
 20
-188.5387863989474
 30
0.0
 40
5.0
 41
0.0
 71
     5
 72
     1
  1
\A1;121
1001
ACAD
1000
MTEXTBEGIN
1070
    73
1070
     1
1070
    44
1040
1.0
1070
    74
1070
     0
1000
MTEXTEND
  0
POINT
  5
6F90
330
6F3D
100
AcDbEntity
  8
DEFPOINTS
  6
CONTINUOUS
 62
     0
100
AcDbPoint
 10
220.8083619458903
 20
-106.9997558594
 30
0.0
  0
POINT
  5
6F91
330
6F3D
100
AcDbEntity
  8
DEFPOINTS
  6
CONTINUOUS
 62
     0
100
AcDbPoint
 10
341.8084840162903
 20
-85.0
 30
0.0
  0
POINT
  5
6F92
330
6F3D
100
AcDbEntity
  8
DEFPOINTS
  6
CONTINUOUS
 62
     0
100
AcDbPoint
 10
341.8084840162903
 20
-192.0387863989474
 30
0.0
  0
ENDBLK
  5
6F48
330
6F3D
100
AcDbEntity
  8
0
100
AcDbBlockEnd
  0
BLOCK
  5
6F5D
330
6F53
100
AcDbEntity
  8
0
100
AcDbBlockBegin
  2
*D3
 70
     1
 10
0.0
 20
0.0
 30
0.0
  3
*D3
  1

  0
LINE
  5
7DE4
330
6F53
100
AcDbEntity
  8
30
  6
CONTINUOUS
 62
     0
100
AcDbLine
 10
341.8084840162903
 20
-86.0
 30
0.0
 11
341.8084840162903
 21
-192.5387863989474
 31
0.0
  0
LINE
  5
7DE5
330
6F53
100
AcDbEntity
  8
30
  6
CONTINUOUS
 62
     0
100
AcDbLine
 10
403.8084840162903
 20
-148.0
 30
0.0
 11
403.8084840162903
 21
-192.5387863989474
 31
0.0
  0
LINE
  5
7DE6
330
6F53
100
AcDbEntity
  8
30
  6
CONTINUOUS
 62
     0
100
AcDbLine
 10
343.8084840162903
 20
-192.0387863989474
 30
0.0
 11
401.8084840162903
 21
-192.0387863989474
 31
0.0
  0
INSERT
  5
7DE7
330
6F53
100
AcDbEntity
  8
30
  6
CONTINUOUS
 62
     0
100
AcDbBlockReference
  2
_OPEN
 10
341.8084840162903
 20
-192.0387863989474
 30
0.0
 41
2.0
 42
2.0
 43
2.0
 50
180.0
  0
INSERT
  5
7DE8
330
6F53
100
AcDbEntity
  8
30
  6
CONTINUOUS
 62
     0
100
AcDbBlockReference
  2
_OPEN
 10
403.8084840162903
 20
-192.0387863989474
 30
0.0
 41
2.0
 42
2.0
 43
2.0
  0
MTEXT
  5
7DE9
330
6F53
100
AcDbEntity
  8
30
  6
CONTINUOUS
 62
     0
100
AcDbMText
 10
372.8084840162903
 20
-188.5387863989474
 30
0.0
 40
5.0
 41
0.0
 71
     5
 72
     1
  1
\A1;62
  0
POINT
  5
7DEA
330
6F53
100
AcDbEntity
  8
DEFPOINTS
  6
CONTINUOUS
 62
     0
100
AcDbPoint
 10
341.8084840162903
 20
-85.0
 30
0.0
  0
POINT
  5
7DEB
330
6F53
100
AcDbEntity
  8
DEFPOINTS
  6
CONTINUOUS
 62
     0
100
AcDbPoint
 10
403.8084840162903
 20
-147.0
 30
0.0
  0
POINT
  5
7DEC
330
6F53
100
AcDbEntity
  8
DEFPOINTS
  6
CONTINUOUS
 62
     0
100
AcDbPoint
 10
403.8084840162903
 20
-192.0387863989474
 30
0.0
  0
ENDBLK
  5
6F5E
330
6F53
100
AcDbEntity
  8
0
100
AcDbBlockEnd
  0
BLOCK
  5
6F6A
330
6F60
100
AcDbEntity
  8
0
100
AcDbBlockBegin
  2
*D4
 70
     1
 10
0.0
 20
0.0
 30
0.0
  3
*D4
  1

  0
LINE
  5
7DED
330
6F60
100
AcDbEntity
  8
30
  6
CONTINUOUS
 62
     0
100
AcDbLine
 10
403.8084840162903
 20
-148.0
 30
0.0
 11
403.8084840162903
 21
-192.5387863989474
 31
0.0
  0
LINE
  5
7DEE
330
6F60
100
AcDbEntity
  8
30
  6
CONTINUOUS
 62
     0
100
AcDbLine
 10
433.8084840162903
 20
-125.9997558594
 30
0.0
 11
433.8084840162903
 21
-192.5387863989474
 31
0.0
  0
LINE
  5
7DEF
330
6F60
100
AcDbEntity
  8
30
  6
CONTINUOUS
 62
     0
100
AcDbLine
 10
405.8084840162903
 20
-192.0387863989474
 30
0.0
 11
431.8084840162903
 21
-192.0387863989474
 31
0.0
  0
INSERT
  5
7DF0
330
6F60
100
AcDbEntity
  8
30
  6
CONTINUOUS
 62
     0
100
AcDbBlockReference
  2
_OPEN
 10
403.8084840162903
 20
-192.0387863989474
 30
0.0
 41
2.0
 42
2.0
 43
2.0
 50
180.0
  0
INSERT
  5
7DF1
330
6F60
100
AcDbEntity
  8
30
  6
CONTINUOUS
 62
     0
100
AcDbBlockReference
  2
_OPEN
 10
433.8084840162903
 20
-192.0387863989474
 30
0.0
 41
2.0
 42
2.0
 43
2.0
  0
MTEXT
  5
7DF2
330
6F60
100
AcDbEntity
  8
30
  6
CONTINUOUS
 62
     0
100
AcDbMText
 10
418.8084840162903
 20
-188.5387863989474
 30
0.0
 40
5.0
 41
0.0
 71
     5
 72
     1
  1
\A1;30
  0
POINT
  5
7DF3
330
6F60
100
AcDbEntity
  8
DEFPOINTS
  6
CONTINUOUS
 62
     0
100
AcDbPoint
 10
403.8084840162903
 20
-147.0
 30
0.0
  0
POINT
  5
7DF4
330
6F60
100
AcDbEntity
  8
DEFPOINTS
  6
CONTINUOUS
 62
     0
100
AcDbPoint
 10
433.8084840162903
 20
-124.9997558594
 30
0.0
  0
POINT
  5
7DF5
330
6F60
100
AcDbEntity
  8
DEFPOINTS
  6
CONTINUOUS
 62
     0
100
AcDbPoint
 10
433.8084840162903
 20
-192.0387863989474
 30
0.0
  0
ENDBLK
  5
6F6B
330
6F60
100
AcDbEntity
  8
0
100
AcDbBlockEnd
  0
BLOCK
  5
6FB0
330
6FA6
100
AcDbEntity
  8
0
100
AcDbBlockBegin
  2
*D5
 70
     1
 10
0.0
 20
0.0
 30
0.0
  3
*D5
  1

  0
LINE
  5
7DAC
330
6FA6
100
AcDbEntity
  8
30
  6
CONTINUOUS
 62
     0
100
AcDbLine
 10
433.8084840162903
 20
-126.9997558594
 30
0.0
 11
433.8084840162903
 21
-175.5972965716073
 31
0.0
  0
LINE
  5
7DAD
330
6FA6
100
AcDbEntity
  8
30
  6
CONTINUOUS
 62
     0
100
AcDbLine
 10
388.8084840162903
 20
-134.9997558594
 30
0.0
 11
388.8084840162903
 21
-175.5972965716073
 31
0.0
  0
LINE
  5
7DAE
330
6FA6
100
AcDbEntity
  8
30
  6
CONTINUOUS
 62
     0
100
AcDbLine
 10
431.8084840162903
 20
-175.0972965716073
 30
0.0
 11
390.8084840162903
 21
-175.0972965716073
 31
0.0
  0
INSERT
  5
7DAF
330
6FA6
100
AcDbEntity
  8
30
  6
CONTINUOUS
 62
     0
100
AcDbBlockReference
  2
_OPEN
 10
433.8084840162903
 20
-175.0972965716073
 30
0.0
 41
2.0
 42
2.0
 43
2.0
  0
INSERT
  5
7DB0
330
6FA6
100
AcDbEntity
  8
30
  6
CONTINUOUS
 62
     0
100
AcDbBlockReference
  2
_OPEN
 10
388.8084840162903
 20
-175.0972965716073
 30
0.0
 41
2.0
 42
2.0
 43
2.0
 50
180.0
  0
MTEXT
  5
7DB1
330
6FA6
100
AcDbEntity
  8
30
  6
CONTINUOUS
 62
     0
100
AcDbMText
 10
411.3084840162903
 20
-171.5972965716073
 30
0.0
 40
5.0
 41
0.0
 71
     5
 72
     1
  1
\A1;45
1001
ACAD
1000
MTEXTBEGIN
1070
    73
1070
     1
1070
    44
1040
1.0
1070
    74
1070
     0
1000
MTEXTEND
  0
POINT
  5
7DB2
330
6FA6
100
AcDbEntity
  8
DEFPOINTS
  6
CONTINUOUS
 62
     0
100
AcDbPoint
 10
433.8084840162903
 20
-125.9997558594
 30
0.0
  0
POINT
  5
7DB3
330
6FA6
100
AcDbEntity
  8
DEFPOINTS
  6
CONTINUOUS
 62
     0
100
AcDbPoint
 10
388.8084840162903
 20
-133.9997558594
 30
0.0
  0
POINT
  5
7DB4
330
6FA6
100
AcDbEntity
  8
DEFPOINTS
  6
CONTINUOUS
 62
     0
100
AcDbPoint
 10
388.8084840162903
 20
-175.0972965716073
 30
0.0
  0
ENDBLK
  5
6FB1
330
6FA6
100
AcDbEntity
  8
0
100
AcDbBlockEnd
  0
BLOCK
  5
6FBD
330
6FB3
100
AcDbEntity
  8
0
100
AcDbBlockBegin
  2
*D6
 70
     1
 10
0.0
 20
0.0
 30
0.0
  3
*D6
  1

  0
LINE
  5
7DF6
330
6FB3
100
AcDbEntity
  8
30
  6
CONTINUOUS
 62
     0
100
AcDbLine
 10
388.8084840162903
 20
-134.9997558594
 30
0.0
 11
388.8084840162903
 21
-175.5972965716073
 31
0.0
  0
LINE
  5
7DF7
330
6FB3
100
AcDbEntity
  8
30
  6
CONTINUOUS
 62
     0
100
AcDbLine
 10
341.8084840162903
 20
-148.0
 30
0.0
 11
341.8084840162903
 21
-175.5972965716073
 31
0.0
  0
LINE
  5
7DF8
330
6FB3
100
AcDbEntity
  8
30
  6
CONTINUOUS
 62
     0
100
AcDbLine
 10
386.8084840162903
 20
-175.0972965716073
 30
0.0
 11
343.8084840162903
 21
-175.0972965716073
 31
0.0
  0
INSERT
  5
7DF9
330
6FB3
100
AcDbEntity
  8
30
  6
CONTINUOUS
 62
     0
100
AcDbBlockReference
  2
_OPEN
 10
388.8084840162903
 20
-175.0972965716073
 30
0.0
 41
2.0
 42
2.0
 43
2.0
  0
INSERT
  5
7DFA
330
6FB3
100
AcDbEntity
  8
30
  6
CONTINUOUS
 62
     0
100
AcDbBlockReference
  2
_OPEN
 10
341.8084840162903
 20
-175.0972965716073
 30
0.0
 41
2.0
 42
2.0
 43
2.0
 50
180.0
  0
MTEXT
  5
7DFB
330
6FB3
100
AcDbEntity
  8
30
  6
CONTINUOUS
 62
     0
100
AcDbMText
 10
365.3084840162903
 20
-171.5972965716073
 30
0.0
 40
5.0
 41
0.0
 71
     5
 72
     1
  1
\A1;47
  0
POINT
  5
7DFC
330
6FB3
100
AcDbEntity
  8
DEFPOINTS
  6
CONTINUOUS
 62
     0
100
AcDbPoint
 10
388.8084840162903
 20
-133.9997558594
 30
0.0
  0
POINT
  5
7DFD
330
6FB3
100
AcDbEntity
  8
DEFPOINTS
  6
CONTINUOUS
 62
     0
100
AcDbPoint
 10
341.8084840162903
 20
-147.0
 30
0.0
  0
POINT
  5
7DFE
330
6FB3
100
AcDbEntity
  8
DEFPOINTS
  6
CONTINUOUS
 62
     0
100
AcDbPoint
 10
341.8084840162903
 20
-175.0972965716073
 30
0.0
  0
ENDBLK
  5
6FBE
330
6FB3
100
AcDbEntity
  8
0
100
AcDbBlockEnd
  0
BLOCK
  5
7589
330
7586
100
AcDbEntity
  8
L0_
  6
CONTINUOUS
100
AcDbBlockBegin
  2
B4263
 70
     0
 10
0.0
 20
0.0
 30
0.0
  3
B4263
  1

  0
TEXT
  5
7587
330
7586
100
AcDbEntity
  8
L0_
  6
CONTINUOUS
100
AcDbText
 10
4001.9963378906
 20
1137.0513916016
 30
0.0
 40
15.0
  1
n
 41
2.30859375
  7
SYMBOL3
 72
     5
 11
4024.4963378906
 21
1137.0513916016
 31
0.0
100
AcDbText
 73
     2
  0
TEXT
  5
7588
330
7586
100
AcDbEntity
  8
L0_
  6
CONTINUOUS
100
AcDbText
 10
4024.4963378906
 20
1137.0513916016
 30
0.0
 40
15.0
  1
11
 41
0.7695312500000001
  7
SYMBOL3
 72
     5
 11
4039.496337890599
 21
1137.0513916016
 31
0.0
100
AcDbText
 73
     2
  0
ENDBLK
  5
758A
330
7586
100
AcDbEntity
  8
L0_
  6
CONTINUOUS
100
AcDbBlockEnd
  0
BLOCK
  5
7591
330
758B
100
AcDbEntity
  8
0
100
AcDbBlockBegin
  2
*D8
 70
     1
 10
0.0
 20
0.0
 30
0.0
  3
*D8
  1

  0
LINE
  5
758C
330
758B
100
AcDbEntity
  8
0
  6
BYBLOCK
100
AcDbLine
 10
3936.775740999559
 20
1230.563257142436
 30
0.0
 11
3986.420356404038
 21
1125.693578069618
 31
0.0
  0
LINE
  5
758D
330
758B
100
AcDbEntity
  8
0
  6
BYBLOCK
100
AcDbLine
 10
3986.420356404038
 20
1125.693578069618
 30
0.0
 11
3986.510356404038
 21
1125.693578069618
 31
0.0
  0
SOLID
  5
758E
330
758B
100
AcDbEntity
  8
0
  6
BYBLOCK
100
AcDbTrace
 10
3934.516142255065
 20
1229.493577978442
 30
0.0
 11
3939.035339744053
 21
1231.632936306429
 31
0.0
 12
3930.3576660156
 22
1244.1208496094
 32
0.0
 13
3930.3576660156
 23
1244.1208496094
 33
0.0
  0
POINT
  5
758F
330
758B
100
AcDbEntity
  8
DEFPOINTS
  6
BYBLOCK
 62
     0
100
AcDbPoint
 10
3930.3576660156
 20
1244.1208496094
 30
0.0
  0
POINT
  5
7590
330
758B
100
AcDbEntity
  8
DEFPOINTS
  6
BYBLOCK
 62
     0
100
AcDbPoint
 10
3925.651123047
 20
1254.0629882812
 30
0.0
  0
ENDBLK
  5
7592
330
758B
100
AcDbEntity
  8
0
100
AcDbBlockEnd
  0
BLOCK
  5
7596
330
7593
100
AcDbEntity
  8
L210_
100
AcDbBlockBegin
  2
B4267
 70
     0
 10
0.0
 20
0.0
 30
0.0
  3
B4267
  1

  0
DIMENSION
  5
7594
330
7593
100
AcDbEntity
  8
L210_
100
AcDbDimension
  2
*D8
 10
3925.651123047
 20
1254.0629882812
 30
0.0
 11
4151.307128964743
 21
1353.683767869828
 31
0.0
 70
     3
  1
 
100
AcDbDiametricDimension
 15
3930.3576660156
 25
1244.1208496094
 35
0.0
 40
131.0268823484214
  0
INSERT
  5
7595
330
7593
100
AcDbEntity
  8
L0_
  6
CONTINUOUS
100
AcDbBlockReference
  2
B4263
 10
0.0
 20
0.0
 30
0.0
  0
ENDBLK
  5
7597
330
7593
100
AcDbEntity
  8
L210_
100
AcDbBlockEnd
  0
BLOCK
  5
7698
330
768E
100
AcDbEntity
  8
0
100
AcDbBlockBegin
  2
*D10
 70
     1
 10
0.0
 20
0.0
 30
0.0
  3
*D10
  1

  0
LINE
  5
7A17
330
768E
100
AcDbEntity
  8
30
  6
CONTINUOUS
 62
     0
100
AcDbLine
 10
368.5103814583543
 20
-514.6617850407571
 30
0.0
 11
368.5103814583543
 21
-602.9032371828188
 31
0.0
  0
LINE
  5
7A18
330
768E
100
AcDbEntity
  8
30
  6
CONTINUOUS
 62
     0
100
AcDbLine
 10
458.5103814583543
 20
-514.6617850407571
 30
0.0
 11
458.5103814583543
 21
-602.9032371828188
 31
0.0
  0
LINE
  5
7A19
330
768E
100
AcDbEntity
  8
30
  6
CONTINUOUS
 62
     0
100
AcDbLine
 10
370.5103814583543
 20
-602.4032371828188
 30
0.0
 11
456.5103814583543
 21
-602.4032371828188
 31
0.0
  0
INSERT
  5
7A1A
330
768E
100
AcDbEntity
  8
30
  6
CONTINUOUS
 62
     0
100
AcDbBlockReference
  2
_OPEN
 10
368.5103814583543
 20
-602.4032371828188
 30
0.0
 41
2.0
 42
2.0
 43
2.0
 50
180.0
  0
INSERT
  5
7A1B
330
768E
100
AcDbEntity
  8
30
  6
CONTINUOUS
 62
     0
100
AcDbBlockReference
  2
_OPEN
 10
458.5103814583543
 20
-602.4032371828188
 30
0.0
 41
2.0
 42
2.0
 43
2.0
  0
MTEXT
  5
7A1C
330
768E
100
AcDbEntity
  8
30
  6
CONTINUOUS
 62
     0
100
AcDbMText
 10
413.5103814583543
 20
-598.9032371828188
 30
0.0
 40
5.0
 41
0.0
 71
     5
 72
     1
  1
\A1;90
1001
ACAD
1000
MTEXTBEGIN
1070
    73
1070
     1
1070
    44
1040
1.0
1070
    74
1070
     0
1000
MTEXTEND
  0
POINT
  5
7A1D
330
768E
100
AcDbEntity
  8
DEFPOINTS
  6
CONTINUOUS
 62
     0
100
AcDbPoint
 10
368.5103814583543
 20
-513.6617850407572
 30
0.0
  0
POINT
  5
7A1E
330
768E
100
AcDbEntity
  8
DEFPOINTS
  6
CONTINUOUS
 62
     0
100
AcDbPoint
 10
458.5103814583543
 20
-513.6617850407572
 30
0.0
  0
POINT
  5
7A1F
330
768E
100
AcDbEntity
  8
DEFPOINTS
  6
CONTINUOUS
 62
     0
100
AcDbPoint
 10
458.5103814583543
 20
-602.4032371828188
 30
0.0
  0
ENDBLK
  5
7699
330
768E
100
AcDbEntity
  8
0
100
AcDbBlockEnd
  0
BLOCK
  5
7738
330
772E
100
AcDbEntity
  8
0
100
AcDbBlockBegin
  2
*D12
 70
     1
 10
0.0
 20
0.0
 30
0.0
  3
*D12
  1

  0
LINE
  5
7DB5
330
772E
100
AcDbEntity
  8
30
  6
CONTINUOUS
 62
     0
100
AcDbLine
 10
448.2020934949141
 20
126.0
 30
0.0
 11
462.4006415436197
 21
126.0
 31
0.0
  0
LINE
  5
7DB6
330
772E
100
AcDbEntity
  8
30
  6
CONTINUOUS
 62
     0
100
AcDbLine
 10
448.5596659380298
 20
-116.9997558594
 30
0.0
 11
462.4006415436197
 21
-116.9997558594
 31
0.0
  0
LINE
  5
7DB7
330
772E
100
AcDbEntity
  8
30
  6
CONTINUOUS
 62
     0
100
AcDbLine
 10
461.9006415436197
 20
124.0
 30
0.0
 11
461.9006415436197
 21
-114.9997558594
 31
0.0
  0
INSERT
  5
7DB8
330
772E
100
AcDbEntity
  8
30
  6
CONTINUOUS
 62
     0
100
AcDbBlockReference
  2
_OPEN
 10
461.9006415436197
 20
126.0
 30
0.0
 41
2.0
 42
2.0
 43
2.0
 50
90.0
  0
INSERT
  5
7DB9
330
772E
100
AcDbEntity
  8
30
  6
CONTINUOUS
 62
     0
100
AcDbBlockReference
  2
_OPEN
 10
461.9006415436197
 20
-116.9997558594
 30
0.0
 41
2.0
 42
2.0
 43
2.0
 50
270.0
  0
MTEXT
  5
7DBA
330
772E
100
AcDbEntity
  8
30
  6
CONTINUOUS
 62
     0
100
AcDbMText
 10
458.4006415436197
 20
4.500122070300065
 30
0.0
 40
5.0
 41
0.0
 71
     5
 72
     1
  1
\A1;243
 11
0.0000000000000001
 21
1.0
 31
0.0
1001
ACAD
1000
MTEXTBEGIN
1070
    73
1070
     1
1070
    44
1040
1.0
1070
    74
1070
     0
1000
MTEXTEND
  0
POINT
  5
7DBB
330
772E
100
AcDbEntity
  8
DEFPOINTS
  6
CONTINUOUS
 62
     0
100
AcDbPoint
 10
447.2020934949141
 20
126.0
 30
0.0
  0
POINT
  5
7DBC
330
772E
100
AcDbEntity
  8
DEFPOINTS
  6
CONTINUOUS
 62
     0
100
AcDbPoint
 10
447.5596659380299
 20
-116.9997558594
 30
0.0
  0
POINT
  5
7DBD
330
772E
100
AcDbEntity
  8
DEFPOINTS
  6
CONTINUOUS
 62
     0
100
AcDbPoint
 10
461.9006415436197
 20
-116.9997558594
 30
0.0
  0
ENDBLK
  5
7739
330
772E
100
AcDbEntity
  8
0
100
AcDbBlockEnd
  0
BLOCK
  5
7745
330
773B
100
AcDbEntity
  8
0
100
AcDbBlockBegin
  2
*D13
 70
     1
 10
0.0
 20
0.0
 30
0.0
  3
*D13
  1

  0
LINE
  5
7DA3
330
773B
100
AcDbEntity
  8
30
  6
CONTINUOUS
 62
     0
100
AcDbLine
 10
404.8084840162903
 20
156.0
 30
0.0
 11
488.5794829334737
 21
155.9999999999999
 31
0.0
  0
LINE
  5
7DA4
330
773B
100
AcDbEntity
  8
30
  6
CONTINUOUS
 62
     0
100
AcDbLine
 10
404.8084840162903
 20
-147.0
 30
0.0
 11
488.5794829334736
 21
-147.0
 31
0.0
  0
LINE
  5
7DA5
330
773B
100
AcDbEntity
  8
30
  6
CONTINUOUS
 62
     0
100
AcDbLine
 10
488.0794829334737
 20
153.9999999999999
 30
0.0
 11
488.0794829334736
 21
-145.0
 31
0.0
  0
INSERT
  5
7DA6
330
773B
100
AcDbEntity
  8
30
  6
CONTINUOUS
 62
     0
100
AcDbBlockReference
  2
_OPEN
 10
488.0794829334737
 20
155.9999999999999
 30
0.0
 41
2.0
 42
2.0
 43
2.0
 50
90.0
  0
INSERT
  5
7DA7
330
773B
100
AcDbEntity
  8
30
  6
CONTINUOUS
 62
     0
100
AcDbBlockReference
  2
_OPEN
 10
488.0794829334736
 20
-147.0
 30
0.0
 41
2.0
 42
2.0
 43
2.0
 50
270.0
  0
MTEXT
  5
7DA8
330
773B
100
AcDbEntity
  8
30
  6
CONTINUOUS
 62
     0
100
AcDbMText
 10
484.5794829334736
 20
4.500000000000055
 30
0.0
 40
5.0
 41
0.0
 71
     5
 72
     1
  1
\A1;303
 11
0.0000000000000001
 21
1.0
 31
0.0
1001
ACAD
1000
MTEXTBEGIN
1070
    73
1070
     1
1070
    44
1040
1.0
1070
    74
1070
     0
1000
MTEXTEND
  0
POINT
  5
7DA9
330
773B
100
AcDbEntity
  8
DEFPOINTS
  6
CONTINUOUS
 62
     0
100
AcDbPoint
 10
403.8084840162903
 20
156.0
 30
0.0
  0
POINT
  5
7DAA
330
773B
100
AcDbEntity
  8
DEFPOINTS
  6
CONTINUOUS
 62
     0
100
AcDbPoint
 10
403.8084840162903
 20
-147.0
 30
0.0
  0
POINT
  5
7DAB
330
773B
100
AcDbEntity
  8
DEFPOINTS
  6
CONTINUOUS
 62
     0
100
AcDbPoint
 10
488.0794829334736
 20
-147.0
 30
0.0
  0
ENDBLK
  5
7746
330
773B
100
AcDbEntity
  8
0
100
AcDbBlockEnd
  0
BLOCK
  5
790D
330
7903
100
AcDbEntity
  8
0
100
AcDbBlockBegin
  2
*D14
 70
     1
 10
0.0
 20
0.0
 30
0.0
  3
*D14
  1

  0
LINE
  5
7A05
330
7903
100
AcDbEntity
  8
30
  6
CONTINUOUS
 62
     0
100
AcDbLine
 10
-115.7304175574289
 20
-488.1529995289102
 30
0.0
 11
-115.7304175574289
 21
-478.2827194866131
 31
0.0
  0
LINE
  5
7A06
330
7903
100
AcDbEntity
  8
30
  6
CONTINUOUS
 62
     0
100
AcDbLine
 10
-25.73041755742896
 20
-488.7262417164102
 30
0.0
 11
-25.73041755742896
 21
-478.2827194866131
 31
0.0
  0
LINE
  5
7A07
330
7903
100
AcDbEntity
  8
30
  6
CONTINUOUS
 62
     0
100
AcDbLine
 10
-113.7304175574289
 20
-478.7827194866131
 30
0.0
 11
-27.73041755742896
 21
-478.7827194866131
 31
0.0
  0
INSERT
  5
7A08
330
7903
100
AcDbEntity
  8
30
  6
CONTINUOUS
 62
     0
100
AcDbBlockReference
  2
_OPEN
 10
-115.7304175574289
 20
-478.7827194866131
 30
0.0
 41
2.0
 42
2.0
 43
2.0
 50
180.0
  0
INSERT
  5
7A09
330
7903
100
AcDbEntity
  8
30
  6
CONTINUOUS
 62
     0
100
AcDbBlockReference
  2
_OPEN
 10
-25.73041755742896
 20
-478.7827194866131
 30
0.0
 41
2.0
 42
2.0
 43
2.0
  0
MTEXT
  5
7A0A
330
7903
100
AcDbEntity
  8
30
  6
CONTINUOUS
 62
     0
100
AcDbMText
 10
-70.73041755742896
 20
-475.2827194866131
 30
0.0
 40
5.0
 41
0.0
 71
     5
 72
     1
  1
\A1;90
1001
ACAD
1000
MTEXTBEGIN
1070
    73
1070
     1
1070
    44
1040
1.0
1070
    74
1070
     0
1000
MTEXTEND
  0
POINT
  5
7A0B
330
7903
100
AcDbEntity
  8
DEFPOINTS
  6
CONTINUOUS
 62
     0
100
AcDbPoint
 10
-115.7304175574289
 20
-489.1529995289102
 30
0.0
  0
POINT
  5
7A0C
330
7903
100
AcDbEntity
  8
DEFPOINTS
  6
CONTINUOUS
 62
     0
100
AcDbPoint
 10
-25.73041755742896
 20
-489.7262417164102
 30
0.0
  0
POINT
  5
7A0D
330
7903
100
AcDbEntity
  8
DEFPOINTS
  6
CONTINUOUS
 62
     0
100
AcDbPoint
 10
-25.73041755742896
 20
-478.7827194866131
 30
0.0
  0
ENDBLK
  5
790E
330
7903
100
AcDbEntity
  8
0
100
AcDbBlockEnd
  0
BLOCK
  5
791A
330
7910
100
AcDbEntity
  8
0
100
AcDbBlockBegin
  2
*D15
 70
     1
 10
0.0
 20
0.0
 30
0.0
  3
*D15
  1

  0
LINE
  5
79EA
330
7910
100
AcDbEntity
  8
30
  6
CONTINUOUS
 62
     0
100
AcDbLine
 10
-210.7304175574289
 20
-592.2118374195101
 30
0.0
 11
-210.7304175574289
 21
-610.6272432921214
 31
0.0
  0
LINE
  5
79EB
330
7910
100
AcDbEntity
  8
30
  6
CONTINUOUS
 62
     0
100
AcDbLine
 10
-140.7304175574289
 20
-592.2118374195101
 30
0.0
 11
-140.7304175574289
 21
-610.6272432921214
 31
0.0
  0
LINE
  5
79EC
330
7910
100
AcDbEntity
  8
30
  6
CONTINUOUS
 62
     0
100
AcDbLine
 10
-208.7304175574289
 20
-610.1272432921214
 30
0.0
 11
-142.7304175574289
 21
-610.1272432921214
 31
0.0
  0
INSERT
  5
79ED
330
7910
100
AcDbEntity
  8
30
  6
CONTINUOUS
 62
     0
100
AcDbBlockReference
  2
_OPEN
 10
-210.7304175574289
 20
-610.1272432921214
 30
0.0
 41
2.0
 42
2.0
 43
2.0
 50
180.0
  0
INSERT
  5
79EE
330
7910
100
AcDbEntity
  8
30
  6
CONTINUOUS
 62
     0
100
AcDbBlockReference
  2
_OPEN
 10
-140.7304175574289
 20
-610.1272432921214
 30
0.0
 41
2.0
 42
2.0
 43
2.0
  0
MTEXT
  5
79EF
330
7910
100
AcDbEntity
  8
30
  6
CONTINUOUS
 62
     0
100
AcDbMText
 10
-175.7304175574289
 20
-606.6272432921214
 30
0.0
 40
5.0
 41
0.0
 71
     5
 72
     1
  1
\A1;70
1001
ACAD
1000
MTEXTBEGIN
1070
    73
1070
     1
1070
    44
1040
1.0
1070
    74
1070
     0
1000
MTEXTEND
  0
POINT
  5
79F0
330
7910
100
AcDbEntity
  8
DEFPOINTS
  6
CONTINUOUS
 62
     0
100
AcDbPoint
 10
-210.7304175574289
 20
-591.2118374195101
 30
0.0
  0
POINT
  5
79F1
330
7910
100
AcDbEntity
  8
DEFPOINTS
  6
CONTINUOUS
 62
     0
100
AcDbPoint
 10
-140.7304175574289
 20
-591.2118374195101
 30
0.0
  0
POINT
  5
79F2
330
7910
100
AcDbEntity
  8
DEFPOINTS
  6
CONTINUOUS
 62
     0
100
AcDbPoint
 10
-140.7304175574289
 20
-610.1272432921214
 30
0.0
  0
ENDBLK
  5
791B
330
7910
100
AcDbEntity
  8
0
100
AcDbBlockEnd
  0
BLOCK
  5
7927
330
791D
100
AcDbEntity
  8
0
100
AcDbBlockBegin
  2
*D16
 70
     1
 10
0.0
 20
0.0
 30
0.0
  3
*D16
  1

  0
LINE
  5
7DFF
330
791D
100
AcDbEntity
  8
30
  6
CONTINUOUS
 62
     0
100
AcDbLine
 10
-140.7304175574289
 20
-592.2118374195101
 30
0.0
 11
-140.7304175574289
 21
-610.6272432921214
 31
0.0
  0
LINE
  5
7E00
330
791D
100
AcDbEntity
  8
30
  6
CONTINUOUS
 62
     0
100
AcDbLine
 10
-70.7369116980294
 20
-592.2118374195101
 30
0.0
 11
-70.7369116980294
 21
-610.6272432921214
 31
0.0
  0
LINE
  5
7E01
330
791D
100
AcDbEntity
  8
30
  6
CONTINUOUS
 62
     0
100
AcDbLine
 10
-138.7304175574289
 20
-610.1272432921214
 30
0.0
 11
-72.7369116980294
 21
-610.1272432921214
 31
0.0
  0
INSERT
  5
7E02
330
791D
100
AcDbEntity
  8
30
  6
CONTINUOUS
 62
     0
100
AcDbBlockReference
  2
_OPEN
 10
-140.7304175574289
 20
-610.1272432921214
 30
0.0
 41
2.0
 42
2.0
 43
2.0
 50
180.0
  0
INSERT
  5
7E03
330
791D
100
AcDbEntity
  8
30
  6
CONTINUOUS
 62
     0
100
AcDbBlockReference
  2
_OPEN
 10
-70.7369116980294
 20
-610.1272432921214
 30
0.0
 41
2.0
 42
2.0
 43
2.0
  0
MTEXT
  5
7E04
330
791D
100
AcDbEntity
  8
30
  6
CONTINUOUS
 62
     0
100
AcDbMText
 10
-105.7336646277291
 20
-606.6272432921214
 30
0.0
 40
5.0
 41
0.0
 71
     5
 72
     1
  1
\A1;70
  0
POINT
  5
7E05
330
791D
100
AcDbEntity
  8
DEFPOINTS
  6
CONTINUOUS
 62
     0
100
AcDbPoint
 10
-140.7304175574289
 20
-591.2118374195101
 30
0.0
  0
POINT
  5
7E06
330
791D
100
AcDbEntity
  8
DEFPOINTS
  6
CONTINUOUS
 62
     0
100
AcDbPoint
 10
-70.7369116980294
 20
-591.2118374195101
 30
0.0
  0
POINT
  5
7E07
330
791D
100
AcDbEntity
  8
DEFPOINTS
  6
CONTINUOUS
 62
     0
100
AcDbPoint
 10
-70.7369116980294
 20
-610.1272432921214
 30
0.0
  0
ENDBLK
  5
7928
330
791D
100
AcDbEntity
  8
0
100
AcDbBlockEnd
  0
BLOCK
  5
7934
330
792A
100
AcDbEntity
  8
0
100
AcDbBlockBegin
  2
*D17
 70
     1
 10
0.0
 20
0.0
 30
0.0
  3
*D17
  1

  0
LINE
  5
7E08
330
792A
100
AcDbEntity
  8
30
  6
CONTINUOUS
 62
     0
100
AcDbLine
 10
-70.7369116980294
 20
-592.2118374195101
 30
0.0
 11
-70.7369116980294
 21
-610.6272432921214
 31
0.0
  0
LINE
  5
7E09
330
792A
100
AcDbEntity
  8
30
  6
CONTINUOUS
 62
     0
100
AcDbLine
 10
-0.7304175574289645
 20
-592.2118374195101
 30
0.0
 11
-0.7304175574289657
 21
-610.6272432921214
 31
0.0
  0
LINE
  5
7E0A
330
792A
100
AcDbEntity
  8
30
  6
CONTINUOUS
 62
     0
100
AcDbLine
 10
-68.7369116980294
 20
-610.1272432921214
 30
0.0
 11
-2.730417557428965
 21
-610.1272432921214
 31
0.0
  0
INSERT
  5
7E0B
330
792A
100
AcDbEntity
  8
30
  6
CONTINUOUS
 62
     0
100
AcDbBlockReference
  2
_OPEN
 10
-70.7369116980294
 20
-610.1272432921214
 30
0.0
 41
2.0
 42
2.0
 43
2.0
 50
180.0
  0
INSERT
  5
7E0C
330
792A
100
AcDbEntity
  8
30
  6
CONTINUOUS
 62
     0
100
AcDbBlockReference
  2
_OPEN
 10
-0.7304175574289655
 20
-610.1272432921214
 30
0.0
 41
2.0
 42
2.0
 43
2.0
  0
MTEXT
  5
7E0D
330
792A
100
AcDbEntity
  8
30
  6
CONTINUOUS
 62
     0
100
AcDbMText
 10
-35.73366462772918
 20
-606.6272432921214
 30
0.0
 40
5.0
 41
0.0
 71
     5
 72
     1
  1
\A1;70
  0
POINT
  5
7E0E
330
792A
100
AcDbEntity
  8
DEFPOINTS
  6
CONTINUOUS
 62
     0
100
AcDbPoint
 10
-70.7369116980294
 20
-591.2118374195101
 30
0.0
  0
POINT
  5
7E0F
330
792A
100
AcDbEntity
  8
DEFPOINTS
  6
CONTINUOUS
 62
     0
100
AcDbPoint
 10
-0.7304175574289645
 20
-591.2118374195101
 30
0.0
  0
POINT
  5
7E10
330
792A
100
AcDbEntity
  8
DEFPOINTS
  6
CONTINUOUS
 62
     0
100
AcDbPoint
 10
-0.7304175574289655
 20
-610.1272432921214
 30
0.0
  0
ENDBLK
  5
7935
330
792A
100
AcDbEntity
  8
0
100
AcDbBlockEnd
  0
BLOCK
  5
7953
330
7949
100
AcDbEntity
  8
0
100
AcDbBlockBegin
  2
*D18
 70
     1
 10
0.0
 20
0.0
 30
0.0
  3
*D18
  1

  0
LINE
  5
79F3
330
7949
100
AcDbEntity
  8
30
  6
CONTINUOUS
 62
     0
100
AcDbLine
 10
-245.7304175574289
 20
-580.2118374195101
 30
0.0
 11
-245.7304175574289
 21
-633.5016665889079
 31
0.0
  0
LINE
  5
79F4
330
7949
100
AcDbEntity
  8
30
  6
CONTINUOUS
 62
     0
100
AcDbLine
 10
-70.7369116980294
 20
-611.6272432921213
 30
0.0
 11
-70.7369116980294
 21
-633.5016665889079
 31
0.0
  0
LINE
  5
79F5
330
7949
100
AcDbEntity
  8
30
  6
CONTINUOUS
 62
     0
100
AcDbLine
 10
-243.7304175574289
 20
-633.0016665889079
 30
0.0
 11
-72.7369116980294
 21
-633.0016665889079
 31
0.0
  0
INSERT
  5
79F6
330
7949
100
AcDbEntity
  8
30
  6
CONTINUOUS
 62
     0
100
AcDbBlockReference
  2
_OPEN
 10
-245.7304175574289
 20
-633.0016665889079
 30
0.0
 41
2.0
 42
2.0
 43
2.0
 50
180.0
  0
INSERT
  5
79F7
330
7949
100
AcDbEntity
  8
30
  6
CONTINUOUS
 62
     0
100
AcDbBlockReference
  2
_OPEN
 10
-70.7369116980294
 20
-633.0016665889079
 30
0.0
 41
2.0
 42
2.0
 43
2.0
  0
MTEXT
  5
79F8
330
7949
100
AcDbEntity
  8
30
  6
CONTINUOUS
 62
     0
100
AcDbMText
 10
-158.2336646277291
 20
-629.5016665889079
 30
0.0
 40
5.0
 41
0.0
 71
     5
 72
     1
  1
\A1;175
1001
ACAD
1000
MTEXTBEGIN
1070
    73
1070
     1
1070
    44
1040
1.0
1070
    74
1070
     0
1000
MTEXTEND
  0
POINT
  5
79F9
330
7949
100
AcDbEntity
  8
DEFPOINTS
  6
CONTINUOUS
 62
     0
100
AcDbPoint
 10
-245.7304175574289
 20
-579.2118374195101
 30
0.0
  0
POINT
  5
79FA
330
7949
100
AcDbEntity
  8
DEFPOINTS
  6
CONTINUOUS
 62
     0
100
AcDbPoint
 10
-70.7369116980294
 20
-610.6272432921214
 30
0.0
  0
POINT
  5
79FB
330
7949
100
AcDbEntity
  8
DEFPOINTS
  6
CONTINUOUS
 62
     0
100
AcDbPoint
 10
-70.7369116980294
 20
-633.0016665889079
 30
0.0
  0
ENDBLK
  5
7954
330
7949
100
AcDbEntity
  8
0
100
AcDbBlockEnd
  0
BLOCK
  5
7960
330
7956
100
AcDbEntity
  8
0
100
AcDbBlockBegin
  2
*D19
 70
     1
 10
0.0
 20
0.0
 30
0.0
  3
*D19
  1

  0
LINE
  5
7E11
330
7956
100
AcDbEntity
  8
30
  6
CONTINUOUS
 62
     0
100
AcDbLine
 10
-70.7369116980294
 20
-611.6272432921213
 30
0.0
 11
-70.7369116980294
 21
-633.5016665889079
 31
0.0
  0
LINE
  5
7E12
330
7956
100
AcDbEntity
  8
30
  6
CONTINUOUS
 62
     0
100
AcDbLine
 10
34.26958244257103
 20
-580.2118374195101
 30
0.0
 11
34.26958244257103
 21
-633.5016665889079
 31
0.0
  0
LINE
  5
7E13
330
7956
100
AcDbEntity
  8
30
  6
CONTINUOUS
 62
     0
100
AcDbLine
 10
-68.7369116980294
 20
-633.0016665889079
 30
0.0
 11
32.26958244257103
 21
-633.0016665889079
 31
0.0
  0
INSERT
  5
7E14
330
7956
100
AcDbEntity
  8
30
  6
CONTINUOUS
 62
     0
100
AcDbBlockReference
  2
_OPEN
 10
-70.7369116980294
 20
-633.0016665889079
 30
0.0
 41
2.0
 42
2.0
 43
2.0
 50
180.0
  0
INSERT
  5
7E15
330
7956
100
AcDbEntity
  8
30
  6
CONTINUOUS
 62
     0
100
AcDbBlockReference
  2
_OPEN
 10
34.26958244257103
 20
-633.0016665889079
 30
0.0
 41
2.0
 42
2.0
 43
2.0
  0
MTEXT
  5
7E16
330
7956
100
AcDbEntity
  8
30
  6
CONTINUOUS
 62
     0
100
AcDbMText
 10
-18.23366462772918
 20
-629.5016665889079
 30
0.0
 40
5.0
 41
0.0
 71
     5
 72
     1
  1
\A1;105
  0
POINT
  5
7E17
330
7956
100
AcDbEntity
  8
DEFPOINTS
  6
CONTINUOUS
 62
     0
100
AcDbPoint
 10
-70.7369116980294
 20
-610.6272432921214
 30
0.0
  0
POINT
  5
7E18
330
7956
100
AcDbEntity
  8
DEFPOINTS
  6
CONTINUOUS
 62
     0
100
AcDbPoint
 10
34.26958244257103
 20
-579.2118374195101
 30
0.0
  0
POINT
  5
7E19
330
7956
100
AcDbEntity
  8
DEFPOINTS
  6
CONTINUOUS
 62
     0
100
AcDbPoint
 10
34.26958244257103
 20
-633.0016665889079
 30
0.0
  0
ENDBLK
  5
7961
330
7956
100
AcDbEntity
  8
0
100
AcDbBlockEnd
  0
BLOCK
  5
7965
330
7963
100
AcDbEntity
  8
0
100
AcDbBlockBegin
  2
A$C6723354B
 70
     0
 10
0.0
 20
0.0
 30
0.0
  3
A$C6723354B
  1

  0
LINE
  5
7964
330
7963
100
AcDbEntity
  8
L170_
  6
D1101
100
AcDbLine
 10
-175.0
 20
156.0
 30
0.0
 11
-175.0
 21
-147.0
 31
0.0
  0
ENDBLK
  5
7966
330
7963
100
AcDbEntity
  8
0
100
AcDbBlockEnd
  0
BLOCK
  5
7A34
330
7A2A
100
AcDbEntity
  8
0
100
AcDbBlockBegin
  2
*D21
 70
     1
 10
0.0
 20
0.0
 30
0.0
  3
*D21
  1

  0
LINE
  5
7A64
330
7A2A
100
AcDbEntity
  8
30
  6
CONTINUOUS
 62
     0
100
AcDbLine
 10
-176.4869483191192
 20
57.00000000000001
 30
0.0
 11
-200.1410446667363
 21
57.00000000000001
 31
0.0
  0
LINE
  5
7A65
330
7A2A
100
AcDbEntity
  8
30
  6
CONTINUOUS
 62
     0
100
AcDbLine
 10
-176.6369727331793
 20
0.0000000000000003
 30
0.0
 11
-200.1410446667363
 21
0.0000000000000069
 31
0.0
  0
LINE
  5
7A66
330
7A2A
100
AcDbEntity
  8
30
  6
CONTINUOUS
 62
     0
100
AcDbLine
 10
-199.6410446667362
 20
55.0
 30
0.0
 11
-199.6410446667362
 21
2.000000000000006
 31
0.0
  0
INSERT
  5
7A67
330
7A2A
100
AcDbEntity
  8
30
  6
CONTINUOUS
 62
     0
100
AcDbBlockReference
  2
_OPEN
 10
-199.6410446667362
 20
57.00000000000001
 30
0.0
 41
2.0
 42
2.0
 43
2.0
 50
90.0
  0
INSERT
  5
7A68
330
7A2A
100
AcDbEntity
  8
30
  6
CONTINUOUS
 62
     0
100
AcDbBlockReference
  2
_OPEN
 10
-199.6410446667362
 20
0.0000000000000068
 30
0.0
 41
2.0
 42
2.0
 43
2.0
 50
270.0
  0
MTEXT
  5
7A69
330
7A2A
100
AcDbEntity
  8
30
  6
CONTINUOUS
 62
     0
100
AcDbMText
 10
-203.1410446667362
 20
28.49999999999997
 30
0.0
 40
5.0
 41
0.0
 71
     5
 72
     1
  1
\A1;57
 11
0.0000000000000001
 21
1.0
 31
0.0
1001
ACAD
1000
MTEXTBEGIN
1070
    73
1070
     1
1070
    44
1040
1.0
1070
    74
1070
     0
1000
MTEXTEND
  0
POINT
  5
7A6A
330
7A2A
100
AcDbEntity
  8
DEFPOINTS
  6
CONTINUOUS
 62
     0
100
AcDbPoint
 10
-175.4869483191192
 20
57.0
 30
0.0
  0
POINT
  5
7A6B
330
7A2A
100
AcDbEntity
  8
DEFPOINTS
  6
CONTINUOUS
 62
     0
100
AcDbPoint
 10
-175.6369727331794
 20
0.0
 30
0.0
  0
POINT
  5
7A6C
330
7A2A
100
AcDbEntity
  8
DEFPOINTS
  6
CONTINUOUS
 62
     0
100
AcDbPoint
 10
-199.6410446667362
 20
0.0000000000000068
 30
0.0
  0
ENDBLK
  5
7A35
330
7A2A
100
AcDbEntity
  8
0
100
AcDbBlockEnd
  0
BLOCK
  5
7A41
330
7A37
100
AcDbEntity
  8
0
100
AcDbBlockBegin
  2
*D22
 70
     1
 10
0.0
 20
0.0
 30
0.0
  3
*D22
  1

  0
LINE
  5
7E1A
330
7A37
100
AcDbEntity
  8
30
  6
CONTINUOUS
 62
     0
100
AcDbLine
 10
-176.6369727331793
 20
0.0000000000000003
 30
0.0
 11
-200.1410446667363
 21
0.0000000000000069
 31
0.0
  0
LINE
  5
7E1B
330
7A37
100
AcDbEntity
  8
30
  6
CONTINUOUS
 62
     0
100
AcDbLine
 10
-176.4869483191192
 20
-44.99999999999999
 30
0.0
 11
-200.1410446667363
 21
-44.99999999999999
 31
0.0
  0
LINE
  5
7E1C
330
7A37
100
AcDbEntity
  8
30
  6
CONTINUOUS
 62
     0
100
AcDbLine
 10
-199.6410446667362
 20
-1.999999999999993
 30
0.0
 11
-199.6410446667362
 21
-42.99999999999999
 31
0.0
  0
INSERT
  5
7E1D
330
7A37
100
AcDbEntity
  8
30
  6
CONTINUOUS
 62
     0
100
AcDbBlockReference
  2
_OPEN
 10
-199.6410446667362
 20
0.0000000000000068
 30
0.0
 41
2.0
 42
2.0
 43
2.0
 50
90.0
  0
INSERT
  5
7E1E
330
7A37
100
AcDbEntity
  8
30
  6
CONTINUOUS
 62
     0
100
AcDbBlockReference
  2
_OPEN
 10
-199.6410446667362
 20
-44.99999999999999
 30
0.0
 41
2.0
 42
2.0
 43
2.0
 50
270.0
  0
MTEXT
  5
7E1F
330
7A37
100
AcDbEntity
  8
30
  6
CONTINUOUS
 62
     0
100
AcDbMText
 10
-203.1410446667362
 20
-22.50000000000002
 30
0.0
 40
5.0
 41
0.0
 71
     5
 72
     1
  1
\A1;45
 11
0.0000000000000001
 21
1.0
 31
0.0
  0
POINT
  5
7E20
330
7A37
100
AcDbEntity
  8
DEFPOINTS
  6
CONTINUOUS
 62
     0
100
AcDbPoint
 10
-175.6369727331794
 20
0.0
 30
0.0
  0
POINT
  5
7E21
330
7A37
100
AcDbEntity
  8
DEFPOINTS
  6
CONTINUOUS
 62
     0
100
AcDbPoint
 10
-175.4869483191192
 20
-45.0
 30
0.0
  0
POINT
  5
7E22
330
7A37
100
AcDbEntity
  8
DEFPOINTS
  6
CONTINUOUS
 62
     0
100
AcDbPoint
 10
-199.6410446667362
 20
-44.99999999999999
 30
0.0
  0
ENDBLK
  5
7A42
330
7A37
100
AcDbEntity
  8
0
100
AcDbBlockEnd
  0
BLOCK
  5
7A4F
330
7A44
100
AcDbEntity
  8
0
100
AcDbBlockBegin
  2
*D23
 70
     1
 10
0.0
 20
0.0
 30
0.0
  3
*D23
  1

  0
LINE
  5
7E23
330
7A44
100
AcDbEntity
  8
30
  6
CONTINUOUS
 62
     0
100
AcDbLine
 10
-176.4869483191192
 20
-44.99999999999999
 30
0.0
 11
-200.1410446667363
 21
-44.99999999999999
 31
0.0
  0
LINE
  5
7E24
330
7A44
100
AcDbEntity
  8
30
  6
CONTINUOUS
 62
     0
100
AcDbLine
 10
-176.4869483191192
 20
-50.99999999999999
 30
0.0
 11
-200.1410446667363
 21
-50.99999999999999
 31
0.0
  0
LINE
  5
7E25
330
7A44
100
AcDbEntity
  8
30
  6
CONTINUOUS
 62
     0
100
AcDbLine
 10
-199.6410446667362
 20
-42.99999999999999
 30
0.0
 11
-199.6410446667362
 21
-40.99999999999999
 31
0.0
  0
LINE
  5
7E26
330
7A44
100
AcDbEntity
  8
30
  6
CONTINUOUS
 62
     0
100
AcDbLine
 10
-199.6410446667362
 20
-52.99999999999999
 30
0.0
 11
-199.6410446667362
 21
-55.0
 31
0.0
  0
INSERT
  5
7E27
330
7A44
100
AcDbEntity
  8
30
  6
CONTINUOUS
 62
     0
100
AcDbBlockReference
  2
_OPEN
 10
-199.6410446667362
 20
-44.99999999999999
 30
0.0
 41
2.0
 42
2.0
 43
2.0
 50
270.0
  0
INSERT
  5
7E28
330
7A44
100
AcDbEntity
  8
30
  6
CONTINUOUS
 62
     0
100
AcDbBlockReference
  2
_OPEN
 10
-199.6410446667362
 20
-50.99999999999999
 30
0.0
 41
2.0
 42
2.0
 43
2.0
 50
90.0
  0
MTEXT
  5
7E29
330
7A44
100
AcDbEntity
  8
30
  6
CONTINUOUS
 62
     0
100
AcDbMText
 10
-203.1410446667362
 20
-48.00000000000002
 30
0.0
 40
5.0
 41
0.0
 71
     5
 72
     1
  1
\A1;6
 11
0.0000000000000001
 21
1.0
 31
0.0
  0
POINT
  5
7E2A
330
7A44
100
AcDbEntity
  8
DEFPOINTS
  6
CONTINUOUS
 62
     0
100
AcDbPoint
 10
-175.4869483191192
 20
-45.0
 30
0.0
  0
POINT
  5
7E2B
330
7A44
100
AcDbEntity
  8
DEFPOINTS
  6
CONTINUOUS
 62
     0
100
AcDbPoint
 10
-175.4869483191192
 20
-51.0
 30
0.0
  0
POINT
  5
7E2C
330
7A44
100
AcDbEntity
  8
DEFPOINTS
  6
CONTINUOUS
 62
     0
100
AcDbPoint
 10
-199.6410446667362
 20
-50.99999999999999
 30
0.0
  0
ENDBLK
  5
7A50
330
7A44
100
AcDbEntity
  8
0
100
AcDbBlockEnd
  0
BLOCK
  5
7A85
330
7A7B
100
AcDbEntity
  8
0
100
AcDbBlockBegin
  2
*D24
 70
     1
 10
0.0
 20
0.0
 30
0.0
  3
*D24
  1

  0
LINE
  5
7A7C
330
7A7B
100
AcDbEntity
  8
30
  6
CONTINUOUS
 62
     0
100
AcDbLine
 10
-176.6369727331793
 20
156.0
 30
0.0
 11
-228.0087941791407
 21
156.0
 31
0.0
  0
LINE
  5
7A7D
330
7A7B
100
AcDbEntity
  8
30
  6
CONTINUOUS
 62
     0
100
AcDbLine
 10
-176.6369727331793
 20
0.0000000000000003
 30
0.0
 11
-228.0087941791407
 21
0.0000000000000148
 31
0.0
  0
LINE
  5
7A7E
330
7A7B
100
AcDbEntity
  8
30
  6
CONTINUOUS
 62
     0
100
AcDbLine
 10
-227.5087941791407
 20
154.0
 30
0.0
 11
-227.5087941791407
 21
2.000000000000014
 31
0.0
  0
INSERT
  5
7A7F
330
7A7B
100
AcDbEntity
  8
30
  6
CONTINUOUS
 62
     0
100
AcDbBlockReference
  2
_OPEN
 10
-227.5087941791407
 20
156.0
 30
0.0
 41
2.0
 42
2.0
 43
2.0
 50
90.0
  0
INSERT
  5
7A80
330
7A7B
100
AcDbEntity
  8
30
  6
CONTINUOUS
 62
     0
100
AcDbBlockReference
  2
_OPEN
 10
-227.5087941791407
 20
0.0000000000000147
 30
0.0
 41
2.0
 42
2.0
 43
2.0
 50
270.0
  0
MTEXT
  5
7A81
330
7A7B
100
AcDbEntity
  8
30
  6
CONTINUOUS
 62
     0
100
AcDbMText
 10
-231.0087941791407
 20
77.99999999999998
 30
0.0
 40
5.0
 41
0.0
 71
     5
 72
     1
  1
\A1;156
 11
0.0000000000000001
 21
1.0
 31
0.0
1001
ACAD
1000
MTEXTBEGIN
1070
    73
1070
     1
1070
    44
1040
1.0
1070
    74
1070
     0
1000
MTEXTEND
  0
POINT
  5
7A82
330
7A7B
100
AcDbEntity
  8
DEFPOINTS
  6
CONTINUOUS
 62
     0
100
AcDbPoint
 10
-175.6369727331794
 20
156.0
 30
0.0
  0
POINT
  5
7A83
330
7A7B
100
AcDbEntity
  8
DEFPOINTS
  6
CONTINUOUS
 62
     0
100
AcDbPoint
 10
-175.6369727331794
 20
0.0
 30
0.0
  0
POINT
  5
7A84
330
7A7B
100
AcDbEntity
  8
DEFPOINTS
  6
CONTINUOUS
 62
     0
100
AcDbPoint
 10
-227.5087941791407
 20
0.0000000000000147
 30
0.0
  0
ENDBLK
  5
7A86
330
7A7B
100
AcDbEntity
  8
0
100
AcDbBlockEnd
  0
BLOCK
  5
7A92
330
7A88
100
AcDbEntity
  8
0
100
AcDbBlockBegin
  2
*D25
 70
     1
 10
0.0
 20
0.0
 30
0.0
  3
*D25
  1

  0
LINE
  5
7E2D
330
7A88
100
AcDbEntity
  8
30
  6
CONTINUOUS
 62
     0
100
AcDbLine
 10
-176.6369727331793
 20
0.0000000000000003
 30
0.0
 11
-228.0087941791407
 21
0.0000000000000148
 31
0.0
  0
LINE
  5
7E2E
330
7A88
100
AcDbEntity
  8
30
  6
CONTINUOUS
 62
     0
100
AcDbLine
 10
-176.6369727331793
 20
-147.0
 30
0.0
 11
-228.0087941791407
 21
-146.9999999999999
 31
0.0
  0
LINE
  5
7E2F
330
7A88
100
AcDbEntity
  8
30
  6
CONTINUOUS
 62
     0
100
AcDbLine
 10
-227.5087941791407
 20
-1.999999999999985
 30
0.0
 11
-227.5087941791408
 21
-144.9999999999999
 31
0.0
  0
INSERT
  5
7E30
330
7A88
100
AcDbEntity
  8
30
  6
CONTINUOUS
 62
     0
100
AcDbBlockReference
  2
_OPEN
 10
-227.5087941791407
 20
0.0000000000000147
 30
0.0
 41
2.0
 42
2.0
 43
2.0
 50
90.0
  0
INSERT
  5
7E31
330
7A88
100
AcDbEntity
  8
30
  6
CONTINUOUS
 62
     0
100
AcDbBlockReference
  2
_OPEN
 10
-227.5087941791408
 20
-146.9999999999999
 30
0.0
 41
2.0
 42
2.0
 43
2.0
 50
270.0
  0
MTEXT
  5
7E32
330
7A88
100
AcDbEntity
  8
30
  6
CONTINUOUS
 62
     0
100
AcDbMText
 10
-231.0087941791407
 20
-73.50000000000001
 30
0.0
 40
5.0
 41
0.0
 71
     5
 72
     1
  1
\A1;147
 11
0.0000000000000001
 21
1.0
 31
0.0
  0
POINT
  5
7E33
330
7A88
100
AcDbEntity
  8
DEFPOINTS
  6
CONTINUOUS
 62
     0
100
AcDbPoint
 10
-175.6369727331794
 20
0.0
 30
0.0
  0
POINT
  5
7E34
330
7A88
100
AcDbEntity
  8
DEFPOINTS
  6
CONTINUOUS
 62
     0
100
AcDbPoint
 10
-175.6369727331794
 20
-147.0
 30
0.0
  0
POINT
  5
7E35
330
7A88
100
AcDbEntity
  8
DEFPOINTS
  6
CONTINUOUS
 62
     0
100
AcDbPoint
 10
-227.5087941791408
 20
-146.9999999999999
 30
0.0
  0
ENDBLK
  5
7A93
330
7A88
100
AcDbEntity
  8
0
100
AcDbBlockEnd
  0
BLOCK
  5
7A9F
330
7A95
100
AcDbEntity
  8
0
100
AcDbBlockBegin
  2
*D26
 70
     1
 10
0.0
 20
0.0
 30
0.0
  3
*D26
  1

  0
LINE
  5
7A96
330
7A95
100
AcDbEntity
  8
30
  6
CONTINUOUS
 62
     0
100
AcDbLine
 10
-114.7370093542693
 20
126.0
 30
0.0
 11
-213.9082527562722
 21
126.0
 31
0.0
  0
LINE
  5
7A97
330
7A95
100
AcDbEntity
  8
30
  6
CONTINUOUS
 62
     0
100
AcDbLine
 10
-102.4869483191192
 20
0.0000000000000003
 30
0.0
 11
-213.9082527562722
 21
0.0000000000000318
 31
0.0
  0
LINE
  5
7A98
330
7A95
100
AcDbEntity
  8
30
  6
CONTINUOUS
 62
     0
100
AcDbLine
 10
-213.4082527562722
 20
124.0
 30
0.0
 11
-213.4082527562723
 21
2.000000000000031
 31
0.0
  0
INSERT
  5
7A99
330
7A95
100
AcDbEntity
  8
30
  6
CONTINUOUS
 62
     0
100
AcDbBlockReference
  2
_OPEN
 10
-213.4082527562722
 20
126.0
 30
0.0
 41
2.0
 42
2.0
 43
2.0
 50
90.0
  0
INSERT
  5
7A9A
330
7A95
100
AcDbEntity
  8
30
  6
CONTINUOUS
 62
     0
100
AcDbBlockReference
  2
_OPEN
 10
-213.4082527562723
 20
0.0000000000000317
 30
0.0
 41
2.0
 42
2.0
 43
2.0
 50
270.0
  0
MTEXT
  5
7A9B
330
7A95
100
AcDbEntity
  8
30
  6
CONTINUOUS
 62
     0
100
AcDbMText
 10
-216.9082527562723
 20
63.0
 30
0.0
 40
5.0
 41
0.0
 71
     5
 72
     1
  1
\A1;126
 11
0.0000000000000001
 21
1.0
 31
0.0
1001
ACAD
1000
MTEXTBEGIN
1070
    73
1070
     1
1070
    44
1040
1.0
1070
    74
1070
     0
1000
MTEXTEND
  0
POINT
  5
7A9C
330
7A95
100
AcDbEntity
  8
DEFPOINTS
  6
CONTINUOUS
 62
     0
100
AcDbPoint
 10
-113.7370093542694
 20
126.0
 30
0.0
  0
POINT
  5
7A9D
330
7A95
100
AcDbEntity
  8
DEFPOINTS
  6
CONTINUOUS
 62
     0
100
AcDbPoint
 10
-101.4869483191192
 20
0.0
 30
0.0
  0
POINT
  5
7A9E
330
7A95
100
AcDbEntity
  8
DEFPOINTS
  6
CONTINUOUS
 62
     0
100
AcDbPoint
 10
-213.4082527562723
 20
0.0000000000000317
 30
0.0
  0
ENDBLK
  5
7AA0
330
7A95
100
AcDbEntity
  8
0
100
AcDbBlockEnd
  0
BLOCK
  5
7AAC
330
7AA2
100
AcDbEntity
  8
0
100
AcDbBlockBegin
  2
*D27
 70
     1
 10
0.0
 20
0.0
 30
0.0
  3
*D27
  1

  0
LINE
  5
7E36
330
7AA2
100
AcDbEntity
  8
30
  6
CONTINUOUS
 62
     0
100
AcDbLine
 10
-102.4869483191192
 20
0.0000000000000003
 30
0.0
 11
-213.9082527562722
 21
0.0000000000000318
 31
0.0
  0
LINE
  5
7E37
330
7AA2
100
AcDbEntity
  8
30
  6
CONTINUOUS
 62
     0
100
AcDbLine
 10
-114.7370093542693
 20
-116.9999999999999
 30
0.0
 11
-213.9082527562723
 21
-116.9999999999999
 31
0.0
  0
LINE
  5
7E38
330
7AA2
100
AcDbEntity
  8
30
  6
CONTINUOUS
 62
     0
100
AcDbLine
 10
-213.4082527562723
 20
-1.999999999999968
 30
0.0
 11
-213.4082527562723
 21
-114.9999999999999
 31
0.0
  0
INSERT
  5
7E39
330
7AA2
100
AcDbEntity
  8
30
  6
CONTINUOUS
 62
     0
100
AcDbBlockReference
  2
_OPEN
 10
-213.4082527562723
 20
0.0000000000000317
 30
0.0
 41
2.0
 42
2.0
 43
2.0
 50
90.0
  0
INSERT
  5
7E3A
330
7AA2
100
AcDbEntity
  8
30
  6
CONTINUOUS
 62
     0
100
AcDbBlockReference
  2
_OPEN
 10
-213.4082527562723
 20
-116.9999999999999
 30
0.0
 41
2.0
 42
2.0
 43
2.0
 50
270.0
  0
MTEXT
  5
7E3B
330
7AA2
100
AcDbEntity
  8
30
  6
CONTINUOUS
 62
     0
100
AcDbMText
 10
-216.9082527562723
 20
-58.5
 30
0.0
 40
5.0
 41
0.0
 71
     5
 72
     1
  1
\A1;117
 11
0.0000000000000001
 21
1.0
 31
0.0
  0
POINT
  5
7E3C
330
7AA2
100
AcDbEntity
  8
DEFPOINTS
  6
CONTINUOUS
 62
     0
100
AcDbPoint
 10
-101.4869483191192
 20
0.0
 30
0.0
  0
POINT
  5
7E3D
330
7AA2
100
AcDbEntity
  8
DEFPOINTS
  6
CONTINUOUS
 62
     0
100
AcDbPoint
 10
-113.7370093542694
 20
-116.9999999999999
 30
0.0
  0
POINT
  5
7E3E
330
7AA2
100
AcDbEntity
  8
DEFPOINTS
  6
CONTINUOUS
 62
     0
100
AcDbPoint
 10
-213.4082527562723
 20
-116.9999999999999
 30
0.0
  0
ENDBLK
  5
7AAD
330
7AA2
100
AcDbEntity
  8
0
100
AcDbBlockEnd
  0
BLOCK
  5
7AB9
330
7AAF
100
AcDbEntity
  8
0
100
AcDbBlockBegin
  2
*D28
 70
     1
 10
0.0
 20
0.0
 30
0.0
  3
*D28
  1

  0
LINE
  5
7AB0
330
7AAF
100
AcDbEntity
  8
30
  6
CONTINUOUS
 62
     0
100
AcDbLine
 10
-246.7304175574289
 20
-276.2118374195102
 30
0.0
 11
-311.240036687669
 21
-276.2118374195102
 31
0.0
  0
LINE
  5
7AB1
330
7AAF
100
AcDbEntity
  8
30
  6
CONTINUOUS
 62
     0
100
AcDbLine
 10
-246.7304175574289
 20
-338.2118374195102
 30
0.0
 11
-311.240036687669
 21
-338.2118374195102
 31
0.0
  0
LINE
  5
7AB2
330
7AAF
100
AcDbEntity
  8
30
  6
CONTINUOUS
 62
     0
100
AcDbLine
 10
-310.740036687669
 20
-278.2118374195102
 30
0.0
 11
-310.740036687669
 21
-336.2118374195102
 31
0.0
  0
INSERT
  5
7AB3
330
7AAF
100
AcDbEntity
  8
30
  6
CONTINUOUS
 62
     0
100
AcDbBlockReference
  2
_OPEN
 10
-310.740036687669
 20
-276.2118374195102
 30
0.0
 41
2.0
 42
2.0
 43
2.0
 50
90.0
  0
INSERT
  5
7AB4
330
7AAF
100
AcDbEntity
  8
30
  6
CONTINUOUS
 62
     0
100
AcDbBlockReference
  2
_OPEN
 10
-310.740036687669
 20
-338.2118374195102
 30
0.0
 41
2.0
 42
2.0
 43
2.0
 50
270.0
  0
MTEXT
  5
7AB5
330
7AAF
100
AcDbEntity
  8
30
  6
CONTINUOUS
 62
     0
100
AcDbMText
 10
-314.240036687669
 20
-307.2118374195103
 30
0.0
 40
5.0
 41
0.0
 71
     5
 72
     1
  1
\A1;62
 11
0.0000000000000001
 21
1.0
 31
0.0
1001
ACAD
1000
MTEXTBEGIN
1070
    73
1070
     1
1070
    44
1040
1.0
1070
    74
1070
     0
1000
MTEXTEND
  0
POINT
  5
7AB6
330
7AAF
100
AcDbEntity
  8
DEFPOINTS
  6
CONTINUOUS
 62
     0
100
AcDbPoint
 10
-245.7304175574289
 20
-276.2118374195102
 30
0.0
  0
POINT
  5
7AB7
330
7AAF
100
AcDbEntity
  8
DEFPOINTS
  6
CONTINUOUS
 62
     0
100
AcDbPoint
 10
-245.7304175574289
 20
-338.2118374195102
 30
0.0
  0
POINT
  5
7AB8
330
7AAF
100
AcDbEntity
  8
DEFPOINTS
  6
CONTINUOUS
 62
     0
100
AcDbPoint
 10
-310.740036687669
 20
-338.2118374195102
 30
0.0
  0
ENDBLK
  5
7ABA
330
7AAF
100
AcDbEntity
  8
0
100
AcDbBlockEnd
  0
BLOCK
  5
7AD3
330
7AC9
100
AcDbEntity
  8
0
100
AcDbBlockBegin
  2
*D29
 70
     1
 10
0.0
 20
0.0
 30
0.0
  3
*D29
  1

  0
LINE
  5
7E3F
330
7AC9
100
AcDbEntity
  8
30
  6
CONTINUOUS
 62
     0
100
AcDbLine
 10
-246.7304175574289
 20
-338.2118374195102
 30
0.0
 11
-311.240036687669
 21
-338.2118374195102
 31
0.0
  0
LINE
  5
7E40
330
7AC9
100
AcDbEntity
  8
30
  6
CONTINUOUS
 62
     0
100
AcDbLine
 10
-129.6635230262289
 20
-356.2118374195102
 30
0.0
 11
-311.240036687669
 21
-356.2118374195102
 31
0.0
  0
LINE
  5
7E41
330
7AC9
100
AcDbEntity
  8
30
  6
CONTINUOUS
 62
     0
100
AcDbLine
 10
-310.740036687669
 20
-340.2118374195102
 30
0.0
 11
-310.740036687669
 21
-354.2118374195102
 31
0.0
  0
INSERT
  5
7E42
330
7AC9
100
AcDbEntity
  8
30
  6
CONTINUOUS
 62
     0
100
AcDbBlockReference
  2
_OPEN
 10
-310.740036687669
 20
-338.2118374195102
 30
0.0
 41
2.0
 42
2.0
 43
2.0
 50
90.0
  0
INSERT
  5
7E43
330
7AC9
100
AcDbEntity
  8
30
  6
CONTINUOUS
 62
     0
100
AcDbBlockReference
  2
_OPEN
 10
-310.740036687669
 20
-356.2118374195102
 30
0.0
 41
2.0
 42
2.0
 43
2.0
 50
270.0
  0
MTEXT
  5
7E44
330
7AC9
100
AcDbEntity
  8
30
  6
CONTINUOUS
 62
     0
100
AcDbMText
 10
-314.240036687669
 20
-347.2118374195102
 30
0.0
 40
5.0
 41
0.0
 71
     5
 72
     1
  1
\A1;18
 11
0.0000000000000001
 21
1.0
 31
0.0
  0
POINT
  5
7E45
330
7AC9
100
AcDbEntity
  8
DEFPOINTS
  6
CONTINUOUS
 62
     0
100
AcDbPoint
 10
-245.7304175574289
 20
-338.2118374195102
 30
0.0
  0
POINT
  5
7E46
330
7AC9
100
AcDbEntity
  8
DEFPOINTS
  6
CONTINUOUS
 62
     0
100
AcDbPoint
 10
-128.6635230262289
 20
-356.2118374195102
 30
0.0
  0
POINT
  5
7E47
330
7AC9
100
AcDbEntity
  8
DEFPOINTS
  6
CONTINUOUS
 62
     0
100
AcDbPoint
 10
-310.740036687669
 20
-356.2118374195102
 30
0.0
  0
ENDBLK
  5
7AD4
330
7AC9
100
AcDbEntity
  8
0
100
AcDbBlockEnd
  0
BLOCK
  5
7AE0
330
7AD6
100
AcDbEntity
  8
0
100
AcDbBlockBegin
  2
*D30
 70
     1
 10
0.0
 20
0.0
 30
0.0
  3
*D30
  1

  0
LINE
  5
7E48
330
7AD6
100
AcDbEntity
  8
30
  6
CONTINUOUS
 62
     0
100
AcDbLine
 10
-129.6635230262289
 20
-356.2118374195102
 30
0.0
 11
-311.140036687669
 21
-356.2118374195102
 31
0.0
  0
LINE
  5
7E49
330
7AD6
100
AcDbEntity
  8
30
  6
CONTINUOUS
 62
     0
100
AcDbLine
 10
-266.2389199184571
 20
-432.2617850407572
 30
0.0
 11
-311.1400366876691
 21
-432.2617850407572
 31
0.0
  0
LINE
  5
7E4A
330
7AD6
100
AcDbEntity
  8
30
  6
CONTINUOUS
 62
     0
100
AcDbLine
 10
-310.640036687669
 20
-358.2118374195102
 30
0.0
 11
-310.6400366876691
 21
-430.2617850407572
 31
0.0
  0
INSERT
  5
7E4B
330
7AD6
100
AcDbEntity
  8
30
  6
CONTINUOUS
 62
     0
100
AcDbBlockReference
  2
_OPEN
 10
-310.640036687669
 20
-356.2118374195102
 30
0.0
 41
2.0
 42
2.0
 43
2.0
 50
90.0
  0
INSERT
  5
7E4C
330
7AD6
100
AcDbEntity
  8
30
  6
CONTINUOUS
 62
     0
100
AcDbBlockReference
  2
_OPEN
 10
-310.6400366876691
 20
-432.2617850407572
 30
0.0
 41
2.0
 42
2.0
 43
2.0
 50
270.0
  0
MTEXT
  5
7E4D
330
7AD6
100
AcDbEntity
  8
30
  6
CONTINUOUS
 62
     0
100
AcDbMText
 10
-314.140036687669
 20
-394.2368112301337
 30
0.0
 40
5.0
 41
0.0
 71
     5
 72
     1
  1
\A1;76
 11
0.0000000000000001
 21
1.0
 31
0.0
  0
POINT
  5
7E4E
330
7AD6
100
AcDbEntity
  8
DEFPOINTS
  6
CONTINUOUS
 62
     0
100
AcDbPoint
 10
-128.6635230262289
 20
-356.2118374195102
 30
0.0
  0
POINT
  5
7E4F
330
7AD6
100
AcDbEntity
  8
DEFPOINTS
  6
CONTINUOUS
 62
     0
100
AcDbPoint
 10
-265.238919918457
 20
-432.2617850407572
 30
0.0
  0
POINT
  5
7E50
330
7AD6
100
AcDbEntity
  8
DEFPOINTS
  6
CONTINUOUS
 62
     0
100
AcDbPoint
 10
-310.6400366876691
 20
-432.2617850407572
 30
0.0
  0
ENDBLK
  5
7AE1
330
7AD6
100
AcDbEntity
  8
0
100
AcDbBlockEnd
  0
BLOCK
  5
7AED
330
7AE3
100
AcDbEntity
  8
0
100
AcDbBlockBegin
  2
*D31
 70
     1
 10
0.0
 20
0.0
 30
0.0
  3
*D31
  1

  0
LINE
  5
7E51
330
7AE3
100
AcDbEntity
  8
30
  6
CONTINUOUS
 62
     0
100
AcDbLine
 10
-266.2389199184571
 20
-432.2617850407572
 30
0.0
 11
-311.1400366876691
 21
-432.2617850407572
 31
0.0
  0
LINE
  5
7E52
330
7AE3
100
AcDbEntity
  8
30
  6
CONTINUOUS
 62
     0
100
AcDbLine
 10
-129.6635230262289
 20
-499.2118374195102
 30
0.0
 11
-311.1400366876691
 21
-499.2118374195102
 31
0.0
  0
LINE
  5
7E53
330
7AE3
100
AcDbEntity
  8
30
  6
CONTINUOUS
 62
     0
100
AcDbLine
 10
-310.6400366876691
 20
-434.2617850407572
 30
0.0
 11
-310.6400366876691
 21
-497.2118374195102
 31
0.0
  0
INSERT
  5
7E54
330
7AE3
100
AcDbEntity
  8
30
  6
CONTINUOUS
 62
     0
100
AcDbBlockReference
  2
_OPEN
 10
-310.6400366876691
 20
-432.2617850407572
 30
0.0
 41
2.0
 42
2.0
 43
2.0
 50
90.0
  0
INSERT
  5
7E55
330
7AE3
100
AcDbEntity
  8
30
  6
CONTINUOUS
 62
     0
100
AcDbBlockReference
  2
_OPEN
 10
-310.6400366876691
 20
-499.2118374195102
 30
0.0
 41
2.0
 42
2.0
 43
2.0
 50
270.0
  0
MTEXT
  5
7E56
330
7AE3
100
AcDbEntity
  8
30
  6
CONTINUOUS
 62
     0
100
AcDbMText
 10
-314.140036687669
 20
-465.7368112301337
 30
0.0
 40
5.0
 41
0.0
 71
     5
 72
     1
  1
\A1;67
 11
0.0000000000000001
 21
1.0
 31
0.0
  0
POINT
  5
7E57
330
7AE3
100
AcDbEntity
  8
DEFPOINTS
  6
CONTINUOUS
 62
     0
100
AcDbPoint
 10
-265.238919918457
 20
-432.2617850407572
 30
0.0
  0
POINT
  5
7E58
330
7AE3
100
AcDbEntity
  8
DEFPOINTS
  6
CONTINUOUS
 62
     0
100
AcDbPoint
 10
-128.6635230262289
 20
-499.2118374195102
 30
0.0
  0
POINT
  5
7E59
330
7AE3
100
AcDbEntity
  8
DEFPOINTS
  6
CONTINUOUS
 62
     0
100
AcDbPoint
 10
-310.6400366876691
 20
-499.2118374195102
 30
0.0
  0
ENDBLK
  5
7AEE
330
7AE3
100
AcDbEntity
  8
0
100
AcDbBlockEnd
  0
BLOCK
  5
7AFA
330
7AF0
100
AcDbEntity
  8
0
100
AcDbBlockBegin
  2
*D32
 70
     1
 10
0.0
 20
0.0
 30
0.0
  3
*D32
  1

  0
LINE
  5
7E5A
330
7AF0
100
AcDbEntity
  8
30
  6
CONTINUOUS
 62
     0
100
AcDbLine
 10
-129.6635230262289
 20
-499.2118374195102
 30
0.0
 11
-311.2400366876691
 21
-499.2118374195102
 31
0.0
  0
LINE
  5
7E5B
330
7AF0
100
AcDbEntity
  8
30
  6
CONTINUOUS
 62
     0
100
AcDbLine
 10
-246.7304175574289
 20
-517.2118374195101
 30
0.0
 11
-311.2400366876691
 21
-517.21183741951
 31
0.0
  0
LINE
  5
7E5C
330
7AF0
100
AcDbEntity
  8
30
  6
CONTINUOUS
 62
     0
100
AcDbLine
 10
-310.7400366876691
 20
-501.2118374195102
 30
0.0
 11
-310.7400366876691
 21
-515.21183741951
 31
0.0
  0
INSERT
  5
7E5D
330
7AF0
100
AcDbEntity
  8
30
  6
CONTINUOUS
 62
     0
100
AcDbBlockReference
  2
_OPEN
 10
-310.7400366876691
 20
-499.2118374195102
 30
0.0
 41
2.0
 42
2.0
 43
2.0
 50
90.0
  0
INSERT
  5
7E5E
330
7AF0
100
AcDbEntity
  8
30
  6
CONTINUOUS
 62
     0
100
AcDbBlockReference
  2
_OPEN
 10
-310.7400366876691
 20
-517.21183741951
 30
0.0
 41
2.0
 42
2.0
 43
2.0
 50
270.0
  0
MTEXT
  5
7E5F
330
7AF0
100
AcDbEntity
  8
30
  6
CONTINUOUS
 62
     0
100
AcDbMText
 10
-314.2400366876691
 20
-508.2118374195102
 30
0.0
 40
5.0
 41
0.0
 71
     5
 72
     1
  1
\A1;18
 11
0.0000000000000001
 21
1.0
 31
0.0
  0
POINT
  5
7E60
330
7AF0
100
AcDbEntity
  8
DEFPOINTS
  6
CONTINUOUS
 62
     0
100
AcDbPoint
 10
-128.6635230262289
 20
-499.2118374195102
 30
0.0
  0
POINT
  5
7E61
330
7AF0
100
AcDbEntity
  8
DEFPOINTS
  6
CONTINUOUS
 62
     0
100
AcDbPoint
 10
-245.7304175574289
 20
-517.2118374195101
 30
0.0
  0
POINT
  5
7E62
330
7AF0
100
AcDbEntity
  8
DEFPOINTS
  6
CONTINUOUS
 62
     0
100
AcDbPoint
 10
-310.7400366876691
 20
-517.21183741951
 30
0.0
  0
ENDBLK
  5
7AFB
330
7AF0
100
AcDbEntity
  8
0
100
AcDbBlockEnd
  0
BLOCK
  5
7B07
330
7AFD
100
AcDbEntity
  8
0
100
AcDbBlockBegin
  2
*D33
 70
     1
 10
0.0
 20
0.0
 30
0.0
  3
*D33
  1

  0
LINE
  5
7E63
330
7AFD
100
AcDbEntity
  8
30
  6
CONTINUOUS
 62
     0
100
AcDbLine
 10
-246.7304175574289
 20
-517.2118374195101
 30
0.0
 11
-311.2400366876691
 21
-517.21183741951
 31
0.0
  0
LINE
  5
7E64
330
7AFD
100
AcDbEntity
  8
30
  6
CONTINUOUS
 62
     0
100
AcDbLine
 10
-246.7304175574289
 20
-579.2118374195101
 30
0.0
 11
-311.2400366876691
 21
-579.2118374195101
 31
0.0
  0
LINE
  5
7E65
330
7AFD
100
AcDbEntity
  8
30
  6
CONTINUOUS
 62
     0
100
AcDbLine
 10
-310.7400366876691
 20
-519.21183741951
 30
0.0
 11
-310.7400366876691
 21
-577.21183741951
 31
0.0
  0
INSERT
  5
7E66
330
7AFD
100
AcDbEntity
  8
30
  6
CONTINUOUS
 62
     0
100
AcDbBlockReference
  2
_OPEN
 10
-310.7400366876691
 20
-517.21183741951
 30
0.0
 41
2.0
 42
2.0
 43
2.0
 50
90.0
  0
INSERT
  5
7E67
330
7AFD
100
AcDbEntity
  8
30
  6
CONTINUOUS
 62
     0
100
AcDbBlockReference
  2
_OPEN
 10
-310.7400366876691
 20
-579.2118374195101
 30
0.0
 41
2.0
 42
2.0
 43
2.0
 50
270.0
  0
MTEXT
  5
7E68
330
7AFD
100
AcDbEntity
  8
30
  6
CONTINUOUS
 62
     0
100
AcDbMText
 10
-314.2400366876691
 20
-548.2118374195102
 30
0.0
 40
5.0
 41
0.0
 71
     5
 72
     1
  1
\A1;62
 11
0.0000000000000001
 21
1.0
 31
0.0
  0
POINT
  5
7E69
330
7AFD
100
AcDbEntity
  8
DEFPOINTS
  6
CONTINUOUS
 62
     0
100
AcDbPoint
 10
-245.7304175574289
 20
-517.2118374195101
 30
0.0
  0
POINT
  5
7E6A
330
7AFD
100
AcDbEntity
  8
DEFPOINTS
  6
CONTINUOUS
 62
     0
100
AcDbPoint
 10
-245.7304175574289
 20
-579.2118374195101
 30
0.0
  0
POINT
  5
7E6B
330
7AFD
100
AcDbEntity
  8
DEFPOINTS
  6
CONTINUOUS
 62
     0
100
AcDbPoint
 10
-310.7400366876691
 20
-579.2118374195101
 30
0.0
  0
ENDBLK
  5
7B08
330
7AFD
100
AcDbEntity
  8
0
100
AcDbBlockEnd
  0
BLOCK
  5
7B41
330
7B37
100
AcDbEntity
  8
0
100
AcDbBlockBegin
  2
*D34
 70
     1
 10
0.0
 20
0.0
 30
0.0
  3
*D34
  1

  0
LINE
  5
7B38
330
7B37
100
AcDbEntity
  8
30
  6
CONTINUOUS
 62
     0
100
AcDbLine
 10
474.0103814583543
 20
-356.1617850407571
 30
0.0
 11
602.0634280922658
 21
-356.1617850407571
 31
0.0
  0
LINE
  5
7B39
330
7B37
100
AcDbEntity
  8
30
  6
CONTINUOUS
 62
     0
100
AcDbLine
 10
519.5103814583543
 20
-432.1617850407571
 30
0.0
 11
602.0634280922658
 21
-432.1617850407571
 31
0.0
  0
LINE
  5
7B3A
330
7B37
100
AcDbEntity
  8
30
  6
CONTINUOUS
 62
     0
100
AcDbLine
 10
601.5634280922658
 20
-358.1617850407571
 30
0.0
 11
601.5634280922658
 21
-430.1617850407572
 31
0.0
  0
INSERT
  5
7B3B
330
7B37
100
AcDbEntity
  8
30
  6
CONTINUOUS
 62
     0
100
AcDbBlockReference
  2
_OPEN
 10
601.5634280922658
 20
-356.1617850407571
 30
0.0
 41
2.0
 42
2.0
 43
2.0
 50
90.0
  0
INSERT
  5
7B3C
330
7B37
100
AcDbEntity
  8
30
  6
CONTINUOUS
 62
     0
100
AcDbBlockReference
  2
_OPEN
 10
601.5634280922658
 20
-432.1617850407571
 30
0.0
 41
2.0
 42
2.0
 43
2.0
 50
270.0
  0
MTEXT
  5
7B3D
330
7B37
100
AcDbEntity
  8
30
  6
CONTINUOUS
 62
     0
100
AcDbMText
 10
598.063428092266
 20
-394.1617850407571
 30
0.0
 40
5.0
 41
0.0
 71
     5
 72
     1
  1
\A1;76
 11
0.0000000000000001
 21
1.0
 31
0.0
1001
ACAD
1000
MTEXTBEGIN
1070
    73
1070
     1
1070
    44
1040
1.0
1070
    74
1070
     0
1000
MTEXTEND
  0
POINT
  5
7B3E
330
7B37
100
AcDbEntity
  8
DEFPOINTS
  6
CONTINUOUS
 62
     0
100
AcDbPoint
 10
473.0103814583543
 20
-356.1617850407571
 30
0.0
  0
POINT
  5
7B3F
330
7B37
100
AcDbEntity
  8
DEFPOINTS
  6
CONTINUOUS
 62
     0
100
AcDbPoint
 10
518.5103814583543
 20
-432.1617850407571
 30
0.0
  0
POINT
  5
7B40
330
7B37
100
AcDbEntity
  8
DEFPOINTS
  6
CONTINUOUS
 62
     0
100
AcDbPoint
 10
601.5634280922658
 20
-432.1617850407571
 30
0.0
  0
ENDBLK
  5
7B42
330
7B37
100
AcDbEntity
  8
0
100
AcDbBlockEnd
  0
BLOCK
  5
7B4E
330
7B44
100
AcDbEntity
  8
0
100
AcDbBlockBegin
  2
*D35
 70
     1
 10
0.0
 20
0.0
 30
0.0
  3
*D35
  1

  0
LINE
  5
7E6C
330
7B44
100
AcDbEntity
  8
30
  6
CONTINUOUS
 62
     0
100
AcDbLine
 10
519.5103814583543
 20
-432.1617850407571
 30
0.0
 11
602.0634280922658
 21
-432.1617850407571
 31
0.0
  0
LINE
  5
7E6D
330
7B44
100
AcDbEntity
  8
30
  6
CONTINUOUS
 62
     0
100
AcDbLine
 10
474.0103814583543
 20
-499.1617850407571
 30
0.0
 11
602.0634280922658
 21
-499.1617850407571
 31
0.0
  0
LINE
  5
7E6E
330
7B44
100
AcDbEntity
  8
30
  6
CONTINUOUS
 62
     0
100
AcDbLine
 10
601.5634280922658
 20
-434.1617850407572
 30
0.0
 11
601.5634280922658
 21
-497.1617850407572
 31
0.0
  0
INSERT
  5
7E6F
330
7B44
100
AcDbEntity
  8
30
  6
CONTINUOUS
 62
     0
100
AcDbBlockReference
  2
_OPEN
 10
601.5634280922658
 20
-432.1617850407571
 30
0.0
 41
2.0
 42
2.0
 43
2.0
 50
90.0
  0
INSERT
  5
7E70
330
7B44
100
AcDbEntity
  8
30
  6
CONTINUOUS
 62
     0
100
AcDbBlockReference
  2
_OPEN
 10
601.5634280922658
 20
-499.1617850407571
 30
0.0
 41
2.0
 42
2.0
 43
2.0
 50
270.0
  0
MTEXT
  5
7E71
330
7B44
100
AcDbEntity
  8
30
  6
CONTINUOUS
 62
     0
100
AcDbMText
 10
598.063428092266
 20
-465.6617850407571
 30
0.0
 40
5.0
 41
0.0
 71
     5
 72
     1
  1
\A1;67
 11
0.0000000000000001
 21
1.0
 31
0.0
  0
POINT
  5
7E72
330
7B44
100
AcDbEntity
  8
DEFPOINTS
  6
CONTINUOUS
 62
     0
100
AcDbPoint
 10
518.5103814583543
 20
-432.1617850407571
 30
0.0
  0
POINT
  5
7E73
330
7B44
100
AcDbEntity
  8
DEFPOINTS
  6
CONTINUOUS
 62
     0
100
AcDbPoint
 10
473.0103814583543
 20
-499.1617850407571
 30
0.0
  0
POINT
  5
7E74
330
7B44
100
AcDbEntity
  8
DEFPOINTS
  6
CONTINUOUS
 62
     0
100
AcDbPoint
 10
601.5634280922658
 20
-499.1617850407571
 30
0.0
  0
ENDBLK
  5
7B4F
330
7B44
100
AcDbEntity
  8
0
100
AcDbBlockEnd
  0
BLOCK
  5
7B5B
330
7B51
100
AcDbEntity
  8
0
100
AcDbBlockBegin
  2
*D36
 70
     1
 10
0.0
 20
0.0
 30
0.0
  3
*D36
  1

  0
LINE
  5
7B52
330
7B51
100
AcDbEntity
  8
30
  6
CONTINUOUS
 62
     0
100
AcDbLine
 10
475.0103814583543
 20
-356.1617850407571
 30
0.0
 11
577.8811224816299
 21
-356.1617850407571
 31
0.0
  0
LINE
  5
7B53
330
7B51
100
AcDbEntity
  8
30
  6
CONTINUOUS
 62
     0
100
AcDbLine
 10
555.7962411233473
 20
-381.1617850407571
 30
0.0
 11
577.8811224816299
 21
-381.1617850407571
 31
0.0
  0
LINE
  5
7B54
330
7B51
100
AcDbEntity
  8
30
  6
CONTINUOUS
 62
     0
100
AcDbLine
 10
577.38112248163
 20
-358.1617850407571
 30
0.0
 11
577.38112248163
 21
-379.1617850407571
 31
0.0
  0
INSERT
  5
7B55
330
7B51
100
AcDbEntity
  8
30
  6
CONTINUOUS
 62
     0
100
AcDbBlockReference
  2
_OPEN
 10
577.38112248163
 20
-356.1617850407571
 30
0.0
 41
2.0
 42
2.0
 43
2.0
 50
90.0
  0
INSERT
  5
7B56
330
7B51
100
AcDbEntity
  8
30
  6
CONTINUOUS
 62
     0
100
AcDbBlockReference
  2
_OPEN
 10
577.38112248163
 20
-381.1617850407571
 30
0.0
 41
2.0
 42
2.0
 43
2.0
 50
270.0
  0
MTEXT
  5
7B57
330
7B51
100
AcDbEntity
  8
30
  6
CONTINUOUS
 62
     0
100
AcDbMText
 10
573.88112248163
 20
-368.6617850407571
 30
0.0
 40
5.0
 41
0.0
 71
     5
 72
     1
  1
\A1;25
 11
0.0000000000000001
 21
1.0
 31
0.0
1001
ACAD
1000
MTEXTBEGIN
1070
    73
1070
     1
1070
    44
1040
1.0
1070
    74
1070
     0
1000
MTEXTEND
  0
POINT
  5
7B58
330
7B51
100
AcDbEntity
  8
DEFPOINTS
  6
CONTINUOUS
 62
     0
100
AcDbPoint
 10
474.0103814583543
 20
-356.1617850407571
 30
0.0
  0
POINT
  5
7B59
330
7B51
100
AcDbEntity
  8
DEFPOINTS
  6
CONTINUOUS
 62
     0
100
AcDbPoint
 10
554.7962411233474
 20
-381.1617850407571
 30
0.0
  0
POINT
  5
7B5A
330
7B51
100
AcDbEntity
  8
DEFPOINTS
  6
CONTINUOUS
 62
     0
100
AcDbPoint
 10
577.38112248163
 20
-381.1617850407571
 30
0.0
  0
ENDBLK
  5
7B5C
330
7B51
100
AcDbEntity
  8
0
100
AcDbBlockEnd
  0
BLOCK
  5
7B75
330
7B6B
100
AcDbEntity
  8
0
100
AcDbBlockBegin
  2
*D37
 70
     1
 10
0.0
 20
0.0
 30
0.0
  3
*D37
  1

  0
LINE
  5
7B6C
330
7B6B
100
AcDbEntity
  8
30
  6
CONTINUOUS
 62
     0
100
AcDbLine
 10
555.7970025520543
 20
-474.1617850407571
 30
0.0
 11
577.8811224816299
 21
-474.1617850407571
 31
0.0
  0
LINE
  5
7B6D
330
7B6B
100
AcDbEntity
  8
30
  6
CONTINUOUS
 62
     0
100
AcDbLine
 10
474.0103814583543
 20
-499.1617850407571
 30
0.0
 11
577.8811224816299
 21
-499.1617850407571
 31
0.0
  0
LINE
  5
7B6E
330
7B6B
100
AcDbEntity
  8
30
  6
CONTINUOUS
 62
     0
100
AcDbLine
 10
577.38112248163
 20
-476.1617850407572
 30
0.0
 11
577.38112248163
 21
-497.1617850407572
 31
0.0
  0
INSERT
  5
7B6F
330
7B6B
100
AcDbEntity
  8
30
  6
CONTINUOUS
 62
     0
100
AcDbBlockReference
  2
_OPEN
 10
577.38112248163
 20
-474.1617850407571
 30
0.0
 41
2.0
 42
2.0
 43
2.0
 50
90.0
  0
INSERT
  5
7B70
330
7B6B
100
AcDbEntity
  8
30
  6
CONTINUOUS
 62
     0
100
AcDbBlockReference
  2
_OPEN
 10
577.38112248163
 20
-499.1617850407571
 30
0.0
 41
2.0
 42
2.0
 43
2.0
 50
270.0
  0
MTEXT
  5
7B71
330
7B6B
100
AcDbEntity
  8
30
  6
CONTINUOUS
 62
     0
100
AcDbMText
 10
573.88112248163
 20
-486.6617850407571
 30
0.0
 40
5.0
 41
0.0
 71
     5
 72
     1
  1
\A1;25
 11
0.0000000000000001
 21
1.0
 31
0.0
1001
ACAD
1000
MTEXTBEGIN
1070
    73
1070
     1
1070
    44
1040
1.0
1070
    74
1070
     0
1000
MTEXTEND
  0
POINT
  5
7B72
330
7B6B
100
AcDbEntity
  8
DEFPOINTS
  6
CONTINUOUS
 62
     0
100
AcDbPoint
 10
554.7970025520543
 20
-474.1617850407571
 30
0.0
  0
POINT
  5
7B73
330
7B6B
100
AcDbEntity
  8
DEFPOINTS
  6
CONTINUOUS
 62
     0
100
AcDbPoint
 10
473.0103814583543
 20
-499.1617850407571
 30
0.0
  0
POINT
  5
7B74
330
7B6B
100
AcDbEntity
  8
DEFPOINTS
  6
CONTINUOUS
 62
     0
100
AcDbPoint
 10
577.38112248163
 20
-499.1617850407571
 30
0.0
  0
ENDBLK
  5
7B76
330
7B6B
100
AcDbEntity
  8
0
100
AcDbBlockEnd
  0
BLOCK
  5
7B82
330
7B78
100
AcDbEntity
  8
0
100
AcDbBlockBegin
  2
*D38
 70
     1
 10
0.0
 20
0.0
 30
0.0
  3
*D38
  1

  0
LINE
  5
7B79
330
7B78
100
AcDbEntity
  8
30
  6
CONTINUOUS
 62
     0
100
AcDbLine
 10
-175.6369727331794
 20
-148.0
 30
0.0
 11
-175.6369727331794
 21
-173.7878436556257
 31
0.0
  0
LINE
  5
7B7A
330
7B78
100
AcDbEntity
  8
30
  6
CONTINUOUS
 62
     0
100
AcDbLine
 10
-70.6369116980294
 20
-148.0
 30
0.0
 11
-70.6369116980294
 21
-173.7878436556257
 31
0.0
  0
LINE
  5
7B7B
330
7B78
100
AcDbEntity
  8
30
  6
CONTINUOUS
 62
     0
100
AcDbLine
 10
-173.6369727331793
 20
-173.2878436556257
 30
0.0
 11
-72.63691169802941
 21
-173.2878436556257
 31
0.0
  0
INSERT
  5
7B7C
330
7B78
100
AcDbEntity
  8
30
  6
CONTINUOUS
 62
     0
100
AcDbBlockReference
  2
_OPEN
 10
-175.6369727331794
 20
-173.2878436556257
 30
0.0
 41
2.0
 42
2.0
 43
2.0
 50
180.0
  0
INSERT
  5
7B7D
330
7B78
100
AcDbEntity
  8
30
  6
CONTINUOUS
 62
     0
100
AcDbBlockReference
  2
_OPEN
 10
-70.6369116980294
 20
-173.2878436556257
 30
0.0
 41
2.0
 42
2.0
 43
2.0
  0
MTEXT
  5
7B7E
330
7B78
100
AcDbEntity
  8
30
  6
CONTINUOUS
 62
     0
100
AcDbMText
 10
-123.1369422156044
 20
-169.7878436556256
 30
0.0
 40
5.0
 41
0.0
 71
     5
 72
     1
  1
\A1;105
1001
ACAD
1000
MTEXTBEGIN
1070
    73
1070
     1
1070
    44
1040
1.0
1070
    74
1070
     0
1000
MTEXTEND
  0
POINT
  5
7B7F
330
7B78
100
AcDbEntity
  8
DEFPOINTS
  6
CONTINUOUS
 62
     0
100
AcDbPoint
 10
-175.6369727331794
 20
-147.0
 30
0.0
  0
POINT
  5
7B80
330
7B78
100
AcDbEntity
  8
DEFPOINTS
  6
CONTINUOUS
 62
     0
100
AcDbPoint
 10
-70.6369116980294
 20
-147.0
 30
0.0
  0
POINT
  5
7B81
330
7B78
100
AcDbEntity
  8
DEFPOINTS
  6
CONTINUOUS
 62
     0
100
AcDbPoint
 10
-70.6369116980294
 20
-173.2878436556257
 30
0.0
  0
ENDBLK
  5
7B83
330
7B78
100
AcDbEntity
  8
0
100
AcDbBlockEnd
  0
BLOCK
  5
7B8F
330
7B85
100
AcDbEntity
  8
0
100
AcDbBlockBegin
  2
*D39
 70
     1
 10
0.0
 20
0.0
 30
0.0
  3
*D39
  1

  0
LINE
  5
7E75
330
7B85
100
AcDbEntity
  8
30
  6
CONTINUOUS
 62
     0
100
AcDbLine
 10
-70.6369116980294
 20
-148.0
 30
0.0
 11
-70.6369116980294
 21
-173.7878436556257
 31
0.0
  0
LINE
  5
7E76
330
7B85
100
AcDbEntity
  8
30
  6
CONTINUOUS
 62
     0
100
AcDbLine
 10
104.3631493370905
 20
-148.0
 30
0.0
 11
104.3631493370905
 21
-173.7878436556257
 31
0.0
  0
LINE
  5
7E77
330
7B85
100
AcDbEntity
  8
30
  6
CONTINUOUS
 62
     0
100
AcDbLine
 10
-68.6369116980294
 20
-173.2878436556257
 30
0.0
 11
102.3631493370905
 21
-173.2878436556257
 31
0.0
  0
INSERT
  5
7E78
330
7B85
100
AcDbEntity
  8
30
  6
CONTINUOUS
 62
     0
100
AcDbBlockReference
  2
_OPEN
 10
-70.6369116980294
 20
-173.2878436556257
 30
0.0
 41
2.0
 42
2.0
 43
2.0
 50
180.0
  0
INSERT
  5
7E79
330
7B85
100
AcDbEntity
  8
30
  6
CONTINUOUS
 62
     0
100
AcDbBlockReference
  2
_OPEN
 10
104.3631493370905
 20
-173.2878436556257
 30
0.0
 41
2.0
 42
2.0
 43
2.0
  0
MTEXT
  5
7E7A
330
7B85
100
AcDbEntity
  8
30
  6
CONTINUOUS
 62
     0
100
AcDbMText
 10
16.86311881953059
 20
-169.7878436556256
 30
0.0
 40
5.0
 41
0.0
 71
     5
 72
     1
  1
\A1;175
  0
POINT
  5
7E7B
330
7B85
100
AcDbEntity
  8
DEFPOINTS
  6
CONTINUOUS
 62
     0
100
AcDbPoint
 10
-70.6369116980294
 20
-147.0
 30
0.0
  0
POINT
  5
7E7C
330
7B85
100
AcDbEntity
  8
DEFPOINTS
  6
CONTINUOUS
 62
     0
100
AcDbPoint
 10
104.3631493370905
 20
-147.0
 30
0.0
  0
POINT
  5
7E7D
330
7B85
100
AcDbEntity
  8
DEFPOINTS
  6
CONTINUOUS
 62
     0
100
AcDbPoint
 10
104.3631493370905
 20
-173.2878436556257
 30
0.0
  0
ENDBLK
  5
7B90
330
7B85
100
AcDbEntity
  8
0
100
AcDbBlockEnd
  0
BLOCK
  5
7B9C
330
7B92
100
AcDbEntity
  8
0
100
AcDbBlockBegin
  2
*D40
 70
     1
 10
0.0
 20
0.0
 30
0.0
  3
*D40
  1

  0
LINE
  5
7B93
330
7B92
100
AcDbEntity
  8
30
  6
CONTINUOUS
 62
     0
100
AcDbLine
 10
-175.6369727331794
 20
-149.0
 30
0.0
 11
-175.6369727331794
 21
-189.776761921817
 31
0.0
  0
LINE
  5
7B94
330
7B92
100
AcDbEntity
  8
30
  6
CONTINUOUS
 62
     0
100
AcDbLine
 10
104.3631493370905
 20
-149.0
 30
0.0
 11
104.3631493370905
 21
-189.776761921817
 31
0.0
  0
LINE
  5
7B95
330
7B92
100
AcDbEntity
  8
30
  6
CONTINUOUS
 62
     0
100
AcDbLine
 10
-173.6369727331793
 20
-189.276761921817
 30
0.0
 11
102.3631493370905
 21
-189.276761921817
 31
0.0
  0
INSERT
  5
7B96
330
7B92
100
AcDbEntity
  8
30
  6
CONTINUOUS
 62
     0
100
AcDbBlockReference
  2
_OPEN
 10
-175.6369727331794
 20
-189.276761921817
 30
0.0
 41
2.0
 42
2.0
 43
2.0
 50
180.0
  0
INSERT
  5
7B97
330
7B92
100
AcDbEntity
  8
30
  6
CONTINUOUS
 62
     0
100
AcDbBlockReference
  2
_OPEN
 10
104.3631493370905
 20
-189.276761921817
 30
0.0
 41
2.0
 42
2.0
 43
2.0
  0
MTEXT
  5
7B98
330
7B92
100
AcDbEntity
  8
30
  6
CONTINUOUS
 62
     0
100
AcDbMText
 10
-35.6369116980444
 20
-185.776761921817
 30
0.0
 40
5.0
 41
0.0
 71
     5
 72
     1
  1
\A1;280
1001
ACAD
1000
MTEXTBEGIN
1070
    73
1070
     1
1070
    44
1040
1.0
1070
    74
1070
     0
1000
MTEXTEND
  0
POINT
  5
7B99
330
7B92
100
AcDbEntity
  8
DEFPOINTS
  6
CONTINUOUS
 62
     0
100
AcDbPoint
 10
-175.6369727331794
 20
-148.0
 30
0.0
  0
POINT
  5
7B9A
330
7B92
100
AcDbEntity
  8
DEFPOINTS
  6
CONTINUOUS
 62
     0
100
AcDbPoint
 10
104.3631493370905
 20
-148.0
 30
0.0
  0
POINT
  5
7B9B
330
7B92
100
AcDbEntity
  8
DEFPOINTS
  6
CONTINUOUS
 62
     0
100
AcDbPoint
 10
104.3631493370905
 20
-189.276761921817
 30
0.0
  0
ENDBLK
  5
7B9D
330
7B92
100
AcDbEntity
  8
0
100
AcDbBlockEnd
  0
ENDSEC
  0
SECTION
  2
ENTITIES
  0
LINE
  5
B4
330
1E
100
AcDbEntity
  8
16
100
AcDbLine
 10
-70.6369116980294
 20
-154.5702548174952
 30
0.0
 11
-70.6369116980294
 21
169.5
 31
0.0
  0
MTEXT
  5
BF3
330
1E
100
AcDbEntity
  8
24
  6
CONTINUOUS
100
AcDbMText
 10
142.1181906098743
 20
177.5
 30
0.0
 40
3.0
 41
0.0
 71
     1
 72
     1
  1
\A1;
1001
ACAD
1000
MTEXTBEGIN
1070
    73
1070
     1
1070
    44
1040
1.0
1070
    74
1070
     0
1000
MTEXTEND
  0
LINE
  5
1C9B
330
1E
100
AcDbEntity
  8
16
100
AcDbLine
 10
368.4461629845927
 20
0.0
 30
0.0
 11
166.3937097878775
 21
0.0
 31
0.0
  0
LINE
  5
2261
330
1E
100
AcDbEntity
  8
16
100
AcDbLine
 10
-70.6369116980294
 20
-586.7320398582523
 30
0.0
 11
-70.6369116980294
 21
-271.8492850407571
 31
0.0
  0
LINE
  5
4C5A
330
1E
100
AcDbEntity
  8
16
100
AcDbLine
 10
130.1743386105972
 20
0.0
 30
0.0
 11
-198.0064616226151
 21
0.0
 31
0.0
  0
LINE
  5
6237
330
1E
100
AcDbEntity
  8
16
100
AcDbLine
 10
555.7533970843824
 20
-432.1617850407571
 30
0.0
 11
112.5591249801424
 21
-432.1617850407571
 31
0.0
  0
LINE
  5
6B0B
330
1E
100
AcDbEntity
  8
16
100
AcDbLine
 10
416.6291933395424
 20
-569.7472342595171
 30
0.0
 11
416.6291933395424
 21
-262.9903968221542
 31
0.0
  0
MTEXT
  5
6C9B
330
1E
100
AcDbEntity
  8
19
  6
CONTINUOUS
100
AcDbMText
 10
373.2849317712088
 20
258.3812419029536
 30
0.0
 40
7.0
 41
94.0
 71
     1
 72
     5
  1
XS800NE 4P PM\PXH800NE 4P PM\PXS800CS 4P PM\PXS800NS 4P PM\PXH800PS 4P PM
  7
STANDARD1
1001
ACAD
1000
MTEXTBEGIN
1070
    73
1070
     1
1070
    44
1040
1.0
1070
    74
1070
     0
1000
MTEXTEND
  0
ARC
  5
6D33
330
1E
100
AcDbEntity
  8
10
  6
CONTINUOUS
100
AcDbCircle
 10
282.3083619458902
 20
-4.0
 30
0.0
 40
69.0
100
AcDbArc
 50
180.0
 51
198.3273696466002
  0
LINE
  5
6D38
330
1E
100
AcDbEntity
  8
10
  6
CONTINUOUS
100
AcDbLine
 10
216.8083619458903
 20
-25.69677734369998
 30
0.0
 11
216.8083619458903
 21
-44.99975585940001
 31
0.0
  0
LINE
  5
6D3D
330
1E
100
AcDbEntity
  8
10
  6
CONTINUOUS
100
AcDbLine
 10
216.8083619458903
 20
17.69677734380002
 30
0.0
 11
216.8083619458903
 21
45.0
 31
0.0
  0
ARC
  5
6D3E
330
1E
100
AcDbEntity
  8
10
  6
CONTINUOUS
100
AcDbCircle
 10
282.3083619458902
 20
-4.0
 30
0.0
 40
68.99999999996953
100
AcDbArc
 50
161.6726267109726
 51
180.0
  0
LINE
  5
6D3F
330
1E
100
AcDbEntity
  8
10
  6
CONTINUOUS
100
AcDbLine
 10
186.3718385083902
 20
27.97973632809998
 30
0.0
 11
216.4017457349903
 21
16.42797851559999
 31
0.0
  0
LINE
  5
6D40
330
1E
100
AcDbEntity
  8
10
  6
CONTINUOUS
100
AcDbLine
 10
190.0870484693903
 20
38.33374023440001
 30
0.0
 11
216.8083619458903
 21
29.42602539059999
 31
0.0
  0
LINE
  5
6D41
330
1E
100
AcDbEntity
  8
10
  6
CONTINUOUS
100
AcDbLine
 10
190.0870484693903
 20
38.33374023440001
 30
0.0
 11
186.3718385083902
 21
27.97973632809998
 31
0.0
  0
LINE
  5
6D42
330
1E
100
AcDbEntity
  8
10
  6
CONTINUOUS
100
AcDbLine
 10
220.8083619458903
 20
45.0
 30
0.0
 11
216.8083619458903
 21
45.0
 31
0.0
  0
LINE
  5
6D45
330
1E
100
AcDbEntity
  8
10
  6
CONTINUOUS
100
AcDbLine
 10
341.8084840162903
 20
-85.0
 30
0.0
 11
341.8084840162903
 21
94.0
 31
0.0
  0
LINE
  5
6D46
330
1E
100
AcDbEntity
  8
10
  6
CONTINUOUS
100
AcDbLine
 10
323.8083619458902
 20
-131.9997558594
 30
0.0
 11
323.8083619458902
 21
141.0
 31
0.0
  0
LINE
  5
6D47
330
1E
100
AcDbEntity
  8
10
  6
CONTINUOUS
100
AcDbLine
 10
355.3084840162903
 20
-12.0
 30
0.0
 11
355.3084840162903
 21
-37.0
 31
0.0
  0
LINE
  5
6D48
330
1E
100
AcDbEntity
  8
10
  6
CONTINUOUS
100
AcDbLine
 10
339.2083863599903
 20
-81.52514648440002
 30
0.0
 11
339.2083863599903
 21
94.0
 31
0.0
  0
LINE
  5
6D49
330
1E
100
AcDbEntity
  8
24
  6
CONTINOUS
100
AcDbLine
 10
303.8083619458902
 20
-116.9997558594
 30
0.0
 11
447.5596659380299
 21
-116.9997558594
 31
0.0
  0
LINE
  5
6D4A
330
1E
100
AcDbEntity
  8
10
  6
CONTINUOUS
100
AcDbLine
 10
323.8083619458902
 20
-147.0
 30
0.0
 11
403.8084840162903
 21
-147.0
 31
0.0
  0
LINE
  5
6D4B
330
1E
100
AcDbEntity
  8
10
  6
CONTINUOUS
100
AcDbLine
 10
339.2083863599903
 20
-47.0
 30
0.0
 11
323.8083619458902
 21
-47.0
 31
0.0
  0
LINE
  5
6D4C
330
1E
100
AcDbEntity
  8
L225_
  6
CONTINUOUS
 62
     3
100
AcDbLine
 10
371.4837769849903
 20
-67.0
 30
0.0
 11
327.3708619458902
 21
-67.0
 31
0.0
  0
LINE
  5
6D4E
330
1E
100
AcDbEntity
  8
10
  6
CONTINUOUS
100
AcDbLine
 10
323.8083619458902
 20
-147.0
 30
0.0
 11
323.8083619458902
 21
-131.9997558594
 31
0.0
  0
LINE
  5
6D4F
330
1E
100
AcDbEntity
  8
24
  6
CONTINOUS
100
AcDbLine
 10
371.9815797193902
 20
-105.1458740233999
 30
0.0
 11
369.5592164380903
 21
-85.0
 31
0.0
  0
LINE
  5
6D50
330
1E
100
AcDbEntity
  8
18
100
AcDbLine
 10
388.8082398755902
 20
-79.9998779297
 30
0.0
 11
388.8082398755902
 21
-152.0
 31
0.0
  0
LINE
  5
6D51
330
1E
100
AcDbEntity
  8
18
100
AcDbLine
 10
396.8082398755902
 20
-79.9998779297
 30
0.0
 11
396.8082398755902
 21
-152.0
 31
0.0
  0
LINE
  5
6D52
330
1E
100
AcDbEntity
  8
10
  6
CONTINUOUS
100
AcDbLine
 10
403.8084840162903
 20
-101.9996337891
 30
0.0
 11
403.8084840162903
 21
-85.0
 31
0.0
  0
ARC
  5
6D53
330
1E
100
AcDbEntity
  8
18
100
AcDbCircle
 10
396.8082398755902
 20
-152.0
 30
0.0
 40
8.0
100
AcDbArc
 50
180.0
 51
270.0
  0
POINT
  5
6D54
330
1E
100
AcDbEntity
  8
18
100
AcDbPoint
 10
388.8082398755902
 20
-152.0936279297
 30
0.0
  0
LINE
  5
6D55
330
1E
100
AcDbEntity
  8
24
  6
CONTINOUS
100
AcDbLine
 10
364.7142457349902
 20
-125.4941406249999
 30
0.0
 11
371.9815797193902
 21
-105.1458740233999
 31
0.0
  0
LINE
  5
6D56
330
1E
100
AcDbEntity
  8
24
  6
CONTINOUS
100
AcDbLine
 10
369.0745972974903
 20
-147.0
 30
0.0
 11
364.7142457349902
 21
-125.4941406249999
 31
0.0
  0
LINE
  5
6D57
330
1E
100
AcDbEntity
  8
24
  6
CONTINOUS
100
AcDbLine
 10
367.1551637037903
 20
-133.9997558594
 30
0.0
 11
388.8084840162903
 21
-133.9997558594
 31
0.0
  0
LINE
  5
6D58
330
1E
100
AcDbEntity
  8
24
  6
CONTINOUS
100
AcDbLine
 10
371.2447633130902
 20
-99.99963378910003
 30
0.0
 11
388.8084840162903
 21
-99.99963378910003
 31
0.0
  0
POINT
  5
6D59
330
1E
100
AcDbEntity
  8
24
  6
CONTINOUS
100
AcDbPoint
 10
433.8084840162903
 20
-125.0933837891
 30
0.0
  0
POINT
  5
6D5A
330
1E
100
AcDbEntity
  8
DEFPOINTS
  6
BYBLOCK
 62
     0
100
AcDbPoint
 10
403.8084840162903
 20
-147.0936279296999
 30
0.0
  0
POINT
  5
6D5B
330
1E
100
AcDbEntity
  8
24
  6
CONTINOUS
100
AcDbPoint
 10
433.8084840162903
 20
-125.0933837891
 30
0.0
  0
LINE
  5
6D5C
330
1E
100
AcDbEntity
  8
L150_
  6
CONTINUOUS
 62
     7
100
AcDbLine
 10
403.8084840162903
 20
-131.9997558594
 30
0.0
 11
396.8082398755902
 21
-131.9997558594
 31
0.0
  0
LINE
  5
6D5D
330
1E
100
AcDbEntity
  8
24
  6
CONTINOUS
100
AcDbLine
 10
415.8084840162903
 20
-124.9997558594
 30
0.0
 11
415.8084840162903
 21
-131.9997558594
 31
0.0
  0
LINE
  5
6D5E
330
1E
100
AcDbEntity
  8
24
  6
CONTINOUS
100
AcDbLine
 10
415.8084840162903
 20
-124.9997558594
 30
0.0
 11
433.8084840162903
 21
-124.9997558594
 31
0.0
  0
LINE
  5
6D5F
330
1E
100
AcDbEntity
  8
24
  6
CONTINOUS
100
AcDbLine
 10
415.8084840162903
 20
-108.9997558594
 30
0.0
 11
433.8084840162903
 21
-108.9997558594
 31
0.0
  0
LINE
  5
6D60
330
1E
100
AcDbEntity
  8
24
  6
CONTINOUS
100
AcDbLine
 10
415.8084840162903
 20
-108.9997558594
 30
0.0
 11
415.8084840162903
 21
-124.9997558594
 31
0.0
  0
LINE
  5
6D61
330
1E
100
AcDbEntity
  8
24
  6
CONTINOUS
100
AcDbLine
 10
403.8084840162903
 20
-101.9996337891
 30
0.0
 11
415.8084840162902
 21
-101.9996337891
 31
0.0
  0
LINE
  5
6D62
330
1E
100
AcDbEntity
  8
24
  6
CONTINOUS
100
AcDbLine
 10
433.8084840162903
 20
-124.9997558594
 30
0.0
 11
433.8084840162903
 21
-108.9997558594
 31
0.0
  0
LINE
  5
6D63
330
1E
100
AcDbEntity
  8
18
100
AcDbLine
 10
396.8082398755902
 20
-160.0
 30
0.0
 11
425.8775758130902
 21
-160.0
 31
0.0
  0
LINE
  5
6D64
330
1E
100
AcDbEntity
  8
18
100
AcDbLine
 10
396.8082398755902
 20
-152.0
 30
0.0
 11
425.6912965162903
 21
-152.0
 31
0.0
  0
LINE
  5
6D65
330
1E
100
AcDbEntity
  8
24
  6
CONTINOUS
100
AcDbLine
 10
415.8084840162903
 20
-131.9997558594
 30
0.0
 11
403.8084840162903
 21
-131.9997558594
 31
0.0
  0
LINE
  5
6D66
330
1E
100
AcDbEntity
  8
24
  6
CONTINOUS
100
AcDbLine
 10
396.8082398755902
 20
-101.9996337891
 30
0.0
 11
403.8084840162903
 21
-101.9996337891
 31
0.0
  0
LINE
  5
6D67
330
1E
100
AcDbEntity
  8
10
  6
CONTINUOUS
100
AcDbLine
 10
403.8084840162903
 20
-147.0
 30
0.0
 11
403.8084840162903
 21
-131.9997558594
 31
0.0
  0
LINE
  5
6D68
330
1E
100
AcDbEntity
  8
24
  6
CONTINOUS
100
AcDbLine
 10
396.8082398755902
 20
-124.9997558594
 30
0.0
 11
415.8084840162903
 21
-124.9997558594
 31
0.0
  0
LINE
  5
6D69
330
1E
100
AcDbEntity
  8
24
  6
CONTINOUS
100
AcDbLine
 10
415.8084840162903
 20
-108.9997558594
 30
0.0
 11
415.8084840162903
 21
-124.9997558594
 31
0.0
  0
LINE
  5
6D6A
330
1E
100
AcDbEntity
  8
24
  6
CONTINOUS
100
AcDbLine
 10
415.8084840162902
 20
-101.9996337891
 30
0.0
 11
415.8084840162903
 21
-108.9997558594
 31
0.0
  0
LINE
  5
6D6B
330
1E
100
AcDbEntity
  8
24
  6
CONTINOUS
100
AcDbLine
 10
396.8082398755902
 20
-108.9997558594
 30
0.0
 11
415.8084840162903
 21
-108.9997558594
 31
0.0
  0
LINE
  5
6D6C
330
1E
100
AcDbEntity
  8
10
  6
CONTINUOUS
100
AcDbLine
 10
341.8084840162903
 20
-85.0
 30
0.0
 11
403.8084840162903
 21
-85.0
 31
0.0
  0
ARC
  5
6D6D
330
1E
100
AcDbEntity
  8
18
100
AcDbCircle
 10
396.8082398755902
 20
-79.9998779297
 30
0.0
 40
8.0
100
AcDbArc
 50
90.0
 51
180.0
  0
LINE
  5
6D6E
330
1E
100
AcDbEntity
  8
12
  6
DASHED
100
AcDbLine
 10
362.8084840162903
 20
-72.0
 30
0.0
 11
362.8084840162903
 21
-62.0
 31
0.0
  0
LINE
  5
6D6F
330
1E
100
AcDbEntity
  8
12
  6
DASHED
100
AcDbLine
 10
346.8084840162903
 20
-72.0
 30
0.0
 11
362.8084840162903
 21
-72.0
 31
0.0
  0
LINE
  5
6D70
330
1E
100
AcDbEntity
  8
18
100
AcDbLine
 10
341.8084840162903
 20
-42.0
 30
0.0
 11
381.8084840162903
 21
-42.0
 31
0.0
  0
LINE
  5
6D71
330
1E
100
AcDbEntity
  8
18
100
AcDbLine
 10
346.8084840162903
 20
-47.0
 30
0.0
 11
346.8084840162903
 21
-82.0
 31
0.0
  0
LINE
  5
6D72
330
1E
100
AcDbEntity
  8
18
100
AcDbLine
 10
381.8084840162903
 20
-47.0
 30
0.0
 11
346.8084840162903
 21
-47.0
 31
0.0
  0
LINE
  5
6D73
330
1E
100
AcDbEntity
  8
18
100
AcDbLine
 10
346.8084840162903
 20
-82.0
 30
0.0
 11
341.8084840162903
 21
-82.0
 31
0.0
  0
LINE
  5
6D74
330
1E
100
AcDbEntity
  8
18
100
AcDbLine
 10
381.8084840162903
 20
-42.0
 30
0.0
 11
381.8084840162903
 21
-47.0
 31
0.0
  0
LINE
  5
6D75
330
1E
100
AcDbEntity
  8
10
  6
CONTINUOUS
100
AcDbLine
 10
355.3084840162903
 20
-37.0
 30
0.0
 11
341.8084840162903
 21
-37.0
 31
0.0
  0
LINE
  5
6D76
330
1E
100
AcDbEntity
  8
12
  6
DASHED
100
AcDbLine
 10
346.8084840162903
 20
-62.0
 30
0.0
 11
362.8084840162903
 21
-62.0
 31
0.0
  0
LINE
  5
6D77
330
1E
100
AcDbEntity
  8
12
  6
DASHED
100
AcDbLine
 10
346.8084840162903
 20
-76.81494140619998
 30
0.0
 11
357.3084840161902
 21
-76.81494140619998
 31
0.0
  0
LINE
  5
6D78
330
1E
100
AcDbEntity
  8
12
  6
DASHED
100
AcDbLine
 10
357.3084840161902
 20
-57.18505859369997
 30
0.0
 11
357.3084840161902
 21
-76.81494140619998
 31
0.0
  0
LINE
  5
6D79
330
1E
100
AcDbEntity
  8
12
  6
DASHED
100
AcDbLine
 10
346.8084840162903
 20
-57.18505859369997
 30
0.0
 11
357.3084840161902
 21
-57.18505859369997
 31
0.0
  0
LINE
  5
6D7A
330
1E
100
AcDbEntity
  8
18
100
AcDbLine
 10
396.8082398755902
 20
-79.9998779297
 30
0.0
 11
430.3031129224903
 21
-79.9998779297
 31
0.0
  0
LINE
  5
6D7B
330
1E
100
AcDbEntity
  8
18
100
AcDbLine
 10
396.8082398755902
 20
-71.9998779297
 30
0.0
 11
430.3031129224903
 21
-71.9998779297
 31
0.0
  0
LINE
  5
6D7C
330
1E
100
AcDbEntity
  8
24
  6
CONTINOUS
100
AcDbLine
 10
415.8084840162903
 20
118.0
 30
0.0
 11
433.8084840162903
 21
118.0
 31
0.0
  0
LINE
  5
6D7D
330
1E
100
AcDbEntity
  8
L0_
  6
CONTINUOUS
 62
     2
100
AcDbLine
 10
415.8084840162903
 20
134.0
 30
0.0
 11
433.8084840162903
 21
134.0
 31
0.0
  0
LINE
  5
6D7E
330
1E
100
AcDbEntity
  8
24
  6
CONTINOUS
100
AcDbLine
 10
303.8083619458902
 20
126.0
 30
0.0
 11
447.2020934949141
 21
126.0
 31
0.0
  0
LINE
  5
6D7F
330
1E
100
AcDbEntity
  8
24
  6
CONTINOUS
100
AcDbLine
 10
365.6832398755903
 20
135.1578369141
 30
0.0
 11
371.0125855787903
 21
112.8717041016
 31
0.0
  0
LINE
  5
6D80
330
1E
100
AcDbEntity
  8
18
100
AcDbLine
 10
396.8082398755902
 20
88.9998779297
 30
0.0
 11
396.8082398755902
 21
161.0
 31
0.0
  0
LINE
  5
6D81
330
1E
100
AcDbEntity
  8
18
100
AcDbLine
 10
388.8082398755902
 20
88.9998779297
 30
0.0
 11
388.8082398755902
 21
161.0
 31
0.0
  0
LINE
  5
6D82
330
1E
100
AcDbEntity
  8
24
  6
CONTINOUS
100
AcDbLine
 10
415.8084840162903
 20
117.9997558594
 30
0.0
 11
415.8084840162903
 21
134.0
 31
0.0
  0
LINE
  5
6D83
330
1E
100
AcDbEntity
  8
24
  6
CONTINOUS
100
AcDbLine
 10
415.8084840162903
 20
134.0
 30
0.0
 11
415.8084840162903
 21
118.0
 31
0.0
  0
LINE
  5
6D85
330
1E
100
AcDbEntity
  8
10
  6
CONTINUOUS
100
AcDbLine
 10
339.2083863599903
 20
56.0
 30
0.0
 11
323.8083619458902
 21
56.0
 31
0.0
  0
LINE
  5
6D86
330
1E
100
AcDbEntity
  8
L225_
  6
CONTINUOUS
 62
     3
100
AcDbLine
 10
326.7413453443903
 20
76.0
 30
0.0
 11
371.6217164380902
 21
76.0
 31
0.0
  0
LINE
  5
6D87
330
1E
100
AcDbEntity
  8
18
100
AcDbLine
 10
346.8084840162903
 20
56.0
 30
0.0
 11
346.8084840162903
 21
91.0
 31
0.0
  0
LINE
  5
6D88
330
1E
100
AcDbEntity
  8
18
100
AcDbLine
 10
381.8084840162903
 20
56.0
 30
0.0
 11
346.8084840162903
 21
56.0
 31
0.0
  0
LINE
  5
6D8C
330
1E
100
AcDbEntity
  8
18
100
AcDbLine
 10
381.8084840162903
 20
51.0
 30
0.0
 11
381.8084840162903
 21
56.0
 31
0.0
  0
LINE
  5
6D8D
330
1E
100
AcDbEntity
  8
18
100
AcDbLine
 10
341.8084840162903
 20
51.0
 30
0.0
 11
381.8084840162903
 21
51.0
 31
0.0
  0
LINE
  5
6D8E
330
1E
100
AcDbEntity
  8
10
  6
CONTINUOUS
100
AcDbLine
 10
355.3084840162903
 20
8.5
 30
0.0
 11
341.8084840162903
 21
8.5
 31
0.0
  0
LINE
  5
6D8F
330
1E
100
AcDbEntity
  8
10
  6
CONTINUOUS
100
AcDbLine
 10
355.3084840162903
 20
33.5
 30
0.0
 11
355.3084840162903
 21
8.5
 31
0.0
  0
LINE
  5
6D90
330
1E
100
AcDbEntity
  8
10
  6
CONTINUOUS
100
AcDbLine
 10
341.8084840162903
 20
33.5
 30
0.0
 11
355.3084840162903
 21
33.5
 31
0.0
  0
LINE
  5
6D91
330
1E
100
AcDbEntity
  8
10
  6
CONTINUOUS
100
AcDbLine
 10
348.8084840162903
 20
50.5
 30
0.0
 11
348.8084840162903
 21
33.5
 31
0.0
  0
LINE
  5
6D92
330
1E
100
AcDbEntity
  8
10
  6
CONTINUOUS
100
AcDbLine
 10
348.8084840162903
 20
50.5
 30
0.0
 11
341.8084840162903
 21
50.5
 31
0.0
  0
LINE
  5
6D93
330
1E
100
AcDbEntity
  8
10
  6
CONTINUOUS
100
AcDbLine
 10
341.8084840162903
 20
-12.0
 30
0.0
 11
355.3084840162903
 21
-12.0
 31
0.0
  0
LINE
  5
6D94
330
1E
100
AcDbEntity
  8
10
  6
CONTINUOUS
100
AcDbLine
 10
348.8084840162903
 20
5.0
 30
0.0
 11
348.8084840162903
 21
-12.0
 31
0.0
  0
LINE
  5
6D95
330
1E
100
AcDbEntity
  8
10
  6
CONTINUOUS
100
AcDbLine
 10
348.8084840162903
 20
5.0
 30
0.0
 11
341.8084840162903
 21
5.0
 31
0.0
  0
ARC
  5
6D96
330
1E
100
AcDbEntity
  8
18
100
AcDbCircle
 10
-396.8082398755902
 20
88.9998779297
 30
0.0
 40
8.0
210
0.0
220
0.0
230
-1.0
100
AcDbArc
 50
270.0
 51
0.0
  0
LINE
  5
6D97
330
1E
100
AcDbEntity
  8
10
  6
CONTINUOUS
100
AcDbLine
 10
341.8084840162903
 20
94.0
 30
0.0
 11
403.8084840162903
 21
94.0
 31
0.0
  0
LINE
  5
6D98
330
1E
100
AcDbEntity
  8
24
  6
CONTINOUS
100
AcDbLine
 10
371.0125855787903
 20
112.8717041016
 30
0.0
 11
368.1058472974902
 21
94.0
 31
0.0
  0
LINE
  5
6D99
330
1E
100
AcDbEntity
  8
24
  6
CONTINOUS
100
AcDbLine
 10
371.2447633130902
 20
108.9996337891
 30
0.0
 11
388.8084840162903
 21
108.9996337891
 31
0.0
  0
LINE
  5
6D9A
330
1E
100
AcDbEntity
  8
18
100
AcDbLine
 10
346.8084840162903
 20
91.0
 30
0.0
 11
341.8084840162903
 21
91.0
 31
0.0
  0
LINE
  5
6D9B
330
1E
100
AcDbEntity
  8
12
  6
DASHED
100
AcDbLine
 10
346.8084840162903
 20
71.0
 30
0.0
 11
362.8084840162903
 21
71.0
 31
0.0
  0
LINE
  5
6D9C
330
1E
100
AcDbEntity
  8
12
  6
DASHED
100
AcDbLine
 10
362.8084840162903
 20
71.0
 30
0.0
 11
362.8084840162903
 21
81.0
 31
0.0
  0
LINE
  5
6D9D
330
1E
100
AcDbEntity
  8
12
  6
DASHED
100
AcDbLine
 10
346.8084840162903
 20
81.0
 30
0.0
 11
362.8084840162903
 21
81.0
 31
0.0
  0
LINE
  5
6D9E
330
1E
100
AcDbEntity
  8
12
  6
DASHED
100
AcDbLine
 10
346.8084840162903
 20
66.18505859380002
 30
0.0
 11
357.3084840161902
 21
66.18505859380002
 31
0.0
  0
LINE
  5
6D9F
330
1E
100
AcDbEntity
  8
12
  6
DASHED
100
AcDbLine
 10
357.3084840161902
 20
85.81494140630002
 30
0.0
 11
357.3084840161902
 21
66.18505859380002
 31
0.0
  0
LINE
  5
6DA0
330
1E
100
AcDbEntity
  8
12
  6
DASHED
100
AcDbLine
 10
346.8084840162903
 20
85.81494140630002
 30
0.0
 11
357.3084840161902
 21
85.81494140630002
 31
0.0
  0
LINE
  5
6DA1
330
1E
100
AcDbEntity
  8
24
  6
CONTINOUS
100
AcDbLine
 10
415.8084840162903
 20
118.0
 30
0.0
 11
415.8084840162903
 21
110.9996337891
 31
0.0
  0
LINE
  5
6DA2
330
1E
100
AcDbEntity
  8
24
  6
CONTINOUS
100
AcDbLine
 10
403.8084840162903
 20
110.9996337891
 30
0.0
 11
396.8082398755902
 21
110.9996337891
 31
0.0
  0
LINE
  5
6DA3
330
1E
100
AcDbEntity
  8
24
  6
CONTINOUS
100
AcDbLine
 10
415.8084840162903
 20
110.9996337891
 30
0.0
 11
403.8084840162903
 21
110.9996337891
 31
0.0
  0
LINE
  5
6DA4
330
1E
100
AcDbEntity
  8
18
100
AcDbLine
 10
396.8082398755902
 20
80.99987792970001
 30
0.0
 11
430.3031129224903
 21
80.99987792970001
 31
0.0
  0
LINE
  5
6DA5
330
1E
100
AcDbEntity
  8
18
100
AcDbLine
 10
396.8082398755902
 20
88.9998779297
 30
0.0
 11
430.3031129224903
 21
88.9998779297
 31
0.0
  0
LINE
  5
6DA6
330
1E
100
AcDbEntity
  8
24
  6
CONTINOUS
100
AcDbLine
 10
396.8082398755902
 20
118.0
 30
0.0
 11
415.8084840162903
 21
118.0
 31
0.0
  0
LINE
  5
6DA7
330
1E
100
AcDbEntity
  8
10
  6
CONTINUOUS
100
AcDbLine
 10
403.8084840162903
 20
94.0
 30
0.0
 11
403.8084840162903
 21
110.9996337891
 31
0.0
  0
LINE
  5
6DA8
330
1E
100
AcDbEntity
  8
10
  6
CONTINUOUS
100
AcDbLine
 10
323.8083619458902
 20
156.0
 30
0.0
 11
403.8084840162903
 21
156.0
 31
0.0
  0
LINE
  5
6DAB
330
1E
100
AcDbEntity
  8
10
  6
CONTINUOUS
100
AcDbLine
 10
323.8083619458902
 20
141.0
 30
0.0
 11
323.8083619458902
 21
156.0
 31
0.0
  0
ARC
  5
6DAC
330
1E
100
AcDbEntity
  8
18
100
AcDbCircle
 10
-396.8082398755902
 20
161.0
 30
0.0
 40
8.0
210
0.0
220
0.0
230
-1.0
100
AcDbArc
 50
0.0
 51
90.0
  0
LINE
  5
6DAD
330
1E
100
AcDbEntity
  8
24
  6
CONTINOUS
100
AcDbLine
 10
369.0745972974903
 20
156.0
 30
0.0
 11
365.6832398755903
 21
135.1578369141
 31
0.0
  0
LINE
  5
6DAE
330
1E
100
AcDbEntity
  8
24
  6
CONTINOUS
100
AcDbLine
 10
367.1551637037903
 20
142.9997558594
 30
0.0
 11
388.8084840162903
 21
142.9997558594
 31
0.0
  0
LINE
  5
6DAF
330
1E
100
AcDbEntity
  8
L0_
  6
CONTINUOUS
 62
     2
100
AcDbLine
 10
403.8084840162903
 20
140.9997558594
 30
0.0
 11
396.8082398755902
 21
140.9997558594
 31
0.0
  0
LINE
  5
6DB0
330
1E
100
AcDbEntity
  8
24
  6
CONTINOUS
100
AcDbLine
 10
415.8084840162903
 20
140.9997558594
 30
0.0
 11
403.8084840162903
 21
140.9997558594
 31
0.0
  0
LINE
  5
6DB1
330
1E
100
AcDbEntity
  8
18
100
AcDbLine
 10
396.8082398755902
 20
161.0
 30
0.0
 11
425.6912965162903
 21
161.0
 31
0.0
  0
LINE
  5
6DB2
330
1E
100
AcDbEntity
  8
18
100
AcDbLine
 10
396.8082398755902
 20
169.0
 30
0.0
 11
425.8775758130902
 21
169.0
 31
0.0
  0
LINE
  5
6DB3
330
1E
100
AcDbEntity
  8
10
  6
CONTINUOUS
100
AcDbLine
 10
403.8084840162903
 20
140.9997558594
 30
0.0
 11
403.8084840162903
 21
156.0
 31
0.0
  0
LINE
  5
6DB4
330
1E
100
AcDbEntity
  8
L0_
  6
CONTINUOUS
 62
     2
100
AcDbLine
 10
415.8084840162903
 20
139.8564453125
 30
0.0
 11
415.8084840162903
 21
134.0
 31
0.0
  0
LINE
  5
6DB5
330
1E
100
AcDbEntity
  8
24
  6
CONTINOUS
100
AcDbLine
 10
396.8082398755902
 20
134.0
 30
0.0
 11
415.8084840162903
 21
134.0
 31
0.0
  0
LINE
  5
6DB6
330
1E
100
AcDbEntity
  8
L0_
  6
CONTINUOUS
 62
     2
100
AcDbLine
 10
433.8084840162903
 20
118.0
 30
0.0
 11
433.8084840162903
 21
134.0
 31
0.0
  0
LWPOLYLINE
  5
6EC2
330
1E
100
AcDbEntity
  8
10
  6
CONTINUOUS
100
AcDbPolyline
 90
        8
 70
     0
 43
0.0
 10
323.8083619458902
 20
141.0
 10
259.1082887037903
 20
141.0
 10
233.8083619458902
 20
141.0
 10
233.8083619458902
 20
116.3999023438
 10
226.8083619458902
 20
116.3999023438
 10
226.8083619458902
 20
57.0
 10
220.8083619458903
 20
57.0
 10
220.8083619458903
 20
-44.99975585940001
  0
LWPOLYLINE
  5
6EC3
330
1E
100
AcDbEntity
  8
10
  6
CONTINUOUS
100
AcDbPolyline
 90
        9
 70
     0
 43
0.0
 10
216.8083619458903
 20
-44.99975585940001
 10
226.8083619458902
 20
-44.99975585940001
 10
226.8083619458902
 20
-50.99975585940001
 10
220.8083619458903
 20
-50.99975585940001
 10
220.8083619458903
 20
-106.9997558594
 10
223.8083619458902
 20
-106.9997558594
 10
223.8083619458902
 20
-131.9997558594
 10
259.1082887037903
 20
-131.9997558594
 10
323.8083619458902
 20
-131.9997558594
  0
DIMENSION
  5
6EC8
330
1E
100
AcDbEntity
  8
30
  6
CONTINUOUS
100
AcDbDimension
  2
*D1
 10
323.8083619458902
 20
-209.5853277737153
 30
0.0
 11
251.2871240542688
 21
-206.0853277737153
 31
0.0
 70
    32
  3
STANDARD
100
AcDbAlignedDimension
 13
178.7658861626475
 23
0.0
 33
0.0
 14
323.8083619458902
 24
-147.0
 34
0.0
100
AcDbRotatedDimension
  0
DIMENSION
  5
6F3C
330
1E
100
AcDbEntity
  8
30
  6
CONTINUOUS
100
AcDbDimension
  2
*D2
 10
341.8084840162903
 20
-192.0387863989474
 30
0.0
 11
281.3084229810903
 21
-188.5387863989474
 31
0.0
 70
    32
  3
STANDARD
100
AcDbAlignedDimension
 13
220.8083619458903
 23
-106.9997558594
 33
0.0
 14
341.8084840162903
 24
-85.0
 34
0.0
100
AcDbRotatedDimension
  0
DIMENSION
  5
6F52
330
1E
100
AcDbEntity
  8
30
  6
CONTINUOUS
100
AcDbDimension
  2
*D3
 10
403.8084840162903
 20
-192.0387863989474
 30
0.0
 11
372.8084840162903
 21
-188.5387863989474
 31
0.0
 70
    32
  3
STANDARD
100
AcDbAlignedDimension
 13
341.8084840162903
 23
-85.0
 33
0.0
 14
403.8084840162903
 24
-147.0
 34
0.0
100
AcDbRotatedDimension
1001
ACAD
1000
DSTYLE
1002
{
1070
   287
1070
     4
1070
   287
1070
     4
1070
   279
1070
     1
1002
}
  0
DIMENSION
  5
6F5F
330
1E
100
AcDbEntity
  8
30
  6
CONTINUOUS
100
AcDbDimension
  2
*D4
 10
433.8084840162903
 20
-192.0387863989474
 30
0.0
 11
418.8084840162903
 21
-188.5387863989474
 31
0.0
 70
    32
  3
STANDARD
100
AcDbAlignedDimension
 13
403.8084840162903
 23
-147.0
 33
0.0
 14
433.8084840162903
 24
-124.9997558594
 34
0.0
100
AcDbRotatedDimension
1001
ACAD
1000
DSTYLE
1002
{
1070
   287
1070
     4
1070
   287
1070
     4
1070
   279
1070
     1
1002
}
  0
DIMENSION
  5
6FA5
330
1E
100
AcDbEntity
  8
30
  6
CONTINUOUS
100
AcDbDimension
  2
*D5
 10
388.8084840162903
 20
-175.0972965716073
 30
0.0
 11
411.3084840162903
 21
-171.5972965716073
 31
0.0
 70
    32
  3
STANDARD
100
AcDbAlignedDimension
 13
433.8084840162903
 23
-125.9997558594
 33
0.0
 14
388.8084840162903
 24
-133.9997558594
 34
0.0
100
AcDbRotatedDimension
  0
DIMENSION
  5
6FB2
330
1E
100
AcDbEntity
  8
30
  6
CONTINUOUS
100
AcDbDimension
  2
*D6
 10
341.8084840162903
 20
-175.0972965716073
 30
0.0
 11
365.3084840162903
 21
-171.5972965716073
 31
0.0
 70
    32
  3
STANDARD
100
AcDbAlignedDimension
 13
388.8084840162903
 23
-133.9997558594
 33
0.0
 14
341.8084840162903
 24
-147.0
 34
0.0
100
AcDbRotatedDimension
1001
ACAD
1000
DSTYLE
1002
{
1070
   287
1070
     4
1070
   287
1070
     4
1070
   279
1070
     1
1002
}
  0
LINE
  5
718F
330
1E
100
AcDbEntity
  8
16
100
AcDbLine
 10
-265.238919918457
 20
-432.1617850407571
 30
0.0
 11
71.00418579857079
 21
-432.2657026277592
 31
0.0
  0
LINE
  5
75E0
330
1E
100
AcDbEntity
  8
18
  6
DASHED
 48
2.0
100
AcDbLine
 10
182.3694833108474
 20
-341.1617850407572
 30
0.0
 11
557.0770028420473
 21
-341.1617850407572
 31
0.0
  0
LINE
  5
75E1
330
1E
100
AcDbEntity
  8
18
  6
DASHED
 48
2.0
100
AcDbLine
 10
176.2876962014473
 20
-474.1617850407571
 30
0.0
 11
554.7962411233474
 21
-474.1617850407571
 31
0.0
  0
LINE
  5
75E2
330
1E
100
AcDbEntity
  8
18
  6
DASHED
 48
2.0
100
AcDbLine
 10
176.2876962014473
 20
-381.1617850407571
 30
0.0
 11
554.7962411233474
 21
-381.1617850407571
 31
0.0
  0
LINE
  5
75E3
330
1E
100
AcDbEntity
  8
18
  6
DASHED
 48
2.0
100
AcDbLine
 10
181.9227059670473
 20
-376.1617850407572
 30
0.0
 11
556.6978524514474
 21
-376.1617850407572
 31
0.0
  0
LINE
  5
75E4
330
1E
100
AcDbEntity
  8
18
  6
DASHED
 48
2.0
100
AcDbLine
 10
181.9227059670473
 20
-479.1617850407572
 30
0.0
 11
556.6978524514474
 21
-479.1617850407572
 31
0.0
  0
LINE
  5
75E5
330
1E
100
AcDbEntity
  8
18
  6
DASHED
 48
2.0
100
AcDbLine
 10
182.3702447395543
 20
-514.1617850407572
 30
0.0
 11
557.0777642707542
 21
-514.1617850407572
 31
0.0
  0
LINE
  5
75E6
330
1E
100
AcDbEntity
  8
12
  6
CONTINUOUS
 62
     3
100
AcDbLine
 10
95.2054498176543
 20
-499.1617850407571
 30
0.0
 11
131.9869439582542
 21
-499.1617850407571
 31
0.0
  0
LINE
  5
75E7
330
1E
100
AcDbEntity
  8
18
  6
DASHED
 48
2.0
100
AcDbLine
 10
175.9884088020543
 20
-503.5102957829572
 30
0.0
 11
182.3702447395543
 21
-514.1617850407572
 31
0.0
  0
LINE
  5
75E8
330
1E
100
AcDbEntity
  8
18
  6
DASHED
 48
2.0
100
AcDbLine
 10
116.2884576301542
 20
-479.1617850407572
 30
0.0
 11
116.2884576301542
 21
-514.1617850407572
 31
0.0
  0
LINE
  5
75E9
330
1E
100
AcDbEntity
  8
18
  6
DASHED
 48
2.0
100
AcDbLine
 10
111.2884576301542
 20
-514.1617850407572
 30
0.0
 11
111.2884576301542
 21
-474.1617850407571
 31
0.0
  0
LINE
  5
75EA
330
1E
100
AcDbEntity
  8
18
  6
DASHED
 48
2.0
100
AcDbLine
 10
116.2884576301542
 20
-484.1617850407572
 30
0.0
 11
116.2884576301542
 21
-511.1617850407571
 31
0.0
  0
LINE
  5
75EB
330
1E
100
AcDbEntity
  8
18
  6
DASHED
 48
2.0
100
AcDbLine
 10
111.2884576301542
 20
-514.1617850407572
 30
0.0
 11
111.2884576301542
 21
-474.1617850407571
 31
0.0
  0
LINE
  5
75EC
330
1E
100
AcDbEntity
  8
18
  6
DASHED
 48
2.0
100
AcDbLine
 10
111.2884576301542
 20
-514.1617850407572
 30
0.0
 11
116.2884576301542
 21
-514.1617850407572
 31
0.0
  0
LINE
  5
75ED
330
1E
100
AcDbEntity
  8
18
  6
DASHED
 48
2.0
100
AcDbLine
 10
113.2884576301542
 20
-514.1617850407572
 30
0.0
 11
111.2884576301542
 21
-514.1617850407572
 31
0.0
  0
LINE
  5
75EE
330
1E
100
AcDbEntity
  8
18
  6
DASHED
 48
2.0
100
AcDbLine
 10
151.2884576301543
 20
-474.1617850407571
 30
0.0
 11
151.2884576301543
 21
-479.1617850407572
 31
0.0
  0
LINE
  5
75EF
330
1E
100
AcDbEntity
  8
18
  6
DASHED
 48
2.0
100
AcDbLine
 10
151.2884576301543
 20
-479.1617850407572
 30
0.0
 11
116.2884576301542
 21
-479.1617850407572
 31
0.0
  0
LINE
  5
75F0
330
1E
100
AcDbEntity
  8
18
  6
DASHED
 48
2.0
100
AcDbLine
 10
111.2884576301542
 20
-474.1617850407571
 30
0.0
 11
151.2884576301543
 21
-474.1617850407571
 31
0.0
  0
LINE
  5
75F1
330
1E
100
AcDbEntity
  8
18
  6
DASHED
 48
2.0
100
AcDbLine
 10
151.2884576301543
 20
-474.1617850407571
 30
0.0
 11
151.2884576301543
 21
-476.1617850407572
 31
0.0
  0
LINE
  5
75F2
330
1E
100
AcDbEntity
  8
18
  6
DASHED
 48
2.0
100
AcDbLine
 10
148.2884576301543
 20
-479.1617850407572
 30
0.0
 11
121.2884576301543
 21
-479.1617850407572
 31
0.0
  0
LINE
  5
75F3
330
1E
100
AcDbEntity
  8
18
  6
DASHED
 48
2.0
100
AcDbLine
 10
111.2884576301542
 20
-474.1617850407571
 30
0.0
 11
151.2884576301543
 21
-474.1617850407571
 31
0.0
  0
LINE
  5
75F4
330
1E
100
AcDbEntity
  8
18
  6
DASHED
 48
2.0
100
AcDbLine
 10
182.8001763801543
 20
-488.9136160954572
 30
0.0
 11
175.9884088020543
 21
-503.5102957829572
 31
0.0
  0
LINE
  5
75F5
330
1E
100
AcDbEntity
  8
18
  6
DASHED
 48
2.0
100
AcDbLine
 10
176.2884576301543
 20
-474.1617850407571
 30
0.0
 11
182.8001763801543
 21
-488.9136160954572
 31
0.0
  0
LINE
  5
75F7
330
1E
100
AcDbEntity
  8
12
  6
CONTINUOUS
 62
     3
100
AcDbLine
 10
95.2054498176543
 20
-356.1617850407571
 30
0.0
 11
131.9869439582542
 21
-356.1617850407571
 31
0.0
  0
LINE
  5
75F8
330
1E
100
AcDbEntity
  8
18
  6
DASHED
 48
2.0
100
AcDbLine
 10
180.8538873176543
 20
-369.2208670719571
 30
0.0
 11
174.0421197395543
 21
-352.6778983219571
 31
0.0
  0
LINE
  5
75F9
330
1E
100
AcDbEntity
  8
18
  6
DASHED
 48
2.0
100
AcDbLine
 10
111.2884576301542
 20
-341.1617850407572
 30
0.0
 11
111.2884576301542
 21
-381.1617850407571
 31
0.0
  0
LINE
  5
75FA
330
1E
100
AcDbEntity
  8
18
  6
DASHED
 48
2.0
100
AcDbLine
 10
116.2884576301542
 20
-376.1617850407572
 30
0.0
 11
116.2884576301542
 21
-341.1617850407572
 31
0.0
  0
LINE
  5
75FB
330
1E
100
AcDbEntity
  8
18
  6
DASHED
 48
2.0
100
AcDbLine
 10
116.2884576301542
 20
-371.1617850407571
 30
0.0
 11
116.2884576301542
 21
-344.1617850407571
 31
0.0
  0
LINE
  5
75FC
330
1E
100
AcDbEntity
  8
18
  6
DASHED
 48
2.0
100
AcDbLine
 10
111.2884576301542
 20
-341.1617850407572
 30
0.0
 11
111.2884576301542
 21
-381.1617850407571
 31
0.0
  0
LINE
  5
75FD
330
1E
100
AcDbEntity
  8
18
  6
DASHED
 48
2.0
100
AcDbLine
 10
111.2884576301542
 20
-381.1617850407571
 30
0.0
 11
151.2884576301543
 21
-381.1617850407571
 31
0.0
  0
LINE
  5
75FE
330
1E
100
AcDbEntity
  8
18
  6
DASHED
 48
2.0
100
AcDbLine
 10
151.2884576301543
 20
-376.1617850407572
 30
0.0
 11
116.2884576301542
 21
-376.1617850407572
 31
0.0
  0
LINE
  5
75FF
330
1E
100
AcDbEntity
  8
18
  6
DASHED
 48
2.0
100
AcDbLine
 10
151.2884576301543
 20
-376.1617850407572
 30
0.0
 11
151.2884576301543
 21
-381.1617850407571
 31
0.0
  0
LINE
  5
7600
330
1E
100
AcDbEntity
  8
18
  6
DASHED
 48
2.0
100
AcDbLine
 10
148.2884576301543
 20
-376.1617850407572
 30
0.0
 11
121.2884576301543
 21
-376.1617850407572
 31
0.0
  0
LINE
  5
7601
330
1E
100
AcDbEntity
  8
18
  6
DASHED
 48
2.0
100
AcDbLine
 10
151.2884576301543
 20
-381.1617850407571
 30
0.0
 11
151.2884576301543
 21
-379.1617850407571
 31
0.0
  0
LINE
  5
7602
330
1E
100
AcDbEntity
  8
18
  6
DASHED
 48
2.0
100
AcDbLine
 10
111.2884576301542
 20
-381.1617850407571
 30
0.0
 11
151.2884576301543
 21
-381.1617850407571
 31
0.0
  0
LINE
  5
7603
330
1E
100
AcDbEntity
  8
18
  6
DASHED
 48
2.0
100
AcDbLine
 10
176.2884576301543
 20
-381.1617850407571
 30
0.0
 11
180.8538873176543
 21
-369.2208670719571
 31
0.0
  0
LINE
  5
7604
330
1E
100
AcDbEntity
  8
18
  6
DASHED
 48
2.0
100
AcDbLine
 10
111.2884576301542
 20
-341.1617850407572
 30
0.0
 11
116.2884576301542
 21
-341.1617850407572
 31
0.0
  0
LINE
  5
7605
330
1E
100
AcDbEntity
  8
18
  6
DASHED
 48
2.0
100
AcDbLine
 10
113.2884576301542
 20
-341.1617850407572
 30
0.0
 11
111.2884576301542
 21
-341.1617850407572
 31
0.0
  0
LINE
  5
7606
330
1E
100
AcDbEntity
  8
18
  6
DASHED
 48
2.0
100
AcDbLine
 10
174.0421197395543
 20
-352.6778983219571
 30
0.0
 11
182.3702447395543
 21
-341.1617850407572
 31
0.0
  0
LINE
  5
7607
330
1E
100
AcDbEntity
  8
18
  6
DASHED
 48
2.0
100
AcDbLine
 10
308.5103814583543
 20
-276.1617850407572
 30
0.0
 11
308.5103814583543
 21
-579.1617850407572
 31
0.0
  0
LINE
  5
7608
330
1E
100
AcDbEntity
  8
18
  6
DASHED
 48
2.0
100
AcDbLine
 10
518.5103814583543
 20
-276.1617850407572
 30
0.0
 11
518.5103814583543
 21
-579.1617850407572
 31
0.0
  0
LINE
  5
7609
330
1E
100
AcDbEntity
  8
18
  6
DASHED
 48
2.0
100
AcDbLine
 10
308.5103814583543
 20
-276.1617850407572
 30
0.0
 11
308.5103814583543
 21
-579.1617850407572
 31
0.0
  0
LINE
  5
760B
330
1E
100
AcDbEntity
  8
18
  6
DASHED
 48
2.0
100
AcDbLine
 10
241.6291933395424
 20
-579.1617850407572
 30
0.0
 11
518.5103814583543
 21
-579.1617850407572
 31
0.0
  0
CIRCLE
  5
760D
330
1E
100
AcDbEntity
  8
12
  6
CONTINUOUS
 62
     3
100
AcDbCircle
 10
-368.5103814583543
 20
-499.1617850407571
 30
0.0
 40
5.5
210
0.0
220
0.0
230
-1.0
  0
LINE
  5
760E
330
1E
100
AcDbEntity
  8
12
  6
CONTINUOUS
 62
     3
100
AcDbLine
 10
379.9432427864543
 20
-499.1617850407571
 30
0.0
 11
357.1363580208543
 21
-499.1617850407571
 31
0.0
  0
CIRCLE
  5
7612
330
1E
100
AcDbEntity
  8
12
  6
CONTINUOUS
 62
     3
100
AcDbCircle
 10
-458.5103814583543
 20
-499.1617850407571
 30
0.0
 40
5.5
210
0.0
220
0.0
230
-1.0
  0
LINE
  5
7613
330
1E
100
AcDbEntity
  8
18
  6
DASHED
 48
2.0
100
AcDbLine
 10
552.4647271614543
 20
-497.6716727360572
 30
0.0
 11
557.0777642707542
 21
-514.1617850407572
 31
0.0
  0
LINE
  5
7614
330
1E
100
AcDbEntity
  8
18
  6
DASHED
 48
2.0
100
AcDbLine
 10
558.3033502083543
 20
-487.9405936344571
 30
0.0
 11
552.4647271614543
 21
-497.6716727360572
 31
0.0
  0
LINE
  5
7615
330
1E
100
AcDbEntity
  8
18
  6
DASHED
 48
2.0
100
AcDbLine
 10
554.7970025520543
 20
-474.1617850407571
 30
0.0
 11
558.3033502083543
 21
-487.9405936344571
 31
0.0
  0
LINE
  5
7616
330
1E
100
AcDbEntity
  8
18
  6
DASHED
 48
2.0
100
AcDbLine
 10
241.6291933395424
 20
-276.1617850407572
 30
0.0
 11
518.5103814583543
 21
-276.1617850407572
 31
0.0
  0
LINE
  5
7617
330
1E
100
AcDbEntity
  8
12
  6
CONTINUOUS
 62
     3
100
AcDbLine
 10
368.5103814583543
 20
-346.4623221501572
 30
0.0
 11
368.5103814583543
 21
-366.2284354313571
 31
0.0
  0
CIRCLE
  5
7618
330
1E
100
AcDbEntity
  8
12
  6
CONTINUOUS
 62
     3
100
AcDbCircle
 10
368.5103814583543
 20
-356.1617850407571
 30
0.0
 40
5.5
  0
LINE
  5
7619
330
1E
100
AcDbEntity
  8
12
  6
CONTINUOUS
 62
     3
100
AcDbLine
 10
379.9432427864543
 20
-356.1617850407571
 30
0.0
 11
357.1363580208543
 21
-356.1617850407571
 31
0.0
  0
CIRCLE
  5
761B
330
1E
100
AcDbEntity
  8
12
  6
CONTINUOUS
 62
     3
100
AcDbCircle
 10
458.5103814583543
 20
-356.1617850407571
 30
0.0
 40
5.5
  0
LINE
  5
761C
330
1E
100
AcDbEntity
  8
L225_
  6
CONTINUOUS
 62
     3
100
AcDbLine
 10
458.5103814583543
 20
-345.7020682438571
 30
0.0
 11
458.5103814583543
 21
-363.9476737126571
 31
0.0
  0
LINE
  5
761D
330
1E
100
AcDbEntity
  8
18
  6
DASHED
 48
2.0
100
AcDbLine
 10
557.3302056770542
 20
-369.2208670719571
 30
0.0
 11
552.4647271614543
 21
-354.6241873844572
 31
0.0
  0
LINE
  5
761E
330
1E
100
AcDbEntity
  8
18
  6
DASHED
 48
2.0
100
AcDbLine
 10
554.7970025520543
 20
-381.1617850407571
 30
0.0
 11
557.3302056770542
 21
-369.2208670719571
 31
0.0
  0
LINE
  5
761F
330
1E
100
AcDbEntity
  8
18
  6
DASHED
 48
2.0
100
AcDbLine
 10
552.4647271614543
 20
-354.6241873844572
 30
0.0
 11
557.0777642707542
 21
-341.1617850407572
 31
0.0
  0
LEADER
  5
7673
330
1E
100
AcDbEntity
  8
30
  6
CONTINUOUS
100
AcDbLeader
  3
STANDARD
 76
     3
 10
458.5103814583543
 20
-504.6617850407572
 30
0.0
 10
473.8474410906018
 20
-564.9999448216144
 30
0.0
 10
501.8474410906017
 20
-564.9999448216144
 30
0.0
1001
ACAD
1000
DSTYLE
1002
{
1070
     5
1000
OPEN
1070
    77
1070
     0
1070
   147
1040
1.0
1070
   342
1005
3B2
1002
}
  0
TEXT
  5
7674
330
1E
100
AcDbEntity
  8
30
  6
CONTINUOUS
100
AcDbText
 10
481.8474410906018
 20
-561.9999448216145
 30
0.0
 40
5.0
  1
%%C11
100
AcDbText
  0
LINE
  5
7675
330
1E
100
AcDbEntity
  8
12
  6
CONTINUOUS
 62
     3
100
AcDbLine
 10
458.5103814583543
 20
-513.6617850407572
 30
0.0
 11
458.5103814583543
 21
-484.6617850407572
 31
0.0
  0
LINE
  5
7676
330
1E
100
AcDbEntity
  8
12
  6
CONTINUOUS
 62
     3
100
AcDbLine
 10
473.0103814583543
 20
-499.1617850407571
 30
0.0
 11
444.0103814583543
 21
-499.1617850407571
 31
0.0
  0
LINE
  5
7677
330
1E
100
AcDbEntity
  8
12
  6
CONTINUOUS
 62
     3
100
AcDbLine
 10
473.0103814583543
 20
-356.1617850407571
 30
0.0
 11
444.0103814583543
 21
-356.1617850407571
 31
0.0
  0
LINE
  5
7678
330
1E
100
AcDbEntity
  8
12
  6
CONTINUOUS
 62
     3
100
AcDbLine
 10
368.5103814583543
 20
-513.6617850407572
 30
0.0
 11
368.5103814583543
 21
-484.6617850407572
 31
0.0
  0
DIMENSION
  5
768D
330
1E
100
AcDbEntity
  8
30
  6
CONTINUOUS
100
AcDbDimension
  2
*D10
 10
458.5103814583543
 20
-602.4032371828188
 30
0.0
 11
413.5103814583543
 21
-598.9032371828188
 31
0.0
 70
    32
  3
STANDARD
100
AcDbAlignedDimension
 13
368.5103814583543
 23
-513.6617850407572
 33
0.0
 14
458.5103814583543
 24
-513.6617850407572
 34
0.0
100
AcDbRotatedDimension
  0
LEADER
  5
771C
330
1E
100
AcDbEntity
  8
30
  6
CONTINUOUS
100
AcDbLeader
  3
STANDARD
 74
     0
 40
4.666666666666666
 41
20.66666666666666
 76
     3
 10
362.8084840162903
 20
-62.0
 30
0.0
 10
389.9665840340117
 20
-49.62033409316188
 30
0.0
 10
403.9406180960758
 20
-49.810167046576
 30
0.0
213
0.0
223
-2.0
233
0.0
1001
ACAD
1000
DSTYLE
1002
{
1070
     5
1000
OPEN
1070
   172
1070
     1
1070
   342
1005
3B2
1002
}
  0
TEXT
  5
771D
330
1E
100
AcDbEntity
  8
30
  6
CONTINUOUS
100
AcDbText
 10
390.6066357935515
 20
-48.35370783477753
 30
0.0
 40
4.0
  1
M10
  7
STANDARD1
100
AcDbText
  0
LEADER
  5
771E
330
1E
100
AcDbEntity
  8
30
  6
CONTINUOUS
100
AcDbLeader
  3
STANDARD
 74
     0
 40
4.666666666666666
 41
20.66666666666666
 76
     3
 10
418.3791276410922
 20
-106.1069687828049
 30
0.0
 10
422.2340696319045
 20
-89.576882631089
 30
0.0
 10
443.8378117938384
 20
-89.576882631089
 30
0.0
213
0.0
223
-2.0
233
0.0
1001
ACAD
1000
DSTYLE
1002
{
1070
     5
1000
OPEN
1070
   172
1070
     1
1070
   342
1005
3B2
1002
}
  0
TEXT
  5
771F
330
1E
100
AcDbEntity
  8
30
  6
CONTINUOUS
100
AcDbText
 10
427.2678687334853
 20
-88.31025637270466
 30
0.0
 40
4.0
  1
M16
  7
STANDARD1
100
AcDbText
  0
DIMENSION
  5
772D
330
1E
100
AcDbEntity
  8
30
  6
CONTINUOUS
100
AcDbDimension
  2
*D12
 10
461.9006415436197
 20
-116.9997558594
 30
0.0
 11
458.4006415436197
 21
4.500122070300065
 31
0.0
 70
    32
  3
STANDARD
100
AcDbAlignedDimension
 13
447.2020934949141
 23
126.0
 33
0.0
 14
447.5596659380299
 24
-116.9997558594
 34
0.0
 50
90.0
100
AcDbRotatedDimension
  0
DIMENSION
  5
773A
330
1E
100
AcDbEntity
  8
30
  6
CONTINUOUS
100
AcDbDimension
  2
*D13
 10
488.0794829334736
 20
-147.0
 30
0.0
 11
484.5794829334736
 21
4.500000000000055
 31
0.0
 70
    32
  3
STANDARD
100
AcDbAlignedDimension
 13
403.8084840162903
 23
156.0
 33
0.0
 14
403.8084840162903
 24
-147.0
 34
0.0
 50
90.0
100
AcDbRotatedDimension
  0
LINE
  5
7837
330
1E
100
AcDbEntity
  8
10
  6
CONTINUOUS
100
AcDbLine
 10
-175.6369727331794
 20
-147.0
 30
0.0
 11
104.3631493370905
 21
-147.0
 31
0.0
  0
LINE
  5
7838
330
1E
100
AcDbEntity
  8
10
  6
CONTINUOUS
100
AcDbLine
 10
-175.6369727331794
 20
156.0
 30
0.0
 11
104.3631493370905
 21
156.0
 31
0.0
  0
LINE
  5
7839
330
1E
100
AcDbEntity
  8
10
  6
CONTINUOUS
100
AcDbLine
 10
104.3631493370905
 20
-45.0
 30
0.0
 11
-175.4869483191192
 21
-45.0
 31
0.0
  0
LINE
  5
783A
330
1E
100
AcDbEntity
  8
10
  6
CONTINUOUS
100
AcDbLine
 10
104.2131249230906
 20
-132.0
 30
0.0
 11
-175.4869483191192
 21
-132.0
 31
0.0
  0
LINE
  5
783B
330
1E
100
AcDbEntity
  8
10
  6
CONTINUOUS
100
AcDbLine
 10
-11.6369727332094
 20
136.0
 30
0.0
 11
10.36302726679059
 21
136.0
 31
0.0
  0
LINE
  5
783C
330
1E
100
AcDbEntity
  8
10
  6
CONTINUOUS
100
AcDbLine
 10
-11.6369727332094
 20
-127.0
 30
0.0
 11
10.36302726679059
 21
-127.0
 31
0.0
  0
LINE
  5
783D
330
1E
100
AcDbEntity
  8
10
  6
CONTINUOUS
100
AcDbLine
 10
104.2131249230906
 20
-51.0
 30
0.0
 11
-175.4869483191192
 21
-51.0
 31
0.0
  0
LINE
  5
783E
330
1E
100
AcDbEntity
  8
10
  6
CONTINUOUS
100
AcDbLine
 10
104.2131249230906
 20
-107.0
 30
0.0
 11
-175.4869483191192
 21
-107.0
 31
0.0
  0
LINE
  5
783F
330
1E
100
AcDbEntity
  8
10
  6
CONTINUOUS
100
AcDbLine
 10
104.2131249230906
 20
57.0
 30
0.0
 11
-175.4869483191192
 21
57.0
 31
0.0
  0
LINE
  5
7840
330
1E
100
AcDbEntity
  8
10
  6
CONTINUOUS
100
AcDbLine
 10
104.2131249230906
 20
116.0
 30
0.0
 11
-175.4869483191192
 21
116.0
 31
0.0
  0
LINE
  5
7841
330
1E
100
AcDbEntity
  8
10
  6
CONTINUOUS
100
AcDbLine
 10
-175.4869483191192
 20
141.0
 30
0.0
 11
104.2131249230906
 21
141.0
 31
0.0
  0
LINE
  5
7842
330
1E
100
AcDbEntity
  8
10
  6
CONTINUOUS
100
AcDbLine
 10
-175.6369727331794
 20
-147.0
 30
0.0
 11
-175.6369727331794
 21
156.0
 31
0.0
  0
LINE
  5
7843
330
1E
100
AcDbEntity
  8
10
  6
CONTINUOUS
100
AcDbLine
 10
-92.63691169802941
 20
28.5
 30
0.0
 11
-92.63691169802941
 21
-27.0
 31
0.0
  0
LINE
  5
7844
330
1E
100
AcDbEntity
  8
10
  6
CONTINUOUS
100
AcDbLine
 10
-48.6369116980094
 20
-27.0
 30
0.0
 11
-48.6369116980094
 21
28.5
 31
0.0
  0
LINE
  5
7845
330
1E
100
AcDbEntity
  8
10
  6
CONTINUOUS
100
AcDbLine
 10
-39.48688728400941
 20
-45.0
 30
0.0
 11
-39.48688728400941
 21
45.0
 31
0.0
  0
LINE
  5
7846
330
1E
100
AcDbEntity
  8
10
  6
CONTINUOUS
100
AcDbLine
 10
-101.4869483191192
 20
45.0
 30
0.0
 11
-101.4869483191192
 21
-45.0
 31
0.0
  0
LINE
  5
7848
330
1E
100
AcDbEntity
  8
10
  6
CONTINUOUS
100
AcDbLine
 10
-151.6369727331793
 20
-127.0
 30
0.0
 11
-129.6369727331794
 21
-127.0
 31
0.0
  0
ARC
  5
7849
330
1E
100
AcDbEntity
  8
10
  6
CONTINUOUS
100
AcDbCircle
 10
-129.6369116980294
 20
-117.0
 30
0.0
 40
10.0
100
AcDbArc
 50
270.0
 51
90.0
  0
ARC
  5
784A
330
1E
100
AcDbEntity
  8
10
  6
CONTINUOUS
100
AcDbCircle
 10
-151.6369116980293
 20
-117.0
 30
0.0
 40
10.0
100
AcDbArc
 50
90.0
 51
270.0
  0
ARC
  5
784B
330
1E
100
AcDbEntity
  8
10
  6
CONTINUOUS
100
AcDbCircle
 10
-59.63691169802941
 20
-117.0
 30
0.0
 40
10.0
100
AcDbArc
 50
270.0
 51
90.0
  0
LINE
  5
784C
330
1E
100
AcDbEntity
  8
10
  6
CONTINUOUS
100
AcDbLine
 10
-81.63697273317941
 20
-127.0
 30
0.0
 11
-59.6369727331794
 21
-127.0
 31
0.0
  0
ARC
  5
784D
330
1E
100
AcDbEntity
  8
10
  6
CONTINUOUS
100
AcDbCircle
 10
-81.63691169802941
 20
-117.0
 30
0.0
 40
10.0
100
AcDbArc
 50
90.0
 51
270.0
  0
ARC
  5
784E
330
1E
100
AcDbEntity
  8
10
  6
CONTINUOUS
100
AcDbCircle
 10
-11.63685066290941
 20
-117.0
 30
0.0
 40
10.0
100
AcDbArc
 50
90.0
 51
270.0
  0
LINE
  5
7850
330
1E
100
AcDbEntity
  8
10
  6
CONTINUOUS
100
AcDbLine
 10
-92.63691169802941
 20
-27.0
 30
0.0
 11
-48.6369116980094
 21
-27.0
 31
0.0
  0
ARC
  5
7851
330
1E
100
AcDbEntity
  8
10
  6
CONTINUOUS
100
AcDbCircle
 10
11.63685066290941
 20
126.0
 30
0.0
 40
10.0
210
0.0
220
0.0
230
-1.0
100
AcDbArc
 50
270.0
 51
90.0
  0
ARC
  5
7852
330
1E
100
AcDbEntity
  8
10
  6
CONTINUOUS
100
AcDbCircle
 10
59.63691169802941
 20
126.0
 30
0.0
 40
10.0
210
0.0
220
0.0
230
-1.0
100
AcDbArc
 50
90.0
 51
270.0
  0
ARC
  5
7853
330
1E
100
AcDbEntity
  8
10
  6
CONTINUOUS
100
AcDbCircle
 10
81.63691169802941
 20
126.0
 30
0.0
 40
10.0
210
0.0
220
0.0
230
-1.0
100
AcDbArc
 50
270.0
 51
90.0
  0
ARC
  5
7854
330
1E
100
AcDbEntity
  8
10
  6
CONTINUOUS
100
AcDbCircle
 10
151.6369116980293
 20
126.0
 30
0.0
 40
10.0
210
0.0
220
0.0
230
-1.0
100
AcDbArc
 50
270.0
 51
90.0
  0
ARC
  5
7855
330
1E
100
AcDbEntity
  8
10
  6
CONTINUOUS
100
AcDbCircle
 10
129.6369116980294
 20
126.0
 30
0.0
 40
10.0
210
0.0
220
0.0
230
-1.0
100
AcDbArc
 50
90.0
 51
270.0
  0
LINE
  5
7858
330
1E
100
AcDbEntity
  8
10
  6
CONTINUOUS
100
AcDbLine
 10
-48.6369116980094
 20
28.5
 30
0.0
 11
-92.63691169802941
 21
28.5
 31
0.0
  0
LINE
  5
7859
330
1E
100
AcDbEntity
  8
10
  6
CONTINUOUS
100
AcDbLine
 10
-39.48688728400941
 20
45.0
 30
0.0
 11
-101.4869483191192
 21
45.0
 31
0.0
  0
LINE
  5
785A
330
1E
100
AcDbEntity
  8
10
  6
CONTINUOUS
100
AcDbLine
 10
-151.6369727331793
 20
136.0
 30
0.0
 11
-129.6369727331794
 21
136.0
 31
0.0
  0
LINE
  5
785B
330
1E
100
AcDbEntity
  8
10
  6
CONTINUOUS
100
AcDbLine
 10
-81.63697273317941
 20
136.0
 30
0.0
 11
-59.6369727331794
 21
136.0
 31
0.0
  0
LINE
  5
785C
330
1E
100
AcDbEntity
  8
10
  6
CONTINUOUS
100
AcDbLine
 10
104.3631493370905
 20
156.0
 30
0.0
 11
104.3631493370905
 21
-147.0
 31
0.0
  0
ARC
  5
785D
330
1E
100
AcDbEntity
  8
10
  6
CONTINUOUS
100
AcDbCircle
 10
58.36314933709059
 20
-117.0
 30
0.0
 40
10.0
100
AcDbArc
 50
90.0
 51
270.0
  0
ARC
  5
785E
330
1E
100
AcDbEntity
  8
10
  6
CONTINUOUS
100
AcDbCircle
 10
10.36314933709059
 20
-117.0
 30
0.0
 40
10.0
100
AcDbArc
 50
270.0
 51
90.0
  0
LINE
  5
785F
330
1E
100
AcDbEntity
  8
10
  6
CONTINUOUS
100
AcDbLine
 10
58.36302726679059
 20
-127.0
 30
0.0
 11
80.36302726679059
 21
-127.0
 31
0.0
  0
ARC
  5
7860
330
1E
100
AcDbEntity
  8
10
  6
CONTINUOUS
100
AcDbCircle
 10
80.36314933709059
 20
-117.0
 30
0.0
 40
10.0
100
AcDbArc
 50
270.0
 51
90.0
  0
ARC
  5
7861
330
1E
100
AcDbEntity
  8
10
  6
CONTINUOUS
100
AcDbCircle
 10
-80.36314933709059
 20
126.0
 30
0.0
 40
10.0
210
0.0
220
0.0
230
-1.0
100
AcDbArc
 50
90.0
 51
270.0
  0
ARC
  5
7862
330
1E
100
AcDbEntity
  8
10
  6
CONTINUOUS
100
AcDbCircle
 10
-58.36314933709059
 20
126.0
 30
0.0
 40
10.0
210
0.0
220
0.0
230
-1.0
100
AcDbArc
 50
270.0
 51
90.0
  0
ARC
  5
7863
330
1E
100
AcDbEntity
  8
10
  6
CONTINUOUS
100
AcDbCircle
 10
-10.36314933709059
 20
126.0
 30
0.0
 40
10.0
210
0.0
220
0.0
230
-1.0
100
AcDbArc
 50
90.0
 51
270.0
  0
TEXT
  5
7864
330
1E
100
AcDbEntity
  8
L150_
  6
CONTINUOUS
 62
     7
100
AcDbText
 10
64.4623925011906
 20
87.822265625
 30
0.0
 40
15.0
  1
N
 41
1.55
  7
LEROY
 72
     5
 11
79.9623925011906
 21
87.822265625
 31
0.0
100
AcDbText
 73
     2
  0
LINE
  5
7865
330
1E
100
AcDbEntity
  8
10
  6
CONTINUOUS
100
AcDbLine
 10
58.36302726679059
 20
136.0
 30
0.0
 11
80.36302726679059
 21
136.0
 31
0.0
  0
LINE
  5
78AB
330
1E
100
AcDbEntity
  8
11
  6
CONTINUOUS
100
AcDbLine
 10
-0.7304175574289645
 20
-438.2118374195102
 30
0.0
 11
-0.7304175574289645
 21
-471.2118374195102
 31
0.0
  0
LINE
  5
78AC
330
1E
100
AcDbEntity
  8
11
  6
CONTINUOUS
100
AcDbLine
 10
-140.7304175574289
 20
-471.2118374195102
 30
0.0
 11
-140.7304175574289
 21
-438.2118374195102
 31
0.0
  0
LINE
  5
78AD
330
1E
100
AcDbEntity
  8
18
  6
DASHED
 48
2.0
100
AcDbLine
 10
32.26958244257103
 20
-511.2118374195102
 30
0.0
 11
32.26958244257103
 21
-344.2118374195102
 31
0.0
  0
LINE
  5
78AE
330
1E
100
AcDbEntity
  8
18
  6
DASHED
 48
2.0
100
AcDbLine
 10
-243.7304175574289
 20
-344.2118374195102
 30
0.0
 11
-243.7304175574289
 21
-511.2118374195102
 31
0.0
  0
LINE
  5
78AF
330
1E
100
AcDbEntity
  8
18
  6
DASHED
 48
2.0
100
AcDbLine
 10
34.26958244257103
 20
-517.2118374195101
 30
0.0
 11
-245.7304175574289
 21
-517.2118374195101
 31
0.0
  0
LINE
  5
78B0
330
1E
100
AcDbEntity
  8
18
  6
DASHED
 48
2.0
100
AcDbLine
 10
-245.7304175574289
 20
-579.2118374195101
 30
0.0
 11
34.26958244257103
 21
-579.2118374195101
 31
0.0
  0
LINE
  5
78B1
330
1E
100
AcDbEntity
  8
L225_
  6
CONTINUOUS
 62
     3
100
AcDbLine
 10
-255.7304175574289
 20
-549.2118374195102
 30
0.0
 11
44.26958244257103
 21
-549.2118374195102
 31
0.0
  0
LINE
  5
78B2
330
1E
100
AcDbEntity
  8
11
  6
CONTINUOUS
100
AcDbLine
 10
-0.7304175574289645
 20
-471.2118374195102
 30
0.0
 11
-140.7304175574289
 21
-471.2118374195102
 31
0.0
  0
LINE
  5
78B3
330
1E
100
AcDbEntity
  8
18
  6
DASHED
 48
2.0
100
AcDbLine
 10
-243.7304175574289
 20
-511.2118374195102
 30
0.0
 11
32.26958244257103
 21
-511.2118374195102
 31
0.0
  0
LINE
  5
78B4
330
1E
100
AcDbEntity
  8
18
  6
DASHED
 48
2.0
100
AcDbLine
 10
-245.7304175574289
 20
-517.2118374195101
 30
0.0
 11
-245.7304175574289
 21
-579.2118374195101
 31
0.0
  0
LINE
  5
78B5
330
1E
100
AcDbEntity
  8
18
  6
DASHED
 48
2.0
100
AcDbLine
 10
-245.7304175574289
 20
-517.2118374195101
 30
0.0
 11
-243.7304175574289
 21
-511.2118374195102
 31
0.0
  0
LINE
  5
78B6
330
1E
100
AcDbEntity
  8
18
  6
DASHED
 48
2.0
100
AcDbLine
 10
-189.7304175574289
 20
-517.2118374195101
 30
0.0
 11
-189.7304175574289
 21
-579.2118374195101
 31
0.0
  0
LINE
  5
78B7
330
1E
100
AcDbEntity
  8
18
  6
DASHED
 48
2.0
100
AcDbLine
 10
-231.7304175574289
 20
-517.2118374195101
 30
0.0
 11
-231.7304175574289
 21
-579.2118374195101
 31
0.0
  0
LINE
  5
78B8
330
1E
100
AcDbEntity
  8
18
  6
DASHED
 48
2.0
100
AcDbLine
 10
-161.7304175574289
 20
-517.2118374195101
 30
0.0
 11
-161.7304175574289
 21
-579.2118374195101
 31
0.0
  0
CIRCLE
  5
78B9
330
1E
100
AcDbEntity
  8
12
  6
CONTINUOUS
 62
     3
100
AcDbCircle
 10
210.7304175574289
 20
-549.2118374195102
 30
0.0
 40
8.0
210
0.0
220
0.0
230
-1.0
  0
CIRCLE
  5
78BA
330
1E
100
AcDbEntity
  8
12
  6
CONTINUOUS
 62
     3
100
AcDbCircle
 10
140.7304175574289
 20
-549.2118374195102
 30
0.0
 40
8.0
210
0.0
220
0.0
230
-1.0
  0
LINE
  5
78BB
330
1E
100
AcDbEntity
  8
18
  6
DASHED
 48
2.0
100
AcDbLine
 10
-119.7304175574289
 20
-517.2118374195101
 30
0.0
 11
-119.7304175574289
 21
-579.2118374195101
 31
0.0
  0
LINE
  5
78BC
330
1E
100
AcDbEntity
  8
18
  6
DASHED
 48
2.0
100
AcDbLine
 10
-91.73041755742897
 20
-517.2118374195101
 30
0.0
 11
-91.73041755742897
 21
-579.2118374195101
 31
0.0
  0
LINE
  5
78BD
330
1E
100
AcDbEntity
  8
18
  6
DASHED
 48
2.0
100
AcDbLine
 10
-49.73041755742896
 20
-517.2118374195101
 30
0.0
 11
-49.73041755742896
 21
-579.2118374195101
 31
0.0
  0
LINE
  5
78BE
330
1E
100
AcDbEntity
  8
18
  6
DASHED
 48
2.0
100
AcDbLine
 10
-21.73041755742896
 20
-517.2118374195101
 30
0.0
 11
-21.73041755742896
 21
-579.2118374195101
 31
0.0
  0
CIRCLE
  5
78BF
330
1E
100
AcDbEntity
  8
12
  6
CONTINUOUS
 62
     3
100
AcDbCircle
 10
70.73041755742896
 20
-549.2118374195102
 30
0.0
 40
8.0
210
0.0
220
0.0
230
-1.0
  0
CIRCLE
  5
78C0
330
1E
100
AcDbEntity
  8
12
  6
CONTINUOUS
 62
     3
100
AcDbCircle
 10
115.7304175574289
 20
-499.2118374195102
 30
0.0
 40
5.0
210
0.0
220
0.0
230
-1.0
  0
LINE
  5
78C1
330
1E
100
AcDbEntity
  8
12
  6
CONTINUOUS
 62
     3
100
AcDbLine
 10
-107.7304175574289
 20
-499.2118374195102
 30
0.0
 11
-123.7304175574289
 21
-499.2118374195102
 31
0.0
  0
CIRCLE
  5
78C2
330
1E
100
AcDbEntity
  8
12
  6
CONTINUOUS
 62
     3
100
AcDbCircle
 10
25.73041755742896
 20
-499.2118374195102
 30
0.0
 40
5.0
210
0.0
220
0.0
230
-1.0
  0
LINE
  5
78C3
330
1E
100
AcDbEntity
  8
18
  6
DASHED
 48
2.0
100
AcDbLine
 10
34.26958244257103
 20
-579.2118374195101
 30
0.0
 11
34.26958244257103
 21
-517.2118374195101
 31
0.0
  0
LINE
  5
78C4
330
1E
100
AcDbEntity
  8
18
  6
DASHED
 48
2.0
100
AcDbLine
 10
20.26958244257103
 20
-517.2118374195101
 30
0.0
 11
20.26958244257103
 21
-579.2118374195101
 31
0.0
  0
CIRCLE
  5
78C5
330
1E
100
AcDbEntity
  8
12
  6
CONTINUOUS
 62
     3
100
AcDbCircle
 10
0.7304175574289645
 20
-549.2118374195102
 30
0.0
 40
8.0
210
0.0
220
0.0
230
-1.0
  0
LINE
  5
78C6
330
1E
100
AcDbEntity
  8
18
  6
DASHED
 48
2.0
100
AcDbLine
 10
32.26958244257103
 20
-511.2118374195102
 30
0.0
 11
34.26958244257103
 21
-517.2118374195101
 31
0.0
  0
LINE
  5
78C7
330
1E
100
AcDbEntity
  8
18
  6
DASHED
 48
2.0
100
AcDbLine
 10
34.26958244257103
 20
-338.2118374195102
 30
0.0
 11
-245.7304175574289
 21
-338.2118374195102
 31
0.0
  0
LINE
  5
78C8
330
1E
100
AcDbEntity
  8
18
  6
DASHED
 48
2.0
100
AcDbLine
 10
-245.7304175574289
 20
-276.2118374195102
 30
0.0
 11
34.26958244257103
 21
-276.2118374195102
 31
0.0
  0
LINE
  5
78C9
330
1E
100
AcDbEntity
  8
12
  6
CONTINUOUS
 62
     3
100
AcDbLine
 10
-255.7304175574289
 20
-306.2118374195102
 30
0.0
 11
44.26958244257103
 21
-306.2118374195102
 31
0.0
  0
LINE
  5
78CA
330
1E
100
AcDbEntity
  8
11
  6
CONTINUOUS
100
AcDbLine
 10
-140.7304175574289
 20
-438.2118374195102
 30
0.0
 11
-0.7304175574289645
 21
-438.2118374195102
 31
0.0
  0
LINE
  5
78CB
330
1E
100
AcDbEntity
  8
11
  6
CONTINUOUS
100
AcDbLine
 10
-0.7304175574289645
 20
-425.7118374195102
 30
0.0
 11
-140.7304175574289
 21
-425.7118374195102
 31
0.0
  0
LINE
  5
78CC
330
1E
100
AcDbEntity
  8
11
  6
CONTINUOUS
100
AcDbLine
 10
-140.7304175574289
 20
-392.7118374195102
 30
0.0
 11
-0.7304175574289645
 21
-392.7118374195102
 31
0.0
  0
LINE
  5
78CD
330
1E
100
AcDbEntity
  8
18
  6
DASHED
 48
2.0
100
AcDbLine
 10
32.26958244257103
 20
-344.2118374195102
 30
0.0
 11
-243.7304175574289
 21
-344.2118374195102
 31
0.0
  0
LINE
  5
78CE
330
1E
100
AcDbEntity
  8
12
  6
CONTINUOUS
 62
     3
100
AcDbLine
 10
-104.0153296668289
 20
-356.2118374195102
 30
0.0
 11
-128.6635230262289
 21
-356.2118374195102
 31
0.0
  0
LINE
  5
78CF
330
1E
100
AcDbEntity
  8
18
  6
DASHED
 48
2.0
100
AcDbLine
 10
-189.7304175574289
 20
-338.2118374195102
 30
0.0
 11
-189.7304175574289
 21
-276.2118374195102
 31
0.0
  0
LINE
  5
78D0
330
1E
100
AcDbEntity
  8
12
  6
CONTINUOUS
 62
     3
100
AcDbLine
 10
-210.7304175574289
 20
-266.2118374195102
 30
0.0
 11
-210.7304175574289
 21
-348.2118374195102
 31
0.0
  0
LINE
  5
78D1
330
1E
100
AcDbEntity
  8
18
  6
DASHED
 48
2.0
100
AcDbLine
 10
-245.7304175574289
 20
-338.2118374195102
 30
0.0
 11
-245.7304175574289
 21
-276.2118374195102
 31
0.0
  0
LINE
  5
78D2
330
1E
100
AcDbEntity
  8
18
  6
DASHED
 48
2.0
100
AcDbLine
 10
-231.7304175574289
 20
-338.2118374195102
 30
0.0
 11
-231.7304175574289
 21
-276.2118374195102
 31
0.0
  0
CIRCLE
  5
78D3
330
1E
100
AcDbEntity
  8
12
  6
CONTINUOUS
 62
     3
100
AcDbCircle
 10
-210.7304175574289
 20
-306.2118374195102
 30
0.0
 40
8.0
  0
LINE
  5
78D4
330
1E
100
AcDbEntity
  8
12
  6
CONTINUOUS
 62
     3
100
AcDbLine
 10
-140.7304175574289
 20
-266.2118374195102
 30
0.0
 11
-140.7304175574289
 21
-348.2118374195102
 31
0.0
  0
LINE
  5
78D5
330
1E
100
AcDbEntity
  8
18
  6
DASHED
 48
2.0
100
AcDbLine
 10
-161.7304175574289
 20
-338.2118374195102
 30
0.0
 11
-161.7304175574289
 21
-276.2118374195102
 31
0.0
  0
CIRCLE
  5
78D6
330
1E
100
AcDbEntity
  8
12
  6
CONTINUOUS
 62
     3
100
AcDbCircle
 10
-140.7304175574289
 20
-306.2118374195102
 30
0.0
 40
8.0
  0
LINE
  5
78D7
330
1E
100
AcDbEntity
  8
18
  6
DASHED
 48
2.0
100
AcDbLine
 10
-243.7304175574289
 20
-344.2118374195102
 30
0.0
 11
-245.7304175574289
 21
-338.2118374195102
 31
0.0
  0
LINE
  5
78D8
330
1E
100
AcDbEntity
  8
11
  6
CONTINUOUS
100
AcDbLine
 10
-140.7304175574289
 20
-425.7118374195102
 30
0.0
 11
-140.7304175574289
 21
-392.7118374195102
 31
0.0
  0
LINE
  5
78D9
330
1E
100
AcDbEntity
  8
18
  6
DASHED
 48
2.0
100
AcDbLine
 10
34.26958244257103
 20
-276.2118374195102
 30
0.0
 11
34.26958244257103
 21
-338.2118374195102
 31
0.0
  0
LINE
  5
78DA
330
1E
100
AcDbEntity
  8
18
  6
DASHED
 48
2.0
100
AcDbLine
 10
20.26958244257103
 20
-338.2118374195102
 30
0.0
 11
20.26958244257103
 21
-276.2118374195102
 31
0.0
  0
LINE
  5
78DB
330
1E
100
AcDbEntity
  8
18
  6
DASHED
 48
2.0
100
AcDbLine
 10
-21.73041755742896
 20
-338.2118374195102
 30
0.0
 11
-21.73041755742896
 21
-276.2118374195102
 31
0.0
  0
LINE
  5
78DC
330
1E
100
AcDbEntity
  8
18
  6
DASHED
 48
2.0
100
AcDbLine
 10
-49.73041755742896
 20
-338.2118374195102
 30
0.0
 11
-49.73041755742896
 21
-276.2118374195102
 31
0.0
  0
LINE
  5
78DD
330
1E
100
AcDbEntity
  8
18
  6
DASHED
 48
2.0
100
AcDbLine
 10
-91.73041755742897
 20
-338.2118374195102
 30
0.0
 11
-91.73041755742897
 21
-276.2118374195102
 31
0.0
  0
LINE
  5
78DE
330
1E
100
AcDbEntity
  8
18
  6
DASHED
 48
2.0
100
AcDbLine
 10
-119.7304175574289
 20
-338.2118374195102
 30
0.0
 11
-119.7304175574289
 21
-276.2118374195102
 31
0.0
  0
LINE
  5
78DF
330
1E
100
AcDbEntity
  8
12
  6
CONTINUOUS
 62
     3
100
AcDbLine
 10
-0.7304175574289645
 20
-266.2118374195102
 30
0.0
 11
-0.7304175574289645
 21
-348.2118374195102
 31
0.0
  0
CIRCLE
  5
78E0
330
1E
100
AcDbEntity
  8
12
  6
CONTINUOUS
 62
     3
100
AcDbCircle
 10
-70.73041755742896
 20
-306.2118374195102
 30
0.0
 40
8.0
  0
CIRCLE
  5
78E1
330
1E
100
AcDbEntity
  8
12
  6
CONTINUOUS
 62
     3
100
AcDbCircle
 10
-0.7304175574289645
 20
-306.2118374195102
 30
0.0
 40
8.0
  0
CIRCLE
  5
78E2
330
1E
100
AcDbEntity
  8
12
  6
CONTINUOUS
 62
     3
100
AcDbCircle
 10
-105.7304175574289
 20
-433.2118374195102
 30
0.0
 40
1.75
  0
CIRCLE
  5
78E3
330
1E
100
AcDbEntity
  8
12
  6
CONTINUOUS
 62
     3
100
AcDbCircle
 10
-105.7304175574289
 20
-387.7118374195102
 30
0.0
 40
1.75
  0
CIRCLE
  5
78E4
330
1E
100
AcDbEntity
  8
12
  6
CONTINUOUS
 62
     3
100
AcDbCircle
 10
35.73041755742896
 20
-433.2118374195102
 30
0.0
 40
1.75
210
0.0
220
0.0
230
-1.0
  0
CIRCLE
  5
78E5
330
1E
100
AcDbEntity
  8
12
  6
CONTINUOUS
 62
     3
100
AcDbCircle
 10
-35.73041755742896
 20
-387.7118374195102
 30
0.0
 40
1.75
  0
LINE
  5
78E6
330
1E
100
AcDbEntity
  8
12
  6
CONTINUOUS
 62
     3
100
AcDbLine
 10
-115.7304175574289
 20
-346.1529995289102
 30
0.0
 11
-115.7304175574289
 21
-365.0690151539102
 31
0.0
  0
CIRCLE
  5
78E7
330
1E
100
AcDbEntity
  8
12
  6
CONTINUOUS
 62
     3
100
AcDbCircle
 10
-115.7304175574289
 20
-356.2118374195102
 30
0.0
 40
5.0
  0
CIRCLE
  5
78E8
330
1E
100
AcDbEntity
  8
12
  6
CONTINUOUS
 62
     3
100
AcDbCircle
 10
-25.73041755742896
 20
-356.2118374195102
 30
0.0
 40
5.0
  0
LINE
  5
78E9
330
1E
100
AcDbEntity
  8
12
  6
CONTINUOUS
 62
     3
100
AcDbLine
 10
-25.73041755742896
 20
-346.7262417164102
 30
0.0
 11
-25.73041755742896
 21
-366.7887417164102
 31
0.0
  0
LINE
  5
78EA
330
1E
100
AcDbEntity
  8
11
  6
CONTINUOUS
100
AcDbLine
 10
-0.7304175574289645
 20
-392.7118374195102
 30
0.0
 11
-0.7304175574289645
 21
-425.7118374195102
 31
0.0
  0
LINE
  5
78EB
330
1E
100
AcDbEntity
  8
18
  6
DASHED
 48
2.0
100
AcDbLine
 10
32.26958244257103
 20
-344.2118374195102
 30
0.0
 11
34.26958244257103
 21
-338.2118374195102
 31
0.0
  0
LWPOLYLINE
  5
78ED
330
1E
100
AcDbEntity
  8
12
100
AcDbPolyline
 90
        2
 70
     0
 43
0.0
 10
-97.2370093542694
 20
-116.9999999999999
 10
-113.7370093542694
 20
-116.9999999999999
  0
LWPOLYLINE
  5
78EE
330
1E
100
AcDbEntity
  8
12
  6
DASHED
100
AcDbPolyline
 90
        2
 70
     0
 43
0.0
 10
-105.4870093542694
 20
-108.7499999999999
 10
-105.4870093542694
 20
-125.2499999999999
  0
CIRCLE
  5
78EF
330
1E
100
AcDbEntity
  8
12
100
AcDbCircle
 10
-105.4870093542694
 20
-117.0
 30
0.0
 40
4.0
  0
CIRCLE
  5
78F0
330
1E
100
AcDbEntity
  8
12
100
AcDbCircle
 10
-35.48694831911939
 20
-117.0
 30
0.0
 40
4.0
  0
LWPOLYLINE
  5
78F1
330
1E
100
AcDbEntity
  8
12
100
AcDbPolyline
 90
        2
 70
     0
 43
0.0
 10
-27.23694831911939
 20
-116.9999999999999
 10
-43.73694831911939
 20
-116.9999999999999
  0
LWPOLYLINE
  5
78F2
330
1E
100
AcDbEntity
  8
12
  6
DASHED
100
AcDbPolyline
 90
        2
 70
     0
 43
0.0
 10
-35.48694831911939
 20
-108.7499999999999
 10
-35.48694831911939
 20
-125.2499999999999
  0
CIRCLE
  5
78F3
330
1E
100
AcDbEntity
  8
12
100
AcDbCircle
 10
-35.48694831911939
 20
126.0
 30
0.0
 40
4.0
  0
LWPOLYLINE
  5
78F4
330
1E
100
AcDbEntity
  8
12
100
AcDbPolyline
 90
        2
 70
     0
 43
0.0
 10
-27.23694831911939
 20
126.0
 10
-43.73694831911939
 20
126.0
  0
LWPOLYLINE
  5
78F5
330
1E
100
AcDbEntity
  8
12
  6
DASHED
100
AcDbPolyline
 90
        2
 70
     0
 43
0.0
 10
-35.48694831911939
 20
134.25
 10
-35.48694831911939
 20
117.75
  0
LWPOLYLINE
  5
78F6
330
1E
100
AcDbEntity
  8
12
100
AcDbPolyline
 90
        2
 70
     0
 43
0.0
 10
-97.2370093542694
 20
126.0
 10
-113.7370093542694
 20
126.0
  0
LWPOLYLINE
  5
78F7
330
1E
100
AcDbEntity
  8
12
  6
DASHED
100
AcDbPolyline
 90
        2
 70
     0
 43
0.0
 10
-105.4870093542694
 20
134.25
 10
-105.4870093542694
 20
117.75
  0
CIRCLE
  5
78F8
330
1E
100
AcDbEntity
  8
12
100
AcDbCircle
 10
-105.4870093542694
 20
126.0
 30
0.0
 40
4.0
  0
LINE
  5
78F9
330
1E
100
AcDbEntity
  8
12
  6
CONTINUOUS
 62
     3
100
AcDbLine
 10
-14.01532966682897
 20
-356.2118374195102
 30
0.0
 11
-38.66352302622898
 21
-356.2118374195102
 31
0.0
  0
LINE
  5
78FA
330
1E
100
AcDbEntity
  8
12
  6
CONTINUOUS
 62
     3
100
AcDbLine
 10
-14.01532966682897
 20
-499.2118374195102
 30
0.0
 11
-38.66352302622898
 21
-499.2118374195102
 31
0.0
  0
LINE
  5
78FB
330
1E
100
AcDbEntity
  8
12
  6
CONTINUOUS
 62
     3
100
AcDbLine
 10
-104.0153296668289
 20
-499.2118374195102
 30
0.0
 11
-128.6635230262289
 21
-499.2118374195102
 31
0.0
  0
LINE
  5
78FC
330
1E
100
AcDbEntity
  8
12
  6
CONTINUOUS
 62
     3
100
AcDbLine
 10
-115.7304175574289
 20
-489.1529995289102
 30
0.0
 11
-115.7304175574289
 21
-508.0690151539102
 31
0.0
  0
LINE
  5
78FD
330
1E
100
AcDbEntity
  8
12
  6
CONTINUOUS
 62
     3
100
AcDbLine
 10
-25.73041755742896
 20
-489.7262417164102
 30
0.0
 11
-25.73041755742896
 21
-509.7887417164102
 31
0.0
  0
LINE
  5
78FE
330
1E
100
AcDbEntity
  8
12
  6
CONTINUOUS
 62
     3
100
AcDbLine
 10
-0.7304175574289645
 20
-509.2118374195101
 30
0.0
 11
-0.7304175574289645
 21
-591.2118374195101
 31
0.0
  0
LINE
  5
78FF
330
1E
100
AcDbEntity
  8
12
  6
CONTINUOUS
 62
     3
100
AcDbLine
 10
-70.6369116980294
 20
-509.2118374195101
 30
0.0
 11
-70.6369116980294
 21
-591.2118374195101
 31
0.0
  0
LINE
  5
7900
330
1E
100
AcDbEntity
  8
12
  6
CONTINUOUS
 62
     3
100
AcDbLine
 10
-140.7304175574289
 20
-509.2118374195101
 30
0.0
 11
-140.7304175574289
 21
-591.2118374195101
 31
0.0
  0
LINE
  5
7901
330
1E
100
AcDbEntity
  8
12
  6
CONTINUOUS
 62
     3
100
AcDbLine
 10
-210.7304175574289
 20
-509.2118374195101
 30
0.0
 11
-210.7304175574289
 21
-591.2118374195101
 31
0.0
  0
DIMENSION
  5
7902
330
1E
100
AcDbEntity
  8
30
  6
CONTINUOUS
100
AcDbDimension
  2
*D14
 10
-25.73041755742896
 20
-478.7827194866131
 30
0.0
 11
-70.73041755742896
 21
-475.2827194866131
 31
0.0
 70
    32
  3
STANDARD
100
AcDbAlignedDimension
 13
-115.7304175574289
 23
-489.1529995289102
 33
0.0
 14
-25.73041755742896
 24
-489.7262417164102
 34
0.0
100
AcDbRotatedDimension
  0
DIMENSION
  5
790F
330
1E
100
AcDbEntity
  8
30
  6
CONTINUOUS
100
AcDbDimension
  2
*D15
 10
-140.7304175574289
 20
-610.1272432921214
 30
0.0
 11
-175.7304175574289
 21
-606.6272432921214
 31
0.0
 70
    32
  3
STANDARD
100
AcDbAlignedDimension
 13
-210.7304175574289
 23
-591.2118374195101
 33
0.0
 14
-140.7304175574289
 24
-591.2118374195101
 34
0.0
100
AcDbRotatedDimension
  0
DIMENSION
  5
791C
330
1E
100
AcDbEntity
  8
30
  6
CONTINUOUS
100
AcDbDimension
  2
*D16
 10
-70.7369116980294
 20
-610.1272432921214
 30
0.0
 11
-105.7336646277291
 21
-606.6272432921214
 31
0.0
 70
    32
  3
STANDARD
100
AcDbAlignedDimension
 13
-140.7304175574289
 23
-591.2118374195101
 33
0.0
 14
-70.7369116980294
 24
-591.2118374195101
 34
0.0
100
AcDbRotatedDimension
1001
ACAD
1000
DSTYLE
1002
{
1070
   287
1070
     4
1070
   287
1070
     4
1070
   279
1070
     1
1002
}
  0
DIMENSION
  5
7929
330
1E
100
AcDbEntity
  8
30
  6
CONTINUOUS
100
AcDbDimension
  2
*D17
 10
-0.7304175574289655
 20
-610.1272432921214
 30
0.0
 11
-35.73366462772918
 21
-606.6272432921214
 31
0.0
 70
    32
  3
STANDARD
100
AcDbAlignedDimension
 13
-70.7369116980294
 23
-591.2118374195101
 33
0.0
 14
-0.7304175574289645
 24
-591.2118374195101
 34
0.0
100
AcDbRotatedDimension
1001
ACAD
1000
DSTYLE
1002
{
1070
   287
1070
     4
1070
   287
1070
     4
1070
   279
1070
     1
1002
}
  0
DIMENSION
  5
7948
330
1E
100
AcDbEntity
  8
30
  6
CONTINUOUS
100
AcDbDimension
  2
*D18
 10
-70.7369116980294
 20
-633.0016665889079
 30
0.0
 11
-158.2336646277291
 21
-629.5016665889079
 31
0.0
 70
    32
  3
STANDARD
100
AcDbAlignedDimension
 13
-245.7304175574289
 23
-579.2118374195101
 33
0.0
 14
-70.7369116980294
 24
-610.6272432921214
 34
0.0
100
AcDbRotatedDimension
  0
DIMENSION
  5
7955
330
1E
100
AcDbEntity
  8
30
  6
CONTINUOUS
100
AcDbDimension
  2
*D19
 10
34.26958244257103
 20
-633.0016665889079
 30
0.0
 11
-18.23366462772918
 21
-629.5016665889079
 31
0.0
 70
    32
  3
STANDARD
100
AcDbAlignedDimension
 13
-70.7369116980294
 23
-610.6272432921214
 33
0.0
 14
34.26958244257103
 24
-579.2118374195101
 34
0.0
100
AcDbRotatedDimension
1001
ACAD
1000
DSTYLE
1002
{
1070
   287
1070
     4
1070
   287
1070
     4
1070
   279
1070
     1
1002
}
  0
DIMENSION
  5
7A29
330
1E
100
AcDbEntity
  8
30
  6
CONTINUOUS
100
AcDbDimension
  2
*D21
 10
-199.6410446667362
 20
0.0000000000000068
 30
0.0
 11
-203.1410446667362
 21
28.49999999999997
 31
0.0
 70
    32
  3
STANDARD
100
AcDbAlignedDimension
 13
-175.4869483191192
 23
57.0
 33
0.0
 14
-175.6369727331794
 24
0.0
 34
0.0
 50
90.0
100
AcDbRotatedDimension
  0
DIMENSION
  5
7A36
330
1E
100
AcDbEntity
  8
30
  6
CONTINUOUS
100
AcDbDimension
  2
*D22
 10
-199.6410446667362
 20
-44.99999999999999
 30
0.0
 11
-203.1410446667362
 21
-22.50000000000002
 31
0.0
 70
    32
  3
STANDARD
100
AcDbAlignedDimension
 13
-175.6369727331794
 23
0.0
 33
0.0
 14
-175.4869483191192
 24
-45.0
 34
0.0
 50
90.0
100
AcDbRotatedDimension
1001
ACAD
1000
DSTYLE
1002
{
1070
   287
1070
     4
1070
   287
1070
     4
1070
   279
1070
     1
1002
}
  0
DIMENSION
  5
7A43
330
1E
100
AcDbEntity
  8
30
  6
CONTINUOUS
100
AcDbDimension
  2
*D23
 10
-199.6410446667362
 20
-50.99999999999999
 30
0.0
 11
-203.1410446667362
 21
-48.00000000000002
 31
0.0
 70
    32
  3
STANDARD
100
AcDbAlignedDimension
 13
-175.4869483191192
 23
-45.0
 33
0.0
 14
-175.4869483191192
 24
-51.0
 34
0.0
 50
90.0
100
AcDbRotatedDimension
1001
ACAD
1000
DSTYLE
1002
{
1070
   287
1070
     4
1070
   287
1070
     4
1070
   279
1070
     1
1002
}
  0
DIMENSION
  5
7A7A
330
1E
100
AcDbEntity
  8
30
  6
CONTINUOUS
100
AcDbDimension
  2
*D24
 10
-227.5087941791407
 20
0.0000000000000147
 30
0.0
 11
-231.0087941791407
 21
77.99999999999998
 31
0.0
 70
    32
  3
STANDARD
100
AcDbAlignedDimension
 13
-175.6369727331794
 23
156.0
 33
0.0
 14
-175.6369727331794
 24
0.0
 34
0.0
 50
90.0
100
AcDbRotatedDimension
  0
DIMENSION
  5
7A87
330
1E
100
AcDbEntity
  8
30
  6
CONTINUOUS
100
AcDbDimension
  2
*D25
 10
-227.5087941791408
 20
-146.9999999999999
 30
0.0
 11
-231.0087941791407
 21
-73.50000000000001
 31
0.0
 70
    32
  3
STANDARD
100
AcDbAlignedDimension
 13
-175.6369727331794
 23
0.0
 33
0.0
 14
-175.6369727331794
 24
-147.0
 34
0.0
 50
90.0
100
AcDbRotatedDimension
1001
ACAD
1000
DSTYLE
1002
{
1070
   287
1070
     4
1070
   287
1070
     4
1070
   279
1070
     1
1002
}
  0
DIMENSION
  5
7A94
330
1E
100
AcDbEntity
  8
30
  6
CONTINUOUS
100
AcDbDimension
  2
*D26
 10
-213.4082527562723
 20
0.0000000000000317
 30
0.0
 11
-216.9082527562723
 21
63.0
 31
0.0
 70
    32
  3
STANDARD
100
AcDbAlignedDimension
 13
-113.7370093542694
 23
126.0
 33
0.0
 14
-101.4869483191192
 24
0.0
 34
0.0
 50
90.0
100
AcDbRotatedDimension
  0
DIMENSION
  5
7AA1
330
1E
100
AcDbEntity
  8
30
  6
CONTINUOUS
100
AcDbDimension
  2
*D27
 10
-213.4082527562723
 20
-116.9999999999999
 30
0.0
 11
-216.9082527562723
 21
-58.5
 31
0.0
 70
    32
  3
STANDARD
100
AcDbAlignedDimension
 13
-101.4869483191192
 23
0.0
 33
0.0
 14
-113.7370093542694
 24
-116.9999999999999
 34
0.0
 50
90.0
100
AcDbRotatedDimension
1001
ACAD
1000
DSTYLE
1002
{
1070
   287
1070
     4
1070
   287
1070
     4
1070
   279
1070
     1
1002
}
  0
DIMENSION
  5
7AAE
330
1E
100
AcDbEntity
  8
30
  6
CONTINUOUS
100
AcDbDimension
  2
*D28
 10
-310.740036687669
 20
-338.2118374195102
 30
0.0
 11
-314.240036687669
 21
-307.2118374195103
 31
0.0
 70
    32
  3
STANDARD
100
AcDbAlignedDimension
 13
-245.7304175574289
 23
-276.2118374195102
 33
0.0
 14
-245.7304175574289
 24
-338.2118374195102
 34
0.0
 50
90.0
100
AcDbRotatedDimension
  0
DIMENSION
  5
7AC8
330
1E
100
AcDbEntity
  8
30
  6
CONTINUOUS
100
AcDbDimension
  2
*D29
 10
-310.740036687669
 20
-356.2118374195102
 30
0.0
 11
-314.240036687669
 21
-347.2118374195102
 31
0.0
 70
    32
  3
STANDARD
100
AcDbAlignedDimension
 13
-245.7304175574289
 23
-338.2118374195102
 33
0.0
 14
-128.6635230262289
 24
-356.2118374195102
 34
0.0
 50
90.0
100
AcDbRotatedDimension
1001
ACAD
1000
DSTYLE
1002
{
1070
   287
1070
     4
1070
   287
1070
     4
1070
   279
1070
     1
1002
}
  0
DIMENSION
  5
7AD5
330
1E
100
AcDbEntity
  8
30
  6
CONTINUOUS
100
AcDbDimension
  2
*D30
 10
-310.6400366876691
 20
-432.2617850407572
 30
0.0
 11
-314.140036687669
 21
-394.2368112301337
 31
0.0
 70
    32
  3
STANDARD
100
AcDbAlignedDimension
 13
-128.6635230262289
 23
-356.2118374195102
 33
0.0
 14
-265.238919918457
 24
-432.2617850407572
 34
0.0
 50
90.0
100
AcDbRotatedDimension
1001
ACAD
1000
DSTYLE
1002
{
1070
   287
1070
     4
1070
   287
1070
     4
1070
   279
1070
     1
1002
}
  0
DIMENSION
  5
7AE2
330
1E
100
AcDbEntity
  8
30
  6
CONTINUOUS
100
AcDbDimension
  2
*D31
 10
-310.6400366876691
 20
-499.2118374195102
 30
0.0
 11
-314.140036687669
 21
-465.7368112301337
 31
0.0
 70
    32
  3
STANDARD
100
AcDbAlignedDimension
 13
-265.238919918457
 23
-432.2617850407572
 33
0.0
 14
-128.6635230262289
 24
-499.2118374195102
 34
0.0
 50
90.0
100
AcDbRotatedDimension
1001
ACAD
1000
DSTYLE
1002
{
1070
   287
1070
     4
1070
   287
1070
     4
1070
   279
1070
     1
1002
}
  0
DIMENSION
  5
7AEF
330
1E
100
AcDbEntity
  8
30
  6
CONTINUOUS
100
AcDbDimension
  2
*D32
 10
-310.7400366876691
 20
-517.21183741951
 30
0.0
 11
-314.2400366876691
 21
-508.2118374195102
 31
0.0
 70
    32
  3
STANDARD
100
AcDbAlignedDimension
 13
-128.6635230262289
 23
-499.2118374195102
 33
0.0
 14
-245.7304175574289
 24
-517.2118374195101
 34
0.0
 50
90.0
100
AcDbRotatedDimension
1001
ACAD
1000
DSTYLE
1002
{
1070
   287
1070
     4
1070
   287
1070
     4
1070
   279
1070
     1
1002
}
  0
DIMENSION
  5
7AFC
330
1E
100
AcDbEntity
  8
30
  6
CONTINUOUS
100
AcDbDimension
  2
*D33
 10
-310.7400366876691
 20
-579.2118374195101
 30
0.0
 11
-314.2400366876691
 21
-548.2118374195102
 31
0.0
 70
    32
  3
STANDARD
100
AcDbAlignedDimension
 13
-245.7304175574289
 23
-517.2118374195101
 33
0.0
 14
-245.7304175574289
 24
-579.2118374195101
 34
0.0
 50
90.0
100
AcDbRotatedDimension
1001
ACAD
1000
DSTYLE
1002
{
1070
   287
1070
     4
1070
   287
1070
     4
1070
   279
1070
     1
1002
}
  0
LINE
  5
7B2D
330
1E
100
AcDbEntity
  8
18
  6
DASHED
 48
2.0
100
AcDbLine
 10
241.6291933395424
 20
-276.1617850407572
 30
0.0
 11
241.6291933395424
 21
-579.1617850407572
 31
0.0
  0
DIMENSION
  5
7B36
330
1E
100
AcDbEntity
  8
30
  6
CONTINUOUS
100
AcDbDimension
  2
*D34
 10
601.5634280922658
 20
-432.1617850407571
 30
0.0
 11
598.063428092266
 21
-394.1617850407571
 31
0.0
 70
    32
  3
STANDARD
100
AcDbAlignedDimension
 13
473.0103814583543
 23
-356.1617850407571
 33
0.0
 14
518.5103814583543
 24
-432.1617850407571
 34
0.0
 50
90.0
100
AcDbRotatedDimension
  0
DIMENSION
  5
7B43
330
1E
100
AcDbEntity
  8
30
  6
CONTINUOUS
100
AcDbDimension
  2
*D35
 10
601.5634280922658
 20
-499.1617850407571
 30
0.0
 11
598.063428092266
 21
-465.6617850407571
 31
0.0
 70
    32
  3
STANDARD
100
AcDbAlignedDimension
 13
518.5103814583543
 23
-432.1617850407571
 33
0.0
 14
473.0103814583543
 24
-499.1617850407571
 34
0.0
 50
90.0
100
AcDbRotatedDimension
1001
ACAD
1000
DSTYLE
1002
{
1070
   287
1070
     4
1070
   287
1070
     4
1070
   279
1070
     1
1002
}
  0
DIMENSION
  5
7B50
330
1E
100
AcDbEntity
  8
30
  6
CONTINUOUS
100
AcDbDimension
  2
*D36
 10
577.38112248163
 20
-381.1617850407571
 30
0.0
 11
573.88112248163
 21
-368.6617850407571
 31
0.0
 70
    32
  3
STANDARD
100
AcDbAlignedDimension
 13
474.0103814583543
 23
-356.1617850407571
 33
0.0
 14
554.7962411233474
 24
-381.1617850407571
 34
0.0
 50
90.0
100
AcDbRotatedDimension
  0
DIMENSION
  5
7B6A
330
1E
100
AcDbEntity
  8
30
  6
CONTINUOUS
100
AcDbDimension
  2
*D37
 10
577.38112248163
 20
-499.1617850407571
 30
0.0
 11
573.88112248163
 21
-486.6617850407571
 31
0.0
 70
    32
  3
STANDARD
100
AcDbAlignedDimension
 13
554.7970025520543
 23
-474.1617850407571
 33
0.0
 14
473.0103814583543
 24
-499.1617850407571
 34
0.0
 50
90.0
100
AcDbRotatedDimension
  0
DIMENSION
  5
7B77
330
1E
100
AcDbEntity
  8
30
  6
CONTINUOUS
100
AcDbDimension
  2
*D38
 10
-70.6369116980294
 20
-173.2878436556257
 30
0.0
 11
-123.1369422156044
 21
-169.7878436556256
 31
0.0
 70
    32
  3
STANDARD
100
AcDbAlignedDimension
 13
-175.6369727331794
 23
-147.0
 33
0.0
 14
-70.6369116980294
 24
-147.0
 34
0.0
100
AcDbRotatedDimension
  0
DIMENSION
  5
7B84
330
1E
100
AcDbEntity
  8
30
  6
CONTINUOUS
100
AcDbDimension
  2
*D39
 10
104.3631493370905
 20
-173.2878436556257
 30
0.0
 11
16.86311881953059
 21
-169.7878436556256
 31
0.0
 70
    32
  3
STANDARD
100
AcDbAlignedDimension
 13
-70.6369116980294
 23
-147.0
 33
0.0
 14
104.3631493370905
 24
-147.0
 34
0.0
100
AcDbRotatedDimension
1001
ACAD
1000
DSTYLE
1002
{
1070
   287
1070
     4
1070
   287
1070
     4
1070
   279
1070
     1
1002
}
  0
DIMENSION
  5
7B91
330
1E
100
AcDbEntity
  8
30
  6
CONTINUOUS
100
AcDbDimension
  2
*D40
 10
104.3631493370905
 20
-189.276761921817
 30
0.0
 11
-35.6369116980444
 21
-185.776761921817
 31
0.0
 70
    32
  3
STANDARD
100
AcDbAlignedDimension
 13
-175.6369727331794
 23
-148.0
 33
0.0
 14
104.3631493370905
 24
-148.0
 34
0.0
100
AcDbRotatedDimension
  0
MTEXT
  5
7DBE
330
1E
100
AcDbEntity
  8
19
  6
CONTINUOUS
100
AcDbMText
 10
261.8442690939373
 20
258.3812419029536
 30
0.0
 40
7.0
 41
94.0
 71
     1
 72
     5
  1
XS600NE 4P PM\PXH600NE 4P PM\PXS600CS 4P PM\PXS600NS 4P PM
  7
STANDARD1
1001
ACAD
1000
MTEXTBEGIN
1070
    73
1070
     1
1070
    44
1040
1.0
1070
    74
1070
     0
1000
MTEXTEND
  0
VIEWPORT
  5
9AC
330
1A
100
AcDbEntity
 67
     1
  8
0
  6
CONTINUOUS
100
AcDbViewport
 10
233.2842860419309
 20
144.1384735538403
 30
0.0
 40
611.4371881030149
 41
292.3514905034161
 68
     1
 69
     1
1001
ACAD
1000
MVIEW
1002
{
1070
    16
1010
0.0
1020
0.0
1030
0.0
1010
0.0
1020
0.0
1030
1.0
1040
0.0
1040
292.3514905034161
1040
233.2842860419309
1040
144.1384735538403
1040
50.0
1040
0.0
1040
0.0
1070
     0
1070
   100
1070
     1
1070
     1
1070
     0
1070
     0
1070
     0
1070
     0
1040
0.0
1040
0.0
1040
0.0
1040
10.0
1040
10.0
1040
10.0
1040
10.0
1070
     0
1002
{
1002
}
1002
}
  0
ENDSEC
  0
SECTION
  2
OBJECTS
  0
DICTIONARY
  5
C
330
0
100
AcDbDictionary
  3
ACAD_GROUP
350
D
  3
ACAD_LAYOUT
350
19
  3
ACAD_MLINESTYLE
350
16
  3
ACAD_PLOTSETTINGS
350
18
  3
ACAD_PLOTSTYLENAME
350
E
  3
ACDBHEADERROUNDTRIPXREC
350
7DC1
  3
ACDBVARIABLEDICTIONARY
350
7B2E
  0
DICTIONARY
  5
178
330
1E
100
AcDbDictionary
280
     1
  3
ACAD_LAYOUTSELFREF
360
7DE3
  0
DICTIONARY
  5
17A
330
1A
100
AcDbDictionary
280
     1
  3
ACAD_LAYOUTSELFREF
360
7DE2
  0
DICTIONARY
  5
D
102
{ACAD_REACTORS
330
C
102
}
330
C
100
AcDbDictionary
  0
DICTIONARY
  5
19
102
{ACAD_REACTORS
330
C
102
}
330
C
100
AcDbDictionary
  0
DICTIONARY
  5
16
102
{ACAD_REACTORS
330
C
102
}
330
C
100
AcDbDictionary
  3
STANDARD
350
17
  0
DICTIONARY
  5
18
102
{ACAD_REACTORS
330
C
102
}
330
C
100
AcDbDictionary
  0
ACDBDICTIONARYWDFLT
  5
E
102
{ACAD_REACTORS
330
C
102
}
330
C
100
AcDbDictionary
281
     1
  3
Normal
350
F
100
AcDbDictionaryWithDefault
340
F
  0
DICTIONARY
  5
7DC1
102
{ACAD_REACTORS
330
C
102
}
330
C
100
AcDbDictionary
  3
CEPSNTYPE
350
7DCB
  3
DIMSTYLEDATA
350
7DCF
  3
FINGERPRINTGUID
350
7DCC
  3
HYPERLINKBASE
350
7DC4
  3
INSUNITS
350
7DCA
  3
LAYOUTDICT
350
7DC6
  3
LWETCUNION
350
7DC9
  3
PLOTSETDICT
350
7DC7
  3
PLOTSTYLNAMDICT
350
7DC8
  3
PSVPSCALE
350
7DCE
  3
PUCSBASE
350
7DD2
  3
PUCSORGBACK
350
7DD8
  3
PUCSORGBOTTOM
350
7DD4
  3
PUCSORGFRONT
350
7DD7
  3
PUCSORGLEFT
350
7DD5
  3
PUCSORGRIGHT
350
7DD6
  3
PUCSORGTOP
350
7DD3
  3
PUCSORTHOREF
350
7DD0
  3
PUCSORTHOVIEW
350
7DD1
  3
STYLESHEET
350
7DC5
  3
TSTACKALIGN
350
7DC2
  3
TSTACKSIZE
350
7DC3
  3
UCSBASE
350
7DDB
  3
UCSORGBACK
350
7DE1
  3
UCSORGBOTTOM
350
7DDD
  3
UCSORGFRONT
350
7DE0
  3
UCSORGLEFT
350
7DDE
  3
UCSORGRIGHT
350
7DDF
  3
UCSORGTOP
350
7DDC
  3
UCSORTHOREF
350
7DD9
  3
UCSORTHOVIEW
350
7DDA
  3
VERSIONGUID
350
7DCD
  0
DICTIONARY
  5
7B2E
102
{ACAD_REACTORS
330
C
102
}
330
C
100
AcDbDictionary
  3
DIMASSOC
350
7D99
  3
SORTENTS
350
7B2F
  0
XRECORD
  5
7DE3
102
{ACAD_REACTORS
330
178
102
}
330
178
100
AcDbXrecord
340
1E
  0
XRECORD
  5
7DE2
102
{ACAD_REACTORS
330
17A
102
}
330
17A
100
AcDbXrecord
340
1A
  0
MLINESTYLE
  5
17
102
{ACAD_REACTORS
330
16
102
}
330
16
100
AcDbMlineStyle
  2
STANDARD
 70
     0
  3

 62
   256
 51
90.0
 52
90.0
 71
     2
 49
0.5
 62
   256
  6
BYLAYER
 49
-0.5
 62
   256
  6
BYLAYER
  0
ACDBPLACEHOLDER
  5
F
102
{ACAD_REACTORS
330
E
102
}
330
E
100
AcDbPlaceHolder
280
     0
  0
XRECORD
  5
7DCB
102
{ACAD_REACTORS
330
7DC1
102
}
330
7DC1
100
AcDbXrecord
 90
        0
  0
XRECORD
  5
7DCF
102
{ACAD_REACTORS
330
7DC1
102
}
330
7DC1
100
AcDbXrecord
1000
DSTYLE
1002
{
1070
    79
 70
     3
1070
   341
340
3B2
1070
   342
340
3B2
1002
}
  0
XRECORD
  5
7DCC
102
{ACAD_REACTORS
330
7DC1
102
}
330
7DC1
100
AcDbXrecord
  1

  0
XRECORD
  5
7DC4
102
{ACAD_REACTORS
330
7DC1
102
}
330
7DC1
100
AcDbXrecord
  1

  0
XRECORD
  5
7DCA
102
{ACAD_REACTORS
330
7DC1
102
}
330
7DC1
100
AcDbXrecord
 90
        0
  0
XRECORD
  5
7DC6
102
{ACAD_REACTORS
330
7DC1
102
}
330
7DC1
100
AcDbXrecord
340
19
  0
XRECORD
  5
7DC9
102
{ACAD_REACTORS
330
7DC1
102
}
330
7DC1
100
AcDbXrecord
 90
    10781
  0
XRECORD
  5
7DC7
102
{ACAD_REACTORS
330
7DC1
102
}
330
7DC1
100
AcDbXrecord
340
18
  0
XRECORD
  5
7DC8
102
{ACAD_REACTORS
330
7DC1
102
}
330
7DC1
100
AcDbXrecord
340
E
  0
XRECORD
  5
7DCE
102
{ACAD_REACTORS
330
7DC1
102
}
330
7DC1
100
AcDbXrecord
 40
0.0
  0
XRECORD
  5
7DD2
102
{ACAD_REACTORS
330
7DC1
102
}
330
7DC1
100
AcDbXrecord
340
0
  0
XRECORD
  5
7DD8
102
{ACAD_REACTORS
330
7DC1
102
}
330
7DC1
100
AcDbXrecord
 10
0.0
 20
0.0
 30
0.0
  0
XRECORD
  5
7DD4
102
{ACAD_REACTORS
330
7DC1
102
}
330
7DC1
100
AcDbXrecord
 10
0.0
 20
0.0
 30
0.0
  0
XRECORD
  5
7DD7
102
{ACAD_REACTORS
330
7DC1
102
}
330
7DC1
100
AcDbXrecord
 10
0.0
 20
0.0
 30
0.0
  0
XRECORD
  5
7DD5
102
{ACAD_REACTORS
330
7DC1
102
}
330
7DC1
100
AcDbXrecord
 10
0.0
 20
0.0
 30
0.0
  0
XRECORD
  5
7DD6
102
{ACAD_REACTORS
330
7DC1
102
}
330
7DC1
100
AcDbXrecord
 10
0.0
 20
0.0
 30
0.0
  0
XRECORD
  5
7DD3
102
{ACAD_REACTORS
330
7DC1
102
}
330
7DC1
100
AcDbXrecord
 10
0.0
 20
0.0
 30
0.0
  0
XRECORD
  5
7DD0
102
{ACAD_REACTORS
330
7DC1
102
}
330
7DC1
100
AcDbXrecord
340
0
  0
XRECORD
  5
7DD1
102
{ACAD_REACTORS
330
7DC1
102
}
330
7DC1
100
AcDbXrecord
 70
     0
  0
XRECORD
  5
7DC5
102
{ACAD_REACTORS
330
7DC1
102
}
330
7DC1
100
AcDbXrecord
  1
KIKI.ctb
  0
XRECORD
  5
7DC2
102
{ACAD_REACTORS
330
7DC1
102
}
330
7DC1
100
AcDbXrecord
 90
        1
  0
XRECORD
  5
7DC3
102
{ACAD_REACTORS
330
7DC1
102
}
330
7DC1
100
AcDbXrecord
 90
       70
  0
XRECORD
  5
7DDB
102
{ACAD_REACTORS
330
7DC1
102
}
330
7DC1
100
AcDbXrecord
340
0
  0
XRECORD
  5
7DE1
102
{ACAD_REACTORS
330
7DC1
102
}
330
7DC1
100
AcDbXrecord
 10
0.0
 20
0.0
 30
0.0
  0
XRECORD
  5
7DDD
102
{ACAD_REACTORS
330
7DC1
102
}
330
7DC1
100
AcDbXrecord
 10
0.0
 20
0.0
 30
0.0
  0
XRECORD
  5
7DE0
102
{ACAD_REACTORS
330
7DC1
102
}
330
7DC1
100
AcDbXrecord
 10
0.0
 20
0.0
 30
0.0
  0
XRECORD
  5
7DDE
102
{ACAD_REACTORS
330
7DC1
102
}
330
7DC1
100
AcDbXrecord
 10
0.0
 20
0.0
 30
0.0
  0
XRECORD
  5
7DDF
102
{ACAD_REACTORS
330
7DC1
102
}
330
7DC1
100
AcDbXrecord
 10
0.0
 20
0.0
 30
0.0
  0
XRECORD
  5
7DDC
102
{ACAD_REACTORS
330
7DC1
102
}
330
7DC1
100
AcDbXrecord
 10
0.0
 20
0.0
 30
0.0
  0
XRECORD
  5
7DD9
102
{ACAD_REACTORS
330
7DC1
102
}
330
7DC1
100
AcDbXrecord
340
0
  0
XRECORD
  5
7DDA
102
{ACAD_REACTORS
330
7DC1
102
}
330
7DC1
100
AcDbXrecord
 70
     0
  0
XRECORD
  5
7DCD
102
{ACAD_REACTORS
330
7DC1
102
}
330
7DC1
100
AcDbXrecord
  1
{6D82DD56-4923-4084-98AE-BBBEDEED4071}
  0
DICTIONARYVAR
  5
7D99
102
{ACAD_REACTORS
330
7B2E
102
}
330
7B2E
100
DictionaryVariables
280
     0
  1
1
  0
DICTIONARYVAR
  5
7B2F
102
{ACAD_REACTORS
330
7B2E
102
}
330
7B2E
100
DictionaryVariables
280
     0
  1
96
  0
ENDSEC
  0
EOF
