  0
SECTION
  2
HEADER
  9
$ACADVER
  1
AC1014
  9
$ACADMAINTVER
 70
     9
  9
$DWGCODEPAGE
  3
ANSI_932
  9
$INSBASE
 10
0.0
 20
0.0
 30
0.0
  9
$EXTMIN
 10
-221.2223946214915
 20
-639.5443061199793
 30
-0.0000000000000053
  9
$EXTMAX
 10
577.1787893224727
 20
535.0283544222284
 30
0.0000000000000099
  9
$LIMMIN
 10
-302.0
 20
-689.0
  9
$LIMMAX
 10
615.0
 20
462.0
  9
$ORTHOMODE
 70
     1
  9
$REGENMODE
 70
     1
  9
$FILLMODE
 70
     1
  9
$QTEXTMODE
 70
     0
  9
$MIRRTEXT
 70
     1
  9
$DRAGMODE
 70
     2
  9
$LTSCALE
 40
10.0
  9
$OSMODE
 70
    37
  9
$ATTMODE
 70
     1
  9
$TEXTSIZE
 40
5.0
  9
$TRACEWID
 40
0.05
  9
$TEXTSTYLE
  7
STANDARD1
  9
$CLAYER
  8
30
  9
$CELTYPE
  6
CONTINUOUS
  9
$CECOLOR
 62
   256
  9
$CELTSCALE
 40
1.0
  9
$DELOBJ
 70
     1
  9
$DISPSILH
 70
     0
  9
$DIMSCALE
 40
1.0
  9
$DIMASZ
 40
2.0
  9
$DIMEXO
 40
1.0
  9
$DIMDLI
 40
0.5
  9
$DIMRND
 40
0.0
  9
$DIMDLE
 40
0.0
  9
$DIMEXE
 40
0.5
  9
$DIMTP
 40
0.0
  9
$DIMTM
 40
0.0
  9
$DIMTXT
 40
5.0
  9
$DIMCEN
 40
0.09
  9
$DIMTSZ
 40
0.0
  9
$DIMTOL
 70
     0
  9
$DIMLIM
 70
     0
  9
$DIMTIH
 70
     0
  9
$DIMTOH
 70
     1
  9
$DIMSE1
 70
     0
  9
$DIMSE2
 70
     0
  9
$DIMTAD
 70
     3
  9
$DIMZIN
 70
    12
  9
$DIMBLK
  1
OPEN
  9
$DIMASO
 70
     1
  9
$DIMSHO
 70
     1
  9
$DIMPOST
  1

  9
$DIMAPOST
  1

  9
$DIMALT
 70
     0
  9
$DIMALTD
 70
     2
  9
$DIMALTF
 40
25.4
  9
$DIMLFAC
 40
1.0
  9
$DIMTOFL
 70
     0
  9
$DIMTVP
 40
0.0
  9
$DIMTIX
 70
     0
  9
$DIMSOXD
 70
     0
  9
$DIMSAH
 70
     0
  9
$DIMBLK1
  1

  9
$DIMBLK2
  1

  9
$DIMSTYLE
  2
STANDARD
  9
$DIMCLRD
 70
     0
  9
$DIMCLRE
 70
     0
  9
$DIMCLRT
 70
     0
  9
$DIMTFAC
 40
1.0
  9
$DIMGAP
 40
1.0
  9
$DIMJUST
 70
     0
  9
$DIMSD1
 70
     0
  9
$DIMSD2
 70
     0
  9
$DIMTOLJ
 70
     1
  9
$DIMTZIN
 70
     0
  9
$DIMALTZ
 70
     0
  9
$DIMALTTZ
 70
     0
  9
$DIMFIT
 70
     3
  9
$DIMUPT
 70
     0
  9
$DIMUNIT
 70
     2
  9
$DIMDEC
 70
     1
  9
$DIMTDEC
 70
     1
  9
$DIMALTU
 70
     2
  9
$DIMALTTD
 70
     2
  9
$DIMTXSTY
  7
STANDARD
  9
$DIMAUNIT
 70
     0
  9
$LUNITS
 70
     2
  9
$LUPREC
 70
     4
  9
$SKETCHINC
 40
0.1
  9
$FILLETRAD
 40
0.0
  9
$AUNITS
 70
     0
  9
$AUPREC
 70
     0
  9
$MENU
  1
.
  9
$ELEVATION
 40
0.0
  9
$PELEVATION
 40
0.0
  9
$THICKNESS
 40
0.0
  9
$LIMCHECK
 70
     0
  9
$BLIPMODE
 70
     0
  9
$CHAMFERA
 40
0.0
  9
$CHAMFERB
 40
0.0
  9
$CHAMFERC
 40
0.0
  9
$CHAMFERD
 40
0.0
  9
$SKPOLY
 70
     0
  9
$TDCREATE
 40
2452286.555658657
  9
$TDUPDATE
 40
2453113.455570740
  9
$TDINDWG
 40
1.3759915625
  9
$TDUSRTIMER
 40
1.3759915625
  9
$USRTIMER
 70
     1
  9
$ANGBASE
 50
0.0
  9
$ANGDIR
 70
     0
  9
$PDMODE
 70
     0
  9
$PDSIZE
 40
0.0
  9
$PLINEWID
 40
0.0
  9
$COORDS
 70
     1
  9
$SPLFRAME
 70
     0
  9
$SPLINETYPE
 70
     6
  9
$SPLINESEGS
 70
     8
  9
$ATTDIA
 70
     0
  9
$ATTREQ
 70
     1
  9
$HANDLING
 70
 22529
  9
$HANDSEED
  5
72B9
  9
$SURFTAB1
 70
     6
  9
$SURFTAB2
 70
     6
  9
$SURFTYPE
 70
     6
  9
$SURFU
 70
     6
  9
$SURFV
 70
     6
  9
$UCSNAME
  2

  9
$UCSORG
 10
0.0
 20
0.0
 30
0.0
  9
$UCSXDIR
 10
1.0
 20
0.0
 30
0.0
  9
$UCSYDIR
 10
0.0
 20
1.0
 30
0.0
  9
$PUCSNAME
  2

  9
$PUCSORG
 10
0.0
 20
0.0
 30
0.0
  9
$PUCSXDIR
 10
1.0
 20
0.0
 30
0.0
  9
$PUCSYDIR
 10
0.0
 20
1.0
 30
0.0
  9
$USERI1
 70
     0
  9
$USERI2
 70
     0
  9
$USERI3
 70
     0
  9
$USERI4
 70
     0
  9
$USERI5
 70
     0
  9
$USERR1
 40
0.0
  9
$USERR2
 40
0.0
  9
$USERR3
 40
0.0
  9
$USERR4
 40
0.0
  9
$USERR5
 40
0.0
  9
$WORLDVIEW
 70
     1
  9
$SHADEDGE
 70
     3
  9
$SHADEDIF
 70
    70
  9
$TILEMODE
 70
     1
  9
$MAXACTVP
 70
    48
  9
$PINSBASE
 10
0.0
 20
0.0
 30
0.0
  9
$PLIMCHECK
 70
     0
  9
$PEXTMIN
 10
4.273573370203962
 20
5.205246163471485
 30
0.0
  9
$PEXTMAX
 10
194.6100952986349
 20
283.0697008572913
 30
0.0
  9
$PLIMMIN
 10
-5.873748779296875
 20
-5.873749732971191
  9
$PLIMMAX
 10
204.0995788574218
 20
291.1369009017944
  9
$UNITMODE
 70
     0
  9
$VISRETAIN
 70
     1
  9
$PLINEGEN
 70
     0
  9
$PSLTSCALE
 70
     1
  9
$TREEDEPTH
 70
  3020
  9
$PICKSTYLE
 70
     1
  9
$CMLSTYLE
  2
STANDARD
  9
$CMLJUST
 70
     0
  9
$CMLSCALE
 40
1.0
  9
$PROXYGRAPHICS
 70
     1
  9
$MEASUREMENT
 70
     0
  0
ENDSEC
  0
SECTION
  2
CLASSES
  0
CLASS
  1
ACDBDICTIONARYWDFLT
  2
AcDbDictionaryWithDefault
  3
AutoCAD 2000
 90
        0
280
     0
281
     0
  0
CLASS
  1
ACDBPLACEHOLDER
  2
AcDbPlaceHolder
  3
AutoCAD 2000
 90
        0
280
     0
281
     0
  0
CLASS
  1
LAYOUT
  2
AcDbLayout
  3
AutoCAD 2000
 90
        0
280
     0
281
     0
  0
CLASS
  1
LONG_TRANSACTION
  2
AcDbLongTransaction
  3
AutoCAD 2000
 90
        0
280
     0
281
     0
  0
CLASS
  1
LWPOLYLINE
  2
AcDbPolyline
  3
AutoCAD 2000
 90
        0
280
     0
281
     1
  0
CLASS
  1
HATCH
  2
AcDbHatch
  3
AutoCAD 2000
 90
        0
280
     0
281
     1
  0
CLASS
  1
XRECORD
  2
AcDbXrecord
  3
AutoCAD 2000
 90
        0
280
     0
281
     0
  0
CLASS
  1
LONG_TRANSACTION
  2
AcDbLongTransaction
  3
AutoCAD 2000
 90
        0
280
     0
281
     0
  0
CLASS
  1
LWPOLYLINE
  2
AcDbPolyline
  3
AutoCAD 2000
 90
        0
280
     0
281
     1
  0
CLASS
  1
HATCH
  2
AcDbHatch
  3
AutoCAD 2000
 90
        0
280
     0
281
     1
  0
CLASS
  1
XRECORD
  2
AcDbXrecord
  3
AutoCAD 2000
 90
        0
280
     0
281
     0
  0
CLASS
  1
LONG_TRANSACTION
  2
AcDbLongTransaction
  3
AutoCAD 2000
 90
        0
280
     0
281
     0
  0
CLASS
  1
LWPOLYLINE
  2
AcDbPolyline
  3
AutoCAD 2000
 90
        0
280
     0
281
     1
  0
CLASS
  1
HATCH
  2
AcDbHatch
  3
AutoCAD 2000
 90
        0
280
     0
281
     1
  0
CLASS
  1
XRECORD
  2
AcDbXrecord
  3
AutoCAD 2000
 90
        0
280
     0
281
     0
  0
CLASS
  1
LONG_TRANSACTION
  2
AcDbLongTransaction
  3
AutoCAD 2000
 90
        0
280
     0
281
     0
  0
CLASS
  1
LWPOLYLINE
  2
AcDbPolyline
  3
AutoCAD 2000
 90
        0
280
     0
281
     1
  0
CLASS
  1
HATCH
  2
AcDbHatch
  3
AutoCAD 2000
 90
        0
280
     0
281
     1
  0
CLASS
  1
XRECORD
  2
AcDbXrecord
  3
AutoCAD 2000
 90
        0
280
     0
281
     0
  0
CLASS
  1
LONG_TRANSACTION
  2
AcDbLongTransaction
  3
AutoCAD 2000
 90
        0
280
     0
281
     0
  0
CLASS
  1
LWPOLYLINE
  2
AcDbPolyline
  3
AutoCAD 2000
 90
        0
280
     0
281
     1
  0
CLASS
  1
HATCH
  2
AcDbHatch
  3
AutoCAD 2000
 90
        0
280
     0
281
     1
  0
CLASS
  1
XRECORD
  2
AcDbXrecord
  3
AutoCAD 2000
 90
        0
280
     0
281
     0
  0
CLASS
  1
LONG_TRANSACTION
  2
AcDbLongTransaction
  3
AutoCAD 2000
 90
        0
280
     0
281
     0
  0
CLASS
  1
LWPOLYLINE
  2
AcDbPolyline
  3
AutoCAD 2000
 90
        0
280
     0
281
     1
  0
CLASS
  1
HATCH
  2
AcDbHatch
  3
AutoCAD 2000
 90
        0
280
     0
281
     1
  0
CLASS
  1
XRECORD
  2
AcDbXrecord
  3
AutoCAD 2000
 90
        0
280
     0
281
     0
  0
CLASS
  1
LONG_TRANSACTION
  2
AcDbLongTransaction
  3
AutoCAD 2000
 90
        0
280
     0
281
     0
  0
CLASS
  1
LWPOLYLINE
  2
AcDbPolyline
  3
AutoCAD 2000
 90
        0
280
     0
281
     1
  0
CLASS
  1
HATCH
  2
AcDbHatch
  3
AutoCAD 2000
 90
        0
280
     0
281
     1
  0
CLASS
  1
XRECORD
  2
AcDbXrecord
  3
AutoCAD 2000
 90
        0
280
     0
281
     0
  0
CLASS
  1
LONG_TRANSACTION
  2
AcDbLongTransaction
  3
AutoCAD 2000
 90
        0
280
     0
281
     0
  0
CLASS
  1
LWPOLYLINE
  2
AcDbPolyline
  3
AutoCAD 2000
 90
        0
280
     0
281
     1
  0
CLASS
  1
HATCH
  2
AcDbHatch
  3
AutoCAD 2000
 90
        0
280
     0
281
     1
  0
CLASS
  1
XRECORD
  2
AcDbXrecord
  3
AutoCAD 2000
 90
        0
280
     0
281
     0
  0
CLASS
  1
LONG_TRANSACTION
  2
AcDbLongTransaction
  3
AutoCAD 2000
 90
        0
280
     0
281
     0
  0
CLASS
  1
LWPOLYLINE
  2
AcDbPolyline
  3
AutoCAD 2000
 90
        0
280
     0
281
     1
  0
CLASS
  1
HATCH
  2
AcDbHatch
  3
AutoCAD 2000
 90
        0
280
     0
281
     1
  0
CLASS
  1
XRECORD
  2
AcDbXrecord
  3
AutoCAD 2000
 90
        0
280
     0
281
     0
  0
CLASS
  1
LONG_TRANSACTION
  2
AcDbLongTransaction
  3
AutoCAD 2000
 90
        0
280
     0
281
     0
  0
CLASS
  1
LWPOLYLINE
  2
AcDbPolyline
  3
AutoCAD 2000
 90
        0
280
     0
281
     1
  0
CLASS
  1
HATCH
  2
AcDbHatch
  3
AutoCAD 2000
 90
        0
280
     0
281
     1
  0
CLASS
  1
XRECORD
  2
AcDbXrecord
  3
AutoCAD 2000
 90
        0
280
     0
281
     0
  0
CLASS
  1
LONG_TRANSACTION
  2
AcDbLongTransaction
  3
AutoCAD 2000
 90
        0
280
     0
281
     0
  0
CLASS
  1
LWPOLYLINE
  2
AcDbPolyline
  3
AutoCAD 2000
 90
        0
280
     0
281
     1
  0
CLASS
  1
HATCH
  2
AcDbHatch
  3
AutoCAD 2000
 90
        0
280
     0
281
     1
  0
CLASS
  1
XRECORD
  2
AcDbXrecord
  3
AutoCAD 2000
 90
        0
280
     0
281
     0
  0
CLASS
  1
LONG_TRANSACTION
  2
AcDbLongTransaction
  3
AutoCAD 2000
 90
        0
280
     0
281
     0
  0
CLASS
  1
LWPOLYLINE
  2
AcDbPolyline
  3
AutoCAD 2000
 90
        0
280
     0
281
     1
  0
CLASS
  1
HATCH
  2
AcDbHatch
  3
AutoCAD 2000
 90
        0
280
     0
281
     1
  0
CLASS
  1
XRECORD
  2
AcDbXrecord
  3
AutoCAD 2000
 90
        0
280
     0
281
     0
  0
CLASS
  1
LONG_TRANSACTION
  2
AcDbLongTransaction
  3
AutoCAD 2000
 90
        0
280
     0
281
     0
  0
CLASS
  1
LWPOLYLINE
  2
AcDbPolyline
  3
AutoCAD 2000
 90
        0
280
     0
281
     1
  0
CLASS
  1
HATCH
  2
AcDbHatch
  3
AutoCAD 2000
 90
        0
280
     0
281
     1
  0
CLASS
  1
XRECORD
  2
AcDbXrecord
  3
AutoCAD 2000
 90
        0
280
     0
281
     0
  0
CLASS
  1
LONG_TRANSACTION
  2
AcDbLongTransaction
  3
AutoCAD 2000
 90
        0
280
     0
281
     0
  0
CLASS
  1
LWPOLYLINE
  2
AcDbPolyline
  3
AutoCAD 2000
 90
        0
280
     0
281
     1
  0
CLASS
  1
HATCH
  2
AcDbHatch
  3
AutoCAD 2000
 90
        0
280
     0
281
     1
  0
CLASS
  1
XRECORD
  2
AcDbXrecord
  3
AutoCAD 2000
 90
        0
280
     0
281
     0
  0
CLASS
  1
LONG_TRANSACTION
  2
AcDbLongTransaction
  3
AutoCAD 2000
 90
        0
280
     0
281
     0
  0
CLASS
  1
LWPOLYLINE
  2
AcDbPolyline
  3
AutoCAD 2000
 90
        0
280
     0
281
     1
  0
CLASS
  1
HATCH
  2
AcDbHatch
  3
AutoCAD 2000
 90
        0
280
     0
281
     1
  0
CLASS
  1
XRECORD
  2
AcDbXrecord
  3
AutoCAD 2000
 90
        0
280
     0
281
     0
  0
CLASS
  1
LONG_TRANSACTION
  2
AcDbLongTransaction
  3
AutoCAD 2000
 90
        0
280
     0
281
     0
  0
CLASS
  1
LWPOLYLINE
  2
AcDbPolyline
  3
AutoCAD 2000
 90
        0
280
     0
281
     1
  0
CLASS
  1
HATCH
  2
AcDbHatch
  3
AutoCAD 2000
 90
        0
280
     0
281
     1
  0
CLASS
  1
XRECORD
  2
AcDbXrecord
  3
AutoCAD 2000
 90
        0
280
     0
281
     0
  0
CLASS
  1
LONG_TRANSACTION
  2
AcDbLongTransaction
  3
AutoCAD 2000
 90
        0
280
     0
281
     0
  0
CLASS
  1
LWPOLYLINE
  2
AcDbPolyline
  3
AutoCAD 2000
 90
        0
280
     0
281
     1
  0
CLASS
  1
HATCH
  2
AcDbHatch
  3
AutoCAD 2000
 90
        0
280
     0
281
     1
  0
CLASS
  1
XRECORD
  2
AcDbXrecord
  3
AutoCAD 2000
 90
        0
280
     0
281
     0
  0
CLASS
  1
LONG_TRANSACTION
  2
AcDbLongTransaction
  3
AutoCAD 2000
 90
        0
280
     0
281
     0
  0
CLASS
  1
LWPOLYLINE
  2
AcDbPolyline
  3
AutoCAD 2000
 90
        0
280
     0
281
     1
  0
CLASS
  1
HATCH
  2
AcDbHatch
  3
AutoCAD 2000
 90
        0
280
     0
281
     1
  0
CLASS
  1
XRECORD
  2
AcDbXrecord
  3
AutoCAD 2000
 90
        0
280
     0
281
     0
  0
CLASS
  1
LONG_TRANSACTION
  2
AcDbLongTransaction
  3
AutoCAD 2000
 90
        0
280
     0
281
     0
  0
CLASS
  1
LWPOLYLINE
  2
AcDbPolyline
  3
AutoCAD 2000
 90
        0
280
     0
281
     1
  0
CLASS
  1
HATCH
  2
AcDbHatch
  3
AutoCAD 2000
 90
        0
280
     0
281
     1
  0
CLASS
  1
XRECORD
  2
AcDbXrecord
  3
AutoCAD 2000
 90
        0
280
     0
281
     0
  0
CLASS
  1
LONG_TRANSACTION
  2
AcDbLongTransaction
  3
AutoCAD 2000
 90
        0
280
     0
281
     0
  0
CLASS
  1
LWPOLYLINE
  2
AcDbPolyline
  3
AutoCAD 2000
 90
        0
280
     0
281
     1
  0
CLASS
  1
HATCH
  2
AcDbHatch
  3
AutoCAD 2000
 90
        0
280
     0
281
     1
  0
CLASS
  1
XRECORD
  2
AcDbXrecord
  3
AutoCAD 2000
 90
        0
280
     0
281
     0
  0
CLASS
  1
LONG_TRANSACTION
  2
AcDbLongTransaction
  3
AutoCAD 2000
 90
        0
280
     0
281
     0
  0
CLASS
  1
LWPOLYLINE
  2
AcDbPolyline
  3
AutoCAD 2000
 90
        0
280
     0
281
     1
  0
CLASS
  1
HATCH
  2
AcDbHatch
  3
AutoCAD 2000
 90
        0
280
     0
281
     1
  0
CLASS
  1
XRECORD
  2
AcDbXrecord
  3
AutoCAD 2000
 90
        0
280
     0
281
     0
  0
CLASS
  1
LONG_TRANSACTION
  2
AcDbLongTransaction
  3
AutoCAD 2000
 90
        0
280
     0
281
     0
  0
CLASS
  1
LWPOLYLINE
  2
AcDbPolyline
  3
AutoCAD 2000
 90
        0
280
     0
281
     1
  0
CLASS
  1
HATCH
  2
AcDbHatch
  3
AutoCAD 2000
 90
        0
280
     0
281
     1
  0
CLASS
  1
XRECORD
  2
AcDbXrecord
  3
AutoCAD 2000
 90
        0
280
     0
281
     0
  0
CLASS
  1
LONG_TRANSACTION
  2
AcDbLongTransaction
  3
AutoCAD 2000
 90
        0
280
     0
281
     0
  0
CLASS
  1
LWPOLYLINE
  2
AcDbPolyline
  3
AutoCAD 2000
 90
        0
280
     0
281
     1
  0
CLASS
  1
HATCH
  2
AcDbHatch
  3
AutoCAD 2000
 90
        0
280
     0
281
     1
  0
CLASS
  1
XRECORD
  2
AcDbXrecord
  3
AutoCAD 2000
 90
        0
280
     0
281
     0
  0
CLASS
  1
LONG_TRANSACTION
  2
AcDbLongTransaction
  3
AutoCAD 2000
 90
        0
280
     0
281
     0
  0
CLASS
  1
LWPOLYLINE
  2
AcDbPolyline
  3
AutoCAD 2000
 90
        0
280
     0
281
     1
  0
CLASS
  1
HATCH
  2
AcDbHatch
  3
AutoCAD 2000
 90
        0
280
     0
281
     1
  0
CLASS
  1
XRECORD
  2
AcDbXrecord
  3
AutoCAD 2000
 90
        0
280
     0
281
     0
  0
CLASS
  1
LONG_TRANSACTION
  2
AcDbLongTransaction
  3
AutoCAD 2000
 90
        0
280
     0
281
     0
  0
CLASS
  1
LWPOLYLINE
  2
AcDbPolyline
  3
AutoCAD 2000
 90
        0
280
     0
281
     1
  0
CLASS
  1
HATCH
  2
AcDbHatch
  3
AutoCAD 2000
 90
        0
280
     0
281
     1
  0
CLASS
  1
XRECORD
  2
AcDbXrecord
  3
AutoCAD 2000
 90
        0
280
     0
281
     0
  0
CLASS
  1
LONG_TRANSACTION
  2
AcDbLongTransaction
  3
AutoCAD 2000
 90
        0
280
     0
281
     0
  0
CLASS
  1
LWPOLYLINE
  2
AcDbPolyline
  3
AutoCAD 2000
 90
        0
280
     0
281
     1
  0
CLASS
  1
HATCH
  2
AcDbHatch
  3
AutoCAD 2000
 90
        0
280
     0
281
     1
  0
CLASS
  1
XRECORD
  2
AcDbXrecord
  3
AutoCAD 2000
 90
        0
280
     0
281
     0
  0
CLASS
  1
LONG_TRANSACTION
  2
AcDbLongTransaction
  3
AutoCAD 2000
 90
        0
280
     0
281
     0
  0
CLASS
  1
LWPOLYLINE
  2
AcDbPolyline
  3
AutoCAD 2000
 90
        0
280
     0
281
     1
  0
CLASS
  1
HATCH
  2
AcDbHatch
  3
AutoCAD 2000
 90
        0
280
     0
281
     1
  0
CLASS
  1
XRECORD
  2
AcDbXrecord
  3
AutoCAD 2000
 90
        0
280
     0
281
     0
  0
CLASS
  1
LONG_TRANSACTION
  2
AcDbLongTransaction
  3
AutoCAD 2000
 90
        0
280
     0
281
     0
  0
CLASS
  1
LWPOLYLINE
  2
AcDbPolyline
  3
AutoCAD 2000
 90
        0
280
     0
281
     1
  0
CLASS
  1
HATCH
  2
AcDbHatch
  3
AutoCAD 2000
 90
        0
280
     0
281
     1
  0
CLASS
  1
XRECORD
  2
AcDbXrecord
  3
AutoCAD 2000
 90
        0
280
     0
281
     0
  0
CLASS
  1
LONG_TRANSACTION
  2
AcDbLongTransaction
  3
AutoCAD 2000
 90
        0
280
     0
281
     0
  0
CLASS
  1
LWPOLYLINE
  2
AcDbPolyline
  3
AutoCAD 2000
 90
        0
280
     0
281
     1
  0
CLASS
  1
HATCH
  2
AcDbHatch
  3
AutoCAD 2000
 90
        0
280
     0
281
     1
  0
CLASS
  1
XRECORD
  2
AcDbXrecord
  3
AutoCAD 2000
 90
        0
280
     0
281
     0
  0
CLASS
  1
LONG_TRANSACTION
  2
AcDbLongTransaction
  3
AutoCAD 2000
 90
        0
280
     0
281
     0
  0
CLASS
  1
LWPOLYLINE
  2
AcDbPolyline
  3
AutoCAD 2000
 90
        0
280
     0
281
     1
  0
CLASS
  1
HATCH
  2
AcDbHatch
  3
AutoCAD 2000
 90
        0
280
     0
281
     1
  0
CLASS
  1
XRECORD
  2
AcDbXrecord
  3
AutoCAD 2000
 90
        0
280
     0
281
     0
  0
CLASS
  1
LONG_TRANSACTION
  2
AcDbLongTransaction
  3
AutoCAD 2000
 90
        0
280
     0
281
     0
  0
CLASS
  1
LWPOLYLINE
  2
AcDbPolyline
  3
AutoCAD 2000
 90
        0
280
     0
281
     1
  0
CLASS
  1
HATCH
  2
AcDbHatch
  3
AutoCAD 2000
 90
        0
280
     0
281
     1
  0
CLASS
  1
XRECORD
  2
AcDbXrecord
  3
AutoCAD 2000
 90
        0
280
     0
281
     0
  0
CLASS
  1
LONG_TRANSACTION
  2
AcDbLongTransaction
  3
AutoCAD 2000
 90
        0
280
     0
281
     0
  0
CLASS
  1
LWPOLYLINE
  2
AcDbPolyline
  3
AutoCAD 2000
 90
        0
280
     0
281
     1
  0
CLASS
  1
HATCH
  2
AcDbHatch
  3
AutoCAD 2000
 90
        0
280
     0
281
     1
  0
CLASS
  1
XRECORD
  2
AcDbXrecord
  3
AutoCAD 2000
 90
        0
280
     0
281
     0
  0
CLASS
  1
LONG_TRANSACTION
  2
AcDbLongTransaction
  3
AutoCAD 2000
 90
        0
280
     0
281
     0
  0
CLASS
  1
LWPOLYLINE
  2
AcDbPolyline
  3
AutoCAD 2000
 90
        0
280
     0
281
     1
  0
CLASS
  1
HATCH
  2
AcDbHatch
  3
AutoCAD 2000
 90
        0
280
     0
281
     1
  0
CLASS
  1
XRECORD
  2
AcDbXrecord
  3
AutoCAD 2000
 90
        0
280
     0
281
     0
  0
CLASS
  1
LONG_TRANSACTION
  2
AcDbLongTransaction
  3
AutoCAD 2000
 90
        0
280
     0
281
     0
  0
CLASS
  1
LWPOLYLINE
  2
AcDbPolyline
  3
AutoCAD 2000
 90
        0
280
     0
281
     1
  0
CLASS
  1
HATCH
  2
AcDbHatch
  3
AutoCAD 2000
 90
        0
280
     0
281
     1
  0
CLASS
  1
XRECORD
  2
AcDbXrecord
  3
AutoCAD 2000
 90
        0
280
     0
281
     0
  0
CLASS
  1
DICTIONARYVAR
  2
AcDbDictionaryVar
  3
AutoCAD 2000
 90
        0
280
     0
281
     0
  0
CLASS
  1
LONG_TRANSACTION
  2
AcDbLongTransaction
  3
AutoCAD 2000
 90
        0
280
     0
281
     0
  0
CLASS
  1
LWPOLYLINE
  2
AcDbPolyline
  3
AutoCAD 2000
 90
        0
280
     0
281
     1
  0
CLASS
  1
HATCH
  2
AcDbHatch
  3
AutoCAD 2000
 90
        0
280
     0
281
     1
  0
CLASS
  1
XRECORD
  2
AcDbXrecord
  3
AutoCAD 2000
 90
        0
280
     0
281
     0
  0
ENDSEC
  0
SECTION
  2
TABLES
  0
TABLE
  2
VPORT
  5
8
330
0
100
AcDbSymbolTable
 70
     4
  0
VPORT
  5
7255
330
8
100
AcDbSymbolTableRecord
100
AcDbViewportTableRecord
  2
*ACTIVE
 70
     0
 10
0.0
 20
0.0
 11
1.0
 21
1.0
 12
177.9781973504906
 22
-52.2579758488755
 13
0.0
 23
0.0
 14
1.0
 24
1.0
 15
10.0
 25
10.0
 16
0.0
 26
0.0
 36
1.0
 17
0.0
 27
0.0
 37
0.0
 40
1188.838725245149
 41
1.924949290060851
 42
50.0
 43
0.0
 44
0.0
 50
0.0
 51
0.0
 71
     0
 72
   100
 73
     1
 74
     1
 75
     0
 76
     0
 77
     0
 78
     0
  0
ENDTAB
  0
TABLE
  2
LTYPE
  5
5
330
0
100
AcDbSymbolTable
 70
    11
  0
LTYPE
  5
13
330
5
100
AcDbSymbolTableRecord
100
AcDbLinetypeTableRecord
  2
BYBLOCK
 70
     0
  3

 72
    65
 73
     0
 40
0.0
  0
LTYPE
  5
14
330
5
100
AcDbSymbolTableRecord
100
AcDbLinetypeTableRecord
  2
BYLAYER
 70
     0
  3

 72
    65
 73
     0
 40
0.0
  0
LTYPE
  5
15
330
5
100
AcDbSymbolTableRecord
100
AcDbLinetypeTableRecord
  2
CONTINUOUS
 70
     0
  3
Solid line
 72
    65
 73
     0
 40
0.0
  0
LTYPE
  5
22
330
5
100
AcDbSymbolTableRecord
100
AcDbLinetypeTableRecord
  2
CONTINOUS
 70
     0
  3
Solid line
 72
    65
 73
     0
 40
0.0
  0
LTYPE
  5
23
330
5
100
AcDbSymbolTableRecord
100
AcDbLinetypeTableRecord
  2
DASHED
 70
     0
  3
__ __ __ __ __ __ __ __ __ __ __ __ __ __ __
 72
    65
 73
     2
 40
0.75
 49
0.5
 74
     0
 49
-0.25
 74
     0
  0
LTYPE
  5
24
330
5
100
AcDbSymbolTableRecord
100
AcDbLinetypeTableRecord
  2
DASHDOT
 70
     0
  3
__ . __ . __ . __ . __ . __ . __ . __ . __ . __
 72
    65
 73
     4
 40
1.0
 49
0.5
 74
     0
 49
-0.25
 74
     0
 49
0.0
 74
     0
 49
-0.25
 74
     0
  0
LTYPE
  5
4C47
330
5
100
AcDbSymbolTableRecord
100
AcDbLinetypeTableRecord
  2
DIVIDE
 70
     0
  3
Divide ____ . . ____ . . ____ . . ____ . . ____
 72
    65
 73
     6
 40
1.25
 49
0.5
 74
     0
 49
-0.25
 74
     0
 49
0.0
 74
     0
 49
-0.25
 74
     0
 49
0.0
 74
     0
 49
-0.25
 74
     0
  0
LTYPE
  5
4F58
330
5
100
AcDbSymbolTableRecord
100
AcDbLinetypeTableRecord
  2
D329
 70
     0
  3
IGESIN-LineFont-D329
 72
    65
 73
     2
 40
1.35
 49
0.75
 74
     0
 49
-0.6
 74
     0
  0
LTYPE
  5
5061
330
5
100
AcDbSymbolTableRecord
100
AcDbLinetypeTableRecord
  2
D341
 70
     0
  3
IGESIN-LineFont-D341
 72
    65
 73
     4
 40
9.449999999999999
 49
7.5
 74
     0
 49
-0.6
 74
     0
 49
0.75
 74
     0
 49
-0.6
 74
     0
  0
LTYPE
  5
60FF
330
5
100
AcDbSymbolTableRecord
100
AcDbLinetypeTableRecord
  2
D325
 70
     0
  3
IGESIN-LineFont-D325
 72
    65
 73
     2
 40
1.35
 49
0.75
 74
     0
 49
-0.6
 74
     0
  0
LTYPE
  5
6314
330
5
100
AcDbSymbolTableRecord
100
AcDbLinetypeTableRecord
  2
D131
 70
     0
  3
IGESIN-LineFont-D131
 72
    65
 73
     6
 40
11.29999999999999
 49
8.0
 74
     0
 49
-0.6
 74
     0
 49
0.75
 74
     0
 49
-0.6
 74
     0
 49
0.75
 74
     0
 49
-0.6
 74
     0
  0
LTYPE
  5
6795
330
5
100
AcDbSymbolTableRecord
100
AcDbLinetypeTableRecord
  2
D1559
 70
     0
  3
IGESIN-LineFont-D1559
 72
    65
 73
     2
 40
1.35
 49
0.75
 74
     0
 49
-0.6
 74
     0
  0
LTYPE
  5
68E2
330
5
100
AcDbSymbolTableRecord
100
AcDbLinetypeTableRecord
  2
D1101
 70
     0
  3
IGESIN-LineFont-D1101
 72
    65
 73
     6
 40
11.29999999999999
 49
8.0
 74
     0
 49
-0.6
 74
     0
 49
0.75
 74
     0
 49
-0.6
 74
     0
 49
0.75
 74
     0
 49
-0.6
 74
     0
  0
ENDTAB
  0
TABLE
  2
LAYER
  5
2
330
0
100
AcDbSymbolTable
 70
    18
  0
LAYER
  5
10
330
2
100
AcDbSymbolTableRecord
100
AcDbLayerTableRecord
  2
0
 70
     0
 62
     7
  6
CONTINOUS
  0
LAYER
  5
2F
330
2
100
AcDbSymbolTableRecord
100
AcDbLayerTableRecord
  2
10
 70
     0
 62
     4
  6
CONTINOUS
  0
LAYER
  5
31
330
2
100
AcDbSymbolTableRecord
100
AcDbLayerTableRecord
  2
12
 70
     0
 62
     3
  6
CONTINOUS
  0
LAYER
  5
35
330
2
100
AcDbSymbolTableRecord
100
AcDbLayerTableRecord
  2
16
 70
     0
 62
     6
  6
DASHDOT
  0
LAYER
  5
38
330
2
100
AcDbSymbolTableRecord
100
AcDbLayerTableRecord
  2
19
 70
     0
 62
     7
  6
CONTINOUS
  0
LAYER
  5
3C
330
2
100
AcDbSymbolTableRecord
100
AcDbLayerTableRecord
  2
11
 70
     0
 62
     1
  6
CONTINOUS
  0
LAYER
  5
3D
330
2
100
AcDbSymbolTableRecord
100
AcDbLayerTableRecord
  2
24
 70
     0
 62
     2
  6
CONTINOUS
  0
LAYER
  5
3A2
330
2
100
AcDbSymbolTableRecord
100
AcDbLayerTableRecord
  2
30
 70
     0
 62
     9
  6
CONTINUOUS
  0
LAYER
  5
3A4
330
2
100
AcDbSymbolTableRecord
100
AcDbLayerTableRecord
  2
DEFPOINTS
 70
     0
 62
     7
  6
CONTINUOUS
  0
LAYER
  5
3BBA
330
2
100
AcDbSymbolTableRecord
100
AcDbLayerTableRecord
  2
18
 70
     0
 62
     5
  6
DIVIDE
  0
LAYER
  5
3BBB
330
2
100
AcDbSymbolTableRecord
100
AcDbLayerTableRecord
  2
21
 70
     0
 62
     7
  6
CONTINUOUS
  0
LAYER
  5
5797
330
2
100
AcDbSymbolTableRecord
100
AcDbLayerTableRecord
  2
L210_
 70
     0
 62
     7
  6
CONTINUOUS
  0
LAYER
  5
5D4D
330
2
100
AcDbSymbolTableRecord
100
AcDbLayerTableRecord
  2
17
 70
     0
 62
     2
  6
DASHDOT
  0
LAYER
  5
6100
330
2
100
AcDbSymbolTableRecord
100
AcDbLayerTableRecord
  2
L10_
 70
     0
 62
     7
  6
CONTINUOUS
  0
LAYER
  5
6796
330
2
100
AcDbSymbolTableRecord
100
AcDbLayerTableRecord
  2
L0_
 70
     0
 62
     7
  6
CONTINUOUS
  0
LAYER
  5
6797
330
2
100
AcDbSymbolTableRecord
100
AcDbLayerTableRecord
  2
L150_
 70
     0
 62
     7
  6
CONTINUOUS
  0
LAYER
  5
6798
330
2
100
AcDbSymbolTableRecord
100
AcDbLayerTableRecord
  2
L225_
 70
     0
 62
     7
  6
CONTINUOUS
  0
LAYER
  5
6B44
330
2
100
AcDbSymbolTableRecord
100
AcDbLayerTableRecord
  2
L170_
 70
     0
 62
     7
  6
CONTINUOUS
  0
ENDTAB
  0
TABLE
  2
STYLE
  5
3
330
0
100
AcDbSymbolTable
 70
     4
  0
STYLE
  5
11
330
3
100
AcDbSymbolTableRecord
100
AcDbTextStyleTableRecord
  2
STANDARD
 70
     0
 40
0.0
 41
1.0
 50
0.0
 71
     0
 42
2.0
  3
txt.shx
  4
bigfont.shx
  0
STYLE
  5
42
330
3
100
AcDbSymbolTableRecord
100
AcDbTextStyleTableRecord
  2
STANDARD1
 70
     0
 40
0.0
 41
1.0
 50
0.0
 71
     0
 42
5.0
  3
MONOTXT
  4
BIGFONT
  0
STYLE
  5
4C46
330
3
100
AcDbSymbolTableRecord
100
AcDbTextStyleTableRecord
  2

 70
     1
 40
0.0
 41
1.0
 50
0.0
 71
     0
 42
5.0
  3
ltypeshp.shx
  4

  0
STYLE
  5
4F59
330
3
100
AcDbSymbolTableRecord
100
AcDbTextStyleTableRecord
  2
SYMBOL3
 70
     0
 40
0.0
 41
1.0
 50
0.0
 71
     0
 42
0.2
  3
iges1003
  4

  0
ENDTAB
  0
TABLE
  2
VIEW
  5
6
330
0
100
AcDbSymbolTable
 70
     3
  0
VIEW
  5
230C
330
6
100
AcDbSymbolTableRecord
100
AcDbViewTableRecord
  2
OLE1
 70
     0
 40
148.9124878027715
 10
429.4976280407224
 20
2.560626997828478
 41
103.1458057716445
 11
0.0
 21
0.0
 31
1.0
 12
0.0
 22
0.0
 32
0.0
 42
50.0
 43
0.0
 44
0.0
 50
0.0
 71
     0
  0
VIEW
  5
230E
330
6
100
AcDbSymbolTableRecord
100
AcDbViewTableRecord
  2
OLE2
 70
     0
 40
170.7786920545776
 10
322.664969958371
 20
-5.978304054290276
 41
102.4672152327465
 11
0.0
 21
0.0
 31
1.0
 12
0.0
 22
0.0
 32
0.0
 42
50.0
 43
0.0
 44
0.0
 50
0.0
 71
     0
  0
VIEW
  5
23AA
330
6
100
AcDbSymbolTableRecord
100
AcDbViewTableRecord
  2
OLE3
 70
     0
 40
591.7897393182231
 10
84.79698158148218
 20
-46.09336010803997
 41
388.7920961799954
 11
0.0
 21
0.0
 31
1.0
 12
0.0
 22
0.0
 32
0.0
 42
50.0
 43
0.0
 44
0.0
 50
0.0
 71
     0
  0
ENDTAB
  0
TABLE
  2
UCS
  5
7
330
0
100
AcDbSymbolTable
 70
     0
  0
ENDTAB
  0
TABLE
  2
APPID
  5
9
330
0
100
AcDbSymbolTable
 70
     2
  0
APPID
  5
12
330
9
100
AcDbSymbolTableRecord
100
AcDbRegAppTableRecord
  2
ACAD
 70
     0
  0
APPID
  5
ECD
330
9
100
AcDbSymbolTableRecord
100
AcDbRegAppTableRecord
  2
CONTENTBLOCKICON
 70
     0
  0
ENDTAB
  0
TABLE
  2
DIMSTYLE
  5
A
330
0
100
AcDbSymbolTable
 70
     1
  0
DIMSTYLE
105
175
102
{ACAD_REACTORS
330
6932
330
6A1C
330
6A29
330
6A36
330
6A43
330
6A50
330
6A5D
330
6A6A
330
6A77
330
6A91
330
6A9E
330
6B8E
330
6BAA
330
6BB7
330
6BC4
330
6BD1
330
6DC0
330
6EC7
330
6ED4
330
6FBC
330
6FDE
330
7032
330
7237
102
}
330
A
100
AcDbSymbolTableRecord
100
AcDbDimStyleTableRecord
  2
STANDARD
 70
     0
  3

  4

  5
OPEN
  6

  7

 40
1.0
 41
2.0
 42
1.0
 43
0.5
 44
0.5
 45
0.0
 46
0.0
 47
0.0
 48
0.0
140
5.0
141
0.09
142
0.0
143
25.4
144
1.0
145
0.0
146
1.0
147
1.0
 71
     0
 72
     0
 73
     0
 74
     1
 75
     0
 76
     0
 77
     3
 78
    12
170
     0
171
     2
172
     0
173
     0
174
     0
175
     0
176
     0
177
     0
178
     0
270
     2
271
     1
272
     1
273
     2
274
     2
340
11
275
     0
280
     0
281
     0
282
     0
283
     1
284
     0
285
     0
286
     0
287
     3
288
     0
  0
ENDTAB
  0
TABLE
  2
BLOCK_RECORD
  5
1
330
0
100
AcDbSymbolTable
 70
    41
  0
BLOCK_RECORD
  5
1E
102
{ACAD_XDICTIONARY
360
178
102
}
330
1
100
AcDbSymbolTableRecord
100
AcDbBlockTableRecord
  2
*MODEL_SPACE
  0
BLOCK_RECORD
  5
1A
102
{ACAD_XDICTIONARY
360
17A
102
}
330
1
100
AcDbSymbolTableRecord
100
AcDbBlockTableRecord
  2
*PAPER_SPACE
  0
BLOCK_RECORD
  5
3B2
330
1
100
AcDbSymbolTableRecord
100
AcDbBlockTableRecord
  2
_OPEN
  0
BLOCK_RECORD
  5
5372
330
1
100
AcDbSymbolTableRecord
100
AcDbBlockTableRecord
  2
*D1
  0
BLOCK_RECORD
  5
537E
330
1
100
AcDbSymbolTableRecord
100
AcDbBlockTableRecord
  2
*D2
  0
BLOCK_RECORD
  5
538A
330
1
100
AcDbSymbolTableRecord
100
AcDbBlockTableRecord
  2
*D3
  0
BLOCK_RECORD
  5
5396
330
1
100
AcDbSymbolTableRecord
100
AcDbBlockTableRecord
  2
*D4
  0
BLOCK_RECORD
  5
53A2
330
1
100
AcDbSymbolTableRecord
100
AcDbBlockTableRecord
  2
*D5
  0
BLOCK_RECORD
  5
53AE
330
1
100
AcDbSymbolTableRecord
100
AcDbBlockTableRecord
  2
*D6
  0
BLOCK_RECORD
  5
53BA
330
1
100
AcDbSymbolTableRecord
100
AcDbBlockTableRecord
  2
*D7
  0
BLOCK_RECORD
  5
53C6
330
1
100
AcDbSymbolTableRecord
100
AcDbBlockTableRecord
  2
A$C18746642
  0
BLOCK_RECORD
  5
572B
330
1
100
AcDbSymbolTableRecord
100
AcDbBlockTableRecord
  2
B2383
  0
BLOCK_RECORD
  5
5730
330
1
100
AcDbSymbolTableRecord
100
AcDbBlockTableRecord
  2
*D10
  0
BLOCK_RECORD
  5
5738
330
1
100
AcDbSymbolTableRecord
100
AcDbBlockTableRecord
  2
B2387
  0
BLOCK_RECORD
  5
5F6A
330
1
100
AcDbSymbolTableRecord
100
AcDbBlockTableRecord
  2
*D12
  0
BLOCK_RECORD
  5
5F76
330
1
100
AcDbSymbolTableRecord
100
AcDbBlockTableRecord
  2
A$C59C36ED1
  0
BLOCK_RECORD
  5
695D
330
1
100
AcDbSymbolTableRecord
100
AcDbBlockTableRecord
  2
*D14
  0
BLOCK_RECORD
  5
6A1D
330
1
100
AcDbSymbolTableRecord
100
AcDbBlockTableRecord
  2
*D15
  0
BLOCK_RECORD
  5
6A2A
330
1
100
AcDbSymbolTableRecord
100
AcDbBlockTableRecord
  2
*D16
  0
BLOCK_RECORD
  5
6A37
330
1
100
AcDbSymbolTableRecord
100
AcDbBlockTableRecord
  2
*D17
  0
BLOCK_RECORD
  5
6A44
330
1
100
AcDbSymbolTableRecord
100
AcDbBlockTableRecord
  2
*D18
  0
BLOCK_RECORD
  5
6A51
330
1
100
AcDbSymbolTableRecord
100
AcDbBlockTableRecord
  2
*D19
  0
BLOCK_RECORD
  5
6A5E
330
1
100
AcDbSymbolTableRecord
100
AcDbBlockTableRecord
  2
*D20
  0
BLOCK_RECORD
  5
6A6B
330
1
100
AcDbSymbolTableRecord
100
AcDbBlockTableRecord
  2
*D21
  0
BLOCK_RECORD
  5
6A78
330
1
100
AcDbSymbolTableRecord
100
AcDbBlockTableRecord
  2
*D22
  0
BLOCK_RECORD
  5
6A92
330
1
100
AcDbSymbolTableRecord
100
AcDbBlockTableRecord
  2
*D23
  0
BLOCK_RECORD
  5
6A9F
330
1
100
AcDbSymbolTableRecord
100
AcDbBlockTableRecord
  2
*D24
  0
BLOCK_RECORD
  5
6B8F
330
1
100
AcDbSymbolTableRecord
100
AcDbBlockTableRecord
  2
*D25
  0
BLOCK_RECORD
  5
6BAB
330
1
100
AcDbSymbolTableRecord
100
AcDbBlockTableRecord
  2
*D26
  0
BLOCK_RECORD
  5
6BB8
330
1
100
AcDbSymbolTableRecord
100
AcDbBlockTableRecord
  2
*D27
  0
BLOCK_RECORD
  5
6BC5
330
1
100
AcDbSymbolTableRecord
100
AcDbBlockTableRecord
  2
*D28
  0
BLOCK_RECORD
  5
6BD2
330
1
100
AcDbSymbolTableRecord
100
AcDbBlockTableRecord
  2
*D29
  0
BLOCK_RECORD
  5
6CB9
330
1
100
AcDbSymbolTableRecord
100
AcDbBlockTableRecord
  2
REVDATE
  0
BLOCK_RECORD
  5
6DC1
330
1
100
AcDbSymbolTableRecord
100
AcDbBlockTableRecord
  2
*D31
  0
BLOCK_RECORD
  5
6EC8
330
1
100
AcDbSymbolTableRecord
100
AcDbBlockTableRecord
  2
*D32
  0
BLOCK_RECORD
  5
6ED5
330
1
100
AcDbSymbolTableRecord
100
AcDbBlockTableRecord
  2
*D33
  0
BLOCK_RECORD
  5
6F20
330
1
100
AcDbSymbolTableRecord
100
AcDbBlockTableRecord
  2
*D34
  0
BLOCK_RECORD
  5
6FBF
330
1
100
AcDbSymbolTableRecord
100
AcDbBlockTableRecord
  2
*D35
  0
BLOCK_RECORD
  5
6FDF
330
1
100
AcDbSymbolTableRecord
100
AcDbBlockTableRecord
  2
*D36
  0
BLOCK_RECORD
  5
7033
330
1
100
AcDbSymbolTableRecord
100
AcDbBlockTableRecord
  2
*D37
  0
BLOCK_RECORD
  5
7238
330
1
100
AcDbSymbolTableRecord
100
AcDbBlockTableRecord
  2
*D40
  0
ENDTAB
  0
ENDSEC
  0
SECTION
  2
BLOCKS
  0
BLOCK
  5
1F
330
1E
100
AcDbEntity
  8
0
100
AcDbBlockBegin
  2
*MODEL_SPACE
 70
     0
 10
0.0
 20
0.0
 30
0.0
  3
*MODEL_SPACE
  1

  0
ENDBLK
  5
20
330
1E
100
AcDbEntity
  8
0
100
AcDbBlockEnd
  0
BLOCK
  5
1B
330
1A
100
AcDbEntity
 67
     1
  8
0
100
AcDbBlockBegin
  2
*PAPER_SPACE
 70
     0
 10
0.0
 20
0.0
 30
0.0
  3
*PAPER_SPACE
  1

  0
ENDBLK
  5
1C
330
1A
100
AcDbEntity
 67
     1
  8
0
100
AcDbBlockEnd
  0
BLOCK
  5
3B6
330
3B2
100
AcDbEntity
  8
0
100
AcDbBlockBegin
  2
_OPEN
 70
     0
 10
0.0
 20
0.0
 30
0.0
  3
_OPEN
  1

  0
LINE
  5
3B3
330
3B2
100
AcDbEntity
  8
30
  6
CONTINUOUS
 62
     0
100
AcDbLine
 10
-1.0
 20
0.1666666666666666
 30
0.0
 11
0.0
 21
0.0
 31
0.0
  0
LINE
  5
3B4
330
3B2
100
AcDbEntity
  8
30
  6
CONTINUOUS
 62
     0
100
AcDbLine
 10
-1.0
 20
-0.1666666666666666
 30
0.0
 11
0.0
 21
0.0
 31
0.0
  0
LINE
  5
3B5
330
3B2
100
AcDbEntity
  8
30
  6
CONTINUOUS
 62
     0
100
AcDbLine
 10
0.0
 20
0.0
 30
0.0
 11
-1.0
 21
0.0
 31
0.0
  0
ENDBLK
  5
3B7
330
3B2
100
AcDbEntity
  8
0
100
AcDbBlockEnd
  0
BLOCK
  5
537C
330
5372
100
AcDbEntity
  8
0
100
AcDbBlockBegin
  2
*D1
 70
     1
 10
0.0
 20
0.0
 30
0.0
  3
*D1
  1

  0
LINE
  5
5373
330
5372
100
AcDbEntity
  8
10
 62
     0
100
AcDbLine
 10
1408.1479492188
 20
471.74888305664
 30
0.0
 11
1408.1479492188
 21
574.0164868164099
 31
0.0
  0
LINE
  5
5374
330
5372
100
AcDbEntity
  8
10
 62
     0
100
AcDbLine
 10
1515.6480712891
 20
408.7488525390599
 30
0.0
 11
1515.6480712891
 21
574.0164868164099
 31
0.0
  0
LINE
  5
5375
330
5372
100
AcDbEntity
  8
10
 62
     0
100
AcDbLine
 10
1408.3279492188
 20
573.83648681641
 30
0.0
 11
1515.4680712891
 21
573.83648681641
 31
0.0
  0
MTEXT
  5
5376
330
5372
100
AcDbEntity
  8
10
 62
     0
100
AcDbMText
 10
1456.951817203372
 20
587.33648681641
 30
0.0
 40
0.18
 41
0.0
 71
     5
 72
     1
  1
\A1;107.5
  7
SYMBOL3
1001
ACAD
1000
MTEXTBEGIN
1070
    73
1070
     1
1070
    44
1040
1.0
1070
    74
1070
     0
1000
MTEXTEND
  0
SOLID
  5
5377
330
5372
100
AcDbEntity
  8
10
 62
     0
100
AcDbTrace
 10
1408.3279492188
 20
573.8664868164099
 30
0.0
 11
1408.3279492188
 21
573.80648681641
 31
0.0
 12
1408.1479492188
 22
573.83648681641
 32
0.0
 13
1408.1479492188
 23
573.83648681641
 33
0.0
  0
SOLID
  5
5378
330
5372
100
AcDbEntity
  8
10
 62
     0
100
AcDbTrace
 10
1515.4680712891
 20
573.8664868164099
 30
0.0
 11
1515.4680712891
 21
573.80648681641
 31
0.0
 12
1515.6480712891
 22
573.83648681641
 32
0.0
 13
1515.6480712891
 23
573.83648681641
 33
0.0
  0
POINT
  5
5379
330
5372
100
AcDbEntity
  8
DEFPOINTS
 62
     0
100
AcDbPoint
 10
1408.1479492188
 20
471.68638305664
 30
0.0
  0
POINT
  5
537A
330
5372
100
AcDbEntity
  8
DEFPOINTS
 62
     0
100
AcDbPoint
 10
1515.6480712891
 20
408.68635253906
 30
0.0
  0
POINT
  5
537B
330
5372
100
AcDbEntity
  8
DEFPOINTS
 62
     0
100
AcDbPoint
 10
1515.6480712891
 20
573.83648681641
 30
0.0
  0
ENDBLK
  5
537D
330
5372
100
AcDbEntity
  8
0
100
AcDbBlockEnd
  0
BLOCK
  5
5388
330
537E
100
AcDbEntity
  8
0
100
AcDbBlockBegin
  2
*D2
 70
     1
 10
0.0
 20
0.0
 30
0.0
  3
*D2
  1

  0
LINE
  5
537F
330
537E
100
AcDbEntity
  8
10
 62
     0
100
AcDbLine
 10
1408.1479492188
 20
471.74888305664
 30
0.0
 11
1408.1479492188
 21
523.8737255859399
 31
0.0
  0
LINE
  5
5380
330
537E
100
AcDbEntity
  8
10
 62
     0
100
AcDbLine
 10
1495.1480712891
 20
448.62861328125
 30
0.0
 11
1495.1480712891
 21
523.87372558594
 31
0.0
  0
LINE
  5
5381
330
537E
100
AcDbEntity
  8
10
 62
     0
100
AcDbLine
 10
1408.3279492188
 20
523.69372558594
 30
0.0
 11
1494.9680712891
 21
523.69372558594
 31
0.0
  0
MTEXT
  5
5382
330
537E
100
AcDbEntity
  8
10
 62
     0
100
AcDbMText
 10
1451.607153789427
 20
537.19372558594
 30
0.0
 40
0.18
 41
0.0
 71
     5
 72
     1
  1
\A1;87
  7
SYMBOL3
1001
ACAD
1000
MTEXTBEGIN
1070
    73
1070
     1
1070
    44
1040
1.0
1070
    74
1070
     0
1000
MTEXTEND
  0
SOLID
  5
5383
330
537E
100
AcDbEntity
  8
10
 62
     0
100
AcDbTrace
 10
1408.3279492188
 20
523.7237255859399
 30
0.0
 11
1408.3279492188
 21
523.66372558594
 31
0.0
 12
1408.1479492188
 22
523.69372558594
 32
0.0
 13
1408.1479492188
 23
523.69372558594
 33
0.0
  0
SOLID
  5
5384
330
537E
100
AcDbEntity
  8
10
 62
     0
100
AcDbTrace
 10
1494.9680712891
 20
523.7237255859399
 30
0.0
 11
1494.9680712891
 21
523.66372558594
 31
0.0
 12
1495.1480712891
 22
523.69372558594
 32
0.0
 13
1495.1480712891
 23
523.69372558594
 33
0.0
  0
POINT
  5
5385
330
537E
100
AcDbEntity
  8
DEFPOINTS
 62
     0
100
AcDbPoint
 10
1408.1479492188
 20
471.68638305664
 30
0.0
  0
POINT
  5
5386
330
537E
100
AcDbEntity
  8
DEFPOINTS
 62
     0
100
AcDbPoint
 10
1495.1480712891
 20
448.56611328125
 30
0.0
  0
POINT
  5
5387
330
537E
100
AcDbEntity
  8
DEFPOINTS
 62
     0
100
AcDbPoint
 10
1495.1480712891
 20
523.69372558594
 30
0.0
  0
ENDBLK
  5
5389
330
537E
100
AcDbEntity
  8
0
100
AcDbBlockEnd
  0
BLOCK
  5
5394
330
538A
100
AcDbEntity
  8
0
100
AcDbBlockBegin
  2
*D3
 70
     1
 10
0.0
 20
0.0
 30
0.0
  3
*D3
  1

  0
LINE
  5
538B
330
538A
100
AcDbEntity
  8
10
 62
     0
100
AcDbLine
 10
1408.1479492188
 20
225.8366577148399
 30
0.0
 11
1408.1479492188
 21
164.2525866699199
 31
0.0
  0
LINE
  5
538C
330
538A
100
AcDbEntity
  8
10
 62
     0
100
AcDbLine
 10
1393.1479492188
 20
259.83665771484
 30
0.0
 11
1393.1479492188
 21
164.2525866699199
 31
0.0
  0
LINE
  5
538D
330
538A
100
AcDbEntity
  8
10
 62
     0
100
AcDbLine
 10
1407.967949218799
 20
164.4325866699199
 30
0.0
 11
1393.3279492188
 21
164.4325866699199
 31
0.0
  0
MTEXT
  5
538E
330
538A
100
AcDbEntity
  8
10
 62
     0
100
AcDbMText
 10
1360.43980773724
 20
177.93258666992
 30
0.0
 40
0.18
 41
0.0
 71
     5
 72
     1
  1
\A1;15
  7
SYMBOL3
1001
ACAD
1000
MTEXTBEGIN
1070
    73
1070
     1
1070
    44
1040
1.0
1070
    74
1070
     0
1000
MTEXTEND
  0
SOLID
  5
538F
330
538A
100
AcDbEntity
  8
10
 62
     0
100
AcDbTrace
 10
1407.967949218799
 20
164.4625866699199
 30
0.0
 11
1407.967949218799
 21
164.40258666992
 31
0.0
 12
1408.1479492188
 22
164.4325866699199
 32
0.0
 13
1408.1479492188
 23
164.4325866699199
 33
0.0
  0
SOLID
  5
5390
330
538A
100
AcDbEntity
  8
10
 62
     0
100
AcDbTrace
 10
1393.3279492188
 20
164.4625866699199
 30
0.0
 11
1393.3279492188
 21
164.40258666992
 31
0.0
 12
1393.1479492188
 22
164.4325866699199
 32
0.0
 13
1393.1479492188
 23
164.4325866699199
 33
0.0
  0
POINT
  5
5391
330
538A
100
AcDbEntity
  8
DEFPOINTS
 62
     0
100
AcDbPoint
 10
1408.1479492188
 20
225.8991577148399
 30
0.0
  0
POINT
  5
5392
330
538A
100
AcDbEntity
  8
DEFPOINTS
 62
     0
100
AcDbPoint
 10
1393.1479492188
 20
259.89915771484
 30
0.0
  0
POINT
  5
5393
330
538A
100
AcDbEntity
  8
DEFPOINTS
 62
     0
100
AcDbPoint
 10
1393.1479492188
 20
164.4325866699199
 30
0.0
  0
ENDBLK
  5
5395
330
538A
100
AcDbEntity
  8
0
100
AcDbBlockEnd
  0
BLOCK
  5
53A0
330
5396
100
AcDbEntity
  8
0
100
AcDbBlockBegin
  2
*D4
 70
     1
 10
0.0
 20
0.0
 30
0.0
  3
*D4
  1

  0
LINE
  5
5397
330
5396
100
AcDbEntity
  8
10
 62
     0
100
AcDbLine
 10
1377.1479492188
 20
367.6677734375
 30
0.0
 11
1377.1479492188
 21
115.7286914062499
 31
0.0
  0
LINE
  5
5398
330
5396
100
AcDbEntity
  8
10
 62
     0
100
AcDbLine
 10
1408.1479492188
 20
225.8366577148399
 30
0.0
 11
1408.1479492188
 21
115.7286914062499
 31
0.0
  0
LINE
  5
5399
330
5396
100
AcDbEntity
  8
10
 62
     0
100
AcDbLine
 10
1377.3279492188
 20
115.9086914062499
 30
0.0
 11
1407.967949218799
 21
115.9086914062499
 31
0.0
  0
MTEXT
  5
539A
330
5396
100
AcDbEntity
  8
10
 62
     0
100
AcDbMText
 10
1390.672659997064
 20
129.4086914062499
 30
0.0
 40
0.18
 41
0.0
 71
     5
 72
     1
  1
\A1;31
  7
SYMBOL3
1001
ACAD
1000
MTEXTBEGIN
1070
    73
1070
     1
1070
    44
1040
1.0
1070
    74
1070
     0
1000
MTEXTEND
  0
SOLID
  5
539B
330
5396
100
AcDbEntity
  8
10
 62
     0
100
AcDbTrace
 10
1377.3279492188
 20
115.9386914062499
 30
0.0
 11
1377.3279492188
 21
115.87869140625
 31
0.0
 12
1377.1479492188
 22
115.9086914062499
 32
0.0
 13
1377.1479492188
 23
115.9086914062499
 33
0.0
  0
SOLID
  5
539C
330
5396
100
AcDbEntity
  8
10
 62
     0
100
AcDbTrace
 10
1407.967949218799
 20
115.9386914062499
 30
0.0
 11
1407.967949218799
 21
115.87869140625
 31
0.0
 12
1408.1479492188
 22
115.9086914062499
 32
0.0
 13
1408.1479492188
 23
115.9086914062499
 33
0.0
  0
POINT
  5
539D
330
5396
100
AcDbEntity
  8
DEFPOINTS
 62
     0
100
AcDbPoint
 10
1377.1479492188
 20
367.7302734374999
 30
0.0
  0
POINT
  5
539E
330
5396
100
AcDbEntity
  8
DEFPOINTS
 62
     0
100
AcDbPoint
 10
1408.1479492188
 20
225.8991577148399
 30
0.0
  0
POINT
  5
539F
330
5396
100
AcDbEntity
  8
DEFPOINTS
 62
     0
100
AcDbPoint
 10
1408.1479492188
 20
115.9086914062499
 30
0.0
  0
ENDBLK
  5
53A1
330
5396
100
AcDbEntity
  8
0
100
AcDbBlockEnd
  0
BLOCK
  5
53AC
330
53A2
100
AcDbEntity
  8
0
100
AcDbBlockBegin
  2
*D5
 70
     1
 10
0.0
 20
0.0
 30
0.0
  3
*D5
  1

  0
LINE
  5
53A3
330
53A2
100
AcDbEntity
  8
10
 62
     0
100
AcDbLine
 10
1542.6040771484
 20
415.792755129682
 30
0.0
 11
1629.719178712973
 21
415.7927589376051
 31
0.0
  0
LINE
  5
53A4
330
53A2
100
AcDbEntity
  8
10
 62
     0
100
AcDbLine
 10
1542.6040771484
 20
281.792755129682
 30
0.0
 11
1629.7191845703
 21
281.7927589376054
 31
0.0
  0
LINE
  5
53A5
330
53A2
100
AcDbEntity
  8
10
 62
     0
100
AcDbLine
 10
1629.539178720841
 20
415.6127589297371
 30
0.0
 11
1629.539184562432
 21
281.9727589297373
 31
0.0
  0
MTEXT
  5
53A6
330
53A2
100
AcDbEntity
  8
10
 62
     0
100
AcDbMText
 10
1616.039184719544
 20
342.9059393539334
 30
0.0
 40
0.18
 41
0.0
 71
     5
 72
     1
  1
\A1;134
  7
SYMBOL3
 11
-0.0000000437114009
 21
0.9999999999999992
 31
0.0
1001
ACAD
1000
MTEXTBEGIN
1070
    73
1070
     1
1070
    44
1040
1.0
1070
    74
1070
     0
1000
MTEXTEND
  0
SOLID
  5
53A7
330
53A2
100
AcDbEntity
  8
10
 62
     0
100
AcDbTrace
 10
1629.509178720841
 20
415.6127589284258
 30
0.0
 11
1629.56917872084
 21
415.6127589310485
 31
0.0
 12
1629.539178712973
 22
415.7927589297371
 32
0.0
 13
1629.539178712973
 23
415.7927589297371
 33
0.0
  0
SOLID
  5
53A8
330
53A2
100
AcDbEntity
  8
10
 62
     0
100
AcDbTrace
 10
1629.509184562432
 20
281.972758928426
 30
0.0
 11
1629.569184562432
 21
281.9727589310487
 31
0.0
 12
1629.5391845703
 22
281.7927589297373
 32
0.0
 13
1629.5391845703
 23
281.7927589297373
 33
0.0
  0
POINT
  5
53A9
330
53A2
100
AcDbEntity
  8
DEFPOINTS
 62
     0
100
AcDbPoint
 10
1542.5415771484
 20
415.7927551269501
 30
0.0
  0
POINT
  5
53AA
330
53A2
100
AcDbEntity
  8
DEFPOINTS
 62
     0
100
AcDbPoint
 10
1542.5415771484
 20
281.7927551269501
 30
0.0
  0
POINT
  5
53AB
330
53A2
100
AcDbEntity
  8
DEFPOINTS
 62
     0
100
AcDbPoint
 10
1629.5391845703
 20
281.7927589297373
 30
0.0
  0
ENDBLK
  5
53AD
330
53A2
100
AcDbEntity
  8
0
100
AcDbBlockEnd
  0
BLOCK
  5
53B8
330
53AE
100
AcDbEntity
  8
0
100
AcDbBlockBegin
  2
*D6
 70
     1
 10
0.0
 20
0.0
 30
0.0
  3
*D6
  1

  0
LINE
  5
53AF
330
53AE
100
AcDbEntity
  8
10
 62
     0
100
AcDbLine
 10
1408.1479492188
 20
225.8366577148399
 30
0.0
 11
1408.1479492188
 21
116.1434558105499
 31
0.0
  0
LINE
  5
53B0
330
53AE
100
AcDbEntity
  8
10
 62
     0
100
AcDbLine
 10
1565.6480712891
 20
288.8366577148399
 30
0.0
 11
1565.6480712891
 21
116.1434558105499
 31
0.0
  0
LINE
  5
53B1
330
53AE
100
AcDbEntity
  8
10
 62
     0
100
AcDbLine
 10
1408.3279492188
 20
116.3234558105499
 30
0.0
 11
1565.4680712891
 21
116.3234558105499
 31
0.0
  0
MTEXT
  5
53B2
330
53AE
100
AcDbEntity
  8
10
 62
     0
100
AcDbMText
 10
1483.783238101872
 20
129.82345581055
 30
0.0
 40
0.18
 41
0.0
 71
     5
 72
     1
  1
\A1;157.5
  7
SYMBOL3
1001
ACAD
1000
MTEXTBEGIN
1070
    73
1070
     1
1070
    44
1040
1.0
1070
    74
1070
     0
1000
MTEXTEND
  0
SOLID
  5
53B3
330
53AE
100
AcDbEntity
  8
10
 62
     0
100
AcDbTrace
 10
1408.3279492188
 20
116.3534558105499
 30
0.0
 11
1408.3279492188
 21
116.2934558105499
 31
0.0
 12
1408.1479492188
 22
116.3234558105499
 32
0.0
 13
1408.1479492188
 23
116.3234558105499
 33
0.0
  0
SOLID
  5
53B4
330
53AE
100
AcDbEntity
  8
10
 62
     0
100
AcDbTrace
 10
1565.4680712891
 20
116.3534558105499
 30
0.0
 11
1565.4680712891
 21
116.2934558105499
 31
0.0
 12
1565.6480712891
 22
116.3234558105499
 32
0.0
 13
1565.6480712891
 23
116.3234558105499
 33
0.0
  0
POINT
  5
53B5
330
53AE
100
AcDbEntity
  8
DEFPOINTS
 62
     0
100
AcDbPoint
 10
1408.1479492188
 20
225.8991577148399
 30
0.0
  0
POINT
  5
53B6
330
53AE
100
AcDbEntity
  8
DEFPOINTS
 62
     0
100
AcDbPoint
 10
1565.6480712891
 20
288.89915771484
 30
0.0
  0
POINT
  5
53B7
330
53AE
100
AcDbEntity
  8
DEFPOINTS
 62
     0
100
AcDbPoint
 10
1565.6480712891
 20
116.3234558105499
 30
0.0
  0
ENDBLK
  5
53B9
330
53AE
100
AcDbEntity
  8
0
100
AcDbBlockEnd
  0
BLOCK
  5
53C4
330
53BA
100
AcDbEntity
  8
0
100
AcDbBlockBegin
  2
*D7
 70
     1
 10
0.0
 20
0.0
 30
0.0
  3
*D7
  1

  0
LINE
  5
53BB
330
53BA
100
AcDbEntity
  8
10
 62
     0
100
AcDbLine
 10
1408.1479492188
 20
225.8366577148399
 30
0.0
 11
1408.1479492188
 21
164.2525866699199
 31
0.0
  0
LINE
  5
53BC
330
53BA
100
AcDbEntity
  8
10
 62
     0
100
AcDbLine
 10
1545.148193359399
 20
248.9568664550799
 30
0.0
 11
1545.148193359399
 21
164.2525866699199
 31
0.0
  0
LINE
  5
53BD
330
53BA
100
AcDbEntity
  8
10
 62
     0
100
AcDbLine
 10
1408.3279492188
 20
164.4325866699199
 30
0.0
 11
1544.9681933594
 21
164.4325866699199
 31
0.0
  0
MTEXT
  5
53BE
330
53BA
100
AcDbEntity
  8
10
 62
     0
100
AcDbMText
 10
1472.349887305842
 20
177.9325866699198
 30
0.0
 40
0.18
 41
0.0
 71
     5
 72
     1
  1
\A1;137
  7
SYMBOL3
1001
ACAD
1000
MTEXTBEGIN
1070
    73
1070
     1
1070
    44
1040
1.0
1070
    74
1070
     0
1000
MTEXTEND
  0
SOLID
  5
53BF
330
53BA
100
AcDbEntity
  8
10
 62
     0
100
AcDbTrace
 10
1408.3279492188
 20
164.4625866699199
 30
0.0
 11
1408.3279492188
 21
164.40258666992
 31
0.0
 12
1408.1479492188
 22
164.4325866699199
 32
0.0
 13
1408.1479492188
 23
164.4325866699199
 33
0.0
  0
SOLID
  5
53C0
330
53BA
100
AcDbEntity
  8
10
 62
     0
100
AcDbTrace
 10
1544.9681933594
 20
164.4625866699199
 30
0.0
 11
1544.9681933594
 21
164.40258666992
 31
0.0
 12
1545.148193359399
 22
164.4325866699199
 32
0.0
 13
1545.148193359399
 23
164.4325866699199
 33
0.0
  0
POINT
  5
53C1
330
53BA
100
AcDbEntity
  8
DEFPOINTS
 62
     0
100
AcDbPoint
 10
1408.1479492188
 20
225.8991577148399
 30
0.0
  0
POINT
  5
53C2
330
53BA
100
AcDbEntity
  8
DEFPOINTS
 62
     0
100
AcDbPoint
 10
1545.148193359399
 20
249.0193664550799
 30
0.0
  0
POINT
  5
53C3
330
53BA
100
AcDbEntity
  8
DEFPOINTS
 62
     0
100
AcDbPoint
 10
1545.148193359399
 20
164.4325866699199
 30
0.0
  0
ENDBLK
  5
53C5
330
53BA
100
AcDbEntity
  8
0
100
AcDbBlockEnd
  0
BLOCK
  5
5452
330
53C6
100
AcDbEntity
  8
0
100
AcDbBlockBegin
  2
A$C18746642
 70
     0
 10
0.0
 20
0.0
 30
0.0
  3
A$C18746642
  1

  0
DIMENSION
  5
53C7
330
53C6
100
AcDbEntity
  8
10
100
AcDbDimension
  2
*D1
 10
122.5001220702999
 20
225.04376220703
 30
0.0
 11
63.80386798457243
 21
238.54376220703
 31
0.0
 12
-1393.1479492188
 22
-348.7927246093799
 32
0.0
 70
   128
  1
107.5
  3
STANDARD
100
AcDbAlignedDimension
 13
15.0
 23
122.89365844726
 33
0.0
 14
122.5001220702999
 24
59.89362792968006
 34
0.0
 50
180.0
100
AcDbRotatedDimension
1001
ACAD
1000
DSTYLE
1002
{
1070
   287
1070
     5
1070
   287
1070
     5
1070
   279
1070
     2
1002
}
  0
DIMENSION
  5
53C8
330
53C6
100
AcDbEntity
  8
10
100
AcDbDimension
  2
*D2
 10
102.0001220703
 20
174.90100097656
 30
0.0
 11
58.45920457062698
 21
188.40100097656
 31
0.0
 12
-1393.1479492188
 22
-348.7927246093799
 32
0.0
 70
   128
  1
87
  3
STANDARD
100
AcDbAlignedDimension
 13
15.0
 23
122.89365844726
 33
0.0
 14
102.0001220703
 24
99.77338867187008
 34
0.0
 50
180.0
100
AcDbRotatedDimension
1001
ACAD
1000
DSTYLE
1002
{
1070
   287
1070
     5
1070
   287
1070
     5
1070
   279
1070
     2
1002
}
  0
DIMENSION
  5
53C9
330
53C6
100
AcDbEntity
  8
10
100
AcDbDimension
  2
*D3
 10
0.0
 20
-184.3601379394599
 30
0.0
 11
-32.70814148155932
 21
-170.8601379394599
 31
0.0
 12
-1393.1479492188
 22
-348.7927246093799
 32
0.0
 70
   128
  1
15
  3
STANDARD
100
AcDbAlignedDimension
 13
15.0
 23
-122.8935668945399
 33
0.0
 14
0.0
 24
-88.89356689453995
 34
0.0
 50
180.0
100
AcDbRotatedDimension
1001
ACAD
1000
DSTYLE
1002
{
1070
   287
1070
     5
1070
   287
1070
     5
1070
   279
1070
     2
1002
}
  0
LWPOLYLINE
  5
53CA
330
53C6
100
AcDbEntity
  8
10
  6
CONTINUOUS
100
AcDbPolyline
 90
        2
 70
     0
 43
0.001
 10
-51.9998779297
 20
0.0
 10
126.8000488280999
 20
0.0
  0
DIMENSION
  5
53CB
330
53C6
100
AcDbEntity
  8
10
100
AcDbDimension
  2
*D4
 10
15.0
 20
-232.8840332031299
 30
0.0
 11
-2.475289221735465
 21
-219.3840332031299
 31
0.0
 12
-1393.1479492188
 22
-348.7927246093799
 32
0.0
 70
   128
  1
31
  3
STANDARD
100
AcDbAlignedDimension
 13
-16.0
 23
18.93754882812004
 33
0.0
 14
15.0
 24
-122.8935668945399
 34
0.0
 50
180.0
100
AcDbRotatedDimension
1001
ACAD
1000
DSTYLE
1002
{
1070
   287
1070
     5
1070
   287
1070
     5
1070
   279
1070
     2
1002
}
  0
DIMENSION
  5
53CC
330
53C6
100
AcDbEntity
  8
10
100
AcDbDimension
  2
*D5
 10
236.3912353515004
 20
-66.99996567964257
 30
0.0
 11
222.8912355007444
 21
-5.886785255446341
 31
0.0
 12
-1393.1479492188
 22
-348.7927246093799
 32
0.0
 70
   128
  1
134
 51
269.9999974955212
  3
STANDARD
100
AcDbAlignedDimension
 13
149.3936279295999
 23
67.00003051757005
 33
0.0
 14
149.3936279295999
 24
-66.99996948242994
 34
0.0
 50
90.0
100
AcDbRotatedDimension
1001
ACAD
1000
DSTYLE
1002
{
1070
   287
1070
     5
1070
   287
1070
     5
1070
   279
1070
     2
1002
}
  0
LWPOLYLINE
  5
53CD
330
53C6
100
AcDbEntity
  8
10
  6
CONTINUOUS
100
AcDbPolyline
 90
        2
 70
     0
 43
0.001
 10
0.0
 20
-24.99999999999994
 10
0.0
 20
-95.99996948242994
  0
LWPOLYLINE
  5
53CE
330
53C6
100
AcDbEntity
  8
10
  6
CONTINUOUS
100
AcDbPolyline
 90
        2
 70
     0
 43
0.001
 10
70.0001220703
 20
-50.00003051757994
 10
70.0001220703
 20
-58.99996948242995
  0
LWPOLYLINE
  5
53CF
330
53C6
100
AcDbEntity
  8
10
  6
CONTINUOUS
100
AcDbPolyline
 90
        2
 70
     0
 43
0.001
 10
19.0
 20
77.50015258789011
 10
19.0
 20
-77.49996948242994
  0
LWPOLYLINE
  5
53D0
330
53C6
100
AcDbEntity
  8
10
  6
CONTINUOUS
100
AcDbPolyline
 90
        2
 70
     0
 43
0.001
 10
15.0
 20
96.00006103514999
 10
15.0
 20
-95.99996948242994
  0
LWPOLYLINE
  5
53D1
330
53C6
100
AcDbEntity
  8
10
  6
CONTINUOUS
100
AcDbPolyline
 90
        2
 70
     0
 43
0.001
 10
25.80004882809999
 20
-50.00003051757994
 10
25.80004882809999
 20
-77.49996948242994
  0
DIMENSION
  5
53D2
330
53C6
100
AcDbEntity
  8
10
100
AcDbDimension
  2
*D6
 10
172.5001220702999
 20
-232.4692687988299
 30
0.0
 11
90.63528888307246
 21
-218.9692687988299
 31
0.0
 12
-1393.1479492188
 22
-348.7927246093799
 32
0.0
 70
   128
  1
157.5
  3
STANDARD
100
AcDbAlignedDimension
 13
15.0
 23
-122.8935668945399
 33
0.0
 14
172.5001220702999
 24
-59.89356689453996
 34
0.0
 50
180.0
100
AcDbRotatedDimension
1001
ACAD
1000
DSTYLE
1002
{
1070
   287
1070
     5
1070
   287
1070
     5
1070
   279
1070
     2
1002
}
  0
DIMENSION
  5
53D3
330
53C6
100
AcDbEntity
  8
10
100
AcDbDimension
  2
*D7
 10
152.0002441405999
 20
-184.3601379394599
 30
0.0
 11
79.20193808704221
 21
-170.8601379394601
 31
0.0
 12
-1393.1479492188
 22
-348.7927246093799
 32
0.0
 70
   128
  1
137
  3
STANDARD
100
AcDbAlignedDimension
 13
15.0
 23
-122.8935668945399
 33
0.0
 14
152.0002441405999
 24
-99.77335815429995
 34
0.0
 50
180.0
100
AcDbRotatedDimension
1001
ACAD
1000
DSTYLE
1002
{
1070
   287
1070
     5
1070
   287
1070
     5
1070
   279
1070
     2
1002
}
  0
LWPOLYLINE
  5
53D4
330
53C6
100
AcDbEntity
  8
10
  6
CONTINUOUS
100
AcDbPolyline
 90
        2
 70
     0
 43
0.001
 10
239.8000488280999
 20
-66.99996948242994
 10
60.0001220703
 20
-66.99996948242994
  0
LWPOLYLINE
  5
53D5
330
53C6
100
AcDbEntity
  8
10
  6
CONTINUOUS
100
AcDbPolyline
 90
        2
 70
     0
 43
0.001
 10
70.0001220703
 20
-77.49996948242994
 10
19.0
 20
-77.49996948242994
  0
LWPOLYLINE
  5
53D6
330
53C6
100
AcDbEntity
  8
10
  6
D329
100
AcDbPolyline
 90
        2
 70
     0
 43
0.001
 10
15.0
 20
-95.99996948242994
 10
15.0
 20
-129.9999694824299
  0
LWPOLYLINE
  5
53D7
330
53C6
100
AcDbEntity
  8
10
  6
D329
100
AcDbPolyline
 90
        2
 70
     0
 43
0.001
 10
19.0
 20
-77.49996948242994
 10
19.0
 20
-129.9999694824299
  0
LWPOLYLINE
  5
53D8
330
53C6
100
AcDbEntity
  8
10
  6
D329
100
AcDbPolyline
 90
        2
 70
     0
 43
0.001
 10
19.0
 20
-129.9999694824299
 10
15.0
 20
-129.9999694824299
  0
LWPOLYLINE
  5
53D9
330
53C6
100
AcDbEntity
  8
10
  6
CONTINUOUS
100
AcDbPolyline
 90
        2
 70
     0
 43
0.001
 10
15.0
 20
-95.99996948242994
 10
0.0
 20
-95.99996948242994
  0
LWPOLYLINE
  5
53DA
330
53C6
100
AcDbEntity
  8
10
  6
D341
100
AcDbPolyline
 90
        2
 70
     0
 43
0.001
 10
102.0002441405999
 20
-55.76306152343994
 10
102.0002441405999
 20
-106.8797607421899
  0
LWPOLYLINE
  5
53DB
330
53C6
100
AcDbEntity
  8
10
  6
D341
100
AcDbPolyline
 90
        2
 70
     0
 43
0.001
 10
104.3001708983999
 20
-55.76303100585994
 10
104.3001708983999
 20
-106.8797302246099
  0
LWPOLYLINE
  5
53DC
330
53C6
100
AcDbEntity
  8
10
  6
CONTINUOUS
100
AcDbPolyline
 90
        2
 70
     0
 43
0.001
 10
70.0001220703
 20
-58.99996948242995
 10
97.00012207029999
 20
-58.99996948242995
  0
LWPOLYLINE
  5
53DD
330
53C6
100
AcDbEntity
  8
10
  6
CONTINUOUS
100
AcDbPolyline
 90
        2
 70
     0
 43
0.001
 10
70.0001220703
 20
-74.99996948242994
 10
97.00012207029999
 20
-74.99996948242994
  0
LWPOLYLINE
  5
53DE
330
53C6
100
AcDbEntity
  8
10
  6
CONTINUOUS
100
AcDbPolyline
 90
        2
 70
     0
 43
0.001
 10
70.0001220703
 20
-74.99996948242994
 10
70.0001220703
 20
-77.49996948242994
  0
LWPOLYLINE
  5
53DF
330
53C6
100
AcDbEntity
  8
10
  6
CONTINUOUS
100
AcDbPolyline
 90
        2
 70
     0
 43
0.001
 10
70.0001220703
 20
-58.99996948242995
 10
70.0001220703
 20
-74.99996948242994
  0
LWPOLYLINE
  5
53E0
330
53C6
100
AcDbEntity
  8
10
  6
CONTINUOUS
100
AcDbPolyline
 90
        2
 70
     0
 43
0.001
 10
113.8001708983999
 20
-70.99996948242995
 10
113.8001708983999
 20
-74.99996948242994
  0
LWPOLYLINE
  5
53E1
330
53C6
100
AcDbEntity
  8
10
  6
CONTINUOUS
100
AcDbPolyline
 90
        2
 70
     0
 43
0.001
 10
113.8001708983999
 20
-62.99996948242995
 10
113.8001708983999
 20
-70.99996948242995
  0
LWPOLYLINE
  5
53E2
330
53C6
100
AcDbEntity
  8
10
  6
CONTINUOUS
100
AcDbPolyline
 90
        2
 70
     0
 43
0.001
 10
97.00012207029999
 20
-74.49996948242994
 10
97.00012207029999
 20
-74.99996948242994
  0
LWPOLYLINE
  5
53E3
330
53C6
100
AcDbEntity
  8
10
  6
CONTINUOUS
100
AcDbPolyline
 90
        2
 70
     0
 43
0.001
 10
97.00012207029999
 20
-59.49996948242994
 10
97.00012207029999
 20
-74.49996948242994
  0
LWPOLYLINE
  5
53E4
330
53C6
100
AcDbEntity
  8
10
  6
CONTINUOUS
100
AcDbPolyline
 90
        2
 70
     0
 43
0.001
 10
102.0001220703
 20
-55.76303100585994
 10
104.3001708983999
 20
-55.76303100585994
  0
LWPOLYLINE
  5
53E5
330
53C6
100
AcDbEntity
  8
10
  6
CONTINUOUS
100
AcDbPolyline
 90
        2
 70
     0
 43
0.001
 10
121.4283245110998
 20
-70.99997084972994
 42
0.2679492641254716
 10
121.4283250196999
 20
-62.9999689960199
 42
0.2679492641254716
  0
LWPOLYLINE
  5
53E6
330
53C6
100
AcDbEntity
  8
10
  6
CONTINUOUS
100
AcDbPolyline
 90
        2
 70
     0
 43
0.001
 10
102.0001220703
 20
-59.49996948242994
 10
102.0001220703
 20
-74.49996948242994
  0
LWPOLYLINE
  5
53E7
330
53C6
100
AcDbEntity
  8
10
  6
CONTINUOUS
100
AcDbPolyline
 90
        2
 70
     0
 43
0.001
 10
104.3001708983999
 20
-70.99996948242995
 10
97.00012207029999
 20
-70.99996948242995
  0
LWPOLYLINE
  5
53E8
330
53C6
100
AcDbEntity
  8
10
  6
CONTINUOUS
100
AcDbPolyline
 90
        2
 70
     0
 43
0.001
 10
104.3001708983999
 20
-62.99996948242995
 10
97.00012207029999
 20
-62.99996948242995
  0
LWPOLYLINE
  5
53E9
330
53C6
100
AcDbEntity
  8
10
  6
CONTINUOUS
100
AcDbPolyline
 90
        2
 70
     0
 43
0.001
 10
104.3001708983999
 20
-70.75277709960994
 10
113.8001708983999
 20
-70.75277709960994
  0
LWPOLYLINE
  5
53EA
330
53C6
100
AcDbEntity
  8
10
  6
CONTINUOUS
100
AcDbPolyline
 90
        2
 70
     0
 43
0.001
 10
104.3001708983999
 20
-63.24716186523994
 10
113.8001708983999
 20
-63.24716186523994
  0
LWPOLYLINE
  5
53EB
330
53C6
100
AcDbEntity
  8
10
  6
CONTINUOUS
100
AcDbPolyline
 90
        2
 70
     0
 43
0.001
 10
113.8001708983999
 20
-58.99996948242995
 10
113.8001708983999
 20
-62.99996948242995
  0
LWPOLYLINE
  5
53EC
330
53C6
100
AcDbEntity
  8
10
  6
CONTINUOUS
100
AcDbPolyline
 90
        2
 70
     0
 43
0.001
 10
102.0001220703
 20
-59.49996948242994
 10
97.00012207029999
 20
-59.49996948242994
  0
LWPOLYLINE
  5
53ED
330
53C6
100
AcDbEntity
  8
10
  6
CONTINUOUS
100
AcDbPolyline
 90
        2
 70
     0
 43
0.001
 10
97.00012207029999
 20
-58.99996948242995
 10
97.00012207029999
 20
-59.49996948242994
  0
LWPOLYLINE
  5
53EE
330
53C6
100
AcDbEntity
  8
10
  6
CONTINUOUS
100
AcDbPolyline
 90
        2
 70
     0
 43
0.001
 10
102.0001220703
 20
-74.49996948242994
 10
97.00012207029999
 20
-74.49996948242994
  0
LWPOLYLINE
  5
53EF
330
53C6
100
AcDbEntity
  8
10
  6
CONTINUOUS
100
AcDbPolyline
 90
        2
 70
     0
 43
0.001
 10
121.4283447264999
 20
-62.99996948242995
 10
113.8001708983999
 20
-62.99996948242995
  0
LWPOLYLINE
  5
53F0
330
53C6
100
AcDbEntity
  8
10
  6
CONTINUOUS
100
AcDbPolyline
 90
        2
 70
     0
 43
0.001
 10
121.4283447264999
 20
-70.99996948242995
 10
113.8001708983999
 20
-70.99996948242995
  0
LWPOLYLINE
  5
53F1
330
53C6
100
AcDbEntity
  8
10
  6
CONTINUOUS
100
AcDbPolyline
 90
        2
 70
     0
 43
0.001
 10
113.8001708983999
 20
-74.99996948242994
 10
104.3001708983999
 20
-74.99996948242994
  0
LWPOLYLINE
  5
53F2
330
53C6
100
AcDbEntity
  8
10
  6
CONTINUOUS
100
AcDbPolyline
 90
        2
 70
     0
 43
0.001
 10
113.8001708983999
 20
-58.99996948242995
 10
104.3001708983999
 20
-58.99996948242995
  0
LWPOLYLINE
  5
53F3
330
53C6
100
AcDbEntity
  8
10
  6
D341
100
AcDbPolyline
 90
        2
 70
     0
 43
0.001
 10
152.0002441405999
 20
-55.76306152343994
 10
152.0002441405999
 20
-106.8797607421899
  0
LWPOLYLINE
  5
53F4
330
53C6
100
AcDbEntity
  8
10
  6
D341
100
AcDbPolyline
 90
        2
 70
     0
 43
0.001
 10
154.3001708983999
 20
-55.76303100585994
 10
154.3001708983999
 20
-106.8797302246099
  0
LWPOLYLINE
  5
53F5
330
53C6
100
AcDbEntity
  8
10
  6
CONTINUOUS
100
AcDbPolyline
 90
        2
 70
     0
 43
0.001
 10
164.3001708983999
 20
-74.99996948242994
 10
154.3001708983999
 20
-74.99996948242994
  0
LWPOLYLINE
  5
53F6
330
53C6
100
AcDbEntity
  8
10
  6
CONTINUOUS
100
AcDbPolyline
 90
        2
 70
     0
 43
0.001
 10
164.3001708983999
 20
-58.99996948242995
 10
154.3001708983999
 20
-58.99996948242995
  0
LWPOLYLINE
  5
53F7
330
53C6
100
AcDbEntity
  8
10
  6
CONTINUOUS
100
AcDbPolyline
 90
        2
 70
     0
 43
0.001
 10
154.3001708983999
 20
-63.24716186523994
 10
164.3001708983999
 20
-63.24716186523994
  0
LWPOLYLINE
  5
53F8
330
53C6
100
AcDbEntity
  8
10
  6
CONTINUOUS
100
AcDbPolyline
 90
        2
 70
     0
 43
0.001
 10
154.3001708983999
 20
-70.75277709960994
 10
164.3001708983999
 20
-70.75277709960994
  0
LWPOLYLINE
  5
53F9
330
53C6
100
AcDbEntity
  8
10
  6
CONTINUOUS
100
AcDbPolyline
 90
        2
 70
     0
 43
0.001
 10
147.0001220702999
 20
-74.49996948242994
 10
147.0001220702999
 20
-74.99996948242994
  0
LWPOLYLINE
  5
53FA
330
53C6
100
AcDbEntity
  8
10
  6
CONTINUOUS
100
AcDbPolyline
 90
        2
 70
     0
 43
0.001
 10
147.0001220702999
 20
-59.49996948242994
 10
147.0001220702999
 20
-74.49996948242994
  0
LWPOLYLINE
  5
53FB
330
53C6
100
AcDbEntity
  8
10
  6
CONTINUOUS
100
AcDbPolyline
 90
        2
 70
     0
 43
0.001
 10
152.0001220703
 20
-55.76303100585994
 10
154.3001708983999
 20
-55.76303100585994
  0
LWPOLYLINE
  5
53FC
330
53C6
100
AcDbEntity
  8
10
  6
CONTINUOUS
100
AcDbPolyline
 90
        2
 70
     0
 43
0.001
 10
154.3001708983999
 20
-70.99996948242995
 10
147.0001220702999
 20
-70.99996948242995
  0
LWPOLYLINE
  5
53FD
330
53C6
100
AcDbEntity
  8
10
  6
CONTINUOUS
100
AcDbPolyline
 90
        2
 70
     0
 43
0.001
 10
154.3001708983999
 20
-62.99996948242995
 10
147.0001220702999
 20
-62.99996948242995
  0
LWPOLYLINE
  5
53FE
330
53C6
100
AcDbEntity
  8
10
  6
CONTINUOUS
100
AcDbPolyline
 90
        2
 70
     0
 43
0.001
 10
147.0001220702999
 20
-59.49996948242994
 10
152.0001220703
 20
-59.49996948242994
  0
LWPOLYLINE
  5
53FF
330
53C6
100
AcDbEntity
  8
10
  6
CONTINUOUS
100
AcDbPolyline
 90
        2
 70
     0
 43
0.001
 10
152.0001220703
 20
-59.49996948242994
 10
152.0001220703
 20
-74.49996948242994
  0
LWPOLYLINE
  5
5400
330
53C6
100
AcDbEntity
  8
10
  6
CONTINUOUS
100
AcDbPolyline
 90
        2
 70
     0
 43
0.001
 10
147.0001220702999
 20
-74.49996948242994
 10
152.0001220703
 20
-74.49996948242994
  0
LWPOLYLINE
  5
5401
330
53C6
100
AcDbEntity
  8
10
  6
CONTINUOUS
100
AcDbPolyline
 90
        2
 70
     0
 43
0.001
 10
147.0001220702999
 20
-58.99996948242995
 10
147.0001220702999
 20
-59.49996948242994
  0
LWPOLYLINE
  5
5402
330
53C6
100
AcDbEntity
  8
10
  6
CONTINUOUS
100
AcDbPolyline
 90
        2
 70
     0
 43
0.001
 10
147.0001220702999
 20
-74.99996948242994
 10
127.5001220702999
 20
-74.99996948242994
  0
LWPOLYLINE
  5
5403
330
53C6
100
AcDbEntity
  8
10
  6
CONTINUOUS
100
AcDbPolyline
 90
        2
 70
     0
 43
0.001
 10
147.0001220702999
 20
-58.99996948242995
 10
127.5001220702999
 20
-58.99996948242995
  0
LWPOLYLINE
  5
5404
330
53C6
100
AcDbEntity
  8
10
  6
CONTINUOUS
100
AcDbPolyline
 90
        2
 70
     0
 43
0.001
 10
164.3001708983999
 20
-70.99996948242995
 10
164.3001708983999
 20
-74.99996948242994
  0
LWPOLYLINE
  5
5405
330
53C6
100
AcDbEntity
  8
10
  6
CONTINUOUS
100
AcDbPolyline
 90
        2
 70
     0
 43
0.001
 10
164.3001708983999
 20
-62.99996948242995
 10
164.3001708983999
 20
-70.99996948242995
  0
LWPOLYLINE
  5
5406
330
53C6
100
AcDbEntity
  8
10
  6
CONTINUOUS
100
AcDbPolyline
 90
        2
 70
     0
 43
0.001
 10
171.4283245110998
 20
-70.99997084972994
 42
0.2679492641254716
 10
171.4283250196999
 20
-62.9999689960199
 42
0.2679492641254716
  0
LWPOLYLINE
  5
5407
330
53C6
100
AcDbEntity
  8
10
  6
CONTINUOUS
100
AcDbPolyline
 90
        2
 70
     0
 43
0.001
 10
171.4283447264999
 20
-70.99996948242995
 10
164.3001708983999
 20
-70.99996948242995
  0
LWPOLYLINE
  5
5408
330
53C6
100
AcDbEntity
  8
10
  6
CONTINUOUS
100
AcDbPolyline
 90
        2
 70
     0
 43
0.001
 10
171.4283447264999
 20
-62.99996948242995
 10
164.3001708983999
 20
-62.99996948242995
  0
LWPOLYLINE
  5
5409
330
53C6
100
AcDbEntity
  8
10
  6
CONTINUOUS
100
AcDbPolyline
 90
        2
 70
     0
 43
0.001
 10
164.3001708983999
 20
-58.99996948242995
 10
164.3001708983999
 20
-62.99996948242995
  0
LWPOLYLINE
  5
540A
330
53C6
100
AcDbEntity
  8
10
  6
CONTINUOUS
100
AcDbPolyline
 90
        2
 70
     0
 43
0.001
 10
60.0001220703
 20
67.00003051757005
 10
239.8000488280999
 20
67.00003051757005
  0
LWPOLYLINE
  5
540B
330
53C6
100
AcDbEntity
  8
10
  6
CONTINUOUS
100
AcDbPolyline
 90
        2
 70
     0
 43
0.001
 10
70.0001220703
 20
59.00003051757005
 10
70.0001220703
 20
50.0
  0
LWPOLYLINE
  5
540C
330
53C6
100
AcDbEntity
  8
10
  6
CONTINUOUS
100
AcDbPolyline
 90
        2
 70
     0
 43
0.001
 10
25.80004882809999
 20
77.50015258789011
 10
25.80004882809999
 20
50.0
  0
LWPOLYLINE
  5
540D
330
53C6
100
AcDbEntity
  8
10
  6
CONTINUOUS
100
AcDbPolyline
 90
        2
 70
     0
 43
0.001
 10
0.0
 20
96.00006103514999
 10
0.0
 20
25.00012207031005
  0
LWPOLYLINE
  5
540E
330
53C6
100
AcDbEntity
  8
10
  6
CONTINUOUS
100
AcDbPolyline
 90
        2
 70
     0
 43
0.001
 10
70.0001220703
 20
50.0
 10
25.80004882809999
 20
50.0
  0
LWPOLYLINE
  5
540F
330
53C6
100
AcDbEntity
  8
10
  6
CONTINUOUS
100
AcDbPolyline
 90
        2
 70
     0
 43
0.001
 10
70.0001220703
 20
-50.00003051757994
 10
25.80004882809999
 20
-50.00003051757994
  0
LWPOLYLINE
  5
5410
330
53C6
100
AcDbEntity
  8
10
  6
CONTINUOUS
100
AcDbPolyline
 90
        2
 70
     0
 43
0.001
 10
0.0
 20
25.00012207031005
 10
0.0
 20
-24.99999999999994
  0
LWPOLYLINE
  5
5411
330
53C6
100
AcDbEntity
  8
10
  6
CONTINUOUS
100
AcDbPolyline
 90
        2
 70
     0
 43
0.001
 10
-1.999877929700005
 20
6.505249023430053
 10
-1.999877929700005
 20
-24.99999999999994
  0
LWPOLYLINE
  5
5412
330
53C6
100
AcDbEntity
  8
10
  6
CONTINUOUS
100
AcDbPolyline
 90
        2
 70
     0
 43
0.001
 10
0.0
 20
-24.99999999999994
 10
-1.999877929700005
 20
-24.99999999999994
  0
LWPOLYLINE
  5
5413
330
53C6
100
AcDbEntity
  8
10
  6
CONTINUOUS
100
AcDbPolyline
 90
        2
 70
     0
 43
0.001
 10
-1.999877929700005
 20
14.87072753906005
 10
-1.999877929700005
 20
6.505249023430053
  0
LWPOLYLINE
  5
5414
330
53C6
100
AcDbEntity
  8
10
  6
CONTINUOUS
100
AcDbPolyline
 90
        2
 70
     0
 43
0.001
 10
-1.999877929700005
 20
6.505249023430053
 10
-16.0
 20
11.83114624023005
  0
LWPOLYLINE
  5
5415
330
53C6
100
AcDbEntity
  8
10
  6
CONTINUOUS
100
AcDbPolyline
 90
        2
 70
     0
 43
0.001
 10
-13.80603027350002
 20
17.59851074218005
 10
-16.0
 20
11.83114624023005
  0
LWPOLYLINE
  5
5416
330
53C6
100
AcDbEntity
  8
10
  6
CONTINUOUS
100
AcDbPolyline
 90
        2
 70
     0
 43
0.001
 10
-1.999877929700005
 20
14.87072753906005
 10
-13.80603027350002
 20
17.59851074218005
  0
LWPOLYLINE
  5
5417
330
53C6
100
AcDbEntity
  8
10
  6
CONTINUOUS
100
AcDbPolyline
 90
        2
 70
     0
 43
0.001
 10
-1.999877929700005
 20
25.00012207031005
 10
0.0
 20
25.00012207031005
  0
LWPOLYLINE
  5
5418
330
53C6
100
AcDbEntity
  8
10
  6
CONTINUOUS
100
AcDbPolyline
 90
        2
 70
     0
 43
0.001
 10
-1.999877929700005
 20
25.00012207031005
 10
-1.999877929700005
 20
14.87072753906005
  0
LWPOLYLINE
  5
5419
330
53C6
100
AcDbEntity
  8
10
  6
CONTINUOUS
100
AcDbPolyline
 90
        2
 70
     0
 43
0.001
 10
70.0001220703
 20
50.0
 10
70.0001220703
 20
-50.00003051757994
  0
LWPOLYLINE
  5
541A
330
53C6
100
AcDbEntity
  8
10
  6
CONTINUOUS
100
AcDbPolyline
 90
        2
 70
     0
 43
0.001
 10
72.70007324209996
 20
50.0
 10
72.70007324209996
 20
-50.00003051757994
  0
LWPOLYLINE
  5
541B
330
53C6
100
AcDbEntity
  8
10
  6
CONTINUOUS
100
AcDbPolyline
 90
        2
 70
     0
 43
0.001
 10
72.70007324209996
 20
-50.00003051757994
 10
70.0001220703
 20
-50.00003051757994
  0
LWPOLYLINE
  5
541C
330
53C6
100
AcDbEntity
  8
10
  6
CONTINUOUS
100
AcDbPolyline
 90
        2
 70
     0
 43
0.001
 10
72.70007324209996
 20
50.0
 10
70.0001220703
 20
50.0
  0
LWPOLYLINE
  5
541D
330
53C6
100
AcDbEntity
  8
10
  6
CONTINUOUS
100
AcDbPolyline
 90
        2
 70
     0
 43
0.001
 10
70.0001220703
 20
77.50015258789011
 10
19.0
 20
77.50015258789011
  0
LWPOLYLINE
  5
541E
330
53C6
100
AcDbEntity
  8
10
  6
D329
100
AcDbPolyline
 90
        2
 70
     0
 43
0.001
 10
15.0
 20
130.00006103515
 10
15.0
 20
96.00006103514999
  0
LWPOLYLINE
  5
541F
330
53C6
100
AcDbEntity
  8
10
  6
D329
100
AcDbPolyline
 90
        2
 70
     0
 43
0.001
 10
19.0
 20
130.00006103515
 10
19.0
 20
77.50015258789011
  0
LWPOLYLINE
  5
5420
330
53C6
100
AcDbEntity
  8
10
  6
CONTINUOUS
100
AcDbPolyline
 90
        2
 70
     0
 43
0.001
 10
0.0
 20
96.00006103514999
 10
15.0
 20
96.00006103514999
  0
LWPOLYLINE
  5
5421
330
53C6
100
AcDbEntity
  8
10
  6
D329
100
AcDbPolyline
 90
        2
 70
     0
 43
0.001
 10
19.0
 20
130.00006103515
 10
15.0
 20
130.00006103515
  0
LWPOLYLINE
  5
5422
330
53C6
100
AcDbEntity
  8
10
  6
D341
100
AcDbPolyline
 90
        2
 70
     0
 43
0.001
 10
102.0001220703
 20
55.76309204101005
 10
102.0001220703
 20
106.87979125976
  0
LWPOLYLINE
  5
5423
330
53C6
100
AcDbEntity
  8
10
  6
D341
100
AcDbPolyline
 90
        2
 70
     0
 43
0.001
 10
104.3001708983999
 20
55.76309204101005
 10
104.3001708983999
 20
106.87979125976
  0
LWPOLYLINE
  5
5424
330
53C6
100
AcDbEntity
  8
10
  6
CONTINUOUS
100
AcDbPolyline
 90
        2
 70
     0
 43
0.001
 10
70.0001220703
 20
75.00003051757005
 10
97.00012207029999
 20
75.00003051757005
  0
LWPOLYLINE
  5
5425
330
53C6
100
AcDbEntity
  8
10
  6
CONTINUOUS
100
AcDbPolyline
 90
        2
 70
     0
 43
0.001
 10
70.0001220703
 20
59.00003051757005
 10
97.00012207029999
 20
59.00003051757005
  0
LWPOLYLINE
  5
5426
330
53C6
100
AcDbEntity
  8
10
  6
CONTINUOUS
100
AcDbPolyline
 90
        2
 70
     0
 43
0.001
 10
70.0001220703
 20
75.00003051757005
 10
70.0001220703
 20
59.00003051757005
  0
LWPOLYLINE
  5
5427
330
53C6
100
AcDbEntity
  8
10
  6
CONTINUOUS
100
AcDbPolyline
 90
        2
 70
     0
 43
0.001
 10
70.0001220703
 20
77.50015258789011
 10
70.0001220703
 20
75.00003051757005
  0
LWPOLYLINE
  5
5428
330
53C6
100
AcDbEntity
  8
10
  6
CONTINUOUS
100
AcDbPolyline
 90
        2
 70
     0
 43
0.001
 10
113.8001708983999
 20
63.00003051757006
 10
113.8001708983999
 20
59.00003051757005
  0
LWPOLYLINE
  5
5429
330
53C6
100
AcDbEntity
  8
10
  6
CONTINUOUS
100
AcDbPolyline
 90
        2
 70
     0
 43
0.001
 10
113.8001708983999
 20
71.00003051757005
 10
113.8001708983999
 20
63.00003051757006
  0
LWPOLYLINE
  5
542A
330
53C6
100
AcDbEntity
  8
10
  6
CONTINUOUS
100
AcDbPolyline
 90
        2
 70
     0
 43
0.001
 10
97.00012207029999
 20
59.50003051757005
 10
97.00012207029999
 20
59.00003051757005
  0
LWPOLYLINE
  5
542B
330
53C6
100
AcDbEntity
  8
10
  6
CONTINUOUS
100
AcDbPolyline
 90
        2
 70
     0
 43
0.001
 10
97.00012207029999
 20
74.50003051757005
 10
97.00012207029999
 20
59.50003051757005
  0
LWPOLYLINE
  5
542C
330
53C6
100
AcDbEntity
  8
10
  6
CONTINUOUS
100
AcDbPolyline
 90
        2
 70
     0
 43
0.001
 10
121.4283245110998
 20
63.00002915027
 42
0.2679492641254716
 10
121.4283250196999
 20
71.00003100398004
 42
0.2679492641254716
  0
LWPOLYLINE
  5
542D
330
53C6
100
AcDbEntity
  8
10
  6
CONTINUOUS
100
AcDbPolyline
 90
        2
 70
     0
 43
0.001
 10
102.0001220703
 20
74.50003051757005
 10
102.0001220703
 20
59.50003051757005
  0
LWPOLYLINE
  5
542E
330
53C6
100
AcDbEntity
  8
10
  6
CONTINUOUS
100
AcDbPolyline
 90
        2
 70
     0
 43
0.001
 10
104.3001708983999
 20
63.00003051757006
 10
97.00012207029999
 20
63.00003051757006
  0
LWPOLYLINE
  5
542F
330
53C6
100
AcDbEntity
  8
10
  6
CONTINUOUS
100
AcDbPolyline
 90
        2
 70
     0
 43
0.001
 10
104.3001708983999
 20
71.00003051757005
 10
97.00012207029999
 20
71.00003051757005
  0
LWPOLYLINE
  5
5430
330
53C6
100
AcDbEntity
  8
10
  6
CONTINUOUS
100
AcDbPolyline
 90
        2
 70
     0
 43
0.001
 10
104.3001708983999
 20
63.24722290039011
 10
113.8001708983999
 20
63.24722290039011
  0
LWPOLYLINE
  5
5431
330
53C6
100
AcDbEntity
  8
10
  6
CONTINUOUS
100
AcDbPolyline
 90
        2
 70
     0
 43
0.001
 10
104.3001708983999
 20
70.75283813476005
 10
113.8001708983999
 20
70.75283813476005
  0
LWPOLYLINE
  5
5432
330
53C6
100
AcDbEntity
  8
10
  6
CONTINUOUS
100
AcDbPolyline
 90
        2
 70
     0
 43
0.001
 10
113.8001708983999
 20
75.00003051757005
 10
113.8001708983999
 20
71.00003051757005
  0
LWPOLYLINE
  5
5433
330
53C6
100
AcDbEntity
  8
10
  6
CONTINUOUS
100
AcDbPolyline
 90
        2
 70
     0
 43
0.001
 10
102.0001220703
 20
74.50003051757005
 10
97.00012207029999
 20
74.50003051757005
  0
LWPOLYLINE
  5
5434
330
53C6
100
AcDbEntity
  8
10
  6
CONTINUOUS
100
AcDbPolyline
 90
        2
 70
     0
 43
0.001
 10
97.00012207029999
 20
75.00003051757005
 10
97.00012207029999
 20
74.50003051757005
  0
LWPOLYLINE
  5
5435
330
53C6
100
AcDbEntity
  8
10
  6
CONTINUOUS
100
AcDbPolyline
 90
        2
 70
     0
 43
0.001
 10
102.0001220703
 20
59.50003051757005
 10
97.00012207029999
 20
59.50003051757005
  0
LWPOLYLINE
  5
5436
330
53C6
100
AcDbEntity
  8
10
  6
CONTINUOUS
100
AcDbPolyline
 90
        2
 70
     0
 43
0.001
 10
121.4283447264999
 20
71.00003051757005
 10
113.8001708983999
 20
71.00003051757005
  0
LWPOLYLINE
  5
5437
330
53C6
100
AcDbEntity
  8
10
  6
CONTINUOUS
100
AcDbPolyline
 90
        2
 70
     0
 43
0.001
 10
121.4283447264999
 20
63.00003051757006
 10
113.8001708983999
 20
63.00003051757006
  0
LWPOLYLINE
  5
5438
330
53C6
100
AcDbEntity
  8
10
  6
CONTINUOUS
100
AcDbPolyline
 90
        2
 70
     0
 43
0.001
 10
113.8001708983999
 20
59.00003051757005
 10
104.3001708983999
 20
59.00003051757005
  0
LWPOLYLINE
  5
5439
330
53C6
100
AcDbEntity
  8
10
  6
CONTINUOUS
100
AcDbPolyline
 90
        2
 70
     0
 43
0.001
 10
104.3001708983999
 20
75.00003051757005
 10
113.8001708983999
 20
75.00003051757005
  0
LWPOLYLINE
  5
543A
330
53C6
100
AcDbEntity
  8
10
  6
CONTINUOUS
100
AcDbPolyline
 90
        2
 70
     0
 43
0.001
 10
102.0001220703
 20
55.76309204101005
 10
104.3001708983999
 20
55.76309204101005
  0
LWPOLYLINE
  5
543B
330
53C6
100
AcDbEntity
  8
10
  6
D341
100
AcDbPolyline
 90
        2
 70
     0
 43
0.001
 10
154.3001708983999
 20
55.76309204101005
 10
154.3001708983999
 20
106.87979125976
  0
LWPOLYLINE
  5
543C
330
53C6
100
AcDbEntity
  8
10
  6
D341
100
AcDbPolyline
 90
        2
 70
     0
 43
0.001
 10
152.0001220703
 20
55.76309204101005
 10
152.0001220703
 20
106.87979125976
  0
LWPOLYLINE
  5
543D
330
53C6
100
AcDbEntity
  8
10
  6
CONTINUOUS
100
AcDbPolyline
 90
        2
 70
     0
 43
0.001
 10
164.3001708983999
 20
59.00003051757005
 10
154.3001708983999
 20
59.00003051757005
  0
LWPOLYLINE
  5
543E
330
53C6
100
AcDbEntity
  8
10
  6
CONTINUOUS
100
AcDbPolyline
 90
        2
 70
     0
 43
0.001
 10
164.3001708983999
 20
75.00003051757005
 10
154.3001708983999
 20
75.00003051757005
  0
LWPOLYLINE
  5
543F
330
53C6
100
AcDbEntity
  8
10
  6
CONTINUOUS
100
AcDbPolyline
 90
        2
 70
     0
 43
0.001
 10
154.3001708983999
 20
70.75283813476005
 10
164.3001708983999
 20
70.75283813476005
  0
LWPOLYLINE
  5
5440
330
53C6
100
AcDbEntity
  8
10
  6
CONTINUOUS
100
AcDbPolyline
 90
        2
 70
     0
 43
0.001
 10
154.3001708983999
 20
63.24722290039011
 10
164.3001708983999
 20
63.24722290039011
  0
LWPOLYLINE
  5
5441
330
53C6
100
AcDbEntity
  8
10
  6
CONTINUOUS
100
AcDbPolyline
 90
        2
 70
     0
 43
0.001
 10
147.0001220702999
 20
59.50003051757005
 10
147.0001220702999
 20
59.00003051757005
  0
LWPOLYLINE
  5
5442
330
53C6
100
AcDbEntity
  8
10
  6
CONTINUOUS
100
AcDbPolyline
 90
        2
 70
     0
 43
0.001
 10
147.0001220702999
 20
74.50003051757005
 10
147.0001220702999
 20
59.50003051757005
  0
LWPOLYLINE
  5
5443
330
53C6
100
AcDbEntity
  8
10
  6
CONTINUOUS
100
AcDbPolyline
 90
        2
 70
     0
 43
0.001
 10
154.3001708983999
 20
63.00003051757006
 10
147.0001220702999
 20
63.00003051757006
  0
LWPOLYLINE
  5
5444
330
53C6
100
AcDbEntity
  8
10
  6
CONTINUOUS
100
AcDbPolyline
 90
        2
 70
     0
 43
0.001
 10
154.3001708983999
 20
71.00003051757005
 10
147.0001220702999
 20
71.00003051757005
  0
LWPOLYLINE
  5
5445
330
53C6
100
AcDbEntity
  8
10
  6
CONTINUOUS
100
AcDbPolyline
 90
        2
 70
     0
 43
0.001
 10
147.0001220702999
 20
74.50003051757005
 10
152.0001220703
 20
74.50003051757005
  0
LWPOLYLINE
  5
5446
330
53C6
100
AcDbEntity
  8
10
  6
CONTINUOUS
100
AcDbPolyline
 90
        2
 70
     0
 43
0.001
 10
152.0001220703
 20
74.50003051757005
 10
152.0001220703
 20
59.50003051757005
  0
LWPOLYLINE
  5
5447
330
53C6
100
AcDbEntity
  8
10
  6
CONTINUOUS
100
AcDbPolyline
 90
        2
 70
     0
 43
0.001
 10
147.0001220702999
 20
59.50003051757005
 10
152.0001220703
 20
59.50003051757005
  0
LWPOLYLINE
  5
5448
330
53C6
100
AcDbEntity
  8
10
  6
CONTINUOUS
100
AcDbPolyline
 90
        2
 70
     0
 43
0.001
 10
147.0001220702999
 20
75.00003051757005
 10
147.0001220702999
 20
74.50003051757005
  0
LWPOLYLINE
  5
5449
330
53C6
100
AcDbEntity
  8
10
  6
CONTINUOUS
100
AcDbPolyline
 90
        2
 70
     0
 43
0.001
 10
147.0001220702999
 20
59.00003051757005
 10
127.5001220702999
 20
59.00003051757005
  0
LWPOLYLINE
  5
544A
330
53C6
100
AcDbEntity
  8
10
  6
CONTINUOUS
100
AcDbPolyline
 90
        2
 70
     0
 43
0.001
 10
147.0001220702999
 20
75.00003051757005
 10
127.5001220702999
 20
75.00003051757005
  0
LWPOLYLINE
  5
544B
330
53C6
100
AcDbEntity
  8
10
  6
CONTINUOUS
100
AcDbPolyline
 90
        2
 70
     0
 43
0.001
 10
152.0001220703
 20
55.76309204101005
 10
154.3001708983999
 20
55.76309204101005
  0
LWPOLYLINE
  5
544C
330
53C6
100
AcDbEntity
  8
10
  6
CONTINUOUS
100
AcDbPolyline
 90
        2
 70
     0
 43
0.001
 10
164.3001708983999
 20
63.00003051757006
 10
164.3001708983999
 20
59.00003051757005
  0
LWPOLYLINE
  5
544D
330
53C6
100
AcDbEntity
  8
10
  6
CONTINUOUS
100
AcDbPolyline
 90
        2
 70
     0
 43
0.001
 10
164.3001708983999
 20
71.00003051757005
 10
164.3001708983999
 20
63.00003051757006
  0
LWPOLYLINE
  5
544E
330
53C6
100
AcDbEntity
  8
10
  6
CONTINUOUS
100
AcDbPolyline
 90
        2
 70
     0
 43
0.001
 10
171.4283245110998
 20
63.00002915027
 42
0.2679492641254716
 10
171.4283250196999
 20
71.00003100398004
 42
0.2679492641254716
  0
LWPOLYLINE
  5
544F
330
53C6
100
AcDbEntity
  8
10
  6
CONTINUOUS
100
AcDbPolyline
 90
        2
 70
     0
 43
0.001
 10
171.4283447264999
 20
63.00003051757006
 10
164.3001708983999
 20
63.00003051757006
  0
LWPOLYLINE
  5
5450
330
53C6
100
AcDbEntity
  8
10
  6
CONTINUOUS
100
AcDbPolyline
 90
        2
 70
     0
 43
0.001
 10
171.4283447264999
 20
71.00003051757005
 10
164.3001708983999
 20
71.00003051757005
  0
LWPOLYLINE
  5
5451
330
53C6
100
AcDbEntity
  8
10
  6
CONTINUOUS
100
AcDbPolyline
 90
        2
 70
     0
 43
0.001
 10
164.3001708983999
 20
75.00003051757005
 10
164.3001708983999
 20
71.00003051757005
  0
ENDBLK
  5
5453
330
53C6
100
AcDbEntity
  8
0
100
AcDbBlockEnd
  0
BLOCK
  5
572E
330
572B
100
AcDbEntity
  8
L210_
  6
CONTINUOUS
 62
     4
100
AcDbBlockBegin
  2
B2383
 70
     0
 10
0.0
 20
0.0
 30
0.0
  3
B2383
  1

  0
TEXT
  5
572C
330
572B
100
AcDbEntity
  8
L210_
  6
CONTINUOUS
 62
     4
100
AcDbText
 10
1634.50866699219
 20
455.024810791016
 30
0.0
 40
12.0
  1
n
 41
1.5390625
  7
SYMBOL3
 72
     5
 11
1646.50866699219
 21
455.024810791016
 31
0.0
100
AcDbText
 73
     2
  0
TEXT
  5
572D
330
572B
100
AcDbEntity
  8
L210_
  6
CONTINUOUS
 62
     4
100
AcDbText
 10
1652.50866699219
 20
455.024810791016
 30
0.0
 40
12.0
  1
9
 41
1.050000000000011
 72
     5
 11
1660.90866699219
 21
455.024810791016
 31
0.0
100
AcDbText
 73
     2
  0
ENDBLK
  5
572F
330
572B
100
AcDbEntity
  8
L210_
  6
CONTINUOUS
 62
     4
100
AcDbBlockEnd
  0
BLOCK
  5
5736
330
5730
100
AcDbEntity
  8
0
100
AcDbBlockBegin
  2
*D10
 70
     1
 10
0.0
 20
0.0
 30
0.0
  3
*D10
  1

  0
LINE
  5
5731
330
5730
100
AcDbEntity
  8
0
  6
BYBLOCK
 62
     4
100
AcDbLine
 10
1588.251651067949
 20
494.6908712885527
 30
0.0
 11
1628.550785128842
 21
449.4601341890538
 31
0.0
  0
LINE
  5
5732
330
5730
100
AcDbEntity
  8
0
  6
BYBLOCK
 62
     4
100
AcDbLine
 10
1628.550785128842
 20
449.4601341890538
 30
0.0
 11
1628.640785128842
 21
449.4601341890538
 31
0.0
  0
SOLID
  5
5733
330
5730
100
AcDbEntity
  8
0
  6
BYBLOCK
 62
     4
100
AcDbTrace
 10
1586.385055966953
 20
493.0277950037911
 30
0.0
 11
1590.118246168946
 21
496.3539475733141
 31
0.0
 12
1578.27319335938
 22
505.890441894531
 32
0.0
 13
1578.27319335938
 23
505.890441894531
 33
0.0
  0
POINT
  5
5734
330
5730
100
AcDbEntity
  8
DEFPOINTS
  6
BYBLOCK
 62
     0
100
AcDbPoint
 10
1578.27319335938
 20
505.890441894531
 30
0.0
  0
POINT
  5
5735
330
5730
100
AcDbEntity
  8
DEFPOINTS
  6
BYBLOCK
 62
     0
100
AcDbPoint
 10
1572.286132812499
 20
512.6101684570311
 30
0.0
  0
ENDBLK
  5
5737
330
5730
100
AcDbEntity
  8
0
100
AcDbBlockEnd
  0
BLOCK
  5
573B
330
5738
100
AcDbEntity
  8
L210_
100
AcDbBlockBegin
  2
B2387
 70
     0
 10
0.0
 20
0.0
 30
0.0
  3
B2387
  1

  0
DIMENSION
  5
5739
330
5738
100
AcDbEntity
  8
L210_
100
AcDbDimension
  2
*D10
 10
1572.286132812499
 20
512.610168457031
 30
0.0
 11
1389.58799470825
 21
376.195648193359
 31
0.0
 70
     3
  1
 
100
AcDbDiametricDimension
 15
1578.27319335938
 25
505.890441894531
 35
0.0
 40
75.57920257499124
  0
INSERT
  5
573A
330
5738
100
AcDbEntity
  8
L210_
  6
CONTINUOUS
 62
     4
100
AcDbBlockReference
  2
B2383
 10
0.0
 20
0.0
 30
0.0
  0
ENDBLK
  5
573C
330
5738
100
AcDbEntity
  8
L210_
100
AcDbBlockEnd
  0
BLOCK
  5
5F74
330
5F6A
100
AcDbEntity
  8
0
100
AcDbBlockBegin
  2
*D12
 70
     1
 10
0.0
 20
0.0
 30
0.0
  3
*D12
  1

  0
LINE
  5
5F6B
330
5F6A
100
AcDbEntity
  8
30
  6
CONTINUOUS
 62
     0
100
AcDbLine
 10
0.1181906098743895
 20
311.8005361318753
 30
0.0
 11
0.1181906098743913
 21
340.6194088241316
 31
0.0
  0
LINE
  5
5F6C
330
5F6A
100
AcDbEntity
  8
30
  6
CONTINUOUS
 62
     0
100
AcDbLine
 10
35.11819060987439
 20
276.8005361318753
 30
0.0
 11
35.1181906098744
 21
340.6194088241316
 31
0.0
  0
LINE
  5
5F6D
330
5F6A
100
AcDbEntity
  8
30
  6
CONTINUOUS
 62
     0
100
AcDbLine
 10
2.118190609874391
 20
340.1194088241315
 30
0.0
 11
33.11819060987439
 21
340.1194088241315
 31
0.0
  0
INSERT
  5
5F6E
330
5F6A
100
AcDbEntity
  8
30
  6
CONTINUOUS
 62
     0
100
AcDbBlockReference
  2
_OPEN
 10
0.1181906098743912
 20
340.1194088241315
 30
0.0
 41
2.0
 42
2.0
 43
2.0
 50
180.0
  0
INSERT
  5
5F6F
330
5F6A
100
AcDbEntity
  8
30
  6
CONTINUOUS
 62
     0
100
AcDbBlockReference
  2
_OPEN
 10
35.1181906098744
 20
340.1194088241315
 30
0.0
 41
2.0
 42
2.0
 43
2.0
  0
MTEXT
  5
5F70
330
5F6A
100
AcDbEntity
  8
30
  6
CONTINUOUS
 62
     0
100
AcDbMText
 10
17.61819060987439
 20
343.1194088241316
 30
0.0
 40
4.0
 41
0.0
 71
     5
 72
     1
  1
\A1;35
1001
ACAD
1000
MTEXTBEGIN
1070
    73
1070
     1
1070
    44
1040
1.0
1070
    74
1070
     0
1000
MTEXTEND
  0
POINT
  5
5F71
330
5F6A
100
AcDbEntity
  8
DEFPOINTS
  6
CONTINUOUS
 62
     0
100
AcDbPoint
 10
0.1181906098743894
 20
310.8005361318753
 30
0.0
  0
POINT
  5
5F72
330
5F6A
100
AcDbEntity
  8
DEFPOINTS
  6
CONTINUOUS
 62
     0
100
AcDbPoint
 10
35.11819060987439
 20
275.8005361318753
 30
0.0
  0
POINT
  5
5F73
330
5F6A
100
AcDbEntity
  8
DEFPOINTS
  6
CONTINUOUS
 62
     0
100
AcDbPoint
 10
35.1181906098744
 20
340.1194088241315
 30
0.0
  0
ENDBLK
  5
5F75
330
5F6A
100
AcDbEntity
  8
0
100
AcDbBlockEnd
  0
BLOCK
  5
5F7A
330
5F76
100
AcDbEntity
  8
0
100
AcDbBlockBegin
  2
A$C59C36ED1
 70
     0
 10
0.0
 20
0.0
 30
0.0
  3
A$C59C36ED1
  1

  0
DIMENSION
  5
5F77
330
5F76
100
AcDbEntity
  8
30
  6
CONTINUOUS
100
AcDbDimension
  2
*D12
 10
0.0000000000000071
 20
64.31887269225626
 30
0.0
 11
-17.49999999999999
 21
67.31887269225627
 31
0.0
 12
-35.11819060987439
 22
-275.8005361318753
 32
0.0
  3
STANDARD
100
AcDbAlignedDimension
 13
-35.0
 23
35.0
 33
0.0
 14
0.0
 24
0.0
 34
0.0
100
AcDbRotatedDimension
1001
ACAD
1000
DSTYLE
1002
{
1070
   287
1070
     4
1070
   287
1070
     4
1070
   279
1070
     1
1002
}
  0
LINE
  5
5F78
330
5F76
100
AcDbEntity
  8
17
  6
CONTINOUS
100
AcDbLine
 10
8.0
 20
0.0
 30
0.0
 11
-8.0
 21
0.0
 31
0.0
  0
LINE
  5
5F79
330
5F76
100
AcDbEntity
  8
17
  6
CONTINOUS
100
AcDbLine
 10
0.0
 20
-8.0
 30
0.0
 11
0.0
 21
8.0
 31
0.0
  0
ENDBLK
  5
5F7B
330
5F76
100
AcDbEntity
  8
0
100
AcDbBlockEnd
  0
BLOCK
  5
6968
330
695D
100
AcDbEntity
  8
0
100
AcDbBlockBegin
  2
*D14
 70
     1
 10
0.0
 20
0.0
 30
0.0
  3
*D14
  1

  0
LINE
  5
7279
330
695D
100
AcDbEntity
  8
L210_
 62
     0
100
AcDbLine
 10
466.5581429856449
 20
-115.0
 30
0.0
 11
425.5790974850667
 21
-115.0
 31
0.0
  0
LINE
  5
727A
330
695D
100
AcDbEntity
  8
L210_
 62
     0
100
AcDbLine
 10
466.5581429856449
 20
-128.0
 30
0.0
 11
425.5790974850667
 21
-128.0
 31
0.0
  0
LINE
  5
727B
330
695D
100
AcDbEntity
  8
L210_
 62
     0
100
AcDbLine
 10
426.0790974850666
 20
-113.0
 30
0.0
 11
426.0790974850666
 21
-111.0
 31
0.0
  0
LINE
  5
727C
330
695D
100
AcDbEntity
  8
L210_
 62
     0
100
AcDbLine
 10
426.0790974850666
 20
-129.9999999999999
 30
0.0
 11
426.0790974850666
 21
-131.9999999999999
 31
0.0
  0
MTEXT
  5
727D
330
695D
100
AcDbEntity
  8
L210_
 62
     0
100
AcDbMText
 10
426.0790974850666
 20
-120.9399318439614
 30
0.0
 40
5.0
 41
0.0
 71
     5
 72
     1
  1
\A1;13
 11
0.0000000000000001
 21
1.0
 31
0.0
  0
INSERT
  5
727E
330
695D
100
AcDbEntity
  8
L210_
 62
     0
100
AcDbBlockReference
  2
_OPEN
 10
426.0790974850666
 20
-115.0
 30
0.0
 41
2.0
 42
2.0
 43
2.0
 50
270.0
  0
INSERT
  5
727F
330
695D
100
AcDbEntity
  8
L210_
 62
     0
100
AcDbBlockReference
  2
_OPEN
 10
426.0790974850666
 20
-128.0
 30
0.0
 41
2.0
 42
2.0
 43
2.0
 50
90.0
  0
POINT
  5
7280
330
695D
100
AcDbEntity
  8
DEFPOINTS
 62
     0
100
AcDbPoint
 10
467.5581429856449
 20
-115.0
 30
0.0
  0
POINT
  5
7281
330
695D
100
AcDbEntity
  8
DEFPOINTS
 62
     0
100
AcDbPoint
 10
467.5581429856449
 20
-128.0
 30
0.0
  0
POINT
  5
7282
330
695D
100
AcDbEntity
  8
DEFPOINTS
 62
     0
100
AcDbPoint
 10
426.0790974850666
 20
-128.0
 30
0.0
  0
ENDBLK
  5
6969
330
695D
100
AcDbEntity
  8
0
100
AcDbBlockEnd
  0
BLOCK
  5
6A27
330
6A1D
100
AcDbEntity
  8
0
100
AcDbBlockBegin
  2
*D15
 70
     1
 10
0.0
 20
0.0
 30
0.0
  3
*D15
  1

  0
LINE
  5
7086
330
6A1D
100
AcDbEntity
  8
30
  6
CONTINUOUS
 62
     0
100
AcDbLine
 10
251.6517830778324
 20
-9.550542215863817
 30
0.0
 11
251.6517830778324
 21
-228.5
 31
0.0
  0
LINE
  5
7087
330
6A1D
100
AcDbEntity
  8
30
  6
CONTINUOUS
 62
     0
100
AcDbLine
 10
308.6517709153449
 20
-202.4763336181699
 30
0.0
 11
308.6517709153449
 21
-228.5
 31
0.0
  0
LINE
  5
7088
330
6A1D
100
AcDbEntity
  8
30
  6
CONTINUOUS
 62
     0
100
AcDbLine
 10
253.6517830778324
 20
-228.0
 30
0.0
 11
306.6517709153449
 21
-228.0
 31
0.0
  0
INSERT
  5
7089
330
6A1D
100
AcDbEntity
  8
30
  6
CONTINUOUS
 62
     0
100
AcDbBlockReference
  2
_OPEN
 10
251.6517830778324
 20
-228.0
 30
0.0
 41
2.0
 42
2.0
 43
2.0
 50
180.0
  0
INSERT
  5
708A
330
6A1D
100
AcDbEntity
  8
30
  6
CONTINUOUS
 62
     0
100
AcDbBlockReference
  2
_OPEN
 10
308.6517709153449
 20
-228.0
 30
0.0
 41
2.0
 42
2.0
 43
2.0
  0
MTEXT
  5
708B
330
6A1D
100
AcDbEntity
  8
30
  6
CONTINUOUS
 62
     0
100
AcDbMText
 10
280.1517769965887
 20
-224.5
 30
0.0
 40
5.0
 41
0.0
 71
     5
 72
     1
  1
\A1;57
1001
ACAD
1000
MTEXTBEGIN
1070
    73
1070
     1
1070
    44
1040
1.0
1070
    74
1070
     0
1000
MTEXTEND
  0
POINT
  5
708C
330
6A1D
100
AcDbEntity
  8
DEFPOINTS
  6
CONTINUOUS
 62
     0
100
AcDbPoint
 10
251.6517830778324
 20
-8.550542215863817
 30
0.0
  0
POINT
  5
708D
330
6A1D
100
AcDbEntity
  8
DEFPOINTS
  6
CONTINUOUS
 62
     0
100
AcDbPoint
 10
308.6517709153449
 20
-201.47633361817
 30
0.0
  0
POINT
  5
708E
330
6A1D
100
AcDbEntity
  8
DEFPOINTS
  6
CONTINUOUS
 62
     0
100
AcDbPoint
 10
308.6517709153449
 20
-228.0
 30
0.0
  0
ENDBLK
  5
6A28
330
6A1D
100
AcDbEntity
  8
0
100
AcDbBlockEnd
  0
BLOCK
  5
6A34
330
6A2A
100
AcDbEntity
  8
0
100
AcDbBlockBegin
  2
*D16
 70
     1
 10
0.0
 20
0.0
 30
0.0
  3
*D16
  1

  0
LINE
  5
7283
330
6A2A
100
AcDbEntity
  8
30
  6
CONTINUOUS
 62
     0
100
AcDbLine
 10
308.6517709153449
 20
-202.4763336181699
 30
0.0
 11
308.6517709153449
 21
-228.5
 31
0.0
  0
LINE
  5
7284
330
6A2A
100
AcDbEntity
  8
30
  6
CONTINUOUS
 62
     0
100
AcDbLine
 10
518.651770915345
 20
-143.5
 30
0.0
 11
518.651770915345
 21
-228.5
 31
0.0
  0
LINE
  5
7285
330
6A2A
100
AcDbEntity
  8
30
  6
CONTINUOUS
 62
     0
100
AcDbLine
 10
310.6517709153449
 20
-228.0
 30
0.0
 11
516.6517709153449
 21
-228.0
 31
0.0
  0
INSERT
  5
7286
330
6A2A
100
AcDbEntity
  8
30
  6
CONTINUOUS
 62
     0
100
AcDbBlockReference
  2
_OPEN
 10
308.6517709153449
 20
-228.0
 30
0.0
 41
2.0
 42
2.0
 43
2.0
 50
180.0
  0
INSERT
  5
7287
330
6A2A
100
AcDbEntity
  8
30
  6
CONTINUOUS
 62
     0
100
AcDbBlockReference
  2
_OPEN
 10
518.651770915345
 20
-228.0
 30
0.0
 41
2.0
 42
2.0
 43
2.0
  0
MTEXT
  5
7288
330
6A2A
100
AcDbEntity
  8
30
  6
CONTINUOUS
 62
     0
100
AcDbMText
 10
413.651770915345
 20
-224.5
 30
0.0
 40
5.0
 41
0.0
 71
     5
 72
     1
  1
\A1;210
  0
POINT
  5
7289
330
6A2A
100
AcDbEntity
  8
DEFPOINTS
  6
CONTINUOUS
 62
     0
100
AcDbPoint
 10
308.6517709153449
 20
-201.47633361817
 30
0.0
  0
POINT
  5
728A
330
6A2A
100
AcDbEntity
  8
DEFPOINTS
  6
CONTINUOUS
 62
     0
100
AcDbPoint
 10
518.651770915345
 20
-142.5
 30
0.0
  0
POINT
  5
728B
330
6A2A
100
AcDbEntity
  8
DEFPOINTS
  6
CONTINUOUS
 62
     0
100
AcDbPoint
 10
518.651770915345
 20
-228.0
 30
0.0
  0
ENDBLK
  5
6A35
330
6A2A
100
AcDbEntity
  8
0
100
AcDbBlockEnd
  0
BLOCK
  5
6A41
330
6A37
100
AcDbEntity
  8
0
100
AcDbBlockBegin
  2
*D17
 70
     1
 10
0.0
 20
0.0
 30
0.0
  3
*D17
  1

  0
LINE
  5
7098
330
6A37
100
AcDbEntity
  8
30
  6
CONTINUOUS
 62
     0
100
AcDbLine
 10
290.6517709153449
 20
-172.55053710938
 30
0.0
 11
290.6517709153449
 21
-213.5
 31
0.0
  0
LINE
  5
7099
330
6A37
100
AcDbEntity
  8
30
  6
CONTINUOUS
 62
     0
100
AcDbLine
 10
308.6517709153449
 20
-203.47633361817
 30
0.0
 11
308.6517709153449
 21
-213.5
 31
0.0
  0
LINE
  5
709A
330
6A37
100
AcDbEntity
  8
30
  6
CONTINUOUS
 62
     0
100
AcDbLine
 10
292.6517709153449
 20
-213.0
 30
0.0
 11
306.6517709153449
 21
-213.0
 31
0.0
  0
INSERT
  5
709B
330
6A37
100
AcDbEntity
  8
30
  6
CONTINUOUS
 62
     0
100
AcDbBlockReference
  2
_OPEN
 10
290.6517709153449
 20
-213.0
 30
0.0
 41
2.0
 42
2.0
 43
2.0
 50
180.0
  0
INSERT
  5
709C
330
6A37
100
AcDbEntity
  8
30
  6
CONTINUOUS
 62
     0
100
AcDbBlockReference
  2
_OPEN
 10
308.6517709153449
 20
-213.0
 30
0.0
 41
2.0
 42
2.0
 43
2.0
  0
MTEXT
  5
709D
330
6A37
100
AcDbEntity
  8
30
  6
CONTINUOUS
 62
     0
100
AcDbMText
 10
299.6517709153449
 20
-209.5
 30
0.0
 40
5.0
 41
0.0
 71
     5
 72
     1
  1
\A1;18
1001
ACAD
1000
MTEXTBEGIN
1070
    73
1070
     1
1070
    44
1040
1.0
1070
    74
1070
     0
1000
MTEXTEND
  0
POINT
  5
709E
330
6A37
100
AcDbEntity
  8
DEFPOINTS
  6
CONTINUOUS
 62
     0
100
AcDbPoint
 10
290.6517709153449
 20
-171.5505371093799
 30
0.0
  0
POINT
  5
709F
330
6A37
100
AcDbEntity
  8
DEFPOINTS
  6
CONTINUOUS
 62
     0
100
AcDbPoint
 10
308.6517709153449
 20
-202.4763336181699
 30
0.0
  0
POINT
  5
70A0
330
6A37
100
AcDbEntity
  8
DEFPOINTS
  6
CONTINUOUS
 62
     0
100
AcDbPoint
 10
308.6517709153449
 20
-213.0
 30
0.0
  0
ENDBLK
  5
6A42
330
6A37
100
AcDbEntity
  8
0
100
AcDbBlockEnd
  0
BLOCK
  5
6A4E
330
6A44
100
AcDbEntity
  8
0
100
AcDbBlockBegin
  2
*D18
 70
     1
 10
0.0
 20
0.0
 30
0.0
  3
*D18
  1

  0
LINE
  5
70AA
330
6A44
100
AcDbEntity
  8
30
  6
CONTINUOUS
 62
     0
100
AcDbLine
 10
458.6517709153449
 20
-130.6972656249999
 30
0.0
 11
458.6517709153449
 21
-213.5
 31
0.0
  0
LINE
  5
70AB
330
6A44
100
AcDbEntity
  8
30
  6
CONTINUOUS
 62
     0
100
AcDbLine
 10
466.6517709153449
 20
-130.6972656249999
 30
0.0
 11
466.6517709153449
 21
-213.5
 31
0.0
  0
LINE
  5
70AC
330
6A44
100
AcDbEntity
  8
30
  6
CONTINUOUS
 62
     0
100
AcDbLine
 10
460.6517709153449
 20
-213.0
 30
0.0
 11
464.6517709153449
 21
-213.0
 31
0.0
  0
INSERT
  5
70AD
330
6A44
100
AcDbEntity
  8
30
  6
CONTINUOUS
 62
     0
100
AcDbBlockReference
  2
_OPEN
 10
458.6517709153449
 20
-213.0
 30
0.0
 41
2.0
 42
2.0
 43
2.0
 50
180.0
  0
INSERT
  5
70AE
330
6A44
100
AcDbEntity
  8
30
  6
CONTINUOUS
 62
     0
100
AcDbBlockReference
  2
_OPEN
 10
466.6517709153449
 20
-213.0
 30
0.0
 41
2.0
 42
2.0
 43
2.0
  0
MTEXT
  5
70AF
330
6A44
100
AcDbEntity
  8
30
  6
CONTINUOUS
 62
     0
100
AcDbMText
 10
462.6517709153449
 20
-209.5
 30
0.0
 40
5.0
 41
0.0
 71
     5
 72
     1
  1
\A1;8
1001
ACAD
1000
MTEXTBEGIN
1070
    73
1070
     1
1070
    44
1040
1.0
1070
    74
1070
     0
1000
MTEXTEND
  0
POINT
  5
70B0
330
6A44
100
AcDbEntity
  8
DEFPOINTS
  6
CONTINUOUS
 62
     0
100
AcDbPoint
 10
458.6517709153449
 20
-129.697265625
 30
0.0
  0
POINT
  5
70B1
330
6A44
100
AcDbEntity
  8
DEFPOINTS
  6
CONTINUOUS
 62
     0
100
AcDbPoint
 10
466.6517709153449
 20
-129.697265625
 30
0.0
  0
POINT
  5
70B2
330
6A44
100
AcDbEntity
  8
DEFPOINTS
  6
CONTINUOUS
 62
     0
100
AcDbPoint
 10
466.6517709153449
 20
-213.0
 30
0.0
  0
ENDBLK
  5
6A4F
330
6A44
100
AcDbEntity
  8
0
100
AcDbBlockEnd
  0
BLOCK
  5
6A5B
330
6A51
100
AcDbEntity
  8
0
100
AcDbBlockBegin
  2
*D19
 70
     1
 10
0.0
 20
0.0
 30
0.0
  3
*D19
  1

  0
LINE
  5
728C
330
6A51
100
AcDbEntity
  8
30
  6
CONTINUOUS
 62
     0
100
AcDbLine
 10
466.6517709153449
 20
-130.6972656249999
 30
0.0
 11
466.6517709153449
 21
-213.5
 31
0.0
  0
LINE
  5
728D
330
6A51
100
AcDbEntity
  8
30
  6
CONTINUOUS
 62
     0
100
AcDbLine
 10
498.6517709153449
 20
-130.6972656249999
 30
0.0
 11
498.6517709153449
 21
-213.5
 31
0.0
  0
LINE
  5
728E
330
6A51
100
AcDbEntity
  8
30
  6
CONTINUOUS
 62
     0
100
AcDbLine
 10
468.651770915345
 20
-213.0
 30
0.0
 11
496.6517709153449
 21
-213.0
 31
0.0
  0
INSERT
  5
728F
330
6A51
100
AcDbEntity
  8
30
  6
CONTINUOUS
 62
     0
100
AcDbBlockReference
  2
_OPEN
 10
466.6517709153449
 20
-213.0
 30
0.0
 41
2.0
 42
2.0
 43
2.0
 50
180.0
  0
INSERT
  5
7290
330
6A51
100
AcDbEntity
  8
30
  6
CONTINUOUS
 62
     0
100
AcDbBlockReference
  2
_OPEN
 10
498.6517709153449
 20
-213.0
 30
0.0
 41
2.0
 42
2.0
 43
2.0
  0
MTEXT
  5
7291
330
6A51
100
AcDbEntity
  8
30
  6
CONTINUOUS
 62
     0
100
AcDbMText
 10
482.6517709153449
 20
-209.5
 30
0.0
 40
5.0
 41
0.0
 71
     5
 72
     1
  1
\A1;32
  0
POINT
  5
7292
330
6A51
100
AcDbEntity
  8
DEFPOINTS
  6
CONTINUOUS
 62
     0
100
AcDbPoint
 10
466.6517709153449
 20
-129.697265625
 30
0.0
  0
POINT
  5
7293
330
6A51
100
AcDbEntity
  8
DEFPOINTS
  6
CONTINUOUS
 62
     0
100
AcDbPoint
 10
498.6517709153449
 20
-129.697265625
 30
0.0
  0
POINT
  5
7294
330
6A51
100
AcDbEntity
  8
DEFPOINTS
  6
CONTINUOUS
 62
     0
100
AcDbPoint
 10
498.6517709153449
 20
-213.0
 30
0.0
  0
ENDBLK
  5
6A5C
330
6A51
100
AcDbEntity
  8
0
100
AcDbBlockEnd
  0
BLOCK
  5
6A68
330
6A5E
100
AcDbEntity
  8
0
100
AcDbBlockBegin
  2
*D20
 70
     1
 10
0.0
 20
0.0
 30
0.0
  3
*D20
  1

  0
LINE
  5
7295
330
6A5E
100
AcDbEntity
  8
30
  6
CONTINUOUS
 62
     0
100
AcDbLine
 10
498.6517709153449
 20
-130.6972656249999
 30
0.0
 11
498.6517709153449
 21
-213.5
 31
0.0
  0
LINE
  5
7296
330
6A5E
100
AcDbEntity
  8
30
  6
CONTINUOUS
 62
     0
100
AcDbLine
 10
518.651770915345
 20
-144.5
 30
0.0
 11
518.651770915345
 21
-213.5
 31
0.0
  0
LINE
  5
7297
330
6A5E
100
AcDbEntity
  8
30
  6
CONTINUOUS
 62
     0
100
AcDbLine
 10
500.6517709153449
 20
-213.0
 30
0.0
 11
516.6517709153449
 21
-213.0
 31
0.0
  0
INSERT
  5
7298
330
6A5E
100
AcDbEntity
  8
30
  6
CONTINUOUS
 62
     0
100
AcDbBlockReference
  2
_OPEN
 10
498.6517709153449
 20
-213.0
 30
0.0
 41
2.0
 42
2.0
 43
2.0
 50
180.0
  0
INSERT
  5
7299
330
6A5E
100
AcDbEntity
  8
30
  6
CONTINUOUS
 62
     0
100
AcDbBlockReference
  2
_OPEN
 10
518.651770915345
 20
-213.0
 30
0.0
 41
2.0
 42
2.0
 43
2.0
  0
MTEXT
  5
729A
330
6A5E
100
AcDbEntity
  8
30
  6
CONTINUOUS
 62
     0
100
AcDbMText
 10
508.6517709153449
 20
-209.5
 30
0.0
 40
5.0
 41
0.0
 71
     5
 72
     1
  1
\A1;20
  0
POINT
  5
729B
330
6A5E
100
AcDbEntity
  8
DEFPOINTS
  6
CONTINUOUS
 62
     0
100
AcDbPoint
 10
498.6517709153449
 20
-129.697265625
 30
0.0
  0
POINT
  5
729C
330
6A5E
100
AcDbEntity
  8
DEFPOINTS
  6
CONTINUOUS
 62
     0
100
AcDbPoint
 10
518.651770915345
 20
-143.5
 30
0.0
  0
POINT
  5
729D
330
6A5E
100
AcDbEntity
  8
DEFPOINTS
  6
CONTINUOUS
 62
     0
100
AcDbPoint
 10
518.651770915345
 20
-213.0
 30
0.0
  0
ENDBLK
  5
6A69
330
6A5E
100
AcDbEntity
  8
0
100
AcDbBlockEnd
  0
BLOCK
  5
6A75
330
6A6B
100
AcDbEntity
  8
0
100
AcDbBlockBegin
  2
*D21
 70
     1
 10
0.0
 20
0.0
 30
0.0
  3
*D21
  1

  0
LINE
  5
7123
330
6A6B
100
AcDbEntity
  8
30
  6
CONTINUOUS
 62
     0
100
AcDbLine
 10
519.6517709153449
 20
-100.5
 30
0.0
 11
544.1517709153449
 21
-100.5
 31
0.0
  0
LINE
  5
7124
330
6A6B
100
AcDbEntity
  8
30
  6
CONTINUOUS
 62
     0
100
AcDbLine
 10
519.6517709153449
 20
-142.5
 30
0.0
 11
544.1517709153449
 21
-142.5
 31
0.0
  0
LINE
  5
7125
330
6A6B
100
AcDbEntity
  8
30
  6
CONTINUOUS
 62
     0
100
AcDbLine
 10
543.651770915345
 20
-102.4999999999999
 30
0.0
 11
543.651770915345
 21
-140.5
 31
0.0
  0
INSERT
  5
7126
330
6A6B
100
AcDbEntity
  8
30
  6
CONTINUOUS
 62
     0
100
AcDbBlockReference
  2
_OPEN
 10
543.651770915345
 20
-100.5
 30
0.0
 41
2.0
 42
2.0
 43
2.0
 50
90.0
  0
INSERT
  5
7127
330
6A6B
100
AcDbEntity
  8
30
  6
CONTINUOUS
 62
     0
100
AcDbBlockReference
  2
_OPEN
 10
543.651770915345
 20
-142.5
 30
0.0
 41
2.0
 42
2.0
 43
2.0
 50
270.0
  0
MTEXT
  5
7128
330
6A6B
100
AcDbEntity
  8
30
  6
CONTINUOUS
 62
     0
100
AcDbMText
 10
540.1517709153449
 20
-121.4999999999999
 30
0.0
 40
5.0
 41
0.0
 71
     5
 72
     1
  1
\A1;42
 11
0.0000000000000001
 21
1.0
 31
0.0
1001
ACAD
1000
MTEXTBEGIN
1070
    73
1070
     1
1070
    44
1040
1.0
1070
    74
1070
     0
1000
MTEXTEND
  0
POINT
  5
7129
330
6A6B
100
AcDbEntity
  8
DEFPOINTS
  6
CONTINUOUS
 62
     0
100
AcDbPoint
 10
518.651770915345
 20
-100.5
 30
0.0
  0
POINT
  5
712A
330
6A6B
100
AcDbEntity
  8
DEFPOINTS
  6
CONTINUOUS
 62
     0
100
AcDbPoint
 10
518.651770915345
 20
-142.5
 30
0.0
  0
POINT
  5
712B
330
6A6B
100
AcDbEntity
  8
DEFPOINTS
  6
CONTINUOUS
 62
     0
100
AcDbPoint
 10
543.651770915345
 20
-142.5
 30
0.0
  0
ENDBLK
  5
6A76
330
6A6B
100
AcDbEntity
  8
0
100
AcDbBlockEnd
  0
BLOCK
  5
6A82
330
6A78
100
AcDbEntity
  8
0
100
AcDbBlockBegin
  2
*D22
 70
     1
 10
0.0
 20
0.0
 30
0.0
  3
*D22
  1

  0
LINE
  5
70D8
330
6A78
100
AcDbEntity
  8
30
  6
CONTINUOUS
 62
     0
100
AcDbLine
 10
519.6517709153449
 20
126.4996032714799
 30
0.0
 11
544.1517709153449
 21
126.4996032714799
 31
0.0
  0
LINE
  5
70D9
330
6A78
100
AcDbEntity
  8
30
  6
CONTINUOUS
 62
     0
100
AcDbLine
 10
519.6517709153449
 20
116.4996032714799
 30
0.0
 11
544.1517709153449
 21
116.4996032714799
 31
0.0
  0
LINE
  5
70DA
330
6A78
100
AcDbEntity
  8
30
  6
CONTINUOUS
 62
     0
100
AcDbLine
 10
543.651770915345
 20
124.4996032714799
 30
0.0
 11
543.651770915345
 21
118.4996032714799
 31
0.0
  0
INSERT
  5
70DB
330
6A78
100
AcDbEntity
  8
30
  6
CONTINUOUS
 62
     0
100
AcDbBlockReference
  2
_OPEN
 10
543.651770915345
 20
126.4996032714799
 30
0.0
 41
2.0
 42
2.0
 43
2.0
 50
90.0
  0
INSERT
  5
70DC
330
6A78
100
AcDbEntity
  8
30
  6
CONTINUOUS
 62
     0
100
AcDbBlockReference
  2
_OPEN
 10
543.651770915345
 20
116.4996032714799
 30
0.0
 41
2.0
 42
2.0
 43
2.0
 50
270.0
  0
MTEXT
  5
70DD
330
6A78
100
AcDbEntity
  8
30
  6
CONTINUOUS
 62
     0
100
AcDbMText
 10
540.1517709153449
 20
121.49960327148
 30
0.0
 40
5.0
 41
0.0
 71
     5
 72
     1
  1
\A1;10
 11
0.0000000000000001
 21
1.0
 31
0.0
1001
ACAD
1000
MTEXTBEGIN
1070
    73
1070
     1
1070
    44
1040
1.0
1070
    74
1070
     0
1000
MTEXTEND
  0
POINT
  5
70DE
330
6A78
100
AcDbEntity
  8
DEFPOINTS
  6
CONTINUOUS
 62
     0
100
AcDbPoint
 10
518.651770915345
 20
126.4996032714799
 30
0.0
  0
POINT
  5
70DF
330
6A78
100
AcDbEntity
  8
DEFPOINTS
  6
CONTINUOUS
 62
     0
100
AcDbPoint
 10
518.651770915345
 20
116.4996032714799
 30
0.0
  0
POINT
  5
70E0
330
6A78
100
AcDbEntity
  8
DEFPOINTS
  6
CONTINUOUS
 62
     0
100
AcDbPoint
 10
543.651770915345
 20
116.4996032714799
 30
0.0
  0
ENDBLK
  5
6A83
330
6A78
100
AcDbEntity
  8
0
100
AcDbBlockEnd
  0
BLOCK
  5
6A9C
330
6A92
100
AcDbEntity
  8
0
100
AcDbBlockBegin
  2
*D23
 70
     1
 10
0.0
 20
0.0
 30
0.0
  3
*D23
  1

  0
LINE
  5
70CF
330
6A92
100
AcDbEntity
  8
30
  6
CONTINUOUS
 62
     0
100
AcDbLine
 10
519.6517709153449
 20
121.4996032714799
 30
0.0
 11
577.1517709153449
 21
121.4996032714799
 31
0.0
  0
LINE
  5
70D0
330
6A92
100
AcDbEntity
  8
30
  6
CONTINUOUS
 62
     0
100
AcDbLine
 10
406.2517465012449
 20
-0.0000000000000003
 30
0.0
 11
577.1517709153449
 21
-0.0000000000000487
 31
0.0
  0
LINE
  5
70D1
330
6A92
100
AcDbEntity
  8
30
  6
CONTINUOUS
 62
     0
100
AcDbLine
 10
576.651770915345
 20
119.4996032714799
 30
0.0
 11
576.651770915345
 21
1.999999999999951
 31
0.0
  0
INSERT
  5
70D2
330
6A92
100
AcDbEntity
  8
30
  6
CONTINUOUS
 62
     0
100
AcDbBlockReference
  2
_OPEN
 10
576.651770915345
 20
121.4996032714799
 30
0.0
 41
2.0
 42
2.0
 43
2.0
 50
90.0
  0
INSERT
  5
70D3
330
6A92
100
AcDbEntity
  8
30
  6
CONTINUOUS
 62
     0
100
AcDbBlockReference
  2
_OPEN
 10
576.651770915345
 20
-0.0000000000000486
 30
0.0
 41
2.0
 42
2.0
 43
2.0
 50
270.0
  0
MTEXT
  5
70D4
330
6A92
100
AcDbEntity
  8
30
  6
CONTINUOUS
 62
     0
100
AcDbMText
 10
573.1517709153449
 20
60.74980163574006
 30
0.0
 40
5.0
 41
0.0
 71
     5
 72
     1
  1
\A1;121.5
 11
0.0000000000000001
 21
1.0
 31
0.0
1001
ACAD
1000
MTEXTBEGIN
1070
    73
1070
     1
1070
    44
1040
1.0
1070
    74
1070
     0
1000
MTEXTEND
  0
POINT
  5
70D5
330
6A92
100
AcDbEntity
  8
DEFPOINTS
  6
CONTINUOUS
 62
     0
100
AcDbPoint
 10
518.651770915345
 20
121.4996032714799
 30
0.0
  0
POINT
  5
70D6
330
6A92
100
AcDbEntity
  8
DEFPOINTS
  6
CONTINUOUS
 62
     0
100
AcDbPoint
 10
405.2517465012449
 20
0.0
 30
0.0
  0
POINT
  5
70D7
330
6A92
100
AcDbEntity
  8
DEFPOINTS
  6
CONTINUOUS
 62
     0
100
AcDbPoint
 10
576.651770915345
 20
-0.0000000000000486
 30
0.0
  0
ENDBLK
  5
6A9D
330
6A92
100
AcDbEntity
  8
0
100
AcDbBlockEnd
  0
BLOCK
  5
6AA9
330
6A9F
100
AcDbEntity
  8
0
100
AcDbBlockBegin
  2
*D24
 70
     1
 10
0.0
 20
0.0
 30
0.0
  3
*D24
  1

  0
LINE
  5
729E
330
6A9F
100
AcDbEntity
  8
30
  6
CONTINUOUS
 62
     0
100
AcDbLine
 10
406.2517465012449
 20
-0.0000000000000003
 30
0.0
 11
577.1517709153449
 21
-0.0000000000000487
 31
0.0
  0
LINE
  5
729F
330
6A9F
100
AcDbEntity
  8
30
  6
CONTINUOUS
 62
     0
100
AcDbLine
 10
507.849036540345
 20
-121.5
 30
0.0
 11
577.1517709153449
 21
-121.5
 31
0.0
  0
LINE
  5
72A0
330
6A9F
100
AcDbEntity
  8
30
  6
CONTINUOUS
 62
     0
100
AcDbLine
 10
576.651770915345
 20
-2.000000000000048
 30
0.0
 11
576.651770915345
 21
-119.5
 31
0.0
  0
INSERT
  5
72A1
330
6A9F
100
AcDbEntity
  8
30
  6
CONTINUOUS
 62
     0
100
AcDbBlockReference
  2
_OPEN
 10
576.651770915345
 20
-0.0000000000000486
 30
0.0
 41
2.0
 42
2.0
 43
2.0
 50
90.0
  0
INSERT
  5
72A2
330
6A9F
100
AcDbEntity
  8
30
  6
CONTINUOUS
 62
     0
100
AcDbBlockReference
  2
_OPEN
 10
576.651770915345
 20
-121.5
 30
0.0
 41
2.0
 42
2.0
 43
2.0
 50
270.0
  0
MTEXT
  5
72A3
330
6A9F
100
AcDbEntity
  8
30
  6
CONTINUOUS
 62
     0
100
AcDbMText
 10
573.1517709153449
 20
-60.74999999999993
 30
0.0
 40
5.0
 41
0.0
 71
     5
 72
     1
  1
\A1;121.5
 11
0.0000000000000001
 21
1.0
 31
0.0
  0
POINT
  5
72A4
330
6A9F
100
AcDbEntity
  8
DEFPOINTS
  6
CONTINUOUS
 62
     0
100
AcDbPoint
 10
405.2517465012449
 20
0.0
 30
0.0
  0
POINT
  5
72A5
330
6A9F
100
AcDbEntity
  8
DEFPOINTS
  6
CONTINUOUS
 62
     0
100
AcDbPoint
 10
506.8490365403449
 20
-121.5
 30
0.0
  0
POINT
  5
72A6
330
6A9F
100
AcDbEntity
  8
DEFPOINTS
  6
CONTINUOUS
 62
     0
100
AcDbPoint
 10
576.651770915345
 20
-121.5
 30
0.0
  0
ENDBLK
  5
6AAA
330
6A9F
100
AcDbEntity
  8
0
100
AcDbBlockEnd
  0
BLOCK
  5
6B98
330
6B8F
100
AcDbEntity
  8
0
100
AcDbBlockBegin
  2
*D25
 70
     1
 10
0.0
 20
0.0
 30
0.0
  3
*D25
  1

  0
LINE
  5
7065
330
6B8F
100
AcDbEntity
  8
30
  6
CONTINUOUS
 62
     0
100
AcDbLine
 10
163.5618512824185
 20
-321.1537685660832
 30
0.0
 11
149.2285179490859
 21
-321.1537685660833
 31
0.0
  0
LINE
  5
7066
330
6B8F
100
AcDbEntity
  8
30
  6
CONTINUOUS
 62
     0
100
AcDbLine
 10
149.2285179490859
 20
-321.1537685660833
 30
0.0
 11
126.6215770472137
 21
-332.2326553845701
 31
0.0
  0
MTEXT
  5
7067
330
6B8F
100
AcDbEntity
  8
30
  6
CONTINUOUS
 62
     0
100
AcDbMText
 10
159.3951846157519
 20
-317.6537685660833
 30
0.0
 40
5.0
 41
0.0
 71
     5
 72
     1
  1
\A1;%%c9
1001
ACAD
1000
MTEXTBEGIN
1070
    73
1070
     1
1070
    44
1040
1.0
1070
    74
1070
     0
1000
MTEXTEND
  0
INSERT
  5
7068
330
6B8F
100
AcDbEntity
  8
30
  6
CONTINUOUS
 62
     0
100
AcDbBlockReference
  2
_OPEN
 10
124.8256430847444
 20
-333.1127810588061
 30
0.0
 41
2.0
 42
2.0
 43
2.0
 50
206.1078904606282
  0
LINE
  5
7069
330
6B8F
100
AcDbEntity
  8
30
  6
CONTINUOUS
 62
     0
100
AcDbLine
 10
122.0417421410404
 20
-334.43296957016
 30
0.0
 11
122.2217421410404
 21
-334.4329695701601
 31
0.0
  0
LINE
  5
706A
330
6B8F
100
AcDbEntity
  8
30
  6
CONTINUOUS
 62
     0
100
AcDbLine
 10
122.1317421410404
 20
-334.5229695701601
 30
0.0
 11
122.1317421410404
 21
-334.3429695701602
 31
0.0
  0
POINT
  5
706B
330
6B8F
100
AcDbEntity
  8
DEFPOINTS
  6
CONTINUOUS
 62
     0
100
AcDbPoint
 10
124.8256430847444
 20
-333.1127810588061
 30
0.0
  0
POINT
  5
706C
330
6B8F
100
AcDbEntity
  8
DEFPOINTS
  6
CONTINUOUS
 62
     0
100
AcDbPoint
 10
119.4378411973364
 20
-335.7531580815141
 30
0.0
  0
ENDBLK
  5
6B99
330
6B8F
100
AcDbEntity
  8
0
100
AcDbBlockEnd
  0
BLOCK
  5
6BB5
330
6BAB
100
AcDbEntity
  8
0
100
AcDbBlockBegin
  2
*D26
 70
     1
 10
0.0
 20
0.0
 30
0.0
  3
*D26
  1

  0
LINE
  5
7052
330
6BAB
100
AcDbEntity
  8
30
  6
CONTINUOUS
 62
     0
100
AcDbLine
 10
-113.0
 20
-567.4999999999999
 30
0.0
 11
-113.0
 21
-611.5
 31
0.0
  0
LINE
  5
7053
330
6BAB
100
AcDbEntity
  8
30
  6
CONTINUOUS
 62
     0
100
AcDbLine
 10
113.0
 20
-567.4999999999999
 30
0.0
 11
113.0
 21
-611.5
 31
0.0
  0
LINE
  5
7054
330
6BAB
100
AcDbEntity
  8
30
  6
CONTINUOUS
 62
     0
100
AcDbLine
 10
-111.0
 20
-611.0
 30
0.0
 11
111.0
 21
-611.0
 31
0.0
  0
INSERT
  5
7055
330
6BAB
100
AcDbEntity
  8
30
  6
CONTINUOUS
 62
     0
100
AcDbBlockReference
  2
_OPEN
 10
-113.0
 20
-611.0
 30
0.0
 41
2.0
 42
2.0
 43
2.0
 50
180.0
  0
INSERT
  5
7056
330
6BAB
100
AcDbEntity
  8
30
  6
CONTINUOUS
 62
     0
100
AcDbBlockReference
  2
_OPEN
 10
113.0
 20
-611.0
 30
0.0
 41
2.0
 42
2.0
 43
2.0
  0
MTEXT
  5
7057
330
6BAB
100
AcDbEntity
  8
30
  6
CONTINUOUS
 62
     0
100
AcDbMText
 10
0.0000000000000002
 20
-607.5
 30
0.0
 40
5.0
 41
0.0
 71
     5
 72
     1
  1
\A1;226
1001
ACAD
1000
MTEXTBEGIN
1070
    73
1070
     1
1070
    44
1040
1.0
1070
    74
1070
     0
1000
MTEXTEND
  0
POINT
  5
7058
330
6BAB
100
AcDbEntity
  8
DEFPOINTS
  6
CONTINUOUS
 62
     0
100
AcDbPoint
 10
-113.0
 20
-566.5
 30
0.0
  0
POINT
  5
7059
330
6BAB
100
AcDbEntity
  8
DEFPOINTS
  6
CONTINUOUS
 62
     0
100
AcDbPoint
 10
113.0
 20
-566.5
 30
0.0
  0
POINT
  5
705A
330
6BAB
100
AcDbEntity
  8
DEFPOINTS
  6
CONTINUOUS
 62
     0
100
AcDbPoint
 10
113.0
 20
-611.0
 30
0.0
  0
ENDBLK
  5
6BB6
330
6BAB
100
AcDbEntity
  8
0
100
AcDbBlockEnd
  0
BLOCK
  5
6BC2
330
6BB8
100
AcDbEntity
  8
0
100
AcDbBlockBegin
  2
*D27
 70
     1
 10
0.0
 20
0.0
 30
0.0
  3
*D27
  1

  0
LINE
  5
7049
330
6BB8
100
AcDbEntity
  8
30
  6
CONTINUOUS
 62
     0
100
AcDbLine
 10
-122.5
 20
-479.4999999999999
 30
0.0
 11
-122.5
 21
-639.5
 31
0.0
  0
LINE
  5
704A
330
6BB8
100
AcDbEntity
  8
30
  6
CONTINUOUS
 62
     0
100
AcDbLine
 10
122.5
 20
-479.4999999999999
 30
0.0
 11
122.4999999999999
 21
-639.5
 31
0.0
  0
LINE
  5
704B
330
6BB8
100
AcDbEntity
  8
30
  6
CONTINUOUS
 62
     0
100
AcDbLine
 10
-120.5
 20
-639.0
 30
0.0
 11
120.4999999999999
 21
-639.0
 31
0.0
  0
INSERT
  5
704C
330
6BB8
100
AcDbEntity
  8
30
  6
CONTINUOUS
 62
     0
100
AcDbBlockReference
  2
_OPEN
 10
-122.5
 20
-639.0
 30
0.0
 41
2.0
 42
2.0
 43
2.0
 50
180.0
  0
INSERT
  5
704D
330
6BB8
100
AcDbEntity
  8
30
  6
CONTINUOUS
 62
     0
100
AcDbBlockReference
  2
_OPEN
 10
122.4999999999999
 20
-639.0
 30
0.0
 41
2.0
 42
2.0
 43
2.0
  0
MTEXT
  5
704E
330
6BB8
100
AcDbEntity
  8
30
  6
CONTINUOUS
 62
     0
100
AcDbMText
 10
-0.000000000000014
 20
-635.5
 30
0.0
 40
5.0
 41
0.0
 71
     5
 72
     1
  1
\A1;245
1001
ACAD
1000
MTEXTBEGIN
1070
    73
1070
     1
1070
    44
1040
1.0
1070
    74
1070
     0
1000
MTEXTEND
  0
POINT
  5
704F
330
6BB8
100
AcDbEntity
  8
DEFPOINTS
  6
CONTINUOUS
 62
     0
100
AcDbPoint
 10
-122.5
 20
-478.5
 30
0.0
  0
POINT
  5
7050
330
6BB8
100
AcDbEntity
  8
DEFPOINTS
  6
CONTINUOUS
 62
     0
100
AcDbPoint
 10
122.5
 20
-478.5
 30
0.0
  0
POINT
  5
7051
330
6BB8
100
AcDbEntity
  8
DEFPOINTS
  6
CONTINUOUS
 62
     0
100
AcDbPoint
 10
122.4999999999999
 20
-639.0
 30
0.0
  0
ENDBLK
  5
6BC3
330
6BB8
100
AcDbEntity
  8
0
100
AcDbBlockEnd
  0
BLOCK
  5
6BCF
330
6BC5
100
AcDbEntity
  8
0
100
AcDbBlockBegin
  2
*D28
 70
     1
 10
0.0
 20
0.0
 30
0.0
  3
*D28
  1

  0
LINE
  5
6BC6
330
6BC5
100
AcDbEntity
  8
30
  6
CONTINUOUS
 62
     0
100
AcDbLine
 10
-138.5
 20
-336.49996948242
 30
0.0
 11
-163.4999999999999
 21
-336.49996948242
 31
0.0
  0
LINE
  5
6BC7
330
6BC5
100
AcDbEntity
  8
30
  6
CONTINUOUS
 62
     0
100
AcDbLine
 10
-138.5
 20
-463.4999999999999
 30
0.0
 11
-163.4999999999999
 21
-463.4999999999999
 31
0.0
  0
LINE
  5
6BC8
330
6BC5
100
AcDbEntity
  8
30
  6
CONTINUOUS
 62
     0
100
AcDbLine
 10
-162.9999999999999
 20
-338.49996948242
 30
0.0
 11
-163.0
 21
-461.5
 31
0.0
  0
INSERT
  5
6BC9
330
6BC5
100
AcDbEntity
  8
30
  6
CONTINUOUS
 62
     0
100
AcDbBlockReference
  2
_OPEN
 10
-162.9999999999999
 20
-336.49996948242
 30
0.0
 41
2.0
 42
2.0
 43
2.0
 50
90.0
  0
INSERT
  5
6BCA
330
6BC5
100
AcDbEntity
  8
30
  6
CONTINUOUS
 62
     0
100
AcDbBlockReference
  2
_OPEN
 10
-163.0
 20
-463.4999999999999
 30
0.0
 41
2.0
 42
2.0
 43
2.0
 50
270.0
  0
MTEXT
  5
6BCB
330
6BC5
100
AcDbEntity
  8
30
  6
CONTINUOUS
 62
     0
100
AcDbMText
 10
-166.4999999999999
 20
-399.99998474121
 30
0.0
 40
5.0
 41
0.0
 71
     5
 72
     1
  1
\A1;127
 11
0.0000000000000001
 21
1.0
 31
0.0
1001
ACAD
1000
MTEXTBEGIN
1070
    73
1070
     1
1070
    44
1040
1.0
1070
    74
1070
     0
1000
MTEXTEND
  0
POINT
  5
6BCC
330
6BC5
100
AcDbEntity
  8
DEFPOINTS
  6
CONTINUOUS
 62
     0
100
AcDbPoint
 10
-137.5
 20
-336.49996948242
 30
0.0
  0
POINT
  5
6BCD
330
6BC5
100
AcDbEntity
  8
DEFPOINTS
  6
CONTINUOUS
 62
     0
100
AcDbPoint
 10
-137.5
 20
-463.4999999999999
 30
0.0
  0
POINT
  5
6BCE
330
6BC5
100
AcDbEntity
  8
DEFPOINTS
  6
CONTINUOUS
 62
     0
100
AcDbPoint
 10
-163.0
 20
-463.4999999999999
 30
0.0
  0
ENDBLK
  5
6BD0
330
6BC5
100
AcDbEntity
  8
0
100
AcDbBlockEnd
  0
BLOCK
  5
6BDC
330
6BD2
100
AcDbEntity
  8
0
100
AcDbBlockBegin
  2
*D29
 70
     1
 10
0.0
 20
0.0
 30
0.0
  3
*D29
  1

  0
LINE
  5
6BD3
330
6BD2
100
AcDbEntity
  8
30
  6
CONTINUOUS
 62
     0
100
AcDbLine
 10
-114.0
 20
-233.49990844726
 30
0.0
 11
-189.4999999999999
 21
-233.49990844726
 31
0.0
  0
LINE
  5
6BD4
330
6BD2
100
AcDbEntity
  8
30
  6
CONTINUOUS
 62
     0
100
AcDbLine
 10
-114.0
 20
-566.5
 30
0.0
 11
-189.4999999999999
 21
-566.5
 31
0.0
  0
LINE
  5
6BD5
330
6BD2
100
AcDbEntity
  8
30
  6
CONTINUOUS
 62
     0
100
AcDbLine
 10
-188.9999999999999
 20
-235.49990844726
 30
0.0
 11
-189.0
 21
-564.5
 31
0.0
  0
INSERT
  5
6BD6
330
6BD2
100
AcDbEntity
  8
30
  6
CONTINUOUS
 62
     0
100
AcDbBlockReference
  2
_OPEN
 10
-188.9999999999999
 20
-233.49990844726
 30
0.0
 41
2.0
 42
2.0
 43
2.0
 50
90.0
  0
INSERT
  5
6BD7
330
6BD2
100
AcDbEntity
  8
30
  6
CONTINUOUS
 62
     0
100
AcDbBlockReference
  2
_OPEN
 10
-189.0
 20
-566.5
 30
0.0
 41
2.0
 42
2.0
 43
2.0
 50
270.0
  0
MTEXT
  5
6BD8
330
6BD2
100
AcDbEntity
  8
30
  6
CONTINUOUS
 62
     0
100
AcDbMText
 10
-192.4999999999999
 20
-399.99995422363
 30
0.0
 40
5.0
 41
0.0
 71
     5
 72
     1
  1
\A1;333
 11
0.0000000000000001
 21
1.0
 31
0.0
1001
ACAD
1000
MTEXTBEGIN
1070
    73
1070
     1
1070
    44
1040
1.0
1070
    74
1070
     0
1000
MTEXTEND
  0
POINT
  5
6BD9
330
6BD2
100
AcDbEntity
  8
DEFPOINTS
  6
CONTINUOUS
 62
     0
100
AcDbPoint
 10
-113.0
 20
-233.49990844726
 30
0.0
  0
POINT
  5
6BDA
330
6BD2
100
AcDbEntity
  8
DEFPOINTS
  6
CONTINUOUS
 62
     0
100
AcDbPoint
 10
-113.0
 20
-566.5
 30
0.0
  0
POINT
  5
6BDB
330
6BD2
100
AcDbEntity
  8
DEFPOINTS
  6
CONTINUOUS
 62
     0
100
AcDbPoint
 10
-189.0
 20
-566.5
 30
0.0
  0
ENDBLK
  5
6BDD
330
6BD2
100
AcDbEntity
  8
0
100
AcDbBlockEnd
  0
BLOCK
  5
6CBA
330
6CB9
100
AcDbEntity
  8
0
100
AcDbBlockBegin
  2
REVDATE
 70
     2
 10
0.0
 20
0.0
 30
0.0
  3
REVDATE
  1
REVDATE
  0
ATTDEF
  5
6CBB
330
6CB9
100
AcDbEntity
  8
0
  6
CONTINUOUS
 62
     0
100
AcDbText
 10
0.0
 20
0.0
 30
0.0
 40
19.18333333333333
  1

100
AcDbAttributeDefinition
  3

  2
USER
 70
     8
  0
ATTDEF
  5
6CBC
330
6CB9
100
AcDbEntity
  8
0
  6
CONTINUOUS
 62
     0
100
AcDbText
 10
0.0
 20
0.0
 30
0.0
 40
19.18333333333333
  1

100
AcDbAttributeDefinition
  3

  2
REVDATE
 70
     8
  0
ATTDEF
  5
6CBD
330
6CB9
100
AcDbEntity
  8
0
  6
CONTINUOUS
 62
     0
100
AcDbText
 10
0.0
 20
0.0
 30
0.0
 40
19.18333333333333
  1

100
AcDbAttributeDefinition
  3

  2
FNAME
 70
     8
  0
ENDBLK
  5
6CBE
330
6CB9
100
AcDbEntity
  8
0
100
AcDbBlockEnd
  0
BLOCK
  5
6DCA
330
6DC1
100
AcDbEntity
  8
0
100
AcDbBlockBegin
  2
*D31
 70
     1
 10
0.0
 20
0.0
 30
0.0
  3
*D31
  1

  0
LINE
  5
7075
330
6DC1
100
AcDbEntity
  8
30
  6
CONTINUOUS
 62
     0
100
AcDbLine
 10
473.2837335101612
 20
-82.50000000000012
 30
0.0
 11
485.9504001768291
 21
-82.50000000000012
 31
0.0
  0
LINE
  5
7076
330
6DC1
100
AcDbEntity
  8
30
  6
CONTINUOUS
 62
     0
100
AcDbLine
 10
485.9504001768291
 20
-82.50000000000012
 30
0.0
 11
496.0927514864016
 21
-113.4233239470014
 31
0.0
  0
MTEXT
  5
7077
330
6DC1
100
AcDbEntity
  8
30
  6
CONTINUOUS
 62
     0
100
AcDbMText
 10
479.1170668434944
 20
-79.00000000000011
 30
0.0
 40
5.0
 41
0.0
 71
     5
 72
     1
  1
\A1;\U+220513
1001
ACAD
1000
MTEXTBEGIN
1070
    73
1070
     1
1070
    44
1040
1.0
1070
    74
1070
     0
1000
MTEXTEND
  0
INSERT
  5
7078
330
6DC1
100
AcDbEntity
  8
30
  6
CONTINUOUS
 62
     0
100
AcDbBlockReference
  2
_OPEN
 10
496.7160501755647
 20
-115.3237183124129
 30
0.0
 41
2.0
 42
2.0
 43
2.0
 50
288.158655797223
  0
LINE
  5
7079
330
6DC1
100
AcDbEntity
  8
30
  6
CONTINUOUS
 62
     0
100
AcDbLine
 10
498.6517709153452
 20
-121.5
 30
0.0
 11
498.831770915345
 21
-121.5
 31
0.0
  0
LINE
  5
707A
330
6DC1
100
AcDbEntity
  8
30
  6
CONTINUOUS
 62
     0
100
AcDbLine
 10
498.7417709153451
 20
-121.59
 30
0.0
 11
498.7417709153451
 21
-121.4099999999999
 31
0.0
  0
POINT
  5
707B
330
6DC1
100
AcDbEntity
  8
DEFPOINTS
  6
CONTINUOUS
 62
     0
100
AcDbPoint
 10
496.7160501755647
 20
-115.3237183124129
 30
0.0
  0
POINT
  5
707C
330
6DC1
100
AcDbEntity
  8
DEFPOINTS
  6
CONTINUOUS
 62
     0
100
AcDbPoint
 10
500.7674916551255
 20
-127.6762816875871
 30
0.0
  0
ENDBLK
  5
6DCB
330
6DC1
100
AcDbEntity
  8
0
100
AcDbBlockEnd
  0
BLOCK
  5
6ED2
330
6EC8
100
AcDbEntity
  8
0
100
AcDbBlockBegin
  2
*D32
 70
     1
 10
0.0
 20
0.0
 30
0.0
  3
*D32
  1

  0
LINE
  5
72A7
330
6EC8
100
AcDbEntity
  8
30
  6
CONTINUOUS
 62
     0
100
AcDbLine
 10
70.00000000000006
 20
481.197265625
 30
0.0
 11
70.00000000000006
 21
529.4706220185485
 31
0.0
  0
LINE
  5
72A8
330
6EC8
100
AcDbEntity
  8
30
  6
CONTINUOUS
 62
     0
100
AcDbLine
 10
0.0000000000000427
 20
481.197265625
 30
0.0
 11
0.0000000000000456
 21
529.4706220185485
 31
0.0
  0
LINE
  5
72A9
330
6EC8
100
AcDbEntity
  8
30
  6
CONTINUOUS
 62
     0
100
AcDbLine
 10
68.00000000000006
 20
528.9706220185485
 30
0.0
 11
2.000000000000045
 21
528.9706220185485
 31
0.0
  0
INSERT
  5
72AA
330
6EC8
100
AcDbEntity
  8
30
  6
CONTINUOUS
 62
     0
100
AcDbBlockReference
  2
_OPEN
 10
70.00000000000006
 20
528.9706220185485
 30
0.0
 41
2.0
 42
2.0
 43
2.0
  0
INSERT
  5
72AB
330
6EC8
100
AcDbEntity
  8
30
  6
CONTINUOUS
 62
     0
100
AcDbBlockReference
  2
_OPEN
 10
0.0000000000000456
 20
528.9706220185485
 30
0.0
 41
2.0
 42
2.0
 43
2.0
 50
180.0
  0
MTEXT
  5
72AC
330
6EC8
100
AcDbEntity
  8
30
  6
CONTINUOUS
 62
     0
100
AcDbMText
 10
35.00000000000005
 20
532.4706220185484
 30
0.0
 40
5.0
 41
0.0
 71
     5
 72
     1
  1
\A1;70
  0
POINT
  5
72AD
330
6EC8
100
AcDbEntity
  8
DEFPOINTS
  6
CONTINUOUS
 62
     0
100
AcDbPoint
 10
70.00000000000006
 20
480.197265625
 30
0.0
  0
POINT
  5
72AE
330
6EC8
100
AcDbEntity
  8
DEFPOINTS
  6
CONTINUOUS
 62
     0
100
AcDbPoint
 10
0.0000000000000426
 20
480.197265625
 30
0.0
  0
POINT
  5
72AF
330
6EC8
100
AcDbEntity
  8
DEFPOINTS
  6
CONTINUOUS
 62
     0
100
AcDbPoint
 10
0.0000000000000456
 20
528.9706220185485
 30
0.0
  0
ENDBLK
  5
6ED3
330
6EC8
100
AcDbEntity
  8
0
100
AcDbBlockEnd
  0
BLOCK
  5
6EDF
330
6ED5
100
AcDbEntity
  8
0
100
AcDbBlockBegin
  2
*D33
 70
     1
 10
0.0
 20
0.0
 30
0.0
  3
*D33
  1

  0
LINE
  5
72B0
330
6ED5
100
AcDbEntity
  8
30
  6
CONTINUOUS
 62
     0
100
AcDbLine
 10
0.0000000000000427
 20
479.4999999999999
 30
0.0
 11
0.0000000000000458
 21
529.4706220185485
 31
0.0
  0
LINE
  5
72B1
330
6ED5
100
AcDbEntity
  8
30
  6
CONTINUOUS
 62
     0
100
AcDbLine
 10
-69.98174835492555
 20
481.197265625
 30
0.0
 11
-69.98174835492555
 21
529.4706220185485
 31
0.0
  0
LINE
  5
72B2
330
6ED5
100
AcDbEntity
  8
30
  6
CONTINUOUS
 62
     0
100
AcDbLine
 10
-1.999999999999954
 20
528.9706220185485
 30
0.0
 11
-67.98174835492556
 21
528.9706220185485
 31
0.0
  0
INSERT
  5
72B3
330
6ED5
100
AcDbEntity
  8
30
  6
CONTINUOUS
 62
     0
100
AcDbBlockReference
  2
_OPEN
 10
0.0000000000000457
 20
528.9706220185485
 30
0.0
 41
2.0
 42
2.0
 43
2.0
  0
INSERT
  5
72B4
330
6ED5
100
AcDbEntity
  8
30
  6
CONTINUOUS
 62
     0
100
AcDbBlockReference
  2
_OPEN
 10
-69.98174835492555
 20
528.9706220185485
 30
0.0
 41
2.0
 42
2.0
 43
2.0
 50
180.0
  0
MTEXT
  5
72B5
330
6ED5
100
AcDbEntity
  8
30
  6
CONTINUOUS
 62
     0
100
AcDbMText
 10
-34.99087417746276
 20
532.4706220185484
 30
0.0
 40
5.0
 41
0.0
 71
     5
 72
     1
  1
\A1;70
  0
POINT
  5
72B6
330
6ED5
100
AcDbEntity
  8
DEFPOINTS
  6
CONTINUOUS
 62
     0
100
AcDbPoint
 10
0.0000000000000426
 20
478.5
 30
0.0
  0
POINT
  5
72B7
330
6ED5
100
AcDbEntity
  8
DEFPOINTS
  6
CONTINUOUS
 62
     0
100
AcDbPoint
 10
-69.98174835492555
 20
480.197265625
 30
0.0
  0
POINT
  5
72B8
330
6ED5
100
AcDbEntity
  8
DEFPOINTS
  6
CONTINUOUS
 62
     0
100
AcDbPoint
 10
-69.98174835492555
 20
528.9706220185485
 30
0.0
  0
ENDBLK
  5
6EE0
330
6ED5
100
AcDbEntity
  8
0
100
AcDbBlockEnd
  0
BLOCK
  5
6F2B
330
6F20
100
AcDbEntity
  8
0
100
AcDbBlockBegin
  2
*D34
 70
     1
 10
0.0
 20
0.0
 30
0.0
  3
*D34
  1

  0
LINE
  5
705B
330
6F20
100
AcDbEntity
  8
30
  6
CONTINUOUS
 62
     0
100
AcDbLine
 10
117.8497158299924
 20
0.0000000000000006
 30
0.0
 11
77.00000000000002
 21
0.0000000000000121
 31
0.0
  0
LINE
  5
705C
330
6F20
100
AcDbEntity
  8
30
  6
CONTINUOUS
 62
     0
100
AcDbLine
 10
72.0
 20
-4.5
 30
0.0
 11
77.20000000000002
 21
-4.5
 31
0.0
  0
LINE
  5
705D
330
6F20
100
AcDbEntity
  8
30
  6
CONTINUOUS
 62
     0
100
AcDbLine
 10
77.10000000000002
 20
2.000000000000011
 30
0.0
 11
77.10000000000002
 21
4.000000000000012
 31
0.0
  0
LINE
  5
705E
330
6F20
100
AcDbEntity
  8
30
  6
CONTINUOUS
 62
     0
100
AcDbLine
 10
77.10000000000002
 20
-6.5
 30
0.0
 11
77.10000000000002
 21
-8.500000000000001
 31
0.0
  0
INSERT
  5
705F
330
6F20
100
AcDbEntity
  8
30
  6
CONTINUOUS
 62
     0
100
AcDbBlockReference
  2
_OPEN
 10
77.10000000000002
 20
0.0000000000000121
 30
0.0
 41
2.0
 42
2.0
 43
2.0
 50
270.0
  0
INSERT
  5
7060
330
6F20
100
AcDbEntity
  8
30
  6
CONTINUOUS
 62
     0
100
AcDbBlockReference
  2
_OPEN
 10
77.10000000000002
 20
-4.5
 30
0.0
 41
2.0
 42
2.0
 43
2.0
 50
90.0
  0
MTEXT
  5
7061
330
6F20
100
AcDbEntity
  8
30
  6
CONTINUOUS
 62
     0
100
AcDbMText
 10
74.60000000000002
 20
-2.249999999999981
 30
0.0
 40
3.0
 41
0.0
 71
     5
 72
     1
  1
\A1;4.5
 11
0.0000000000000001
 21
1.0
 31
0.0
1001
ACAD
1000
MTEXTBEGIN
1070
    73
1070
     1
1070
    44
1040
1.0
1070
    74
1070
     0
1000
MTEXTEND
  0
POINT
  5
7062
330
6F20
100
AcDbEntity
  8
DEFPOINTS
  6
CONTINUOUS
 62
     0
100
AcDbPoint
 10
118.8497158299924
 20
0.0000000000000003
 30
0.0
  0
POINT
  5
7063
330
6F20
100
AcDbEntity
  8
DEFPOINTS
  6
CONTINUOUS
 62
     0
100
AcDbPoint
 10
71.0
 20
-4.5
 30
0.0
  0
POINT
  5
7064
330
6F20
100
AcDbEntity
  8
DEFPOINTS
  6
CONTINUOUS
 62
     0
100
AcDbPoint
 10
77.10000000000002
 20
-4.5
 30
0.0
  0
ENDBLK
  5
6F2C
330
6F20
100
AcDbEntity
  8
0
100
AcDbBlockEnd
  0
BLOCK
  5
6FC8
330
6FBF
100
AcDbEntity
  8
0
100
AcDbBlockBegin
  2
*D35
 70
     1
 10
0.0
 20
0.0
 30
0.0
  3
*D35
  1

  0
LINE
  5
706D
330
6FBF
100
AcDbEntity
  8
30
  6
CONTINUOUS
 62
     0
100
AcDbLine
 10
173.3848289842844
 20
82.2792315216564
 30
0.0
 11
156.1348289842824
 21
82.2792315216564
 31
0.0
  0
LINE
  5
706E
330
6FBF
100
AcDbEntity
  8
30
  6
CONTINUOUS
 62
     0
100
AcDbLine
 10
156.1348289842824
 20
82.2792315216564
 30
0.0
 11
133.5278880824135
 21
71.20034470317034
 31
0.0
  0
MTEXT
  5
706F
330
6FBF
100
AcDbEntity
  8
30
  6
CONTINUOUS
 62
     0
100
AcDbMText
 10
169.2181623176177
 20
85.7792315216564
 30
0.0
 40
5.0
 41
0.0
 71
     5
 72
     1
  1
\A1;M8
1001
ACAD
1000
MTEXTBEGIN
1070
    73
1070
     1
1070
    44
1040
1.0
1070
    74
1070
     0
1000
MTEXTEND
  0
INSERT
  5
7070
330
6FBF
100
AcDbEntity
  8
30
  6
CONTINUOUS
 62
     0
100
AcDbBlockReference
  2
_OPEN
 10
131.7319541199442
 20
70.32021902893429
 30
0.0
 41
2.0
 42
2.0
 43
2.0
 50
206.10789046063
  0
LINE
  5
7071
330
6FBF
100
AcDbEntity
  8
30
  6
CONTINUOUS
 62
     0
100
AcDbLine
 10
128.9480531762404
 20
69.00003051758021
 30
0.0
 11
129.1280531762404
 21
69.00003051758021
 31
0.0
  0
LINE
  5
7072
330
6FBF
100
AcDbEntity
  8
30
  6
CONTINUOUS
 62
     0
100
AcDbLine
 10
129.0380531762404
 20
68.91003051758023
 30
0.0
 11
129.0380531762404
 21
69.09003051758022
 31
0.0
  0
POINT
  5
7073
330
6FBF
100
AcDbEntity
  8
DEFPOINTS
  6
CONTINUOUS
 62
     0
100
AcDbPoint
 10
131.7319541199442
 20
70.32021902893429
 30
0.0
  0
POINT
  5
7074
330
6FBF
100
AcDbEntity
  8
DEFPOINTS
  6
CONTINUOUS
 62
     0
100
AcDbPoint
 10
126.3441522325365
 20
67.67984200622615
 30
0.0
  0
ENDBLK
  5
6FC9
330
6FBF
100
AcDbEntity
  8
0
100
AcDbBlockEnd
  0
BLOCK
  5
6FE9
330
6FDF
100
AcDbEntity
  8
0
100
AcDbBlockBegin
  2
*D36
 70
     1
 10
0.0
 20
0.0
 30
0.0
  3
*D36
  1

  0
LINE
  5
6FE0
330
6FDF
100
AcDbEntity
  8
30
  6
CONTINUOUS
 62
     0
100
AcDbLine
 10
-135.09375000002
 20
171.50009155274
 30
0.0
 11
-215.6571359183816
 21
171.50009155274
 31
0.0
  0
LINE
  5
6FE1
330
6FDF
100
AcDbEntity
  8
30
  6
CONTINUOUS
 62
     0
100
AcDbLine
 10
-135.09375000002
 20
-171.4999999999999
 30
0.0
 11
-215.6571359183817
 21
-171.4999999999999
 31
0.0
  0
LINE
  5
6FE2
330
6FDF
100
AcDbEntity
  8
30
  6
CONTINUOUS
 62
     0
100
AcDbLine
 10
-215.1571359183816
 20
169.50009155274
 30
0.0
 11
-215.1571359183817
 21
-169.4999999999999
 31
0.0
  0
INSERT
  5
6FE3
330
6FDF
100
AcDbEntity
  8
30
  6
CONTINUOUS
 62
     0
100
AcDbBlockReference
  2
_OPEN
 10
-215.1571359183816
 20
171.50009155274
 30
0.0
 41
2.0
 42
2.0
 43
2.0
 50
90.0
  0
INSERT
  5
6FE4
330
6FDF
100
AcDbEntity
  8
30
  6
CONTINUOUS
 62
     0
100
AcDbBlockReference
  2
_OPEN
 10
-215.1571359183817
 20
-171.4999999999999
 30
0.0
 41
2.0
 42
2.0
 43
2.0
 50
270.0
  0
MTEXT
  5
6FE5
330
6FDF
100
AcDbEntity
  8
30
  6
CONTINUOUS
 62
     0
100
AcDbMText
 10
-218.6571359183817
 20
0.0000457763700433
 30
0.0
 40
5.0
 41
0.0
 71
     5
 72
     1
  1
\A1;343
 11
0.0000000000000001
 21
1.0
 31
0.0
1001
ACAD
1000
MTEXTBEGIN
1070
    73
1070
     1
1070
    44
1040
1.0
1070
    74
1070
     0
1000
MTEXTEND
  0
POINT
  5
6FE6
330
6FDF
100
AcDbEntity
  8
DEFPOINTS
  6
CONTINUOUS
 62
     0
100
AcDbPoint
 10
-134.09375000002
 20
171.50009155274
 30
0.0
  0
POINT
  5
6FE7
330
6FDF
100
AcDbEntity
  8
DEFPOINTS
  6
CONTINUOUS
 62
     0
100
AcDbPoint
 10
-134.09375000002
 20
-171.4999999999999
 30
0.0
  0
POINT
  5
6FE8
330
6FDF
100
AcDbEntity
  8
DEFPOINTS
  6
CONTINUOUS
 62
     0
100
AcDbPoint
 10
-215.1571359183817
 20
-171.4999999999999
 30
0.0
  0
ENDBLK
  5
6FEA
330
6FDF
100
AcDbEntity
  8
0
100
AcDbBlockEnd
  0
BLOCK
  5
703D
330
7033
100
AcDbEntity
  8
0
100
AcDbBlockBegin
  2
*D37
 70
     1
 10
0.0
 20
0.0
 30
0.0
  3
*D37
  1

  0
LINE
  5
7040
330
7033
100
AcDbEntity
  8
30
  6
CONTINUOUS
 62
     0
100
AcDbLine
 10
-134.09375000002
 20
-172.4999999999999
 30
0.0
 11
-134.09375000002
 21
-196.8801716579805
 31
0.0
  0
LINE
  5
7041
330
7033
100
AcDbEntity
  8
30
  6
CONTINUOUS
 62
     0
100
AcDbLine
 10
133.9063720703
 20
-172.4999999999999
 30
0.0
 11
133.9063720703
 21
-196.8801716579805
 31
0.0
  0
LINE
  5
7042
330
7033
100
AcDbEntity
  8
30
  6
CONTINUOUS
 62
     0
100
AcDbLine
 10
-132.09375000002
 20
-196.3801716579805
 30
0.0
 11
131.9063720703
 21
-196.3801716579805
 31
0.0
  0
INSERT
  5
7043
330
7033
100
AcDbEntity
  8
30
  6
CONTINUOUS
 62
     0
100
AcDbBlockReference
  2
_OPEN
 10
-134.09375000002
 20
-196.3801716579805
 30
0.0
 41
2.0
 42
2.0
 43
2.0
 50
180.0
  0
INSERT
  5
7044
330
7033
100
AcDbEntity
  8
30
  6
CONTINUOUS
 62
     0
100
AcDbBlockReference
  2
_OPEN
 10
133.9063720703
 20
-196.3801716579805
 30
0.0
 41
2.0
 42
2.0
 43
2.0
  0
MTEXT
  5
7045
330
7033
100
AcDbEntity
  8
30
  6
CONTINUOUS
 62
     0
100
AcDbMText
 10
-0.093688964860007
 20
-192.8801716579805
 30
0.0
 40
5.0
 41
0.0
 71
     5
 72
     1
  1
\A1;268
1001
ACAD
1000
MTEXTBEGIN
1070
    73
1070
     1
1070
    44
1040
1.0
1070
    74
1070
     0
1000
MTEXTEND
  0
POINT
  5
7046
330
7033
100
AcDbEntity
  8
DEFPOINTS
  6
CONTINUOUS
 62
     0
100
AcDbPoint
 10
-134.09375000002
 20
-171.4999999999999
 30
0.0
  0
POINT
  5
7047
330
7033
100
AcDbEntity
  8
DEFPOINTS
  6
CONTINUOUS
 62
     0
100
AcDbPoint
 10
133.9063720703
 20
-171.4999999999999
 30
0.0
  0
POINT
  5
7048
330
7033
100
AcDbEntity
  8
DEFPOINTS
  6
CONTINUOUS
 62
     0
100
AcDbPoint
 10
133.9063720703
 20
-196.3801716579805
 30
0.0
  0
ENDBLK
  5
703E
330
7033
100
AcDbEntity
  8
0
100
AcDbBlockEnd
  0
BLOCK
  5
7244
330
7238
100
AcDbEntity
  8
0
100
AcDbBlockBegin
  2
*D40
 70
     1
 10
0.0
 20
0.0
 30
0.0
  3
*D40
  1

  0
LINE
  5
7246
330
7238
100
AcDbEntity
  8
30
  6
CONTINUOUS
 62
     0
100
AcDbLine
 10
0.9999999999999715
 20
-0.0000000000000003
 30
0.0
 11
74.268424009716
 21
-0.000000000000021
 31
0.0
  0
LINE
  5
7247
330
7238
100
AcDbEntity
  8
30
  6
CONTINUOUS
 62
     0
100
AcDbLine
 10
72.0
 20
-4.5
 30
0.0
 11
74.268424009716
 21
-4.5
 31
0.0
  0
LINE
  5
7248
330
7238
100
AcDbEntity
  8
30
  6
CONTINUOUS
 62
     0
100
AcDbLine
 10
73.768424009716
 20
-6.5
 30
0.0
 11
73.768424009716
 21
-8.5
 31
0.0
  0
LINE
  5
7249
330
7238
100
AcDbEntity
  8
30
  6
CONTINUOUS
 62
     0
100
AcDbLine
 10
73.768424009716
 20
1.999999999999979
 30
0.0
 11
73.768424009716
 21
8.89015640546221
 31
0.0
  0
LINE
  5
724A
330
7238
100
AcDbEntity
  8
30
  6
CONTINUOUS
 62
     0
100
AcDbLine
 10
73.768424009716
 20
8.89015640546221
 30
0.0
 11
84.768424009716
 21
8.890156405462207
 31
0.0
  0
INSERT
  5
724B
330
7238
100
AcDbEntity
  8
30
  6
CONTINUOUS
 62
     0
100
AcDbBlockReference
  2
_OPEN
 10
73.768424009716
 20
-4.5
 30
0.0
 41
2.0
 42
2.0
 43
2.0
 50
90.0
  0
INSERT
  5
724C
330
7238
100
AcDbEntity
  8
30
  6
CONTINUOUS
 62
     0
100
AcDbBlockReference
  2
_OPEN
 10
73.768424009716
 20
-0.0000000000000209
 30
0.0
 41
2.0
 42
2.0
 43
2.0
 50
270.0
  0
MTEXT
  5
724D
330
7238
100
AcDbEntity
  8
30
  6
CONTINUOUS
 62
     0
100
AcDbMText
 10
79.768424009716
 20
12.39015640546222
 30
0.0
 40
5.0
 41
0.0
 71
     5
 72
     1
  1
\A1;4.5
1001
ACAD
1000
MTEXTBEGIN
1070
    73
1070
     1
1070
    44
1040
1.0
1070
    74
1070
     0
1000
MTEXTEND
  0
POINT
  5
724E
330
7238
100
AcDbEntity
  8
DEFPOINTS
  6
CONTINUOUS
 62
     0
100
AcDbPoint
 10
-0.0000000000000284
 20
0.0
 30
0.0
  0
POINT
  5
724F
330
7238
100
AcDbEntity
  8
DEFPOINTS
  6
CONTINUOUS
 62
     0
100
AcDbPoint
 10
71.0
 20
-4.5
 30
0.0
  0
POINT
  5
7250
330
7238
100
AcDbEntity
  8
DEFPOINTS
  6
CONTINUOUS
 62
     0
100
AcDbPoint
 10
73.768424009716
 20
-4.5
 30
0.0
  0
ENDBLK
  5
7245
330
7238
100
AcDbEntity
  8
0
100
AcDbBlockEnd
  0
ENDSEC
  0
SECTION
  2
ENTITIES
  0
LINE
  5
B4
330
1E
100
AcDbEntity
  8
16
100
AcDbLine
 10
0.0
 20
-170.0272802992447
 30
0.0
 11
0.0
 21
217.0
 31
0.0
  0
MTEXT
  5
BF3
330
1E
100
AcDbEntity
  8
24
  6
CONTINUOUS
100
AcDbMText
 10
142.1181906098743
 20
177.5
 30
0.0
 40
3.0
 41
0.0
 71
     1
 72
     1
  1
\A1;
1001
ACAD
1000
MTEXTBEGIN
1070
    73
1070
     1
1070
    44
1040
1.0
1070
    74
1070
     0
1000
MTEXTEND
  0
LINE
  5
1C9A
330
1E
100
AcDbEntity
  8
16
100
AcDbLine
 10
0.0
 20
197.0
 30
0.0
 11
0.0
 21
336.0
 31
0.0
  0
LINE
  5
1C9B
330
1E
100
AcDbEntity
  8
16
100
AcDbLine
 10
343.8408026043632
 20
0.0
 30
0.0
 11
116.0454807032225
 21
0.0
 31
0.0
  0
LINE
  5
2260
330
1E
100
AcDbEntity
  8
16
100
AcDbLine
 10
167.3950046580739
 20
-400.0
 30
0.0
 11
-140.1065049170443
 21
-400.0
 31
0.0
  0
LINE
  5
4C5A
330
1E
100
AcDbEntity
  8
16
100
AcDbLine
 10
157.4336967785911
 20
0.0
 30
0.0
 11
-140.1065049170443
 21
0.0
 31
0.0
  0
LWPOLYLINE
  5
62AB
330
1E
100
AcDbEntity
  8
16
100
AcDbPolyline
 90
        2
 70
     0
 43
0.0
 10
0.0
 20
-570.0272802992446
 10
0.0
 20
-223.6562499999999
  0
LWPOLYLINE
  5
6462
330
1E
100
AcDbEntity
  8
10
  6
CONTINUOUS
100
AcDbPolyline
 90
        6
 70
     0
 43
0.0
 10
134.0
 20
282.0
 10
-134.0
 20
282.0
 10
134.0
 20
282.0
 10
134.0
 20
264.0
 10
-134.0
 20
264.0
 10
-134.0
 20
282.0
  0
LINE
  5
6463
330
1E
100
AcDbEntity
  8
18
100
AcDbLine
 10
-210.0
 20
290.0000000000007
 30
0.0
 11
214.0
 21
290.0000000000007
 31
0.0
  0
LWPOLYLINE
  5
6467
330
1E
100
AcDbEntity
  8
10
  6
CONTINUOUS
100
AcDbPolyline
 90
        4
 70
     0
 43
0.0
 10
-105.0
 20
282.0
 10
-105.0
 20
376.0
 10
105.0
 20
375.9999999999998
 10
105.0
 20
282.0
  0
LINE
  5
6469
330
1E
100
AcDbEntity
  8
18
100
AcDbLine
 10
214.0
 20
282.0
 30
0.0
 11
134.0
 21
282.0
 31
0.0
  0
LINE
  5
646A
330
1E
100
AcDbEntity
  8
18
100
AcDbLine
 10
214.0
 20
286.0
 30
0.0
 11
214.0
 21
282.0
 31
0.0
  0
LINE
  5
6480
330
1E
100
AcDbEntity
  8
18
100
AcDbLine
 10
-210.0
 20
282.0
 30
0.0
 11
-134.0
 21
282.0
 31
0.0
  0
LINE
  5
6481
330
1E
100
AcDbEntity
  8
18
100
AcDbLine
 10
-210.0
 20
282.0
 30
0.0
 11
-210.0
 21
286.0
 31
0.0
  0
LWPOLYLINE
  5
6608
330
1E
100
AcDbEntity
  8
10
  6
CONTINOUS
100
AcDbPolyline
 90
        4
 70
     0
 43
0.0
 10
-31.00006103516011
 20
261.9998779297
 10
-31.00006103516011
 20
257.0
 10
30.99993896483988
 20
257.0
 10
30.99993896483988
 20
261.9998779297
  0
LWPOLYLINE
  5
6609
330
1E
100
AcDbEntity
  8
10
  6
CONTINOUS
100
AcDbPolyline
 90
        4
 70
     0
 10
-15.86512012400123
 20
253.0
 40
0.001
 41
0.001
 10
-15.41352112400125
 20
230.0
 40
0.001
 41
0.001
 10
15.58647887599875
 20
230.0
 40
0.001
 41
0.001
 10
16.03807787599873
 20
253.0
 40
0.0
 41
0.0
  0
LWPOLYLINE
  5
660A
330
1E
100
AcDbEntity
  8
10
  6
CONTINOUS
100
AcDbPolyline
 90
        4
 70
     0
 10
-22.14996337891011
 20
257.0
 40
0.001
 41
0.001
 10
-22.14996337891011
 20
253.0
 40
0.001
 41
0.001
 10
21.85003662108988
 20
253.0
 40
0.001
 41
0.001
 10
21.85003662108988
 20
257.0
 40
0.0
 41
0.0
  0
MTEXT
  5
678B
330
1E
100
AcDbEntity
  8
19
  6
CONTINUOUS
100
AcDbMText
 10
297.3059054635005
 20
403.2213101980037
 30
0.0
 40
7.0
 41
94.0
 71
     1
 72
     5
  1
XE600NS 3P FP\PXS600NE 3P FP \PXH600NE 3P FP\PXS600CS 3P FP\PXS600NS 3P FP
  7
STANDARD1
1001
ACAD
1000
MTEXTBEGIN
1070
    73
1070
     1
1070
    44
1040
1.0
1070
    74
1070
     0
1000
MTEXTEND
  0
LINE
  5
68D4
330
1E
100
AcDbEntity
  8
30
  6
CONTINUOUS
100
AcDbLine
 10
290.6517709153449
 20
131.0
 30
0.0
 11
290.6517709153449
 21
-151.0
 31
0.0
  0
LINE
  5
6922
330
1E
100
AcDbEntity
  8
21
  6
CONTINUOUS
100
AcDbLine
 10
518.651770915345
 20
-142.5
 30
0.0
 11
442.1517709153449
 21
-142.5
 31
0.0
  0
LINE
  5
6923
330
1E
100
AcDbEntity
  8
21
  6
CONTINUOUS
100
AcDbLine
 10
518.651770915345
 20
-100.5
 30
0.0
 11
442.1517709153449
 21
-100.5
 31
0.0
  0
CIRCLE
  5
6924
330
1E
100
AcDbEntity
  8
24
  6
CONTINOUS
100
AcDbCircle
 10
498.6517709153449
 20
-121.5
 30
0.0
 40
6.5
  0
LINE
  5
6925
330
1E
100
AcDbEntity
  8
21
  6
CONTINUOUS
100
AcDbLine
 10
443.651770915345
 20
126.4996032714799
 30
0.0
 11
518.651770915345
 21
126.4996032714799
 31
0.0
  0
LINE
  5
6926
330
1E
100
AcDbEntity
  8
21
  6
CONTINUOUS
100
AcDbLine
 10
443.651770915345
 20
116.4996032714799
 30
0.0
 11
518.651770915345
 21
116.4996032714799
 31
0.0
  0
LINE
  5
6929
330
1E
100
AcDbEntity
  8
18
100
AcDbLine
 10
316.6517709153449
 20
-136.4999999999999
 30
0.0
 11
316.6517709153449
 21
136.49960327148
 31
0.0
  0
LINE
  5
692A
330
1E
100
AcDbEntity
  8
10
  6
CONTINUOUS
100
AcDbLine
 10
288.6517709153449
 20
-30.24731445312994
 30
0.0
 11
288.6517709153449
 21
-49.5
 31
0.0
  0
LINE
  5
692C
330
1E
100
AcDbEntity
  8
18
100
AcDbLine
 10
308.6517709153449
 20
-171.5505371093799
 30
0.0
 11
308.6517709153449
 21
-201.47633361817
 31
0.0
  0
LINE
  5
692D
330
1E
100
AcDbEntity
  8
18
100
AcDbLine
 10
316.6517709153449
 20
-201.47633361817
 30
0.0
 11
316.6517709153449
 21
-127.5
 31
0.0
  0
LINE
  5
692F
330
1E
100
AcDbEntity
  8
10
  6
CONTINUOUS
100
AcDbLine
 10
316.6517709153449
 20
-136.4999999999999
 30
0.0
 11
402.6517709153449
 21
-136.4999999999999
 31
0.0
  0
LINE
  5
6931
330
1E
100
AcDbEntity
  8
10
  6
CONTINUOUS
100
AcDbLine
 10
288.6517709153449
 20
-49.5
 30
0.0
 11
290.6517709153449
 21
-49.5
 31
0.0
  0
DIMENSION
  5
6932
330
1E
100
AcDbEntity
  8
L210_
100
AcDbDimension
  2
*D14
 10
426.0790974850666
 20
-128.0
 30
0.0
 11
426.0790974850666
 21
-120.9399318439614
 31
0.0
 70
   160
  1
13
  3
STANDARD
100
AcDbAlignedDimension
 13
467.5581429856449
 23
-115.0
 33
0.0
 14
467.5581429856449
 24
-128.0
 34
0.0
 50
270.0
100
AcDbRotatedDimension
1001
ACAD
1000
DSTYLE
1002
{
1070
   287
1070
     5
1070
   287
1070
     5
1070
   279
1070
     2
1070
   140
1040
5.0
1002
}
  0
LINE
  5
6933
330
1E
100
AcDbEntity
  8
21
  6
CONTINUOUS
100
AcDbLine
 10
442.1517709153449
 20
-100.5
 30
0.0
 11
432.6517709153449
 21
-110.0
 31
0.0
  0
LINE
  5
6934
330
1E
100
AcDbEntity
  8
10
  6
CONTINUOUS
100
AcDbLine
 10
402.6517709153449
 20
-136.4999999999999
 30
0.0
 11
402.6517709153449
 21
-100.50036621094
 31
0.0
  0
LINE
  5
6935
330
1E
100
AcDbEntity
  8
10
  6
CONTINUOUS
100
AcDbLine
 10
396.6517709153449
 20
-136.4999999999999
 30
0.0
 11
396.6517709153449
 21
-100.50036621094
 31
0.0
  0
LINE
  5
6936
330
1E
100
AcDbEntity
  8
21
  6
CONTINUOUS
100
AcDbLine
 10
442.1517709153449
 20
-142.5
 30
0.0
 11
432.6517709153449
 21
-133.0
 31
0.0
  0
LINE
  5
6937
330
1E
100
AcDbEntity
  8
L150_
  6
CONTINUOUS
 62
     7
100
AcDbLine
 10
432.6517709153449
 20
-133.0
 30
0.0
 11
432.6517709153449
 21
-110.0
 31
0.0
  0
LINE
  5
6938
330
1E
100
AcDbEntity
  8
21
  6
CONTINUOUS
100
AcDbLine
 10
432.6517709153449
 20
-110.0
 30
0.0
 11
402.6517709153449
 21
-110.0
 31
0.0
  0
LINE
  5
6939
330
1E
100
AcDbEntity
  8
21
  6
CONTINUOUS
100
AcDbLine
 10
402.6517709153449
 20
-133.0
 30
0.0
 11
432.6517709153449
 21
-133.0
 31
0.0
  0
LINE
  5
693A
330
1E
100
AcDbEntity
  8
24
  6
CONTINOUS
100
AcDbLine
 10
458.6517709153449
 20
-128.0
 30
0.0
 11
466.6517709153449
 21
-128.0
 31
0.0
  0
LINE
  5
693B
330
1E
100
AcDbEntity
  8
24
  6
CONTINOUS
100
AcDbLine
 10
466.6517709153449
 20
-115.0
 30
0.0
 11
458.6517709153449
 21
-115.0
 31
0.0
  0
ARC
  5
693C
330
1E
100
AcDbEntity
  8
24
  6
CONTINOUS
100
AcDbCircle
 10
466.6517709153449
 20
-121.5
 30
0.0
 40
6.5
100
AcDbArc
 50
270.0
 51
90.0
  0
ARC
  5
693D
330
1E
100
AcDbEntity
  8
24
  6
CONTINOUS
100
AcDbCircle
 10
458.6517709153449
 20
-121.5
 30
0.0
 40
6.5
100
AcDbArc
 50
90.0
 51
270.0
  0
LINE
  5
693E
330
1E
100
AcDbEntity
  8
10
  6
CONTINUOUS
100
AcDbLine
 10
258.2153695481449
 20
23.42919921875
 30
0.0
 11
288.2450326340449
 21
11.87744140625
 31
0.0
  0
LINE
  5
693F
330
1E
100
AcDbEntity
  8
10
  6
CONTINUOUS
100
AcDbLine
 10
261.9305795090449
 20
33.783203125
 30
0.0
 11
288.6517709153449
 21
24.87548828125
 31
0.0
  0
ARC
  5
6940
330
1E
100
AcDbEntity
  8
30
  6
CONTINUOUS
100
AcDbCircle
 10
355.1517709153449
 20
-8.500366210940001
 30
0.0
 40
103.4999999999841
100
AcDbArc
 50
161.7296724508951
 51
180.0277765548558
  0
LINE
  5
6941
330
1E
100
AcDbEntity
  8
10
  6
CONTINUOUS
100
AcDbLine
 10
261.9305795090449
 20
33.783203125
 30
0.0
 11
258.2153695481449
 21
23.42919921875
 31
0.0
  0
LINE
  5
6942
330
1E
100
AcDbEntity
  8
24
  6
CONTINOUS
100
AcDbLine
 10
473.1517709153449
 20
116.4996032714799
 30
0.0
 11
473.1517709153449
 21
126.4996032714799
 31
0.0
  0
LINE
  5
6943
330
1E
100
AcDbEntity
  8
24
  6
CONTINOUS
100
AcDbLine
 10
452.1517709153449
 20
116.4996032714799
 30
0.0
 11
452.1517709153449
 21
126.4996032714799
 31
0.0
  0
LINE
  5
6944
330
1E
100
AcDbEntity
  8
24
  6
CONTINOUS
100
AcDbLine
 10
492.1517709153449
 20
116.4996032714799
 30
0.0
 11
492.1517709153449
 21
126.4996032714799
 31
0.0
  0
LINE
  5
6945
330
1E
100
AcDbEntity
  8
10
  6
CONTINUOUS
100
AcDbLine
 10
402.6517709153449
 20
91.49966430663999
 30
0.0
 11
402.6517709153449
 21
136.49960327148
 31
0.0
  0
LINE
  5
6946
330
1E
100
AcDbEntity
  8
10
  6
CONTINUOUS
100
AcDbLine
 10
396.6517709153449
 20
91.49966430663999
 30
0.0
 11
396.6517709153449
 21
136.49960327148
 31
0.0
  0
LINE
  5
6947
330
1E
100
AcDbEntity
  8
24
  6
CONTINOUS
100
AcDbLine
 10
466.6517709153449
 20
105.95474243164
 30
0.0
 11
466.6517709153449
 21
134.74179077148
 31
0.0
  0
LINE
  5
6948
330
1E
100
AcDbEntity
  8
21
  6
CONTINUOUS
100
AcDbLine
 10
432.6517709153449
 20
109.9996032714799
 30
0.0
 11
432.6517709153449
 21
132.9996032714799
 31
0.0
  0
LINE
  5
6949
330
1E
100
AcDbEntity
  8
24
  6
CONTINOUS
100
AcDbLine
 10
458.6517709153449
 20
134.7348327636699
 30
0.0
 11
458.6517709153449
 21
105.95474243164
 31
0.0
  0
LINE
  5
694A
330
1E
100
AcDbEntity
  8
L150_
  6
CONTINUOUS
 62
     7
100
AcDbLine
 10
443.651770915345
 20
126.4996032714799
 30
0.0
 11
443.651770915345
 21
116.4996032714799
 31
0.0
  0
LINE
  5
694C
330
1E
100
AcDbEntity
  8
10
  6
CONTINUOUS
100
AcDbLine
 10
288.6517709153449
 20
13.14624023437005
 30
0.0
 11
288.6517709153449
 21
40.49975585937005
 31
0.0
  0
ARC
  5
694D
330
1E
100
AcDbEntity
  8
10
  6
CONTINUOUS
100
AcDbCircle
 10
354.1517709153449
 20
-8.550537109379945
 30
0.0
 40
69.0
100
AcDbArc
 50
180.0
 51
198.3273696465645
  0
ARC
  5
694E
330
1E
100
AcDbEntity
  8
10
  6
CONTINUOUS
100
AcDbCircle
 10
354.1517709153449
 20
-8.550537109379945
 30
0.0
 40
68.99999999997914
100
AcDbArc
 50
161.6726267109435
 51
180.0
  0
LINE
  5
694F
330
1E
100
AcDbEntity
  8
10
  6
CONTINUOUS
100
AcDbLine
 10
290.6517709153449
 20
40.49975585937005
 30
0.0
 11
288.6517709153449
 21
40.49975585937005
 31
0.0
  0
LINE
  5
6950
330
1E
100
AcDbEntity
  8
21
  6
CONTINUOUS
100
AcDbLine
 10
432.6517709153449
 20
109.9996032714799
 30
0.0
 11
443.651770915345
 21
116.4996032714799
 31
0.0
  0
LINE
  5
6951
330
1E
100
AcDbEntity
  8
21
  6
CONTINUOUS
100
AcDbLine
 10
402.6517709153449
 20
109.9996032714799
 30
0.0
 11
432.6517709153449
 21
109.9996032714799
 31
0.0
  0
LINE
  5
6952
330
1E
100
AcDbEntity
  8
10
  6
CONTINUOUS
100
AcDbLine
 10
402.6517709153449
 20
136.49960327148
 30
0.0
 11
316.6517709153449
 21
136.49960327148
 31
0.0
  0
LINE
  5
6953
330
1E
100
AcDbEntity
  8
18
100
AcDbLine
 10
316.6517709153449
 20
137.5848083496099
 30
0.0
 11
316.6517709153449
 21
196.8069763183599
 31
0.0
  0
LINE
  5
6954
330
1E
100
AcDbEntity
  8
18
100
AcDbLine
 10
308.6517709153449
 20
171.44955444336
 30
0.0
 11
308.6517709153449
 21
196.8069763183599
 31
0.0
  0
LINE
  5
6956
330
1E
100
AcDbEntity
  8
21
  6
CONTINUOUS
100
AcDbLine
 10
443.651770915345
 20
126.4996032714799
 30
0.0
 11
432.6517709153449
 21
132.9996032714799
 31
0.0
  0
LINE
  5
6957
330
1E
100
AcDbEntity
  8
21
  6
CONTINUOUS
100
AcDbLine
 10
432.6517709153449
 20
132.9996032714799
 30
0.0
 11
402.6517709153449
 21
132.9996032714799
 31
0.0
  0
LINE
  5
6958
330
1E
100
AcDbEntity
  8
21
  6
CONTINUOUS
100
AcDbLine
 10
518.651770915345
 20
-142.5
 30
0.0
 11
518.651770915345
 21
-100.5
 31
0.0
  0
LINE
  5
6959
330
1E
100
AcDbEntity
  8
24
  6
CONTINOUS
100
AcDbLine
 10
505.151770915345
 20
116.4996032714799
 30
0.0
 11
505.151770915345
 21
126.4996032714799
 31
0.0
  0
LINE
  5
695A
330
1E
100
AcDbEntity
  8
21
  6
CONTINUOUS
100
AcDbLine
 10
518.651770915345
 20
116.4996032714799
 30
0.0
 11
518.651770915345
 21
126.4996032714799
 31
0.0
  0
LINE
  5
695B
330
1E
100
AcDbEntity
  8
24
  6
CONTINOUS
100
AcDbLine
 10
498.6517709153449
 20
133.94198608398
 30
0.0
 11
498.6517709153449
 21
105.95474243164
 31
0.0
  0
LWPOLYLINE
  5
6975
330
1E
100
AcDbEntity
  8
10
  6
CONTINUOUS
100
AcDbPolyline
 90
        4
 70
     1
 43
0.0
 10
308.6517709153449
 20
-171.5505371093799
 10
290.6517709153449
 20
-171.5505371093799
 10
290.6517709153449
 20
171.44955444336
 10
308.6517709153449
 20
171.44955444336
  0
LWPOLYLINE
  5
6976
330
1E
100
AcDbEntity
  8
10
  6
CONTINUOUS
100
AcDbPolyline
 90
        4
 70
     0
 43
0.0
 10
316.6517709153449
 20
91.49966430663999
 10
405.2517465012449
 20
91.49966430663999
 10
405.2517465012449
 20
-100.50036621094
 10
316.6517709153449
 20
-100.50036621094
  0
LWPOLYLINE
  5
6977
330
1E
100
AcDbEntity
  8
24
  6
CONTINOUS
100
AcDbPolyline
 90
        2
 70
     0
 43
0.0
 10
490.454505290345
 20
-121.5
 10
506.8490365403449
 20
-121.5
  0
LWPOLYLINE
  5
6978
330
1E
100
AcDbEntity
  8
24
  6
CONTINOUS
100
AcDbPolyline
 90
        2
 70
     0
 43
0.0
 10
498.6517709153449
 20
-113.302734375
 10
498.6517709153449
 20
-129.697265625
  0
LWPOLYLINE
  5
6979
330
1E
100
AcDbEntity
  8
24
  6
CONTINOUS
100
AcDbPolyline
 90
        2
 70
     0
 43
0.0
 10
450.4545052903449
 20
-121.5
 10
466.8490365403449
 20
-121.5
  0
LWPOLYLINE
  5
697A
330
1E
100
AcDbEntity
  8
24
  6
CONTINOUS
100
AcDbPolyline
 90
        2
 70
     0
 43
0.0
 10
458.6517709153449
 20
-113.302734375
 10
458.6517709153449
 20
-129.697265625
  0
LWPOLYLINE
  5
6A1A
330
1E
100
AcDbEntity
  8
24
  6
CONTINOUS
100
AcDbPolyline
 90
        2
 70
     0
 43
0.0
 10
458.4545052903449
 20
-121.5
 10
474.849036540345
 20
-121.5
  0
LWPOLYLINE
  5
6A1B
330
1E
100
AcDbEntity
  8
24
  6
CONTINOUS
100
AcDbPolyline
 90
        2
 70
     0
 43
0.0
 10
466.6517709153449
 20
-113.302734375
 10
466.6517709153449
 20
-129.697265625
  0
DIMENSION
  5
6A1C
330
1E
100
AcDbEntity
  8
30
  6
CONTINUOUS
100
AcDbDimension
  2
*D15
 10
308.6517709153449
 20
-228.0
 30
0.0
 11
280.1517769965887
 21
-224.5
 31
0.0
 70
    32
  3
STANDARD
100
AcDbAlignedDimension
 13
251.6517830778324
 23
-8.550542215863817
 33
0.0
 14
308.6517709153449
 24
-201.47633361817
 34
0.0
100
AcDbRotatedDimension
  0
DIMENSION
  5
6A29
330
1E
100
AcDbEntity
  8
30
  6
CONTINUOUS
100
AcDbDimension
  2
*D16
 10
518.651770915345
 20
-228.0
 30
0.0
 11
413.651770915345
 21
-224.5
 31
0.0
 70
    32
  3
STANDARD
100
AcDbAlignedDimension
 13
308.6517709153449
 23
-201.47633361817
 33
0.0
 14
518.651770915345
 24
-142.5
 34
0.0
100
AcDbRotatedDimension
1001
ACAD
1000
DSTYLE
1002
{
1070
   287
1070
     4
1070
   287
1070
     4
1070
   279
1070
     1
1002
}
  0
DIMENSION
  5
6A36
330
1E
100
AcDbEntity
  8
30
  6
CONTINUOUS
100
AcDbDimension
  2
*D17
 10
308.6517709153449
 20
-213.0
 30
0.0
 11
299.6517709153449
 21
-209.5
 31
0.0
 70
    32
  3
STANDARD
100
AcDbAlignedDimension
 13
290.6517709153449
 23
-171.5505371093799
 33
0.0
 14
308.6517709153449
 24
-202.4763336181699
 34
0.0
100
AcDbRotatedDimension
  0
DIMENSION
  5
6A43
330
1E
100
AcDbEntity
  8
30
  6
CONTINUOUS
100
AcDbDimension
  2
*D18
 10
466.6517709153449
 20
-213.0
 30
0.0
 11
462.6517709153449
 21
-209.5
 31
0.0
 70
    32
  3
STANDARD
100
AcDbAlignedDimension
 13
458.6517709153449
 23
-129.697265625
 33
0.0
 14
466.6517709153449
 24
-129.697265625
 34
0.0
100
AcDbRotatedDimension
  0
DIMENSION
  5
6A50
330
1E
100
AcDbEntity
  8
30
  6
CONTINUOUS
100
AcDbDimension
  2
*D19
 10
498.6517709153449
 20
-213.0
 30
0.0
 11
482.6517709153449
 21
-209.5
 31
0.0
 70
    32
  3
STANDARD
100
AcDbAlignedDimension
 13
466.6517709153449
 23
-129.697265625
 33
0.0
 14
498.6517709153449
 24
-129.697265625
 34
0.0
100
AcDbRotatedDimension
1001
ACAD
1000
DSTYLE
1002
{
1070
   287
1070
     4
1070
   287
1070
     4
1070
   279
1070
     1
1002
}
  0
DIMENSION
  5
6A5D
330
1E
100
AcDbEntity
  8
30
  6
CONTINUOUS
100
AcDbDimension
  2
*D20
 10
518.651770915345
 20
-213.0
 30
0.0
 11
508.6517709153449
 21
-209.5
 31
0.0
 70
    32
  3
STANDARD
100
AcDbAlignedDimension
 13
498.6517709153449
 23
-129.697265625
 33
0.0
 14
518.651770915345
 24
-143.5
 34
0.0
100
AcDbRotatedDimension
1001
ACAD
1000
DSTYLE
1002
{
1070
   287
1070
     4
1070
   287
1070
     4
1070
   279
1070
     1
1002
}
  0
DIMENSION
  5
6A6A
330
1E
100
AcDbEntity
  8
30
  6
CONTINUOUS
100
AcDbDimension
  2
*D21
 10
543.651770915345
 20
-142.5
 30
0.0
 11
540.1517709153449
 21
-121.4999999999999
 31
0.0
 70
    32
  3
STANDARD
100
AcDbAlignedDimension
 13
518.651770915345
 23
-100.5
 33
0.0
 14
518.651770915345
 24
-142.5
 34
0.0
 50
90.0
100
AcDbRotatedDimension
  0
DIMENSION
  5
6A77
330
1E
100
AcDbEntity
  8
30
  6
CONTINUOUS
100
AcDbDimension
  2
*D22
 10
543.651770915345
 20
116.4996032714799
 30
0.0
 11
540.1517709153449
 21
121.49960327148
 31
0.0
 70
    32
  3
STANDARD
100
AcDbAlignedDimension
 13
518.651770915345
 23
126.4996032714799
 33
0.0
 14
518.651770915345
 24
116.4996032714799
 34
0.0
 50
90.0
100
AcDbRotatedDimension
  0
DIMENSION
  5
6A91
330
1E
100
AcDbEntity
  8
30
  6
CONTINUOUS
100
AcDbDimension
  2
*D23
 10
576.651770915345
 20
-0.0000000000000486
 30
0.0
 11
573.1517709153449
 21
60.74980163574006
 31
0.0
 70
    32
  3
STANDARD
100
AcDbAlignedDimension
 13
518.651770915345
 23
121.4996032714799
 33
0.0
 14
405.2517465012449
 24
0.0
 34
0.0
 50
90.0
100
AcDbRotatedDimension
  0
DIMENSION
  5
6A9E
330
1E
100
AcDbEntity
  8
30
  6
CONTINUOUS
100
AcDbDimension
  2
*D24
 10
576.651770915345
 20
-121.5
 30
0.0
 11
573.1517709153449
 21
-60.74999999999993
 31
0.0
 70
    32
  3
STANDARD
100
AcDbAlignedDimension
 13
405.2517465012449
 23
0.0
 33
0.0
 14
506.8490365403449
 24
-121.5
 34
0.0
 50
90.0
100
AcDbRotatedDimension
1001
ACAD
1000
DSTYLE
1002
{
1070
   287
1070
     4
1070
   287
1070
     4
1070
   279
1070
     1
1002
}
  0
CIRCLE
  5
6B61
330
1E
100
AcDbEntity
  8
12
  6
DASHDOT
 62
     3
100
AcDbCircle
 10
-122.5
 20
-463.4999999999999
 30
0.0
 40
4.5
  0
CIRCLE
  5
6B63
330
1E
100
AcDbEntity
  8
12
  6
DASHDOT
 62
     3
100
AcDbCircle
 10
122.5
 20
-463.4999999999999
 30
0.0
 40
4.5
  0
CIRCLE
  5
6B69
330
1E
100
AcDbEntity
  8
12
  6
DASHDOT
 62
     3
100
AcDbCircle
 10
-122.5
 20
-336.49996948242
 30
0.0
 40
4.5
  0
CIRCLE
  5
6B6B
330
1E
100
AcDbEntity
  8
12
  6
DASHDOT
 62
     3
100
AcDbCircle
 10
122.5
 20
-336.49996948242
 30
0.0
 40
4.5
  0
LWPOLYLINE
  5
6B6E
330
1E
100
AcDbEntity
  8
18
100
AcDbPolyline
 90
        4
 70
     1
 43
0.0
 10
-134.0
 20
-228.49990844726
 10
134.0
 20
-228.49990844726
 10
134.0
 20
-571.4999999999999
 10
-134.0
 20
-571.4999999999999
  0
LWPOLYLINE
  5
6B6F
330
1E
100
AcDbEntity
  8
11
  6
CONTINUOUS
100
AcDbPolyline
 90
        4
 70
     1
 43
0.0
 10
113.0
 20
-566.5
 10
113.0
 20
-233.49990844726
 10
-113.0
 20
-233.49990844726
 10
-113.0
 20
-566.5
  0
LWPOLYLINE
  5
6B86
330
1E
100
AcDbEntity
  8
12
  6
DASHDOT
 62
     3
100
AcDbPolyline
 90
        2
 70
     0
 43
0.0
 10
107.4999999999999
 20
-336.49996948242
 10
137.5
 20
-336.49996948242
  0
LWPOLYLINE
  5
6B87
330
1E
100
AcDbEntity
  8
12
  6
DASHDOT
 62
     3
100
AcDbPolyline
 90
        2
 70
     0
 43
0.0
 10
122.5
 20
-351.49996948242
 10
122.5
 20
-321.49996948242
  0
LWPOLYLINE
  5
6B88
330
1E
100
AcDbEntity
  8
12
  6
DASHDOT
 62
     3
100
AcDbPolyline
 90
        2
 70
     0
 43
0.0
 10
107.4999999999999
 20
-463.4999999999999
 10
137.5
 20
-463.4999999999999
  0
LWPOLYLINE
  5
6B89
330
1E
100
AcDbEntity
  8
12
  6
DASHDOT
 62
     3
100
AcDbPolyline
 90
        2
 70
     0
 43
0.0
 10
122.5
 20
-478.5
 10
122.5
 20
-448.5
  0
LWPOLYLINE
  5
6B8A
330
1E
100
AcDbEntity
  8
12
  6
DASHDOT
 62
     3
100
AcDbPolyline
 90
        2
 70
     0
 43
0.0
 10
-137.5
 20
-336.49996948242
 10
-107.4999999999999
 20
-336.49996948242
  0
LWPOLYLINE
  5
6B8B
330
1E
100
AcDbEntity
  8
12
  6
DASHDOT
 62
     3
100
AcDbPolyline
 90
        2
 70
     0
 43
0.0
 10
-122.5
 20
-351.49996948242
 10
-122.5
 20
-321.49996948242
  0
LWPOLYLINE
  5
6B8C
330
1E
100
AcDbEntity
  8
12
  6
DASHDOT
 62
     3
100
AcDbPolyline
 90
        2
 70
     0
 43
0.0
 10
-137.5
 20
-463.4999999999999
 10
-107.4999999999999
 20
-463.4999999999999
  0
LWPOLYLINE
  5
6B8D
330
1E
100
AcDbEntity
  8
12
  6
DASHDOT
 62
     3
100
AcDbPolyline
 90
        2
 70
     0
 43
0.0
 10
-122.5
 20
-478.5
 10
-122.5
 20
-448.5
  0
DIMENSION
  5
6B8E
330
1E
100
AcDbEntity
  8
30
  6
CONTINUOUS
100
AcDbDimension
  2
*D25
 10
119.4378411973364
 20
-335.7531580815141
 30
0.0
 11
159.3951846157519
 21
-321.1537685660833
 31
0.0
 70
   163
  1
%%c9
  3
STANDARD
100
AcDbDiametricDimension
 15
124.8256430847444
 25
-333.1127810588061
 35
0.0
 40
0.0
1001
ACAD
1000
DSTYLE
1002
{
1070
   288
1070
     1
1002
}
  0
DIMENSION
  5
6BAA
330
1E
100
AcDbEntity
  8
30
  6
CONTINUOUS
100
AcDbDimension
  2
*D26
 10
113.0
 20
-611.0
 30
0.0
 11
0.0000000000000002
 21
-607.5
 31
0.0
 70
    32
  3
STANDARD
100
AcDbAlignedDimension
 13
-113.0
 23
-566.5
 33
0.0
 14
113.0
 24
-566.5
 34
0.0
100
AcDbRotatedDimension
  0
DIMENSION
  5
6BB7
330
1E
100
AcDbEntity
  8
30
  6
CONTINUOUS
100
AcDbDimension
  2
*D27
 10
122.4999999999999
 20
-639.0
 30
0.0
 11
-0.000000000000014
 21
-635.5
 31
0.0
 70
    32
  3
STANDARD
100
AcDbAlignedDimension
 13
-122.5
 23
-478.5
 33
0.0
 14
122.5
 24
-478.5
 34
0.0
100
AcDbRotatedDimension
  0
DIMENSION
  5
6BC4
330
1E
100
AcDbEntity
  8
30
  6
CONTINUOUS
100
AcDbDimension
  2
*D28
 10
-163.0
 20
-463.4999999999999
 30
0.0
 11
-166.4999999999999
 21
-399.99998474121
 31
0.0
 70
    32
  3
STANDARD
100
AcDbAlignedDimension
 13
-137.5
 23
-336.49996948242
 33
0.0
 14
-137.5
 24
-463.4999999999999
 34
0.0
 50
90.0
100
AcDbRotatedDimension
  0
DIMENSION
  5
6BD1
330
1E
100
AcDbEntity
  8
30
  6
CONTINUOUS
100
AcDbDimension
  2
*D29
 10
-189.0
 20
-566.5
 30
0.0
 11
-192.4999999999999
 21
-399.99995422363
 31
0.0
 70
    32
  3
STANDARD
100
AcDbAlignedDimension
 13
-113.0
 23
-233.49990844726
 33
0.0
 14
-113.0
 24
-566.5
 34
0.0
 50
90.0
100
AcDbRotatedDimension
  0
LWPOLYLINE
  5
6D8E
330
1E
100
AcDbEntity
  8
24
  6
CONTINOUS
100
AcDbPolyline
 90
        2
 70
     0
 43
0.0
 10
0.0000000000000426
 20
463.802734375
 10
0.0000000000000426
 20
480.197265625
  0
LINE
  5
6D8F
330
1E
100
AcDbEntity
  8
21
  6
CONTINUOUS
100
AcDbLine
 10
-21.00000000000001
 20
492.0
 30
0.0
 11
-21.00000000000001
 21
415.5
 31
0.0
  0
LINE
  5
6D90
330
1E
100
AcDbEntity
  8
21
  6
CONTINUOUS
100
AcDbLine
 10
21.00000000000004
 20
492.0
 30
0.0
 11
20.99999999999998
 21
415.5
 31
0.0
  0
LWPOLYLINE
  5
6D91
330
1E
100
AcDbEntity
  8
24
  6
CONTINOUS
100
AcDbPolyline
 90
        2
 70
     0
 43
0.0
 10
-8.197265624999957
 20
472.0
 10
8.197265625000042
 20
472.0
  0
ARC
  5
6D92
330
1E
100
AcDbEntity
  8
24
  6
CONTINOUS
100
AcDbCircle
 10
0.0000000000000426
 20
440.0
 30
0.0
 40
6.5
100
AcDbArc
 50
0.0
 51
180.0
  0
LWPOLYLINE
  5
6D93
330
1E
100
AcDbEntity
  8
24
  6
CONTINOUS
100
AcDbPolyline
 90
        2
 70
     0
 43
0.0
 10
-8.197265625000014
 20
440.0
 10
8.197265624999985
 20
440.0
  0
CIRCLE
  5
6D94
330
1E
100
AcDbEntity
  8
24
  6
CONTINOUS
100
AcDbCircle
 10
0.0000000000000426
 20
472.0
 30
0.0
 40
6.5
  0
ARC
  5
6D95
330
1E
100
AcDbEntity
  8
24
  6
CONTINOUS
100
AcDbCircle
 10
0.0000000000000426
 20
432.0
 30
0.0
 40
6.5
100
AcDbArc
 50
180.0
 51
0.0
  0
LWPOLYLINE
  5
6D96
330
1E
100
AcDbEntity
  8
24
  6
CONTINOUS
100
AcDbPolyline
 90
        2
 70
     0
 43
0.0
 10
-8.197265625000014
 20
432.0
 10
8.197265624999985
 20
432.0
  0
LINE
  5
6D97
330
1E
100
AcDbEntity
  8
L150_
  6
CONTINUOUS
 62
     7
100
AcDbLine
 10
11.49999999999998
 20
406.0
 30
0.0
 11
-11.50000000000001
 21
406.0
 31
0.0
  0
LINE
  5
6D98
330
1E
100
AcDbEntity
  8
21
  6
CONTINUOUS
100
AcDbLine
 10
-11.50000000000001
 20
406.0
 30
0.0
 11
-11.50000000000001
 21
377.0
 31
0.0
  0
LWPOLYLINE
  5
6D99
330
1E
100
AcDbEntity
  8
24
  6
CONTINOUS
100
AcDbPolyline
 90
        2
 70
     0
 43
0.0
 10
-0.0000000000000142
 20
423.8027343749999
 10
-0.0000000000000142
 20
440.1972656249999
  0
LINE
  5
6D9A
330
1E
100
AcDbEntity
  8
21
  6
CONTINUOUS
100
AcDbLine
 10
-21.00000000000001
 20
415.5
 30
0.0
 11
-11.50000000000001
 21
406.0
 31
0.0
  0
LINE
  5
6D9B
330
1E
100
AcDbEntity
  8
24
  6
CONTINOUS
100
AcDbLine
 10
-6.500000000000014
 20
440.0
 30
0.0
 11
-6.500000000000014
 21
432.0
 31
0.0
  0
LWPOLYLINE
  5
6D9C
330
1E
100
AcDbEntity
  8
24
  6
CONTINOUS
100
AcDbPolyline
 90
        2
 70
     0
 43
0.0
 10
-0.0000000000000142
 20
431.8027343749999
 10
-0.0000000000000142
 20
448.1972656249999
  0
LINE
  5
6D9D
330
1E
100
AcDbEntity
  8
21
  6
CONTINUOUS
100
AcDbLine
 10
11.49999999999998
 20
377.0
 30
0.0
 11
11.49999999999998
 21
406.0
 31
0.0
  0
LINE
  5
6D9E
330
1E
100
AcDbEntity
  8
21
  6
CONTINUOUS
100
AcDbLine
 10
20.99999999999998
 20
415.5
 30
0.0
 11
11.49999999999998
 21
406.0
 31
0.0
  0
LINE
  5
6D9F
330
1E
100
AcDbEntity
  8
24
  6
CONTINOUS
100
AcDbLine
 10
6.499999999999985
 20
432.0
 30
0.0
 11
6.499999999999985
 21
440.0
 31
0.0
  0
LINE
  5
6DA0
330
1E
100
AcDbEntity
  8
21
  6
CONTINUOUS
100
AcDbLine
 10
21.00000000000004
 20
492.0
 30
0.0
 11
-21.00000000000001
 21
492.0
 31
0.0
  0
LWPOLYLINE
  5
6DA1
330
1E
100
AcDbEntity
  8
24
  6
CONTINOUS
100
AcDbPolyline
 90
        2
 70
     0
 43
0.0
 10
-69.98174835492555
 20
463.802734375
 10
-69.98174835492555
 20
480.197265625
  0
LINE
  5
6DA2
330
1E
100
AcDbEntity
  8
21
  6
CONTINUOUS
100
AcDbLine
 10
-90.98174835492562
 20
492.0
 30
0.0
 11
-90.98174835492562
 21
415.5
 31
0.0
  0
LINE
  5
6DA3
330
1E
100
AcDbEntity
  8
21
  6
CONTINUOUS
100
AcDbLine
 10
-48.98174835492556
 20
492.0
 30
0.0
 11
-48.98174835492561
 21
415.5
 31
0.0
  0
LWPOLYLINE
  5
6DA4
330
1E
100
AcDbEntity
  8
24
  6
CONTINOUS
100
AcDbPolyline
 90
        2
 70
     0
 43
0.0
 10
-78.17901397992556
 20
472.0
 10
-61.78448272992556
 20
472.0
  0
ARC
  5
6DA5
330
1E
100
AcDbEntity
  8
24
  6
CONTINOUS
100
AcDbCircle
 10
-69.98174835492555
 20
440.0
 30
0.0
 40
6.5
100
AcDbArc
 50
0.0
 51
180.0
  0
LWPOLYLINE
  5
6DA6
330
1E
100
AcDbEntity
  8
24
  6
CONTINOUS
100
AcDbPolyline
 90
        2
 70
     0
 43
0.0
 10
-78.17901397992561
 20
440.0
 10
-61.78448272992561
 20
440.0
  0
CIRCLE
  5
6DA7
330
1E
100
AcDbEntity
  8
24
  6
CONTINOUS
100
AcDbCircle
 10
-69.98174835492555
 20
472.0
 30
0.0
 40
6.5
  0
ARC
  5
6DA8
330
1E
100
AcDbEntity
  8
24
  6
CONTINOUS
100
AcDbCircle
 10
-69.98174835492555
 20
432.0
 30
0.0
 40
6.5
100
AcDbArc
 50
180.0
 51
0.0
  0
LWPOLYLINE
  5
6DA9
330
1E
100
AcDbEntity
  8
24
  6
CONTINOUS
100
AcDbPolyline
 90
        2
 70
     0
 43
0.0
 10
-78.17901397992561
 20
432.0
 10
-61.78448272992561
 20
432.0
  0
LINE
  5
6DAA
330
1E
100
AcDbEntity
  8
L150_
  6
CONTINUOUS
 62
     7
100
AcDbLine
 10
-58.48174835492561
 20
406.0
 30
0.0
 11
-81.48174835492561
 21
406.0
 31
0.0
  0
LINE
  5
6DAB
330
1E
100
AcDbEntity
  8
21
  6
CONTINUOUS
100
AcDbLine
 10
-81.48174835492561
 20
406.0
 30
0.0
 11
-81.48174835492561
 21
377.0
 31
0.0
  0
LWPOLYLINE
  5
6DAC
330
1E
100
AcDbEntity
  8
24
  6
CONTINOUS
100
AcDbPolyline
 90
        2
 70
     0
 43
0.0
 10
-69.98174835492561
 20
423.8027343749999
 10
-69.98174835492561
 20
440.1972656249999
  0
LINE
  5
6DAD
330
1E
100
AcDbEntity
  8
21
  6
CONTINUOUS
100
AcDbLine
 10
-90.98174835492562
 20
415.5
 30
0.0
 11
-81.48174835492561
 21
406.0
 31
0.0
  0
LINE
  5
6DAE
330
1E
100
AcDbEntity
  8
24
  6
CONTINOUS
100
AcDbLine
 10
-76.48174835492561
 20
440.0
 30
0.0
 11
-76.48174835492561
 21
432.0
 31
0.0
  0
LWPOLYLINE
  5
6DAF
330
1E
100
AcDbEntity
  8
24
  6
CONTINOUS
100
AcDbPolyline
 90
        2
 70
     0
 43
0.0
 10
-69.98174835492561
 20
431.8027343749999
 10
-69.98174835492561
 20
448.1972656249999
  0
LINE
  5
6DB0
330
1E
100
AcDbEntity
  8
21
  6
CONTINUOUS
100
AcDbLine
 10
-58.48174835492561
 20
377.0
 30
0.0
 11
-58.48174835492561
 21
406.0
 31
0.0
  0
LINE
  5
6DB1
330
1E
100
AcDbEntity
  8
21
  6
CONTINUOUS
100
AcDbLine
 10
-48.98174835492561
 20
415.5
 30
0.0
 11
-58.48174835492561
 21
406.0
 31
0.0
  0
LINE
  5
6DB2
330
1E
100
AcDbEntity
  8
24
  6
CONTINOUS
100
AcDbLine
 10
-63.48174835492561
 20
432.0
 30
0.0
 11
-63.48174835492561
 21
440.0
 31
0.0
  0
LINE
  5
6DB3
330
1E
100
AcDbEntity
  8
21
  6
CONTINUOUS
100
AcDbLine
 10
-48.98174835492556
 20
492.0
 30
0.0
 11
-90.98174835492562
 21
492.0
 31
0.0
  0
DIMENSION
  5
6DC0
330
1E
100
AcDbEntity
  8
30
  6
CONTINUOUS
100
AcDbDimension
  2
*D31
 10
500.7674916551255
 20
-127.6762816875871
 30
0.0
 11
479.1170668434944
 21
-82.50000000000012
 31
0.0
 70
   163
  3
STANDARD
100
AcDbDiametricDimension
 15
496.7160501755647
 25
-115.3237183124129
 35
0.0
 40
0.0
1001
ACAD
1000
DSTYLE
1002
{
1070
   288
1070
     1
1002
}
  0
LINE
  5
6E6B
330
1E
100
AcDbEntity
  8
10
  6
CONTINUOUS
100
AcDbLine
 10
30.90637207029999
 20
-44.99999999999988
 30
0.0
 11
30.90637207029999
 21
45.00000000000011
 31
0.0
  0
LINE
  5
6E6C
330
1E
100
AcDbEntity
  8
10
  6
CONTINUOUS
100
AcDbLine
 10
-31.0936279297
 20
45.00000000000011
 30
0.0
 11
-31.0936279297
 21
-44.99999999999988
 31
0.0
  0
LINE
  5
6E6D
330
1E
100
AcDbEntity
  8
10
  6
CONTINUOUS
100
AcDbLine
 10
30.90637207029999
 20
-44.99999999999988
 30
0.0
 11
-31.0936279297
 21
-44.99999999999988
 31
0.0
  0
LINE
  5
6E71
330
1E
100
AcDbEntity
  8
10
  6
CONTINUOUS
100
AcDbLine
 10
21.75634765619997
 20
28.50000000000011
 30
0.0
 11
-22.24365234380002
 21
28.50000000000011
 31
0.0
  0
LINE
  5
6E72
330
1E
100
AcDbEntity
  8
10
  6
CONTINUOUS
100
AcDbLine
 10
-22.24365234380002
 20
-26.99999999999988
 30
0.0
 11
21.75634765619997
 21
-26.99999999999988
 31
0.0
  0
LINE
  5
6E73
330
1E
100
AcDbEntity
  8
10
  6
CONTINUOUS
100
AcDbLine
 10
-22.24365234380002
 20
28.50000000000011
 30
0.0
 11
-22.24365234380002
 21
-26.99999999999988
 31
0.0
  0
LINE
  5
6E74
330
1E
100
AcDbEntity
  8
10
  6
CONTINUOUS
100
AcDbLine
 10
21.75634765619997
 20
-26.99999999999988
 30
0.0
 11
21.75634765619997
 21
28.50000000000011
 31
0.0
  0
LINE
  5
6E75
330
1E
100
AcDbEntity
  8
10
  6
CONTINUOUS
100
AcDbLine
 10
30.90637207029999
 20
45.00000000000011
 30
0.0
 11
-31.0936279297
 21
45.00000000000011
 31
0.0
  0
LINE
  5
6E77
330
1E
100
AcDbEntity
  8
L225_
  6
CONTINUOUS
 62
     3
100
AcDbLine
 10
122.4063720703
 20
50.77697753906
 30
0.0
 11
122.4063720703
 21
76.07901000977006
 31
0.0
  0
LINE
  5
6E78
330
1E
100
AcDbEntity
  8
L225_
  6
CONTINUOUS
 62
     3
100
AcDbLine
 10
108.2495117186999
 20
63.50003051758005
 30
0.0
 11
142.7523193358999
 21
63.50003051758005
 31
0.0
  0
LWPOLYLINE
  5
6E79
330
1E
100
AcDbEntity
  8
10
  6
CONTINUOUS
100
AcDbPolyline
 90
        4
 70
     1
 43
0.0
 10
-134.09375000002
 20
171.50009155274
 10
133.9063720703
 20
171.50009155274
 10
133.9063720703
 20
-171.4999999999999
 10
-134.09375000002
 20
-171.4999999999999
  0
LWPOLYLINE
  5
6E7A
330
1E
100
AcDbEntity
  8
10
  6
D329
100
AcDbPolyline
 90
        4
 70
     1
 43
0.0
 10
-105.09375
 20
-136.4999999999999
 10
-105.09375
 20
136.50009155274
 10
104.9063720703
 20
136.50009155274
 10
104.9063720703
 20
-136.4999999999999
  0
LINE
  5
6EA7
330
1E
100
AcDbEntity
  8
21
  6
CONTINUOUS
100
AcDbLine
 10
91.00000000000006
 20
492.0
 30
0.0
 11
49.0
 21
492.0
 31
0.0
  0
LINE
  5
6EA8
330
1E
100
AcDbEntity
  8
21
  6
CONTINUOUS
100
AcDbLine
 10
91.0
 20
415.5
 30
0.0
 11
81.5
 21
406.0
 31
0.0
  0
LINE
  5
6EA9
330
1E
100
AcDbEntity
  8
21
  6
CONTINUOUS
100
AcDbLine
 10
49.0
 20
492.0
 30
0.0
 11
49.0
 21
415.5
 31
0.0
  0
LWPOLYLINE
  5
6EAA
330
1E
100
AcDbEntity
  8
24
  6
CONTINOUS
100
AcDbPolyline
 90
        2
 70
     0
 43
0.0
 10
70.00000000000006
 20
463.802734375
 10
70.00000000000006
 20
480.197265625
  0
LINE
  5
6EAB
330
1E
100
AcDbEntity
  8
21
  6
CONTINUOUS
100
AcDbLine
 10
81.5
 20
377.0
 30
0.0
 11
81.5
 21
406.0
 31
0.0
  0
LINE
  5
6EAC
330
1E
100
AcDbEntity
  8
21
  6
CONTINUOUS
100
AcDbLine
 10
58.5
 20
406.0
 30
0.0
 11
58.5
 21
377.0
 31
0.0
  0
LWPOLYLINE
  5
6EAD
330
1E
100
AcDbEntity
  8
24
  6
CONTINOUS
100
AcDbPolyline
 90
        2
 70
     0
 43
0.0
 10
70.0
 20
423.8027343749999
 10
70.0
 20
440.1972656249999
  0
ARC
  5
6EAE
330
1E
100
AcDbEntity
  8
24
  6
CONTINOUS
100
AcDbCircle
 10
70.00000000000006
 20
432.0
 30
0.0
 40
6.5
100
AcDbArc
 50
180.0
 51
0.0
  0
LINE
  5
6EAF
330
1E
100
AcDbEntity
  8
L150_
  6
CONTINUOUS
 62
     7
100
AcDbLine
 10
81.5
 20
406.0
 30
0.0
 11
58.5
 21
406.0
 31
0.0
  0
LINE
  5
6EB0
330
1E
100
AcDbEntity
  8
21
  6
CONTINUOUS
100
AcDbLine
 10
49.0
 20
415.5
 30
0.0
 11
58.5
 21
406.0
 31
0.0
  0
LWPOLYLINE
  5
6EB1
330
1E
100
AcDbEntity
  8
24
  6
CONTINOUS
100
AcDbPolyline
 90
        2
 70
     0
 43
0.0
 10
61.802734375
 20
432.0
 10
78.197265625
 20
432.0
  0
CIRCLE
  5
6EB2
330
1E
100
AcDbEntity
  8
24
  6
CONTINOUS
100
AcDbCircle
 10
70.00000000000006
 20
472.0
 30
0.0
 40
6.5
  0
LWPOLYLINE
  5
6EB3
330
1E
100
AcDbEntity
  8
24
  6
CONTINOUS
100
AcDbPolyline
 90
        2
 70
     0
 43
0.0
 10
61.802734375
 20
440.0
 10
78.197265625
 20
440.0
  0
ARC
  5
6EB4
330
1E
100
AcDbEntity
  8
24
  6
CONTINOUS
100
AcDbCircle
 10
70.00000000000006
 20
440.0
 30
0.0
 40
6.5
100
AcDbArc
 50
0.0
 51
180.0
  0
LWPOLYLINE
  5
6EB5
330
1E
100
AcDbEntity
  8
24
  6
CONTINOUS
100
AcDbPolyline
 90
        2
 70
     0
 43
0.0
 10
61.80273437500005
 20
472.0
 10
78.19726562500005
 20
472.0
  0
LINE
  5
6EB6
330
1E
100
AcDbEntity
  8
24
  6
CONTINOUS
100
AcDbLine
 10
63.5
 20
440.0
 30
0.0
 11
63.5
 21
432.0
 31
0.0
  0
LWPOLYLINE
  5
6EB7
330
1E
100
AcDbEntity
  8
24
  6
CONTINOUS
100
AcDbPolyline
 90
        2
 70
     0
 43
0.0
 10
70.0
 20
431.8027343749999
 10
70.0
 20
448.1972656249999
  0
LINE
  5
6EB8
330
1E
100
AcDbEntity
  8
24
  6
CONTINOUS
100
AcDbLine
 10
76.5
 20
432.0
 30
0.0
 11
76.5
 21
440.0
 31
0.0
  0
LINE
  5
6EB9
330
1E
100
AcDbEntity
  8
21
  6
CONTINUOUS
100
AcDbLine
 10
91.00000000000006
 20
492.0
 30
0.0
 11
91.0
 21
415.5
 31
0.0
  0
DIMENSION
  5
6EC7
330
1E
100
AcDbEntity
  8
30
  6
CONTINUOUS
100
AcDbDimension
  2
*D32
 10
0.0000000000000456
 20
528.9706220185485
 30
0.0
 11
35.00000000000005
 21
532.4706220185484
 31
0.0
 70
    32
  3
STANDARD
100
AcDbAlignedDimension
 13
70.00000000000006
 23
480.197265625
 33
0.0
 14
0.0000000000000426
 24
480.197265625
 34
0.0
100
AcDbRotatedDimension
1001
ACAD
1000
DSTYLE
1002
{
1070
   287
1070
     4
1070
   287
1070
     4
1070
   279
1070
     1
1002
}
  0
DIMENSION
  5
6ED4
330
1E
100
AcDbEntity
  8
30
  6
CONTINUOUS
100
AcDbDimension
  2
*D33
 10
-69.98174835492555
 20
528.9706220185485
 30
0.0
 11
-34.99087417746276
 21
532.4706220185484
 31
0.0
 70
    32
  3
STANDARD
100
AcDbAlignedDimension
 13
0.0000000000000426
 23
478.5
 33
0.0
 14
-69.98174835492555
 24
480.197265625
 34
0.0
100
AcDbRotatedDimension
1001
ACAD
1000
DSTYLE
1002
{
1070
   287
1070
     4
1070
   287
1070
     4
1070
   279
1070
     1
1002
}
  0
LINE
  5
6F1F
330
1E
100
AcDbEntity
  8
30
  6
CONTINUOUS
100
AcDbLine
 10
71.0
 20
-4.5
 30
0.0
 11
-93.0
 21
-4.5
 31
0.0
  0
LINE
  5
6FBB
330
1E
100
AcDbEntity
  8
L10_
  6
CONTINUOUS
 62
     3
100
AcDbLine
 10
108.2495117187398
 20
63.50003051758005
 30
0.0
 11
142.7523193359201
 21
63.50003051758005
 31
0.0
  0
DIMENSION
  5
6FBC
330
1E
100
AcDbEntity
  8
30
  6
CONTINUOUS
100
AcDbDimension
  2
*D35
 10
126.3441522325365
 20
67.67984200622615
 30
0.0
 11
169.2181623176177
 21
82.2792315216564
 31
0.0
 70
   163
  1
M8
  3
STANDARD
100
AcDbDiametricDimension
 15
131.7319541199442
 25
70.32021902893429
 35
0.0
 40
0.0
1001
ACAD
1000
DSTYLE
1002
{
1070
   288
1070
     1
1002
}
  0
LINE
  5
6FBD
330
1E
100
AcDbEntity
  8
L10_
  6
CONTINUOUS
 62
     3
100
AcDbLine
 10
122.4063720703
 20
50.77697753906
 30
0.0
 11
122.4063720703
 21
76.07901000977006
 31
0.0
  0
LINE
  5
6FD2
330
1E
100
AcDbEntity
  8
L10_
  6
CONTINUOUS
 62
     3
100
AcDbLine
 10
108.2495117187398
 20
63.50003051758005
 30
0.0
 11
142.7523193359201
 21
63.50003051758005
 31
0.0
  0
LINE
  5
6FD3
330
1E
100
AcDbEntity
  8
L10_
  6
CONTINUOUS
 62
     3
100
AcDbLine
 10
122.4063720703
 20
50.77697753906
 30
0.0
 11
122.4063720703
 21
76.07901000977006
 31
0.0
  0
CIRCLE
  5
6FD4
330
1E
100
AcDbEntity
  8
12
  6
DASHDOT
 62
     3
100
AcDbCircle
 10
122.4063720703
 20
63.50003051758005
 30
0.0
 40
4.5
  0
LINE
  5
6FD5
330
1E
100
AcDbEntity
  8
L10_
  6
CONTINUOUS
 62
     3
100
AcDbLine
 10
108.2495117187398
 20
-63.49999999999988
 30
0.0
 11
142.7523193359201
 21
-63.49999999999988
 31
0.0
  0
LINE
  5
6FD6
330
1E
100
AcDbEntity
  8
L10_
  6
CONTINUOUS
 62
     3
100
AcDbLine
 10
122.4063720703
 20
-76.22302246094
 30
0.0
 11
122.4063720703
 21
-50.92102050780994
 31
0.0
  0
CIRCLE
  5
6FD7
330
1E
100
AcDbEntity
  8
12
  6
DASHDOT
 62
     3
100
AcDbCircle
 10
122.4063720703
 20
-63.49999999999988
 30
0.0
 40
4.5
  0
LINE
  5
6FD8
330
1E
100
AcDbEntity
  8
L10_
  6
CONTINUOUS
 62
     3
100
AcDbLine
 10
-136.7506103515599
 20
-63.49999999999988
 30
0.0
 11
-102.24780273438
 21
-63.49999999999988
 31
0.0
  0
CIRCLE
  5
6FD9
330
1E
100
AcDbEntity
  8
12
  6
DASHDOT
 62
     3
100
AcDbCircle
 10
-122.59375
 20
-63.49999999999988
 30
0.0
 40
4.5
  0
LINE
  5
6FDA
330
1E
100
AcDbEntity
  8
L10_
  6
CONTINUOUS
 62
     3
100
AcDbLine
 10
-122.59375
 20
-76.22302246094
 30
0.0
 11
-122.59375
 21
-50.92102050780994
 31
0.0
  0
LINE
  5
6FDB
330
1E
100
AcDbEntity
  8
L10_
  6
CONTINUOUS
 62
     3
100
AcDbLine
 10
-136.7506103515599
 20
63.50003051758005
 30
0.0
 11
-102.24780273438
 21
63.50003051758005
 31
0.0
  0
LINE
  5
6FDC
330
1E
100
AcDbEntity
  8
L10_
  6
CONTINUOUS
 62
     3
100
AcDbLine
 10
-122.59375
 20
50.77697753906
 30
0.0
 11
-122.59375
 21
76.07901000977006
 31
0.0
  0
CIRCLE
  5
6FDD
330
1E
100
AcDbEntity
  8
12
  6
DASHDOT
 62
     3
100
AcDbCircle
 10
-122.59375
 20
63.50003051758005
 30
0.0
 40
4.5
  0
DIMENSION
  5
6FDE
330
1E
100
AcDbEntity
  8
30
  6
CONTINUOUS
100
AcDbDimension
  2
*D36
 10
-215.1571359183817
 20
-171.4999999999999
 30
0.0
 11
-218.6571359183817
 21
0.0000457763700433
 31
0.0
 70
    32
  3
STANDARD
100
AcDbAlignedDimension
 13
-134.09375000002
 23
171.50009155274
 33
0.0
 14
-134.09375000002
 24
-171.4999999999999
 34
0.0
 50
90.0
100
AcDbRotatedDimension
  0
DIMENSION
  5
7032
330
1E
100
AcDbEntity
  8
30
  6
CONTINUOUS
100
AcDbDimension
  2
*D37
 10
133.9063720703
 20
-196.3801716579805
 30
0.0
 11
-0.093688964860007
 21
-192.8801716579805
 31
0.0
 70
    32
  3
STANDARD
100
AcDbAlignedDimension
 13
-134.09375000002
 23
-171.4999999999999
 33
0.0
 14
133.9063720703
 24
-171.4999999999999
 34
0.0
100
AcDbRotatedDimension
  0
MTEXT
  5
7236
330
1E
100
AcDbEntity
  8
19
  6
CONTINUOUS
100
AcDbMText
 10
403.3968684918882
 20
403.2213101980037
 30
0.0
 40
7.0
 41
94.0
 71
     1
 72
     5
  1
XS800NE 3P FP\PXH800NE 3P FP XS800CS 3P FP\PXS800NS 3P FP\PXH800PS 3P FP
  7
STANDARD1
1001
ACAD
1000
MTEXTBEGIN
1070
    73
1070
     1
1070
    44
1040
1.0
1070
    74
1070
     0
1000
MTEXTEND
  0
DIMENSION
  5
7237
330
1E
100
AcDbEntity
  8
30
  6
CONTINUOUS
100
AcDbDimension
  2
*D40
 10
73.768424009716
 20
-4.5
 30
0.0
 11
79.768424009716
 21
8.890156405462221
 31
0.0
 70
   160
  3
STANDARD
100
AcDbAlignedDimension
 13
-0.0000000000000284
 23
0.0
 33
0.0
 14
71.0
 24
-4.5
 34
0.0
 50
90.0
100
AcDbRotatedDimension
  0
VIEWPORT
  5
9AC
330
1A
100
AcDbEntity
 67
     1
  8
0
  6
CONTINUOUS
100
AcDbViewport
 10
171.9995348790992
 20
144.1384735538403
 30
0.0
 40
488.8676857773514
 41
292.3514905034161
 68
     1
 69
     1
1001
ACAD
1000
MVIEW
1002
{
1070
    16
1010
0.0
1020
0.0
1030
0.0
1010
0.0
1020
0.0
1030
1.0
1040
0.0
1040
292.3514905034161
1040
171.9995348790992
1040
144.1384735538403
1040
50.0
1040
0.0
1040
0.0
1070
     0
1070
   100
1070
     1
1070
     1
1070
     0
1070
     0
1070
     0
1070
     0
1040
0.0
1040
0.0
1040
0.0
1040
10.0
1040
10.0
1040
10.0
1040
10.0
1070
     0
1002
{
1002
}
1002
}
  0
ENDSEC
  0
SECTION
  2
OBJECTS
  0
DICTIONARY
  5
C
330
0
100
AcDbDictionary
  3
ACAD_GROUP
350
D
  3
ACAD_LAYOUT
350
19
  3
ACAD_MLINESTYLE
350
16
  3
ACAD_PLOTSETTINGS
350
18
  3
ACAD_PLOTSTYLENAME
350
E
  3
ACDBHEADERROUNDTRIPXREC
350
7256
  3
ACDBVARIABLEDICTIONARY
350
7252
  0
DICTIONARY
  5
178
330
1E
100
AcDbDictionary
280
     1
  3
ACAD_LAYOUTSELFREF
360
7278
  0
DICTIONARY
  5
17A
330
1A
100
AcDbDictionary
280
     1
  3
ACAD_LAYOUTSELFREF
360
7277
  0
DICTIONARY
  5
D
102
{ACAD_REACTORS
330
C
102
}
330
C
100
AcDbDictionary
  0
DICTIONARY
  5
19
102
{ACAD_REACTORS
330
C
102
}
330
C
100
AcDbDictionary
  0
DICTIONARY
  5
16
102
{ACAD_REACTORS
330
C
102
}
330
C
100
AcDbDictionary
  3
STANDARD
350
17
  0
DICTIONARY
  5
18
102
{ACAD_REACTORS
330
C
102
}
330
C
100
AcDbDictionary
  0
ACDBDICTIONARYWDFLT
  5
E
102
{ACAD_REACTORS
330
C
102
}
330
C
100
AcDbDictionary
281
     1
  3
Normal
350
F
100
AcDbDictionaryWithDefault
340
F
  0
DICTIONARY
  5
7256
102
{ACAD_REACTORS
330
C
102
}
330
C
100
AcDbDictionary
  3
CEPSNTYPE
350
7260
  3
DIMSTYLEDATA
350
7264
  3
FINGERPRINTGUID
350
7261
  3
HYPERLINKBASE
350
7259
  3
INSUNITS
350
725F
  3
LAYOUTDICT
350
725B
  3
LWETCUNION
350
725E
  3
PLOTSETDICT
350
725C
  3
PLOTSTYLNAMDICT
350
725D
  3
PSVPSCALE
350
7263
  3
PUCSBASE
350
7267
  3
PUCSORGBACK
350
726D
  3
PUCSORGBOTTOM
350
7269
  3
PUCSORGFRONT
350
726C
  3
PUCSORGLEFT
350
726A
  3
PUCSORGRIGHT
350
726B
  3
PUCSORGTOP
350
7268
  3
PUCSORTHOREF
350
7265
  3
PUCSORTHOVIEW
350
7266
  3
STYLESHEET
350
725A
  3
TSTACKALIGN
350
7257
  3
TSTACKSIZE
350
7258
  3
UCSBASE
350
7270
  3
UCSORGBACK
350
7276
  3
UCSORGBOTTOM
350
7272
  3
UCSORGFRONT
350
7275
  3
UCSORGLEFT
350
7273
  3
UCSORGRIGHT
350
7274
  3
UCSORGTOP
350
7271
  3
UCSORTHOREF
350
726E
  3
UCSORTHOVIEW
350
726F
  3
VERSIONGUID
350
7262
  0
DICTIONARY
  5
7252
102
{ACAD_REACTORS
330
C
102
}
330
C
100
AcDbDictionary
  3
DIMASSOC
350
7253
  0
XRECORD
  5
7278
102
{ACAD_REACTORS
330
178
102
}
330
178
100
AcDbXrecord
340
1E
  0
XRECORD
  5
7277
102
{ACAD_REACTORS
330
17A
102
}
330
17A
100
AcDbXrecord
340
1A
  0
MLINESTYLE
  5
17
102
{ACAD_REACTORS
330
16
102
}
330
16
100
AcDbMlineStyle
  2
STANDARD
 70
     0
  3

 62
   256
 51
90.0
 52
90.0
 71
     2
 49
0.5
 62
   256
  6
BYLAYER
 49
-0.5
 62
   256
  6
BYLAYER
  0
ACDBPLACEHOLDER
  5
F
102
{ACAD_REACTORS
330
E
102
}
330
E
100
AcDbPlaceHolder
280
     0
  0
XRECORD
  5
7260
102
{ACAD_REACTORS
330
7256
102
}
330
7256
100
AcDbXrecord
 90
        0
  0
XRECORD
  5
7264
102
{ACAD_REACTORS
330
7256
102
}
330
7256
100
AcDbXrecord
1000
DSTYLE
1002
{
1070
    79
 70
     3
1070
   341
340
3B2
1070
   342
340
3B2
1002
}
  0
XRECORD
  5
7261
102
{ACAD_REACTORS
330
7256
102
}
330
7256
100
AcDbXrecord
  1

  0
XRECORD
  5
7259
102
{ACAD_REACTORS
330
7256
102
}
330
7256
100
AcDbXrecord
  1

  0
XRECORD
  5
725F
102
{ACAD_REACTORS
330
7256
102
}
330
7256
100
AcDbXrecord
 90
        0
  0
XRECORD
  5
725B
102
{ACAD_REACTORS
330
7256
102
}
330
7256
100
AcDbXrecord
340
19
  0
XRECORD
  5
725E
102
{ACAD_REACTORS
330
7256
102
}
330
7256
100
AcDbXrecord
 90
    10781
  0
XRECORD
  5
725C
102
{ACAD_REACTORS
330
7256
102
}
330
7256
100
AcDbXrecord
340
18
  0
XRECORD
  5
725D
102
{ACAD_REACTORS
330
7256
102
}
330
7256
100
AcDbXrecord
340
E
  0
XRECORD
  5
7263
102
{ACAD_REACTORS
330
7256
102
}
330
7256
100
AcDbXrecord
 40
0.0
  0
XRECORD
  5
7267
102
{ACAD_REACTORS
330
7256
102
}
330
7256
100
AcDbXrecord
340
0
  0
XRECORD
  5
726D
102
{ACAD_REACTORS
330
7256
102
}
330
7256
100
AcDbXrecord
 10
0.0
 20
0.0
 30
0.0
  0
XRECORD
  5
7269
102
{ACAD_REACTORS
330
7256
102
}
330
7256
100
AcDbXrecord
 10
0.0
 20
0.0
 30
0.0
  0
XRECORD
  5
726C
102
{ACAD_REACTORS
330
7256
102
}
330
7256
100
AcDbXrecord
 10
0.0
 20
0.0
 30
0.0
  0
XRECORD
  5
726A
102
{ACAD_REACTORS
330
7256
102
}
330
7256
100
AcDbXrecord
 10
0.0
 20
0.0
 30
0.0
  0
XRECORD
  5
726B
102
{ACAD_REACTORS
330
7256
102
}
330
7256
100
AcDbXrecord
 10
0.0
 20
0.0
 30
0.0
  0
XRECORD
  5
7268
102
{ACAD_REACTORS
330
7256
102
}
330
7256
100
AcDbXrecord
 10
0.0
 20
0.0
 30
0.0
  0
XRECORD
  5
7265
102
{ACAD_REACTORS
330
7256
102
}
330
7256
100
AcDbXrecord
340
0
  0
XRECORD
  5
7266
102
{ACAD_REACTORS
330
7256
102
}
330
7256
100
AcDbXrecord
 70
     0
  0
XRECORD
  5
725A
102
{ACAD_REACTORS
330
7256
102
}
330
7256
100
AcDbXrecord
  1
KIKI.ctb
  0
XRECORD
  5
7257
102
{ACAD_REACTORS
330
7256
102
}
330
7256
100
AcDbXrecord
 90
        1
  0
XRECORD
  5
7258
102
{ACAD_REACTORS
330
7256
102
}
330
7256
100
AcDbXrecord
 90
       70
  0
XRECORD
  5
7270
102
{ACAD_REACTORS
330
7256
102
}
330
7256
100
AcDbXrecord
340
0
  0
XRECORD
  5
7276
102
{ACAD_REACTORS
330
7256
102
}
330
7256
100
AcDbXrecord
 10
0.0
 20
0.0
 30
0.0
  0
XRECORD
  5
7272
102
{ACAD_REACTORS
330
7256
102
}
330
7256
100
AcDbXrecord
 10
0.0
 20
0.0
 30
0.0
  0
XRECORD
  5
7275
102
{ACAD_REACTORS
330
7256
102
}
330
7256
100
AcDbXrecord
 10
0.0
 20
0.0
 30
0.0
  0
XRECORD
  5
7273
102
{ACAD_REACTORS
330
7256
102
}
330
7256
100
AcDbXrecord
 10
0.0
 20
0.0
 30
0.0
  0
XRECORD
  5
7274
102
{ACAD_REACTORS
330
7256
102
}
330
7256
100
AcDbXrecord
 10
0.0
 20
0.0
 30
0.0
  0
XRECORD
  5
7271
102
{ACAD_REACTORS
330
7256
102
}
330
7256
100
AcDbXrecord
 10
0.0
 20
0.0
 30
0.0
  0
XRECORD
  5
726E
102
{ACAD_REACTORS
330
7256
102
}
330
7256
100
AcDbXrecord
340
0
  0
XRECORD
  5
726F
102
{ACAD_REACTORS
330
7256
102
}
330
7256
100
AcDbXrecord
 70
     0
  0
XRECORD
  5
7262
102
{ACAD_REACTORS
330
7256
102
}
330
7256
100
AcDbXrecord
  1
{E7318CBF-6584-4B6E-AFFD-483A62F040B1}
  0
DICTIONARYVAR
  5
7253
102
{ACAD_REACTORS
330
7252
102
}
330
7252
100
DictionaryVariables
280
     0
  1
1
  0
ENDSEC
  0
EOF
