  0
SECTION
  2
HEADER
  9
$ACADVER
  1
AC1014
  9
$ACADMAINTVER
 70
     9
  9
$DWGCODEPAGE
  3
ANSI_932
  9
$INSBASE
 10
0.0
 20
0.0
 30
0.0
  9
$EXTMIN
 10
-131.6595835569287
 20
-635.8496706422665
 30
-0.0000000349181948
  9
$EXTMAX
 10
618.218759004028
 20
256.8151771980446
 30
0.0000000814935746
  9
$LIMMIN
 10
-179.0
 20
-547.0
  9
$LIMMAX
 10
487.0
 20
238.0
  9
$ORTHOMODE
 70
     1
  9
$REGENMODE
 70
     1
  9
$FILLMODE
 70
     1
  9
$QTEXTMODE
 70
     0
  9
$MIRRTEXT
 70
     1
  9
$DRAGMODE
 70
     2
  9
$LTSCALE
 40
10.0
  9
$OSMODE
 70
    37
  9
$ATTMODE
 70
     1
  9
$TEXTSIZE
 40
2.0
  9
$TRACEWID
 40
0.05
  9
$TEXTSTYLE
  7
STANDARD
  9
$CLAYER
  8
30
  9
$CELTYPE
  6
CONTINUOUS
  9
$CECOLOR
 62
   256
  9
$CELTSCALE
 40
1.0
  9
$DELOBJ
 70
     1
  9
$DISPSILH
 70
     0
  9
$DIMSCALE
 40
1.0
  9
$DIMASZ
 40
2.0
  9
$DIMEXO
 40
1.0
  9
$DIMDLI
 40
0.5
  9
$DIMRND
 40
0.0
  9
$DIMDLE
 40
0.0
  9
$DIMEXE
 40
0.5
  9
$DIMTP
 40
0.0
  9
$DIMTM
 40
0.0
  9
$DIMTXT
 40
5.0
  9
$DIMCEN
 40
0.09
  9
$DIMTSZ
 40
0.0
  9
$DIMTOL
 70
     0
  9
$DIMLIM
 70
     0
  9
$DIMTIH
 70
     0
  9
$DIMTOH
 70
     1
  9
$DIMSE1
 70
     0
  9
$DIMSE2
 70
     0
  9
$DIMTAD
 70
     3
  9
$DIMZIN
 70
    12
  9
$DIMBLK
  1
OPEN
  9
$DIMASO
 70
     1
  9
$DIMSHO
 70
     1
  9
$DIMPOST
  1

  9
$DIMAPOST
  1

  9
$DIMALT
 70
     0
  9
$DIMALTD
 70
     2
  9
$DIMALTF
 40
25.4
  9
$DIMLFAC
 40
1.0
  9
$DIMTOFL
 70
     0
  9
$DIMTVP
 40
0.0
  9
$DIMTIX
 70
     0
  9
$DIMSOXD
 70
     0
  9
$DIMSAH
 70
     0
  9
$DIMBLK1
  1

  9
$DIMBLK2
  1

  9
$DIMSTYLE
  2
STANDARD
  9
$DIMCLRD
 70
     0
  9
$DIMCLRE
 70
     0
  9
$DIMCLRT
 70
     0
  9
$DIMTFAC
 40
1.0
  9
$DIMGAP
 40
1.0
  9
$DIMJUST
 70
     0
  9
$DIMSD1
 70
     0
  9
$DIMSD2
 70
     0
  9
$DIMTOLJ
 70
     1
  9
$DIMTZIN
 70
     0
  9
$DIMALTZ
 70
     0
  9
$DIMALTTZ
 70
     0
  9
$DIMFIT
 70
     3
  9
$DIMUPT
 70
     0
  9
$DIMUNIT
 70
     2
  9
$DIMDEC
 70
     1
  9
$DIMTDEC
 70
     1
  9
$DIMALTU
 70
     2
  9
$DIMALTTD
 70
     2
  9
$DIMTXSTY
  7
STANDARD
  9
$DIMAUNIT
 70
     0
  9
$LUNITS
 70
     2
  9
$LUPREC
 70
     4
  9
$SKETCHINC
 40
0.1
  9
$FILLETRAD
 40
0.0
  9
$AUNITS
 70
     0
  9
$AUPREC
 70
     0
  9
$MENU
  1
.
  9
$ELEVATION
 40
0.0
  9
$PELEVATION
 40
0.0
  9
$THICKNESS
 40
0.0
  9
$LIMCHECK
 70
     0
  9
$BLIPMODE
 70
     0
  9
$CHAMFERA
 40
0.0
  9
$CHAMFERB
 40
0.0
  9
$CHAMFERC
 40
0.0
  9
$CHAMFERD
 40
0.0
  9
$SKPOLY
 70
     0
  9
$TDCREATE
 40
2452286.555658657
  9
$TDUPDATE
 40
2453113.010858646
  9
$TDINDWG
 40
1.4405604167
  9
$TDUSRTIMER
 40
1.4405604167
  9
$USRTIMER
 70
     1
  9
$ANGBASE
 50
0.0
  9
$ANGDIR
 70
     0
  9
$PDMODE
 70
     0
  9
$PDSIZE
 40
0.0
  9
$PLINEWID
 40
0.0
  9
$COORDS
 70
     1
  9
$SPLFRAME
 70
     0
  9
$SPLINETYPE
 70
     6
  9
$SPLINESEGS
 70
     8
  9
$ATTDIA
 70
     0
  9
$ATTREQ
 70
     1
  9
$HANDLING
 70
 22529
  9
$HANDSEED
  5
7971
  9
$SURFTAB1
 70
     6
  9
$SURFTAB2
 70
     6
  9
$SURFTYPE
 70
     6
  9
$SURFU
 70
     6
  9
$SURFV
 70
     6
  9
$UCSNAME
  2

  9
$UCSORG
 10
0.0
 20
0.0
 30
0.0
  9
$UCSXDIR
 10
1.0
 20
0.0
 30
0.0
  9
$UCSYDIR
 10
0.0
 20
1.0
 30
0.0
  9
$PUCSNAME
  2

  9
$PUCSORG
 10
0.0
 20
0.0
 30
0.0
  9
$PUCSXDIR
 10
1.0
 20
0.0
 30
0.0
  9
$PUCSYDIR
 10
0.0
 20
1.0
 30
0.0
  9
$USERI1
 70
     0
  9
$USERI2
 70
     0
  9
$USERI3
 70
     0
  9
$USERI4
 70
     0
  9
$USERI5
 70
     0
  9
$USERR1
 40
0.0
  9
$USERR2
 40
0.0
  9
$USERR3
 40
0.0
  9
$USERR4
 40
0.0
  9
$USERR5
 40
0.0
  9
$WORLDVIEW
 70
     1
  9
$SHADEDGE
 70
     3
  9
$SHADEDIF
 70
    70
  9
$TILEMODE
 70
     1
  9
$MAXACTVP
 70
    48
  9
$PINSBASE
 10
0.0
 20
0.0
 30
0.0
  9
$PLIMCHECK
 70
     0
  9
$PEXTMIN
 10
1.000000000000000E+20
 20
1.000000000000000E+20
 30
1.000000000000000E+20
  9
$PEXTMAX
 10
-1.000000000000000E+20
 20
-1.000000000000000E+20
 30
-1.000000000000000E+20
  9
$PLIMMIN
 10
-5.873748779296875
 20
-5.873749732971191
  9
$PLIMMAX
 10
204.0995788574218
 20
291.1369009017944
  9
$UNITMODE
 70
     0
  9
$VISRETAIN
 70
     1
  9
$PLINEGEN
 70
     0
  9
$PSLTSCALE
 70
     1
  9
$TREEDEPTH
 70
  3020
  9
$PICKSTYLE
 70
     1
  9
$CMLSTYLE
  2
STANDARD
  9
$CMLJUST
 70
     0
  9
$CMLSCALE
 40
1.0
  9
$PROXYGRAPHICS
 70
     1
  9
$MEASUREMENT
 70
     0
  0
ENDSEC
  0
SECTION
  2
CLASSES
  0
CLASS
  1
ACDBDICTIONARYWDFLT
  2
AcDbDictionaryWithDefault
  3
AutoCAD 2000
 90
        0
280
     0
281
     0
  0
CLASS
  1
ACDBPLACEHOLDER
  2
AcDbPlaceHolder
  3
AutoCAD 2000
 90
        0
280
     0
281
     0
  0
CLASS
  1
LAYOUT
  2
AcDbLayout
  3
AutoCAD 2000
 90
        0
280
     0
281
     0
  0
CLASS
  1
LONG_TRANSACTION
  2
AcDbLongTransaction
  3
AutoCAD 2000
 90
        0
280
     0
281
     0
  0
CLASS
  1
LWPOLYLINE
  2
AcDbPolyline
  3
AutoCAD 2000
 90
        0
280
     0
281
     1
  0
CLASS
  1
HATCH
  2
AcDbHatch
  3
AutoCAD 2000
 90
        0
280
     0
281
     1
  0
CLASS
  1
XRECORD
  2
AcDbXrecord
  3
AutoCAD 2000
 90
        0
280
     0
281
     0
  0
CLASS
  1
LONG_TRANSACTION
  2
AcDbLongTransaction
  3
AutoCAD 2000
 90
        0
280
     0
281
     0
  0
CLASS
  1
LWPOLYLINE
  2
AcDbPolyline
  3
AutoCAD 2000
 90
        0
280
     0
281
     1
  0
CLASS
  1
HATCH
  2
AcDbHatch
  3
AutoCAD 2000
 90
        0
280
     0
281
     1
  0
CLASS
  1
XRECORD
  2
AcDbXrecord
  3
AutoCAD 2000
 90
        0
280
     0
281
     0
  0
CLASS
  1
LONG_TRANSACTION
  2
AcDbLongTransaction
  3
AutoCAD 2000
 90
        0
280
     0
281
     0
  0
CLASS
  1
LWPOLYLINE
  2
AcDbPolyline
  3
AutoCAD 2000
 90
        0
280
     0
281
     1
  0
CLASS
  1
HATCH
  2
AcDbHatch
  3
AutoCAD 2000
 90
        0
280
     0
281
     1
  0
CLASS
  1
XRECORD
  2
AcDbXrecord
  3
AutoCAD 2000
 90
        0
280
     0
281
     0
  0
CLASS
  1
LONG_TRANSACTION
  2
AcDbLongTransaction
  3
AutoCAD 2000
 90
        0
280
     0
281
     0
  0
CLASS
  1
LWPOLYLINE
  2
AcDbPolyline
  3
AutoCAD 2000
 90
        0
280
     0
281
     1
  0
CLASS
  1
HATCH
  2
AcDbHatch
  3
AutoCAD 2000
 90
        0
280
     0
281
     1
  0
CLASS
  1
XRECORD
  2
AcDbXrecord
  3
AutoCAD 2000
 90
        0
280
     0
281
     0
  0
CLASS
  1
LONG_TRANSACTION
  2
AcDbLongTransaction
  3
AutoCAD 2000
 90
        0
280
     0
281
     0
  0
CLASS
  1
LWPOLYLINE
  2
AcDbPolyline
  3
AutoCAD 2000
 90
        0
280
     0
281
     1
  0
CLASS
  1
HATCH
  2
AcDbHatch
  3
AutoCAD 2000
 90
        0
280
     0
281
     1
  0
CLASS
  1
XRECORD
  2
AcDbXrecord
  3
AutoCAD 2000
 90
        0
280
     0
281
     0
  0
CLASS
  1
LONG_TRANSACTION
  2
AcDbLongTransaction
  3
AutoCAD 2000
 90
        0
280
     0
281
     0
  0
CLASS
  1
LWPOLYLINE
  2
AcDbPolyline
  3
AutoCAD 2000
 90
        0
280
     0
281
     1
  0
CLASS
  1
HATCH
  2
AcDbHatch
  3
AutoCAD 2000
 90
        0
280
     0
281
     1
  0
CLASS
  1
XRECORD
  2
AcDbXrecord
  3
AutoCAD 2000
 90
        0
280
     0
281
     0
  0
CLASS
  1
LONG_TRANSACTION
  2
AcDbLongTransaction
  3
AutoCAD 2000
 90
        0
280
     0
281
     0
  0
CLASS
  1
LWPOLYLINE
  2
AcDbPolyline
  3
AutoCAD 2000
 90
        0
280
     0
281
     1
  0
CLASS
  1
HATCH
  2
AcDbHatch
  3
AutoCAD 2000
 90
        0
280
     0
281
     1
  0
CLASS
  1
XRECORD
  2
AcDbXrecord
  3
AutoCAD 2000
 90
        0
280
     0
281
     0
  0
CLASS
  1
LONG_TRANSACTION
  2
AcDbLongTransaction
  3
AutoCAD 2000
 90
        0
280
     0
281
     0
  0
CLASS
  1
LWPOLYLINE
  2
AcDbPolyline
  3
AutoCAD 2000
 90
        0
280
     0
281
     1
  0
CLASS
  1
HATCH
  2
AcDbHatch
  3
AutoCAD 2000
 90
        0
280
     0
281
     1
  0
CLASS
  1
XRECORD
  2
AcDbXrecord
  3
AutoCAD 2000
 90
        0
280
     0
281
     0
  0
CLASS
  1
LONG_TRANSACTION
  2
AcDbLongTransaction
  3
AutoCAD 2000
 90
        0
280
     0
281
     0
  0
CLASS
  1
LWPOLYLINE
  2
AcDbPolyline
  3
AutoCAD 2000
 90
        0
280
     0
281
     1
  0
CLASS
  1
HATCH
  2
AcDbHatch
  3
AutoCAD 2000
 90
        0
280
     0
281
     1
  0
CLASS
  1
XRECORD
  2
AcDbXrecord
  3
AutoCAD 2000
 90
        0
280
     0
281
     0
  0
CLASS
  1
LONG_TRANSACTION
  2
AcDbLongTransaction
  3
AutoCAD 2000
 90
        0
280
     0
281
     0
  0
CLASS
  1
LWPOLYLINE
  2
AcDbPolyline
  3
AutoCAD 2000
 90
        0
280
     0
281
     1
  0
CLASS
  1
HATCH
  2
AcDbHatch
  3
AutoCAD 2000
 90
        0
280
     0
281
     1
  0
CLASS
  1
XRECORD
  2
AcDbXrecord
  3
AutoCAD 2000
 90
        0
280
     0
281
     0
  0
CLASS
  1
LONG_TRANSACTION
  2
AcDbLongTransaction
  3
AutoCAD 2000
 90
        0
280
     0
281
     0
  0
CLASS
  1
LWPOLYLINE
  2
AcDbPolyline
  3
AutoCAD 2000
 90
        0
280
     0
281
     1
  0
CLASS
  1
HATCH
  2
AcDbHatch
  3
AutoCAD 2000
 90
        0
280
     0
281
     1
  0
CLASS
  1
XRECORD
  2
AcDbXrecord
  3
AutoCAD 2000
 90
        0
280
     0
281
     0
  0
CLASS
  1
LONG_TRANSACTION
  2
AcDbLongTransaction
  3
AutoCAD 2000
 90
        0
280
     0
281
     0
  0
CLASS
  1
LWPOLYLINE
  2
AcDbPolyline
  3
AutoCAD 2000
 90
        0
280
     0
281
     1
  0
CLASS
  1
HATCH
  2
AcDbHatch
  3
AutoCAD 2000
 90
        0
280
     0
281
     1
  0
CLASS
  1
XRECORD
  2
AcDbXrecord
  3
AutoCAD 2000
 90
        0
280
     0
281
     0
  0
CLASS
  1
LONG_TRANSACTION
  2
AcDbLongTransaction
  3
AutoCAD 2000
 90
        0
280
     0
281
     0
  0
CLASS
  1
LWPOLYLINE
  2
AcDbPolyline
  3
AutoCAD 2000
 90
        0
280
     0
281
     1
  0
CLASS
  1
HATCH
  2
AcDbHatch
  3
AutoCAD 2000
 90
        0
280
     0
281
     1
  0
CLASS
  1
XRECORD
  2
AcDbXrecord
  3
AutoCAD 2000
 90
        0
280
     0
281
     0
  0
CLASS
  1
LONG_TRANSACTION
  2
AcDbLongTransaction
  3
AutoCAD 2000
 90
        0
280
     0
281
     0
  0
CLASS
  1
LWPOLYLINE
  2
AcDbPolyline
  3
AutoCAD 2000
 90
        0
280
     0
281
     1
  0
CLASS
  1
HATCH
  2
AcDbHatch
  3
AutoCAD 2000
 90
        0
280
     0
281
     1
  0
CLASS
  1
XRECORD
  2
AcDbXrecord
  3
AutoCAD 2000
 90
        0
280
     0
281
     0
  0
CLASS
  1
LONG_TRANSACTION
  2
AcDbLongTransaction
  3
AutoCAD 2000
 90
        0
280
     0
281
     0
  0
CLASS
  1
LWPOLYLINE
  2
AcDbPolyline
  3
AutoCAD 2000
 90
        0
280
     0
281
     1
  0
CLASS
  1
HATCH
  2
AcDbHatch
  3
AutoCAD 2000
 90
        0
280
     0
281
     1
  0
CLASS
  1
XRECORD
  2
AcDbXrecord
  3
AutoCAD 2000
 90
        0
280
     0
281
     0
  0
CLASS
  1
LONG_TRANSACTION
  2
AcDbLongTransaction
  3
AutoCAD 2000
 90
        0
280
     0
281
     0
  0
CLASS
  1
LWPOLYLINE
  2
AcDbPolyline
  3
AutoCAD 2000
 90
        0
280
     0
281
     1
  0
CLASS
  1
HATCH
  2
AcDbHatch
  3
AutoCAD 2000
 90
        0
280
     0
281
     1
  0
CLASS
  1
XRECORD
  2
AcDbXrecord
  3
AutoCAD 2000
 90
        0
280
     0
281
     0
  0
CLASS
  1
LONG_TRANSACTION
  2
AcDbLongTransaction
  3
AutoCAD 2000
 90
        0
280
     0
281
     0
  0
CLASS
  1
LWPOLYLINE
  2
AcDbPolyline
  3
AutoCAD 2000
 90
        0
280
     0
281
     1
  0
CLASS
  1
HATCH
  2
AcDbHatch
  3
AutoCAD 2000
 90
        0
280
     0
281
     1
  0
CLASS
  1
XRECORD
  2
AcDbXrecord
  3
AutoCAD 2000
 90
        0
280
     0
281
     0
  0
CLASS
  1
LONG_TRANSACTION
  2
AcDbLongTransaction
  3
AutoCAD 2000
 90
        0
280
     0
281
     0
  0
CLASS
  1
LWPOLYLINE
  2
AcDbPolyline
  3
AutoCAD 2000
 90
        0
280
     0
281
     1
  0
CLASS
  1
HATCH
  2
AcDbHatch
  3
AutoCAD 2000
 90
        0
280
     0
281
     1
  0
CLASS
  1
XRECORD
  2
AcDbXrecord
  3
AutoCAD 2000
 90
        0
280
     0
281
     0
  0
CLASS
  1
LONG_TRANSACTION
  2
AcDbLongTransaction
  3
AutoCAD 2000
 90
        0
280
     0
281
     0
  0
CLASS
  1
LWPOLYLINE
  2
AcDbPolyline
  3
AutoCAD 2000
 90
        0
280
     0
281
     1
  0
CLASS
  1
HATCH
  2
AcDbHatch
  3
AutoCAD 2000
 90
        0
280
     0
281
     1
  0
CLASS
  1
XRECORD
  2
AcDbXrecord
  3
AutoCAD 2000
 90
        0
280
     0
281
     0
  0
CLASS
  1
LONG_TRANSACTION
  2
AcDbLongTransaction
  3
AutoCAD 2000
 90
        0
280
     0
281
     0
  0
CLASS
  1
LWPOLYLINE
  2
AcDbPolyline
  3
AutoCAD 2000
 90
        0
280
     0
281
     1
  0
CLASS
  1
HATCH
  2
AcDbHatch
  3
AutoCAD 2000
 90
        0
280
     0
281
     1
  0
CLASS
  1
XRECORD
  2
AcDbXrecord
  3
AutoCAD 2000
 90
        0
280
     0
281
     0
  0
CLASS
  1
LONG_TRANSACTION
  2
AcDbLongTransaction
  3
AutoCAD 2000
 90
        0
280
     0
281
     0
  0
CLASS
  1
LWPOLYLINE
  2
AcDbPolyline
  3
AutoCAD 2000
 90
        0
280
     0
281
     1
  0
CLASS
  1
HATCH
  2
AcDbHatch
  3
AutoCAD 2000
 90
        0
280
     0
281
     1
  0
CLASS
  1
XRECORD
  2
AcDbXrecord
  3
AutoCAD 2000
 90
        0
280
     0
281
     0
  0
CLASS
  1
LONG_TRANSACTION
  2
AcDbLongTransaction
  3
AutoCAD 2000
 90
        0
280
     0
281
     0
  0
CLASS
  1
LWPOLYLINE
  2
AcDbPolyline
  3
AutoCAD 2000
 90
        0
280
     0
281
     1
  0
CLASS
  1
HATCH
  2
AcDbHatch
  3
AutoCAD 2000
 90
        0
280
     0
281
     1
  0
CLASS
  1
XRECORD
  2
AcDbXrecord
  3
AutoCAD 2000
 90
        0
280
     0
281
     0
  0
CLASS
  1
LONG_TRANSACTION
  2
AcDbLongTransaction
  3
AutoCAD 2000
 90
        0
280
     0
281
     0
  0
CLASS
  1
LWPOLYLINE
  2
AcDbPolyline
  3
AutoCAD 2000
 90
        0
280
     0
281
     1
  0
CLASS
  1
HATCH
  2
AcDbHatch
  3
AutoCAD 2000
 90
        0
280
     0
281
     1
  0
CLASS
  1
XRECORD
  2
AcDbXrecord
  3
AutoCAD 2000
 90
        0
280
     0
281
     0
  0
CLASS
  1
LONG_TRANSACTION
  2
AcDbLongTransaction
  3
AutoCAD 2000
 90
        0
280
     0
281
     0
  0
CLASS
  1
LWPOLYLINE
  2
AcDbPolyline
  3
AutoCAD 2000
 90
        0
280
     0
281
     1
  0
CLASS
  1
HATCH
  2
AcDbHatch
  3
AutoCAD 2000
 90
        0
280
     0
281
     1
  0
CLASS
  1
XRECORD
  2
AcDbXrecord
  3
AutoCAD 2000
 90
        0
280
     0
281
     0
  0
CLASS
  1
LONG_TRANSACTION
  2
AcDbLongTransaction
  3
AutoCAD 2000
 90
        0
280
     0
281
     0
  0
CLASS
  1
LWPOLYLINE
  2
AcDbPolyline
  3
AutoCAD 2000
 90
        0
280
     0
281
     1
  0
CLASS
  1
HATCH
  2
AcDbHatch
  3
AutoCAD 2000
 90
        0
280
     0
281
     1
  0
CLASS
  1
XRECORD
  2
AcDbXrecord
  3
AutoCAD 2000
 90
        0
280
     0
281
     0
  0
CLASS
  1
LONG_TRANSACTION
  2
AcDbLongTransaction
  3
AutoCAD 2000
 90
        0
280
     0
281
     0
  0
CLASS
  1
LWPOLYLINE
  2
AcDbPolyline
  3
AutoCAD 2000
 90
        0
280
     0
281
     1
  0
CLASS
  1
HATCH
  2
AcDbHatch
  3
AutoCAD 2000
 90
        0
280
     0
281
     1
  0
CLASS
  1
XRECORD
  2
AcDbXrecord
  3
AutoCAD 2000
 90
        0
280
     0
281
     0
  0
CLASS
  1
LONG_TRANSACTION
  2
AcDbLongTransaction
  3
AutoCAD 2000
 90
        0
280
     0
281
     0
  0
CLASS
  1
LWPOLYLINE
  2
AcDbPolyline
  3
AutoCAD 2000
 90
        0
280
     0
281
     1
  0
CLASS
  1
HATCH
  2
AcDbHatch
  3
AutoCAD 2000
 90
        0
280
     0
281
     1
  0
CLASS
  1
XRECORD
  2
AcDbXrecord
  3
AutoCAD 2000
 90
        0
280
     0
281
     0
  0
CLASS
  1
LONG_TRANSACTION
  2
AcDbLongTransaction
  3
AutoCAD 2000
 90
        0
280
     0
281
     0
  0
CLASS
  1
LWPOLYLINE
  2
AcDbPolyline
  3
AutoCAD 2000
 90
        0
280
     0
281
     1
  0
CLASS
  1
HATCH
  2
AcDbHatch
  3
AutoCAD 2000
 90
        0
280
     0
281
     1
  0
CLASS
  1
XRECORD
  2
AcDbXrecord
  3
AutoCAD 2000
 90
        0
280
     0
281
     0
  0
CLASS
  1
LONG_TRANSACTION
  2
AcDbLongTransaction
  3
AutoCAD 2000
 90
        0
280
     0
281
     0
  0
CLASS
  1
LWPOLYLINE
  2
AcDbPolyline
  3
AutoCAD 2000
 90
        0
280
     0
281
     1
  0
CLASS
  1
HATCH
  2
AcDbHatch
  3
AutoCAD 2000
 90
        0
280
     0
281
     1
  0
CLASS
  1
XRECORD
  2
AcDbXrecord
  3
AutoCAD 2000
 90
        0
280
     0
281
     0
  0
CLASS
  1
LONG_TRANSACTION
  2
AcDbLongTransaction
  3
AutoCAD 2000
 90
        0
280
     0
281
     0
  0
CLASS
  1
LWPOLYLINE
  2
AcDbPolyline
  3
AutoCAD 2000
 90
        0
280
     0
281
     1
  0
CLASS
  1
HATCH
  2
AcDbHatch
  3
AutoCAD 2000
 90
        0
280
     0
281
     1
  0
CLASS
  1
XRECORD
  2
AcDbXrecord
  3
AutoCAD 2000
 90
        0
280
     0
281
     0
  0
CLASS
  1
LONG_TRANSACTION
  2
AcDbLongTransaction
  3
AutoCAD 2000
 90
        0
280
     0
281
     0
  0
CLASS
  1
LWPOLYLINE
  2
AcDbPolyline
  3
AutoCAD 2000
 90
        0
280
     0
281
     1
  0
CLASS
  1
HATCH
  2
AcDbHatch
  3
AutoCAD 2000
 90
        0
280
     0
281
     1
  0
CLASS
  1
XRECORD
  2
AcDbXrecord
  3
AutoCAD 2000
 90
        0
280
     0
281
     0
  0
CLASS
  1
LONG_TRANSACTION
  2
AcDbLongTransaction
  3
AutoCAD 2000
 90
        0
280
     0
281
     0
  0
CLASS
  1
LWPOLYLINE
  2
AcDbPolyline
  3
AutoCAD 2000
 90
        0
280
     0
281
     1
  0
CLASS
  1
HATCH
  2
AcDbHatch
  3
AutoCAD 2000
 90
        0
280
     0
281
     1
  0
CLASS
  1
XRECORD
  2
AcDbXrecord
  3
AutoCAD 2000
 90
        0
280
     0
281
     0
  0
CLASS
  1
LONG_TRANSACTION
  2
AcDbLongTransaction
  3
AutoCAD 2000
 90
        0
280
     0
281
     0
  0
CLASS
  1
LWPOLYLINE
  2
AcDbPolyline
  3
AutoCAD 2000
 90
        0
280
     0
281
     1
  0
CLASS
  1
HATCH
  2
AcDbHatch
  3
AutoCAD 2000
 90
        0
280
     0
281
     1
  0
CLASS
  1
XRECORD
  2
AcDbXrecord
  3
AutoCAD 2000
 90
        0
280
     0
281
     0
  0
CLASS
  1
LONG_TRANSACTION
  2
AcDbLongTransaction
  3
AutoCAD 2000
 90
        0
280
     0
281
     0
  0
CLASS
  1
LWPOLYLINE
  2
AcDbPolyline
  3
AutoCAD 2000
 90
        0
280
     0
281
     1
  0
CLASS
  1
HATCH
  2
AcDbHatch
  3
AutoCAD 2000
 90
        0
280
     0
281
     1
  0
CLASS
  1
XRECORD
  2
AcDbXrecord
  3
AutoCAD 2000
 90
        0
280
     0
281
     0
  0
CLASS
  1
DICTIONARYVAR
  2
AcDbDictionaryVar
  3
AutoCAD 2000
 90
        0
280
     0
281
     0
  0
CLASS
  1
LONG_TRANSACTION
  2
AcDbLongTransaction
  3
AutoCAD 2000
 90
        0
280
     0
281
     0
  0
CLASS
  1
LWPOLYLINE
  2
AcDbPolyline
  3
AutoCAD 2000
 90
        0
280
     0
281
     1
  0
CLASS
  1
HATCH
  2
AcDbHatch
  3
AutoCAD 2000
 90
        0
280
     0
281
     1
  0
CLASS
  1
XRECORD
  2
AcDbXrecord
  3
AutoCAD 2000
 90
        0
280
     0
281
     0
  0
ENDSEC
  0
SECTION
  2
TABLES
  0
TABLE
  2
VPORT
  5
8
330
0
100
AcDbSymbolTable
 70
     3
  0
VPORT
  5
7929
330
8
100
AcDbSymbolTableRecord
100
AcDbViewportTableRecord
  2
*ACTIVE
 70
     0
 10
0.0
 20
0.0
 11
1.0
 21
1.0
 12
243.2795877235497
 22
-189.5172467221109
 13
0.0
 23
0.0
 14
1.0
 24
1.0
 15
10.0
 25
10.0
 16
0.0
 26
0.0
 36
1.0
 17
0.0
 27
0.0
 37
0.0
 40
903.5069310124608
 41
1.924949290060851
 42
50.0
 43
0.0
 44
0.0
 50
0.0
 51
0.0
 71
     0
 72
   100
 73
     1
 74
     1
 75
     0
 76
     0
 77
     0
 78
     0
  0
ENDTAB
  0
TABLE
  2
LTYPE
  5
5
330
0
100
AcDbSymbolTable
 70
     7
  0
LTYPE
  5
13
330
5
100
AcDbSymbolTableRecord
100
AcDbLinetypeTableRecord
  2
BYBLOCK
 70
     0
  3

 72
    65
 73
     0
 40
0.0
  0
LTYPE
  5
14
330
5
100
AcDbSymbolTableRecord
100
AcDbLinetypeTableRecord
  2
BYLAYER
 70
     0
  3

 72
    65
 73
     0
 40
0.0
  0
LTYPE
  5
15
330
5
100
AcDbSymbolTableRecord
100
AcDbLinetypeTableRecord
  2
CONTINUOUS
 70
     0
  3
Solid line
 72
    65
 73
     0
 40
0.0
  0
LTYPE
  5
22
330
5
100
AcDbSymbolTableRecord
100
AcDbLinetypeTableRecord
  2
CONTINOUS
 70
     0
  3
Solid line
 72
    65
 73
     0
 40
0.0
  0
LTYPE
  5
23
330
5
100
AcDbSymbolTableRecord
100
AcDbLinetypeTableRecord
  2
DASHED
 70
     0
  3
__ __ __ __ __ __ __ __ __ __ __ __ __ __ __
 72
    65
 73
     2
 40
0.75
 49
0.5
 74
     0
 49
-0.25
 74
     0
  0
LTYPE
  5
24
330
5
100
AcDbSymbolTableRecord
100
AcDbLinetypeTableRecord
  2
DASHDOT
 70
     0
  3
__ . __ . __ . __ . __ . __ . __ . __ . __ . __
 72
    65
 73
     4
 40
1.0
 49
0.5
 74
     0
 49
-0.25
 74
     0
 49
0.0
 74
     0
 49
-0.25
 74
     0
  0
LTYPE
  5
4C47
330
5
100
AcDbSymbolTableRecord
100
AcDbLinetypeTableRecord
  2
DIVIDE
 70
     0
  3
Divide ____ . . ____ . . ____ . . ____ . . ____
 72
    65
 73
     6
 40
1.25
 49
0.5
 74
     0
 49
-0.25
 74
     0
 49
0.0
 74
     0
 49
-0.25
 74
     0
 49
0.0
 74
     0
 49
-0.25
 74
     0
  0
LTYPE
  5
6CA0
330
5
100
AcDbSymbolTableRecord
100
AcDbLinetypeTableRecord
  2
D1101
 70
     0
  3
IGESIN-LineFont-D1101
 72
    65
 73
     6
 40
11.29999999999999
 49
8.0
 74
     0
 49
-0.6
 74
     0
 49
0.75
 74
     0
 49
-0.6
 74
     0
 49
0.75
 74
     0
 49
-0.6
 74
     0
  0
LTYPE
  5
6CA1
330
5
100
AcDbSymbolTableRecord
100
AcDbLinetypeTableRecord
  2
D1559
 70
     0
  3
IGESIN-LineFont-D1559
 72
    65
 73
     2
 40
1.35
 49
0.75
 74
     0
 49
-0.6
 74
     0
  0
ENDTAB
  0
TABLE
  2
LAYER
  5
2
330
0
100
AcDbSymbolTable
 70
    18
  0
LAYER
  5
10
330
2
100
AcDbSymbolTableRecord
100
AcDbLayerTableRecord
  2
0
 70
     0
 62
     7
  6
CONTINOUS
  0
LAYER
  5
2F
330
2
100
AcDbSymbolTableRecord
100
AcDbLayerTableRecord
  2
10
 70
     0
 62
     4
  6
CONTINOUS
  0
LAYER
  5
31
330
2
100
AcDbSymbolTableRecord
100
AcDbLayerTableRecord
  2
12
 70
     0
 62
     3
  6
CONTINOUS
  0
LAYER
  5
35
330
2
100
AcDbSymbolTableRecord
100
AcDbLayerTableRecord
  2
16
 70
     0
 62
     6
  6
DASHDOT
  0
LAYER
  5
38
330
2
100
AcDbSymbolTableRecord
100
AcDbLayerTableRecord
  2
19
 70
     0
 62
     7
  6
CONTINOUS
  0
LAYER
  5
3C
330
2
100
AcDbSymbolTableRecord
100
AcDbLayerTableRecord
  2
11
 70
     0
 62
     1
  6
CONTINOUS
  0
LAYER
  5
3D
330
2
100
AcDbSymbolTableRecord
100
AcDbLayerTableRecord
  2
24
 70
     0
 62
     2
  6
CONTINOUS
  0
LAYER
  5
3A2
330
2
100
AcDbSymbolTableRecord
100
AcDbLayerTableRecord
  2
30
 70
     0
 62
     9
  6
CONTINUOUS
  0
LAYER
  5
3A4
330
2
100
AcDbSymbolTableRecord
100
AcDbLayerTableRecord
  2
DEFPOINTS
 70
     0
 62
     7
  6
CONTINUOUS
  0
LAYER
  5
3BBA
330
2
100
AcDbSymbolTableRecord
100
AcDbLayerTableRecord
  2
18
 70
     0
 62
     5
  6
DIVIDE
  0
LAYER
  5
5D4D
330
2
100
AcDbSymbolTableRecord
100
AcDbLayerTableRecord
  2
17
 70
     0
 62
     2
  6
DASHDOT
  0
LAYER
  5
6CA2
330
2
100
AcDbSymbolTableRecord
100
AcDbLayerTableRecord
  2
L0_
 70
     0
 62
     7
  6
CONTINUOUS
  0
LAYER
  5
6CA3
330
2
100
AcDbSymbolTableRecord
100
AcDbLayerTableRecord
  2
L150_
 70
     0
 62
     7
  6
CONTINUOUS
  0
LAYER
  5
6CA4
330
2
100
AcDbSymbolTableRecord
100
AcDbLayerTableRecord
  2
L225_
 70
     0
 62
     7
  6
CONTINUOUS
  0
LAYER
  5
6CA5
330
2
100
AcDbSymbolTableRecord
100
AcDbLayerTableRecord
  2
L230_
 70
     0
 62
     7
  6
CONTINUOUS
  0
LAYER
  5
6FFE
330
2
100
AcDbSymbolTableRecord
100
AcDbLayerTableRecord
  2
L210_
 70
     0
 62
     7
  6
CONTINUOUS
  0
LAYER
  5
7598
330
2
100
AcDbSymbolTableRecord
100
AcDbLayerTableRecord
  2
L10_
 70
     0
 62
     7
  6
CONTINUOUS
  0
LAYER
  5
7599
330
2
100
AcDbSymbolTableRecord
100
AcDbLayerTableRecord
  2
L170_
 70
     0
 62
     7
  6
CONTINUOUS
  0
ENDTAB
  0
TABLE
  2
STYLE
  5
3
330
0
100
AcDbSymbolTable
 70
     4
  0
STYLE
  5
11
330
3
100
AcDbSymbolTableRecord
100
AcDbTextStyleTableRecord
  2
STANDARD
 70
     0
 40
0.0
 41
1.0
 50
0.0
 71
     0
 42
2.0
  3
simplex.shx
  4
bigfont.shx
  0
STYLE
  5
42
330
3
100
AcDbSymbolTableRecord
100
AcDbTextStyleTableRecord
  2
STANDARD1
 70
     0
 40
0.0
 41
1.0
 50
0.0
 71
     0
 42
5.0
  3
simplex.shx
  4
BIGFONT.shx
  0
STYLE
  5
6CA6
330
3
100
AcDbSymbolTableRecord
100
AcDbTextStyleTableRecord
  2
SYMBOL3
 70
     0
 40
0.0
 41
1.0
 50
0.0
 71
     0
 42
0.2
  3
iges1003
  4

  0
STYLE
  5
759A
330
3
100
AcDbSymbolTableRecord
100
AcDbTextStyleTableRecord
  2
LEROY
 70
     0
 40
0.0
 41
1.0
 50
0.0
 71
     0
 42
0.2
  3
txt
  4

  0
ENDTAB
  0
TABLE
  2
VIEW
  5
6
330
0
100
AcDbSymbolTable
 70
     3
  0
VIEW
  5
230C
330
6
100
AcDbSymbolTableRecord
100
AcDbViewTableRecord
  2
OLE1
 70
     0
 40
148.9124878027715
 10
429.4976280407224
 20
2.560626997828478
 41
103.1458057716445
 11
0.0
 21
0.0
 31
1.0
 12
0.0
 22
0.0
 32
0.0
 42
50.0
 43
0.0
 44
0.0
 50
0.0
 71
     0
  0
VIEW
  5
230E
330
6
100
AcDbSymbolTableRecord
100
AcDbViewTableRecord
  2
OLE2
 70
     0
 40
170.7786920545776
 10
322.664969958371
 20
-5.978304054290276
 41
102.4672152327465
 11
0.0
 21
0.0
 31
1.0
 12
0.0
 22
0.0
 32
0.0
 42
50.0
 43
0.0
 44
0.0
 50
0.0
 71
     0
  0
VIEW
  5
23AA
330
6
100
AcDbSymbolTableRecord
100
AcDbViewTableRecord
  2
OLE3
 70
     0
 40
591.7897393182231
 10
84.79698158148218
 20
-46.09336010803997
 41
388.7920961799954
 11
0.0
 21
0.0
 31
1.0
 12
0.0
 22
0.0
 32
0.0
 42
50.0
 43
0.0
 44
0.0
 50
0.0
 71
     0
  0
ENDTAB
  0
TABLE
  2
UCS
  5
7
330
0
100
AcDbSymbolTable
 70
     0
  0
ENDTAB
  0
TABLE
  2
APPID
  5
9
330
0
100
AcDbSymbolTable
 70
     2
  0
APPID
  5
12
330
9
100
AcDbSymbolTableRecord
100
AcDbRegAppTableRecord
  2
ACAD
 70
     0
  0
APPID
  5
ECD
330
9
100
AcDbSymbolTableRecord
100
AcDbRegAppTableRecord
  2
CONTENTBLOCKICON
 70
     0
  0
ENDTAB
  0
TABLE
  2
DIMSTYLE
  5
A
330
0
100
AcDbSymbolTable
 70
     1
  0
DIMSTYLE
105
175
102
{ACAD_REACTORS
330
6EC8
330
6F3C
330
6F52
330
6F5F
330
6FA5
330
768D
330
769A
330
76E8
330
76F5
330
7702
330
770F
330
7720
330
772D
330
773A
330
6FB2
330
77DD
330
77EA
330
78DB
330
78E8
330
78F5
102
}
330
A
100
AcDbSymbolTableRecord
100
AcDbDimStyleTableRecord
  2
STANDARD
 70
     0
  3

  4

  5
OPEN
  6

  7

 40
1.0
 41
2.0
 42
1.0
 43
0.5
 44
0.5
 45
0.0
 46
0.0
 47
0.0
 48
0.0
140
5.0
141
0.09
142
0.0
143
25.4
144
1.0
145
0.0
146
1.0
147
1.0
 71
     0
 72
     0
 73
     0
 74
     1
 75
     0
 76
     0
 77
     3
 78
    12
170
     0
171
     2
172
     0
173
     0
174
     0
175
     0
176
     0
177
     0
178
     0
270
     2
271
     1
272
     1
273
     2
274
     2
340
11
275
     0
280
     0
281
     0
282
     0
283
     1
284
     0
285
     0
286
     0
287
     3
288
     0
  0
ENDTAB
  0
TABLE
  2
BLOCK_RECORD
  5
1
330
0
100
AcDbSymbolTable
 70
    25
  0
BLOCK_RECORD
  5
1E
102
{ACAD_XDICTIONARY
360
178
102
}
330
1
100
AcDbSymbolTableRecord
100
AcDbBlockTableRecord
  2
*MODEL_SPACE
  0
BLOCK_RECORD
  5
1A
102
{ACAD_XDICTIONARY
360
17A
102
}
330
1
100
AcDbSymbolTableRecord
100
AcDbBlockTableRecord
  2
*PAPER_SPACE
  0
BLOCK_RECORD
  5
3B2
330
1
100
AcDbSymbolTableRecord
100
AcDbBlockTableRecord
  2
_OPEN
  0
BLOCK_RECORD
  5
6EC9
330
1
100
AcDbSymbolTableRecord
100
AcDbBlockTableRecord
  2
*D1
  0
BLOCK_RECORD
  5
6F3D
330
1
100
AcDbSymbolTableRecord
100
AcDbBlockTableRecord
  2
*D2
  0
BLOCK_RECORD
  5
6F53
330
1
100
AcDbSymbolTableRecord
100
AcDbBlockTableRecord
  2
*D3
  0
BLOCK_RECORD
  5
6F60
330
1
100
AcDbSymbolTableRecord
100
AcDbBlockTableRecord
  2
*D4
  0
BLOCK_RECORD
  5
6FA6
330
1
100
AcDbSymbolTableRecord
100
AcDbBlockTableRecord
  2
*D5
  0
BLOCK_RECORD
  5
6FB3
330
1
100
AcDbSymbolTableRecord
100
AcDbBlockTableRecord
  2
*D6
  0
BLOCK_RECORD
  5
7586
330
1
100
AcDbSymbolTableRecord
100
AcDbBlockTableRecord
  2
B4263
  0
BLOCK_RECORD
  5
758B
330
1
100
AcDbSymbolTableRecord
100
AcDbBlockTableRecord
  2
*D8
  0
BLOCK_RECORD
  5
7593
330
1
100
AcDbSymbolTableRecord
100
AcDbBlockTableRecord
  2
B4267
  0
BLOCK_RECORD
  5
768E
330
1
100
AcDbSymbolTableRecord
100
AcDbBlockTableRecord
  2
*D10
  0
BLOCK_RECORD
  5
769B
330
1
100
AcDbSymbolTableRecord
100
AcDbBlockTableRecord
  2
*D11
  0
BLOCK_RECORD
  5
76E9
330
1
100
AcDbSymbolTableRecord
100
AcDbBlockTableRecord
  2
*D13
  0
BLOCK_RECORD
  5
76F6
330
1
100
AcDbSymbolTableRecord
100
AcDbBlockTableRecord
  2
*D14
  0
BLOCK_RECORD
  5
7703
330
1
100
AcDbSymbolTableRecord
100
AcDbBlockTableRecord
  2
*D15
  0
BLOCK_RECORD
  5
7710
330
1
100
AcDbSymbolTableRecord
100
AcDbBlockTableRecord
  2
*D16
  0
BLOCK_RECORD
  5
7721
330
1
100
AcDbSymbolTableRecord
100
AcDbBlockTableRecord
  2
*D17
  0
BLOCK_RECORD
  5
772E
330
1
100
AcDbSymbolTableRecord
100
AcDbBlockTableRecord
  2
*D18
  0
BLOCK_RECORD
  5
773B
330
1
100
AcDbSymbolTableRecord
100
AcDbBlockTableRecord
  2
*D19
  0
BLOCK_RECORD
  5
77DE
330
1
100
AcDbSymbolTableRecord
100
AcDbBlockTableRecord
  2
*D20
  0
BLOCK_RECORD
  5
77EB
330
1
100
AcDbSymbolTableRecord
100
AcDbBlockTableRecord
  2
*D21
  0
BLOCK_RECORD
  5
78DC
330
1
100
AcDbSymbolTableRecord
100
AcDbBlockTableRecord
  2
*D22
  0
BLOCK_RECORD
  5
78E9
330
1
100
AcDbSymbolTableRecord
100
AcDbBlockTableRecord
  2
*D23
  0
BLOCK_RECORD
  5
78F6
330
1
100
AcDbSymbolTableRecord
100
AcDbBlockTableRecord
  2
*D24
  0
ENDTAB
  0
ENDSEC
  0
SECTION
  2
BLOCKS
  0
BLOCK
  5
1F
330
1E
100
AcDbEntity
  8
0
100
AcDbBlockBegin
  2
*MODEL_SPACE
 70
     0
 10
0.0
 20
0.0
 30
0.0
  3
*MODEL_SPACE
  1

  0
ENDBLK
  5
20
330
1E
100
AcDbEntity
  8
0
100
AcDbBlockEnd
  0
BLOCK
  5
1B
330
1A
100
AcDbEntity
 67
     1
  8
0
100
AcDbBlockBegin
  2
*PAPER_SPACE
 70
     0
 10
0.0
 20
0.0
 30
0.0
  3
*PAPER_SPACE
  1

  0
ENDBLK
  5
1C
330
1A
100
AcDbEntity
 67
     1
  8
0
100
AcDbBlockEnd
  0
BLOCK
  5
3B6
330
3B2
100
AcDbEntity
  8
0
100
AcDbBlockBegin
  2
_OPEN
 70
     0
 10
0.0
 20
0.0
 30
0.0
  3
_OPEN
  1

  0
LINE
  5
3B3
330
3B2
100
AcDbEntity
  8
30
  6
CONTINUOUS
 62
     0
100
AcDbLine
 10
-1.0
 20
0.1666666666666666
 30
0.0
 11
0.0
 21
0.0
 31
0.0
  0
LINE
  5
3B4
330
3B2
100
AcDbEntity
  8
30
  6
CONTINUOUS
 62
     0
100
AcDbLine
 10
-1.0
 20
-0.1666666666666666
 30
0.0
 11
0.0
 21
0.0
 31
0.0
  0
LINE
  5
3B5
330
3B2
100
AcDbEntity
  8
30
  6
CONTINUOUS
 62
     0
100
AcDbLine
 10
0.0
 20
0.0
 30
0.0
 11
-1.0
 21
0.0
 31
0.0
  0
ENDBLK
  5
3B7
330
3B2
100
AcDbEntity
  8
0
100
AcDbBlockEnd
  0
BLOCK
  5
6ED3
330
6EC9
100
AcDbEntity
  8
0
100
AcDbBlockBegin
  2
*D1
 70
     1
 10
0.0
 20
0.0
 30
0.0
  3
*D1
  1

  0
LINE
  5
6F81
330
6EC9
100
AcDbEntity
  8
30
  6
CONTINUOUS
 62
     0
100
AcDbLine
 10
178.7658861626475
 20
-1.0
 30
0.0
 11
178.7658861626475
 21
-210.0853277737153
 31
0.0
  0
LINE
  5
6F82
330
6EC9
100
AcDbEntity
  8
30
  6
CONTINUOUS
 62
     0
100
AcDbLine
 10
323.8083619458902
 20
-148.0
 30
0.0
 11
323.8083619458902
 21
-210.0853277737153
 31
0.0
  0
LINE
  5
6F83
330
6EC9
100
AcDbEntity
  8
30
  6
CONTINUOUS
 62
     0
100
AcDbLine
 10
180.7658861626475
 20
-209.5853277737153
 30
0.0
 11
321.8083619458902
 21
-209.5853277737153
 31
0.0
  0
INSERT
  5
6F84
330
6EC9
100
AcDbEntity
  8
30
  6
CONTINUOUS
 62
     0
100
AcDbBlockReference
  2
_OPEN
 10
178.7658861626475
 20
-209.5853277737153
 30
0.0
 41
2.0
 42
2.0
 43
2.0
 50
180.0
  0
INSERT
  5
6F85
330
6EC9
100
AcDbEntity
  8
30
  6
CONTINUOUS
 62
     0
100
AcDbBlockReference
  2
_OPEN
 10
323.8083619458902
 20
-209.5853277737153
 30
0.0
 41
2.0
 42
2.0
 43
2.0
  0
MTEXT
  5
6F86
330
6EC9
100
AcDbEntity
  8
30
  6
CONTINUOUS
 62
     0
100
AcDbMText
 10
251.2871240542688
 20
-206.0853277737153
 30
0.0
 40
5.0
 41
0.0
 71
     5
 72
     1
  1
\A1;145
1001
ACAD
1000
MTEXTBEGIN
1070
    73
1070
     1
1070
    44
1040
1.0
1070
    74
1070
     0
1000
MTEXTEND
  0
POINT
  5
6F87
330
6EC9
100
AcDbEntity
  8
DEFPOINTS
  6
CONTINUOUS
 62
     0
100
AcDbPoint
 10
178.7658861626475
 20
0.0
 30
0.0
  0
POINT
  5
6F88
330
6EC9
100
AcDbEntity
  8
DEFPOINTS
  6
CONTINUOUS
 62
     0
100
AcDbPoint
 10
323.8083619458902
 20
-147.0
 30
0.0
  0
POINT
  5
6F89
330
6EC9
100
AcDbEntity
  8
DEFPOINTS
  6
CONTINUOUS
 62
     0
100
AcDbPoint
 10
323.8083619458902
 20
-209.5853277737153
 30
0.0
  0
ENDBLK
  5
6ED4
330
6EC9
100
AcDbEntity
  8
0
100
AcDbBlockEnd
  0
BLOCK
  5
6F47
330
6F3D
100
AcDbEntity
  8
0
100
AcDbBlockBegin
  2
*D2
 70
     1
 10
0.0
 20
0.0
 30
0.0
  3
*D2
  1

  0
LINE
  5
6F8A
330
6F3D
100
AcDbEntity
  8
30
  6
CONTINUOUS
 62
     0
100
AcDbLine
 10
220.8083619458903
 20
-107.9997558594
 30
0.0
 11
220.8083619458903
 21
-192.5387863989474
 31
0.0
  0
LINE
  5
6F8B
330
6F3D
100
AcDbEntity
  8
30
  6
CONTINUOUS
 62
     0
100
AcDbLine
 10
341.8084840162903
 20
-86.0
 30
0.0
 11
341.8084840162903
 21
-192.5387863989474
 31
0.0
  0
LINE
  5
6F8C
330
6F3D
100
AcDbEntity
  8
30
  6
CONTINUOUS
 62
     0
100
AcDbLine
 10
222.8083619458903
 20
-192.0387863989474
 30
0.0
 11
339.8084840162903
 21
-192.0387863989474
 31
0.0
  0
INSERT
  5
6F8D
330
6F3D
100
AcDbEntity
  8
30
  6
CONTINUOUS
 62
     0
100
AcDbBlockReference
  2
_OPEN
 10
220.8083619458903
 20
-192.0387863989474
 30
0.0
 41
2.0
 42
2.0
 43
2.0
 50
180.0
  0
INSERT
  5
6F8E
330
6F3D
100
AcDbEntity
  8
30
  6
CONTINUOUS
 62
     0
100
AcDbBlockReference
  2
_OPEN
 10
341.8084840162903
 20
-192.0387863989474
 30
0.0
 41
2.0
 42
2.0
 43
2.0
  0
MTEXT
  5
6F8F
330
6F3D
100
AcDbEntity
  8
30
  6
CONTINUOUS
 62
     0
100
AcDbMText
 10
281.3084229810903
 20
-188.5387863989474
 30
0.0
 40
5.0
 41
0.0
 71
     5
 72
     1
  1
\A1;121
1001
ACAD
1000
MTEXTBEGIN
1070
    73
1070
     1
1070
    44
1040
1.0
1070
    74
1070
     0
1000
MTEXTEND
  0
POINT
  5
6F90
330
6F3D
100
AcDbEntity
  8
DEFPOINTS
  6
CONTINUOUS
 62
     0
100
AcDbPoint
 10
220.8083619458903
 20
-106.9997558594
 30
0.0
  0
POINT
  5
6F91
330
6F3D
100
AcDbEntity
  8
DEFPOINTS
  6
CONTINUOUS
 62
     0
100
AcDbPoint
 10
341.8084840162903
 20
-85.0
 30
0.0
  0
POINT
  5
6F92
330
6F3D
100
AcDbEntity
  8
DEFPOINTS
  6
CONTINUOUS
 62
     0
100
AcDbPoint
 10
341.8084840162903
 20
-192.0387863989474
 30
0.0
  0
ENDBLK
  5
6F48
330
6F3D
100
AcDbEntity
  8
0
100
AcDbBlockEnd
  0
BLOCK
  5
6F5D
330
6F53
100
AcDbEntity
  8
0
100
AcDbBlockBegin
  2
*D3
 70
     1
 10
0.0
 20
0.0
 30
0.0
  3
*D3
  1

  0
LINE
  5
794D
330
6F53
100
AcDbEntity
  8
30
  6
CONTINUOUS
 62
     0
100
AcDbLine
 10
341.8084840162903
 20
-86.0
 30
0.0
 11
341.8084840162903
 21
-192.5387863989474
 31
0.0
  0
LINE
  5
794E
330
6F53
100
AcDbEntity
  8
30
  6
CONTINUOUS
 62
     0
100
AcDbLine
 10
403.8084840162903
 20
-148.0
 30
0.0
 11
403.8084840162903
 21
-192.5387863989474
 31
0.0
  0
LINE
  5
794F
330
6F53
100
AcDbEntity
  8
30
  6
CONTINUOUS
 62
     0
100
AcDbLine
 10
343.8084840162903
 20
-192.0387863989474
 30
0.0
 11
401.8084840162903
 21
-192.0387863989474
 31
0.0
  0
INSERT
  5
7950
330
6F53
100
AcDbEntity
  8
30
  6
CONTINUOUS
 62
     0
100
AcDbBlockReference
  2
_OPEN
 10
341.8084840162903
 20
-192.0387863989474
 30
0.0
 41
2.0
 42
2.0
 43
2.0
 50
180.0
  0
INSERT
  5
7951
330
6F53
100
AcDbEntity
  8
30
  6
CONTINUOUS
 62
     0
100
AcDbBlockReference
  2
_OPEN
 10
403.8084840162903
 20
-192.0387863989474
 30
0.0
 41
2.0
 42
2.0
 43
2.0
  0
MTEXT
  5
7952
330
6F53
100
AcDbEntity
  8
30
  6
CONTINUOUS
 62
     0
100
AcDbMText
 10
372.8084840162903
 20
-188.5387863989474
 30
0.0
 40
5.0
 41
0.0
 71
     5
 72
     1
  1
\A1;62
  0
POINT
  5
7953
330
6F53
100
AcDbEntity
  8
DEFPOINTS
  6
CONTINUOUS
 62
     0
100
AcDbPoint
 10
341.8084840162903
 20
-85.0
 30
0.0
  0
POINT
  5
7954
330
6F53
100
AcDbEntity
  8
DEFPOINTS
  6
CONTINUOUS
 62
     0
100
AcDbPoint
 10
403.8084840162903
 20
-147.0
 30
0.0
  0
POINT
  5
7955
330
6F53
100
AcDbEntity
  8
DEFPOINTS
  6
CONTINUOUS
 62
     0
100
AcDbPoint
 10
403.8084840162903
 20
-192.0387863989474
 30
0.0
  0
ENDBLK
  5
6F5E
330
6F53
100
AcDbEntity
  8
0
100
AcDbBlockEnd
  0
BLOCK
  5
6F6A
330
6F60
100
AcDbEntity
  8
0
100
AcDbBlockBegin
  2
*D4
 70
     1
 10
0.0
 20
0.0
 30
0.0
  3
*D4
  1

  0
LINE
  5
7956
330
6F60
100
AcDbEntity
  8
30
  6
CONTINUOUS
 62
     0
100
AcDbLine
 10
403.8084840162903
 20
-148.0
 30
0.0
 11
403.8084840162903
 21
-192.5387863989474
 31
0.0
  0
LINE
  5
7957
330
6F60
100
AcDbEntity
  8
30
  6
CONTINUOUS
 62
     0
100
AcDbLine
 10
433.8084840162903
 20
-125.9997558594
 30
0.0
 11
433.8084840162903
 21
-192.5387863989474
 31
0.0
  0
LINE
  5
7958
330
6F60
100
AcDbEntity
  8
30
  6
CONTINUOUS
 62
     0
100
AcDbLine
 10
405.8084840162903
 20
-192.0387863989474
 30
0.0
 11
431.8084840162903
 21
-192.0387863989474
 31
0.0
  0
INSERT
  5
7959
330
6F60
100
AcDbEntity
  8
30
  6
CONTINUOUS
 62
     0
100
AcDbBlockReference
  2
_OPEN
 10
403.8084840162903
 20
-192.0387863989474
 30
0.0
 41
2.0
 42
2.0
 43
2.0
 50
180.0
  0
INSERT
  5
795A
330
6F60
100
AcDbEntity
  8
30
  6
CONTINUOUS
 62
     0
100
AcDbBlockReference
  2
_OPEN
 10
433.8084840162903
 20
-192.0387863989474
 30
0.0
 41
2.0
 42
2.0
 43
2.0
  0
MTEXT
  5
795B
330
6F60
100
AcDbEntity
  8
30
  6
CONTINUOUS
 62
     0
100
AcDbMText
 10
418.8084840162903
 20
-188.5387863989474
 30
0.0
 40
5.0
 41
0.0
 71
     5
 72
     1
  1
\A1;30
  0
POINT
  5
795C
330
6F60
100
AcDbEntity
  8
DEFPOINTS
  6
CONTINUOUS
 62
     0
100
AcDbPoint
 10
403.8084840162903
 20
-147.0
 30
0.0
  0
POINT
  5
795D
330
6F60
100
AcDbEntity
  8
DEFPOINTS
  6
CONTINUOUS
 62
     0
100
AcDbPoint
 10
433.8084840162903
 20
-124.9997558594
 30
0.0
  0
POINT
  5
795E
330
6F60
100
AcDbEntity
  8
DEFPOINTS
  6
CONTINUOUS
 62
     0
100
AcDbPoint
 10
433.8084840162903
 20
-192.0387863989474
 30
0.0
  0
ENDBLK
  5
6F6B
330
6F60
100
AcDbEntity
  8
0
100
AcDbBlockEnd
  0
BLOCK
  5
6FB0
330
6FA6
100
AcDbEntity
  8
0
100
AcDbBlockBegin
  2
*D5
 70
     1
 10
0.0
 20
0.0
 30
0.0
  3
*D5
  1

  0
LINE
  5
6FA7
330
6FA6
100
AcDbEntity
  8
30
  6
CONTINUOUS
 62
     0
100
AcDbLine
 10
433.8084840162903
 20
-126.9997558594
 30
0.0
 11
433.8084840162903
 21
-175.5972965716073
 31
0.0
  0
LINE
  5
6FA8
330
6FA6
100
AcDbEntity
  8
30
  6
CONTINUOUS
 62
     0
100
AcDbLine
 10
388.8084840162903
 20
-134.9997558594
 30
0.0
 11
388.8084840162903
 21
-175.5972965716073
 31
0.0
  0
LINE
  5
6FA9
330
6FA6
100
AcDbEntity
  8
30
  6
CONTINUOUS
 62
     0
100
AcDbLine
 10
431.8084840162903
 20
-175.0972965716073
 30
0.0
 11
390.8084840162903
 21
-175.0972965716073
 31
0.0
  0
INSERT
  5
6FAA
330
6FA6
100
AcDbEntity
  8
30
  6
CONTINUOUS
 62
     0
100
AcDbBlockReference
  2
_OPEN
 10
433.8084840162903
 20
-175.0972965716073
 30
0.0
 41
2.0
 42
2.0
 43
2.0
  0
INSERT
  5
6FAB
330
6FA6
100
AcDbEntity
  8
30
  6
CONTINUOUS
 62
     0
100
AcDbBlockReference
  2
_OPEN
 10
388.8084840162903
 20
-175.0972965716073
 30
0.0
 41
2.0
 42
2.0
 43
2.0
 50
180.0
  0
MTEXT
  5
6FAC
330
6FA6
100
AcDbEntity
  8
30
  6
CONTINUOUS
 62
     0
100
AcDbMText
 10
411.3084840162903
 20
-171.5972965716073
 30
0.0
 40
5.0
 41
0.0
 71
     5
 72
     1
  1
\A1;45
1001
ACAD
1000
MTEXTBEGIN
1070
    73
1070
     1
1070
    44
1040
1.0
1070
    74
1070
     0
1000
MTEXTEND
  0
POINT
  5
6FAD
330
6FA6
100
AcDbEntity
  8
DEFPOINTS
  6
CONTINUOUS
 62
     0
100
AcDbPoint
 10
433.8084840162903
 20
-125.9997558594
 30
0.0
  0
POINT
  5
6FAE
330
6FA6
100
AcDbEntity
  8
DEFPOINTS
  6
CONTINUOUS
 62
     0
100
AcDbPoint
 10
388.8084840162903
 20
-133.9997558594
 30
0.0
  0
POINT
  5
6FAF
330
6FA6
100
AcDbEntity
  8
DEFPOINTS
  6
CONTINUOUS
 62
     0
100
AcDbPoint
 10
388.8084840162903
 20
-175.0972965716073
 30
0.0
  0
ENDBLK
  5
6FB1
330
6FA6
100
AcDbEntity
  8
0
100
AcDbBlockEnd
  0
BLOCK
  5
6FBD
330
6FB3
100
AcDbEntity
  8
0
100
AcDbBlockBegin
  2
*D6
 70
     1
 10
0.0
 20
0.0
 30
0.0
  3
*D6
  1

  0
LINE
  5
795F
330
6FB3
100
AcDbEntity
  8
30
  6
CONTINUOUS
 62
     0
100
AcDbLine
 10
388.8084840162903
 20
-134.9997558594
 30
0.0
 11
388.8084840162903
 21
-175.5972965716073
 31
0.0
  0
LINE
  5
7960
330
6FB3
100
AcDbEntity
  8
30
  6
CONTINUOUS
 62
     0
100
AcDbLine
 10
341.8084840162903
 20
-148.0
 30
0.0
 11
341.8084840162903
 21
-175.5972965716073
 31
0.0
  0
LINE
  5
7961
330
6FB3
100
AcDbEntity
  8
30
  6
CONTINUOUS
 62
     0
100
AcDbLine
 10
386.8084840162903
 20
-175.0972965716073
 30
0.0
 11
343.8084840162903
 21
-175.0972965716073
 31
0.0
  0
INSERT
  5
7962
330
6FB3
100
AcDbEntity
  8
30
  6
CONTINUOUS
 62
     0
100
AcDbBlockReference
  2
_OPEN
 10
388.8084840162903
 20
-175.0972965716073
 30
0.0
 41
2.0
 42
2.0
 43
2.0
  0
INSERT
  5
7963
330
6FB3
100
AcDbEntity
  8
30
  6
CONTINUOUS
 62
     0
100
AcDbBlockReference
  2
_OPEN
 10
341.8084840162903
 20
-175.0972965716073
 30
0.0
 41
2.0
 42
2.0
 43
2.0
 50
180.0
  0
MTEXT
  5
7964
330
6FB3
100
AcDbEntity
  8
30
  6
CONTINUOUS
 62
     0
100
AcDbMText
 10
365.3084840162903
 20
-171.5972965716073
 30
0.0
 40
5.0
 41
0.0
 71
     5
 72
     1
  1
\A1;47
  0
POINT
  5
7965
330
6FB3
100
AcDbEntity
  8
DEFPOINTS
  6
CONTINUOUS
 62
     0
100
AcDbPoint
 10
388.8084840162903
 20
-133.9997558594
 30
0.0
  0
POINT
  5
7966
330
6FB3
100
AcDbEntity
  8
DEFPOINTS
  6
CONTINUOUS
 62
     0
100
AcDbPoint
 10
341.8084840162903
 20
-147.0
 30
0.0
  0
POINT
  5
7967
330
6FB3
100
AcDbEntity
  8
DEFPOINTS
  6
CONTINUOUS
 62
     0
100
AcDbPoint
 10
341.8084840162903
 20
-175.0972965716073
 30
0.0
  0
ENDBLK
  5
6FBE
330
6FB3
100
AcDbEntity
  8
0
100
AcDbBlockEnd
  0
BLOCK
  5
7589
330
7586
100
AcDbEntity
  8
L0_
  6
CONTINUOUS
100
AcDbBlockBegin
  2
B4263
 70
     0
 10
0.0
 20
0.0
 30
0.0
  3
B4263
  1

  0
TEXT
  5
7587
330
7586
100
AcDbEntity
  8
L0_
  6
CONTINUOUS
100
AcDbText
 10
4001.9963378906
 20
1137.0513916016
 30
0.0
 40
15.0
  1
n
 41
2.30859375
  7
SYMBOL3
 72
     5
 11
4024.4963378906
 21
1137.0513916016
 31
0.0
100
AcDbText
 73
     2
  0
TEXT
  5
7588
330
7586
100
AcDbEntity
  8
L0_
  6
CONTINUOUS
100
AcDbText
 10
4024.4963378906
 20
1137.0513916016
 30
0.0
 40
15.0
  1
11
 41
0.7695312500000001
  7
SYMBOL3
 72
     5
 11
4039.496337890599
 21
1137.0513916016
 31
0.0
100
AcDbText
 73
     2
  0
ENDBLK
  5
758A
330
7586
100
AcDbEntity
  8
L0_
  6
CONTINUOUS
100
AcDbBlockEnd
  0
BLOCK
  5
7591
330
758B
100
AcDbEntity
  8
0
100
AcDbBlockBegin
  2
*D8
 70
     1
 10
0.0
 20
0.0
 30
0.0
  3
*D8
  1

  0
LINE
  5
758C
330
758B
100
AcDbEntity
  8
0
  6
BYBLOCK
100
AcDbLine
 10
3936.775740999559
 20
1230.563257142436
 30
0.0
 11
3986.420356404038
 21
1125.693578069618
 31
0.0
  0
LINE
  5
758D
330
758B
100
AcDbEntity
  8
0
  6
BYBLOCK
100
AcDbLine
 10
3986.420356404038
 20
1125.693578069618
 30
0.0
 11
3986.510356404038
 21
1125.693578069618
 31
0.0
  0
SOLID
  5
758E
330
758B
100
AcDbEntity
  8
0
  6
BYBLOCK
100
AcDbTrace
 10
3934.516142255065
 20
1229.493577978442
 30
0.0
 11
3939.035339744053
 21
1231.632936306429
 31
0.0
 12
3930.3576660156
 22
1244.1208496094
 32
0.0
 13
3930.3576660156
 23
1244.1208496094
 33
0.0
  0
POINT
  5
758F
330
758B
100
AcDbEntity
  8
DEFPOINTS
  6
BYBLOCK
 62
     0
100
AcDbPoint
 10
3930.3576660156
 20
1244.1208496094
 30
0.0
  0
POINT
  5
7590
330
758B
100
AcDbEntity
  8
DEFPOINTS
  6
BYBLOCK
 62
     0
100
AcDbPoint
 10
3925.651123047
 20
1254.0629882812
 30
0.0
  0
ENDBLK
  5
7592
330
758B
100
AcDbEntity
  8
0
100
AcDbBlockEnd
  0
BLOCK
  5
7596
330
7593
100
AcDbEntity
  8
L210_
100
AcDbBlockBegin
  2
B4267
 70
     0
 10
0.0
 20
0.0
 30
0.0
  3
B4267
  1

  0
DIMENSION
  5
7594
330
7593
100
AcDbEntity
  8
L210_
100
AcDbDimension
  2
*D8
 10
3925.651123047
 20
1254.0629882812
 30
0.0
 11
4151.307128964743
 21
1353.683767869828
 31
0.0
 70
     3
  1
 
100
AcDbDiametricDimension
 15
3930.3576660156
 25
1244.1208496094
 35
0.0
 40
131.0268823484214
  0
INSERT
  5
7595
330
7593
100
AcDbEntity
  8
L0_
  6
CONTINUOUS
100
AcDbBlockReference
  2
B4263
 10
0.0
 20
0.0
 30
0.0
  0
ENDBLK
  5
7597
330
7593
100
AcDbEntity
  8
L210_
100
AcDbBlockEnd
  0
BLOCK
  5
7698
330
768E
100
AcDbEntity
  8
0
100
AcDbBlockBegin
  2
*D10
 70
     1
 10
0.0
 20
0.0
 30
0.0
  3
*D10
  1

  0
LINE
  5
768F
330
768E
100
AcDbEntity
  8
30
  6
CONTINUOUS
 62
     0
100
AcDbLine
 10
372.2661050375718
 20
-514.6617850407571
 30
0.0
 11
372.2661050375718
 21
-602.9032371828188
 31
0.0
  0
LINE
  5
7690
330
768E
100
AcDbEntity
  8
30
  6
CONTINUOUS
 62
     0
100
AcDbLine
 10
462.2661050375718
 20
-514.6617850407571
 30
0.0
 11
462.2661050375718
 21
-602.9032371828188
 31
0.0
  0
LINE
  5
7691
330
768E
100
AcDbEntity
  8
30
  6
CONTINUOUS
 62
     0
100
AcDbLine
 10
374.2661050375718
 20
-602.4032371828188
 30
0.0
 11
460.2661050375718
 21
-602.4032371828188
 31
0.0
  0
INSERT
  5
7692
330
768E
100
AcDbEntity
  8
30
  6
CONTINUOUS
 62
     0
100
AcDbBlockReference
  2
_OPEN
 10
372.2661050375718
 20
-602.4032371828188
 30
0.0
 41
2.0
 42
2.0
 43
2.0
 50
180.0
  0
INSERT
  5
7693
330
768E
100
AcDbEntity
  8
30
  6
CONTINUOUS
 62
     0
100
AcDbBlockReference
  2
_OPEN
 10
462.2661050375718
 20
-602.4032371828188
 30
0.0
 41
2.0
 42
2.0
 43
2.0
  0
MTEXT
  5
7694
330
768E
100
AcDbEntity
  8
30
  6
CONTINUOUS
 62
     0
100
AcDbMText
 10
417.2661050375718
 20
-598.9032371828188
 30
0.0
 40
5.0
 41
0.0
 71
     5
 72
     1
  1
\A1;90
1001
ACAD
1000
MTEXTBEGIN
1070
    73
1070
     1
1070
    44
1040
1.0
1070
    74
1070
     0
1000
MTEXTEND
  0
POINT
  5
7695
330
768E
100
AcDbEntity
  8
DEFPOINTS
  6
CONTINUOUS
 62
     0
100
AcDbPoint
 10
372.2661050375718
 20
-513.6617850407572
 30
0.0
  0
POINT
  5
7696
330
768E
100
AcDbEntity
  8
DEFPOINTS
  6
CONTINUOUS
 62
     0
100
AcDbPoint
 10
462.2661050375718
 20
-513.6617850407572
 30
0.0
  0
POINT
  5
7697
330
768E
100
AcDbEntity
  8
DEFPOINTS
  6
CONTINUOUS
 62
     0
100
AcDbPoint
 10
462.2661050375718
 20
-602.4032371828188
 30
0.0
  0
ENDBLK
  5
7699
330
768E
100
AcDbEntity
  8
0
100
AcDbBlockEnd
  0
BLOCK
  5
76A5
330
769B
100
AcDbEntity
  8
0
100
AcDbBlockBegin
  2
*D11
 70
     1
 10
0.0
 20
0.0
 30
0.0
  3
*D11
  1

  0
LINE
  5
791D
330
769B
100
AcDbEntity
  8
30
  6
CONTINUOUS
 62
     0
100
AcDbLine
 10
477.7661050375718
 20
-356.1617850407571
 30
0.0
 11
618.1877252365411
 21
-356.1617850407571
 31
0.0
  0
LINE
  5
791E
330
769B
100
AcDbEntity
  8
30
  6
CONTINUOUS
 62
     0
100
AcDbLine
 10
523.2661050375718
 20
-432.1617850407571
 30
0.0
 11
618.1877252365411
 21
-432.1617850407571
 31
0.0
  0
LINE
  5
791F
330
769B
100
AcDbEntity
  8
30
  6
CONTINUOUS
 62
     0
100
AcDbLine
 10
617.6877252365411
 20
-358.1617850407571
 30
0.0
 11
617.6877252365411
 21
-430.1617850407572
 31
0.0
  0
INSERT
  5
7920
330
769B
100
AcDbEntity
  8
30
  6
CONTINUOUS
 62
     0
100
AcDbBlockReference
  2
_OPEN
 10
617.6877252365411
 20
-356.1617850407571
 30
0.0
 41
2.0
 42
2.0
 43
2.0
 50
90.0
  0
INSERT
  5
7921
330
769B
100
AcDbEntity
  8
30
  6
CONTINUOUS
 62
     0
100
AcDbBlockReference
  2
_OPEN
 10
617.6877252365411
 20
-432.1617850407571
 30
0.0
 41
2.0
 42
2.0
 43
2.0
 50
270.0
  0
MTEXT
  5
7922
330
769B
100
AcDbEntity
  8
30
  6
CONTINUOUS
 62
     0
100
AcDbMText
 10
614.1877252365413
 20
-394.1617850407571
 30
0.0
 40
5.0
 41
0.0
 71
     5
 72
     1
  1
\A1;76
 11
0.0000000000000001
 21
1.0
 31
0.0
1001
ACAD
1000
MTEXTBEGIN
1070
    73
1070
     1
1070
    44
1040
1.0
1070
    74
1070
     0
1000
MTEXTEND
  0
POINT
  5
7923
330
769B
100
AcDbEntity
  8
DEFPOINTS
  6
CONTINUOUS
 62
     0
100
AcDbPoint
 10
476.7661050375718
 20
-356.1617850407571
 30
0.0
  0
POINT
  5
7924
330
769B
100
AcDbEntity
  8
DEFPOINTS
  6
CONTINUOUS
 62
     0
100
AcDbPoint
 10
522.2661050375718
 20
-432.1617850407571
 30
0.0
  0
POINT
  5
7925
330
769B
100
AcDbEntity
  8
DEFPOINTS
  6
CONTINUOUS
 62
     0
100
AcDbPoint
 10
617.6877252365411
 20
-432.1617850407571
 30
0.0
  0
ENDBLK
  5
76A6
330
769B
100
AcDbEntity
  8
0
100
AcDbBlockEnd
  0
BLOCK
  5
76F3
330
76E9
100
AcDbEntity
  8
0
100
AcDbBlockBegin
  2
*D13
 70
     1
 10
0.0
 20
0.0
 30
0.0
  3
*D13
  1

  0
LINE
  5
76EA
330
76E9
100
AcDbEntity
  8
30
  6
CONTINUOUS
 62
     0
100
AcDbLine
 10
-69.99975585940001
 20
-566.1617850407572
 30
0.0
 11
-69.99975585940001
 21
-609.1314764500707
 31
0.0
  0
LINE
  5
76EB
330
76E9
100
AcDbEntity
  8
30
  6
CONTINUOUS
 62
     0
100
AcDbLine
 10
-0.0000000000000001
 20
-580.1617850407572
 30
0.0
 11
-0.0000000000000018
 21
-609.1314764500707
 31
0.0
  0
LINE
  5
76EC
330
76E9
100
AcDbEntity
  8
30
  6
CONTINUOUS
 62
     0
100
AcDbLine
 10
-67.99975585940001
 20
-608.6314764500707
 30
0.0
 11
-2.000000000000001
 21
-608.6314764500707
 31
0.0
  0
INSERT
  5
76ED
330
76E9
100
AcDbEntity
  8
30
  6
CONTINUOUS
 62
     0
100
AcDbBlockReference
  2
_OPEN
 10
-69.99975585940001
 20
-608.6314764500707
 30
0.0
 41
2.0
 42
2.0
 43
2.0
 50
180.0
  0
INSERT
  5
76EE
330
76E9
100
AcDbEntity
  8
30
  6
CONTINUOUS
 62
     0
100
AcDbBlockReference
  2
_OPEN
 10
-0.0000000000000018
 20
-608.6314764500707
 30
0.0
 41
2.0
 42
2.0
 43
2.0
  0
MTEXT
  5
76EF
330
76E9
100
AcDbEntity
  8
30
  6
CONTINUOUS
 62
     0
100
AcDbMText
 10
-34.9998779297
 20
-605.1314764500707
 30
0.0
 40
5.0
 41
0.0
 71
     5
 72
     1
  1
\A1;70
1001
ACAD
1000
MTEXTBEGIN
1070
    73
1070
     1
1070
    44
1040
1.0
1070
    74
1070
     0
1000
MTEXTEND
  0
POINT
  5
76F0
330
76E9
100
AcDbEntity
  8
DEFPOINTS
  6
CONTINUOUS
 62
     0
100
AcDbPoint
 10
-69.99975585940001
 20
-565.1617850407571
 30
0.0
  0
POINT
  5
76F1
330
76E9
100
AcDbEntity
  8
DEFPOINTS
  6
CONTINUOUS
 62
     0
100
AcDbPoint
 10
0.0
 20
-579.1617850407572
 30
0.0
  0
POINT
  5
76F2
330
76E9
100
AcDbEntity
  8
DEFPOINTS
  6
CONTINUOUS
 62
     0
100
AcDbPoint
 10
-0.0000000000000018
 20
-608.6314764500707
 30
0.0
  0
ENDBLK
  5
76F4
330
76E9
100
AcDbEntity
  8
0
100
AcDbBlockEnd
  0
BLOCK
  5
7700
330
76F6
100
AcDbEntity
  8
0
100
AcDbBlockBegin
  2
*D14
 70
     1
 10
0.0
 20
0.0
 30
0.0
  3
*D14
  1

  0
LINE
  5
7968
330
76F6
100
AcDbEntity
  8
30
  6
CONTINUOUS
 62
     0
100
AcDbLine
 10
-0.0000000000000001
 20
-580.1617850407572
 30
0.0
 11
-0.0000000000000018
 21
-609.1314764500707
 31
0.0
  0
LINE
  5
7969
330
76F6
100
AcDbEntity
  8
30
  6
CONTINUOUS
 62
     0
100
AcDbLine
 10
70.0
 20
-566.1617850407572
 30
0.0
 11
70.0
 21
-609.1314764500707
 31
0.0
  0
LINE
  5
796A
330
76F6
100
AcDbEntity
  8
30
  6
CONTINUOUS
 62
     0
100
AcDbLine
 10
1.999999999999998
 20
-608.6314764500707
 30
0.0
 11
68.0
 21
-608.6314764500707
 31
0.0
  0
INSERT
  5
796B
330
76F6
100
AcDbEntity
  8
30
  6
CONTINUOUS
 62
     0
100
AcDbBlockReference
  2
_OPEN
 10
-0.0000000000000018
 20
-608.6314764500707
 30
0.0
 41
2.0
 42
2.0
 43
2.0
 50
180.0
  0
INSERT
  5
796C
330
76F6
100
AcDbEntity
  8
30
  6
CONTINUOUS
 62
     0
100
AcDbBlockReference
  2
_OPEN
 10
70.0
 20
-608.6314764500707
 30
0.0
 41
2.0
 42
2.0
 43
2.0
  0
MTEXT
  5
796D
330
76F6
100
AcDbEntity
  8
30
  6
CONTINUOUS
 62
     0
100
AcDbMText
 10
35.0
 20
-605.1314764500707
 30
0.0
 40
5.0
 41
0.0
 71
     5
 72
     1
  1
\A1;70
  0
POINT
  5
796E
330
76F6
100
AcDbEntity
  8
DEFPOINTS
  6
CONTINUOUS
 62
     0
100
AcDbPoint
 10
0.0
 20
-579.1617850407572
 30
0.0
  0
POINT
  5
796F
330
76F6
100
AcDbEntity
  8
DEFPOINTS
  6
CONTINUOUS
 62
     0
100
AcDbPoint
 10
70.0
 20
-565.1617850407571
 30
0.0
  0
POINT
  5
7970
330
76F6
100
AcDbEntity
  8
DEFPOINTS
  6
CONTINUOUS
 62
     0
100
AcDbPoint
 10
70.0
 20
-608.6314764500707
 30
0.0
  0
ENDBLK
  5
7701
330
76F6
100
AcDbEntity
  8
0
100
AcDbBlockEnd
  0
BLOCK
  5
770D
330
7703
100
AcDbEntity
  8
0
100
AcDbBlockBegin
  2
*D15
 70
     1
 10
0.0
 20
0.0
 30
0.0
  3
*D15
  1

  0
LINE
  5
7704
330
7703
100
AcDbEntity
  8
30
  6
CONTINUOUS
 62
     0
100
AcDbLine
 10
-105.0
 20
-580.1617850407572
 30
0.0
 11
-105.0
 21
-635.7951958478979
 31
0.0
  0
LINE
  5
7705
330
7703
100
AcDbEntity
  8
30
  6
CONTINUOUS
 62
     0
100
AcDbLine
 10
105.0
 20
-580.1617850407572
 30
0.0
 11
105.0
 21
-635.7951958478979
 31
0.0
  0
LINE
  5
7706
330
7703
100
AcDbEntity
  8
30
  6
CONTINUOUS
 62
     0
100
AcDbLine
 10
-103.0
 20
-635.2951958478979
 30
0.0
 11
103.0
 21
-635.2951958478979
 31
0.0
  0
INSERT
  5
7707
330
7703
100
AcDbEntity
  8
30
  6
CONTINUOUS
 62
     0
100
AcDbBlockReference
  2
_OPEN
 10
-105.0
 20
-635.2951958478979
 30
0.0
 41
2.0
 42
2.0
 43
2.0
 50
180.0
  0
INSERT
  5
7708
330
7703
100
AcDbEntity
  8
30
  6
CONTINUOUS
 62
     0
100
AcDbBlockReference
  2
_OPEN
 10
105.0
 20
-635.2951958478979
 30
0.0
 41
2.0
 42
2.0
 43
2.0
  0
MTEXT
  5
7709
330
7703
100
AcDbEntity
  8
30
  6
CONTINUOUS
 62
     0
100
AcDbMText
 10
0.0000000000000002
 20
-631.7951958478979
 30
0.0
 40
5.0
 41
0.0
 71
     5
 72
     1
  1
\A1;210
1001
ACAD
1000
MTEXTBEGIN
1070
    73
1070
     1
1070
    44
1040
1.0
1070
    74
1070
     0
1000
MTEXTEND
  0
POINT
  5
770A
330
7703
100
AcDbEntity
  8
DEFPOINTS
  6
CONTINUOUS
 62
     0
100
AcDbPoint
 10
-105.0
 20
-579.1617850407572
 30
0.0
  0
POINT
  5
770B
330
7703
100
AcDbEntity
  8
DEFPOINTS
  6
CONTINUOUS
 62
     0
100
AcDbPoint
 10
105.0
 20
-579.1617850407572
 30
0.0
  0
POINT
  5
770C
330
7703
100
AcDbEntity
  8
DEFPOINTS
  6
CONTINUOUS
 62
     0
100
AcDbPoint
 10
105.0
 20
-635.2951958478979
 30
0.0
  0
ENDBLK
  5
770E
330
7703
100
AcDbEntity
  8
0
100
AcDbBlockEnd
  0
BLOCK
  5
771A
330
7710
100
AcDbEntity
  8
0
100
AcDbBlockBegin
  2
*D16
 70
     1
 10
0.0
 20
0.0
 30
0.0
  3
*D16
  1

  0
LINE
  5
7711
330
7710
100
AcDbEntity
  8
30
  6
CONTINUOUS
 62
     0
100
AcDbLine
 10
-44.99975585940001
 20
-490.1617850407571
 30
0.0
 11
-44.99975585940001
 21
-490.049291687299
 31
0.0
  0
LINE
  5
7712
330
7710
100
AcDbEntity
  8
30
  6
CONTINUOUS
 62
     0
100
AcDbLine
 10
45.0
 20
-490.1617850407571
 30
0.0
 11
45.0
 21
-490.049291687299
 31
0.0
  0
LINE
  5
7713
330
7710
100
AcDbEntity
  8
30
  6
CONTINUOUS
 62
     0
100
AcDbLine
 10
-42.99975585940001
 20
-490.549291687299
 30
0.0
 11
43.0
 21
-490.549291687299
 31
0.0
  0
INSERT
  5
7714
330
7710
100
AcDbEntity
  8
30
  6
CONTINUOUS
 62
     0
100
AcDbBlockReference
  2
_OPEN
 10
-44.99975585940001
 20
-490.549291687299
 30
0.0
 41
2.0
 42
2.0
 43
2.0
 50
180.0
  0
INSERT
  5
7715
330
7710
100
AcDbEntity
  8
30
  6
CONTINUOUS
 62
     0
100
AcDbBlockReference
  2
_OPEN
 10
45.0
 20
-490.549291687299
 30
0.0
 41
2.0
 42
2.0
 43
2.0
  0
MTEXT
  5
7716
330
7710
100
AcDbEntity
  8
30
  6
CONTINUOUS
 62
     0
100
AcDbMText
 10
0.0001220702999947
 20
-487.049291687299
 30
0.0
 40
5.0
 41
0.0
 71
     5
 72
     1
  1
\A1;90
1001
ACAD
1000
MTEXTBEGIN
1070
    73
1070
     1
1070
    44
1040
1.0
1070
    74
1070
     0
1000
MTEXTEND
  0
POINT
  5
7717
330
7710
100
AcDbEntity
  8
DEFPOINTS
  6
CONTINUOUS
 62
     0
100
AcDbPoint
 10
-44.99975585940001
 20
-491.1617850407572
 30
0.0
  0
POINT
  5
7718
330
7710
100
AcDbEntity
  8
DEFPOINTS
  6
CONTINUOUS
 62
     0
100
AcDbPoint
 10
45.0
 20
-491.1617850407572
 30
0.0
  0
POINT
  5
7719
330
7710
100
AcDbEntity
  8
DEFPOINTS
  6
CONTINUOUS
 62
     0
100
AcDbPoint
 10
45.0
 20
-490.549291687299
 30
0.0
  0
ENDBLK
  5
771B
330
7710
100
AcDbEntity
  8
0
100
AcDbBlockEnd
  0
BLOCK
  5
772B
330
7721
100
AcDbEntity
  8
0
100
AcDbBlockBegin
  2
*D17
 70
     1
 10
0.0
 20
0.0
 30
0.0
  3
*D17
  1

  0
LINE
  5
78C9
330
7721
100
AcDbEntity
  8
30
  6
CONTINUOUS
 62
     0
100
AcDbLine
 10
433.8084840162903
 20
-127.9997558594
 30
0.0
 11
433.8084840162903
 21
-139.3016123089182
 31
0.0
  0
LINE
  5
78CA
330
7721
100
AcDbEntity
  8
30
  6
CONTINUOUS
 62
     0
100
AcDbLine
 10
415.8084840162903
 20
-132.9997558594
 30
0.0
 11
415.8084840162903
 21
-139.3016123089182
 31
0.0
  0
LINE
  5
78CB
330
7721
100
AcDbEntity
  8
30
  6
CONTINUOUS
 62
     0
100
AcDbLine
 10
431.8084840162903
 20
-138.8016123089182
 30
0.0
 11
417.8084840162902
 21
-138.8016123089182
 31
0.0
  0
INSERT
  5
78CC
330
7721
100
AcDbEntity
  8
30
  6
CONTINUOUS
 62
     0
100
AcDbBlockReference
  2
_OPEN
 10
433.8084840162903
 20
-138.8016123089182
 30
0.0
 41
2.0
 42
2.0
 43
2.0
  0
INSERT
  5
78CD
330
7721
100
AcDbEntity
  8
30
  6
CONTINUOUS
 62
     0
100
AcDbBlockReference
  2
_OPEN
 10
415.8084840162903
 20
-138.8016123089182
 30
0.0
 41
2.0
 42
2.0
 43
2.0
 50
180.0
  0
MTEXT
  5
78CE
330
7721
100
AcDbEntity
  8
30
  6
CONTINUOUS
 62
     0
100
AcDbMText
 10
424.8084840162903
 20
-135.3016123089182
 30
0.0
 40
5.0
 41
0.0
 71
     5
 72
     1
  1
\A1;18
1001
ACAD
1000
MTEXTBEGIN
1070
    73
1070
     1
1070
    44
1040
1.0
1070
    74
1070
     0
1000
MTEXTEND
  0
POINT
  5
78CF
330
7721
100
AcDbEntity
  8
DEFPOINTS
  6
CONTINUOUS
 62
     0
100
AcDbPoint
 10
433.8084840162903
 20
-126.9997558594
 30
0.0
  0
POINT
  5
78D0
330
7721
100
AcDbEntity
  8
DEFPOINTS
  6
CONTINUOUS
 62
     0
100
AcDbPoint
 10
415.8084840162903
 20
-131.9997558594
 30
0.0
  0
POINT
  5
78D1
330
7721
100
AcDbEntity
  8
DEFPOINTS
  6
CONTINUOUS
 62
     0
100
AcDbPoint
 10
415.8084840162903
 20
-138.8016123089182
 30
0.0
  0
ENDBLK
  5
772C
330
7721
100
AcDbEntity
  8
0
100
AcDbBlockEnd
  0
BLOCK
  5
7738
330
772E
100
AcDbEntity
  8
0
100
AcDbBlockBegin
  2
*D18
 70
     1
 10
0.0
 20
0.0
 30
0.0
  3
*D18
  1

  0
LINE
  5
772F
330
772E
100
AcDbEntity
  8
30
  6
CONTINUOUS
 62
     0
100
AcDbLine
 10
463.2020934949141
 20
126.0
 30
0.0
 11
477.4006415436197
 21
126.0
 31
0.0
  0
LINE
  5
7730
330
772E
100
AcDbEntity
  8
30
  6
CONTINUOUS
 62
     0
100
AcDbLine
 10
448.5596659380298
 20
-116.9997558594
 30
0.0
 11
477.4006415436197
 21
-116.9997558594
 31
0.0
  0
LINE
  5
7731
330
772E
100
AcDbEntity
  8
30
  6
CONTINUOUS
 62
     0
100
AcDbLine
 10
476.9006415436197
 20
124.0
 30
0.0
 11
476.9006415436197
 21
-114.9997558594
 31
0.0
  0
INSERT
  5
7732
330
772E
100
AcDbEntity
  8
30
  6
CONTINUOUS
 62
     0
100
AcDbBlockReference
  2
_OPEN
 10
476.9006415436197
 20
126.0
 30
0.0
 41
2.0
 42
2.0
 43
2.0
 50
90.0
  0
INSERT
  5
7733
330
772E
100
AcDbEntity
  8
30
  6
CONTINUOUS
 62
     0
100
AcDbBlockReference
  2
_OPEN
 10
476.9006415436197
 20
-116.9997558594
 30
0.0
 41
2.0
 42
2.0
 43
2.0
 50
270.0
  0
MTEXT
  5
7734
330
772E
100
AcDbEntity
  8
30
  6
CONTINUOUS
 62
     0
100
AcDbMText
 10
473.4006415436197
 20
4.500122070300064
 30
0.0
 40
5.0
 41
0.0
 71
     5
 72
     1
  1
\A1;243
 11
0.0000000000000001
 21
1.0
 31
0.0
1001
ACAD
1000
MTEXTBEGIN
1070
    73
1070
     1
1070
    44
1040
1.0
1070
    74
1070
     0
1000
MTEXTEND
  0
POINT
  5
7735
330
772E
100
AcDbEntity
  8
DEFPOINTS
  6
CONTINUOUS
 62
     0
100
AcDbPoint
 10
462.2020934949141
 20
126.0
 30
0.0
  0
POINT
  5
7736
330
772E
100
AcDbEntity
  8
DEFPOINTS
  6
CONTINUOUS
 62
     0
100
AcDbPoint
 10
447.5596659380299
 20
-116.9997558594
 30
0.0
  0
POINT
  5
7737
330
772E
100
AcDbEntity
  8
DEFPOINTS
  6
CONTINUOUS
 62
     0
100
AcDbPoint
 10
476.9006415436197
 20
-116.9997558594
 30
0.0
  0
ENDBLK
  5
7739
330
772E
100
AcDbEntity
  8
0
100
AcDbBlockEnd
  0
BLOCK
  5
7745
330
773B
100
AcDbEntity
  8
0
100
AcDbBlockBegin
  2
*D19
 70
     1
 10
0.0
 20
0.0
 30
0.0
  3
*D19
  1

  0
LINE
  5
773C
330
773B
100
AcDbEntity
  8
30
  6
CONTINUOUS
 62
     0
100
AcDbLine
 10
404.8084840162903
 20
156.0
 30
0.0
 11
503.5794829334737
 21
155.9999999999999
 31
0.0
  0
LINE
  5
773D
330
773B
100
AcDbEntity
  8
30
  6
CONTINUOUS
 62
     0
100
AcDbLine
 10
404.8084840162903
 20
-147.0
 30
0.0
 11
503.5794829334736
 21
-147.0
 31
0.0
  0
LINE
  5
773E
330
773B
100
AcDbEntity
  8
30
  6
CONTINUOUS
 62
     0
100
AcDbLine
 10
503.0794829334737
 20
153.9999999999999
 30
0.0
 11
503.0794829334736
 21
-145.0
 31
0.0
  0
INSERT
  5
773F
330
773B
100
AcDbEntity
  8
30
  6
CONTINUOUS
 62
     0
100
AcDbBlockReference
  2
_OPEN
 10
503.0794829334737
 20
155.9999999999999
 30
0.0
 41
2.0
 42
2.0
 43
2.0
 50
90.0
  0
INSERT
  5
7740
330
773B
100
AcDbEntity
  8
30
  6
CONTINUOUS
 62
     0
100
AcDbBlockReference
  2
_OPEN
 10
503.0794829334736
 20
-147.0
 30
0.0
 41
2.0
 42
2.0
 43
2.0
 50
270.0
  0
MTEXT
  5
7741
330
773B
100
AcDbEntity
  8
30
  6
CONTINUOUS
 62
     0
100
AcDbMText
 10
499.5794829334736
 20
4.500000000000055
 30
0.0
 40
5.0
 41
0.0
 71
     5
 72
     1
  1
\A1;303
 11
0.0000000000000001
 21
1.0
 31
0.0
1001
ACAD
1000
MTEXTBEGIN
1070
    73
1070
     1
1070
    44
1040
1.0
1070
    74
1070
     0
1000
MTEXTEND
  0
POINT
  5
7742
330
773B
100
AcDbEntity
  8
DEFPOINTS
  6
CONTINUOUS
 62
     0
100
AcDbPoint
 10
403.8084840162903
 20
156.0
 30
0.0
  0
POINT
  5
7743
330
773B
100
AcDbEntity
  8
DEFPOINTS
  6
CONTINUOUS
 62
     0
100
AcDbPoint
 10
403.8084840162903
 20
-147.0
 30
0.0
  0
POINT
  5
7744
330
773B
100
AcDbEntity
  8
DEFPOINTS
  6
CONTINUOUS
 62
     0
100
AcDbPoint
 10
503.0794829334736
 20
-147.0
 30
0.0
  0
ENDBLK
  5
7746
330
773B
100
AcDbEntity
  8
0
100
AcDbBlockEnd
  0
BLOCK
  5
77E8
330
77DE
100
AcDbEntity
  8
0
100
AcDbBlockBegin
  2
*D20
 70
     1
 10
0.0
 20
0.0
 30
0.0
  3
*D20
  1

  0
LINE
  5
7914
330
77DE
100
AcDbEntity
  8
30
  6
CONTINUOUS
 62
     0
100
AcDbLine
 10
524.2661050375718
 20
-432.1617850407571
 30
0.0
 11
618.1877252365411
 21
-432.1617850407571
 31
0.0
  0
LINE
  5
7915
330
77DE
100
AcDbEntity
  8
30
  6
CONTINUOUS
 62
     0
100
AcDbLine
 10
477.7661050375718
 20
-499.1617850407571
 30
0.0
 11
618.1877252365411
 21
-499.1617850407571
 31
0.0
  0
LINE
  5
7916
330
77DE
100
AcDbEntity
  8
30
  6
CONTINUOUS
 62
     0
100
AcDbLine
 10
617.6877252365411
 20
-434.1617850407572
 30
0.0
 11
617.6877252365411
 21
-497.1617850407572
 31
0.0
  0
INSERT
  5
7917
330
77DE
100
AcDbEntity
  8
30
  6
CONTINUOUS
 62
     0
100
AcDbBlockReference
  2
_OPEN
 10
617.6877252365411
 20
-432.1617850407571
 30
0.0
 41
2.0
 42
2.0
 43
2.0
 50
90.0
  0
INSERT
  5
7918
330
77DE
100
AcDbEntity
  8
30
  6
CONTINUOUS
 62
     0
100
AcDbBlockReference
  2
_OPEN
 10
617.6877252365411
 20
-499.1617850407571
 30
0.0
 41
2.0
 42
2.0
 43
2.0
 50
270.0
  0
MTEXT
  5
7919
330
77DE
100
AcDbEntity
  8
30
  6
CONTINUOUS
 62
     0
100
AcDbMText
 10
614.1877252365413
 20
-465.6617850407571
 30
0.0
 40
5.0
 41
0.0
 71
     5
 72
     1
  1
\A1;67
 11
0.0000000000000001
 21
1.0
 31
0.0
1001
ACAD
1000
MTEXTBEGIN
1070
    73
1070
     1
1070
    44
1040
1.0
1070
    74
1070
     0
1000
MTEXTEND
  0
POINT
  5
791A
330
77DE
100
AcDbEntity
  8
DEFPOINTS
  6
CONTINUOUS
 62
     0
100
AcDbPoint
 10
523.2661050375718
 20
-432.1617850407571
 30
0.0
  0
POINT
  5
791B
330
77DE
100
AcDbEntity
  8
DEFPOINTS
  6
CONTINUOUS
 62
     0
100
AcDbPoint
 10
476.7661050375718
 20
-499.1617850407571
 30
0.0
  0
POINT
  5
791C
330
77DE
100
AcDbEntity
  8
DEFPOINTS
  6
CONTINUOUS
 62
     0
100
AcDbPoint
 10
617.6877252365411
 20
-499.1617850407571
 30
0.0
  0
ENDBLK
  5
77E9
330
77DE
100
AcDbEntity
  8
0
100
AcDbBlockEnd
  0
BLOCK
  5
77F4
330
77EB
100
AcDbEntity
  8
0
100
AcDbBlockBegin
  2
*D21
 70
     1
 10
0.0
 20
0.0
 30
0.0
  3
*D21
  1

  0
LINE
  5
77EC
330
77EB
100
AcDbEntity
  8
30
  6
CONTINUOUS
 62
     0
100
AcDbLine
 10
501.5641172124245
 20
-541.4971693213726
 30
0.0
 11
491.0403076886149
 21
-541.4971693213725
 31
0.0
  0
LINE
  5
77ED
330
77EB
100
AcDbEntity
  8
30
  6
CONTINUOUS
 62
     0
100
AcDbLine
 10
491.0403076886149
 20
-541.4971693213725
 30
0.0
 11
466.4820415926282
 21
-505.3646778307173
 31
0.0
  0
MTEXT
  5
77EE
330
77EB
100
AcDbEntity
  8
30
  6
CONTINUOUS
 62
     0
100
AcDbMText
 10
496.8022124505197
 20
-537.9971693213726
 30
0.0
 40
5.0
 41
0.0
 71
     5
 72
     1
  1
\A1;\U+220511
1001
ACAD
1000
MTEXTBEGIN
1070
    73
1070
     1
1070
    44
1040
1.0
1070
    74
1070
     0
1000
MTEXTEND
  0
INSERT
  5
77EF
330
77EB
100
AcDbEntity
  8
30
  6
CONTINUOUS
 62
     0
100
AcDbBlockReference
  2
_OPEN
 10
465.3577918446131
 20
-503.7105730867279
 30
0.0
 41
2.0
 42
2.0
 43
2.0
 50
124.2028746837727
  0
LINE
  5
77F0
330
77EB
100
AcDbEntity
  8
30
  6
CONTINUOUS
 62
     0
100
AcDbLine
 10
462.1761050375718
 20
-499.1617850407571
 30
0.0
 11
462.3561050375718
 21
-499.1617850407571
 31
0.0
  0
LINE
  5
77F1
330
77EB
100
AcDbEntity
  8
30
  6
CONTINUOUS
 62
     0
100
AcDbLine
 10
462.2661050375718
 20
-499.2517850407572
 30
0.0
 11
462.2661050375718
 21
-499.0717850407572
 31
0.0
  0
POINT
  5
77F2
330
77EB
100
AcDbEntity
  8
DEFPOINTS
  6
CONTINUOUS
 62
     0
100
AcDbPoint
 10
465.3577918446131
 20
-503.7105730867279
 30
0.0
  0
POINT
  5
77F3
330
77EB
100
AcDbEntity
  8
DEFPOINTS
  6
CONTINUOUS
 62
     0
100
AcDbPoint
 10
459.1744182305304
 20
-494.6129969947864
 30
0.0
  0
ENDBLK
  5
77F5
330
77EB
100
AcDbEntity
  8
0
100
AcDbBlockEnd
  0
BLOCK
  5
78E6
330
78DC
100
AcDbEntity
  8
0
100
AcDbBlockBegin
  2
*D22
 70
     1
 10
0.0
 20
0.0
 30
0.0
  3
*D22
  1

  0
LINE
  5
78DD
330
78DC
100
AcDbEntity
  8
30
  6
CONTINUOUS
 62
     0
100
AcDbLine
 10
323.8083619458902
 20
-193.0387863989474
 30
0.0
 11
323.8083619458902
 21
-210.0853277737153
 31
0.0
  0
LINE
  5
78DE
330
78DC
100
AcDbEntity
  8
30
  6
CONTINUOUS
 62
     0
100
AcDbLine
 10
341.8084840162903
 20
-193.0387863989474
 30
0.0
 11
341.8084840162903
 21
-210.0853277737153
 31
0.0
  0
LINE
  5
78DF
330
78DC
100
AcDbEntity
  8
30
  6
CONTINUOUS
 62
     0
100
AcDbLine
 10
325.8083619458902
 20
-209.5853277737153
 30
0.0
 11
339.8084840162903
 21
-209.5853277737153
 31
0.0
  0
INSERT
  5
78E0
330
78DC
100
AcDbEntity
  8
30
  6
CONTINUOUS
 62
     0
100
AcDbBlockReference
  2
_OPEN
 10
323.8083619458902
 20
-209.5853277737153
 30
0.0
 41
2.0
 42
2.0
 43
2.0
 50
180.0
  0
INSERT
  5
78E1
330
78DC
100
AcDbEntity
  8
30
  6
CONTINUOUS
 62
     0
100
AcDbBlockReference
  2
_OPEN
 10
341.8084840162903
 20
-209.5853277737153
 30
0.0
 41
2.0
 42
2.0
 43
2.0
  0
MTEXT
  5
78E2
330
78DC
100
AcDbEntity
  8
30
  6
CONTINUOUS
 62
     0
100
AcDbMText
 10
332.8084229810903
 20
-206.0853277737153
 30
0.0
 40
5.0
 41
0.0
 71
     5
 72
     1
  1
\A1;18
1001
ACAD
1000
MTEXTBEGIN
1070
    73
1070
     1
1070
    44
1040
1.0
1070
    74
1070
     0
1000
MTEXTEND
  0
POINT
  5
78E3
330
78DC
100
AcDbEntity
  8
DEFPOINTS
  6
CONTINUOUS
 62
     0
100
AcDbPoint
 10
323.8083619458902
 20
-192.0387863989474
 30
0.0
  0
POINT
  5
78E4
330
78DC
100
AcDbEntity
  8
DEFPOINTS
  6
CONTINUOUS
 62
     0
100
AcDbPoint
 10
341.8084840162903
 20
-192.0387863989474
 30
0.0
  0
POINT
  5
78E5
330
78DC
100
AcDbEntity
  8
DEFPOINTS
  6
CONTINUOUS
 62
     0
100
AcDbPoint
 10
341.8084840162903
 20
-209.5853277737153
 30
0.0
  0
ENDBLK
  5
78E7
330
78DC
100
AcDbEntity
  8
0
100
AcDbBlockEnd
  0
BLOCK
  5
78F3
330
78E9
100
AcDbEntity
  8
0
100
AcDbBlockBegin
  2
*D23
 70
     1
 10
0.0
 20
0.0
 30
0.0
  3
*D23
  1

  0
LINE
  5
78EA
330
78E9
100
AcDbEntity
  8
30
  6
CONTINUOUS
 62
     0
100
AcDbLine
 10
557.7329747202704
 20
-356.1617850407571
 30
0.0
 11
591.9678454720638
 21
-356.1617850407571
 31
0.0
  0
LINE
  5
78EB
330
78E9
100
AcDbEntity
  8
30
  6
CONTINUOUS
 62
     0
100
AcDbLine
 10
559.5527261312717
 20
-381.1617850407571
 30
0.0
 11
591.9678454720638
 21
-381.1617850407571
 31
0.0
  0
LINE
  5
78EC
330
78E9
100
AcDbEntity
  8
30
  6
CONTINUOUS
 62
     0
100
AcDbLine
 10
591.4678454720638
 20
-358.1617850407571
 30
0.0
 11
591.4678454720638
 21
-379.1617850407571
 31
0.0
  0
INSERT
  5
78ED
330
78E9
100
AcDbEntity
  8
30
  6
CONTINUOUS
 62
     0
100
AcDbBlockReference
  2
_OPEN
 10
591.4678454720638
 20
-356.1617850407571
 30
0.0
 41
2.0
 42
2.0
 43
2.0
 50
90.0
  0
INSERT
  5
78EE
330
78E9
100
AcDbEntity
  8
30
  6
CONTINUOUS
 62
     0
100
AcDbBlockReference
  2
_OPEN
 10
591.4678454720638
 20
-381.1617850407571
 30
0.0
 41
2.0
 42
2.0
 43
2.0
 50
270.0
  0
MTEXT
  5
78EF
330
78E9
100
AcDbEntity
  8
30
  6
CONTINUOUS
 62
     0
100
AcDbMText
 10
587.9678454720639
 20
-368.6617850407571
 30
0.0
 40
5.0
 41
0.0
 71
     5
 72
     1
  1
\A1;25
 11
0.0000000000000001
 21
1.0
 31
0.0
1001
ACAD
1000
MTEXTBEGIN
1070
    73
1070
     1
1070
    44
1040
1.0
1070
    74
1070
     0
1000
MTEXTEND
  0
POINT
  5
78F0
330
78E9
100
AcDbEntity
  8
DEFPOINTS
  6
CONTINUOUS
 62
     0
100
AcDbPoint
 10
556.7329747202705
 20
-356.1617850407571
 30
0.0
  0
POINT
  5
78F1
330
78E9
100
AcDbEntity
  8
DEFPOINTS
  6
CONTINUOUS
 62
     0
100
AcDbPoint
 10
558.5527261312718
 20
-381.1617850407571
 30
0.0
  0
POINT
  5
78F2
330
78E9
100
AcDbEntity
  8
DEFPOINTS
  6
CONTINUOUS
 62
     0
100
AcDbPoint
 10
591.4678454720638
 20
-381.1617850407571
 30
0.0
  0
ENDBLK
  5
78F4
330
78E9
100
AcDbEntity
  8
0
100
AcDbBlockEnd
  0
BLOCK
  5
7900
330
78F6
100
AcDbEntity
  8
0
100
AcDbBlockBegin
  2
*D24
 70
     1
 10
0.0
 20
0.0
 30
0.0
  3
*D24
  1

  0
LINE
  5
790B
330
78F6
100
AcDbEntity
  8
30
  6
CONTINUOUS
 62
     0
100
AcDbLine
 10
557.6373031690597
 20
-499.1617850407571
 30
0.0
 11
591.9678454720638
 21
-499.1617850407571
 31
0.0
  0
LINE
  5
790C
330
78F6
100
AcDbEntity
  8
30
  6
CONTINUOUS
 62
     0
100
AcDbLine
 10
559.5527261312717
 20
-474.1617850407571
 30
0.0
 11
591.9678454720638
 21
-474.1617850407571
 31
0.0
  0
LINE
  5
790D
330
78F6
100
AcDbEntity
  8
30
  6
CONTINUOUS
 62
     0
100
AcDbLine
 10
591.4678454720638
 20
-497.1617850407572
 30
0.0
 11
591.4678454720638
 21
-476.1617850407572
 31
0.0
  0
INSERT
  5
790E
330
78F6
100
AcDbEntity
  8
30
  6
CONTINUOUS
 62
     0
100
AcDbBlockReference
  2
_OPEN
 10
591.4678454720638
 20
-499.1617850407571
 30
0.0
 41
2.0
 42
2.0
 43
2.0
 50
270.0
  0
INSERT
  5
790F
330
78F6
100
AcDbEntity
  8
30
  6
CONTINUOUS
 62
     0
100
AcDbBlockReference
  2
_OPEN
 10
591.4678454720638
 20
-474.1617850407571
 30
0.0
 41
2.0
 42
2.0
 43
2.0
 50
90.0
  0
MTEXT
  5
7910
330
78F6
100
AcDbEntity
  8
30
  6
CONTINUOUS
 62
     0
100
AcDbMText
 10
587.9678454720639
 20
-486.6617850407571
 30
0.0
 40
5.0
 41
0.0
 71
     5
 72
     1
  1
\A1;25
 11
0.0000000000000001
 21
1.0
 31
0.0
1001
ACAD
1000
MTEXTBEGIN
1070
    73
1070
     1
1070
    44
1040
1.0
1070
    74
1070
     0
1000
MTEXTEND
  0
POINT
  5
7911
330
78F6
100
AcDbEntity
  8
DEFPOINTS
  6
CONTINUOUS
 62
     0
100
AcDbPoint
 10
556.6373031690598
 20
-499.1617850407571
 30
0.0
  0
POINT
  5
7912
330
78F6
100
AcDbEntity
  8
DEFPOINTS
  6
CONTINUOUS
 62
     0
100
AcDbPoint
 10
558.5527261312718
 20
-474.1617850407571
 30
0.0
  0
POINT
  5
7913
330
78F6
100
AcDbEntity
  8
DEFPOINTS
  6
CONTINUOUS
 62
     0
100
AcDbPoint
 10
591.4678454720638
 20
-474.1617850407571
 30
0.0
  0
ENDBLK
  5
7901
330
78F6
100
AcDbEntity
  8
0
100
AcDbBlockEnd
  0
ENDSEC
  0
SECTION
  2
ENTITIES
  0
LINE
  5
B4
330
1E
100
AcDbEntity
  8
16
100
AcDbLine
 10
0.0
 20
-154.5702548174952
 30
0.0
 11
0.0
 21
169.5
 31
0.0
  0
MTEXT
  5
BF3
330
1E
100
AcDbEntity
  8
24
  6
CONTINUOUS
100
AcDbMText
 10
142.1181906098743
 20
177.5
 30
0.0
 40
3.0
 41
0.0
 71
     1
 72
     1
  1
\A1;
1001
ACAD
1000
MTEXTBEGIN
1070
    73
1070
     1
1070
    44
1040
1.0
1070
    74
1070
     0
1000
MTEXTEND
  0
LINE
  5
1C9B
330
1E
100
AcDbEntity
  8
16
100
AcDbLine
 10
324.1890316890183
 20
0.0
 30
0.0
 11
166.3937097878775
 21
0.0
 31
0.0
  0
LINE
  5
2261
330
1E
100
AcDbEntity
  8
16
100
AcDbLine
 10
0.0
 20
-586.7320398582523
 30
0.0
 11
0.0
 21
-271.8492850407571
 31
0.0
  0
LINE
  5
4C5A
330
1E
100
AcDbEntity
  8
16
100
AcDbLine
 10
108.9542871181749
 20
0.0
 30
0.0
 11
-127.3695499245857
 21
0.0
 31
0.0
  0
LINE
  5
6237
330
1E
100
AcDbEntity
  8
16
100
AcDbLine
 10
604.0329931346727
 20
-432.1617850407571
 30
0.0
 11
179.3849169187599
 21
-432.1617850407571
 31
0.0
  0
LINE
  5
6B0B
330
1E
100
AcDbEntity
  8
16
100
AcDbLine
 10
420.3849169187598
 20
-569.7472342595171
 30
0.0
 11
420.3849169187598
 21
-293.1617850407572
 31
0.0
  0
MTEXT
  5
6C9B
330
1E
100
AcDbEntity
  8
19
  6
CONTINUOUS
100
AcDbMText
 10
245.989687332727
 20
256.7606940908481
 30
0.0
 40
7.0
 41
94.0
 71
     1
 72
     5
  1
XS600NE 3P PM\PXH600NE 3P PM\PXS600CS 3P PM\PXS600NS 3P PM
  7
STANDARD1
1001
ACAD
1000
MTEXTBEGIN
1070
    73
1070
     1
1070
    44
1040
1.0
1070
    74
1070
     0
1000
MTEXTEND
  0
ARC
  5
6D33
330
1E
100
AcDbEntity
  8
10
  6
CONTINUOUS
100
AcDbCircle
 10
282.3083619458902
 20
-4.0
 30
0.0
 40
69.0
100
AcDbArc
 50
180.0
 51
198.3273696466002
  0
LINE
  5
6D38
330
1E
100
AcDbEntity
  8
10
  6
CONTINUOUS
100
AcDbLine
 10
216.8083619458903
 20
-25.69677734369998
 30
0.0
 11
216.8083619458903
 21
-44.99975585940001
 31
0.0
  0
LINE
  5
6D3D
330
1E
100
AcDbEntity
  8
10
  6
CONTINUOUS
100
AcDbLine
 10
216.8083619458903
 20
17.69677734380002
 30
0.0
 11
216.8083619458903
 21
45.0
 31
0.0
  0
ARC
  5
6D3E
330
1E
100
AcDbEntity
  8
10
  6
CONTINUOUS
100
AcDbCircle
 10
282.3083619458902
 20
-4.0
 30
0.0
 40
68.99999999996953
100
AcDbArc
 50
161.6726267109726
 51
180.0
  0
LINE
  5
6D3F
330
1E
100
AcDbEntity
  8
10
  6
CONTINUOUS
100
AcDbLine
 10
186.3718385083902
 20
27.97973632809998
 30
0.0
 11
216.4017457349903
 21
16.42797851559999
 31
0.0
  0
LINE
  5
6D40
330
1E
100
AcDbEntity
  8
10
  6
CONTINUOUS
100
AcDbLine
 10
190.0870484693903
 20
38.33374023440001
 30
0.0
 11
216.8083619458903
 21
29.42602539059999
 31
0.0
  0
LINE
  5
6D41
330
1E
100
AcDbEntity
  8
10
  6
CONTINUOUS
100
AcDbLine
 10
190.0870484693903
 20
38.33374023440001
 30
0.0
 11
186.3718385083902
 21
27.97973632809998
 31
0.0
  0
LINE
  5
6D42
330
1E
100
AcDbEntity
  8
10
  6
CONTINUOUS
100
AcDbLine
 10
220.8083619458903
 20
45.0
 30
0.0
 11
216.8083619458903
 21
45.0
 31
0.0
  0
LINE
  5
6D45
330
1E
100
AcDbEntity
  8
10
  6
CONTINUOUS
100
AcDbLine
 10
341.8084840162903
 20
-85.0
 30
0.0
 11
341.8084840162903
 21
94.0
 31
0.0
  0
LINE
  5
6D46
330
1E
100
AcDbEntity
  8
10
  6
CONTINUOUS
100
AcDbLine
 10
323.8083619458902
 20
-131.9997558594
 30
0.0
 11
323.8083619458902
 21
141.0
 31
0.0
  0
LINE
  5
6D47
330
1E
100
AcDbEntity
  8
10
  6
CONTINUOUS
100
AcDbLine
 10
355.3084840162903
 20
-12.0
 30
0.0
 11
355.3084840162903
 21
-37.0
 31
0.0
  0
LINE
  5
6D48
330
1E
100
AcDbEntity
  8
10
  6
CONTINUOUS
100
AcDbLine
 10
339.2083863599903
 20
-81.52514648440002
 30
0.0
 11
339.2083863599903
 21
94.0
 31
0.0
  0
LINE
  5
6D49
330
1E
100
AcDbEntity
  8
24
  6
CONTINOUS
100
AcDbLine
 10
303.8083619458902
 20
-116.9997558594
 30
0.0
 11
447.5596659380299
 21
-116.9997558594
 31
0.0
  0
LINE
  5
6D4A
330
1E
100
AcDbEntity
  8
10
  6
CONTINUOUS
100
AcDbLine
 10
323.8083619458902
 20
-147.0
 30
0.0
 11
403.8084840162903
 21
-147.0
 31
0.0
  0
LINE
  5
6D4B
330
1E
100
AcDbEntity
  8
10
  6
CONTINUOUS
100
AcDbLine
 10
339.2083863599903
 20
-47.0
 30
0.0
 11
323.8083619458902
 21
-47.0
 31
0.0
  0
LINE
  5
6D4C
330
1E
100
AcDbEntity
  8
L225_
  6
CONTINUOUS
 62
     3
100
AcDbLine
 10
371.4837769849903
 20
-67.0
 30
0.0
 11
327.3708619458902
 21
-67.0
 31
0.0
  0
LINE
  5
6D4E
330
1E
100
AcDbEntity
  8
10
  6
CONTINUOUS
100
AcDbLine
 10
323.8083619458902
 20
-147.0
 30
0.0
 11
323.8083619458902
 21
-131.9997558594
 31
0.0
  0
LINE
  5
6D4F
330
1E
100
AcDbEntity
  8
24
  6
CONTINOUS
100
AcDbLine
 10
371.9815797193902
 20
-105.1458740233999
 30
0.0
 11
369.5592164380903
 21
-85.0
 31
0.0
  0
LINE
  5
6D50
330
1E
100
AcDbEntity
  8
18
100
AcDbLine
 10
388.8082398755902
 20
-79.9998779297
 30
0.0
 11
388.8082398755902
 21
-152.0
 31
0.0
  0
LINE
  5
6D51
330
1E
100
AcDbEntity
  8
18
100
AcDbLine
 10
396.8082398755902
 20
-79.9998779297
 30
0.0
 11
396.8082398755902
 21
-152.0
 31
0.0
  0
LINE
  5
6D52
330
1E
100
AcDbEntity
  8
10
  6
CONTINUOUS
100
AcDbLine
 10
403.8084840162903
 20
-101.9996337891
 30
0.0
 11
403.8084840162903
 21
-85.0
 31
0.0
  0
ARC
  5
6D53
330
1E
100
AcDbEntity
  8
18
100
AcDbCircle
 10
396.8082398755902
 20
-152.0
 30
0.0
 40
8.0
100
AcDbArc
 50
180.0
 51
270.0
  0
POINT
  5
6D54
330
1E
100
AcDbEntity
  8
18
100
AcDbPoint
 10
388.8082398755902
 20
-152.0936279297
 30
0.0
  0
LINE
  5
6D55
330
1E
100
AcDbEntity
  8
24
  6
CONTINOUS
100
AcDbLine
 10
364.7142457349902
 20
-125.4941406249999
 30
0.0
 11
371.9815797193902
 21
-105.1458740233999
 31
0.0
  0
LINE
  5
6D56
330
1E
100
AcDbEntity
  8
24
  6
CONTINOUS
100
AcDbLine
 10
369.0745972974903
 20
-147.0
 30
0.0
 11
364.7142457349902
 21
-125.4941406249999
 31
0.0
  0
LINE
  5
6D57
330
1E
100
AcDbEntity
  8
24
  6
CONTINOUS
100
AcDbLine
 10
367.1551637037903
 20
-133.9997558594
 30
0.0
 11
388.8084840162903
 21
-133.9997558594
 31
0.0
  0
LINE
  5
6D58
330
1E
100
AcDbEntity
  8
24
  6
CONTINOUS
100
AcDbLine
 10
371.2447633130902
 20
-99.99963378910003
 30
0.0
 11
388.8084840162903
 21
-99.99963378910003
 31
0.0
  0
POINT
  5
6D59
330
1E
100
AcDbEntity
  8
24
  6
CONTINOUS
100
AcDbPoint
 10
433.8084840162903
 20
-125.0933837891
 30
0.0
  0
POINT
  5
6D5A
330
1E
100
AcDbEntity
  8
DEFPOINTS
  6
BYBLOCK
 62
     0
100
AcDbPoint
 10
403.8084840162903
 20
-147.0936279296999
 30
0.0
  0
POINT
  5
6D5B
330
1E
100
AcDbEntity
  8
24
  6
CONTINOUS
100
AcDbPoint
 10
433.8084840162903
 20
-125.0933837891
 30
0.0
  0
LINE
  5
6D5C
330
1E
100
AcDbEntity
  8
L150_
  6
CONTINUOUS
 62
     7
100
AcDbLine
 10
403.8084840162903
 20
-131.9997558594
 30
0.0
 11
396.8082398755902
 21
-131.9997558594
 31
0.0
  0
LINE
  5
6D5D
330
1E
100
AcDbEntity
  8
24
  6
CONTINOUS
100
AcDbLine
 10
415.8084840162903
 20
-124.9997558594
 30
0.0
 11
415.8084840162903
 21
-131.9997558594
 31
0.0
  0
LINE
  5
6D5E
330
1E
100
AcDbEntity
  8
24
  6
CONTINOUS
100
AcDbLine
 10
415.8084840162903
 20
-124.9997558594
 30
0.0
 11
433.8084840162903
 21
-124.9997558594
 31
0.0
  0
LINE
  5
6D5F
330
1E
100
AcDbEntity
  8
24
  6
CONTINOUS
100
AcDbLine
 10
415.8084840162903
 20
-108.9997558594
 30
0.0
 11
433.8084840162903
 21
-108.9997558594
 31
0.0
  0
LINE
  5
6D60
330
1E
100
AcDbEntity
  8
24
  6
CONTINOUS
100
AcDbLine
 10
415.8084840162903
 20
-108.9997558594
 30
0.0
 11
415.8084840162903
 21
-124.9997558594
 31
0.0
  0
LINE
  5
6D61
330
1E
100
AcDbEntity
  8
24
  6
CONTINOUS
100
AcDbLine
 10
403.8084840162903
 20
-101.9996337891
 30
0.0
 11
415.8084840162903
 21
-101.9996337891
 31
0.0
  0
LINE
  5
6D62
330
1E
100
AcDbEntity
  8
24
  6
CONTINOUS
100
AcDbLine
 10
433.8084840162903
 20
-124.9997558594
 30
0.0
 11
433.8084840162903
 21
-108.9997558594
 31
0.0
  0
LINE
  5
6D63
330
1E
100
AcDbEntity
  8
18
100
AcDbLine
 10
396.8082398755902
 20
-160.0
 30
0.0
 11
425.8775758130902
 21
-160.0
 31
0.0
  0
LINE
  5
6D64
330
1E
100
AcDbEntity
  8
18
100
AcDbLine
 10
396.8082398755902
 20
-152.0
 30
0.0
 11
425.6912965162903
 21
-152.0
 31
0.0
  0
LINE
  5
6D65
330
1E
100
AcDbEntity
  8
24
  6
CONTINOUS
100
AcDbLine
 10
415.8084840162903
 20
-131.9997558594
 30
0.0
 11
403.8084840162903
 21
-131.9997558594
 31
0.0
  0
LINE
  5
6D66
330
1E
100
AcDbEntity
  8
24
  6
CONTINOUS
100
AcDbLine
 10
396.8082398755902
 20
-101.9996337891
 30
0.0
 11
403.8084840162903
 21
-101.9996337891
 31
0.0
  0
LINE
  5
6D67
330
1E
100
AcDbEntity
  8
10
  6
CONTINUOUS
100
AcDbLine
 10
403.8084840162903
 20
-147.0
 30
0.0
 11
403.8084840162903
 21
-131.9997558594
 31
0.0
  0
LINE
  5
6D68
330
1E
100
AcDbEntity
  8
24
  6
CONTINOUS
100
AcDbLine
 10
396.8082398755902
 20
-124.9997558594
 30
0.0
 11
415.8084840162903
 21
-124.9997558594
 31
0.0
  0
LINE
  5
6D69
330
1E
100
AcDbEntity
  8
24
  6
CONTINOUS
100
AcDbLine
 10
415.8084840162903
 20
-108.9997558594
 30
0.0
 11
415.8084840162903
 21
-124.9997558594
 31
0.0
  0
LINE
  5
6D6A
330
1E
100
AcDbEntity
  8
24
  6
CONTINOUS
100
AcDbLine
 10
415.8084840162903
 20
-103.1433105469
 30
0.0
 11
415.8084840162903
 21
-108.9997558594
 31
0.0
  0
LINE
  5
6D6B
330
1E
100
AcDbEntity
  8
24
  6
CONTINOUS
100
AcDbLine
 10
396.8082398755902
 20
-108.9997558594
 30
0.0
 11
415.8084840162903
 21
-108.9997558594
 31
0.0
  0
LINE
  5
6D6C
330
1E
100
AcDbEntity
  8
10
  6
CONTINUOUS
100
AcDbLine
 10
341.8084840162903
 20
-85.0
 30
0.0
 11
403.8084840162903
 21
-85.0
 31
0.0
  0
ARC
  5
6D6D
330
1E
100
AcDbEntity
  8
18
100
AcDbCircle
 10
396.8082398755902
 20
-79.9998779297
 30
0.0
 40
8.0
100
AcDbArc
 50
90.0
 51
180.0
  0
LINE
  5
6D6E
330
1E
100
AcDbEntity
  8
12
  6
DASHED
100
AcDbLine
 10
362.8084840162903
 20
-72.0
 30
0.0
 11
362.8084840162903
 21
-62.0
 31
0.0
  0
LINE
  5
6D6F
330
1E
100
AcDbEntity
  8
12
  6
DASHED
100
AcDbLine
 10
346.8084840162903
 20
-72.0
 30
0.0
 11
362.8084840162903
 21
-72.0
 31
0.0
  0
LINE
  5
6D70
330
1E
100
AcDbEntity
  8
18
100
AcDbLine
 10
341.8084840162903
 20
-42.0
 30
0.0
 11
381.8084840162903
 21
-42.0
 31
0.0
  0
LINE
  5
6D71
330
1E
100
AcDbEntity
  8
18
100
AcDbLine
 10
346.8084840162903
 20
-47.0
 30
0.0
 11
346.8084840162903
 21
-82.0
 31
0.0
  0
LINE
  5
6D72
330
1E
100
AcDbEntity
  8
18
100
AcDbLine
 10
381.8084840162903
 20
-47.0
 30
0.0
 11
346.8084840162903
 21
-47.0
 31
0.0
  0
LINE
  5
6D73
330
1E
100
AcDbEntity
  8
18
100
AcDbLine
 10
346.8084840162903
 20
-82.0
 30
0.0
 11
341.8084840162903
 21
-82.0
 31
0.0
  0
LINE
  5
6D74
330
1E
100
AcDbEntity
  8
18
100
AcDbLine
 10
381.8084840162903
 20
-42.0
 30
0.0
 11
381.8084840162903
 21
-47.0
 31
0.0
  0
LINE
  5
6D75
330
1E
100
AcDbEntity
  8
10
  6
CONTINUOUS
100
AcDbLine
 10
355.3084840162903
 20
-37.0
 30
0.0
 11
341.8084840162903
 21
-37.0
 31
0.0
  0
LINE
  5
6D76
330
1E
100
AcDbEntity
  8
12
  6
DASHED
100
AcDbLine
 10
346.8084840162903
 20
-62.0
 30
0.0
 11
362.8084840162903
 21
-62.0
 31
0.0
  0
LINE
  5
6D77
330
1E
100
AcDbEntity
  8
12
  6
DASHED
100
AcDbLine
 10
346.8084840162903
 20
-76.81494140619998
 30
0.0
 11
357.3084840161902
 21
-76.81494140619998
 31
0.0
  0
LINE
  5
6D78
330
1E
100
AcDbEntity
  8
12
  6
DASHED
100
AcDbLine
 10
357.3084840161902
 20
-57.18505859369997
 30
0.0
 11
357.3084840161902
 21
-76.81494140619998
 31
0.0
  0
LINE
  5
6D79
330
1E
100
AcDbEntity
  8
12
  6
DASHED
100
AcDbLine
 10
346.8084840162903
 20
-57.18505859369997
 30
0.0
 11
357.3084840161902
 21
-57.18505859369997
 31
0.0
  0
LINE
  5
6D7A
330
1E
100
AcDbEntity
  8
18
100
AcDbLine
 10
396.8082398755902
 20
-79.9998779297
 30
0.0
 11
430.3031129224903
 21
-79.9998779297
 31
0.0
  0
LINE
  5
6D7B
330
1E
100
AcDbEntity
  8
18
100
AcDbLine
 10
396.8082398755902
 20
-71.9998779297
 30
0.0
 11
430.3031129224903
 21
-71.9998779297
 31
0.0
  0
LINE
  5
6D7C
330
1E
100
AcDbEntity
  8
24
  6
CONTINOUS
100
AcDbLine
 10
415.8084840162903
 20
118.0
 30
0.0
 11
448.8084840162903
 21
118.0
 31
0.0
  0
LINE
  5
6D7D
330
1E
100
AcDbEntity
  8
L0_
  6
CONTINUOUS
 62
     2
100
AcDbLine
 10
415.8084840162903
 20
134.0
 30
0.0
 11
448.8084840162903
 21
134.0
 31
0.0
  0
LINE
  5
6D7E
330
1E
100
AcDbEntity
  8
24
  6
CONTINOUS
100
AcDbLine
 10
303.8083619458902
 20
126.0
 30
0.0
 11
462.2020934949141
 21
126.0
 31
0.0
  0
LINE
  5
6D7F
330
1E
100
AcDbEntity
  8
24
  6
CONTINOUS
100
AcDbLine
 10
365.6832398755903
 20
135.1578369141
 30
0.0
 11
371.0125855787903
 21
112.8717041016
 31
0.0
  0
LINE
  5
6D80
330
1E
100
AcDbEntity
  8
18
100
AcDbLine
 10
396.8082398755902
 20
88.9998779297
 30
0.0
 11
396.8082398755902
 21
161.0
 31
0.0
  0
LINE
  5
6D81
330
1E
100
AcDbEntity
  8
18
100
AcDbLine
 10
388.8082398755902
 20
88.9998779297
 30
0.0
 11
388.8082398755902
 21
161.0
 31
0.0
  0
LINE
  5
6D82
330
1E
100
AcDbEntity
  8
24
  6
CONTINOUS
100
AcDbLine
 10
415.8084840162903
 20
117.9997558594
 30
0.0
 11
415.8084840162903
 21
134.0
 31
0.0
  0
LINE
  5
6D83
330
1E
100
AcDbEntity
  8
24
  6
CONTINOUS
100
AcDbLine
 10
415.8084840162903
 20
134.0
 30
0.0
 11
415.8084840162903
 21
118.0
 31
0.0
  0
LINE
  5
6D85
330
1E
100
AcDbEntity
  8
10
  6
CONTINUOUS
100
AcDbLine
 10
339.2083863599903
 20
56.0
 30
0.0
 11
323.8083619458902
 21
56.0
 31
0.0
  0
LINE
  5
6D86
330
1E
100
AcDbEntity
  8
L225_
  6
CONTINUOUS
 62
     3
100
AcDbLine
 10
326.7413453443903
 20
76.0
 30
0.0
 11
371.6217164380902
 21
76.0
 31
0.0
  0
LINE
  5
6D87
330
1E
100
AcDbEntity
  8
18
100
AcDbLine
 10
346.8084840162903
 20
56.0
 30
0.0
 11
346.8084840162903
 21
91.0
 31
0.0
  0
LINE
  5
6D88
330
1E
100
AcDbEntity
  8
18
100
AcDbLine
 10
381.8084840162903
 20
56.0
 30
0.0
 11
346.8084840162903
 21
56.0
 31
0.0
  0
LINE
  5
6D8C
330
1E
100
AcDbEntity
  8
18
100
AcDbLine
 10
381.8084840162903
 20
51.0
 30
0.0
 11
381.8084840162903
 21
56.0
 31
0.0
  0
LINE
  5
6D8D
330
1E
100
AcDbEntity
  8
18
100
AcDbLine
 10
341.8084840162903
 20
51.0
 30
0.0
 11
381.8084840162903
 21
51.0
 31
0.0
  0
LINE
  5
6D8E
330
1E
100
AcDbEntity
  8
10
  6
CONTINUOUS
100
AcDbLine
 10
355.3084840162903
 20
8.5
 30
0.0
 11
341.8084840162903
 21
8.5
 31
0.0
  0
LINE
  5
6D8F
330
1E
100
AcDbEntity
  8
10
  6
CONTINUOUS
100
AcDbLine
 10
355.3084840162903
 20
33.5
 30
0.0
 11
355.3084840162903
 21
8.5
 31
0.0
  0
LINE
  5
6D90
330
1E
100
AcDbEntity
  8
10
  6
CONTINUOUS
100
AcDbLine
 10
341.8084840162903
 20
33.5
 30
0.0
 11
355.3084840162903
 21
33.5
 31
0.0
  0
LINE
  5
6D91
330
1E
100
AcDbEntity
  8
10
  6
CONTINUOUS
100
AcDbLine
 10
348.8084840162903
 20
50.5
 30
0.0
 11
348.8084840162903
 21
33.5
 31
0.0
  0
LINE
  5
6D92
330
1E
100
AcDbEntity
  8
10
  6
CONTINUOUS
100
AcDbLine
 10
348.8084840162903
 20
50.5
 30
0.0
 11
341.8084840162903
 21
50.5
 31
0.0
  0
LINE
  5
6D93
330
1E
100
AcDbEntity
  8
10
  6
CONTINUOUS
100
AcDbLine
 10
341.8084840162903
 20
-12.0
 30
0.0
 11
355.3084840162903
 21
-12.0
 31
0.0
  0
LINE
  5
6D94
330
1E
100
AcDbEntity
  8
10
  6
CONTINUOUS
100
AcDbLine
 10
348.8084840162903
 20
5.0
 30
0.0
 11
348.8084840162903
 21
-12.0
 31
0.0
  0
LINE
  5
6D95
330
1E
100
AcDbEntity
  8
10
  6
CONTINUOUS
100
AcDbLine
 10
348.8084840162903
 20
5.0
 30
0.0
 11
341.8084840162903
 21
5.0
 31
0.0
  0
ARC
  5
6D96
330
1E
100
AcDbEntity
  8
18
100
AcDbCircle
 10
-396.8082398755902
 20
88.9998779297
 30
0.0
 40
8.0
210
0.0
220
0.0
230
-1.0
100
AcDbArc
 50
270.0
 51
0.0
  0
LINE
  5
6D97
330
1E
100
AcDbEntity
  8
10
  6
CONTINUOUS
100
AcDbLine
 10
341.8084840162903
 20
94.0
 30
0.0
 11
403.8084840162903
 21
94.0
 31
0.0
  0
LINE
  5
6D98
330
1E
100
AcDbEntity
  8
24
  6
CONTINOUS
100
AcDbLine
 10
371.0125855787903
 20
112.8717041016
 30
0.0
 11
368.1058472974902
 21
94.0
 31
0.0
  0
LINE
  5
6D99
330
1E
100
AcDbEntity
  8
24
  6
CONTINOUS
100
AcDbLine
 10
371.2447633130902
 20
108.9996337891
 30
0.0
 11
388.8084840162903
 21
108.9996337891
 31
0.0
  0
LINE
  5
6D9A
330
1E
100
AcDbEntity
  8
18
100
AcDbLine
 10
346.8084840162903
 20
91.0
 30
0.0
 11
341.8084840162903
 21
91.0
 31
0.0
  0
LINE
  5
6D9B
330
1E
100
AcDbEntity
  8
12
  6
DASHED
100
AcDbLine
 10
346.8084840162903
 20
71.0
 30
0.0
 11
362.8084840162903
 21
71.0
 31
0.0
  0
LINE
  5
6D9C
330
1E
100
AcDbEntity
  8
12
  6
DASHED
100
AcDbLine
 10
362.8084840162903
 20
71.0
 30
0.0
 11
362.8084840162903
 21
81.0
 31
0.0
  0
LINE
  5
6D9D
330
1E
100
AcDbEntity
  8
12
  6
DASHED
100
AcDbLine
 10
346.8084840162903
 20
81.0
 30
0.0
 11
362.8084840162903
 21
81.0
 31
0.0
  0
LINE
  5
6D9E
330
1E
100
AcDbEntity
  8
12
  6
DASHED
100
AcDbLine
 10
346.8084840162903
 20
66.18505859380002
 30
0.0
 11
357.3084840161902
 21
66.18505859380002
 31
0.0
  0
LINE
  5
6D9F
330
1E
100
AcDbEntity
  8
12
  6
DASHED
100
AcDbLine
 10
357.3084840161902
 20
85.81494140630002
 30
0.0
 11
357.3084840161902
 21
66.18505859380002
 31
0.0
  0
LINE
  5
6DA0
330
1E
100
AcDbEntity
  8
12
  6
DASHED
100
AcDbLine
 10
346.8084840162903
 20
85.81494140630002
 30
0.0
 11
357.3084840161902
 21
85.81494140630002
 31
0.0
  0
LINE
  5
6DA1
330
1E
100
AcDbEntity
  8
24
  6
CONTINOUS
100
AcDbLine
 10
415.8084840162903
 20
118.0
 30
0.0
 11
415.8084840162903
 21
110.9996337891
 31
0.0
  0
LINE
  5
6DA2
330
1E
100
AcDbEntity
  8
24
  6
CONTINOUS
100
AcDbLine
 10
403.8084840162903
 20
110.9996337891
 30
0.0
 11
396.8082398755902
 21
110.9996337891
 31
0.0
  0
LINE
  5
6DA3
330
1E
100
AcDbEntity
  8
24
  6
CONTINOUS
100
AcDbLine
 10
415.8084840162903
 20
110.9996337891
 30
0.0
 11
403.8084840162903
 21
110.9996337891
 31
0.0
  0
LINE
  5
6DA4
330
1E
100
AcDbEntity
  8
18
100
AcDbLine
 10
396.8082398755902
 20
80.99987792970001
 30
0.0
 11
430.3031129224903
 21
80.99987792970001
 31
0.0
  0
LINE
  5
6DA5
330
1E
100
AcDbEntity
  8
18
100
AcDbLine
 10
396.8082398755902
 20
88.9998779297
 30
0.0
 11
430.3031129224903
 21
88.9998779297
 31
0.0
  0
LINE
  5
6DA6
330
1E
100
AcDbEntity
  8
24
  6
CONTINOUS
100
AcDbLine
 10
396.8082398755902
 20
118.0
 30
0.0
 11
415.8084840162903
 21
118.0
 31
0.0
  0
LINE
  5
6DA7
330
1E
100
AcDbEntity
  8
10
  6
CONTINUOUS
100
AcDbLine
 10
403.8084840162903
 20
94.0
 30
0.0
 11
403.8084840162903
 21
110.9996337891
 31
0.0
  0
LINE
  5
6DA8
330
1E
100
AcDbEntity
  8
10
  6
CONTINUOUS
100
AcDbLine
 10
323.8083619458902
 20
156.0
 30
0.0
 11
403.8084840162903
 21
156.0
 31
0.0
  0
LINE
  5
6DAB
330
1E
100
AcDbEntity
  8
10
  6
CONTINUOUS
100
AcDbLine
 10
323.8083619458902
 20
141.0
 30
0.0
 11
323.8083619458902
 21
156.0
 31
0.0
  0
ARC
  5
6DAC
330
1E
100
AcDbEntity
  8
18
100
AcDbCircle
 10
-396.8082398755902
 20
161.0
 30
0.0
 40
8.0
210
0.0
220
0.0
230
-1.0
100
AcDbArc
 50
0.0
 51
90.0
  0
LINE
  5
6DAD
330
1E
100
AcDbEntity
  8
24
  6
CONTINOUS
100
AcDbLine
 10
369.0745972974903
 20
156.0
 30
0.0
 11
365.6832398755903
 21
135.1578369141
 31
0.0
  0
LINE
  5
6DAE
330
1E
100
AcDbEntity
  8
24
  6
CONTINOUS
100
AcDbLine
 10
367.1551637037903
 20
142.9997558594
 30
0.0
 11
388.8084840162903
 21
142.9997558594
 31
0.0
  0
LINE
  5
6DAF
330
1E
100
AcDbEntity
  8
L0_
  6
CONTINUOUS
 62
     2
100
AcDbLine
 10
403.8084840162903
 20
140.9997558594
 30
0.0
 11
396.8082398755902
 21
140.9997558594
 31
0.0
  0
LINE
  5
6DB0
330
1E
100
AcDbEntity
  8
24
  6
CONTINOUS
100
AcDbLine
 10
415.8084840162903
 20
140.9997558594
 30
0.0
 11
403.8084840162903
 21
140.9997558594
 31
0.0
  0
LINE
  5
6DB1
330
1E
100
AcDbEntity
  8
18
100
AcDbLine
 10
396.8082398755902
 20
161.0
 30
0.0
 11
425.6912965162903
 21
161.0
 31
0.0
  0
LINE
  5
6DB2
330
1E
100
AcDbEntity
  8
18
100
AcDbLine
 10
396.8082398755902
 20
169.0
 30
0.0
 11
425.8775758130902
 21
169.0
 31
0.0
  0
LINE
  5
6DB3
330
1E
100
AcDbEntity
  8
10
  6
CONTINUOUS
100
AcDbLine
 10
403.8084840162903
 20
140.9997558594
 30
0.0
 11
403.8084840162903
 21
156.0
 31
0.0
  0
LINE
  5
6DB4
330
1E
100
AcDbEntity
  8
L0_
  6
CONTINUOUS
 62
     2
100
AcDbLine
 10
415.8084840162903
 20
139.8564453125
 30
0.0
 11
415.8084840162903
 21
134.0
 31
0.0
  0
LINE
  5
6DB5
330
1E
100
AcDbEntity
  8
24
  6
CONTINOUS
100
AcDbLine
 10
396.8082398755902
 20
134.0
 30
0.0
 11
415.8084840162903
 21
134.0
 31
0.0
  0
LINE
  5
6DB6
330
1E
100
AcDbEntity
  8
L0_
  6
CONTINUOUS
 62
     2
100
AcDbLine
 10
448.8084840162903
 20
118.0
 30
0.0
 11
448.8084840162903
 21
134.0
 31
0.0
  0
LWPOLYLINE
  5
6DE1
330
1E
100
AcDbEntity
  8
12
  6
DASHED
100
AcDbPolyline
 90
        2
 70
     0
 43
0.0
 10
-34.85003662108999
 20
-108.7499999999999
 10
-34.85003662108999
 20
-125.2499999999999
  0
LWPOLYLINE
  5
6DE2
330
1E
100
AcDbEntity
  8
12
  6
DASHED
100
AcDbPolyline
 90
        2
 70
     0
 43
0.0
 10
35.15002441406
 20
-108.7499999999999
 10
35.15002441406
 20
-125.2499999999999
  0
LWPOLYLINE
  5
6DE3
330
1E
100
AcDbEntity
  8
10
  6
CONTINUOUS
100
AcDbPolyline
 90
        2
 70
     0
 43
0.0
 10
81.0
 20
-126.9999999999999
 42
0.9999999999999998
 10
81.0
 20
-106.9999999999999
  0
LWPOLYLINE
  5
6DE4
330
1E
100
AcDbEntity
  8
10
  6
CONTINUOUS
100
AcDbPolyline
 90
        2
 70
     0
 43
0.0
 10
59.0
 20
-106.9999999999999
 42
0.9999999999999998
 10
59.0
 20
-126.9999999999999
  0
LWPOLYLINE
  5
6DE5
330
1E
100
AcDbEntity
  8
10
  6
CONTINUOUS
100
AcDbPolyline
 90
        2
 70
     0
 43
0.0
 10
11.0
 20
-126.9999999999999
 42
0.9999999999999998
 10
11.0
 20
-106.9999999999999
  0
LWPOLYLINE
  5
6DE6
330
1E
100
AcDbEntity
  8
10
  6
CONTINUOUS
100
AcDbPolyline
 90
        2
 70
     0
 43
0.0
 10
-58.99993896484
 20
-126.9999999999999
 42
0.9999999999999998
 10
-58.99993896484
 20
-106.9999999999999
  0
LWPOLYLINE
  5
6DE7
330
1E
100
AcDbEntity
  8
10
  6
CONTINUOUS
100
AcDbPolyline
 90
        2
 70
     0
 43
0.0
 10
-80.99993896483999
 20
-106.9999999999999
 42
0.9999999999999998
 10
-80.99993896483999
 20
-126.9999999999999
  0
LWPOLYLINE
  5
6DE8
330
1E
100
AcDbEntity
  8
10
  6
CONTINUOUS
100
AcDbPolyline
 90
        2
 70
     0
 43
0.0
 10
-11.0
 20
-106.9999999999999
 42
0.9999999999999998
 10
-11.0
 20
-126.9999999999999
  0
LWPOLYLINE
  5
6DE9
330
1E
100
AcDbEntity
  8
10
  6
CONTINUOUS
100
AcDbPolyline
 90
        6
 70
     0
 43
0.0
 10
-105.0
 20
141.0
 10
105.0
 20
141.0
 10
105.0
 20
-132.0
 10
-105.0
 20
-132.0
 10
-105.0
 20
141.0
 10
-105.0
 20
-132.0
  0
LWPOLYLINE
  5
6DEA
330
1E
100
AcDbEntity
  8
10
  6
CONTINUOUS
100
AcDbPolyline
 90
        2
 70
     0
 43
0.0
 10
-81.0
 20
-126.9999999999999
 10
-59.0
 20
-126.9999999999999
  0
LWPOLYLINE
  5
6DEB
330
1E
100
AcDbEntity
  8
10
  6
CONTINUOUS
100
AcDbPolyline
 90
        2
 70
     0
 43
0.0
 10
-11.00006103516
 20
-126.9999999999999
 10
10.99993896483999
 20
-126.9999999999999
  0
LWPOLYLINE
  5
6DEC
330
1E
100
AcDbEntity
  8
12
100
AcDbPolyline
 90
        2
 70
     0
 43
0.0
 10
-26.60003662109
 20
-116.9999999999999
 10
-43.10003662108999
 20
-116.9999999999999
  0
CIRCLE
  5
6DED
330
1E
100
AcDbEntity
  8
12
100
AcDbCircle
 10
-34.85003662108999
 20
-116.9999999999999
 30
0.0
 40
4.0
  0
LWPOLYLINE
  5
6DEE
330
1E
100
AcDbEntity
  8
12
100
AcDbPolyline
 90
        2
 70
     0
 43
0.0
 10
43.40002441405999
 20
-116.9999999999999
 10
26.90002441405999
 20
-116.9999999999999
  0
CIRCLE
  5
6DEF
330
1E
100
AcDbEntity
  8
12
100
AcDbCircle
 10
35.15002441406
 20
-116.9999999999999
 30
0.0
 40
4.0
  0
LWPOLYLINE
  5
6DF0
330
1E
100
AcDbEntity
  8
10
  6
CONTINUOUS
100
AcDbPolyline
 90
        2
 70
     0
 43
0.0
 10
58.99993896484
 20
-126.9999999999999
 10
80.99993896483988
 20
-126.9999999999999
  0
LWPOLYLINE
  5
6DF1
330
1E
100
AcDbEntity
  8
10
  6
CONTINUOUS
100
AcDbPolyline
 90
        2
 70
     0
 43
0.0
 10
58.99993896484
 20
136.0
 42
0.9999999999999998
 10
58.99993896484
 20
116.0
210
0.0
220
0.0
230
-1.0
  0
LWPOLYLINE
  5
6DF2
330
1E
100
AcDbEntity
  8
10
  6
CONTINUOUS
100
AcDbPolyline
 90
        2
 70
     0
 43
0.0
 10
105.0
 20
-44.99999999999999
 10
-104.84997558594
 20
-44.99999999999999
  0
LWPOLYLINE
  5
6DF3
330
1E
100
AcDbEntity
  8
10
  6
CONTINUOUS
100
AcDbPolyline
 90
        2
 70
     0
 43
0.0
 10
104.8499755859398
 20
-50.99999999999998
 10
-104.84997558594
 20
-50.99999999999998
  0
LWPOLYLINE
  5
6DF4
330
1E
100
AcDbEntity
  8
10
  6
CONTINUOUS
100
AcDbPolyline
 90
        2
 70
     0
 43
0.0
 10
104.8499755859398
 20
-106.9999999999999
 10
-104.84997558594
 20
-106.9999999999999
  0
LWPOLYLINE
  5
6DF5
330
1E
100
AcDbEntity
  8
10
  6
CONTINUOUS
100
AcDbPolyline
 90
        2
 70
     0
 43
0.0
 10
104.8499755859398
 20
57.00000000000001
 10
-104.84997558594
 20
57.00000000000001
  0
LWPOLYLINE
  5
6DF6
330
1E
100
AcDbEntity
  8
10
  6
CONTINUOUS
100
AcDbPolyline
 90
        2
 70
     0
 43
0.0
 10
104.8499755859398
 20
116.0
 10
-104.84997558594
 20
116.0
  0
LWPOLYLINE
  5
6DF7
330
1E
100
AcDbEntity
  8
10
  6
CONTINUOUS
100
AcDbPolyline
 90
        2
 70
     0
 43
0.0
 10
80.99993896483999
 20
116.0
 42
0.9999999999999998
 10
80.99993896483999
 20
136.0
210
0.0
220
0.0
230
-1.0
  0
LWPOLYLINE
  5
6DF8
330
1E
100
AcDbEntity
  8
10
  6
CONTINUOUS
100
AcDbPolyline
 90
        2
 70
     0
 43
0.0
 10
-81.0
 20
136.0
 10
-59.0
 20
136.0
  0
LWPOLYLINE
  5
6DF9
330
1E
100
AcDbEntity
  8
10
  6
CONTINUOUS
100
AcDbPolyline
 90
        2
 70
     0
 43
0.0
 10
-59.0
 20
116.0
 42
0.9999999999999998
 10
-59.0
 20
136.0
210
0.0
220
0.0
230
-1.0
  0
LWPOLYLINE
  5
6DFA
330
1E
100
AcDbEntity
  8
10
  6
CONTINUOUS
100
AcDbPolyline
 90
        4
 70
     1
 43
0.0
 10
-22.0
 20
-26.99999999999998
 10
22.0
 20
-26.99999999999998
 10
22.0
 20
28.50000000000001
 10
-22.0
 20
28.50000000000001
  0
LWPOLYLINE
  5
6DFB
330
1E
100
AcDbEntity
  8
10
  6
CONTINUOUS
100
AcDbPolyline
 90
        4
 70
     0
 43
0.0
 10
31.15002441406
 20
-44.99999999999999
 10
31.15002441406
 20
45.00000000000001
 10
-30.85003662109
 20
45.00000000000001
 10
-30.85003662109
 20
-44.99999999999999
  0
LWPOLYLINE
  5
6DFC
330
1E
100
AcDbEntity
  8
10
  6
CONTINUOUS
100
AcDbPolyline
 90
        2
 70
     0
 43
0.0
 10
-11.00006103516
 20
136.0
 10
10.99993896483999
 20
136.0
  0
LWPOLYLINE
  5
6DFD
330
1E
100
AcDbEntity
  8
12
100
AcDbPolyline
 90
        2
 70
     0
 43
0.0
 10
-26.60003662109
 20
126.0
 10
-43.10003662108999
 20
126.0
  0
LWPOLYLINE
  5
6DFE
330
1E
100
AcDbEntity
  8
12
  6
DASHED
100
AcDbPolyline
 90
        2
 70
     0
 43
0.0
 10
-34.85003662108999
 20
134.25
 10
-34.85003662108999
 20
117.75
  0
CIRCLE
  5
6DFF
330
1E
100
AcDbEntity
  8
12
100
AcDbCircle
 10
-34.85003662108999
 20
126.0
 30
0.0
 40
4.0
  0
LWPOLYLINE
  5
6E00
330
1E
100
AcDbEntity
  8
10
  6
CONTINUOUS
100
AcDbPolyline
 90
        2
 70
     0
 43
0.0
 10
11.0
 20
116.0
 42
0.9999999999999998
 10
11.0
 20
136.0
210
0.0
220
0.0
230
-1.0
  0
LWPOLYLINE
  5
6E01
330
1E
100
AcDbEntity
  8
12
100
AcDbPolyline
 90
        2
 70
     0
 43
0.0
 10
43.40002441405999
 20
126.0
 10
26.90002441405999
 20
126.0
  0
LWPOLYLINE
  5
6E02
330
1E
100
AcDbEntity
  8
10
  6
CONTINUOUS
100
AcDbPolyline
 90
        2
 70
     0
 43
0.0
 10
-11.0
 20
136.0
 42
0.9999999999999998
 10
-11.0
 20
116.0
210
0.0
220
0.0
230
-1.0
  0
LWPOLYLINE
  5
6E03
330
1E
100
AcDbEntity
  8
12
  6
DASHED
100
AcDbPolyline
 90
        2
 70
     0
 43
0.0
 10
35.15002441406
 20
134.25
 10
35.15002441406
 20
117.75
  0
CIRCLE
  5
6E04
330
1E
100
AcDbEntity
  8
12
100
AcDbCircle
 10
35.15002441406
 20
126.0
 30
0.0
 40
4.0
  0
LWPOLYLINE
  5
6E05
330
1E
100
AcDbEntity
  8
10
  6
CONTINUOUS
100
AcDbPolyline
 90
        2
 70
     0
 43
0.0
 10
-81.0
 20
136.0
 42
0.9999999999999998
 10
-81.0
 20
116.0
210
0.0
220
0.0
230
-1.0
  0
LWPOLYLINE
  5
6E06
330
1E
100
AcDbEntity
  8
10
  6
CONTINUOUS
100
AcDbPolyline
 90
        2
 70
     0
 43
0.0
 10
58.99993896484
 20
136.0
 10
80.99993896483988
 20
136.0
  0
LWPOLYLINE
  5
6EC2
330
1E
100
AcDbEntity
  8
10
  6
CONTINUOUS
100
AcDbPolyline
 90
        8
 70
     0
 43
0.0
 10
323.8083619458902
 20
141.0
 10
259.1082887037903
 20
141.0
 10
233.8083619458902
 20
141.0
 10
233.8083619458902
 20
116.3999023438
 10
226.8083619458902
 20
116.3999023438
 10
226.8083619458902
 20
57.0
 10
220.8083619458903
 20
57.0
 10
220.8083619458903
 20
-44.99975585940001
  0
LWPOLYLINE
  5
6EC3
330
1E
100
AcDbEntity
  8
10
  6
CONTINUOUS
100
AcDbPolyline
 90
        9
 70
     0
 43
0.0
 10
216.8083619458903
 20
-44.99975585940001
 10
226.8083619458902
 20
-44.99975585940001
 10
226.8083619458902
 20
-50.99975585940001
 10
220.8083619458903
 20
-50.99975585940001
 10
220.8083619458903
 20
-106.9997558594
 10
223.8083619458902
 20
-106.9997558594
 10
223.8083619458902
 20
-131.9997558594
 10
259.1082887037903
 20
-131.9997558594
 10
323.8083619458902
 20
-131.9997558594
  0
DIMENSION
  5
6EC8
330
1E
100
AcDbEntity
  8
30
  6
CONTINUOUS
100
AcDbDimension
  2
*D1
 10
323.8083619458902
 20
-209.5853277737153
 30
0.0
 11
251.2871240542688
 21
-206.0853277737153
 31
0.0
 70
    32
  3
STANDARD
100
AcDbAlignedDimension
 13
178.7658861626475
 23
0.0
 33
0.0
 14
323.8083619458902
 24
-147.0
 34
0.0
100
AcDbRotatedDimension
  0
DIMENSION
  5
6F3C
330
1E
100
AcDbEntity
  8
30
  6
CONTINUOUS
100
AcDbDimension
  2
*D2
 10
341.8084840162903
 20
-192.0387863989474
 30
0.0
 11
281.3084229810903
 21
-188.5387863989474
 31
0.0
 70
    32
  3
STANDARD
100
AcDbAlignedDimension
 13
220.8083619458903
 23
-106.9997558594
 33
0.0
 14
341.8084840162903
 24
-85.0
 34
0.0
100
AcDbRotatedDimension
  0
DIMENSION
  5
6F52
330
1E
100
AcDbEntity
  8
30
  6
CONTINUOUS
100
AcDbDimension
  2
*D3
 10
403.8084840162903
 20
-192.0387863989474
 30
0.0
 11
372.8084840162903
 21
-188.5387863989474
 31
0.0
 70
    32
  3
STANDARD
100
AcDbAlignedDimension
 13
341.8084840162903
 23
-85.0
 33
0.0
 14
403.8084840162903
 24
-147.0
 34
0.0
100
AcDbRotatedDimension
1001
ACAD
1000
DSTYLE
1002
{
1070
   287
1070
     4
1070
   287
1070
     4
1070
   279
1070
     1
1002
}
  0
DIMENSION
  5
6F5F
330
1E
100
AcDbEntity
  8
30
  6
CONTINUOUS
100
AcDbDimension
  2
*D4
 10
433.8084840162903
 20
-192.0387863989474
 30
0.0
 11
418.8084840162903
 21
-188.5387863989474
 31
0.0
 70
    32
  3
STANDARD
100
AcDbAlignedDimension
 13
403.8084840162903
 23
-147.0
 33
0.0
 14
433.8084840162903
 24
-124.9997558594
 34
0.0
100
AcDbRotatedDimension
1001
ACAD
1000
DSTYLE
1002
{
1070
   287
1070
     4
1070
   287
1070
     4
1070
   279
1070
     1
1002
}
  0
DIMENSION
  5
6FA5
330
1E
100
AcDbEntity
  8
30
  6
CONTINUOUS
100
AcDbDimension
  2
*D5
 10
388.8084840162903
 20
-175.0972965716073
 30
0.0
 11
411.3084840162903
 21
-171.5972965716073
 31
0.0
 70
    32
  3
STANDARD
100
AcDbAlignedDimension
 13
433.8084840162903
 23
-125.9997558594
 33
0.0
 14
388.8084840162903
 24
-133.9997558594
 34
0.0
100
AcDbRotatedDimension
  0
DIMENSION
  5
6FB2
330
1E
100
AcDbEntity
  8
30
  6
CONTINUOUS
100
AcDbDimension
  2
*D6
 10
341.8084840162903
 20
-175.0972965716073
 30
0.0
 11
365.3084840162903
 21
-171.5972965716073
 31
0.0
 70
    32
  3
STANDARD
100
AcDbAlignedDimension
 13
388.8084840162903
 23
-133.9997558594
 33
0.0
 14
341.8084840162903
 24
-147.0
 34
0.0
100
AcDbRotatedDimension
1001
ACAD
1000
DSTYLE
1002
{
1070
   287
1070
     4
1070
   287
1070
     4
1070
   279
1070
     1
1002
}
  0
LINE
  5
7169
330
1E
100
AcDbEntity
  8
11
  6
CONTINUOUS
100
AcDbLine
 10
70.0
 20
-438.1617850407572
 30
0.0
 11
70.0
 21
-471.1617850407572
 31
0.0
  0
LINE
  5
716A
330
1E
100
AcDbEntity
  8
18
  6
DASHED
 48
2.0
100
AcDbLine
 10
103.0
 20
-511.1617850407571
 30
0.0
 11
103.0
 21
-344.1617850407571
 31
0.0
  0
LINE
  5
716B
330
1E
100
AcDbEntity
  8
18
  6
DASHED
 48
2.0
100
AcDbLine
 10
-103.0
 20
-344.1617850407571
 30
0.0
 11
-103.0
 21
-511.1617850407571
 31
0.0
  0
LINE
  5
716C
330
1E
100
AcDbEntity
  8
11
  6
CONTINUOUS
100
AcDbLine
 10
-69.99975585940001
 20
-471.1617850407572
 30
0.0
 11
-69.99975585940001
 21
-438.1617850407572
 31
0.0
  0
CIRCLE
  5
716E
330
1E
100
AcDbEntity
  8
12
  6
CONTINUOUS
 62
     3
100
AcDbCircle
 10
69.99975585940001
 20
-549.1617850407571
 30
0.0
 40
8.0
210
0.0
220
0.0
230
-1.0
  0
LINE
  5
716F
330
1E
100
AcDbEntity
  8
18
  6
DASHED
 48
2.0
100
AcDbLine
 10
-103.0
 20
-511.1617850407571
 30
0.0
 11
103.0
 21
-511.1617850407571
 31
0.0
  0
LINE
  5
7170
330
1E
100
AcDbEntity
  8
L225_
  6
CONTINUOUS
 62
     3
100
AcDbLine
 10
-115.0
 20
-549.1617850407571
 30
0.0
 11
115.0
 21
-549.1617850407571
 31
0.0
  0
LINE
  5
7171
330
1E
100
AcDbEntity
  8
18
  6
DASHED
 48
2.0
100
AcDbLine
 10
105.0
 20
-517.1617850407572
 30
0.0
 11
-105.0
 21
-517.1617850407572
 31
0.0
  0
LINE
  5
7172
330
1E
100
AcDbEntity
  8
18
  6
DASHED
 48
2.0
100
AcDbLine
 10
-105.0
 20
-579.1617850407572
 30
0.0
 11
105.0
 21
-579.1617850407572
 31
0.0
  0
LINE
  5
7173
330
1E
100
AcDbEntity
  8
18
  6
DASHED
 48
2.0
100
AcDbLine
 10
-105.0
 20
-517.1617850407572
 30
0.0
 11
-105.0
 21
-579.1617850407572
 31
0.0
  0
LINE
  5
7174
330
1E
100
AcDbEntity
  8
18
  6
DASHED
 48
2.0
100
AcDbLine
 10
-90.99975585940001
 20
-517.1617850407572
 30
0.0
 11
-90.99975585940001
 21
-579.1617850407572
 31
0.0
  0
LINE
  5
7175
330
1E
100
AcDbEntity
  8
18
  6
DASHED
 48
2.0
100
AcDbLine
 10
-103.0
 20
-511.1617850407571
 30
0.0
 11
-105.0
 21
-517.1617850407572
 31
0.0
  0
LINE
  5
717C
330
1E
100
AcDbEntity
  8
11
  6
CONTINUOUS
100
AcDbLine
 10
70.0
 20
-471.1617850407572
 30
0.0
 11
-69.99975585940001
 21
-471.1617850407572
 31
0.0
  0
LINE
  5
717D
330
1E
100
AcDbEntity
  8
18
  6
DASHED
 48
2.0
100
AcDbLine
 10
-48.99975585940001
 20
-517.1617850407572
 30
0.0
 11
-48.99975585940001
 21
-579.1617850407572
 31
0.0
  0
LINE
  5
717E
330
1E
100
AcDbEntity
  8
18
  6
DASHED
 48
2.0
100
AcDbLine
 10
-20.99975585940001
 20
-517.1617850407572
 30
0.0
 11
-20.99975585940001
 21
-579.1617850407572
 31
0.0
  0
LINE
  5
717F
330
1E
100
AcDbEntity
  8
18
  6
DASHED
 48
2.0
100
AcDbLine
 10
21.0
 20
-517.1617850407572
 30
0.0
 11
21.0
 21
-579.1617850407572
 31
0.0
  0
CIRCLE
  5
7180
330
1E
100
AcDbEntity
  8
12
  6
CONTINUOUS
 62
     3
100
AcDbCircle
 10
0.0
 20
-549.1617850407571
 30
0.0
 40
8.0
210
0.0
220
0.0
230
-1.0
  0
CIRCLE
  5
7181
330
1E
100
AcDbEntity
  8
12
  6
CONTINUOUS
 62
     3
100
AcDbCircle
 10
44.99975585940001
 20
-499.1617850407571
 30
0.0
 40
5.0
210
0.0
220
0.0
230
-1.0
  0
LINE
  5
7182
330
1E
100
AcDbEntity
  8
12
  6
CONTINUOUS
 62
     3
100
AcDbLine
 10
-36.99975585940001
 20
-499.1617850407571
 30
0.0
 11
-52.99975585940001
 21
-499.1617850407571
 31
0.0
  0
LINE
  5
7183
330
1E
100
AcDbEntity
  8
18
  6
DASHED
 48
2.0
100
AcDbLine
 10
105.0
 20
-579.1617850407572
 30
0.0
 11
105.0
 21
-517.1617850407572
 31
0.0
  0
LINE
  5
7184
330
1E
100
AcDbEntity
  8
18
  6
DASHED
 48
2.0
100
AcDbLine
 10
49.0
 20
-517.1617850407572
 30
0.0
 11
49.0
 21
-579.1617850407572
 31
0.0
  0
LINE
  5
7185
330
1E
100
AcDbEntity
  8
18
  6
DASHED
 48
2.0
100
AcDbLine
 10
91.0
 20
-517.1617850407572
 30
0.0
 11
91.0
 21
-579.1617850407572
 31
0.0
  0
CIRCLE
  5
7186
330
1E
100
AcDbEntity
  8
12
  6
CONTINUOUS
 62
     3
100
AcDbCircle
 10
-70.0
 20
-549.1617850407571
 30
0.0
 40
8.0
210
0.0
220
0.0
230
-1.0
  0
CIRCLE
  5
7187
330
1E
100
AcDbEntity
  8
12
  6
CONTINUOUS
 62
     3
100
AcDbCircle
 10
-45.0
 20
-499.1617850407571
 30
0.0
 40
5.0
210
0.0
220
0.0
230
-1.0
  0
LINE
  5
7188
330
1E
100
AcDbEntity
  8
12
  6
CONTINUOUS
 62
     3
100
AcDbLine
 10
53.0
 20
-499.1617850407571
 30
0.0
 11
37.0
 21
-499.1617850407571
 31
0.0
  0
LINE
  5
7189
330
1E
100
AcDbEntity
  8
18
  6
DASHED
 48
2.0
100
AcDbLine
 10
103.0
 20
-511.1617850407571
 30
0.0
 11
105.0
 21
-517.1617850407572
 31
0.0
  0
LINE
  5
718A
330
1E
100
AcDbEntity
  8
18
  6
DASHED
 48
2.0
100
AcDbLine
 10
103.0
 20
-344.1617850407571
 30
0.0
 11
-103.0
 21
-344.1617850407571
 31
0.0
  0
CIRCLE
  5
718B
330
1E
100
AcDbEntity
  8
12
  6
CONTINUOUS
 62
     3
100
AcDbCircle
 10
-69.99975585940001
 20
-306.1617850407571
 30
0.0
 40
8.0
  0
LINE
  5
718C
330
1E
100
AcDbEntity
  8
12
  6
CONTINUOUS
 62
     3
100
AcDbLine
 10
-115.0
 20
-306.1617850407571
 30
0.0
 11
115.0
 21
-306.1617850407571
 31
0.0
  0
LINE
  5
718D
330
1E
100
AcDbEntity
  8
18
  6
DASHED
 48
2.0
100
AcDbLine
 10
105.0
 20
-338.1617850407572
 30
0.0
 11
-105.0
 21
-338.1617850407572
 31
0.0
  0
LINE
  5
718E
330
1E
100
AcDbEntity
  8
18
  6
DASHED
 48
2.0
100
AcDbLine
 10
-105.0
 20
-276.1617850407572
 30
0.0
 11
105.0
 21
-276.1617850407572
 31
0.0
  0
LINE
  5
718F
330
1E
100
AcDbEntity
  8
16
100
AcDbLine
 10
-131.61508308124
 20
-432.1617850407571
 30
0.0
 11
141.6410974966001
 21
-432.2657026277592
 31
0.0
  0
LINE
  5
7190
330
1E
100
AcDbEntity
  8
18
  6
DASHED
 48
2.0
100
AcDbLine
 10
-90.99975585940001
 20
-338.1617850407572
 30
0.0
 11
-90.99975585940001
 21
-276.1617850407572
 31
0.0
  0
LINE
  5
7191
330
1E
100
AcDbEntity
  8
18
  6
DASHED
 48
2.0
100
AcDbLine
 10
-105.0
 20
-338.1617850407572
 30
0.0
 11
-105.0
 21
-276.1617850407572
 31
0.0
  0
LINE
  5
7193
330
1E
100
AcDbEntity
  8
18
  6
DASHED
 48
2.0
100
AcDbLine
 10
-103.0
 20
-344.1617850407571
 30
0.0
 11
-105.0
 21
-338.1617850407572
 31
0.0
  0
LINE
  5
7194
330
1E
100
AcDbEntity
  8
18
  6
DASHED
 48
2.0
100
AcDbLine
 10
91.0
 20
-338.1617850407572
 30
0.0
 11
91.0
 21
-276.1617850407572
 31
0.0
  0
LINE
  5
7195
330
1E
100
AcDbEntity
  8
18
  6
DASHED
 48
2.0
100
AcDbLine
 10
49.0
 20
-338.1617850407572
 30
0.0
 11
49.0
 21
-276.1617850407572
 31
0.0
  0
LINE
  5
7196
330
1E
100
AcDbEntity
  8
18
  6
DASHED
 48
2.0
100
AcDbLine
 10
21.0
 20
-338.1617850407572
 30
0.0
 11
21.0
 21
-276.1617850407572
 31
0.0
  0
LINE
  5
7197
330
1E
100
AcDbEntity
  8
18
  6
DASHED
 48
2.0
100
AcDbLine
 10
-20.99975585940001
 20
-338.1617850407572
 30
0.0
 11
-20.99975585940001
 21
-276.1617850407572
 31
0.0
  0
LINE
  5
7198
330
1E
100
AcDbEntity
  8
18
  6
DASHED
 48
2.0
100
AcDbLine
 10
-48.99975585940001
 20
-338.1617850407572
 30
0.0
 11
-48.99975585940001
 21
-276.1617850407572
 31
0.0
  0
CIRCLE
  5
7199
330
1E
100
AcDbEntity
  8
12
  6
CONTINUOUS
 62
     3
100
AcDbCircle
 10
70.0
 20
-306.1617850407571
 30
0.0
 40
8.0
  0
CIRCLE
  5
719A
330
1E
100
AcDbEntity
  8
12
  6
CONTINUOUS
 62
     3
100
AcDbCircle
 10
0.0
 20
-306.1617850407571
 30
0.0
 40
8.0
  0
LINE
  5
719B
330
1E
100
AcDbEntity
  8
18
  6
DASHED
 48
2.0
100
AcDbLine
 10
105.0
 20
-276.1617850407572
 30
0.0
 11
105.0
 21
-338.1617850407572
 31
0.0
  0
LINE
  5
719C
330
1E
100
AcDbEntity
  8
12
  6
CONTINUOUS
 62
     3
100
AcDbLine
 10
70.0
 20
-266.1617850407572
 30
0.0
 11
70.0
 21
-349.1617850407572
 31
0.0
  0
LINE
  5
719D
330
1E
100
AcDbEntity
  8
12
  6
CONTINUOUS
 62
     3
100
AcDbLine
 10
-69.99975585940001
 20
-266.1617850407572
 30
0.0
 11
-69.99975585940001
 21
-349.1617850407572
 31
0.0
  0
CIRCLE
  5
719E
330
1E
100
AcDbEntity
  8
12
  6
CONTINUOUS
 62
     3
100
AcDbCircle
 10
-34.99975585940001
 20
-433.1617850407572
 30
0.0
 40
1.75
210
0.0
220
0.0
230
-1.0
  0
CIRCLE
  5
719F
330
1E
100
AcDbEntity
  8
12
  6
CONTINUOUS
 62
     3
100
AcDbCircle
 10
35.0
 20
-387.6617850407571
 30
0.0
 40
1.75
  0
LINE
  5
71A0
330
1E
100
AcDbEntity
  8
11
  6
CONTINUOUS
100
AcDbLine
 10
-69.99975585940001
 20
-438.1617850407572
 30
0.0
 11
70.0
 21
-438.1617850407572
 31
0.0
  0
LINE
  5
71A1
330
1E
100
AcDbEntity
  8
11
  6
CONTINUOUS
100
AcDbLine
 10
70.0
 20
-425.6617850407572
 30
0.0
 11
-69.99975585940001
 21
-425.6617850407572
 31
0.0
  0
LINE
  5
71A2
330
1E
100
AcDbEntity
  8
11
  6
CONTINUOUS
100
AcDbLine
 10
-69.99975585940001
 20
-392.6617850407572
 30
0.0
 11
70.0
 21
-392.6617850407572
 31
0.0
  0
CIRCLE
  5
71A3
330
1E
100
AcDbEntity
  8
12
  6
CONTINUOUS
 62
     3
100
AcDbCircle
 10
-34.99975585940001
 20
-433.1617850407572
 30
0.0
 40
1.75
  0
CIRCLE
  5
71A4
330
1E
100
AcDbEntity
  8
12
  6
CONTINUOUS
 62
     3
100
AcDbCircle
 10
-34.99975585940001
 20
-387.6617850407571
 30
0.0
 40
1.75
  0
LINE
  5
71A5
330
1E
100
AcDbEntity
  8
11
  6
CONTINUOUS
100
AcDbLine
 10
-69.99975585940001
 20
-425.6617850407572
 30
0.0
 11
-69.99975585940001
 21
-392.6617850407572
 31
0.0
  0
LINE
  5
71A6
330
1E
100
AcDbEntity
  8
12
  6
CONTINUOUS
 62
     3
100
AcDbLine
 10
-44.99975585940001
 20
-348.1617850407571
 30
0.0
 11
-44.99975585940001
 21
-364.1617850407572
 31
0.0
  0
LINE
  5
71A7
330
1E
100
AcDbEntity
  8
12
  6
CONTINUOUS
 62
     3
100
AcDbLine
 10
-36.99975585940001
 20
-356.1617850407571
 30
0.0
 11
-52.99975585940001
 21
-356.1617850407571
 31
0.0
  0
CIRCLE
  5
71A8
330
1E
100
AcDbEntity
  8
12
  6
CONTINUOUS
 62
     3
100
AcDbCircle
 10
-44.99975585940001
 20
-356.1617850407571
 30
0.0
 40
5.0
  0
LINE
  5
71A9
330
1E
100
AcDbEntity
  8
11
  6
CONTINUOUS
100
AcDbLine
 10
70.0
 20
-392.6617850407572
 30
0.0
 11
70.0
 21
-425.6617850407572
 31
0.0
  0
LINE
  5
71AA
330
1E
100
AcDbEntity
  8
12
  6
CONTINUOUS
 62
     3
100
AcDbLine
 10
45.0
 20
-348.1617850407571
 30
0.0
 11
45.0
 21
-364.1617850407572
 31
0.0
  0
LINE
  5
71AB
330
1E
100
AcDbEntity
  8
12
  6
CONTINUOUS
 62
     3
100
AcDbLine
 10
53.0
 20
-356.1617850407571
 30
0.0
 11
37.0
 21
-356.1617850407571
 31
0.0
  0
CIRCLE
  5
71AC
330
1E
100
AcDbEntity
  8
12
  6
CONTINUOUS
 62
     3
100
AcDbCircle
 10
45.0
 20
-356.1617850407571
 30
0.0
 40
5.0
  0
LINE
  5
71AD
330
1E
100
AcDbEntity
  8
18
  6
DASHED
 48
2.0
100
AcDbLine
 10
103.0
 20
-344.1617850407571
 30
0.0
 11
105.0
 21
-338.1617850407572
 31
0.0
  0
LINE
  5
75E0
330
1E
100
AcDbEntity
  8
18
  6
DASHED
 48
2.0
100
AcDbLine
 10
249.1952752494648
 20
-341.1617850407572
 30
0.0
 11
560.8327264212648
 21
-341.1617850407572
 31
0.0
  0
LINE
  5
75E1
330
1E
100
AcDbEntity
  8
18
  6
DASHED
 48
2.0
100
AcDbLine
 10
243.1134881400648
 20
-474.1617850407571
 30
0.0
 11
558.5519647025648
 21
-474.1617850407571
 31
0.0
  0
LINE
  5
75E2
330
1E
100
AcDbEntity
  8
18
  6
DASHED
 48
2.0
100
AcDbLine
 10
243.1134881400648
 20
-381.1617850407571
 30
0.0
 11
558.5519647025648
 21
-381.1617850407571
 31
0.0
  0
LINE
  5
75E3
330
1E
100
AcDbEntity
  8
18
  6
DASHED
 48
2.0
100
AcDbLine
 10
248.7484979056648
 20
-376.1617850407572
 30
0.0
 11
560.4535760306649
 21
-376.1617850407572
 31
0.0
  0
LINE
  5
75E4
330
1E
100
AcDbEntity
  8
18
  6
DASHED
 48
2.0
100
AcDbLine
 10
248.7484979056648
 20
-479.1617850407572
 30
0.0
 11
560.4535760306649
 21
-479.1617850407572
 31
0.0
  0
LINE
  5
75E5
330
1E
100
AcDbEntity
  8
18
  6
DASHED
 48
2.0
100
AcDbLine
 10
249.1960366781718
 20
-514.1617850407572
 30
0.0
 11
560.8334878499717
 21
-514.1617850407572
 31
0.0
  0
LINE
  5
75E6
330
1E
100
AcDbEntity
  8
12
  6
CONTINUOUS
 62
     3
100
AcDbLine
 10
162.0312417562718
 20
-499.1617850407571
 30
0.0
 11
198.8127358968718
 21
-499.1617850407571
 31
0.0
  0
LINE
  5
75E7
330
1E
100
AcDbEntity
  8
18
  6
DASHED
 48
2.0
100
AcDbLine
 10
242.8142007406718
 20
-503.5102957829572
 30
0.0
 11
249.1960366781718
 21
-514.1617850407572
 31
0.0
  0
LINE
  5
75E8
330
1E
100
AcDbEntity
  8
18
  6
DASHED
 48
2.0
100
AcDbLine
 10
183.1142495687718
 20
-479.1617850407572
 30
0.0
 11
183.1142495687718
 21
-514.1617850407572
 31
0.0
  0
LINE
  5
75E9
330
1E
100
AcDbEntity
  8
18
  6
DASHED
 48
2.0
100
AcDbLine
 10
178.1142495687718
 20
-514.1617850407572
 30
0.0
 11
178.1142495687718
 21
-474.1617850407571
 31
0.0
  0
LINE
  5
75EA
330
1E
100
AcDbEntity
  8
18
  6
DASHED
 48
2.0
100
AcDbLine
 10
183.1142495687718
 20
-484.1617850407572
 30
0.0
 11
183.1142495687718
 21
-511.1617850407571
 31
0.0
  0
LINE
  5
75EB
330
1E
100
AcDbEntity
  8
18
  6
DASHED
 48
2.0
100
AcDbLine
 10
178.1142495687718
 20
-514.1617850407572
 30
0.0
 11
178.1142495687718
 21
-474.1617850407571
 31
0.0
  0
LINE
  5
75EC
330
1E
100
AcDbEntity
  8
18
  6
DASHED
 48
2.0
100
AcDbLine
 10
178.1142495687718
 20
-514.1617850407572
 30
0.0
 11
183.1142495687718
 21
-514.1617850407572
 31
0.0
  0
LINE
  5
75ED
330
1E
100
AcDbEntity
  8
18
  6
DASHED
 48
2.0
100
AcDbLine
 10
180.1142495687718
 20
-514.1617850407572
 30
0.0
 11
178.1142495687718
 21
-514.1617850407572
 31
0.0
  0
LINE
  5
75EE
330
1E
100
AcDbEntity
  8
18
  6
DASHED
 48
2.0
100
AcDbLine
 10
218.1142495687718
 20
-474.1617850407571
 30
0.0
 11
218.1142495687718
 21
-479.1617850407572
 31
0.0
  0
LINE
  5
75EF
330
1E
100
AcDbEntity
  8
18
  6
DASHED
 48
2.0
100
AcDbLine
 10
218.1142495687718
 20
-479.1617850407572
 30
0.0
 11
183.1142495687718
 21
-479.1617850407572
 31
0.0
  0
LINE
  5
75F0
330
1E
100
AcDbEntity
  8
18
  6
DASHED
 48
2.0
100
AcDbLine
 10
178.1142495687718
 20
-474.1617850407571
 30
0.0
 11
218.1142495687718
 21
-474.1617850407571
 31
0.0
  0
LINE
  5
75F1
330
1E
100
AcDbEntity
  8
18
  6
DASHED
 48
2.0
100
AcDbLine
 10
218.1142495687718
 20
-474.1617850407571
 30
0.0
 11
218.1142495687718
 21
-476.1617850407572
 31
0.0
  0
LINE
  5
75F2
330
1E
100
AcDbEntity
  8
18
  6
DASHED
 48
2.0
100
AcDbLine
 10
215.1142495687718
 20
-479.1617850407572
 30
0.0
 11
188.1142495687718
 21
-479.1617850407572
 31
0.0
  0
LINE
  5
75F3
330
1E
100
AcDbEntity
  8
18
  6
DASHED
 48
2.0
100
AcDbLine
 10
178.1142495687718
 20
-474.1617850407571
 30
0.0
 11
218.1142495687718
 21
-474.1617850407571
 31
0.0
  0
LINE
  5
75F4
330
1E
100
AcDbEntity
  8
18
  6
DASHED
 48
2.0
100
AcDbLine
 10
249.6259683187718
 20
-488.9136160954572
 30
0.0
 11
242.8142007406718
 21
-503.5102957829572
 31
0.0
  0
LINE
  5
75F5
330
1E
100
AcDbEntity
  8
18
  6
DASHED
 48
2.0
100
AcDbLine
 10
243.1142495687718
 20
-474.1617850407571
 30
0.0
 11
249.6259683187718
 21
-488.9136160954572
 31
0.0
  0
LINE
  5
75F7
330
1E
100
AcDbEntity
  8
12
  6
CONTINUOUS
 62
     3
100
AcDbLine
 10
162.0312417562718
 20
-356.1617850407571
 30
0.0
 11
198.8127358968718
 21
-356.1617850407571
 31
0.0
  0
LINE
  5
75F8
330
1E
100
AcDbEntity
  8
18
  6
DASHED
 48
2.0
100
AcDbLine
 10
247.6796792562718
 20
-369.2208670719571
 30
0.0
 11
240.8679116781718
 21
-352.6778983219571
 31
0.0
  0
LINE
  5
75F9
330
1E
100
AcDbEntity
  8
18
  6
DASHED
 48
2.0
100
AcDbLine
 10
178.1142495687718
 20
-341.1617850407572
 30
0.0
 11
178.1142495687718
 21
-381.1617850407571
 31
0.0
  0
LINE
  5
75FA
330
1E
100
AcDbEntity
  8
18
  6
DASHED
 48
2.0
100
AcDbLine
 10
183.1142495687718
 20
-376.1617850407572
 30
0.0
 11
183.1142495687718
 21
-341.1617850407572
 31
0.0
  0
LINE
  5
75FB
330
1E
100
AcDbEntity
  8
18
  6
DASHED
 48
2.0
100
AcDbLine
 10
183.1142495687718
 20
-371.1617850407571
 30
0.0
 11
183.1142495687718
 21
-344.1617850407571
 31
0.0
  0
LINE
  5
75FC
330
1E
100
AcDbEntity
  8
18
  6
DASHED
 48
2.0
100
AcDbLine
 10
178.1142495687718
 20
-341.1617850407572
 30
0.0
 11
178.1142495687718
 21
-381.1617850407571
 31
0.0
  0
LINE
  5
75FD
330
1E
100
AcDbEntity
  8
18
  6
DASHED
 48
2.0
100
AcDbLine
 10
178.1142495687718
 20
-381.1617850407571
 30
0.0
 11
218.1142495687718
 21
-381.1617850407571
 31
0.0
  0
LINE
  5
75FE
330
1E
100
AcDbEntity
  8
18
  6
DASHED
 48
2.0
100
AcDbLine
 10
218.1142495687718
 20
-376.1617850407572
 30
0.0
 11
183.1142495687718
 21
-376.1617850407572
 31
0.0
  0
LINE
  5
75FF
330
1E
100
AcDbEntity
  8
18
  6
DASHED
 48
2.0
100
AcDbLine
 10
218.1142495687718
 20
-376.1617850407572
 30
0.0
 11
218.1142495687718
 21
-381.1617850407571
 31
0.0
  0
LINE
  5
7600
330
1E
100
AcDbEntity
  8
18
  6
DASHED
 48
2.0
100
AcDbLine
 10
215.1142495687718
 20
-376.1617850407572
 30
0.0
 11
188.1142495687718
 21
-376.1617850407572
 31
0.0
  0
LINE
  5
7601
330
1E
100
AcDbEntity
  8
18
  6
DASHED
 48
2.0
100
AcDbLine
 10
218.1142495687718
 20
-381.1617850407571
 30
0.0
 11
218.1142495687718
 21
-379.1617850407571
 31
0.0
  0
LINE
  5
7602
330
1E
100
AcDbEntity
  8
18
  6
DASHED
 48
2.0
100
AcDbLine
 10
178.1142495687718
 20
-381.1617850407571
 30
0.0
 11
218.1142495687718
 21
-381.1617850407571
 31
0.0
  0
LINE
  5
7603
330
1E
100
AcDbEntity
  8
18
  6
DASHED
 48
2.0
100
AcDbLine
 10
243.1142495687718
 20
-381.1617850407571
 30
0.0
 11
247.6796792562718
 21
-369.2208670719571
 31
0.0
  0
LINE
  5
7604
330
1E
100
AcDbEntity
  8
18
  6
DASHED
 48
2.0
100
AcDbLine
 10
178.1142495687718
 20
-341.1617850407572
 30
0.0
 11
183.1142495687718
 21
-341.1617850407572
 31
0.0
  0
LINE
  5
7605
330
1E
100
AcDbEntity
  8
18
  6
DASHED
 48
2.0
100
AcDbLine
 10
180.1142495687718
 20
-341.1617850407572
 30
0.0
 11
178.1142495687718
 21
-341.1617850407572
 31
0.0
  0
LINE
  5
7606
330
1E
100
AcDbEntity
  8
18
  6
DASHED
 48
2.0
100
AcDbLine
 10
240.8679116781718
 20
-352.6778983219571
 30
0.0
 11
249.1960366781718
 21
-341.1617850407572
 31
0.0
  0
LINE
  5
7607
330
1E
100
AcDbEntity
  8
18
  6
DASHED
 48
2.0
100
AcDbLine
 10
312.2661050375718
 20
-276.1617850407572
 30
0.0
 11
312.2661050375718
 21
-579.1617850407572
 31
0.0
  0
LINE
  5
7608
330
1E
100
AcDbEntity
  8
18
  6
DASHED
 48
2.0
100
AcDbLine
 10
522.2661050375718
 20
-276.1617850407572
 30
0.0
 11
522.2661050375718
 21
-579.1617850407572
 31
0.0
  0
LINE
  5
7609
330
1E
100
AcDbEntity
  8
18
  6
DASHED
 48
2.0
100
AcDbLine
 10
312.2661050375718
 20
-276.1617850407572
 30
0.0
 11
312.2661050375718
 21
-579.1617850407572
 31
0.0
  0
LINE
  5
760B
330
1E
100
AcDbEntity
  8
18
  6
DASHED
 48
2.0
100
AcDbLine
 10
312.2661050375718
 20
-579.1617850407572
 30
0.0
 11
522.2661050375718
 21
-579.1617850407572
 31
0.0
  0
CIRCLE
  5
760D
330
1E
100
AcDbEntity
  8
12
  6
CONTINUOUS
 62
     3
100
AcDbCircle
 10
-372.2661050375718
 20
-499.1617850407571
 30
0.0
 40
5.5
210
0.0
220
0.0
230
-1.0
  0
LINE
  5
760E
330
1E
100
AcDbEntity
  8
12
  6
CONTINUOUS
 62
     3
100
AcDbLine
 10
383.6989663656718
 20
-499.1617850407571
 30
0.0
 11
360.8920816000718
 21
-499.1617850407571
 31
0.0
  0
CIRCLE
  5
7612
330
1E
100
AcDbEntity
  8
12
  6
CONTINUOUS
 62
     3
100
AcDbCircle
 10
-462.2661050375718
 20
-499.1617850407571
 30
0.0
 40
5.5
210
0.0
220
0.0
230
-1.0
  0
LINE
  5
7613
330
1E
100
AcDbEntity
  8
18
  6
DASHED
 48
2.0
100
AcDbLine
 10
556.2204507406717
 20
-497.6716727360572
 30
0.0
 11
560.8334878499717
 21
-514.1617850407572
 31
0.0
  0
LINE
  5
7614
330
1E
100
AcDbEntity
  8
18
  6
DASHED
 48
2.0
100
AcDbLine
 10
562.0590737875718
 20
-487.9405936344571
 30
0.0
 11
556.2204507406717
 21
-497.6716727360572
 31
0.0
  0
LINE
  5
7615
330
1E
100
AcDbEntity
  8
18
  6
DASHED
 48
2.0
100
AcDbLine
 10
558.5527261312718
 20
-474.1617850407571
 30
0.0
 11
562.0590737875718
 21
-487.9405936344571
 31
0.0
  0
LINE
  5
7616
330
1E
100
AcDbEntity
  8
18
  6
DASHED
 48
2.0
100
AcDbLine
 10
312.2661050375718
 20
-276.1617850407572
 30
0.0
 11
522.2661050375718
 21
-276.1617850407572
 31
0.0
  0
LINE
  5
7617
330
1E
100
AcDbEntity
  8
12
  6
CONTINUOUS
 62
     3
100
AcDbLine
 10
372.2661050375718
 20
-346.4623221501572
 30
0.0
 11
372.2661050375718
 21
-366.2284354313571
 31
0.0
  0
CIRCLE
  5
7618
330
1E
100
AcDbEntity
  8
12
  6
CONTINUOUS
 62
     3
100
AcDbCircle
 10
372.2661050375718
 20
-356.1617850407571
 30
0.0
 40
5.5
  0
LINE
  5
7619
330
1E
100
AcDbEntity
  8
12
  6
CONTINUOUS
 62
     3
100
AcDbLine
 10
383.6989663656718
 20
-356.1617850407571
 30
0.0
 11
360.8920816000718
 21
-356.1617850407571
 31
0.0
  0
CIRCLE
  5
761B
330
1E
100
AcDbEntity
  8
12
  6
CONTINUOUS
 62
     3
100
AcDbCircle
 10
462.2661050375718
 20
-356.1617850407571
 30
0.0
 40
5.5
  0
LINE
  5
761C
330
1E
100
AcDbEntity
  8
L225_
  6
CONTINUOUS
 62
     3
100
AcDbLine
 10
462.2661050375718
 20
-345.7020682438571
 30
0.0
 11
462.2661050375718
 21
-363.9476737126571
 31
0.0
  0
LINE
  5
761D
330
1E
100
AcDbEntity
  8
18
  6
DASHED
 48
2.0
100
AcDbLine
 10
561.0859292562718
 20
-369.2208670719571
 30
0.0
 11
556.2204507406717
 21
-354.6241873844572
 31
0.0
  0
LINE
  5
761E
330
1E
100
AcDbEntity
  8
18
  6
DASHED
 48
2.0
100
AcDbLine
 10
558.5527261312718
 20
-381.1617850407571
 30
0.0
 11
561.0859292562718
 21
-369.2208670719571
 31
0.0
  0
LINE
  5
761F
330
1E
100
AcDbEntity
  8
18
  6
DASHED
 48
2.0
100
AcDbLine
 10
556.2204507406717
 20
-354.6241873844572
 30
0.0
 11
560.8334878499717
 21
-341.1617850407572
 31
0.0
  0
LINE
  5
7675
330
1E
100
AcDbEntity
  8
12
  6
CONTINUOUS
 62
     3
100
AcDbLine
 10
462.2661050375718
 20
-513.6617850407572
 30
0.0
 11
462.2661050375718
 21
-484.6617850407572
 31
0.0
  0
LINE
  5
7676
330
1E
100
AcDbEntity
  8
12
  6
CONTINUOUS
 62
     3
100
AcDbLine
 10
476.7661050375718
 20
-499.1617850407571
 30
0.0
 11
447.7661050375718
 21
-499.1617850407571
 31
0.0
  0
LINE
  5
7677
330
1E
100
AcDbEntity
  8
12
  6
CONTINUOUS
 62
     3
100
AcDbLine
 10
476.7661050375718
 20
-356.1617850407571
 30
0.0
 11
447.7661050375718
 21
-356.1617850407571
 31
0.0
  0
LINE
  5
7678
330
1E
100
AcDbEntity
  8
12
  6
CONTINUOUS
 62
     3
100
AcDbLine
 10
372.2661050375718
 20
-513.6617850407572
 30
0.0
 11
372.2661050375718
 21
-484.6617850407572
 31
0.0
  0
DIMENSION
  5
768D
330
1E
100
AcDbEntity
  8
30
  6
CONTINUOUS
100
AcDbDimension
  2
*D10
 10
462.2661050375718
 20
-602.4032371828188
 30
0.0
 11
417.2661050375718
 21
-598.9032371828188
 31
0.0
 70
    32
  3
STANDARD
100
AcDbAlignedDimension
 13
372.2661050375718
 23
-513.6617850407572
 33
0.0
 14
462.2661050375718
 24
-513.6617850407572
 34
0.0
100
AcDbRotatedDimension
  0
DIMENSION
  5
769A
330
1E
100
AcDbEntity
  8
30
  6
CONTINUOUS
100
AcDbDimension
  2
*D11
 10
617.6877252365411
 20
-432.1617850407571
 30
0.0
 11
614.1877252365413
 21
-394.1617850407571
 31
0.0
 70
    32
  3
STANDARD
100
AcDbAlignedDimension
 13
476.7661050375718
 23
-356.1617850407571
 33
0.0
 14
522.2661050375718
 24
-432.1617850407571
 34
0.0
 50
90.0
100
AcDbRotatedDimension
  0
LINE
  5
76E3
330
1E
100
AcDbEntity
  8
12
  6
CONTINUOUS
 62
     3
100
AcDbLine
 10
45.0
 20
-491.1617850407572
 30
0.0
 11
45.0
 21
-507.1617850407571
 31
0.0
  0
LINE
  5
76E4
330
1E
100
AcDbEntity
  8
12
  6
CONTINUOUS
 62
     3
100
AcDbLine
 10
-44.99975585940001
 20
-491.1617850407572
 30
0.0
 11
-44.99975585940001
 21
-507.1617850407571
 31
0.0
  0
LINE
  5
76E5
330
1E
100
AcDbEntity
  8
12
  6
CONTINUOUS
 62
     3
100
AcDbLine
 10
-69.99975585940001
 20
-537.6188177208505
 30
0.0
 11
-69.99975585940001
 21
-565.1617850407571
 31
0.0
  0
LINE
  5
76E6
330
1E
100
AcDbEntity
  8
12
  6
CONTINUOUS
 62
     3
100
AcDbLine
 10
0.0
 20
-537.6188177208505
 30
0.0
 11
0.0
 21
-565.1617850407571
 31
0.0
  0
LINE
  5
76E7
330
1E
100
AcDbEntity
  8
12
  6
CONTINUOUS
 62
     3
100
AcDbLine
 10
70.0
 20
-537.6188177208505
 30
0.0
 11
70.0
 21
-565.1617850407571
 31
0.0
  0
DIMENSION
  5
76E8
330
1E
100
AcDbEntity
  8
30
  6
CONTINUOUS
100
AcDbDimension
  2
*D13
 10
-0.0000000000000018
 20
-608.6314764500707
 30
0.0
 11
-34.9998779297
 21
-605.1314764500707
 31
0.0
 70
    32
  3
STANDARD
100
AcDbAlignedDimension
 13
-69.99975585940001
 23
-565.1617850407571
 33
0.0
 14
0.0
 24
-579.1617850407572
 34
0.0
100
AcDbRotatedDimension
  0
DIMENSION
  5
76F5
330
1E
100
AcDbEntity
  8
30
  6
CONTINUOUS
100
AcDbDimension
  2
*D14
 10
70.0
 20
-608.6314764500707
 30
0.0
 11
35.0
 21
-605.1314764500707
 31
0.0
 70
    32
  3
STANDARD
100
AcDbAlignedDimension
 13
0.0
 23
-579.1617850407572
 33
0.0
 14
70.0
 24
-565.1617850407571
 34
0.0
100
AcDbRotatedDimension
1001
ACAD
1000
DSTYLE
1002
{
1070
   287
1070
     4
1070
   287
1070
     4
1070
   279
1070
     1
1002
}
  0
DIMENSION
  5
7702
330
1E
100
AcDbEntity
  8
30
  6
CONTINUOUS
100
AcDbDimension
  2
*D15
 10
105.0
 20
-635.2951958478979
 30
0.0
 11
0.0000000000000002
 21
-631.7951958478979
 31
0.0
 70
    32
  3
STANDARD
100
AcDbAlignedDimension
 13
-105.0
 23
-579.1617850407572
 33
0.0
 14
105.0
 24
-579.1617850407572
 34
0.0
100
AcDbRotatedDimension
  0
DIMENSION
  5
770F
330
1E
100
AcDbEntity
  8
30
  6
CONTINUOUS
100
AcDbDimension
  2
*D16
 10
45.0
 20
-490.549291687299
 30
0.0
 11
0.0001220702999947
 21
-487.049291687299
 31
0.0
 70
    32
  3
STANDARD
100
AcDbAlignedDimension
 13
-44.99975585940001
 23
-491.1617850407572
 33
0.0
 14
45.0
 24
-491.1617850407572
 34
0.0
100
AcDbRotatedDimension
  0
LEADER
  5
771C
330
1E
100
AcDbEntity
  8
30
  6
CONTINUOUS
100
AcDbLeader
  3
STANDARD
 74
     0
 40
4.666666666666666
 41
20.66666666666666
 76
     3
 10
362.8084840162903
 20
-62.0
 30
0.0
 10
389.9665840340117
 20
-49.62033409316188
 30
0.0
 10
403.9406180960758
 20
-49.810167046576
 30
0.0
213
0.0
223
-2.0
233
0.0
1001
ACAD
1000
DSTYLE
1002
{
1070
     5
1000
OPEN
1070
   172
1070
     1
1070
   342
1005
3B2
1002
}
  0
TEXT
  5
771D
330
1E
100
AcDbEntity
  8
30
  6
CONTINUOUS
100
AcDbText
 10
390.6066357935515
 20
-48.35370783477753
 30
0.0
 40
4.0
  1
M10
  7
STANDARD1
100
AcDbText
  0
LEADER
  5
771E
330
1E
100
AcDbEntity
  8
30
  6
CONTINUOUS
100
AcDbLeader
  3
STANDARD
 74
     0
 40
4.666666666666666
 41
20.66666666666666
 76
     3
 10
418.3791276410922
 20
-106.1069687828049
 30
0.0
 10
422.2340696319045
 20
-89.576882631089
 30
0.0
 10
443.8378117938384
 20
-89.576882631089
 30
0.0
213
0.0
223
-2.0
233
0.0
1001
ACAD
1000
DSTYLE
1002
{
1070
     5
1000
OPEN
1070
   172
1070
     1
1070
   342
1005
3B2
1002
}
  0
TEXT
  5
771F
330
1E
100
AcDbEntity
  8
30
  6
CONTINUOUS
100
AcDbText
 10
427.2678687334853
 20
-88.31025637270466
 30
0.0
 40
4.0
  1
M16
  7
STANDARD1
100
AcDbText
  0
DIMENSION
  5
7720
330
1E
100
AcDbEntity
  8
30
  6
CONTINUOUS
100
AcDbDimension
  2
*D17
 10
415.8084840162903
 20
-138.8016123089182
 30
0.0
 11
424.8084840162903
 21
-135.3016123089182
 31
0.0
 70
    32
  3
STANDARD
100
AcDbAlignedDimension
 13
433.8084840162903
 23
-126.9997558594
 33
0.0
 14
415.8084840162903
 24
-131.9997558594
 34
0.0
100
AcDbRotatedDimension
  0
DIMENSION
  5
772D
330
1E
100
AcDbEntity
  8
30
  6
CONTINUOUS
100
AcDbDimension
  2
*D18
 10
476.9006415436197
 20
-116.9997558594
 30
0.0
 11
473.4006415436197
 21
4.500122070300064
 31
0.0
 70
    32
  3
STANDARD
100
AcDbAlignedDimension
 13
462.2020934949141
 23
126.0
 33
0.0
 14
447.5596659380299
 24
-116.9997558594
 34
0.0
 50
90.0
100
AcDbRotatedDimension
  0
DIMENSION
  5
773A
330
1E
100
AcDbEntity
  8
30
  6
CONTINUOUS
100
AcDbDimension
  2
*D19
 10
503.0794829334736
 20
-147.0
 30
0.0
 11
499.5794829334736
 21
4.500000000000055
 31
0.0
 70
    32
  3
STANDARD
100
AcDbAlignedDimension
 13
403.8084840162903
 23
156.0
 33
0.0
 14
403.8084840162903
 24
-147.0
 34
0.0
 50
90.0
100
AcDbRotatedDimension
  0
LINE
  5
77B4
330
1E
100
AcDbEntity
  8
10
  6
CONTINUOUS
100
AcDbLine
 10
-105.0
 20
155.9999999999999
 30
0.0
 11
105.0
 21
155.9999999999999
 31
0.0
  0
LINE
  5
77B5
330
1E
100
AcDbEntity
  8
10
  6
CONTINUOUS
100
AcDbLine
 10
-105.0
 20
-147.0
 30
0.0
 11
105.1500244139999
 21
-147.0
 31
0.0
  0
LINE
  5
77B7
330
1E
100
AcDbEntity
  8
10
  6
CONTINUOUS
100
AcDbLine
 10
105.0
 20
141.0
 30
0.0
 11
105.0
 21
155.9999999999999
 31
0.0
  0
LINE
  5
77B8
330
1E
100
AcDbEntity
  8
10
  6
CONTINUOUS
100
AcDbLine
 10
105.0
 20
-132.0
 30
0.0
 11
105.0
 21
-147.0
 31
0.0
  0
LINE
  5
77B9
330
1E
100
AcDbEntity
  8
10
  6
CONTINUOUS
100
AcDbLine
 10
-105.0
 20
141.0
 30
0.0
 11
-105.0
 21
156.0
 31
0.0
  0
LINE
  5
77BA
330
1E
100
AcDbEntity
  8
10
  6
CONTINUOUS
100
AcDbLine
 10
-105.0
 20
-132.0
 30
0.0
 11
-105.0
 21
-147.0
 31
0.0
  0
DIMENSION
  5
77DD
330
1E
100
AcDbEntity
  8
30
  6
CONTINUOUS
100
AcDbDimension
  2
*D20
 10
617.6877252365411
 20
-499.1617850407571
 30
0.0
 11
614.1877252365413
 21
-465.6617850407571
 31
0.0
 70
    32
  3
STANDARD
100
AcDbAlignedDimension
 13
523.2661050375718
 23
-432.1617850407571
 33
0.0
 14
476.7661050375718
 24
-499.1617850407571
 34
0.0
 50
90.0
100
AcDbRotatedDimension
  0
DIMENSION
  5
77EA
330
1E
100
AcDbEntity
  8
30
  6
CONTINUOUS
100
AcDbDimension
  2
*D21
 10
459.1744182305304
 20
-494.6129969947864
 30
0.0
 11
496.8022124505197
 21
-541.4971693213726
 31
0.0
 70
   163
  3
STANDARD
100
AcDbDiametricDimension
 15
465.3577918446131
 25
-503.7105730867279
 35
0.0
 40
0.0
1001
ACAD
1000
DSTYLE
1002
{
1070
   288
1070
     1
1002
}
  0
MTEXT
  5
78C6
330
1E
100
AcDbEntity
  8
19
  6
CONTINUOUS
100
AcDbMText
 10
360.1269458192819
 20
256.7606940908481
 30
0.0
 40
7.0
 41
94.0
 71
     1
 72
     5
  1
XS800CS 3P PM\PXS800NS 3P PM\PXH800PS 3P PM
  7
STANDARD1
1001
ACAD
1000
MTEXTBEGIN
1070
    73
1070
     1
1070
    44
1040
1.0
1070
    74
1070
     0
1000
MTEXTEND
  0
MTEXT
  5
78C7
330
1E
100
AcDbEntity
  8
19
  6
CONTINUOUS
100
AcDbMText
 10
480.1475711538286
 20
256.7606940908481
 30
0.0
 40
7.0
 41
94.0
 71
     1
 72
     5
  1
XS800NE 3P PM\PXH800NE 3P PM
  7
STANDARD1
1001
ACAD
1000
MTEXTBEGIN
1070
    73
1070
     1
1070
    44
1040
1.0
1070
    74
1070
     0
1000
MTEXTEND
  0
DIMENSION
  5
78DB
330
1E
100
AcDbEntity
  8
30
  6
CONTINUOUS
100
AcDbDimension
  2
*D22
 10
341.8084840162903
 20
-209.5853277737153
 30
0.0
 11
332.8084229810903
 21
-206.0853277737153
 31
0.0
 70
    32
  3
STANDARD
100
AcDbAlignedDimension
 13
323.8083619458902
 23
-192.0387863989474
 33
0.0
 14
341.8084840162903
 24
-192.0387863989474
 34
0.0
100
AcDbRotatedDimension
  0
DIMENSION
  5
78E8
330
1E
100
AcDbEntity
  8
30
  6
CONTINUOUS
100
AcDbDimension
  2
*D23
 10
591.4678454720638
 20
-381.1617850407571
 30
0.0
 11
587.9678454720639
 21
-368.6617850407571
 31
0.0
 70
    32
  3
STANDARD
100
AcDbAlignedDimension
 13
556.7329747202705
 23
-356.1617850407571
 33
0.0
 14
558.5527261312718
 24
-381.1617850407571
 34
0.0
 50
90.0
100
AcDbRotatedDimension
  0
DIMENSION
  5
78F5
330
1E
100
AcDbEntity
  8
30
  6
CONTINUOUS
100
AcDbDimension
  2
*D24
 10
591.4678454720638
 20
-474.1617850407571
 30
0.0
 11
587.9678454720639
 21
-486.6617850407571
 31
0.0
 70
    32
  3
STANDARD
100
AcDbAlignedDimension
 13
556.6373031690598
 23
-499.1617850407571
 33
0.0
 14
558.5527261312718
 24
-474.1617850407571
 34
0.0
 50
90.0
100
AcDbRotatedDimension
  0
VIEWPORT
  5
9AC
330
1A
100
AcDbEntity
 67
     1
  8
0
  6
CONTINUOUS
100
AcDbViewport
 10
233.2842860419309
 20
144.1384735538403
 30
0.0
 40
611.4371881030149
 41
292.3514905034161
 68
     1
 69
     1
1001
ACAD
1000
MVIEW
1002
{
1070
    16
1010
0.0
1020
0.0
1030
0.0
1010
0.0
1020
0.0
1030
1.0
1040
0.0
1040
292.3514905034161
1040
233.2842860419309
1040
144.1384735538403
1040
50.0
1040
0.0
1040
0.0
1070
     0
1070
   100
1070
     1
1070
     1
1070
     0
1070
     0
1070
     0
1070
     0
1040
0.0
1040
0.0
1040
0.0
1040
10.0
1040
10.0
1040
10.0
1040
10.0
1070
     0
1002
{
1002
}
1002
}
  0
ENDSEC
  0
SECTION
  2
OBJECTS
  0
DICTIONARY
  5
C
330
0
100
AcDbDictionary
  3
ACAD_GROUP
350
D
  3
ACAD_LAYOUT
350
19
  3
ACAD_MLINESTYLE
350
16
  3
ACAD_PLOTSETTINGS
350
18
  3
ACAD_PLOTSTYLENAME
350
E
  3
ACDBHEADERROUNDTRIPXREC
350
792A
  3
ACDBVARIABLEDICTIONARY
350
7927
  0
DICTIONARY
  5
178
330
1E
100
AcDbDictionary
280
     1
  3
ACAD_LAYOUTSELFREF
360
794C
  0
DICTIONARY
  5
17A
330
1A
100
AcDbDictionary
280
     1
  3
ACAD_LAYOUTSELFREF
360
794B
  0
DICTIONARY
  5
D
102
{ACAD_REACTORS
330
C
102
}
330
C
100
AcDbDictionary
  0
DICTIONARY
  5
19
102
{ACAD_REACTORS
330
C
102
}
330
C
100
AcDbDictionary
  0
DICTIONARY
  5
16
102
{ACAD_REACTORS
330
C
102
}
330
C
100
AcDbDictionary
  3
STANDARD
350
17
  0
DICTIONARY
  5
18
102
{ACAD_REACTORS
330
C
102
}
330
C
100
AcDbDictionary
  0
ACDBDICTIONARYWDFLT
  5
E
102
{ACAD_REACTORS
330
C
102
}
330
C
100
AcDbDictionary
281
     1
  3
Normal
350
F
100
AcDbDictionaryWithDefault
340
F
  0
DICTIONARY
  5
792A
102
{ACAD_REACTORS
330
C
102
}
330
C
100
AcDbDictionary
  3
CEPSNTYPE
350
7934
  3
DIMSTYLEDATA
350
7938
  3
FINGERPRINTGUID
350
7935
  3
HYPERLINKBASE
350
792D
  3
INSUNITS
350
7933
  3
LAYOUTDICT
350
792F
  3
LWETCUNION
350
7932
  3
PLOTSETDICT
350
7930
  3
PLOTSTYLNAMDICT
350
7931
  3
PSVPSCALE
350
7937
  3
PUCSBASE
350
793B
  3
PUCSORGBACK
350
7941
  3
PUCSORGBOTTOM
350
793D
  3
PUCSORGFRONT
350
7940
  3
PUCSORGLEFT
350
793E
  3
PUCSORGRIGHT
350
793F
  3
PUCSORGTOP
350
793C
  3
PUCSORTHOREF
350
7939
  3
PUCSORTHOVIEW
350
793A
  3
STYLESHEET
350
792E
  3
TSTACKALIGN
350
792B
  3
TSTACKSIZE
350
792C
  3
UCSBASE
350
7944
  3
UCSORGBACK
350
794A
  3
UCSORGBOTTOM
350
7946
  3
UCSORGFRONT
350
7949
  3
UCSORGLEFT
350
7947
  3
UCSORGRIGHT
350
7948
  3
UCSORGTOP
350
7945
  3
UCSORTHOREF
350
7942
  3
UCSORTHOVIEW
350
7943
  3
VERSIONGUID
350
7936
  0
DICTIONARY
  5
7927
102
{ACAD_REACTORS
330
C
102
}
330
C
100
AcDbDictionary
  3
DIMASSOC
350
7928
  0
XRECORD
  5
794C
102
{ACAD_REACTORS
330
178
102
}
330
178
100
AcDbXrecord
340
1E
  0
XRECORD
  5
794B
102
{ACAD_REACTORS
330
17A
102
}
330
17A
100
AcDbXrecord
340
1A
  0
MLINESTYLE
  5
17
102
{ACAD_REACTORS
330
16
102
}
330
16
100
AcDbMlineStyle
  2
STANDARD
 70
     0
  3

 62
   256
 51
90.0
 52
90.0
 71
     2
 49
0.5
 62
   256
  6
BYLAYER
 49
-0.5
 62
   256
  6
BYLAYER
  0
ACDBPLACEHOLDER
  5
F
102
{ACAD_REACTORS
330
E
102
}
330
E
100
AcDbPlaceHolder
280
     0
  0
XRECORD
  5
7934
102
{ACAD_REACTORS
330
792A
102
}
330
792A
100
AcDbXrecord
 90
        0
  0
XRECORD
  5
7938
102
{ACAD_REACTORS
330
792A
102
}
330
792A
100
AcDbXrecord
1000
DSTYLE
1002
{
1070
    79
 70
     3
1070
   341
340
3B2
1070
   342
340
3B2
1002
}
  0
XRECORD
  5
7935
102
{ACAD_REACTORS
330
792A
102
}
330
792A
100
AcDbXrecord
  1

  0
XRECORD
  5
792D
102
{ACAD_REACTORS
330
792A
102
}
330
792A
100
AcDbXrecord
  1

  0
XRECORD
  5
7933
102
{ACAD_REACTORS
330
792A
102
}
330
792A
100
AcDbXrecord
 90
        0
  0
XRECORD
  5
792F
102
{ACAD_REACTORS
330
792A
102
}
330
792A
100
AcDbXrecord
340
19
  0
XRECORD
  5
7932
102
{ACAD_REACTORS
330
792A
102
}
330
792A
100
AcDbXrecord
 90
    10781
  0
XRECORD
  5
7930
102
{ACAD_REACTORS
330
792A
102
}
330
792A
100
AcDbXrecord
340
18
  0
XRECORD
  5
7931
102
{ACAD_REACTORS
330
792A
102
}
330
792A
100
AcDbXrecord
340
E
  0
XRECORD
  5
7937
102
{ACAD_REACTORS
330
792A
102
}
330
792A
100
AcDbXrecord
 40
0.0
  0
XRECORD
  5
793B
102
{ACAD_REACTORS
330
792A
102
}
330
792A
100
AcDbXrecord
340
0
  0
XRECORD
  5
7941
102
{ACAD_REACTORS
330
792A
102
}
330
792A
100
AcDbXrecord
 10
0.0
 20
0.0
 30
0.0
  0
XRECORD
  5
793D
102
{ACAD_REACTORS
330
792A
102
}
330
792A
100
AcDbXrecord
 10
0.0
 20
0.0
 30
0.0
  0
XRECORD
  5
7940
102
{ACAD_REACTORS
330
792A
102
}
330
792A
100
AcDbXrecord
 10
0.0
 20
0.0
 30
0.0
  0
XRECORD
  5
793E
102
{ACAD_REACTORS
330
792A
102
}
330
792A
100
AcDbXrecord
 10
0.0
 20
0.0
 30
0.0
  0
XRECORD
  5
793F
102
{ACAD_REACTORS
330
792A
102
}
330
792A
100
AcDbXrecord
 10
0.0
 20
0.0
 30
0.0
  0
XRECORD
  5
793C
102
{ACAD_REACTORS
330
792A
102
}
330
792A
100
AcDbXrecord
 10
0.0
 20
0.0
 30
0.0
  0
XRECORD
  5
7939
102
{ACAD_REACTORS
330
792A
102
}
330
792A
100
AcDbXrecord
340
0
  0
XRECORD
  5
793A
102
{ACAD_REACTORS
330
792A
102
}
330
792A
100
AcDbXrecord
 70
     0
  0
XRECORD
  5
792E
102
{ACAD_REACTORS
330
792A
102
}
330
792A
100
AcDbXrecord
  1
KIKI.ctb
  0
XRECORD
  5
792B
102
{ACAD_REACTORS
330
792A
102
}
330
792A
100
AcDbXrecord
 90
        1
  0
XRECORD
  5
792C
102
{ACAD_REACTORS
330
792A
102
}
330
792A
100
AcDbXrecord
 90
       70
  0
XRECORD
  5
7944
102
{ACAD_REACTORS
330
792A
102
}
330
792A
100
AcDbXrecord
340
0
  0
XRECORD
  5
794A
102
{ACAD_REACTORS
330
792A
102
}
330
792A
100
AcDbXrecord
 10
0.0
 20
0.0
 30
0.0
  0
XRECORD
  5
7946
102
{ACAD_REACTORS
330
792A
102
}
330
792A
100
AcDbXrecord
 10
0.0
 20
0.0
 30
0.0
  0
XRECORD
  5
7949
102
{ACAD_REACTORS
330
792A
102
}
330
792A
100
AcDbXrecord
 10
0.0
 20
0.0
 30
0.0
  0
XRECORD
  5
7947
102
{ACAD_REACTORS
330
792A
102
}
330
792A
100
AcDbXrecord
 10
0.0
 20
0.0
 30
0.0
  0
XRECORD
  5
7948
102
{ACAD_REACTORS
330
792A
102
}
330
792A
100
AcDbXrecord
 10
0.0
 20
0.0
 30
0.0
  0
XRECORD
  5
7945
102
{ACAD_REACTORS
330
792A
102
}
330
792A
100
AcDbXrecord
 10
0.0
 20
0.0
 30
0.0
  0
XRECORD
  5
7942
102
{ACAD_REACTORS
330
792A
102
}
330
792A
100
AcDbXrecord
340
0
  0
XRECORD
  5
7943
102
{ACAD_REACTORS
330
792A
102
}
330
792A
100
AcDbXrecord
 70
     0
  0
XRECORD
  5
7936
102
{ACAD_REACTORS
330
792A
102
}
330
792A
100
AcDbXrecord
  1
{71132417-34E5-47AA-BB43-C95EFDE64686}
  0
DICTIONARYVAR
  5
7928
102
{ACAD_REACTORS
330
7927
102
}
330
7927
100
DictionaryVariables
280
     0
  1
1
  0
ENDSEC
  0
EOF
