  0
SECTION
  2
HEADER
  9
$ACADVER
  1
AC1014
  9
$ACADMAINTVER
 70
     9
  9
$DWGCODEPAGE
  3
ANSI_932
  9
$INSBASE
 10
0.0
 20
0.0
 30
0.0
  9
$EXTMIN
 10
-166.0447676526903
 20
-659.0273411050757
 30
-0.0000000000000053
  9
$EXTMAX
 10
500.0329605874521
 20
436.0806910831956
 30
0.0000000000000099
  9
$LIMMIN
 10
-184.0
 20
-675.0
  9
$LIMMAX
 10
509.0
 20
453.0
  9
$ORTHOMODE
 70
     1
  9
$REGENMODE
 70
     1
  9
$FILLMODE
 70
     1
  9
$QTEXTMODE
 70
     0
  9
$MIRRTEXT
 70
     1
  9
$DRAGMODE
 70
     2
  9
$LTSCALE
 40
10.0
  9
$OSMODE
 70
    47
  9
$ATTMODE
 70
     1
  9
$TEXTSIZE
 40
5.0
  9
$TRACEWID
 40
0.05
  9
$TEXTSTYLE
  7
STANDARD1
  9
$CLAYER
  8
30
  9
$CELTYPE
  6
CONTINUOUS
  9
$CECOLOR
 62
   256
  9
$CELTSCALE
 40
1.0
  9
$DELOBJ
 70
     1
  9
$DISPSILH
 70
     0
  9
$DIMSCALE
 40
1.0
  9
$DIMASZ
 40
2.0
  9
$DIMEXO
 40
1.0
  9
$DIMDLI
 40
0.5
  9
$DIMRND
 40
0.0
  9
$DIMDLE
 40
0.0
  9
$DIMEXE
 40
0.5
  9
$DIMTP
 40
0.0
  9
$DIMTM
 40
0.0
  9
$DIMTXT
 40
5.0
  9
$DIMCEN
 40
0.09
  9
$DIMTSZ
 40
0.0
  9
$DIMTOL
 70
     0
  9
$DIMLIM
 70
     0
  9
$DIMTIH
 70
     0
  9
$DIMTOH
 70
     1
  9
$DIMSE1
 70
     0
  9
$DIMSE2
 70
     0
  9
$DIMTAD
 70
     3
  9
$DIMZIN
 70
    12
  9
$DIMBLK
  1
OPEN
  9
$DIMASO
 70
     1
  9
$DIMSHO
 70
     1
  9
$DIMPOST
  1

  9
$DIMAPOST
  1

  9
$DIMALT
 70
     0
  9
$DIMALTD
 70
     2
  9
$DIMALTF
 40
25.4
  9
$DIMLFAC
 40
1.0
  9
$DIMTOFL
 70
     0
  9
$DIMTVP
 40
0.0
  9
$DIMTIX
 70
     0
  9
$DIMSOXD
 70
     0
  9
$DIMSAH
 70
     0
  9
$DIMBLK1
  1

  9
$DIMBLK2
  1

  9
$DIMSTYLE
  2
STANDARD
  9
$DIMCLRD
 70
     0
  9
$DIMCLRE
 70
     0
  9
$DIMCLRT
 70
     0
  9
$DIMTFAC
 40
1.0
  9
$DIMGAP
 40
1.0
  9
$DIMJUST
 70
     0
  9
$DIMSD1
 70
     0
  9
$DIMSD2
 70
     0
  9
$DIMTOLJ
 70
     1
  9
$DIMTZIN
 70
     0
  9
$DIMALTZ
 70
     0
  9
$DIMALTTZ
 70
     0
  9
$DIMFIT
 70
     3
  9
$DIMUPT
 70
     0
  9
$DIMUNIT
 70
     2
  9
$DIMDEC
 70
     1
  9
$DIMTDEC
 70
     1
  9
$DIMALTU
 70
     2
  9
$DIMALTTD
 70
     2
  9
$DIMTXSTY
  7
STANDARD
  9
$DIMAUNIT
 70
     0
  9
$LUNITS
 70
     2
  9
$LUPREC
 70
     4
  9
$SKETCHINC
 40
0.1
  9
$FILLETRAD
 40
6.5
  9
$AUNITS
 70
     0
  9
$AUPREC
 70
     0
  9
$MENU
  1
.
  9
$ELEVATION
 40
0.0
  9
$PELEVATION
 40
0.0
  9
$THICKNESS
 40
0.0
  9
$LIMCHECK
 70
     0
  9
$BLIPMODE
 70
     0
  9
$CHAMFERA
 40
0.0
  9
$CHAMFERB
 40
0.0
  9
$CHAMFERC
 40
0.0
  9
$CHAMFERD
 40
0.0
  9
$SKPOLY
 70
     0
  9
$TDCREATE
 40
2452286.555658657
  9
$TDUPDATE
 40
2453122.601748159
  9
$TDINDWG
 40
1.3579794213
  9
$TDUSRTIMER
 40
1.3579794213
  9
$USRTIMER
 70
     1
  9
$ANGBASE
 50
0.0
  9
$ANGDIR
 70
     0
  9
$PDMODE
 70
     0
  9
$PDSIZE
 40
0.0
  9
$PLINEWID
 40
0.0
  9
$COORDS
 70
     2
  9
$SPLFRAME
 70
     0
  9
$SPLINETYPE
 70
     6
  9
$SPLINESEGS
 70
     8
  9
$ATTDIA
 70
     0
  9
$ATTREQ
 70
     0
  9
$HANDLING
 70
 10241
  9
$HANDSEED
  5
699C
  9
$SURFTAB1
 70
     6
  9
$SURFTAB2
 70
     6
  9
$SURFTYPE
 70
     6
  9
$SURFU
 70
     6
  9
$SURFV
 70
     6
  9
$UCSNAME
  2

  9
$UCSORG
 10
0.0
 20
0.0
 30
0.0
  9
$UCSXDIR
 10
1.0
 20
0.0
 30
0.0
  9
$UCSYDIR
 10
0.0
 20
1.0
 30
0.0
  9
$PUCSNAME
  2

  9
$PUCSORG
 10
0.0
 20
0.0
 30
0.0
  9
$PUCSXDIR
 10
1.0
 20
0.0
 30
0.0
  9
$PUCSYDIR
 10
0.0
 20
1.0
 30
0.0
  9
$USERI1
 70
     0
  9
$USERI2
 70
     0
  9
$USERI3
 70
     0
  9
$USERI4
 70
     0
  9
$USERI5
 70
     0
  9
$USERR1
 40
0.0
  9
$USERR2
 40
0.0
  9
$USERR3
 40
0.0
  9
$USERR4
 40
0.0
  9
$USERR5
 40
0.0
  9
$WORLDVIEW
 70
     1
  9
$SHADEDGE
 70
     3
  9
$SHADEDIF
 70
    70
  9
$TILEMODE
 70
     1
  9
$MAXACTVP
 70
    48
  9
$PINSBASE
 10
0.0
 20
0.0
 30
0.0
  9
$PLIMCHECK
 70
     0
  9
$PEXTMIN
 10
4.273573370203962
 20
5.205246163471485
 30
0.0
  9
$PEXTMAX
 10
194.6100952986349
 20
283.0697008572913
 30
0.0
  9
$PLIMMIN
 10
-5.873748779296875
 20
-5.873749732971191
  9
$PLIMMAX
 10
204.0995788574218
 20
291.1369009017944
  9
$UNITMODE
 70
     0
  9
$VISRETAIN
 70
     1
  9
$PLINEGEN
 70
     0
  9
$PSLTSCALE
 70
     1
  9
$TREEDEPTH
 70
  3020
  9
$PICKSTYLE
 70
     0
  9
$CMLSTYLE
  2
STANDARD
  9
$CMLJUST
 70
     0
  9
$CMLSCALE
 40
1.0
  9
$PROXYGRAPHICS
 70
     1
  9
$MEASUREMENT
 70
     0
  0
ENDSEC
  0
SECTION
  2
CLASSES
  0
CLASS
  1
ACDBDICTIONARYWDFLT
  2
AcDbDictionaryWithDefault
  3
AutoCAD 2000
 90
        0
280
     0
281
     0
  0
CLASS
  1
ACDBPLACEHOLDER
  2
AcDbPlaceHolder
  3
AutoCAD 2000
 90
        0
280
     0
281
     0
  0
CLASS
  1
LAYOUT
  2
AcDbLayout
  3
AutoCAD 2000
 90
        0
280
     0
281
     0
  0
CLASS
  1
LONG_TRANSACTION
  2
AcDbLongTransaction
  3
AutoCAD 2000
 90
        0
280
     0
281
     0
  0
CLASS
  1
LWPOLYLINE
  2
AcDbPolyline
  3
AutoCAD 2000
 90
        0
280
     0
281
     1
  0
CLASS
  1
HATCH
  2
AcDbHatch
  3
AutoCAD 2000
 90
        0
280
     0
281
     1
  0
CLASS
  1
XRECORD
  2
AcDbXrecord
  3
AutoCAD 2000
 90
        0
280
     0
281
     0
  0
CLASS
  1
LONG_TRANSACTION
  2
AcDbLongTransaction
  3
AutoCAD 2000
 90
        0
280
     0
281
     0
  0
CLASS
  1
LWPOLYLINE
  2
AcDbPolyline
  3
AutoCAD 2000
 90
        0
280
     0
281
     1
  0
CLASS
  1
HATCH
  2
AcDbHatch
  3
AutoCAD 2000
 90
        0
280
     0
281
     1
  0
CLASS
  1
XRECORD
  2
AcDbXrecord
  3
AutoCAD 2000
 90
        0
280
     0
281
     0
  0
CLASS
  1
LONG_TRANSACTION
  2
AcDbLongTransaction
  3
AutoCAD 2000
 90
        0
280
     0
281
     0
  0
CLASS
  1
LWPOLYLINE
  2
AcDbPolyline
  3
AutoCAD 2000
 90
        0
280
     0
281
     1
  0
CLASS
  1
HATCH
  2
AcDbHatch
  3
AutoCAD 2000
 90
        0
280
     0
281
     1
  0
CLASS
  1
XRECORD
  2
AcDbXrecord
  3
AutoCAD 2000
 90
        0
280
     0
281
     0
  0
CLASS
  1
LONG_TRANSACTION
  2
AcDbLongTransaction
  3
AutoCAD 2000
 90
        0
280
     0
281
     0
  0
CLASS
  1
LWPOLYLINE
  2
AcDbPolyline
  3
AutoCAD 2000
 90
        0
280
     0
281
     1
  0
CLASS
  1
HATCH
  2
AcDbHatch
  3
AutoCAD 2000
 90
        0
280
     0
281
     1
  0
CLASS
  1
XRECORD
  2
AcDbXrecord
  3
AutoCAD 2000
 90
        0
280
     0
281
     0
  0
CLASS
  1
LONG_TRANSACTION
  2
AcDbLongTransaction
  3
AutoCAD 2000
 90
        0
280
     0
281
     0
  0
CLASS
  1
LWPOLYLINE
  2
AcDbPolyline
  3
AutoCAD 2000
 90
        0
280
     0
281
     1
  0
CLASS
  1
HATCH
  2
AcDbHatch
  3
AutoCAD 2000
 90
        0
280
     0
281
     1
  0
CLASS
  1
XRECORD
  2
AcDbXrecord
  3
AutoCAD 2000
 90
        0
280
     0
281
     0
  0
CLASS
  1
LONG_TRANSACTION
  2
AcDbLongTransaction
  3
AutoCAD 2000
 90
        0
280
     0
281
     0
  0
CLASS
  1
LWPOLYLINE
  2
AcDbPolyline
  3
AutoCAD 2000
 90
        0
280
     0
281
     1
  0
CLASS
  1
HATCH
  2
AcDbHatch
  3
AutoCAD 2000
 90
        0
280
     0
281
     1
  0
CLASS
  1
XRECORD
  2
AcDbXrecord
  3
AutoCAD 2000
 90
        0
280
     0
281
     0
  0
CLASS
  1
LONG_TRANSACTION
  2
AcDbLongTransaction
  3
AutoCAD 2000
 90
        0
280
     0
281
     0
  0
CLASS
  1
LWPOLYLINE
  2
AcDbPolyline
  3
AutoCAD 2000
 90
        0
280
     0
281
     1
  0
CLASS
  1
HATCH
  2
AcDbHatch
  3
AutoCAD 2000
 90
        0
280
     0
281
     1
  0
CLASS
  1
XRECORD
  2
AcDbXrecord
  3
AutoCAD 2000
 90
        0
280
     0
281
     0
  0
CLASS
  1
LONG_TRANSACTION
  2
AcDbLongTransaction
  3
AutoCAD 2000
 90
        0
280
     0
281
     0
  0
CLASS
  1
LWPOLYLINE
  2
AcDbPolyline
  3
AutoCAD 2000
 90
        0
280
     0
281
     1
  0
CLASS
  1
HATCH
  2
AcDbHatch
  3
AutoCAD 2000
 90
        0
280
     0
281
     1
  0
CLASS
  1
XRECORD
  2
AcDbXrecord
  3
AutoCAD 2000
 90
        0
280
     0
281
     0
  0
CLASS
  1
LONG_TRANSACTION
  2
AcDbLongTransaction
  3
AutoCAD 2000
 90
        0
280
     0
281
     0
  0
CLASS
  1
LWPOLYLINE
  2
AcDbPolyline
  3
AutoCAD 2000
 90
        0
280
     0
281
     1
  0
CLASS
  1
HATCH
  2
AcDbHatch
  3
AutoCAD 2000
 90
        0
280
     0
281
     1
  0
CLASS
  1
XRECORD
  2
AcDbXrecord
  3
AutoCAD 2000
 90
        0
280
     0
281
     0
  0
CLASS
  1
LONG_TRANSACTION
  2
AcDbLongTransaction
  3
AutoCAD 2000
 90
        0
280
     0
281
     0
  0
CLASS
  1
LWPOLYLINE
  2
AcDbPolyline
  3
AutoCAD 2000
 90
        0
280
     0
281
     1
  0
CLASS
  1
HATCH
  2
AcDbHatch
  3
AutoCAD 2000
 90
        0
280
     0
281
     1
  0
CLASS
  1
XRECORD
  2
AcDbXrecord
  3
AutoCAD 2000
 90
        0
280
     0
281
     0
  0
CLASS
  1
LONG_TRANSACTION
  2
AcDbLongTransaction
  3
AutoCAD 2000
 90
        0
280
     0
281
     0
  0
CLASS
  1
LWPOLYLINE
  2
AcDbPolyline
  3
AutoCAD 2000
 90
        0
280
     0
281
     1
  0
CLASS
  1
HATCH
  2
AcDbHatch
  3
AutoCAD 2000
 90
        0
280
     0
281
     1
  0
CLASS
  1
XRECORD
  2
AcDbXrecord
  3
AutoCAD 2000
 90
        0
280
     0
281
     0
  0
CLASS
  1
LONG_TRANSACTION
  2
AcDbLongTransaction
  3
AutoCAD 2000
 90
        0
280
     0
281
     0
  0
CLASS
  1
LWPOLYLINE
  2
AcDbPolyline
  3
AutoCAD 2000
 90
        0
280
     0
281
     1
  0
CLASS
  1
HATCH
  2
AcDbHatch
  3
AutoCAD 2000
 90
        0
280
     0
281
     1
  0
CLASS
  1
XRECORD
  2
AcDbXrecord
  3
AutoCAD 2000
 90
        0
280
     0
281
     0
  0
CLASS
  1
LONG_TRANSACTION
  2
AcDbLongTransaction
  3
AutoCAD 2000
 90
        0
280
     0
281
     0
  0
CLASS
  1
LWPOLYLINE
  2
AcDbPolyline
  3
AutoCAD 2000
 90
        0
280
     0
281
     1
  0
CLASS
  1
HATCH
  2
AcDbHatch
  3
AutoCAD 2000
 90
        0
280
     0
281
     1
  0
CLASS
  1
XRECORD
  2
AcDbXrecord
  3
AutoCAD 2000
 90
        0
280
     0
281
     0
  0
CLASS
  1
LONG_TRANSACTION
  2
AcDbLongTransaction
  3
AutoCAD 2000
 90
        0
280
     0
281
     0
  0
CLASS
  1
LWPOLYLINE
  2
AcDbPolyline
  3
AutoCAD 2000
 90
        0
280
     0
281
     1
  0
CLASS
  1
HATCH
  2
AcDbHatch
  3
AutoCAD 2000
 90
        0
280
     0
281
     1
  0
CLASS
  1
XRECORD
  2
AcDbXrecord
  3
AutoCAD 2000
 90
        0
280
     0
281
     0
  0
CLASS
  1
LONG_TRANSACTION
  2
AcDbLongTransaction
  3
AutoCAD 2000
 90
        0
280
     0
281
     0
  0
CLASS
  1
LWPOLYLINE
  2
AcDbPolyline
  3
AutoCAD 2000
 90
        0
280
     0
281
     1
  0
CLASS
  1
HATCH
  2
AcDbHatch
  3
AutoCAD 2000
 90
        0
280
     0
281
     1
  0
CLASS
  1
XRECORD
  2
AcDbXrecord
  3
AutoCAD 2000
 90
        0
280
     0
281
     0
  0
CLASS
  1
LONG_TRANSACTION
  2
AcDbLongTransaction
  3
AutoCAD 2000
 90
        0
280
     0
281
     0
  0
CLASS
  1
LWPOLYLINE
  2
AcDbPolyline
  3
AutoCAD 2000
 90
        0
280
     0
281
     1
  0
CLASS
  1
HATCH
  2
AcDbHatch
  3
AutoCAD 2000
 90
        0
280
     0
281
     1
  0
CLASS
  1
XRECORD
  2
AcDbXrecord
  3
AutoCAD 2000
 90
        0
280
     0
281
     0
  0
CLASS
  1
LONG_TRANSACTION
  2
AcDbLongTransaction
  3
AutoCAD 2000
 90
        0
280
     0
281
     0
  0
CLASS
  1
LWPOLYLINE
  2
AcDbPolyline
  3
AutoCAD 2000
 90
        0
280
     0
281
     1
  0
CLASS
  1
HATCH
  2
AcDbHatch
  3
AutoCAD 2000
 90
        0
280
     0
281
     1
  0
CLASS
  1
XRECORD
  2
AcDbXrecord
  3
AutoCAD 2000
 90
        0
280
     0
281
     0
  0
CLASS
  1
LONG_TRANSACTION
  2
AcDbLongTransaction
  3
AutoCAD 2000
 90
        0
280
     0
281
     0
  0
CLASS
  1
LWPOLYLINE
  2
AcDbPolyline
  3
AutoCAD 2000
 90
        0
280
     0
281
     1
  0
CLASS
  1
HATCH
  2
AcDbHatch
  3
AutoCAD 2000
 90
        0
280
     0
281
     1
  0
CLASS
  1
XRECORD
  2
AcDbXrecord
  3
AutoCAD 2000
 90
        0
280
     0
281
     0
  0
CLASS
  1
LONG_TRANSACTION
  2
AcDbLongTransaction
  3
AutoCAD 2000
 90
        0
280
     0
281
     0
  0
CLASS
  1
LWPOLYLINE
  2
AcDbPolyline
  3
AutoCAD 2000
 90
        0
280
     0
281
     1
  0
CLASS
  1
HATCH
  2
AcDbHatch
  3
AutoCAD 2000
 90
        0
280
     0
281
     1
  0
CLASS
  1
XRECORD
  2
AcDbXrecord
  3
AutoCAD 2000
 90
        0
280
     0
281
     0
  0
CLASS
  1
LONG_TRANSACTION
  2
AcDbLongTransaction
  3
AutoCAD 2000
 90
        0
280
     0
281
     0
  0
CLASS
  1
LWPOLYLINE
  2
AcDbPolyline
  3
AutoCAD 2000
 90
        0
280
     0
281
     1
  0
CLASS
  1
HATCH
  2
AcDbHatch
  3
AutoCAD 2000
 90
        0
280
     0
281
     1
  0
CLASS
  1
XRECORD
  2
AcDbXrecord
  3
AutoCAD 2000
 90
        0
280
     0
281
     0
  0
CLASS
  1
LONG_TRANSACTION
  2
AcDbLongTransaction
  3
AutoCAD 2000
 90
        0
280
     0
281
     0
  0
CLASS
  1
LWPOLYLINE
  2
AcDbPolyline
  3
AutoCAD 2000
 90
        0
280
     0
281
     1
  0
CLASS
  1
HATCH
  2
AcDbHatch
  3
AutoCAD 2000
 90
        0
280
     0
281
     1
  0
CLASS
  1
XRECORD
  2
AcDbXrecord
  3
AutoCAD 2000
 90
        0
280
     0
281
     0
  0
CLASS
  1
LONG_TRANSACTION
  2
AcDbLongTransaction
  3
AutoCAD 2000
 90
        0
280
     0
281
     0
  0
CLASS
  1
LWPOLYLINE
  2
AcDbPolyline
  3
AutoCAD 2000
 90
        0
280
     0
281
     1
  0
CLASS
  1
HATCH
  2
AcDbHatch
  3
AutoCAD 2000
 90
        0
280
     0
281
     1
  0
CLASS
  1
XRECORD
  2
AcDbXrecord
  3
AutoCAD 2000
 90
        0
280
     0
281
     0
  0
CLASS
  1
LONG_TRANSACTION
  2
AcDbLongTransaction
  3
AutoCAD 2000
 90
        0
280
     0
281
     0
  0
CLASS
  1
LWPOLYLINE
  2
AcDbPolyline
  3
AutoCAD 2000
 90
        0
280
     0
281
     1
  0
CLASS
  1
HATCH
  2
AcDbHatch
  3
AutoCAD 2000
 90
        0
280
     0
281
     1
  0
CLASS
  1
XRECORD
  2
AcDbXrecord
  3
AutoCAD 2000
 90
        0
280
     0
281
     0
  0
CLASS
  1
LONG_TRANSACTION
  2
AcDbLongTransaction
  3
AutoCAD 2000
 90
        0
280
     0
281
     0
  0
CLASS
  1
LWPOLYLINE
  2
AcDbPolyline
  3
AutoCAD 2000
 90
        0
280
     0
281
     1
  0
CLASS
  1
HATCH
  2
AcDbHatch
  3
AutoCAD 2000
 90
        0
280
     0
281
     1
  0
CLASS
  1
XRECORD
  2
AcDbXrecord
  3
AutoCAD 2000
 90
        0
280
     0
281
     0
  0
CLASS
  1
LONG_TRANSACTION
  2
AcDbLongTransaction
  3
AutoCAD 2000
 90
        0
280
     0
281
     0
  0
CLASS
  1
LWPOLYLINE
  2
AcDbPolyline
  3
AutoCAD 2000
 90
        0
280
     0
281
     1
  0
CLASS
  1
HATCH
  2
AcDbHatch
  3
AutoCAD 2000
 90
        0
280
     0
281
     1
  0
CLASS
  1
XRECORD
  2
AcDbXrecord
  3
AutoCAD 2000
 90
        0
280
     0
281
     0
  0
CLASS
  1
LONG_TRANSACTION
  2
AcDbLongTransaction
  3
AutoCAD 2000
 90
        0
280
     0
281
     0
  0
CLASS
  1
LWPOLYLINE
  2
AcDbPolyline
  3
AutoCAD 2000
 90
        0
280
     0
281
     1
  0
CLASS
  1
HATCH
  2
AcDbHatch
  3
AutoCAD 2000
 90
        0
280
     0
281
     1
  0
CLASS
  1
XRECORD
  2
AcDbXrecord
  3
AutoCAD 2000
 90
        0
280
     0
281
     0
  0
CLASS
  1
LONG_TRANSACTION
  2
AcDbLongTransaction
  3
AutoCAD 2000
 90
        0
280
     0
281
     0
  0
CLASS
  1
LWPOLYLINE
  2
AcDbPolyline
  3
AutoCAD 2000
 90
        0
280
     0
281
     1
  0
CLASS
  1
HATCH
  2
AcDbHatch
  3
AutoCAD 2000
 90
        0
280
     0
281
     1
  0
CLASS
  1
XRECORD
  2
AcDbXrecord
  3
AutoCAD 2000
 90
        0
280
     0
281
     0
  0
CLASS
  1
LONG_TRANSACTION
  2
AcDbLongTransaction
  3
AutoCAD 2000
 90
        0
280
     0
281
     0
  0
CLASS
  1
LWPOLYLINE
  2
AcDbPolyline
  3
AutoCAD 2000
 90
        0
280
     0
281
     1
  0
CLASS
  1
HATCH
  2
AcDbHatch
  3
AutoCAD 2000
 90
        0
280
     0
281
     1
  0
CLASS
  1
XRECORD
  2
AcDbXrecord
  3
AutoCAD 2000
 90
        0
280
     0
281
     0
  0
CLASS
  1
DICTIONARYVAR
  2
AcDbDictionaryVar
  3
AutoCAD 2000
 90
        0
280
     0
281
     0
  0
CLASS
  1
LONG_TRANSACTION
  2
AcDbLongTransaction
  3
AutoCAD 2000
 90
        0
280
     0
281
     0
  0
CLASS
  1
LWPOLYLINE
  2
AcDbPolyline
  3
AutoCAD 2000
 90
        0
280
     0
281
     1
  0
CLASS
  1
HATCH
  2
AcDbHatch
  3
AutoCAD 2000
 90
        0
280
     0
281
     1
  0
CLASS
  1
XRECORD
  2
AcDbXrecord
  3
AutoCAD 2000
 90
        0
280
     0
281
     0
  0
ENDSEC
  0
SECTION
  2
TABLES
  0
TABLE
  2
VPORT
  5
8
330
0
100
AcDbSymbolTable
 70
     3
  0
VPORT
  5
694B
330
8
100
AcDbSymbolTableRecord
100
AcDbViewportTableRecord
  2
*ACTIVE
 70
     0
 10
0.0
 20
0.0
 11
1.0
 21
1.0
 12
166.9940964673809
 22
-111.47332501094
 13
0.0
 23
0.0
 14
1.0
 24
1.0
 15
10.0
 25
10.0
 16
0.0
 26
0.0
 36
1.0
 17
0.0
 27
0.0
 37
0.0
 40
1106.575132001761
 41
1.926573426573426
 42
50.0
 43
0.0
 44
0.0
 50
0.0
 51
0.0
 71
     0
 72
   100
 73
     1
 74
     1
 75
     1
 76
     0
 77
     0
 78
     0
  0
ENDTAB
  0
TABLE
  2
LTYPE
  5
5
330
0
100
AcDbSymbolTable
 70
     5
  0
LTYPE
  5
13
330
5
100
AcDbSymbolTableRecord
100
AcDbLinetypeTableRecord
  2
BYBLOCK
 70
     0
  3

 72
    65
 73
     0
 40
0.0
  0
LTYPE
  5
14
330
5
100
AcDbSymbolTableRecord
100
AcDbLinetypeTableRecord
  2
BYLAYER
 70
     0
  3

 72
    65
 73
     0
 40
0.0
  0
LTYPE
  5
15
330
5
100
AcDbSymbolTableRecord
100
AcDbLinetypeTableRecord
  2
CONTINUOUS
 70
     0
  3
Solid line
 72
    65
 73
     0
 40
0.0
  0
LTYPE
  5
22
330
5
100
AcDbSymbolTableRecord
100
AcDbLinetypeTableRecord
  2
CONTINOUS
 70
     0
  3
Solid line
 72
    65
 73
     0
 40
0.0
  0
LTYPE
  5
23
330
5
100
AcDbSymbolTableRecord
100
AcDbLinetypeTableRecord
  2
DASHED
 70
     0
  3
__ __ __ __ __ __ __ __ __ __ __ __ __ __ __
 72
    65
 73
     2
 40
0.75
 49
0.5
 74
     0
 49
-0.25
 74
     0
  0
LTYPE
  5
24
330
5
100
AcDbSymbolTableRecord
100
AcDbLinetypeTableRecord
  2
DASHDOT
 70
     0
  3
__ . __ . __ . __ . __ . __ . __ . __ . __ . __
 72
    65
 73
     4
 40
1.0
 49
0.5
 74
     0
 49
-0.25
 74
     0
 49
0.0
 74
     0
 49
-0.25
 74
     0
  0
LTYPE
  5
3932
330
5
100
AcDbSymbolTableRecord
100
AcDbLinetypeTableRecord
  2
DIVIDE
 70
     0
  3
Divide ____ . . ____ . . ____ . . ____ . . ____
 72
    65
 73
     6
 40
1.25
 49
0.5
 74
     0
 49
-0.25
 74
     0
 49
0.0
 74
     0
 49
-0.25
 74
     0
 49
0.0
 74
     0
 49
-0.25
 74
     0
  0
ENDTAB
  0
TABLE
  2
LAYER
  5
2
330
0
100
AcDbSymbolTable
 70
    13
  0
LAYER
  5
10
330
2
100
AcDbSymbolTableRecord
100
AcDbLayerTableRecord
  2
0
 70
     0
 62
     7
  6
CONTINOUS
  0
LAYER
  5
2F
330
2
100
AcDbSymbolTableRecord
100
AcDbLayerTableRecord
  2
10
 70
     0
 62
     4
  6
CONTINOUS
  0
LAYER
  5
31
330
2
100
AcDbSymbolTableRecord
100
AcDbLayerTableRecord
  2
12
 70
     0
 62
     3
  6
CONTINOUS
  0
LAYER
  5
35
330
2
100
AcDbSymbolTableRecord
100
AcDbLayerTableRecord
  2
16
 70
     0
 62
     6
  6
DASHDOT
  0
LAYER
  5
36
330
2
100
AcDbSymbolTableRecord
100
AcDbLayerTableRecord
  2
17
 70
     0
 62
     2
  6
DASHDOT
  0
LAYER
  5
38
330
2
100
AcDbSymbolTableRecord
100
AcDbLayerTableRecord
  2
19
 70
     0
 62
     7
  6
CONTINOUS
  0
LAYER
  5
3C
330
2
100
AcDbSymbolTableRecord
100
AcDbLayerTableRecord
  2
11
 70
     0
 62
     1
  6
CONTINOUS
  0
LAYER
  5
3D
330
2
100
AcDbSymbolTableRecord
100
AcDbLayerTableRecord
  2
24
 70
     0
 62
     2
  6
CONTINOUS
  0
LAYER
  5
3A2
330
2
100
AcDbSymbolTableRecord
100
AcDbLayerTableRecord
  2
30
 70
     0
 62
     9
  6
CONTINUOUS
  0
LAYER
  5
3A4
330
2
100
AcDbSymbolTableRecord
100
AcDbLayerTableRecord
  2
DEFPOINTS
 70
     0
 62
     7
  6
CONTINUOUS
  0
LAYER
  5
3933
330
2
100
AcDbSymbolTableRecord
100
AcDbLayerTableRecord
  2
18
 70
     0
 62
     5
  6
DIVIDE
  0
LAYER
  5
4709
330
2
100
AcDbSymbolTableRecord
100
AcDbLayerTableRecord
  2
L0_
 70
     0
 62
     7
  6
CONTINUOUS
  0
LAYER
  5
470B
330
2
100
AcDbSymbolTableRecord
100
AcDbLayerTableRecord
  2
L210_
 70
     0
 62
     7
  6
CONTINUOUS
  0
ENDTAB
  0
TABLE
  2
STYLE
  5
3
330
0
100
AcDbSymbolTable
 70
     3
  0
STYLE
  5
11
330
3
100
AcDbSymbolTableRecord
100
AcDbTextStyleTableRecord
  2
STANDARD
 70
     0
 40
0.0
 41
1.0
 50
0.0
 71
     0
 42
2.0
  3
txt.shx
  4
bigfont.shx
  0
STYLE
  5
42
330
3
100
AcDbSymbolTableRecord
100
AcDbTextStyleTableRecord
  2
STANDARD1
 70
     0
 40
0.0
 41
1.0
 50
0.0
 71
     0
 42
5.0
  3
MONOTXT
  4
BIGFONT
  0
STYLE
  5
3ACF
330
3
100
AcDbSymbolTableRecord
100
AcDbTextStyleTableRecord
  2
SYMBOL3
 70
     0
 40
0.0
 41
1.0
 50
0.0
 71
     0
 42
0.2
  3
iges1003
  4

  0
ENDTAB
  0
TABLE
  2
VIEW
  5
6
330
0
100
AcDbSymbolTable
 70
     3
  0
VIEW
  5
230C
330
6
100
AcDbSymbolTableRecord
100
AcDbViewTableRecord
  2
OLE1
 70
     0
 40
148.9124878027715
 10
429.4976280407224
 20
2.560626997828478
 41
103.1458057716445
 11
0.0
 21
0.0
 31
1.0
 12
0.0
 22
0.0
 32
0.0
 42
50.0
 43
0.0
 44
0.0
 50
0.0
 71
     0
  0
VIEW
  5
230E
330
6
100
AcDbSymbolTableRecord
100
AcDbViewTableRecord
  2
OLE2
 70
     0
 40
170.7786920545776
 10
322.664969958371
 20
-5.978304054290276
 41
102.4672152327465
 11
0.0
 21
0.0
 31
1.0
 12
0.0
 22
0.0
 32
0.0
 42
50.0
 43
0.0
 44
0.0
 50
0.0
 71
     0
  0
VIEW
  5
23AA
330
6
100
AcDbSymbolTableRecord
100
AcDbViewTableRecord
  2
OLE3
 70
     0
 40
591.7897393182231
 10
84.79698158148218
 20
-46.09336010803997
 41
388.7920961799954
 11
0.0
 21
0.0
 31
1.0
 12
0.0
 22
0.0
 32
0.0
 42
50.0
 43
0.0
 44
0.0
 50
0.0
 71
     0
  0
ENDTAB
  0
TABLE
  2
UCS
  5
7
330
0
100
AcDbSymbolTable
 70
     0
  0
ENDTAB
  0
TABLE
  2
APPID
  5
9
330
0
100
AcDbSymbolTable
 70
     2
  0
APPID
  5
12
330
9
100
AcDbSymbolTableRecord
100
AcDbRegAppTableRecord
  2
ACAD
 70
     0
  0
APPID
  5
ECD
330
9
100
AcDbSymbolTableRecord
100
AcDbRegAppTableRecord
  2
CONTENTBLOCKICON
 70
     0
  0
ENDTAB
  0
TABLE
  2
DIMSTYLE
  5
A
330
0
100
AcDbSymbolTable
 70
     1
  0
DIMSTYLE
105
175
102
{ACAD_REACTORS
330
2D25
330
2D20
330
225D
330
57BC
330
5F20
330
5F2D
330
61A8
330
61B5
330
61D4
330
61E2
330
61F8
330
6205
330
621F
330
622C
330
623B
330
6248
330
6294
330
62AA
330
62E0
330
62F6
330
6361
330
636E
330
63B7
330
6526
330
657E
330
657F
330
6580
330
6581
330
6582
330
66D0
330
6751
330
6770
330
677D
330
67C0
330
67CD
330
68FF
330
690C
330
6919
102
}
330
A
100
AcDbSymbolTableRecord
100
AcDbDimStyleTableRecord
  2
STANDARD
 70
     0
  3

  4

  5
OPEN
  6

  7

 40
1.0
 41
2.0
 42
1.0
 43
0.5
 44
0.5
 45
0.0
 46
0.0
 47
0.0
 48
0.0
140
5.0
141
0.09
142
0.0
143
25.4
144
1.0
145
0.0
146
1.0
147
1.0
 71
     0
 72
     0
 73
     0
 74
     1
 75
     0
 76
     0
 77
     3
 78
    12
170
     0
171
     2
172
     0
173
     0
174
     0
175
     0
176
     0
177
     0
178
     0
270
     2
271
     1
272
     1
273
     2
274
     2
340
11
275
     0
280
     0
281
     0
282
     0
283
     1
284
     0
285
     0
286
     0
287
     3
288
     0
  0
ENDTAB
  0
TABLE
  2
BLOCK_RECORD
  5
1
330
0
100
AcDbSymbolTable
 70
    39
  0
BLOCK_RECORD
  5
1E
102
{ACAD_XDICTIONARY
360
178
102
}
330
1
100
AcDbSymbolTableRecord
100
AcDbBlockTableRecord
  2
*MODEL_SPACE
  0
BLOCK_RECORD
  5
1A
102
{ACAD_XDICTIONARY
360
17A
102
}
330
1
100
AcDbSymbolTableRecord
100
AcDbBlockTableRecord
  2
*PAPER_SPACE
  0
BLOCK_RECORD
  5
3B2
330
1
100
AcDbSymbolTableRecord
100
AcDbBlockTableRecord
  2
_OPEN
  0
BLOCK_RECORD
  5
2D33
330
1
100
AcDbSymbolTableRecord
100
AcDbBlockTableRecord
  2
*D1
  0
BLOCK_RECORD
  5
2D4A
330
1
100
AcDbSymbolTableRecord
100
AcDbBlockTableRecord
  2
*D2
  0
BLOCK_RECORD
  5
46F7
330
1
100
AcDbSymbolTableRecord
100
AcDbBlockTableRecord
  2
B837
  0
BLOCK_RECORD
  5
57BD
330
1
100
AcDbSymbolTableRecord
100
AcDbBlockTableRecord
  2
*D4
  0
BLOCK_RECORD
  5
5F21
330
1
100
AcDbSymbolTableRecord
100
AcDbBlockTableRecord
  2
*D5
  0
BLOCK_RECORD
  5
5F2E
330
1
100
AcDbSymbolTableRecord
100
AcDbBlockTableRecord
  2
*D6
  0
BLOCK_RECORD
  5
61A9
330
1
100
AcDbSymbolTableRecord
100
AcDbBlockTableRecord
  2
*D7
  0
BLOCK_RECORD
  5
61B6
330
1
100
AcDbSymbolTableRecord
100
AcDbBlockTableRecord
  2
*D8
  0
BLOCK_RECORD
  5
61D5
330
1
100
AcDbSymbolTableRecord
100
AcDbBlockTableRecord
  2
*D9
  0
BLOCK_RECORD
  5
61E3
330
1
100
AcDbSymbolTableRecord
100
AcDbBlockTableRecord
  2
*D10
  0
BLOCK_RECORD
  5
61F9
330
1
100
AcDbSymbolTableRecord
100
AcDbBlockTableRecord
  2
*D11
  0
BLOCK_RECORD
  5
6206
330
1
100
AcDbSymbolTableRecord
100
AcDbBlockTableRecord
  2
*D12
  0
BLOCK_RECORD
  5
6220
330
1
100
AcDbSymbolTableRecord
100
AcDbBlockTableRecord
  2
*D13
  0
BLOCK_RECORD
  5
622D
330
1
100
AcDbSymbolTableRecord
100
AcDbBlockTableRecord
  2
*D14
  0
BLOCK_RECORD
  5
623C
330
1
100
AcDbSymbolTableRecord
100
AcDbBlockTableRecord
  2
*D15
  0
BLOCK_RECORD
  5
6249
330
1
100
AcDbSymbolTableRecord
100
AcDbBlockTableRecord
  2
*D16
  0
BLOCK_RECORD
  5
6295
330
1
100
AcDbSymbolTableRecord
100
AcDbBlockTableRecord
  2
*D17
  0
BLOCK_RECORD
  5
62AB
330
1
100
AcDbSymbolTableRecord
100
AcDbBlockTableRecord
  2
*D18
  0
BLOCK_RECORD
  5
62E1
330
1
100
AcDbSymbolTableRecord
100
AcDbBlockTableRecord
  2
*D19
  0
BLOCK_RECORD
  5
62F7
330
1
100
AcDbSymbolTableRecord
100
AcDbBlockTableRecord
  2
*D20
  0
BLOCK_RECORD
  5
6362
330
1
100
AcDbSymbolTableRecord
100
AcDbBlockTableRecord
  2
*D21
  0
BLOCK_RECORD
  5
636F
330
1
100
AcDbSymbolTableRecord
100
AcDbBlockTableRecord
  2
*D22
  0
BLOCK_RECORD
  5
63B8
330
1
100
AcDbSymbolTableRecord
100
AcDbBlockTableRecord
  2
*D23
  0
BLOCK_RECORD
  5
6527
330
1
100
AcDbSymbolTableRecord
100
AcDbBlockTableRecord
  2
*D24
  0
BLOCK_RECORD
  5
6583
330
1
100
AcDbSymbolTableRecord
100
AcDbBlockTableRecord
  2
*D25
  0
BLOCK_RECORD
  5
658F
330
1
100
AcDbSymbolTableRecord
100
AcDbBlockTableRecord
  2
*D26
  0
BLOCK_RECORD
  5
659B
330
1
100
AcDbSymbolTableRecord
100
AcDbBlockTableRecord
  2
*D27
  0
BLOCK_RECORD
  5
65A7
330
1
100
AcDbSymbolTableRecord
100
AcDbBlockTableRecord
  2
*D28
  0
BLOCK_RECORD
  5
65B3
330
1
100
AcDbSymbolTableRecord
100
AcDbBlockTableRecord
  2
*D29
  0
BLOCK_RECORD
  5
66E1
330
1
100
AcDbSymbolTableRecord
100
AcDbBlockTableRecord
  2
*D30
  0
BLOCK_RECORD
  5
675B
330
1
100
AcDbSymbolTableRecord
100
AcDbBlockTableRecord
  2
*D31
  0
BLOCK_RECORD
  5
6771
330
1
100
AcDbSymbolTableRecord
100
AcDbBlockTableRecord
  2
*D32
  0
BLOCK_RECORD
  5
677E
330
1
100
AcDbSymbolTableRecord
100
AcDbBlockTableRecord
  2
*D33
  0
BLOCK_RECORD
  5
67C1
330
1
100
AcDbSymbolTableRecord
100
AcDbBlockTableRecord
  2
*D34
  0
BLOCK_RECORD
  5
67CE
330
1
100
AcDbSymbolTableRecord
100
AcDbBlockTableRecord
  2
*D35
  0
BLOCK_RECORD
  5
6900
330
1
100
AcDbSymbolTableRecord
100
AcDbBlockTableRecord
  2
*D36
  0
BLOCK_RECORD
  5
690D
330
1
100
AcDbSymbolTableRecord
100
AcDbBlockTableRecord
  2
*D37
  0
BLOCK_RECORD
  5
691A
330
1
100
AcDbSymbolTableRecord
100
AcDbBlockTableRecord
  2
*D38
  0
ENDTAB
  0
ENDSEC
  0
SECTION
  2
BLOCKS
  0
BLOCK
  5
1F
330
1E
100
AcDbEntity
  8
0
100
AcDbBlockBegin
  2
*MODEL_SPACE
 70
     0
 10
0.0
 20
0.0
 30
0.0
  3
*MODEL_SPACE
  1

  0
ENDBLK
  5
20
330
1E
100
AcDbEntity
  8
0
100
AcDbBlockEnd
  0
BLOCK
  5
1B
330
1A
100
AcDbEntity
 67
     1
  8
0
100
AcDbBlockBegin
  2
*PAPER_SPACE
 70
     0
 10
0.0
 20
0.0
 30
0.0
  3
*PAPER_SPACE
  1

  0
ENDBLK
  5
1C
330
1A
100
AcDbEntity
 67
     1
  8
0
100
AcDbBlockEnd
  0
BLOCK
  5
3B6
330
3B2
100
AcDbEntity
  8
0
100
AcDbBlockBegin
  2
_OPEN
 70
     0
 10
0.0
 20
0.0
 30
0.0
  3
_OPEN
  1

  0
LINE
  5
3B3
330
3B2
100
AcDbEntity
  8
30
  6
CONTINUOUS
 62
     0
100
AcDbLine
 10
-1.0
 20
0.1666666666666666
 30
0.0
 11
0.0
 21
0.0
 31
0.0
  0
LINE
  5
3B4
330
3B2
100
AcDbEntity
  8
30
  6
CONTINUOUS
 62
     0
100
AcDbLine
 10
-1.0
 20
-0.1666666666666666
 30
0.0
 11
0.0
 21
0.0
 31
0.0
  0
LINE
  5
3B5
330
3B2
100
AcDbEntity
  8
30
  6
CONTINUOUS
 62
     0
100
AcDbLine
 10
0.0
 20
0.0
 30
0.0
 11
-1.0
 21
0.0
 31
0.0
  0
ENDBLK
  5
3B7
330
3B2
100
AcDbEntity
  8
0
100
AcDbBlockEnd
  0
BLOCK
  5
2D3D
330
2D33
100
AcDbEntity
  8
0
 62
     2
100
AcDbBlockBegin
  2
*D1
 70
     1
 10
0.0
 20
0.0
 30
0.0
  3
*D1
  1

  0
LINE
  5
6676
330
2D33
100
AcDbEntity
  8
30
  6
CONTINUOUS
 62
     0
100
AcDbLine
 10
293.0
 20
-547.0
 30
0.0
 11
293.0
 21
-560.5
 31
0.0
  0
LINE
  5
6677
330
2D33
100
AcDbEntity
  8
30
  6
CONTINUOUS
 62
     0
100
AcDbLine
 10
357.0
 20
-547.0
 30
0.0
 11
357.0
 21
-560.5
 31
0.0
  0
LINE
  5
6678
330
2D33
100
AcDbEntity
  8
30
  6
CONTINUOUS
 62
     0
100
AcDbLine
 10
295.0
 20
-560.0
 30
0.0
 11
355.0
 21
-560.0
 31
0.0
  0
INSERT
  5
6679
330
2D33
100
AcDbEntity
  8
30
  6
CONTINUOUS
 62
     0
100
AcDbBlockReference
  2
_OPEN
 10
293.0
 20
-560.0
 30
0.0
 41
2.0
 42
2.0
 43
2.0
 50
180.0
  0
INSERT
  5
667A
330
2D33
100
AcDbEntity
  8
30
  6
CONTINUOUS
 62
     0
100
AcDbBlockReference
  2
_OPEN
 10
357.0
 20
-560.0
 30
0.0
 41
2.0
 42
2.0
 43
2.0
  0
MTEXT
  5
667B
330
2D33
100
AcDbEntity
  8
30
  6
CONTINUOUS
 62
     0
100
AcDbMText
 10
325.0
 20
-556.5
 30
0.0
 40
5.0
 41
0.0
 71
     5
 72
     1
  1
\A1;64
1001
ACAD
1000
MTEXTBEGIN
1070
    73
1070
     1
1070
    44
1040
1.0
1070
    74
1070
     0
1000
MTEXTEND
  0
POINT
  5
667C
330
2D33
100
AcDbEntity
  8
DEFPOINTS
  6
CONTINUOUS
 62
     0
100
AcDbPoint
 10
293.0
 20
-546.0
 30
0.0
  0
POINT
  5
667D
330
2D33
100
AcDbEntity
  8
DEFPOINTS
  6
CONTINUOUS
 62
     0
100
AcDbPoint
 10
357.0
 20
-546.0
 30
0.0
  0
POINT
  5
667E
330
2D33
100
AcDbEntity
  8
DEFPOINTS
  6
CONTINUOUS
 62
     0
100
AcDbPoint
 10
357.0
 20
-560.0
 30
0.0
  0
ENDBLK
  5
2D3E
330
2D33
100
AcDbEntity
  8
0
 62
     2
100
AcDbBlockEnd
  0
BLOCK
  5
2D54
330
2D4A
100
AcDbEntity
  8
0
 62
     2
100
AcDbBlockBegin
  2
*D2
 70
     1
 10
0.0
 20
0.0
 30
0.0
  3
*D2
  1

  0
LINE
  5
666D
330
2D4A
100
AcDbEntity
  8
30
  6
CONTINUOUS
 62
     0
100
AcDbLine
 10
293.0
 20
-454.0
 30
0.0
 11
274.5
 21
-454.0
 31
0.0
  0
LINE
  5
666E
330
2D4A
100
AcDbEntity
  8
30
  6
CONTINUOUS
 62
     0
100
AcDbLine
 10
292.0
 20
-546.0
 30
0.0
 11
274.5
 21
-546.0
 31
0.0
  0
LINE
  5
666F
330
2D4A
100
AcDbEntity
  8
30
  6
CONTINUOUS
 62
     0
100
AcDbLine
 10
275.0
 20
-456.0
 30
0.0
 11
275.0
 21
-544.0
 31
0.0
  0
INSERT
  5
6670
330
2D4A
100
AcDbEntity
  8
30
  6
CONTINUOUS
 62
     0
100
AcDbBlockReference
  2
_OPEN
 10
275.0
 20
-454.0
 30
0.0
 41
2.0
 42
2.0
 43
2.0
 50
90.0
  0
INSERT
  5
6671
330
2D4A
100
AcDbEntity
  8
30
  6
CONTINUOUS
 62
     0
100
AcDbBlockReference
  2
_OPEN
 10
275.0
 20
-546.0
 30
0.0
 41
2.0
 42
2.0
 43
2.0
 50
270.0
  0
MTEXT
  5
6672
330
2D4A
100
AcDbEntity
  8
30
  6
CONTINUOUS
 62
     0
100
AcDbMText
 10
271.5
 20
-504.0
 30
0.0
 40
5.0
 41
0.0
 71
     5
 72
     1
  1
\A1;92
 11
0.0000000000000001
 21
1.0
 31
0.0
1001
ACAD
1000
MTEXTBEGIN
1070
    73
1070
     1
1070
    44
1040
1.0
1070
    74
1070
     0
1000
MTEXTEND
  0
POINT
  5
6673
330
2D4A
100
AcDbEntity
  8
DEFPOINTS
  6
CONTINUOUS
 62
     0
100
AcDbPoint
 10
294.0
 20
-454.0
 30
0.0
  0
POINT
  5
6674
330
2D4A
100
AcDbEntity
  8
DEFPOINTS
  6
CONTINUOUS
 62
     0
100
AcDbPoint
 10
293.0
 20
-546.0
 30
0.0
  0
POINT
  5
6675
330
2D4A
100
AcDbEntity
  8
DEFPOINTS
  6
CONTINUOUS
 62
     0
100
AcDbPoint
 10
275.0
 20
-546.0
 30
0.0
  0
ENDBLK
  5
2D55
330
2D4A
100
AcDbEntity
  8
0
 62
     2
100
AcDbBlockEnd
  0
BLOCK
  5
46FA
330
46F7
100
AcDbEntity
  8
L0_
  6
CONTINUOUS
100
AcDbBlockBegin
  2
B837
 70
     0
 10
0.0
 20
0.0
 30
0.0
  3
B837
  1

  0
TEXT
  5
46F8
330
46F7
100
AcDbEntity
  8
L0_
  6
CONTINUOUS
100
AcDbText
 10
1984.080078125
 20
1307.4332275391
 30
0.0
 40
12.0
  1
n
 41
2.30859375
  7
SYMBOL3
 72
     5
 11
2002.080078125
 21
1307.4332275391
 31
0.0
100
AcDbText
 73
     2
  0
TEXT
  5
46F9
330
46F7
100
AcDbEntity
  8
L0_
  6
CONTINUOUS
100
AcDbText
 10
2002.080078125
 20
1307.4332275391
 30
0.0
 40
12.0
  1
11
 41
1.077343749999997
  7
SYMBOL3
 72
     5
 11
2018.880078125
 21
1307.4332275391
 31
0.0
100
AcDbText
 73
     2
  0
ENDBLK
  5
46FB
330
46F7
100
AcDbEntity
  8
L0_
  6
CONTINUOUS
100
AcDbBlockEnd
  0
BLOCK
  5
57C7
330
57BD
100
AcDbEntity
  8
0
100
AcDbBlockBegin
  2
*D4
 70
     1
 10
0.0
 20
0.0
 30
0.0
  3
*D4
  1

  0
LINE
  5
638D
330
57BD
100
AcDbEntity
  8
30
  6
CONTINUOUS
 62
     0
100
AcDbLine
 10
-34.85003662108999
 20
-626.25
 30
0.0
 11
-34.85003662108999
 21
-654.4999999999999
 31
0.0
  0
LINE
  5
638E
330
57BD
100
AcDbEntity
  8
30
  6
CONTINUOUS
 62
     0
100
AcDbLine
 10
35.15002441406
 20
-626.25
 30
0.0
 11
35.15002441406
 21
-654.4999999999999
 31
0.0
  0
LINE
  5
638F
330
57BD
100
AcDbEntity
  8
30
  6
CONTINUOUS
 62
     0
100
AcDbLine
 10
-32.85003662109
 20
-654.0
 30
0.0
 11
33.15002441405999
 21
-654.0
 31
0.0
  0
INSERT
  5
6390
330
57BD
100
AcDbEntity
  8
30
  6
CONTINUOUS
 62
     0
100
AcDbBlockReference
  2
_OPEN
 10
-34.85003662108999
 20
-654.0
 30
0.0
 41
2.0
 42
2.0
 43
2.0
 50
180.0
  0
INSERT
  5
6391
330
57BD
100
AcDbEntity
  8
30
  6
CONTINUOUS
 62
     0
100
AcDbBlockReference
  2
_OPEN
 10
35.15002441406
 20
-654.0
 30
0.0
 41
2.0
 42
2.0
 43
2.0
  0
MTEXT
  5
6392
330
57BD
100
AcDbEntity
  8
30
  6
CONTINUOUS
 62
     0
100
AcDbMText
 10
0.1499938964850005
 20
-650.4999999999999
 30
0.0
 40
5.0
 41
0.0
 71
     5
 72
     1
  1
\A1;70
1001
ACAD
1000
MTEXTBEGIN
1070
    73
1070
     1
1070
    44
1040
1.0
1070
    74
1070
     0
1000
MTEXTEND
  0
POINT
  5
6393
330
57BD
100
AcDbEntity
  8
DEFPOINTS
  6
CONTINUOUS
 62
     0
100
AcDbPoint
 10
-34.85003662108999
 20
-625.25
 30
0.0
  0
POINT
  5
6394
330
57BD
100
AcDbEntity
  8
DEFPOINTS
  6
CONTINUOUS
 62
     0
100
AcDbPoint
 10
35.15002441406
 20
-625.25
 30
0.0
  0
POINT
  5
6395
330
57BD
100
AcDbEntity
  8
DEFPOINTS
  6
CONTINUOUS
 62
     0
100
AcDbPoint
 10
35.15002441406
 20
-654.0
 30
0.0
  0
ENDBLK
  5
57C8
330
57BD
100
AcDbEntity
  8
0
100
AcDbBlockEnd
  0
BLOCK
  5
5F2B
330
5F21
100
AcDbEntity
  8
0
100
AcDbBlockBegin
  2
*D5
 70
     1
 10
0.0
 20
0.0
 30
0.0
  3
*D5
  1

  0
LINE
  5
679C
330
5F21
100
AcDbEntity
  8
30
  6
CONTINUOUS
 62
     0
100
AcDbLine
 10
-69.99993896483999
 20
-213.0
 30
0.0
 11
-69.99993896483999
 21
-239.5
 31
0.0
  0
LINE
  5
679D
330
5F21
100
AcDbEntity
  8
30
  6
CONTINUOUS
 62
     0
100
AcDbLine
 10
-0.0000000000000001
 20
-198.0
 30
0.0
 11
-0.0000000000000026
 21
-239.5
 31
0.0
  0
LINE
  5
679E
330
5F21
100
AcDbEntity
  8
30
  6
CONTINUOUS
 62
     0
100
AcDbLine
 10
-67.99993896484
 20
-239.0
 30
0.0
 11
-2.000000000000002
 21
-239.0
 31
0.0
  0
INSERT
  5
679F
330
5F21
100
AcDbEntity
  8
30
  6
CONTINUOUS
 62
     0
100
AcDbBlockReference
  2
_OPEN
 10
-69.99993896483999
 20
-239.0
 30
0.0
 41
2.0
 42
2.0
 43
2.0
 50
180.0
  0
INSERT
  5
67A0
330
5F21
100
AcDbEntity
  8
30
  6
CONTINUOUS
 62
     0
100
AcDbBlockReference
  2
_OPEN
 10
-0.0000000000000026
 20
-239.0
 30
0.0
 41
2.0
 42
2.0
 43
2.0
  0
MTEXT
  5
67A1
330
5F21
100
AcDbEntity
  8
30
  6
CONTINUOUS
 62
     0
100
AcDbMText
 10
-34.99996948241999
 20
-235.4999999999999
 30
0.0
 40
5.0
 41
0.0
 71
     5
 72
     1
  1
\A1;70
1001
ACAD
1000
MTEXTBEGIN
1070
    73
1070
     1
1070
    44
1040
1.0
1070
    74
1070
     0
1000
MTEXTEND
  0
POINT
  5
67A2
330
5F21
100
AcDbEntity
  8
DEFPOINTS
  6
CONTINUOUS
 62
     0
100
AcDbPoint
 10
-69.99993896483999
 20
-212.0
 30
0.0
  0
POINT
  5
67A3
330
5F21
100
AcDbEntity
  8
DEFPOINTS
  6
CONTINUOUS
 62
     0
100
AcDbPoint
 10
0.0
 20
-197.0
 30
0.0
  0
POINT
  5
67A4
330
5F21
100
AcDbEntity
  8
DEFPOINTS
  6
CONTINUOUS
 62
     0
100
AcDbPoint
 10
-0.0000000000000026
 20
-239.0
 30
0.0
  0
ENDBLK
  5
5F2C
330
5F21
100
AcDbEntity
  8
0
100
AcDbBlockEnd
  0
BLOCK
  5
5F38
330
5F2E
100
AcDbEntity
  8
0
100
AcDbBlockBegin
  2
*D6
 70
     1
 10
0.0
 20
0.0
 30
0.0
  3
*D6
  1

  0
LINE
  5
67B7
330
5F2E
100
AcDbEntity
  8
30
  6
CONTINUOUS
 62
     0
100
AcDbLine
 10
-105.0
 20
-133.0
 30
0.0
 11
-105.0
 21
-260.4999999999999
 31
0.0
  0
LINE
  5
67B8
330
5F2E
100
AcDbEntity
  8
30
  6
CONTINUOUS
 62
     0
100
AcDbLine
 10
175.0
 20
-133.0
 30
0.0
 11
175.0
 21
-260.4999999999999
 31
0.0
  0
LINE
  5
67B9
330
5F2E
100
AcDbEntity
  8
30
  6
CONTINUOUS
 62
     0
100
AcDbLine
 10
-103.0
 20
-260.0
 30
0.0
 11
173.0
 21
-260.0
 31
0.0
  0
INSERT
  5
67BA
330
5F2E
100
AcDbEntity
  8
30
  6
CONTINUOUS
 62
     0
100
AcDbBlockReference
  2
_OPEN
 10
-105.0
 20
-260.0
 30
0.0
 41
2.0
 42
2.0
 43
2.0
 50
180.0
  0
INSERT
  5
67BB
330
5F2E
100
AcDbEntity
  8
30
  6
CONTINUOUS
 62
     0
100
AcDbBlockReference
  2
_OPEN
 10
175.0
 20
-260.0
 30
0.0
 41
2.0
 42
2.0
 43
2.0
  0
MTEXT
  5
67BC
330
5F2E
100
AcDbEntity
  8
30
  6
CONTINUOUS
 62
     0
100
AcDbMText
 10
34.99999999999999
 20
-256.4999999999999
 30
0.0
 40
5.0
 41
0.0
 71
     5
 72
     1
  1
\A1;280
1001
ACAD
1000
MTEXTBEGIN
1070
    73
1070
     1
1070
    44
1040
1.0
1070
    74
1070
     0
1000
MTEXTEND
  0
POINT
  5
67BD
330
5F2E
100
AcDbEntity
  8
DEFPOINTS
  6
CONTINUOUS
 62
     0
100
AcDbPoint
 10
-105.0
 20
-132.0
 30
0.0
  0
POINT
  5
67BE
330
5F2E
100
AcDbEntity
  8
DEFPOINTS
  6
CONTINUOUS
 62
     0
100
AcDbPoint
 10
175.0
 20
-132.0
 30
0.0
  0
POINT
  5
67BF
330
5F2E
100
AcDbEntity
  8
DEFPOINTS
  6
CONTINUOUS
 62
     0
100
AcDbPoint
 10
175.0
 20
-260.0
 30
0.0
  0
ENDBLK
  5
5F39
330
5F2E
100
AcDbEntity
  8
0
100
AcDbBlockEnd
  0
BLOCK
  5
61B3
330
61A9
100
AcDbEntity
  8
0
100
AcDbBlockBegin
  2
*D7
 70
     1
 10
0.0
 20
0.0
 30
0.0
  3
*D7
  1

  0
LINE
  5
66C7
330
61A9
100
AcDbEntity
  8
30
  6
CONTINUOUS
 62
     0
100
AcDbLine
 10
398.2913707384479
 20
222.0
 30
0.0
 11
398.2913707384479
 21
230.5
 31
0.0
  0
LINE
  5
66C8
330
61A9
100
AcDbEntity
  8
30
  6
CONTINUOUS
 62
     0
100
AcDbLine
 10
406.2913707384479
 20
222.0
 30
0.0
 11
406.2913707384479
 21
230.5
 31
0.0
  0
LINE
  5
66C9
330
61A9
100
AcDbEntity
  8
30
  6
CONTINUOUS
 62
     0
100
AcDbLine
 10
400.2913707384479
 20
230.0
 30
0.0
 11
404.2913707384479
 21
230.0
 31
0.0
  0
INSERT
  5
66CA
330
61A9
100
AcDbEntity
  8
30
  6
CONTINUOUS
 62
     0
100
AcDbBlockReference
  2
_OPEN
 10
398.2913707384479
 20
230.0
 30
0.0
 41
2.0
 42
2.0
 43
2.0
 50
180.0
  0
INSERT
  5
66CB
330
61A9
100
AcDbEntity
  8
30
  6
CONTINUOUS
 62
     0
100
AcDbBlockReference
  2
_OPEN
 10
406.2913707384479
 20
230.0
 30
0.0
 41
2.0
 42
2.0
 43
2.0
  0
MTEXT
  5
66CC
330
61A9
100
AcDbEntity
  8
30
  6
CONTINUOUS
 62
     0
100
AcDbMText
 10
402.2913707384479
 20
233.4999999999999
 30
0.0
 40
5.0
 41
0.0
 71
     5
 72
     1
  1
\A1;8
1001
ACAD
1000
MTEXTBEGIN
1070
    73
1070
     1
1070
    44
1040
1.0
1070
    74
1070
     0
1000
MTEXTEND
  0
POINT
  5
66CD
330
61A9
100
AcDbEntity
  8
DEFPOINTS
  6
CONTINUOUS
 62
     0
100
AcDbPoint
 10
398.2913707384479
 20
221.0
 30
0.0
  0
POINT
  5
66CE
330
61A9
100
AcDbEntity
  8
DEFPOINTS
  6
CONTINUOUS
 62
     0
100
AcDbPoint
 10
406.2913707384479
 20
221.0
 30
0.0
  0
POINT
  5
66CF
330
61A9
100
AcDbEntity
  8
DEFPOINTS
  6
CONTINUOUS
 62
     0
100
AcDbPoint
 10
406.2913707384479
 20
230.0
 30
0.0
  0
ENDBLK
  5
61B4
330
61A9
100
AcDbEntity
  8
0
100
AcDbBlockEnd
  0
BLOCK
  5
61C0
330
61B6
100
AcDbEntity
  8
0
100
AcDbBlockBegin
  2
*D8
 70
     1
 10
0.0
 20
0.0
 30
0.0
  3
*D8
  1

  0
LINE
  5
66BE
330
61B6
100
AcDbEntity
  8
30
  6
CONTINUOUS
 62
     0
100
AcDbLine
 10
406.2913707384479
 20
222.0
 30
0.0
 11
406.2913707384479
 21
230.5
 31
0.0
  0
LINE
  5
66BF
330
61B6
100
AcDbEntity
  8
30
  6
CONTINUOUS
 62
     0
100
AcDbLine
 10
438.2913707384479
 20
142.0
 30
0.0
 11
438.2913707384479
 21
230.5
 31
0.0
  0
LINE
  5
66C0
330
61B6
100
AcDbEntity
  8
30
  6
CONTINUOUS
 62
     0
100
AcDbLine
 10
408.2913707384479
 20
230.0
 30
0.0
 11
436.2913707384479
 21
230.0
 31
0.0
  0
INSERT
  5
66C1
330
61B6
100
AcDbEntity
  8
30
  6
CONTINUOUS
 62
     0
100
AcDbBlockReference
  2
_OPEN
 10
406.2913707384479
 20
230.0
 30
0.0
 41
2.0
 42
2.0
 43
2.0
 50
180.0
  0
INSERT
  5
66C2
330
61B6
100
AcDbEntity
  8
30
  6
CONTINUOUS
 62
     0
100
AcDbBlockReference
  2
_OPEN
 10
438.2913707384479
 20
230.0
 30
0.0
 41
2.0
 42
2.0
 43
2.0
  0
MTEXT
  5
66C3
330
61B6
100
AcDbEntity
  8
30
  6
CONTINUOUS
 62
     0
100
AcDbMText
 10
422.2913707384479
 20
233.4999999999999
 30
0.0
 40
5.0
 41
0.0
 71
     5
 72
     1
  1
\A1;32
1001
ACAD
1000
MTEXTBEGIN
1070
    73
1070
     1
1070
    44
1040
1.0
1070
    74
1070
     0
1000
MTEXTEND
  0
POINT
  5
66C4
330
61B6
100
AcDbEntity
  8
DEFPOINTS
  6
CONTINUOUS
 62
     0
100
AcDbPoint
 10
406.2913707384479
 20
221.0
 30
0.0
  0
POINT
  5
66C5
330
61B6
100
AcDbEntity
  8
DEFPOINTS
  6
CONTINUOUS
 62
     0
100
AcDbPoint
 10
438.2913707384479
 20
141.0
 30
0.0
  0
POINT
  5
66C6
330
61B6
100
AcDbEntity
  8
DEFPOINTS
  6
CONTINUOUS
 62
     0
100
AcDbPoint
 10
438.2913707384479
 20
230.0
 30
0.0
  0
ENDBLK
  5
61C1
330
61B6
100
AcDbEntity
  8
0
100
AcDbBlockEnd
  0
BLOCK
  5
61E0
330
61D5
100
AcDbEntity
  8
0
100
AcDbBlockBegin
  2
*D9
 70
     1
 10
0.0
 20
0.0
 30
0.0
  3
*D9
  1

  0
LINE
  5
6699
330
61D5
100
AcDbEntity
  8
30
  6
CONTINUOUS
 62
     0
100
AcDbLine
 10
335.2913707384479
 20
58.0
 30
0.0
 11
335.2913707384479
 21
116.8999023438
 31
0.0
  0
LINE
  5
669A
330
61D5
100
AcDbEntity
  8
30
  6
CONTINUOUS
 62
     0
100
AcDbLine
 10
341.2913707384479
 20
58.0
 30
0.0
 11
341.2913707384479
 21
116.8999023438
 31
0.0
  0
LINE
  5
669B
330
61D5
100
AcDbEntity
  8
30
  6
CONTINUOUS
 62
     0
100
AcDbLine
 10
333.2913707384479
 20
116.3999023438
 30
0.0
 11
331.2913707384479
 21
116.3999023438
 31
0.0
  0
LINE
  5
669C
330
61D5
100
AcDbEntity
  8
30
  6
CONTINUOUS
 62
     0
100
AcDbLine
 10
343.2913707384479
 20
116.3999023438
 30
0.0
 11
345.2913707384479
 21
116.3999023438
 31
0.0
  0
INSERT
  5
669D
330
61D5
100
AcDbEntity
  8
30
  6
CONTINUOUS
 62
     0
100
AcDbBlockReference
  2
_OPEN
 10
335.2913707384479
 20
116.3999023438
 30
0.0
 41
2.0
 42
2.0
 43
2.0
  0
INSERT
  5
669E
330
61D5
100
AcDbEntity
  8
30
  6
CONTINUOUS
 62
     0
100
AcDbBlockReference
  2
_OPEN
 10
341.2913707384479
 20
116.3999023438
 30
0.0
 41
2.0
 42
2.0
 43
2.0
 50
180.0
  0
MTEXT
  5
669F
330
61D5
100
AcDbEntity
  8
30
  6
CONTINUOUS
 62
     0
100
AcDbMText
 10
338.2913707384479
 20
119.8999023438
 30
0.0
 40
5.0
 41
0.0
 71
     5
 72
     1
  1
\A1;6
1001
ACAD
1000
MTEXTBEGIN
1070
    73
1070
     1
1070
    44
1040
1.0
1070
    74
1070
     0
1000
MTEXTEND
  0
POINT
  5
66A0
330
61D5
100
AcDbEntity
  8
DEFPOINTS
  6
CONTINUOUS
 62
     0
100
AcDbPoint
 10
335.2913707384479
 20
57.0
 30
0.0
  0
POINT
  5
66A1
330
61D5
100
AcDbEntity
  8
DEFPOINTS
  6
CONTINUOUS
 62
     0
100
AcDbPoint
 10
341.2913707384479
 20
57.0
 30
0.0
  0
POINT
  5
66A2
330
61D5
100
AcDbEntity
  8
DEFPOINTS
  6
CONTINUOUS
 62
     0
100
AcDbPoint
 10
341.2913707384479
 20
116.3999023438
 30
0.0
  0
ENDBLK
  5
61E1
330
61D5
100
AcDbEntity
  8
0
100
AcDbBlockEnd
  0
BLOCK
  5
61ED
330
61E3
100
AcDbEntity
  8
0
100
AcDbBlockBegin
  2
*D10
 70
     1
 10
0.0
 20
0.0
 30
0.0
  3
*D10
  1

  0
LINE
  5
66B5
330
61E3
100
AcDbEntity
  8
30
  6
CONTINUOUS
 62
     0
100
AcDbLine
 10
334.2913707384479
 20
57.0
 30
0.0
 11
271.4999999999999
 21
57.00000000000002
 31
0.0
  0
LINE
  5
66B6
330
61E3
100
AcDbEntity
  8
30
  6
CONTINUOUS
 62
     0
100
AcDbLine
 10
334.2913707384479
 20
0.0000000000000003
 30
0.0
 11
271.4999999999999
 21
0.0000000000000181
 31
0.0
  0
LINE
  5
66B7
330
61E3
100
AcDbEntity
  8
30
  6
CONTINUOUS
 62
     0
100
AcDbLine
 10
272.0
 20
55.00000000000001
 30
0.0
 11
272.0
 21
2.000000000000017
 31
0.0
  0
INSERT
  5
66B8
330
61E3
100
AcDbEntity
  8
30
  6
CONTINUOUS
 62
     0
100
AcDbBlockReference
  2
_OPEN
 10
272.0
 20
57.00000000000001
 30
0.0
 41
2.0
 42
2.0
 43
2.0
 50
90.0
  0
INSERT
  5
66B9
330
61E3
100
AcDbEntity
  8
30
  6
CONTINUOUS
 62
     0
100
AcDbBlockReference
  2
_OPEN
 10
272.0
 20
0.0000000000000179
 30
0.0
 41
2.0
 42
2.0
 43
2.0
 50
270.0
  0
MTEXT
  5
66BA
330
61E3
100
AcDbEntity
  8
30
  6
CONTINUOUS
 62
     0
100
AcDbMText
 10
268.5
 20
28.50000000000006
 30
0.0
 40
5.0
 41
0.0
 71
     5
 72
     1
  1
\A1;57
 11
0.0000000000000001
 21
1.0
 31
0.0
1001
ACAD
1000
MTEXTBEGIN
1070
    73
1070
     1
1070
    44
1040
1.0
1070
    74
1070
     0
1000
MTEXTEND
  0
POINT
  5
66BB
330
61E3
100
AcDbEntity
  8
DEFPOINTS
  6
CONTINUOUS
 62
     0
100
AcDbPoint
 10
335.2913707384479
 20
57.0
 30
0.0
  0
POINT
  5
66BC
330
61E3
100
AcDbEntity
  8
DEFPOINTS
  6
CONTINUOUS
 62
     0
100
AcDbPoint
 10
335.2913707384479
 20
0.0
 30
0.0
  0
POINT
  5
66BD
330
61E3
100
AcDbEntity
  8
DEFPOINTS
  6
CONTINUOUS
 62
     0
100
AcDbPoint
 10
272.0
 20
0.0000000000000179
 30
0.0
  0
ENDBLK
  5
61EE
330
61E3
100
AcDbEntity
  8
0
100
AcDbBlockEnd
  0
BLOCK
  5
6203
330
61F9
100
AcDbEntity
  8
0
100
AcDbBlockBegin
  2
*D11
 70
     1
 10
0.0
 20
0.0
 30
0.0
  3
*D11
  1

  0
LINE
  5
66AC
330
61F9
100
AcDbEntity
  8
30
  6
CONTINUOUS
 62
     0
100
AcDbLine
 10
334.2913707384479
 20
0.0000000000000003
 30
0.0
 11
271.4999999999999
 21
0.0000000000000181
 31
0.0
  0
LINE
  5
66AD
330
61F9
100
AcDbEntity
  8
30
  6
CONTINUOUS
 62
     0
100
AcDbLine
 10
334.2913707384479
 20
-45.0
 30
0.0
 11
271.4999999999999
 21
-44.99999999999998
 31
0.0
  0
LINE
  5
66AE
330
61F9
100
AcDbEntity
  8
30
  6
CONTINUOUS
 62
     0
100
AcDbLine
 10
272.0
 20
-1.999999999999982
 30
0.0
 11
272.0
 21
-42.99999999999998
 31
0.0
  0
INSERT
  5
66AF
330
61F9
100
AcDbEntity
  8
30
  6
CONTINUOUS
 62
     0
100
AcDbBlockReference
  2
_OPEN
 10
272.0
 20
0.0000000000000179
 30
0.0
 41
2.0
 42
2.0
 43
2.0
 50
90.0
  0
INSERT
  5
66B0
330
61F9
100
AcDbEntity
  8
30
  6
CONTINUOUS
 62
     0
100
AcDbBlockReference
  2
_OPEN
 10
272.0
 20
-44.99999999999999
 30
0.0
 41
2.0
 42
2.0
 43
2.0
 50
270.0
  0
MTEXT
  5
66B1
330
61F9
100
AcDbEntity
  8
30
  6
CONTINUOUS
 62
     0
100
AcDbMText
 10
268.5
 20
-22.49999999999994
 30
0.0
 40
5.0
 41
0.0
 71
     5
 72
     1
  1
\A1;45
 11
0.0000000000000001
 21
1.0
 31
0.0
1001
ACAD
1000
MTEXTBEGIN
1070
    73
1070
     1
1070
    44
1040
1.0
1070
    74
1070
     0
1000
MTEXTEND
  0
POINT
  5
66B2
330
61F9
100
AcDbEntity
  8
DEFPOINTS
  6
CONTINUOUS
 62
     0
100
AcDbPoint
 10
335.2913707384479
 20
0.0
 30
0.0
  0
POINT
  5
66B3
330
61F9
100
AcDbEntity
  8
DEFPOINTS
  6
CONTINUOUS
 62
     0
100
AcDbPoint
 10
335.2913707384479
 20
-45.0
 30
0.0
  0
POINT
  5
66B4
330
61F9
100
AcDbEntity
  8
DEFPOINTS
  6
CONTINUOUS
 62
     0
100
AcDbPoint
 10
272.0
 20
-44.99999999999999
 30
0.0
  0
ENDBLK
  5
6204
330
61F9
100
AcDbEntity
  8
0
100
AcDbBlockEnd
  0
BLOCK
  5
6210
330
6206
100
AcDbEntity
  8
0
100
AcDbBlockBegin
  2
*D12
 70
     1
 10
0.0
 20
0.0
 30
0.0
  3
*D12
  1

  0
LINE
  5
696F
330
6206
100
AcDbEntity
  8
30
  6
CONTINUOUS
 62
     0
100
AcDbLine
 10
334.2913707384479
 20
-45.0
 30
0.0
 11
271.4999999999999
 21
-44.99999999999998
 31
0.0
  0
LINE
  5
6970
330
6206
100
AcDbEntity
  8
30
  6
CONTINUOUS
 62
     0
100
AcDbLine
 10
335.2912977219459
 20
-51.00000000013277
 30
0.0
 11
271.4999999999999
 21
-51.00000000013276
 31
0.0
  0
LINE
  5
6971
330
6206
100
AcDbEntity
  8
30
  6
CONTINUOUS
 62
     0
100
AcDbLine
 10
272.0
 20
-46.99999999999998
 30
0.0
 11
272.0
 21
-49.00000000013275
 31
0.0
  0
INSERT
  5
6972
330
6206
100
AcDbEntity
  8
30
  6
CONTINUOUS
 62
     0
100
AcDbBlockReference
  2
_OPEN
 10
272.0
 20
-44.99999999999999
 30
0.0
 41
2.0
 42
2.0
 43
2.0
 50
90.0
  0
INSERT
  5
6973
330
6206
100
AcDbEntity
  8
30
  6
CONTINUOUS
 62
     0
100
AcDbBlockReference
  2
_OPEN
 10
272.0
 20
-51.00000000013276
 30
0.0
 41
2.0
 42
2.0
 43
2.0
 50
270.0
  0
MTEXT
  5
6974
330
6206
100
AcDbEntity
  8
30
  6
CONTINUOUS
 62
     0
100
AcDbMText
 10
268.5
 20
-48.00000000006632
 30
0.0
 40
5.0
 41
0.0
 71
     5
 72
     1
  1
\A1;6
 11
0.0000000000000001
 21
1.0
 31
0.0
  0
POINT
  5
6975
330
6206
100
AcDbEntity
  8
DEFPOINTS
  6
CONTINUOUS
 62
     0
100
AcDbPoint
 10
335.2913707384479
 20
-45.0
 30
0.0
  0
POINT
  5
6976
330
6206
100
AcDbEntity
  8
DEFPOINTS
  6
CONTINUOUS
 62
     0
100
AcDbPoint
 10
336.2912977219459
 20
-51.00000000013278
 30
0.0
  0
POINT
  5
6977
330
6206
100
AcDbEntity
  8
DEFPOINTS
  6
CONTINUOUS
 62
     0
100
AcDbPoint
 10
272.0
 20
-51.00000000013276
 30
0.0
  0
ENDBLK
  5
6211
330
6206
100
AcDbEntity
  8
0
100
AcDbBlockEnd
  0
BLOCK
  5
622A
330
6220
100
AcDbEntity
  8
0
100
AcDbBlockBegin
  2
*D13
 70
     1
 10
0.0
 20
0.0
 30
0.0
  3
*D13
  1

  0
LINE
  5
6664
330
6220
100
AcDbEntity
  8
30
  6
CONTINUOUS
 62
     0
100
AcDbLine
 10
410.2913707384479
 20
-107.4999999999999
 30
0.0
 11
410.2913707384479
 21
-90.5
 31
0.0
  0
LINE
  5
6665
330
6220
100
AcDbEntity
  8
30
  6
CONTINUOUS
 62
     0
100
AcDbLine
 10
438.2913707384479
 20
-111.0
 30
0.0
 11
438.2913707384479
 21
-90.5
 31
0.0
  0
LINE
  5
6666
330
6220
100
AcDbEntity
  8
30
  6
CONTINUOUS
 62
     0
100
AcDbLine
 10
412.2913707384479
 20
-91.0
 30
0.0
 11
436.2913707384479
 21
-91.0
 31
0.0
  0
INSERT
  5
6667
330
6220
100
AcDbEntity
  8
30
  6
CONTINUOUS
 62
     0
100
AcDbBlockReference
  2
_OPEN
 10
410.2913707384479
 20
-91.0
 30
0.0
 41
2.0
 42
2.0
 43
2.0
 50
180.0
  0
INSERT
  5
6668
330
6220
100
AcDbEntity
  8
30
  6
CONTINUOUS
 62
     0
100
AcDbBlockReference
  2
_OPEN
 10
438.2913707384479
 20
-91.0
 30
0.0
 41
2.0
 42
2.0
 43
2.0
  0
MTEXT
  5
6669
330
6220
100
AcDbEntity
  8
30
  6
CONTINUOUS
 62
     0
100
AcDbMText
 10
424.2913707384479
 20
-87.5
 30
0.0
 40
5.0
 41
0.0
 71
     5
 72
     1
  1
\A1;28
1001
ACAD
1000
MTEXTBEGIN
1070
    73
1070
     1
1070
    44
1040
1.0
1070
    74
1070
     0
1000
MTEXTEND
  0
POINT
  5
666A
330
6220
100
AcDbEntity
  8
DEFPOINTS
  6
CONTINUOUS
 62
     0
100
AcDbPoint
 10
410.2913707384479
 20
-108.4999999999999
 30
0.0
  0
POINT
  5
666B
330
6220
100
AcDbEntity
  8
DEFPOINTS
  6
CONTINUOUS
 62
     0
100
AcDbPoint
 10
438.2913707384479
 20
-112.0
 30
0.0
  0
POINT
  5
666C
330
6220
100
AcDbEntity
  8
DEFPOINTS
  6
CONTINUOUS
 62
     0
100
AcDbPoint
 10
438.2913707384479
 20
-91.0
 30
0.0
  0
ENDBLK
  5
622B
330
6220
100
AcDbEntity
  8
0
100
AcDbBlockEnd
  0
BLOCK
  5
6237
330
622D
100
AcDbEntity
  8
0
100
AcDbBlockBegin
  2
*D14
 70
     1
 10
0.0
 20
0.0
 30
0.0
  3
*D14
  1

  0
LINE
  5
665B
330
622D
100
AcDbEntity
  8
30
  6
CONTINUOUS
 62
     0
100
AcDbLine
 10
438.2913707384479
 20
-112.0
 30
0.0
 11
438.2913707384479
 21
-90.5
 31
0.0
  0
LINE
  5
665C
330
622D
100
AcDbEntity
  8
30
  6
CONTINUOUS
 62
     0
100
AcDbLine
 10
452.2914928087479
 20
-112.0
 30
0.0
 11
452.2914928087479
 21
-90.5
 31
0.0
  0
LINE
  5
665D
330
622D
100
AcDbEntity
  8
30
  6
CONTINUOUS
 62
     0
100
AcDbLine
 10
440.2913707384479
 20
-91.0
 30
0.0
 11
450.2914928087479
 21
-91.0
 31
0.0
  0
INSERT
  5
665E
330
622D
100
AcDbEntity
  8
30
  6
CONTINUOUS
 62
     0
100
AcDbBlockReference
  2
_OPEN
 10
438.2913707384479
 20
-91.0
 30
0.0
 41
2.0
 42
2.0
 43
2.0
 50
180.0
  0
INSERT
  5
665F
330
622D
100
AcDbEntity
  8
30
  6
CONTINUOUS
 62
     0
100
AcDbBlockReference
  2
_OPEN
 10
452.2914928087479
 20
-91.0
 30
0.0
 41
2.0
 42
2.0
 43
2.0
  0
MTEXT
  5
6660
330
622D
100
AcDbEntity
  8
30
  6
CONTINUOUS
 62
     0
100
AcDbMText
 10
445.2914317735979
 20
-87.5
 30
0.0
 40
5.0
 41
0.0
 71
     5
 72
     1
  1
\A1;14
1001
ACAD
1000
MTEXTBEGIN
1070
    73
1070
     1
1070
    44
1040
1.0
1070
    74
1070
     0
1000
MTEXTEND
  0
POINT
  5
6661
330
622D
100
AcDbEntity
  8
DEFPOINTS
  6
CONTINUOUS
 62
     0
100
AcDbPoint
 10
438.2913707384479
 20
-113.0
 30
0.0
  0
POINT
  5
6662
330
622D
100
AcDbEntity
  8
DEFPOINTS
  6
CONTINUOUS
 62
     0
100
AcDbPoint
 10
452.2914928087479
 20
-113.0
 30
0.0
  0
POINT
  5
6663
330
622D
100
AcDbEntity
  8
DEFPOINTS
  6
CONTINUOUS
 62
     0
100
AcDbPoint
 10
452.2914928087479
 20
-91.0
 30
0.0
  0
ENDBLK
  5
6238
330
622D
100
AcDbEntity
  8
0
100
AcDbBlockEnd
  0
BLOCK
  5
6246
330
623C
100
AcDbEntity
  8
0
100
AcDbBlockBegin
  2
*D15
 70
     1
 10
0.0
 20
0.0
 30
0.0
  3
*D15
  1

  0
LINE
  5
6938
330
623C
100
AcDbEntity
  8
30
  6
CONTINUOUS
 62
     0
100
AcDbLine
 10
394.2913707384479
 20
-213.0
 30
0.0
 11
394.2913707384479
 21
-222.5
 31
0.0
  0
LINE
  5
6939
330
623C
100
AcDbEntity
  8
30
  6
CONTINUOUS
 62
     0
100
AcDbLine
 10
402.2913707384479
 20
-213.0
 30
0.0
 11
402.2913707384479
 21
-222.5
 31
0.0
  0
LINE
  5
693A
330
623C
100
AcDbEntity
  8
30
  6
CONTINUOUS
 62
     0
100
AcDbLine
 10
396.2913707384479
 20
-222.0
 30
0.0
 11
400.2913707384479
 21
-222.0
 31
0.0
  0
INSERT
  5
693B
330
623C
100
AcDbEntity
  8
30
  6
CONTINUOUS
 62
     0
100
AcDbBlockReference
  2
_OPEN
 10
394.2913707384479
 20
-222.0
 30
0.0
 41
2.0
 42
2.0
 43
2.0
 50
180.0
  0
INSERT
  5
693C
330
623C
100
AcDbEntity
  8
30
  6
CONTINUOUS
 62
     0
100
AcDbBlockReference
  2
_OPEN
 10
402.2913707384479
 20
-222.0
 30
0.0
 41
2.0
 42
2.0
 43
2.0
  0
MTEXT
  5
693D
330
623C
100
AcDbEntity
  8
30
  6
CONTINUOUS
 62
     0
100
AcDbMText
 10
398.2913707384479
 20
-218.5
 30
0.0
 40
5.0
 41
0.0
 71
     5
 72
     1
  1
\A1;8
1001
ACAD
1000
MTEXTBEGIN
1070
    73
1070
     1
1070
    44
1040
1.0
1070
    74
1070
     0
1000
MTEXTEND
  0
POINT
  5
693E
330
623C
100
AcDbEntity
  8
DEFPOINTS
  6
CONTINUOUS
 62
     0
100
AcDbPoint
 10
394.2913707384479
 20
-212.0
 30
0.0
  0
POINT
  5
693F
330
623C
100
AcDbEntity
  8
DEFPOINTS
  6
CONTINUOUS
 62
     0
100
AcDbPoint
 10
402.2913707384479
 20
-212.0
 30
0.0
  0
POINT
  5
6940
330
623C
100
AcDbEntity
  8
DEFPOINTS
  6
CONTINUOUS
 62
     0
100
AcDbPoint
 10
402.2913707384479
 20
-222.0
 30
0.0
  0
ENDBLK
  5
6247
330
623C
100
AcDbEntity
  8
0
100
AcDbBlockEnd
  0
BLOCK
  5
6253
330
6249
100
AcDbEntity
  8
0
100
AcDbBlockBegin
  2
*D16
 70
     1
 10
0.0
 20
0.0
 30
0.0
  3
*D16
  1

  0
LINE
  5
692F
330
6249
100
AcDbEntity
  8
30
  6
CONTINUOUS
 62
     0
100
AcDbLine
 10
402.2913707384479
 20
-213.0
 30
0.0
 11
402.2913707384479
 21
-222.5
 31
0.0
  0
LINE
  5
6930
330
6249
100
AcDbEntity
  8
30
  6
CONTINUOUS
 62
     0
100
AcDbLine
 10
438.2913707384479
 20
-133.0
 30
0.0
 11
438.2913707384479
 21
-222.5
 31
0.0
  0
LINE
  5
6931
330
6249
100
AcDbEntity
  8
30
  6
CONTINUOUS
 62
     0
100
AcDbLine
 10
404.2913707384479
 20
-222.0
 30
0.0
 11
436.2913707384479
 21
-222.0
 31
0.0
  0
INSERT
  5
6932
330
6249
100
AcDbEntity
  8
30
  6
CONTINUOUS
 62
     0
100
AcDbBlockReference
  2
_OPEN
 10
402.2913707384479
 20
-222.0
 30
0.0
 41
2.0
 42
2.0
 43
2.0
 50
180.0
  0
INSERT
  5
6933
330
6249
100
AcDbEntity
  8
30
  6
CONTINUOUS
 62
     0
100
AcDbBlockReference
  2
_OPEN
 10
438.2913707384479
 20
-222.0
 30
0.0
 41
2.0
 42
2.0
 43
2.0
  0
MTEXT
  5
6934
330
6249
100
AcDbEntity
  8
30
  6
CONTINUOUS
 62
     0
100
AcDbMText
 10
420.2913707384479
 20
-218.5
 30
0.0
 40
5.0
 41
0.0
 71
     5
 72
     1
  1
\A1;36
1001
ACAD
1000
MTEXTBEGIN
1070
    73
1070
     1
1070
    44
1040
1.0
1070
    74
1070
     0
1000
MTEXTEND
  0
POINT
  5
6935
330
6249
100
AcDbEntity
  8
DEFPOINTS
  6
CONTINUOUS
 62
     0
100
AcDbPoint
 10
402.2913707384479
 20
-212.0
 30
0.0
  0
POINT
  5
6936
330
6249
100
AcDbEntity
  8
DEFPOINTS
  6
CONTINUOUS
 62
     0
100
AcDbPoint
 10
438.2913707384479
 20
-132.0
 30
0.0
  0
POINT
  5
6937
330
6249
100
AcDbEntity
  8
DEFPOINTS
  6
CONTINUOUS
 62
     0
100
AcDbPoint
 10
438.2913707384479
 20
-222.0
 30
0.0
  0
ENDBLK
  5
6254
330
6249
100
AcDbEntity
  8
0
100
AcDbBlockEnd
  0
BLOCK
  5
629F
330
6295
100
AcDbEntity
  8
0
100
AcDbBlockBegin
  2
*D17
 70
     1
 10
0.0
 20
0.0
 30
0.0
  3
*D17
  1

  0
LINE
  5
6941
330
6295
100
AcDbEntity
  8
30
  6
CONTINUOUS
 62
     0
100
AcDbLine
 10
438.2913707384479
 20
-134.0
 30
0.0
 11
438.2913707384479
 21
-230.6666666666666
 31
0.0
  0
LINE
  5
6942
330
6295
100
AcDbEntity
  8
30
  6
CONTINUOUS
 62
     0
100
AcDbLine
 10
335.2913707384479
 20
-108.0
 30
0.0
 11
335.2913707384479
 21
-230.6666666666666
 31
0.0
  0
LINE
  5
6943
330
6295
100
AcDbEntity
  8
30
  6
CONTINUOUS
 62
     0
100
AcDbLine
 10
436.2913707384479
 20
-230.1666666666666
 30
0.0
 11
337.2913707384479
 21
-230.1666666666666
 31
0.0
  0
INSERT
  5
6944
330
6295
100
AcDbEntity
  8
30
  6
CONTINUOUS
 62
     0
100
AcDbBlockReference
  2
_OPEN
 10
438.2913707384479
 20
-230.1666666666666
 30
0.0
 41
2.0
 42
2.0
 43
2.0
  0
INSERT
  5
6945
330
6295
100
AcDbEntity
  8
30
  6
CONTINUOUS
 62
     0
100
AcDbBlockReference
  2
_OPEN
 10
335.2913707384479
 20
-230.1666666666666
 30
0.0
 41
2.0
 42
2.0
 43
2.0
 50
180.0
  0
MTEXT
  5
6946
330
6295
100
AcDbEntity
  8
30
  6
CONTINUOUS
 62
     0
100
AcDbMText
 10
384.7913707384479
 20
-226.6666666666666
 30
0.0
 40
5.0
 41
0.0
 71
     5
 72
     1
  1
\A1;103
1001
ACAD
1000
MTEXTBEGIN
1070
    73
1070
     1
1070
    44
1040
1.0
1070
    74
1070
     0
1000
MTEXTEND
  0
POINT
  5
6947
330
6295
100
AcDbEntity
  8
DEFPOINTS
  6
CONTINUOUS
 62
     0
100
AcDbPoint
 10
438.2913707384479
 20
-133.0
 30
0.0
  0
POINT
  5
6948
330
6295
100
AcDbEntity
  8
DEFPOINTS
  6
CONTINUOUS
 62
     0
100
AcDbPoint
 10
335.2913707384479
 20
-107.0
 30
0.0
  0
POINT
  5
6949
330
6295
100
AcDbEntity
  8
DEFPOINTS
  6
CONTINUOUS
 62
     0
100
AcDbPoint
 10
335.2913707384479
 20
-230.1666666666666
 30
0.0
  0
ENDBLK
  5
62A0
330
6295
100
AcDbEntity
  8
0
100
AcDbBlockEnd
  0
BLOCK
  5
62B6
330
62AB
100
AcDbEntity
  8
0
100
AcDbBlockBegin
  2
*D18
 70
     1
 10
0.0
 20
0.0
 30
0.0
  3
*D18
  1

  0
LINE
  5
6648
330
62AB
100
AcDbEntity
  8
30
  6
CONTINUOUS
 62
     0
100
AcDbLine
 10
327.7913707384479
 20
-5.0
 30
0.0
 11
327.7913707384479
 21
-230.6666666666666
 31
0.0
  0
LINE
  5
6649
330
62AB
100
AcDbEntity
  8
30
  6
CONTINUOUS
 62
     0
100
AcDbLine
 10
335.2913707384479
 20
-108.0
 30
0.0
 11
335.2913707384479
 21
-230.6666666666666
 31
0.0
  0
LINE
  5
664A
330
62AB
100
AcDbEntity
  8
30
  6
CONTINUOUS
 62
     0
100
AcDbLine
 10
333.2913707384479
 20
-230.1666666666666
 30
0.0
 11
329.7913707384479
 21
-230.1666666666666
 31
0.0
  0
LINE
  5
664B
330
62AB
100
AcDbEntity
  8
30
  6
CONTINUOUS
 62
     0
100
AcDbLine
 10
327.7913707384479
 20
-230.1666666666666
 30
0.0
 11
309.0
 21
-230.1666666666666
 31
0.0
  0
INSERT
  5
664C
330
62AB
100
AcDbEntity
  8
30
  6
CONTINUOUS
 62
     0
100
AcDbBlockReference
  2
_OPEN
 10
335.2913707384479
 20
-230.1666666666666
 30
0.0
 41
2.0
 42
2.0
 43
2.0
  0
INSERT
  5
664D
330
62AB
100
AcDbEntity
  8
30
  6
CONTINUOUS
 62
     0
100
AcDbBlockReference
  2
_OPEN
 10
327.7913707384479
 20
-230.1666666666666
 30
0.0
 41
2.0
 42
2.0
 43
2.0
 50
180.0
  0
MTEXT
  5
664E
330
62AB
100
AcDbEntity
  8
30
  6
CONTINUOUS
 62
     0
100
AcDbMText
 10
315.0
 20
-226.6666666666666
 30
0.0
 40
5.0
 41
0.0
 71
     5
 72
     1
  1
\A1;7.5
1001
ACAD
1000
MTEXTBEGIN
1070
    73
1070
     1
1070
    44
1040
1.0
1070
    74
1070
     0
1000
MTEXTEND
  0
POINT
  5
664F
330
62AB
100
AcDbEntity
  8
DEFPOINTS
  6
CONTINUOUS
 62
     0
100
AcDbPoint
 10
327.7913707384479
 20
-4.0
 30
0.0
  0
POINT
  5
6650
330
62AB
100
AcDbEntity
  8
DEFPOINTS
  6
CONTINUOUS
 62
     0
100
AcDbPoint
 10
335.2913707384479
 20
-107.0
 30
0.0
  0
POINT
  5
6651
330
62AB
100
AcDbEntity
  8
DEFPOINTS
  6
CONTINUOUS
 62
     0
100
AcDbPoint
 10
335.2913707384479
 20
-230.1666666666666
 30
0.0
  0
ENDBLK
  5
62B7
330
62AB
100
AcDbEntity
  8
0
100
AcDbBlockEnd
  0
BLOCK
  5
62EB
330
62E1
100
AcDbEntity
  8
0
100
AcDbBlockBegin
  2
*D19
 70
     1
 10
0.0
 20
0.0
 30
0.0
  3
*D19
  1

  0
LINE
  5
663F
330
62E1
100
AcDbEntity
  8
30
  6
CONTINUOUS
 62
     0
100
AcDbLine
 10
438.2913707384479
 20
-223.0
 30
0.0
 11
438.2913707384479
 21
-245.5
 31
0.0
  0
LINE
  5
6640
330
62E1
100
AcDbEntity
  8
30
  6
CONTINUOUS
 62
     0
100
AcDbLine
 10
293.2686943081847
 20
-1.0
 30
0.0
 11
293.2686943081847
 21
-245.5
 31
0.0
  0
LINE
  5
6641
330
62E1
100
AcDbEntity
  8
30
  6
CONTINUOUS
 62
     0
100
AcDbLine
 10
436.2913707384479
 20
-245.0
 30
0.0
 11
295.2686943081848
 21
-245.0
 31
0.0
  0
INSERT
  5
6642
330
62E1
100
AcDbEntity
  8
30
  6
CONTINUOUS
 62
     0
100
AcDbBlockReference
  2
_OPEN
 10
438.2913707384479
 20
-245.0
 30
0.0
 41
2.0
 42
2.0
 43
2.0
  0
INSERT
  5
6643
330
62E1
100
AcDbEntity
  8
30
  6
CONTINUOUS
 62
     0
100
AcDbBlockReference
  2
_OPEN
 10
293.2686943081847
 20
-245.0
 30
0.0
 41
2.0
 42
2.0
 43
2.0
 50
180.0
  0
MTEXT
  5
6644
330
62E1
100
AcDbEntity
  8
30
  6
CONTINUOUS
 62
     0
100
AcDbMText
 10
365.7800325233163
 20
-241.5
 30
0.0
 40
5.0
 41
0.0
 71
     5
 72
     1
  1
\A1;145
1001
ACAD
1000
MTEXTBEGIN
1070
    73
1070
     1
1070
    44
1040
1.0
1070
    74
1070
     0
1000
MTEXTEND
  0
POINT
  5
6645
330
62E1
100
AcDbEntity
  8
DEFPOINTS
  6
CONTINUOUS
 62
     0
100
AcDbPoint
 10
438.2913707384479
 20
-222.0
 30
0.0
  0
POINT
  5
6646
330
62E1
100
AcDbEntity
  8
DEFPOINTS
  6
CONTINUOUS
 62
     0
100
AcDbPoint
 10
293.2686943081847
 20
0.0
 30
0.0
  0
POINT
  5
6647
330
62E1
100
AcDbEntity
  8
DEFPOINTS
  6
CONTINUOUS
 62
     0
100
AcDbPoint
 10
293.2686943081847
 20
-245.0
 30
0.0
  0
ENDBLK
  5
62EC
330
62E1
100
AcDbEntity
  8
0
100
AcDbBlockEnd
  0
BLOCK
  5
6301
330
62F7
100
AcDbEntity
  8
0
100
AcDbBlockBegin
  2
*D20
 70
     1
 10
0.0
 20
0.0
 30
0.0
  3
*D20
  1

  0
LINE
  5
65F8
330
62F7
100
AcDbEntity
  8
30
  6
CONTINUOUS
 62
     0
100
AcDbLine
 10
293.2686943081847
 20
-2.0
 30
0.0
 11
293.2686943081847
 21
-245.1666666666666
 31
0.0
  0
LINE
  5
65F9
330
62F7
100
AcDbEntity
  8
30
  6
CONTINUOUS
 62
     0
100
AcDbLine
 10
212.7686943081848
 20
-2.0
 30
0.0
 11
212.7686943081847
 21
-245.1666666666666
 31
0.0
  0
LINE
  5
65FA
330
62F7
100
AcDbEntity
  8
30
  6
CONTINUOUS
 62
     0
100
AcDbLine
 10
291.2686943081848
 20
-244.6666666666666
 30
0.0
 11
214.7686943081847
 21
-244.6666666666666
 31
0.0
  0
INSERT
  5
65FB
330
62F7
100
AcDbEntity
  8
30
  6
CONTINUOUS
 62
     0
100
AcDbBlockReference
  2
_OPEN
 10
293.2686943081847
 20
-244.6666666666666
 30
0.0
 41
2.0
 42
2.0
 43
2.0
  0
INSERT
  5
65FC
330
62F7
100
AcDbEntity
  8
30
  6
CONTINUOUS
 62
     0
100
AcDbBlockReference
  2
_OPEN
 10
212.7686943081847
 20
-244.6666666666666
 30
0.0
 41
2.0
 42
2.0
 43
2.0
 50
180.0
  0
MTEXT
  5
65FD
330
62F7
100
AcDbEntity
  8
30
  6
CONTINUOUS
 62
     0
100
AcDbMText
 10
253.0186943081848
 20
-241.1666666666666
 30
0.0
 40
5.0
 41
0.0
 71
     5
 72
     1
  1
\A1;80.5
1001
ACAD
1000
MTEXTBEGIN
1070
    73
1070
     1
1070
    44
1040
1.0
1070
    74
1070
     0
1000
MTEXTEND
  0
POINT
  5
65FE
330
62F7
100
AcDbEntity
  8
DEFPOINTS
  6
CONTINUOUS
 62
     0
100
AcDbPoint
 10
293.2686943081847
 20
-1.0
 30
0.0
  0
POINT
  5
65FF
330
62F7
100
AcDbEntity
  8
DEFPOINTS
  6
CONTINUOUS
 62
     0
100
AcDbPoint
 10
212.7686943081848
 20
-1.0
 30
0.0
  0
POINT
  5
6600
330
62F7
100
AcDbEntity
  8
DEFPOINTS
  6
CONTINUOUS
 62
     0
100
AcDbPoint
 10
212.7686943081847
 20
-244.6666666666666
 30
0.0
  0
ENDBLK
  5
6302
330
62F7
100
AcDbEntity
  8
0
100
AcDbBlockEnd
  0
BLOCK
  5
636C
330
6362
100
AcDbEntity
  8
0
100
AcDbBlockBegin
  2
*D21
 70
     1
 10
0.0
 20
0.0
 30
0.0
  3
*D21
  1

  0
LINE
  5
6363
330
6362
100
AcDbEntity
  8
30
  6
CONTINUOUS
 62
     0
100
AcDbLine
 10
-44.10003662109
 20
-374.0
 30
0.0
 11
-136.4999999999999
 21
-373.9999999999999
 31
0.0
  0
LINE
  5
6364
330
6362
100
AcDbEntity
  8
30
  6
CONTINUOUS
 62
     0
100
AcDbLine
 10
-106.0
 20
-500.0
 30
0.0
 11
-136.4999999999999
 21
-499.9999999999999
 31
0.0
  0
LINE
  5
6365
330
6362
100
AcDbEntity
  8
30
  6
CONTINUOUS
 62
     0
100
AcDbLine
 10
-135.9999999999999
 20
-375.9999999999999
 30
0.0
 11
-136.0
 21
-497.9999999999999
 31
0.0
  0
INSERT
  5
6366
330
6362
100
AcDbEntity
  8
30
  6
CONTINUOUS
 62
     0
100
AcDbBlockReference
  2
_OPEN
 10
-135.9999999999999
 20
-373.9999999999999
 30
0.0
 41
2.0
 42
2.0
 43
2.0
 50
90.0
  0
INSERT
  5
6367
330
6362
100
AcDbEntity
  8
30
  6
CONTINUOUS
 62
     0
100
AcDbBlockReference
  2
_OPEN
 10
-136.0
 20
-499.9999999999999
 30
0.0
 41
2.0
 42
2.0
 43
2.0
 50
270.0
  0
MTEXT
  5
6368
330
6362
100
AcDbEntity
  8
30
  6
CONTINUOUS
 62
     0
100
AcDbMText
 10
-139.4999999999999
 20
-437.0
 30
0.0
 40
5.0
 41
0.0
 71
     5
 72
     1
  1
\A1;126
 11
0.0000000000000001
 21
1.0
 31
0.0
1001
ACAD
1000
MTEXTBEGIN
1070
    73
1070
     1
1070
    44
1040
1.0
1070
    74
1070
     0
1000
MTEXTEND
  0
POINT
  5
6369
330
6362
100
AcDbEntity
  8
DEFPOINTS
  6
CONTINUOUS
 62
     0
100
AcDbPoint
 10
-43.10003662108999
 20
-374.0
 30
0.0
  0
POINT
  5
636A
330
6362
100
AcDbEntity
  8
DEFPOINTS
  6
CONTINUOUS
 62
     0
100
AcDbPoint
 10
-105.0
 20
-500.0
 30
0.0
  0
POINT
  5
636B
330
6362
100
AcDbEntity
  8
DEFPOINTS
  6
CONTINUOUS
 62
     0
100
AcDbPoint
 10
-136.0
 20
-499.9999999999999
 30
0.0
  0
ENDBLK
  5
636D
330
6362
100
AcDbEntity
  8
0
100
AcDbBlockEnd
  0
BLOCK
  5
6379
330
636F
100
AcDbEntity
  8
0
100
AcDbBlockBegin
  2
*D22
 70
     1
 10
0.0
 20
0.0
 30
0.0
  3
*D22
  1

  0
LINE
  5
6978
330
636F
100
AcDbEntity
  8
30
  6
CONTINUOUS
 62
     0
100
AcDbLine
 10
-106.0
 20
-500.0
 30
0.0
 11
-136.4999999999999
 21
-499.9999999999999
 31
0.0
  0
LINE
  5
6979
330
636F
100
AcDbEntity
  8
30
  6
CONTINUOUS
 62
     0
100
AcDbLine
 10
-44.10003662109
 20
-617.0
 30
0.0
 11
-136.5
 21
-617.0
 31
0.0
  0
LINE
  5
697A
330
636F
100
AcDbEntity
  8
30
  6
CONTINUOUS
 62
     0
100
AcDbLine
 10
-136.0
 20
-501.9999999999999
 30
0.0
 11
-136.0
 21
-615.0
 31
0.0
  0
INSERT
  5
697B
330
636F
100
AcDbEntity
  8
30
  6
CONTINUOUS
 62
     0
100
AcDbBlockReference
  2
_OPEN
 10
-136.0
 20
-499.9999999999999
 30
0.0
 41
2.0
 42
2.0
 43
2.0
 50
90.0
  0
INSERT
  5
697C
330
636F
100
AcDbEntity
  8
30
  6
CONTINUOUS
 62
     0
100
AcDbBlockReference
  2
_OPEN
 10
-136.0
 20
-617.0
 30
0.0
 41
2.0
 42
2.0
 43
2.0
 50
270.0
  0
MTEXT
  5
697D
330
636F
100
AcDbEntity
  8
30
  6
CONTINUOUS
 62
     0
100
AcDbMText
 10
-139.4999999999999
 20
-558.4999999999999
 30
0.0
 40
5.0
 41
0.0
 71
     5
 72
     1
  1
\A1;117
 11
0.0000000000000001
 21
1.0
 31
0.0
  0
POINT
  5
697E
330
636F
100
AcDbEntity
  8
DEFPOINTS
  6
CONTINUOUS
 62
     0
100
AcDbPoint
 10
-105.0
 20
-500.0
 30
0.0
  0
POINT
  5
697F
330
636F
100
AcDbEntity
  8
DEFPOINTS
  6
CONTINUOUS
 62
     0
100
AcDbPoint
 10
-43.10003662108999
 20
-617.0
 30
0.0
  0
POINT
  5
6980
330
636F
100
AcDbEntity
  8
DEFPOINTS
  6
CONTINUOUS
 62
     0
100
AcDbPoint
 10
-136.0
 20
-617.0
 30
0.0
  0
ENDBLK
  5
637A
330
636F
100
AcDbEntity
  8
0
100
AcDbBlockEnd
  0
BLOCK
  5
63C1
330
63B8
100
AcDbEntity
  8
0
100
AcDbBlockBegin
  2
*D23
 70
     1
 10
0.0
 20
0.0
 30
0.0
  3
*D23
  1

  0
LINE
  5
667F
330
63B8
100
AcDbEntity
  8
30
  6
CONTINUOUS
 62
     0
100
AcDbLine
 10
373.9999999999997
 20
-437.9999999999998
 30
0.0
 11
357.9999999999997
 21
-437.9999999999998
 31
0.0
  0
LINE
  5
6680
330
63B8
100
AcDbEntity
  8
30
  6
CONTINUOUS
 62
     0
100
AcDbLine
 10
357.9999999999997
 20
-437.9999999999998
 30
0.0
 11
353.187936011143
 21
-452.4361919665706
 31
0.0
  0
MTEXT
  5
6681
330
63B8
100
AcDbEntity
  8
30
  6
CONTINUOUS
 62
     0
100
AcDbMText
 10
366.4999999999996
 20
-434.4999999999997
 30
0.0
 40
5.0
 41
0.0
 71
     5
 72
     1
  1
\A1;R6.5
1001
ACAD
1000
MTEXTBEGIN
1070
    73
1070
     1
1070
    44
1040
1.0
1070
    74
1070
     0
1000
MTEXTEND
  0
INSERT
  5
6682
330
63B8
100
AcDbEntity
  8
30
  6
CONTINUOUS
 62
     0
100
AcDbBlockReference
  2
_OPEN
 10
352.5554804791094
 20
-454.3335585626716
 30
0.0
 41
2.0
 42
2.0
 43
2.0
 50
251.5650511770789
  0
LINE
  5
6683
330
63B8
100
AcDbEntity
  8
30
  6
CONTINUOUS
 62
     0
100
AcDbLine
 10
350.4100000000001
 20
-460.5000000000002
 30
0.0
 11
350.59
 21
-460.5000000000002
 31
0.0
  0
LINE
  5
6684
330
63B8
100
AcDbEntity
  8
30
  6
CONTINUOUS
 62
     0
100
AcDbLine
 10
350.4999999999999
 20
-460.5900000000002
 30
0.0
 11
350.4999999999999
 21
-460.4100000000003
 31
0.0
  0
POINT
  5
6685
330
63B8
100
AcDbEntity
  8
DEFPOINTS
  6
CONTINUOUS
 62
     0
100
AcDbPoint
 10
352.5554804791094
 20
-454.3335585626716
 30
0.0
  0
POINT
  5
6686
330
63B8
100
AcDbEntity
  8
DEFPOINTS
  6
CONTINUOUS
 62
     0
100
AcDbPoint
 10
350.4999999999999
 20
-460.5000000000003
 30
0.0
  0
ENDBLK
  5
63C2
330
63B8
100
AcDbEntity
  8
0
100
AcDbBlockEnd
  0
BLOCK
  5
6531
330
6527
100
AcDbEntity
  8
0
100
AcDbBlockBegin
  2
*D24
 70
     1
 10
0.0
 20
0.0
 30
0.0
  3
*D24
  1

  0
LINE
  5
6528
330
6527
100
AcDbEntity
  8
30
  6
CONTINUOUS
 62
     0
100
AcDbLine
 10
-106.0
 20
413.0
 30
0.0
 11
-119.4999999999999
 21
413.0
 31
0.0
  0
LINE
  5
6529
330
6527
100
AcDbEntity
  8
30
  6
CONTINUOUS
 62
     0
100
AcDbLine
 10
-106.0
 20
310.0
 30
0.0
 11
-119.5
 21
310.0
 31
0.0
  0
LINE
  5
652A
330
6527
100
AcDbEntity
  8
30
  6
CONTINUOUS
 62
     0
100
AcDbLine
 10
-118.9999999999999
 20
411.0
 30
0.0
 11
-119.0
 21
312.0
 31
0.0
  0
INSERT
  5
652B
330
6527
100
AcDbEntity
  8
30
  6
CONTINUOUS
 62
     0
100
AcDbBlockReference
  2
_OPEN
 10
-118.9999999999999
 20
413.0
 30
0.0
 41
2.0
 42
2.0
 43
2.0
 50
90.0
  0
INSERT
  5
652C
330
6527
100
AcDbEntity
  8
30
  6
CONTINUOUS
 62
     0
100
AcDbBlockReference
  2
_OPEN
 10
-119.0
 20
310.0
 30
0.0
 41
2.0
 42
2.0
 43
2.0
 50
270.0
  0
MTEXT
  5
652D
330
6527
100
AcDbEntity
  8
30
  6
CONTINUOUS
 62
     0
100
AcDbMText
 10
-122.5
 20
361.5
 30
0.0
 40
5.0
 41
0.0
 71
     5
 72
     1
  1
\A1;103
 11
0.0000000000000001
 21
1.0
 31
0.0
1001
ACAD
1000
MTEXTBEGIN
1070
    73
1070
     1
1070
    44
1040
1.0
1070
    74
1070
     0
1000
MTEXTEND
  0
POINT
  5
652E
330
6527
100
AcDbEntity
  8
DEFPOINTS
  6
CONTINUOUS
 62
     0
100
AcDbPoint
 10
-105.0
 20
413.0
 30
0.0
  0
POINT
  5
652F
330
6527
100
AcDbEntity
  8
DEFPOINTS
  6
CONTINUOUS
 62
     0
100
AcDbPoint
 10
-105.0
 20
310.0
 30
0.0
  0
POINT
  5
6530
330
6527
100
AcDbEntity
  8
DEFPOINTS
  6
CONTINUOUS
 62
     0
100
AcDbPoint
 10
-119.0
 20
310.0
 30
0.0
  0
ENDBLK
  5
6532
330
6527
100
AcDbEntity
  8
0
100
AcDbBlockEnd
  0
BLOCK
  5
658D
330
6583
100
AcDbEntity
  8
0
100
AcDbBlockBegin
  2
*D25
 70
     1
 10
0.0
 20
0.0
 30
0.0
  3
*D25
  1

  0
LINE
  5
6718
330
6583
100
AcDbEntity
  8
30
  6
CONTINUOUS
 62
     0
100
AcDbLine
 10
151.33312988281
 20
174.0
 30
0.0
 11
178.4999999999999
 21
174.0
 31
0.0
  0
LINE
  5
6719
330
6583
100
AcDbEntity
  8
30
  6
CONTINUOUS
 62
     0
100
AcDbLine
 10
148.5
 20
206.0
 30
0.0
 11
178.5
 21
206.0
 31
0.0
  0
LINE
  5
671A
330
6583
100
AcDbEntity
  8
30
  6
CONTINUOUS
 62
     0
100
AcDbLine
 10
177.9999999999999
 20
176.0
 30
0.0
 11
178.0
 21
204.0
 31
0.0
  0
INSERT
  5
671B
330
6583
100
AcDbEntity
  8
30
  6
CONTINUOUS
 62
     0
100
AcDbBlockReference
  2
_OPEN
 10
177.9999999999999
 20
174.0
 30
0.0
 41
2.0
 42
2.0
 43
2.0
 50
270.0
  0
INSERT
  5
671C
330
6583
100
AcDbEntity
  8
30
  6
CONTINUOUS
 62
     0
100
AcDbBlockReference
  2
_OPEN
 10
178.0
 20
206.0
 30
0.0
 41
2.0
 42
2.0
 43
2.0
 50
90.0
  0
MTEXT
  5
671D
330
6583
100
AcDbEntity
  8
30
  6
CONTINUOUS
 62
     0
100
AcDbMText
 10
174.4999999999999
 20
190.0
 30
0.0
 40
5.0
 41
0.0
 71
     5
 72
     1
  1
\A1;32
 11
0.0000000000000001
 21
1.0
 31
0.0
1001
ACAD
1000
MTEXTBEGIN
1070
    73
1070
     1
1070
    44
1040
1.0
1070
    74
1070
     0
1000
MTEXTEND
  0
POINT
  5
671E
330
6583
100
AcDbEntity
  8
DEFPOINTS
  6
CONTINUOUS
 62
     0
100
AcDbPoint
 10
150.33312988281
 20
174.0
 30
0.0
  0
POINT
  5
671F
330
6583
100
AcDbEntity
  8
DEFPOINTS
  6
CONTINUOUS
 62
     0
100
AcDbPoint
 10
147.5
 20
206.0
 30
0.0
  0
POINT
  5
6720
330
6583
100
AcDbEntity
  8
DEFPOINTS
  6
CONTINUOUS
 62
     0
100
AcDbPoint
 10
178.0
 20
206.0
 30
0.0
  0
ENDBLK
  5
658E
330
6583
100
AcDbEntity
  8
0
100
AcDbBlockEnd
  0
BLOCK
  5
6599
330
658F
100
AcDbEntity
  8
0
100
AcDbBlockBegin
  2
*D26
 70
     1
 10
0.0
 20
0.0
 30
0.0
  3
*D26
  1

  0
LINE
  5
672A
330
658F
100
AcDbEntity
  8
30
  6
CONTINUOUS
 62
     0
100
AcDbLine
 10
153.8799438476599
 20
166.0
 30
0.0
 11
178.5
 21
166.0
 31
0.0
  0
LINE
  5
672B
330
658F
100
AcDbEntity
  8
30
  6
CONTINUOUS
 62
     0
100
AcDbLine
 10
151.33312988281
 20
174.0
 30
0.0
 11
178.5
 21
174.0
 31
0.0
  0
LINE
  5
672C
330
658F
100
AcDbEntity
  8
30
  6
CONTINUOUS
 62
     0
100
AcDbLine
 10
178.0
 20
168.0
 30
0.0
 11
178.0
 21
172.0
 31
0.0
  0
INSERT
  5
672D
330
658F
100
AcDbEntity
  8
30
  6
CONTINUOUS
 62
     0
100
AcDbBlockReference
  2
_OPEN
 10
178.0
 20
166.0
 30
0.0
 41
2.0
 42
2.0
 43
2.0
 50
270.0
  0
INSERT
  5
672E
330
658F
100
AcDbEntity
  8
30
  6
CONTINUOUS
 62
     0
100
AcDbBlockReference
  2
_OPEN
 10
178.0
 20
174.0
 30
0.0
 41
2.0
 42
2.0
 43
2.0
 50
90.0
  0
MTEXT
  5
672F
330
658F
100
AcDbEntity
  8
30
  6
CONTINUOUS
 62
     0
100
AcDbMText
 10
174.4999999999999
 20
170.0
 30
0.0
 40
5.0
 41
0.0
 71
     5
 72
     1
  1
\A1;8
 11
0.0000000000000001
 21
1.0
 31
0.0
1001
ACAD
1000
MTEXTBEGIN
1070
    73
1070
     1
1070
    44
1040
1.0
1070
    74
1070
     0
1000
MTEXTEND
  0
POINT
  5
6730
330
658F
100
AcDbEntity
  8
DEFPOINTS
  6
CONTINUOUS
 62
     0
100
AcDbPoint
 10
152.87994384766
 20
166.0
 30
0.0
  0
POINT
  5
6731
330
658F
100
AcDbEntity
  8
DEFPOINTS
  6
CONTINUOUS
 62
     0
100
AcDbPoint
 10
150.33312988281
 20
174.0
 30
0.0
  0
POINT
  5
6732
330
658F
100
AcDbEntity
  8
DEFPOINTS
  6
CONTINUOUS
 62
     0
100
AcDbPoint
 10
178.0
 20
174.0
 30
0.0
  0
ENDBLK
  5
659A
330
658F
100
AcDbEntity
  8
0
100
AcDbBlockEnd
  0
BLOCK
  5
65A5
330
659B
100
AcDbEntity
  8
0
100
AcDbBlockBegin
  2
*D27
 70
     1
 10
0.0
 20
0.0
 30
0.0
  3
*D27
  1

  0
LINE
  5
6745
330
659B
100
AcDbEntity
  8
30
  6
CONTINUOUS
 62
     0
100
AcDbLine
 10
154.8799438476599
 20
166.0
 30
0.0
 11
178.5
 21
166.0
 31
0.0
  0
LINE
  5
6746
330
659B
100
AcDbEntity
  8
30
  6
CONTINUOUS
 62
     0
100
AcDbLine
 10
162.0
 20
141.0
 30
0.0
 11
178.5
 21
141.0
 31
0.0
  0
LINE
  5
6747
330
659B
100
AcDbEntity
  8
30
  6
CONTINUOUS
 62
     0
100
AcDbLine
 10
178.0
 20
164.0
 30
0.0
 11
178.0
 21
143.0
 31
0.0
  0
INSERT
  5
6748
330
659B
100
AcDbEntity
  8
30
  6
CONTINUOUS
 62
     0
100
AcDbBlockReference
  2
_OPEN
 10
178.0
 20
166.0
 30
0.0
 41
2.0
 42
2.0
 43
2.0
 50
90.0
  0
INSERT
  5
6749
330
659B
100
AcDbEntity
  8
30
  6
CONTINUOUS
 62
     0
100
AcDbBlockReference
  2
_OPEN
 10
178.0
 20
141.0
 30
0.0
 41
2.0
 42
2.0
 43
2.0
 50
270.0
  0
MTEXT
  5
674A
330
659B
100
AcDbEntity
  8
30
  6
CONTINUOUS
 62
     0
100
AcDbMText
 10
174.4999999999999
 20
153.5
 30
0.0
 40
5.0
 41
0.0
 71
     5
 72
     1
  1
\A1;25
 11
0.0000000000000001
 21
1.0
 31
0.0
1001
ACAD
1000
MTEXTBEGIN
1070
    73
1070
     1
1070
    44
1040
1.0
1070
    74
1070
     0
1000
MTEXTEND
  0
POINT
  5
674B
330
659B
100
AcDbEntity
  8
DEFPOINTS
  6
CONTINUOUS
 62
     0
100
AcDbPoint
 10
153.8799438476599
 20
166.0
 30
0.0
  0
POINT
  5
674C
330
659B
100
AcDbEntity
  8
DEFPOINTS
  6
CONTINUOUS
 62
     0
100
AcDbPoint
 10
161.0
 20
141.0
 30
0.0
  0
POINT
  5
674D
330
659B
100
AcDbEntity
  8
DEFPOINTS
  6
CONTINUOUS
 62
     0
100
AcDbPoint
 10
178.0
 20
141.0
 30
0.0
  0
ENDBLK
  5
65A6
330
659B
100
AcDbEntity
  8
0
100
AcDbBlockEnd
  0
BLOCK
  5
65B1
330
65A7
100
AcDbEntity
  8
0
100
AcDbBlockBegin
  2
*D28
 70
     1
 10
0.0
 20
0.0
 30
0.0
  3
*D28
  1

  0
LINE
  5
673C
330
65A7
100
AcDbEntity
  8
30
  6
CONTINUOUS
 62
     0
100
AcDbLine
 10
162.0
 20
220.9999999999999
 30
0.0
 11
199.5
 21
220.9999999999999
 31
0.0
  0
LINE
  5
673D
330
65A7
100
AcDbEntity
  8
30
  6
CONTINUOUS
 62
     0
100
AcDbLine
 10
161.0
 20
141.0
 30
0.0
 11
199.5
 21
140.9999999999999
 31
0.0
  0
LINE
  5
673E
330
65A7
100
AcDbEntity
  8
30
  6
CONTINUOUS
 62
     0
100
AcDbLine
 10
199.0
 20
218.9999999999999
 30
0.0
 11
199.0
 21
142.9999999999999
 31
0.0
  0
INSERT
  5
673F
330
65A7
100
AcDbEntity
  8
30
  6
CONTINUOUS
 62
     0
100
AcDbBlockReference
  2
_OPEN
 10
199.0
 20
220.9999999999999
 30
0.0
 41
2.0
 42
2.0
 43
2.0
 50
90.0
  0
INSERT
  5
6740
330
65A7
100
AcDbEntity
  8
30
  6
CONTINUOUS
 62
     0
100
AcDbBlockReference
  2
_OPEN
 10
199.0
 20
140.9999999999999
 30
0.0
 41
2.0
 42
2.0
 43
2.0
 50
270.0
  0
MTEXT
  5
6741
330
65A7
100
AcDbEntity
  8
30
  6
CONTINUOUS
 62
     0
100
AcDbMText
 10
195.4999999999999
 20
181.0
 30
0.0
 40
5.0
 41
0.0
 71
     5
 72
     1
  1
\A1;80
 11
0.0000000000000001
 21
1.0
 31
0.0
1001
ACAD
1000
MTEXTBEGIN
1070
    73
1070
     1
1070
    44
1040
1.0
1070
    74
1070
     0
1000
MTEXTEND
  0
POINT
  5
6742
330
65A7
100
AcDbEntity
  8
DEFPOINTS
  6
CONTINUOUS
 62
     0
100
AcDbPoint
 10
161.0
 20
220.9999999999999
 30
0.0
  0
POINT
  5
6743
330
65A7
100
AcDbEntity
  8
DEFPOINTS
  6
CONTINUOUS
 62
     0
100
AcDbPoint
 10
160.0
 20
141.0
 30
0.0
  0
POINT
  5
6744
330
65A7
100
AcDbEntity
  8
DEFPOINTS
  6
CONTINUOUS
 62
     0
100
AcDbPoint
 10
199.0
 20
140.9999999999999
 30
0.0
  0
ENDBLK
  5
65B2
330
65A7
100
AcDbEntity
  8
0
100
AcDbBlockEnd
  0
BLOCK
  5
65BD
330
65B3
100
AcDbEntity
  8
0
100
AcDbBlockBegin
  2
*D29
 70
     1
 10
0.0
 20
0.0
 30
0.0
  3
*D29
  1

  0
LINE
  5
6706
330
65B3
100
AcDbEntity
  8
30
  6
CONTINUOUS
 62
     0
100
AcDbLine
 10
161.0
 20
220.9999999999999
 30
0.0
 11
178.5
 21
220.9999999999999
 31
0.0
  0
LINE
  5
6707
330
65B3
100
AcDbEntity
  8
30
  6
CONTINUOUS
 62
     0
100
AcDbLine
 10
147.5
 20
206.0
 30
0.0
 11
178.5
 21
206.0
 31
0.0
  0
LINE
  5
6708
330
65B3
100
AcDbEntity
  8
30
  6
CONTINUOUS
 62
     0
100
AcDbLine
 10
178.0
 20
218.9999999999999
 30
0.0
 11
178.0
 21
208.0
 31
0.0
  0
INSERT
  5
6709
330
65B3
100
AcDbEntity
  8
30
  6
CONTINUOUS
 62
     0
100
AcDbBlockReference
  2
_OPEN
 10
178.0
 20
220.9999999999999
 30
0.0
 41
2.0
 42
2.0
 43
2.0
 50
90.0
  0
INSERT
  5
670A
330
65B3
100
AcDbEntity
  8
30
  6
CONTINUOUS
 62
     0
100
AcDbBlockReference
  2
_OPEN
 10
178.0
 20
206.0
 30
0.0
 41
2.0
 42
2.0
 43
2.0
 50
270.0
  0
MTEXT
  5
670B
330
65B3
100
AcDbEntity
  8
30
  6
CONTINUOUS
 62
     0
100
AcDbMText
 10
174.4999999999999
 20
213.5
 30
0.0
 40
5.0
 41
0.0
 71
     5
 72
     1
  1
\A1;15
 11
0.0000000000000001
 21
1.0
 31
0.0
1001
ACAD
1000
MTEXTBEGIN
1070
    73
1070
     1
1070
    44
1040
1.0
1070
    74
1070
     0
1000
MTEXTEND
  0
POINT
  5
670C
330
65B3
100
AcDbEntity
  8
DEFPOINTS
  6
CONTINUOUS
 62
     0
100
AcDbPoint
 10
160.0
 20
220.9999999999999
 30
0.0
  0
POINT
  5
670D
330
65B3
100
AcDbEntity
  8
DEFPOINTS
  6
CONTINUOUS
 62
     0
100
AcDbPoint
 10
146.5
 20
206.0
 30
0.0
  0
POINT
  5
670E
330
65B3
100
AcDbEntity
  8
DEFPOINTS
  6
CONTINUOUS
 62
     0
100
AcDbPoint
 10
178.0
 20
206.0
 30
0.0
  0
ENDBLK
  5
65BE
330
65B3
100
AcDbEntity
  8
0
100
AcDbBlockEnd
  0
BLOCK
  5
66EA
330
66E1
100
AcDbEntity
  8
0
100
AcDbBlockBegin
  2
*D30
 70
     1
 10
0.0
 20
0.0
 30
0.0
  3
*D30
  1

  0
LINE
  5
66EC
330
66E1
100
AcDbEntity
  8
30
  6
CONTINUOUS
 62
     0
100
AcDbLine
 10
183.6666666666669
 20
238.0
 30
0.0
 11
171.0000000000001
 21
238.0
 31
0.0
  0
LINE
  5
66ED
330
66E1
100
AcDbEntity
  8
30
  6
CONTINUOUS
 62
     0
100
AcDbLine
 10
171.0000000000001
 20
238.0
 30
0.0
 11
145.9142593345295
 21
212.1050418937079
 31
0.0
  0
MTEXT
  5
66EE
330
66E1
100
AcDbEntity
  8
30
  6
CONTINUOUS
 62
     0
100
AcDbMText
 10
177.8333333333336
 20
241.5
 30
0.0
 40
5.0
 41
0.0
 71
     5
 72
     1
  1
\A1;\U+220513
1001
ACAD
1000
MTEXTBEGIN
1070
    73
1070
     1
1070
    44
1040
1.0
1070
    74
1070
     0
1000
MTEXTEND
  0
INSERT
  5
66EF
330
66E1
100
AcDbEntity
  8
30
  6
CONTINUOUS
 62
     0
100
AcDbBlockReference
  2
_OPEN
 10
144.5226689028755
 20
210.6685614481296
 30
0.0
 41
2.0
 42
2.0
 43
2.0
 50
225.909380449199
  0
LINE
  5
66F0
330
66E1
100
AcDbEntity
  8
30
  6
CONTINUOUS
 62
     0
100
AcDbLine
 10
139.91
 20
206.0
 30
0.0
 11
140.0899999999999
 21
206.0
 31
0.0
  0
LINE
  5
66F1
330
66E1
100
AcDbEntity
  8
30
  6
CONTINUOUS
 62
     0
100
AcDbLine
 10
139.9999999999999
 20
205.9099999999999
 30
0.0
 11
140.0
 21
206.0899999999999
 31
0.0
  0
POINT
  5
66F2
330
66E1
100
AcDbEntity
  8
DEFPOINTS
  6
CONTINUOUS
 62
     0
100
AcDbPoint
 10
144.5226689028755
 20
210.6685614481296
 30
0.0
  0
POINT
  5
66F3
330
66E1
100
AcDbEntity
  8
DEFPOINTS
  6
CONTINUOUS
 62
     0
100
AcDbPoint
 10
135.4773310971244
 20
201.3314385518704
 30
0.0
  0
ENDBLK
  5
66EB
330
66E1
100
AcDbEntity
  8
0
100
AcDbBlockEnd
  0
BLOCK
  5
6765
330
675B
100
AcDbEntity
  8
0
100
AcDbBlockBegin
  2
*D31
 70
     1
 10
0.0
 20
0.0
 30
0.0
  3
*D31
  1

  0
LINE
  5
6793
330
675B
100
AcDbEntity
  8
30
  6
CONTINUOUS
 62
     0
100
AcDbLine
 10
120.0
 20
-213.0
 30
0.0
 11
120.0
 21
-227.0
 31
0.0
  0
LINE
  5
6794
330
675B
100
AcDbEntity
  8
30
  6
CONTINUOUS
 62
     0
100
AcDbLine
 10
160.0
 20
-213.0
 30
0.0
 11
160.0
 21
-227.0
 31
0.0
  0
LINE
  5
6795
330
675B
100
AcDbEntity
  8
30
  6
CONTINUOUS
 62
     0
100
AcDbLine
 10
122.0
 20
-226.5
 30
0.0
 11
158.0
 21
-226.5
 31
0.0
  0
INSERT
  5
6796
330
675B
100
AcDbEntity
  8
30
  6
CONTINUOUS
 62
     0
100
AcDbBlockReference
  2
_OPEN
 10
120.0
 20
-226.5
 30
0.0
 41
2.0
 42
2.0
 43
2.0
 50
180.0
  0
INSERT
  5
6797
330
675B
100
AcDbEntity
  8
30
  6
CONTINUOUS
 62
     0
100
AcDbBlockReference
  2
_OPEN
 10
160.0
 20
-226.5
 30
0.0
 41
2.0
 42
2.0
 43
2.0
  0
MTEXT
  5
6798
330
675B
100
AcDbEntity
  8
30
  6
CONTINUOUS
 62
     0
100
AcDbMText
 10
140.0
 20
-223.0
 30
0.0
 40
5.0
 41
0.0
 71
     5
 72
     1
  1
\A1;40
1001
ACAD
1000
MTEXTBEGIN
1070
    73
1070
     1
1070
    44
1040
1.0
1070
    74
1070
     0
1000
MTEXTEND
  0
POINT
  5
6799
330
675B
100
AcDbEntity
  8
DEFPOINTS
  6
CONTINUOUS
 62
     0
100
AcDbPoint
 10
120.0
 20
-212.0
 30
0.0
  0
POINT
  5
679A
330
675B
100
AcDbEntity
  8
DEFPOINTS
  6
CONTINUOUS
 62
     0
100
AcDbPoint
 10
160.0
 20
-212.0
 30
0.0
  0
POINT
  5
679B
330
675B
100
AcDbEntity
  8
DEFPOINTS
  6
CONTINUOUS
 62
     0
100
AcDbPoint
 10
160.0
 20
-226.5
 30
0.0
  0
ENDBLK
  5
6766
330
675B
100
AcDbEntity
  8
0
100
AcDbBlockEnd
  0
BLOCK
  5
677B
330
6771
100
AcDbEntity
  8
0
100
AcDbBlockBegin
  2
*D32
 70
     1
 10
0.0
 20
0.0
 30
0.0
  3
*D32
  1

  0
LINE
  5
67A5
330
6771
100
AcDbEntity
  8
30
  6
CONTINUOUS
 62
     0
100
AcDbLine
 10
-0.0000000000000005
 20
-204.4999999999999
 30
0.0
 11
-0.0000000000000026
 21
-239.5
 31
0.0
  0
LINE
  5
67A6
330
6771
100
AcDbEntity
  8
30
  6
CONTINUOUS
 62
     0
100
AcDbLine
 10
70.0
 20
-204.4999999999999
 30
0.0
 11
70.0
 21
-239.5
 31
0.0
  0
LINE
  5
67A7
330
6771
100
AcDbEntity
  8
30
  6
CONTINUOUS
 62
     0
100
AcDbLine
 10
1.999999999999997
 20
-239.0
 30
0.0
 11
68.0
 21
-239.0
 31
0.0
  0
INSERT
  5
67A8
330
6771
100
AcDbEntity
  8
30
  6
CONTINUOUS
 62
     0
100
AcDbBlockReference
  2
_OPEN
 10
-0.0000000000000026
 20
-239.0
 30
0.0
 41
2.0
 42
2.0
 43
2.0
 50
180.0
  0
INSERT
  5
67A9
330
6771
100
AcDbEntity
  8
30
  6
CONTINUOUS
 62
     0
100
AcDbBlockReference
  2
_OPEN
 10
70.0
 20
-239.0
 30
0.0
 41
2.0
 42
2.0
 43
2.0
  0
MTEXT
  5
67AA
330
6771
100
AcDbEntity
  8
30
  6
CONTINUOUS
 62
     0
100
AcDbMText
 10
35.0
 20
-235.4999999999999
 30
0.0
 40
5.0
 41
0.0
 71
     5
 72
     1
  1
\A1;70
1001
ACAD
1000
MTEXTBEGIN
1070
    73
1070
     1
1070
    44
1040
1.0
1070
    74
1070
     0
1000
MTEXTEND
  0
POINT
  5
67AB
330
6771
100
AcDbEntity
  8
DEFPOINTS
  6
CONTINUOUS
 62
     0
100
AcDbPoint
 10
-0.0000000000000004
 20
-203.5
 30
0.0
  0
POINT
  5
67AC
330
6771
100
AcDbEntity
  8
DEFPOINTS
  6
CONTINUOUS
 62
     0
100
AcDbPoint
 10
70.0
 20
-203.5
 30
0.0
  0
POINT
  5
67AD
330
6771
100
AcDbEntity
  8
DEFPOINTS
  6
CONTINUOUS
 62
     0
100
AcDbPoint
 10
70.0
 20
-239.0
 30
0.0
  0
ENDBLK
  5
677C
330
6771
100
AcDbEntity
  8
0
100
AcDbBlockEnd
  0
BLOCK
  5
6788
330
677E
100
AcDbEntity
  8
0
100
AcDbBlockBegin
  2
*D33
 70
     1
 10
0.0
 20
0.0
 30
0.0
  3
*D33
  1

  0
LINE
  5
6981
330
677E
100
AcDbEntity
  8
30
  6
CONTINUOUS
 62
     0
100
AcDbLine
 10
70.0
 20
-204.4999999999999
 30
0.0
 11
70.0
 21
-239.5
 31
0.0
  0
LINE
  5
6982
330
677E
100
AcDbEntity
  8
30
  6
CONTINUOUS
 62
     0
100
AcDbLine
 10
140.0
 20
-239.0
 30
0.0
 11
140.0
 21
-238.5
 31
0.0
  0
LINE
  5
6983
330
677E
100
AcDbEntity
  8
30
  6
CONTINUOUS
 62
     0
100
AcDbLine
 10
72.0
 20
-239.0
 30
0.0
 11
138.0
 21
-239.0
 31
0.0
  0
INSERT
  5
6984
330
677E
100
AcDbEntity
  8
30
  6
CONTINUOUS
 62
     0
100
AcDbBlockReference
  2
_OPEN
 10
70.0
 20
-239.0
 30
0.0
 41
2.0
 42
2.0
 43
2.0
 50
180.0
  0
INSERT
  5
6985
330
677E
100
AcDbEntity
  8
30
  6
CONTINUOUS
 62
     0
100
AcDbBlockReference
  2
_OPEN
 10
140.0
 20
-239.0
 30
0.0
 41
2.0
 42
2.0
 43
2.0
  0
MTEXT
  5
6986
330
677E
100
AcDbEntity
  8
30
  6
CONTINUOUS
 62
     0
100
AcDbMText
 10
105.0
 20
-235.4999999999999
 30
0.0
 40
5.0
 41
0.0
 71
     5
 72
     1
  1
\A1;70
  0
POINT
  5
6987
330
677E
100
AcDbEntity
  8
DEFPOINTS
  6
CONTINUOUS
 62
     0
100
AcDbPoint
 10
70.0
 20
-203.5
 30
0.0
  0
POINT
  5
6988
330
677E
100
AcDbEntity
  8
DEFPOINTS
  6
CONTINUOUS
 62
     0
100
AcDbPoint
 10
140.0
 20
-240.0
 30
0.0
  0
POINT
  5
6989
330
677E
100
AcDbEntity
  8
DEFPOINTS
  6
CONTINUOUS
 62
     0
100
AcDbPoint
 10
140.0
 20
-239.0
 30
0.0
  0
ENDBLK
  5
6789
330
677E
100
AcDbEntity
  8
0
100
AcDbBlockEnd
  0
BLOCK
  5
67CB
330
67C1
100
AcDbEntity
  8
0
100
AcDbBlockBegin
  2
*D34
 70
     1
 10
0.0
 20
0.0
 30
0.0
  3
*D34
  1

  0
LINE
  5
67C2
330
67C1
100
AcDbEntity
  8
30
  6
CONTINUOUS
 62
     0
100
AcDbLine
 10
-105.0
 20
-134.0
 30
0.0
 11
-105.0
 21
-250.4999999999999
 31
0.0
  0
LINE
  5
67C3
330
67C1
100
AcDbEntity
  8
30
  6
CONTINUOUS
 62
     0
100
AcDbLine
 10
-0.000000000000002
 20
-213.0
 30
0.0
 11
-0.0000000000000043
 21
-250.4999999999999
 31
0.0
  0
LINE
  5
67C4
330
67C1
100
AcDbEntity
  8
30
  6
CONTINUOUS
 62
     0
100
AcDbLine
 10
-103.0
 20
-250.0
 30
0.0
 11
-2.000000000000004
 21
-250.0
 31
0.0
  0
INSERT
  5
67C5
330
67C1
100
AcDbEntity
  8
30
  6
CONTINUOUS
 62
     0
100
AcDbBlockReference
  2
_OPEN
 10
-105.0
 20
-250.0
 30
0.0
 41
2.0
 42
2.0
 43
2.0
 50
180.0
  0
INSERT
  5
67C6
330
67C1
100
AcDbEntity
  8
30
  6
CONTINUOUS
 62
     0
100
AcDbBlockReference
  2
_OPEN
 10
-0.0000000000000043
 20
-250.0
 30
0.0
 41
2.0
 42
2.0
 43
2.0
  0
MTEXT
  5
67C7
330
67C1
100
AcDbEntity
  8
30
  6
CONTINUOUS
 62
     0
100
AcDbMText
 10
-52.5
 20
-246.4999999999999
 30
0.0
 40
5.0
 41
0.0
 71
     5
 72
     1
  1
\A1;105
1001
ACAD
1000
MTEXTBEGIN
1070
    73
1070
     1
1070
    44
1040
1.0
1070
    74
1070
     0
1000
MTEXTEND
  0
POINT
  5
67C8
330
67C1
100
AcDbEntity
  8
DEFPOINTS
  6
CONTINUOUS
 62
     0
100
AcDbPoint
 10
-105.0
 20
-133.0
 30
0.0
  0
POINT
  5
67C9
330
67C1
100
AcDbEntity
  8
DEFPOINTS
  6
CONTINUOUS
 62
     0
100
AcDbPoint
 10
-0.000000000000002
 20
-212.0
 30
0.0
  0
POINT
  5
67CA
330
67C1
100
AcDbEntity
  8
DEFPOINTS
  6
CONTINUOUS
 62
     0
100
AcDbPoint
 10
-0.0000000000000043
 20
-250.0
 30
0.0
  0
ENDBLK
  5
67CC
330
67C1
100
AcDbEntity
  8
0
100
AcDbBlockEnd
  0
BLOCK
  5
67D8
330
67CE
100
AcDbEntity
  8
0
100
AcDbBlockBegin
  2
*D35
 70
     1
 10
0.0
 20
0.0
 30
0.0
  3
*D35
  1

  0
LINE
  5
698A
330
67CE
100
AcDbEntity
  8
30
  6
CONTINUOUS
 62
     0
100
AcDbLine
 10
-0.000000000000002
 20
-213.0
 30
0.0
 11
-0.0000000000000043
 21
-250.4999999999999
 31
0.0
  0
LINE
  5
698B
330
67CE
100
AcDbEntity
  8
30
  6
CONTINUOUS
 62
     0
100
AcDbLine
 10
175.0
 20
-134.0
 30
0.0
 11
175.0
 21
-250.4999999999999
 31
0.0
  0
LINE
  5
698C
330
67CE
100
AcDbEntity
  8
30
  6
CONTINUOUS
 62
     0
100
AcDbLine
 10
1.999999999999995
 20
-250.0
 30
0.0
 11
173.0
 21
-250.0
 31
0.0
  0
INSERT
  5
698D
330
67CE
100
AcDbEntity
  8
30
  6
CONTINUOUS
 62
     0
100
AcDbBlockReference
  2
_OPEN
 10
-0.0000000000000043
 20
-250.0
 30
0.0
 41
2.0
 42
2.0
 43
2.0
 50
180.0
  0
INSERT
  5
698E
330
67CE
100
AcDbEntity
  8
30
  6
CONTINUOUS
 62
     0
100
AcDbBlockReference
  2
_OPEN
 10
175.0
 20
-250.0
 30
0.0
 41
2.0
 42
2.0
 43
2.0
  0
MTEXT
  5
698F
330
67CE
100
AcDbEntity
  8
30
  6
CONTINUOUS
 62
     0
100
AcDbMText
 10
87.5
 20
-246.4999999999999
 30
0.0
 40
5.0
 41
0.0
 71
     5
 72
     1
  1
\A1;175
  0
POINT
  5
6990
330
67CE
100
AcDbEntity
  8
DEFPOINTS
  6
CONTINUOUS
 62
     0
100
AcDbPoint
 10
-0.000000000000002
 20
-212.0
 30
0.0
  0
POINT
  5
6991
330
67CE
100
AcDbEntity
  8
DEFPOINTS
  6
CONTINUOUS
 62
     0
100
AcDbPoint
 10
175.0
 20
-133.0
 30
0.0
  0
POINT
  5
6992
330
67CE
100
AcDbEntity
  8
DEFPOINTS
  6
CONTINUOUS
 62
     0
100
AcDbPoint
 10
175.0
 20
-250.0
 30
0.0
  0
ENDBLK
  5
67D9
330
67CE
100
AcDbEntity
  8
0
100
AcDbBlockEnd
  0
BLOCK
  5
690A
330
6900
100
AcDbEntity
  8
0
100
AcDbBlockBegin
  2
*D36
 70
     1
 10
0.0
 20
0.0
 30
0.0
  3
*D36
  1

  0
LINE
  5
6901
330
6900
100
AcDbEntity
  8
30
  6
CONTINUOUS
 62
     0
100
AcDbLine
 10
-106.0
 20
141.0
 30
0.0
 11
-136.4999999999999
 21
141.0
 31
0.0
  0
LINE
  5
6902
330
6900
100
AcDbEntity
  8
30
  6
CONTINUOUS
 62
     0
100
AcDbLine
 10
-106.0
 20
0.0000000000000003
 30
0.0
 11
-136.4999999999999
 21
0.0000000000000089
 31
0.0
  0
LINE
  5
6903
330
6900
100
AcDbEntity
  8
30
  6
CONTINUOUS
 62
     0
100
AcDbLine
 10
-135.9999999999999
 20
139.0
 30
0.0
 11
-136.0
 21
2.000000000000008
 31
0.0
  0
INSERT
  5
6904
330
6900
100
AcDbEntity
  8
30
  6
CONTINUOUS
 62
     0
100
AcDbBlockReference
  2
_OPEN
 10
-135.9999999999999
 20
141.0
 30
0.0
 41
2.0
 42
2.0
 43
2.0
 50
90.0
  0
INSERT
  5
6905
330
6900
100
AcDbEntity
  8
30
  6
CONTINUOUS
 62
     0
100
AcDbBlockReference
  2
_OPEN
 10
-136.0
 20
0.0000000000000088
 30
0.0
 41
2.0
 42
2.0
 43
2.0
 50
270.0
  0
MTEXT
  5
6906
330
6900
100
AcDbEntity
  8
30
  6
CONTINUOUS
 62
     0
100
AcDbMText
 10
-139.5
 20
70.49999999999998
 30
0.0
 40
5.0
 41
0.0
 71
     5
 72
     1
  1
\A1;141
 11
0.0000000000000001
 21
1.0
 31
0.0
1001
ACAD
1000
MTEXTBEGIN
1070
    73
1070
     1
1070
    44
1040
1.0
1070
    74
1070
     0
1000
MTEXTEND
  0
POINT
  5
6907
330
6900
100
AcDbEntity
  8
DEFPOINTS
  6
CONTINUOUS
 62
     0
100
AcDbPoint
 10
-105.0
 20
141.0
 30
0.0
  0
POINT
  5
6908
330
6900
100
AcDbEntity
  8
DEFPOINTS
  6
CONTINUOUS
 62
     0
100
AcDbPoint
 10
-105.0
 20
0.0
 30
0.0
  0
POINT
  5
6909
330
6900
100
AcDbEntity
  8
DEFPOINTS
  6
CONTINUOUS
 62
     0
100
AcDbPoint
 10
-136.0
 20
0.0000000000000088
 30
0.0
  0
ENDBLK
  5
690B
330
6900
100
AcDbEntity
  8
0
100
AcDbBlockEnd
  0
BLOCK
  5
6917
330
690D
100
AcDbEntity
  8
0
100
AcDbBlockBegin
  2
*D37
 70
     1
 10
0.0
 20
0.0
 30
0.0
  3
*D37
  1

  0
LINE
  5
6993
330
690D
100
AcDbEntity
  8
30
  6
CONTINUOUS
 62
     0
100
AcDbLine
 10
-106.0
 20
0.0000000000000003
 30
0.0
 11
-136.4999999999999
 21
0.0000000000000089
 31
0.0
  0
LINE
  5
6994
330
690D
100
AcDbEntity
  8
30
  6
CONTINUOUS
 62
     0
100
AcDbLine
 10
-106.0
 20
-132.0
 30
0.0
 11
-136.5
 21
-132.0
 31
0.0
  0
LINE
  5
6995
330
690D
100
AcDbEntity
  8
30
  6
CONTINUOUS
 62
     0
100
AcDbLine
 10
-136.0
 20
-1.999999999999991
 30
0.0
 11
-136.0
 21
-130.0
 31
0.0
  0
INSERT
  5
6996
330
690D
100
AcDbEntity
  8
30
  6
CONTINUOUS
 62
     0
100
AcDbBlockReference
  2
_OPEN
 10
-136.0
 20
0.0000000000000088
 30
0.0
 41
2.0
 42
2.0
 43
2.0
 50
90.0
  0
INSERT
  5
6997
330
690D
100
AcDbEntity
  8
30
  6
CONTINUOUS
 62
     0
100
AcDbBlockReference
  2
_OPEN
 10
-136.0
 20
-132.0
 30
0.0
 41
2.0
 42
2.0
 43
2.0
 50
270.0
  0
MTEXT
  5
6998
330
690D
100
AcDbEntity
  8
30
  6
CONTINUOUS
 62
     0
100
AcDbMText
 10
-139.5
 20
-66.00000000000001
 30
0.0
 40
5.0
 41
0.0
 71
     5
 72
     1
  1
\A1;132
 11
0.0000000000000001
 21
1.0
 31
0.0
  0
POINT
  5
6999
330
690D
100
AcDbEntity
  8
DEFPOINTS
  6
CONTINUOUS
 62
     0
100
AcDbPoint
 10
-105.0
 20
0.0
 30
0.0
  0
POINT
  5
699A
330
690D
100
AcDbEntity
  8
DEFPOINTS
  6
CONTINUOUS
 62
     0
100
AcDbPoint
 10
-105.0
 20
-132.0
 30
0.0
  0
POINT
  5
699B
330
690D
100
AcDbEntity
  8
DEFPOINTS
  6
CONTINUOUS
 62
     0
100
AcDbPoint
 10
-136.0
 20
-132.0
 30
0.0
  0
ENDBLK
  5
6918
330
690D
100
AcDbEntity
  8
0
100
AcDbBlockEnd
  0
BLOCK
  5
6924
330
691A
100
AcDbEntity
  8
0
100
AcDbBlockBegin
  2
*D38
 70
     1
 10
0.0
 20
0.0
 30
0.0
  3
*D38
  1

  0
LINE
  5
691B
330
691A
100
AcDbEntity
  8
30
  6
CONTINUOUS
 62
     0
100
AcDbLine
 10
-136.9999999999999
 20
141.0
 30
0.0
 11
-153.4999999999999
 21
141.0
 31
0.0
  0
LINE
  5
691C
330
691A
100
AcDbEntity
  8
30
  6
CONTINUOUS
 62
     0
100
AcDbLine
 10
-137.0
 20
-132.0
 30
0.0
 11
-153.5
 21
-132.0
 31
0.0
  0
LINE
  5
691D
330
691A
100
AcDbEntity
  8
30
  6
CONTINUOUS
 62
     0
100
AcDbLine
 10
-152.9999999999999
 20
139.0
 30
0.0
 11
-153.0
 21
-130.0
 31
0.0
  0
INSERT
  5
691E
330
691A
100
AcDbEntity
  8
30
  6
CONTINUOUS
 62
     0
100
AcDbBlockReference
  2
_OPEN
 10
-152.9999999999999
 20
141.0
 30
0.0
 41
2.0
 42
2.0
 43
2.0
 50
90.0
  0
INSERT
  5
691F
330
691A
100
AcDbEntity
  8
30
  6
CONTINUOUS
 62
     0
100
AcDbBlockReference
  2
_OPEN
 10
-153.0
 20
-132.0
 30
0.0
 41
2.0
 42
2.0
 43
2.0
 50
270.0
  0
MTEXT
  5
6920
330
691A
100
AcDbEntity
  8
30
  6
CONTINUOUS
 62
     0
100
AcDbMText
 10
-156.4999999999999
 20
4.499999999999981
 30
0.0
 40
5.0
 41
0.0
 71
     5
 72
     1
  1
\A1;273
 11
0.0000000000000001
 21
1.0
 31
0.0
1001
ACAD
1000
MTEXTBEGIN
1070
    73
1070
     1
1070
    44
1040
1.0
1070
    74
1070
     0
1000
MTEXTEND
  0
POINT
  5
6921
330
691A
100
AcDbEntity
  8
DEFPOINTS
  6
CONTINUOUS
 62
     0
100
AcDbPoint
 10
-135.9999999999999
 20
141.0
 30
0.0
  0
POINT
  5
6922
330
691A
100
AcDbEntity
  8
DEFPOINTS
  6
CONTINUOUS
 62
     0
100
AcDbPoint
 10
-136.0
 20
-132.0
 30
0.0
  0
POINT
  5
6923
330
691A
100
AcDbEntity
  8
DEFPOINTS
  6
CONTINUOUS
 62
     0
100
AcDbPoint
 10
-153.0
 20
-132.0
 30
0.0
  0
ENDBLK
  5
6925
330
691A
100
AcDbEntity
  8
0
100
AcDbBlockEnd
  0
ENDSEC
  0
SECTION
  2
ENTITIES
  0
LINE
  5
B4
330
1E
100
AcDbEntity
  8
16
100
AcDbLine
 10
-0.0000000000000021
 20
-239.0
 30
0.0
 11
0.0
 21
245.0
 31
0.0
  0
LINE
  5
B5
330
1E
100
AcDbEntity
  8
16
100
AcDbLine
 10
187.6361914121166
 20
0.0000000000000107
 30
0.0
 11
-145.0
 21
0.0
 31
0.0
  0
MTEXT
  5
BF3
330
1E
100
AcDbEntity
  8
24
  6
CONTINUOUS
100
AcDbMText
 10
142.1181906098743
 20
177.5
 30
0.0
 40
3.0
 41
0.0
 71
     1
 72
     1
  1
\A1;
1001
ACAD
1000
MTEXTBEGIN
1070
    73
1070
     1
1070
    44
1040
1.0
1070
    74
1070
     0
1000
MTEXTEND
  0
LINE
  5
1C9A
330
1E
100
AcDbEntity
  8
16
100
AcDbLine
 10
0.0
 20
258.0
 30
0.0
 11
0.0
 21
436.0
 31
0.0
  0
LINE
  5
1C9B
330
1E
100
AcDbEntity
  8
16
100
AcDbLine
 10
485.0
 20
0.0
 30
0.0
 11
247.0
 21
0.0
 31
0.0
  0
LINE
  5
2233
330
1E
100
AcDbEntity
  8
16
100
AcDbLine
 10
325.0
 20
-659.0
 30
0.0
 11
325.0
 21
-349.0
 31
0.0
  0
LINE
  5
2234
330
1E
100
AcDbEntity
  8
16
100
AcDbLine
 10
457.1634296945399
 20
-500.0
 30
0.0
 11
223.1043600603313
 21
-500.0
 31
0.0
  0
LEADER
  5
225D
330
1E
100
AcDbEntity
  8
30
  6
CONTINUOUS
100
AcDbLeader
  3
STANDARD
 76
     3
 10
38.14771366973889
 20
-611.9419380557058
 30
0.0
 10
41.51751298442206
 20
-600.5366684896304
 30
0.0
 10
72.2902161209679
 20
-600.59302230157
 30
0.0
1001
ACAD
1000
DSTYLE
1002
{
1070
     5
1000
OPEN
1070
   342
1005
3B2
1002
}
  0
TEXT
  5
225E
330
1E
100
AcDbEntity
  8
30
  6
CONTINUOUS
100
AcDbText
 10
53.50300660783671
 20
-600.2574206289533
 30
0.0
 40
5.0
  1
M8
100
AcDbText
  0
LINE
  5
2260
330
1E
100
AcDbEntity
  8
16
100
AcDbLine
 10
202.1634296945399
 20
-500.0
 30
0.0
 11
-166.0
 21
-500.0
 31
0.0
  0
LINE
  5
2261
330
1E
100
AcDbEntity
  8
16
100
AcDbLine
 10
0.0
 20
-659.0
 30
0.0
 11
0.0
 21
-349.0
 31
0.0
  0
DIMENSION
  5
2D20
330
1E
100
AcDbEntity
  8
30
  6
CONTINUOUS
100
AcDbDimension
  2
*D1
 10
357.0
 20
-560.0
 30
0.0
 11
325.0
 21
-560.0
 31
0.0
 70
   160
  1
<>
  3
STANDARD
100
AcDbAlignedDimension
 13
293.0
 23
-546.0
 33
0.0
 14
357.0
 24
-546.0
 34
0.0
 50
180.0
100
AcDbRotatedDimension
  0
DIMENSION
  5
2D25
330
1E
100
AcDbEntity
  8
30
  6
CONTINUOUS
100
AcDbDimension
  2
*D2
 10
275.0
 20
-546.0
 30
0.0
 11
275.0
 21
-504.0
 31
0.0
 70
   160
  3
STANDARD
100
AcDbAlignedDimension
 13
294.0
 23
-454.0
 33
0.0
 14
293.0
 24
-546.0
 34
0.0
 50
90.0
100
AcDbRotatedDimension
  0
LWPOLYLINE
  5
5730
330
1E
100
AcDbEntity
  8
11
  6
CONTINUOUS
100
AcDbPolyline
 90
        8
 70
     1
 43
0.0
 10
299.5
 20
-454.0
 10
350.4999999999999
 20
-454.0
 42
-0.4142135623730951
 10
357.0
 20
-460.5
 10
357.0
 20
-539.5
 42
-0.4142135623730951
 10
350.4999999999999
 20
-546.0
 10
299.5
 20
-546.0
 42
-0.4142135623730951
 10
293.0
 20
-539.5
 10
293.0
 20
-460.5
 42
-0.4142135623730951
  0
DIMENSION
  5
57BC
330
1E
100
AcDbEntity
  8
30
  6
CONTINUOUS
100
AcDbDimension
  2
*D4
 10
35.15002441406
 20
-654.0
 30
0.0
 11
0.1499938964850005
 21
-650.4999999999999
 31
0.0
 70
    32
  3
STANDARD
100
AcDbAlignedDimension
 13
-34.85003662108999
 23
-625.25
 33
0.0
 14
35.15002441406
 24
-625.25
 34
0.0
100
AcDbRotatedDimension
  0
MTEXT
  5
5D8A
330
1E
100
AcDbEntity
  8
19
  6
CONTINUOUS
100
AcDbMText
 10
303.0
 20
396.0
 30
0.0
 40
7.0
 41
94.0
 71
     1
 72
     5
  1
XS600NE 4P FC XH600NE 4P FC
  7
STANDARD1
1001
ACAD
1000
MTEXTBEGIN
1070
    73
1070
     1
1070
    44
1040
1.0
1070
    74
1070
     0
1000
MTEXTEND
  0
LINE
  5
5E97
330
1E
100
AcDbEntity
  8
17
  6
CONTINOUS
100
AcDbLine
 10
90.0
 20
-212.0
 30
0.0
 11
90.0
 21
-132.0
 31
0.0
  0
LINE
  5
5E98
330
1E
100
AcDbEntity
  8
17
  6
CONTINOUS
100
AcDbLine
 10
50.0
 20
-132.0
 30
0.0
 11
50.0
 21
-212.0
 31
0.0
  0
LWPOLYLINE
  5
5E9A
330
1E
100
AcDbEntity
  8
17
  6
CONTINOUS
100
AcDbPolyline
 90
        4
 70
     0
 43
0.0
 10
-20.0
 20
-132.0
 10
-20.0
 20
-212.0
 10
20.0
 20
-212.0
 10
20.0
 20
-132.0
  0
LWPOLYLINE
  5
5E9B
330
1E
100
AcDbEntity
  8
17
  6
CONTINOUS
100
AcDbPolyline
 90
        4
 70
     0
 43
0.0
 10
-89.99993896483999
 20
-132.0
 10
-89.99993896483999
 20
-212.0
 10
-49.99993896483999
 20
-212.0
 10
-49.99993896483999
 20
-132.0
  0
LWPOLYLINE
  5
5E9C
330
1E
100
AcDbEntity
  8
17
  6
DASHDOT
100
AcDbPolyline
 90
        2
 70
     0
 43
0.0
 10
70.0
 20
-96.99999999999999
 10
70.0
 20
-242.0
  0
LWPOLYLINE
  5
5E9D
330
1E
100
AcDbEntity
  8
17
  6
DASHDOT
100
AcDbPolyline
 90
        2
 70
     0
 43
0.0
 10
-14.28576660155999
 20
-157.0
 10
12.8798828125
 20
-157.0
  0
LWPOLYLINE
  5
5E9E
330
1E
100
AcDbEntity
  8
17
  6
DASHDOT
100
AcDbPolyline
 90
        2
 70
     0
 43
0.0
 10
10.33312988280999
 20
-165.0
 10
-15.13470458984
 20
-165.0
  0
LWPOLYLINE
  5
5E9F
330
1E
100
AcDbEntity
  8
17
  6
DASHDOT
100
AcDbPolyline
 90
        2
 70
     0
 43
0.0
 10
-13.43682861328
 20
-197.0
 10
13.72882080077999
 20
-197.0
  0
LWPOLYLINE
  5
5EA0
330
1E
100
AcDbEntity
  8
17
  6
DASHDOT
100
AcDbPolyline
 90
        4
 70
     0
 43
0.0
 10
-63.49993896484
 20
-157.0
 42
0.9999999999999998
 10
-76.49993896484
 20
-157.0
 10
-76.49993896484
 20
-165.0
 42
0.9999999999999998
 10
-63.49993896484
 20
-165.0
  0
LWPOLYLINE
  5
5EA1
330
1E
100
AcDbEntity
  8
17
  6
DASHDOT
100
AcDbPolyline
 90
        2
 70
     0
 43
0.0
 10
-84.28576660156
 20
-157.0
 10
-57.12005615234
 20
-157.0
  0
LWPOLYLINE
  5
5EA2
330
1E
100
AcDbEntity
  8
17
  6
DASHDOT
100
AcDbPolyline
 90
        2
 70
     0
 43
0.0
 10
-59.66687011719
 20
-165.0
 10
-85.13470458984
 20
-165.0
  0
LWPOLYLINE
  5
5EA3
330
1E
100
AcDbEntity
  8
17
  6
DASHDOT
100
AcDbPolyline
 90
        2
 70
     0
 43
0.0
 10
-83.43682861328
 20
-197.0
 10
-56.27117919922
 20
-197.0
  0
CIRCLE
  5
5EA4
330
1E
100
AcDbEntity
  8
17
  6
DASHDOT
100
AcDbCircle
 10
-69.99993896483999
 20
-197.0
 30
0.0
 40
6.5
  0
LWPOLYLINE
  5
5EA5
330
1E
100
AcDbEntity
  8
17
  6
DASHDOT
100
AcDbPolyline
 90
        2
 70
     0
 43
0.0
 10
-63.5
 20
-165.0
 10
-63.5
 20
-157.0
  0
LINE
  5
5EA6
330
1E
100
AcDbEntity
  8
17
  6
CONTINOUS
100
AcDbLine
 10
50.0
 20
-212.0
 30
0.0
 11
90.0
 21
-212.0
 31
0.0
  0
LWPOLYLINE
  5
5EA7
330
1E
100
AcDbEntity
  8
17
  6
DASHDOT
100
AcDbPolyline
 90
        4
 70
     1
 43
0.0
 10
6.5
 20
-165.0
 10
6.5
 20
-157.0
 42
0.9999999999999998
 10
-6.5
 20
-157.0
 10
-6.5
 20
-165.0
 42
0.9999999999999998
  0
CIRCLE
  5
5EA8
330
1E
100
AcDbEntity
  8
17
  6
DASHDOT
100
AcDbCircle
 10
0.0
 20
-197.0
 30
0.0
 40
6.5
  0
LWPOLYLINE
  5
5EA9
330
1E
100
AcDbEntity
  8
17
  6
DASHDOT
100
AcDbPolyline
 90
        4
 70
     1
 43
0.0
 10
76.5
 20
-165.0
 10
76.5
 20
-157.0
 42
0.9999999999999998
 10
63.5
 20
-157.0
 10
63.5
 20
-165.0
 42
0.9999999999999998
  0
LWPOLYLINE
  5
5EAA
330
1E
100
AcDbEntity
  8
17
  6
DASHDOT
100
AcDbPolyline
 90
        2
 70
     0
 43
0.0
 10
55.71423339844
 20
-157.0
 10
82.87994384765999
 20
-157.0
  0
LWPOLYLINE
  5
5EAB
330
1E
100
AcDbEntity
  8
17
  6
DASHDOT
100
AcDbPolyline
 90
        2
 70
     0
 43
0.0
 10
80.33312988281
 20
-165.0
 10
54.86529541016
 20
-165.0
  0
LWPOLYLINE
  5
5EAC
330
1E
100
AcDbEntity
  8
17
  6
DASHDOT
100
AcDbPolyline
 90
        2
 70
     0
 43
0.0
 10
56.56317138672
 20
-197.0
 10
83.72882080077999
 20
-197.0
  0
CIRCLE
  5
5EAD
330
1E
100
AcDbEntity
  8
17
  6
DASHDOT
100
AcDbCircle
 10
70.0
 20
-197.0
 30
0.0
 40
6.5
  0
LWPOLYLINE
  5
5EAE
330
1E
100
AcDbEntity
  8
10
  6
CONTINUOUS
100
AcDbPolyline
 90
        6
 70
     0
 43
0.0
 10
-105.0
 20
141.0
 10
175.0
 20
141.0
 10
175.0
 20
-132.0
 10
-105.0
 20
-132.0
 10
-105.0
 20
141.0
 10
-105.0
 20
-132.0
  0
LWPOLYLINE
  5
5EAF
330
1E
100
AcDbEntity
  8
10
  6
CONTINUOUS
100
AcDbPolyline
 90
        2
 70
     0
 43
0.0
 10
174.8499755859398
 20
116.0
 10
-104.84997558594
 20
116.0
  0
LWPOLYLINE
  5
5EB0
330
1E
100
AcDbEntity
  8
10
  6
CONTINUOUS
100
AcDbPolyline
 90
        2
 70
     0
 43
0.0
 10
174.8499755859398
 20
57.00000000000001
 10
-104.84997558594
 20
57.00000000000001
  0
LWPOLYLINE
  5
5EB1
330
1E
100
AcDbEntity
  8
10
  6
CONTINUOUS
100
AcDbPolyline
 90
        4
 70
     0
 43
0.0
 10
31.15002441406
 20
-44.99999999999999
 10
31.15002441406
 20
45.00000000000001
 10
-30.85003662109
 20
45.00000000000001
 10
-30.85003662109
 20
-44.99999999999999
  0
LWPOLYLINE
  5
5EB2
330
1E
100
AcDbEntity
  8
10
  6
CONTINUOUS
100
AcDbPolyline
 90
        2
 70
     0
 43
0.0
 10
174.8499755859398
 20
-106.9999999999999
 10
-104.84997558594
 20
-106.9999999999999
  0
LWPOLYLINE
  5
5EB3
330
1E
100
AcDbEntity
  8
10
  6
CONTINUOUS
100
AcDbPolyline
 90
        2
 70
     0
 43
0.0
 10
174.8499755859398
 20
-50.99999999999998
 10
-104.84997558594
 20
-50.99999999999998
  0
LWPOLYLINE
  5
5EB4
330
1E
100
AcDbEntity
  8
17
  6
CONTINOUS
100
AcDbPolyline
 90
        4
 70
     0
 43
0.0
 10
-20.0
 20
141.0
 10
-20.0
 20
221.0
 10
20.0
 20
221.0
 10
20.0
 20
141.0
  0
LWPOLYLINE
  5
5EB5
330
1E
100
AcDbEntity
  8
10
  6
CONTINUOUS
100
AcDbPolyline
 90
        2
 70
     0
 43
0.0
 10
-11.0
 20
-106.9999999999999
 42
0.9999999999999998
 10
-11.0
 20
-126.9999999999999
  0
LWPOLYLINE
  5
5EB6
330
1E
100
AcDbEntity
  8
10
  6
CONTINUOUS
100
AcDbPolyline
 90
        2
 70
     0
 43
0.0
 10
11.0
 20
116.0
 42
0.9999999999999998
 10
11.0
 20
136.0
210
0.0
220
0.0
230
-1.0
  0
LWPOLYLINE
  5
5EB7
330
1E
100
AcDbEntity
  8
10
  6
CONTINUOUS
100
AcDbPolyline
 90
        4
 70
     1
 43
0.0
 10
-22.0
 20
-26.99999999999998
 10
22.0
 20
-26.99999999999998
 10
22.0
 20
28.50000000000001
 10
-22.0
 20
28.50000000000001
  0
LWPOLYLINE
  5
5EB8
330
1E
100
AcDbEntity
  8
17
  6
DASHDOT
100
AcDbPolyline
 90
        2
 70
     0
 43
0.0
 10
-13.43682861328
 20
206.0
 10
13.72882080077999
 20
206.0
  0
LWPOLYLINE
  5
5EB9
330
1E
100
AcDbEntity
  8
17
  6
DASHDOT
100
AcDbPolyline
 90
        2
 70
     0
 43
0.0
 10
10.33312988280999
 20
174.0
 10
-15.13470458984
 20
174.0
  0
LWPOLYLINE
  5
5EBA
330
1E
100
AcDbEntity
  8
17
  6
DASHDOT
100
AcDbPolyline
 90
        2
 70
     0
 43
0.0
 10
-14.28576660155999
 20
166.0
 10
12.8798828125
 20
166.0
  0
LWPOLYLINE
  5
5EBB
330
1E
100
AcDbEntity
  8
10
  6
CONTINUOUS
100
AcDbPolyline
 90
        2
 70
     0
 43
0.0
 10
175.0
 20
-44.99999999999999
 10
-104.84997558594
 20
-44.99999999999999
  0
LINE
  5
5EBC
330
1E
100
AcDbEntity
  8
17
  6
CONTINOUS
100
AcDbLine
 10
-89.99993896483999
 20
221.0
 30
0.0
 11
-89.99993896483999
 21
141.0
 31
0.0
  0
LINE
  5
5EBD
330
1E
100
AcDbEntity
  8
17
  6
CONTINOUS
100
AcDbLine
 10
-49.99993896483999
 20
141.0
 30
0.0
 11
-49.99993896483999
 21
221.0
 31
0.0
  0
LWPOLYLINE
  5
5EBE
330
1E
100
AcDbEntity
  8
17
  6
DASHDOT
100
AcDbPolyline
 90
        2
 70
     0
 43
0.0
 10
-63.5
 20
174.0
 10
-63.5
 20
166.0
  0
LWPOLYLINE
  5
5EBF
330
1E
100
AcDbEntity
  8
17
  6
DASHDOT
100
AcDbPolyline
 90
        2
 70
     0
 43
0.0
 10
-76.49993896484
 20
166.0
 10
-76.49993896484
 20
174.0
  0
LWPOLYLINE
  5
5EC0
330
1E
100
AcDbEntity
  8
17
  6
DASHDOT
100
AcDbPolyline
 90
        2
 70
     0
 43
0.0
 10
-69.99993896483999
 20
239.2158203125
 10
-69.99993896483999
 20
106.0
  0
LWPOLYLINE
  5
5EC1
330
1E
100
AcDbEntity
  8
10
  6
CONTINUOUS
100
AcDbPolyline
 90
        2
 70
     0
 43
0.0
 10
-81.0
 20
-126.9999999999999
 10
-59.0
 20
-126.9999999999999
  0
LWPOLYLINE
  5
5EC2
330
1E
100
AcDbEntity
  8
10
  6
CONTINUOUS
100
AcDbPolyline
 90
        2
 70
     0
 43
0.0
 10
-80.99993896483999
 20
-106.9999999999999
 42
0.9999999999999998
 10
-80.99993896483999
 20
-126.9999999999999
  0
LWPOLYLINE
  5
5EC3
330
1E
100
AcDbEntity
  8
10
  6
CONTINUOUS
100
AcDbPolyline
 90
        2
 70
     0
 43
0.0
 10
-58.99993896484
 20
-126.9999999999999
 42
0.9999999999999998
 10
-58.99993896484
 20
-106.9999999999999
  0
LWPOLYLINE
  5
5EC5
330
1E
100
AcDbEntity
  8
17
  6
DASHDOT
100
AcDbPolyline
 90
        2
 70
     0
 43
0.0
 10
63.49993896484
 20
166.0
 42
0.9999999999999998
 10
76.49993896484
 20
166.0
210
0.0
220
0.0
230
-1.0
  0
LWPOLYLINE
  5
5EC6
330
1E
100
AcDbEntity
  8
10
  6
CONTINUOUS
100
AcDbPolyline
 90
        2
 70
     0
 43
0.0
 10
-81.0
 20
136.0
 10
-59.0
 20
136.0
  0
LWPOLYLINE
  5
5EC7
330
1E
100
AcDbEntity
  8
17
  6
DASHDOT
100
AcDbPolyline
 90
        2
 70
     0
 43
0.0
 10
-84.28576660156
 20
166.0
 10
-57.12005615234
 20
166.0
  0
LWPOLYLINE
  5
5EC8
330
1E
100
AcDbEntity
  8
10
  6
CONTINUOUS
100
AcDbPolyline
 90
        2
 70
     0
 43
0.0
 10
80.99993896483999
 20
116.0
 42
0.9999999999999998
 10
80.99993896483999
 20
136.0
210
0.0
220
0.0
230
-1.0
  0
LWPOLYLINE
  5
5EC9
330
1E
100
AcDbEntity
  8
10
  6
CONTINUOUS
100
AcDbPolyline
 90
        2
 70
     0
 43
0.0
 10
58.99993896484
 20
136.0
 42
0.9999999999999998
 10
58.99993896484
 20
116.0
210
0.0
220
0.0
230
-1.0
  0
LINE
  5
5ECB
330
1E
100
AcDbEntity
  8
17
  6
CONTINOUS
100
AcDbLine
 10
-49.99993896483999
 20
221.0
 30
0.0
 11
-89.99993896483999
 21
221.0
 31
0.0
  0
LWPOLYLINE
  5
5ECC
330
1E
100
AcDbEntity
  8
17
  6
DASHDOT
100
AcDbPolyline
 90
        2
 70
     0
 43
0.0
 10
76.49993896484
 20
174.0
 42
0.9999999999999998
 10
63.49993896484
 20
174.0
210
0.0
220
0.0
230
-1.0
  0
LWPOLYLINE
  5
5ECD
330
1E
100
AcDbEntity
  8
17
  6
CONTINOUS
100
AcDbPolyline
 90
        2
 70
     0
 43
0.0
 10
-59.66687011719
 20
174.0
 10
-85.13470458984
 20
174.0
  0
LWPOLYLINE
  5
5ECE
330
1E
100
AcDbEntity
  8
17
  6
DASHDOT
100
AcDbPolyline
 90
        2
 70
     0
 43
0.0
 10
-83.43682861328
 20
206.0
 10
-56.27117919922
 20
206.0
  0
CIRCLE
  5
5ECF
330
1E
100
AcDbEntity
  8
17
  6
DASHDOT
100
AcDbCircle
 10
69.99993896483999
 20
206.0
 30
0.0
 40
6.5
210
0.0
220
0.0
230
-1.0
  0
LWPOLYLINE
  5
5ED0
330
1E
100
AcDbEntity
  8
17
  6
DASHDOT
100
AcDbPolyline
 90
        2
 70
     0
 43
0.0
 10
-6.5
 20
166.0
 10
-6.5
 20
174.0
  0
LWPOLYLINE
  5
5ED1
330
1E
100
AcDbEntity
  8
17
  6
DASHDOT
100
AcDbPolyline
 90
        2
 70
     0
 43
0.0
 10
6.5
 20
174.0
 10
6.5
 20
166.0
  0
LWPOLYLINE
  5
5ED2
330
1E
100
AcDbEntity
  8
17
  6
CONTINOUS
100
AcDbPolyline
 90
        4
 70
     0
 43
0.0
 10
50.0
 20
141.0
 10
50.0
 20
221.0
 10
90.0
 20
221.0
 10
90.0
 20
141.0
  0
LWPOLYLINE
  5
5ED3
330
1E
100
AcDbEntity
  8
17
  6
DASHDOT
100
AcDbPolyline
 90
        2
 70
     0
 43
0.0
 10
70.0
 20
231.5751953124999
 10
70.0
 20
106.0
  0
LWPOLYLINE
  5
5ED4
330
1E
100
AcDbEntity
  8
17
  6
DASHDOT
100
AcDbPolyline
 90
        2
 70
     0
 43
0.0
 10
63.5
 20
166.0
 10
63.5
 20
174.0
  0
LWPOLYLINE
  5
5ED5
330
1E
100
AcDbEntity
  8
17
  6
DASHDOT
100
AcDbPolyline
 90
        2
 70
     0
 43
0.0
 10
76.5
 20
174.0
 10
76.5
 20
166.0
  0
LWPOLYLINE
  5
5ED6
330
1E
100
AcDbEntity
  8
10
  6
CONTINUOUS
100
AcDbPolyline
 90
        2
 70
     0
 43
0.0
 10
11.0
 20
-126.9999999999999
 42
0.9999999999999998
 10
11.0
 20
-106.9999999999999
  0
LWPOLYLINE
  5
5ED7
330
1E
100
AcDbEntity
  8
10
  6
CONTINUOUS
100
AcDbPolyline
 90
        2
 70
     0
 43
0.0
 10
-11.00006103516
 20
-126.9999999999999
 10
10.99993896483999
 20
-126.9999999999999
  0
LWPOLYLINE
  5
5ED9
330
1E
100
AcDbEntity
  8
10
  6
CONTINUOUS
100
AcDbPolyline
 90
        2
 70
     0
 43
0.0
 10
59.0
 20
-106.9999999999999
 42
0.9999999999999998
 10
59.0
 20
-126.9999999999999
  0
LWPOLYLINE
  5
5EDA
330
1E
100
AcDbEntity
  8
10
  6
CONTINUOUS
100
AcDbPolyline
 90
        2
 70
     0
 43
0.0
 10
81.0
 20
-126.9999999999999
 42
0.9999999999999998
 10
81.0
 20
-106.9999999999999
  0
LWPOLYLINE
  5
5EDB
330
1E
100
AcDbEntity
  8
10
  6
CONTINUOUS
100
AcDbPolyline
 90
        2
 70
     0
 43
0.0
 10
58.99993896484
 20
-126.9999999999999
 10
80.99993896483988
 20
-126.9999999999999
  0
LWPOLYLINE
  5
5EDC
330
1E
100
AcDbEntity
  8
17
  6
DASHDOT
100
AcDbPolyline
 90
        2
 70
     0
 43
0.0
 10
-6.5
 20
166.0
 42
0.9999999999999998
 10
6.5
 20
166.0
210
0.0
220
0.0
230
-1.0
  0
LWPOLYLINE
  5
5EDD
330
1E
100
AcDbEntity
  8
10
  6
CONTINUOUS
100
AcDbPolyline
 90
        2
 70
     0
 43
0.0
 10
-11.00006103516
 20
136.0
 10
10.99993896483999
 20
136.0
  0
LWPOLYLINE
  5
5EDE
330
1E
100
AcDbEntity
  8
10
  6
CONTINUOUS
100
AcDbPolyline
 90
        2
 70
     0
 43
0.0
 10
-11.0
 20
136.0
 42
0.9999999999999998
 10
-11.0
 20
116.0
210
0.0
220
0.0
230
-1.0
  0
LWPOLYLINE
  5
5EE0
330
1E
100
AcDbEntity
  8
17
  6
DASHDOT
100
AcDbPolyline
 90
        2
 70
     0
 43
0.0
 10
-76.5
 20
166.0
 42
0.9999999999999998
 10
-63.5
 20
166.0
210
0.0
220
0.0
230
-1.0
  0
LWPOLYLINE
  5
5EE1
330
1E
100
AcDbEntity
  8
10
  6
CONTINUOUS
100
AcDbPolyline
 90
        2
 70
     0
 43
0.0
 10
-59.0
 20
116.0
 42
0.9999999999999998
 10
-59.0
 20
136.0
210
0.0
220
0.0
230
-1.0
  0
LWPOLYLINE
  5
5EE2
330
1E
100
AcDbEntity
  8
10
  6
CONTINUOUS
100
AcDbPolyline
 90
        2
 70
     0
 43
0.0
 10
58.99993896484
 20
136.0
 10
80.99993896483988
 20
136.0
  0
LWPOLYLINE
  5
5EE3
330
1E
100
AcDbEntity
  8
10
  6
CONTINUOUS
100
AcDbPolyline
 90
        2
 70
     0
 43
0.0
 10
-81.0
 20
136.0
 42
0.9999999999999998
 10
-81.0
 20
116.0
210
0.0
220
0.0
230
-1.0
  0
LWPOLYLINE
  5
5EE4
330
1E
100
AcDbEntity
  8
17
  6
DASHDOT
100
AcDbPolyline
 90
        2
 70
     0
 43
0.0
 10
55.71423339844
 20
166.0
 10
82.87994384765999
 20
166.0
  0
LWPOLYLINE
  5
5EE6
330
1E
100
AcDbEntity
  8
17
  6
DASHDOT
100
AcDbPolyline
 90
        2
 70
     0
 43
0.0
 10
6.5
 20
174.0
 42
0.9999999999999998
 10
-6.5
 20
174.0
210
0.0
220
0.0
230
-1.0
  0
CIRCLE
  5
5EE7
330
1E
100
AcDbEntity
  8
17
  6
DASHDOT
100
AcDbCircle
 10
0.0
 20
206.0
 30
0.0
 40
6.5
210
0.0
220
0.0
230
-1.0
  0
LWPOLYLINE
  5
5EE8
330
1E
100
AcDbEntity
  8
17
  6
DASHDOT
100
AcDbPolyline
 90
        2
 70
     0
 43
0.0
 10
56.56317138672
 20
206.0
 10
83.72882080077999
 20
206.0
  0
LWPOLYLINE
  5
5EE9
330
1E
100
AcDbEntity
  8
17
  6
CONTINOUS
100
AcDbPolyline
 90
        2
 70
     0
 43
0.0
 10
80.33312988281
 20
174.0
 10
54.86529541016
 20
174.0
  0
LWPOLYLINE
  5
5EEA
330
1E
100
AcDbEntity
  8
17
  6
DASHDOT
100
AcDbPolyline
 90
        2
 70
     0
 43
0.0
 10
-63.5
 20
174.0
 42
0.9999999999999998
 10
-76.5
 20
174.0
210
0.0
220
0.0
230
-1.0
  0
CIRCLE
  5
5EEB
330
1E
100
AcDbEntity
  8
17
  6
DASHDOT
100
AcDbCircle
 10
-70.0
 20
206.0
 30
0.0
 40
6.5
210
0.0
220
0.0
230
-1.0
  0
LWPOLYLINE
  5
5F0E
330
1E
100
AcDbEntity
  8
17
  6
DASHDOT
100
AcDbPolyline
 90
        2
 70
     0
 43
0.0
 10
-69.99993896483999
 20
-113.7841796875
 10
-69.99993896483999
 20
-247.0
  0
CIRCLE
  5
5F14
330
1E
100
AcDbEntity
  8
12
100
AcDbCircle
 10
-34.85003662108999
 20
126.0
 30
0.0
 40
4.0
  0
LWPOLYLINE
  5
5F15
330
1E
100
AcDbEntity
  8
12
  6
DASHED
100
AcDbPolyline
 90
        2
 70
     0
 43
0.0
 10
-34.85003662108999
 20
134.25
 10
-34.85003662108999
 20
117.75
  0
LWPOLYLINE
  5
5F16
330
1E
100
AcDbEntity
  8
12
100
AcDbPolyline
 90
        2
 70
     0
 43
0.0
 10
-26.60003662109
 20
126.0
 10
-43.10003662108999
 20
126.0
  0
CIRCLE
  5
5F17
330
1E
100
AcDbEntity
  8
12
100
AcDbCircle
 10
35.15002441406
 20
126.0
 30
0.0
 40
4.0
  0
LWPOLYLINE
  5
5F18
330
1E
100
AcDbEntity
  8
12
  6
DASHED
100
AcDbPolyline
 90
        2
 70
     0
 43
0.0
 10
35.15002441406
 20
134.25
 10
35.15002441406
 20
117.75
  0
LWPOLYLINE
  5
5F19
330
1E
100
AcDbEntity
  8
12
100
AcDbPolyline
 90
        2
 70
     0
 43
0.0
 10
43.40002441405999
 20
126.0
 10
26.90002441405999
 20
126.0
  0
CIRCLE
  5
5F1A
330
1E
100
AcDbEntity
  8
12
100
AcDbCircle
 10
35.15002441406
 20
-116.9999999999999
 30
0.0
 40
4.0
  0
LWPOLYLINE
  5
5F1B
330
1E
100
AcDbEntity
  8
12
  6
DASHED
100
AcDbPolyline
 90
        2
 70
     0
 43
0.0
 10
35.15002441406
 20
-108.7499999999999
 10
35.15002441406
 20
-125.2499999999999
  0
LWPOLYLINE
  5
5F1C
330
1E
100
AcDbEntity
  8
12
100
AcDbPolyline
 90
        2
 70
     0
 43
0.0
 10
43.40002441405999
 20
-116.9999999999999
 10
26.90002441405999
 20
-116.9999999999999
  0
CIRCLE
  5
5F1D
330
1E
100
AcDbEntity
  8
12
100
AcDbCircle
 10
-34.85003662108999
 20
-116.9999999999999
 30
0.0
 40
4.0
  0
LWPOLYLINE
  5
5F1E
330
1E
100
AcDbEntity
  8
12
  6
DASHED
100
AcDbPolyline
 90
        2
 70
     0
 43
0.0
 10
-34.85003662108999
 20
-108.7499999999999
 10
-34.85003662108999
 20
-125.2499999999999
  0
LWPOLYLINE
  5
5F1F
330
1E
100
AcDbEntity
  8
12
100
AcDbPolyline
 90
        2
 70
     0
 43
0.0
 10
-26.60003662109
 20
-116.9999999999999
 10
-43.10003662108999
 20
-116.9999999999999
  0
DIMENSION
  5
5F20
330
1E
100
AcDbEntity
  8
30
  6
CONTINUOUS
100
AcDbDimension
  2
*D5
 10
-0.0000000000000026
 20
-239.0
 30
0.0
 11
-34.99996948241999
 21
-235.4999999999999
 31
0.0
 70
    32
  3
STANDARD
100
AcDbAlignedDimension
 13
-69.99993896483999
 23
-212.0
 33
0.0
 14
0.0
 24
-197.0
 34
0.0
100
AcDbRotatedDimension
  0
DIMENSION
  5
5F2D
330
1E
100
AcDbEntity
  8
30
  6
CONTINUOUS
100
AcDbDimension
  2
*D6
 10
175.0
 20
-260.0
 30
0.0
 11
34.99999999999999
 21
-256.4999999999999
 31
0.0
 70
    32
  3
STANDARD
100
AcDbAlignedDimension
 13
-105.0
 23
-132.0
 33
0.0
 14
175.0
 24
-132.0
 34
0.0
100
AcDbRotatedDimension
  0
LWPOLYLINE
  5
6007
330
1E
100
AcDbEntity
  8
17
  6
CONTINOUS
100
AcDbPolyline
 90
        4
 70
     0
 43
0.0
 10
394.2913707384479
 20
-132.0
 10
394.2913707384479
 20
-212.0
 10
402.2913707384479
 20
-212.0
 10
402.2913707384479
 20
-132.0
  0
LWPOLYLINE
  5
6008
330
1E
100
AcDbEntity
  8
17
  6
DASHDOT
100
AcDbPolyline
 90
        2
 70
     0
 43
0.0
 10
383.3052867540479
 20
-157.0
 10
413.2276500353479
 20
-157.0
  0
LWPOLYLINE
  5
6009
330
1E
100
AcDbEntity
  8
17
  6
DASHDOT
100
AcDbPolyline
 90
        2
 70
     0
 43
0.0
 10
383.3052867540479
 20
-165.0
 10
413.2276500353479
 20
-165.0
  0
LWPOLYLINE
  5
600A
330
1E
100
AcDbEntity
  8
17
  6
DASHDOT
100
AcDbPolyline
 90
        2
 70
     0
 43
0.0
 10
383.3052867540479
 20
-197.0
 10
413.2276500353479
 20
-197.0
  0
LWPOLYLINE
  5
600B
330
1E
100
AcDbEntity
  8
18
100
AcDbPolyline
 90
        6
 70
     0
 43
0.0
 10
263.4265025744479
 20
56.93969726559998
 10
296.9108775744479
 20
49.17456054690001
 10
330.7952769884479
 20
37.01538085940001
 10
322.0143931994479
 20
12.54321289059999
 10
288.1296275744479
 20
24.70190429690001
 10
257.3471568712479
 20
39.9970703125
  0
LWPOLYLINE
  5
600C
330
1E
100
AcDbEntity
  8
10
  6
CONTINUOUS
100
AcDbPolyline
 90
        4
 70
     0
 43
0.0
 10
331.2913707384479
 20
29.48217773440001
 10
302.5723765978479
 20
39.05590820309999
 10
298.6201060900479
 20
28.78198242190001
 10
330.8687633165479
 20
16.37670898440001
  0
LWPOLYLINE
  5
600E
330
1E
100
AcDbEntity
  8
10
  6
CONTINUOUS
100
AcDbPolyline
 90
        2
 70
     0
 43
0.0
 10
298.6201350231478
 20
28.78198404810018
 42
0.0831775628001488
 10
293.296201544922
 20
-4.99997680090064
  0
LWPOLYLINE
  5
600F
330
1E
100
AcDbEntity
  8
10
  6
CONTINUOUS
100
AcDbPolyline
 90
        3
 70
     0
 43
0.0
 10
225.0489447255478
 20
62.03437822210026
 42
0.001167119079251
 10
224.7425375841479
 20
61.23188645330038
 42
0.092219275593144
 10
212.7940881793546
 20
-5.000005440800578
  0
LWPOLYLINE
  5
6010
330
1E
100
AcDbEntity
  8
18
100
AcDbPolyline
 90
        2
 70
     1
 43
0.0
 10
263.5757945665479
 20
54.50073242190001
 42
0.9999999999999998
 10
223.5757945665479
 20
54.50073242190001
 42
0.9999999999999998
  0
CIRCLE
  5
6011
330
1E
100
AcDbEntity
  8
10
  6
CONTINUOUS
100
AcDbCircle
 10
238.0535777697479
 20
64.01147460940001
 30
0.0
 40
0.75
  0
CIRCLE
  5
6012
330
1E
100
AcDbEntity
  8
10
  6
CONTINUOUS
100
AcDbCircle
 10
238.0535777697479
 20
64.01147460940001
 30
0.0
 40
0.25
  0
CIRCLE
  5
6013
330
1E
100
AcDbEntity
  8
10
  6
CONTINUOUS
100
AcDbCircle
 10
238.0535777697479
 20
64.01147460940001
 30
0.0
 40
0.5
  0
LWPOLYLINE
  5
6014
330
1E
100
AcDbEntity
  8
17
  6
CONTINOUS
100
AcDbPolyline
 90
        4
 70
     0
 43
0.0
 10
406.2913707384479
 20
141.0
 10
406.2913707384479
 20
221.0
 10
398.2913707384479
 20
221.0
 10
398.2913707384479
 20
141.0
  0
LWPOLYLINE
  5
6015
330
1E
100
AcDbEntity
  8
10
  6
CONTINUOUS
100
AcDbPolyline
 90
        3
 70
     0
 43
0.0
 10
331.2913710270481
 20
17.69677482489987
 42
0.0801391525146236
 10
327.7913707384479
 20
-4.0
 42
0.080139136519446
 10
331.2913696477025
 20
-25.69677066091526
  0
LWPOLYLINE
  5
6016
330
1E
100
AcDbEntity
  8
10
  6
CONTINUOUS
100
AcDbPolyline
 90
       12
 70
     0
 43
0.0
 10
335.2913707384479
 20
-52.0
 10
335.2913707384479
 20
-107.0
 10
338.2913707384479
 20
-107.0
 10
338.2913707384479
 20
-132.0
 10
438.2913707384479
 20
-132.0
 10
438.2913707384479
 20
141.0
 10
348.2913707384479
 20
141.0
 10
348.2913707384479
 20
116.3999023438
 10
341.2913707384479
 20
116.3999023438
 10
341.2913707384479
 20
57.0
 10
335.2913707384479
 20
57.0
 10
335.2913707384479
 20
-45.0
  0
LWPOLYLINE
  5
6017
330
1E
100
AcDbEntity
  8
12
  6
DASHED
100
AcDbPolyline
 90
        2
 70
     0
 43
0.0
 10
457.1269420275479
 20
-117.0
 10
396.7347301134479
 20
-117.0
  0
LWPOLYLINE
  5
6018
330
1E
100
AcDbEntity
  8
12
  6
DASHED
100
AcDbPolyline
 90
        4
 70
     0
 43
0.0
 10
338.2913707384479
 20
-125.5
 10
410.2913707384479
 20
-125.5
 10
410.2913707384479
 20
-108.4999999999999
 10
338.2913707384479
 20
-108.4999999999999
  0
LWPOLYLINE
  5
6019
330
1E
100
AcDbEntity
  8
12
  6
DASHED
100
AcDbPolyline
 90
        4
 70
     0
 43
0.0
 10
410.2913707384479
 20
-125.0
 10
401.8914683947479
 20
-125.0
 10
401.8914683947479
 20
-109.0
 10
410.2913707384479
 20
-109.0
  0
LWPOLYLINE
  5
601A
330
1E
100
AcDbEntity
  8
10
  6
CONTINUOUS
100
AcDbPolyline
 90
        2
 70
     0
 43
0.0
 10
-341.2913707384479
 20
-49.00002306299985
 42
0.4142101848789985
 10
-339.2913707384479
 20
-51.00000000013278
210
0.0
220
0.0
230
-1.0
  0
LWPOLYLINE
  5
601B
330
1E
100
AcDbEntity
  8
10
  6
CONTINUOUS
100
AcDbPolyline
 90
        2
 70
     0
 43
0.0
 10
-335.2913707384479
 20
-51.99992882369997
 42
0.4141927154711635
 10
-336.2913707384479
 20
-50.99999999746706
210
0.0
220
0.0
230
-1.0
  0
LWPOLYLINE
  5
601C
330
1E
100
AcDbEntity
  8
10
  6
CONTINUOUS
100
AcDbPolyline
 90
        4
 70
     0
 43
0.0
 10
331.2913707384479
 20
-25.69677734369998
 10
331.2913707384479
 20
-45.0
 10
341.2913707384479
 20
-45.0
 10
341.2913707384479
 20
-49.0
  0
LWPOLYLINE
  5
601D
330
1E
100
AcDbEntity
  8
10
  6
CONTINUOUS
100
AcDbPolyline
 90
        2
 70
     0
 43
0.0
 10
336.2913707384479
 20
-51.0
 10
339.2913707384479
 20
-51.0
  0
LWPOLYLINE
  5
601E
330
1E
100
AcDbEntity
  8
12
  6
DASHED
100
AcDbPolyline
 90
        2
 70
     0
 43
0.0
 10
438.2913707384479
 20
-121.0
 10
452.2914928087479
 20
-121.0
  0
LWPOLYLINE
  5
6020
330
1E
100
AcDbEntity
  8
10
  6
CONTINUOUS
100
AcDbPolyline
 90
        3
 70
     0
 43
0.0
 10
335.2913707384479
 20
45.0
 10
331.2913707384479
 20
45.0
 10
331.2913707384479
 20
17.69677734380002
  0
LWPOLYLINE
  5
6021
330
1E
100
AcDbEntity
  8
17
  6
DASHDOT
100
AcDbPolyline
 90
        2
 70
     0
 43
0.0
 10
387.3052867540479
 20
166.0
 10
417.2276500353479
 20
166.0
  0
LWPOLYLINE
  5
6022
330
1E
100
AcDbEntity
  8
17
  6
DASHDOT
100
AcDbPolyline
 90
        2
 70
     0
 43
0.0
 10
387.3052867540479
 20
174.0
 10
417.2276500353479
 20
174.0
  0
LWPOLYLINE
  5
6023
330
1E
100
AcDbEntity
  8
17
  6
DASHDOT
100
AcDbPolyline
 90
        2
 70
     0
 43
0.0
 10
387.3052867540479
 20
206.0
 10
417.2276500353479
 20
206.0
  0
DIMENSION
  5
61A8
330
1E
100
AcDbEntity
  8
30
  6
CONTINUOUS
100
AcDbDimension
  2
*D7
 10
406.2913707384479
 20
230.0
 30
0.0
 11
402.2913707384479
 21
233.4999999999999
 31
0.0
 70
    32
  3
STANDARD
100
AcDbAlignedDimension
 13
398.2913707384479
 23
221.0
 33
0.0
 14
406.2913707384479
 24
221.0
 34
0.0
100
AcDbRotatedDimension
  0
DIMENSION
  5
61B5
330
1E
100
AcDbEntity
  8
30
  6
CONTINUOUS
100
AcDbDimension
  2
*D8
 10
438.2913707384479
 20
230.0
 30
0.0
 11
422.2913707384479
 21
233.4999999999999
 31
0.0
 70
    32
  3
STANDARD
100
AcDbAlignedDimension
 13
406.2913707384479
 23
221.0
 33
0.0
 14
438.2913707384479
 24
141.0
 34
0.0
100
AcDbRotatedDimension
  0
DIMENSION
  5
61D4
330
1E
100
AcDbEntity
  8
30
  6
CONTINUOUS
100
AcDbDimension
  2
*D9
 10
341.2913707384479
 20
116.3999023438
 30
0.0
 11
338.2913707384479
 21
119.8999023438
 31
0.0
 70
    32
  3
STANDARD
100
AcDbAlignedDimension
 13
335.2913707384479
 23
57.0
 33
0.0
 14
341.2913707384479
 24
57.0
 34
0.0
100
AcDbRotatedDimension
  0
DIMENSION
  5
61E2
330
1E
100
AcDbEntity
  8
30
  6
CONTINUOUS
100
AcDbDimension
  2
*D10
 10
272.0
 20
0.0000000000000179
 30
0.0
 11
268.5
 21
28.50000000000006
 31
0.0
 70
    32
  3
STANDARD
100
AcDbAlignedDimension
 13
335.2913707384479
 23
57.0
 33
0.0
 14
335.2913707384479
 24
0.0
 34
0.0
 50
90.0
100
AcDbRotatedDimension
  0
DIMENSION
  5
61F8
330
1E
100
AcDbEntity
  8
30
  6
CONTINUOUS
100
AcDbDimension
  2
*D11
 10
272.0
 20
-44.99999999999999
 30
0.0
 11
268.5
 21
-22.49999999999994
 31
0.0
 70
    32
  3
STANDARD
100
AcDbAlignedDimension
 13
335.2913707384479
 23
0.0
 33
0.0
 14
335.2913707384479
 24
-45.0
 34
0.0
 50
90.0
100
AcDbRotatedDimension
  0
DIMENSION
  5
6205
330
1E
100
AcDbEntity
  8
30
  6
CONTINUOUS
100
AcDbDimension
  2
*D12
 10
272.0
 20
-51.00000000013276
 30
0.0
 11
268.5
 21
-48.00000000006632
 31
0.0
 70
    32
  3
STANDARD
100
AcDbAlignedDimension
 13
335.2913707384479
 23
-45.0
 33
0.0
 14
336.2912977219459
 24
-51.00000000013278
 34
0.0
 50
90.0
100
AcDbRotatedDimension
1001
ACAD
1000
DSTYLE
1002
{
1070
   287
1070
     4
1070
   287
1070
     4
1070
   279
1070
     1
1002
}
  0
LWPOLYLINE
  5
621B
330
1E
100
AcDbEntity
  8
12
  6
DASHED
100
AcDbPolyline
 90
        2
 70
     0
 43
0.0
 10
438.2913707384479
 20
-113.0
 10
452.2914928087479
 20
-113.0
  0
LINE
  5
621C
330
1E
100
AcDbEntity
  8
12
  6
DASHED
100
AcDbLine
 10
452.2914928087479
 20
-113.0
 30
0.0
 11
452.2914928087479
 21
-121.0
 31
0.0
  0
LINE
  5
621D
330
1E
100
AcDbEntity
  8
12
  6
DASHED
100
AcDbLine
 10
438.2913707384479
 20
-112.0
 30
0.0
 11
410.2913707384479
 21
-112.0
 31
0.0
  0
LINE
  5
621E
330
1E
100
AcDbEntity
  8
12
  6
DASHED
100
AcDbLine
 10
438.2913707384479
 20
-122.0
 30
0.0
 11
410.2913707384479
 21
-122.0
 31
0.0
  0
DIMENSION
  5
621F
330
1E
100
AcDbEntity
  8
30
  6
CONTINUOUS
100
AcDbDimension
  2
*D13
 10
438.2913707384479
 20
-91.0
 30
0.0
 11
424.2913707384479
 21
-87.5
 31
0.0
 70
    32
  3
STANDARD
100
AcDbAlignedDimension
 13
410.2913707384479
 23
-108.4999999999999
 33
0.0
 14
438.2913707384479
 24
-112.0
 34
0.0
100
AcDbRotatedDimension
  0
DIMENSION
  5
622C
330
1E
100
AcDbEntity
  8
30
  6
CONTINUOUS
100
AcDbDimension
  2
*D14
 10
452.2914928087479
 20
-91.0
 30
0.0
 11
445.2914317735979
 21
-87.5
 31
0.0
 70
    32
  3
STANDARD
100
AcDbAlignedDimension
 13
438.2913707384479
 23
-113.0
 33
0.0
 14
452.2914928087479
 24
-113.0
 34
0.0
100
AcDbRotatedDimension
  0
LEADER
  5
6239
330
1E
100
AcDbEntity
  8
30
  6
CONTINUOUS
100
AcDbLeader
  3
STANDARD
 76
     3
 10
451.3937097878775
 20
-114.0
 30
0.0
 10
471.5450628219668
 20
-93.84763201255173
 30
0.0
 10
485.0638628843039
 20
-93.83706309144873
 30
0.0
211
-1.0
221
0.0
231
0.0
1001
ACAD
1000
DSTYLE
1002
{
1070
     5
1000
OPEN
1070
   342
1005
3B2
1002
}
  0
TEXT
  5
623A
330
1E
100
AcDbEntity
  8
30
  6
CONTINUOUS
100
AcDbText
 10
473.472019801799
 20
-92.32555634370919
 30
0.0
 40
4.0
  1
M8
100
AcDbText
  0
DIMENSION
  5
623B
330
1E
100
AcDbEntity
  8
30
  6
CONTINUOUS
100
AcDbDimension
  2
*D15
 10
402.2913707384479
 20
-222.0
 30
0.0
 11
398.2913707384479
 21
-218.5
 31
0.0
 70
    32
  3
STANDARD
100
AcDbAlignedDimension
 13
394.2913707384479
 23
-212.0
 33
0.0
 14
402.2913707384479
 24
-212.0
 34
0.0
100
AcDbRotatedDimension
  0
DIMENSION
  5
6248
330
1E
100
AcDbEntity
  8
30
  6
CONTINUOUS
100
AcDbDimension
  2
*D16
 10
438.2913707384479
 20
-222.0
 30
0.0
 11
420.2913707384479
 21
-218.5
 31
0.0
 70
    32
  3
STANDARD
100
AcDbAlignedDimension
 13
402.2913707384479
 23
-212.0
 33
0.0
 14
438.2913707384479
 24
-132.0
 34
0.0
100
AcDbRotatedDimension
  0
DIMENSION
  5
6294
330
1E
100
AcDbEntity
  8
30
  6
CONTINUOUS
100
AcDbDimension
  2
*D17
 10
335.2913707384479
 20
-230.1666666666666
 30
0.0
 11
384.7913707384479
 21
-230.1666666666666
 31
0.0
 70
   160
  3
STANDARD
100
AcDbAlignedDimension
 13
438.2913707384479
 23
-133.0
 33
0.0
 14
335.2913707384479
 24
-107.0
 34
0.0
100
AcDbRotatedDimension
  0
DIMENSION
  5
62AA
330
1E
100
AcDbEntity
  8
30
  6
CONTINUOUS
100
AcDbDimension
  2
*D18
 10
335.2913707384479
 20
-230.1666666666666
 30
0.0
 11
315.0
 21
-230.1666666666666
 31
0.0
 70
   160
  3
STANDARD
100
AcDbAlignedDimension
 13
327.7913707384479
 23
-4.0
 33
0.0
 14
335.2913707384479
 24
-107.0
 34
0.0
100
AcDbRotatedDimension
  0
DIMENSION
  5
62E0
330
1E
100
AcDbEntity
  8
30
  6
CONTINUOUS
100
AcDbDimension
  2
*D19
 10
293.2686943081847
 20
-245.0
 30
0.0
 11
365.7800325233163
 21
-241.5
 31
0.0
 70
    32
  3
STANDARD
100
AcDbAlignedDimension
 13
438.2913707384479
 23
-222.0
 33
0.0
 14
293.2686943081847
 24
0.0
 34
0.0
100
AcDbRotatedDimension
  0
DIMENSION
  5
62F6
330
1E
100
AcDbEntity
  8
30
  6
CONTINUOUS
100
AcDbDimension
  2
*D20
 10
212.7686943081847
 20
-244.6666666666666
 30
0.0
 11
253.0186943081848
 21
-241.1666666666666
 31
0.0
 70
    32
  3
STANDARD
100
AcDbAlignedDimension
 13
293.2686943081847
 23
-1.0
 33
0.0
 14
212.7686943081848
 24
-1.0
 34
0.0
100
AcDbRotatedDimension
  0
LWPOLYLINE
  5
6327
330
1E
100
AcDbEntity
  8
18
100
AcDbPolyline
 90
        6
 70
     0
 43
0.0
 10
-105.0
 20
-359.0
 10
175.0
 20
-359.0
 10
175.0
 20
-632.0
 10
-105.0
 20
-632.0
 10
-105.0
 20
-359.0
 10
-105.0
 20
-632.0
  0
LWPOLYLINE
  5
6328
330
1E
100
AcDbEntity
  8
12
  6
DASHED
100
AcDbPolyline
 90
        2
 70
     0
 43
0.0
 10
-34.85003662108999
 20
-365.75
 10
-34.85003662108999
 20
-382.25
  0
CIRCLE
  5
6329
330
1E
100
AcDbEntity
  8
12
100
AcDbCircle
 10
-34.85003662108999
 20
-374.0
 30
0.0
 40
4.0
  0
LWPOLYLINE
  5
632A
330
1E
100
AcDbEntity
  8
12
100
AcDbPolyline
 90
        2
 70
     0
 43
0.0
 10
43.40002441405999
 20
-374.0
 10
26.90002441405999
 20
-374.0
  0
CIRCLE
  5
632B
330
1E
100
AcDbEntity
  8
12
100
AcDbCircle
 10
35.15002441406
 20
-374.0
 30
0.0
 40
4.0
  0
LWPOLYLINE
  5
632C
330
1E
100
AcDbEntity
  8
12
  6
DASHED
100
AcDbPolyline
 90
        2
 70
     0
 43
0.0
 10
35.15002441406
 20
-365.75
 10
35.15002441406
 20
-382.25
  0
LWPOLYLINE
  5
632D
330
1E
100
AcDbEntity
  8
12
100
AcDbPolyline
 90
        2
 70
     0
 43
0.0
 10
-26.60003662109
 20
-374.0
 10
-43.10003662108999
 20
-374.0
  0
LWPOLYLINE
  5
632E
330
1E
100
AcDbEntity
  8
12
100
AcDbPolyline
 90
        2
 70
     0
 43
0.0
 10
-26.60003662109
 20
-617.0
 10
-43.10003662108999
 20
-617.0
  0
LWPOLYLINE
  5
632F
330
1E
100
AcDbEntity
  8
12
  6
DASHED
100
AcDbPolyline
 90
        2
 70
     0
 43
0.0
 10
-34.85003662108999
 20
-608.75
 10
-34.85003662108999
 20
-625.25
  0
CIRCLE
  5
6330
330
1E
100
AcDbEntity
  8
12
100
AcDbCircle
 10
-34.85003662108999
 20
-617.0
 30
0.0
 40
4.0
  0
LWPOLYLINE
  5
6331
330
1E
100
AcDbEntity
  8
12
100
AcDbPolyline
 90
        2
 70
     0
 43
0.0
 10
43.40002441405999
 20
-617.0
 10
26.90002441405999
 20
-617.0
  0
CIRCLE
  5
6332
330
1E
100
AcDbEntity
  8
12
100
AcDbCircle
 10
35.15002441406
 20
-617.0
 30
0.0
 40
4.0
  0
LWPOLYLINE
  5
6333
330
1E
100
AcDbEntity
  8
12
  6
DASHED
100
AcDbPolyline
 90
        2
 70
     0
 43
0.0
 10
35.15002441406
 20
-608.75
 10
35.15002441406
 20
-625.25
  0
DIMENSION
  5
6361
330
1E
100
AcDbEntity
  8
30
  6
CONTINUOUS
100
AcDbDimension
  2
*D21
 10
-136.0
 20
-499.9999999999999
 30
0.0
 11
-139.4999999999999
 21
-437.0
 31
0.0
 70
    32
  3
STANDARD
100
AcDbAlignedDimension
 13
-43.10003662108999
 23
-374.0
 33
0.0
 14
-105.0
 24
-500.0
 34
0.0
 50
90.0
100
AcDbRotatedDimension
  0
DIMENSION
  5
636E
330
1E
100
AcDbEntity
  8
30
  6
CONTINUOUS
100
AcDbDimension
  2
*D22
 10
-136.0
 20
-617.0
 30
0.0
 11
-139.4999999999999
 21
-558.4999999999999
 31
0.0
 70
    32
  3
STANDARD
100
AcDbAlignedDimension
 13
-105.0
 23
-500.0
 33
0.0
 14
-43.10003662108999
 24
-617.0
 34
0.0
 50
90.0
100
AcDbRotatedDimension
1001
ACAD
1000
DSTYLE
1002
{
1070
   287
1070
     4
1070
   287
1070
     4
1070
   279
1070
     1
1002
}
  0
LWPOLYLINE
  5
6396
330
1E
100
AcDbEntity
  8
18
100
AcDbPolyline
 90
        6
 70
     0
 43
0.0
 10
220.0
 20
-359.0
 10
500.0
 20
-359.0
 10
500.0
 20
-632.0
 10
220.0
 20
-632.0
 10
220.0
 20
-359.0
 10
220.0
 20
-632.0
  0
DIMENSION
  5
63B7
330
1E
100
AcDbEntity
  8
30
  6
CONTINUOUS
100
AcDbDimension
  2
*D23
 10
350.4999999999999
 20
-460.5000000000003
 30
0.0
 11
366.4999999999996
 21
-437.9999999999998
 31
0.0
 70
   164
  3
STANDARD
100
AcDbRadialDimension
 15
352.5554804791094
 25
-454.3335585626716
 35
0.0
 40
0.0
1001
ACAD
1000
DSTYLE
1002
{
1070
   288
1070
     1
1002
}
  0
LWPOLYLINE
  5
6439
330
1E
100
AcDbEntity
  8
10
  6
CONTINUOUS
100
AcDbPolyline
 90
       12
 70
     0
 43
0.0
 10
31.15002441406
 20
310.0
 10
175.0
 20
310.0
 10
175.0
 20
313.0
 10
175.0
 20
313.0
 10
175.0
 20
413.0
 10
-105.0
 20
413.0
 10
-105.0
 20
317.0
 10
-105.0
 20
317.0
 10
-105.0
 20
310.0
 10
-51.0
 20
310.0
 10
-51.0
 20
310.0
 10
31.15002441406
 20
310.0
  0
LWPOLYLINE
  5
644B
330
1E
100
AcDbEntity
  8
10
  6
CONTINUOUS
100
AcDbPolyline
 90
        4
 70
     0
 43
0.0
 10
-22.0
 20
306.0
 10
-22.0
 20
274.0
 10
22.0
 20
274.0
 10
22.0
 20
305.0
  0
LWPOLYLINE
  5
644F
330
1E
100
AcDbEntity
  8
10
  6
CONTINUOUS
100
AcDbPolyline
 90
        3
 70
     0
 43
0.0
 10
-30.85003662109
 20
310.0
 10
-30.85003662109
 20
306.0
 10
31.15002441406
 20
306.0
  0
LINE
  5
6514
330
1E
100
AcDbEntity
  8
10
  6
CONTINUOUS
100
AcDbLine
 10
31.15002441406
 20
306.0
 30
0.0
 11
31.15002441406
 21
310.0
 31
0.0
  0
LINE
  5
6515
330
1E
100
AcDbEntity
  8
10
  6
CONTINUOUS
100
AcDbLine
 10
31.15002441406
 20
310.0
 30
0.0
 11
31.15002441406
 21
310.0
 31
0.0
  0
LWPOLYLINE
  5
651A
330
1E
100
AcDbEntity
  8
17
  6
CONTINOUS
100
AcDbPolyline
 90
        4
 70
     1
 43
0.0
 10
-89.99993896483999
 20
381.0
 10
-49.99993896483999
 20
381.0
 10
-49.99993896483999
 20
373.0
 10
-89.99993896483999
 20
373.0
  0
LWPOLYLINE
  5
651B
330
1E
100
AcDbEntity
  8
17
  6
CONTINOUS
100
AcDbPolyline
 90
        4
 70
     1
 43
0.0
 10
-20.0
 20
381.0
 10
20.0
 20
381.0
 10
20.0
 20
373.0
 10
-20.0
 20
373.0
  0
LWPOLYLINE
  5
651C
330
1E
100
AcDbEntity
  8
17
  6
CONTINOUS
100
AcDbPolyline
 90
        4
 70
     1
 43
0.0
 10
50.0
 20
381.0
 10
90.0
 20
381.0
 10
90.0
 20
373.0
 10
50.0
 20
373.0
  0
LWPOLYLINE
  5
651D
330
1E
100
AcDbEntity
  8
17
  6
CONTINOUS
100
AcDbPolyline
 90
        2
 70
     0
 43
0.0
 10
-76.49993896484
 20
381.0
 10
-76.49993896484
 20
373.0
  0
LWPOLYLINE
  5
6521
330
1E
100
AcDbEntity
  8
17
  6
CONTINOUS
100
AcDbPolyline
 90
        2
 70
     0
 43
0.0
 10
-63.5
 20
381.0
 10
-63.5
 20
373.0
  0
LWPOLYLINE
  5
6522
330
1E
100
AcDbEntity
  8
17
  6
CONTINOUS
100
AcDbPolyline
 90
        2
 70
     0
 43
0.0
 10
-6.5
 20
381.0
 10
-6.5
 20
373.0
  0
LWPOLYLINE
  5
6523
330
1E
100
AcDbEntity
  8
17
  6
CONTINOUS
100
AcDbPolyline
 90
        2
 70
     0
 43
0.0
 10
6.5
 20
381.0
 10
6.5
 20
373.0
  0
LWPOLYLINE
  5
6524
330
1E
100
AcDbEntity
  8
17
  6
CONTINOUS
100
AcDbPolyline
 90
        2
 70
     0
 43
0.0
 10
63.5
 20
381.0
 10
63.5
 20
373.0
  0
LWPOLYLINE
  5
6525
330
1E
100
AcDbEntity
  8
17
  6
CONTINOUS
100
AcDbPolyline
 90
        2
 70
     0
 43
0.0
 10
76.5
 20
381.0
 10
76.5
 20
373.0
  0
DIMENSION
  5
6526
330
1E
100
AcDbEntity
  8
30
  6
CONTINUOUS
100
AcDbDimension
  2
*D24
 10
-119.0
 20
310.0
 30
0.0
 11
-122.5
 21
361.5
 31
0.0
 70
    32
  3
STANDARD
100
AcDbAlignedDimension
 13
-105.0
 23
413.0
 33
0.0
 14
-105.0
 24
310.0
 34
0.0
 50
90.0
100
AcDbRotatedDimension
  0
DIMENSION
  5
657E
330
1E
100
AcDbEntity
  8
30
  6
CONTINUOUS
100
AcDbDimension
  2
*D25
 10
178.0
 20
206.0
 30
0.0
 11
174.4999999999999
 21
190.0
 31
0.0
 70
    32
  3
STANDARD
100
AcDbAlignedDimension
 13
150.33312988281
 23
174.0
 33
0.0
 14
147.5
 24
206.0
 34
0.0
 50
90.0
100
AcDbRotatedDimension
  0
DIMENSION
  5
657F
330
1E
100
AcDbEntity
  8
30
  6
CONTINUOUS
100
AcDbDimension
  2
*D26
 10
178.0
 20
174.0
 30
0.0
 11
174.4999999999999
 21
170.0
 31
0.0
 70
    32
  3
STANDARD
100
AcDbAlignedDimension
 13
152.87994384766
 23
166.0
 33
0.0
 14
150.33312988281
 24
174.0
 34
0.0
 50
90.0
100
AcDbRotatedDimension
  0
DIMENSION
  5
6580
330
1E
100
AcDbEntity
  8
30
  6
CONTINUOUS
100
AcDbDimension
  2
*D27
 10
178.0
 20
141.0
 30
0.0
 11
174.4999999999999
 21
153.5
 31
0.0
 70
    32
  3
STANDARD
100
AcDbAlignedDimension
 13
153.8799438476599
 23
166.0
 33
0.0
 14
161.0
 24
141.0
 34
0.0
 50
90.0
100
AcDbRotatedDimension
  0
DIMENSION
  5
6581
330
1E
100
AcDbEntity
  8
30
  6
CONTINUOUS
100
AcDbDimension
  2
*D28
 10
199.0
 20
140.9999999999999
 30
0.0
 11
195.4999999999999
 21
181.0
 31
0.0
 70
    32
  3
STANDARD
100
AcDbAlignedDimension
 13
161.0
 23
220.9999999999999
 33
0.0
 14
160.0
 24
141.0
 34
0.0
 50
90.0
100
AcDbRotatedDimension
  0
DIMENSION
  5
6582
330
1E
100
AcDbEntity
  8
30
  6
CONTINUOUS
100
AcDbDimension
  2
*D29
 10
178.0
 20
206.0
 30
0.0
 11
174.4999999999999
 21
213.5
 31
0.0
 70
    32
  3
STANDARD
100
AcDbAlignedDimension
 13
160.0
 23
220.9999999999999
 33
0.0
 14
146.5
 24
206.0
 34
0.0
 50
90.0
100
AcDbRotatedDimension
  0
DIMENSION
  5
66D0
330
1E
100
AcDbEntity
  8
30
  6
CONTINUOUS
100
AcDbDimension
  2
*D30
 10
135.4773310971244
 20
201.3314385518704
 30
0.0
 11
177.8333333333336
 21
238.0
 31
0.0
 70
   163
  3
STANDARD
100
AcDbDiametricDimension
 15
144.5226689028755
 25
210.6685614481296
 35
0.0
 40
0.0
1001
ACAD
1000
DSTYLE
1002
{
1070
   288
1070
     1
1002
}
  0
LWPOLYLINE
  5
66D1
330
1E
100
AcDbEntity
  8
10
  6
CONTINUOUS
100
AcDbPolyline
 90
        2
 70
     0
 43
0.0
 10
-129.0
 20
116.0
 42
0.9999999999999998
 10
-129.0
 20
136.0
210
0.0
220
0.0
230
-1.0
  0
LWPOLYLINE
  5
66D2
330
1E
100
AcDbEntity
  8
17
  6
CONTINOUS
100
AcDbPolyline
 90
        4
 70
     0
 43
0.0
 10
120.0
 20
141.0
 10
120.0
 20
221.0
 10
160.0
 20
221.0
 10
160.0
 20
141.0
  0
LWPOLYLINE
  5
66D3
330
1E
100
AcDbEntity
  8
17
  6
DASHDOT
100
AcDbPolyline
 90
        2
 70
     0
 43
0.0
 10
140.0
 20
231.5751953124999
 10
140.0
 20
106.0
  0
LWPOLYLINE
  5
66D4
330
1E
100
AcDbEntity
  8
10
  6
CONTINUOUS
100
AcDbPolyline
 90
        2
 70
     0
 43
0.0
 10
-151.0
 20
136.0
 42
0.9999999999999998
 10
-151.0
 20
116.0
210
0.0
220
0.0
230
-1.0
  0
LWPOLYLINE
  5
66D5
330
1E
100
AcDbEntity
  8
10
  6
CONTINUOUS
100
AcDbPolyline
 90
        2
 70
     0
 43
0.0
 10
128.99993896484
 20
136.0
 10
150.9999389648398
 20
136.0
  0
LWPOLYLINE
  5
66D6
330
1E
100
AcDbEntity
  8
17
  6
DASHDOT
100
AcDbPolyline
 90
        2
 70
     0
 43
0.0
 10
126.5631713867199
 20
206.0
 10
153.72882080078
 20
206.0
  0
LWPOLYLINE
  5
66D7
330
1E
100
AcDbEntity
  8
17
  6
DASHDOT
100
AcDbPolyline
 90
        2
 70
     0
 43
0.0
 10
125.71423339844
 20
166.0
 10
152.87994384766
 20
166.0
  0
LWPOLYLINE
  5
66D8
330
1E
100
AcDbEntity
  8
17
  6
DASHDOT
100
AcDbPolyline
 90
        2
 70
     0
 43
0.0
 10
-133.4999999999999
 20
174.0
 42
0.9999999999999998
 10
-146.5
 20
174.0
210
0.0
220
0.0
230
-1.0
  0
LWPOLYLINE
  5
66D9
330
1E
100
AcDbEntity
  8
17
  6
CONTINOUS
100
AcDbPolyline
 90
        2
 70
     0
 43
0.0
 10
150.33312988281
 20
174.0
 10
124.86529541016
 20
174.0
  0
LWPOLYLINE
  5
66DA
330
1E
100
AcDbEntity
  8
17
  6
DASHDOT
100
AcDbPolyline
 90
        2
 70
     0
 43
0.0
 10
-146.5
 20
166.0
 42
0.9999999999999998
 10
-133.4999999999999
 20
166.0
210
0.0
220
0.0
230
-1.0
  0
LWPOLYLINE
  5
66DB
330
1E
100
AcDbEntity
  8
17
  6
DASHDOT
100
AcDbPolyline
 90
        2
 70
     0
 43
0.0
 10
133.4999999999999
 20
166.0
 10
133.4999999999999
 20
174.0
  0
LWPOLYLINE
  5
66DC
330
1E
100
AcDbEntity
  8
17
  6
DASHDOT
100
AcDbPolyline
 90
        2
 70
     0
 43
0.0
 10
146.5
 20
174.0
 10
146.5
 20
166.0
  0
CIRCLE
  5
66DD
330
1E
100
AcDbEntity
  8
17
  6
DASHDOT
100
AcDbCircle
 10
-140.0
 20
206.0
 30
0.0
 40
6.5
210
0.0
220
0.0
230
-1.0
  0
LWPOLYLINE
  5
66DE
330
1E
100
AcDbEntity
  8
17
  6
CONTINOUS
100
AcDbPolyline
 90
        4
 70
     1
 43
0.0
 10
120.0
 20
381.0
 10
160.0
 20
381.0
 10
160.0
 20
373.0
 10
120.0
 20
373.0
  0
LWPOLYLINE
  5
66DF
330
1E
100
AcDbEntity
  8
17
  6
CONTINOUS
100
AcDbPolyline
 90
        2
 70
     0
 43
0.0
 10
146.5
 20
381.0
 10
146.5
 20
373.0
  0
LWPOLYLINE
  5
66E0
330
1E
100
AcDbEntity
  8
17
  6
CONTINOUS
100
AcDbPolyline
 90
        2
 70
     0
 43
0.0
 10
133.4999999999999
 20
381.0
 10
133.4999999999999
 20
373.0
  0
LWPOLYLINE
  5
674E
330
1E
100
AcDbEntity
  8
10
  6
CONTINUOUS
100
AcDbPolyline
 90
        2
 70
     0
 43
0.0
 10
151.0
 20
-126.9999999999999
 42
0.9999999999999998
 10
151.0
 20
-106.9999999999999
  0
LWPOLYLINE
  5
674F
330
1E
100
AcDbEntity
  8
10
  6
CONTINUOUS
100
AcDbPolyline
 90
        2
 70
     0
 43
0.0
 10
129.0
 20
-106.9999999999999
 42
0.9999999999999998
 10
129.0
 20
-126.9999999999999
  0
LWPOLYLINE
  5
6750
330
1E
100
AcDbEntity
  8
17
  6
DASHDOT
100
AcDbPolyline
 90
        2
 70
     0
 43
0.0
 10
140.0
 20
-96.99999999999999
 10
140.0
 20
-242.0
  0
DIMENSION
  5
6751
330
1E
100
AcDbEntity
  8
30
  6
CONTINUOUS
100
AcDbDimension
  2
*D31
 10
160.0
 20
-226.5
 30
0.0
 11
140.0
 21
-223.0
 31
0.0
 70
    32
  3
STANDARD
100
AcDbAlignedDimension
 13
120.0
 23
-212.0
 33
0.0
 14
160.0
 24
-212.0
 34
0.0
100
AcDbRotatedDimension
  0
LINE
  5
6752
330
1E
100
AcDbEntity
  8
17
  6
CONTINOUS
100
AcDbLine
 10
120.0
 20
-212.0
 30
0.0
 11
160.0
 21
-212.0
 31
0.0
  0
LINE
  5
6753
330
1E
100
AcDbEntity
  8
17
  6
CONTINOUS
100
AcDbLine
 10
120.0
 20
-132.0
 30
0.0
 11
120.0
 21
-212.0
 31
0.0
  0
CIRCLE
  5
6754
330
1E
100
AcDbEntity
  8
17
  6
DASHDOT
100
AcDbCircle
 10
140.0
 20
-197.0
 30
0.0
 40
6.5
  0
LINE
  5
6755
330
1E
100
AcDbEntity
  8
17
  6
CONTINOUS
100
AcDbLine
 10
160.0
 20
-212.0
 30
0.0
 11
160.0
 21
-132.0
 31
0.0
  0
LWPOLYLINE
  5
6756
330
1E
100
AcDbEntity
  8
17
  6
DASHDOT
100
AcDbPolyline
 90
        2
 70
     0
 43
0.0
 10
126.5631713867199
 20
-197.0
 10
153.72882080078
 20
-197.0
  0
LWPOLYLINE
  5
6757
330
1E
100
AcDbEntity
  8
17
  6
DASHDOT
100
AcDbPolyline
 90
        2
 70
     0
 43
0.0
 10
125.71423339844
 20
-157.0
 10
152.87994384766
 20
-157.0
  0
LWPOLYLINE
  5
6758
330
1E
100
AcDbEntity
  8
17
  6
DASHDOT
100
AcDbPolyline
 90
        4
 70
     1
 43
0.0
 10
146.5
 20
-165.0
 10
146.5
 20
-157.0
 42
0.9999999999999998
 10
133.4999999999999
 20
-157.0
 10
133.4999999999999
 20
-165.0
 42
0.9999999999999998
  0
LWPOLYLINE
  5
6759
330
1E
100
AcDbEntity
  8
17
  6
DASHDOT
100
AcDbPolyline
 90
        2
 70
     0
 43
0.0
 10
150.33312988281
 20
-165.0
 10
124.86529541016
 20
-165.0
  0
LWPOLYLINE
  5
675A
330
1E
100
AcDbEntity
  8
10
  6
CONTINUOUS
100
AcDbPolyline
 90
        2
 70
     0
 43
0.0
 10
128.99993896484
 20
-126.9999999999999
 10
150.9999389648398
 20
-126.9999999999999
  0
DIMENSION
  5
6770
330
1E
100
AcDbEntity
  8
30
  6
CONTINUOUS
100
AcDbDimension
  2
*D32
 10
70.0
 20
-239.0
 30
0.0
 11
35.0
 21
-235.4999999999999
 31
0.0
 70
    32
  3
STANDARD
100
AcDbAlignedDimension
 13
-0.0000000000000004
 23
-203.5
 33
0.0
 14
70.0
 24
-203.5
 34
0.0
100
AcDbRotatedDimension
  0
DIMENSION
  5
677D
330
1E
100
AcDbEntity
  8
30
  6
CONTINUOUS
100
AcDbDimension
  2
*D33
 10
140.0
 20
-239.0
 30
0.0
 11
105.0
 21
-235.4999999999999
 31
0.0
 70
    32
  3
STANDARD
100
AcDbAlignedDimension
 13
70.0
 23
-203.5
 33
0.0
 14
140.0
 24
-240.0
 34
0.0
100
AcDbRotatedDimension
1001
ACAD
1000
DSTYLE
1002
{
1070
   287
1070
     4
1070
   287
1070
     4
1070
   279
1070
     1
1002
}
  0
DIMENSION
  5
67C0
330
1E
100
AcDbEntity
  8
30
  6
CONTINUOUS
100
AcDbDimension
  2
*D34
 10
-0.0000000000000043
 20
-250.0
 30
0.0
 11
-52.5
 21
-246.4999999999999
 31
0.0
 70
    32
  3
STANDARD
100
AcDbAlignedDimension
 13
-105.0
 23
-133.0
 33
0.0
 14
-0.000000000000002
 24
-212.0
 34
0.0
100
AcDbRotatedDimension
  0
DIMENSION
  5
67CD
330
1E
100
AcDbEntity
  8
30
  6
CONTINUOUS
100
AcDbDimension
  2
*D35
 10
175.0
 20
-250.0
 30
0.0
 11
87.5
 21
-246.4999999999999
 31
0.0
 70
    32
  3
STANDARD
100
AcDbAlignedDimension
 13
-0.000000000000002
 23
-212.0
 33
0.0
 14
175.0
 24
-133.0
 34
0.0
100
AcDbRotatedDimension
1001
ACAD
1000
DSTYLE
1002
{
1070
   287
1070
     4
1070
   287
1070
     4
1070
   279
1070
     1
1002
}
  0
DIMENSION
  5
68FF
330
1E
100
AcDbEntity
  8
30
  6
CONTINUOUS
100
AcDbDimension
  2
*D36
 10
-136.0
 20
0.0000000000000088
 30
0.0
 11
-139.5
 21
70.49999999999998
 31
0.0
 70
    32
  3
STANDARD
100
AcDbAlignedDimension
 13
-105.0
 23
141.0
 33
0.0
 14
-105.0
 24
0.0
 34
0.0
 50
90.0
100
AcDbRotatedDimension
  0
DIMENSION
  5
690C
330
1E
100
AcDbEntity
  8
30
  6
CONTINUOUS
100
AcDbDimension
  2
*D37
 10
-136.0
 20
-132.0
 30
0.0
 11
-139.5
 21
-66.00000000000001
 31
0.0
 70
    32
  3
STANDARD
100
AcDbAlignedDimension
 13
-105.0
 23
0.0
 33
0.0
 14
-105.0
 24
-132.0
 34
0.0
 50
90.0
100
AcDbRotatedDimension
1001
ACAD
1000
DSTYLE
1002
{
1070
   287
1070
     4
1070
   279
1070
     1
1002
}
  0
DIMENSION
  5
6919
330
1E
100
AcDbEntity
  8
30
  6
CONTINUOUS
100
AcDbDimension
  2
*D38
 10
-153.0
 20
-132.0
 30
0.0
 11
-156.4999999999999
 21
4.499999999999981
 31
0.0
 70
    32
  3
STANDARD
100
AcDbAlignedDimension
 13
-135.9999999999999
 23
141.0
 33
0.0
 14
-136.0
 24
-132.0
 34
0.0
 50
90.0
100
AcDbRotatedDimension
  0
VIEWPORT
  5
9AC
330
1A
100
AcDbEntity
 67
     1
  8
0
  6
CONTINUOUS
100
AcDbViewport
 10
171.9995348790992
 20
144.1384735538403
 30
0.0
 40
488.8676857773514
 41
292.3514905034161
 68
     1
 69
     1
1001
ACAD
1000
MVIEW
1002
{
1070
    16
1010
0.0
1020
0.0
1030
0.0
1010
0.0
1020
0.0
1030
1.0
1040
0.0
1040
292.3514905034161
1040
171.9995348790992
1040
144.1384735538403
1040
50.0
1040
0.0
1040
0.0
1070
     0
1070
   100
1070
     1
1070
     1
1070
     0
1070
     0
1070
     0
1070
     0
1040
0.0
1040
0.0
1040
0.0
1040
10.0
1040
10.0
1040
10.0
1040
10.0
1070
     0
1002
{
1002
}
1002
}
  0
ENDSEC
  0
SECTION
  2
OBJECTS
  0
DICTIONARY
  5
C
330
0
100
AcDbDictionary
  3
ACAD_GROUP
350
D
  3
ACAD_LAYOUT
350
19
  3
ACAD_MLINESTYLE
350
16
  3
ACAD_PLOTSETTINGS
350
18
  3
ACAD_PLOTSTYLENAME
350
E
  3
ACDBVARIABLEDICTIONARY
350
6866
  3
ACDBHEADERROUNDTRIPXREC
350
694C
  0
DICTIONARY
  5
178
330
1E
100
AcDbDictionary
280
     1
  3
ACAD_LAYOUTSELFREF
360
696E
  0
DICTIONARY
  5
17A
330
1A
100
AcDbDictionary
280
     1
  3
ACAD_LAYOUTSELFREF
360
696D
  0
DICTIONARY
  5
D
102
{ACAD_REACTORS
330
C
102
}
330
C
100
AcDbDictionary
  0
DICTIONARY
  5
19
102
{ACAD_REACTORS
330
C
102
}
330
C
100
AcDbDictionary
  0
DICTIONARY
  5
16
102
{ACAD_REACTORS
330
C
102
}
330
C
100
AcDbDictionary
  3
STANDARD
350
17
  0
DICTIONARY
  5
18
102
{ACAD_REACTORS
330
C
102
}
330
C
100
AcDbDictionary
  0
ACDBDICTIONARYWDFLT
  5
E
102
{ACAD_REACTORS
330
C
102
}
330
C
100
AcDbDictionary
281
     1
  3
Normal
350
F
100
AcDbDictionaryWithDefault
340
F
  0
DICTIONARY
  5
6866
102
{ACAD_REACTORS
330
C
102
}
330
C
100
AcDbDictionary
  3
DIMASSOC
350
6867
  0
DICTIONARY
  5
694C
102
{ACAD_REACTORS
330
C
102
}
330
C
100
AcDbDictionary
  3
TSTACKALIGN
350
694D
  3
TSTACKSIZE
350
694E
  3
HYPERLINKBASE
350
694F
  3
STYLESHEET
350
6950
  3
LAYOUTDICT
350
6951
  3
PLOTSETDICT
350
6952
  3
PLOTSTYLNAMDICT
350
6953
  3
LWETCUNION
350
6954
  3
INSUNITS
350
6955
  3
CEPSNTYPE
350
6956
  3
FINGERPRINTGUID
350
6957
  3
VERSIONGUID
350
6958
  3
PSVPSCALE
350
6959
  3
DIMSTYLEDATA
350
695A
  3
PUCSORTHOREF
350
695B
  3
PUCSORTHOVIEW
350
695C
  3
PUCSBASE
350
695D
  3
PUCSORGTOP
350
695E
  3
PUCSORGBOTTOM
350
695F
  3
PUCSORGLEFT
350
6960
  3
PUCSORGRIGHT
350
6961
  3
PUCSORGFRONT
350
6962
  3
PUCSORGBACK
350
6963
  3
UCSORTHOREF
350
6964
  3
UCSORTHOVIEW
350
6965
  3
UCSBASE
350
6966
  3
UCSORGTOP
350
6967
  3
UCSORGBOTTOM
350
6968
  3
UCSORGLEFT
350
6969
  3
UCSORGRIGHT
350
696A
  3
UCSORGFRONT
350
696B
  3
UCSORGBACK
350
696C
  0
XRECORD
  5
696E
102
{ACAD_REACTORS
330
178
102
}
330
178
100
AcDbXrecord
340
1E
  0
XRECORD
  5
696D
102
{ACAD_REACTORS
330
17A
102
}
330
17A
100
AcDbXrecord
340
1A
  0
MLINESTYLE
  5
17
102
{ACAD_REACTORS
330
16
102
}
330
16
100
AcDbMlineStyle
  2
STANDARD
 70
     0
  3

 62
   256
 51
90.0
 52
90.0
 71
     2
 49
0.5
 62
   256
  6
BYLAYER
 49
-0.5
 62
   256
  6
BYLAYER
  0
ACDBPLACEHOLDER
  5
F
102
{ACAD_REACTORS
330
E
102
}
330
E
100
AcDbPlaceHolder
280
     0
  0
DICTIONARYVAR
  5
6867
102
{ACAD_REACTORS
330
6866
102
}
330
6866
100
DictionaryVariables
280
     0
  1
1
  0
XRECORD
  5
694D
102
{ACAD_REACTORS
330
694C
102
}
330
694C
100
AcDbXrecord
 90
        1
  0
XRECORD
  5
694E
102
{ACAD_REACTORS
330
694C
102
}
330
694C
100
AcDbXrecord
 90
       70
  0
XRECORD
  5
694F
102
{ACAD_REACTORS
330
694C
102
}
330
694C
100
AcDbXrecord
  1

  0
XRECORD
  5
6950
102
{ACAD_REACTORS
330
694C
102
}
330
694C
100
AcDbXrecord
  1
KIKI.ctb
  0
XRECORD
  5
6951
102
{ACAD_REACTORS
330
694C
102
}
330
694C
100
AcDbXrecord
340
19
  0
XRECORD
  5
6952
102
{ACAD_REACTORS
330
694C
102
}
330
694C
100
AcDbXrecord
340
18
  0
XRECORD
  5
6953
102
{ACAD_REACTORS
330
694C
102
}
330
694C
100
AcDbXrecord
340
E
  0
XRECORD
  5
6954
102
{ACAD_REACTORS
330
694C
102
}
330
694C
100
AcDbXrecord
 90
    10781
  0
XRECORD
  5
6955
102
{ACAD_REACTORS
330
694C
102
}
330
694C
100
AcDbXrecord
 90
        0
  0
XRECORD
  5
6956
102
{ACAD_REACTORS
330
694C
102
}
330
694C
100
AcDbXrecord
 90
        0
  0
XRECORD
  5
6957
102
{ACAD_REACTORS
330
694C
102
}
330
694C
100
AcDbXrecord
  1

  0
XRECORD
  5
6958
102
{ACAD_REACTORS
330
694C
102
}
330
694C
100
AcDbXrecord
  1
{87F2D556-9741-11D8-B888-00004C595C72}
  0
XRECORD
  5
6959
102
{ACAD_REACTORS
330
694C
102
}
330
694C
100
AcDbXrecord
 40
0.0
  0
XRECORD
  5
695A
102
{ACAD_REACTORS
330
694C
102
}
330
694C
100
AcDbXrecord
1000
DSTYLE
1002
{
1070
    79
 70
     3
1070
   341
340
3B2
1070
   342
340
3B2
1002
}
  0
XRECORD
  5
695B
102
{ACAD_REACTORS
330
694C
102
}
330
694C
100
AcDbXrecord
340
0
  0
XRECORD
  5
695C
102
{ACAD_REACTORS
330
694C
102
}
330
694C
100
AcDbXrecord
 70
     0
  0
XRECORD
  5
695D
102
{ACAD_REACTORS
330
694C
102
}
330
694C
100
AcDbXrecord
340
0
  0
XRECORD
  5
695E
102
{ACAD_REACTORS
330
694C
102
}
330
694C
100
AcDbXrecord
 10
0.0
 20
0.0
 30
0.0
  0
XRECORD
  5
695F
102
{ACAD_REACTORS
330
694C
102
}
330
694C
100
AcDbXrecord
 10
0.0
 20
0.0
 30
0.0
  0
XRECORD
  5
6960
102
{ACAD_REACTORS
330
694C
102
}
330
694C
100
AcDbXrecord
 10
0.0
 20
0.0
 30
0.0
  0
XRECORD
  5
6961
102
{ACAD_REACTORS
330
694C
102
}
330
694C
100
AcDbXrecord
 10
0.0
 20
0.0
 30
0.0
  0
XRECORD
  5
6962
102
{ACAD_REACTORS
330
694C
102
}
330
694C
100
AcDbXrecord
 10
0.0
 20
0.0
 30
0.0
  0
XRECORD
  5
6963
102
{ACAD_REACTORS
330
694C
102
}
330
694C
100
AcDbXrecord
 10
0.0
 20
0.0
 30
0.0
  0
XRECORD
  5
6964
102
{ACAD_REACTORS
330
694C
102
}
330
694C
100
AcDbXrecord
340
0
  0
XRECORD
  5
6965
102
{ACAD_REACTORS
330
694C
102
}
330
694C
100
AcDbXrecord
 70
     0
  0
XRECORD
  5
6966
102
{ACAD_REACTORS
330
694C
102
}
330
694C
100
AcDbXrecord
340
0
  0
XRECORD
  5
6967
102
{ACAD_REACTORS
330
694C
102
}
330
694C
100
AcDbXrecord
 10
0.0
 20
0.0
 30
0.0
  0
XRECORD
  5
6968
102
{ACAD_REACTORS
330
694C
102
}
330
694C
100
AcDbXrecord
 10
0.0
 20
0.0
 30
0.0
  0
XRECORD
  5
6969
102
{ACAD_REACTORS
330
694C
102
}
330
694C
100
AcDbXrecord
 10
0.0
 20
0.0
 30
0.0
  0
XRECORD
  5
696A
102
{ACAD_REACTORS
330
694C
102
}
330
694C
100
AcDbXrecord
 10
0.0
 20
0.0
 30
0.0
  0
XRECORD
  5
696B
102
{ACAD_REACTORS
330
694C
102
}
330
694C
100
AcDbXrecord
 10
0.0
 20
0.0
 30
0.0
  0
XRECORD
  5
696C
102
{ACAD_REACTORS
330
694C
102
}
330
694C
100
AcDbXrecord
 10
0.0
 20
0.0
 30
0.0
  0
ENDSEC
  0
EOF
