  0
SECTION
  2
HEADER
  9
$ACADVER
  1
AC1014
  9
$ACADMAINTVER
 70
     9
  9
$DWGCODEPAGE
  3
ANSI_932
  9
$INSBASE
 10
0.0
 20
0.0
 30
0.0
  9
$EXTMIN
 10
-207.139299634266
 20
-811.0103056179532
 30
-0.0000000000000058
  9
$EXTMAX
 10
785.1260469868011
 20
673.7060461845908
 30
0.0000000000000104
  9
$LIMMIN
 10
-184.0
 20
-675.0
  9
$LIMMAX
 10
509.0
 20
453.0
  9
$ORTHOMODE
 70
     0
  9
$REGENMODE
 70
     1
  9
$FILLMODE
 70
     1
  9
$QTEXTMODE
 70
     0
  9
$MIRRTEXT
 70
     1
  9
$DRAGMODE
 70
     2
  9
$LTSCALE
 40
10.0
  9
$OSMODE
 70
    37
  9
$ATTMODE
 70
     1
  9
$TEXTSIZE
 40
5.0
  9
$TRACEWID
 40
0.05
  9
$TEXTSTYLE
  7
STANDARD1
  9
$CLAYER
  8
30
  9
$CELTYPE
  6
CONTINUOUS
  9
$CECOLOR
 62
   256
  9
$CELTSCALE
 40
1.0
  9
$DELOBJ
 70
     1
  9
$DISPSILH
 70
     0
  9
$DIMSCALE
 40
1.0
  9
$DIMASZ
 40
2.0
  9
$DIMEXO
 40
1.0
  9
$DIMDLI
 40
0.5
  9
$DIMRND
 40
0.0
  9
$DIMDLE
 40
0.0
  9
$DIMEXE
 40
0.5
  9
$DIMTP
 40
0.0
  9
$DIMTM
 40
0.0
  9
$DIMTXT
 40
5.0
  9
$DIMCEN
 40
0.09
  9
$DIMTSZ
 40
0.0
  9
$DIMTOL
 70
     0
  9
$DIMLIM
 70
     0
  9
$DIMTIH
 70
     0
  9
$DIMTOH
 70
     1
  9
$DIMSE1
 70
     0
  9
$DIMSE2
 70
     0
  9
$DIMTAD
 70
     3
  9
$DIMZIN
 70
    12
  9
$DIMBLK
  1
OPEN
  9
$DIMASO
 70
     1
  9
$DIMSHO
 70
     1
  9
$DIMPOST
  1

  9
$DIMAPOST
  1

  9
$DIMALT
 70
     0
  9
$DIMALTD
 70
     2
  9
$DIMALTF
 40
25.4
  9
$DIMLFAC
 40
1.0
  9
$DIMTOFL
 70
     0
  9
$DIMTVP
 40
0.0
  9
$DIMTIX
 70
     0
  9
$DIMSOXD
 70
     0
  9
$DIMSAH
 70
     0
  9
$DIMBLK1
  1

  9
$DIMBLK2
  1

  9
$DIMSTYLE
  2
STANDARD
  9
$DIMCLRD
 70
     0
  9
$DIMCLRE
 70
     0
  9
$DIMCLRT
 70
     0
  9
$DIMTFAC
 40
1.0
  9
$DIMGAP
 40
1.0
  9
$DIMJUST
 70
     0
  9
$DIMSD1
 70
     0
  9
$DIMSD2
 70
     0
  9
$DIMTOLJ
 70
     1
  9
$DIMTZIN
 70
     0
  9
$DIMALTZ
 70
     0
  9
$DIMALTTZ
 70
     0
  9
$DIMFIT
 70
     3
  9
$DIMUPT
 70
     0
  9
$DIMUNIT
 70
     2
  9
$DIMDEC
 70
     1
  9
$DIMTDEC
 70
     1
  9
$DIMALTU
 70
     2
  9
$DIMALTTD
 70
     2
  9
$DIMTXSTY
  7
STANDARD
  9
$DIMAUNIT
 70
     0
  9
$LUNITS
 70
     2
  9
$LUPREC
 70
     4
  9
$SKETCHINC
 40
0.1
  9
$FILLETRAD
 40
0.0
  9
$AUNITS
 70
     0
  9
$AUPREC
 70
     0
  9
$MENU
  1
.
  9
$ELEVATION
 40
0.0
  9
$PELEVATION
 40
0.0
  9
$THICKNESS
 40
0.0
  9
$LIMCHECK
 70
     0
  9
$BLIPMODE
 70
     0
  9
$CHAMFERA
 40
0.0
  9
$CHAMFERB
 40
0.0
  9
$CHAMFERC
 40
0.0
  9
$CHAMFERD
 40
0.0
  9
$SKPOLY
 70
     0
  9
$TDCREATE
 40
2452286.555658657
  9
$TDUPDATE
 40
2453113.447339409
  9
$TDINDWG
 40
1.4924262037
  9
$TDUSRTIMER
 40
1.4924262037
  9
$USRTIMER
 70
     1
  9
$ANGBASE
 50
0.0
  9
$ANGDIR
 70
     0
  9
$PDMODE
 70
     0
  9
$PDSIZE
 40
0.0
  9
$PLINEWID
 40
0.0
  9
$COORDS
 70
     1
  9
$SPLFRAME
 70
     0
  9
$SPLINETYPE
 70
     6
  9
$SPLINESEGS
 70
     8
  9
$ATTDIA
 70
     0
  9
$ATTREQ
 70
     1
  9
$HANDLING
 70
 22529
  9
$HANDSEED
  5
7717
  9
$SURFTAB1
 70
     6
  9
$SURFTAB2
 70
     6
  9
$SURFTYPE
 70
     6
  9
$SURFU
 70
     6
  9
$SURFV
 70
     6
  9
$UCSNAME
  2

  9
$UCSORG
 10
0.0
 20
0.0
 30
0.0
  9
$UCSXDIR
 10
1.0
 20
0.0
 30
0.0
  9
$UCSYDIR
 10
0.0
 20
1.0
 30
0.0
  9
$PUCSNAME
  2

  9
$PUCSORG
 10
0.0
 20
0.0
 30
0.0
  9
$PUCSXDIR
 10
1.0
 20
0.0
 30
0.0
  9
$PUCSYDIR
 10
0.0
 20
1.0
 30
0.0
  9
$USERI1
 70
     0
  9
$USERI2
 70
     0
  9
$USERI3
 70
     0
  9
$USERI4
 70
     0
  9
$USERI5
 70
     0
  9
$USERR1
 40
0.0
  9
$USERR2
 40
0.0
  9
$USERR3
 40
0.0
  9
$USERR4
 40
0.0
  9
$USERR5
 40
0.0
  9
$WORLDVIEW
 70
     1
  9
$SHADEDGE
 70
     3
  9
$SHADEDIF
 70
    70
  9
$TILEMODE
 70
     1
  9
$MAXACTVP
 70
    48
  9
$PINSBASE
 10
0.0
 20
0.0
 30
0.0
  9
$PLIMCHECK
 70
     0
  9
$PEXTMIN
 10
4.273573370203962
 20
5.205246163471485
 30
0.0
  9
$PEXTMAX
 10
194.6100952986349
 20
283.0697008572913
 30
0.0
  9
$PLIMMIN
 10
-5.873748779296875
 20
-5.873749732971191
  9
$PLIMMAX
 10
204.0995788574218
 20
291.1369009017944
  9
$UNITMODE
 70
     0
  9
$VISRETAIN
 70
     1
  9
$PLINEGEN
 70
     0
  9
$PSLTSCALE
 70
     1
  9
$TREEDEPTH
 70
  3020
  9
$PICKSTYLE
 70
     1
  9
$CMLSTYLE
  2
STANDARD
  9
$CMLJUST
 70
     0
  9
$CMLSCALE
 40
1.0
  9
$PROXYGRAPHICS
 70
     1
  9
$MEASUREMENT
 70
     0
  0
ENDSEC
  0
SECTION
  2
CLASSES
  0
CLASS
  1
ACDBDICTIONARYWDFLT
  2
AcDbDictionaryWithDefault
  3
AutoCAD 2000
 90
        0
280
     0
281
     0
  0
CLASS
  1
ACDBPLACEHOLDER
  2
AcDbPlaceHolder
  3
AutoCAD 2000
 90
        0
280
     0
281
     0
  0
CLASS
  1
LAYOUT
  2
AcDbLayout
  3
AutoCAD 2000
 90
        0
280
     0
281
     0
  0
CLASS
  1
LONG_TRANSACTION
  2
AcDbLongTransaction
  3
AutoCAD 2000
 90
        0
280
     0
281
     0
  0
CLASS
  1
LWPOLYLINE
  2
AcDbPolyline
  3
AutoCAD 2000
 90
        0
280
     0
281
     1
  0
CLASS
  1
HATCH
  2
AcDbHatch
  3
AutoCAD 2000
 90
        0
280
     0
281
     1
  0
CLASS
  1
XRECORD
  2
AcDbXrecord
  3
AutoCAD 2000
 90
        0
280
     0
281
     0
  0
CLASS
  1
LONG_TRANSACTION
  2
AcDbLongTransaction
  3
AutoCAD 2000
 90
        0
280
     0
281
     0
  0
CLASS
  1
LWPOLYLINE
  2
AcDbPolyline
  3
AutoCAD 2000
 90
        0
280
     0
281
     1
  0
CLASS
  1
HATCH
  2
AcDbHatch
  3
AutoCAD 2000
 90
        0
280
     0
281
     1
  0
CLASS
  1
XRECORD
  2
AcDbXrecord
  3
AutoCAD 2000
 90
        0
280
     0
281
     0
  0
CLASS
  1
LONG_TRANSACTION
  2
AcDbLongTransaction
  3
AutoCAD 2000
 90
        0
280
     0
281
     0
  0
CLASS
  1
LWPOLYLINE
  2
AcDbPolyline
  3
AutoCAD 2000
 90
        0
280
     0
281
     1
  0
CLASS
  1
HATCH
  2
AcDbHatch
  3
AutoCAD 2000
 90
        0
280
     0
281
     1
  0
CLASS
  1
XRECORD
  2
AcDbXrecord
  3
AutoCAD 2000
 90
        0
280
     0
281
     0
  0
CLASS
  1
LONG_TRANSACTION
  2
AcDbLongTransaction
  3
AutoCAD 2000
 90
        0
280
     0
281
     0
  0
CLASS
  1
LWPOLYLINE
  2
AcDbPolyline
  3
AutoCAD 2000
 90
        0
280
     0
281
     1
  0
CLASS
  1
HATCH
  2
AcDbHatch
  3
AutoCAD 2000
 90
        0
280
     0
281
     1
  0
CLASS
  1
XRECORD
  2
AcDbXrecord
  3
AutoCAD 2000
 90
        0
280
     0
281
     0
  0
CLASS
  1
LONG_TRANSACTION
  2
AcDbLongTransaction
  3
AutoCAD 2000
 90
        0
280
     0
281
     0
  0
CLASS
  1
LWPOLYLINE
  2
AcDbPolyline
  3
AutoCAD 2000
 90
        0
280
     0
281
     1
  0
CLASS
  1
HATCH
  2
AcDbHatch
  3
AutoCAD 2000
 90
        0
280
     0
281
     1
  0
CLASS
  1
XRECORD
  2
AcDbXrecord
  3
AutoCAD 2000
 90
        0
280
     0
281
     0
  0
CLASS
  1
LONG_TRANSACTION
  2
AcDbLongTransaction
  3
AutoCAD 2000
 90
        0
280
     0
281
     0
  0
CLASS
  1
LWPOLYLINE
  2
AcDbPolyline
  3
AutoCAD 2000
 90
        0
280
     0
281
     1
  0
CLASS
  1
HATCH
  2
AcDbHatch
  3
AutoCAD 2000
 90
        0
280
     0
281
     1
  0
CLASS
  1
XRECORD
  2
AcDbXrecord
  3
AutoCAD 2000
 90
        0
280
     0
281
     0
  0
CLASS
  1
LONG_TRANSACTION
  2
AcDbLongTransaction
  3
AutoCAD 2000
 90
        0
280
     0
281
     0
  0
CLASS
  1
LWPOLYLINE
  2
AcDbPolyline
  3
AutoCAD 2000
 90
        0
280
     0
281
     1
  0
CLASS
  1
HATCH
  2
AcDbHatch
  3
AutoCAD 2000
 90
        0
280
     0
281
     1
  0
CLASS
  1
XRECORD
  2
AcDbXrecord
  3
AutoCAD 2000
 90
        0
280
     0
281
     0
  0
CLASS
  1
LONG_TRANSACTION
  2
AcDbLongTransaction
  3
AutoCAD 2000
 90
        0
280
     0
281
     0
  0
CLASS
  1
LWPOLYLINE
  2
AcDbPolyline
  3
AutoCAD 2000
 90
        0
280
     0
281
     1
  0
CLASS
  1
HATCH
  2
AcDbHatch
  3
AutoCAD 2000
 90
        0
280
     0
281
     1
  0
CLASS
  1
XRECORD
  2
AcDbXrecord
  3
AutoCAD 2000
 90
        0
280
     0
281
     0
  0
CLASS
  1
LONG_TRANSACTION
  2
AcDbLongTransaction
  3
AutoCAD 2000
 90
        0
280
     0
281
     0
  0
CLASS
  1
LWPOLYLINE
  2
AcDbPolyline
  3
AutoCAD 2000
 90
        0
280
     0
281
     1
  0
CLASS
  1
HATCH
  2
AcDbHatch
  3
AutoCAD 2000
 90
        0
280
     0
281
     1
  0
CLASS
  1
XRECORD
  2
AcDbXrecord
  3
AutoCAD 2000
 90
        0
280
     0
281
     0
  0
CLASS
  1
LONG_TRANSACTION
  2
AcDbLongTransaction
  3
AutoCAD 2000
 90
        0
280
     0
281
     0
  0
CLASS
  1
LWPOLYLINE
  2
AcDbPolyline
  3
AutoCAD 2000
 90
        0
280
     0
281
     1
  0
CLASS
  1
HATCH
  2
AcDbHatch
  3
AutoCAD 2000
 90
        0
280
     0
281
     1
  0
CLASS
  1
XRECORD
  2
AcDbXrecord
  3
AutoCAD 2000
 90
        0
280
     0
281
     0
  0
CLASS
  1
LONG_TRANSACTION
  2
AcDbLongTransaction
  3
AutoCAD 2000
 90
        0
280
     0
281
     0
  0
CLASS
  1
LWPOLYLINE
  2
AcDbPolyline
  3
AutoCAD 2000
 90
        0
280
     0
281
     1
  0
CLASS
  1
HATCH
  2
AcDbHatch
  3
AutoCAD 2000
 90
        0
280
     0
281
     1
  0
CLASS
  1
XRECORD
  2
AcDbXrecord
  3
AutoCAD 2000
 90
        0
280
     0
281
     0
  0
CLASS
  1
LONG_TRANSACTION
  2
AcDbLongTransaction
  3
AutoCAD 2000
 90
        0
280
     0
281
     0
  0
CLASS
  1
LWPOLYLINE
  2
AcDbPolyline
  3
AutoCAD 2000
 90
        0
280
     0
281
     1
  0
CLASS
  1
HATCH
  2
AcDbHatch
  3
AutoCAD 2000
 90
        0
280
     0
281
     1
  0
CLASS
  1
XRECORD
  2
AcDbXrecord
  3
AutoCAD 2000
 90
        0
280
     0
281
     0
  0
CLASS
  1
LONG_TRANSACTION
  2
AcDbLongTransaction
  3
AutoCAD 2000
 90
        0
280
     0
281
     0
  0
CLASS
  1
LWPOLYLINE
  2
AcDbPolyline
  3
AutoCAD 2000
 90
        0
280
     0
281
     1
  0
CLASS
  1
HATCH
  2
AcDbHatch
  3
AutoCAD 2000
 90
        0
280
     0
281
     1
  0
CLASS
  1
XRECORD
  2
AcDbXrecord
  3
AutoCAD 2000
 90
        0
280
     0
281
     0
  0
CLASS
  1
LONG_TRANSACTION
  2
AcDbLongTransaction
  3
AutoCAD 2000
 90
        0
280
     0
281
     0
  0
CLASS
  1
LWPOLYLINE
  2
AcDbPolyline
  3
AutoCAD 2000
 90
        0
280
     0
281
     1
  0
CLASS
  1
HATCH
  2
AcDbHatch
  3
AutoCAD 2000
 90
        0
280
     0
281
     1
  0
CLASS
  1
XRECORD
  2
AcDbXrecord
  3
AutoCAD 2000
 90
        0
280
     0
281
     0
  0
CLASS
  1
LONG_TRANSACTION
  2
AcDbLongTransaction
  3
AutoCAD 2000
 90
        0
280
     0
281
     0
  0
CLASS
  1
LWPOLYLINE
  2
AcDbPolyline
  3
AutoCAD 2000
 90
        0
280
     0
281
     1
  0
CLASS
  1
HATCH
  2
AcDbHatch
  3
AutoCAD 2000
 90
        0
280
     0
281
     1
  0
CLASS
  1
XRECORD
  2
AcDbXrecord
  3
AutoCAD 2000
 90
        0
280
     0
281
     0
  0
CLASS
  1
LONG_TRANSACTION
  2
AcDbLongTransaction
  3
AutoCAD 2000
 90
        0
280
     0
281
     0
  0
CLASS
  1
LWPOLYLINE
  2
AcDbPolyline
  3
AutoCAD 2000
 90
        0
280
     0
281
     1
  0
CLASS
  1
HATCH
  2
AcDbHatch
  3
AutoCAD 2000
 90
        0
280
     0
281
     1
  0
CLASS
  1
XRECORD
  2
AcDbXrecord
  3
AutoCAD 2000
 90
        0
280
     0
281
     0
  0
CLASS
  1
LONG_TRANSACTION
  2
AcDbLongTransaction
  3
AutoCAD 2000
 90
        0
280
     0
281
     0
  0
CLASS
  1
LWPOLYLINE
  2
AcDbPolyline
  3
AutoCAD 2000
 90
        0
280
     0
281
     1
  0
CLASS
  1
HATCH
  2
AcDbHatch
  3
AutoCAD 2000
 90
        0
280
     0
281
     1
  0
CLASS
  1
XRECORD
  2
AcDbXrecord
  3
AutoCAD 2000
 90
        0
280
     0
281
     0
  0
CLASS
  1
LONG_TRANSACTION
  2
AcDbLongTransaction
  3
AutoCAD 2000
 90
        0
280
     0
281
     0
  0
CLASS
  1
LWPOLYLINE
  2
AcDbPolyline
  3
AutoCAD 2000
 90
        0
280
     0
281
     1
  0
CLASS
  1
HATCH
  2
AcDbHatch
  3
AutoCAD 2000
 90
        0
280
     0
281
     1
  0
CLASS
  1
XRECORD
  2
AcDbXrecord
  3
AutoCAD 2000
 90
        0
280
     0
281
     0
  0
CLASS
  1
LONG_TRANSACTION
  2
AcDbLongTransaction
  3
AutoCAD 2000
 90
        0
280
     0
281
     0
  0
CLASS
  1
LWPOLYLINE
  2
AcDbPolyline
  3
AutoCAD 2000
 90
        0
280
     0
281
     1
  0
CLASS
  1
HATCH
  2
AcDbHatch
  3
AutoCAD 2000
 90
        0
280
     0
281
     1
  0
CLASS
  1
XRECORD
  2
AcDbXrecord
  3
AutoCAD 2000
 90
        0
280
     0
281
     0
  0
CLASS
  1
LONG_TRANSACTION
  2
AcDbLongTransaction
  3
AutoCAD 2000
 90
        0
280
     0
281
     0
  0
CLASS
  1
LWPOLYLINE
  2
AcDbPolyline
  3
AutoCAD 2000
 90
        0
280
     0
281
     1
  0
CLASS
  1
HATCH
  2
AcDbHatch
  3
AutoCAD 2000
 90
        0
280
     0
281
     1
  0
CLASS
  1
XRECORD
  2
AcDbXrecord
  3
AutoCAD 2000
 90
        0
280
     0
281
     0
  0
CLASS
  1
LONG_TRANSACTION
  2
AcDbLongTransaction
  3
AutoCAD 2000
 90
        0
280
     0
281
     0
  0
CLASS
  1
LWPOLYLINE
  2
AcDbPolyline
  3
AutoCAD 2000
 90
        0
280
     0
281
     1
  0
CLASS
  1
HATCH
  2
AcDbHatch
  3
AutoCAD 2000
 90
        0
280
     0
281
     1
  0
CLASS
  1
XRECORD
  2
AcDbXrecord
  3
AutoCAD 2000
 90
        0
280
     0
281
     0
  0
CLASS
  1
LONG_TRANSACTION
  2
AcDbLongTransaction
  3
AutoCAD 2000
 90
        0
280
     0
281
     0
  0
CLASS
  1
LWPOLYLINE
  2
AcDbPolyline
  3
AutoCAD 2000
 90
        0
280
     0
281
     1
  0
CLASS
  1
HATCH
  2
AcDbHatch
  3
AutoCAD 2000
 90
        0
280
     0
281
     1
  0
CLASS
  1
XRECORD
  2
AcDbXrecord
  3
AutoCAD 2000
 90
        0
280
     0
281
     0
  0
CLASS
  1
LONG_TRANSACTION
  2
AcDbLongTransaction
  3
AutoCAD 2000
 90
        0
280
     0
281
     0
  0
CLASS
  1
LWPOLYLINE
  2
AcDbPolyline
  3
AutoCAD 2000
 90
        0
280
     0
281
     1
  0
CLASS
  1
HATCH
  2
AcDbHatch
  3
AutoCAD 2000
 90
        0
280
     0
281
     1
  0
CLASS
  1
XRECORD
  2
AcDbXrecord
  3
AutoCAD 2000
 90
        0
280
     0
281
     0
  0
CLASS
  1
LONG_TRANSACTION
  2
AcDbLongTransaction
  3
AutoCAD 2000
 90
        0
280
     0
281
     0
  0
CLASS
  1
LWPOLYLINE
  2
AcDbPolyline
  3
AutoCAD 2000
 90
        0
280
     0
281
     1
  0
CLASS
  1
HATCH
  2
AcDbHatch
  3
AutoCAD 2000
 90
        0
280
     0
281
     1
  0
CLASS
  1
XRECORD
  2
AcDbXrecord
  3
AutoCAD 2000
 90
        0
280
     0
281
     0
  0
CLASS
  1
LONG_TRANSACTION
  2
AcDbLongTransaction
  3
AutoCAD 2000
 90
        0
280
     0
281
     0
  0
CLASS
  1
LWPOLYLINE
  2
AcDbPolyline
  3
AutoCAD 2000
 90
        0
280
     0
281
     1
  0
CLASS
  1
HATCH
  2
AcDbHatch
  3
AutoCAD 2000
 90
        0
280
     0
281
     1
  0
CLASS
  1
XRECORD
  2
AcDbXrecord
  3
AutoCAD 2000
 90
        0
280
     0
281
     0
  0
CLASS
  1
LONG_TRANSACTION
  2
AcDbLongTransaction
  3
AutoCAD 2000
 90
        0
280
     0
281
     0
  0
CLASS
  1
LWPOLYLINE
  2
AcDbPolyline
  3
AutoCAD 2000
 90
        0
280
     0
281
     1
  0
CLASS
  1
HATCH
  2
AcDbHatch
  3
AutoCAD 2000
 90
        0
280
     0
281
     1
  0
CLASS
  1
XRECORD
  2
AcDbXrecord
  3
AutoCAD 2000
 90
        0
280
     0
281
     0
  0
CLASS
  1
LONG_TRANSACTION
  2
AcDbLongTransaction
  3
AutoCAD 2000
 90
        0
280
     0
281
     0
  0
CLASS
  1
LWPOLYLINE
  2
AcDbPolyline
  3
AutoCAD 2000
 90
        0
280
     0
281
     1
  0
CLASS
  1
HATCH
  2
AcDbHatch
  3
AutoCAD 2000
 90
        0
280
     0
281
     1
  0
CLASS
  1
XRECORD
  2
AcDbXrecord
  3
AutoCAD 2000
 90
        0
280
     0
281
     0
  0
CLASS
  1
DICTIONARYVAR
  2
AcDbDictionaryVar
  3
AutoCAD 2000
 90
        0
280
     0
281
     0
  0
CLASS
  1
LONG_TRANSACTION
  2
AcDbLongTransaction
  3
AutoCAD 2000
 90
        0
280
     0
281
     0
  0
CLASS
  1
LWPOLYLINE
  2
AcDbPolyline
  3
AutoCAD 2000
 90
        0
280
     0
281
     1
  0
CLASS
  1
HATCH
  2
AcDbHatch
  3
AutoCAD 2000
 90
        0
280
     0
281
     1
  0
CLASS
  1
XRECORD
  2
AcDbXrecord
  3
AutoCAD 2000
 90
        0
280
     0
281
     0
  0
CLASS
  1
LONG_TRANSACTION
  2
AcDbLongTransaction
  3
AutoCAD 2000
 90
        0
280
     0
281
     0
  0
CLASS
  1
LWPOLYLINE
  2
AcDbPolyline
  3
AutoCAD 2000
 90
        0
280
     0
281
     1
  0
CLASS
  1
HATCH
  2
AcDbHatch
  3
AutoCAD 2000
 90
        0
280
     0
281
     1
  0
CLASS
  1
XRECORD
  2
AcDbXrecord
  3
AutoCAD 2000
 90
        0
280
     0
281
     0
  0
ENDSEC
  0
SECTION
  2
TABLES
  0
TABLE
  2
VPORT
  5
8
330
0
100
AcDbSymbolTable
 70
     3
  0
VPORT
  5
7690
330
8
100
AcDbSymbolTableRecord
100
AcDbViewportTableRecord
  2
*ACTIVE
 70
     0
 10
0.0
 20
0.0
 11
1.0
 21
1.0
 12
288.9933736762675
 22
-68.6521297166812
 13
0.0
 23
0.0
 14
1.0
 24
1.0
 15
10.0
 25
10.0
 16
0.0
 26
0.0
 36
1.0
 17
0.0
 27
0.0
 37
0.0
 40
1502.7493439297
 41
1.924949290060851
 42
50.0
 43
0.0
 44
0.0
 50
0.0
 51
0.0
 71
     0
 72
   100
 73
     1
 74
     1
 75
     0
 76
     0
 77
     0
 78
     0
  0
ENDTAB
  0
TABLE
  2
LTYPE
  5
5
330
0
100
AcDbSymbolTable
 70
     7
  0
LTYPE
  5
13
330
5
100
AcDbSymbolTableRecord
100
AcDbLinetypeTableRecord
  2
BYBLOCK
 70
     0
  3

 72
    65
 73
     0
 40
0.0
  0
LTYPE
  5
14
330
5
100
AcDbSymbolTableRecord
100
AcDbLinetypeTableRecord
  2
BYLAYER
 70
     0
  3

 72
    65
 73
     0
 40
0.0
  0
LTYPE
  5
15
330
5
100
AcDbSymbolTableRecord
100
AcDbLinetypeTableRecord
  2
CONTINUOUS
 70
     0
  3
Solid line
 72
    65
 73
     0
 40
0.0
  0
LTYPE
  5
22
330
5
100
AcDbSymbolTableRecord
100
AcDbLinetypeTableRecord
  2
CONTINOUS
 70
     0
  3
Solid line
 72
    65
 73
     0
 40
0.0
  0
LTYPE
  5
23
330
5
100
AcDbSymbolTableRecord
100
AcDbLinetypeTableRecord
  2
DASHED
 70
     0
  3
__ __ __ __ __ __ __ __ __ __ __ __ __ __ __
 72
    65
 73
     2
 40
0.75
 49
0.5
 74
     0
 49
-0.25
 74
     0
  0
LTYPE
  5
24
330
5
100
AcDbSymbolTableRecord
100
AcDbLinetypeTableRecord
  2
DASHDOT
 70
     0
  3
__ . __ . __ . __ . __ . __ . __ . __ . __ . __
 72
    65
 73
     4
 40
1.0
 49
0.5
 74
     0
 49
-0.25
 74
     0
 49
0.0
 74
     0
 49
-0.25
 74
     0
  0
LTYPE
  5
3932
330
5
100
AcDbSymbolTableRecord
100
AcDbLinetypeTableRecord
  2
DIVIDE
 70
     0
  3
Divide ____ . . ____ . . ____ . . ____ . . ____
 72
    65
 73
     6
 40
1.25
 49
0.5
 74
     0
 49
-0.25
 74
     0
 49
0.0
 74
     0
 49
-0.25
 74
     0
 49
0.0
 74
     0
 49
-0.25
 74
     0
  0
LTYPE
  5
6875
330
5
100
AcDbSymbolTableRecord
100
AcDbLinetypeTableRecord
  2
D159
 70
     0
  3
IGESIN-LineFont-D159
 72
    65
 73
     6
 40
11.29999999999999
 49
8.0
 74
     0
 49
-0.6
 74
     0
 49
0.75
 74
     0
 49
-0.6
 74
     0
 49
0.75
 74
     0
 49
-0.6
 74
     0
  0
LTYPE
  5
6876
330
5
100
AcDbSymbolTableRecord
100
AcDbLinetypeTableRecord
  2
D1485
 70
     0
  3
IGESIN-LineFont-D1485
 72
    65
 73
     2
 40
1.35
 49
0.75
 74
     0
 49
-0.6
 74
     0
  0
ENDTAB
  0
TABLE
  2
LAYER
  5
2
330
0
100
AcDbSymbolTable
 70
    19
  0
LAYER
  5
10
330
2
100
AcDbSymbolTableRecord
100
AcDbLayerTableRecord
  2
0
 70
     0
 62
     7
  6
CONTINOUS
  0
LAYER
  5
2F
330
2
100
AcDbSymbolTableRecord
100
AcDbLayerTableRecord
  2
10
 70
     0
 62
     4
  6
CONTINOUS
  0
LAYER
  5
31
330
2
100
AcDbSymbolTableRecord
100
AcDbLayerTableRecord
  2
12
 70
     0
 62
     3
  6
CONTINOUS
  0
LAYER
  5
35
330
2
100
AcDbSymbolTableRecord
100
AcDbLayerTableRecord
  2
16
 70
     0
 62
     6
  6
DASHDOT
  0
LAYER
  5
36
330
2
100
AcDbSymbolTableRecord
100
AcDbLayerTableRecord
  2
17
 70
     0
 62
     2
  6
DASHDOT
  0
LAYER
  5
38
330
2
100
AcDbSymbolTableRecord
100
AcDbLayerTableRecord
  2
19
 70
     0
 62
     7
  6
CONTINOUS
  0
LAYER
  5
3C
330
2
100
AcDbSymbolTableRecord
100
AcDbLayerTableRecord
  2
11
 70
     0
 62
     1
  6
CONTINOUS
  0
LAYER
  5
3D
330
2
100
AcDbSymbolTableRecord
100
AcDbLayerTableRecord
  2
24
 70
     0
 62
     2
  6
CONTINOUS
  0
LAYER
  5
3A2
330
2
100
AcDbSymbolTableRecord
100
AcDbLayerTableRecord
  2
30
 70
     0
 62
     9
  6
CONTINUOUS
  0
LAYER
  5
3A4
330
2
100
AcDbSymbolTableRecord
100
AcDbLayerTableRecord
  2
DEFPOINTS
 70
     0
 62
     7
  6
CONTINUOUS
  0
LAYER
  5
3933
330
2
100
AcDbSymbolTableRecord
100
AcDbLayerTableRecord
  2
18
 70
     0
 62
     5
  6
DIVIDE
  0
LAYER
  5
4709
330
2
100
AcDbSymbolTableRecord
100
AcDbLayerTableRecord
  2
L0_
 70
     0
 62
     7
  6
CONTINUOUS
  0
LAYER
  5
470B
330
2
100
AcDbSymbolTableRecord
100
AcDbLayerTableRecord
  2
L210_
 70
     0
 62
     7
  6
CONTINUOUS
  0
LAYER
  5
6877
330
2
100
AcDbSymbolTableRecord
100
AcDbLayerTableRecord
  2
L225_
 70
     0
 62
     7
  6
CONTINUOUS
  0
LAYER
  5
6878
330
2
100
AcDbSymbolTableRecord
100
AcDbLayerTableRecord
  2
L150_
 70
     0
 62
     7
  6
CONTINUOUS
  0
LAYER
  5
6879
330
2
100
AcDbSymbolTableRecord
100
AcDbLayerTableRecord
  2
L10_
 70
     0
 62
     7
  6
CONTINUOUS
  0
LAYER
  5
687A
330
2
100
AcDbSymbolTableRecord
100
AcDbLayerTableRecord
  2
L170_
 70
     0
 62
     7
  6
CONTINUOUS
  0
LAYER
  5
687B
330
2
100
AcDbSymbolTableRecord
100
AcDbLayerTableRecord
  2
L230_
 70
     0
 62
     7
  6
CONTINUOUS
  0
LAYER
  5
74BA
330
2
100
AcDbSymbolTableRecord
100
AcDbLayerTableRecord
  2
21
 70
     0
 62
     7
  6
CONTINUOUS
  0
ENDTAB
  0
TABLE
  2
STYLE
  5
3
330
0
100
AcDbSymbolTable
 70
     4
  0
STYLE
  5
11
330
3
100
AcDbSymbolTableRecord
100
AcDbTextStyleTableRecord
  2
STANDARD
 70
     0
 40
0.0
 41
1.0
 50
0.0
 71
     0
 42
2.0
  3
txt.shx
  4
bigfont.shx
  0
STYLE
  5
42
330
3
100
AcDbSymbolTableRecord
100
AcDbTextStyleTableRecord
  2
STANDARD1
 70
     0
 40
0.0
 41
1.0
 50
0.0
 71
     0
 42
5.0
  3
MONOTXT
  4
BIGFONT
  0
STYLE
  5
3ACF
330
3
100
AcDbSymbolTableRecord
100
AcDbTextStyleTableRecord
  2
SYMBOL3
 70
     0
 40
0.0
 41
1.0
 50
0.0
 71
     0
 42
0.2
  3
iges1003
  4

  0
STYLE
  5
687C
330
3
100
AcDbSymbolTableRecord
100
AcDbTextStyleTableRecord
  2
LEROY
 70
     0
 40
0.0
 41
1.0
 50
0.0
 71
     0
 42
0.2
  3
txt
  4

  0
ENDTAB
  0
TABLE
  2
VIEW
  5
6
330
0
100
AcDbSymbolTable
 70
     3
  0
VIEW
  5
230C
330
6
100
AcDbSymbolTableRecord
100
AcDbViewTableRecord
  2
OLE1
 70
     0
 40
148.9124878027715
 10
429.4976280407224
 20
2.560626997828478
 41
103.1458057716445
 11
0.0
 21
0.0
 31
1.0
 12
0.0
 22
0.0
 32
0.0
 42
50.0
 43
0.0
 44
0.0
 50
0.0
 71
     0
  0
VIEW
  5
230E
330
6
100
AcDbSymbolTableRecord
100
AcDbViewTableRecord
  2
OLE2
 70
     0
 40
170.7786920545776
 10
322.664969958371
 20
-5.978304054290276
 41
102.4672152327465
 11
0.0
 21
0.0
 31
1.0
 12
0.0
 22
0.0
 32
0.0
 42
50.0
 43
0.0
 44
0.0
 50
0.0
 71
     0
  0
VIEW
  5
23AA
330
6
100
AcDbSymbolTableRecord
100
AcDbViewTableRecord
  2
OLE3
 70
     0
 40
591.7897393182231
 10
84.79698158148218
 20
-46.09336010803997
 41
388.7920961799954
 11
0.0
 21
0.0
 31
1.0
 12
0.0
 22
0.0
 32
0.0
 42
50.0
 43
0.0
 44
0.0
 50
0.0
 71
     0
  0
ENDTAB
  0
TABLE
  2
UCS
  5
7
330
0
100
AcDbSymbolTable
 70
     0
  0
ENDTAB
  0
TABLE
  2
APPID
  5
9
330
0
100
AcDbSymbolTable
 70
     2
  0
APPID
  5
12
330
9
100
AcDbSymbolTableRecord
100
AcDbRegAppTableRecord
  2
ACAD
 70
     0
  0
APPID
  5
ECD
330
9
100
AcDbSymbolTableRecord
100
AcDbRegAppTableRecord
  2
CONTENTBLOCKICON
 70
     0
  0
ENDTAB
  0
TABLE
  2
DIMSTYLE
  5
A
330
0
100
AcDbSymbolTable
 70
     1
  0
DIMSTYLE
105
175
102
{ACAD_REACTORS
330
6D05
330
6D69
330
6D76
330
6DB7
330
6DED
330
6DFA
330
6E07
330
6E1D
330
6F16
330
6F52
330
6F5F
330
6F6C
330
6F79
330
6F86
330
6FBA
330
6FC7
330
6FE1
330
7515
330
7522
330
752F
330
753C
330
7549
330
7556
330
7563
330
7586
330
7593
330
75A0
330
7674
330
7681
102
}
330
A
100
AcDbSymbolTableRecord
100
AcDbDimStyleTableRecord
  2
STANDARD
 70
     0
  3

  4

  5
OPEN
  6

  7

 40
1.0
 41
2.0
 42
1.0
 43
0.5
 44
0.5
 45
0.0
 46
0.0
 47
0.0
 48
0.0
140
5.0
141
0.09
142
0.0
143
25.4
144
1.0
145
0.0
146
1.0
147
1.0
 71
     0
 72
     0
 73
     0
 74
     1
 75
     0
 76
     0
 77
     3
 78
    12
170
     0
171
     2
172
     0
173
     0
174
     0
175
     0
176
     0
177
     0
178
     0
270
     2
271
     1
272
     1
273
     2
274
     2
340
11
275
     0
280
     0
281
     0
282
     0
283
     1
284
     0
285
     0
286
     0
287
     3
288
     0
  0
ENDTAB
  0
TABLE
  2
BLOCK_RECORD
  5
1
330
0
100
AcDbSymbolTable
 70
    41
  0
BLOCK_RECORD
  5
1E
102
{ACAD_XDICTIONARY
360
178
102
}
330
1
100
AcDbSymbolTableRecord
100
AcDbBlockTableRecord
  2
*MODEL_SPACE
  0
BLOCK_RECORD
  5
1A
102
{ACAD_XDICTIONARY
360
17A
102
}
330
1
100
AcDbSymbolTableRecord
100
AcDbBlockTableRecord
  2
*PAPER_SPACE
  0
BLOCK_RECORD
  5
3B2
330
1
100
AcDbSymbolTableRecord
100
AcDbBlockTableRecord
  2
_OPEN
  0
BLOCK_RECORD
  5
46F7
330
1
100
AcDbSymbolTableRecord
100
AcDbBlockTableRecord
  2
B837
  0
BLOCK_RECORD
  5
6816
330
1
100
AcDbSymbolTableRecord
100
AcDbBlockTableRecord
  2
B2837
  0
BLOCK_RECORD
  5
681B
330
1
100
AcDbSymbolTableRecord
100
AcDbBlockTableRecord
  2
*D3
  0
BLOCK_RECORD
  5
6823
330
1
100
AcDbSymbolTableRecord
100
AcDbBlockTableRecord
  2
B2841
  0
BLOCK_RECORD
  5
6857
330
1
100
AcDbSymbolTableRecord
100
AcDbBlockTableRecord
  2
B4515
  0
BLOCK_RECORD
  5
685C
330
1
100
AcDbSymbolTableRecord
100
AcDbBlockTableRecord
  2
B4517
  0
BLOCK_RECORD
  5
6861
330
1
100
AcDbSymbolTableRecord
100
AcDbBlockTableRecord
  2
B4521
  0
BLOCK_RECORD
  5
6866
330
1
100
AcDbSymbolTableRecord
100
AcDbBlockTableRecord
  2
B4523
  0
BLOCK_RECORD
  5
686B
330
1
100
AcDbSymbolTableRecord
100
AcDbBlockTableRecord
  2
B4527
  0
BLOCK_RECORD
  5
6870
330
1
100
AcDbSymbolTableRecord
100
AcDbBlockTableRecord
  2
B4529
  0
BLOCK_RECORD
  5
6D16
330
1
100
AcDbSymbolTableRecord
100
AcDbBlockTableRecord
  2
*D11
  0
BLOCK_RECORD
  5
6D6A
330
1
100
AcDbSymbolTableRecord
100
AcDbBlockTableRecord
  2
*D12
  0
BLOCK_RECORD
  5
6D77
330
1
100
AcDbSymbolTableRecord
100
AcDbBlockTableRecord
  2
*D13
  0
BLOCK_RECORD
  5
6DB8
330
1
100
AcDbSymbolTableRecord
100
AcDbBlockTableRecord
  2
*D14
  0
BLOCK_RECORD
  5
6DEE
330
1
100
AcDbSymbolTableRecord
100
AcDbBlockTableRecord
  2
*D15
  0
BLOCK_RECORD
  5
6DFB
330
1
100
AcDbSymbolTableRecord
100
AcDbBlockTableRecord
  2
*D16
  0
BLOCK_RECORD
  5
6E08
330
1
100
AcDbSymbolTableRecord
100
AcDbBlockTableRecord
  2
*D17
  0
BLOCK_RECORD
  5
6E1E
330
1
100
AcDbSymbolTableRecord
100
AcDbBlockTableRecord
  2
*D18
  0
BLOCK_RECORD
  5
6F17
330
1
100
AcDbSymbolTableRecord
100
AcDbBlockTableRecord
  2
*D19
  0
BLOCK_RECORD
  5
6F53
330
1
100
AcDbSymbolTableRecord
100
AcDbBlockTableRecord
  2
*D20
  0
BLOCK_RECORD
  5
6F60
330
1
100
AcDbSymbolTableRecord
100
AcDbBlockTableRecord
  2
*D21
  0
BLOCK_RECORD
  5
6F6D
330
1
100
AcDbSymbolTableRecord
100
AcDbBlockTableRecord
  2
*D22
  0
BLOCK_RECORD
  5
6F7A
330
1
100
AcDbSymbolTableRecord
100
AcDbBlockTableRecord
  2
*D23
  0
BLOCK_RECORD
  5
6F87
330
1
100
AcDbSymbolTableRecord
100
AcDbBlockTableRecord
  2
*D24
  0
BLOCK_RECORD
  5
6FBB
330
1
100
AcDbSymbolTableRecord
100
AcDbBlockTableRecord
  2
*D25
  0
BLOCK_RECORD
  5
6FC8
330
1
100
AcDbSymbolTableRecord
100
AcDbBlockTableRecord
  2
*D26
  0
BLOCK_RECORD
  5
6FE2
330
1
100
AcDbSymbolTableRecord
100
AcDbBlockTableRecord
  2
*D27
  0
BLOCK_RECORD
  5
7516
330
1
100
AcDbSymbolTableRecord
100
AcDbBlockTableRecord
  2
*D28
  0
BLOCK_RECORD
  5
7523
330
1
100
AcDbSymbolTableRecord
100
AcDbBlockTableRecord
  2
*D29
  0
BLOCK_RECORD
  5
7530
330
1
100
AcDbSymbolTableRecord
100
AcDbBlockTableRecord
  2
*D30
  0
BLOCK_RECORD
  5
753D
330
1
100
AcDbSymbolTableRecord
100
AcDbBlockTableRecord
  2
*D31
  0
BLOCK_RECORD
  5
754A
330
1
100
AcDbSymbolTableRecord
100
AcDbBlockTableRecord
  2
*D32
  0
BLOCK_RECORD
  5
7557
330
1
100
AcDbSymbolTableRecord
100
AcDbBlockTableRecord
  2
*D33
  0
BLOCK_RECORD
  5
7564
330
1
100
AcDbSymbolTableRecord
100
AcDbBlockTableRecord
  2
*D34
  0
BLOCK_RECORD
  5
757A
330
1
100
AcDbSymbolTableRecord
100
AcDbBlockTableRecord
  2
*D35
  0
BLOCK_RECORD
  5
7587
330
1
100
AcDbSymbolTableRecord
100
AcDbBlockTableRecord
  2
*D36
  0
BLOCK_RECORD
  5
7594
330
1
100
AcDbSymbolTableRecord
100
AcDbBlockTableRecord
  2
*D37
  0
BLOCK_RECORD
  5
75A1
330
1
100
AcDbSymbolTableRecord
100
AcDbBlockTableRecord
  2
*D38
  0
BLOCK_RECORD
  5
7675
330
1
100
AcDbSymbolTableRecord
100
AcDbBlockTableRecord
  2
*D39
  0
BLOCK_RECORD
  5
7682
330
1
100
AcDbSymbolTableRecord
100
AcDbBlockTableRecord
  2
*D40
  0
ENDTAB
  0
ENDSEC
  0
SECTION
  2
BLOCKS
  0
BLOCK
  5
1F
330
1E
100
AcDbEntity
  8
0
100
AcDbBlockBegin
  2
*MODEL_SPACE
 70
     0
 10
0.0
 20
0.0
 30
0.0
  3
*MODEL_SPACE
  1

  0
ENDBLK
  5
20
330
1E
100
AcDbEntity
  8
0
100
AcDbBlockEnd
  0
BLOCK
  5
1B
330
1A
100
AcDbEntity
 67
     1
  8
0
100
AcDbBlockBegin
  2
*PAPER_SPACE
 70
     0
 10
0.0
 20
0.0
 30
0.0
  3
*PAPER_SPACE
  1

  0
ENDBLK
  5
1C
330
1A
100
AcDbEntity
 67
     1
  8
0
100
AcDbBlockEnd
  0
BLOCK
  5
3B6
330
3B2
100
AcDbEntity
  8
0
100
AcDbBlockBegin
  2
_OPEN
 70
     0
 10
0.0
 20
0.0
 30
0.0
  3
_OPEN
  1

  0
LINE
  5
3B3
330
3B2
100
AcDbEntity
  8
30
  6
CONTINUOUS
 62
     0
100
AcDbLine
 10
-1.0
 20
0.1666666666666666
 30
0.0
 11
0.0
 21
0.0
 31
0.0
  0
LINE
  5
3B4
330
3B2
100
AcDbEntity
  8
30
  6
CONTINUOUS
 62
     0
100
AcDbLine
 10
-1.0
 20
-0.1666666666666666
 30
0.0
 11
0.0
 21
0.0
 31
0.0
  0
LINE
  5
3B5
330
3B2
100
AcDbEntity
  8
30
  6
CONTINUOUS
 62
     0
100
AcDbLine
 10
0.0
 20
0.0
 30
0.0
 11
-1.0
 21
0.0
 31
0.0
  0
ENDBLK
  5
3B7
330
3B2
100
AcDbEntity
  8
0
100
AcDbBlockEnd
  0
BLOCK
  5
46FA
330
46F7
100
AcDbEntity
  8
L0_
  6
CONTINUOUS
100
AcDbBlockBegin
  2
B837
 70
     0
 10
0.0
 20
0.0
 30
0.0
  3
B837
  1

  0
TEXT
  5
46F8
330
46F7
100
AcDbEntity
  8
L0_
  6
CONTINUOUS
100
AcDbText
 10
1984.080078125
 20
1307.4332275391
 30
0.0
 40
12.0
  1
n
 41
2.30859375
  7
SYMBOL3
 72
     5
 11
2002.080078125
 21
1307.4332275391
 31
0.0
100
AcDbText
 73
     2
  0
TEXT
  5
46F9
330
46F7
100
AcDbEntity
  8
L0_
  6
CONTINUOUS
100
AcDbText
 10
2002.080078125
 20
1307.4332275391
 30
0.0
 40
12.0
  1
11
 41
1.077343749999997
  7
SYMBOL3
 72
     5
 11
2018.880078125
 21
1307.4332275391
 31
0.0
100
AcDbText
 73
     2
  0
ENDBLK
  5
46FB
330
46F7
100
AcDbEntity
  8
L0_
  6
CONTINUOUS
100
AcDbBlockEnd
  0
BLOCK
  5
6819
330
6816
100
AcDbEntity
  8
L0_
  6
CONTINUOUS
100
AcDbBlockBegin
  2
B2837
 70
     0
 10
0.0
 20
0.0
 30
0.0
  3
B2837
  1

  0
TEXT
  5
6817
330
6816
100
AcDbEntity
  8
L0_
  6
CONTINUOUS
100
AcDbText
 10
2509.9870605469
 20
3096.0744628906
 30
0.0
 40
15.0
  1
n
 41
2.30859375
  7
SYMBOL3
 72
     5
 11
2532.4870605469
 21
3096.0744628906
 31
0.0
100
AcDbText
 73
     2
  0
TEXT
  5
6818
330
6816
100
AcDbEntity
  8
L0_
  6
CONTINUOUS
100
AcDbText
 10
2532.4870605469
 20
3096.0744628906
 30
0.0
 40
15.0
  1
9
 41
1.69296875
  7
SYMBOL3
 72
     5
 11
2548.9870605469
 21
3096.0744628906
 31
0.0
100
AcDbText
 73
     2
  0
ENDBLK
  5
681A
330
6816
100
AcDbEntity
  8
L0_
  6
CONTINUOUS
100
AcDbBlockEnd
  0
BLOCK
  5
6821
330
681B
100
AcDbEntity
  8
0
100
AcDbBlockBegin
  2
*D3
 70
     1
 10
0.0
 20
0.0
 30
0.0
  3
*D3
  1

  0
LINE
  5
681C
330
681B
100
AcDbEntity
  8
0
  6
BYBLOCK
100
AcDbLine
 10
2611.11303831454
 20
3175.571385345142
 30
0.0
 11
2562.968452781273
 21
3086.783914434756
 31
0.0
  0
LINE
  5
681D
330
681B
100
AcDbEntity
  8
0
  6
BYBLOCK
100
AcDbLine
 10
2562.968452781273
 20
3086.783914434756
 30
0.0
 11
2562.878452781273
 21
3086.783914434756
 31
0.0
  0
SOLID
  5
681E
330
681B
100
AcDbEntity
  8
0
  6
BYBLOCK
100
AcDbTrace
 10
2613.310735483583
 20
3174.379694465264
 30
0.0
 11
2608.915341145497
 21
3176.763076225018
 31
0.0
 12
2618.263183593799
 22
3188.757568359398
 32
0.0
 13
2618.263183593799
 23
3188.757568359398
 33
0.0
  0
POINT
  5
681F
330
681B
100
AcDbEntity
  8
DEFPOINTS
  6
BYBLOCK
 62
     0
100
AcDbPoint
 10
2618.263183593799
 20
3188.757568359398
 30
0.0
  0
POINT
  5
6820
330
681B
100
AcDbEntity
  8
DEFPOINTS
  6
BYBLOCK
 62
     0
100
AcDbPoint
 10
2622.553222656199
 20
3196.669189453198
 30
0.0
  0
ENDBLK
  5
6822
330
681B
100
AcDbEntity
  8
0
100
AcDbBlockEnd
  0
BLOCK
  5
6826
330
6823
100
AcDbEntity
  8
L210_
100
AcDbBlockBegin
  2
B2841
 70
     0
 10
0.0
 20
0.0
 30
0.0
  3
B2841
  1

  0
DIMENSION
  5
6824
330
6823
100
AcDbEntity
  8
L210_
100
AcDbDimension
  2
*D3
 10
2622.5532226562
 20
3196.6691894532
 30
0.0
 11
2658.4084472656
 21
3652.5883789063
 31
0.0
 70
     3
  1
 
100
AcDbDiametricDimension
 15
2618.263183593799
 25
3188.757568359398
 35
0.0
 40
116.0005747846635
  0
INSERT
  5
6825
330
6823
100
AcDbEntity
  8
L0_
  6
CONTINUOUS
100
AcDbBlockReference
  2
B2837
 10
0.0
 20
0.0
 30
0.0
  0
ENDBLK
  5
6827
330
6823
100
AcDbEntity
  8
L210_
100
AcDbBlockEnd
  0
BLOCK
  5
685A
330
6857
100
AcDbEntity
  8
L0_
  6
CONTINUOUS
100
AcDbBlockBegin
  2
B4515
 70
     0
 10
0.0
 20
0.0
 30
0.0
  3
B4515
  1

  0
LWPOLYLINE
  5
6858
330
6857
100
AcDbEntity
  8
L0_
  6
CONTINUOUS
100
AcDbPolyline
 90
        3
 70
     0
 43
0.0
 10
2080.641894800233
 20
3577.752173191962
 10
2070.6984863281
 20
3566.2465820313
 10
2083.835956340333
 20
3573.905360111234
  0
LWPOLYLINE
  5
6859
330
6857
100
AcDbEntity
  8
L0_
  6
CONTINUOUS
100
AcDbPolyline
 90
        4
 70
     0
 43
0.0
 10
2070.6984863281
 20
3566.2465820313
 10
2156.6696777344
 20
3637.629638671899
 10
2157.9443359375
 20
3637.629638671899
 10
2274.694335937499
 20
3637.629638671899
  0
ENDBLK
  5
685B
330
6857
100
AcDbEntity
  8
L0_
  6
CONTINUOUS
100
AcDbBlockEnd
  0
BLOCK
  5
685F
330
685C
100
AcDbEntity
  8
L230_
  6
CONTINUOUS
 62
     6
100
AcDbBlockBegin
  2
B4517
 70
     0
 10
0.0
 20
0.0
 30
0.0
  3
B4517
  1

  0
INSERT
  5
685D
330
685C
100
AcDbEntity
  8
L0_
  6
CONTINUOUS
100
AcDbBlockReference
  2
B4515
 10
0.0
 20
0.0
 30
0.0
  0
TEXT
  5
685E
330
685C
100
AcDbEntity
  8
L0_
  6
CONTINUOUS
100
AcDbText
 10
2167.3193359375
 20
3647.0046386719
 30
0.0
 40
15.0
  1
Insulator
 41
0.8893617021276597
  7
LEROY
 72
     5
 11
2271.8193359375
 21
3647.0046386719
 31
0.0
100
AcDbText
 73
     2
  0
ENDBLK
  5
6860
330
685C
100
AcDbEntity
  8
L230_
  6
CONTINUOUS
 62
     6
100
AcDbBlockEnd
  0
BLOCK
  5
6864
330
6861
100
AcDbEntity
  8
L0_
  6
CONTINUOUS
100
AcDbBlockBegin
  2
B4521
 70
     0
 10
0.0
 20
0.0
 30
0.0
  3
B4521
  1

  0
LWPOLYLINE
  5
6862
330
6861
100
AcDbEntity
  8
L0_
  6
CONTINUOUS
100
AcDbPolyline
 90
        3
 70
     0
 43
0.0
 10
2097.900399026019
 20
3515.880252433286
 10
2088.698486328099
 20
3527.9870605469
 10
2093.476465978473
 20
3513.550270375237
  0
LWPOLYLINE
  5
6863
330
6861
100
AcDbEntity
  8
L0_
  6
CONTINUOUS
100
AcDbPolyline
 90
        4
 70
     0
 43
0.0
 10
2088.698486328099
 20
3527.9870605469
 10
2130.16796875
 20
3449.249023437499
 10
2131.099853515599
 20
3449.249023437499
 10
2373.3498535156
 20
3449.249023437499
  0
ENDBLK
  5
6865
330
6861
100
AcDbEntity
  8
L0_
  6
CONTINUOUS
100
AcDbBlockEnd
  0
BLOCK
  5
6869
330
6866
100
AcDbEntity
  8
L230_
  6
CONTINUOUS
 62
     6
100
AcDbBlockBegin
  2
B4523
 70
     0
 10
0.0
 20
0.0
 30
0.0
  3
B4523
  1

  0
INSERT
  5
6867
330
6866
100
AcDbEntity
  8
L0_
  6
CONTINUOUS
100
AcDbBlockReference
  2
B4521
 10
0.0
 20
0.0
 30
0.0
  0
TEXT
  5
6868
330
6866
100
AcDbEntity
  8
L0_
  6
CONTINUOUS
100
AcDbText
 10
2140.4748535156
 20
3458.624023437499
 30
0.0
 40
15.0
  1
M8 mounting screw
 41
0.9531250000000001
  7
LEROY
 72
     5
 11
2369.224853515599
 21
3458.624023437499
 31
0.0
100
AcDbText
 73
     2
  0
ENDBLK
  5
686A
330
6866
100
AcDbEntity
  8
L230_
  6
CONTINUOUS
 62
     6
100
AcDbBlockEnd
  0
BLOCK
  5
686E
330
686B
100
AcDbEntity
  8
L0_
  6
CONTINUOUS
100
AcDbBlockBegin
  2
B4527
 70
     0
 10
0.0
 20
0.0
 30
0.0
  3
B4527
  1

  0
LWPOLYLINE
  5
686C
330
686B
100
AcDbEntity
  8
L0_
  6
CONTINUOUS
100
AcDbPolyline
 90
        3
 70
     0
 43
0.0
 10
2103.226365324067
 20
3186.096922203727
 10
2088.698486328099
 20
3190.5903320313
 10
2100.983752461289
 20
3181.628064682201
  0
LWPOLYLINE
  5
686D
330
686B
100
AcDbEntity
  8
L0_
  6
CONTINUOUS
100
AcDbPolyline
 90
        4
 70
     0
 43
0.0
 10
2088.698486328099
 20
3190.5903320313
 10
2224.342285156299
 20
3122.5200195313
 10
2225.397705078099
 20
3122.5200195313
 10
2467.6477050781
 20
3122.5200195313
  0
ENDBLK
  5
686F
330
686B
100
AcDbEntity
  8
L0_
  6
CONTINUOUS
100
AcDbBlockEnd
  0
BLOCK
  5
6873
330
6870
100
AcDbEntity
  8
L230_
  6
CONTINUOUS
 62
     6
100
AcDbBlockBegin
  2
B4529
 70
     0
 10
0.0
 20
0.0
 30
0.0
  3
B4529
  1

  0
INSERT
  5
6871
330
6870
100
AcDbEntity
  8
L0_
  6
CONTINUOUS
100
AcDbBlockReference
  2
B4527
 10
0.0
 20
0.0
 30
0.0
  0
TEXT
  5
6872
330
6870
100
AcDbEntity
  8
L0_
  6
CONTINUOUS
100
AcDbText
 10
2234.772705078099
 20
3131.8950195313
 30
0.0
 40
15.0
  1
M8 mounting screw
 41
0.9531250000000001
  7
LEROY
 72
     5
 11
2463.5227050781
 21
3131.8950195313
 31
0.0
100
AcDbText
 73
     2
  0
ENDBLK
  5
6874
330
6870
100
AcDbEntity
  8
L230_
  6
CONTINUOUS
 62
     6
100
AcDbBlockEnd
  0
BLOCK
  5
6D20
330
6D16
100
AcDbEntity
  8
0
100
AcDbBlockBegin
  2
*D11
 70
     1
 10
0.0
 20
0.0
 30
0.0
  3
*D11
  1

  0
LINE
  5
74B1
330
6D16
100
AcDbEntity
  8
30
  6
CONTINUOUS
 62
     0
100
AcDbLine
 10
-105.0002441405999
 20
516.1514359345528
 30
0.0
 11
-118.5002441405999
 21
516.1514359345528
 31
0.0
  0
LINE
  5
74B2
330
6D16
100
AcDbEntity
  8
30
  6
CONTINUOUS
 62
     0
100
AcDbLine
 10
-105.0002441405999
 20
376.1514359345528
 30
0.0
 11
-118.5002441405999
 21
376.1514359345528
 31
0.0
  0
LINE
  5
74B3
330
6D16
100
AcDbEntity
  8
30
  6
CONTINUOUS
 62
     0
100
AcDbLine
 10
-118.0002441405999
 20
514.1514359345528
 30
0.0
 11
-118.0002441405999
 21
378.1514359345528
 31
0.0
  0
INSERT
  5
74B4
330
6D16
100
AcDbEntity
  8
30
  6
CONTINUOUS
 62
     0
100
AcDbBlockReference
  2
_OPEN
 10
-118.0002441405999
 20
516.1514359345528
 30
0.0
 41
2.0
 42
2.0
 43
2.0
 50
90.0
  0
INSERT
  5
74B5
330
6D16
100
AcDbEntity
  8
30
  6
CONTINUOUS
 62
     0
100
AcDbBlockReference
  2
_OPEN
 10
-118.0002441405999
 20
376.1514359345528
 30
0.0
 41
2.0
 42
2.0
 43
2.0
 50
270.0
  0
MTEXT
  5
74B6
330
6D16
100
AcDbEntity
  8
30
  6
CONTINUOUS
 62
     0
100
AcDbMText
 10
-121.5002441406
 20
446.1514359345528
 30
0.0
 40
5.0
 41
0.0
 71
     5
 72
     1
  1
\A1;140
 11
0.0000000000000001
 21
1.0
 31
0.0
1001
ACAD
1000
MTEXTBEGIN
1070
    73
1070
     1
1070
    44
1040
1.0
1070
    74
1070
     0
1000
MTEXTEND
  0
POINT
  5
74B7
330
6D16
100
AcDbEntity
  8
DEFPOINTS
  6
CONTINUOUS
 62
     0
100
AcDbPoint
 10
-104.0002441405999
 20
516.1514359345528
 30
0.0
  0
POINT
  5
74B8
330
6D16
100
AcDbEntity
  8
DEFPOINTS
  6
CONTINUOUS
 62
     0
100
AcDbPoint
 10
-104.0002441405999
 20
376.1514359345528
 30
0.0
  0
POINT
  5
74B9
330
6D16
100
AcDbEntity
  8
DEFPOINTS
  6
CONTINUOUS
 62
     0
100
AcDbPoint
 10
-118.0002441405999
 20
376.1514359345528
 30
0.0
  0
ENDBLK
  5
6D21
330
6D16
100
AcDbEntity
  8
0
100
AcDbBlockEnd
  0
BLOCK
  5
6D74
330
6D6A
100
AcDbEntity
  8
0
100
AcDbBlockBegin
  2
*D12
 70
     1
 10
0.0
 20
0.0
 30
0.0
  3
*D12
  1

  0
LINE
  5
7303
330
6D6A
100
AcDbEntity
  8
30
  6
CONTINUOUS
 62
     0
100
AcDbLine
 10
436.0
 20
-1.0
 30
0.0
 11
436.0
 21
-292.9950458463608
 31
0.0
  0
LINE
  5
7304
330
6D6A
100
AcDbEntity
  8
30
  6
CONTINUOUS
 62
     0
100
AcDbLine
 10
453.0
 20
-141.0
 30
0.0
 11
453.0
 21
-292.9950458463608
 31
0.0
  0
LINE
  5
7305
330
6D6A
100
AcDbEntity
  8
30
  6
CONTINUOUS
 62
     0
100
AcDbLine
 10
438.0
 20
-292.4950458463608
 30
0.0
 11
451.0
 21
-292.4950458463608
 31
0.0
  0
INSERT
  5
7306
330
6D6A
100
AcDbEntity
  8
30
  6
CONTINUOUS
 62
     0
100
AcDbBlockReference
  2
_OPEN
 10
436.0
 20
-292.4950458463608
 30
0.0
 41
2.0
 42
2.0
 43
2.0
 50
180.0
  0
INSERT
  5
7307
330
6D6A
100
AcDbEntity
  8
30
  6
CONTINUOUS
 62
     0
100
AcDbBlockReference
  2
_OPEN
 10
453.0
 20
-292.4950458463608
 30
0.0
 41
2.0
 42
2.0
 43
2.0
  0
MTEXT
  5
7308
330
6D6A
100
AcDbEntity
  8
30
  6
CONTINUOUS
 62
     0
100
AcDbMText
 10
444.5
 20
-288.9950458463608
 30
0.0
 40
5.0
 41
0.0
 71
     5
 72
     1
  1
\A1;17
1001
ACAD
1000
MTEXTBEGIN
1070
    73
1070
     1
1070
    44
1040
1.0
1070
    74
1070
     0
1000
MTEXTEND
  0
POINT
  5
7309
330
6D6A
100
AcDbEntity
  8
DEFPOINTS
  6
CONTINUOUS
 62
     0
100
AcDbPoint
 10
436.0
 20
0.0
 30
0.0
  0
POINT
  5
730A
330
6D6A
100
AcDbEntity
  8
DEFPOINTS
  6
CONTINUOUS
 62
     0
100
AcDbPoint
 10
453.0
 20
-140.0
 30
0.0
  0
POINT
  5
730B
330
6D6A
100
AcDbEntity
  8
DEFPOINTS
  6
CONTINUOUS
 62
     0
100
AcDbPoint
 10
453.0
 20
-292.4950458463608
 30
0.0
  0
ENDBLK
  5
6D75
330
6D6A
100
AcDbEntity
  8
0
100
AcDbBlockEnd
  0
BLOCK
  5
6D81
330
6D77
100
AcDbEntity
  8
0
100
AcDbBlockBegin
  2
*D13
 70
     1
 10
0.0
 20
0.0
 30
0.0
  3
*D13
  1

  0
LINE
  5
76B4
330
6D77
100
AcDbEntity
  8
30
  6
CONTINUOUS
 62
     0
100
AcDbLine
 10
453.0
 20
-141.0
 30
0.0
 11
453.0
 21
-292.9950458463608
 31
0.0
  0
LINE
  5
76B5
330
6D77
100
AcDbEntity
  8
30
  6
CONTINUOUS
 62
     0
100
AcDbLine
 10
593.0
 20
-180.0
 30
0.0
 11
593.0
 21
-292.9950458463608
 31
0.0
  0
LINE
  5
76B6
330
6D77
100
AcDbEntity
  8
30
  6
CONTINUOUS
 62
     0
100
AcDbLine
 10
455.0
 20
-292.4950458463608
 30
0.0
 11
591.0
 21
-292.4950458463608
 31
0.0
  0
INSERT
  5
76B7
330
6D77
100
AcDbEntity
  8
30
  6
CONTINUOUS
 62
     0
100
AcDbBlockReference
  2
_OPEN
 10
453.0
 20
-292.4950458463608
 30
0.0
 41
2.0
 42
2.0
 43
2.0
 50
180.0
  0
INSERT
  5
76B8
330
6D77
100
AcDbEntity
  8
30
  6
CONTINUOUS
 62
     0
100
AcDbBlockReference
  2
_OPEN
 10
593.0
 20
-292.4950458463608
 30
0.0
 41
2.0
 42
2.0
 43
2.0
  0
MTEXT
  5
76B9
330
6D77
100
AcDbEntity
  8
30
  6
CONTINUOUS
 62
     0
100
AcDbMText
 10
523.0
 20
-288.9950458463608
 30
0.0
 40
5.0
 41
0.0
 71
     5
 72
     1
  1
\A1;140
  0
POINT
  5
76BA
330
6D77
100
AcDbEntity
  8
DEFPOINTS
  6
CONTINUOUS
 62
     0
100
AcDbPoint
 10
453.0
 20
-140.0
 30
0.0
  0
POINT
  5
76BB
330
6D77
100
AcDbEntity
  8
DEFPOINTS
  6
CONTINUOUS
 62
     0
100
AcDbPoint
 10
593.0
 20
-179.0
 30
0.0
  0
POINT
  5
76BC
330
6D77
100
AcDbEntity
  8
DEFPOINTS
  6
CONTINUOUS
 62
     0
100
AcDbPoint
 10
593.0
 20
-292.4950458463608
 30
0.0
  0
ENDBLK
  5
6D82
330
6D77
100
AcDbEntity
  8
0
100
AcDbBlockEnd
  0
BLOCK
  5
6DC2
330
6DB8
100
AcDbEntity
  8
0
100
AcDbBlockBegin
  2
*D14
 70
     1
 10
0.0
 20
0.0
 30
0.0
  3
*D14
  1

  0
LINE
  5
736F
330
6DB8
100
AcDbEntity
  8
30
  6
CONTINUOUS
 62
     0
100
AcDbLine
 10
453.0
 20
-141.0
 30
0.0
 11
453.0
 21
-194.9087893196519
 31
0.0
  0
LINE
  5
7370
330
6DB8
100
AcDbEntity
  8
30
  6
CONTINUOUS
 62
     0
100
AcDbLine
 10
461.0
 20
-171.0
 30
0.0
 11
461.0
 21
-194.9087893196519
 31
0.0
  0
LINE
  5
7371
330
6DB8
100
AcDbEntity
  8
30
  6
CONTINUOUS
 62
     0
100
AcDbLine
 10
455.0
 20
-194.4087893196519
 30
0.0
 11
459.0
 21
-194.4087893196519
 31
0.0
  0
INSERT
  5
7372
330
6DB8
100
AcDbEntity
  8
30
  6
CONTINUOUS
 62
     0
100
AcDbBlockReference
  2
_OPEN
 10
453.0
 20
-194.4087893196519
 30
0.0
 41
2.0
 42
2.0
 43
2.0
 50
180.0
  0
INSERT
  5
7373
330
6DB8
100
AcDbEntity
  8
30
  6
CONTINUOUS
 62
     0
100
AcDbBlockReference
  2
_OPEN
 10
461.0
 20
-194.4087893196519
 30
0.0
 41
2.0
 42
2.0
 43
2.0
  0
MTEXT
  5
7374
330
6DB8
100
AcDbEntity
  8
30
  6
CONTINUOUS
 62
     0
100
AcDbMText
 10
457.0
 20
-190.9087893196519
 30
0.0
 40
5.0
 41
0.0
 71
     5
 72
     1
  1
\A1;8
1001
ACAD
1000
MTEXTBEGIN
1070
    73
1070
     1
1070
    44
1040
1.0
1070
    74
1070
     0
1000
MTEXTEND
  0
POINT
  5
7375
330
6DB8
100
AcDbEntity
  8
DEFPOINTS
  6
CONTINUOUS
 62
     0
100
AcDbPoint
 10
453.0
 20
-140.0
 30
0.0
  0
POINT
  5
7376
330
6DB8
100
AcDbEntity
  8
DEFPOINTS
  6
CONTINUOUS
 62
     0
100
AcDbPoint
 10
461.0
 20
-170.0
 30
0.0
  0
POINT
  5
7377
330
6DB8
100
AcDbEntity
  8
DEFPOINTS
  6
CONTINUOUS
 62
     0
100
AcDbPoint
 10
461.0
 20
-194.4087893196519
 30
0.0
  0
ENDBLK
  5
6DC3
330
6DB8
100
AcDbEntity
  8
0
100
AcDbBlockEnd
  0
BLOCK
  5
6DF8
330
6DEE
100
AcDbEntity
  8
0
100
AcDbBlockBegin
  2
*D15
 70
     1
 10
0.0
 20
0.0
 30
0.0
  3
*D15
  1

  0
LINE
  5
730C
330
6DEE
100
AcDbEntity
  8
30
  6
CONTINUOUS
 62
     0
100
AcDbLine
 10
322.000106811546
 20
-0.9999999999999895
 30
0.0
 11
322.000106811546
 21
-309.58595701602
 31
0.0
  0
LINE
  5
730D
330
6DEE
100
AcDbEntity
  8
30
  6
CONTINUOUS
 62
     0
100
AcDbLine
 10
401.9998397827433
 20
-1.0
 30
0.0
 11
401.9998397827433
 21
-309.58595701602
 31
0.0
  0
LINE
  5
730E
330
6DEE
100
AcDbEntity
  8
30
  6
CONTINUOUS
 62
     0
100
AcDbLine
 10
324.000106811546
 20
-309.08595701602
 30
0.0
 11
399.9998397827433
 21
-309.08595701602
 31
0.0
  0
INSERT
  5
730F
330
6DEE
100
AcDbEntity
  8
30
  6
CONTINUOUS
 62
     0
100
AcDbBlockReference
  2
_OPEN
 10
322.000106811546
 20
-309.08595701602
 30
0.0
 41
2.0
 42
2.0
 43
2.0
 50
180.0
  0
INSERT
  5
7310
330
6DEE
100
AcDbEntity
  8
30
  6
CONTINUOUS
 62
     0
100
AcDbBlockReference
  2
_OPEN
 10
401.9998397827433
 20
-309.08595701602
 30
0.0
 41
2.0
 42
2.0
 43
2.0
  0
MTEXT
  5
7311
330
6DEE
100
AcDbEntity
  8
30
  6
CONTINUOUS
 62
     0
100
AcDbMText
 10
361.9999732971447
 20
-305.58595701602
 30
0.0
 40
5.0
 41
0.0
 71
     5
 72
     1
  1
\A1;80
1001
ACAD
1000
MTEXTBEGIN
1070
    73
1070
     1
1070
    44
1040
1.0
1070
    74
1070
     0
1000
MTEXTEND
  0
POINT
  5
7312
330
6DEE
100
AcDbEntity
  8
DEFPOINTS
  6
CONTINUOUS
 62
     0
100
AcDbPoint
 10
322.000106811546
 20
0.0000000000000105
 30
0.0
  0
POINT
  5
7313
330
6DEE
100
AcDbEntity
  8
DEFPOINTS
  6
CONTINUOUS
 62
     0
100
AcDbPoint
 10
401.9998397827433
 20
-0.0000000000000009
 30
0.0
  0
POINT
  5
7314
330
6DEE
100
AcDbEntity
  8
DEFPOINTS
  6
CONTINUOUS
 62
     0
100
AcDbPoint
 10
401.9998397827433
 20
-309.08595701602
 30
0.0
  0
ENDBLK
  5
6DF9
330
6DEE
100
AcDbEntity
  8
0
100
AcDbBlockEnd
  0
BLOCK
  5
6E05
330
6DFB
100
AcDbEntity
  8
0
100
AcDbBlockBegin
  2
*D16
 70
     1
 10
0.0
 20
0.0
 30
0.0
  3
*D16
  1

  0
LINE
  5
76BD
330
6DFB
100
AcDbEntity
  8
30
  6
CONTINUOUS
 62
     0
100
AcDbLine
 10
401.9998397827433
 20
-1.0
 30
0.0
 11
401.9998397827433
 21
-309.58595701602
 31
0.0
  0
LINE
  5
76BE
330
6DFB
100
AcDbEntity
  8
30
  6
CONTINUOUS
 62
     0
100
AcDbLine
 10
593.0
 20
-180.0
 30
0.0
 11
593.0
 21
-309.58595701602
 31
0.0
  0
LINE
  5
76BF
330
6DFB
100
AcDbEntity
  8
30
  6
CONTINUOUS
 62
     0
100
AcDbLine
 10
403.9998397827432
 20
-309.08595701602
 30
0.0
 11
591.0
 21
-309.08595701602
 31
0.0
  0
INSERT
  5
76C0
330
6DFB
100
AcDbEntity
  8
30
  6
CONTINUOUS
 62
     0
100
AcDbBlockReference
  2
_OPEN
 10
401.9998397827433
 20
-309.08595701602
 30
0.0
 41
2.0
 42
2.0
 43
2.0
 50
180.0
  0
INSERT
  5
76C1
330
6DFB
100
AcDbEntity
  8
30
  6
CONTINUOUS
 62
     0
100
AcDbBlockReference
  2
_OPEN
 10
593.0
 20
-309.08595701602
 30
0.0
 41
2.0
 42
2.0
 43
2.0
  0
MTEXT
  5
76C2
330
6DFB
100
AcDbEntity
  8
30
  6
CONTINUOUS
 62
     0
100
AcDbMText
 10
497.4999198913716
 20
-305.58595701602
 30
0.0
 40
5.0
 41
0.0
 71
     5
 72
     1
  1
\A1;191
  0
POINT
  5
76C3
330
6DFB
100
AcDbEntity
  8
DEFPOINTS
  6
CONTINUOUS
 62
     0
100
AcDbPoint
 10
401.9998397827433
 20
-0.0000000000000009
 30
0.0
  0
POINT
  5
76C4
330
6DFB
100
AcDbEntity
  8
DEFPOINTS
  6
CONTINUOUS
 62
     0
100
AcDbPoint
 10
593.0
 20
-179.0
 30
0.0
  0
POINT
  5
76C5
330
6DFB
100
AcDbEntity
  8
DEFPOINTS
  6
CONTINUOUS
 62
     0
100
AcDbPoint
 10
593.0
 20
-309.08595701602
 30
0.0
  0
ENDBLK
  5
6E06
330
6DFB
100
AcDbEntity
  8
0
100
AcDbBlockEnd
  0
BLOCK
  5
6E12
330
6E08
100
AcDbEntity
  8
0
100
AcDbBlockBegin
  2
*D17
 70
     1
 10
0.0
 20
0.0
 30
0.0
  3
*D17
  1

  0
LINE
  5
73A5
330
6E08
100
AcDbEntity
  8
30
  6
CONTINUOUS
 62
     0
100
AcDbLine
 10
452.0
 20
170.0
 30
0.0
 11
380.2140212313462
 21
170.0
 31
0.0
  0
LINE
  5
73A6
330
6E08
100
AcDbEntity
  8
30
  6
CONTINUOUS
 62
     0
100
AcDbLine
 10
400.9998397827433
 20
0.0000000000000003
 30
0.0
 11
380.2140212313461
 21
0.0000000000000062
 31
0.0
  0
LINE
  5
73A7
330
6E08
100
AcDbEntity
  8
30
  6
CONTINUOUS
 62
     0
100
AcDbLine
 10
380.7140212313461
 20
168.0
 30
0.0
 11
380.7140212313461
 21
2.000000000000006
 31
0.0
  0
INSERT
  5
73A8
330
6E08
100
AcDbEntity
  8
30
  6
CONTINUOUS
 62
     0
100
AcDbBlockReference
  2
_OPEN
 10
380.7140212313461
 20
170.0
 30
0.0
 41
2.0
 42
2.0
 43
2.0
 50
90.0
  0
INSERT
  5
73A9
330
6E08
100
AcDbEntity
  8
30
  6
CONTINUOUS
 62
     0
100
AcDbBlockReference
  2
_OPEN
 10
380.7140212313461
 20
0.000000000000006
 30
0.0
 41
2.0
 42
2.0
 43
2.0
 50
270.0
  0
MTEXT
  5
73AA
330
6E08
100
AcDbEntity
  8
30
  6
CONTINUOUS
 62
     0
100
AcDbMText
 10
377.2140212313461
 20
85.00000000000007
 30
0.0
 40
5.0
 41
0.0
 71
     5
 72
     1
  1
\A1;170
 11
0.0000000000000001
 21
1.0
 31
0.0
1001
ACAD
1000
MTEXTBEGIN
1070
    73
1070
     1
1070
    44
1040
1.0
1070
    74
1070
     0
1000
MTEXTEND
  0
POINT
  5
73AB
330
6E08
100
AcDbEntity
  8
DEFPOINTS
  6
CONTINUOUS
 62
     0
100
AcDbPoint
 10
453.0
 20
170.0
 30
0.0
  0
POINT
  5
73AC
330
6E08
100
AcDbEntity
  8
DEFPOINTS
  6
CONTINUOUS
 62
     0
100
AcDbPoint
 10
401.9998397827433
 20
0.0
 30
0.0
  0
POINT
  5
73AD
330
6E08
100
AcDbEntity
  8
DEFPOINTS
  6
CONTINUOUS
 62
     0
100
AcDbPoint
 10
380.7140212313461
 20
0.000000000000006
 30
0.0
  0
ENDBLK
  5
6E13
330
6E08
100
AcDbEntity
  8
0
100
AcDbBlockEnd
  0
BLOCK
  5
6E28
330
6E1E
100
AcDbEntity
  8
0
100
AcDbBlockBegin
  2
*D18
 70
     1
 10
0.0
 20
0.0
 30
0.0
  3
*D18
  1

  0
LINE
  5
76C6
330
6E1E
100
AcDbEntity
  8
30
  6
CONTINUOUS
 62
     0
100
AcDbLine
 10
400.9998397827433
 20
0.0000000000000003
 30
0.0
 11
380.2140212313462
 21
0.0000000000000062
 31
0.0
  0
LINE
  5
76C7
330
6E1E
100
AcDbEntity
  8
30
  6
CONTINUOUS
 62
     0
100
AcDbLine
 10
452.0
 20
-140.0
 30
0.0
 11
380.2140212313461
 21
-139.9999999999999
 31
0.0
  0
LINE
  5
76C8
330
6E1E
100
AcDbEntity
  8
30
  6
CONTINUOUS
 62
     0
100
AcDbLine
 10
380.7140212313461
 20
-1.999999999999993
 30
0.0
 11
380.7140212313461
 21
-137.9999999999999
 31
0.0
  0
INSERT
  5
76C9
330
6E1E
100
AcDbEntity
  8
30
  6
CONTINUOUS
 62
     0
100
AcDbBlockReference
  2
_OPEN
 10
380.7140212313461
 20
0.000000000000006
 30
0.0
 41
2.0
 42
2.0
 43
2.0
 50
90.0
  0
INSERT
  5
76CA
330
6E1E
100
AcDbEntity
  8
30
  6
CONTINUOUS
 62
     0
100
AcDbBlockReference
  2
_OPEN
 10
380.7140212313461
 20
-139.9999999999999
 30
0.0
 41
2.0
 42
2.0
 43
2.0
 50
270.0
  0
MTEXT
  5
76CB
330
6E1E
100
AcDbEntity
  8
30
  6
CONTINUOUS
 62
     0
100
AcDbMText
 10
377.2140212313461
 20
-69.99999999999992
 30
0.0
 40
5.0
 41
0.0
 71
     5
 72
     1
  1
\A1;140
 11
0.0000000000000001
 21
1.0
 31
0.0
  0
POINT
  5
76CC
330
6E1E
100
AcDbEntity
  8
DEFPOINTS
  6
CONTINUOUS
 62
     0
100
AcDbPoint
 10
401.9998397827433
 20
0.0
 30
0.0
  0
POINT
  5
76CD
330
6E1E
100
AcDbEntity
  8
DEFPOINTS
  6
CONTINUOUS
 62
     0
100
AcDbPoint
 10
453.0
 20
-140.0
 30
0.0
  0
POINT
  5
76CE
330
6E1E
100
AcDbEntity
  8
DEFPOINTS
  6
CONTINUOUS
 62
     0
100
AcDbPoint
 10
380.7140212313461
 20
-139.9999999999999
 30
0.0
  0
ENDBLK
  5
6E29
330
6E1E
100
AcDbEntity
  8
0
100
AcDbBlockEnd
  0
BLOCK
  5
6F20
330
6F17
100
AcDbEntity
  8
0
100
AcDbBlockBegin
  2
*D19
 70
     1
 10
0.0
 20
0.0
 30
0.0
  3
*D19
  1

  0
LINE
  5
7026
330
6F17
100
AcDbEntity
  8
30
  6
CONTINUOUS
 62
     0
100
AcDbLine
 10
447.611186187557
 20
-535.666441437328
 30
0.0
 11
434.9445195208903
 21
-535.666441437328
 31
0.0
  0
LINE
  5
7027
330
6F17
100
AcDbEntity
  8
30
  6
CONTINUOUS
 62
     0
100
AcDbLine
 10
434.9445195208903
 20
-535.666441437328
 30
0.0
 11
430.1324555320332
 21
-550.1026334038988
 31
0.0
  0
MTEXT
  5
7028
330
6F17
100
AcDbEntity
  8
30
  6
CONTINUOUS
 62
     0
100
AcDbMText
 10
443.4445195208905
 20
-532.1664414373279
 30
0.0
 40
5.0
 41
0.0
 71
     5
 72
     1
  1
\A1;R6
1001
ACAD
1000
MTEXTBEGIN
1070
    73
1070
     1
1070
    44
1040
1.0
1070
    74
1070
     0
1000
MTEXTEND
  0
INSERT
  5
7029
330
6F17
100
AcDbEntity
  8
30
  6
CONTINUOUS
 62
     0
100
AcDbBlockReference
  2
_OPEN
 10
429.4999999999995
 20
-552.0
 30
0.0
 41
2.0
 42
2.0
 43
2.0
 50
251.5650511770775
  0
LINE
  5
702A
330
6F17
100
AcDbEntity
  8
30
  6
CONTINUOUS
 62
     0
100
AcDbLine
 10
427.35451952089
 20
-558.1664414373284
 30
0.0
 11
427.53451952089
 21
-558.1664414373284
 31
0.0
  0
LINE
  5
702B
330
6F17
100
AcDbEntity
  8
30
  6
CONTINUOUS
 62
     0
100
AcDbLine
 10
427.44451952089
 20
-558.2564414373284
 30
0.0
 11
427.44451952089
 21
-558.0764414373284
 31
0.0
  0
POINT
  5
702C
330
6F17
100
AcDbEntity
  8
DEFPOINTS
  6
CONTINUOUS
 62
     0
100
AcDbPoint
 10
429.4999999999995
 20
-552.0
 30
0.0
  0
POINT
  5
702D
330
6F17
100
AcDbEntity
  8
DEFPOINTS
  6
CONTINUOUS
 62
     0
100
AcDbPoint
 10
427.44451952089
 20
-558.1664414373285
 30
0.0
  0
ENDBLK
  5
6F21
330
6F17
100
AcDbEntity
  8
0
100
AcDbBlockEnd
  0
BLOCK
  5
6F5D
330
6F53
100
AcDbEntity
  8
0
100
AcDbBlockBegin
  2
*D20
 70
     1
 10
0.0
 20
0.0
 30
0.0
  3
*D20
  1

  0
LINE
  5
6F54
330
6F53
100
AcDbEntity
  8
30
  6
CONTINUOUS
 62
     0
100
AcDbLine
 10
-51.0
 20
-417.0
 30
0.0
 11
-201.5934457379698
 21
-416.9999999999999
 31
0.0
  0
LINE
  5
6F55
330
6F53
100
AcDbEntity
  8
30
  6
CONTINUOUS
 62
     0
100
AcDbLine
 10
-167.0
 20
-601.0
 30
0.0
 11
-201.5934457379699
 21
-601.0
 31
0.0
  0
LINE
  5
6F56
330
6F53
100
AcDbEntity
  8
30
  6
CONTINUOUS
 62
     0
100
AcDbLine
 10
-201.0934457379698
 20
-418.9999999999999
 30
0.0
 11
-201.0934457379699
 21
-599.0
 31
0.0
  0
INSERT
  5
6F57
330
6F53
100
AcDbEntity
  8
30
  6
CONTINUOUS
 62
     0
100
AcDbBlockReference
  2
_OPEN
 10
-201.0934457379698
 20
-416.9999999999999
 30
0.0
 41
2.0
 42
2.0
 43
2.0
 50
90.0
  0
INSERT
  5
6F58
330
6F53
100
AcDbEntity
  8
30
  6
CONTINUOUS
 62
     0
100
AcDbBlockReference
  2
_OPEN
 10
-201.0934457379699
 20
-601.0
 30
0.0
 41
2.0
 42
2.0
 43
2.0
 50
270.0
  0
MTEXT
  5
6F59
330
6F53
100
AcDbEntity
  8
30
  6
CONTINUOUS
 62
     0
100
AcDbMText
 10
-204.5934457379698
 20
-509.0
 30
0.0
 40
5.0
 41
0.0
 71
     5
 72
     1
  1
\A1;184
 11
0.0000000000000001
 21
1.0
 31
0.0
1001
ACAD
1000
MTEXTBEGIN
1070
    73
1070
     1
1070
    44
1040
1.0
1070
    74
1070
     0
1000
MTEXTEND
  0
POINT
  5
6F5A
330
6F53
100
AcDbEntity
  8
DEFPOINTS
  6
CONTINUOUS
 62
     0
100
AcDbPoint
 10
-50.0
 20
-417.0
 30
0.0
  0
POINT
  5
6F5B
330
6F53
100
AcDbEntity
  8
DEFPOINTS
  6
CONTINUOUS
 62
     0
100
AcDbPoint
 10
-166.0
 20
-601.0
 30
0.0
  0
POINT
  5
6F5C
330
6F53
100
AcDbEntity
  8
DEFPOINTS
  6
CONTINUOUS
 62
     0
100
AcDbPoint
 10
-201.0934457379699
 20
-601.0
 30
0.0
  0
ENDBLK
  5
6F5E
330
6F53
100
AcDbEntity
  8
0
100
AcDbBlockEnd
  0
BLOCK
  5
6F6A
330
6F60
100
AcDbEntity
  8
0
100
AcDbBlockBegin
  2
*D21
 70
     1
 10
0.0
 20
0.0
 30
0.0
  3
*D21
  1

  0
LINE
  5
76CF
330
6F60
100
AcDbEntity
  8
30
  6
CONTINUOUS
 62
     0
100
AcDbLine
 10
-167.0
 20
-601.0
 30
0.0
 11
-201.5934457379699
 21
-601.0
 31
0.0
  0
LINE
  5
76D0
330
6F60
100
AcDbEntity
  8
30
  6
CONTINUOUS
 62
     0
100
AcDbLine
 10
-51.0
 20
-754.9997558592999
 30
0.0
 11
-201.5934457379699
 21
-754.9997558592999
 31
0.0
  0
LINE
  5
76D1
330
6F60
100
AcDbEntity
  8
30
  6
CONTINUOUS
 62
     0
100
AcDbLine
 10
-201.0934457379699
 20
-603.0
 30
0.0
 11
-201.0934457379699
 21
-752.9997558593
 31
0.0
  0
INSERT
  5
76D2
330
6F60
100
AcDbEntity
  8
30
  6
CONTINUOUS
 62
     0
100
AcDbBlockReference
  2
_OPEN
 10
-201.0934457379699
 20
-601.0
 30
0.0
 41
2.0
 42
2.0
 43
2.0
 50
90.0
  0
INSERT
  5
76D3
330
6F60
100
AcDbEntity
  8
30
  6
CONTINUOUS
 62
     0
100
AcDbBlockReference
  2
_OPEN
 10
-201.0934457379699
 20
-754.9997558592999
 30
0.0
 41
2.0
 42
2.0
 43
2.0
 50
270.0
  0
MTEXT
  5
76D4
330
6F60
100
AcDbEntity
  8
30
  6
CONTINUOUS
 62
     0
100
AcDbMText
 10
-204.5934457379698
 20
-677.99987792965
 30
0.0
 40
5.0
 41
0.0
 71
     5
 72
     1
  1
\A1;154
 11
0.0000000000000001
 21
1.0
 31
0.0
  0
POINT
  5
76D5
330
6F60
100
AcDbEntity
  8
DEFPOINTS
  6
CONTINUOUS
 62
     0
100
AcDbPoint
 10
-166.0
 20
-601.0
 30
0.0
  0
POINT
  5
76D6
330
6F60
100
AcDbEntity
  8
DEFPOINTS
  6
CONTINUOUS
 62
     0
100
AcDbPoint
 10
-50.0
 20
-754.9997558592999
 30
0.0
  0
POINT
  5
76D7
330
6F60
100
AcDbEntity
  8
DEFPOINTS
  6
CONTINUOUS
 62
     0
100
AcDbPoint
 10
-201.0934457379699
 20
-754.9997558592999
 30
0.0
  0
ENDBLK
  5
6F6B
330
6F60
100
AcDbEntity
  8
0
100
AcDbBlockEnd
  0
BLOCK
  5
6F77
330
6F6D
100
AcDbEntity
  8
0
100
AcDbBlockBegin
  2
*D22
 70
     1
 10
0.0
 20
0.0
 30
0.0
  3
*D22
  1

  0
LINE
  5
6F6E
330
6F6D
100
AcDbEntity
  8
30
  6
CONTINUOUS
 62
     0
100
AcDbLine
 10
-35.0
 20
-770.9997558592999
 30
0.0
 11
-35.0
 21
-810.9423648938419
 31
0.0
  0
LINE
  5
6F6F
330
6F6D
100
AcDbEntity
  8
30
  6
CONTINUOUS
 62
     0
100
AcDbLine
 10
35.0
 20
-770.9997558592999
 30
0.0
 11
35.0
 21
-810.9423648938419
 31
0.0
  0
LINE
  5
6F70
330
6F6D
100
AcDbEntity
  8
30
  6
CONTINUOUS
 62
     0
100
AcDbLine
 10
-33.0
 20
-810.4423648938418
 30
0.0
 11
33.0
 21
-810.4423648938418
 31
0.0
  0
INSERT
  5
6F71
330
6F6D
100
AcDbEntity
  8
30
  6
CONTINUOUS
 62
     0
100
AcDbBlockReference
  2
_OPEN
 10
-35.0
 20
-810.4423648938418
 30
0.0
 41
2.0
 42
2.0
 43
2.0
 50
180.0
  0
INSERT
  5
6F72
330
6F6D
100
AcDbEntity
  8
30
  6
CONTINUOUS
 62
     0
100
AcDbBlockReference
  2
_OPEN
 10
35.0
 20
-810.4423648938418
 30
0.0
 41
2.0
 42
2.0
 43
2.0
  0
MTEXT
  5
6F73
330
6F6D
100
AcDbEntity
  8
30
  6
CONTINUOUS
 62
     0
100
AcDbMText
 10
0.0000000000000002
 20
-806.9423648938418
 30
0.0
 40
5.0
 41
0.0
 71
     5
 72
     1
  1
\A1;70
1001
ACAD
1000
MTEXTBEGIN
1070
    73
1070
     1
1070
    44
1040
1.0
1070
    74
1070
     0
1000
MTEXTEND
  0
POINT
  5
6F74
330
6F6D
100
AcDbEntity
  8
DEFPOINTS
  6
CONTINUOUS
 62
     0
100
AcDbPoint
 10
-35.0
 20
-769.9997558593
 30
0.0
  0
POINT
  5
6F75
330
6F6D
100
AcDbEntity
  8
DEFPOINTS
  6
CONTINUOUS
 62
     0
100
AcDbPoint
 10
35.0
 20
-769.9997558593
 30
0.0
  0
POINT
  5
6F76
330
6F6D
100
AcDbEntity
  8
DEFPOINTS
  6
CONTINUOUS
 62
     0
100
AcDbPoint
 10
35.0
 20
-810.4423648938418
 30
0.0
  0
ENDBLK
  5
6F78
330
6F6D
100
AcDbEntity
  8
0
100
AcDbBlockEnd
  0
BLOCK
  5
6F84
330
6F7A
100
AcDbEntity
  8
0
100
AcDbBlockBegin
  2
*D23
 70
     1
 10
0.0
 20
0.0
 30
0.0
  3
*D23
  1

  0
LINE
  5
701D
330
6F7A
100
AcDbEntity
  8
30
  6
CONTINUOUS
 62
     0
100
AcDbLine
 10
354.4999999999999
 20
-645.0
 30
0.0
 11
354.4999999999999
 21
-684.2650401241262
 31
0.0
  0
LINE
  5
701E
330
6F7A
100
AcDbEntity
  8
30
  6
CONTINUOUS
 62
     0
100
AcDbLine
 10
435.5
 20
-645.0
 30
0.0
 11
435.5
 21
-684.2650401241262
 31
0.0
  0
LINE
  5
701F
330
6F7A
100
AcDbEntity
  8
30
  6
CONTINUOUS
 62
     0
100
AcDbLine
 10
356.4999999999999
 20
-683.7650401241262
 30
0.0
 11
433.4999999999999
 21
-683.7650401241262
 31
0.0
  0
INSERT
  5
7020
330
6F7A
100
AcDbEntity
  8
30
  6
CONTINUOUS
 62
     0
100
AcDbBlockReference
  2
_OPEN
 10
354.4999999999999
 20
-683.7650401241262
 30
0.0
 41
2.0
 42
2.0
 43
2.0
 50
180.0
  0
INSERT
  5
7021
330
6F7A
100
AcDbEntity
  8
30
  6
CONTINUOUS
 62
     0
100
AcDbBlockReference
  2
_OPEN
 10
435.5
 20
-683.7650401241262
 30
0.0
 41
2.0
 42
2.0
 43
2.0
  0
MTEXT
  5
7022
330
6F7A
100
AcDbEntity
  8
30
  6
CONTINUOUS
 62
     0
100
AcDbMText
 10
395.0
 20
-680.2650401241262
 30
0.0
 40
5.0
 41
0.0
 71
     5
 72
     1
  1
\A1;81
1001
ACAD
1000
MTEXTBEGIN
1070
    73
1070
     1
1070
    44
1040
1.0
1070
    74
1070
     0
1000
MTEXTEND
  0
POINT
  5
7023
330
6F7A
100
AcDbEntity
  8
DEFPOINTS
  6
CONTINUOUS
 62
     0
100
AcDbPoint
 10
354.4999999999999
 20
-644.0
 30
0.0
  0
POINT
  5
7024
330
6F7A
100
AcDbEntity
  8
DEFPOINTS
  6
CONTINUOUS
 62
     0
100
AcDbPoint
 10
435.5
 20
-644.0
 30
0.0
  0
POINT
  5
7025
330
6F7A
100
AcDbEntity
  8
DEFPOINTS
  6
CONTINUOUS
 62
     0
100
AcDbPoint
 10
435.5
 20
-683.7650401241262
 30
0.0
  0
ENDBLK
  5
6F85
330
6F7A
100
AcDbEntity
  8
0
100
AcDbBlockEnd
  0
BLOCK
  5
6F91
330
6F87
100
AcDbEntity
  8
0
100
AcDbBlockBegin
  2
*D24
 70
     1
 10
0.0
 20
0.0
 30
0.0
  3
*D24
  1

  0
LINE
  5
7014
330
6F87
100
AcDbEntity
  8
30
  6
CONTINUOUS
 62
     0
100
AcDbLine
 10
359.5
 20
-552.0
 30
0.0
 11
332.5972867326491
 21
-552.0
 31
0.0
  0
LINE
  5
7015
330
6F87
100
AcDbEntity
  8
30
  6
CONTINUOUS
 62
     0
100
AcDbLine
 10
359.5
 20
-650.0
 30
0.0
 11
332.597286732649
 21
-650.0
 31
0.0
  0
LINE
  5
7016
330
6F87
100
AcDbEntity
  8
30
  6
CONTINUOUS
 62
     0
100
AcDbLine
 10
333.0972867326491
 20
-554.0
 30
0.0
 11
333.097286732649
 21
-648.0
 31
0.0
  0
INSERT
  5
7017
330
6F87
100
AcDbEntity
  8
30
  6
CONTINUOUS
 62
     0
100
AcDbBlockReference
  2
_OPEN
 10
333.0972867326491
 20
-552.0
 30
0.0
 41
2.0
 42
2.0
 43
2.0
 50
90.0
  0
INSERT
  5
7018
330
6F87
100
AcDbEntity
  8
30
  6
CONTINUOUS
 62
     0
100
AcDbBlockReference
  2
_OPEN
 10
333.097286732649
 20
-650.0
 30
0.0
 41
2.0
 42
2.0
 43
2.0
 50
270.0
  0
MTEXT
  5
7019
330
6F87
100
AcDbEntity
  8
30
  6
CONTINUOUS
 62
     0
100
AcDbMText
 10
329.5972867326491
 20
-600.9999999999998
 30
0.0
 40
5.0
 41
0.0
 71
     5
 72
     1
  1
\A1;98
 11
0.0000000000000001
 21
1.0
 31
0.0
1001
ACAD
1000
MTEXTBEGIN
1070
    73
1070
     1
1070
    44
1040
1.0
1070
    74
1070
     0
1000
MTEXTEND
  0
POINT
  5
701A
330
6F87
100
AcDbEntity
  8
DEFPOINTS
  6
CONTINUOUS
 62
     0
100
AcDbPoint
 10
360.4999999999999
 20
-552.0
 30
0.0
  0
POINT
  5
701B
330
6F87
100
AcDbEntity
  8
DEFPOINTS
  6
CONTINUOUS
 62
     0
100
AcDbPoint
 10
360.4999999999999
 20
-650.0
 30
0.0
  0
POINT
  5
701C
330
6F87
100
AcDbEntity
  8
DEFPOINTS
  6
CONTINUOUS
 62
     0
100
AcDbPoint
 10
333.097286732649
 20
-650.0
 30
0.0
  0
ENDBLK
  5
6F92
330
6F87
100
AcDbEntity
  8
0
100
AcDbBlockEnd
  0
BLOCK
  5
6FC5
330
6FBB
100
AcDbEntity
  8
0
100
AcDbBlockBegin
  2
*D25
 70
     1
 10
0.0
 20
0.0
 30
0.0
  3
*D25
  1

  0
LINE
  5
76D8
330
6FBB
100
AcDbEntity
  8
30
  6
CONTINUOUS
 62
     0
100
AcDbLine
 10
176.9998168945298
 20
200.0
 30
0.0
 11
215.3584367809216
 21
199.9999999999999
 31
0.0
  0
LINE
  5
76D9
330
6FBB
100
AcDbEntity
  8
30
  6
CONTINUOUS
 62
     0
100
AcDbLine
 10
175.9998168945298
 20
-0.0000000000000003
 30
0.0
 11
215.3584367809216
 21
-0.0000000000000114
 31
0.0
  0
LINE
  5
76DA
330
6FBB
100
AcDbEntity
  8
30
  6
CONTINUOUS
 62
     0
100
AcDbLine
 10
214.8584367809216
 20
197.9999999999999
 30
0.0
 11
214.8584367809216
 21
1.999999999999988
 31
0.0
  0
INSERT
  5
76DB
330
6FBB
100
AcDbEntity
  8
30
  6
CONTINUOUS
 62
     0
100
AcDbBlockReference
  2
_OPEN
 10
214.8584367809216
 20
199.9999999999999
 30
0.0
 41
2.0
 42
2.0
 43
2.0
 50
90.0
  0
INSERT
  5
76DC
330
6FBB
100
AcDbEntity
  8
30
  6
CONTINUOUS
 62
     0
100
AcDbBlockReference
  2
_OPEN
 10
214.8584367809216
 20
-0.0000000000000113
 30
0.0
 41
2.0
 42
2.0
 43
2.0
 50
270.0
  0
MTEXT
  5
76DD
330
6FBB
100
AcDbEntity
  8
30
  6
CONTINUOUS
 62
     0
100
AcDbMText
 10
211.3584367809216
 20
100.0
 30
0.0
 40
5.0
 41
0.0
 71
     5
 72
     1
  1
\A1;200
 11
0.0000000000000001
 21
1.0
 31
0.0
  0
POINT
  5
76DE
330
6FBB
100
AcDbEntity
  8
DEFPOINTS
  6
CONTINUOUS
 62
     0
100
AcDbPoint
 10
175.9998168945298
 20
200.0
 30
0.0
  0
POINT
  5
76DF
330
6FBB
100
AcDbEntity
  8
DEFPOINTS
  6
CONTINUOUS
 62
     0
100
AcDbPoint
 10
174.9998168945298
 20
0.0
 30
0.0
  0
POINT
  5
76E0
330
6FBB
100
AcDbEntity
  8
DEFPOINTS
  6
CONTINUOUS
 62
     0
100
AcDbPoint
 10
214.8584367809216
 20
-0.0000000000000113
 30
0.0
  0
ENDBLK
  5
6FC6
330
6FBB
100
AcDbEntity
  8
0
100
AcDbBlockEnd
  0
BLOCK
  5
6FD2
330
6FC8
100
AcDbEntity
  8
0
100
AcDbBlockBegin
  2
*D26
 70
     1
 10
0.0
 20
0.0
 30
0.0
  3
*D26
  1

  0
LINE
  5
76E1
330
6FC8
100
AcDbEntity
  8
30
  6
CONTINUOUS
 62
     0
100
AcDbLine
 10
175.9998168945298
 20
-0.0000000000000003
 30
0.0
 11
215.3584367809216
 21
-0.0000000000000114
 31
0.0
  0
LINE
  5
76E2
330
6FC8
100
AcDbEntity
  8
30
  6
CONTINUOUS
 62
     0
100
AcDbLine
 10
176.9998168945298
 20
-170.0
 30
0.0
 11
215.3584367809215
 21
-170.0
 31
0.0
  0
LINE
  5
76E3
330
6FC8
100
AcDbEntity
  8
30
  6
CONTINUOUS
 62
     0
100
AcDbLine
 10
214.8584367809216
 20
-2.000000000000011
 30
0.0
 11
214.8584367809216
 21
-168.0
 31
0.0
  0
INSERT
  5
76E4
330
6FC8
100
AcDbEntity
  8
30
  6
CONTINUOUS
 62
     0
100
AcDbBlockReference
  2
_OPEN
 10
214.8584367809216
 20
-0.0000000000000113
 30
0.0
 41
2.0
 42
2.0
 43
2.0
 50
90.0
  0
INSERT
  5
76E5
330
6FC8
100
AcDbEntity
  8
30
  6
CONTINUOUS
 62
     0
100
AcDbBlockReference
  2
_OPEN
 10
214.8584367809216
 20
-170.0
 30
0.0
 41
2.0
 42
2.0
 43
2.0
 50
270.0
  0
MTEXT
  5
76E6
330
6FC8
100
AcDbEntity
  8
30
  6
CONTINUOUS
 62
     0
100
AcDbMText
 10
211.3584367809216
 20
-84.99999999999998
 30
0.0
 40
5.0
 41
0.0
 71
     5
 72
     1
  1
\A1;170
 11
0.0000000000000001
 21
1.0
 31
0.0
  0
POINT
  5
76E7
330
6FC8
100
AcDbEntity
  8
DEFPOINTS
  6
CONTINUOUS
 62
     0
100
AcDbPoint
 10
174.9998168945298
 20
0.0
 30
0.0
  0
POINT
  5
76E8
330
6FC8
100
AcDbEntity
  8
DEFPOINTS
  6
CONTINUOUS
 62
     0
100
AcDbPoint
 10
175.9998168945298
 20
-170.0
 30
0.0
  0
POINT
  5
76E9
330
6FC8
100
AcDbEntity
  8
DEFPOINTS
  6
CONTINUOUS
 62
     0
100
AcDbPoint
 10
214.8584367809216
 20
-170.0
 30
0.0
  0
ENDBLK
  5
6FD3
330
6FC8
100
AcDbEntity
  8
0
100
AcDbBlockEnd
  0
BLOCK
  5
6FEC
330
6FE2
100
AcDbEntity
  8
0
100
AcDbBlockBegin
  2
*D27
 70
     1
 10
0.0
 20
0.0
 30
0.0
  3
*D27
  1

  0
LINE
  5
7327
330
6FE2
100
AcDbEntity
  8
30
  6
CONTINUOUS
 62
     0
100
AcDbLine
 10
175.9998168945298
 20
200.0
 30
0.0
 11
234.4081821090277
 21
199.9999999999999
 31
0.0
  0
LINE
  5
7328
330
6FE2
100
AcDbEntity
  8
30
  6
CONTINUOUS
 62
     0
100
AcDbLine
 10
175.9998168945298
 20
-170.0
 30
0.0
 11
234.4081821090276
 21
-170.0
 31
0.0
  0
LINE
  5
7329
330
6FE2
100
AcDbEntity
  8
30
  6
CONTINUOUS
 62
     0
100
AcDbLine
 10
233.9081821090277
 20
197.9999999999999
 30
0.0
 11
233.9081821090276
 21
-168.0
 31
0.0
  0
INSERT
  5
732A
330
6FE2
100
AcDbEntity
  8
30
  6
CONTINUOUS
 62
     0
100
AcDbBlockReference
  2
_OPEN
 10
233.9081821090277
 20
199.9999999999999
 30
0.0
 41
2.0
 42
2.0
 43
2.0
 50
90.0
  0
INSERT
  5
732B
330
6FE2
100
AcDbEntity
  8
30
  6
CONTINUOUS
 62
     0
100
AcDbBlockReference
  2
_OPEN
 10
233.9081821090276
 20
-170.0
 30
0.0
 41
2.0
 42
2.0
 43
2.0
 50
270.0
  0
MTEXT
  5
732C
330
6FE2
100
AcDbEntity
  8
30
  6
CONTINUOUS
 62
     0
100
AcDbMText
 10
230.4081821090276
 20
15.00000000000001
 30
0.0
 40
5.0
 41
0.0
 71
     5
 72
     1
  1
\A1;370
 11
0.0000000000000001
 21
1.0
 31
0.0
1001
ACAD
1000
MTEXTBEGIN
1070
    73
1070
     1
1070
    44
1040
1.0
1070
    74
1070
     0
1000
MTEXTEND
  0
POINT
  5
732D
330
6FE2
100
AcDbEntity
  8
DEFPOINTS
  6
CONTINUOUS
 62
     0
100
AcDbPoint
 10
174.9998168945298
 20
200.0
 30
0.0
  0
POINT
  5
732E
330
6FE2
100
AcDbEntity
  8
DEFPOINTS
  6
CONTINUOUS
 62
     0
100
AcDbPoint
 10
174.9998168945298
 20
-170.0
 30
0.0
  0
POINT
  5
732F
330
6FE2
100
AcDbEntity
  8
DEFPOINTS
  6
CONTINUOUS
 62
     0
100
AcDbPoint
 10
233.9081821090276
 20
-170.0
 30
0.0
  0
ENDBLK
  5
6FED
330
6FE2
100
AcDbEntity
  8
0
100
AcDbBlockEnd
  0
BLOCK
  5
7520
330
7516
100
AcDbEntity
  8
0
100
AcDbBlockBegin
  2
*D28
 70
     1
 10
0.0
 20
0.0
 30
0.0
  3
*D28
  1

  0
LINE
  5
7517
330
7516
100
AcDbEntity
  8
30
  6
CONTINUOUS
 62
     0
100
AcDbLine
 10
724.0
 20
75.0
 30
0.0
 11
748.472221975896
 21
74.99999999999999
 31
0.0
  0
LINE
  5
7518
330
7516
100
AcDbEntity
  8
30
  6
CONTINUOUS
 62
     0
100
AcDbLine
 10
724.0
 20
45.0
 30
0.0
 11
748.472221975896
 21
45.0
 31
0.0
  0
LINE
  5
7519
330
7516
100
AcDbEntity
  8
30
  6
CONTINUOUS
 62
     0
100
AcDbLine
 10
747.972221975896
 20
72.99999999999998
 30
0.0
 11
747.972221975896
 21
47.0
 31
0.0
  0
INSERT
  5
751A
330
7516
100
AcDbEntity
  8
30
  6
CONTINUOUS
 62
     0
100
AcDbBlockReference
  2
_OPEN
 10
747.972221975896
 20
74.99999999999999
 30
0.0
 41
2.0
 42
2.0
 43
2.0
 50
90.0
  0
INSERT
  5
751B
330
7516
100
AcDbEntity
  8
30
  6
CONTINUOUS
 62
     0
100
AcDbBlockReference
  2
_OPEN
 10
747.972221975896
 20
45.0
 30
0.0
 41
2.0
 42
2.0
 43
2.0
 50
270.0
  0
MTEXT
  5
751C
330
7516
100
AcDbEntity
  8
30
  6
CONTINUOUS
 62
     0
100
AcDbMText
 10
744.4722219758959
 20
60.00000000000011
 30
0.0
 40
5.0
 41
0.0
 71
     5
 72
     1
  1
\A1;30
 11
0.0000000000000001
 21
1.0
 31
0.0
1001
ACAD
1000
MTEXTBEGIN
1070
    73
1070
     1
1070
    44
1040
1.0
1070
    74
1070
     0
1000
MTEXTEND
  0
POINT
  5
751D
330
7516
100
AcDbEntity
  8
DEFPOINTS
  6
CONTINUOUS
 62
     0
100
AcDbPoint
 10
723.0
 20
75.0
 30
0.0
  0
POINT
  5
751E
330
7516
100
AcDbEntity
  8
DEFPOINTS
  6
CONTINUOUS
 62
     0
100
AcDbPoint
 10
723.0
 20
45.0
 30
0.0
  0
POINT
  5
751F
330
7516
100
AcDbEntity
  8
DEFPOINTS
  6
CONTINUOUS
 62
     0
100
AcDbPoint
 10
747.972221975896
 20
45.0
 30
0.0
  0
ENDBLK
  5
7521
330
7516
100
AcDbEntity
  8
0
100
AcDbBlockEnd
  0
BLOCK
  5
752D
330
7523
100
AcDbEntity
  8
0
100
AcDbBlockBegin
  2
*D29
 70
     1
 10
0.0
 20
0.0
 30
0.0
  3
*D29
  1

  0
LINE
  5
7524
330
7523
100
AcDbEntity
  8
30
  6
CONTINUOUS
 62
     0
100
AcDbLine
 10
724.0
 20
92.5
 30
0.0
 11
761.787846379736
 21
92.49999999999998
 31
0.0
  0
LINE
  5
7525
330
7523
100
AcDbEntity
  8
30
  6
CONTINUOUS
 62
     0
100
AcDbLine
 10
724.0
 20
27.5
 30
0.0
 11
761.787846379736
 21
27.49999999999998
 31
0.0
  0
LINE
  5
7526
330
7523
100
AcDbEntity
  8
30
  6
CONTINUOUS
 62
     0
100
AcDbLine
 10
761.287846379736
 20
90.49999999999998
 30
0.0
 11
761.287846379736
 21
29.49999999999998
 31
0.0
  0
INSERT
  5
7527
330
7523
100
AcDbEntity
  8
30
  6
CONTINUOUS
 62
     0
100
AcDbBlockReference
  2
_OPEN
 10
761.287846379736
 20
92.49999999999998
 30
0.0
 41
2.0
 42
2.0
 43
2.0
 50
90.0
  0
INSERT
  5
7528
330
7523
100
AcDbEntity
  8
30
  6
CONTINUOUS
 62
     0
100
AcDbBlockReference
  2
_OPEN
 10
761.287846379736
 20
27.49999999999998
 30
0.0
 41
2.0
 42
2.0
 43
2.0
 50
270.0
  0
MTEXT
  5
7529
330
7523
100
AcDbEntity
  8
30
  6
CONTINUOUS
 62
     0
100
AcDbMText
 10
757.787846379736
 20
60.0000000000001
 30
0.0
 40
5.0
 41
0.0
 71
     5
 72
     1
  1
\A1;65
 11
0.0000000000000001
 21
1.0
 31
0.0
1001
ACAD
1000
MTEXTBEGIN
1070
    73
1070
     1
1070
    44
1040
1.0
1070
    74
1070
     0
1000
MTEXTEND
  0
POINT
  5
752A
330
7523
100
AcDbEntity
  8
DEFPOINTS
  6
CONTINUOUS
 62
     0
100
AcDbPoint
 10
723.0
 20
92.5
 30
0.0
  0
POINT
  5
752B
330
7523
100
AcDbEntity
  8
DEFPOINTS
  6
CONTINUOUS
 62
     0
100
AcDbPoint
 10
723.0
 20
27.5
 30
0.0
  0
POINT
  5
752C
330
7523
100
AcDbEntity
  8
DEFPOINTS
  6
CONTINUOUS
 62
     0
100
AcDbPoint
 10
761.287846379736
 20
27.49999999999998
 30
0.0
  0
ENDBLK
  5
752E
330
7523
100
AcDbEntity
  8
0
100
AcDbBlockEnd
  0
BLOCK
  5
753A
330
7530
100
AcDbEntity
  8
0
100
AcDbBlockBegin
  2
*D30
 70
     1
 10
0.0
 20
0.0
 30
0.0
  3
*D30
  1

  0
LINE
  5
7531
330
7530
100
AcDbEntity
  8
30
  6
CONTINUOUS
 62
     0
100
AcDbLine
 10
593.0
 20
-171.0
 30
0.0
 11
593.0
 21
-204.0059305795216
 31
0.0
  0
LINE
  5
7532
330
7530
100
AcDbEntity
  8
30
  6
CONTINUOUS
 62
     0
100
AcDbLine
 10
663.0
 20
-133.4999999999999
 30
0.0
 11
663.0
 21
-204.0059305795216
 31
0.0
  0
LINE
  5
7533
330
7530
100
AcDbEntity
  8
30
  6
CONTINUOUS
 62
     0
100
AcDbLine
 10
595.0
 20
-203.5059305795216
 30
0.0
 11
661.0
 21
-203.5059305795216
 31
0.0
  0
INSERT
  5
7534
330
7530
100
AcDbEntity
  8
30
  6
CONTINUOUS
 62
     0
100
AcDbBlockReference
  2
_OPEN
 10
593.0
 20
-203.5059305795216
 30
0.0
 41
2.0
 42
2.0
 43
2.0
 50
180.0
  0
INSERT
  5
7535
330
7530
100
AcDbEntity
  8
30
  6
CONTINUOUS
 62
     0
100
AcDbBlockReference
  2
_OPEN
 10
663.0
 20
-203.5059305795216
 30
0.0
 41
2.0
 42
2.0
 43
2.0
  0
MTEXT
  5
7536
330
7530
100
AcDbEntity
  8
30
  6
CONTINUOUS
 62
     0
100
AcDbMText
 10
628.0
 20
-200.0059305795216
 30
0.0
 40
5.0
 41
0.0
 71
     5
 72
     1
  1
\A1;70
1001
ACAD
1000
MTEXTBEGIN
1070
    73
1070
     1
1070
    44
1040
1.0
1070
    74
1070
     0
1000
MTEXTEND
  0
POINT
  5
7537
330
7530
100
AcDbEntity
  8
DEFPOINTS
  6
CONTINUOUS
 62
     0
100
AcDbPoint
 10
593.0
 20
-170.0
 30
0.0
  0
POINT
  5
7538
330
7530
100
AcDbEntity
  8
DEFPOINTS
  6
CONTINUOUS
 62
     0
100
AcDbPoint
 10
663.0
 20
-132.4999999999999
 30
0.0
  0
POINT
  5
7539
330
7530
100
AcDbEntity
  8
DEFPOINTS
  6
CONTINUOUS
 62
     0
100
AcDbPoint
 10
663.0
 20
-203.5059305795216
 30
0.0
  0
ENDBLK
  5
753B
330
7530
100
AcDbEntity
  8
0
100
AcDbBlockEnd
  0
BLOCK
  5
7547
330
753D
100
AcDbEntity
  8
0
100
AcDbBlockBegin
  2
*D31
 70
     1
 10
0.0
 20
0.0
 30
0.0
  3
*D31
  1

  0
LINE
  5
76EA
330
753D
100
AcDbEntity
  8
30
  6
CONTINUOUS
 62
     0
100
AcDbLine
 10
663.0
 20
-133.4999999999999
 30
0.0
 11
663.0
 21
-204.0059305795216
 31
0.0
  0
LINE
  5
76EB
330
753D
100
AcDbEntity
  8
30
  6
CONTINUOUS
 62
     0
100
AcDbLine
 10
678.0
 20
-133.4999999999999
 30
0.0
 11
678.0
 21
-204.0059305795216
 31
0.0
  0
LINE
  5
76EC
330
753D
100
AcDbEntity
  8
30
  6
CONTINUOUS
 62
     0
100
AcDbLine
 10
665.0
 20
-203.5059305795216
 30
0.0
 11
676.0
 21
-203.5059305795216
 31
0.0
  0
INSERT
  5
76ED
330
753D
100
AcDbEntity
  8
30
  6
CONTINUOUS
 62
     0
100
AcDbBlockReference
  2
_OPEN
 10
663.0
 20
-203.5059305795216
 30
0.0
 41
2.0
 42
2.0
 43
2.0
 50
180.0
  0
INSERT
  5
76EE
330
753D
100
AcDbEntity
  8
30
  6
CONTINUOUS
 62
     0
100
AcDbBlockReference
  2
_OPEN
 10
678.0
 20
-203.5059305795216
 30
0.0
 41
2.0
 42
2.0
 43
2.0
  0
MTEXT
  5
76EF
330
753D
100
AcDbEntity
  8
30
  6
CONTINUOUS
 62
     0
100
AcDbMText
 10
670.5
 20
-200.0059305795216
 30
0.0
 40
5.0
 41
0.0
 71
     5
 72
     1
  1
\A1;15
  0
POINT
  5
76F0
330
753D
100
AcDbEntity
  8
DEFPOINTS
  6
CONTINUOUS
 62
     0
100
AcDbPoint
 10
663.0
 20
-132.4999999999999
 30
0.0
  0
POINT
  5
76F1
330
753D
100
AcDbEntity
  8
DEFPOINTS
  6
CONTINUOUS
 62
     0
100
AcDbPoint
 10
678.0
 20
-132.4999999999999
 30
0.0
  0
POINT
  5
76F2
330
753D
100
AcDbEntity
  8
DEFPOINTS
  6
CONTINUOUS
 62
     0
100
AcDbPoint
 10
678.0
 20
-203.5059305795216
 30
0.0
  0
ENDBLK
  5
7548
330
753D
100
AcDbEntity
  8
0
100
AcDbBlockEnd
  0
BLOCK
  5
7554
330
754A
100
AcDbEntity
  8
0
100
AcDbBlockBegin
  2
*D32
 70
     1
 10
0.0
 20
0.0
 30
0.0
  3
*D32
  1

  0
LINE
  5
754B
330
754A
100
AcDbEntity
  8
30
  6
CONTINUOUS
 62
     0
100
AcDbLine
 10
593.0
 20
-172.0
 30
0.0
 11
593.0
 21
-222.3035802060812
 31
0.0
  0
LINE
  5
754C
330
754A
100
AcDbEntity
  8
30
  6
CONTINUOUS
 62
     0
100
AcDbLine
 10
708.0
 20
-133.4999999999999
 30
0.0
 11
708.0
 21
-222.3035802060812
 31
0.0
  0
LINE
  5
754D
330
754A
100
AcDbEntity
  8
30
  6
CONTINUOUS
 62
     0
100
AcDbLine
 10
595.0
 20
-221.8035802060812
 30
0.0
 11
706.0
 21
-221.8035802060812
 31
0.0
  0
INSERT
  5
754E
330
754A
100
AcDbEntity
  8
30
  6
CONTINUOUS
 62
     0
100
AcDbBlockReference
  2
_OPEN
 10
593.0
 20
-221.8035802060812
 30
0.0
 41
2.0
 42
2.0
 43
2.0
 50
180.0
  0
INSERT
  5
754F
330
754A
100
AcDbEntity
  8
30
  6
CONTINUOUS
 62
     0
100
AcDbBlockReference
  2
_OPEN
 10
708.0
 20
-221.8035802060812
 30
0.0
 41
2.0
 42
2.0
 43
2.0
  0
MTEXT
  5
7550
330
754A
100
AcDbEntity
  8
30
  6
CONTINUOUS
 62
     0
100
AcDbMText
 10
650.4999999999999
 20
-218.3035802060812
 30
0.0
 40
5.0
 41
0.0
 71
     5
 72
     1
  1
\A1;115
1001
ACAD
1000
MTEXTBEGIN
1070
    73
1070
     1
1070
    44
1040
1.0
1070
    74
1070
     0
1000
MTEXTEND
  0
POINT
  5
7551
330
754A
100
AcDbEntity
  8
DEFPOINTS
  6
CONTINUOUS
 62
     0
100
AcDbPoint
 10
593.0
 20
-171.0
 30
0.0
  0
POINT
  5
7552
330
754A
100
AcDbEntity
  8
DEFPOINTS
  6
CONTINUOUS
 62
     0
100
AcDbPoint
 10
708.0
 20
-132.4999999999999
 30
0.0
  0
POINT
  5
7553
330
754A
100
AcDbEntity
  8
DEFPOINTS
  6
CONTINUOUS
 62
     0
100
AcDbPoint
 10
708.0
 20
-221.8035802060812
 30
0.0
  0
ENDBLK
  5
7555
330
754A
100
AcDbEntity
  8
0
100
AcDbBlockEnd
  0
BLOCK
  5
7561
330
7557
100
AcDbEntity
  8
0
100
AcDbBlockBegin
  2
*D33
 70
     1
 10
0.0
 20
0.0
 30
0.0
  3
*D33
  1

  0
LINE
  5
76F3
330
7557
100
AcDbEntity
  8
30
  6
CONTINUOUS
 62
     0
100
AcDbLine
 10
708.0
 20
-133.4999999999999
 30
0.0
 11
708.0
 21
-222.3035802060812
 31
0.0
  0
LINE
  5
76F4
330
7557
100
AcDbEntity
  8
30
  6
CONTINUOUS
 62
     0
100
AcDbLine
 10
723.0
 20
-133.4999999999999
 30
0.0
 11
723.0
 21
-222.3035802060812
 31
0.0
  0
LINE
  5
76F5
330
7557
100
AcDbEntity
  8
30
  6
CONTINUOUS
 62
     0
100
AcDbLine
 10
710.0
 20
-221.8035802060812
 30
0.0
 11
721.0
 21
-221.8035802060812
 31
0.0
  0
INSERT
  5
76F6
330
7557
100
AcDbEntity
  8
30
  6
CONTINUOUS
 62
     0
100
AcDbBlockReference
  2
_OPEN
 10
708.0
 20
-221.8035802060812
 30
0.0
 41
2.0
 42
2.0
 43
2.0
 50
180.0
  0
INSERT
  5
76F7
330
7557
100
AcDbEntity
  8
30
  6
CONTINUOUS
 62
     0
100
AcDbBlockReference
  2
_OPEN
 10
723.0
 20
-221.8035802060812
 30
0.0
 41
2.0
 42
2.0
 43
2.0
  0
MTEXT
  5
76F8
330
7557
100
AcDbEntity
  8
30
  6
CONTINUOUS
 62
     0
100
AcDbMText
 10
715.5
 20
-218.3035802060812
 30
0.0
 40
5.0
 41
0.0
 71
     5
 72
     1
  1
\A1;15
  0
POINT
  5
76F9
330
7557
100
AcDbEntity
  8
DEFPOINTS
  6
CONTINUOUS
 62
     0
100
AcDbPoint
 10
708.0
 20
-132.4999999999999
 30
0.0
  0
POINT
  5
76FA
330
7557
100
AcDbEntity
  8
DEFPOINTS
  6
CONTINUOUS
 62
     0
100
AcDbPoint
 10
723.0
 20
-132.4999999999999
 30
0.0
  0
POINT
  5
76FB
330
7557
100
AcDbEntity
  8
DEFPOINTS
  6
CONTINUOUS
 62
     0
100
AcDbPoint
 10
723.0
 20
-221.8035802060812
 30
0.0
  0
ENDBLK
  5
7562
330
7557
100
AcDbEntity
  8
0
100
AcDbBlockEnd
  0
BLOCK
  5
756E
330
7564
100
AcDbEntity
  8
0
100
AcDbBlockBegin
  2
*D34
 70
     1
 10
0.0
 20
0.0
 30
0.0
  3
*D34
  1

  0
LINE
  5
7565
330
7564
100
AcDbEntity
  8
30
  6
CONTINUOUS
 62
     0
100
AcDbLine
 10
593.0
 20
-180.0
 30
0.0
 11
593.0
 21
-242.2646505505822
 31
0.0
  0
LINE
  5
7566
330
7564
100
AcDbEntity
  8
30
  6
CONTINUOUS
 62
     0
100
AcDbLine
 10
723.0
 20
-133.4999999999999
 30
0.0
 11
723.0
 21
-242.2646505505822
 31
0.0
  0
LINE
  5
7567
330
7564
100
AcDbEntity
  8
30
  6
CONTINUOUS
 62
     0
100
AcDbLine
 10
595.0
 20
-241.7646505505822
 30
0.0
 11
721.0
 21
-241.7646505505822
 31
0.0
  0
INSERT
  5
7568
330
7564
100
AcDbEntity
  8
30
  6
CONTINUOUS
 62
     0
100
AcDbBlockReference
  2
_OPEN
 10
593.0
 20
-241.7646505505822
 30
0.0
 41
2.0
 42
2.0
 43
2.0
 50
180.0
  0
INSERT
  5
7569
330
7564
100
AcDbEntity
  8
30
  6
CONTINUOUS
 62
     0
100
AcDbBlockReference
  2
_OPEN
 10
723.0
 20
-241.7646505505822
 30
0.0
 41
2.0
 42
2.0
 43
2.0
  0
MTEXT
  5
756A
330
7564
100
AcDbEntity
  8
30
  6
CONTINUOUS
 62
     0
100
AcDbMText
 10
658.0
 20
-238.2646505505822
 30
0.0
 40
5.0
 41
0.0
 71
     5
 72
     1
  1
\A1;130
1001
ACAD
1000
MTEXTBEGIN
1070
    73
1070
     1
1070
    44
1040
1.0
1070
    74
1070
     0
1000
MTEXTEND
  0
POINT
  5
756B
330
7564
100
AcDbEntity
  8
DEFPOINTS
  6
CONTINUOUS
 62
     0
100
AcDbPoint
 10
593.0
 20
-179.0
 30
0.0
  0
POINT
  5
756C
330
7564
100
AcDbEntity
  8
DEFPOINTS
  6
CONTINUOUS
 62
     0
100
AcDbPoint
 10
723.0
 20
-132.4999999999999
 30
0.0
  0
POINT
  5
756D
330
7564
100
AcDbEntity
  8
DEFPOINTS
  6
CONTINUOUS
 62
     0
100
AcDbPoint
 10
723.0
 20
-241.7646505505822
 30
0.0
  0
ENDBLK
  5
756F
330
7564
100
AcDbEntity
  8
0
100
AcDbBlockEnd
  0
BLOCK
  5
7584
330
757A
100
AcDbEntity
  8
0
100
AcDbBlockBegin
  2
*D35
 70
     1
 10
0.0
 20
0.0
 30
0.0
  3
*D35
  1

  0
LINE
  5
757B
330
757A
100
AcDbEntity
  8
30
  6
CONTINUOUS
 62
     0
100
AcDbLine
 10
724.0
 20
60.0
 30
0.0
 11
794.8652256220139
 21
59.99999999999998
 31
0.0
  0
LINE
  5
757C
330
757A
100
AcDbEntity
  8
30
  6
CONTINUOUS
 62
     0
100
AcDbLine
 10
724.0
 20
-100.0
 30
0.0
 11
794.8652256220139
 21
-100.0
 31
0.0
  0
LINE
  5
757D
330
757A
100
AcDbEntity
  8
30
  6
CONTINUOUS
 62
     0
100
AcDbLine
 10
794.3652256220139
 20
57.99999999999998
 30
0.0
 11
794.3652256220139
 21
-98.00000000000002
 31
0.0
  0
INSERT
  5
757E
330
757A
100
AcDbEntity
  8
30
  6
CONTINUOUS
 62
     0
100
AcDbBlockReference
  2
_OPEN
 10
794.3652256220139
 20
59.99999999999998
 30
0.0
 41
2.0
 42
2.0
 43
2.0
 50
90.0
  0
INSERT
  5
757F
330
757A
100
AcDbEntity
  8
30
  6
CONTINUOUS
 62
     0
100
AcDbBlockReference
  2
_OPEN
 10
794.3652256220139
 20
-100.0
 30
0.0
 41
2.0
 42
2.0
 43
2.0
 50
270.0
  0
MTEXT
  5
7580
330
757A
100
AcDbEntity
  8
30
  6
CONTINUOUS
 62
     0
100
AcDbMText
 10
790.8652256220139
 20
-19.99999999999989
 30
0.0
 40
5.0
 41
0.0
 71
     5
 72
     1
  1
\A1;160
 11
0.0000000000000001
 21
1.0
 31
0.0
1001
ACAD
1000
MTEXTBEGIN
1070
    73
1070
     1
1070
    44
1040
1.0
1070
    74
1070
     0
1000
MTEXTEND
  0
POINT
  5
7581
330
757A
100
AcDbEntity
  8
DEFPOINTS
  6
CONTINUOUS
 62
     0
100
AcDbPoint
 10
723.0
 20
60.0
 30
0.0
  0
POINT
  5
7582
330
757A
100
AcDbEntity
  8
DEFPOINTS
  6
CONTINUOUS
 62
     0
100
AcDbPoint
 10
723.0
 20
-100.0
 30
0.0
  0
POINT
  5
7583
330
757A
100
AcDbEntity
  8
DEFPOINTS
  6
CONTINUOUS
 62
     0
100
AcDbPoint
 10
794.3652256220139
 20
-100.0
 30
0.0
  0
ENDBLK
  5
7585
330
757A
100
AcDbEntity
  8
0
100
AcDbBlockEnd
  0
BLOCK
  5
7591
330
7587
100
AcDbEntity
  8
0
100
AcDbBlockBegin
  2
*D36
 70
     1
 10
0.0
 20
0.0
 30
0.0
  3
*D36
  1

  0
LINE
  5
7588
330
7587
100
AcDbEntity
  8
30
  6
CONTINUOUS
 62
     0
100
AcDbLine
 10
-69.99987792964998
 20
602.1514359345529
 30
0.0
 11
-69.99987792964998
 21
668.1380778065358
 31
0.0
  0
LINE
  5
7589
330
7587
100
AcDbEntity
  8
30
  6
CONTINUOUS
 62
     0
100
AcDbLine
 10
0.0000000000000001
 20
647.1514359345528
 30
0.0
 11
0.0000000000000013
 21
668.1380778065358
 31
0.0
  0
LINE
  5
758A
330
7587
100
AcDbEntity
  8
30
  6
CONTINUOUS
 62
     0
100
AcDbLine
 10
-67.99987792964998
 20
667.6380778065358
 30
0.0
 11
-1.999999999999998
 21
667.6380778065358
 31
0.0
  0
INSERT
  5
758B
330
7587
100
AcDbEntity
  8
30
  6
CONTINUOUS
 62
     0
100
AcDbBlockReference
  2
_OPEN
 10
-69.99987792964998
 20
667.6380778065358
 30
0.0
 41
2.0
 42
2.0
 43
2.0
 50
180.0
  0
INSERT
  5
758C
330
7587
100
AcDbEntity
  8
30
  6
CONTINUOUS
 62
     0
100
AcDbBlockReference
  2
_OPEN
 10
0.0000000000000013
 20
667.6380778065358
 30
0.0
 41
2.0
 42
2.0
 43
2.0
  0
MTEXT
  5
758D
330
7587
100
AcDbEntity
  8
30
  6
CONTINUOUS
 62
     0
100
AcDbMText
 10
-34.99993896482499
 20
671.1380778065358
 30
0.0
 40
5.0
 41
0.0
 71
     5
 72
     1
  1
\A1;70
1001
ACAD
1000
MTEXTBEGIN
1070
    73
1070
     1
1070
    44
1040
1.0
1070
    74
1070
     0
1000
MTEXTEND
  0
POINT
  5
758E
330
7587
100
AcDbEntity
  8
DEFPOINTS
  6
CONTINUOUS
 62
     0
100
AcDbPoint
 10
-69.99987792964998
 20
601.1514359345528
 30
0.0
  0
POINT
  5
758F
330
7587
100
AcDbEntity
  8
DEFPOINTS
  6
CONTINUOUS
 62
     0
100
AcDbPoint
 10
0.0
 20
646.1514359345528
 30
0.0
  0
POINT
  5
7590
330
7587
100
AcDbEntity
  8
DEFPOINTS
  6
CONTINUOUS
 62
     0
100
AcDbPoint
 10
0.0000000000000013
 20
667.6380778065358
 30
0.0
  0
ENDBLK
  5
7592
330
7587
100
AcDbEntity
  8
0
100
AcDbBlockEnd
  0
BLOCK
  5
759E
330
7594
100
AcDbEntity
  8
0
100
AcDbBlockBegin
  2
*D37
 70
     1
 10
0.0
 20
0.0
 30
0.0
  3
*D37
  1

  0
LINE
  5
76FC
330
7594
100
AcDbEntity
  8
30
  6
CONTINUOUS
 62
     0
100
AcDbLine
 10
0.0000000000000001
 20
647.1514359345528
 30
0.0
 11
0.0000000000000013
 21
668.1380778065358
 31
0.0
  0
LINE
  5
76FD
330
7594
100
AcDbEntity
  8
30
  6
CONTINUOUS
 62
     0
100
AcDbLine
 10
70.0
 20
602.1514359345529
 30
0.0
 11
70.0
 21
668.1380778065358
 31
0.0
  0
LINE
  5
76FE
330
7594
100
AcDbEntity
  8
30
  6
CONTINUOUS
 62
     0
100
AcDbLine
 10
2.000000000000001
 20
667.6380778065358
 30
0.0
 11
68.0
 21
667.6380778065358
 31
0.0
  0
INSERT
  5
76FF
330
7594
100
AcDbEntity
  8
30
  6
CONTINUOUS
 62
     0
100
AcDbBlockReference
  2
_OPEN
 10
0.0000000000000013
 20
667.6380778065358
 30
0.0
 41
2.0
 42
2.0
 43
2.0
 50
180.0
  0
INSERT
  5
7700
330
7594
100
AcDbEntity
  8
30
  6
CONTINUOUS
 62
     0
100
AcDbBlockReference
  2
_OPEN
 10
70.0
 20
667.6380778065358
 30
0.0
 41
2.0
 42
2.0
 43
2.0
  0
MTEXT
  5
7701
330
7594
100
AcDbEntity
  8
30
  6
CONTINUOUS
 62
     0
100
AcDbMText
 10
35.0
 20
671.1380778065358
 30
0.0
 40
5.0
 41
0.0
 71
     5
 72
     1
  1
\A1;70
  0
POINT
  5
7702
330
7594
100
AcDbEntity
  8
DEFPOINTS
  6
CONTINUOUS
 62
     0
100
AcDbPoint
 10
0.0
 20
646.1514359345528
 30
0.0
  0
POINT
  5
7703
330
7594
100
AcDbEntity
  8
DEFPOINTS
  6
CONTINUOUS
 62
     0
100
AcDbPoint
 10
70.0
 20
601.1514359345528
 30
0.0
  0
POINT
  5
7704
330
7594
100
AcDbEntity
  8
DEFPOINTS
  6
CONTINUOUS
 62
     0
100
AcDbPoint
 10
70.0
 20
667.6380778065358
 30
0.0
  0
ENDBLK
  5
759F
330
7594
100
AcDbEntity
  8
0
100
AcDbBlockEnd
  0
BLOCK
  5
75AB
330
75A1
100
AcDbEntity
  8
0
100
AcDbBlockBegin
  2
*D38
 70
     1
 10
0.0
 20
0.0
 30
0.0
  3
*D38
  1

  0
LINE
  5
7705
330
75A1
100
AcDbEntity
  8
30
  6
CONTINUOUS
 62
     0
100
AcDbLine
 10
70.0
 20
602.1514359345529
 30
0.0
 11
70.0
 21
668.1380778065358
 31
0.0
  0
LINE
  5
7706
330
75A1
100
AcDbEntity
  8
30
  6
CONTINUOUS
 62
     0
100
AcDbLine
 10
140.0
 20
647.1514359345528
 30
0.0
 11
140.0
 21
668.1380778065358
 31
0.0
  0
LINE
  5
7707
330
75A1
100
AcDbEntity
  8
30
  6
CONTINUOUS
 62
     0
100
AcDbLine
 10
72.0
 20
667.6380778065358
 30
0.0
 11
138.0
 21
667.6380778065358
 31
0.0
  0
INSERT
  5
7708
330
75A1
100
AcDbEntity
  8
30
  6
CONTINUOUS
 62
     0
100
AcDbBlockReference
  2
_OPEN
 10
70.0
 20
667.6380778065358
 30
0.0
 41
2.0
 42
2.0
 43
2.0
 50
180.0
  0
INSERT
  5
7709
330
75A1
100
AcDbEntity
  8
30
  6
CONTINUOUS
 62
     0
100
AcDbBlockReference
  2
_OPEN
 10
140.0
 20
667.6380778065358
 30
0.0
 41
2.0
 42
2.0
 43
2.0
  0
MTEXT
  5
770A
330
75A1
100
AcDbEntity
  8
30
  6
CONTINUOUS
 62
     0
100
AcDbMText
 10
105.0
 20
671.1380778065358
 30
0.0
 40
5.0
 41
0.0
 71
     5
 72
     1
  1
\A1;70
  0
POINT
  5
770B
330
75A1
100
AcDbEntity
  8
DEFPOINTS
  6
CONTINUOUS
 62
     0
100
AcDbPoint
 10
70.0
 20
601.1514359345528
 30
0.0
  0
POINT
  5
770C
330
75A1
100
AcDbEntity
  8
DEFPOINTS
  6
CONTINUOUS
 62
     0
100
AcDbPoint
 10
140.0
 20
646.1514359345528
 30
0.0
  0
POINT
  5
770D
330
75A1
100
AcDbEntity
  8
DEFPOINTS
  6
CONTINUOUS
 62
     0
100
AcDbPoint
 10
140.0
 20
667.6380778065358
 30
0.0
  0
ENDBLK
  5
75AC
330
75A1
100
AcDbEntity
  8
0
100
AcDbBlockEnd
  0
BLOCK
  5
767F
330
7675
100
AcDbEntity
  8
0
100
AcDbBlockBegin
  2
*D39
 70
     1
 10
0.0
 20
0.0
 30
0.0
  3
*D39
  1

  0
LINE
  5
7676
330
7675
100
AcDbEntity
  8
30
  6
CONTINUOUS
 62
     0
100
AcDbLine
 10
762.287846379736
 20
60.0
 30
0.0
 11
785.062635477424
 21
60.0
 31
0.0
  0
LINE
  5
7677
330
7675
100
AcDbEntity
  8
30
  6
CONTINUOUS
 62
     0
100
AcDbLine
 10
626.0
 20
-0.0000000000000003
 30
0.0
 11
785.062635477424
 21
-0.0000000000000453
 31
0.0
  0
LINE
  5
7678
330
7675
100
AcDbEntity
  8
30
  6
CONTINUOUS
 62
     0
100
AcDbLine
 10
784.562635477424
 20
57.99999999999999
 30
0.0
 11
784.562635477424
 21
1.999999999999954
 31
0.0
  0
INSERT
  5
7679
330
7675
100
AcDbEntity
  8
30
  6
CONTINUOUS
 62
     0
100
AcDbBlockReference
  2
_OPEN
 10
784.562635477424
 20
60.0
 30
0.0
 41
2.0
 42
2.0
 43
2.0
 50
90.0
  0
INSERT
  5
767A
330
7675
100
AcDbEntity
  8
30
  6
CONTINUOUS
 62
     0
100
AcDbBlockReference
  2
_OPEN
 10
784.562635477424
 20
-0.0000000000000452
 30
0.0
 41
2.0
 42
2.0
 43
2.0
 50
270.0
  0
MTEXT
  5
767B
330
7675
100
AcDbEntity
  8
30
  6
CONTINUOUS
 62
     0
100
AcDbMText
 10
781.062635477424
 20
30.0000000000001
 30
0.0
 40
5.0
 41
0.0
 71
     5
 72
     1
  1
\A1;60
 11
0.0000000000000001
 21
1.0
 31
0.0
1001
ACAD
1000
MTEXTBEGIN
1070
    73
1070
     1
1070
    44
1040
1.0
1070
    74
1070
     0
1000
MTEXTEND
  0
POINT
  5
767C
330
7675
100
AcDbEntity
  8
DEFPOINTS
  6
CONTINUOUS
 62
     0
100
AcDbPoint
 10
761.287846379736
 20
60.0
 30
0.0
  0
POINT
  5
767D
330
7675
100
AcDbEntity
  8
DEFPOINTS
  6
CONTINUOUS
 62
     0
100
AcDbPoint
 10
625.0
 20
0.0
 30
0.0
  0
POINT
  5
767E
330
7675
100
AcDbEntity
  8
DEFPOINTS
  6
CONTINUOUS
 62
     0
100
AcDbPoint
 10
784.562635477424
 20
-0.0000000000000452
 30
0.0
  0
ENDBLK
  5
7680
330
7675
100
AcDbEntity
  8
0
100
AcDbBlockEnd
  0
BLOCK
  5
768C
330
7682
100
AcDbEntity
  8
0
100
AcDbBlockBegin
  2
*D40
 70
     1
 10
0.0
 20
0.0
 30
0.0
  3
*D40
  1

  0
LINE
  5
770E
330
7682
100
AcDbEntity
  8
30
  6
CONTINUOUS
 62
     0
100
AcDbLine
 10
626.0
 20
-0.0000000000000003
 30
0.0
 11
785.062635477424
 21
-0.0000000000000453
 31
0.0
  0
LINE
  5
770F
330
7682
100
AcDbEntity
  8
30
  6
CONTINUOUS
 62
     0
100
AcDbLine
 10
774.0
 20
-100.0
 30
0.0
 11
785.062635477424
 21
-100.0
 31
0.0
  0
LINE
  5
7710
330
7682
100
AcDbEntity
  8
30
  6
CONTINUOUS
 62
     0
100
AcDbLine
 10
784.562635477424
 20
-2.000000000000045
 30
0.0
 11
784.562635477424
 21
-98.0
 31
0.0
  0
INSERT
  5
7711
330
7682
100
AcDbEntity
  8
30
  6
CONTINUOUS
 62
     0
100
AcDbBlockReference
  2
_OPEN
 10
784.562635477424
 20
-0.0000000000000452
 30
0.0
 41
2.0
 42
2.0
 43
2.0
 50
90.0
  0
INSERT
  5
7712
330
7682
100
AcDbEntity
  8
30
  6
CONTINUOUS
 62
     0
100
AcDbBlockReference
  2
_OPEN
 10
784.562635477424
 20
-100.0
 30
0.0
 41
2.0
 42
2.0
 43
2.0
 50
270.0
  0
MTEXT
  5
7713
330
7682
100
AcDbEntity
  8
30
  6
CONTINUOUS
 62
     0
100
AcDbMText
 10
781.062635477424
 20
-49.9999999999999
 30
0.0
 40
5.0
 41
0.0
 71
     5
 72
     1
  1
\A1;100
 11
0.0000000000000001
 21
1.0
 31
0.0
  0
POINT
  5
7714
330
7682
100
AcDbEntity
  8
DEFPOINTS
  6
CONTINUOUS
 62
     0
100
AcDbPoint
 10
625.0
 20
0.0
 30
0.0
  0
POINT
  5
7715
330
7682
100
AcDbEntity
  8
DEFPOINTS
  6
CONTINUOUS
 62
     0
100
AcDbPoint
 10
773.0
 20
-100.0
 30
0.0
  0
POINT
  5
7716
330
7682
100
AcDbEntity
  8
DEFPOINTS
  6
CONTINUOUS
 62
     0
100
AcDbPoint
 10
784.562635477424
 20
-100.0
 30
0.0
  0
ENDBLK
  5
768D
330
7682
100
AcDbEntity
  8
0
100
AcDbBlockEnd
  0
ENDSEC
  0
SECTION
  2
ENTITIES
  0
LINE
  5
B5
330
1E
100
AcDbEntity
  8
16
100
AcDbLine
 10
257.6361914121166
 20
0.0000000000000107
 30
0.0
 11
-145.0
 21
0.0
 31
0.0
  0
MTEXT
  5
BF3
330
1E
100
AcDbEntity
  8
24
  6
CONTINUOUS
100
AcDbMText
 10
142.1181906098743
 20
177.5
 30
0.0
 40
3.0
 41
0.0
 71
     1
 72
     1
  1
\A1;
1001
ACAD
1000
MTEXTBEGIN
1070
    73
1070
     1
1070
    44
1040
1.0
1070
    74
1070
     0
1000
MTEXTEND
  0
LINE
  5
1C9A
330
1E
100
AcDbEntity
  8
16
100
AcDbLine
 10
0.0
 20
258.0
 30
0.0
 11
0.0
 21
436.0
 31
0.0
  0
LINE
  5
1C9B
330
1E
100
AcDbEntity
  8
16
100
AcDbLine
 10
625.0
 20
0.0
 30
0.0
 11
387.0
 21
0.0
 31
0.0
  0
LINE
  5
2233
330
1E
100
AcDbEntity
  8
16
100
AcDbLine
 10
395.0
 20
-793.1306816323568
 30
0.0
 11
395.0
 21
-371.5602850821105
 31
0.0
  0
LINE
  5
2234
330
1E
100
AcDbEntity
  8
16
100
AcDbLine
 10
597.1634296945398
 20
-601.0
 30
0.0
 11
293.1043600603313
 21
-601.0
 31
0.0
  0
LINE
  5
2260
330
1E
100
AcDbEntity
  8
16
100
AcDbLine
 10
202.1634296945399
 20
-601.0
 30
0.0
 11
-166.0
 21
-601.0
 31
0.0
  0
LINE
  5
2261
330
1E
100
AcDbEntity
  8
16
100
AcDbLine
 10
0.0
 20
-791.5926135610889
 30
0.0
 11
0.0
 21
-375.8062147299115
 31
0.0
  0
MTEXT
  5
5D8A
330
1E
100
AcDbEntity
  8
19
  6
CONTINUOUS
100
AcDbMText
 10
443.0
 20
481.0939111087336
 30
0.0
 40
7.0
 41
94.0
 71
     1
 72
     5
  1
XS1600NE 4P RC
  7
STANDARD1
1001
ACAD
1000
MTEXTBEGIN
1070
    73
1070
     1
1070
    44
1040
1.0
1070
    74
1070
     0
1000
MTEXTEND
  0
LINE
  5
6976
330
1E
100
AcDbEntity
  8
10
  6
CONTINUOUS
100
AcDbLine
 10
-105.0
 20
-120.0
 30
0.0
 11
175.0
 21
-120.0
 31
0.0
  0
LINE
  5
6977
330
1E
100
AcDbEntity
  8
10
  6
CONTINUOUS
100
AcDbLine
 10
-105.0
 20
-62.0
 30
0.0
 11
175.0
 21
-62.0
 31
0.0
  0
LINE
  5
6978
330
1E
100
AcDbEntity
  8
12
  6
DASHED
100
AcDbLine
 10
-50.0
 20
-154.0
 30
0.0
 11
-20.0
 21
-154.0
 31
0.0
  0
LINE
  5
6979
330
1E
100
AcDbEntity
  8
10
  6
CONTINUOUS
100
AcDbLine
 10
174.9998168945298
 20
-140.0
 30
0.0
 11
-105.0
 21
-140.0
 31
0.0
  0
LINE
  5
6981
330
1E
100
AcDbEntity
  8
12
  6
DASHED
100
AcDbLine
 10
34.99993896485
 20
-139.0
 30
0.0
 11
34.99993896485
 21
-169.0
 31
0.0
  0
LINE
  5
6982
330
1E
100
AcDbEntity
  8
12
  6
DASHED
100
AcDbLine
 10
-35.0
 20
-139.0
 30
0.0
 11
-35.0
 21
-169.0
 31
0.0
  0
CIRCLE
  5
6983
330
1E
100
AcDbEntity
  8
12
  6
DASHED
100
AcDbCircle
 10
34.99993896485
 20
-154.0
 30
0.0
 40
8.5
  0
CIRCLE
  5
6984
330
1E
100
AcDbEntity
  8
12
  6
DASHED
100
AcDbCircle
 10
-35.0
 20
-154.0
 30
0.0
 40
8.5
  0
LINE
  5
6989
330
1E
100
AcDbEntity
  8
12
  6
DASHED
100
AcDbLine
 10
19.99993896485
 20
-154.0
 30
0.0
 11
49.99993896485
 21
-154.0
 31
0.0
  0
LINE
  5
698B
330
1E
100
AcDbEntity
  8
10
  6
CONTINUOUS
100
AcDbLine
 10
-22.5
 20
27.5
 30
0.0
 11
-22.5
 21
-27.5
 31
0.0
  0
LINE
  5
698E
330
1E
100
AcDbEntity
  8
10
  6
CONTINUOUS
100
AcDbLine
 10
22.5
 20
27.5
 30
0.0
 11
22.5
 21
-27.5
 31
0.0
  0
LINE
  5
698F
330
1E
100
AcDbEntity
  8
10
  6
CONTINUOUS
100
AcDbLine
 10
-22.5
 20
-27.5
 30
0.0
 11
22.5
 21
-27.5
 31
0.0
  0
LINE
  5
6991
330
1E
100
AcDbEntity
  8
10
  6
CONTINUOUS
100
AcDbLine
 10
-22.5
 20
27.5
 30
0.0
 11
22.5
 21
27.5
 31
0.0
  0
LINE
  5
6994
330
1E
100
AcDbEntity
  8
12
  6
DASHED
100
AcDbLine
 10
-50.0
 20
183.9997558592999
 30
0.0
 11
-20.0
 21
183.9997558592999
 31
0.0
  0
LINE
  5
6995
330
1E
100
AcDbEntity
  8
10
  6
CONTINUOUS
100
AcDbLine
 10
174.9998168945298
 20
169.9997558592999
 30
0.0
 11
-105.0
 21
169.9997558592999
 31
0.0
  0
CIRCLE
  5
69A6
330
1E
100
AcDbEntity
  8
12
  6
DASHED
100
AcDbCircle
 10
-35.0
 20
183.9997558592999
 30
0.0
 40
8.5
  0
LINE
  5
69A7
330
1E
100
AcDbEntity
  8
12
  6
DASHED
100
AcDbLine
 10
-35.0
 20
199.0
 30
0.0
 11
-35.0
 21
168.9997558592999
 31
0.0
  0
LINE
  5
69A9
330
1E
100
AcDbEntity
  8
12
  6
DASHED
100
AcDbLine
 10
19.99993896485
 20
183.9997558592999
 30
0.0
 11
49.99993896485
 21
183.9997558592999
 31
0.0
  0
CIRCLE
  5
69AA
330
1E
100
AcDbEntity
  8
12
  6
DASHED
100
AcDbCircle
 10
34.99993896485
 20
183.9997558592999
 30
0.0
 40
8.5
  0
LINE
  5
69AB
330
1E
100
AcDbEntity
  8
12
  6
DASHED
100
AcDbLine
 10
34.99993896485
 20
199.0
 30
0.0
 11
34.99993896485
 21
168.9997558592999
 31
0.0
  0
LINE
  5
69B9
330
1E
100
AcDbEntity
  8
L0_
  6
CONTINUOUS
 62
     2
100
AcDbLine
 10
-126.8352050781004
 20
-739.9997558593
 30
0.0
 11
195.2814941405995
 21
-739.9997558593
 31
0.0
  0
LINE
  5
69BA
330
1E
100
AcDbEntity
  8
L0_
  6
CONTINUOUS
 62
     2
100
AcDbLine
 10
-126.1672363281004
 20
-431.9997558593
 30
0.0
 11
195.9499511718995
 21
-431.9997558593
 31
0.0
  0
LINE
  5
69BB
330
1E
100
AcDbEntity
  8
L150_
  6
DASHED
 62
     7
100
AcDbLine
 10
201.9499511718995
 20
-397.9997558592999
 30
0.0
 11
-120.1672363281004
 21
-397.9997558592999
 31
0.0
  0
LINE
  5
69BC
330
1E
100
AcDbEntity
  8
L150_
  6
DASHED
 62
     7
100
AcDbLine
 10
195.0285644530995
 20
-773.9997558593
 30
0.0
 11
-124.3015136719004
 21
-773.9997558593
 31
0.0
  0
LINE
  5
69BD
330
1E
100
AcDbEntity
  8
L0_
  6
CONTINUOUS
 62
     2
100
AcDbLine
 10
195.9499511718995
 20
-779.9997558592999
 30
0.0
 11
-126.8352050781004
 21
-779.9997558592999
 31
0.0
  0
LINE
  5
69BE
330
1E
100
AcDbEntity
  8
L0_
  6
CONTINUOUS
 62
     2
100
AcDbLine
 10
205.9499511718995
 20
-391.9997558592999
 30
0.0
 11
-116.1672363281004
 21
-391.9997558592999
 31
0.0
  0
LINE
  5
69CC
330
1E
100
AcDbEntity
  8
10
  6
CONTINUOUS
100
AcDbLine
 10
442.0
 20
47.5
 30
0.0
 11
453.0
 21
47.5
 31
0.0
  0
LINE
  5
69CD
330
1E
100
AcDbEntity
  8
10
  6
CONTINUOUS
100
AcDbLine
 10
442.0
 20
-47.5
 30
0.0
 11
453.0
 21
-47.5
 31
0.0
  0
CIRCLE
  5
69CE
330
1E
100
AcDbEntity
  8
18
100
AcDbCircle
 10
352.1923057119384
 20
57.80212868525814
 30
0.0
 40
20.0000000000001
  0
ARC
  5
69CF
330
1E
100
AcDbEntity
  8
10
  6
CONTINUOUS
100
AcDbCircle
 10
510.9992675782004
 20
0.0
 30
0.0
 40
188.9991607666544
100
AcDbArc
 50
159.9999133832608
 51
180.0
  0
ARC
  5
69D0
330
1E
100
AcDbEntity
  8
10
  6
CONTINUOUS
100
AcDbCircle
 10
511.0
 20
0.0
 30
0.0
 40
75.0
100
AcDbArc
 50
180.0
 51
203.073913987651
  0
LINE
  5
69D1
330
1E
100
AcDbEntity
  8
10
  6
CONTINUOUS
100
AcDbLine
 10
442.0
 20
-29.39404296880002
 30
0.0
 11
442.0
 21
-47.5
 31
0.0
  0
LINE
  5
69D2
330
1E
100
AcDbEntity
  8
18
100
AcDbLine
 10
405.5024414063
 20
52.232421875
 30
0.0
 11
376.3198242188
 21
59.14013671869998
 31
0.0
  0
LINE
  5
69D3
330
1E
100
AcDbEntity
  8
18
100
AcDbLine
 10
396.6098632813
 20
27.80029296869997
 30
0.0
 11
369.814453125
 21
41.26660156249999
 31
0.0
  0
ARC
  5
69D4
330
1E
100
AcDbEntity
  8
18
100
AcDbCircle
 10
377.9326516681012
 20
65.95259114023338
 30
0.0
 40
7.000000000040719
100
AcDbArc
 50
197.5698696909479
 51
256.6826297870069
  0
ARC
  5
69D5
330
1E
100
AcDbEntity
  8
18
100
AcDbCircle
 10
366.6714543907955
 20
35.01270701271778
 30
0.0
 40
7.000000000035854
100
AcDbArc
 50
63.31735842156748
 51
122.4301390088877
  0
ARC
  5
69D6
330
1E
100
AcDbEntity
  8
10
  6
CONTINUOUS
100
AcDbCircle
 10
510.9992675782004
 20
0.0
 30
0.0
 40
108.9994277954571
100
AcDbArc
 50
159.999913383234
 51
180.0
  0
LINE
  5
69D7
330
1E
100
AcDbEntity
  8
18
100
AcDbLine
 10
405.5024414063
 20
52.232421875
 30
0.0
 11
396.6098632813
 21
27.80029296869997
 31
0.0
  0
LINE
  5
69D8
330
1E
100
AcDbEntity
  8
18
100
AcDbLine
 10
405.5024414063
 20
52.232421875
 30
0.0
 11
439.3310546875
 21
39.91943359369997
 31
0.0
  0
LINE
  5
69D9
330
1E
100
AcDbEntity
  8
18
100
AcDbLine
 10
439.3310546875
 20
39.91943359369997
 30
0.0
 11
430.4384765625
 21
15.48779296869997
 31
0.0
  0
LINE
  5
69DA
330
1E
100
AcDbEntity
  8
18
100
AcDbLine
 10
396.6098632813
 20
27.80029296869997
 30
0.0
 11
430.4384765625
 21
15.48779296869997
 31
0.0
  0
ARC
  5
69DB
330
1E
100
AcDbEntity
  8
10
  6
CONTINUOUS
100
AcDbCircle
 10
409.2387695313
 20
33.2607421875
 30
0.0
 40
1.999999999970313
100
AcDbArc
 50
159.9997221383797
 51
248.5674954434578
  0
ARC
  5
69DC
330
1E
100
AcDbEntity
  8
10
  6
CONTINUOUS
100
AcDbCircle
 10
439.6538555566603
 20
37.91500565583374
 30
0.0
 40
5.000000000014309
100
AcDbArc
 50
251.4320994474181
 51
271.538373194407
  0
ARC
  5
69DD
330
1E
100
AcDbEntity
  8
10
  6
CONTINUOUS
100
AcDbCircle
 10
431.9748517883281
 20
16.81711695391368
 30
0.0
 40
4.999999999950349
100
AcDbArc
 50
48.46161501428159
 51
68.56790242145416
  0
ARC
  5
69DE
330
1E
100
AcDbEntity
  8
10
  6
CONTINUOUS
100
AcDbCircle
 10
411.6669921875
 20
39.931640625
 30
0.0
 40
1.999999999976979
100
AcDbArc
 50
71.43229716816506
 51
160.0005964028956
  0
LINE
  5
69DF
330
1E
100
AcDbEntity
  8
10
  6
CONTINUOUS
100
AcDbLine
 10
438.189453125
 20
17.98974609369997
 30
0.0
 11
435.2905273438
 21
20.55908203119997
 31
0.0
  0
LINE
  5
69E0
330
1E
100
AcDbEntity
  8
10
  6
CONTINUOUS
100
AcDbLine
 10
409.7875976563
 20
40.61572265619997
 30
0.0
 11
407.3593749999999
 21
33.94482421869998
 31
0.0
  0
LINE
  5
69E3
330
1E
100
AcDbEntity
  8
10
  6
CONTINUOUS
100
AcDbLine
 10
408.5083007813
 20
31.39892578119997
 30
0.0
 11
433.8012695313
 21
21.47021484369997
 31
0.0
  0
LINE
  5
69E4
330
1E
100
AcDbEntity
  8
10
  6
CONTINUOUS
100
AcDbLine
 10
442.0
 20
29.39404296869998
 30
0.0
 11
442.0
 21
47.5
 31
0.0
  0
ARC
  5
69E5
330
1E
100
AcDbEntity
  8
10
  6
CONTINUOUS
100
AcDbCircle
 10
511.0
 20
0.0
 30
0.0
 40
74.99999999992823
100
AcDbArc
 50
156.9260823699605
 51
180.0
  0
LINE
  5
69F0
330
1E
100
AcDbEntity
  8
L225_
  6
CONTINUOUS
 62
     3
100
AcDbLine
 10
579.713745671751
 20
-154.0
 30
0.0
 11
626.0
 21
-154.0
 31
0.0
  0
LINE
  5
69F3
330
1E
100
AcDbEntity
  8
12
  6
DASHED
100
AcDbLine
 10
599.0
 20
-167.0
 30
0.0
 11
599.0
 21
-139.0
 31
0.0
  0
LINE
  5
69F6
330
1E
100
AcDbEntity
  8
12
  6
DASHED
100
AcDbLine
 10
609.0
 20
-163.0
 30
0.0
 11
609.0
 21
-145.0
 31
0.0
  0
LINE
  5
69F7
330
1E
100
AcDbEntity
  8
12
  6
DASHED
100
AcDbLine
 10
633.0
 20
-179.0
 30
0.0
 11
593.0
 21
-179.0
 31
0.0
  0
LINE
  5
69F8
330
1E
100
AcDbEntity
  8
12
  6
DASHED
100
AcDbLine
 10
605.0
 20
-173.0
 30
0.0
 11
633.0
 21
-173.0
 31
0.0
  0
LINE
  5
69F9
330
1E
100
AcDbEntity
  8
12
  6
DASHED
100
AcDbLine
 10
593.0
 20
-170.0
 30
0.0
 11
593.0
 21
-179.0
 31
0.0
  0
LINE
  5
69FA
330
1E
100
AcDbEntity
  8
12
  6
DASHED
100
AcDbLine
 10
609.0
 20
-163.0
 30
0.0
 11
599.0
 21
-163.0
 31
0.0
  0
ARC
  5
69FB
330
1E
100
AcDbEntity
  8
12
  6
DASHED
100
AcDbCircle
 10
-605.0
 20
-167.0
 30
0.0
 40
6.0
210
0.0
220
0.0
230
-1.0
100
AcDbArc
 50
270.0
 51
0.0
  0
LINE
  5
69FC
330
1E
100
AcDbEntity
  8
12
  6
DASHED
100
AcDbLine
 10
633.0
 20
-179.0
 30
0.0
 11
633.0
 21
-173.0
 31
0.0
  0
LINE
  5
69FD
330
1E
100
AcDbEntity
  8
12
  6
DASHED
100
AcDbLine
 10
611.0
 20
-158.0
 30
0.0
 11
611.0
 21
-150.0
 31
0.0
  0
LINE
  5
69FE
330
1E
100
AcDbEntity
  8
12
  6
DASHED
100
AcDbLine
 10
609.0
 20
-145.0
 30
0.0
 11
599.0
 21
-145.0
 31
0.0
  0
LINE
  5
69FF
330
1E
100
AcDbEntity
  8
12
  6
DASHED
100
AcDbLine
 10
611.0
 20
-158.0
 30
0.0
 11
599.0
 21
-158.0
 31
0.0
  0
ARC
  5
6A00
330
1E
100
AcDbEntity
  8
12
  6
DASHED
100
AcDbCircle
 10
-595.0
 20
-142.0009765624999
 30
0.0
 40
4.000001778531175
210
0.0
220
0.0
230
-1.0
100
AcDbArc
 50
179.9459695860092
 51
180.0
  0
LINE
  5
6A01
330
1E
100
AcDbEntity
  8
12
  6
DASHED
100
AcDbLine
 10
599.0
 20
-150.0
 30
0.0
 11
611.0
 21
-150.0
 31
0.0
  0
LINE
  5
6A02
330
1E
100
AcDbEntity
  8
12
  6
DASHED
100
AcDbLine
 10
593.0
 20
-139.0
 30
0.0
 11
599.0
 21
-139.0
 31
0.0
  0
LINE
  5
6A0E
330
1E
100
AcDbEntity
  8
12
  6
DASHED
100
AcDbLine
 10
605.0
 20
203.0
 30
0.0
 11
633.0
 21
203.0
 31
0.0
  0
LINE
  5
6A0F
330
1E
100
AcDbEntity
  8
12
  6
DASHED
100
AcDbLine
 10
633.0
 20
209.0
 30
0.0
 11
593.0
 21
209.0
 31
0.0
  0
LINE
  5
6A10
330
1E
100
AcDbEntity
  8
12
  6
DASHED
100
AcDbLine
 10
578.4326171875
 20
184.0
 30
0.0
 11
628.8156738282005
 21
184.0
 31
0.0
  0
LINE
  5
6A11
330
1E
100
AcDbEntity
  8
12
  6
DASHED
100
AcDbLine
 10
599.0
 20
197.0
 30
0.0
 11
599.0
 21
169.0
 31
0.0
  0
LINE
  5
6A12
330
1E
100
AcDbEntity
  8
12
  6
DASHED
100
AcDbLine
 10
611.0
 20
188.0
 30
0.0
 11
611.0
 21
180.0
 31
0.0
  0
LINE
  5
6A13
330
1E
100
AcDbEntity
  8
12
  6
DASHED
100
AcDbLine
 10
593.0
 20
200.0
 30
0.0
 11
593.0
 21
209.0
 31
0.0
  0
LINE
  5
6A14
330
1E
100
AcDbEntity
  8
12
  6
DASHED
100
AcDbLine
 10
609.0
 20
175.0
 30
0.0
 11
599.0
 21
175.0
 31
0.0
  0
LINE
  5
6A15
330
1E
100
AcDbEntity
  8
12
  6
DASHED
100
AcDbLine
 10
609.0
 20
193.0
 30
0.0
 11
599.0
 21
193.0
 31
0.0
  0
LINE
  5
6A16
330
1E
100
AcDbEntity
  8
12
  6
DASHED
100
AcDbLine
 10
609.0
 20
193.0
 30
0.0
 11
609.0
 21
175.0
 31
0.0
  0
LINE
  5
6A17
330
1E
100
AcDbEntity
  8
12
  6
DASHED
100
AcDbLine
 10
611.0
 20
188.0
 30
0.0
 11
599.0
 21
188.0
 31
0.0
  0
ARC
  5
6A18
330
1E
100
AcDbEntity
  8
12
  6
DASHED
100
AcDbCircle
 10
595.0
 20
172.0009765624999
 30
0.0
 40
4.000001778531269
100
AcDbArc
 50
359.9459695845762
 51
0.0
  0
ARC
  5
6A19
330
1E
100
AcDbEntity
  8
12
  6
DASHED
100
AcDbCircle
 10
605.0
 20
197.0
 30
0.0
 40
6.0
100
AcDbArc
 50
90.0
 51
180.0
  0
LINE
  5
6A1A
330
1E
100
AcDbEntity
  8
12
  6
DASHED
100
AcDbLine
 10
599.0
 20
180.0
 30
0.0
 11
611.0
 21
180.0
 31
0.0
  0
LINE
  5
6A1B
330
1E
100
AcDbEntity
  8
12
  6
DASHED
100
AcDbLine
 10
593.0
 20
169.0
 30
0.0
 11
599.0
 21
169.0
 31
0.0
  0
LINE
  5
6A1C
330
1E
100
AcDbEntity
  8
12
  6
DASHED
100
AcDbLine
 10
633.0
 20
209.0
 30
0.0
 11
633.0
 21
203.0
 31
0.0
  0
LINE
  5
6A25
330
1E
100
AcDbEntity
  8
L0_
  6
CONTINUOUS
 62
     2
100
AcDbLine
 10
-119.64453125
 20
-765.9609375
 30
0.0
 11
-128.6313476561999
 21
-752.9799804687
 31
0.0
  0
LINE
  5
6A26
330
1E
100
AcDbEntity
  8
L0_
  6
CONTINUOUS
 62
     2
100
AcDbLine
 10
-126.8352050781004
 20
-779.9997558592999
 30
0.0
 11
-119.64453125
 21
-765.9609375
 31
0.0
  0
LINE
  5
6A27
330
1E
100
AcDbEntity
  8
L0_
  6
CONTINUOUS
 62
     2
100
AcDbLine
 10
-128.6313476561999
 20
-752.9799804687
 30
0.0
 11
-126.8352050781004
 21
-739.9997558593
 31
0.0
  0
CIRCLE
  5
6A29
330
1E
100
AcDbEntity
  8
12
100
AcDbCircle
 10
35.0
 20
-754.9997558592999
 30
0.0
 40
4.5
  0
CIRCLE
  5
6A2A
330
1E
100
AcDbEntity
  8
12
100
AcDbCircle
 10
-35.0
 20
-754.9997558592999
 30
0.0
 40
4.5
  0
LINE
  5
6A2B
330
1E
100
AcDbEntity
  8
12
100
AcDbLine
 10
-50.0
 20
-754.9997558592999
 30
0.0
 11
-20.0
 21
-754.9997558592999
 31
0.0
  0
LINE
  5
6A2E
330
1E
100
AcDbEntity
  8
L0_
  6
CONTINUOUS
 62
     2
100
AcDbLine
 10
-116.1672363281004
 20
-416.9997558592999
 30
0.0
 11
-126.1672363281004
 21
-406.9997558593
 31
0.0
  0
LINE
  5
6A2F
330
1E
100
AcDbEntity
  8
L0_
  6
CONTINUOUS
 62
     2
100
AcDbLine
 10
-126.1672363281004
 20
-431.9997558593
 30
0.0
 11
-116.1672363281004
 21
-416.9997558592999
 31
0.0
  0
LINE
  5
6A30
330
1E
100
AcDbEntity
  8
L0_
  6
CONTINUOUS
 62
     2
100
AcDbLine
 10
-126.1672363281004
 20
-406.9997558593
 30
0.0
 11
-116.1672363281004
 21
-391.9997558592999
 31
0.0
  0
LINE
  5
6A31
330
1E
100
AcDbEntity
  8
L0_
  6
CONTINUOUS
 62
     2
100
AcDbLine
 10
-116.1672363281004
 20
-416.9997558592999
 30
0.0
 11
-126.1672363281004
 21
-406.9997558593
 31
0.0
  0
LINE
  5
6A32
330
1E
100
AcDbEntity
  8
L0_
  6
CONTINUOUS
 62
     2
100
AcDbLine
 10
-126.1672363281004
 20
-431.9997558593
 30
0.0
 11
-116.1672363281004
 21
-416.9997558592999
 31
0.0
  0
LINE
  5
6A33
330
1E
100
AcDbEntity
  8
L0_
  6
CONTINUOUS
 62
     2
100
AcDbLine
 10
-126.1672363281004
 20
-406.9997558593
 30
0.0
 11
-116.1672363281004
 21
-391.9997558592999
 31
0.0
  0
LINE
  5
6A34
330
1E
100
AcDbEntity
  8
L0_
  6
CONTINUOUS
 62
     2
100
AcDbLine
 10
-126.1672363281004
 20
-406.9997558593
 30
0.0
 11
-116.1672363281004
 21
-391.9997558592999
 31
0.0
  0
LINE
  5
6A35
330
1E
100
AcDbEntity
  8
L0_
  6
CONTINUOUS
 62
     2
100
AcDbLine
 10
-116.1672363281004
 20
-416.9997558592999
 30
0.0
 11
-126.1672363281004
 21
-406.9997558593
 31
0.0
  0
LINE
  5
6A36
330
1E
100
AcDbEntity
  8
L0_
  6
CONTINUOUS
 62
     2
100
AcDbLine
 10
-126.1672363281004
 20
-431.9997558593
 30
0.0
 11
-116.1672363281004
 21
-416.9997558592999
 31
0.0
  0
CIRCLE
  5
6A37
330
1E
100
AcDbEntity
  8
12
100
AcDbCircle
 10
35.0
 20
-417.0
 30
0.0
 40
4.5
  0
LINE
  5
6A38
330
1E
100
AcDbEntity
  8
12
100
AcDbLine
 10
-50.0
 20
-417.0
 30
0.0
 11
-20.0
 21
-417.0
 31
0.0
  0
LINE
  5
6A39
330
1E
100
AcDbEntity
  8
12
100
AcDbLine
 10
-35.0
 20
-401.9997558592999
 30
0.0
 11
-35.0
 21
-432.0
 31
0.0
  0
CIRCLE
  5
6A3A
330
1E
100
AcDbEntity
  8
12
100
AcDbCircle
 10
-35.0
 20
-417.0
 30
0.0
 40
4.5
  0
LINE
  5
6A3B
330
1E
100
AcDbEntity
  8
12
100
AcDbLine
 10
35.0
 20
-401.9997558592999
 30
0.0
 11
35.0
 21
-432.0
 31
0.0
  0
LINE
  5
6A3F
330
1E
100
AcDbEntity
  8
L0_
  6
CONTINUOUS
 62
     2
100
AcDbLine
 10
188.9011230468995
 20
-762.9653320312
 30
0.0
 11
197.8876953125
 21
-752.9799804687
 31
0.0
  0
LINE
  5
6A40
330
1E
100
AcDbEntity
  8
L0_
  6
CONTINUOUS
 62
     2
100
AcDbLine
 10
195.9499511718995
 20
-779.9997558592999
 30
0.0
 11
188.9011230468995
 21
-762.9653320312
 31
0.0
  0
LINE
  5
6A41
330
1E
100
AcDbEntity
  8
L0_
  6
CONTINUOUS
 62
     2
100
AcDbLine
 10
197.8876953125
 20
-752.9799804687
 30
0.0
 11
195.2814941405995
 21
-739.9997558593
 31
0.0
  0
LINE
  5
6A42
330
1E
100
AcDbEntity
  8
L0_
  6
CONTINUOUS
 62
     2
100
AcDbLine
 10
205.9499511718995
 20
-416.9997558592999
 30
0.0
 11
195.9499511718995
 21
-406.9997558593
 31
0.0
  0
LINE
  5
6A43
330
1E
100
AcDbEntity
  8
L0_
  6
CONTINUOUS
 62
     2
100
AcDbLine
 10
195.9499511718995
 20
-431.9997558593
 30
0.0
 11
205.9499511718995
 21
-416.9997558592999
 31
0.0
  0
LINE
  5
6A44
330
1E
100
AcDbEntity
  8
L0_
  6
CONTINUOUS
 62
     2
100
AcDbLine
 10
195.9499511718995
 20
-406.9997558593
 30
0.0
 11
205.9499511718995
 21
-391.9997558592999
 31
0.0
  0
LWPOLYLINE
  5
6B40
330
1E
100
AcDbEntity
  8
10
  6
CONTINUOUS
100
AcDbPolyline
 90
       16
 70
     1
 43
0.0
 10
117.49993896485
 20
-170.0
 10
22.49993896485
 20
-170.0
 10
-22.5
 20
-170.0
 10
-47.5
 20
-170.0
 10
-92.5
 20
-170.0
 10
-105.0
 20
-170.0
 10
-105.0
 20
200.0
 10
-92.5
 20
200.0
 10
-47.5
 20
200.0
 10
-22.5
 20
200.0
 10
22.49993896485
 20
200.0
 10
117.49993896485
 20
200.0
 10
162.4998168945298
 20
200.0
 10
174.9998168945298
 20
200.0
 10
174.9998168945298
 20
-170.0
 10
162.4998168945298
 20
-170.0
  0
LWPOLYLINE
  5
6B41
330
1E
100
AcDbEntity
  8
10
  6
CONTINUOUS
100
AcDbPolyline
 90
        4
 70
     1
 43
0.0
 10
39.0
 20
-52.0
 10
-39.0
 20
-52.0
 10
-39.0
 20
43.0
 10
39.0
 20
43.0
  0
LWPOLYLINE
  5
6C06
330
1E
100
AcDbEntity
  8
10
  6
CONTINUOUS
100
AcDbPolyline
 90
        8
 70
     1
 43
0.0
 10
461.0
 20
-170.0
 10
461.0
 20
-140.0
 10
453.0
 20
-140.0
 10
453.0
 20
170.0
 10
461.0
 20
170.0
 10
461.0
 20
200.0
 10
593.0
 20
200.0
 10
593.0
 20
-170.0
  0
LWPOLYLINE
  5
6C07
330
1E
100
AcDbEntity
  8
10
  6
CONTINUOUS
100
AcDbPolyline
 90
        2
 70
     0
 43
0.0
 10
442.0
 20
32.97558593749998
 10
439.7880859375
 20
32.91601562499998
  0
LWPOLYLINE
  5
6C08
330
1E
100
AcDbEntity
  8
10
  6
CONTINUOUS
100
AcDbPolyline
 90
        2
 70
     0
 43
0.0
 10
438.0615234375
 20
33.17529296869996
 10
412.3037109374999
 20
41.82763671869996
  0
DIMENSION
  5
6D05
330
1E
100
AcDbEntity
  8
30
  6
CONTINUOUS
100
AcDbDimension
  2
*D11
 10
-118.0002441405999
 20
376.1514359345528
 30
0.0
 11
-121.5002441406
 21
446.1514359345528
 31
0.0
 70
    32
  3
STANDARD
100
AcDbAlignedDimension
 13
-104.0002441405999
 23
516.1514359345528
 33
0.0
 14
-104.0002441405999
 24
376.1514359345528
 34
0.0
 50
90.0
100
AcDbRotatedDimension
  0
DIMENSION
  5
6D69
330
1E
100
AcDbEntity
  8
30
  6
CONTINUOUS
100
AcDbDimension
  2
*D12
 10
453.0
 20
-292.4950458463608
 30
0.0
 11
444.5
 21
-288.9950458463608
 31
0.0
 70
    32
  3
STANDARD
100
AcDbAlignedDimension
 13
436.0
 23
0.0
 33
0.0
 14
453.0
 24
-140.0
 34
0.0
100
AcDbRotatedDimension
  0
DIMENSION
  5
6D76
330
1E
100
AcDbEntity
  8
30
  6
CONTINUOUS
100
AcDbDimension
  2
*D13
 10
593.0
 20
-292.4950458463608
 30
0.0
 11
523.0
 21
-288.9950458463608
 31
0.0
 70
    32
  3
STANDARD
100
AcDbAlignedDimension
 13
453.0
 23
-140.0
 33
0.0
 14
593.0
 24
-179.0
 34
0.0
100
AcDbRotatedDimension
1001
ACAD
1000
DSTYLE
1002
{
1070
   287
1070
     4
1070
   287
1070
     4
1070
   279
1070
     1
1002
}
  0
DIMENSION
  5
6DB7
330
1E
100
AcDbEntity
  8
30
  6
CONTINUOUS
100
AcDbDimension
  2
*D14
 10
461.0
 20
-194.4087893196519
 30
0.0
 11
457.0
 21
-190.9087893196519
 31
0.0
 70
    32
  3
STANDARD
100
AcDbAlignedDimension
 13
453.0
 23
-140.0
 33
0.0
 14
461.0
 24
-170.0
 34
0.0
100
AcDbRotatedDimension
  0
LEADER
  5
6DEB
330
1E
100
AcDbEntity
  8
30
  6
CONTINUOUS
100
AcDbLeader
  3
STANDARD
 76
     3
 10
609.0
 20
-145.0
 30
0.0
 10
629.1513530340892
 20
-124.8476320125517
 30
0.0
 10
642.6701530964262
 20
-124.8370630914487
 30
0.0
211
-1.0
221
0.0
231
0.0
1001
ACAD
1000
DSTYLE
1002
{
1070
     5
1000
OPEN
1070
   342
1005
3B2
1002
}
  0
TEXT
  5
6DEC
330
1E
100
AcDbEntity
  8
30
  6
CONTINUOUS
100
AcDbText
 10
631.0783100139214
 20
-123.3255563437092
 30
0.0
 40
4.0
  1
M8
100
AcDbText
  0
DIMENSION
  5
6DED
330
1E
100
AcDbEntity
  8
30
  6
CONTINUOUS
100
AcDbDimension
  2
*D15
 10
401.9998397827433
 20
-309.08595701602
 30
0.0
 11
361.9999732971447
 21
-305.58595701602
 31
0.0
 70
    32
  3
STANDARD
100
AcDbAlignedDimension
 13
322.000106811546
 23
0.0000000000000105
 33
0.0
 14
401.9998397827433
 24
-0.0000000000000009
 34
0.0
100
AcDbRotatedDimension
  0
DIMENSION
  5
6DFA
330
1E
100
AcDbEntity
  8
30
  6
CONTINUOUS
100
AcDbDimension
  2
*D16
 10
593.0
 20
-309.08595701602
 30
0.0
 11
497.4999198913716
 21
-305.58595701602
 31
0.0
 70
    32
  3
STANDARD
100
AcDbAlignedDimension
 13
401.9998397827433
 23
-0.0000000000000009
 33
0.0
 14
593.0
 24
-179.0
 34
0.0
100
AcDbRotatedDimension
1001
ACAD
1000
DSTYLE
1002
{
1070
   287
1070
     4
1070
   287
1070
     4
1070
   279
1070
     1
1002
}
  0
DIMENSION
  5
6E07
330
1E
100
AcDbEntity
  8
30
  6
CONTINUOUS
100
AcDbDimension
  2
*D17
 10
380.7140212313461
 20
0.000000000000006
 30
0.0
 11
377.2140212313461
 21
85.00000000000007
 31
0.0
 70
    32
  3
STANDARD
100
AcDbAlignedDimension
 13
453.0
 23
170.0
 33
0.0
 14
401.9998397827433
 24
0.0
 34
0.0
 50
90.0
100
AcDbRotatedDimension
  0
DIMENSION
  5
6E1D
330
1E
100
AcDbEntity
  8
30
  6
CONTINUOUS
100
AcDbDimension
  2
*D18
 10
380.7140212313461
 20
-139.9999999999999
 30
0.0
 11
377.2140212313461
 21
-69.99999999999992
 31
0.0
 70
    32
  3
STANDARD
100
AcDbAlignedDimension
 13
401.9998397827433
 23
0.0
 33
0.0
 14
453.0
 24
-140.0
 34
0.0
 50
90.0
100
AcDbRotatedDimension
1001
ACAD
1000
DSTYLE
1002
{
1070
   287
1070
     4
1070
   287
1070
     4
1070
   279
1070
     1
1002
}
  0
LWPOLYLINE
  5
6ED0
330
1E
100
AcDbEntity
  8
18
100
AcDbPolyline
 90
        4
 70
     1
 43
0.0
 10
-104.9997558594004
 20
-770.9997558592999
 10
-104.9997558594004
 20
-400.9997558592999
 10
175.0
 20
-400.9997558592999
 10
175.0
 20
-770.9997558592999
  0
LINE
  5
6ED1
330
1E
100
AcDbEntity
  8
12
100
AcDbLine
 10
35.0
 20
-401.9997558592999
 30
0.0
 11
35.0
 21
-432.0
 31
0.0
  0
LINE
  5
6ED2
330
1E
100
AcDbEntity
  8
12
100
AcDbLine
 10
-35.0
 20
-739.9995117185999
 30
0.0
 11
-35.0
 21
-769.9997558593
 31
0.0
  0
LINE
  5
6ED3
330
1E
100
AcDbEntity
  8
12
100
AcDbLine
 10
35.0
 20
-739.9995117185999
 30
0.0
 11
35.0
 21
-769.9997558593
 31
0.0
  0
LINE
  5
6ED4
330
1E
100
AcDbEntity
  8
12
100
AcDbLine
 10
20.0
 20
-754.9997558592999
 30
0.0
 11
50.0
 21
-754.9997558592999
 31
0.0
  0
TEXT
  5
6ED5
330
1E
100
AcDbEntity
  8
30
  6
CONTINUOUS
100
AcDbText
 10
59.73704305844648
 20
-725.4473330673581
 30
0.0
 40
5.0
  1
%%C9
100
AcDbText
  0
LEADER
  5
6ED6
330
1E
100
AcDbEntity
  8
30
  6
CONTINUOUS
100
AcDbLeader
  3
STANDARD
 76
     3
 10
37.99768925567889
 20
-749.9416939150058
 30
0.0
 10
47.75154943503184
 20
-725.7265809280352
 30
0.0
 10
78.52425257157768
 20
-725.7829347399749
 30
0.0
1001
ACAD
1000
DSTYLE
1002
{
1070
     5
1000
OPEN
1070
   342
1005
3B2
1002
}
  0
LWPOLYLINE
  5
6F14
330
1E
100
AcDbEntity
  8
18
100
AcDbPolyline
 90
        4
 70
     1
 43
0.0
 10
570.0
 20
-771.0
 10
570.0
 20
-401.0
 10
290.0
 20
-401.0
 10
290.0
 20
-771.0
  0
LWPOLYLINE
  5
6F15
330
1E
100
AcDbEntity
  8
11
  6
CONTINUOUS
100
AcDbPolyline
 90
        8
 70
     1
 43
0.0
 10
435.5
 20
-644.0
 10
435.5
 20
-558.0
 42
0.4142135623730951
 10
429.4999999999999
 20
-552.0
 10
360.4999999999999
 20
-552.0
 42
0.4142135623730951
 10
354.4999999999999
 20
-558.0
 10
354.4999999999999
 20
-644.0
 42
0.4142135623730951
 10
360.4999999999999
 20
-650.0
 10
429.4999999999999
 20
-650.0
 42
0.4142135623730951
  0
DIMENSION
  5
6F16
330
1E
100
AcDbEntity
  8
30
  6
CONTINUOUS
100
AcDbDimension
  2
*D19
 10
427.44451952089
 20
-558.1664414373285
 30
0.0
 11
443.4445195208905
 21
-535.666441437328
 31
0.0
 70
   164
  1
R6
  3
STANDARD
100
AcDbRadialDimension
 15
429.4999999999995
 25
-552.0
 35
0.0
 40
0.0
1001
ACAD
1000
DSTYLE
1002
{
1070
   288
1070
     1
1002
}
  0
DIMENSION
  5
6F52
330
1E
100
AcDbEntity
  8
30
  6
CONTINUOUS
100
AcDbDimension
  2
*D20
 10
-201.0934457379699
 20
-601.0
 30
0.0
 11
-204.5934457379698
 21
-509.0
 31
0.0
 70
    32
  3
STANDARD
100
AcDbAlignedDimension
 13
-50.0
 23
-417.0
 33
0.0
 14
-166.0
 24
-601.0
 34
0.0
 50
90.0
100
AcDbRotatedDimension
  0
DIMENSION
  5
6F5F
330
1E
100
AcDbEntity
  8
30
  6
CONTINUOUS
100
AcDbDimension
  2
*D21
 10
-201.0934457379699
 20
-754.9997558592999
 30
0.0
 11
-204.5934457379698
 21
-677.99987792965
 31
0.0
 70
    32
  3
STANDARD
100
AcDbAlignedDimension
 13
-166.0
 23
-601.0
 33
0.0
 14
-50.0
 24
-754.9997558592999
 34
0.0
 50
90.0
100
AcDbRotatedDimension
1001
ACAD
1000
DSTYLE
1002
{
1070
   287
1070
     4
1070
   287
1070
     4
1070
   279
1070
     1
1002
}
  0
DIMENSION
  5
6F6C
330
1E
100
AcDbEntity
  8
30
  6
CONTINUOUS
100
AcDbDimension
  2
*D22
 10
35.0
 20
-810.4423648938418
 30
0.0
 11
0.0000000000000002
 21
-806.9423648938418
 31
0.0
 70
    32
  3
STANDARD
100
AcDbAlignedDimension
 13
-35.0
 23
-769.9997558593
 33
0.0
 14
35.0
 24
-769.9997558593
 34
0.0
100
AcDbRotatedDimension
  0
DIMENSION
  5
6F79
330
1E
100
AcDbEntity
  8
30
  6
CONTINUOUS
100
AcDbDimension
  2
*D23
 10
435.5
 20
-683.7650401241262
 30
0.0
 11
395.0
 21
-680.2650401241262
 31
0.0
 70
    32
  3
STANDARD
100
AcDbAlignedDimension
 13
354.4999999999999
 23
-644.0
 33
0.0
 14
435.5
 24
-644.0
 34
0.0
100
AcDbRotatedDimension
  0
DIMENSION
  5
6F86
330
1E
100
AcDbEntity
  8
30
  6
CONTINUOUS
100
AcDbDimension
  2
*D24
 10
333.097286732649
 20
-650.0
 30
0.0
 11
329.5972867326491
 21
-600.9999999999998
 31
0.0
 70
    32
  3
STANDARD
100
AcDbAlignedDimension
 13
360.4999999999999
 23
-552.0
 33
0.0
 14
360.4999999999999
 24
-650.0
 34
0.0
 50
90.0
100
AcDbRotatedDimension
  0
DIMENSION
  5
6FBA
330
1E
100
AcDbEntity
  8
30
  6
CONTINUOUS
100
AcDbDimension
  2
*D25
 10
214.8584367809216
 20
-0.0000000000000113
 30
0.0
 11
211.3584367809216
 21
100.0
 31
0.0
 70
    32
  3
STANDARD
100
AcDbAlignedDimension
 13
175.9998168945298
 23
200.0
 33
0.0
 14
174.9998168945298
 24
0.0
 34
0.0
 50
90.0
100
AcDbRotatedDimension
1001
ACAD
1000
DSTYLE
1002
{
1070
   287
1070
     4
1070
   287
1070
     4
1070
   279
1070
     1
1002
}
  0
DIMENSION
  5
6FC7
330
1E
100
AcDbEntity
  8
30
  6
CONTINUOUS
100
AcDbDimension
  2
*D26
 10
214.8584367809216
 20
-170.0
 30
0.0
 11
211.3584367809216
 21
-84.99999999999998
 31
0.0
 70
    32
  3
STANDARD
100
AcDbAlignedDimension
 13
174.9998168945298
 23
0.0
 33
0.0
 14
175.9998168945298
 24
-170.0
 34
0.0
 50
90.0
100
AcDbRotatedDimension
1001
ACAD
1000
DSTYLE
1002
{
1070
   287
1070
     4
1070
   287
1070
     4
1070
   279
1070
     1
1002
}
  0
DIMENSION
  5
6FE1
330
1E
100
AcDbEntity
  8
30
  6
CONTINUOUS
100
AcDbDimension
  2
*D27
 10
233.9081821090276
 20
-170.0
 30
0.0
 11
230.4081821090276
 21
15.00000000000001
 31
0.0
 70
    32
  3
STANDARD
100
AcDbAlignedDimension
 13
174.9998168945298
 23
200.0
 33
0.0
 14
174.9998168945298
 24
-170.0
 34
0.0
 50
90.0
100
AcDbRotatedDimension
  0
LINE
  5
73FF
330
1E
100
AcDbEntity
  8
12
100
AcDbLine
 10
20.0
 20
-417.0
 30
0.0
 11
50.0
 21
-417.0
 31
0.0
  0
LINE
  5
7474
330
1E
100
AcDbEntity
  8
10
  6
CONTINUOUS
100
AcDbLine
 10
20.0
 20
325.1509476533529
 30
0.0
 11
20.0
 21
365.1511917939529
 31
0.0
  0
LINE
  5
7475
330
1E
100
AcDbEntity
  8
10
  6
CONTINUOUS
100
AcDbLine
 10
-20.0
 20
325.1509476533529
 30
0.0
 11
-20.0
 21
365.1511917939529
 31
0.0
  0
LINE
  5
747A
330
1E
100
AcDbEntity
  8
24
  6
CONTINOUS
100
AcDbLine
 10
-42.01000976559998
 20
631.1514359345529
 30
0.0
 11
22.49975585940001
 21
631.1514359345529
 31
0.0
  0
LINE
  5
747C
330
1E
100
AcDbEntity
  8
24
  6
CONTINOUS
100
AcDbLine
 10
117.5
 20
631.1514359345529
 30
0.0
 11
162.5
 21
631.1514359345529
 31
0.0
  0
LINE
  5
747E
330
1E
100
AcDbEntity
  8
10
  6
CONTINUOUS
100
AcDbLine
 10
-39.0
 20
365.1511917939529
 30
0.0
 11
39.0
 21
365.1511917939529
 31
0.0
  0
LINE
  5
7484
330
1E
100
AcDbEntity
  8
21
100
AcDbLine
 10
-10.0
 20
516.1514359345528
 30
0.0
 11
-10.0
 21
601.1514359345528
 31
0.0
  0
LINE
  5
7485
330
1E
100
AcDbEntity
  8
21
100
AcDbLine
 10
-79.99975585929997
 20
516.1514359345528
 30
0.0
 11
-79.99975585929997
 21
556.1514359345529
 31
0.0
  0
LINE
  5
7489
330
1E
100
AcDbEntity
  8
21
100
AcDbLine
 10
-79.99975585929997
 20
556.1514359345529
 30
0.0
 11
-77.49975585929997
 21
556.1514359345529
 31
0.0
  0
LINE
  5
748D
330
1E
100
AcDbEntity
  8
21
100
AcDbLine
 10
-7.5
 20
601.1514359345528
 30
0.0
 11
-10.0
 21
601.1514359345528
 31
0.0
  0
LINE
  5
7491
330
1E
100
AcDbEntity
  8
10
  6
CONTINUOUS
100
AcDbLine
 10
-39.0
 20
365.1511917939529
 30
0.0
 11
-39.0
 21
376.1511917939528
 31
0.0
  0
LINE
  5
7495
330
1E
100
AcDbEntity
  8
21
100
AcDbLine
 10
80.0
 20
516.1514359345528
 30
0.0
 11
80.0
 21
556.1514359345529
 31
0.0
  0
LINE
  5
7498
330
1E
100
AcDbEntity
  8
24
  6
CONTINOUS
100
AcDbLine
 10
47.5
 20
586.1514359345529
 30
0.0
 11
92.5
 21
586.1514359345529
 31
0.0
  0
LINE
  5
749B
330
1E
100
AcDbEntity
  8
L0_
  6
CONTINUOUS
 62
     2
100
AcDbLine
 10
77.5
 20
556.1514359345529
 30
0.0
 11
80.0
 21
556.1514359345529
 31
0.0
  0
LINE
  5
74AA
330
1E
100
AcDbEntity
  8
10
  6
CONTINUOUS
100
AcDbLine
 10
39.0
 20
365.1511917939529
 30
0.0
 11
39.0
 21
376.1511917939528
 31
0.0
  0
LINE
  5
74AE
330
1E
100
AcDbEntity
  8
10
  6
CONTINUOUS
100
AcDbLine
 10
-105.0002441405999
 20
384.1511917939529
 30
0.0
 11
174.990234375
 21
384.1511917939529
 31
0.0
  0
LWPOLYLINE
  5
74AF
330
1E
100
AcDbEntity
  8
10
  6
CONTINUOUS
100
AcDbPolyline
 90
        5
 70
     0
 43
0.0
 10
-105.0002441405999
 20
516.1514359345528
 10
-105.0002441405999
 20
376.1511917939528
 10
174.990234375
 20
376.1511917939528
 10
174.990234375
 20
516.1514359345528
 10
-105.0
 20
516.1514359345528
  0
LINE
  5
74B0
330
1E
100
AcDbEntity
  8
10
  6
CONTINUOUS
100
AcDbLine
 10
-20.0
 20
325.1509476533529
 30
0.0
 11
20.0
 21
325.1509476533529
 31
0.0
  0
LWPOLYLINE
  5
74BB
330
1E
100
AcDbEntity
  8
21
100
AcDbPolyline
 90
        6
 70
     0
 43
0.0
 10
150.0
 20
516.1514359345528
 10
150.0
 20
601.1514359345528
 10
147.5
 20
601.1514359345528
 10
132.4999999999999
 20
601.1514359345528
 10
130.0
 20
601.1514359345528
 10
130.0
 20
516.1514359345528
  0
LWPOLYLINE
  5
74BC
330
1E
100
AcDbEntity
  8
21
100
AcDbPolyline
 90
        4
 70
     0
 43
0.0
 10
147.5
 20
601.1514359345528
 10
147.5
 20
646.1514359345528
 10
132.4999999999999
 20
646.1514359345528
 10
132.4999999999999
 20
601.1514359345528
  0
LWPOLYLINE
  5
74BD
330
1E
100
AcDbEntity
  8
21
100
AcDbPolyline
 90
        7
 70
     0
 43
0.0
 10
60.0
 20
516.1514359345528
 10
60.0
 20
556.1514359345529
 10
62.5
 20
556.1514359345529
 10
77.5
 20
556.1514359345529
 10
77.5
 20
601.1514359345528
 10
62.5
 20
601.1514359345528
 10
62.5
 20
556.1514359345529
  0
LWPOLYLINE
  5
74BE
330
1E
100
AcDbEntity
  8
21
100
AcDbPolyline
 90
        7
 70
     0
 43
0.0
 10
10.0
 20
516.1514359345528
 10
10.0
 20
601.1514359345528
 10
7.5
 20
601.1514359345528
 10
7.5
 20
646.1514359345528
 10
-7.5
 20
646.1514359345528
 10
-7.5
 20
601.1514359345528
 10
7.5
 20
601.1514359345528
  0
LWPOLYLINE
  5
74BF
330
1E
100
AcDbEntity
  8
21
100
AcDbPolyline
 90
        7
 70
     0
 43
0.0
 10
-60.0
 20
516.1514359345528
 10
-60.0
 20
556.1514359345529
 10
-62.5
 20
556.1514359345529
 10
-62.5
 20
601.1514359345528
 10
-77.49975585929997
 20
601.1514359345528
 10
-77.49975585929997
 20
556.1514359345529
 10
-62.5
 20
556.1514359345529
  0
LINE
  5
74C0
330
1E
100
AcDbEntity
  8
24
  6
CONTINOUS
100
AcDbLine
 10
-92.5
 20
586.1514359345529
 30
0.0
 11
-47.5
 21
586.1514359345529
 31
0.0
  0
LINE
  5
74E5
330
1E
100
AcDbEntity
  8
21
100
AcDbLine
 10
593.0
 20
-132.4999999999999
 30
0.0
 11
678.0
 21
-132.4999999999999
 31
0.0
  0
LINE
  5
74E8
330
1E
100
AcDbEntity
  8
21
100
AcDbLine
 10
593.0
 20
-67.5
 30
0.0
 11
678.0
 21
-67.5
 31
0.0
  0
ARC
  5
74E9
330
1E
100
AcDbEntity
  8
12
  6
DASHED
100
AcDbCircle
 10
-595.0
 20
-142.0009765624999
 30
0.0
 40
4.000001778531175
210
0.0
220
0.0
230
-1.0
100
AcDbArc
 50
179.9459695860092
 51
180.0
  0
LINE
  5
74EA
330
1E
100
AcDbEntity
  8
12
  6
DASHED
100
AcDbLine
 10
593.0
 20
-139.0
 30
0.0
 11
599.0
 21
-139.0
 31
0.0
  0
LINE
  5
74EB
330
1E
100
AcDbEntity
  8
21
100
AcDbLine
 10
678.0
 20
-67.5
 30
0.0
 11
678.0
 21
-132.4999999999999
 31
0.0
  0
LINE
  5
74EC
330
1E
100
AcDbEntity
  8
21
100
AcDbLine
 10
723.0
 20
-67.5
 30
0.0
 11
723.0
 21
-132.4999999999999
 31
0.0
  0
LINE
  5
74F1
330
1E
100
AcDbEntity
  8
21
100
AcDbLine
 10
688.0
 20
-132.4999999999999
 30
0.0
 11
723.0
 21
-132.4999999999999
 31
0.0
  0
LINE
  5
74F4
330
1E
100
AcDbEntity
  8
21
100
AcDbLine
 10
688.0
 20
-67.5
 30
0.0
 11
723.0
 21
-67.5
 31
0.0
  0
LINE
  5
74F5
330
1E
100
AcDbEntity
  8
24
  6
CONTINOUS
100
AcDbLine
 10
648.0
 20
45.0
 30
0.0
 11
678.0
 21
45.0
 31
0.0
  0
LINE
  5
74F6
330
1E
100
AcDbEntity
  8
24
  6
CONTINOUS
100
AcDbLine
 10
648.0
 20
75.0
 30
0.0
 11
678.0
 21
75.0
 31
0.0
  0
LINE
  5
74F7
330
1E
100
AcDbEntity
  8
21
100
AcDbLine
 10
593.0
 20
27.5
 30
0.0
 11
678.0
 21
27.5
 31
0.0
  0
LINE
  5
74F8
330
1E
100
AcDbEntity
  8
21
100
AcDbLine
 10
593.0
 20
92.5
 30
0.0
 11
678.0
 21
92.5
 31
0.0
  0
LINE
  5
74F9
330
1E
100
AcDbEntity
  8
21
100
AcDbLine
 10
723.0
 20
27.5
 30
0.0
 11
723.0
 21
92.5
 31
0.0
  0
LINE
  5
74FA
330
1E
100
AcDbEntity
  8
21
100
AcDbLine
 10
678.0
 20
27.5
 30
0.0
 11
678.0
 21
92.5
 31
0.0
  0
LINE
  5
74FB
330
1E
100
AcDbEntity
  8
24
  6
CONTINOUS
100
AcDbLine
 10
663.0
 20
92.5
 30
0.0
 11
663.0
 21
27.5
 31
0.0
  0
LINE
  5
74FC
330
1E
100
AcDbEntity
  8
24
  6
CONTINOUS
100
AcDbLine
 10
708.0
 20
92.5
 30
0.0
 11
708.0
 21
27.5
 31
0.0
  0
CIRCLE
  5
74FD
330
1E
100
AcDbEntity
  8
24
  6
CONTINOUS
100
AcDbCircle
 10
708.0
 20
45.0
 30
0.0
 40
6.0
  0
LINE
  5
74FE
330
1E
100
AcDbEntity
  8
21
100
AcDbLine
 10
688.0
 20
27.5
 30
0.0
 11
723.0
 21
27.5
 31
0.0
  0
CIRCLE
  5
74FF
330
1E
100
AcDbEntity
  8
24
  6
CONTINOUS
100
AcDbCircle
 10
663.0
 20
45.0
 30
0.0
 40
6.0
  0
CIRCLE
  5
7500
330
1E
100
AcDbEntity
  8
24
  6
CONTINOUS
100
AcDbCircle
 10
708.0
 20
75.0
 30
0.0
 40
6.0
  0
LINE
  5
7501
330
1E
100
AcDbEntity
  8
21
100
AcDbLine
 10
688.0
 20
92.5
 30
0.0
 11
723.0
 21
92.5
 31
0.0
  0
CIRCLE
  5
7502
330
1E
100
AcDbEntity
  8
24
  6
CONTINOUS
100
AcDbCircle
 10
663.0
 20
75.0
 30
0.0
 40
6.0
  0
LINE
  5
7503
330
1E
100
AcDbEntity
  8
24
  6
CONTINOUS
100
AcDbLine
 10
578.0
 20
60.0
 30
0.0
 11
773.0
 21
60.0
 31
0.0
  0
LINE
  5
7505
330
1E
100
AcDbEntity
  8
24
  6
CONTINOUS
100
AcDbLine
 10
693.0
 20
75.0
 30
0.0
 11
723.0
 21
75.0
 31
0.0
  0
LINE
  5
7506
330
1E
100
AcDbEntity
  8
24
  6
CONTINOUS
100
AcDbLine
 10
693.0
 20
45.0
 30
0.0
 11
723.0
 21
45.0
 31
0.0
  0
CIRCLE
  5
7507
330
1E
100
AcDbEntity
  8
24
  6
CONTINOUS
100
AcDbCircle
 10
708.0
 20
-115.0
 30
0.0
 40
6.0
  0
LINE
  5
7508
330
1E
100
AcDbEntity
  8
24
  6
CONTINOUS
100
AcDbLine
 10
708.0
 20
-67.5
 30
0.0
 11
708.0
 21
-132.4999999999999
 31
0.0
  0
LINE
  5
7509
330
1E
100
AcDbEntity
  8
24
  6
CONTINOUS
100
AcDbLine
 10
663.0
 20
-67.5
 30
0.0
 11
663.0
 21
-132.4999999999999
 31
0.0
  0
CIRCLE
  5
750A
330
1E
100
AcDbEntity
  8
24
  6
CONTINOUS
100
AcDbCircle
 10
663.0
 20
-115.0
 30
0.0
 40
6.0
  0
LINE
  5
750B
330
1E
100
AcDbEntity
  8
21
100
AcDbLine
 10
678.0
 20
-132.4999999999999
 30
0.0
 11
678.0
 21
-67.5
 31
0.0
  0
LINE
  5
750C
330
1E
100
AcDbEntity
  8
24
  6
CONTINOUS
100
AcDbLine
 10
648.0
 20
-115.0
 30
0.0
 11
678.0
 21
-115.0
 31
0.0
  0
LINE
  5
750D
330
1E
100
AcDbEntity
  8
24
  6
CONTINOUS
100
AcDbLine
 10
648.0
 20
-85.0
 30
0.0
 11
678.0
 21
-85.0
 31
0.0
  0
CIRCLE
  5
750E
330
1E
100
AcDbEntity
  8
24
  6
CONTINOUS
100
AcDbCircle
 10
663.0
 20
-85.0
 30
0.0
 40
6.0
  0
CIRCLE
  5
750F
330
1E
100
AcDbEntity
  8
24
  6
CONTINOUS
100
AcDbCircle
 10
708.0
 20
-85.0
 30
0.0
 40
6.0
  0
LINE
  5
7510
330
1E
100
AcDbEntity
  8
24
  6
CONTINOUS
100
AcDbLine
 10
578.0
 20
-100.0
 30
0.0
 11
773.0
 21
-100.0
 31
0.0
  0
LINE
  5
7511
330
1E
100
AcDbEntity
  8
24
  6
CONTINOUS
100
AcDbLine
 10
693.0
 20
-115.0
 30
0.0
 11
723.0
 21
-115.0
 31
0.0
  0
LINE
  5
7512
330
1E
100
AcDbEntity
  8
24
  6
CONTINOUS
100
AcDbLine
 10
693.0
 20
-85.0
 30
0.0
 11
723.0
 21
-85.0
 31
0.0
  0
LINE
  5
7513
330
1E
100
AcDbEntity
  8
21
100
AcDbLine
 10
688.0
 20
-67.5
 30
0.0
 11
723.0
 21
-67.5
 31
0.0
  0
LINE
  5
7514
330
1E
100
AcDbEntity
  8
16
100
AcDbLine
 10
0.0
 20
-225.5943258971378
 30
0.0
 11
0.0
 21
223.9297673754972
 31
0.0
  0
DIMENSION
  5
7515
330
1E
100
AcDbEntity
  8
30
  6
CONTINUOUS
100
AcDbDimension
  2
*D28
 10
747.972221975896
 20
45.0
 30
0.0
 11
744.4722219758959
 21
60.00000000000011
 31
0.0
 70
    32
  3
STANDARD
100
AcDbAlignedDimension
 13
723.0
 23
75.0
 33
0.0
 14
723.0
 24
45.0
 34
0.0
 50
90.0
100
AcDbRotatedDimension
  0
DIMENSION
  5
7522
330
1E
100
AcDbEntity
  8
30
  6
CONTINUOUS
100
AcDbDimension
  2
*D29
 10
761.287846379736
 20
27.49999999999998
 30
0.0
 11
757.787846379736
 21
60.0000000000001
 31
0.0
 70
    32
  3
STANDARD
100
AcDbAlignedDimension
 13
723.0
 23
92.5
 33
0.0
 14
723.0
 24
27.5
 34
0.0
 50
90.0
100
AcDbRotatedDimension
  0
DIMENSION
  5
752F
330
1E
100
AcDbEntity
  8
30
  6
CONTINUOUS
100
AcDbDimension
  2
*D30
 10
663.0
 20
-203.5059305795216
 30
0.0
 11
628.0
 21
-200.0059305795216
 31
0.0
 70
    32
  3
STANDARD
100
AcDbAlignedDimension
 13
593.0
 23
-170.0
 33
0.0
 14
663.0
 24
-132.4999999999999
 34
0.0
100
AcDbRotatedDimension
  0
DIMENSION
  5
753C
330
1E
100
AcDbEntity
  8
30
  6
CONTINUOUS
100
AcDbDimension
  2
*D31
 10
678.0
 20
-203.5059305795216
 30
0.0
 11
670.5
 21
-200.0059305795216
 31
0.0
 70
    32
  3
STANDARD
100
AcDbAlignedDimension
 13
663.0
 23
-132.4999999999999
 33
0.0
 14
678.0
 24
-132.4999999999999
 34
0.0
100
AcDbRotatedDimension
1001
ACAD
1000
DSTYLE
1002
{
1070
   287
1070
     4
1070
   287
1070
     4
1070
   279
1070
     1
1002
}
  0
DIMENSION
  5
7549
330
1E
100
AcDbEntity
  8
30
  6
CONTINUOUS
100
AcDbDimension
  2
*D32
 10
708.0
 20
-221.8035802060812
 30
0.0
 11
650.4999999999999
 21
-218.3035802060812
 31
0.0
 70
    32
  3
STANDARD
100
AcDbAlignedDimension
 13
593.0
 23
-171.0
 33
0.0
 14
708.0
 24
-132.4999999999999
 34
0.0
100
AcDbRotatedDimension
  0
DIMENSION
  5
7556
330
1E
100
AcDbEntity
  8
30
  6
CONTINUOUS
100
AcDbDimension
  2
*D33
 10
723.0
 20
-221.8035802060812
 30
0.0
 11
715.5
 21
-218.3035802060812
 31
0.0
 70
    32
  3
STANDARD
100
AcDbAlignedDimension
 13
708.0
 23
-132.4999999999999
 33
0.0
 14
723.0
 24
-132.4999999999999
 34
0.0
100
AcDbRotatedDimension
1001
ACAD
1000
DSTYLE
1002
{
1070
   287
1070
     4
1070
   287
1070
     4
1070
   279
1070
     1
1002
}
  0
DIMENSION
  5
7563
330
1E
100
AcDbEntity
  8
30
  6
CONTINUOUS
100
AcDbDimension
  2
*D34
 10
723.0
 20
-241.7646505505822
 30
0.0
 11
658.0
 21
-238.2646505505822
 31
0.0
 70
    32
  3
STANDARD
100
AcDbAlignedDimension
 13
593.0
 23
-179.0
 33
0.0
 14
723.0
 24
-132.4999999999999
 34
0.0
100
AcDbRotatedDimension
  0
DIMENSION
  5
7586
330
1E
100
AcDbEntity
  8
30
  6
CONTINUOUS
100
AcDbDimension
  2
*D36
 10
0.0000000000000013
 20
667.6380778065358
 30
0.0
 11
-34.99993896482499
 21
671.1380778065358
 31
0.0
 70
    32
  3
STANDARD
100
AcDbAlignedDimension
 13
-69.99987792964998
 23
601.1514359345528
 33
0.0
 14
0.0
 24
646.1514359345528
 34
0.0
100
AcDbRotatedDimension
  0
DIMENSION
  5
7593
330
1E
100
AcDbEntity
  8
30
  6
CONTINUOUS
100
AcDbDimension
  2
*D37
 10
70.0
 20
667.6380778065358
 30
0.0
 11
35.0
 21
671.1380778065358
 31
0.0
 70
    32
  3
STANDARD
100
AcDbAlignedDimension
 13
0.0
 23
646.1514359345528
 33
0.0
 14
70.0
 24
601.1514359345528
 34
0.0
100
AcDbRotatedDimension
1001
ACAD
1000
DSTYLE
1002
{
1070
   287
1070
     4
1070
   287
1070
     4
1070
   279
1070
     1
1002
}
  0
DIMENSION
  5
75A0
330
1E
100
AcDbEntity
  8
30
  6
CONTINUOUS
100
AcDbDimension
  2
*D38
 10
140.0
 20
667.6380778065358
 30
0.0
 11
105.0
 21
671.1380778065358
 31
0.0
 70
    32
  3
STANDARD
100
AcDbAlignedDimension
 13
70.0
 23
601.1514359345528
 33
0.0
 14
140.0
 24
646.1514359345528
 34
0.0
100
AcDbRotatedDimension
1001
ACAD
1000
DSTYLE
1002
{
1070
   287
1070
     4
1070
   287
1070
     4
1070
   279
1070
     1
1002
}
  0
LEADER
  5
7671
330
1E
100
AcDbEntity
  8
30
  6
CONTINUOUS
100
AcDbLeader
  3
STANDARD
 73
     0
 40
5.0
 41
3.0
 76
     3
 10
666.679247481733
 20
79.27865617193993
 30
0.0
 10
676.4478068018624
 20
109.165761603132
 30
0.0
 10
697.8165228534862
 20
109.165761603132
 30
0.0
340
7672
213
0.0
223
-2.5
233
0.0
1001
ACAD
1000
DSTYLE
1002
{
1070
     5
1000
OPEN
1070
    77
1070
     0
1070
   147
1040
1.0
1002
}
  0
MTEXT
  5
7672
102
{ACAD_REACTORS
330
7671
102
}
330
1E
100
AcDbEntity
  8
30
  6
CONTINUOUS
100
AcDbMText
 10
698.8165228534862
 20
111.665761603132
 30
0.0
 40
5.0
 41
0.0
 71
     1
 72
     1
  1
\A1; 
1001
ACAD
1000
MTEXTBEGIN
1070
    73
1070
     1
1070
    44
1040
1.0
1070
    74
1070
     0
1000
MTEXTEND
  0
TEXT
  5
7673
330
1E
100
AcDbEntity
  8
30
  6
CONTINUOUS
100
AcDbText
 10
677.6688740835279
 20
110.9955833423396
 30
0.0
 40
5.0
  1
%%c12
  7
STANDARD1
100
AcDbText
  0
DIMENSION
  5
7674
330
1E
100
AcDbEntity
  8
30
  6
CONTINUOUS
100
AcDbDimension
  2
*D39
 10
784.562635477424
 20
-0.0000000000000452
 30
0.0
 11
781.062635477424
 21
30.0000000000001
 31
0.0
 70
    32
  3
STANDARD
100
AcDbAlignedDimension
 13
761.287846379736
 23
60.0
 33
0.0
 14
625.0
 24
0.0
 34
0.0
 50
90.0
100
AcDbRotatedDimension
  0
DIMENSION
  5
7681
330
1E
100
AcDbEntity
  8
30
  6
CONTINUOUS
100
AcDbDimension
  2
*D40
 10
784.562635477424
 20
-100.0
 30
0.0
 11
781.062635477424
 21
-49.9999999999999
 31
0.0
 70
    32
  3
STANDARD
100
AcDbAlignedDimension
 13
625.0
 23
0.0
 33
0.0
 14
773.0
 24
-100.0
 34
0.0
 50
90.0
100
AcDbRotatedDimension
1001
ACAD
1000
DSTYLE
1002
{
1070
   287
1070
     4
1070
   279
1070
     1
1002
}
  0
VIEWPORT
  5
9AC
330
1A
100
AcDbEntity
 67
     1
  8
0
  6
CONTINUOUS
100
AcDbViewport
 10
171.9995348790992
 20
144.1384735538403
 30
0.0
 40
488.8676857773514
 41
292.3514905034161
 68
     1
 69
     1
1001
ACAD
1000
MVIEW
1002
{
1070
    16
1010
0.0
1020
0.0
1030
0.0
1010
0.0
1020
0.0
1030
1.0
1040
0.0
1040
292.3514905034161
1040
171.9995348790992
1040
144.1384735538403
1040
50.0
1040
0.0
1040
0.0
1070
     0
1070
   100
1070
     1
1070
     1
1070
     0
1070
     0
1070
     0
1070
     0
1040
0.0
1040
0.0
1040
0.0
1040
10.0
1040
10.0
1040
10.0
1040
10.0
1070
     0
1002
{
1002
}
1002
}
  0
ENDSEC
  0
SECTION
  2
OBJECTS
  0
DICTIONARY
  5
C
330
0
100
AcDbDictionary
  3
ACAD_GROUP
350
D
  3
ACAD_LAYOUT
350
19
  3
ACAD_MLINESTYLE
350
16
  3
ACAD_PLOTSETTINGS
350
18
  3
ACAD_PLOTSTYLENAME
350
E
  3
ACDBHEADERROUNDTRIPXREC
350
7691
  3
ACDBVARIABLEDICTIONARY
350
6C1E
  0
DICTIONARY
  5
178
330
1E
100
AcDbDictionary
280
     1
  3
ACAD_LAYOUTSELFREF
360
76B3
  0
DICTIONARY
  5
17A
330
1A
100
AcDbDictionary
280
     1
  3
ACAD_LAYOUTSELFREF
360
76B2
  0
DICTIONARY
  5
D
102
{ACAD_REACTORS
330
C
102
}
330
C
100
AcDbDictionary
  0
DICTIONARY
  5
19
102
{ACAD_REACTORS
330
C
102
}
330
C
100
AcDbDictionary
  0
DICTIONARY
  5
16
102
{ACAD_REACTORS
330
C
102
}
330
C
100
AcDbDictionary
  3
STANDARD
350
17
  0
DICTIONARY
  5
18
102
{ACAD_REACTORS
330
C
102
}
330
C
100
AcDbDictionary
  0
ACDBDICTIONARYWDFLT
  5
E
102
{ACAD_REACTORS
330
C
102
}
330
C
100
AcDbDictionary
281
     1
  3
Normal
350
F
100
AcDbDictionaryWithDefault
340
F
  0
DICTIONARY
  5
7691
102
{ACAD_REACTORS
330
C
102
}
330
C
100
AcDbDictionary
  3
CEPSNTYPE
350
769B
  3
DIMSTYLEDATA
350
769F
  3
FINGERPRINTGUID
350
769C
  3
HYPERLINKBASE
350
7694
  3
INSUNITS
350
769A
  3
LAYOUTDICT
350
7696
  3
LWETCUNION
350
7699
  3
PLOTSETDICT
350
7697
  3
PLOTSTYLNAMDICT
350
7698
  3
PSVPSCALE
350
769E
  3
PUCSBASE
350
76A2
  3
PUCSORGBACK
350
76A8
  3
PUCSORGBOTTOM
350
76A4
  3
PUCSORGFRONT
350
76A7
  3
PUCSORGLEFT
350
76A5
  3
PUCSORGRIGHT
350
76A6
  3
PUCSORGTOP
350
76A3
  3
PUCSORTHOREF
350
76A0
  3
PUCSORTHOVIEW
350
76A1
  3
STYLESHEET
350
7695
  3
TSTACKALIGN
350
7692
  3
TSTACKSIZE
350
7693
  3
UCSBASE
350
76AB
  3
UCSORGBACK
350
76B1
  3
UCSORGBOTTOM
350
76AD
  3
UCSORGFRONT
350
76B0
  3
UCSORGLEFT
350
76AE
  3
UCSORGRIGHT
350
76AF
  3
UCSORGTOP
350
76AC
  3
UCSORTHOREF
350
76A9
  3
UCSORTHOVIEW
350
76AA
  3
VERSIONGUID
350
769D
  0
DICTIONARY
  5
6C1E
102
{ACAD_REACTORS
330
C
102
}
330
C
100
AcDbDictionary
  3
DIMASSOC
350
768F
  3
SORTENTS
350
6C1F
  0
XRECORD
  5
76B3
102
{ACAD_REACTORS
330
178
102
}
330
178
100
AcDbXrecord
340
1E
  0
XRECORD
  5
76B2
102
{ACAD_REACTORS
330
17A
102
}
330
17A
100
AcDbXrecord
340
1A
  0
MLINESTYLE
  5
17
102
{ACAD_REACTORS
330
16
102
}
330
16
100
AcDbMlineStyle
  2
STANDARD
 70
     0
  3

 62
   256
 51
90.0
 52
90.0
 71
     2
 49
0.5
 62
   256
  6
BYLAYER
 49
-0.5
 62
   256
  6
BYLAYER
  0
ACDBPLACEHOLDER
  5
F
102
{ACAD_REACTORS
330
E
102
}
330
E
100
AcDbPlaceHolder
280
     0
  0
XRECORD
  5
769B
102
{ACAD_REACTORS
330
7691
102
}
330
7691
100
AcDbXrecord
 90
        0
  0
XRECORD
  5
769F
102
{ACAD_REACTORS
330
7691
102
}
330
7691
100
AcDbXrecord
1000
DSTYLE
1002
{
1070
    79
 70
     3
1070
   341
340
3B2
1070
   342
340
3B2
1002
}
  0
XRECORD
  5
769C
102
{ACAD_REACTORS
330
7691
102
}
330
7691
100
AcDbXrecord
  1

  0
XRECORD
  5
7694
102
{ACAD_REACTORS
330
7691
102
}
330
7691
100
AcDbXrecord
  1

  0
XRECORD
  5
769A
102
{ACAD_REACTORS
330
7691
102
}
330
7691
100
AcDbXrecord
 90
        0
  0
XRECORD
  5
7696
102
{ACAD_REACTORS
330
7691
102
}
330
7691
100
AcDbXrecord
340
19
  0
XRECORD
  5
7699
102
{ACAD_REACTORS
330
7691
102
}
330
7691
100
AcDbXrecord
 90
    10781
  0
XRECORD
  5
7697
102
{ACAD_REACTORS
330
7691
102
}
330
7691
100
AcDbXrecord
340
18
  0
XRECORD
  5
7698
102
{ACAD_REACTORS
330
7691
102
}
330
7691
100
AcDbXrecord
340
E
  0
XRECORD
  5
769E
102
{ACAD_REACTORS
330
7691
102
}
330
7691
100
AcDbXrecord
 40
0.0
  0
XRECORD
  5
76A2
102
{ACAD_REACTORS
330
7691
102
}
330
7691
100
AcDbXrecord
340
0
  0
XRECORD
  5
76A8
102
{ACAD_REACTORS
330
7691
102
}
330
7691
100
AcDbXrecord
 10
0.0
 20
0.0
 30
0.0
  0
XRECORD
  5
76A4
102
{ACAD_REACTORS
330
7691
102
}
330
7691
100
AcDbXrecord
 10
0.0
 20
0.0
 30
0.0
  0
XRECORD
  5
76A7
102
{ACAD_REACTORS
330
7691
102
}
330
7691
100
AcDbXrecord
 10
0.0
 20
0.0
 30
0.0
  0
XRECORD
  5
76A5
102
{ACAD_REACTORS
330
7691
102
}
330
7691
100
AcDbXrecord
 10
0.0
 20
0.0
 30
0.0
  0
XRECORD
  5
76A6
102
{ACAD_REACTORS
330
7691
102
}
330
7691
100
AcDbXrecord
 10
0.0
 20
0.0
 30
0.0
  0
XRECORD
  5
76A3
102
{ACAD_REACTORS
330
7691
102
}
330
7691
100
AcDbXrecord
 10
0.0
 20
0.0
 30
0.0
  0
XRECORD
  5
76A0
102
{ACAD_REACTORS
330
7691
102
}
330
7691
100
AcDbXrecord
340
0
  0
XRECORD
  5
76A1
102
{ACAD_REACTORS
330
7691
102
}
330
7691
100
AcDbXrecord
 70
     0
  0
XRECORD
  5
7695
102
{ACAD_REACTORS
330
7691
102
}
330
7691
100
AcDbXrecord
  1
kiki.ctb
  0
XRECORD
  5
7692
102
{ACAD_REACTORS
330
7691
102
}
330
7691
100
AcDbXrecord
 90
        1
  0
XRECORD
  5
7693
102
{ACAD_REACTORS
330
7691
102
}
330
7691
100
AcDbXrecord
 90
       70
  0
XRECORD
  5
76AB
102
{ACAD_REACTORS
330
7691
102
}
330
7691
100
AcDbXrecord
340
0
  0
XRECORD
  5
76B1
102
{ACAD_REACTORS
330
7691
102
}
330
7691
100
AcDbXrecord
 10
0.0
 20
0.0
 30
0.0
  0
XRECORD
  5
76AD
102
{ACAD_REACTORS
330
7691
102
}
330
7691
100
AcDbXrecord
 10
0.0
 20
0.0
 30
0.0
  0
XRECORD
  5
76B0
102
{ACAD_REACTORS
330
7691
102
}
330
7691
100
AcDbXrecord
 10
0.0
 20
0.0
 30
0.0
  0
XRECORD
  5
76AE
102
{ACAD_REACTORS
330
7691
102
}
330
7691
100
AcDbXrecord
 10
0.0
 20
0.0
 30
0.0
  0
XRECORD
  5
76AF
102
{ACAD_REACTORS
330
7691
102
}
330
7691
100
AcDbXrecord
 10
0.0
 20
0.0
 30
0.0
  0
XRECORD
  5
76AC
102
{ACAD_REACTORS
330
7691
102
}
330
7691
100
AcDbXrecord
 10
0.0
 20
0.0
 30
0.0
  0
XRECORD
  5
76A9
102
{ACAD_REACTORS
330
7691
102
}
330
7691
100
AcDbXrecord
340
0
  0
XRECORD
  5
76AA
102
{ACAD_REACTORS
330
7691
102
}
330
7691
100
AcDbXrecord
 70
     0
  0
XRECORD
  5
769D
102
{ACAD_REACTORS
330
7691
102
}
330
7691
100
AcDbXrecord
  1
{52A675C1-F75D-4416-A633-D7AC76DCC69C}
  0
DICTIONARYVAR
  5
768F
102
{ACAD_REACTORS
330
6C1E
102
}
330
6C1E
100
DictionaryVariables
280
     0
  1
1
  0
DICTIONARYVAR
  5
6C1F
102
{ACAD_REACTORS
330
6C1E
102
}
330
6C1E
100
DictionaryVariables
280
     0
  1
96
  0
ENDSEC
  0
EOF
