  0
SECTION
  2
HEADER
  9
$ACADVER
  1
AC1014
  9
$ACADMAINTVER
 70
     9
  9
$DWGCODEPAGE
  3
ANSI_932
  9
$INSBASE
 10
0.0
 20
0.0
 30
0.0
  9
$EXTMIN
 10
-209.1141653289966
 20
-810.9823838904048
 30
-0.0000000000000053
  9
$EXTMAX
 10
657.0652067213631
 20
501.1910017840928
 30
0.0000000000000099
  9
$LIMMIN
 10
-184.0
 20
-675.0
  9
$LIMMAX
 10
509.0
 20
453.0
  9
$ORTHOMODE
 70
     1
  9
$REGENMODE
 70
     1
  9
$FILLMODE
 70
     1
  9
$QTEXTMODE
 70
     0
  9
$MIRRTEXT
 70
     1
  9
$DRAGMODE
 70
     2
  9
$LTSCALE
 40
20.0
  9
$OSMODE
 70
    39
  9
$ATTMODE
 70
     1
  9
$TEXTSIZE
 40
5.0
  9
$TRACEWID
 40
0.05
  9
$TEXTSTYLE
  7
STANDARD1
  9
$CLAYER
  8
30
  9
$CELTYPE
  6
CONTINUOUS
  9
$CECOLOR
 62
   256
  9
$CELTSCALE
 40
1.0
  9
$DELOBJ
 70
     1
  9
$DISPSILH
 70
     0
  9
$DIMSCALE
 40
1.0
  9
$DIMASZ
 40
2.0
  9
$DIMEXO
 40
1.0
  9
$DIMDLI
 40
0.5
  9
$DIMRND
 40
0.0
  9
$DIMDLE
 40
0.0
  9
$DIMEXE
 40
0.5
  9
$DIMTP
 40
0.0
  9
$DIMTM
 40
0.0
  9
$DIMTXT
 40
7.0
  9
$DIMCEN
 40
0.09
  9
$DIMTSZ
 40
0.0
  9
$DIMTOL
 70
     0
  9
$DIMLIM
 70
     0
  9
$DIMTIH
 70
     0
  9
$DIMTOH
 70
     1
  9
$DIMSE1
 70
     0
  9
$DIMSE2
 70
     0
  9
$DIMTAD
 70
     3
  9
$DIMZIN
 70
    12
  9
$DIMBLK
  1
OPEN
  9
$DIMASO
 70
     1
  9
$DIMSHO
 70
     1
  9
$DIMPOST
  1

  9
$DIMAPOST
  1

  9
$DIMALT
 70
     0
  9
$DIMALTD
 70
     2
  9
$DIMALTF
 40
25.4
  9
$DIMLFAC
 40
1.0
  9
$DIMTOFL
 70
     0
  9
$DIMTVP
 40
0.0
  9
$DIMTIX
 70
     0
  9
$DIMSOXD
 70
     0
  9
$DIMSAH
 70
     0
  9
$DIMBLK1
  1

  9
$DIMBLK2
  1

  9
$DIMSTYLE
  2
STANDARD
  9
$DIMCLRD
 70
     0
  9
$DIMCLRE
 70
     0
  9
$DIMCLRT
 70
     0
  9
$DIMTFAC
 40
1.0
  9
$DIMGAP
 40
1.0
  9
$DIMJUST
 70
     0
  9
$DIMSD1
 70
     0
  9
$DIMSD2
 70
     0
  9
$DIMTOLJ
 70
     1
  9
$DIMTZIN
 70
     0
  9
$DIMALTZ
 70
     0
  9
$DIMALTTZ
 70
     0
  9
$DIMFIT
 70
     3
  9
$DIMUPT
 70
     0
  9
$DIMUNIT
 70
     2
  9
$DIMDEC
 70
     1
  9
$DIMTDEC
 70
     1
  9
$DIMALTU
 70
     2
  9
$DIMALTTD
 70
     2
  9
$DIMTXSTY
  7
STANDARD
  9
$DIMAUNIT
 70
     0
  9
$LUNITS
 70
     2
  9
$LUPREC
 70
     4
  9
$SKETCHINC
 40
0.1
  9
$FILLETRAD
 40
0.0
  9
$AUNITS
 70
     0
  9
$AUPREC
 70
     0
  9
$MENU
  1
.
  9
$ELEVATION
 40
0.0
  9
$PELEVATION
 40
0.0
  9
$THICKNESS
 40
0.0
  9
$LIMCHECK
 70
     0
  9
$BLIPMODE
 70
     0
  9
$CHAMFERA
 40
0.0
  9
$CHAMFERB
 40
0.0
  9
$CHAMFERC
 40
0.0
  9
$CHAMFERD
 40
0.0
  9
$SKPOLY
 70
     0
  9
$TDCREATE
 40
2452286.555658657
  9
$TDUPDATE
 40
2453276.437487152
  9
$TDINDWG
 40
1.4927588773
  9
$TDUSRTIMER
 40
1.4927579745
  9
$USRTIMER
 70
     1
  9
$ANGBASE
 50
0.0
  9
$ANGDIR
 70
     0
  9
$PDMODE
 70
     0
  9
$PDSIZE
 40
0.0
  9
$PLINEWID
 40
0.0
  9
$COORDS
 70
     0
  9
$SPLFRAME
 70
     0
  9
$SPLINETYPE
 70
     6
  9
$SPLINESEGS
 70
     8
  9
$ATTDIA
 70
     0
  9
$ATTREQ
 70
     1
  9
$HANDLING
 70
 22529
  9
$HANDSEED
  5
7C27
  9
$SURFTAB1
 70
     6
  9
$SURFTAB2
 70
     6
  9
$SURFTYPE
 70
     6
  9
$SURFU
 70
     6
  9
$SURFV
 70
     6
  9
$UCSNAME
  2

  9
$UCSORG
 10
0.0
 20
0.0
 30
0.0
  9
$UCSXDIR
 10
1.0
 20
0.0
 30
0.0
  9
$UCSYDIR
 10
0.0
 20
1.0
 30
0.0
  9
$PUCSNAME
  2

  9
$PUCSORG
 10
0.0
 20
0.0
 30
0.0
  9
$PUCSXDIR
 10
1.0
 20
0.0
 30
0.0
  9
$PUCSYDIR
 10
0.0
 20
1.0
 30
0.0
  9
$USERI1
 70
     0
  9
$USERI2
 70
     0
  9
$USERI3
 70
     0
  9
$USERI4
 70
     0
  9
$USERI5
 70
     0
  9
$USERR1
 40
0.0
  9
$USERR2
 40
0.0
  9
$USERR3
 40
0.0
  9
$USERR4
 40
0.0
  9
$USERR5
 40
0.0
  9
$WORLDVIEW
 70
     1
  9
$SHADEDGE
 70
     3
  9
$SHADEDIF
 70
    70
  9
$TILEMODE
 70
     1
  9
$MAXACTVP
 70
    48
  9
$PINSBASE
 10
0.0
 20
0.0
 30
0.0
  9
$PLIMCHECK
 70
     0
  9
$PEXTMIN
 10
4.273573370203961
 20
5.205246163471485
 30
0.0
  9
$PEXTMAX
 10
194.6100952986349
 20
283.0697008572913
 30
0.0
  9
$PLIMMIN
 10
-5.873748779296875
 20
-5.873749732971191
  9
$PLIMMAX
 10
204.0995788574218
 20
291.1369009017943
  9
$UNITMODE
 70
     0
  9
$VISRETAIN
 70
     1
  9
$PLINEGEN
 70
     0
  9
$PSLTSCALE
 70
     1
  9
$TREEDEPTH
 70
  3020
  9
$PICKSTYLE
 70
     1
  9
$CMLSTYLE
  2
STANDARD
  9
$CMLJUST
 70
     0
  9
$CMLSCALE
 40
1.0
  9
$PROXYGRAPHICS
 70
     1
  9
$MEASUREMENT
 70
     0
  0
ENDSEC
  0
SECTION
  2
CLASSES
  0
CLASS
  1
ACDBDICTIONARYWDFLT
  2
AcDbDictionaryWithDefault
  3
AutoCAD 2000
 90
        0
280
     0
281
     0
  0
CLASS
  1
ACDBPLACEHOLDER
  2
AcDbPlaceHolder
  3
AutoCAD 2000
 90
        0
280
     0
281
     0
  0
CLASS
  1
LAYOUT
  2
AcDbLayout
  3
AutoCAD 2000
 90
        0
280
     0
281
     0
  0
CLASS
  1
LONG_TRANSACTION
  2
AcDbLongTransaction
  3
AutoCAD 2000
 90
        0
280
     0
281
     0
  0
CLASS
  1
LWPOLYLINE
  2
AcDbPolyline
  3
AutoCAD 2000
 90
        0
280
     0
281
     1
  0
CLASS
  1
HATCH
  2
AcDbHatch
  3
AutoCAD 2000
 90
        0
280
     0
281
     1
  0
CLASS
  1
XRECORD
  2
AcDbXrecord
  3
AutoCAD 2000
 90
        0
280
     0
281
     0
  0
CLASS
  1
LONG_TRANSACTION
  2
AcDbLongTransaction
  3
AutoCAD 2000
 90
        0
280
     0
281
     0
  0
CLASS
  1
LWPOLYLINE
  2
AcDbPolyline
  3
AutoCAD 2000
 90
        0
280
     0
281
     1
  0
CLASS
  1
HATCH
  2
AcDbHatch
  3
AutoCAD 2000
 90
        0
280
     0
281
     1
  0
CLASS
  1
XRECORD
  2
AcDbXrecord
  3
AutoCAD 2000
 90
        0
280
     0
281
     0
  0
CLASS
  1
LONG_TRANSACTION
  2
AcDbLongTransaction
  3
AutoCAD 2000
 90
        0
280
     0
281
     0
  0
CLASS
  1
LWPOLYLINE
  2
AcDbPolyline
  3
AutoCAD 2000
 90
        0
280
     0
281
     1
  0
CLASS
  1
HATCH
  2
AcDbHatch
  3
AutoCAD 2000
 90
        0
280
     0
281
     1
  0
CLASS
  1
XRECORD
  2
AcDbXrecord
  3
AutoCAD 2000
 90
        0
280
     0
281
     0
  0
CLASS
  1
LONG_TRANSACTION
  2
AcDbLongTransaction
  3
AutoCAD 2000
 90
        0
280
     0
281
     0
  0
CLASS
  1
LWPOLYLINE
  2
AcDbPolyline
  3
AutoCAD 2000
 90
        0
280
     0
281
     1
  0
CLASS
  1
HATCH
  2
AcDbHatch
  3
AutoCAD 2000
 90
        0
280
     0
281
     1
  0
CLASS
  1
XRECORD
  2
AcDbXrecord
  3
AutoCAD 2000
 90
        0
280
     0
281
     0
  0
CLASS
  1
LONG_TRANSACTION
  2
AcDbLongTransaction
  3
AutoCAD 2000
 90
        0
280
     0
281
     0
  0
CLASS
  1
LWPOLYLINE
  2
AcDbPolyline
  3
AutoCAD 2000
 90
        0
280
     0
281
     1
  0
CLASS
  1
HATCH
  2
AcDbHatch
  3
AutoCAD 2000
 90
        0
280
     0
281
     1
  0
CLASS
  1
XRECORD
  2
AcDbXrecord
  3
AutoCAD 2000
 90
        0
280
     0
281
     0
  0
CLASS
  1
LONG_TRANSACTION
  2
AcDbLongTransaction
  3
AutoCAD 2000
 90
        0
280
     0
281
     0
  0
CLASS
  1
LWPOLYLINE
  2
AcDbPolyline
  3
AutoCAD 2000
 90
        0
280
     0
281
     1
  0
CLASS
  1
HATCH
  2
AcDbHatch
  3
AutoCAD 2000
 90
        0
280
     0
281
     1
  0
CLASS
  1
XRECORD
  2
AcDbXrecord
  3
AutoCAD 2000
 90
        0
280
     0
281
     0
  0
CLASS
  1
LONG_TRANSACTION
  2
AcDbLongTransaction
  3
AutoCAD 2000
 90
        0
280
     0
281
     0
  0
CLASS
  1
LWPOLYLINE
  2
AcDbPolyline
  3
AutoCAD 2000
 90
        0
280
     0
281
     1
  0
CLASS
  1
HATCH
  2
AcDbHatch
  3
AutoCAD 2000
 90
        0
280
     0
281
     1
  0
CLASS
  1
XRECORD
  2
AcDbXrecord
  3
AutoCAD 2000
 90
        0
280
     0
281
     0
  0
CLASS
  1
LONG_TRANSACTION
  2
AcDbLongTransaction
  3
AutoCAD 2000
 90
        0
280
     0
281
     0
  0
CLASS
  1
LWPOLYLINE
  2
AcDbPolyline
  3
AutoCAD 2000
 90
        0
280
     0
281
     1
  0
CLASS
  1
HATCH
  2
AcDbHatch
  3
AutoCAD 2000
 90
        0
280
     0
281
     1
  0
CLASS
  1
XRECORD
  2
AcDbXrecord
  3
AutoCAD 2000
 90
        0
280
     0
281
     0
  0
CLASS
  1
LONG_TRANSACTION
  2
AcDbLongTransaction
  3
AutoCAD 2000
 90
        0
280
     0
281
     0
  0
CLASS
  1
LWPOLYLINE
  2
AcDbPolyline
  3
AutoCAD 2000
 90
        0
280
     0
281
     1
  0
CLASS
  1
HATCH
  2
AcDbHatch
  3
AutoCAD 2000
 90
        0
280
     0
281
     1
  0
CLASS
  1
XRECORD
  2
AcDbXrecord
  3
AutoCAD 2000
 90
        0
280
     0
281
     0
  0
CLASS
  1
LONG_TRANSACTION
  2
AcDbLongTransaction
  3
AutoCAD 2000
 90
        0
280
     0
281
     0
  0
CLASS
  1
LWPOLYLINE
  2
AcDbPolyline
  3
AutoCAD 2000
 90
        0
280
     0
281
     1
  0
CLASS
  1
HATCH
  2
AcDbHatch
  3
AutoCAD 2000
 90
        0
280
     0
281
     1
  0
CLASS
  1
XRECORD
  2
AcDbXrecord
  3
AutoCAD 2000
 90
        0
280
     0
281
     0
  0
CLASS
  1
LONG_TRANSACTION
  2
AcDbLongTransaction
  3
AutoCAD 2000
 90
        0
280
     0
281
     0
  0
CLASS
  1
LWPOLYLINE
  2
AcDbPolyline
  3
AutoCAD 2000
 90
        0
280
     0
281
     1
  0
CLASS
  1
HATCH
  2
AcDbHatch
  3
AutoCAD 2000
 90
        0
280
     0
281
     1
  0
CLASS
  1
XRECORD
  2
AcDbXrecord
  3
AutoCAD 2000
 90
        0
280
     0
281
     0
  0
CLASS
  1
LONG_TRANSACTION
  2
AcDbLongTransaction
  3
AutoCAD 2000
 90
        0
280
     0
281
     0
  0
CLASS
  1
LWPOLYLINE
  2
AcDbPolyline
  3
AutoCAD 2000
 90
        0
280
     0
281
     1
  0
CLASS
  1
HATCH
  2
AcDbHatch
  3
AutoCAD 2000
 90
        0
280
     0
281
     1
  0
CLASS
  1
XRECORD
  2
AcDbXrecord
  3
AutoCAD 2000
 90
        0
280
     0
281
     0
  0
CLASS
  1
LONG_TRANSACTION
  2
AcDbLongTransaction
  3
AutoCAD 2000
 90
        0
280
     0
281
     0
  0
CLASS
  1
LWPOLYLINE
  2
AcDbPolyline
  3
AutoCAD 2000
 90
        0
280
     0
281
     1
  0
CLASS
  1
HATCH
  2
AcDbHatch
  3
AutoCAD 2000
 90
        0
280
     0
281
     1
  0
CLASS
  1
XRECORD
  2
AcDbXrecord
  3
AutoCAD 2000
 90
        0
280
     0
281
     0
  0
CLASS
  1
LONG_TRANSACTION
  2
AcDbLongTransaction
  3
AutoCAD 2000
 90
        0
280
     0
281
     0
  0
CLASS
  1
LWPOLYLINE
  2
AcDbPolyline
  3
AutoCAD 2000
 90
        0
280
     0
281
     1
  0
CLASS
  1
HATCH
  2
AcDbHatch
  3
AutoCAD 2000
 90
        0
280
     0
281
     1
  0
CLASS
  1
XRECORD
  2
AcDbXrecord
  3
AutoCAD 2000
 90
        0
280
     0
281
     0
  0
CLASS
  1
LONG_TRANSACTION
  2
AcDbLongTransaction
  3
AutoCAD 2000
 90
        0
280
     0
281
     0
  0
CLASS
  1
LWPOLYLINE
  2
AcDbPolyline
  3
AutoCAD 2000
 90
        0
280
     0
281
     1
  0
CLASS
  1
HATCH
  2
AcDbHatch
  3
AutoCAD 2000
 90
        0
280
     0
281
     1
  0
CLASS
  1
XRECORD
  2
AcDbXrecord
  3
AutoCAD 2000
 90
        0
280
     0
281
     0
  0
CLASS
  1
LONG_TRANSACTION
  2
AcDbLongTransaction
  3
AutoCAD 2000
 90
        0
280
     0
281
     0
  0
CLASS
  1
LWPOLYLINE
  2
AcDbPolyline
  3
AutoCAD 2000
 90
        0
280
     0
281
     1
  0
CLASS
  1
HATCH
  2
AcDbHatch
  3
AutoCAD 2000
 90
        0
280
     0
281
     1
  0
CLASS
  1
XRECORD
  2
AcDbXrecord
  3
AutoCAD 2000
 90
        0
280
     0
281
     0
  0
CLASS
  1
LONG_TRANSACTION
  2
AcDbLongTransaction
  3
AutoCAD 2000
 90
        0
280
     0
281
     0
  0
CLASS
  1
LWPOLYLINE
  2
AcDbPolyline
  3
AutoCAD 2000
 90
        0
280
     0
281
     1
  0
CLASS
  1
HATCH
  2
AcDbHatch
  3
AutoCAD 2000
 90
        0
280
     0
281
     1
  0
CLASS
  1
XRECORD
  2
AcDbXrecord
  3
AutoCAD 2000
 90
        0
280
     0
281
     0
  0
CLASS
  1
LONG_TRANSACTION
  2
AcDbLongTransaction
  3
AutoCAD 2000
 90
        0
280
     0
281
     0
  0
CLASS
  1
LWPOLYLINE
  2
AcDbPolyline
  3
AutoCAD 2000
 90
        0
280
     0
281
     1
  0
CLASS
  1
HATCH
  2
AcDbHatch
  3
AutoCAD 2000
 90
        0
280
     0
281
     1
  0
CLASS
  1
XRECORD
  2
AcDbXrecord
  3
AutoCAD 2000
 90
        0
280
     0
281
     0
  0
CLASS
  1
LONG_TRANSACTION
  2
AcDbLongTransaction
  3
AutoCAD 2000
 90
        0
280
     0
281
     0
  0
CLASS
  1
LWPOLYLINE
  2
AcDbPolyline
  3
AutoCAD 2000
 90
        0
280
     0
281
     1
  0
CLASS
  1
HATCH
  2
AcDbHatch
  3
AutoCAD 2000
 90
        0
280
     0
281
     1
  0
CLASS
  1
XRECORD
  2
AcDbXrecord
  3
AutoCAD 2000
 90
        0
280
     0
281
     0
  0
CLASS
  1
LONG_TRANSACTION
  2
AcDbLongTransaction
  3
AutoCAD 2000
 90
        0
280
     0
281
     0
  0
CLASS
  1
LWPOLYLINE
  2
AcDbPolyline
  3
AutoCAD 2000
 90
        0
280
     0
281
     1
  0
CLASS
  1
HATCH
  2
AcDbHatch
  3
AutoCAD 2000
 90
        0
280
     0
281
     1
  0
CLASS
  1
XRECORD
  2
AcDbXrecord
  3
AutoCAD 2000
 90
        0
280
     0
281
     0
  0
CLASS
  1
LONG_TRANSACTION
  2
AcDbLongTransaction
  3
AutoCAD 2000
 90
        0
280
     0
281
     0
  0
CLASS
  1
LWPOLYLINE
  2
AcDbPolyline
  3
AutoCAD 2000
 90
        0
280
     0
281
     1
  0
CLASS
  1
HATCH
  2
AcDbHatch
  3
AutoCAD 2000
 90
        0
280
     0
281
     1
  0
CLASS
  1
XRECORD
  2
AcDbXrecord
  3
AutoCAD 2000
 90
        0
280
     0
281
     0
  0
CLASS
  1
LONG_TRANSACTION
  2
AcDbLongTransaction
  3
AutoCAD 2000
 90
        0
280
     0
281
     0
  0
CLASS
  1
LWPOLYLINE
  2
AcDbPolyline
  3
AutoCAD 2000
 90
        0
280
     0
281
     1
  0
CLASS
  1
HATCH
  2
AcDbHatch
  3
AutoCAD 2000
 90
        0
280
     0
281
     1
  0
CLASS
  1
XRECORD
  2
AcDbXrecord
  3
AutoCAD 2000
 90
        0
280
     0
281
     0
  0
CLASS
  1
LONG_TRANSACTION
  2
AcDbLongTransaction
  3
AutoCAD 2000
 90
        0
280
     0
281
     0
  0
CLASS
  1
LWPOLYLINE
  2
AcDbPolyline
  3
AutoCAD 2000
 90
        0
280
     0
281
     1
  0
CLASS
  1
HATCH
  2
AcDbHatch
  3
AutoCAD 2000
 90
        0
280
     0
281
     1
  0
CLASS
  1
XRECORD
  2
AcDbXrecord
  3
AutoCAD 2000
 90
        0
280
     0
281
     0
  0
CLASS
  1
LONG_TRANSACTION
  2
AcDbLongTransaction
  3
AutoCAD 2000
 90
        0
280
     0
281
     0
  0
CLASS
  1
LWPOLYLINE
  2
AcDbPolyline
  3
AutoCAD 2000
 90
        0
280
     0
281
     1
  0
CLASS
  1
HATCH
  2
AcDbHatch
  3
AutoCAD 2000
 90
        0
280
     0
281
     1
  0
CLASS
  1
XRECORD
  2
AcDbXrecord
  3
AutoCAD 2000
 90
        0
280
     0
281
     0
  0
CLASS
  1
LONG_TRANSACTION
  2
AcDbLongTransaction
  3
AutoCAD 2000
 90
        0
280
     0
281
     0
  0
CLASS
  1
LWPOLYLINE
  2
AcDbPolyline
  3
AutoCAD 2000
 90
        0
280
     0
281
     1
  0
CLASS
  1
HATCH
  2
AcDbHatch
  3
AutoCAD 2000
 90
        0
280
     0
281
     1
  0
CLASS
  1
XRECORD
  2
AcDbXrecord
  3
AutoCAD 2000
 90
        0
280
     0
281
     0
  0
CLASS
  1
LONG_TRANSACTION
  2
AcDbLongTransaction
  3
AutoCAD 2000
 90
        0
280
     0
281
     0
  0
CLASS
  1
LWPOLYLINE
  2
AcDbPolyline
  3
AutoCAD 2000
 90
        0
280
     0
281
     1
  0
CLASS
  1
HATCH
  2
AcDbHatch
  3
AutoCAD 2000
 90
        0
280
     0
281
     1
  0
CLASS
  1
XRECORD
  2
AcDbXrecord
  3
AutoCAD 2000
 90
        0
280
     0
281
     0
  0
CLASS
  1
LONG_TRANSACTION
  2
AcDbLongTransaction
  3
AutoCAD 2000
 90
        0
280
     0
281
     0
  0
CLASS
  1
LWPOLYLINE
  2
AcDbPolyline
  3
AutoCAD 2000
 90
        0
280
     0
281
     1
  0
CLASS
  1
HATCH
  2
AcDbHatch
  3
AutoCAD 2000
 90
        0
280
     0
281
     1
  0
CLASS
  1
XRECORD
  2
AcDbXrecord
  3
AutoCAD 2000
 90
        0
280
     0
281
     0
  0
CLASS
  1
DICTIONARYVAR
  2
AcDbDictionaryVar
  3
AutoCAD 2000
 90
        0
280
     0
281
     0
  0
CLASS
  1
LONG_TRANSACTION
  2
AcDbLongTransaction
  3
AutoCAD 2000
 90
        0
280
     0
281
     0
  0
CLASS
  1
LWPOLYLINE
  2
AcDbPolyline
  3
AutoCAD 2000
 90
        0
280
     0
281
     1
  0
CLASS
  1
HATCH
  2
AcDbHatch
  3
AutoCAD 2000
 90
        0
280
     0
281
     1
  0
CLASS
  1
XRECORD
  2
AcDbXrecord
  3
AutoCAD 2000
 90
        0
280
     0
281
     0
  0
CLASS
  1
LONG_TRANSACTION
  2
AcDbLongTransaction
  3
AutoCAD 2000
 90
        0
280
     0
281
     0
  0
CLASS
  1
LWPOLYLINE
  2
AcDbPolyline
  3
AutoCAD 2000
 90
        0
280
     0
281
     1
  0
CLASS
  1
HATCH
  2
AcDbHatch
  3
AutoCAD 2000
 90
        0
280
     0
281
     1
  0
CLASS
  1
XRECORD
  2
AcDbXrecord
  3
AutoCAD 2000
 90
        0
280
     0
281
     0
  0
CLASS
  1
LONG_TRANSACTION
  2
AcDbLongTransaction
  3
AutoCAD 2000
 90
        0
280
     0
281
     0
  0
CLASS
  1
LWPOLYLINE
  2
AcDbPolyline
  3
AutoCAD 2000
 90
        0
280
     0
281
     1
  0
CLASS
  1
HATCH
  2
AcDbHatch
  3
AutoCAD 2000
 90
        0
280
     0
281
     1
  0
CLASS
  1
XRECORD
  2
AcDbXrecord
  3
AutoCAD 2000
 90
        0
280
     0
281
     0
  0
CLASS
  1
LONG_TRANSACTION
  2
AcDbLongTransaction
  3
AutoCAD 2000
 90
        0
280
     0
281
     0
  0
CLASS
  1
LWPOLYLINE
  2
AcDbPolyline
  3
AutoCAD 2000
 90
        0
280
     0
281
     1
  0
CLASS
  1
HATCH
  2
AcDbHatch
  3
AutoCAD 2000
 90
        0
280
     0
281
     1
  0
CLASS
  1
XRECORD
  2
AcDbXrecord
  3
AutoCAD 2000
 90
        0
280
     0
281
     0
  0
CLASS
  1
LONG_TRANSACTION
  2
AcDbLongTransaction
  3
AutoCAD 2000
 90
        0
280
     0
281
     0
  0
CLASS
  1
LWPOLYLINE
  2
AcDbPolyline
  3
AutoCAD 2000
 90
        0
280
     0
281
     1
  0
CLASS
  1
HATCH
  2
AcDbHatch
  3
AutoCAD 2000
 90
        0
280
     0
281
     1
  0
CLASS
  1
XRECORD
  2
AcDbXrecord
  3
AutoCAD 2000
 90
        0
280
     0
281
     0
  0
CLASS
  1
LONG_TRANSACTION
  2
AcDbLongTransaction
  3
AutoCAD 2000
 90
        0
280
     0
281
     0
  0
CLASS
  1
LWPOLYLINE
  2
AcDbPolyline
  3
AutoCAD 2000
 90
        0
280
     0
281
     1
  0
CLASS
  1
HATCH
  2
AcDbHatch
  3
AutoCAD 2000
 90
        0
280
     0
281
     1
  0
CLASS
  1
XRECORD
  2
AcDbXrecord
  3
AutoCAD 2000
 90
        0
280
     0
281
     0
  0
ENDSEC
  0
SECTION
  2
TABLES
  0
TABLE
  2
VPORT
  5
8
330
0
100
AcDbSymbolTable
 70
     2
  0
VPORT
  5
7B8E
330
8
100
AcDbSymbolTableRecord
100
AcDbViewportTableRecord
  2
*ACTIVE
 70
     0
 10
0.0
 20
0.0
 11
1.0
 21
1.0
 12
223.9755206961831
 22
-154.895691053156
 13
0.0
 23
0.0
 14
1.0
 24
1.0
 15
10.0
 25
10.0
 16
0.0
 26
0.0
 36
1.0
 17
0.0
 27
0.0
 37
0.0
 40
1329.032144376953
 41
2.152360515021459
 42
50.0
 43
0.0
 44
0.0
 50
0.0
 51
0.0
 71
     0
 72
   100
 73
     1
 74
     1
 75
     0
 76
     0
 77
     0
 78
     0
  0
ENDTAB
  0
TABLE
  2
LTYPE
  5
5
330
0
100
AcDbSymbolTable
 70
     7
  0
LTYPE
  5
13
330
5
100
AcDbSymbolTableRecord
100
AcDbLinetypeTableRecord
  2
BYBLOCK
 70
     0
  3

 72
    65
 73
     0
 40
0.0
  0
LTYPE
  5
14
330
5
100
AcDbSymbolTableRecord
100
AcDbLinetypeTableRecord
  2
BYLAYER
 70
     0
  3

 72
    65
 73
     0
 40
0.0
  0
LTYPE
  5
15
330
5
100
AcDbSymbolTableRecord
100
AcDbLinetypeTableRecord
  2
CONTINUOUS
 70
     0
  3
Solid line
 72
    65
 73
     0
 40
0.0
  0
LTYPE
  5
22
330
5
100
AcDbSymbolTableRecord
100
AcDbLinetypeTableRecord
  2
CONTINOUS
 70
     0
  3
Solid line
 72
    65
 73
     0
 40
0.0
  0
LTYPE
  5
23
330
5
100
AcDbSymbolTableRecord
100
AcDbLinetypeTableRecord
  2
DASHED
 70
     0
  3
__ __ __ __ __ __ __ __ __ __ __ __ __ __ __
 72
    65
 73
     2
 40
0.75
 49
0.5
 74
     0
 49
-0.25
 74
     0
  0
LTYPE
  5
24
330
5
100
AcDbSymbolTableRecord
100
AcDbLinetypeTableRecord
  2
DASHDOT
 70
     0
  3
__ . __ . __ . __ . __ . __ . __ . __ . __ . __
 72
    65
 73
     4
 40
1.0
 49
0.5
 74
     0
 49
-0.25
 74
     0
 49
0.0
 74
     0
 49
-0.25
 74
     0
  0
LTYPE
  5
3932
330
5
100
AcDbSymbolTableRecord
100
AcDbLinetypeTableRecord
  2
DIVIDE
 70
     0
  3
Divide ____ . . ____ . . ____ . . ____ . . ____
 72
    65
 73
     6
 40
1.25
 49
0.5
 74
     0
 49
-0.25
 74
     0
 49
0.0
 74
     0
 49
-0.25
 74
     0
 49
0.0
 74
     0
 49
-0.25
 74
     0
  0
LTYPE
  5
6875
330
5
100
AcDbSymbolTableRecord
100
AcDbLinetypeTableRecord
  2
D159
 70
     0
  3
IGESIN-LineFont-D159
 72
    65
 73
     6
 40
11.29999999999999
 49
8.0
 74
     0
 49
-0.6
 74
     0
 49
0.75
 74
     0
 49
-0.6
 74
     0
 49
0.75
 74
     0
 49
-0.6
 74
     0
  0
LTYPE
  5
6876
330
5
100
AcDbSymbolTableRecord
100
AcDbLinetypeTableRecord
  2
D1485
 70
     0
  3
IGESIN-LineFont-D1485
 72
    65
 73
     2
 40
1.35
 49
0.75
 74
     0
 49
-0.6
 74
     0
  0
ENDTAB
  0
TABLE
  2
LAYER
  5
2
330
0
100
AcDbSymbolTable
 70
    18
  0
LAYER
  5
10
330
2
100
AcDbSymbolTableRecord
100
AcDbLayerTableRecord
  2
0
 70
     0
 62
     7
  6
CONTINOUS
  0
LAYER
  5
2F
330
2
100
AcDbSymbolTableRecord
100
AcDbLayerTableRecord
  2
10
 70
     0
 62
     4
  6
CONTINOUS
  0
LAYER
  5
31
330
2
100
AcDbSymbolTableRecord
100
AcDbLayerTableRecord
  2
12
 70
     0
 62
     3
  6
CONTINOUS
  0
LAYER
  5
35
330
2
100
AcDbSymbolTableRecord
100
AcDbLayerTableRecord
  2
16
 70
     0
 62
     6
  6
DASHDOT
  0
LAYER
  5
36
330
2
100
AcDbSymbolTableRecord
100
AcDbLayerTableRecord
  2
17
 70
     0
 62
     2
  6
DASHDOT
  0
LAYER
  5
38
330
2
100
AcDbSymbolTableRecord
100
AcDbLayerTableRecord
  2
19
 70
     0
 62
     7
  6
CONTINOUS
  0
LAYER
  5
3C
330
2
100
AcDbSymbolTableRecord
100
AcDbLayerTableRecord
  2
11
 70
     0
 62
     1
  6
CONTINOUS
  0
LAYER
  5
3D
330
2
100
AcDbSymbolTableRecord
100
AcDbLayerTableRecord
  2
24
 70
     0
 62
     2
  6
CONTINOUS
  0
LAYER
  5
3A2
330
2
100
AcDbSymbolTableRecord
100
AcDbLayerTableRecord
  2
30
 70
     0
 62
     9
  6
CONTINUOUS
  0
LAYER
  5
3A4
330
2
100
AcDbSymbolTableRecord
100
AcDbLayerTableRecord
  2
DEFPOINTS
 70
     0
 62
     7
  6
CONTINUOUS
  0
LAYER
  5
3933
330
2
100
AcDbSymbolTableRecord
100
AcDbLayerTableRecord
  2
18
 70
     0
 62
     5
  6
DIVIDE
  0
LAYER
  5
4709
330
2
100
AcDbSymbolTableRecord
100
AcDbLayerTableRecord
  2
L0_
 70
     0
 62
     7
  6
CONTINUOUS
  0
LAYER
  5
470B
330
2
100
AcDbSymbolTableRecord
100
AcDbLayerTableRecord
  2
L210_
 70
     0
 62
     7
  6
CONTINUOUS
  0
LAYER
  5
6877
330
2
100
AcDbSymbolTableRecord
100
AcDbLayerTableRecord
  2
L225_
 70
     0
 62
     7
  6
CONTINUOUS
  0
LAYER
  5
6878
330
2
100
AcDbSymbolTableRecord
100
AcDbLayerTableRecord
  2
L150_
 70
     0
 62
     7
  6
CONTINUOUS
  0
LAYER
  5
6879
330
2
100
AcDbSymbolTableRecord
100
AcDbLayerTableRecord
  2
L10_
 70
     0
 62
     7
  6
CONTINUOUS
  0
LAYER
  5
687A
330
2
100
AcDbSymbolTableRecord
100
AcDbLayerTableRecord
  2
L170_
 70
     0
 62
     7
  6
CONTINUOUS
  0
LAYER
  5
687B
330
2
100
AcDbSymbolTableRecord
100
AcDbLayerTableRecord
  2
L230_
 70
     0
 62
     7
  6
CONTINUOUS
  0
ENDTAB
  0
TABLE
  2
STYLE
  5
3
330
0
100
AcDbSymbolTable
 70
     4
  0
STYLE
  5
11
330
3
100
AcDbSymbolTableRecord
100
AcDbTextStyleTableRecord
  2
STANDARD
 70
     0
 40
0.0
 41
1.0
 50
0.0
 71
     0
 42
2.0
  3
txt.shx
  4
bigfont.shx
  0
STYLE
  5
42
330
3
100
AcDbSymbolTableRecord
100
AcDbTextStyleTableRecord
  2
STANDARD1
 70
     0
 40
0.0
 41
1.0
 50
0.0
 71
     0
 42
5.0
  3
MONOTXT
  4
BIGFONT
  0
STYLE
  5
3ACF
330
3
100
AcDbSymbolTableRecord
100
AcDbTextStyleTableRecord
  2
SYMBOL3
 70
     0
 40
0.0
 41
1.0
 50
0.0
 71
     0
 42
0.2
  3
iges1003
  4

  0
STYLE
  5
687C
330
3
100
AcDbSymbolTableRecord
100
AcDbTextStyleTableRecord
  2
LEROY
 70
     0
 40
0.0
 41
1.0
 50
0.0
 71
     0
 42
0.2
  3
txt
  4

  0
ENDTAB
  0
TABLE
  2
VIEW
  5
6
330
0
100
AcDbSymbolTable
 70
     3
  0
VIEW
  5
230C
330
6
100
AcDbSymbolTableRecord
100
AcDbViewTableRecord
  2
OLE1
 70
     0
 40
148.9124878027714
 10
429.4976280407222
 20
2.560626997828478
 41
103.1458057716444
 11
0.0
 21
0.0
 31
1.0
 12
0.0
 22
0.0
 32
0.0
 42
50.0
 43
0.0
 44
0.0
 50
0.0
 71
     0
  0
VIEW
  5
230E
330
6
100
AcDbSymbolTableRecord
100
AcDbViewTableRecord
  2
OLE2
 70
     0
 40
170.7786920545775
 10
322.664969958371
 20
-5.978304054290276
 41
102.4672152327465
 11
0.0
 21
0.0
 31
1.0
 12
0.0
 22
0.0
 32
0.0
 42
50.0
 43
0.0
 44
0.0
 50
0.0
 71
     0
  0
VIEW
  5
23AA
330
6
100
AcDbSymbolTableRecord
100
AcDbViewTableRecord
  2
OLE3
 70
     0
 40
591.7897393182231
 10
84.79698158148218
 20
-46.09336010803995
 41
388.7920961799953
 11
0.0
 21
0.0
 31
1.0
 12
0.0
 22
0.0
 32
0.0
 42
50.0
 43
0.0
 44
0.0
 50
0.0
 71
     0
  0
ENDTAB
  0
TABLE
  2
UCS
  5
7
330
0
100
AcDbSymbolTable
 70
     0
  0
ENDTAB
  0
TABLE
  2
APPID
  5
9
330
0
100
AcDbSymbolTable
 70
     2
  0
APPID
  5
12
330
9
100
AcDbSymbolTableRecord
100
AcDbRegAppTableRecord
  2
ACAD
 70
     0
  0
APPID
  5
ECD
330
9
100
AcDbSymbolTableRecord
100
AcDbRegAppTableRecord
  2
CONTENTBLOCKICON
 70
     0
  0
ENDTAB
  0
TABLE
  2
DIMSTYLE
  5
A
330
0
100
AcDbSymbolTable
 70
     1
  0
DIMSTYLE
105
175
102
{ACAD_REACTORS
330
6C95
330
6CA2
330
6CAF
330
6CBC
330
6CC9
330
6CD6
330
6CE3
330
6CF0
330
6F16
330
6F52
330
6F5F
330
6F6C
330
6F79
330
6F86
330
6FAD
330
6FBA
330
6FC7
330
6FE1
330
6ED6
330
73CB
330
77FF
330
7802
330
7808
330
7817
330
77C4
330
77C5
330
77C6
330
77C7
330
77C8
330
77D2
330
77D5
330
77DF
330
77E0
330
7B81
102
}
330
A
100
AcDbSymbolTableRecord
100
AcDbDimStyleTableRecord
  2
STANDARD
 70
     0
  3

  4

  5
OPEN
  6

  7

 40
1.0
 41
2.0
 42
1.0
 43
0.5
 44
0.5
 45
0.0
 46
0.0
 47
0.0
 48
0.0
140
7.0
141
0.09
142
0.0
143
25.4
144
1.0
145
0.0
146
1.0
147
1.0
 71
     0
 72
     0
 73
     0
 74
     1
 75
     0
 76
     0
 77
     3
 78
    12
170
     0
171
     2
172
     0
173
     0
174
     0
175
     0
176
     0
177
     0
178
     0
270
     2
271
     1
272
     1
273
     2
274
     2
340
11
275
     0
280
     0
281
     0
282
     0
283
     1
284
     0
285
     0
286
     0
287
     3
288
     0
  0
ENDTAB
  0
TABLE
  2
BLOCK_RECORD
  5
1
330
0
100
AcDbSymbolTable
 70
    70
  0
BLOCK_RECORD
  5
1E
102
{ACAD_XDICTIONARY
360
178
102
}
330
1
100
AcDbSymbolTableRecord
100
AcDbBlockTableRecord
  2
*MODEL_SPACE
  0
BLOCK_RECORD
  5
1A
102
{ACAD_XDICTIONARY
360
17A
102
}
330
1
100
AcDbSymbolTableRecord
100
AcDbBlockTableRecord
  2
*PAPER_SPACE
  0
BLOCK_RECORD
  5
3B2
330
1
100
AcDbSymbolTableRecord
100
AcDbBlockTableRecord
  2
_OPEN
  0
BLOCK_RECORD
  5
46F7
330
1
100
AcDbSymbolTableRecord
100
AcDbBlockTableRecord
  2
B837
  0
BLOCK_RECORD
  5
6816
330
1
100
AcDbSymbolTableRecord
100
AcDbBlockTableRecord
  2
B2837
  0
BLOCK_RECORD
  5
681B
330
1
100
AcDbSymbolTableRecord
100
AcDbBlockTableRecord
  2
*D3
  0
BLOCK_RECORD
  5
6823
330
1
100
AcDbSymbolTableRecord
100
AcDbBlockTableRecord
  2
B2841
  0
BLOCK_RECORD
  5
6857
330
1
100
AcDbSymbolTableRecord
100
AcDbBlockTableRecord
  2
B4515
  0
BLOCK_RECORD
  5
685C
330
1
100
AcDbSymbolTableRecord
100
AcDbBlockTableRecord
  2
B4517
  0
BLOCK_RECORD
  5
6861
330
1
100
AcDbSymbolTableRecord
100
AcDbBlockTableRecord
  2
B4521
  0
BLOCK_RECORD
  5
6866
330
1
100
AcDbSymbolTableRecord
100
AcDbBlockTableRecord
  2
B4523
  0
BLOCK_RECORD
  5
686B
330
1
100
AcDbSymbolTableRecord
100
AcDbBlockTableRecord
  2
B4527
  0
BLOCK_RECORD
  5
6870
330
1
100
AcDbSymbolTableRecord
100
AcDbBlockTableRecord
  2
B4529
  0
BLOCK_RECORD
  5
6C96
330
1
100
AcDbSymbolTableRecord
100
AcDbBlockTableRecord
  2
*D11
  0
BLOCK_RECORD
  5
6CA3
330
1
100
AcDbSymbolTableRecord
100
AcDbBlockTableRecord
  2
*D12
  0
BLOCK_RECORD
  5
6CB0
330
1
100
AcDbSymbolTableRecord
100
AcDbBlockTableRecord
  2
*D13
  0
BLOCK_RECORD
  5
6CBD
330
1
100
AcDbSymbolTableRecord
100
AcDbBlockTableRecord
  2
*D14
  0
BLOCK_RECORD
  5
6CCA
330
1
100
AcDbSymbolTableRecord
100
AcDbBlockTableRecord
  2
*D15
  0
BLOCK_RECORD
  5
6CD7
330
1
100
AcDbSymbolTableRecord
100
AcDbBlockTableRecord
  2
*D16
  0
BLOCK_RECORD
  5
6CE4
330
1
100
AcDbSymbolTableRecord
100
AcDbBlockTableRecord
  2
*D17
  0
BLOCK_RECORD
  5
6CF1
330
1
100
AcDbSymbolTableRecord
100
AcDbBlockTableRecord
  2
*D18
  0
BLOCK_RECORD
  5
6D16
330
1
100
AcDbSymbolTableRecord
100
AcDbBlockTableRecord
  2
*D19
  0
BLOCK_RECORD
  5
6F17
330
1
100
AcDbSymbolTableRecord
100
AcDbBlockTableRecord
  2
*D20
  0
BLOCK_RECORD
  5
6F53
330
1
100
AcDbSymbolTableRecord
100
AcDbBlockTableRecord
  2
*D21
  0
BLOCK_RECORD
  5
6F60
330
1
100
AcDbSymbolTableRecord
100
AcDbBlockTableRecord
  2
*D22
  0
BLOCK_RECORD
  5
6F6D
330
1
100
AcDbSymbolTableRecord
100
AcDbBlockTableRecord
  2
*D23
  0
BLOCK_RECORD
  5
6F7A
330
1
100
AcDbSymbolTableRecord
100
AcDbBlockTableRecord
  2
*D24
  0
BLOCK_RECORD
  5
6F87
330
1
100
AcDbSymbolTableRecord
100
AcDbBlockTableRecord
  2
*D25
  0
BLOCK_RECORD
  5
6FAE
330
1
100
AcDbSymbolTableRecord
100
AcDbBlockTableRecord
  2
*D26
  0
BLOCK_RECORD
  5
6FBB
330
1
100
AcDbSymbolTableRecord
100
AcDbBlockTableRecord
  2
*D27
  0
BLOCK_RECORD
  5
6FC8
330
1
100
AcDbSymbolTableRecord
100
AcDbBlockTableRecord
  2
*D28
  0
BLOCK_RECORD
  5
6FE2
330
1
100
AcDbSymbolTableRecord
100
AcDbBlockTableRecord
  2
*D29
  0
BLOCK_RECORD
  5
73D2
330
1
100
AcDbSymbolTableRecord
100
AcDbBlockTableRecord
  2
*D30
  0
BLOCK_RECORD
  5
752B
330
1
100
AcDbSymbolTableRecord
100
AcDbBlockTableRecord
  2
*D31
  0
BLOCK_RECORD
  5
7537
330
1
100
AcDbSymbolTableRecord
100
AcDbBlockTableRecord
  2
*D32
  0
BLOCK_RECORD
  5
7543
330
1
100
AcDbSymbolTableRecord
100
AcDbBlockTableRecord
  2
*D33
  0
BLOCK_RECORD
  5
754F
330
1
100
AcDbSymbolTableRecord
100
AcDbBlockTableRecord
  2
*D34
  0
BLOCK_RECORD
  5
755B
330
1
100
AcDbSymbolTableRecord
100
AcDbBlockTableRecord
  2
*D35
  0
BLOCK_RECORD
  5
7567
330
1
100
AcDbSymbolTableRecord
100
AcDbBlockTableRecord
  2
*D36
  0
BLOCK_RECORD
  5
7573
330
1
100
AcDbSymbolTableRecord
100
AcDbBlockTableRecord
  2
*D37
  0
BLOCK_RECORD
  5
757F
330
1
100
AcDbSymbolTableRecord
100
AcDbBlockTableRecord
  2
*D38
  0
BLOCK_RECORD
  5
758B
330
1
100
AcDbSymbolTableRecord
100
AcDbBlockTableRecord
  2
*D39
  0
BLOCK_RECORD
  5
7597
330
1
100
AcDbSymbolTableRecord
100
AcDbBlockTableRecord
  2
*D40
  0
BLOCK_RECORD
  5
75A3
330
1
100
AcDbSymbolTableRecord
100
AcDbBlockTableRecord
  2
*D41
  0
BLOCK_RECORD
  5
75AF
330
1
100
AcDbSymbolTableRecord
100
AcDbBlockTableRecord
  2
*D42
  0
BLOCK_RECORD
  5
76CE
330
1
100
AcDbSymbolTableRecord
100
AcDbBlockTableRecord
  2
*D43
  0
BLOCK_RECORD
  5
76DA
330
1
100
AcDbSymbolTableRecord
100
AcDbBlockTableRecord
  2
*D44
  0
BLOCK_RECORD
  5
76E6
330
1
100
AcDbSymbolTableRecord
100
AcDbBlockTableRecord
  2
*D45
  0
BLOCK_RECORD
  5
76F2
330
1
100
AcDbSymbolTableRecord
100
AcDbBlockTableRecord
  2
*D46
  0
BLOCK_RECORD
  5
76FE
330
1
100
AcDbSymbolTableRecord
100
AcDbBlockTableRecord
  2
*D47
  0
BLOCK_RECORD
  5
770A
330
1
100
AcDbSymbolTableRecord
100
AcDbBlockTableRecord
  2
*D48
  0
BLOCK_RECORD
  5
7716
330
1
100
AcDbSymbolTableRecord
100
AcDbBlockTableRecord
  2
*D49
  0
BLOCK_RECORD
  5
7722
330
1
100
AcDbSymbolTableRecord
100
AcDbBlockTableRecord
  2
*D50
  0
BLOCK_RECORD
  5
772E
330
1
100
AcDbSymbolTableRecord
100
AcDbBlockTableRecord
  2
*D51
  0
BLOCK_RECORD
  5
773A
330
1
100
AcDbSymbolTableRecord
100
AcDbBlockTableRecord
  2
*D52
  0
BLOCK_RECORD
  5
7746
330
1
100
AcDbSymbolTableRecord
100
AcDbBlockTableRecord
  2
*D53
  0
BLOCK_RECORD
  5
7752
330
1
100
AcDbSymbolTableRecord
100
AcDbBlockTableRecord
  2
*D54
  0
BLOCK_RECORD
  5
775E
330
1
100
AcDbSymbolTableRecord
100
AcDbBlockTableRecord
  2
*D55
  0
BLOCK_RECORD
  5
781A
330
1
100
AcDbSymbolTableRecord
100
AcDbBlockTableRecord
  2
*D56
  0
BLOCK_RECORD
  5
7826
330
1
100
AcDbSymbolTableRecord
100
AcDbBlockTableRecord
  2
*D57
  0
BLOCK_RECORD
  5
7832
330
1
100
AcDbSymbolTableRecord
100
AcDbBlockTableRecord
  2
*D58
  0
BLOCK_RECORD
  5
783E
330
1
100
AcDbSymbolTableRecord
100
AcDbBlockTableRecord
  2
*D59
  0
BLOCK_RECORD
  5
784A
330
1
100
AcDbSymbolTableRecord
100
AcDbBlockTableRecord
  2
*D60
  0
BLOCK_RECORD
  5
7856
330
1
100
AcDbSymbolTableRecord
100
AcDbBlockTableRecord
  2
*D61
  0
BLOCK_RECORD
  5
7862
330
1
100
AcDbSymbolTableRecord
100
AcDbBlockTableRecord
  2
*D62
  0
BLOCK_RECORD
  5
786E
330
1
100
AcDbSymbolTableRecord
100
AcDbBlockTableRecord
  2
*D63
  0
BLOCK_RECORD
  5
787A
330
1
100
AcDbSymbolTableRecord
100
AcDbBlockTableRecord
  2
*D64
  0
BLOCK_RECORD
  5
7886
330
1
100
AcDbSymbolTableRecord
100
AcDbBlockTableRecord
  2
*D65
  0
BLOCK_RECORD
  5
7892
330
1
100
AcDbSymbolTableRecord
100
AcDbBlockTableRecord
  2
*D66
  0
BLOCK_RECORD
  5
789E
330
1
100
AcDbSymbolTableRecord
100
AcDbBlockTableRecord
  2
*D67
  0
BLOCK_RECORD
  5
78AA
330
1
100
AcDbSymbolTableRecord
100
AcDbBlockTableRecord
  2
*D68
  0
BLOCK_RECORD
  5
7B82
330
1
100
AcDbSymbolTableRecord
100
AcDbBlockTableRecord
  2
*D69
  0
ENDTAB
  0
ENDSEC
  0
SECTION
  2
BLOCKS
  0
BLOCK
  5
1F
330
1E
100
AcDbEntity
  8
0
100
AcDbBlockBegin
  2
*MODEL_SPACE
 70
     0
 10
0.0
 20
0.0
 30
0.0
  3
*MODEL_SPACE
  1

  0
ENDBLK
  5
20
330
1E
100
AcDbEntity
  8
0
100
AcDbBlockEnd
  0
BLOCK
  5
1B
330
1A
100
AcDbEntity
 67
     1
  8
0
100
AcDbBlockBegin
  2
*PAPER_SPACE
 70
     0
 10
0.0
 20
0.0
 30
0.0
  3
*PAPER_SPACE
  1

  0
ENDBLK
  5
1C
330
1A
100
AcDbEntity
 67
     1
  8
0
100
AcDbBlockEnd
  0
BLOCK
  5
3B6
330
3B2
100
AcDbEntity
  8
0
100
AcDbBlockBegin
  2
_OPEN
 70
     0
 10
0.0
 20
0.0
 30
0.0
  3
_OPEN
  1

  0
LINE
  5
3B3
330
3B2
100
AcDbEntity
  8
30
  6
CONTINUOUS
 62
     0
100
AcDbLine
 10
-1.0
 20
0.1666666666666666
 30
0.0
 11
0.0
 21
0.0
 31
0.0
  0
LINE
  5
3B4
330
3B2
100
AcDbEntity
  8
30
  6
CONTINUOUS
 62
     0
100
AcDbLine
 10
-1.0
 20
-0.1666666666666666
 30
0.0
 11
0.0
 21
0.0
 31
0.0
  0
LINE
  5
3B5
330
3B2
100
AcDbEntity
  8
30
  6
CONTINUOUS
 62
     0
100
AcDbLine
 10
0.0
 20
0.0
 30
0.0
 11
-1.0
 21
0.0
 31
0.0
  0
ENDBLK
  5
3B7
330
3B2
100
AcDbEntity
  8
0
100
AcDbBlockEnd
  0
BLOCK
  5
46FA
330
46F7
100
AcDbEntity
  8
L0_
  6
CONTINUOUS
100
AcDbBlockBegin
  2
B837
 70
     0
 10
0.0
 20
0.0
 30
0.0
  3
B837
  1

  0
TEXT
  5
46F8
330
46F7
100
AcDbEntity
  8
L0_
  6
CONTINUOUS
100
AcDbText
 10
1984.080078125
 20
1307.4332275391
 30
0.0
 40
12.0
  1
n
 41
2.863636363636363
  7
SYMBOL3
 72
     5
 11
2002.080078125
 21
1307.4332275391
 31
0.0
100
AcDbText
 73
     2
  0
TEXT
  5
46F9
330
46F7
100
AcDbEntity
  8
L0_
  6
CONTINUOUS
100
AcDbText
 10
2002.080078125
 20
1307.4332275391
 30
0.0
 40
12.0
  1
11
 41
1.399999999999996
  7
SYMBOL3
 72
     5
 11
2018.880078125
 21
1307.4332275391
 31
0.0
100
AcDbText
 73
     2
  0
ENDBLK
  5
46FB
330
46F7
100
AcDbEntity
  8
L0_
  6
CONTINUOUS
100
AcDbBlockEnd
  0
BLOCK
  5
6819
330
6816
100
AcDbEntity
  8
L0_
  6
CONTINUOUS
100
AcDbBlockBegin
  2
B2837
 70
     0
 10
0.0
 20
0.0
 30
0.0
  3
B2837
  1

  0
TEXT
  5
6817
330
6816
100
AcDbEntity
  8
L0_
  6
CONTINUOUS
100
AcDbText
 10
2509.9870605469
 20
3096.0744628906
 30
0.0
 40
15.0
  1
n
 41
2.863636363636363
  7
SYMBOL3
 72
     5
 11
2532.4870605469
 21
3096.0744628906
 31
0.0
100
AcDbText
 73
     2
  0
TEXT
  5
6818
330
6816
100
AcDbEntity
  8
L0_
  6
CONTINUOUS
100
AcDbText
 10
2532.4870605469
 20
3096.0744628906
 30
0.0
 40
15.0
  1
9
 41
1.776923076923076
  7
SYMBOL3
 72
     5
 11
2548.9870605469
 21
3096.0744628906
 31
0.0
100
AcDbText
 73
     2
  0
ENDBLK
  5
681A
330
6816
100
AcDbEntity
  8
L0_
  6
CONTINUOUS
100
AcDbBlockEnd
  0
BLOCK
  5
6821
330
681B
100
AcDbEntity
  8
0
100
AcDbBlockBegin
  2
*D3
 70
     1
 10
0.0
 20
0.0
 30
0.0
  3
*D3
  1

  0
LINE
  5
681C
330
681B
100
AcDbEntity
  8
0
  6
BYBLOCK
100
AcDbLine
 10
2611.11303831454
 20
3175.571385345142
 30
0.0
 11
2562.968452781273
 21
3086.783914434755
 31
0.0
  0
LINE
  5
681D
330
681B
100
AcDbEntity
  8
0
  6
BYBLOCK
100
AcDbLine
 10
2562.968452781273
 20
3086.783914434755
 30
0.0
 11
2562.878452781272
 21
3086.783914434755
 31
0.0
  0
SOLID
  5
681E
330
681B
100
AcDbEntity
  8
0
  6
BYBLOCK
100
AcDbTrace
 10
2613.310735483583
 20
3174.379694465264
 30
0.0
 11
2608.915341145497
 21
3176.763076225018
 31
0.0
 12
2618.263183593799
 22
3188.757568359398
 32
0.0
 13
2618.263183593799
 23
3188.757568359398
 33
0.0
  0
POINT
  5
681F
330
681B
100
AcDbEntity
  8
DEFPOINTS
  6
BYBLOCK
 62
     0
100
AcDbPoint
 10
2618.263183593799
 20
3188.757568359398
 30
0.0
  0
POINT
  5
6820
330
681B
100
AcDbEntity
  8
DEFPOINTS
  6
BYBLOCK
 62
     0
100
AcDbPoint
 10
2622.553222656199
 20
3196.669189453198
 30
0.0
  0
ENDBLK
  5
6822
330
681B
100
AcDbEntity
  8
0
100
AcDbBlockEnd
  0
BLOCK
  5
6826
330
6823
100
AcDbEntity
  8
L210_
100
AcDbBlockBegin
  2
B2841
 70
     0
 10
0.0
 20
0.0
 30
0.0
  3
B2841
  1

  0
DIMENSION
  5
6824
330
6823
100
AcDbEntity
  8
L210_
100
AcDbDimension
  2
*D3
 10
2622.5532226562
 20
3196.6691894532
 30
0.0
 11
2658.4084472656
 21
3652.5883789063
 31
0.0
 70
     3
  1
 
100
AcDbDiametricDimension
 15
2618.263183593799
 25
3188.757568359398
 35
0.0
 40
116.0005747846635
  0
INSERT
  5
6825
330
6823
100
AcDbEntity
  8
L0_
  6
CONTINUOUS
100
AcDbBlockReference
  2
B2837
 10
0.0
 20
0.0
 30
0.0
  0
ENDBLK
  5
6827
330
6823
100
AcDbEntity
  8
L210_
100
AcDbBlockEnd
  0
BLOCK
  5
685A
330
6857
100
AcDbEntity
  8
L0_
  6
CONTINUOUS
100
AcDbBlockBegin
  2
B4515
 70
     0
 10
0.0
 20
0.0
 30
0.0
  3
B4515
  1

  0
LWPOLYLINE
  5
6858
330
6857
100
AcDbEntity
  8
L0_
  6
CONTINUOUS
100
AcDbPolyline
 90
        3
 70
     0
 43
0.0
 10
2080.641894800232
 20
3577.752173191962
 10
2070.6984863281
 20
3566.2465820313
 10
2083.835956340333
 20
3573.905360111234
  0
LWPOLYLINE
  5
6859
330
6857
100
AcDbEntity
  8
L0_
  6
CONTINUOUS
100
AcDbPolyline
 90
        4
 70
     0
 43
0.0
 10
2070.6984863281
 20
3566.2465820313
 10
2156.6696777344
 20
3637.629638671898
 10
2157.9443359375
 20
3637.629638671898
 10
2274.694335937499
 20
3637.629638671898
  0
ENDBLK
  5
685B
330
6857
100
AcDbEntity
  8
L0_
  6
CONTINUOUS
100
AcDbBlockEnd
  0
BLOCK
  5
685F
330
685C
100
AcDbEntity
  8
L230_
  6
CONTINUOUS
 62
     6
100
AcDbBlockBegin
  2
B4517
 70
     0
 10
0.0
 20
0.0
 30
0.0
  3
B4517
  1

  0
INSERT
  5
685D
330
685C
100
AcDbEntity
  8
L0_
  6
CONTINUOUS
100
AcDbBlockReference
  2
B4515
 10
0.0
 20
0.0
 30
0.0
  0
TEXT
  5
685E
330
685C
100
AcDbEntity
  8
L0_
  6
CONTINUOUS
100
AcDbText
 10
2167.3193359375
 20
3647.0046386719
 30
0.0
 40
15.0
  1
Insulator
 41
0.8893617021276597
  7
LEROY
 72
     5
 11
2271.8193359375
 21
3647.0046386719
 31
0.0
100
AcDbText
 73
     2
  0
ENDBLK
  5
6860
330
685C
100
AcDbEntity
  8
L230_
  6
CONTINUOUS
 62
     6
100
AcDbBlockEnd
  0
BLOCK
  5
6864
330
6861
100
AcDbEntity
  8
L0_
  6
CONTINUOUS
100
AcDbBlockBegin
  2
B4521
 70
     0
 10
0.0
 20
0.0
 30
0.0
  3
B4521
  1

  0
LWPOLYLINE
  5
6862
330
6861
100
AcDbEntity
  8
L0_
  6
CONTINUOUS
100
AcDbPolyline
 90
        3
 70
     0
 43
0.0
 10
2097.900399026018
 20
3515.880252433286
 10
2088.698486328099
 20
3527.9870605469
 10
2093.476465978473
 20
3513.550270375236
  0
LWPOLYLINE
  5
6863
330
6861
100
AcDbEntity
  8
L0_
  6
CONTINUOUS
100
AcDbPolyline
 90
        4
 70
     0
 43
0.0
 10
2088.698486328099
 20
3527.9870605469
 10
2130.16796875
 20
3449.249023437499
 10
2131.099853515599
 20
3449.249023437499
 10
2373.3498535156
 20
3449.249023437499
  0
ENDBLK
  5
6865
330
6861
100
AcDbEntity
  8
L0_
  6
CONTINUOUS
100
AcDbBlockEnd
  0
BLOCK
  5
6869
330
6866
100
AcDbEntity
  8
L230_
  6
CONTINUOUS
 62
     6
100
AcDbBlockBegin
  2
B4523
 70
     0
 10
0.0
 20
0.0
 30
0.0
  3
B4523
  1

  0
INSERT
  5
6867
330
6866
100
AcDbEntity
  8
L0_
  6
CONTINUOUS
100
AcDbBlockReference
  2
B4521
 10
0.0
 20
0.0
 30
0.0
  0
TEXT
  5
6868
330
6866
100
AcDbEntity
  8
L0_
  6
CONTINUOUS
100
AcDbText
 10
2140.4748535156
 20
3458.624023437499
 30
0.0
 40
15.0
  1
M8 mounting screw
 41
0.953124999999996
  7
LEROY
 72
     5
 11
2369.224853515599
 21
3458.624023437499
 31
0.0
100
AcDbText
 73
     2
  0
ENDBLK
  5
686A
330
6866
100
AcDbEntity
  8
L230_
  6
CONTINUOUS
 62
     6
100
AcDbBlockEnd
  0
BLOCK
  5
686E
330
686B
100
AcDbEntity
  8
L0_
  6
CONTINUOUS
100
AcDbBlockBegin
  2
B4527
 70
     0
 10
0.0
 20
0.0
 30
0.0
  3
B4527
  1

  0
LWPOLYLINE
  5
686C
330
686B
100
AcDbEntity
  8
L0_
  6
CONTINUOUS
100
AcDbPolyline
 90
        3
 70
     0
 43
0.0
 10
2103.226365324067
 20
3186.096922203727
 10
2088.698486328099
 20
3190.5903320313
 10
2100.983752461289
 20
3181.628064682201
  0
LWPOLYLINE
  5
686D
330
686B
100
AcDbEntity
  8
L0_
  6
CONTINUOUS
100
AcDbPolyline
 90
        4
 70
     0
 43
0.0
 10
2088.698486328099
 20
3190.5903320313
 10
2224.342285156299
 20
3122.5200195313
 10
2225.397705078099
 20
3122.5200195313
 10
2467.6477050781
 20
3122.5200195313
  0
ENDBLK
  5
686F
330
686B
100
AcDbEntity
  8
L0_
  6
CONTINUOUS
100
AcDbBlockEnd
  0
BLOCK
  5
6873
330
6870
100
AcDbEntity
  8
L230_
  6
CONTINUOUS
 62
     6
100
AcDbBlockBegin
  2
B4529
 70
     0
 10
0.0
 20
0.0
 30
0.0
  3
B4529
  1

  0
INSERT
  5
6871
330
6870
100
AcDbEntity
  8
L0_
  6
CONTINUOUS
100
AcDbBlockReference
  2
B4527
 10
0.0
 20
0.0
 30
0.0
  0
TEXT
  5
6872
330
6870
100
AcDbEntity
  8
L0_
  6
CONTINUOUS
100
AcDbText
 10
2234.772705078099
 20
3131.8950195313
 30
0.0
 40
15.0
  1
M8 mounting screw
 41
0.9531250000000037
  7
LEROY
 72
     5
 11
2463.5227050781
 21
3131.8950195313
 31
0.0
100
AcDbText
 73
     2
  0
ENDBLK
  5
6874
330
6870
100
AcDbEntity
  8
L230_
  6
CONTINUOUS
 62
     6
100
AcDbBlockEnd
  0
BLOCK
  5
6CA0
330
6C96
100
AcDbEntity
  8
0
100
AcDbBlockBegin
  2
*D11
 70
     1
 10
0.0
 20
0.0
 30
0.0
  3
*D11
  1

  0
LINE
  5
73B9
330
6C96
100
AcDbEntity
  8
30
  6
CONTINUOUS
 62
     0
100
AcDbLine
 10
117.49993896485
 20
-271.0
 30
0.0
 11
117.49993896485
 21
-306.0330128661743
 31
0.0
  0
LINE
  5
73BA
330
6C96
100
AcDbEntity
  8
30
  6
CONTINUOUS
 62
     0
100
AcDbLine
 10
162.4998168945298
 20
-271.0
 30
0.0
 11
162.4998168945298
 21
-306.0330128661743
 31
0.0
  0
LINE
  5
73BB
330
6C96
100
AcDbEntity
  8
30
  6
CONTINUOUS
 62
     0
100
AcDbLine
 10
119.49993896485
 20
-305.5330128661744
 30
0.0
 11
160.4998168945298
 21
-305.5330128661744
 31
0.0
  0
INSERT
  5
73BC
330
6C96
100
AcDbEntity
  8
30
  6
CONTINUOUS
 62
     0
100
AcDbBlockReference
  2
_OPEN
 10
117.49993896485
 20
-305.5330128661744
 30
0.0
 41
2.0
 42
2.0
 43
2.0
 50
180.0
  0
INSERT
  5
73BD
330
6C96
100
AcDbEntity
  8
30
  6
CONTINUOUS
 62
     0
100
AcDbBlockReference
  2
_OPEN
 10
162.4998168945298
 20
-305.5330128661744
 30
0.0
 41
2.0
 42
2.0
 43
2.0
  0
MTEXT
  5
73BE
330
6C96
100
AcDbEntity
  8
30
  6
CONTINUOUS
 62
     0
100
AcDbMText
 10
139.9998779296899
 20
-301.0330128661743
 30
0.0
 40
7.0
 41
0.0
 71
     5
 72
     1
  1
\A1;45
1001
ACAD
1000
MTEXTBEGIN
1070
    73
1070
     1
1070
    44
1040
1.0
1070
    74
1070
     0
1000
MTEXTEND
1000
MTEXTBEGIN
1070
    73
1070
     1
1070
    44
1040
1.0
1070
    74
1070
     0
1000
MTEXTEND
1000
MTEXTBEGIN
1070
    73
1070
     1
1070
    44
1040
1.0
1070
    74
1070
     0
1000
MTEXTEND
1000
MTEXTBEGIN
1070
    73
1070
     1
1070
    44
1040
1.0
1070
    74
1070
     0
1000
MTEXTEND
  0
POINT
  5
73BF
330
6C96
100
AcDbEntity
  8
DEFPOINTS
  6
CONTINUOUS
 62
     0
100
AcDbPoint
 10
117.49993896485
 20
-270.0
 30
0.0
  0
POINT
  5
73C0
330
6C96
100
AcDbEntity
  8
DEFPOINTS
  6
CONTINUOUS
 62
     0
100
AcDbPoint
 10
162.4998168945298
 20
-270.0
 30
0.0
  0
POINT
  5
73C1
330
6C96
100
AcDbEntity
  8
DEFPOINTS
  6
CONTINUOUS
 62
     0
100
AcDbPoint
 10
162.4998168945298
 20
-305.5330128661744
 30
0.0
  0
ENDBLK
  5
6CA1
330
6C96
100
AcDbEntity
  8
0
100
AcDbBlockEnd
  0
BLOCK
  5
6CAD
330
6CA3
100
AcDbEntity
  8
0
100
AcDbBlockBegin
  2
*D12
 70
     1
 10
0.0
 20
0.0
 30
0.0
  3
*D12
  1

  0
LINE
  5
719D
330
6CA3
100
AcDbEntity
  8
30
  6
CONTINUOUS
 62
     0
100
AcDbLine
 10
-69.99987792967989
 20
-290.9890136718999
 30
0.0
 11
-69.99987792967989
 21
-318.9852668063658
 31
0.0
  0
LINE
  5
719E
330
6CA3
100
AcDbEntity
  8
30
  6
CONTINUOUS
 62
     0
100
AcDbLine
 10
0.0000610351701197
 20
-290.9890136718999
 30
0.0
 11
0.000061035170118
 21
-318.9852668063658
 31
0.0
  0
LINE
  5
719F
330
6CA3
100
AcDbEntity
  8
30
  6
CONTINUOUS
 62
     0
100
AcDbLine
 10
-67.99987792967988
 20
-318.4852668063658
 30
0.0
 11
-1.99993896482988
 21
-318.4852668063658
 31
0.0
  0
INSERT
  5
71A0
330
6CA3
100
AcDbEntity
  8
30
  6
CONTINUOUS
 62
     0
100
AcDbBlockReference
  2
_OPEN
 10
-69.99987792967989
 20
-318.4852668063658
 30
0.0
 41
2.0
 42
2.0
 43
2.0
 50
180.0
  0
INSERT
  5
71A1
330
6CA3
100
AcDbEntity
  8
30
  6
CONTINUOUS
 62
     0
100
AcDbBlockReference
  2
_OPEN
 10
0.000061035170118
 20
-318.4852668063658
 30
0.0
 41
2.0
 42
2.0
 43
2.0
  0
MTEXT
  5
71A2
330
6CA3
100
AcDbEntity
  8
30
  6
CONTINUOUS
 62
     0
100
AcDbMText
 10
-34.99990844725487
 20
-313.9852668063658
 30
0.0
 40
7.0
 41
0.0
 71
     5
 72
     1
  1
\A1;70
1001
ACAD
1000
MTEXTBEGIN
1070
    73
1070
     1
1070
    44
1040
1.0
1070
    74
1070
     0
1000
MTEXTEND
1000
MTEXTBEGIN
1070
    73
1070
     1
1070
    44
1040
1.0
1070
    74
1070
     0
1000
MTEXTEND
1000
MTEXTBEGIN
1070
    73
1070
     1
1070
    44
1040
1.0
1070
    74
1070
     0
1000
MTEXTEND
1000
MTEXTBEGIN
1070
    73
1070
     1
1070
    44
1040
1.0
1070
    74
1070
     0
1000
MTEXTEND
  0
POINT
  5
71A3
330
6CA3
100
AcDbEntity
  8
DEFPOINTS
  6
CONTINUOUS
 62
     0
100
AcDbPoint
 10
-69.99987792967989
 20
-289.9890136719
 30
0.0
  0
POINT
  5
71A4
330
6CA3
100
AcDbEntity
  8
DEFPOINTS
  6
CONTINUOUS
 62
     0
100
AcDbPoint
 10
0.0000610351701198
 20
-289.9890136719
 30
0.0
  0
POINT
  5
71A5
330
6CA3
100
AcDbEntity
  8
DEFPOINTS
  6
CONTINUOUS
 62
     0
100
AcDbPoint
 10
0.000061035170118
 20
-318.4852668063658
 30
0.0
  0
ENDBLK
  5
6CAE
330
6CA3
100
AcDbEntity
  8
0
100
AcDbBlockEnd
  0
BLOCK
  5
6CBA
330
6CB0
100
AcDbEntity
  8
0
100
AcDbBlockBegin
  2
*D13
 70
     1
 10
0.0
 20
0.0
 30
0.0
  3
*D13
  1

  0
LINE
  5
7BB2
330
6CB0
100
AcDbEntity
  8
30
  6
CONTINUOUS
 62
     0
100
AcDbLine
 10
0.0000610351701197
 20
-290.9890136718999
 30
0.0
 11
0.000061035170118
 21
-318.9852668063658
 31
0.0
  0
LINE
  5
7BB3
330
6CB0
100
AcDbEntity
  8
30
  6
CONTINUOUS
 62
     0
100
AcDbLine
 10
69.99993896485
 20
-290.9890136718999
 30
0.0
 11
69.99993896485
 21
-318.9852668063658
 31
0.0
  0
LINE
  5
7BB4
330
6CB0
100
AcDbEntity
  8
30
  6
CONTINUOUS
 62
     0
100
AcDbLine
 10
2.000061035170118
 20
-318.4852668063658
 30
0.0
 11
67.99993896485
 21
-318.4852668063658
 31
0.0
  0
INSERT
  5
7BB5
330
6CB0
100
AcDbEntity
  8
30
  6
CONTINUOUS
 62
     0
100
AcDbBlockReference
  2
_OPEN
 10
0.0000610351701181
 20
-318.4852668063658
 30
0.0
 41
2.0
 42
2.0
 43
2.0
 50
180.0
  0
INSERT
  5
7BB6
330
6CB0
100
AcDbEntity
  8
30
  6
CONTINUOUS
 62
     0
100
AcDbBlockReference
  2
_OPEN
 10
69.99993896485
 20
-318.4852668063658
 30
0.0
 41
2.0
 42
2.0
 43
2.0
  0
MTEXT
  5
7BB7
330
6CB0
100
AcDbEntity
  8
30
  6
CONTINUOUS
 62
     0
100
AcDbMText
 10
35.00000000001006
 20
-313.9852668063658
 30
0.0
 40
7.0
 41
0.0
 71
     5
 72
     1
  1
\A1;70
  0
POINT
  5
7BB8
330
6CB0
100
AcDbEntity
  8
DEFPOINTS
  6
CONTINUOUS
 62
     0
100
AcDbPoint
 10
0.0000610351701198
 20
-289.9890136719
 30
0.0
  0
POINT
  5
7BB9
330
6CB0
100
AcDbEntity
  8
DEFPOINTS
  6
CONTINUOUS
 62
     0
100
AcDbPoint
 10
69.99993896485
 20
-289.9890136719
 30
0.0
  0
POINT
  5
7BBA
330
6CB0
100
AcDbEntity
  8
DEFPOINTS
  6
CONTINUOUS
 62
     0
100
AcDbPoint
 10
69.99993896485
 20
-318.4852668063658
 30
0.0
  0
ENDBLK
  5
6CBB
330
6CB0
100
AcDbEntity
  8
0
100
AcDbBlockEnd
  0
BLOCK
  5
6CC7
330
6CBD
100
AcDbEntity
  8
0
100
AcDbBlockBegin
  2
*D14
 70
     1
 10
0.0
 20
0.0
 30
0.0
  3
*D14
  1

  0
LINE
  5
73A7
330
6CBD
100
AcDbEntity
  8
30
  6
CONTINUOUS
 62
     0
100
AcDbLine
 10
-105.0
 20
-171.0
 30
0.0
 11
-105.0
 21
-336.3207924016778
 31
0.0
  0
LINE
  5
73A8
330
6CBD
100
AcDbEntity
  8
30
  6
CONTINUOUS
 62
     0
100
AcDbLine
 10
174.9998168945298
 20
-171.0
 30
0.0
 11
174.9998168945298
 21
-336.3207924016778
 31
0.0
  0
LINE
  5
73A9
330
6CBD
100
AcDbEntity
  8
30
  6
CONTINUOUS
 62
     0
100
AcDbLine
 10
-103.0
 20
-335.8207924016777
 30
0.0
 11
172.9998168945298
 21
-335.8207924016777
 31
0.0
  0
INSERT
  5
73AA
330
6CBD
100
AcDbEntity
  8
30
  6
CONTINUOUS
 62
     0
100
AcDbBlockReference
  2
_OPEN
 10
-105.0
 20
-335.8207924016777
 30
0.0
 41
2.0
 42
2.0
 43
2.0
 50
180.0
  0
INSERT
  5
73AB
330
6CBD
100
AcDbEntity
  8
30
  6
CONTINUOUS
 62
     0
100
AcDbBlockReference
  2
_OPEN
 10
174.9998168945298
 20
-335.8207924016777
 30
0.0
 41
2.0
 42
2.0
 43
2.0
  0
MTEXT
  5
73AC
330
6CBD
100
AcDbEntity
  8
30
  6
CONTINUOUS
 62
     0
100
AcDbMText
 10
34.99990844726493
 20
-331.3207924016777
 30
0.0
 40
7.0
 41
0.0
 71
     5
 72
     1
  1
\A1;280
1001
ACAD
1000
MTEXTBEGIN
1070
    73
1070
     1
1070
    44
1040
1.0
1070
    74
1070
     0
1000
MTEXTEND
1000
MTEXTBEGIN
1070
    73
1070
     1
1070
    44
1040
1.0
1070
    74
1070
     0
1000
MTEXTEND
1000
MTEXTBEGIN
1070
    73
1070
     1
1070
    44
1040
1.0
1070
    74
1070
     0
1000
MTEXTEND
1000
MTEXTBEGIN
1070
    73
1070
     1
1070
    44
1040
1.0
1070
    74
1070
     0
1000
MTEXTEND
  0
POINT
  5
73AD
330
6CBD
100
AcDbEntity
  8
DEFPOINTS
  6
CONTINUOUS
 62
     0
100
AcDbPoint
 10
-105.0
 20
-170.0
 30
0.0
  0
POINT
  5
73AE
330
6CBD
100
AcDbEntity
  8
DEFPOINTS
  6
CONTINUOUS
 62
     0
100
AcDbPoint
 10
174.9998168945298
 20
-170.0
 30
0.0
  0
POINT
  5
73AF
330
6CBD
100
AcDbEntity
  8
DEFPOINTS
  6
CONTINUOUS
 62
     0
100
AcDbPoint
 10
174.9998168945298
 20
-335.8207924016777
 30
0.0
  0
ENDBLK
  5
6CC8
330
6CBD
100
AcDbEntity
  8
0
100
AcDbBlockEnd
  0
BLOCK
  5
6CD4
330
6CCA
100
AcDbEntity
  8
0
100
AcDbBlockBegin
  2
*D15
 70
     1
 10
0.0
 20
0.0
 30
0.0
  3
*D15
  1

  0
LINE
  5
7383
330
6CCA
100
AcDbEntity
  8
30
  6
CONTINUOUS
 62
     0
100
AcDbLine
 10
163.4998168945298
 20
300.0
 30
0.0
 11
191.6719315502374
 21
300.0
 31
0.0
  0
LINE
  5
7384
330
6CCA
100
AcDbEntity
  8
30
  6
CONTINUOUS
 62
     0
100
AcDbLine
 10
147.49993896485
 20
285.0
 30
0.0
 11
191.6719315502374
 21
285.0
 31
0.0
  0
LINE
  5
7385
330
6CCA
100
AcDbEntity
  8
30
  6
CONTINUOUS
 62
     0
100
AcDbLine
 10
191.1719315502377
 20
298.0
 30
0.0
 11
191.1719315502377
 21
287.0
 31
0.0
  0
INSERT
  5
7386
330
6CCA
100
AcDbEntity
  8
30
  6
CONTINUOUS
 62
     0
100
AcDbBlockReference
  2
_OPEN
 10
191.1719315502377
 20
300.0
 30
0.0
 41
2.0
 42
2.0
 43
2.0
 50
90.0
  0
INSERT
  5
7387
330
6CCA
100
AcDbEntity
  8
30
  6
CONTINUOUS
 62
     0
100
AcDbBlockReference
  2
_OPEN
 10
191.1719315502377
 20
285.0
 30
0.0
 41
2.0
 42
2.0
 43
2.0
 50
270.0
  0
MTEXT
  5
7388
330
6CCA
100
AcDbEntity
  8
30
  6
CONTINUOUS
 62
     0
100
AcDbMText
 10
186.6719315502377
 20
292.5
 30
0.0
 40
7.0
 41
0.0
 71
     5
 72
     1
  1
\A1;15
 11
0.0000000000000001
 21
1.0
 31
0.0
1001
ACAD
1000
MTEXTBEGIN
1070
    73
1070
     1
1070
    44
1040
1.0
1070
    74
1070
     0
1000
MTEXTEND
1000
MTEXTBEGIN
1070
    73
1070
     1
1070
    44
1040
1.0
1070
    74
1070
     0
1000
MTEXTEND
1000
MTEXTBEGIN
1070
    73
1070
     1
1070
    44
1040
1.0
1070
    74
1070
     0
1000
MTEXTEND
1000
MTEXTBEGIN
1070
    73
1070
     1
1070
    44
1040
1.0
1070
    74
1070
     0
1000
MTEXTEND
  0
POINT
  5
7389
330
6CCA
100
AcDbEntity
  8
DEFPOINTS
  6
CONTINUOUS
 62
     0
100
AcDbPoint
 10
162.4998168945298
 20
300.0
 30
0.0
  0
POINT
  5
738A
330
6CCA
100
AcDbEntity
  8
DEFPOINTS
  6
CONTINUOUS
 62
     0
100
AcDbPoint
 10
146.49993896485
 20
285.0
 30
0.0
  0
POINT
  5
738B
330
6CCA
100
AcDbEntity
  8
DEFPOINTS
  6
CONTINUOUS
 62
     0
100
AcDbPoint
 10
191.1719315502377
 20
285.0
 30
0.0
  0
ENDBLK
  5
6CD5
330
6CCA
100
AcDbEntity
  8
0
100
AcDbBlockEnd
  0
BLOCK
  5
6CE1
330
6CD7
100
AcDbEntity
  8
0
100
AcDbBlockBegin
  2
*D16
 70
     1
 10
0.0
 20
0.0
 30
0.0
  3
*D16
  1

  0
LINE
  5
7BBB
330
6CD7
100
AcDbEntity
  8
30
  6
CONTINUOUS
 62
     0
100
AcDbLine
 10
147.49993896485
 20
285.0
 30
0.0
 11
191.6719315502376
 21
285.0
 31
0.0
  0
LINE
  5
7BBC
330
6CD7
100
AcDbEntity
  8
30
  6
CONTINUOUS
 62
     0
100
AcDbLine
 10
155.9998168945298
 20
253.0
 30
0.0
 11
191.6719315502376
 21
253.0
 31
0.0
  0
LINE
  5
7BBD
330
6CD7
100
AcDbEntity
  8
30
  6
CONTINUOUS
 62
     0
100
AcDbLine
 10
191.1719315502377
 20
283.0
 30
0.0
 11
191.1719315502377
 21
255.0
 31
0.0
  0
INSERT
  5
7BBE
330
6CD7
100
AcDbEntity
  8
30
  6
CONTINUOUS
 62
     0
100
AcDbBlockReference
  2
_OPEN
 10
191.1719315502377
 20
285.0
 30
0.0
 41
2.0
 42
2.0
 43
2.0
 50
90.0
  0
INSERT
  5
7BBF
330
6CD7
100
AcDbEntity
  8
30
  6
CONTINUOUS
 62
     0
100
AcDbBlockReference
  2
_OPEN
 10
191.1719315502377
 20
253.0
 30
0.0
 41
2.0
 42
2.0
 43
2.0
 50
270.0
  0
MTEXT
  5
7BC0
330
6CD7
100
AcDbEntity
  8
30
  6
CONTINUOUS
 62
     0
100
AcDbMText
 10
186.6719315502376
 20
269.0
 30
0.0
 40
7.0
 41
0.0
 71
     5
 72
     1
  1
\A1;32
 11
0.0000000000000001
 21
1.0
 31
0.0
  0
POINT
  5
7BC1
330
6CD7
100
AcDbEntity
  8
DEFPOINTS
  6
CONTINUOUS
 62
     0
100
AcDbPoint
 10
146.49993896485
 20
285.0
 30
0.0
  0
POINT
  5
7BC2
330
6CD7
100
AcDbEntity
  8
DEFPOINTS
  6
CONTINUOUS
 62
     0
100
AcDbPoint
 10
154.9998168945298
 20
253.0
 30
0.0
  0
POINT
  5
7BC3
330
6CD7
100
AcDbEntity
  8
DEFPOINTS
  6
CONTINUOUS
 62
     0
100
AcDbPoint
 10
191.1719315502377
 20
253.0
 30
0.0
  0
ENDBLK
  5
6CE2
330
6CD7
100
AcDbEntity
  8
0
100
AcDbBlockEnd
  0
BLOCK
  5
6CEE
330
6CE4
100
AcDbEntity
  8
0
100
AcDbBlockBegin
  2
*D17
 70
     1
 10
0.0
 20
0.0
 30
0.0
  3
*D17
  1

  0
LINE
  5
7BC4
330
6CE4
100
AcDbEntity
  8
30
  6
CONTINUOUS
 62
     0
100
AcDbLine
 10
155.9998168945298
 20
253.0
 30
0.0
 11
191.6719315502376
 21
253.0
 31
0.0
  0
LINE
  5
7BC5
330
6CE4
100
AcDbEntity
  8
30
  6
CONTINUOUS
 62
     0
100
AcDbLine
 10
175.9998168945298
 20
200.0
 30
0.0
 11
191.6719315502376
 21
200.0
 31
0.0
  0
LINE
  5
7BC6
330
6CE4
100
AcDbEntity
  8
30
  6
CONTINUOUS
 62
     0
100
AcDbLine
 10
191.1719315502377
 20
251.0
 30
0.0
 11
191.1719315502377
 21
202.0
 31
0.0
  0
INSERT
  5
7BC7
330
6CE4
100
AcDbEntity
  8
30
  6
CONTINUOUS
 62
     0
100
AcDbBlockReference
  2
_OPEN
 10
191.1719315502377
 20
253.0
 30
0.0
 41
2.0
 42
2.0
 43
2.0
 50
90.0
  0
INSERT
  5
7BC8
330
6CE4
100
AcDbEntity
  8
30
  6
CONTINUOUS
 62
     0
100
AcDbBlockReference
  2
_OPEN
 10
191.1719315502377
 20
200.0
 30
0.0
 41
2.0
 42
2.0
 43
2.0
 50
270.0
  0
MTEXT
  5
7BC9
330
6CE4
100
AcDbEntity
  8
30
  6
CONTINUOUS
 62
     0
100
AcDbMText
 10
186.6719315502376
 20
226.5
 30
0.0
 40
7.0
 41
0.0
 71
     5
 72
     1
  1
\A1;53
 11
0.0000000000000001
 21
1.0
 31
0.0
  0
POINT
  5
7BCA
330
6CE4
100
AcDbEntity
  8
DEFPOINTS
  6
CONTINUOUS
 62
     0
100
AcDbPoint
 10
154.9998168945298
 20
253.0
 30
0.0
  0
POINT
  5
7BCB
330
6CE4
100
AcDbEntity
  8
DEFPOINTS
  6
CONTINUOUS
 62
     0
100
AcDbPoint
 10
174.9998168945298
 20
200.0
 30
0.0
  0
POINT
  5
7BCC
330
6CE4
100
AcDbEntity
  8
DEFPOINTS
  6
CONTINUOUS
 62
     0
100
AcDbPoint
 10
191.1719315502377
 20
200.0
 30
0.0
  0
ENDBLK
  5
6CEF
330
6CE4
100
AcDbEntity
  8
0
100
AcDbBlockEnd
  0
BLOCK
  5
6CFA
330
6CF1
100
AcDbEntity
  8
0
100
AcDbBlockBegin
  2
*D18
 70
     1
 10
0.0
 20
0.0
 30
0.0
  3
*D18
  1

  0
LINE
  5
737B
330
6CF1
100
AcDbEntity
  8
30
  6
CONTINUOUS
 62
     0
100
AcDbLine
 10
188.3332722981835
 20
317.0899999999998
 30
0.0
 11
170.9999389648503
 21
317.0899999999998
 31
0.0
  0
LINE
  5
737C
330
6CF1
100
AcDbEntity
  8
30
  6
CONTINUOUS
 62
     0
100
AcDbLine
 10
170.9999389648503
 20
317.0899999999998
 30
0.0
 11
145.9141982993793
 21
291.1950418937077
 31
0.0
  0
MTEXT
  5
737D
330
6CF1
100
AcDbEntity
  8
30
  6
CONTINUOUS
 62
     0
100
AcDbMText
 10
180.1666056315169
 20
321.5899999999998
 30
0.0
 40
7.0
 41
0.0
 71
     5
 72
     1
  1
\A1;\U+220513
1001
ACAD
1000
MTEXTBEGIN
1070
    73
1070
     1
1070
    44
1040
1.0
1070
    74
1070
     0
1000
MTEXTEND
1000
MTEXTBEGIN
1070
    73
1070
     1
1070
    44
1040
1.0
1070
    74
1070
     0
1000
MTEXTEND
1000
MTEXTBEGIN
1070
    73
1070
     1
1070
    44
1040
1.0
1070
    74
1070
     0
1000
MTEXTEND
1000
MTEXTBEGIN
1070
    73
1070
     1
1070
    44
1040
1.0
1070
    74
1070
     0
1000
MTEXTEND
  0
INSERT
  5
737E
330
6CF1
100
AcDbEntity
  8
30
  6
CONTINUOUS
 62
     0
100
AcDbBlockReference
  2
_OPEN
 10
144.5226078677254
 20
289.7585614481295
 30
0.0
 41
2.0
 42
2.0
 43
2.0
 50
225.9093804491985
  0
LINE
  5
737F
330
6CF1
100
AcDbEntity
  8
30
  6
CONTINUOUS
 62
     0
100
AcDbLine
 10
139.9099389648498
 20
285.0900000000001
 30
0.0
 11
140.0899389648498
 21
285.0900000000001
 31
0.0
  0
LINE
  5
7380
330
6CF1
100
AcDbEntity
  8
30
  6
CONTINUOUS
 62
     0
100
AcDbLine
 10
139.9999389648499
 20
285.0000000000001
 30
0.0
 11
139.9999389648498
 21
285.18
 31
0.0
  0
POINT
  5
7381
330
6CF1
100
AcDbEntity
  8
DEFPOINTS
  6
CONTINUOUS
 62
     0
100
AcDbPoint
 10
144.5226078677254
 20
289.7585614481295
 30
0.0
  0
POINT
  5
7382
330
6CF1
100
AcDbEntity
  8
DEFPOINTS
  6
CONTINUOUS
 62
     0
100
AcDbPoint
 10
135.4772700619743
 20
280.4214385518704
 30
0.0
  0
ENDBLK
  5
6CFB
330
6CF1
100
AcDbEntity
  8
0
100
AcDbBlockEnd
  0
BLOCK
  5
6D20
330
6D16
100
AcDbEntity
  8
0
100
AcDbBlockBegin
  2
*D19
 70
     1
 10
0.0
 20
0.0
 30
0.0
  3
*D19
  1

  0
LINE
  5
71DB
330
6D16
100
AcDbEntity
  8
30
  6
CONTINUOUS
 62
     0
100
AcDbLine
 10
-106.0
 20
501.1509476533529
 30
0.0
 11
-119.4999999999996
 21
501.1509476533529
 31
0.0
  0
LINE
  5
71DC
330
6D16
100
AcDbEntity
  8
30
  6
CONTINUOUS
 62
     0
100
AcDbLine
 10
-106.0
 20
361.1509476533528
 30
0.0
 11
-119.5
 21
361.1509476533528
 31
0.0
  0
LINE
  5
71DD
330
6D16
100
AcDbEntity
  8
30
  6
CONTINUOUS
 62
     0
100
AcDbLine
 10
-118.9999999999999
 20
499.1509476533528
 30
0.0
 11
-119.0
 21
363.1509476533528
 31
0.0
  0
INSERT
  5
71DE
330
6D16
100
AcDbEntity
  8
30
  6
CONTINUOUS
 62
     0
100
AcDbBlockReference
  2
_OPEN
 10
-118.9999999999999
 20
501.1509476533529
 30
0.0
 41
2.0
 42
2.0
 43
2.0
 50
90.0
  0
INSERT
  5
71DF
330
6D16
100
AcDbEntity
  8
30
  6
CONTINUOUS
 62
     0
100
AcDbBlockReference
  2
_OPEN
 10
-119.0
 20
361.1509476533528
 30
0.0
 41
2.0
 42
2.0
 43
2.0
 50
270.0
  0
MTEXT
  5
71E0
330
6D16
100
AcDbEntity
  8
30
  6
CONTINUOUS
 62
     0
100
AcDbMText
 10
-123.5
 20
431.1509476533529
 30
0.0
 40
7.0
 41
0.0
 71
     5
 72
     1
  1
\A1;140
 11
0.0000000000000001
 21
1.0
 31
0.0
1001
ACAD
1000
MTEXTBEGIN
1070
    73
1070
     1
1070
    44
1040
1.0
1070
    74
1070
     0
1000
MTEXTEND
1000
MTEXTBEGIN
1070
    73
1070
     1
1070
    44
1040
1.0
1070
    74
1070
     0
1000
MTEXTEND
1000
MTEXTBEGIN
1070
    73
1070
     1
1070
    44
1040
1.0
1070
    74
1070
     0
1000
MTEXTEND
1000
MTEXTBEGIN
1070
    73
1070
     1
1070
    44
1040
1.0
1070
    74
1070
     0
1000
MTEXTEND
  0
POINT
  5
71E1
330
6D16
100
AcDbEntity
  8
DEFPOINTS
  6
CONTINUOUS
 62
     0
100
AcDbPoint
 10
-105.0
 20
501.1509476533529
 30
0.0
  0
POINT
  5
71E2
330
6D16
100
AcDbEntity
  8
DEFPOINTS
  6
CONTINUOUS
 62
     0
100
AcDbPoint
 10
-105.0
 20
361.1509476533528
 30
0.0
  0
POINT
  5
71E3
330
6D16
100
AcDbEntity
  8
DEFPOINTS
  6
CONTINUOUS
 62
     0
100
AcDbPoint
 10
-119.0
 20
361.1509476533528
 30
0.0
  0
ENDBLK
  5
6D21
330
6D16
100
AcDbEntity
  8
0
100
AcDbBlockEnd
  0
BLOCK
  5
6F20
330
6F17
100
AcDbEntity
  8
0
100
AcDbBlockBegin
  2
*D20
 70
     1
 10
0.0
 20
0.0
 30
0.0
  3
*D20
  1

  0
LINE
  5
72DF
330
6F17
100
AcDbEntity
  8
30
  6
CONTINUOUS
 62
     0
100
AcDbLine
 10
479.2778528542236
 20
-535.666441437328
 30
0.0
 11
464.9445195208905
 21
-535.666441437328
 31
0.0
  0
LINE
  5
72E0
330
6F17
100
AcDbEntity
  8
30
  6
CONTINUOUS
 62
     0
100
AcDbLine
 10
464.9445195208905
 20
-535.666441437328
 30
0.0
 11
460.1324555320331
 21
-550.1026334038988
 31
0.0
  0
MTEXT
  5
72E1
330
6F17
100
AcDbEntity
  8
30
  6
CONTINUOUS
 62
     0
100
AcDbMText
 10
473.4445195208905
 20
-531.166441437328
 30
0.0
 40
7.0
 41
0.0
 71
     5
 72
     1
  1
\A1;R6
1001
ACAD
1000
MTEXTBEGIN
1070
    73
1070
     1
1070
    44
1040
1.0
1070
    74
1070
     0
1000
MTEXTEND
1000
MTEXTBEGIN
1070
    73
1070
     1
1070
    44
1040
1.0
1070
    74
1070
     0
1000
MTEXTEND
1000
MTEXTBEGIN
1070
    73
1070
     1
1070
    44
1040
1.0
1070
    74
1070
     0
1000
MTEXTEND
1000
MTEXTBEGIN
1070
    73
1070
     1
1070
    44
1040
1.0
1070
    74
1070
     0
1000
MTEXTEND
  0
INSERT
  5
72E2
330
6F17
100
AcDbEntity
  8
30
  6
CONTINUOUS
 62
     0
100
AcDbBlockReference
  2
_OPEN
 10
459.4999999999997
 20
-552.0
 30
0.0
 41
2.0
 42
2.0
 43
2.0
 50
251.5650511770769
  0
LINE
  5
72E3
330
6F17
100
AcDbEntity
  8
30
  6
CONTINUOUS
 62
     0
100
AcDbLine
 10
457.3545195208902
 20
-558.1664414373286
 30
0.0
 11
457.5345195208901
 21
-558.1664414373286
 31
0.0
  0
LINE
  5
72E4
330
6F17
100
AcDbEntity
  8
30
  6
CONTINUOUS
 62
     0
100
AcDbLine
 10
457.4445195208902
 20
-558.2564414373287
 30
0.0
 11
457.4445195208901
 21
-558.0764414373285
 31
0.0
  0
POINT
  5
72E5
330
6F17
100
AcDbEntity
  8
DEFPOINTS
  6
CONTINUOUS
 62
     0
100
AcDbPoint
 10
459.4999999999997
 20
-552.0
 30
0.0
  0
POINT
  5
72E6
330
6F17
100
AcDbEntity
  8
DEFPOINTS
  6
CONTINUOUS
 62
     0
100
AcDbPoint
 10
457.4445195208901
 20
-558.1664414373283
 30
0.0
  0
ENDBLK
  5
6F21
330
6F17
100
AcDbEntity
  8
0
100
AcDbBlockEnd
  0
BLOCK
  5
6F5D
330
6F53
100
AcDbEntity
  8
0
100
AcDbBlockBegin
  2
*D21
 70
     1
 10
0.0
 20
0.0
 30
0.0
  3
*D21
  1

  0
LINE
  5
7258
330
6F53
100
AcDbEntity
  8
30
  6
CONTINUOUS
 62
     0
100
AcDbLine
 10
-51.0
 20
-417.0
 30
0.0
 11
-201.5934457379698
 21
-416.9999999999998
 31
0.0
  0
LINE
  5
7259
330
6F53
100
AcDbEntity
  8
30
  6
CONTINUOUS
 62
     0
100
AcDbLine
 10
-167.0
 20
-601.0
 30
0.0
 11
-201.5934457379699
 21
-601.0
 31
0.0
  0
LINE
  5
725A
330
6F53
100
AcDbEntity
  8
30
  6
CONTINUOUS
 62
     0
100
AcDbLine
 10
-201.0934457379698
 20
-418.9999999999998
 30
0.0
 11
-201.0934457379698
 21
-599.0
 31
0.0
  0
INSERT
  5
725B
330
6F53
100
AcDbEntity
  8
30
  6
CONTINUOUS
 62
     0
100
AcDbBlockReference
  2
_OPEN
 10
-201.0934457379698
 20
-416.9999999999998
 30
0.0
 41
2.0
 42
2.0
 43
2.0
 50
90.0
  0
INSERT
  5
725C
330
6F53
100
AcDbEntity
  8
30
  6
CONTINUOUS
 62
     0
100
AcDbBlockReference
  2
_OPEN
 10
-201.0934457379698
 20
-601.0
 30
0.0
 41
2.0
 42
2.0
 43
2.0
 50
270.0
  0
MTEXT
  5
725D
330
6F53
100
AcDbEntity
  8
30
  6
CONTINUOUS
 62
     0
100
AcDbMText
 10
-205.5934457379698
 20
-509.0
 30
0.0
 40
7.0
 41
0.0
 71
     5
 72
     1
  1
\A1;184
 11
0.0000000000000001
 21
1.0
 31
0.0
1001
ACAD
1000
MTEXTBEGIN
1070
    73
1070
     1
1070
    44
1040
1.0
1070
    74
1070
     0
1000
MTEXTEND
1000
MTEXTBEGIN
1070
    73
1070
     1
1070
    44
1040
1.0
1070
    74
1070
     0
1000
MTEXTEND
1000
MTEXTBEGIN
1070
    73
1070
     1
1070
    44
1040
1.0
1070
    74
1070
     0
1000
MTEXTEND
1000
MTEXTBEGIN
1070
    73
1070
     1
1070
    44
1040
1.0
1070
    74
1070
     0
1000
MTEXTEND
  0
POINT
  5
725E
330
6F53
100
AcDbEntity
  8
DEFPOINTS
  6
CONTINUOUS
 62
     0
100
AcDbPoint
 10
-50.0
 20
-417.0
 30
0.0
  0
POINT
  5
725F
330
6F53
100
AcDbEntity
  8
DEFPOINTS
  6
CONTINUOUS
 62
     0
100
AcDbPoint
 10
-166.0
 20
-601.0
 30
0.0
  0
POINT
  5
7260
330
6F53
100
AcDbEntity
  8
DEFPOINTS
  6
CONTINUOUS
 62
     0
100
AcDbPoint
 10
-201.0934457379698
 20
-601.0
 30
0.0
  0
ENDBLK
  5
6F5E
330
6F53
100
AcDbEntity
  8
0
100
AcDbBlockEnd
  0
BLOCK
  5
6F6A
330
6F60
100
AcDbEntity
  8
0
100
AcDbBlockBegin
  2
*D22
 70
     1
 10
0.0
 20
0.0
 30
0.0
  3
*D22
  1

  0
LINE
  5
7BCD
330
6F60
100
AcDbEntity
  8
30
  6
CONTINUOUS
 62
     0
100
AcDbLine
 10
-167.0
 20
-601.0
 30
0.0
 11
-201.5934457379698
 21
-601.0
 31
0.0
  0
LINE
  5
7BCE
330
6F60
100
AcDbEntity
  8
30
  6
CONTINUOUS
 62
     0
100
AcDbLine
 10
-51.0
 20
-754.9997558592999
 30
0.0
 11
-201.5934457379698
 21
-754.9997558592999
 31
0.0
  0
LINE
  5
7BCF
330
6F60
100
AcDbEntity
  8
30
  6
CONTINUOUS
 62
     0
100
AcDbLine
 10
-201.0934457379697
 20
-603.0
 30
0.0
 11
-201.0934457379698
 21
-752.9997558593
 31
0.0
  0
INSERT
  5
7BD0
330
6F60
100
AcDbEntity
  8
30
  6
CONTINUOUS
 62
     0
100
AcDbBlockReference
  2
_OPEN
 10
-201.0934457379697
 20
-601.0
 30
0.0
 41
2.0
 42
2.0
 43
2.0
 50
90.0
  0
INSERT
  5
7BD1
330
6F60
100
AcDbEntity
  8
30
  6
CONTINUOUS
 62
     0
100
AcDbBlockReference
  2
_OPEN
 10
-201.0934457379698
 20
-754.9997558592999
 30
0.0
 41
2.0
 42
2.0
 43
2.0
 50
270.0
  0
MTEXT
  5
7BD2
330
6F60
100
AcDbEntity
  8
30
  6
CONTINUOUS
 62
     0
100
AcDbMText
 10
-205.5934457379696
 20
-677.99987792965
 30
0.0
 40
7.0
 41
0.0
 71
     5
 72
     1
  1
\A1;154
 11
0.0000000000000001
 21
1.0
 31
0.0
  0
POINT
  5
7BD3
330
6F60
100
AcDbEntity
  8
DEFPOINTS
  6
CONTINUOUS
 62
     0
100
AcDbPoint
 10
-166.0
 20
-601.0
 30
0.0
  0
POINT
  5
7BD4
330
6F60
100
AcDbEntity
  8
DEFPOINTS
  6
CONTINUOUS
 62
     0
100
AcDbPoint
 10
-50.0
 20
-754.9997558592999
 30
0.0
  0
POINT
  5
7BD5
330
6F60
100
AcDbEntity
  8
DEFPOINTS
  6
CONTINUOUS
 62
     0
100
AcDbPoint
 10
-201.0934457379698
 20
-754.9997558592999
 30
0.0
  0
ENDBLK
  5
6F6B
330
6F60
100
AcDbEntity
  8
0
100
AcDbBlockEnd
  0
BLOCK
  5
6F77
330
6F6D
100
AcDbEntity
  8
0
100
AcDbBlockBegin
  2
*D23
 70
     1
 10
0.0
 20
0.0
 30
0.0
  3
*D23
  1

  0
LINE
  5
726A
330
6F6D
100
AcDbEntity
  8
30
  6
CONTINUOUS
 62
     0
100
AcDbLine
 10
-35.0
 20
-770.9997558592999
 30
0.0
 11
-35.0
 21
-810.9423648938419
 31
0.0
  0
LINE
  5
726B
330
6F6D
100
AcDbEntity
  8
30
  6
CONTINUOUS
 62
     0
100
AcDbLine
 10
35.0
 20
-770.9997558592999
 30
0.0
 11
35.0
 21
-810.9423648938419
 31
0.0
  0
LINE
  5
726C
330
6F6D
100
AcDbEntity
  8
30
  6
CONTINUOUS
 62
     0
100
AcDbLine
 10
-33.0
 20
-810.4423648938418
 30
0.0
 11
33.0
 21
-810.4423648938418
 31
0.0
  0
INSERT
  5
726D
330
6F6D
100
AcDbEntity
  8
30
  6
CONTINUOUS
 62
     0
100
AcDbBlockReference
  2
_OPEN
 10
-35.0
 20
-810.4423648938418
 30
0.0
 41
2.0
 42
2.0
 43
2.0
 50
180.0
  0
INSERT
  5
726E
330
6F6D
100
AcDbEntity
  8
30
  6
CONTINUOUS
 62
     0
100
AcDbBlockReference
  2
_OPEN
 10
35.0
 20
-810.4423648938418
 30
0.0
 41
2.0
 42
2.0
 43
2.0
  0
MTEXT
  5
726F
330
6F6D
100
AcDbEntity
  8
30
  6
CONTINUOUS
 62
     0
100
AcDbMText
 10
0.0000000000000003
 20
-805.9423648938414
 30
0.0
 40
7.0
 41
0.0
 71
     5
 72
     1
  1
\A1;70
1001
ACAD
1000
MTEXTBEGIN
1070
    73
1070
     1
1070
    44
1040
1.0
1070
    74
1070
     0
1000
MTEXTEND
1000
MTEXTBEGIN
1070
    73
1070
     1
1070
    44
1040
1.0
1070
    74
1070
     0
1000
MTEXTEND
1000
MTEXTBEGIN
1070
    73
1070
     1
1070
    44
1040
1.0
1070
    74
1070
     0
1000
MTEXTEND
1000
MTEXTBEGIN
1070
    73
1070
     1
1070
    44
1040
1.0
1070
    74
1070
     0
1000
MTEXTEND
  0
POINT
  5
7270
330
6F6D
100
AcDbEntity
  8
DEFPOINTS
  6
CONTINUOUS
 62
     0
100
AcDbPoint
 10
-35.0
 20
-769.9997558593
 30
0.0
  0
POINT
  5
7271
330
6F6D
100
AcDbEntity
  8
DEFPOINTS
  6
CONTINUOUS
 62
     0
100
AcDbPoint
 10
35.0
 20
-769.9997558593
 30
0.0
  0
POINT
  5
7272
330
6F6D
100
AcDbEntity
  8
DEFPOINTS
  6
CONTINUOUS
 62
     0
100
AcDbPoint
 10
35.0
 20
-810.4423648938418
 30
0.0
  0
ENDBLK
  5
6F78
330
6F6D
100
AcDbEntity
  8
0
100
AcDbBlockEnd
  0
BLOCK
  5
6F84
330
6F7A
100
AcDbEntity
  8
0
100
AcDbBlockBegin
  2
*D24
 70
     1
 10
0.0
 20
0.0
 30
0.0
  3
*D24
  1

  0
LINE
  5
72F0
330
6F7A
100
AcDbEntity
  8
30
  6
CONTINUOUS
 62
     0
100
AcDbLine
 10
384.5
 20
-645.0
 30
0.0
 11
384.5
 21
-684.2650401241262
 31
0.0
  0
LINE
  5
72F1
330
6F7A
100
AcDbEntity
  8
30
  6
CONTINUOUS
 62
     0
100
AcDbLine
 10
465.5
 20
-645.0
 30
0.0
 11
465.5
 21
-684.2650401241262
 31
0.0
  0
LINE
  5
72F2
330
6F7A
100
AcDbEntity
  8
30
  6
CONTINUOUS
 62
     0
100
AcDbLine
 10
386.5
 20
-683.7650401241262
 30
0.0
 11
463.4999999999998
 21
-683.7650401241262
 31
0.0
  0
INSERT
  5
72F3
330
6F7A
100
AcDbEntity
  8
30
  6
CONTINUOUS
 62
     0
100
AcDbBlockReference
  2
_OPEN
 10
384.5
 20
-683.7650401241262
 30
0.0
 41
2.0
 42
2.0
 43
2.0
 50
180.0
  0
INSERT
  5
72F4
330
6F7A
100
AcDbEntity
  8
30
  6
CONTINUOUS
 62
     0
100
AcDbBlockReference
  2
_OPEN
 10
465.5
 20
-683.7650401241262
 30
0.0
 41
2.0
 42
2.0
 43
2.0
  0
MTEXT
  5
72F5
330
6F7A
100
AcDbEntity
  8
30
  6
CONTINUOUS
 62
     0
100
AcDbMText
 10
425.0
 20
-679.2650401241262
 30
0.0
 40
7.0
 41
0.0
 71
     5
 72
     1
  1
\A1;81
1001
ACAD
1000
MTEXTBEGIN
1070
    73
1070
     1
1070
    44
1040
1.0
1070
    74
1070
     0
1000
MTEXTEND
1000
MTEXTBEGIN
1070
    73
1070
     1
1070
    44
1040
1.0
1070
    74
1070
     0
1000
MTEXTEND
1000
MTEXTBEGIN
1070
    73
1070
     1
1070
    44
1040
1.0
1070
    74
1070
     0
1000
MTEXTEND
1000
MTEXTBEGIN
1070
    73
1070
     1
1070
    44
1040
1.0
1070
    74
1070
     0
1000
MTEXTEND
  0
POINT
  5
72F6
330
6F7A
100
AcDbEntity
  8
DEFPOINTS
  6
CONTINUOUS
 62
     0
100
AcDbPoint
 10
384.5
 20
-644.0
 30
0.0
  0
POINT
  5
72F7
330
6F7A
100
AcDbEntity
  8
DEFPOINTS
  6
CONTINUOUS
 62
     0
100
AcDbPoint
 10
465.5
 20
-644.0
 30
0.0
  0
POINT
  5
72F8
330
6F7A
100
AcDbEntity
  8
DEFPOINTS
  6
CONTINUOUS
 62
     0
100
AcDbPoint
 10
465.5
 20
-683.7650401241262
 30
0.0
  0
ENDBLK
  5
6F85
330
6F7A
100
AcDbEntity
  8
0
100
AcDbBlockEnd
  0
BLOCK
  5
6F91
330
6F87
100
AcDbEntity
  8
0
100
AcDbBlockBegin
  2
*D25
 70
     1
 10
0.0
 20
0.0
 30
0.0
  3
*D25
  1

  0
LINE
  5
72E7
330
6F87
100
AcDbEntity
  8
30
  6
CONTINUOUS
 62
     0
100
AcDbLine
 10
389.4999999999998
 20
-552.0
 30
0.0
 11
362.5972867326491
 21
-552.0
 31
0.0
  0
LINE
  5
72E8
330
6F87
100
AcDbEntity
  8
30
  6
CONTINUOUS
 62
     0
100
AcDbLine
 10
389.4999999999998
 20
-650.0
 30
0.0
 11
362.5972867326491
 21
-650.0
 31
0.0
  0
LINE
  5
72E9
330
6F87
100
AcDbEntity
  8
30
  6
CONTINUOUS
 62
     0
100
AcDbLine
 10
363.0972867326491
 20
-554.0
 30
0.0
 11
363.097286732649
 21
-648.0
 31
0.0
  0
INSERT
  5
72EA
330
6F87
100
AcDbEntity
  8
30
  6
CONTINUOUS
 62
     0
100
AcDbBlockReference
  2
_OPEN
 10
363.0972867326491
 20
-552.0
 30
0.0
 41
2.0
 42
2.0
 43
2.0
 50
90.0
  0
INSERT
  5
72EB
330
6F87
100
AcDbEntity
  8
30
  6
CONTINUOUS
 62
     0
100
AcDbBlockReference
  2
_OPEN
 10
363.097286732649
 20
-650.0
 30
0.0
 41
2.0
 42
2.0
 43
2.0
 50
270.0
  0
MTEXT
  5
72EC
330
6F87
100
AcDbEntity
  8
30
  6
CONTINUOUS
 62
     0
100
AcDbMText
 10
358.5972867326491
 20
-600.9999999999998
 30
0.0
 40
7.0
 41
0.0
 71
     5
 72
     1
  1
\A1;98
 11
0.0000000000000001
 21
1.0
 31
0.0
1001
ACAD
1000
MTEXTBEGIN
1070
    73
1070
     1
1070
    44
1040
1.0
1070
    74
1070
     0
1000
MTEXTEND
1000
MTEXTBEGIN
1070
    73
1070
     1
1070
    44
1040
1.0
1070
    74
1070
     0
1000
MTEXTEND
1000
MTEXTBEGIN
1070
    73
1070
     1
1070
    44
1040
1.0
1070
    74
1070
     0
1000
MTEXTEND
1000
MTEXTBEGIN
1070
    73
1070
     1
1070
    44
1040
1.0
1070
    74
1070
     0
1000
MTEXTEND
  0
POINT
  5
72ED
330
6F87
100
AcDbEntity
  8
DEFPOINTS
  6
CONTINUOUS
 62
     0
100
AcDbPoint
 10
390.5
 20
-552.0
 30
0.0
  0
POINT
  5
72EE
330
6F87
100
AcDbEntity
  8
DEFPOINTS
  6
CONTINUOUS
 62
     0
100
AcDbPoint
 10
390.5
 20
-650.0
 30
0.0
  0
POINT
  5
72EF
330
6F87
100
AcDbEntity
  8
DEFPOINTS
  6
CONTINUOUS
 62
     0
100
AcDbPoint
 10
363.097286732649
 20
-650.0
 30
0.0
  0
ENDBLK
  5
6F92
330
6F87
100
AcDbEntity
  8
0
100
AcDbBlockEnd
  0
BLOCK
  5
6FB8
330
6FAE
100
AcDbEntity
  8
0
100
AcDbBlockBegin
  2
*D26
 70
     1
 10
0.0
 20
0.0
 30
0.0
  3
*D26
  1

  0
LINE
  5
7357
330
6FAE
100
AcDbEntity
  8
30
  6
CONTINUOUS
 62
     0
100
AcDbLine
 10
164.4998168945298
 20
300.0
 30
0.0
 11
215.3584367809215
 21
300.0
 31
0.0
  0
LINE
  5
7358
330
6FAE
100
AcDbEntity
  8
30
  6
CONTINUOUS
 62
     0
100
AcDbLine
 10
176.9998168945296
 20
200.0
 30
0.0
 11
215.3584367809215
 21
199.9999999999999
 31
0.0
  0
LINE
  5
7359
330
6FAE
100
AcDbEntity
  8
30
  6
CONTINUOUS
 62
     0
100
AcDbLine
 10
214.8584367809216
 20
298.0
 30
0.0
 11
214.8584367809216
 21
201.9999999999999
 31
0.0
  0
INSERT
  5
735A
330
6FAE
100
AcDbEntity
  8
30
  6
CONTINUOUS
 62
     0
100
AcDbBlockReference
  2
_OPEN
 10
214.8584367809216
 20
300.0
 30
0.0
 41
2.0
 42
2.0
 43
2.0
 50
90.0
  0
INSERT
  5
735B
330
6FAE
100
AcDbEntity
  8
30
  6
CONTINUOUS
 62
     0
100
AcDbBlockReference
  2
_OPEN
 10
214.8584367809216
 20
199.9999999999999
 30
0.0
 41
2.0
 42
2.0
 43
2.0
 50
270.0
  0
MTEXT
  5
735C
330
6FAE
100
AcDbEntity
  8
30
  6
CONTINUOUS
 62
     0
100
AcDbMText
 10
210.3584367809215
 20
250.0
 30
0.0
 40
7.0
 41
0.0
 71
     5
 72
     1
  1
\A1;100
 11
0.0000000000000001
 21
1.0
 31
0.0
1001
ACAD
1000
MTEXTBEGIN
1070
    73
1070
     1
1070
    44
1040
1.0
1070
    74
1070
     0
1000
MTEXTEND
1000
MTEXTBEGIN
1070
    73
1070
     1
1070
    44
1040
1.0
1070
    74
1070
     0
1000
MTEXTEND
1000
MTEXTBEGIN
1070
    73
1070
     1
1070
    44
1040
1.0
1070
    74
1070
     0
1000
MTEXTEND
1000
MTEXTBEGIN
1070
    73
1070
     1
1070
    44
1040
1.0
1070
    74
1070
     0
1000
MTEXTEND
  0
POINT
  5
735D
330
6FAE
100
AcDbEntity
  8
DEFPOINTS
  6
CONTINUOUS
 62
     0
100
AcDbPoint
 10
163.4998168945298
 20
300.0
 30
0.0
  0
POINT
  5
735E
330
6FAE
100
AcDbEntity
  8
DEFPOINTS
  6
CONTINUOUS
 62
     0
100
AcDbPoint
 10
175.9998168945298
 20
200.0
 30
0.0
  0
POINT
  5
735F
330
6FAE
100
AcDbEntity
  8
DEFPOINTS
  6
CONTINUOUS
 62
     0
100
AcDbPoint
 10
214.8584367809216
 20
199.9999999999999
 30
0.0
  0
ENDBLK
  5
6FB9
330
6FAE
100
AcDbEntity
  8
0
100
AcDbBlockEnd
  0
BLOCK
  5
6FC5
330
6FBB
100
AcDbEntity
  8
0
100
AcDbBlockBegin
  2
*D27
 70
     1
 10
0.0
 20
0.0
 30
0.0
  3
*D27
  1

  0
LINE
  5
7BD6
330
6FBB
100
AcDbEntity
  8
30
  6
CONTINUOUS
 62
     0
100
AcDbLine
 10
176.9998168945297
 20
200.0
 30
0.0
 11
215.3584367809216
 21
199.9999999999999
 31
0.0
  0
LINE
  5
7BD7
330
6FBB
100
AcDbEntity
  8
30
  6
CONTINUOUS
 62
     0
100
AcDbLine
 10
175.9998168945298
 20
-0.0000000000000003
 30
0.0
 11
215.3584367809215
 21
-0.0000000000000114
 31
0.0
  0
LINE
  5
7BD8
330
6FBB
100
AcDbEntity
  8
30
  6
CONTINUOUS
 62
     0
100
AcDbLine
 10
214.8584367809216
 20
197.9999999999999
 30
0.0
 11
214.8584367809216
 21
1.999999999999988
 31
0.0
  0
INSERT
  5
7BD9
330
6FBB
100
AcDbEntity
  8
30
  6
CONTINUOUS
 62
     0
100
AcDbBlockReference
  2
_OPEN
 10
214.8584367809216
 20
199.9999999999999
 30
0.0
 41
2.0
 42
2.0
 43
2.0
 50
90.0
  0
INSERT
  5
7BDA
330
6FBB
100
AcDbEntity
  8
30
  6
CONTINUOUS
 62
     0
100
AcDbBlockReference
  2
_OPEN
 10
214.8584367809216
 20
-0.0000000000000113
 30
0.0
 41
2.0
 42
2.0
 43
2.0
 50
270.0
  0
MTEXT
  5
7BDB
330
6FBB
100
AcDbEntity
  8
30
  6
CONTINUOUS
 62
     0
100
AcDbMText
 10
210.3584367809215
 20
100.0
 30
0.0
 40
7.0
 41
0.0
 71
     5
 72
     1
  1
\A1;200
 11
0.0000000000000001
 21
1.0
 31
0.0
  0
POINT
  5
7BDC
330
6FBB
100
AcDbEntity
  8
DEFPOINTS
  6
CONTINUOUS
 62
     0
100
AcDbPoint
 10
175.9998168945298
 20
200.0
 30
0.0
  0
POINT
  5
7BDD
330
6FBB
100
AcDbEntity
  8
DEFPOINTS
  6
CONTINUOUS
 62
     0
100
AcDbPoint
 10
174.9998168945298
 20
0.0
 30
0.0
  0
POINT
  5
7BDE
330
6FBB
100
AcDbEntity
  8
DEFPOINTS
  6
CONTINUOUS
 62
     0
100
AcDbPoint
 10
214.8584367809216
 20
-0.0000000000000113
 30
0.0
  0
ENDBLK
  5
6FC6
330
6FBB
100
AcDbEntity
  8
0
100
AcDbBlockEnd
  0
BLOCK
  5
6FD2
330
6FC8
100
AcDbEntity
  8
0
100
AcDbBlockBegin
  2
*D28
 70
     1
 10
0.0
 20
0.0
 30
0.0
  3
*D28
  1

  0
LINE
  5
7BDF
330
6FC8
100
AcDbEntity
  8
30
  6
CONTINUOUS
 62
     0
100
AcDbLine
 10
175.9998168945298
 20
-0.0000000000000003
 30
0.0
 11
215.3584367809215
 21
-0.0000000000000114
 31
0.0
  0
LINE
  5
7BE0
330
6FC8
100
AcDbEntity
  8
30
  6
CONTINUOUS
 62
     0
100
AcDbLine
 10
175.9998168945298
 20
-170.0
 30
0.0
 11
215.3584367809215
 21
-170.0
 31
0.0
  0
LINE
  5
7BE1
330
6FC8
100
AcDbEntity
  8
30
  6
CONTINUOUS
 62
     0
100
AcDbLine
 10
214.8584367809216
 20
-2.000000000000011
 30
0.0
 11
214.8584367809216
 21
-168.0
 31
0.0
  0
INSERT
  5
7BE2
330
6FC8
100
AcDbEntity
  8
30
  6
CONTINUOUS
 62
     0
100
AcDbBlockReference
  2
_OPEN
 10
214.8584367809216
 20
-0.0000000000000113
 30
0.0
 41
2.0
 42
2.0
 43
2.0
 50
90.0
  0
INSERT
  5
7BE3
330
6FC8
100
AcDbEntity
  8
30
  6
CONTINUOUS
 62
     0
100
AcDbBlockReference
  2
_OPEN
 10
214.8584367809216
 20
-170.0
 30
0.0
 41
2.0
 42
2.0
 43
2.0
 50
270.0
  0
MTEXT
  5
7BE4
330
6FC8
100
AcDbEntity
  8
30
  6
CONTINUOUS
 62
     0
100
AcDbMText
 10
210.3584367809216
 20
-84.99999999999998
 30
0.0
 40
7.0
 41
0.0
 71
     5
 72
     1
  1
\A1;170
 11
0.0000000000000001
 21
1.0
 31
0.0
  0
POINT
  5
7BE5
330
6FC8
100
AcDbEntity
  8
DEFPOINTS
  6
CONTINUOUS
 62
     0
100
AcDbPoint
 10
174.9998168945298
 20
0.0
 30
0.0
  0
POINT
  5
7BE6
330
6FC8
100
AcDbEntity
  8
DEFPOINTS
  6
CONTINUOUS
 62
     0
100
AcDbPoint
 10
174.9998168945298
 20
-170.0
 30
0.0
  0
POINT
  5
7BE7
330
6FC8
100
AcDbEntity
  8
DEFPOINTS
  6
CONTINUOUS
 62
     0
100
AcDbPoint
 10
214.8584367809216
 20
-170.0
 30
0.0
  0
ENDBLK
  5
6FD3
330
6FC8
100
AcDbEntity
  8
0
100
AcDbBlockEnd
  0
BLOCK
  5
6FEC
330
6FE2
100
AcDbEntity
  8
0
100
AcDbBlockBegin
  2
*D29
 70
     1
 10
0.0
 20
0.0
 30
0.0
  3
*D29
  1

  0
LINE
  5
738C
330
6FE2
100
AcDbEntity
  8
30
  6
CONTINUOUS
 62
     0
100
AcDbLine
 10
175.9998168945298
 20
200.0
 30
0.0
 11
234.4081821090274
 21
199.9999999999999
 31
0.0
  0
LINE
  5
738D
330
6FE2
100
AcDbEntity
  8
30
  6
CONTINUOUS
 62
     0
100
AcDbLine
 10
175.9998168945298
 20
-170.0
 30
0.0
 11
234.4081821090274
 21
-170.0
 31
0.0
  0
LINE
  5
738E
330
6FE2
100
AcDbEntity
  8
30
  6
CONTINUOUS
 62
     0
100
AcDbLine
 10
233.9081821090274
 20
197.9999999999999
 30
0.0
 11
233.9081821090274
 21
-168.0
 31
0.0
  0
INSERT
  5
738F
330
6FE2
100
AcDbEntity
  8
30
  6
CONTINUOUS
 62
     0
100
AcDbBlockReference
  2
_OPEN
 10
233.9081821090274
 20
199.9999999999999
 30
0.0
 41
2.0
 42
2.0
 43
2.0
 50
90.0
  0
INSERT
  5
7390
330
6FE2
100
AcDbEntity
  8
30
  6
CONTINUOUS
 62
     0
100
AcDbBlockReference
  2
_OPEN
 10
233.9081821090274
 20
-170.0
 30
0.0
 41
2.0
 42
2.0
 43
2.0
 50
270.0
  0
MTEXT
  5
7391
330
6FE2
100
AcDbEntity
  8
30
  6
CONTINUOUS
 62
     0
100
AcDbMText
 10
229.4081821090276
 20
15.0
 30
0.0
 40
7.0
 41
0.0
 71
     5
 72
     1
  1
\A1;370
 11
0.0000000000000001
 21
1.0
 31
0.0
1001
ACAD
1000
MTEXTBEGIN
1070
    73
1070
     1
1070
    44
1040
1.0
1070
    74
1070
     0
1000
MTEXTEND
1000
MTEXTBEGIN
1070
    73
1070
     1
1070
    44
1040
1.0
1070
    74
1070
     0
1000
MTEXTEND
1000
MTEXTBEGIN
1070
    73
1070
     1
1070
    44
1040
1.0
1070
    74
1070
     0
1000
MTEXTEND
1000
MTEXTBEGIN
1070
    73
1070
     1
1070
    44
1040
1.0
1070
    74
1070
     0
1000
MTEXTEND
  0
POINT
  5
7392
330
6FE2
100
AcDbEntity
  8
DEFPOINTS
  6
CONTINUOUS
 62
     0
100
AcDbPoint
 10
174.9998168945298
 20
200.0
 30
0.0
  0
POINT
  5
7393
330
6FE2
100
AcDbEntity
  8
DEFPOINTS
  6
CONTINUOUS
 62
     0
100
AcDbPoint
 10
174.9998168945298
 20
-170.0
 30
0.0
  0
POINT
  5
7394
330
6FE2
100
AcDbEntity
  8
DEFPOINTS
  6
CONTINUOUS
 62
     0
100
AcDbPoint
 10
233.9081821090274
 20
-170.0
 30
0.0
  0
ENDBLK
  5
6FED
330
6FE2
100
AcDbEntity
  8
0
100
AcDbBlockEnd
  0
BLOCK
  5
73DC
330
73D2
100
AcDbEntity
  8
0
100
AcDbBlockBegin
  2
*D30
 70
     1
 10
0.0
 20
0.0
 30
0.0
  3
*D30
  1

  0
LINE
  5
7BE8
330
73D2
100
AcDbEntity
  8
30
  6
CONTINUOUS
 62
     0
100
AcDbLine
 10
70.00006103517012
 20
-290.9890136718999
 30
0.0
 11
70.00006103517012
 21
-318.9852668063658
 31
0.0
  0
LINE
  5
7BE9
330
73D2
100
AcDbEntity
  8
30
  6
CONTINUOUS
 62
     0
100
AcDbLine
 10
139.99993896485
 20
-290.9890136718999
 30
0.0
 11
139.99993896485
 21
-318.9852668063658
 31
0.0
  0
LINE
  5
7BEA
330
73D2
100
AcDbEntity
  8
30
  6
CONTINUOUS
 62
     0
100
AcDbLine
 10
72.00006103517011
 20
-318.4852668063658
 30
0.0
 11
137.99993896485
 21
-318.4852668063658
 31
0.0
  0
INSERT
  5
7BEB
330
73D2
100
AcDbEntity
  8
30
  6
CONTINUOUS
 62
     0
100
AcDbBlockReference
  2
_OPEN
 10
70.00006103517012
 20
-318.4852668063658
 30
0.0
 41
2.0
 42
2.0
 43
2.0
 50
180.0
  0
INSERT
  5
7BEC
330
73D2
100
AcDbEntity
  8
30
  6
CONTINUOUS
 62
     0
100
AcDbBlockReference
  2
_OPEN
 10
139.99993896485
 20
-318.4852668063658
 30
0.0
 41
2.0
 42
2.0
 43
2.0
  0
MTEXT
  5
7BED
330
73D2
100
AcDbEntity
  8
30
  6
CONTINUOUS
 62
     0
100
AcDbMText
 10
105.00000000001
 20
-313.9852668063658
 30
0.0
 40
7.0
 41
0.0
 71
     5
 72
     1
  1
\A1;70
  0
POINT
  5
7BEE
330
73D2
100
AcDbEntity
  8
DEFPOINTS
  6
CONTINUOUS
 62
     0
100
AcDbPoint
 10
70.00006103517012
 20
-289.9890136719
 30
0.0
  0
POINT
  5
7BEF
330
73D2
100
AcDbEntity
  8
DEFPOINTS
  6
CONTINUOUS
 62
     0
100
AcDbPoint
 10
139.99993896485
 20
-289.9890136719
 30
0.0
  0
POINT
  5
7BF0
330
73D2
100
AcDbEntity
  8
DEFPOINTS
  6
CONTINUOUS
 62
     0
100
AcDbPoint
 10
139.99993896485
 20
-318.4852668063658
 30
0.0
  0
ENDBLK
  5
73DD
330
73D2
100
AcDbEntity
  8
0
100
AcDbBlockEnd
  0
BLOCK
  5
7535
330
752B
100
AcDbEntity
  8
0
100
AcDbBlockBegin
  2
*D31
 70
     1
 10
0.0
 20
0.0
 30
0.0
  3
*D31
  1

  0
LINE
  5
7697
330
752B
100
AcDbEntity
  8
30
  6
CONTINUOUS
 62
     0
100
AcDbLine
 10
433.9998397827433
 20
-1.0
 30
0.0
 11
433.9998397827433
 21
-309.58595701602
 31
0.0
  0
LINE
  5
7698
330
752B
100
AcDbEntity
  8
30
  6
CONTINUOUS
 62
     0
100
AcDbLine
 10
625.0
 20
-180.0
 30
0.0
 11
625.0
 21
-309.58595701602
 31
0.0
  0
LINE
  5
7699
330
752B
100
AcDbEntity
  8
30
  6
CONTINUOUS
 62
     0
100
AcDbLine
 10
435.9998397827433
 20
-309.08595701602
 30
0.0
 11
623.0
 21
-309.08595701602
 31
0.0
  0
INSERT
  5
769A
330
752B
100
AcDbEntity
  8
30
  6
CONTINUOUS
 62
     0
100
AcDbBlockReference
  2
_OPEN
 10
433.9998397827433
 20
-309.08595701602
 30
0.0
 41
2.0
 42
2.0
 43
2.0
 50
180.0
  0
INSERT
  5
769B
330
752B
100
AcDbEntity
  8
30
  6
CONTINUOUS
 62
     0
100
AcDbBlockReference
  2
_OPEN
 10
625.0
 20
-309.08595701602
 30
0.0
 41
2.0
 42
2.0
 43
2.0
  0
MTEXT
  5
769C
330
752B
100
AcDbEntity
  8
30
  6
CONTINUOUS
 62
     0
100
AcDbMText
 10
529.4999198913716
 20
-304.58595701602
 30
0.0
 40
7.0
 41
0.0
 71
     5
 72
     1
  1
\A1;191
1001
ACAD
1000
MTEXTBEGIN
1070
    73
1070
     1
1070
    44
1040
1.0
1070
    74
1070
     0
1000
MTEXTEND
1000
MTEXTBEGIN
1070
    73
1070
     1
1070
    44
1040
1.0
1070
    74
1070
     0
1000
MTEXTEND
1000
MTEXTBEGIN
1070
    73
1070
     1
1070
    44
1040
1.0
1070
    74
1070
     0
1000
MTEXTEND
  0
POINT
  5
769D
330
752B
100
AcDbEntity
  8
DEFPOINTS
  6
CONTINUOUS
 62
     0
100
AcDbPoint
 10
433.9998397827433
 20
-0.0000000000000009
 30
0.0
  0
POINT
  5
769E
330
752B
100
AcDbEntity
  8
DEFPOINTS
  6
CONTINUOUS
 62
     0
100
AcDbPoint
 10
625.0
 20
-179.0
 30
0.0
  0
POINT
  5
769F
330
752B
100
AcDbEntity
  8
DEFPOINTS
  6
CONTINUOUS
 62
     0
100
AcDbPoint
 10
625.0
 20
-309.08595701602
 30
0.0
  0
ENDBLK
  5
7536
330
752B
100
AcDbEntity
  8
0
100
AcDbBlockEnd
  0
BLOCK
  5
7541
330
7537
100
AcDbEntity
  8
0
100
AcDbBlockBegin
  2
*D32
 70
     1
 10
0.0
 20
0.0
 30
0.0
  3
*D32
  1

  0
LINE
  5
75C4
330
7537
100
AcDbEntity
  8
30
  6
CONTINUOUS
 62
     0
100
AcDbLine
 10
354.000106811546
 20
-0.9999999999999895
 30
0.0
 11
354.000106811546
 21
-309.58595701602
 31
0.0
  0
LINE
  5
75C5
330
7537
100
AcDbEntity
  8
30
  6
CONTINUOUS
 62
     0
100
AcDbLine
 10
433.9998397827433
 20
-1.0
 30
0.0
 11
433.9998397827433
 21
-309.58595701602
 31
0.0
  0
LINE
  5
75C6
330
7537
100
AcDbEntity
  8
30
  6
CONTINUOUS
 62
     0
100
AcDbLine
 10
356.000106811546
 20
-309.08595701602
 30
0.0
 11
431.9998397827433
 21
-309.08595701602
 31
0.0
  0
INSERT
  5
75C7
330
7537
100
AcDbEntity
  8
30
  6
CONTINUOUS
 62
     0
100
AcDbBlockReference
  2
_OPEN
 10
354.000106811546
 20
-309.08595701602
 30
0.0
 41
2.0
 42
2.0
 43
2.0
 50
180.0
  0
INSERT
  5
75C8
330
7537
100
AcDbEntity
  8
30
  6
CONTINUOUS
 62
     0
100
AcDbBlockReference
  2
_OPEN
 10
433.9998397827433
 20
-309.08595701602
 30
0.0
 41
2.0
 42
2.0
 43
2.0
  0
MTEXT
  5
75C9
330
7537
100
AcDbEntity
  8
30
  6
CONTINUOUS
 62
     0
100
AcDbMText
 10
393.9999732971447
 20
-304.58595701602
 30
0.0
 40
7.0
 41
0.0
 71
     5
 72
     1
  1
\A1;80
1001
ACAD
1000
MTEXTBEGIN
1070
    73
1070
     1
1070
    44
1040
1.0
1070
    74
1070
     0
1000
MTEXTEND
1000
MTEXTBEGIN
1070
    73
1070
     1
1070
    44
1040
1.0
1070
    74
1070
     0
1000
MTEXTEND
1000
MTEXTBEGIN
1070
    73
1070
     1
1070
    44
1040
1.0
1070
    74
1070
     0
1000
MTEXTEND
1000
MTEXTBEGIN
1070
    73
1070
     1
1070
    44
1040
1.0
1070
    74
1070
     0
1000
MTEXTEND
  0
POINT
  5
75CA
330
7537
100
AcDbEntity
  8
DEFPOINTS
  6
CONTINUOUS
 62
     0
100
AcDbPoint
 10
354.000106811546
 20
0.0000000000000105
 30
0.0
  0
POINT
  5
75CB
330
7537
100
AcDbEntity
  8
DEFPOINTS
  6
CONTINUOUS
 62
     0
100
AcDbPoint
 10
433.9998397827433
 20
-0.0000000000000009
 30
0.0
  0
POINT
  5
75CC
330
7537
100
AcDbEntity
  8
DEFPOINTS
  6
CONTINUOUS
 62
     0
100
AcDbPoint
 10
433.9998397827433
 20
-309.08595701602
 30
0.0
  0
ENDBLK
  5
7542
330
7537
100
AcDbEntity
  8
0
100
AcDbBlockEnd
  0
BLOCK
  5
754D
330
7543
100
AcDbEntity
  8
0
100
AcDbBlockBegin
  2
*D33
 70
     1
 10
0.0
 20
0.0
 30
0.0
  3
*D33
  1

  0
LINE
  5
75CD
330
7543
100
AcDbEntity
  8
30
  6
CONTINUOUS
 62
     0
100
AcDbLine
 10
485.0
 20
-141.0
 30
0.0
 11
485.0
 21
-194.9087893196516
 31
0.0
  0
LINE
  5
75CE
330
7543
100
AcDbEntity
  8
30
  6
CONTINUOUS
 62
     0
100
AcDbLine
 10
493.0
 20
-171.0
 30
0.0
 11
493.0
 21
-194.9087893196516
 31
0.0
  0
LINE
  5
75CF
330
7543
100
AcDbEntity
  8
30
  6
CONTINUOUS
 62
     0
100
AcDbLine
 10
487.0
 20
-194.4087893196519
 30
0.0
 11
491.0
 21
-194.4087893196519
 31
0.0
  0
INSERT
  5
75D0
330
7543
100
AcDbEntity
  8
30
  6
CONTINUOUS
 62
     0
100
AcDbBlockReference
  2
_OPEN
 10
485.0
 20
-194.4087893196519
 30
0.0
 41
2.0
 42
2.0
 43
2.0
 50
180.0
  0
INSERT
  5
75D1
330
7543
100
AcDbEntity
  8
30
  6
CONTINUOUS
 62
     0
100
AcDbBlockReference
  2
_OPEN
 10
493.0
 20
-194.4087893196519
 30
0.0
 41
2.0
 42
2.0
 43
2.0
  0
MTEXT
  5
75D2
330
7543
100
AcDbEntity
  8
30
  6
CONTINUOUS
 62
     0
100
AcDbMText
 10
489.0
 20
-189.9087893196519
 30
0.0
 40
7.0
 41
0.0
 71
     5
 72
     1
  1
\A1;8
1001
ACAD
1000
MTEXTBEGIN
1070
    73
1070
     1
1070
    44
1040
1.0
1070
    74
1070
     0
1000
MTEXTEND
1000
MTEXTBEGIN
1070
    73
1070
     1
1070
    44
1040
1.0
1070
    74
1070
     0
1000
MTEXTEND
1000
MTEXTBEGIN
1070
    73
1070
     1
1070
    44
1040
1.0
1070
    74
1070
     0
1000
MTEXTEND
1000
MTEXTBEGIN
1070
    73
1070
     1
1070
    44
1040
1.0
1070
    74
1070
     0
1000
MTEXTEND
  0
POINT
  5
75D3
330
7543
100
AcDbEntity
  8
DEFPOINTS
  6
CONTINUOUS
 62
     0
100
AcDbPoint
 10
485.0
 20
-140.0
 30
0.0
  0
POINT
  5
75D4
330
7543
100
AcDbEntity
  8
DEFPOINTS
  6
CONTINUOUS
 62
     0
100
AcDbPoint
 10
493.0
 20
-170.0
 30
0.0
  0
POINT
  5
75D5
330
7543
100
AcDbEntity
  8
DEFPOINTS
  6
CONTINUOUS
 62
     0
100
AcDbPoint
 10
493.0
 20
-194.4087893196519
 30
0.0
  0
ENDBLK
  5
754E
330
7543
100
AcDbEntity
  8
0
100
AcDbBlockEnd
  0
BLOCK
  5
7559
330
754F
100
AcDbEntity
  8
0
100
AcDbBlockBegin
  2
*D34
 70
     1
 10
0.0
 20
0.0
 30
0.0
  3
*D34
  1

  0
LINE
  5
76A0
330
754F
100
AcDbEntity
  8
30
  6
CONTINUOUS
 62
     0
100
AcDbLine
 10
485.0
 20
-141.0
 30
0.0
 11
485.0
 21
-292.9950458463608
 31
0.0
  0
LINE
  5
76A1
330
754F
100
AcDbEntity
  8
30
  6
CONTINUOUS
 62
     0
100
AcDbLine
 10
625.0
 20
-180.0
 30
0.0
 11
625.0
 21
-292.9950458463608
 31
0.0
  0
LINE
  5
76A2
330
754F
100
AcDbEntity
  8
30
  6
CONTINUOUS
 62
     0
100
AcDbLine
 10
487.0
 20
-292.4950458463608
 30
0.0
 11
623.0
 21
-292.4950458463608
 31
0.0
  0
INSERT
  5
76A3
330
754F
100
AcDbEntity
  8
30
  6
CONTINUOUS
 62
     0
100
AcDbBlockReference
  2
_OPEN
 10
485.0
 20
-292.4950458463608
 30
0.0
 41
2.0
 42
2.0
 43
2.0
 50
180.0
  0
INSERT
  5
76A4
330
754F
100
AcDbEntity
  8
30
  6
CONTINUOUS
 62
     0
100
AcDbBlockReference
  2
_OPEN
 10
625.0
 20
-292.4950458463608
 30
0.0
 41
2.0
 42
2.0
 43
2.0
  0
MTEXT
  5
76A5
330
754F
100
AcDbEntity
  8
30
  6
CONTINUOUS
 62
     0
100
AcDbMText
 10
555.0
 20
-287.9950458463608
 30
0.0
 40
7.0
 41
0.0
 71
     5
 72
     1
  1
\A1;140
1001
ACAD
1000
MTEXTBEGIN
1070
    73
1070
     1
1070
    44
1040
1.0
1070
    74
1070
     0
1000
MTEXTEND
1000
MTEXTBEGIN
1070
    73
1070
     1
1070
    44
1040
1.0
1070
    74
1070
     0
1000
MTEXTEND
1000
MTEXTBEGIN
1070
    73
1070
     1
1070
    44
1040
1.0
1070
    74
1070
     0
1000
MTEXTEND
  0
POINT
  5
76A6
330
754F
100
AcDbEntity
  8
DEFPOINTS
  6
CONTINUOUS
 62
     0
100
AcDbPoint
 10
485.0
 20
-140.0
 30
0.0
  0
POINT
  5
76A7
330
754F
100
AcDbEntity
  8
DEFPOINTS
  6
CONTINUOUS
 62
     0
100
AcDbPoint
 10
625.0
 20
-179.0
 30
0.0
  0
POINT
  5
76A8
330
754F
100
AcDbEntity
  8
DEFPOINTS
  6
CONTINUOUS
 62
     0
100
AcDbPoint
 10
625.0
 20
-292.4950458463608
 30
0.0
  0
ENDBLK
  5
755A
330
754F
100
AcDbEntity
  8
0
100
AcDbBlockEnd
  0
BLOCK
  5
7565
330
755B
100
AcDbEntity
  8
0
100
AcDbBlockBegin
  2
*D35
 70
     1
 10
0.0
 20
0.0
 30
0.0
  3
*D35
  1

  0
LINE
  5
75DF
330
755B
100
AcDbEntity
  8
30
  6
CONTINUOUS
 62
     0
100
AcDbLine
 10
468.0
 20
-1.0
 30
0.0
 11
468.0
 21
-292.9950458463608
 31
0.0
  0
LINE
  5
75E0
330
755B
100
AcDbEntity
  8
30
  6
CONTINUOUS
 62
     0
100
AcDbLine
 10
485.0
 20
-141.0
 30
0.0
 11
485.0
 21
-292.9950458463608
 31
0.0
  0
LINE
  5
75E1
330
755B
100
AcDbEntity
  8
30
  6
CONTINUOUS
 62
     0
100
AcDbLine
 10
470.0
 20
-292.4950458463608
 30
0.0
 11
483.0
 21
-292.4950458463608
 31
0.0
  0
INSERT
  5
75E2
330
755B
100
AcDbEntity
  8
30
  6
CONTINUOUS
 62
     0
100
AcDbBlockReference
  2
_OPEN
 10
468.0
 20
-292.4950458463608
 30
0.0
 41
2.0
 42
2.0
 43
2.0
 50
180.0
  0
INSERT
  5
75E3
330
755B
100
AcDbEntity
  8
30
  6
CONTINUOUS
 62
     0
100
AcDbBlockReference
  2
_OPEN
 10
485.0
 20
-292.4950458463608
 30
0.0
 41
2.0
 42
2.0
 43
2.0
  0
MTEXT
  5
75E4
330
755B
100
AcDbEntity
  8
30
  6
CONTINUOUS
 62
     0
100
AcDbMText
 10
476.4999999999998
 20
-287.9950458463608
 30
0.0
 40
7.0
 41
0.0
 71
     5
 72
     1
  1
\A1;17
1001
ACAD
1000
MTEXTBEGIN
1070
    73
1070
     1
1070
    44
1040
1.0
1070
    74
1070
     0
1000
MTEXTEND
1000
MTEXTBEGIN
1070
    73
1070
     1
1070
    44
1040
1.0
1070
    74
1070
     0
1000
MTEXTEND
1000
MTEXTBEGIN
1070
    73
1070
     1
1070
    44
1040
1.0
1070
    74
1070
     0
1000
MTEXTEND
1000
MTEXTBEGIN
1070
    73
1070
     1
1070
    44
1040
1.0
1070
    74
1070
     0
1000
MTEXTEND
  0
POINT
  5
75E5
330
755B
100
AcDbEntity
  8
DEFPOINTS
  6
CONTINUOUS
 62
     0
100
AcDbPoint
 10
468.0
 20
0.0
 30
0.0
  0
POINT
  5
75E6
330
755B
100
AcDbEntity
  8
DEFPOINTS
  6
CONTINUOUS
 62
     0
100
AcDbPoint
 10
485.0
 20
-140.0
 30
0.0
  0
POINT
  5
75E7
330
755B
100
AcDbEntity
  8
DEFPOINTS
  6
CONTINUOUS
 62
     0
100
AcDbPoint
 10
485.0
 20
-292.4950458463608
 30
0.0
  0
ENDBLK
  5
7566
330
755B
100
AcDbEntity
  8
0
100
AcDbBlockEnd
  0
BLOCK
  5
7571
330
7567
100
AcDbEntity
  8
0
100
AcDbBlockBegin
  2
*D36
 70
     1
 10
0.0
 20
0.0
 30
0.0
  3
*D36
  1

  0
LINE
  5
76A9
330
7567
100
AcDbEntity
  8
30
  6
CONTINUOUS
 62
     0
100
AcDbLine
 10
579.0
 20
-271.0
 30
0.0
 11
579.0
 21
-283.4588801759837
 31
0.0
  0
LINE
  5
76AA
330
7567
100
AcDbEntity
  8
30
  6
CONTINUOUS
 62
     0
100
AcDbLine
 10
625.0
 20
-181.0
 30
0.0
 11
625.0
 21
-283.4588801759837
 31
0.0
  0
LINE
  5
76AB
330
7567
100
AcDbEntity
  8
30
  6
CONTINUOUS
 62
     0
100
AcDbLine
 10
581.0
 20
-282.9588801759837
 30
0.0
 11
623.0
 21
-282.9588801759837
 31
0.0
  0
INSERT
  5
76AC
330
7567
100
AcDbEntity
  8
30
  6
CONTINUOUS
 62
     0
100
AcDbBlockReference
  2
_OPEN
 10
579.0
 20
-282.9588801759837
 30
0.0
 41
2.0
 42
2.0
 43
2.0
 50
180.0
  0
INSERT
  5
76AD
330
7567
100
AcDbEntity
  8
30
  6
CONTINUOUS
 62
     0
100
AcDbBlockReference
  2
_OPEN
 10
625.0
 20
-282.9588801759837
 30
0.0
 41
2.0
 42
2.0
 43
2.0
  0
MTEXT
  5
76AE
330
7567
100
AcDbEntity
  8
30
  6
CONTINUOUS
 62
     0
100
AcDbMText
 10
602.0
 20
-278.4588801759837
 30
0.0
 40
7.0
 41
0.0
 71
     5
 72
     1
  1
\A1;46
1001
ACAD
1000
MTEXTBEGIN
1070
    73
1070
     1
1070
    44
1040
1.0
1070
    74
1070
     0
1000
MTEXTEND
1000
MTEXTBEGIN
1070
    73
1070
     1
1070
    44
1040
1.0
1070
    74
1070
     0
1000
MTEXTEND
1000
MTEXTBEGIN
1070
    73
1070
     1
1070
    44
1040
1.0
1070
    74
1070
     0
1000
MTEXTEND
  0
POINT
  5
76AF
330
7567
100
AcDbEntity
  8
DEFPOINTS
  6
CONTINUOUS
 62
     0
100
AcDbPoint
 10
579.0
 20
-270.0
 30
0.0
  0
POINT
  5
76B0
330
7567
100
AcDbEntity
  8
DEFPOINTS
  6
CONTINUOUS
 62
     0
100
AcDbPoint
 10
625.0
 20
-180.0
 30
0.0
  0
POINT
  5
76B1
330
7567
100
AcDbEntity
  8
DEFPOINTS
  6
CONTINUOUS
 62
     0
100
AcDbPoint
 10
625.0
 20
-282.9588801759837
 30
0.0
  0
ENDBLK
  5
7572
330
7567
100
AcDbEntity
  8
0
100
AcDbBlockEnd
  0
BLOCK
  5
757D
330
7573
100
AcDbEntity
  8
0
100
AcDbBlockBegin
  2
*D37
 70
     1
 10
0.0
 20
0.0
 30
0.0
  3
*D37
  1

  0
LINE
  5
75F1
330
7573
100
AcDbEntity
  8
30
  6
CONTINUOUS
 62
     0
100
AcDbLine
 10
559.0
 20
-271.0
 30
0.0
 11
559.0
 21
-283.4588801759837
 31
0.0
  0
LINE
  5
75F2
330
7573
100
AcDbEntity
  8
30
  6
CONTINUOUS
 62
     0
100
AcDbLine
 10
579.0
 20
-271.0
 30
0.0
 11
579.0
 21
-283.4588801759837
 31
0.0
  0
LINE
  5
75F3
330
7573
100
AcDbEntity
  8
30
  6
CONTINUOUS
 62
     0
100
AcDbLine
 10
561.0
 20
-282.9588801759837
 30
0.0
 11
577.0
 21
-282.9588801759837
 31
0.0
  0
INSERT
  5
75F4
330
7573
100
AcDbEntity
  8
30
  6
CONTINUOUS
 62
     0
100
AcDbBlockReference
  2
_OPEN
 10
559.0
 20
-282.9588801759837
 30
0.0
 41
2.0
 42
2.0
 43
2.0
 50
180.0
  0
INSERT
  5
75F5
330
7573
100
AcDbEntity
  8
30
  6
CONTINUOUS
 62
     0
100
AcDbBlockReference
  2
_OPEN
 10
579.0
 20
-282.9588801759837
 30
0.0
 41
2.0
 42
2.0
 43
2.0
  0
MTEXT
  5
75F6
330
7573
100
AcDbEntity
  8
30
  6
CONTINUOUS
 62
     0
100
AcDbMText
 10
569.0
 20
-278.4588801759837
 30
0.0
 40
7.0
 41
0.0
 71
     5
 72
     1
  1
\A1;20
1001
ACAD
1000
MTEXTBEGIN
1070
    73
1070
     1
1070
    44
1040
1.0
1070
    74
1070
     0
1000
MTEXTEND
1000
MTEXTBEGIN
1070
    73
1070
     1
1070
    44
1040
1.0
1070
    74
1070
     0
1000
MTEXTEND
1000
MTEXTBEGIN
1070
    73
1070
     1
1070
    44
1040
1.0
1070
    74
1070
     0
1000
MTEXTEND
1000
MTEXTBEGIN
1070
    73
1070
     1
1070
    44
1040
1.0
1070
    74
1070
     0
1000
MTEXTEND
  0
POINT
  5
75F7
330
7573
100
AcDbEntity
  8
DEFPOINTS
  6
CONTINUOUS
 62
     0
100
AcDbPoint
 10
559.0
 20
-270.0
 30
0.0
  0
POINT
  5
75F8
330
7573
100
AcDbEntity
  8
DEFPOINTS
  6
CONTINUOUS
 62
     0
100
AcDbPoint
 10
579.0
 20
-270.0
 30
0.0
  0
POINT
  5
75F9
330
7573
100
AcDbEntity
  8
DEFPOINTS
  6
CONTINUOUS
 62
     0
100
AcDbPoint
 10
579.0
 20
-282.9588801759837
 30
0.0
  0
ENDBLK
  5
757E
330
7573
100
AcDbEntity
  8
0
100
AcDbBlockEnd
  0
BLOCK
  5
7589
330
757F
100
AcDbEntity
  8
0
100
AcDbBlockBegin
  2
*D38
 70
     1
 10
0.0
 20
0.0
 30
0.0
  3
*D38
  1

  0
LINE
  5
76B2
330
757F
100
AcDbEntity
  8
30
  6
CONTINUOUS
 62
     0
100
AcDbLine
 10
432.9998397827433
 20
0.0000000000000003
 30
0.0
 11
412.2140212313459
 21
0.0000000000000062
 31
0.0
  0
LINE
  5
76B3
330
757F
100
AcDbEntity
  8
30
  6
CONTINUOUS
 62
     0
100
AcDbLine
 10
484.0
 20
-140.0
 30
0.0
 11
412.2140212313459
 21
-139.9999999999999
 31
0.0
  0
LINE
  5
76B4
330
757F
100
AcDbEntity
  8
30
  6
CONTINUOUS
 62
     0
100
AcDbLine
 10
412.7140212313461
 20
-1.999999999999993
 30
0.0
 11
412.7140212313461
 21
-137.9999999999999
 31
0.0
  0
INSERT
  5
76B5
330
757F
100
AcDbEntity
  8
30
  6
CONTINUOUS
 62
     0
100
AcDbBlockReference
  2
_OPEN
 10
412.7140212313461
 20
0.000000000000006
 30
0.0
 41
2.0
 42
2.0
 43
2.0
 50
90.0
  0
INSERT
  5
76B6
330
757F
100
AcDbEntity
  8
30
  6
CONTINUOUS
 62
     0
100
AcDbBlockReference
  2
_OPEN
 10
412.7140212313461
 20
-139.9999999999999
 30
0.0
 41
2.0
 42
2.0
 43
2.0
 50
270.0
  0
MTEXT
  5
76B7
330
757F
100
AcDbEntity
  8
30
  6
CONTINUOUS
 62
     0
100
AcDbMText
 10
408.214021231346
 20
-69.99999999999992
 30
0.0
 40
7.0
 41
0.0
 71
     5
 72
     1
  1
\A1;140
 11
0.0000000000000001
 21
1.0
 31
0.0
1001
ACAD
1000
MTEXTBEGIN
1070
    73
1070
     1
1070
    44
1040
1.0
1070
    74
1070
     0
1000
MTEXTEND
1000
MTEXTBEGIN
1070
    73
1070
     1
1070
    44
1040
1.0
1070
    74
1070
     0
1000
MTEXTEND
1000
MTEXTBEGIN
1070
    73
1070
     1
1070
    44
1040
1.0
1070
    74
1070
     0
1000
MTEXTEND
  0
POINT
  5
76B8
330
757F
100
AcDbEntity
  8
DEFPOINTS
  6
CONTINUOUS
 62
     0
100
AcDbPoint
 10
433.9998397827433
 20
0.0
 30
0.0
  0
POINT
  5
76B9
330
757F
100
AcDbEntity
  8
DEFPOINTS
  6
CONTINUOUS
 62
     0
100
AcDbPoint
 10
485.0
 20
-140.0
 30
0.0
  0
POINT
  5
76BA
330
757F
100
AcDbEntity
  8
DEFPOINTS
  6
CONTINUOUS
 62
     0
100
AcDbPoint
 10
412.7140212313461
 20
-139.9999999999999
 30
0.0
  0
ENDBLK
  5
758A
330
757F
100
AcDbEntity
  8
0
100
AcDbBlockEnd
  0
BLOCK
  5
7595
330
758B
100
AcDbEntity
  8
0
100
AcDbBlockBegin
  2
*D39
 70
     1
 10
0.0
 20
0.0
 30
0.0
  3
*D39
  1

  0
LINE
  5
7603
330
758B
100
AcDbEntity
  8
30
  6
CONTINUOUS
 62
     0
100
AcDbLine
 10
484.0
 20
170.0
 30
0.0
 11
412.2140212313459
 21
170.0
 31
0.0
  0
LINE
  5
7604
330
758B
100
AcDbEntity
  8
30
  6
CONTINUOUS
 62
     0
100
AcDbLine
 10
432.9998397827433
 20
0.0000000000000003
 30
0.0
 11
412.2140212313459
 21
0.0000000000000062
 31
0.0
  0
LINE
  5
7605
330
758B
100
AcDbEntity
  8
30
  6
CONTINUOUS
 62
     0
100
AcDbLine
 10
412.7140212313461
 20
168.0
 30
0.0
 11
412.7140212313461
 21
2.000000000000003
 31
0.0
  0
INSERT
  5
7606
330
758B
100
AcDbEntity
  8
30
  6
CONTINUOUS
 62
     0
100
AcDbBlockReference
  2
_OPEN
 10
412.7140212313461
 20
170.0
 30
0.0
 41
2.0
 42
2.0
 43
2.0
 50
90.0
  0
INSERT
  5
7607
330
758B
100
AcDbEntity
  8
30
  6
CONTINUOUS
 62
     0
100
AcDbBlockReference
  2
_OPEN
 10
412.7140212313461
 20
0.000000000000006
 30
0.0
 41
2.0
 42
2.0
 43
2.0
 50
270.0
  0
MTEXT
  5
7608
330
758B
100
AcDbEntity
  8
30
  6
CONTINUOUS
 62
     0
100
AcDbMText
 10
408.214021231346
 20
85.00000000000007
 30
0.0
 40
7.0
 41
0.0
 71
     5
 72
     1
  1
\A1;170
 11
0.0000000000000001
 21
1.0
 31
0.0
1001
ACAD
1000
MTEXTBEGIN
1070
    73
1070
     1
1070
    44
1040
1.0
1070
    74
1070
     0
1000
MTEXTEND
1000
MTEXTBEGIN
1070
    73
1070
     1
1070
    44
1040
1.0
1070
    74
1070
     0
1000
MTEXTEND
1000
MTEXTBEGIN
1070
    73
1070
     1
1070
    44
1040
1.0
1070
    74
1070
     0
1000
MTEXTEND
1000
MTEXTBEGIN
1070
    73
1070
     1
1070
    44
1040
1.0
1070
    74
1070
     0
1000
MTEXTEND
  0
POINT
  5
7609
330
758B
100
AcDbEntity
  8
DEFPOINTS
  6
CONTINUOUS
 62
     0
100
AcDbPoint
 10
485.0
 20
170.0
 30
0.0
  0
POINT
  5
760A
330
758B
100
AcDbEntity
  8
DEFPOINTS
  6
CONTINUOUS
 62
     0
100
AcDbPoint
 10
433.9998397827433
 20
0.0
 30
0.0
  0
POINT
  5
760B
330
758B
100
AcDbEntity
  8
DEFPOINTS
  6
CONTINUOUS
 62
     0
100
AcDbPoint
 10
412.7140212313461
 20
0.000000000000006
 30
0.0
  0
ENDBLK
  5
7596
330
758B
100
AcDbEntity
  8
0
100
AcDbBlockEnd
  0
BLOCK
  5
75A1
330
7597
100
AcDbEntity
  8
0
100
AcDbBlockBegin
  2
*D40
 70
     1
 10
0.0
 20
0.0
 30
0.0
  3
*D40
  1

  0
LINE
  5
760C
330
7597
100
AcDbEntity
  8
30
  6
CONTINUOUS
 62
     0
100
AcDbLine
 10
597.0
 20
-144.5
 30
0.0
 11
597.0
 21
-123.0687133200817
 31
0.0
  0
LINE
  5
760D
330
7597
100
AcDbEntity
  8
30
  6
CONTINUOUS
 62
     0
100
AcDbLine
 10
625.0
 20
-138.0
 30
0.0
 11
625.0
 21
-123.0687133200817
 31
0.0
  0
LINE
  5
760E
330
7597
100
AcDbEntity
  8
30
  6
CONTINUOUS
 62
     0
100
AcDbLine
 10
599.0
 20
-123.5687133200817
 30
0.0
 11
623.0
 21
-123.5687133200817
 31
0.0
  0
INSERT
  5
760F
330
7597
100
AcDbEntity
  8
30
  6
CONTINUOUS
 62
     0
100
AcDbBlockReference
  2
_OPEN
 10
597.0
 20
-123.5687133200817
 30
0.0
 41
2.0
 42
2.0
 43
2.0
 50
180.0
  0
INSERT
  5
7610
330
7597
100
AcDbEntity
  8
30
  6
CONTINUOUS
 62
     0
100
AcDbBlockReference
  2
_OPEN
 10
625.0
 20
-123.5687133200817
 30
0.0
 41
2.0
 42
2.0
 43
2.0
  0
MTEXT
  5
7611
330
7597
100
AcDbEntity
  8
30
  6
CONTINUOUS
 62
     0
100
AcDbMText
 10
611.0
 20
-119.0687133200817
 30
0.0
 40
7.0
 41
0.0
 71
     5
 72
     1
  1
\A1;28
1001
ACAD
1000
MTEXTBEGIN
1070
    73
1070
     1
1070
    44
1040
1.0
1070
    74
1070
     0
1000
MTEXTEND
1000
MTEXTBEGIN
1070
    73
1070
     1
1070
    44
1040
1.0
1070
    74
1070
     0
1000
MTEXTEND
1000
MTEXTBEGIN
1070
    73
1070
     1
1070
    44
1040
1.0
1070
    74
1070
     0
1000
MTEXTEND
1000
MTEXTBEGIN
1070
    73
1070
     1
1070
    44
1040
1.0
1070
    74
1070
     0
1000
MTEXTEND
  0
POINT
  5
7612
330
7597
100
AcDbEntity
  8
DEFPOINTS
  6
CONTINUOUS
 62
     0
100
AcDbPoint
 10
597.0
 20
-145.5
 30
0.0
  0
POINT
  5
7613
330
7597
100
AcDbEntity
  8
DEFPOINTS
  6
CONTINUOUS
 62
     0
100
AcDbPoint
 10
625.0
 20
-139.0
 30
0.0
  0
POINT
  5
7614
330
7597
100
AcDbEntity
  8
DEFPOINTS
  6
CONTINUOUS
 62
     0
100
AcDbPoint
 10
625.0
 20
-123.5687133200817
 30
0.0
  0
ENDBLK
  5
75A2
330
7597
100
AcDbEntity
  8
0
100
AcDbBlockEnd
  0
BLOCK
  5
75AD
330
75A3
100
AcDbEntity
  8
0
100
AcDbBlockBegin
  2
*D41
 70
     1
 10
0.0
 20
0.0
 30
0.0
  3
*D41
  1

  0
LINE
  5
76BB
330
75A3
100
AcDbEntity
  8
30
  6
CONTINUOUS
 62
     0
100
AcDbLine
 10
625.0
 20
-138.0
 30
0.0
 11
625.0
 21
-123.0687133200817
 31
0.0
  0
LINE
  5
76BC
330
75A3
100
AcDbEntity
  8
30
  6
CONTINUOUS
 62
     0
100
AcDbLine
 10
643.0
 20
-149.0
 30
0.0
 11
643.0
 21
-123.0687133200817
 31
0.0
  0
LINE
  5
76BD
330
75A3
100
AcDbEntity
  8
30
  6
CONTINUOUS
 62
     0
100
AcDbLine
 10
627.0
 20
-123.5687133200817
 30
0.0
 11
641.0
 21
-123.5687133200817
 31
0.0
  0
INSERT
  5
76BE
330
75A3
100
AcDbEntity
  8
30
  6
CONTINUOUS
 62
     0
100
AcDbBlockReference
  2
_OPEN
 10
625.0
 20
-123.5687133200817
 30
0.0
 41
2.0
 42
2.0
 43
2.0
 50
180.0
  0
INSERT
  5
76BF
330
75A3
100
AcDbEntity
  8
30
  6
CONTINUOUS
 62
     0
100
AcDbBlockReference
  2
_OPEN
 10
643.0
 20
-123.5687133200817
 30
0.0
 41
2.0
 42
2.0
 43
2.0
  0
MTEXT
  5
76C0
330
75A3
100
AcDbEntity
  8
30
  6
CONTINUOUS
 62
     0
100
AcDbMText
 10
634.0
 20
-119.0687133200817
 30
0.0
 40
7.0
 41
0.0
 71
     5
 72
     1
  1
\A1;18
1001
ACAD
1000
MTEXTBEGIN
1070
    73
1070
     1
1070
    44
1040
1.0
1070
    74
1070
     0
1000
MTEXTEND
1000
MTEXTBEGIN
1070
    73
1070
     1
1070
    44
1040
1.0
1070
    74
1070
     0
1000
MTEXTEND
1000
MTEXTBEGIN
1070
    73
1070
     1
1070
    44
1040
1.0
1070
    74
1070
     0
1000
MTEXTEND
  0
POINT
  5
76C1
330
75A3
100
AcDbEntity
  8
DEFPOINTS
  6
CONTINUOUS
 62
     0
100
AcDbPoint
 10
625.0
 20
-139.0
 30
0.0
  0
POINT
  5
76C2
330
75A3
100
AcDbEntity
  8
DEFPOINTS
  6
CONTINUOUS
 62
     0
100
AcDbPoint
 10
643.0
 20
-150.0
 30
0.0
  0
POINT
  5
76C3
330
75A3
100
AcDbEntity
  8
DEFPOINTS
  6
CONTINUOUS
 62
     0
100
AcDbPoint
 10
643.0
 20
-123.5687133200817
 30
0.0
  0
ENDBLK
  5
75AE
330
75A3
100
AcDbEntity
  8
0
100
AcDbBlockEnd
  0
BLOCK
  5
75B9
330
75AF
100
AcDbEntity
  8
0
100
AcDbBlockBegin
  2
*D42
 70
     1
 10
0.0
 20
0.0
 30
0.0
  3
*D42
  1

  0
LINE
  5
761E
330
75AF
100
AcDbEntity
  8
30
  6
CONTINUOUS
 62
     0
100
AcDbLine
 10
626.0
 20
200.0
 30
0.0
 11
635.1175351181137
 21
200.0
 31
0.0
  0
LINE
  5
761F
330
75AF
100
AcDbEntity
  8
30
  6
CONTINUOUS
 62
     0
100
AcDbLine
 10
626.0
 20
230.0
 30
0.0
 11
635.1175351181137
 21
230.0
 31
0.0
  0
LINE
  5
7620
330
75AF
100
AcDbEntity
  8
30
  6
CONTINUOUS
 62
     0
100
AcDbLine
 10
634.6175351181138
 20
202.0
 30
0.0
 11
634.6175351181138
 21
228.0
 31
0.0
  0
INSERT
  5
7621
330
75AF
100
AcDbEntity
  8
30
  6
CONTINUOUS
 62
     0
100
AcDbBlockReference
  2
_OPEN
 10
634.6175351181138
 20
200.0
 30
0.0
 41
2.0
 42
2.0
 43
2.0
 50
270.0
  0
INSERT
  5
7622
330
75AF
100
AcDbEntity
  8
30
  6
CONTINUOUS
 62
     0
100
AcDbBlockReference
  2
_OPEN
 10
634.6175351181138
 20
230.0
 30
0.0
 41
2.0
 42
2.0
 43
2.0
 50
90.0
  0
MTEXT
  5
7623
330
75AF
100
AcDbEntity
  8
30
  6
CONTINUOUS
 62
     0
100
AcDbMText
 10
630.1175351181136
 20
215.0
 30
0.0
 40
7.0
 41
0.0
 71
     5
 72
     1
  1
\A1;30
 11
0.0000000000000001
 21
1.0
 31
0.0
1001
ACAD
1000
MTEXTBEGIN
1070
    73
1070
     1
1070
    44
1040
1.0
1070
    74
1070
     0
1000
MTEXTEND
1000
MTEXTBEGIN
1070
    73
1070
     1
1070
    44
1040
1.0
1070
    74
1070
     0
1000
MTEXTEND
1000
MTEXTBEGIN
1070
    73
1070
     1
1070
    44
1040
1.0
1070
    74
1070
     0
1000
MTEXTEND
1000
MTEXTBEGIN
1070
    73
1070
     1
1070
    44
1040
1.0
1070
    74
1070
     0
1000
MTEXTEND
  0
POINT
  5
7624
330
75AF
100
AcDbEntity
  8
DEFPOINTS
  6
CONTINUOUS
 62
     0
100
AcDbPoint
 10
625.0
 20
200.0
 30
0.0
  0
POINT
  5
7625
330
75AF
100
AcDbEntity
  8
DEFPOINTS
  6
CONTINUOUS
 62
     0
100
AcDbPoint
 10
625.0
 20
230.0
 30
0.0
  0
POINT
  5
7626
330
75AF
100
AcDbEntity
  8
DEFPOINTS
  6
CONTINUOUS
 62
     0
100
AcDbPoint
 10
634.6175351181138
 20
230.0
 30
0.0
  0
ENDBLK
  5
75BA
330
75AF
100
AcDbEntity
  8
0
100
AcDbBlockEnd
  0
BLOCK
  5
76D8
330
76CE
100
AcDbEntity
  8
0
100
AcDbBlockBegin
  2
*D43
 70
     1
 10
0.0
 20
0.0
 30
0.0
  3
*D43
  1

  0
LINE
  5
76CF
330
76CE
100
AcDbEntity
  8
30
  6
CONTINUOUS
 62
     0
100
AcDbLine
 10
442.0
 20
301.0
 30
0.0
 11
442.0
 21
328.7168640744837
 31
0.0
  0
LINE
  5
76D0
330
76CE
100
AcDbEntity
  8
30
  6
CONTINUOUS
 62
     0
100
AcDbLine
 10
422.0
 20
301.0
 30
0.0
 11
422.0
 21
328.7168640744837
 31
0.0
  0
LINE
  5
76D1
330
76CE
100
AcDbEntity
  8
30
  6
CONTINUOUS
 62
     0
100
AcDbLine
 10
440.0
 20
328.2168640744838
 30
0.0
 11
424.0
 21
328.2168640744838
 31
0.0
  0
INSERT
  5
76D2
330
76CE
100
AcDbEntity
  8
30
  6
CONTINUOUS
 62
     0
100
AcDbBlockReference
  2
_OPEN
 10
442.0
 20
328.2168640744838
 30
0.0
 41
2.0
 42
2.0
 43
2.0
  0
INSERT
  5
76D3
330
76CE
100
AcDbEntity
  8
30
  6
CONTINUOUS
 62
     0
100
AcDbBlockReference
  2
_OPEN
 10
422.0
 20
328.2168640744838
 30
0.0
 41
2.0
 42
2.0
 43
2.0
 50
180.0
  0
MTEXT
  5
76D4
330
76CE
100
AcDbEntity
  8
30
  6
CONTINUOUS
 62
     0
100
AcDbMText
 10
432.0
 20
332.7168640744837
 30
0.0
 40
7.0
 41
0.0
 71
     5
 72
     1
  1
\A1;20
1001
ACAD
1000
MTEXTBEGIN
1070
    73
1070
     1
1070
    44
1040
1.0
1070
    74
1070
     0
1000
MTEXTEND
1000
MTEXTBEGIN
1070
    73
1070
     1
1070
    44
1040
1.0
1070
    74
1070
     0
1000
MTEXTEND
1000
MTEXTBEGIN
1070
    73
1070
     1
1070
    44
1040
1.0
1070
    74
1070
     0
1000
MTEXTEND
  0
POINT
  5
76D5
330
76CE
100
AcDbEntity
  8
DEFPOINTS
  6
CONTINUOUS
 62
     0
100
AcDbPoint
 10
442.0
 20
300.0
 30
0.0
  0
POINT
  5
76D6
330
76CE
100
AcDbEntity
  8
DEFPOINTS
  6
CONTINUOUS
 62
     0
100
AcDbPoint
 10
422.0
 20
300.0
 30
0.0
  0
POINT
  5
76D7
330
76CE
100
AcDbEntity
  8
DEFPOINTS
  6
CONTINUOUS
 62
     0
100
AcDbPoint
 10
422.0
 20
328.2168640744838
 30
0.0
  0
ENDBLK
  5
76D9
330
76CE
100
AcDbEntity
  8
0
100
AcDbBlockEnd
  0
BLOCK
  5
76E4
330
76DA
100
AcDbEntity
  8
0
100
AcDbBlockBegin
  2
*D44
 70
     1
 10
0.0
 20
0.0
 30
0.0
  3
*D44
  1

  0
LINE
  5
76DB
330
76DA
100
AcDbEntity
  8
30
  6
CONTINUOUS
 62
     0
100
AcDbLine
 10
296.0
 20
-1.0
 30
0.0
 11
296.0
 21
-292.9950458463608
 31
0.0
  0
LINE
  5
76DC
330
76DA
100
AcDbEntity
  8
30
  6
CONTINUOUS
 62
     0
100
AcDbLine
 10
313.0
 20
-141.0
 30
0.0
 11
313.0
 21
-292.9950458463608
 31
0.0
  0
LINE
  5
76DD
330
76DA
100
AcDbEntity
  8
30
  6
CONTINUOUS
 62
     0
100
AcDbLine
 10
298.0
 20
-292.4950458463608
 30
0.0
 11
311.0
 21
-292.4950458463608
 31
0.0
  0
INSERT
  5
76DE
330
76DA
100
AcDbEntity
  8
30
  6
CONTINUOUS
 62
     0
100
AcDbBlockReference
  2
_OPEN
 10
296.0
 20
-292.4950458463608
 30
0.0
 41
2.0
 42
2.0
 43
2.0
 50
180.0
  0
INSERT
  5
76DF
330
76DA
100
AcDbEntity
  8
30
  6
CONTINUOUS
 62
     0
100
AcDbBlockReference
  2
_OPEN
 10
313.0
 20
-292.4950458463608
 30
0.0
 41
2.0
 42
2.0
 43
2.0
  0
MTEXT
  5
76E0
330
76DA
100
AcDbEntity
  8
30
  6
CONTINUOUS
 62
     0
100
AcDbMText
 10
304.4999999999999
 20
-287.9950458463608
 30
0.0
 40
7.0
 41
0.0
 71
     5
 72
     1
  1
\A1;17
1001
ACAD
1000
MTEXTBEGIN
1070
    73
1070
     1
1070
    44
1040
1.0
1070
    74
1070
     0
1000
MTEXTEND
1000
MTEXTBEGIN
1070
    73
1070
     1
1070
    44
1040
1.0
1070
    74
1070
     0
1000
MTEXTEND
1000
MTEXTBEGIN
1070
    73
1070
     1
1070
    44
1040
1.0
1070
    74
1070
     0
1000
MTEXTEND
  0
POINT
  5
76E1
330
76DA
100
AcDbEntity
  8
DEFPOINTS
  6
CONTINUOUS
 62
     0
100
AcDbPoint
 10
296.0
 20
0.0
 30
0.0
  0
POINT
  5
76E2
330
76DA
100
AcDbEntity
  8
DEFPOINTS
  6
CONTINUOUS
 62
     0
100
AcDbPoint
 10
313.0
 20
-140.0
 30
0.0
  0
POINT
  5
76E3
330
76DA
100
AcDbEntity
  8
DEFPOINTS
  6
CONTINUOUS
 62
     0
100
AcDbPoint
 10
313.0
 20
-292.4950458463608
 30
0.0
  0
ENDBLK
  5
76E5
330
76DA
100
AcDbEntity
  8
0
100
AcDbBlockEnd
  0
BLOCK
  5
76F0
330
76E6
100
AcDbEntity
  8
0
100
AcDbBlockBegin
  2
*D45
 70
     1
 10
0.0
 20
0.0
 30
0.0
  3
*D45
  1

  0
LINE
  5
76E7
330
76E6
100
AcDbEntity
  8
30
  6
CONTINUOUS
 62
     0
100
AcDbLine
 10
313.0
 20
-141.0
 30
0.0
 11
313.0
 21
-292.9950458463608
 31
0.0
  0
LINE
  5
76E8
330
76E6
100
AcDbEntity
  8
30
  6
CONTINUOUS
 62
     0
100
AcDbLine
 10
453.0
 20
-180.0
 30
0.0
 11
453.0
 21
-292.9950458463608
 31
0.0
  0
LINE
  5
76E9
330
76E6
100
AcDbEntity
  8
30
  6
CONTINUOUS
 62
     0
100
AcDbLine
 10
315.0
 20
-292.4950458463608
 30
0.0
 11
451.0
 21
-292.4950458463608
 31
0.0
  0
INSERT
  5
76EA
330
76E6
100
AcDbEntity
  8
30
  6
CONTINUOUS
 62
     0
100
AcDbBlockReference
  2
_OPEN
 10
313.0
 20
-292.4950458463608
 30
0.0
 41
2.0
 42
2.0
 43
2.0
 50
180.0
  0
INSERT
  5
76EB
330
76E6
100
AcDbEntity
  8
30
  6
CONTINUOUS
 62
     0
100
AcDbBlockReference
  2
_OPEN
 10
453.0
 20
-292.4950458463608
 30
0.0
 41
2.0
 42
2.0
 43
2.0
  0
MTEXT
  5
76EC
330
76E6
100
AcDbEntity
  8
30
  6
CONTINUOUS
 62
     0
100
AcDbMText
 10
383.0
 20
-287.9950458463608
 30
0.0
 40
7.0
 41
0.0
 71
     5
 72
     1
  1
\A1;140
1001
ACAD
1000
MTEXTBEGIN
1070
    73
1070
     1
1070
    44
1040
1.0
1070
    74
1070
     0
1000
MTEXTEND
1000
MTEXTBEGIN
1070
    73
1070
     1
1070
    44
1040
1.0
1070
    74
1070
     0
1000
MTEXTEND
1000
MTEXTBEGIN
1070
    73
1070
     1
1070
    44
1040
1.0
1070
    74
1070
     0
1000
MTEXTEND
  0
POINT
  5
76ED
330
76E6
100
AcDbEntity
  8
DEFPOINTS
  6
CONTINUOUS
 62
     0
100
AcDbPoint
 10
313.0
 20
-140.0
 30
0.0
  0
POINT
  5
76EE
330
76E6
100
AcDbEntity
  8
DEFPOINTS
  6
CONTINUOUS
 62
     0
100
AcDbPoint
 10
453.0
 20
-179.0
 30
0.0
  0
POINT
  5
76EF
330
76E6
100
AcDbEntity
  8
DEFPOINTS
  6
CONTINUOUS
 62
     0
100
AcDbPoint
 10
453.0
 20
-292.4950458463608
 30
0.0
  0
ENDBLK
  5
76F1
330
76E6
100
AcDbEntity
  8
0
100
AcDbBlockEnd
  0
BLOCK
  5
76FC
330
76F2
100
AcDbEntity
  8
0
100
AcDbBlockBegin
  2
*D46
 70
     1
 10
0.0
 20
0.0
 30
0.0
  3
*D46
  1

  0
LINE
  5
76F3
330
76F2
100
AcDbEntity
  8
30
  6
CONTINUOUS
 62
     0
100
AcDbLine
 10
387.0
 20
-271.0
 30
0.0
 11
387.0
 21
-283.4588801759837
 31
0.0
  0
LINE
  5
76F4
330
76F2
100
AcDbEntity
  8
30
  6
CONTINUOUS
 62
     0
100
AcDbLine
 10
407.0
 20
-271.0
 30
0.0
 11
407.0
 21
-283.4588801759837
 31
0.0
  0
LINE
  5
76F5
330
76F2
100
AcDbEntity
  8
30
  6
CONTINUOUS
 62
     0
100
AcDbLine
 10
389.0
 20
-282.9588801759837
 30
0.0
 11
405.0
 21
-282.9588801759837
 31
0.0
  0
INSERT
  5
76F6
330
76F2
100
AcDbEntity
  8
30
  6
CONTINUOUS
 62
     0
100
AcDbBlockReference
  2
_OPEN
 10
387.0
 20
-282.9588801759837
 30
0.0
 41
2.0
 42
2.0
 43
2.0
 50
180.0
  0
INSERT
  5
76F7
330
76F2
100
AcDbEntity
  8
30
  6
CONTINUOUS
 62
     0
100
AcDbBlockReference
  2
_OPEN
 10
407.0
 20
-282.9588801759837
 30
0.0
 41
2.0
 42
2.0
 43
2.0
  0
MTEXT
  5
76F8
330
76F2
100
AcDbEntity
  8
30
  6
CONTINUOUS
 62
     0
100
AcDbMText
 10
397.0
 20
-278.4588801759837
 30
0.0
 40
7.0
 41
0.0
 71
     5
 72
     1
  1
\A1;20
1001
ACAD
1000
MTEXTBEGIN
1070
    73
1070
     1
1070
    44
1040
1.0
1070
    74
1070
     0
1000
MTEXTEND
1000
MTEXTBEGIN
1070
    73
1070
     1
1070
    44
1040
1.0
1070
    74
1070
     0
1000
MTEXTEND
1000
MTEXTBEGIN
1070
    73
1070
     1
1070
    44
1040
1.0
1070
    74
1070
     0
1000
MTEXTEND
  0
POINT
  5
76F9
330
76F2
100
AcDbEntity
  8
DEFPOINTS
  6
CONTINUOUS
 62
     0
100
AcDbPoint
 10
387.0
 20
-270.0
 30
0.0
  0
POINT
  5
76FA
330
76F2
100
AcDbEntity
  8
DEFPOINTS
  6
CONTINUOUS
 62
     0
100
AcDbPoint
 10
407.0
 20
-270.0
 30
0.0
  0
POINT
  5
76FB
330
76F2
100
AcDbEntity
  8
DEFPOINTS
  6
CONTINUOUS
 62
     0
100
AcDbPoint
 10
407.0
 20
-282.9588801759837
 30
0.0
  0
ENDBLK
  5
76FD
330
76F2
100
AcDbEntity
  8
0
100
AcDbBlockEnd
  0
BLOCK
  5
7708
330
76FE
100
AcDbEntity
  8
0
100
AcDbBlockBegin
  2
*D47
 70
     1
 10
0.0
 20
0.0
 30
0.0
  3
*D47
  1

  0
LINE
  5
76FF
330
76FE
100
AcDbEntity
  8
30
  6
CONTINUOUS
 62
     0
100
AcDbLine
 10
407.0
 20
-271.0
 30
0.0
 11
407.0
 21
-283.4588801759837
 31
0.0
  0
LINE
  5
7700
330
76FE
100
AcDbEntity
  8
30
  6
CONTINUOUS
 62
     0
100
AcDbLine
 10
453.0
 20
-181.0
 30
0.0
 11
453.0
 21
-283.4588801759837
 31
0.0
  0
LINE
  5
7701
330
76FE
100
AcDbEntity
  8
30
  6
CONTINUOUS
 62
     0
100
AcDbLine
 10
409.0
 20
-282.9588801759837
 30
0.0
 11
451.0
 21
-282.9588801759837
 31
0.0
  0
INSERT
  5
7702
330
76FE
100
AcDbEntity
  8
30
  6
CONTINUOUS
 62
     0
100
AcDbBlockReference
  2
_OPEN
 10
407.0
 20
-282.9588801759837
 30
0.0
 41
2.0
 42
2.0
 43
2.0
 50
180.0
  0
INSERT
  5
7703
330
76FE
100
AcDbEntity
  8
30
  6
CONTINUOUS
 62
     0
100
AcDbBlockReference
  2
_OPEN
 10
453.0
 20
-282.9588801759837
 30
0.0
 41
2.0
 42
2.0
 43
2.0
  0
MTEXT
  5
7704
330
76FE
100
AcDbEntity
  8
30
  6
CONTINUOUS
 62
     0
100
AcDbMText
 10
430.0
 20
-278.4588801759837
 30
0.0
 40
7.0
 41
0.0
 71
     5
 72
     1
  1
\A1;46
1001
ACAD
1000
MTEXTBEGIN
1070
    73
1070
     1
1070
    44
1040
1.0
1070
    74
1070
     0
1000
MTEXTEND
1000
MTEXTBEGIN
1070
    73
1070
     1
1070
    44
1040
1.0
1070
    74
1070
     0
1000
MTEXTEND
1000
MTEXTBEGIN
1070
    73
1070
     1
1070
    44
1040
1.0
1070
    74
1070
     0
1000
MTEXTEND
  0
POINT
  5
7705
330
76FE
100
AcDbEntity
  8
DEFPOINTS
  6
CONTINUOUS
 62
     0
100
AcDbPoint
 10
407.0
 20
-270.0
 30
0.0
  0
POINT
  5
7706
330
76FE
100
AcDbEntity
  8
DEFPOINTS
  6
CONTINUOUS
 62
     0
100
AcDbPoint
 10
453.0
 20
-180.0
 30
0.0
  0
POINT
  5
7707
330
76FE
100
AcDbEntity
  8
DEFPOINTS
  6
CONTINUOUS
 62
     0
100
AcDbPoint
 10
453.0
 20
-282.9588801759837
 30
0.0
  0
ENDBLK
  5
7709
330
76FE
100
AcDbEntity
  8
0
100
AcDbBlockEnd
  0
BLOCK
  5
7714
330
770A
100
AcDbEntity
  8
0
100
AcDbBlockBegin
  2
*D48
 70
     1
 10
0.0
 20
0.0
 30
0.0
  3
*D48
  1

  0
LINE
  5
770B
330
770A
100
AcDbEntity
  8
30
  6
CONTINUOUS
 62
     0
100
AcDbLine
 10
313.0
 20
-141.0
 30
0.0
 11
313.0
 21
-194.9087893196516
 31
0.0
  0
LINE
  5
770C
330
770A
100
AcDbEntity
  8
30
  6
CONTINUOUS
 62
     0
100
AcDbLine
 10
321.0
 20
-171.0
 30
0.0
 11
321.0
 21
-194.9087893196516
 31
0.0
  0
LINE
  5
770D
330
770A
100
AcDbEntity
  8
30
  6
CONTINUOUS
 62
     0
100
AcDbLine
 10
315.0
 20
-194.4087893196519
 30
0.0
 11
319.0
 21
-194.4087893196519
 31
0.0
  0
INSERT
  5
770E
330
770A
100
AcDbEntity
  8
30
  6
CONTINUOUS
 62
     0
100
AcDbBlockReference
  2
_OPEN
 10
313.0
 20
-194.4087893196519
 30
0.0
 41
2.0
 42
2.0
 43
2.0
 50
180.0
  0
INSERT
  5
770F
330
770A
100
AcDbEntity
  8
30
  6
CONTINUOUS
 62
     0
100
AcDbBlockReference
  2
_OPEN
 10
321.0
 20
-194.4087893196519
 30
0.0
 41
2.0
 42
2.0
 43
2.0
  0
MTEXT
  5
7710
330
770A
100
AcDbEntity
  8
30
  6
CONTINUOUS
 62
     0
100
AcDbMText
 10
317.0
 20
-189.9087893196519
 30
0.0
 40
7.0
 41
0.0
 71
     5
 72
     1
  1
\A1;8
1001
ACAD
1000
MTEXTBEGIN
1070
    73
1070
     1
1070
    44
1040
1.0
1070
    74
1070
     0
1000
MTEXTEND
1000
MTEXTBEGIN
1070
    73
1070
     1
1070
    44
1040
1.0
1070
    74
1070
     0
1000
MTEXTEND
1000
MTEXTBEGIN
1070
    73
1070
     1
1070
    44
1040
1.0
1070
    74
1070
     0
1000
MTEXTEND
  0
POINT
  5
7711
330
770A
100
AcDbEntity
  8
DEFPOINTS
  6
CONTINUOUS
 62
     0
100
AcDbPoint
 10
313.0
 20
-140.0
 30
0.0
  0
POINT
  5
7712
330
770A
100
AcDbEntity
  8
DEFPOINTS
  6
CONTINUOUS
 62
     0
100
AcDbPoint
 10
321.0
 20
-170.0
 30
0.0
  0
POINT
  5
7713
330
770A
100
AcDbEntity
  8
DEFPOINTS
  6
CONTINUOUS
 62
     0
100
AcDbPoint
 10
321.0
 20
-194.4087893196519
 30
0.0
  0
ENDBLK
  5
7715
330
770A
100
AcDbEntity
  8
0
100
AcDbBlockEnd
  0
BLOCK
  5
7720
330
7716
100
AcDbEntity
  8
0
100
AcDbBlockBegin
  2
*D49
 70
     1
 10
0.0
 20
0.0
 30
0.0
  3
*D49
  1

  0
LINE
  5
7717
330
7716
100
AcDbEntity
  8
30
  6
CONTINUOUS
 62
     0
100
AcDbLine
 10
425.0
 20
-144.5
 30
0.0
 11
425.0
 21
-123.0687133200817
 31
0.0
  0
LINE
  5
7718
330
7716
100
AcDbEntity
  8
30
  6
CONTINUOUS
 62
     0
100
AcDbLine
 10
453.0
 20
-138.0
 30
0.0
 11
453.0
 21
-123.0687133200817
 31
0.0
  0
LINE
  5
7719
330
7716
100
AcDbEntity
  8
30
  6
CONTINUOUS
 62
     0
100
AcDbLine
 10
427.0
 20
-123.5687133200817
 30
0.0
 11
451.0
 21
-123.5687133200817
 31
0.0
  0
INSERT
  5
771A
330
7716
100
AcDbEntity
  8
30
  6
CONTINUOUS
 62
     0
100
AcDbBlockReference
  2
_OPEN
 10
425.0
 20
-123.5687133200817
 30
0.0
 41
2.0
 42
2.0
 43
2.0
 50
180.0
  0
INSERT
  5
771B
330
7716
100
AcDbEntity
  8
30
  6
CONTINUOUS
 62
     0
100
AcDbBlockReference
  2
_OPEN
 10
453.0
 20
-123.5687133200817
 30
0.0
 41
2.0
 42
2.0
 43
2.0
  0
MTEXT
  5
771C
330
7716
100
AcDbEntity
  8
30
  6
CONTINUOUS
 62
     0
100
AcDbMText
 10
439.0
 20
-119.0687133200817
 30
0.0
 40
7.0
 41
0.0
 71
     5
 72
     1
  1
\A1;28
1001
ACAD
1000
MTEXTBEGIN
1070
    73
1070
     1
1070
    44
1040
1.0
1070
    74
1070
     0
1000
MTEXTEND
1000
MTEXTBEGIN
1070
    73
1070
     1
1070
    44
1040
1.0
1070
    74
1070
     0
1000
MTEXTEND
1000
MTEXTBEGIN
1070
    73
1070
     1
1070
    44
1040
1.0
1070
    74
1070
     0
1000
MTEXTEND
  0
POINT
  5
771D
330
7716
100
AcDbEntity
  8
DEFPOINTS
  6
CONTINUOUS
 62
     0
100
AcDbPoint
 10
425.0
 20
-145.5
 30
0.0
  0
POINT
  5
771E
330
7716
100
AcDbEntity
  8
DEFPOINTS
  6
CONTINUOUS
 62
     0
100
AcDbPoint
 10
453.0
 20
-139.0
 30
0.0
  0
POINT
  5
771F
330
7716
100
AcDbEntity
  8
DEFPOINTS
  6
CONTINUOUS
 62
     0
100
AcDbPoint
 10
453.0
 20
-123.5687133200817
 30
0.0
  0
ENDBLK
  5
7721
330
7716
100
AcDbEntity
  8
0
100
AcDbBlockEnd
  0
BLOCK
  5
772C
330
7722
100
AcDbEntity
  8
0
100
AcDbBlockBegin
  2
*D50
 70
     1
 10
0.0
 20
0.0
 30
0.0
  3
*D50
  1

  0
LINE
  5
7723
330
7722
100
AcDbEntity
  8
30
  6
CONTINUOUS
 62
     0
100
AcDbLine
 10
453.0
 20
-138.0
 30
0.0
 11
453.0
 21
-123.0687133200817
 31
0.0
  0
LINE
  5
7724
330
7722
100
AcDbEntity
  8
30
  6
CONTINUOUS
 62
     0
100
AcDbLine
 10
471.0
 20
-149.0
 30
0.0
 11
471.0
 21
-123.0687133200817
 31
0.0
  0
LINE
  5
7725
330
7722
100
AcDbEntity
  8
30
  6
CONTINUOUS
 62
     0
100
AcDbLine
 10
455.0
 20
-123.5687133200817
 30
0.0
 11
469.0
 21
-123.5687133200817
 31
0.0
  0
INSERT
  5
7726
330
7722
100
AcDbEntity
  8
30
  6
CONTINUOUS
 62
     0
100
AcDbBlockReference
  2
_OPEN
 10
453.0
 20
-123.5687133200817
 30
0.0
 41
2.0
 42
2.0
 43
2.0
 50
180.0
  0
INSERT
  5
7727
330
7722
100
AcDbEntity
  8
30
  6
CONTINUOUS
 62
     0
100
AcDbBlockReference
  2
_OPEN
 10
471.0
 20
-123.5687133200817
 30
0.0
 41
2.0
 42
2.0
 43
2.0
  0
MTEXT
  5
7728
330
7722
100
AcDbEntity
  8
30
  6
CONTINUOUS
 62
     0
100
AcDbMText
 10
462.0
 20
-119.0687133200817
 30
0.0
 40
7.0
 41
0.0
 71
     5
 72
     1
  1
\A1;18
1001
ACAD
1000
MTEXTBEGIN
1070
    73
1070
     1
1070
    44
1040
1.0
1070
    74
1070
     0
1000
MTEXTEND
1000
MTEXTBEGIN
1070
    73
1070
     1
1070
    44
1040
1.0
1070
    74
1070
     0
1000
MTEXTEND
1000
MTEXTBEGIN
1070
    73
1070
     1
1070
    44
1040
1.0
1070
    74
1070
     0
1000
MTEXTEND
  0
POINT
  5
7729
330
7722
100
AcDbEntity
  8
DEFPOINTS
  6
CONTINUOUS
 62
     0
100
AcDbPoint
 10
453.0
 20
-139.0
 30
0.0
  0
POINT
  5
772A
330
7722
100
AcDbEntity
  8
DEFPOINTS
  6
CONTINUOUS
 62
     0
100
AcDbPoint
 10
471.0
 20
-150.0
 30
0.0
  0
POINT
  5
772B
330
7722
100
AcDbEntity
  8
DEFPOINTS
  6
CONTINUOUS
 62
     0
100
AcDbPoint
 10
471.0
 20
-123.5687133200817
 30
0.0
  0
ENDBLK
  5
772D
330
7722
100
AcDbEntity
  8
0
100
AcDbBlockEnd
  0
BLOCK
  5
7738
330
772E
100
AcDbEntity
  8
0
100
AcDbBlockBegin
  2
*D51
 70
     1
 10
0.0
 20
0.0
 30
0.0
  3
*D51
  1

  0
LINE
  5
772F
330
772E
100
AcDbEntity
  8
30
  6
CONTINUOUS
 62
     0
100
AcDbLine
 10
182.0001068115459
 20
-0.9999999999999895
 30
0.0
 11
182.0001068115459
 21
-309.58595701602
 31
0.0
  0
LINE
  5
7730
330
772E
100
AcDbEntity
  8
30
  6
CONTINUOUS
 62
     0
100
AcDbLine
 10
261.9998397827433
 20
-1.0
 30
0.0
 11
261.9998397827433
 21
-309.58595701602
 31
0.0
  0
LINE
  5
7731
330
772E
100
AcDbEntity
  8
30
  6
CONTINUOUS
 62
     0
100
AcDbLine
 10
184.0001068115459
 20
-309.08595701602
 30
0.0
 11
259.9998397827433
 21
-309.08595701602
 31
0.0
  0
INSERT
  5
7732
330
772E
100
AcDbEntity
  8
30
  6
CONTINUOUS
 62
     0
100
AcDbBlockReference
  2
_OPEN
 10
182.0001068115459
 20
-309.08595701602
 30
0.0
 41
2.0
 42
2.0
 43
2.0
 50
180.0
  0
INSERT
  5
7733
330
772E
100
AcDbEntity
  8
30
  6
CONTINUOUS
 62
     0
100
AcDbBlockReference
  2
_OPEN
 10
261.9998397827433
 20
-309.08595701602
 30
0.0
 41
2.0
 42
2.0
 43
2.0
  0
MTEXT
  5
7734
330
772E
100
AcDbEntity
  8
30
  6
CONTINUOUS
 62
     0
100
AcDbMText
 10
221.9999732971445
 20
-304.58595701602
 30
0.0
 40
7.0
 41
0.0
 71
     5
 72
     1
  1
\A1;80
1001
ACAD
1000
MTEXTBEGIN
1070
    73
1070
     1
1070
    44
1040
1.0
1070
    74
1070
     0
1000
MTEXTEND
1000
MTEXTBEGIN
1070
    73
1070
     1
1070
    44
1040
1.0
1070
    74
1070
     0
1000
MTEXTEND
1000
MTEXTBEGIN
1070
    73
1070
     1
1070
    44
1040
1.0
1070
    74
1070
     0
1000
MTEXTEND
  0
POINT
  5
7735
330
772E
100
AcDbEntity
  8
DEFPOINTS
  6
CONTINUOUS
 62
     0
100
AcDbPoint
 10
182.0001068115459
 20
0.0000000000000105
 30
0.0
  0
POINT
  5
7736
330
772E
100
AcDbEntity
  8
DEFPOINTS
  6
CONTINUOUS
 62
     0
100
AcDbPoint
 10
261.9998397827433
 20
-0.0000000000000009
 30
0.0
  0
POINT
  5
7737
330
772E
100
AcDbEntity
  8
DEFPOINTS
  6
CONTINUOUS
 62
     0
100
AcDbPoint
 10
261.9998397827433
 20
-309.08595701602
 30
0.0
  0
ENDBLK
  5
7739
330
772E
100
AcDbEntity
  8
0
100
AcDbBlockEnd
  0
BLOCK
  5
7744
330
773A
100
AcDbEntity
  8
0
100
AcDbBlockBegin
  2
*D52
 70
     1
 10
0.0
 20
0.0
 30
0.0
  3
*D52
  1

  0
LINE
  5
773B
330
773A
100
AcDbEntity
  8
30
  6
CONTINUOUS
 62
     0
100
AcDbLine
 10
261.9998397827433
 20
-1.0
 30
0.0
 11
261.9998397827433
 21
-309.58595701602
 31
0.0
  0
LINE
  5
773C
330
773A
100
AcDbEntity
  8
30
  6
CONTINUOUS
 62
     0
100
AcDbLine
 10
453.0
 20
-180.0
 30
0.0
 11
453.0
 21
-309.58595701602
 31
0.0
  0
LINE
  5
773D
330
773A
100
AcDbEntity
  8
30
  6
CONTINUOUS
 62
     0
100
AcDbLine
 10
263.9998397827433
 20
-309.08595701602
 30
0.0
 11
451.0
 21
-309.08595701602
 31
0.0
  0
INSERT
  5
773E
330
773A
100
AcDbEntity
  8
30
  6
CONTINUOUS
 62
     0
100
AcDbBlockReference
  2
_OPEN
 10
261.9998397827433
 20
-309.08595701602
 30
0.0
 41
2.0
 42
2.0
 43
2.0
 50
180.0
  0
INSERT
  5
773F
330
773A
100
AcDbEntity
  8
30
  6
CONTINUOUS
 62
     0
100
AcDbBlockReference
  2
_OPEN
 10
453.0
 20
-309.08595701602
 30
0.0
 41
2.0
 42
2.0
 43
2.0
  0
MTEXT
  5
7740
330
773A
100
AcDbEntity
  8
30
  6
CONTINUOUS
 62
     0
100
AcDbMText
 10
357.4999198913716
 20
-304.58595701602
 30
0.0
 40
7.0
 41
0.0
 71
     5
 72
     1
  1
\A1;191
1001
ACAD
1000
MTEXTBEGIN
1070
    73
1070
     1
1070
    44
1040
1.0
1070
    74
1070
     0
1000
MTEXTEND
1000
MTEXTBEGIN
1070
    73
1070
     1
1070
    44
1040
1.0
1070
    74
1070
     0
1000
MTEXTEND
1000
MTEXTBEGIN
1070
    73
1070
     1
1070
    44
1040
1.0
1070
    74
1070
     0
1000
MTEXTEND
  0
POINT
  5
7741
330
773A
100
AcDbEntity
  8
DEFPOINTS
  6
CONTINUOUS
 62
     0
100
AcDbPoint
 10
261.9998397827433
 20
-0.0000000000000009
 30
0.0
  0
POINT
  5
7742
330
773A
100
AcDbEntity
  8
DEFPOINTS
  6
CONTINUOUS
 62
     0
100
AcDbPoint
 10
453.0
 20
-179.0
 30
0.0
  0
POINT
  5
7743
330
773A
100
AcDbEntity
  8
DEFPOINTS
  6
CONTINUOUS
 62
     0
100
AcDbPoint
 10
453.0
 20
-309.08595701602
 30
0.0
  0
ENDBLK
  5
7745
330
773A
100
AcDbEntity
  8
0
100
AcDbBlockEnd
  0
BLOCK
  5
7750
330
7746
100
AcDbEntity
  8
0
100
AcDbBlockBegin
  2
*D53
 70
     1
 10
0.0
 20
0.0
 30
0.0
  3
*D53
  1

  0
LINE
  5
7747
330
7746
100
AcDbEntity
  8
30
  6
CONTINUOUS
 62
     0
100
AcDbLine
 10
312.0
 20
170.0
 30
0.0
 11
240.2140212313461
 21
170.0
 31
0.0
  0
LINE
  5
7748
330
7746
100
AcDbEntity
  8
30
  6
CONTINUOUS
 62
     0
100
AcDbLine
 10
260.9998397827433
 20
0.0000000000000003
 30
0.0
 11
240.2140212313461
 21
0.0000000000000062
 31
0.0
  0
LINE
  5
7749
330
7746
100
AcDbEntity
  8
30
  6
CONTINUOUS
 62
     0
100
AcDbLine
 10
240.7140212313461
 20
168.0
 30
0.0
 11
240.7140212313461
 21
2.000000000000003
 31
0.0
  0
INSERT
  5
774A
330
7746
100
AcDbEntity
  8
30
  6
CONTINUOUS
 62
     0
100
AcDbBlockReference
  2
_OPEN
 10
240.7140212313461
 20
170.0
 30
0.0
 41
2.0
 42
2.0
 43
2.0
 50
90.0
  0
INSERT
  5
774B
330
7746
100
AcDbEntity
  8
30
  6
CONTINUOUS
 62
     0
100
AcDbBlockReference
  2
_OPEN
 10
240.7140212313461
 20
0.000000000000006
 30
0.0
 41
2.0
 42
2.0
 43
2.0
 50
270.0
  0
MTEXT
  5
774C
330
7746
100
AcDbEntity
  8
30
  6
CONTINUOUS
 62
     0
100
AcDbMText
 10
236.2140212313461
 20
85.00000000000005
 30
0.0
 40
7.0
 41
0.0
 71
     5
 72
     1
  1
\A1;170
 11
0.0000000000000001
 21
1.0
 31
0.0
1001
ACAD
1000
MTEXTBEGIN
1070
    73
1070
     1
1070
    44
1040
1.0
1070
    74
1070
     0
1000
MTEXTEND
1000
MTEXTBEGIN
1070
    73
1070
     1
1070
    44
1040
1.0
1070
    74
1070
     0
1000
MTEXTEND
1000
MTEXTBEGIN
1070
    73
1070
     1
1070
    44
1040
1.0
1070
    74
1070
     0
1000
MTEXTEND
  0
POINT
  5
774D
330
7746
100
AcDbEntity
  8
DEFPOINTS
  6
CONTINUOUS
 62
     0
100
AcDbPoint
 10
313.0
 20
170.0
 30
0.0
  0
POINT
  5
774E
330
7746
100
AcDbEntity
  8
DEFPOINTS
  6
CONTINUOUS
 62
     0
100
AcDbPoint
 10
261.9998397827433
 20
0.0
 30
0.0
  0
POINT
  5
774F
330
7746
100
AcDbEntity
  8
DEFPOINTS
  6
CONTINUOUS
 62
     0
100
AcDbPoint
 10
240.7140212313461
 20
0.000000000000006
 30
0.0
  0
ENDBLK
  5
7751
330
7746
100
AcDbEntity
  8
0
100
AcDbBlockEnd
  0
BLOCK
  5
775C
330
7752
100
AcDbEntity
  8
0
100
AcDbBlockBegin
  2
*D54
 70
     1
 10
0.0
 20
0.0
 30
0.0
  3
*D54
  1

  0
LINE
  5
7753
330
7752
100
AcDbEntity
  8
30
  6
CONTINUOUS
 62
     0
100
AcDbLine
 10
260.9998397827433
 20
0.0000000000000003
 30
0.0
 11
240.2140212313461
 21
0.0000000000000062
 31
0.0
  0
LINE
  5
7754
330
7752
100
AcDbEntity
  8
30
  6
CONTINUOUS
 62
     0
100
AcDbLine
 10
312.0
 20
-140.0
 30
0.0
 11
240.2140212313461
 21
-140.0
 31
0.0
  0
LINE
  5
7755
330
7752
100
AcDbEntity
  8
30
  6
CONTINUOUS
 62
     0
100
AcDbLine
 10
240.7140212313461
 20
-1.999999999999993
 30
0.0
 11
240.7140212313461
 21
-138.0
 31
0.0
  0
INSERT
  5
7756
330
7752
100
AcDbEntity
  8
30
  6
CONTINUOUS
 62
     0
100
AcDbBlockReference
  2
_OPEN
 10
240.7140212313461
 20
0.000000000000006
 30
0.0
 41
2.0
 42
2.0
 43
2.0
 50
90.0
  0
INSERT
  5
7757
330
7752
100
AcDbEntity
  8
30
  6
CONTINUOUS
 62
     0
100
AcDbBlockReference
  2
_OPEN
 10
240.7140212313461
 20
-140.0
 30
0.0
 41
2.0
 42
2.0
 43
2.0
 50
270.0
  0
MTEXT
  5
7758
330
7752
100
AcDbEntity
  8
30
  6
CONTINUOUS
 62
     0
100
AcDbMText
 10
236.2140212313461
 20
-69.99999999999996
 30
0.0
 40
7.0
 41
0.0
 71
     5
 72
     1
  1
\A1;140
 11
0.0000000000000001
 21
1.0
 31
0.0
1001
ACAD
1000
MTEXTBEGIN
1070
    73
1070
     1
1070
    44
1040
1.0
1070
    74
1070
     0
1000
MTEXTEND
1000
MTEXTBEGIN
1070
    73
1070
     1
1070
    44
1040
1.0
1070
    74
1070
     0
1000
MTEXTEND
1000
MTEXTBEGIN
1070
    73
1070
     1
1070
    44
1040
1.0
1070
    74
1070
     0
1000
MTEXTEND
  0
POINT
  5
7759
330
7752
100
AcDbEntity
  8
DEFPOINTS
  6
CONTINUOUS
 62
     0
100
AcDbPoint
 10
261.9998397827433
 20
0.0
 30
0.0
  0
POINT
  5
775A
330
7752
100
AcDbEntity
  8
DEFPOINTS
  6
CONTINUOUS
 62
     0
100
AcDbPoint
 10
313.0
 20
-140.0
 30
0.0
  0
POINT
  5
775B
330
7752
100
AcDbEntity
  8
DEFPOINTS
  6
CONTINUOUS
 62
     0
100
AcDbPoint
 10
240.7140212313461
 20
-140.0
 30
0.0
  0
ENDBLK
  5
775D
330
7752
100
AcDbEntity
  8
0
100
AcDbBlockEnd
  0
BLOCK
  5
7768
330
775E
100
AcDbEntity
  8
0
100
AcDbBlockBegin
  2
*D55
 70
     1
 10
0.0
 20
0.0
 30
0.0
  3
*D55
  1

  0
LINE
  5
775F
330
775E
100
AcDbEntity
  8
30
  6
CONTINUOUS
 62
     0
100
AcDbLine
 10
454.0
 20
200.0
 30
0.0
 11
463.1175351181136
 21
200.0
 31
0.0
  0
LINE
  5
7760
330
775E
100
AcDbEntity
  8
30
  6
CONTINUOUS
 62
     0
100
AcDbLine
 10
454.0
 20
230.0
 30
0.0
 11
463.1175351181136
 21
230.0
 31
0.0
  0
LINE
  5
7761
330
775E
100
AcDbEntity
  8
30
  6
CONTINUOUS
 62
     0
100
AcDbLine
 10
462.6175351181136
 20
202.0
 30
0.0
 11
462.6175351181136
 21
228.0
 31
0.0
  0
INSERT
  5
7762
330
775E
100
AcDbEntity
  8
30
  6
CONTINUOUS
 62
     0
100
AcDbBlockReference
  2
_OPEN
 10
462.6175351181136
 20
200.0
 30
0.0
 41
2.0
 42
2.0
 43
2.0
 50
270.0
  0
INSERT
  5
7763
330
775E
100
AcDbEntity
  8
30
  6
CONTINUOUS
 62
     0
100
AcDbBlockReference
  2
_OPEN
 10
462.6175351181136
 20
230.0
 30
0.0
 41
2.0
 42
2.0
 43
2.0
 50
90.0
  0
MTEXT
  5
7764
330
775E
100
AcDbEntity
  8
30
  6
CONTINUOUS
 62
     0
100
AcDbMText
 10
458.1175351181133
 20
215.0
 30
0.0
 40
7.0
 41
0.0
 71
     5
 72
     1
  1
\A1;30
 11
0.0000000000000001
 21
1.0
 31
0.0
1001
ACAD
1000
MTEXTBEGIN
1070
    73
1070
     1
1070
    44
1040
1.0
1070
    74
1070
     0
1000
MTEXTEND
1000
MTEXTBEGIN
1070
    73
1070
     1
1070
    44
1040
1.0
1070
    74
1070
     0
1000
MTEXTEND
1000
MTEXTBEGIN
1070
    73
1070
     1
1070
    44
1040
1.0
1070
    74
1070
     0
1000
MTEXTEND
  0
POINT
  5
7765
330
775E
100
AcDbEntity
  8
DEFPOINTS
  6
CONTINUOUS
 62
     0
100
AcDbPoint
 10
453.0
 20
200.0
 30
0.0
  0
POINT
  5
7766
330
775E
100
AcDbEntity
  8
DEFPOINTS
  6
CONTINUOUS
 62
     0
100
AcDbPoint
 10
453.0
 20
230.0
 30
0.0
  0
POINT
  5
7767
330
775E
100
AcDbEntity
  8
DEFPOINTS
  6
CONTINUOUS
 62
     0
100
AcDbPoint
 10
462.6175351181136
 20
230.0
 30
0.0
  0
ENDBLK
  5
7769
330
775E
100
AcDbEntity
  8
0
100
AcDbBlockEnd
  0
BLOCK
  5
7824
330
781A
100
AcDbEntity
  8
0
100
AcDbBlockBegin
  2
*D56
 70
     1
 10
0.0
 20
0.0
 30
0.0
  3
*D56
  1

  0
LINE
  5
797C
330
781A
100
AcDbEntity
  8
30
  6
CONTINUOUS
 62
     0
100
AcDbLine
 10
564.0891437027476
 20
-144.5
 30
0.0
 11
564.0891437027476
 21
-123.0687133200817
 31
0.0
  0
LINE
  5
797D
330
781A
100
AcDbEntity
  8
30
  6
CONTINUOUS
 62
     0
100
AcDbLine
 10
592.0891437027476
 20
-138.0
 30
0.0
 11
592.0891437027476
 21
-123.0687133200817
 31
0.0
  0
LINE
  5
797E
330
781A
100
AcDbEntity
  8
30
  6
CONTINUOUS
 62
     0
100
AcDbLine
 10
566.0891437027474
 20
-123.5687133200817
 30
0.0
 11
590.0891437027476
 21
-123.5687133200817
 31
0.0
  0
INSERT
  5
797F
330
781A
100
AcDbEntity
  8
30
  6
CONTINUOUS
 62
     0
100
AcDbBlockReference
  2
_OPEN
 10
564.0891437027476
 20
-123.5687133200817
 30
0.0
 41
2.0
 42
2.0
 43
2.0
 50
180.0
  0
INSERT
  5
7980
330
781A
100
AcDbEntity
  8
30
  6
CONTINUOUS
 62
     0
100
AcDbBlockReference
  2
_OPEN
 10
592.0891437027476
 20
-123.5687133200817
 30
0.0
 41
2.0
 42
2.0
 43
2.0
  0
MTEXT
  5
7981
330
781A
100
AcDbEntity
  8
30
  6
CONTINUOUS
 62
     0
100
AcDbMText
 10
578.0891437027475
 20
-119.0687133200817
 30
0.0
 40
7.0
 41
0.0
 71
     5
 72
     1
  1
\A1;28
1001
ACAD
1000
MTEXTBEGIN
1070
    73
1070
     1
1070
    44
1040
1.0
1070
    74
1070
     0
1000
MTEXTEND
1000
MTEXTBEGIN
1070
    73
1070
     1
1070
    44
1040
1.0
1070
    74
1070
     0
1000
MTEXTEND
1000
MTEXTBEGIN
1070
    73
1070
     1
1070
    44
1040
1.0
1070
    74
1070
     0
1000
MTEXTEND
  0
POINT
  5
7982
330
781A
100
AcDbEntity
  8
DEFPOINTS
  6
CONTINUOUS
 62
     0
100
AcDbPoint
 10
564.0891437027476
 20
-145.5
 30
0.0
  0
POINT
  5
7983
330
781A
100
AcDbEntity
  8
DEFPOINTS
  6
CONTINUOUS
 62
     0
100
AcDbPoint
 10
592.0891437027476
 20
-139.0
 30
0.0
  0
POINT
  5
7984
330
781A
100
AcDbEntity
  8
DEFPOINTS
  6
CONTINUOUS
 62
     0
100
AcDbPoint
 10
592.0891437027476
 20
-123.5687133200817
 30
0.0
  0
ENDBLK
  5
7825
330
781A
100
AcDbEntity
  8
0
100
AcDbBlockEnd
  0
BLOCK
  5
7830
330
7826
100
AcDbEntity
  8
0
100
AcDbBlockBegin
  2
*D57
 70
     1
 10
0.0
 20
0.0
 30
0.0
  3
*D57
  1

  0
LINE
  5
7C15
330
7826
100
AcDbEntity
  8
30
  6
CONTINUOUS
 62
     0
100
AcDbLine
 10
592.0891437027476
 20
-138.0
 30
0.0
 11
592.0891437027476
 21
-123.0687133200817
 31
0.0
  0
LINE
  5
7C16
330
7826
100
AcDbEntity
  8
30
  6
CONTINUOUS
 62
     0
100
AcDbLine
 10
610.0891437027476
 20
-149.0
 30
0.0
 11
610.0891437027476
 21
-123.0687133200817
 31
0.0
  0
LINE
  5
7C17
330
7826
100
AcDbEntity
  8
30
  6
CONTINUOUS
 62
     0
100
AcDbLine
 10
594.0891437027476
 20
-123.5687133200817
 30
0.0
 11
608.0891437027475
 21
-123.5687133200817
 31
0.0
  0
INSERT
  5
7C18
330
7826
100
AcDbEntity
  8
30
  6
CONTINUOUS
 62
     0
100
AcDbBlockReference
  2
_OPEN
 10
592.0891437027476
 20
-123.5687133200817
 30
0.0
 41
2.0
 42
2.0
 43
2.0
 50
180.0
  0
INSERT
  5
7C19
330
7826
100
AcDbEntity
  8
30
  6
CONTINUOUS
 62
     0
100
AcDbBlockReference
  2
_OPEN
 10
610.0891437027476
 20
-123.5687133200817
 30
0.0
 41
2.0
 42
2.0
 43
2.0
  0
MTEXT
  5
7C1A
330
7826
100
AcDbEntity
  8
30
  6
CONTINUOUS
 62
     0
100
AcDbMText
 10
601.0891437027476
 20
-119.0687133200817
 30
0.0
 40
7.0
 41
0.0
 71
     5
 72
     1
  1
\A1;18
  0
POINT
  5
7C1B
330
7826
100
AcDbEntity
  8
DEFPOINTS
  6
CONTINUOUS
 62
     0
100
AcDbPoint
 10
592.0891437027476
 20
-139.0
 30
0.0
  0
POINT
  5
7C1C
330
7826
100
AcDbEntity
  8
DEFPOINTS
  6
CONTINUOUS
 62
     0
100
AcDbPoint
 10
610.0891437027476
 20
-150.0
 30
0.0
  0
POINT
  5
7C1D
330
7826
100
AcDbEntity
  8
DEFPOINTS
  6
CONTINUOUS
 62
     0
100
AcDbPoint
 10
610.0891437027476
 20
-123.5687133200817
 30
0.0
  0
ENDBLK
  5
7831
330
7826
100
AcDbEntity
  8
0
100
AcDbBlockEnd
  0
BLOCK
  5
783C
330
7832
100
AcDbEntity
  8
0
100
AcDbBlockBegin
  2
*D58
 70
     1
 10
0.0
 20
0.0
 30
0.0
  3
*D58
  1

  0
LINE
  5
798E
330
7832
100
AcDbEntity
  8
30
  6
CONTINUOUS
 62
     0
100
AcDbLine
 10
593.0891437027476
 20
200.0
 30
0.0
 11
602.2066788208611
 21
200.0
 31
0.0
  0
LINE
  5
798F
330
7832
100
AcDbEntity
  8
30
  6
CONTINUOUS
 62
     0
100
AcDbLine
 10
593.0891437027476
 20
230.0
 30
0.0
 11
602.2066788208611
 21
230.0
 31
0.0
  0
LINE
  5
7990
330
7832
100
AcDbEntity
  8
30
  6
CONTINUOUS
 62
     0
100
AcDbLine
 10
601.7066788208611
 20
202.0
 30
0.0
 11
601.7066788208611
 21
228.0
 31
0.0
  0
INSERT
  5
7991
330
7832
100
AcDbEntity
  8
30
  6
CONTINUOUS
 62
     0
100
AcDbBlockReference
  2
_OPEN
 10
601.7066788208611
 20
200.0
 30
0.0
 41
2.0
 42
2.0
 43
2.0
 50
270.0
  0
INSERT
  5
7992
330
7832
100
AcDbEntity
  8
30
  6
CONTINUOUS
 62
     0
100
AcDbBlockReference
  2
_OPEN
 10
601.7066788208611
 20
230.0
 30
0.0
 41
2.0
 42
2.0
 43
2.0
 50
90.0
  0
MTEXT
  5
7993
330
7832
100
AcDbEntity
  8
30
  6
CONTINUOUS
 62
     0
100
AcDbMText
 10
597.2066788208612
 20
215.0
 30
0.0
 40
7.0
 41
0.0
 71
     5
 72
     1
  1
\A1;30
 11
0.0000000000000001
 21
1.0
 31
0.0
1001
ACAD
1000
MTEXTBEGIN
1070
    73
1070
     1
1070
    44
1040
1.0
1070
    74
1070
     0
1000
MTEXTEND
1000
MTEXTBEGIN
1070
    73
1070
     1
1070
    44
1040
1.0
1070
    74
1070
     0
1000
MTEXTEND
1000
MTEXTBEGIN
1070
    73
1070
     1
1070
    44
1040
1.0
1070
    74
1070
     0
1000
MTEXTEND
  0
POINT
  5
7994
330
7832
100
AcDbEntity
  8
DEFPOINTS
  6
CONTINUOUS
 62
     0
100
AcDbPoint
 10
592.0891437027476
 20
200.0
 30
0.0
  0
POINT
  5
7995
330
7832
100
AcDbEntity
  8
DEFPOINTS
  6
CONTINUOUS
 62
     0
100
AcDbPoint
 10
592.0891437027476
 20
230.0
 30
0.0
  0
POINT
  5
7996
330
7832
100
AcDbEntity
  8
DEFPOINTS
  6
CONTINUOUS
 62
     0
100
AcDbPoint
 10
601.7066788208611
 20
230.0
 30
0.0
  0
ENDBLK
  5
783D
330
7832
100
AcDbEntity
  8
0
100
AcDbBlockEnd
  0
BLOCK
  5
7848
330
783E
100
AcDbEntity
  8
0
100
AcDbBlockBegin
  2
*D59
 70
     1
 10
0.0
 20
0.0
 30
0.0
  3
*D59
  1

  0
LINE
  5
7C1E
330
783E
100
AcDbEntity
  8
30
  6
CONTINUOUS
 62
     0
100
AcDbLine
 10
581.0891437027476
 20
301.0
 30
0.0
 11
581.0891437027476
 21
328.7168640744837
 31
0.0
  0
LINE
  5
7C1F
330
783E
100
AcDbEntity
  8
30
  6
CONTINUOUS
 62
     0
100
AcDbLine
 10
561.0891437027476
 20
301.0
 30
0.0
 11
561.0891437027476
 21
328.7168640744837
 31
0.0
  0
LINE
  5
7C20
330
783E
100
AcDbEntity
  8
30
  6
CONTINUOUS
 62
     0
100
AcDbLine
 10
579.0891437027475
 20
328.2168640744838
 30
0.0
 11
563.0891437027476
 21
328.2168640744838
 31
0.0
  0
INSERT
  5
7C21
330
783E
100
AcDbEntity
  8
30
  6
CONTINUOUS
 62
     0
100
AcDbBlockReference
  2
_OPEN
 10
581.0891437027476
 20
328.2168640744838
 30
0.0
 41
2.0
 42
2.0
 43
2.0
  0
INSERT
  5
7C22
330
783E
100
AcDbEntity
  8
30
  6
CONTINUOUS
 62
     0
100
AcDbBlockReference
  2
_OPEN
 10
561.0891437027476
 20
328.2168640744838
 30
0.0
 41
2.0
 42
2.0
 43
2.0
 50
180.0
  0
MTEXT
  5
7C23
330
783E
100
AcDbEntity
  8
30
  6
CONTINUOUS
 62
     0
100
AcDbMText
 10
571.0891437027476
 20
332.7168640744837
 30
0.0
 40
7.0
 41
0.0
 71
     5
 72
     1
  1
\A1;20
  0
POINT
  5
7C24
330
783E
100
AcDbEntity
  8
DEFPOINTS
  6
CONTINUOUS
 62
     0
100
AcDbPoint
 10
581.0891437027476
 20
300.0
 30
0.0
  0
POINT
  5
7C25
330
783E
100
AcDbEntity
  8
DEFPOINTS
  6
CONTINUOUS
 62
     0
100
AcDbPoint
 10
561.0891437027476
 20
300.0
 30
0.0
  0
POINT
  5
7C26
330
783E
100
AcDbEntity
  8
DEFPOINTS
  6
CONTINUOUS
 62
     0
100
AcDbPoint
 10
561.0891437027476
 20
328.2168640744838
 30
0.0
  0
ENDBLK
  5
7849
330
783E
100
AcDbEntity
  8
0
100
AcDbBlockEnd
  0
BLOCK
  5
7854
330
784A
100
AcDbEntity
  8
0
100
AcDbBlockBegin
  2
*D60
 70
     1
 10
0.0
 20
0.0
 30
0.0
  3
*D60
  1

  0
LINE
  5
7BF1
330
784A
100
AcDbEntity
  8
30
  6
CONTINUOUS
 62
     0
100
AcDbLine
 10
401.0889834854908
 20
-1.0
 30
0.0
 11
401.0889834854908
 21
-309.58595701602
 31
0.0
  0
LINE
  5
7BF2
330
784A
100
AcDbEntity
  8
30
  6
CONTINUOUS
 62
     0
100
AcDbLine
 10
592.0891437027476
 20
-180.0
 30
0.0
 11
592.0891437027476
 21
-309.58595701602
 31
0.0
  0
LINE
  5
7BF3
330
784A
100
AcDbEntity
  8
30
  6
CONTINUOUS
 62
     0
100
AcDbLine
 10
403.0889834854908
 20
-309.08595701602
 30
0.0
 11
590.0891437027476
 21
-309.08595701602
 31
0.0
  0
INSERT
  5
7BF4
330
784A
100
AcDbEntity
  8
30
  6
CONTINUOUS
 62
     0
100
AcDbBlockReference
  2
_OPEN
 10
401.0889834854908
 20
-309.08595701602
 30
0.0
 41
2.0
 42
2.0
 43
2.0
 50
180.0
  0
INSERT
  5
7BF5
330
784A
100
AcDbEntity
  8
30
  6
CONTINUOUS
 62
     0
100
AcDbBlockReference
  2
_OPEN
 10
592.0891437027476
 20
-309.08595701602
 30
0.0
 41
2.0
 42
2.0
 43
2.0
  0
MTEXT
  5
7BF6
330
784A
100
AcDbEntity
  8
30
  6
CONTINUOUS
 62
     0
100
AcDbMText
 10
496.5890635941192
 20
-304.58595701602
 30
0.0
 40
7.0
 41
0.0
 71
     5
 72
     1
  1
\A1;191
  0
POINT
  5
7BF7
330
784A
100
AcDbEntity
  8
DEFPOINTS
  6
CONTINUOUS
 62
     0
100
AcDbPoint
 10
401.0889834854908
 20
-0.0000000000000009
 30
0.0
  0
POINT
  5
7BF8
330
784A
100
AcDbEntity
  8
DEFPOINTS
  6
CONTINUOUS
 62
     0
100
AcDbPoint
 10
592.0891437027476
 20
-179.0
 30
0.0
  0
POINT
  5
7BF9
330
784A
100
AcDbEntity
  8
DEFPOINTS
  6
CONTINUOUS
 62
     0
100
AcDbPoint
 10
592.0891437027476
 20
-309.08595701602
 30
0.0
  0
ENDBLK
  5
7855
330
784A
100
AcDbEntity
  8
0
100
AcDbBlockEnd
  0
BLOCK
  5
7860
330
7856
100
AcDbEntity
  8
0
100
AcDbBlockBegin
  2
*D61
 70
     1
 10
0.0
 20
0.0
 30
0.0
  3
*D61
  1

  0
LINE
  5
7946
330
7856
100
AcDbEntity
  8
30
  6
CONTINUOUS
 62
     0
100
AcDbLine
 10
321.0892505142934
 20
-0.9999999999999895
 30
0.0
 11
321.0892505142934
 21
-309.58595701602
 31
0.0
  0
LINE
  5
7947
330
7856
100
AcDbEntity
  8
30
  6
CONTINUOUS
 62
     0
100
AcDbLine
 10
401.0889834854908
 20
-1.0
 30
0.0
 11
401.0889834854908
 21
-309.58595701602
 31
0.0
  0
LINE
  5
7948
330
7856
100
AcDbEntity
  8
30
  6
CONTINUOUS
 62
     0
100
AcDbLine
 10
323.0892505142934
 20
-309.08595701602
 30
0.0
 11
399.0889834854908
 21
-309.08595701602
 31
0.0
  0
INSERT
  5
7949
330
7856
100
AcDbEntity
  8
30
  6
CONTINUOUS
 62
     0
100
AcDbBlockReference
  2
_OPEN
 10
321.0892505142934
 20
-309.08595701602
 30
0.0
 41
2.0
 42
2.0
 43
2.0
 50
180.0
  0
INSERT
  5
794A
330
7856
100
AcDbEntity
  8
30
  6
CONTINUOUS
 62
     0
100
AcDbBlockReference
  2
_OPEN
 10
401.0889834854908
 20
-309.08595701602
 30
0.0
 41
2.0
 42
2.0
 43
2.0
  0
MTEXT
  5
794B
330
7856
100
AcDbEntity
  8
30
  6
CONTINUOUS
 62
     0
100
AcDbMText
 10
361.0891169998921
 20
-304.58595701602
 30
0.0
 40
7.0
 41
0.0
 71
     5
 72
     1
  1
\A1;80
1001
ACAD
1000
MTEXTBEGIN
1070
    73
1070
     1
1070
    44
1040
1.0
1070
    74
1070
     0
1000
MTEXTEND
1000
MTEXTBEGIN
1070
    73
1070
     1
1070
    44
1040
1.0
1070
    74
1070
     0
1000
MTEXTEND
1000
MTEXTBEGIN
1070
    73
1070
     1
1070
    44
1040
1.0
1070
    74
1070
     0
1000
MTEXTEND
  0
POINT
  5
794C
330
7856
100
AcDbEntity
  8
DEFPOINTS
  6
CONTINUOUS
 62
     0
100
AcDbPoint
 10
321.0892505142934
 20
0.0000000000000105
 30
0.0
  0
POINT
  5
794D
330
7856
100
AcDbEntity
  8
DEFPOINTS
  6
CONTINUOUS
 62
     0
100
AcDbPoint
 10
401.0889834854908
 20
-0.0000000000000009
 30
0.0
  0
POINT
  5
794E
330
7856
100
AcDbEntity
  8
DEFPOINTS
  6
CONTINUOUS
 62
     0
100
AcDbPoint
 10
401.0889834854908
 20
-309.08595701602
 30
0.0
  0
ENDBLK
  5
7861
330
7856
100
AcDbEntity
  8
0
100
AcDbBlockEnd
  0
BLOCK
  5
786C
330
7862
100
AcDbEntity
  8
0
100
AcDbBlockBegin
  2
*D62
 70
     1
 10
0.0
 20
0.0
 30
0.0
  3
*D62
  1

  0
LINE
  5
793D
330
7862
100
AcDbEntity
  8
30
  6
CONTINUOUS
 62
     0
100
AcDbLine
 10
452.0891437027475
 20
-141.0
 30
0.0
 11
452.0891437027475
 21
-194.9087893196516
 31
0.0
  0
LINE
  5
793E
330
7862
100
AcDbEntity
  8
30
  6
CONTINUOUS
 62
     0
100
AcDbLine
 10
460.0891437027475
 20
-171.0
 30
0.0
 11
460.0891437027475
 21
-194.9087893196516
 31
0.0
  0
LINE
  5
793F
330
7862
100
AcDbEntity
  8
30
  6
CONTINUOUS
 62
     0
100
AcDbLine
 10
454.0891437027473
 20
-194.4087893196519
 30
0.0
 11
458.0891437027473
 21
-194.4087893196519
 31
0.0
  0
INSERT
  5
7940
330
7862
100
AcDbEntity
  8
30
  6
CONTINUOUS
 62
     0
100
AcDbBlockReference
  2
_OPEN
 10
452.0891437027475
 20
-194.4087893196519
 30
0.0
 41
2.0
 42
2.0
 43
2.0
 50
180.0
  0
INSERT
  5
7941
330
7862
100
AcDbEntity
  8
30
  6
CONTINUOUS
 62
     0
100
AcDbBlockReference
  2
_OPEN
 10
460.0891437027475
 20
-194.4087893196519
 30
0.0
 41
2.0
 42
2.0
 43
2.0
  0
MTEXT
  5
7942
330
7862
100
AcDbEntity
  8
30
  6
CONTINUOUS
 62
     0
100
AcDbMText
 10
456.0891437027475
 20
-189.9087893196519
 30
0.0
 40
7.0
 41
0.0
 71
     5
 72
     1
  1
\A1;8
1001
ACAD
1000
MTEXTBEGIN
1070
    73
1070
     1
1070
    44
1040
1.0
1070
    74
1070
     0
1000
MTEXTEND
1000
MTEXTBEGIN
1070
    73
1070
     1
1070
    44
1040
1.0
1070
    74
1070
     0
1000
MTEXTEND
1000
MTEXTBEGIN
1070
    73
1070
     1
1070
    44
1040
1.0
1070
    74
1070
     0
1000
MTEXTEND
  0
POINT
  5
7943
330
7862
100
AcDbEntity
  8
DEFPOINTS
  6
CONTINUOUS
 62
     0
100
AcDbPoint
 10
452.0891437027475
 20
-140.0
 30
0.0
  0
POINT
  5
7944
330
7862
100
AcDbEntity
  8
DEFPOINTS
  6
CONTINUOUS
 62
     0
100
AcDbPoint
 10
460.0891437027475
 20
-170.0
 30
0.0
  0
POINT
  5
7945
330
7862
100
AcDbEntity
  8
DEFPOINTS
  6
CONTINUOUS
 62
     0
100
AcDbPoint
 10
460.0891437027475
 20
-194.4087893196519
 30
0.0
  0
ENDBLK
  5
786D
330
7862
100
AcDbEntity
  8
0
100
AcDbBlockEnd
  0
BLOCK
  5
7878
330
786E
100
AcDbEntity
  8
0
100
AcDbBlockBegin
  2
*D63
 70
     1
 10
0.0
 20
0.0
 30
0.0
  3
*D63
  1

  0
LINE
  5
7BFA
330
786E
100
AcDbEntity
  8
30
  6
CONTINUOUS
 62
     0
100
AcDbLine
 10
452.0891437027475
 20
-141.0
 30
0.0
 11
452.0891437027475
 21
-292.9950458463608
 31
0.0
  0
LINE
  5
7BFB
330
786E
100
AcDbEntity
  8
30
  6
CONTINUOUS
 62
     0
100
AcDbLine
 10
592.0891437027476
 20
-180.0
 30
0.0
 11
592.0891437027476
 21
-292.9950458463608
 31
0.0
  0
LINE
  5
7BFC
330
786E
100
AcDbEntity
  8
30
  6
CONTINUOUS
 62
     0
100
AcDbLine
 10
454.0891437027474
 20
-292.4950458463608
 30
0.0
 11
590.0891437027476
 21
-292.4950458463608
 31
0.0
  0
INSERT
  5
7BFD
330
786E
100
AcDbEntity
  8
30
  6
CONTINUOUS
 62
     0
100
AcDbBlockReference
  2
_OPEN
 10
452.0891437027475
 20
-292.4950458463608
 30
0.0
 41
2.0
 42
2.0
 43
2.0
 50
180.0
  0
INSERT
  5
7BFE
330
786E
100
AcDbEntity
  8
30
  6
CONTINUOUS
 62
     0
100
AcDbBlockReference
  2
_OPEN
 10
592.0891437027476
 20
-292.4950458463608
 30
0.0
 41
2.0
 42
2.0
 43
2.0
  0
MTEXT
  5
7BFF
330
786E
100
AcDbEntity
  8
30
  6
CONTINUOUS
 62
     0
100
AcDbMText
 10
522.0891437027476
 20
-287.9950458463608
 30
0.0
 40
7.0
 41
0.0
 71
     5
 72
     1
  1
\A1;140
  0
POINT
  5
7C00
330
786E
100
AcDbEntity
  8
DEFPOINTS
  6
CONTINUOUS
 62
     0
100
AcDbPoint
 10
452.0891437027475
 20
-140.0
 30
0.0
  0
POINT
  5
7C01
330
786E
100
AcDbEntity
  8
DEFPOINTS
  6
CONTINUOUS
 62
     0
100
AcDbPoint
 10
592.0891437027476
 20
-179.0
 30
0.0
  0
POINT
  5
7C02
330
786E
100
AcDbEntity
  8
DEFPOINTS
  6
CONTINUOUS
 62
     0
100
AcDbPoint
 10
592.0891437027476
 20
-292.4950458463608
 30
0.0
  0
ENDBLK
  5
7879
330
786E
100
AcDbEntity
  8
0
100
AcDbBlockEnd
  0
BLOCK
  5
7884
330
787A
100
AcDbEntity
  8
0
100
AcDbBlockBegin
  2
*D64
 70
     1
 10
0.0
 20
0.0
 30
0.0
  3
*D64
  1

  0
LINE
  5
792B
330
787A
100
AcDbEntity
  8
30
  6
CONTINUOUS
 62
     0
100
AcDbLine
 10
435.0891437027475
 20
-1.0
 30
0.0
 11
435.0891437027475
 21
-292.9950458463608
 31
0.0
  0
LINE
  5
792C
330
787A
100
AcDbEntity
  8
30
  6
CONTINUOUS
 62
     0
100
AcDbLine
 10
452.0891437027475
 20
-141.0
 30
0.0
 11
452.0891437027475
 21
-292.9950458463608
 31
0.0
  0
LINE
  5
792D
330
787A
100
AcDbEntity
  8
30
  6
CONTINUOUS
 62
     0
100
AcDbLine
 10
437.0891437027473
 20
-292.4950458463608
 30
0.0
 11
450.0891437027473
 21
-292.4950458463608
 31
0.0
  0
INSERT
  5
792E
330
787A
100
AcDbEntity
  8
30
  6
CONTINUOUS
 62
     0
100
AcDbBlockReference
  2
_OPEN
 10
435.0891437027475
 20
-292.4950458463608
 30
0.0
 41
2.0
 42
2.0
 43
2.0
 50
180.0
  0
INSERT
  5
792F
330
787A
100
AcDbEntity
  8
30
  6
CONTINUOUS
 62
     0
100
AcDbBlockReference
  2
_OPEN
 10
452.0891437027475
 20
-292.4950458463608
 30
0.0
 41
2.0
 42
2.0
 43
2.0
  0
MTEXT
  5
7930
330
787A
100
AcDbEntity
  8
30
  6
CONTINUOUS
 62
     0
100
AcDbMText
 10
443.5891437027475
 20
-287.9950458463608
 30
0.0
 40
7.0
 41
0.0
 71
     5
 72
     1
  1
\A1;17
1001
ACAD
1000
MTEXTBEGIN
1070
    73
1070
     1
1070
    44
1040
1.0
1070
    74
1070
     0
1000
MTEXTEND
1000
MTEXTBEGIN
1070
    73
1070
     1
1070
    44
1040
1.0
1070
    74
1070
     0
1000
MTEXTEND
1000
MTEXTBEGIN
1070
    73
1070
     1
1070
    44
1040
1.0
1070
    74
1070
     0
1000
MTEXTEND
  0
POINT
  5
7931
330
787A
100
AcDbEntity
  8
DEFPOINTS
  6
CONTINUOUS
 62
     0
100
AcDbPoint
 10
435.0891437027475
 20
0.0
 30
0.0
  0
POINT
  5
7932
330
787A
100
AcDbEntity
  8
DEFPOINTS
  6
CONTINUOUS
 62
     0
100
AcDbPoint
 10
452.0891437027475
 20
-140.0
 30
0.0
  0
POINT
  5
7933
330
787A
100
AcDbEntity
  8
DEFPOINTS
  6
CONTINUOUS
 62
     0
100
AcDbPoint
 10
452.0891437027475
 20
-292.4950458463608
 30
0.0
  0
ENDBLK
  5
7885
330
787A
100
AcDbEntity
  8
0
100
AcDbBlockEnd
  0
BLOCK
  5
7890
330
7886
100
AcDbEntity
  8
0
100
AcDbBlockBegin
  2
*D65
 70
     1
 10
0.0
 20
0.0
 30
0.0
  3
*D65
  1

  0
LINE
  5
7C03
330
7886
100
AcDbEntity
  8
30
  6
CONTINUOUS
 62
     0
100
AcDbLine
 10
546.0891437027476
 20
-271.0
 30
0.0
 11
546.0891437027476
 21
-283.4588801759837
 31
0.0
  0
LINE
  5
7C04
330
7886
100
AcDbEntity
  8
30
  6
CONTINUOUS
 62
     0
100
AcDbLine
 10
592.0891437027476
 20
-181.0
 30
0.0
 11
592.0891437027476
 21
-283.4588801759837
 31
0.0
  0
LINE
  5
7C05
330
7886
100
AcDbEntity
  8
30
  6
CONTINUOUS
 62
     0
100
AcDbLine
 10
548.0891437027476
 20
-282.9588801759837
 30
0.0
 11
590.0891437027476
 21
-282.9588801759837
 31
0.0
  0
INSERT
  5
7C06
330
7886
100
AcDbEntity
  8
30
  6
CONTINUOUS
 62
     0
100
AcDbBlockReference
  2
_OPEN
 10
546.0891437027476
 20
-282.9588801759837
 30
0.0
 41
2.0
 42
2.0
 43
2.0
 50
180.0
  0
INSERT
  5
7C07
330
7886
100
AcDbEntity
  8
30
  6
CONTINUOUS
 62
     0
100
AcDbBlockReference
  2
_OPEN
 10
592.0891437027476
 20
-282.9588801759837
 30
0.0
 41
2.0
 42
2.0
 43
2.0
  0
MTEXT
  5
7C08
330
7886
100
AcDbEntity
  8
30
  6
CONTINUOUS
 62
     0
100
AcDbMText
 10
569.0891437027476
 20
-278.4588801759837
 30
0.0
 40
7.0
 41
0.0
 71
     5
 72
     1
  1
\A1;46
  0
POINT
  5
7C09
330
7886
100
AcDbEntity
  8
DEFPOINTS
  6
CONTINUOUS
 62
     0
100
AcDbPoint
 10
546.0891437027476
 20
-270.0
 30
0.0
  0
POINT
  5
7C0A
330
7886
100
AcDbEntity
  8
DEFPOINTS
  6
CONTINUOUS
 62
     0
100
AcDbPoint
 10
592.0891437027476
 20
-180.0
 30
0.0
  0
POINT
  5
7C0B
330
7886
100
AcDbEntity
  8
DEFPOINTS
  6
CONTINUOUS
 62
     0
100
AcDbPoint
 10
592.0891437027476
 20
-282.9588801759837
 30
0.0
  0
ENDBLK
  5
7891
330
7886
100
AcDbEntity
  8
0
100
AcDbBlockEnd
  0
BLOCK
  5
789C
330
7892
100
AcDbEntity
  8
0
100
AcDbBlockBegin
  2
*D66
 70
     1
 10
0.0
 20
0.0
 30
0.0
  3
*D66
  1

  0
LINE
  5
7958
330
7892
100
AcDbEntity
  8
30
  6
CONTINUOUS
 62
     0
100
AcDbLine
 10
526.0891437027476
 20
-271.0
 30
0.0
 11
526.0891437027476
 21
-283.4588801759837
 31
0.0
  0
LINE
  5
7959
330
7892
100
AcDbEntity
  8
30
  6
CONTINUOUS
 62
     0
100
AcDbLine
 10
546.0891437027476
 20
-271.0
 30
0.0
 11
546.0891437027476
 21
-283.4588801759837
 31
0.0
  0
LINE
  5
795A
330
7892
100
AcDbEntity
  8
30
  6
CONTINUOUS
 62
     0
100
AcDbLine
 10
528.0891437027475
 20
-282.9588801759837
 30
0.0
 11
544.0891437027476
 21
-282.9588801759837
 31
0.0
  0
INSERT
  5
795B
330
7892
100
AcDbEntity
  8
30
  6
CONTINUOUS
 62
     0
100
AcDbBlockReference
  2
_OPEN
 10
526.0891437027476
 20
-282.9588801759837
 30
0.0
 41
2.0
 42
2.0
 43
2.0
 50
180.0
  0
INSERT
  5
795C
330
7892
100
AcDbEntity
  8
30
  6
CONTINUOUS
 62
     0
100
AcDbBlockReference
  2
_OPEN
 10
546.0891437027476
 20
-282.9588801759837
 30
0.0
 41
2.0
 42
2.0
 43
2.0
  0
MTEXT
  5
795D
330
7892
100
AcDbEntity
  8
30
  6
CONTINUOUS
 62
     0
100
AcDbMText
 10
536.0891437027476
 20
-278.4588801759837
 30
0.0
 40
7.0
 41
0.0
 71
     5
 72
     1
  1
\A1;20
1001
ACAD
1000
MTEXTBEGIN
1070
    73
1070
     1
1070
    44
1040
1.0
1070
    74
1070
     0
1000
MTEXTEND
1000
MTEXTBEGIN
1070
    73
1070
     1
1070
    44
1040
1.0
1070
    74
1070
     0
1000
MTEXTEND
1000
MTEXTBEGIN
1070
    73
1070
     1
1070
    44
1040
1.0
1070
    74
1070
     0
1000
MTEXTEND
  0
POINT
  5
795E
330
7892
100
AcDbEntity
  8
DEFPOINTS
  6
CONTINUOUS
 62
     0
100
AcDbPoint
 10
526.0891437027476
 20
-270.0
 30
0.0
  0
POINT
  5
795F
330
7892
100
AcDbEntity
  8
DEFPOINTS
  6
CONTINUOUS
 62
     0
100
AcDbPoint
 10
546.0891437027476
 20
-270.0
 30
0.0
  0
POINT
  5
7960
330
7892
100
AcDbEntity
  8
DEFPOINTS
  6
CONTINUOUS
 62
     0
100
AcDbPoint
 10
546.0891437027476
 20
-282.9588801759837
 30
0.0
  0
ENDBLK
  5
789D
330
7892
100
AcDbEntity
  8
0
100
AcDbBlockEnd
  0
BLOCK
  5
78A8
330
789E
100
AcDbEntity
  8
0
100
AcDbBlockBegin
  2
*D67
 70
     1
 10
0.0
 20
0.0
 30
0.0
  3
*D67
  1

  0
LINE
  5
7C0C
330
789E
100
AcDbEntity
  8
30
  6
CONTINUOUS
 62
     0
100
AcDbLine
 10
400.0889834854907
 20
0.0000000000000003
 30
0.0
 11
379.3031649340936
 21
0.0000000000000062
 31
0.0
  0
LINE
  5
7C0D
330
789E
100
AcDbEntity
  8
30
  6
CONTINUOUS
 62
     0
100
AcDbLine
 10
451.0891437027474
 20
-140.0
 30
0.0
 11
379.3031649340936
 21
-139.9999999999999
 31
0.0
  0
LINE
  5
7C0E
330
789E
100
AcDbEntity
  8
30
  6
CONTINUOUS
 62
     0
100
AcDbLine
 10
379.8031649340936
 20
-1.999999999999993
 30
0.0
 11
379.8031649340936
 21
-137.9999999999999
 31
0.0
  0
INSERT
  5
7C0F
330
789E
100
AcDbEntity
  8
30
  6
CONTINUOUS
 62
     0
100
AcDbBlockReference
  2
_OPEN
 10
379.8031649340936
 20
0.000000000000006
 30
0.0
 41
2.0
 42
2.0
 43
2.0
 50
90.0
  0
INSERT
  5
7C10
330
789E
100
AcDbEntity
  8
30
  6
CONTINUOUS
 62
     0
100
AcDbBlockReference
  2
_OPEN
 10
379.8031649340936
 20
-139.9999999999999
 30
0.0
 41
2.0
 42
2.0
 43
2.0
 50
270.0
  0
MTEXT
  5
7C11
330
789E
100
AcDbEntity
  8
30
  6
CONTINUOUS
 62
     0
100
AcDbMText
 10
375.3031649340936
 20
-69.99999999999992
 30
0.0
 40
7.0
 41
0.0
 71
     5
 72
     1
  1
\A1;140
 11
0.0000000000000001
 21
1.0
 31
0.0
  0
POINT
  5
7C12
330
789E
100
AcDbEntity
  8
DEFPOINTS
  6
CONTINUOUS
 62
     0
100
AcDbPoint
 10
401.0889834854908
 20
0.0
 30
0.0
  0
POINT
  5
7C13
330
789E
100
AcDbEntity
  8
DEFPOINTS
  6
CONTINUOUS
 62
     0
100
AcDbPoint
 10
452.0891437027475
 20
-140.0
 30
0.0
  0
POINT
  5
7C14
330
789E
100
AcDbEntity
  8
DEFPOINTS
  6
CONTINUOUS
 62
     0
100
AcDbPoint
 10
379.8031649340936
 20
-139.9999999999999
 30
0.0
  0
ENDBLK
  5
78A9
330
789E
100
AcDbEntity
  8
0
100
AcDbBlockEnd
  0
BLOCK
  5
78B4
330
78AA
100
AcDbEntity
  8
0
100
AcDbBlockBegin
  2
*D68
 70
     1
 10
0.0
 20
0.0
 30
0.0
  3
*D68
  1

  0
LINE
  5
796A
330
78AA
100
AcDbEntity
  8
30
  6
CONTINUOUS
 62
     0
100
AcDbLine
 10
451.0891437027473
 20
170.0
 30
0.0
 11
379.3031649340936
 21
170.0
 31
0.0
  0
LINE
  5
796B
330
78AA
100
AcDbEntity
  8
30
  6
CONTINUOUS
 62
     0
100
AcDbLine
 10
400.0889834854906
 20
0.0000000000000003
 30
0.0
 11
379.3031649340936
 21
0.0000000000000062
 31
0.0
  0
LINE
  5
796C
330
78AA
100
AcDbEntity
  8
30
  6
CONTINUOUS
 62
     0
100
AcDbLine
 10
379.8031649340936
 20
168.0
 30
0.0
 11
379.8031649340936
 21
2.000000000000003
 31
0.0
  0
INSERT
  5
796D
330
78AA
100
AcDbEntity
  8
30
  6
CONTINUOUS
 62
     0
100
AcDbBlockReference
  2
_OPEN
 10
379.8031649340936
 20
170.0
 30
0.0
 41
2.0
 42
2.0
 43
2.0
 50
90.0
  0
INSERT
  5
796E
330
78AA
100
AcDbEntity
  8
30
  6
CONTINUOUS
 62
     0
100
AcDbBlockReference
  2
_OPEN
 10
379.8031649340936
 20
0.000000000000006
 30
0.0
 41
2.0
 42
2.0
 43
2.0
 50
270.0
  0
MTEXT
  5
796F
330
78AA
100
AcDbEntity
  8
30
  6
CONTINUOUS
 62
     0
100
AcDbMText
 10
375.3031649340936
 20
85.00000000000007
 30
0.0
 40
7.0
 41
0.0
 71
     5
 72
     1
  1
\A1;170
 11
0.0000000000000001
 21
1.0
 31
0.0
1001
ACAD
1000
MTEXTBEGIN
1070
    73
1070
     1
1070
    44
1040
1.0
1070
    74
1070
     0
1000
MTEXTEND
1000
MTEXTBEGIN
1070
    73
1070
     1
1070
    44
1040
1.0
1070
    74
1070
     0
1000
MTEXTEND
1000
MTEXTBEGIN
1070
    73
1070
     1
1070
    44
1040
1.0
1070
    74
1070
     0
1000
MTEXTEND
  0
POINT
  5
7970
330
78AA
100
AcDbEntity
  8
DEFPOINTS
  6
CONTINUOUS
 62
     0
100
AcDbPoint
 10
452.0891437027475
 20
170.0
 30
0.0
  0
POINT
  5
7971
330
78AA
100
AcDbEntity
  8
DEFPOINTS
  6
CONTINUOUS
 62
     0
100
AcDbPoint
 10
401.0889834854908
 20
0.0
 30
0.0
  0
POINT
  5
7972
330
78AA
100
AcDbEntity
  8
DEFPOINTS
  6
CONTINUOUS
 62
     0
100
AcDbPoint
 10
379.8031649340936
 20
0.000000000000006
 30
0.0
  0
ENDBLK
  5
78B5
330
78AA
100
AcDbEntity
  8
0
100
AcDbBlockEnd
  0
BLOCK
  5
7B8C
330
7B82
100
AcDbEntity
  8
0
100
AcDbBlockBegin
  2
*D69
 70
     1
 10
0.0
 20
0.0
 30
0.0
  3
*D69
  1

  0
LINE
  5
7B83
330
7B82
100
AcDbEntity
  8
30
  6
CONTINUOUS
 62
     0
100
AcDbLine
 10
581.0891437027476
 20
201.0
 30
0.0
 11
581.0891437027476
 21
329.2168640744836
 31
0.0
  0
LINE
  5
7B84
330
7B82
100
AcDbEntity
  8
30
  6
CONTINUOUS
 62
     0
100
AcDbLine
 10
592.0891437027476
 20
200.0
 30
0.0
 11
592.0891437027476
 21
329.2168640744836
 31
0.0
  0
LINE
  5
7B85
330
7B82
100
AcDbEntity
  8
30
  6
CONTINUOUS
 62
     0
100
AcDbLine
 10
583.0891437027475
 20
328.7168640744837
 30
0.0
 11
590.0891437027476
 21
328.7168640744837
 31
0.0
  0
INSERT
  5
7B86
330
7B82
100
AcDbEntity
  8
30
  6
CONTINUOUS
 62
     0
100
AcDbBlockReference
  2
_OPEN
 10
581.0891437027476
 20
328.7168640744837
 30
0.0
 41
2.0
 42
2.0
 43
2.0
 50
180.0
  0
INSERT
  5
7B87
330
7B82
100
AcDbEntity
  8
30
  6
CONTINUOUS
 62
     0
100
AcDbBlockReference
  2
_OPEN
 10
592.0891437027476
 20
328.7168640744837
 30
0.0
 41
2.0
 42
2.0
 43
2.0
  0
MTEXT
  5
7B88
330
7B82
100
AcDbEntity
  8
30
  6
CONTINUOUS
 62
     0
100
AcDbMText
 10
586.5891437027475
 20
333.2168640744836
 30
0.0
 40
7.0
 41
0.0
 71
     5
 72
     1
  1
\A1;11
1001
ACAD
1000
MTEXTBEGIN
1070
    73
1070
     1
1070
    44
1040
1.0
1070
    74
1070
     0
1000
MTEXTEND
  0
POINT
  5
7B89
330
7B82
100
AcDbEntity
  8
DEFPOINTS
  6
CONTINUOUS
 62
     0
100
AcDbPoint
 10
581.0891437027476
 20
200.0
 30
0.0
  0
POINT
  5
7B8A
330
7B82
100
AcDbEntity
  8
DEFPOINTS
  6
CONTINUOUS
 62
     0
100
AcDbPoint
 10
592.0891437027476
 20
199.0
 30
0.0
  0
POINT
  5
7B8B
330
7B82
100
AcDbEntity
  8
DEFPOINTS
  6
CONTINUOUS
 62
     0
100
AcDbPoint
 10
592.0891437027476
 20
328.7168640744837
 30
0.0
  0
ENDBLK
  5
7B8D
330
7B82
100
AcDbEntity
  8
0
100
AcDbBlockEnd
  0
ENDSEC
  0
SECTION
  2
ENTITIES
  0
LINE
  5
B4
330
1E
100
AcDbEntity
  8
16
100
AcDbLine
 10
-0.0000000000000021
 20
-239.0
 30
0.0
 11
0.0
 21
245.0
 31
0.0
  0
LINE
  5
B5
330
1E
100
AcDbEntity
  8
16
100
AcDbLine
 10
257.6361914121166
 20
0.0000000000000107
 30
0.0
 11
-145.0
 21
0.0
 31
0.0
  0
MTEXT
  5
BF3
330
1E
100
AcDbEntity
  8
24
  6
CONTINUOUS
100
AcDbMText
 10
142.1181906098743
 20
177.5
 30
0.0
 40
3.0
 41
0.0
 71
     1
 72
     1
  1
\A1;
1001
ACAD
1000
MTEXTBEGIN
1070
    73
1070
     1
1070
    44
1040
1.0
1070
    74
1070
     0
1000
MTEXTEND
1000
MTEXTBEGIN
1070
    73
1070
     1
1070
    44
1040
1.0
1070
    74
1070
     0
1000
MTEXTEND
1000
MTEXTBEGIN
1070
    73
1070
     1
1070
    44
1040
1.0
1070
    74
1070
     0
1000
MTEXTEND
1000
MTEXTBEGIN
1070
    73
1070
     1
1070
    44
1040
1.0
1070
    74
1070
     0
1000
MTEXTEND
  0
LINE
  5
1C9A
330
1E
100
AcDbEntity
  8
16
100
AcDbLine
 10
0.0
 20
258.0
 30
0.0
 11
0.0
 21
436.0
 31
0.0
  0
LINE
  5
2233
330
1E
100
AcDbEntity
  8
16
100
AcDbLine
 10
425.0
 20
-760.0
 30
0.0
 11
425.0
 21
-450.0
 31
0.0
  0
LINE
  5
2234
330
1E
100
AcDbEntity
  8
16
100
AcDbLine
 10
627.1634296945399
 20
-601.0
 30
0.0
 11
323.1043600603313
 21
-601.0
 31
0.0
  0
LINE
  5
2260
330
1E
100
AcDbEntity
  8
16
100
AcDbLine
 10
202.1634296945399
 20
-601.0
 30
0.0
 11
-166.0
 21
-601.0
 31
0.0
  0
LINE
  5
2261
330
1E
100
AcDbEntity
  8
16
100
AcDbLine
 10
0.0
 20
-791.5926135610889
 30
0.0
 11
0.0
 21
-375.8062147299115
 31
0.0
  0
MTEXT
  5
5D8A
330
1E
100
AcDbEntity
  8
19
  6
CONTINUOUS
100
AcDbMText
 10
330.9330042639485
 20
440.5164522179681
 30
0.0
 40
7.0
 41
94.0
 71
     1
 72
     5
  1
XS1600NE 4P FC
  7
STANDARD1
1001
ACAD
1000
MTEXTBEGIN
1070
    73
1070
     1
1070
    44
1040
1.0
1070
    74
1070
     0
1000
MTEXTEND
1000
MTEXTBEGIN
1070
    73
1070
     1
1070
    44
1040
1.0
1070
    74
1070
     0
1000
MTEXTEND
1000
MTEXTBEGIN
1070
    73
1070
     1
1070
    44
1040
1.0
1070
    74
1070
     0
1000
MTEXTEND
1000
MTEXTBEGIN
1070
    73
1070
     1
1070
    44
1040
1.0
1070
    74
1070
     0
1000
MTEXTEND
  0
LINE
  5
6965
330
1E
100
AcDbEntity
  8
17
  6
CONTINOUS
100
AcDbLine
 10
139.99993896485
 20
-203.0
 30
0.0
 11
139.99993896485
 21
-289.9890136719
 31
0.0
  0
CIRCLE
  5
696A
330
1E
100
AcDbEntity
  8
17
  6
CONTINOUS
100
AcDbCircle
 10
-70.0
 20
-255.0
 30
0.0
 40
6.5
  0
LINE
  5
696B
330
1E
100
AcDbEntity
  8
17
  6
CONTINOUS
100
AcDbLine
 10
-85.0
 20
-255.0
 30
0.0
 11
-55.0
 21
-255.0
 31
0.0
  0
CIRCLE
  5
696D
330
1E
100
AcDbEntity
  8
17
  6
CONTINOUS
100
AcDbCircle
 10
139.99993896485
 20
-255.0
 30
0.0
 40
6.5
  0
LINE
  5
696E
330
1E
100
AcDbEntity
  8
17
  6
CONTINOUS
100
AcDbLine
 10
124.9999389648499
 20
-255.0
 30
0.0
 11
154.9998168945298
 21
-255.0
 31
0.0
  0
LINE
  5
6970
330
1E
100
AcDbEntity
  8
17
  6
CONTINOUS
100
AcDbLine
 10
-15.0
 20
-255.0
 30
0.0
 11
14.99993896484999
 21
-255.0
 31
0.0
  0
CIRCLE
  5
6972
330
1E
100
AcDbEntity
  8
17
  6
CONTINOUS
100
AcDbCircle
 10
0.0
 20
-255.0
 30
0.0
 40
6.5
  0
LINE
  5
6976
330
1E
100
AcDbEntity
  8
10
  6
CONTINUOUS
100
AcDbLine
 10
-105.0
 20
-120.0
 30
0.0
 11
175.0
 21
-120.0
 31
0.0
  0
LINE
  5
6977
330
1E
100
AcDbEntity
  8
10
  6
CONTINUOUS
100
AcDbLine
 10
-105.0
 20
-62.0
 30
0.0
 11
175.0
 21
-62.0
 31
0.0
  0
LINE
  5
6978
330
1E
100
AcDbEntity
  8
12
  6
DASHED
100
AcDbLine
 10
-50.0
 20
-154.0
 30
0.0
 11
-20.0
 21
-154.0
 31
0.0
  0
LINE
  5
6979
330
1E
100
AcDbEntity
  8
10
  6
CONTINUOUS
100
AcDbLine
 10
174.9998168945298
 20
-140.0
 30
0.0
 11
-105.0
 21
-140.0
 31
0.0
  0
CIRCLE
  5
697C
330
1E
100
AcDbEntity
  8
17
  6
CONTINOUS
100
AcDbCircle
 10
-70.0
 20
-223.0
 30
0.0
 40
6.5
  0
LINE
  5
697D
330
1E
100
AcDbEntity
  8
17
  6
CONTINOUS
100
AcDbLine
 10
-85.0
 20
-223.0
 30
0.0
 11
-55.0
 21
-223.0
 31
0.0
  0
CIRCLE
  5
697F
330
1E
100
AcDbEntity
  8
17
  6
CONTINOUS
100
AcDbCircle
 10
139.99993896485
 20
-223.0
 30
0.0
 40
6.5
  0
LINE
  5
6980
330
1E
100
AcDbEntity
  8
17
  6
CONTINOUS
100
AcDbLine
 10
124.9999389648499
 20
-223.0
 30
0.0
 11
154.9998168945298
 21
-223.0
 31
0.0
  0
LINE
  5
6981
330
1E
100
AcDbEntity
  8
12
  6
DASHED
100
AcDbLine
 10
34.99993896485
 20
-139.0
 30
0.0
 11
34.99993896485
 21
-169.0
 31
0.0
  0
LINE
  5
6982
330
1E
100
AcDbEntity
  8
12
  6
DASHED
100
AcDbLine
 10
-35.0
 20
-139.0
 30
0.0
 11
-35.0
 21
-169.0
 31
0.0
  0
CIRCLE
  5
6983
330
1E
100
AcDbEntity
  8
12
  6
DASHED
100
AcDbCircle
 10
34.99993896485
 20
-154.0
 30
0.0
 40
8.5
  0
CIRCLE
  5
6984
330
1E
100
AcDbEntity
  8
12
  6
DASHED
100
AcDbCircle
 10
-35.0
 20
-154.0
 30
0.0
 40
8.5
  0
LINE
  5
6986
330
1E
100
AcDbEntity
  8
17
  6
CONTINOUS
100
AcDbLine
 10
-15.0
 20
-223.0
 30
0.0
 11
14.99993896484999
 21
-223.0
 31
0.0
  0
CIRCLE
  5
6987
330
1E
100
AcDbEntity
  8
17
  6
CONTINOUS
100
AcDbCircle
 10
0.0
 20
-223.0
 30
0.0
 40
6.5
  0
LINE
  5
6989
330
1E
100
AcDbEntity
  8
12
  6
DASHED
100
AcDbLine
 10
19.99993896484999
 20
-154.0
 30
0.0
 11
49.99993896484999
 21
-154.0
 31
0.0
  0
LINE
  5
698B
330
1E
100
AcDbEntity
  8
10
  6
CONTINUOUS
100
AcDbLine
 10
-22.5
 20
27.5
 30
0.0
 11
-22.5
 21
-27.5
 31
0.0
  0
LINE
  5
698E
330
1E
100
AcDbEntity
  8
10
  6
CONTINUOUS
100
AcDbLine
 10
22.5
 20
27.5
 30
0.0
 11
22.5
 21
-27.5
 31
0.0
  0
LINE
  5
698F
330
1E
100
AcDbEntity
  8
10
  6
CONTINUOUS
100
AcDbLine
 10
-22.5
 20
-27.5
 30
0.0
 11
22.5
 21
-27.5
 31
0.0
  0
LINE
  5
6991
330
1E
100
AcDbEntity
  8
10
  6
CONTINUOUS
100
AcDbLine
 10
-22.5
 20
27.5
 30
0.0
 11
22.5
 21
27.5
 31
0.0
  0
LINE
  5
6994
330
1E
100
AcDbEntity
  8
12
  6
DASHED
100
AcDbLine
 10
-50.0
 20
183.9997558592998
 30
0.0
 11
-20.0
 21
183.9997558592998
 31
0.0
  0
LINE
  5
6995
330
1E
100
AcDbEntity
  8
10
  6
CONTINUOUS
100
AcDbLine
 10
174.9998168945298
 20
169.9997558592999
 30
0.0
 11
-105.0
 21
169.9997558592999
 31
0.0
  0
LINE
  5
699A
330
1E
100
AcDbEntity
  8
17
  6
CONTINOUS
100
AcDbLine
 10
-70.0
 20
233.0
 30
0.0
 11
-70.0
 21
300.0
 31
0.0
  0
CIRCLE
  5
699B
330
1E
100
AcDbEntity
  8
17
  6
CONTINOUS
100
AcDbCircle
 10
-70.0
 20
285.0
 30
0.0
 40
6.5
  0
CIRCLE
  5
699C
330
1E
100
AcDbEntity
  8
17
  6
CONTINOUS
100
AcDbCircle
 10
-70.0
 20
253.0
 30
0.0
 40
6.5
  0
LINE
  5
699D
330
1E
100
AcDbEntity
  8
17
  6
CONTINOUS
100
AcDbLine
 10
-85.0
 20
253.0
 30
0.0
 11
-55.0
 21
253.0
 31
0.0
  0
LINE
  5
699E
330
1E
100
AcDbEntity
  8
17
  6
CONTINOUS
100
AcDbLine
 10
-85.0
 20
285.0
 30
0.0
 11
-55.0
 21
285.0
 31
0.0
  0
CIRCLE
  5
69A6
330
1E
100
AcDbEntity
  8
12
  6
DASHED
100
AcDbCircle
 10
-35.0
 20
183.9997558592998
 30
0.0
 40
8.5
  0
LINE
  5
69A7
330
1E
100
AcDbEntity
  8
12
  6
DASHED
100
AcDbLine
 10
-35.0
 20
199.0
 30
0.0
 11
-35.0
 21
168.9997558592999
 31
0.0
  0
LINE
  5
69A9
330
1E
100
AcDbEntity
  8
12
  6
DASHED
100
AcDbLine
 10
19.99993896484999
 20
183.9997558592998
 30
0.0
 11
49.99993896484999
 21
183.9997558592998
 31
0.0
  0
CIRCLE
  5
69AA
330
1E
100
AcDbEntity
  8
12
  6
DASHED
100
AcDbCircle
 10
34.99993896485
 20
183.9997558592998
 30
0.0
 40
8.5
  0
LINE
  5
69AB
330
1E
100
AcDbEntity
  8
12
  6
DASHED
100
AcDbLine
 10
34.99993896485
 20
199.0
 30
0.0
 11
34.99993896485
 21
168.9997558592999
 31
0.0
  0
CIRCLE
  5
69AD
330
1E
100
AcDbEntity
  8
17
  6
CONTINOUS
100
AcDbCircle
 10
139.99993896485
 20
253.0
 30
0.0
 40
6.5
  0
CIRCLE
  5
69AE
330
1E
100
AcDbEntity
  8
17
  6
CONTINOUS
100
AcDbCircle
 10
139.99993896485
 20
285.0
 30
0.0
 40
6.5
  0
CIRCLE
  5
69AF
330
1E
100
AcDbEntity
  8
17
  6
CONTINOUS
100
AcDbCircle
 10
139.99993896485
 20
285.0
 30
0.0
 40
6.5
  0
LINE
  5
69B0
330
1E
100
AcDbEntity
  8
17
  6
CONTINOUS
100
AcDbLine
 10
124.9999389648499
 20
253.0
 30
0.0
 11
154.9998168945298
 21
253.0
 31
0.0
  0
LINE
  5
69B1
330
1E
100
AcDbEntity
  8
17
  6
CONTINOUS
100
AcDbLine
 10
124.9999389648499
 20
285.0
 30
0.0
 11
154.9998168945298
 21
285.0
 31
0.0
  0
CIRCLE
  5
69B3
330
1E
100
AcDbEntity
  8
17
  6
CONTINOUS
100
AcDbCircle
 10
0.0
 20
285.0
 30
0.0
 40
6.5
  0
LINE
  5
69B4
330
1E
100
AcDbEntity
  8
17
  6
CONTINOUS
100
AcDbLine
 10
-15.0
 20
253.0
 30
0.0
 11
14.99993896484999
 21
253.0
 31
0.0
  0
LINE
  5
69B5
330
1E
100
AcDbEntity
  8
17
  6
CONTINOUS
100
AcDbLine
 10
-15.0
 20
285.0
 30
0.0
 11
14.99993896484999
 21
285.0
 31
0.0
  0
CIRCLE
  5
69B6
330
1E
100
AcDbEntity
  8
17
  6
CONTINOUS
100
AcDbCircle
 10
0.0
 20
253.0
 30
0.0
 40
6.5
  0
LINE
  5
69B8
330
1E
100
AcDbEntity
  8
17
  6
CONTINOUS
100
AcDbLine
 10
139.99993896485
 20
233.0
 30
0.0
 11
139.99993896485
 21
300.0
 31
0.0
  0
LINE
  5
69B9
330
1E
100
AcDbEntity
  8
17
  6
CONTINOUS
100
AcDbLine
 10
-126.8352050781004
 20
-739.9997558593
 30
0.0
 11
195.2814941405995
 21
-739.9997558593
 31
0.0
  0
LINE
  5
69BA
330
1E
100
AcDbEntity
  8
17
  6
CONTINOUS
100
AcDbLine
 10
-126.1672363281004
 20
-431.9997558593
 30
0.0
 11
195.9499511718995
 21
-431.9997558593
 31
0.0
  0
LINE
  5
69BB
330
1E
100
AcDbEntity
  8
19
  6
DASHED
100
AcDbLine
 10
201.9499511718994
 20
-397.9997558592998
 30
0.0
 11
-120.1672363281004
 21
-397.9997558592998
 31
0.0
  0
LINE
  5
69BC
330
1E
100
AcDbEntity
  8
19
  6
DASHED
100
AcDbLine
 10
195.0285644530995
 20
-773.9997558593
 30
0.0
 11
-124.3015136719004
 21
-773.9997558593
 31
0.0
  0
LINE
  5
69BD
330
1E
100
AcDbEntity
  8
17
  6
CONTINOUS
100
AcDbLine
 10
195.9499511718995
 20
-779.9997558592999
 30
0.0
 11
-126.8352050781004
 21
-779.9997558592999
 31
0.0
  0
LINE
  5
69BE
330
1E
100
AcDbEntity
  8
17
  6
CONTINOUS
100
AcDbLine
 10
205.9499511718994
 20
-391.9997558592998
 30
0.0
 11
-116.1672363281004
 21
-391.9997558592998
 31
0.0
  0
LINE
  5
6A25
330
1E
100
AcDbEntity
  8
L0_
  6
CONTINUOUS
 62
     2
100
AcDbLine
 10
-119.64453125
 20
-765.9609375
 30
0.0
 11
-128.6313476561999
 21
-752.9799804687
 31
0.0
  0
LINE
  5
6A26
330
1E
100
AcDbEntity
  8
19
  6
DASHDOT
100
AcDbLine
 10
-126.8352050781004
 20
-779.9997558592999
 30
0.0
 11
-119.64453125
 21
-765.9609375
 31
0.0
  0
LINE
  5
6A27
330
1E
100
AcDbEntity
  8
L0_
  6
CONTINUOUS
 62
     2
100
AcDbLine
 10
-128.6313476561999
 20
-752.9799804687
 30
0.0
 11
-126.8352050781004
 21
-739.9997558593
 31
0.0
  0
CIRCLE
  5
6A29
330
1E
100
AcDbEntity
  8
12
100
AcDbCircle
 10
35.0
 20
-754.9997558592999
 30
0.0
 40
4.5
  0
CIRCLE
  5
6A2A
330
1E
100
AcDbEntity
  8
12
100
AcDbCircle
 10
-35.0
 20
-754.9997558592999
 30
0.0
 40
4.5
  0
LINE
  5
6A2B
330
1E
100
AcDbEntity
  8
12
100
AcDbLine
 10
-50.0
 20
-754.9997558592999
 30
0.0
 11
-20.0
 21
-754.9997558592999
 31
0.0
  0
LINE
  5
6A2E
330
1E
100
AcDbEntity
  8
L0_
  6
CONTINUOUS
 62
     2
100
AcDbLine
 10
-116.1672363281004
 20
-416.9997558592998
 30
0.0
 11
-126.1672363281004
 21
-406.9997558593
 31
0.0
  0
LINE
  5
6A2F
330
1E
100
AcDbEntity
  8
L0_
  6
CONTINUOUS
 62
     2
100
AcDbLine
 10
-126.1672363281004
 20
-431.9997558593
 30
0.0
 11
-116.1672363281004
 21
-416.9997558592998
 31
0.0
  0
LINE
  5
6A30
330
1E
100
AcDbEntity
  8
L0_
  6
CONTINUOUS
 62
     2
100
AcDbLine
 10
-126.1672363281004
 20
-406.9997558593
 30
0.0
 11
-116.1672363281004
 21
-391.9997558592998
 31
0.0
  0
LINE
  5
6A31
330
1E
100
AcDbEntity
  8
L0_
  6
CONTINUOUS
 62
     2
100
AcDbLine
 10
-116.1672363281004
 20
-416.9997558592998
 30
0.0
 11
-126.1672363281004
 21
-406.9997558593
 31
0.0
  0
LINE
  5
6A32
330
1E
100
AcDbEntity
  8
L0_
  6
CONTINUOUS
 62
     2
100
AcDbLine
 10
-126.1672363281004
 20
-431.9997558593
 30
0.0
 11
-116.1672363281004
 21
-416.9997558592998
 31
0.0
  0
LINE
  5
6A33
330
1E
100
AcDbEntity
  8
L0_
  6
CONTINUOUS
 62
     2
100
AcDbLine
 10
-126.1672363281004
 20
-406.9997558593
 30
0.0
 11
-116.1672363281004
 21
-391.9997558592998
 31
0.0
  0
LINE
  5
6A34
330
1E
100
AcDbEntity
  8
19
  6
DASHDOT
100
AcDbLine
 10
-126.1672363281004
 20
-406.9997558593
 30
0.0
 11
-116.1672363281004
 21
-391.9997558592998
 31
0.0
  0
LINE
  5
6A35
330
1E
100
AcDbEntity
  8
17
  6
CONTINOUS
100
AcDbLine
 10
-116.1672363281004
 20
-416.9997558592998
 30
0.0
 11
-126.1672363281004
 21
-406.9997558593
 31
0.0
  0
LINE
  5
6A36
330
1E
100
AcDbEntity
  8
19
  6
DASHDOT
100
AcDbLine
 10
-126.1672363281004
 20
-431.9997558593
 30
0.0
 11
-116.1672363281004
 21
-416.9997558592998
 31
0.0
  0
CIRCLE
  5
6A37
330
1E
100
AcDbEntity
  8
12
100
AcDbCircle
 10
35.0
 20
-417.0
 30
0.0
 40
4.5
  0
LINE
  5
6A38
330
1E
100
AcDbEntity
  8
12
100
AcDbLine
 10
-50.0
 20
-417.0
 30
0.0
 11
-20.0
 21
-417.0
 31
0.0
  0
LINE
  5
6A39
330
1E
100
AcDbEntity
  8
12
100
AcDbLine
 10
-35.0
 20
-401.9997558592998
 30
0.0
 11
-35.0
 21
-432.0
 31
0.0
  0
CIRCLE
  5
6A3A
330
1E
100
AcDbEntity
  8
12
100
AcDbCircle
 10
-35.0
 20
-417.0
 30
0.0
 40
4.5
  0
LINE
  5
6A3B
330
1E
100
AcDbEntity
  8
12
100
AcDbLine
 10
35.0
 20
-401.9997558592998
 30
0.0
 11
35.0
 21
-432.0
 31
0.0
  0
LINE
  5
6A3F
330
1E
100
AcDbEntity
  8
17
  6
CONTINOUS
100
AcDbLine
 10
188.9011230468994
 20
-762.9653320312
 30
0.0
 11
197.8876953125
 21
-752.9799804687
 31
0.0
  0
LINE
  5
6A40
330
1E
100
AcDbEntity
  8
17
  6
CONTINOUS
100
AcDbLine
 10
195.9499511718995
 20
-779.9997558592999
 30
0.0
 11
188.9011230468994
 21
-762.9653320312
 31
0.0
  0
LINE
  5
6A41
330
1E
100
AcDbEntity
  8
17
  6
CONTINOUS
100
AcDbLine
 10
197.8876953125
 20
-752.9799804687
 30
0.0
 11
195.2814941405995
 21
-739.9997558593
 31
0.0
  0
LINE
  5
6A42
330
1E
100
AcDbEntity
  8
17
  6
CONTINOUS
100
AcDbLine
 10
205.9499511718994
 20
-416.9997558592998
 30
0.0
 11
195.9499511718995
 21
-406.9997558593
 31
0.0
  0
LINE
  5
6A43
330
1E
100
AcDbEntity
  8
17
  6
CONTINOUS
100
AcDbLine
 10
195.9499511718995
 20
-431.9997558593
 30
0.0
 11
205.9499511718994
 21
-416.9997558592998
 31
0.0
  0
LINE
  5
6A44
330
1E
100
AcDbEntity
  8
17
  6
CONTINOUS
100
AcDbLine
 10
195.9499511718995
 20
-406.9997558593
 30
0.0
 11
205.9499511718994
 21
-391.9997558592998
 31
0.0
  0
LWPOLYLINE
  5
6B40
330
1E
100
AcDbEntity
  8
10
  6
CONTINUOUS
100
AcDbPolyline
 90
       16
 70
     1
 43
0.0
 10
117.49993896485
 20
-170.0
 10
22.49993896485
 20
-170.0
 10
-22.5
 20
-170.0
 10
-47.5
 20
-170.0
 10
-92.5
 20
-170.0
 10
-105.0
 20
-170.0
 10
-105.0
 20
200.0
 10
-92.5
 20
200.0
 10
-47.5
 20
200.0
 10
-22.5
 20
200.0
 10
22.49993896485
 20
200.0
 10
117.49993896485
 20
200.0
 10
162.4998168945298
 20
200.0
 10
174.9998168945298
 20
200.0
 10
174.9998168945298
 20
-170.0
 10
162.4998168945298
 20
-170.0
  0
LWPOLYLINE
  5
6B41
330
1E
100
AcDbEntity
  8
10
  6
CONTINUOUS
100
AcDbPolyline
 90
        4
 70
     1
 43
0.0
 10
39.0
 20
-52.0
 10
-39.0
 20
-52.0
 10
-39.0
 20
43.0
 10
39.0
 20
43.0
  0
LWPOLYLINE
  5
6B43
330
1E
100
AcDbEntity
  8
17
  6
CONTINOUS
100
AcDbPolyline
 90
        4
 70
     0
 43
0.0
 10
162.4998168945298
 20
200.0
 10
162.4998168945298
 20
300.0
 10
117.49993896485
 20
300.0
 10
117.49993896485
 20
200.0
  0
LWPOLYLINE
  5
6B44
330
1E
100
AcDbEntity
  8
17
  6
CONTINOUS
100
AcDbPolyline
 90
        4
 70
     0
 43
0.0
 10
22.49993896485
 20
200.0
 10
22.49993896485
 20
300.0
 10
-22.5
 20
300.0
 10
-22.5
 20
200.0
  0
LWPOLYLINE
  5
6B45
330
1E
100
AcDbEntity
  8
17
  6
CONTINOUS
100
AcDbPolyline
 90
        4
 70
     0
 43
0.0
 10
-47.5
 20
200.0
 10
-47.5
 20
300.0
 10
-92.5
 20
300.0
 10
-92.5
 20
200.0
  0
LWPOLYLINE
  5
6B46
330
1E
100
AcDbEntity
  8
17
  6
CONTINOUS
100
AcDbPolyline
 90
        4
 70
     0
 43
0.0
 10
162.4998168945298
 20
-170.0
 10
162.4998168945298
 20
-270.0
 10
117.49993896485
 20
-270.0
 10
117.49993896485
 20
-170.0
  0
LWPOLYLINE
  5
6B47
330
1E
100
AcDbEntity
  8
17
  6
CONTINOUS
100
AcDbPolyline
 90
        4
 70
     0
 43
0.0
 10
22.49993896485
 20
-170.0
 10
22.49993896485
 20
-270.0
 10
-22.5
 20
-270.0
 10
-22.5
 20
-170.0
  0
LWPOLYLINE
  5
6B48
330
1E
100
AcDbEntity
  8
17
  6
CONTINOUS
100
AcDbPolyline
 90
        4
 70
     0
 43
0.0
 10
-47.5
 20
-170.0
 10
-47.5
 20
-270.0
 10
-92.5
 20
-270.0
 10
-92.5
 20
-170.0
  0
LINE
  5
6B49
330
1E
100
AcDbEntity
  8
17
  6
CONTINOUS
100
AcDbLine
 10
0.0000610351701198
 20
-203.0
 30
0.0
 11
0.0000610351701198
 21
-289.9890136719
 31
0.0
  0
LINE
  5
6B4A
330
1E
100
AcDbEntity
  8
17
  6
CONTINOUS
100
AcDbLine
 10
-69.99987792967989
 20
-203.0
 30
0.0
 11
-69.99987792967989
 21
-289.9890136719
 31
0.0
  0
DIMENSION
  5
6C95
330
1E
100
AcDbEntity
  8
30
  6
CONTINUOUS
100
AcDbDimension
  2
*D11
 10
162.4998168945298
 20
-305.5330128661744
 30
0.0
 11
139.9998779296899
 21
-301.0330128661743
 31
0.0
 70
    32
  3
STANDARD
100
AcDbAlignedDimension
 13
117.49993896485
 23
-270.0
 33
0.0
 14
162.4998168945298
 24
-270.0
 34
0.0
100
AcDbRotatedDimension
  0
DIMENSION
  5
6CA2
330
1E
100
AcDbEntity
  8
30
  6
CONTINUOUS
100
AcDbDimension
  2
*D12
 10
0.000061035170118
 20
-318.4852668063658
 30
0.0
 11
-34.99990844725487
 21
-313.9852668063658
 31
0.0
 70
    32
  3
STANDARD
100
AcDbAlignedDimension
 13
-69.99987792967989
 23
-289.9890136719
 33
0.0
 14
0.0000610351701198
 24
-289.9890136719
 34
0.0
100
AcDbRotatedDimension
  0
DIMENSION
  5
6CAF
330
1E
100
AcDbEntity
  8
30
  6
CONTINUOUS
100
AcDbDimension
  2
*D13
 10
69.99993896485
 20
-318.4852668063658
 30
0.0
 11
35.00000000001006
 21
-313.9852668063658
 31
0.0
 70
    32
  3
STANDARD
100
AcDbAlignedDimension
 13
0.0000610351701198
 23
-289.9890136719
 33
0.0
 14
69.99993896485
 24
-289.9890136719
 34
0.0
100
AcDbRotatedDimension
1001
ACAD
1000
DSTYLE
1002
{
1070
   287
1070
     4
1070
   287
1070
     4
1070
   287
1070
     4
1070
   287
1070
     4
1070
   287
1070
     4
1070
   287
1070
     4
1070
   279
1070
     1
1002
}
  0
DIMENSION
  5
6CBC
330
1E
100
AcDbEntity
  8
30
  6
CONTINUOUS
100
AcDbDimension
  2
*D14
 10
174.9998168945298
 20
-335.8207924016777
 30
0.0
 11
34.99990844726493
 21
-331.3207924016777
 31
0.0
 70
    32
  3
STANDARD
100
AcDbAlignedDimension
 13
-105.0
 23
-170.0
 33
0.0
 14
174.9998168945298
 24
-170.0
 34
0.0
100
AcDbRotatedDimension
  0
DIMENSION
  5
6CC9
330
1E
100
AcDbEntity
  8
30
  6
CONTINUOUS
100
AcDbDimension
  2
*D15
 10
191.1719315502377
 20
285.0
 30
0.0
 11
186.6719315502377
 21
292.5
 31
0.0
 70
    32
  3
STANDARD
100
AcDbAlignedDimension
 13
162.4998168945298
 23
300.0
 33
0.0
 14
146.49993896485
 24
285.0
 34
0.0
 50
90.0
100
AcDbRotatedDimension
  0
DIMENSION
  5
6CD6
330
1E
100
AcDbEntity
  8
30
  6
CONTINUOUS
100
AcDbDimension
  2
*D16
 10
191.1719315502377
 20
253.0
 30
0.0
 11
186.6719315502376
 21
269.0
 31
0.0
 70
    32
  3
STANDARD
100
AcDbAlignedDimension
 13
146.49993896485
 23
285.0
 33
0.0
 14
154.9998168945298
 24
253.0
 34
0.0
 50
90.0
100
AcDbRotatedDimension
1001
ACAD
1000
DSTYLE
1002
{
1070
   287
1070
     4
1070
   287
1070
     4
1070
   287
1070
     4
1070
   287
1070
     4
1070
   287
1070
     4
1070
   287
1070
     4
1070
   279
1070
     1
1002
}
  0
DIMENSION
  5
6CE3
330
1E
100
AcDbEntity
  8
30
  6
CONTINUOUS
100
AcDbDimension
  2
*D17
 10
191.1719315502377
 20
200.0
 30
0.0
 11
186.6719315502376
 21
226.5
 31
0.0
 70
    32
  3
STANDARD
100
AcDbAlignedDimension
 13
154.9998168945298
 23
253.0
 33
0.0
 14
174.9998168945298
 24
200.0
 34
0.0
 50
90.0
100
AcDbRotatedDimension
1001
ACAD
1000
DSTYLE
1002
{
1070
   287
1070
     4
1070
   287
1070
     4
1070
   287
1070
     4
1070
   287
1070
     4
1070
   287
1070
     4
1070
   287
1070
     4
1070
   279
1070
     1
1002
}
  0
DIMENSION
  5
6CF0
330
1E
100
AcDbEntity
  8
30
  6
CONTINUOUS
100
AcDbDimension
  2
*D18
 10
135.4772700619743
 20
280.4214385518704
 30
0.0
 11
180.1666056315169
 21
317.0899999999998
 31
0.0
 70
   163
  3
STANDARD
100
AcDbDiametricDimension
 15
144.5226078677254
 25
289.7585614481295
 35
0.0
 40
0.0
1001
ACAD
1000
DSTYLE
1002
{
1070
   288
1070
     1
1002
}
  0
LWPOLYLINE
  5
6D06
330
1E
100
AcDbEntity
  8
10
  6
CONTINUOUS
100
AcDbPolyline
 90
        3
 70
     0
 43
0.0
 10
-39.0
 20
361.1509476533528
 10
-39.0
 20
357.1509476533528
 10
39.0
 20
357.1509476533528
  0
LWPOLYLINE
  5
6D07
330
1E
100
AcDbEntity
  8
10
  6
CONTINUOUS
100
AcDbPolyline
 90
        4
 70
     0
 43
0.0
 10
-22.5
 20
357.1509476533528
 10
-22.5
 20
325.1509476533529
 10
22.5
 20
325.1509476533529
 10
22.5
 20
357.1509476533528
  0
LINE
  5
6D08
330
1E
100
AcDbEntity
  8
10
  6
CONTINUOUS
100
AcDbLine
 10
39.0
 20
357.1509476533528
 30
0.0
 11
39.0
 21
361.1509476533528
 31
0.0
  0
LINE
  5
6D09
330
1E
100
AcDbEntity
  8
10
  6
CONTINUOUS
100
AcDbLine
 10
39.0
 20
361.1509476533528
 30
0.0
 11
39.0
 21
361.1509476533528
 31
0.0
  0
LWPOLYLINE
  5
6D0A
330
1E
100
AcDbEntity
  8
17
  6
CONTINOUS
100
AcDbPolyline
 90
        4
 70
     1
 43
0.0
 10
-20.0
 20
490.1509476533528
 10
20.0
 20
490.1509476533528
 10
20.0
 20
470.1509476533528
 10
-20.0
 20
470.1509476533528
  0
LWPOLYLINE
  5
6D0B
330
1E
100
AcDbEntity
  8
17
  6
CONTINOUS
100
AcDbPolyline
 90
        2
 70
     0
 43
0.0
 10
-63.5
 20
490.1509476533528
 10
-63.5
 20
470.1509476533528
  0
LWPOLYLINE
  5
6D0C
330
1E
100
AcDbEntity
  8
17
  6
CONTINOUS
100
AcDbPolyline
 90
        2
 70
     0
 43
0.0
 10
-76.49993896484011
 20
490.1509476533528
 10
-76.49993896484011
 20
470.1509476533528
  0
LWPOLYLINE
  5
6D0D
330
1E
100
AcDbEntity
  8
17
  6
CONTINOUS
100
AcDbPolyline
 90
        4
 70
     1
 43
0.0
 10
-89.99993896484012
 20
490.1509476533528
 10
-49.9999389648401
 20
490.1509476533528
 10
-49.9999389648401
 20
470.1509476533528
 10
-89.99993896484012
 20
470.1509476533528
  0
LWPOLYLINE
  5
6D11
330
1E
100
AcDbEntity
  8
17
  6
CONTINOUS
100
AcDbPolyline
 90
        2
 70
     0
 43
0.0
 10
76.5
 20
490.1509476533528
 10
76.5
 20
470.1509476533528
  0
LWPOLYLINE
  5
6D12
330
1E
100
AcDbEntity
  8
17
  6
CONTINOUS
100
AcDbPolyline
 90
        2
 70
     0
 43
0.0
 10
63.5
 20
490.1509476533528
 10
63.5
 20
470.1509476533528
  0
LWPOLYLINE
  5
6D13
330
1E
100
AcDbEntity
  8
17
  6
CONTINOUS
100
AcDbPolyline
 90
        2
 70
     0
 43
0.0
 10
6.5
 20
490.1509476533528
 10
6.5
 20
470.1509476533528
  0
LWPOLYLINE
  5
6D14
330
1E
100
AcDbEntity
  8
17
  6
CONTINOUS
100
AcDbPolyline
 90
        2
 70
     0
 43
0.0
 10
-6.5
 20
490.1509476533528
 10
-6.5
 20
470.1509476533528
  0
LWPOLYLINE
  5
6D15
330
1E
100
AcDbEntity
  8
17
  6
CONTINOUS
100
AcDbPolyline
 90
        4
 70
     1
 43
0.0
 10
50.0
 20
490.1509476533528
 10
90.0
 20
490.1509476533528
 10
90.0
 20
470.1509476533528
 10
50.0
 20
470.1509476533528
  0
LINE
  5
6D33
330
1E
100
AcDbEntity
  8
10
  6
CONTINUOUS
100
AcDbLine
 10
-105.0
 20
368.1509476533528
 30
0.0
 11
-105.0
 21
368.1509476533528
 31
0.0
  0
LINE
  5
6D36
330
1E
100
AcDbEntity
  8
10
  6
CONTINUOUS
100
AcDbLine
 10
-51.0
 20
361.1509476533528
 30
0.0
 11
-51.0
 21
361.1509476533528
 31
0.0
  0
LWPOLYLINE
  5
6E45
330
1E
100
AcDbEntity
  8
10
  6
CONTINUOUS
100
AcDbPolyline
 90
        6
 70
     1
 43
0.0
 10
-51.0
 20
361.1509476533528
 10
174.9998168945298
 20
361.1509476533528
 10
174.9998168945298
 20
501.1509476533529
 10
-105.0
 20
501.1509476533529
 10
-105.0
 20
368.1509476533528
 10
-105.0
 20
361.1509476533528
  0
LWPOLYLINE
  5
6ED0
330
1E
100
AcDbEntity
  8
18
100
AcDbPolyline
 90
        4
 70
     1
 43
0.0
 10
-104.9997558594004
 20
-770.9997558592999
 10
-104.9997558594004
 20
-400.9997558592998
 10
175.0
 20
-400.9997558592998
 10
175.0
 20
-770.9997558592999
  0
LINE
  5
6ED1
330
1E
100
AcDbEntity
  8
12
100
AcDbLine
 10
35.0
 20
-401.9997558592998
 30
0.0
 11
35.0
 21
-432.0
 31
0.0
  0
LINE
  5
6ED2
330
1E
100
AcDbEntity
  8
12
100
AcDbLine
 10
-35.0
 20
-739.9995117185997
 30
0.0
 11
-35.0
 21
-769.9997558593
 31
0.0
  0
LINE
  5
6ED3
330
1E
100
AcDbEntity
  8
12
100
AcDbLine
 10
35.0
 20
-739.9995117185997
 30
0.0
 11
35.0
 21
-769.9997558593
 31
0.0
  0
LINE
  5
6ED4
330
1E
100
AcDbEntity
  8
12
100
AcDbLine
 10
20.0
 20
-754.9997558592999
 30
0.0
 11
50.0
 21
-754.9997558592999
 31
0.0
  0
TEXT
  5
6ED5
330
1E
100
AcDbEntity
  8
30
  6
CONTINUOUS
100
AcDbText
 10
59.73704305844647
 20
-725.4473330673579
 30
0.0
 40
7.0
  1
%%C9
100
AcDbText
  0
LEADER
  5
6ED6
330
1E
100
AcDbEntity
  8
30
  6
CONTINUOUS
100
AcDbLeader
  3
STANDARD
 76
     3
 10
37.99768925567889
 20
-749.9416939150058
 30
0.0
 10
47.75154943503184
 20
-725.7265809280353
 30
0.0
 10
78.52425257157769
 20
-725.7829347399749
 30
0.0
1001
ACAD
1000
DSTYLE
1002
{
1070
     5
1000
OPEN
1070
   342
1005
3B2
1002
}
  0
LWPOLYLINE
  5
6F14
330
1E
100
AcDbEntity
  8
18
100
AcDbPolyline
 90
        4
 70
     1
 43
0.0
 10
600.0
 20
-771.0
 10
600.0
 20
-401.0
 10
320.0
 20
-401.0
 10
320.0
 20
-771.0
  0
LWPOLYLINE
  5
6F15
330
1E
100
AcDbEntity
  8
11
  6
CONTINUOUS
100
AcDbPolyline
 90
        8
 70
     1
 43
0.0
 10
465.5
 20
-644.0
 10
465.5
 20
-558.0
 42
0.4142135623730951
 10
459.4999999999997
 20
-552.0
 10
390.5
 20
-552.0
 42
0.4142135623730951
 10
384.5
 20
-558.0
 10
384.5
 20
-644.0
 42
0.4142135623730951
 10
390.5
 20
-650.0
 10
459.4999999999997
 20
-650.0
 42
0.4142135623730951
  0
DIMENSION
  5
6F16
330
1E
100
AcDbEntity
  8
30
  6
CONTINUOUS
100
AcDbDimension
  2
*D20
 10
457.4445195208901
 20
-558.1664414373283
 30
0.0
 11
473.4445195208905
 21
-535.666441437328
 31
0.0
 70
   164
  1
R6
  3
STANDARD
100
AcDbRadialDimension
 15
459.4999999999997
 25
-552.0
 35
0.0
 40
0.0
1001
ACAD
1000
DSTYLE
1002
{
1070
   288
1070
     1
1002
}
  0
DIMENSION
  5
6F52
330
1E
100
AcDbEntity
  8
30
  6
CONTINUOUS
100
AcDbDimension
  2
*D21
 10
-201.0934457379698
 20
-601.0
 30
0.0
 11
-205.5934457379698
 21
-509.0
 31
0.0
 70
    32
  3
STANDARD
100
AcDbAlignedDimension
 13
-50.0
 23
-417.0
 33
0.0
 14
-166.0
 24
-601.0
 34
0.0
 50
90.0
100
AcDbRotatedDimension
  0
DIMENSION
  5
6F5F
330
1E
100
AcDbEntity
  8
30
  6
CONTINUOUS
100
AcDbDimension
  2
*D22
 10
-201.0934457379698
 20
-754.9997558592999
 30
0.0
 11
-205.5934457379696
 21
-677.99987792965
 31
0.0
 70
    32
  3
STANDARD
100
AcDbAlignedDimension
 13
-166.0
 23
-601.0
 33
0.0
 14
-50.0
 24
-754.9997558592999
 34
0.0
 50
90.0
100
AcDbRotatedDimension
1001
ACAD
1000
DSTYLE
1002
{
1070
   287
1070
     4
1070
   287
1070
     4
1070
   287
1070
     4
1070
   287
1070
     4
1070
   287
1070
     4
1070
   287
1070
     4
1070
   279
1070
     1
1002
}
  0
DIMENSION
  5
6F6C
330
1E
100
AcDbEntity
  8
30
  6
CONTINUOUS
100
AcDbDimension
  2
*D23
 10
35.0
 20
-810.4423648938418
 30
0.0
 11
0.0000000000000003
 21
-805.9423648938414
 31
0.0
 70
    32
  3
STANDARD
100
AcDbAlignedDimension
 13
-35.0
 23
-769.9997558593
 33
0.0
 14
35.0
 24
-769.9997558593
 34
0.0
100
AcDbRotatedDimension
  0
DIMENSION
  5
6F79
330
1E
100
AcDbEntity
  8
30
  6
CONTINUOUS
100
AcDbDimension
  2
*D24
 10
465.5
 20
-683.7650401241262
 30
0.0
 11
425.0
 21
-679.2650401241262
 31
0.0
 70
    32
  3
STANDARD
100
AcDbAlignedDimension
 13
384.5
 23
-644.0
 33
0.0
 14
465.5
 24
-644.0
 34
0.0
100
AcDbRotatedDimension
  0
DIMENSION
  5
6F86
330
1E
100
AcDbEntity
  8
30
  6
CONTINUOUS
100
AcDbDimension
  2
*D25
 10
363.097286732649
 20
-650.0
 30
0.0
 11
358.5972867326491
 21
-600.9999999999998
 31
0.0
 70
    32
  3
STANDARD
100
AcDbAlignedDimension
 13
390.5
 23
-552.0
 33
0.0
 14
390.5
 24
-650.0
 34
0.0
 50
90.0
100
AcDbRotatedDimension
  0
DIMENSION
  5
6FAD
330
1E
100
AcDbEntity
  8
30
  6
CONTINUOUS
100
AcDbDimension
  2
*D26
 10
214.8584367809216
 20
199.9999999999999
 30
0.0
 11
210.3584367809215
 21
250.0
 31
0.0
 70
    32
  3
STANDARD
100
AcDbAlignedDimension
 13
163.4998168945298
 23
300.0
 33
0.0
 14
175.9998168945298
 24
200.0
 34
0.0
 50
90.0
100
AcDbRotatedDimension
  0
DIMENSION
  5
6FBA
330
1E
100
AcDbEntity
  8
30
  6
CONTINUOUS
100
AcDbDimension
  2
*D27
 10
214.8584367809216
 20
-0.0000000000000113
 30
0.0
 11
210.3584367809215
 21
100.0
 31
0.0
 70
    32
  3
STANDARD
100
AcDbAlignedDimension
 13
175.9998168945298
 23
200.0
 33
0.0
 14
174.9998168945298
 24
0.0
 34
0.0
 50
90.0
100
AcDbRotatedDimension
1001
ACAD
1000
DSTYLE
1002
{
1070
   287
1070
     4
1070
   287
1070
     4
1070
   287
1070
     4
1070
   287
1070
     4
1070
   287
1070
     4
1070
   287
1070
     4
1070
   279
1070
     1
1002
}
  0
DIMENSION
  5
6FC7
330
1E
100
AcDbEntity
  8
30
  6
CONTINUOUS
100
AcDbDimension
  2
*D28
 10
214.8584367809216
 20
-170.0
 30
0.0
 11
210.3584367809216
 21
-84.99999999999998
 31
0.0
 70
    32
  3
STANDARD
100
AcDbAlignedDimension
 13
174.9998168945298
 23
0.0
 33
0.0
 14
174.9998168945298
 24
-170.0
 34
0.0
 50
90.0
100
AcDbRotatedDimension
1001
ACAD
1000
DSTYLE
1002
{
1070
   287
1070
     4
1070
   287
1070
     4
1070
   287
1070
     4
1070
   287
1070
     4
1070
   287
1070
     4
1070
   287
1070
     4
1070
   279
1070
     1
1002
}
  0
DIMENSION
  5
6FE1
330
1E
100
AcDbEntity
  8
30
  6
CONTINUOUS
100
AcDbDimension
  2
*D29
 10
233.9081821090274
 20
-170.0
 30
0.0
 11
229.4081821090276
 21
15.0
 31
0.0
 70
    32
  3
STANDARD
100
AcDbAlignedDimension
 13
174.9998168945298
 23
200.0
 33
0.0
 14
174.9998168945298
 24
-170.0
 34
0.0
 50
90.0
100
AcDbRotatedDimension
  0
LWPOLYLINE
  5
70C6
330
1E
100
AcDbEntity
  8
10
  6
CONTINUOUS
100
AcDbPolyline
 90
        6
 70
     0
 43
0.0
 10
-92.5
 20
230.0
 10
-105.0
 20
230.0
 10
-105.0
 20
200.0
 10
175.0
 20
200.0
 10
175.0
 20
230.0
 10
162.4998168945298
 20
230.0
  0
LWPOLYLINE
  5
70C7
330
1E
100
AcDbEntity
  8
10
  6
CONTINUOUS
100
AcDbPolyline
 90
        2
 70
     0
 43
0.0
 10
-22.5
 20
230.0
 10
-47.5
 20
230.0
  0
LWPOLYLINE
  5
70C8
330
1E
100
AcDbEntity
  8
10
  6
CONTINUOUS
100
AcDbPolyline
 90
        2
 70
     0
 43
0.0
 10
117.49993896485
 20
230.0
 10
22.49993896485
 20
230.0
  0
LINE
  5
70D5
330
1E
100
AcDbEntity
  8
10
  6
CONTINUOUS
100
AcDbLine
 10
-105.0
 20
499.1509476533528
 30
0.0
 11
174.9998168945298
 21
499.1509476533528
 31
0.0
  0
LWPOLYLINE
  5
734B
330
1E
100
AcDbEntity
  8
17
  6
CONTINOUS
100
AcDbPolyline
 90
        4
 70
     1
 43
0.0
 10
120.0
 20
490.1509476533528
 10
160.0
 20
490.1509476533528
 10
160.0
 20
470.1509476533528
 10
120.0
 20
470.1509476533528
  0
LWPOLYLINE
  5
734C
330
1E
100
AcDbEntity
  8
17
  6
CONTINOUS
100
AcDbPolyline
 90
        2
 70
     0
 43
0.0
 10
133.4999999999999
 20
490.1509476533528
 10
133.4999999999999
 20
470.1509476533528
  0
LWPOLYLINE
  5
734D
330
1E
100
AcDbEntity
  8
17
  6
CONTINOUS
100
AcDbPolyline
 90
        2
 70
     0
 43
0.0
 10
146.5
 20
490.1509476533528
 10
146.5
 20
470.1509476533528
  0
DIMENSION
  5
73CB
330
1E
100
AcDbEntity
  8
30
  6
CONTINUOUS
100
AcDbDimension
  2
*D30
 10
139.99993896485
 20
-318.4852668063658
 30
0.0
 11
105.00000000001
 21
-313.9852668063658
 31
0.0
 70
    32
  3
STANDARD
100
AcDbAlignedDimension
 13
70.00006103517012
 23
-289.9890136719
 33
0.0
 14
139.99993896485
 24
-289.9890136719
 34
0.0
100
AcDbRotatedDimension
1001
ACAD
1000
DSTYLE
1002
{
1070
   287
1070
     4
1070
   287
1070
     4
1070
   287
1070
     4
1070
   287
1070
     4
1070
   287
1070
     4
1070
   287
1070
     4
1070
   279
1070
     1
1002
}
  0
LWPOLYLINE
  5
73CC
330
1E
100
AcDbEntity
  8
17
  6
CONTINOUS
100
AcDbPolyline
 90
        4
 70
     0
 43
0.0
 10
92.49993896484999
 20
-170.0
 10
92.49993896484999
 20
-270.0
 10
47.5
 20
-270.0
 10
47.5
 20
-170.0
  0
LINE
  5
73CD
330
1E
100
AcDbEntity
  8
17
  6
CONTINOUS
100
AcDbLine
 10
70.00006103517012
 20
-203.0
 30
0.0
 11
70.00006103517012
 21
-289.9890136719
 31
0.0
  0
CIRCLE
  5
73CE
330
1E
100
AcDbEntity
  8
17
  6
CONTINOUS
100
AcDbCircle
 10
70.0
 20
-255.0
 30
0.0
 40
6.5
  0
LINE
  5
73CF
330
1E
100
AcDbEntity
  8
17
  6
CONTINOUS
100
AcDbLine
 10
55.0
 20
-223.0
 30
0.0
 11
84.99993896484999
 21
-223.0
 31
0.0
  0
LINE
  5
73D0
330
1E
100
AcDbEntity
  8
17
  6
CONTINOUS
100
AcDbLine
 10
55.0
 20
-255.0
 30
0.0
 11
84.99993896484999
 21
-255.0
 31
0.0
  0
CIRCLE
  5
73D1
330
1E
100
AcDbEntity
  8
17
  6
CONTINOUS
100
AcDbCircle
 10
70.0
 20
-223.0
 30
0.0
 40
6.5
  0
LINE
  5
74F0
330
1E
100
AcDbEntity
  8
16
100
AcDbLine
 10
657.0
 20
0.0
 30
0.0
 11
315.0205752942781
 21
0.0
 31
0.0
  0
LWPOLYLINE
  5
7627
330
1E
100
AcDbEntity
  8
17
  6
CONTINOUS
100
AcDbPolyline
 90
        4
 70
     0
 43
0.0
 10
92.49993896484999
 20
200.0
 10
92.49993896484999
 20
300.0
 10
47.5
 20
300.0
 10
47.5
 20
200.0
  0
CIRCLE
  5
7628
330
1E
100
AcDbEntity
  8
17
  6
CONTINOUS
100
AcDbCircle
 10
70.0
 20
253.0
 30
0.0
 40
6.5
  0
LINE
  5
7629
330
1E
100
AcDbEntity
  8
17
  6
CONTINOUS
100
AcDbLine
 10
55.0
 20
253.0
 30
0.0
 11
84.99993896484999
 21
253.0
 31
0.0
  0
LINE
  5
762A
330
1E
100
AcDbEntity
  8
17
  6
CONTINOUS
100
AcDbLine
 10
55.0
 20
285.0
 30
0.0
 11
84.99993896484999
 21
285.0
 31
0.0
  0
CIRCLE
  5
762B
330
1E
100
AcDbEntity
  8
17
  6
CONTINOUS
100
AcDbCircle
 10
70.0
 20
285.0
 30
0.0
 40
6.5
  0
LINE
  5
762C
330
1E
100
AcDbEntity
  8
17
  6
CONTINOUS
100
AcDbLine
 10
70.0
 20
233.0
 30
0.0
 11
70.0
 21
300.0
 31
0.0
  0
DIMENSION
  5
77C4
330
1E
100
AcDbEntity
  8
30
  6
CONTINUOUS
100
AcDbDimension
  2
*D60
 10
592.0891437027476
 20
-309.08595701602
 30
0.0
 11
496.5890635941192
 21
-304.58595701602
 31
0.0
 70
    32
  3
STANDARD
100
AcDbAlignedDimension
 13
401.0889834854908
 23
-0.0000000000000009
 33
0.0
 14
592.0891437027476
 24
-179.0
 34
0.0
100
AcDbRotatedDimension
1001
ACAD
1000
DSTYLE
1002
{
1070
   287
1070
     4
1070
   287
1070
     4
1070
   287
1070
     4
1070
   287
1070
     4
1070
   287
1070
     4
1070
   287
1070
     4
1070
   279
1070
     1
1002
}
  0
DIMENSION
  5
77C5
330
1E
100
AcDbEntity
  8
30
  6
CONTINUOUS
100
AcDbDimension
  2
*D61
 10
401.0889834854908
 20
-309.08595701602
 30
0.0
 11
361.0891169998921
 21
-304.58595701602
 31
0.0
 70
    32
  3
STANDARD
100
AcDbAlignedDimension
 13
321.0892505142934
 23
0.0000000000000105
 33
0.0
 14
401.0889834854908
 24
-0.0000000000000009
 34
0.0
100
AcDbRotatedDimension
  0
DIMENSION
  5
77C6
330
1E
100
AcDbEntity
  8
30
  6
CONTINUOUS
100
AcDbDimension
  2
*D62
 10
460.0891437027475
 20
-194.4087893196519
 30
0.0
 11
456.0891437027475
 21
-189.9087893196519
 31
0.0
 70
    32
  3
STANDARD
100
AcDbAlignedDimension
 13
452.0891437027475
 23
-140.0
 33
0.0
 14
460.0891437027475
 24
-170.0
 34
0.0
100
AcDbRotatedDimension
  0
DIMENSION
  5
77C7
330
1E
100
AcDbEntity
  8
30
  6
CONTINUOUS
100
AcDbDimension
  2
*D63
 10
592.0891437027476
 20
-292.4950458463608
 30
0.0
 11
522.0891437027476
 21
-287.9950458463608
 31
0.0
 70
    32
  3
STANDARD
100
AcDbAlignedDimension
 13
452.0891437027475
 23
-140.0
 33
0.0
 14
592.0891437027476
 24
-179.0
 34
0.0
100
AcDbRotatedDimension
1001
ACAD
1000
DSTYLE
1002
{
1070
   287
1070
     4
1070
   287
1070
     4
1070
   287
1070
     4
1070
   287
1070
     4
1070
   287
1070
     4
1070
   287
1070
     4
1070
   279
1070
     1
1002
}
  0
DIMENSION
  5
77C8
330
1E
100
AcDbEntity
  8
30
  6
CONTINUOUS
100
AcDbDimension
  2
*D64
 10
452.0891437027475
 20
-292.4950458463608
 30
0.0
 11
443.5891437027475
 21
-287.9950458463608
 31
0.0
 70
    32
  3
STANDARD
100
AcDbAlignedDimension
 13
435.0891437027475
 23
0.0
 33
0.0
 14
452.0891437027475
 24
-140.0
 34
0.0
100
AcDbRotatedDimension
  0
LWPOLYLINE
  5
77C9
330
1E
100
AcDbEntity
  8
10
  6
CONTINUOUS
100
AcDbPolyline
 90
        8
 70
     1
 43
0.0
 10
460.0891437027475
 20
-170.0
 10
460.0891437027475
 20
-140.0
 10
452.0891437027475
 20
-140.0
 10
452.0891437027475
 20
170.0
 10
460.0891437027475
 20
170.0
 10
460.0891437027475
 20
200.0
 10
592.0891437027476
 20
200.0
 10
592.0891437027476
 20
-170.0
  0
LINE
  5
77CA
330
1E
100
AcDbEntity
  8
12
  6
DASHED
100
AcDbLine
 10
610.0891437027476
 20
-158.0
 30
0.0
 11
610.0891437027476
 21
-150.0
 31
0.0
  0
LINE
  5
77CB
330
1E
100
AcDbEntity
  8
12
  6
DASHED
100
AcDbLine
 10
608.0891437027474
 20
-163.0
 30
0.0
 11
608.0891437027474
 21
-145.0
 31
0.0
  0
LINE
  5
77CC
330
1E
100
AcDbEntity
  8
12
  6
DASHED
100
AcDbLine
 10
557.0891437027476
 20
-145.5
 30
0.0
 11
557.0891437027476
 21
-162.5
 31
0.0
  0
LINE
  5
77CD
330
1E
100
AcDbEntity
  8
12
  6
DASHED
100
AcDbLine
 10
564.0891437027476
 20
-145.5
 30
0.0
 11
564.0891437027476
 21
-162.5
 31
0.0
  0
LINE
  5
77CE
330
1E
100
AcDbEntity
  8
12
  6
DASHED
100
AcDbLine
 10
598.0891437027476
 20
-167.0
 30
0.0
 11
598.0891437027476
 21
-139.0
 31
0.0
  0
LINE
  5
77CF
330
1E
100
AcDbEntity
  8
12
  6
DASHED
100
AcDbLine
 10
460.0891437027477
 20
-162.5
 30
0.0
 11
564.0891437027476
 21
-162.5
 31
0.0
  0
LINE
  5
77D0
330
1E
100
AcDbEntity
  8
12
  6
DASHED
100
AcDbLine
 10
604.0891437027473
 20
-173.0
 30
0.0
 11
632.0891437027476
 21
-173.0
 31
0.0
  0
LINE
  5
77D1
330
1E
100
AcDbEntity
  8
12
  6
DASHED
100
AcDbLine
 10
632.0891437027476
 20
-179.0
 30
0.0
 11
592.0891437027476
 21
-179.0
 31
0.0
  0
DIMENSION
  5
77D2
330
1E
100
AcDbEntity
  8
30
  6
CONTINUOUS
100
AcDbDimension
  2
*D65
 10
592.0891437027476
 20
-282.9588801759837
 30
0.0
 11
569.0891437027476
 21
-278.4588801759837
 31
0.0
 70
    32
  3
STANDARD
100
AcDbAlignedDimension
 13
546.0891437027476
 23
-270.0
 33
0.0
 14
592.0891437027476
 24
-180.0
 34
0.0
100
AcDbRotatedDimension
1001
ACAD
1000
DSTYLE
1002
{
1070
   287
1070
     4
1070
   287
1070
     4
1070
   287
1070
     4
1070
   287
1070
     4
1070
   287
1070
     4
1070
   287
1070
     4
1070
   279
1070
     1
1002
}
  0
LINE
  5
77D3
330
1E
100
AcDbEntity
  8
12
  6
DASHED
100
AcDbLine
 10
564.0891437027476
 20
-158.0
 30
0.0
 11
592.0891437027476
 21
-158.0
 31
0.0
  0
LWPOLYLINE
  5
77D4
330
1E
100
AcDbEntity
  8
17
  6
CONTINOUS
100
AcDbPolyline
 90
        4
 70
     0
 43
0.0
 10
546.0891437027476
 20
-170.0
 10
546.0891437027476
 20
-270.0
 10
526.0891437027476
 20
-270.0
 10
526.0891437027476
 20
-170.0
  0
DIMENSION
  5
77D5
330
1E
100
AcDbEntity
  8
30
  6
CONTINUOUS
100
AcDbDimension
  2
*D66
 10
546.0891437027476
 20
-282.9588801759837
 30
0.0
 11
536.0891437027476
 21
-278.4588801759837
 31
0.0
 70
    32
  3
STANDARD
100
AcDbAlignedDimension
 13
526.0891437027476
 23
-270.0
 33
0.0
 14
546.0891437027476
 24
-270.0
 34
0.0
100
AcDbRotatedDimension
  0
LINE
  5
77D6
330
1E
100
AcDbEntity
  8
17
  6
DASHDOT
100
AcDbLine
 10
560.9226397965474
 20
-223.0
 30
0.0
 11
514.1986407730477
 21
-223.0
 31
0.0
  0
LINE
  5
77D7
330
1E
100
AcDbEntity
  8
17
  6
DASHDOT
100
AcDbLine
 10
514.1986407730477
 20
-255.0
 30
0.0
 11
560.9226397965474
 21
-255.0
 31
0.0
  0
ARC
  5
77D8
330
1E
100
AcDbEntity
  8
12
  6
DASHED
100
AcDbCircle
 10
-604.0891437027473
 20
-167.0
 30
0.0
 40
6.0
210
0.0
220
0.0
230
-1.0
100
AcDbArc
 50
270.0
 51
0.0
  0
LINE
  5
77D9
330
1E
100
AcDbEntity
  8
12
  6
DASHED
100
AcDbLine
 10
592.0891437027476
 20
-170.0
 30
0.0
 11
592.0891437027476
 21
-179.0
 31
0.0
  0
LINE
  5
77DA
330
1E
100
AcDbEntity
  8
12
  6
DASHED
100
AcDbLine
 10
610.0891437027476
 20
-158.0
 30
0.0
 11
598.0891437027476
 21
-158.0
 31
0.0
  0
LINE
  5
77DB
330
1E
100
AcDbEntity
  8
12
  6
DASHED
100
AcDbLine
 10
608.0891437027474
 20
-163.0
 30
0.0
 11
598.0891437027476
 21
-163.0
 31
0.0
  0
LINE
  5
77DC
330
1E
100
AcDbEntity
  8
12
  6
DASHED
100
AcDbLine
 10
632.0891437027476
 20
-179.0
 30
0.0
 11
632.0891437027476
 21
-173.0
 31
0.0
  0
LINE
  5
77DD
330
1E
100
AcDbEntity
  8
12
  6
DASHED
100
AcDbLine
 10
460.0891437027477
 20
-145.5
 30
0.0
 11
564.0891437027476
 21
-145.5
 31
0.0
  0
LINE
  5
77DE
330
1E
100
AcDbEntity
  8
16
100
AcDbLine
 10
624.0891437027475
 20
0.0
 30
0.0
 11
386.0891437027476
 21
0.0
 31
0.0
  0
DIMENSION
  5
77DF
330
1E
100
AcDbEntity
  8
30
  6
CONTINUOUS
100
AcDbDimension
  2
*D67
 10
379.8031649340936
 20
-139.9999999999999
 30
0.0
 11
375.3031649340936
 21
-69.99999999999992
 31
0.0
 70
    32
  3
STANDARD
100
AcDbAlignedDimension
 13
401.0889834854908
 23
0.0
 33
0.0
 14
452.0891437027475
 24
-140.0
 34
0.0
 50
90.0
100
AcDbRotatedDimension
1001
ACAD
1000
DSTYLE
1002
{
1070
   287
1070
     4
1070
   287
1070
     4
1070
   287
1070
     4
1070
   287
1070
     4
1070
   287
1070
     4
1070
   287
1070
     4
1070
   279
1070
     1
1002
}
  0
DIMENSION
  5
77E0
330
1E
100
AcDbEntity
  8
30
  6
CONTINUOUS
100
AcDbDimension
  2
*D68
 10
379.8031649340936
 20
0.000000000000006
 30
0.0
 11
375.3031649340936
 21
85.00000000000007
 31
0.0
 70
    32
  3
STANDARD
100
AcDbAlignedDimension
 13
452.0891437027475
 23
170.0
 33
0.0
 14
401.0889834854908
 24
0.0
 34
0.0
 50
90.0
100
AcDbRotatedDimension
  0
LINE
  5
77E1
330
1E
100
AcDbEntity
  8
18
100
AcDbLine
 10
395.6990069840476
 20
27.80029296869997
 30
0.0
 11
429.5276202652476
 21
15.48779296869997
 31
0.0
  0
LINE
  5
77E2
330
1E
100
AcDbEntity
  8
18
100
AcDbLine
 10
404.5915851090476
 20
52.232421875
 30
0.0
 11
395.6990069840476
 21
27.80029296869997
 31
0.0
  0
ARC
  5
77E3
330
1E
100
AcDbEntity
  8
30
  6
CONTINUOUS
100
AcDbCircle
 10
510.0884112809477
 20
0.0
 30
0.0
 40
108.9994277954571
100
AcDbArc
 50
159.9999133832343
 51
180.0
  0
LINE
  5
77E4
330
1E
100
AcDbEntity
  8
18
100
AcDbLine
 10
404.5915851090476
 20
52.232421875
 30
0.0
 11
375.4089679215476
 21
59.14013671869998
 31
0.0
  0
CIRCLE
  5
77E5
330
1E
100
AcDbEntity
  8
18
100
AcDbCircle
 10
351.2814494146859
 20
57.80212868525814
 30
0.0
 40
20.0000000000001
  0
LINE
  5
77E6
330
1E
100
AcDbEntity
  8
18
100
AcDbLine
 10
395.6990069840476
 20
27.80029296869997
 30
0.0
 11
368.9035968277476
 21
41.26660156249999
 31
0.0
  0
ARC
  5
77E7
330
1E
100
AcDbEntity
  8
18
100
AcDbCircle
 10
365.760598093543
 20
35.01270701271778
 30
0.0
 40
7.000000000035852
100
AcDbArc
 50
63.31735842156694
 51
122.4301390088879
  0
ARC
  5
77E8
330
1E
100
AcDbEntity
  8
18
100
AcDbCircle
 10
377.0217953708487
 20
65.95259114023338
 30
0.0
 40
7.000000000040718
100
AcDbArc
 50
197.5698696909486
 51
256.6826297870068
  0
LINE
  5
77E9
330
1E
100
AcDbEntity
  8
18
100
AcDbLine
 10
404.5915851090476
 20
52.232421875
 30
0.0
 11
438.4201983902475
 21
39.91943359369997
 31
0.0
  0
LWPOLYLINE
  5
77EA
330
1E
100
AcDbEntity
  8
10
  6
CONTINUOUS
100
AcDbPolyline
 90
        2
 70
     0
 43
0.0
 10
437.1506671402475
 20
33.17529296869996
 10
411.3928546402473
 20
41.82763671869996
  0
LINE
  5
77EB
330
1E
100
AcDbEntity
  8
10
  6
CONTINUOUS
100
AcDbLine
 10
407.5974444840474
 20
31.39892578119997
 30
0.0
 11
432.8904132340475
 21
21.47021484369996
 31
0.0
  0
LINE
  5
77EC
330
1E
100
AcDbEntity
  8
10
  6
CONTINUOUS
100
AcDbLine
 10
408.8767413590476
 20
40.61572265619997
 30
0.0
 11
406.4485187027476
 21
33.94482421869998
 31
0.0
  0
ARC
  5
77ED
330
1E
100
AcDbEntity
  8
10
  6
CONTINUOUS
100
AcDbCircle
 10
408.3279132340476
 20
33.26074218749994
 30
0.0
 40
1.999999999970313
100
AcDbArc
 50
159.9997221383785
 51
248.5674954434581
  0
ARC
  5
77EE
330
1E
100
AcDbEntity
  8
10
  6
CONTINUOUS
100
AcDbCircle
 10
410.7561358902475
 20
39.931640625
 30
0.0
 40
1.999999999976978
100
AcDbArc
 50
71.43229716816482
 51
160.0005964028954
  0
ARC
  5
77EF
330
1E
100
AcDbEntity
  8
10
  6
CONTINUOUS
100
AcDbCircle
 10
510.0891437027477
 20
0.0
 30
0.0
 40
75.0
100
AcDbArc
 50
180.0
 51
203.0739139876515
  0
LINE
  5
77F0
330
1E
100
AcDbEntity
  8
10
  6
CONTINUOUS
100
AcDbLine
 10
441.0891437027473
 20
-47.5
 30
0.0
 11
452.0891437027477
 21
-47.5
 31
0.0
  0
LINE
  5
77F1
330
1E
100
AcDbEntity
  8
10
  6
CONTINUOUS
100
AcDbLine
 10
441.0891437027473
 20
-29.39404296880002
 30
0.0
 11
441.0891437027473
 21
-47.5
 31
0.0
  0
LINE
  5
77F2
330
1E
100
AcDbEntity
  8
10
  6
CONTINUOUS
100
AcDbLine
 10
441.0891437027473
 20
47.5
 30
0.0
 11
452.0891437027477
 21
47.5
 31
0.0
  0
ARC
  5
77F3
330
1E
100
AcDbEntity
  8
10
  6
CONTINUOUS
100
AcDbCircle
 10
510.0891437027477
 20
0.0
 30
0.0
 40
74.99999999992823
100
AcDbArc
 50
156.9260823699609
 51
180.0
  0
LINE
  5
77F4
330
1E
100
AcDbEntity
  8
18
100
AcDbLine
 10
438.4201983902475
 20
39.91943359369997
 30
0.0
 11
429.5276202652476
 21
15.48779296869997
 31
0.0
  0
LINE
  5
77F5
330
1E
100
AcDbEntity
  8
10
  6
CONTINUOUS
100
AcDbLine
 10
437.2785968277476
 20
17.98974609369996
 30
0.0
 11
434.3796710465475
 21
20.55908203119996
 31
0.0
  0
ARC
  5
77F6
330
1E
100
AcDbEntity
  8
10
  6
CONTINUOUS
100
AcDbCircle
 10
431.0639954910755
 20
16.81711695391366
 30
0.0
 40
4.999999999950349
100
AcDbArc
 50
48.46161501428245
 51
68.56790242145423
  0
LWPOLYLINE
  5
77F7
330
1E
100
AcDbEntity
  8
10
  6
CONTINUOUS
100
AcDbPolyline
 90
        2
 70
     0
 43
0.0
 10
441.0891437027473
 20
32.97558593749998
 10
438.8772296402473
 20
32.91601562499998
  0
LINE
  5
77F8
330
1E
100
AcDbEntity
  8
10
  6
CONTINUOUS
100
AcDbLine
 10
441.0891437027473
 20
29.39404296869998
 30
0.0
 11
441.0891437027473
 21
47.5
 31
0.0
  0
ARC
  5
77F9
330
1E
100
AcDbEntity
  8
10
  6
CONTINUOUS
100
AcDbCircle
 10
438.7429992594078
 20
37.91500565583374
 30
0.0
 40
5.000000000014308
100
AcDbArc
 50
251.432099447418
 51
271.538373194407
  0
LWPOLYLINE
  5
77FA
330
1E
100
AcDbEntity
  8
17
  6
CONTINOUS
100
AcDbPolyline
 90
        4
 70
     0
 43
0.0
 10
561.0891437027476
 20
200.0
 10
561.0891437027476
 20
300.0
 10
581.0891437027476
 20
300.0
 10
581.0891437027476
 20
200.0
  0
LEADER
  5
77FB
330
1E
100
AcDbEntity
  8
30
  6
CONTINUOUS
100
AcDbLeader
  3
STANDARD
 76
     3
 10
608.0891437027474
 20
-145.0
 30
0.0
 10
628.2404967368368
 20
-124.8476320125517
 30
0.0
 10
641.7592967991737
 20
-124.8370630914487
 30
0.0
211
-1.0
221
0.0
231
0.0
1001
ACAD
1000
DSTYLE
1002
{
1070
     5
1000
OPEN
1070
   342
1005
3B2
1002
}
  0
LINE
  5
77FC
330
1E
100
AcDbEntity
  8
12
  6
DASHED
100
AcDbLine
 10
577.5217608902476
 20
184.0
 30
0.0
 11
627.9048175309477
 21
184.0
 31
0.0
  0
LINE
  5
77FD
330
1E
100
AcDbEntity
  8
12
  6
DASHED
100
AcDbLine
 10
632.0891437027476
 20
159.0
 30
0.0
 11
592.0891437027476
 21
159.0
 31
0.0
  0
LINE
  5
77FE
330
1E
100
AcDbEntity
  8
12
  6
DASHED
100
AcDbLine
 10
604.0891437027473
 20
165.0
 30
0.0
 11
632.0891437027476
 21
165.0
 31
0.0
  0
DIMENSION
  5
77FF
330
1E
100
AcDbEntity
  8
30
  6
CONTINUOUS
100
AcDbDimension
  2
*D56
 10
592.0891437027476
 20
-123.5687133200817
 30
0.0
 11
578.0891437027475
 21
-119.0687133200817
 31
0.0
 70
    32
  3
STANDARD
100
AcDbAlignedDimension
 13
564.0891437027476
 23
-145.5
 33
0.0
 14
592.0891437027476
 24
-139.0
 34
0.0
100
AcDbRotatedDimension
  0
LINE
  5
7800
330
1E
100
AcDbEntity
  8
12
  6
DASHED
100
AcDbLine
 10
564.0891437027476
 20
-150.0
 30
0.0
 11
592.0891437027476
 21
-150.0
 31
0.0
  0
LINE
  5
7801
330
1E
100
AcDbEntity
  8
L225_
  6
CONTINUOUS
 62
     3
100
AcDbLine
 10
551.7679767105478
 20
-154.0
 30
0.0
 11
625.0891437027476
 21
-154.0
 31
0.0
  0
DIMENSION
  5
7802
330
1E
100
AcDbEntity
  8
30
  6
CONTINUOUS
100
AcDbDimension
  2
*D57
 10
610.0891437027476
 20
-123.5687133200817
 30
0.0
 11
601.0891437027476
 21
-119.0687133200817
 31
0.0
 70
    32
  3
STANDARD
100
AcDbAlignedDimension
 13
592.0891437027476
 23
-139.0
 33
0.0
 14
610.0891437027476
 24
-150.0
 34
0.0
100
AcDbRotatedDimension
1001
ACAD
1000
DSTYLE
1002
{
1070
   287
1070
     4
1070
   287
1070
     4
1070
   287
1070
     4
1070
   287
1070
     4
1070
   287
1070
     4
1070
   287
1070
     4
1070
   279
1070
     1
1002
}
  0
LINE
  5
7803
330
1E
100
AcDbEntity
  8
12
  6
DASHED
100
AcDbLine
 10
592.0891437027476
 20
-139.0
 30
0.0
 11
598.0891437027476
 21
-139.0
 31
0.0
  0
LINE
  5
7804
330
1E
100
AcDbEntity
  8
12
  6
DASHED
100
AcDbLine
 10
598.0891437027476
 20
-150.0
 30
0.0
 11
610.0891437027476
 21
-150.0
 31
0.0
  0
LINE
  5
7805
330
1E
100
AcDbEntity
  8
12
  6
DASHED
100
AcDbLine
 10
608.0891437027474
 20
-145.0
 30
0.0
 11
598.0891437027476
 21
-145.0
 31
0.0
  0
ARC
  5
7806
330
1E
100
AcDbEntity
  8
12
  6
DASHED
100
AcDbCircle
 10
-594.0891437027476
 20
-142.0009765624999
 30
0.0
 40
4.000001778531173
210
0.0
220
0.0
230
-1.0
100
AcDbArc
 50
179.9459695860091
 51
180.0
  0
LINE
  5
7807
330
1E
100
AcDbEntity
  8
17
  6
DASHDOT
100
AcDbLine
 10
544.7489337418476
 20
253.0
 30
0.0
 11
596.8642901871479
 21
253.0
 31
0.0
  0
DIMENSION
  5
7808
330
1E
100
AcDbEntity
  8
30
  6
CONTINUOUS
100
AcDbDimension
  2
*D58
 10
601.7066788208611
 20
230.0
 30
0.0
 11
597.2066788208612
 21
215.0
 31
0.0
 70
    32
  3
STANDARD
100
AcDbAlignedDimension
 13
592.0891437027476
 23
200.0
 33
0.0
 14
592.0891437027476
 24
230.0
 34
0.0
 50
90.0
100
AcDbRotatedDimension
  0
LINE
  5
7809
330
1E
100
AcDbEntity
  8
12
  6
DASHED
100
AcDbLine
 10
592.0891437027476
 20
199.0
 30
0.0
 11
598.0891437027476
 21
199.0
 31
0.0
  0
ARC
  5
780A
330
1E
100
AcDbEntity
  8
12
  6
DASHED
100
AcDbCircle
 10
604.0891437027473
 20
171.0
 30
0.0
 40
6.0
100
AcDbArc
 50
180.0
 51
270.0
  0
LWPOLYLINE
  5
780B
330
1E
100
AcDbEntity
  8
10
  6
CONTINUOUS
100
AcDbPolyline
 90
        4
 70
     1
 43
0.0
 10
591.0891437027474
 20
200.0
 10
592.0891437027476
 20
200.0
 10
592.0891437027476
 20
230.0
 10
591.0891437027474
 20
230.0
  0
LINE
  5
780C
330
1E
100
AcDbEntity
  8
12
  6
DASHED
100
AcDbLine
 10
592.0891437027476
 20
200.0
 30
0.0
 11
592.0891437027476
 21
209.0
 31
0.0
  0
LINE
  5
780D
330
1E
100
AcDbEntity
  8
12
  6
DASHED
100
AcDbLine
 10
608.0891437027474
 20
175.0
 30
0.0
 11
608.0891437027474
 21
193.0
 31
0.0
  0
LINE
  5
780E
330
1E
100
AcDbEntity
  8
12
  6
DASHED
100
AcDbLine
 10
598.0891437027476
 20
171.0
 30
0.0
 11
598.0891437027476
 21
199.0
 31
0.0
  0
LINE
  5
780F
330
1E
100
AcDbEntity
  8
12
  6
DASHED
100
AcDbLine
 10
608.0891437027474
 20
175.0
 30
0.0
 11
598.0891437027476
 21
175.0
 31
0.0
  0
LINE
  5
7810
330
1E
100
AcDbEntity
  8
12
  6
DASHED
100
AcDbLine
 10
598.0891437027476
 20
188.0
 30
0.0
 11
610.0891437027476
 21
188.0
 31
0.0
  0
LINE
  5
7811
330
1E
100
AcDbEntity
  8
12
  6
DASHED
100
AcDbLine
 10
610.0891437027476
 20
180.0
 30
0.0
 11
598.0891437027476
 21
180.0
 31
0.0
  0
LINE
  5
7812
330
1E
100
AcDbEntity
  8
12
  6
DASHED
100
AcDbLine
 10
608.0891437027474
 20
193.0
 30
0.0
 11
598.0891437027476
 21
193.0
 31
0.0
  0
ARC
  5
7813
330
1E
100
AcDbEntity
  8
12
  6
DASHED
100
AcDbCircle
 10
594.0891437027476
 20
195.9990234374996
 30
0.0
 40
4.000001778531268
100
AcDbArc
 50
0.0
 51
0.0540304154237666
  0
LINE
  5
7814
330
1E
100
AcDbEntity
  8
12
  6
DASHED
100
AcDbLine
 10
610.0891437027476
 20
180.0
 30
0.0
 11
610.0891437027476
 21
188.0
 31
0.0
  0
TEXT
  5
7815
330
1E
100
AcDbEntity
  8
30
  6
CONTINUOUS
100
AcDbText
 10
630.167453716669
 20
-123.3255563437092
 30
0.0
 40
4.0
  1
M8
100
AcDbText
  0
LINE
  5
7816
330
1E
100
AcDbEntity
  8
12
  6
DASHED
100
AcDbLine
 10
632.0891437027476
 20
159.0
 30
0.0
 11
632.0891437027476
 21
165.0
 31
0.0
  0
DIMENSION
  5
7817
330
1E
100
AcDbEntity
  8
30
  6
CONTINUOUS
100
AcDbDimension
  2
*D59
 10
561.0891437027476
 20
328.2168640744838
 30
0.0
 11
571.0891437027476
 21
332.7168640744837
 31
0.0
 70
    32
  3
STANDARD
100
AcDbAlignedDimension
 13
581.0891437027476
 23
300.0
 33
0.0
 14
561.0891437027476
 24
300.0
 34
0.0
100
AcDbRotatedDimension
1001
ACAD
1000
DSTYLE
1002
{
1070
   287
1070
     4
1070
   287
1070
     4
1070
   287
1070
     4
1070
   287
1070
     4
1070
   287
1070
     4
1070
   287
1070
     4
1070
   279
1070
     1
1002
}
  0
LINE
  5
7818
330
1E
100
AcDbEntity
  8
17
  6
DASHDOT
100
AcDbLine
 10
544.7489337418476
 20
285.0
 30
0.0
 11
596.8642901871479
 21
285.0
 31
0.0
  0
ARC
  5
7819
330
1E
100
AcDbEntity
  8
30
  6
CONTINUOUS
100
AcDbCircle
 10
510.0884112809477
 20
0.0
 30
0.0
 40
188.9991607666543
100
AcDbArc
 50
159.9999133832615
 51
180.0
  0
LINE
  5
7A44
330
1E
100
AcDbEntity
  8
12
100
AcDbLine
 10
20.0
 20
-417.0
 30
0.0
 11
50.0
 21
-417.0
 31
0.0
  0
DIMENSION
  5
7B81
330
1E
100
AcDbEntity
  8
30
  6
CONTINUOUS
100
AcDbDimension
  2
*D69
 10
592.0891437027476
 20
328.7168640744837
 30
0.0
 11
586.5891437027475
 21
333.2168640744836
 31
0.0
 70
    32
  3
STANDARD
100
AcDbAlignedDimension
 13
581.0891437027476
 23
200.0
 33
0.0
 14
592.0891437027476
 24
199.0
 34
0.0
100
AcDbRotatedDimension
1001
ACAD
1000
DSTYLE
1002
{
1070
    79
1070
     3
1002
}
  0
VIEWPORT
  5
9AC
330
1A
100
AcDbEntity
 67
     1
  8
0
  6
CONTINUOUS
100
AcDbViewport
 10
171.9995348790992
 20
144.1384735538403
 30
0.0
 40
488.8676857773511
 41
292.3514905034161
 68
     1
 69
     1
1001
ACAD
1000
MVIEW
1002
{
1070
    16
1010
0.0
1020
0.0
1030
0.0
1010
0.0
1020
0.0
1030
1.0
1040
0.0
1040
292.3514905034161
1040
171.9995348790992
1040
144.1384735538403
1040
50.0
1040
0.0
1040
0.0
1070
     0
1070
   100
1070
     1
1070
     1
1070
     0
1070
     0
1070
     0
1070
     0
1040
0.0
1040
0.0
1040
0.0
1040
10.0
1040
10.0
1040
10.0
1040
10.0
1070
     0
1002
{
1002
}
1002
}
  0
ENDSEC
  0
SECTION
  2
OBJECTS
  0
DICTIONARY
  5
C
330
0
100
AcDbDictionary
  3
ACAD_GROUP
350
D
  3
ACAD_LAYOUT
350
19
  3
ACAD_MLINESTYLE
350
16
  3
ACAD_PLOTSETTINGS
350
18
  3
ACAD_PLOTSTYLENAME
350
E
  3
ACDBHEADERROUNDTRIPXREC
350
7B8F
  3
ACDBVARIABLEDICTIONARY
350
6C1E
  0
DICTIONARY
  5
178
330
1E
100
AcDbDictionary
280
     1
  3
ACAD_LAYOUTSELFREF
360
7BB1
  0
DICTIONARY
  5
17A
330
1A
100
AcDbDictionary
280
     1
  3
ACAD_LAYOUTSELFREF
360
7BB0
  0
DICTIONARY
  5
D
102
{ACAD_REACTORS
330
C
102
}
330
C
100
AcDbDictionary
  0
DICTIONARY
  5
19
102
{ACAD_REACTORS
330
C
102
}
330
C
100
AcDbDictionary
  0
DICTIONARY
  5
16
102
{ACAD_REACTORS
330
C
102
}
330
C
100
AcDbDictionary
  3
STANDARD
350
17
  0
DICTIONARY
  5
18
102
{ACAD_REACTORS
330
C
102
}
330
C
100
AcDbDictionary
  0
ACDBDICTIONARYWDFLT
  5
E
102
{ACAD_REACTORS
330
C
102
}
330
C
100
AcDbDictionary
281
     1
  3
Normal
350
F
100
AcDbDictionaryWithDefault
340
F
  0
DICTIONARY
  5
7B8F
102
{ACAD_REACTORS
330
C
102
}
330
C
100
AcDbDictionary
  3
CEPSNTYPE
350
7B99
  3
DIMSTYLEDATA
350
7B9D
  3
FINGERPRINTGUID
350
7B9A
  3
HYPERLINKBASE
350
7B92
  3
INSUNITS
350
7B98
  3
LAYOUTDICT
350
7B94
  3
LWETCUNION
350
7B97
  3
PLOTSETDICT
350
7B95
  3
PLOTSTYLNAMDICT
350
7B96
  3
PSVPSCALE
350
7B9C
  3
PUCSBASE
350
7BA0
  3
PUCSORGBACK
350
7BA6
  3
PUCSORGBOTTOM
350
7BA2
  3
PUCSORGFRONT
350
7BA5
  3
PUCSORGLEFT
350
7BA3
  3
PUCSORGRIGHT
350
7BA4
  3
PUCSORGTOP
350
7BA1
  3
PUCSORTHOREF
350
7B9E
  3
PUCSORTHOVIEW
350
7B9F
  3
STYLESHEET
350
7B93
  3
TSTACKALIGN
350
7B90
  3
TSTACKSIZE
350
7B91
  3
UCSBASE
350
7BA9
  3
UCSORGBACK
350
7BAF
  3
UCSORGBOTTOM
350
7BAB
  3
UCSORGFRONT
350
7BAE
  3
UCSORGLEFT
350
7BAC
  3
UCSORGRIGHT
350
7BAD
  3
UCSORGTOP
350
7BAA
  3
UCSORTHOREF
350
7BA7
  3
UCSORTHOVIEW
350
7BA8
  3
VERSIONGUID
350
7B9B
  0
DICTIONARY
  5
6C1E
102
{ACAD_REACTORS
330
C
102
}
330
C
100
AcDbDictionary
  3
DIMASSOC
350
70D7
  3
SORTENTS
350
6C1F
  0
XRECORD
  5
7BB1
102
{ACAD_REACTORS
330
178
102
}
330
178
100
AcDbXrecord
340
1E
  0
XRECORD
  5
7BB0
102
{ACAD_REACTORS
330
17A
102
}
330
17A
100
AcDbXrecord
340
1A
  0
MLINESTYLE
  5
17
102
{ACAD_REACTORS
330
16
102
}
330
16
100
AcDbMlineStyle
  2
STANDARD
 70
     0
  3

 62
   256
 51
90.0
 52
90.0
 71
     2
 49
0.5
 62
   256
  6
BYLAYER
 49
-0.5
 62
   256
  6
BYLAYER
  0
ACDBPLACEHOLDER
  5
F
102
{ACAD_REACTORS
330
E
102
}
330
E
100
AcDbPlaceHolder
280
     0
  0
XRECORD
  5
7B99
102
{ACAD_REACTORS
330
7B8F
102
}
330
7B8F
100
AcDbXrecord
 90
        0
  0
XRECORD
  5
7B9D
102
{ACAD_REACTORS
330
7B8F
102
}
330
7B8F
100
AcDbXrecord
1000
DSTYLE
1002
{
1070
    79
 70
     3
1070
   341
340
3B2
1070
   342
340
3B2
1002
}
  0
XRECORD
  5
7B9A
102
{ACAD_REACTORS
330
7B8F
102
}
330
7B8F
100
AcDbXrecord
  1

  0
XRECORD
  5
7B92
102
{ACAD_REACTORS
330
7B8F
102
}
330
7B8F
100
AcDbXrecord
  1

  0
XRECORD
  5
7B98
102
{ACAD_REACTORS
330
7B8F
102
}
330
7B8F
100
AcDbXrecord
 90
        0
  0
XRECORD
  5
7B94
102
{ACAD_REACTORS
330
7B8F
102
}
330
7B8F
100
AcDbXrecord
340
19
  0
XRECORD
  5
7B97
102
{ACAD_REACTORS
330
7B8F
102
}
330
7B8F
100
AcDbXrecord
 90
    10781
  0
XRECORD
  5
7B95
102
{ACAD_REACTORS
330
7B8F
102
}
330
7B8F
100
AcDbXrecord
340
18
  0
XRECORD
  5
7B96
102
{ACAD_REACTORS
330
7B8F
102
}
330
7B8F
100
AcDbXrecord
340
E
  0
XRECORD
  5
7B9C
102
{ACAD_REACTORS
330
7B8F
102
}
330
7B8F
100
AcDbXrecord
 40
0.0
  0
XRECORD
  5
7BA0
102
{ACAD_REACTORS
330
7B8F
102
}
330
7B8F
100
AcDbXrecord
340
0
  0
XRECORD
  5
7BA6
102
{ACAD_REACTORS
330
7B8F
102
}
330
7B8F
100
AcDbXrecord
 10
0.0
 20
0.0
 30
0.0
  0
XRECORD
  5
7BA2
102
{ACAD_REACTORS
330
7B8F
102
}
330
7B8F
100
AcDbXrecord
 10
0.0
 20
0.0
 30
0.0
  0
XRECORD
  5
7BA5
102
{ACAD_REACTORS
330
7B8F
102
}
330
7B8F
100
AcDbXrecord
 10
0.0
 20
0.0
 30
0.0
  0
XRECORD
  5
7BA3
102
{ACAD_REACTORS
330
7B8F
102
}
330
7B8F
100
AcDbXrecord
 10
0.0
 20
0.0
 30
0.0
  0
XRECORD
  5
7BA4
102
{ACAD_REACTORS
330
7B8F
102
}
330
7B8F
100
AcDbXrecord
 10
0.0
 20
0.0
 30
0.0
  0
XRECORD
  5
7BA1
102
{ACAD_REACTORS
330
7B8F
102
}
330
7B8F
100
AcDbXrecord
 10
0.0
 20
0.0
 30
0.0
  0
XRECORD
  5
7B9E
102
{ACAD_REACTORS
330
7B8F
102
}
330
7B8F
100
AcDbXrecord
340
0
  0
XRECORD
  5
7B9F
102
{ACAD_REACTORS
330
7B8F
102
}
330
7B8F
100
AcDbXrecord
 70
     0
  0
XRECORD
  5
7B93
102
{ACAD_REACTORS
330
7B8F
102
}
330
7B8F
100
AcDbXrecord
  1
kiki.ctb
  0
XRECORD
  5
7B90
102
{ACAD_REACTORS
330
7B8F
102
}
330
7B8F
100
AcDbXrecord
 90
        1
  0
XRECORD
  5
7B91
102
{ACAD_REACTORS
330
7B8F
102
}
330
7B8F
100
AcDbXrecord
 90
       70
  0
XRECORD
  5
7BA9
102
{ACAD_REACTORS
330
7B8F
102
}
330
7B8F
100
AcDbXrecord
340
0
  0
XRECORD
  5
7BAF
102
{ACAD_REACTORS
330
7B8F
102
}
330
7B8F
100
AcDbXrecord
 10
0.0
 20
0.0
 30
0.0
  0
XRECORD
  5
7BAB
102
{ACAD_REACTORS
330
7B8F
102
}
330
7B8F
100
AcDbXrecord
 10
0.0
 20
0.0
 30
0.0
  0
XRECORD
  5
7BAE
102
{ACAD_REACTORS
330
7B8F
102
}
330
7B8F
100
AcDbXrecord
 10
0.0
 20
0.0
 30
0.0
  0
XRECORD
  5
7BAC
102
{ACAD_REACTORS
330
7B8F
102
}
330
7B8F
100
AcDbXrecord
 10
0.0
 20
0.0
 30
0.0
  0
XRECORD
  5
7BAD
102
{ACAD_REACTORS
330
7B8F
102
}
330
7B8F
100
AcDbXrecord
 10
0.0
 20
0.0
 30
0.0
  0
XRECORD
  5
7BAA
102
{ACAD_REACTORS
330
7B8F
102
}
330
7B8F
100
AcDbXrecord
 10
0.0
 20
0.0
 30
0.0
  0
XRECORD
  5
7BA7
102
{ACAD_REACTORS
330
7B8F
102
}
330
7B8F
100
AcDbXrecord
340
0
  0
XRECORD
  5
7BA8
102
{ACAD_REACTORS
330
7B8F
102
}
330
7B8F
100
AcDbXrecord
 70
     0
  0
XRECORD
  5
7B9B
102
{ACAD_REACTORS
330
7B8F
102
}
330
7B8F
100
AcDbXrecord
  1
{64593AC9-0382-4752-9AD8-F61CF5170409}
  0
DICTIONARYVAR
  5
70D7
102
{ACAD_REACTORS
330
6C1E
102
}
330
6C1E
100
DictionaryVariables
280
     0
  1
1
  0
DICTIONARYVAR
  5
6C1F
102
{ACAD_REACTORS
330
6C1E
102
}
330
6C1E
100
DictionaryVariables
280
     0
  1
96
  0
ENDSEC
  0
EOF
