  0
SECTION
  2
HEADER
  9
$ACADVER
  1
AC1014
  9
$ACADMAINTVER
 70
     9
  9
$DWGCODEPAGE
  3
ANSI_932
  9
$INSBASE
 10
0.0
 20
0.0
 30
0.0
  9
$EXTMIN
 10
-262.9137204213893
 20
-926.986417159831
 30
-0.0000000349181948
  9
$EXTMAX
 10
1139.708379781645
 20
929.419318737011
 30
0.0000000814935746
  9
$LIMMIN
 10
-184.0
 20
-675.0
  9
$LIMMAX
 10
509.0
 20
453.0
  9
$ORTHOMODE
 70
     1
  9
$REGENMODE
 70
     1
  9
$FILLMODE
 70
     1
  9
$QTEXTMODE
 70
     0
  9
$MIRRTEXT
 70
     1
  9
$DRAGMODE
 70
     2
  9
$LTSCALE
 40
20.0
  9
$OSMODE
 70
    37
  9
$ATTMODE
 70
     1
  9
$TEXTSIZE
 40
5.0
  9
$TRACEWID
 40
0.05
  9
$TEXTSTYLE
  7
STANDARD1
  9
$CLAYER
  8
30
  9
$CELTYPE
  6
CONTINUOUS
  9
$CECOLOR
 62
   256
  9
$CELTSCALE
 40
1.0
  9
$DELOBJ
 70
     1
  9
$DISPSILH
 70
     0
  9
$DIMSCALE
 40
1.0
  9
$DIMASZ
 40
2.0
  9
$DIMEXO
 40
5.0
  9
$DIMDLI
 40
0.5
  9
$DIMRND
 40
0.0
  9
$DIMDLE
 40
0.0
  9
$DIMEXE
 40
0.5
  9
$DIMTP
 40
0.0
  9
$DIMTM
 40
0.0
  9
$DIMTXT
 40
8.0
  9
$DIMCEN
 40
0.09
  9
$DIMTSZ
 40
0.0
  9
$DIMTOL
 70
     0
  9
$DIMLIM
 70
     0
  9
$DIMTIH
 70
     0
  9
$DIMTOH
 70
     1
  9
$DIMSE1
 70
     0
  9
$DIMSE2
 70
     0
  9
$DIMTAD
 70
     3
  9
$DIMZIN
 70
    12
  9
$DIMBLK
  1
OPEN
  9
$DIMASO
 70
     1
  9
$DIMSHO
 70
     1
  9
$DIMPOST
  1

  9
$DIMAPOST
  1

  9
$DIMALT
 70
     0
  9
$DIMALTD
 70
     2
  9
$DIMALTF
 40
25.4
  9
$DIMLFAC
 40
1.0
  9
$DIMTOFL
 70
     0
  9
$DIMTVP
 40
0.0
  9
$DIMTIX
 70
     0
  9
$DIMSOXD
 70
     0
  9
$DIMSAH
 70
     0
  9
$DIMBLK1
  1

  9
$DIMBLK2
  1

  9
$DIMSTYLE
  2
STANDARD
  9
$DIMCLRD
 70
     0
  9
$DIMCLRE
 70
     0
  9
$DIMCLRT
 70
     0
  9
$DIMTFAC
 40
1.0
  9
$DIMGAP
 40
1.0
  9
$DIMJUST
 70
     0
  9
$DIMSD1
 70
     0
  9
$DIMSD2
 70
     0
  9
$DIMTOLJ
 70
     1
  9
$DIMTZIN
 70
     0
  9
$DIMALTZ
 70
     0
  9
$DIMALTTZ
 70
     0
  9
$DIMFIT
 70
     3
  9
$DIMUPT
 70
     0
  9
$DIMUNIT
 70
     2
  9
$DIMDEC
 70
     1
  9
$DIMTDEC
 70
     1
  9
$DIMALTU
 70
     2
  9
$DIMALTTD
 70
     2
  9
$DIMTXSTY
  7
STANDARD
  9
$DIMAUNIT
 70
     0
  9
$LUNITS
 70
     2
  9
$LUPREC
 70
     4
  9
$SKETCHINC
 40
0.1
  9
$FILLETRAD
 40
0.0
  9
$AUNITS
 70
     0
  9
$AUPREC
 70
     0
  9
$MENU
  1
.
  9
$ELEVATION
 40
0.0
  9
$PELEVATION
 40
0.0
  9
$THICKNESS
 40
0.0
  9
$LIMCHECK
 70
     0
  9
$BLIPMODE
 70
     0
  9
$CHAMFERA
 40
0.0
  9
$CHAMFERB
 40
0.0
  9
$CHAMFERC
 40
0.0
  9
$CHAMFERD
 40
0.0
  9
$SKPOLY
 70
     0
  9
$TDCREATE
 40
2452286.555658657
  9
$TDUPDATE
 40
2453258.363600614
  9
$TDINDWG
 40
1.5850484375
  9
$TDUSRTIMER
 40
1.5850484375
  9
$USRTIMER
 70
     1
  9
$ANGBASE
 50
0.0
  9
$ANGDIR
 70
     0
  9
$PDMODE
 70
     0
  9
$PDSIZE
 40
0.0
  9
$PLINEWID
 40
0.0
  9
$COORDS
 70
     0
  9
$SPLFRAME
 70
     0
  9
$SPLINETYPE
 70
     6
  9
$SPLINESEGS
 70
     8
  9
$ATTDIA
 70
     0
  9
$ATTREQ
 70
     1
  9
$HANDLING
 70
 22529
  9
$HANDSEED
  5
8417
  9
$SURFTAB1
 70
     6
  9
$SURFTAB2
 70
     6
  9
$SURFTYPE
 70
     6
  9
$SURFU
 70
     6
  9
$SURFV
 70
     6
  9
$UCSNAME
  2

  9
$UCSORG
 10
0.0
 20
0.0
 30
0.0
  9
$UCSXDIR
 10
1.0
 20
0.0
 30
0.0
  9
$UCSYDIR
 10
0.0
 20
1.0
 30
0.0
  9
$PUCSNAME
  2

  9
$PUCSORG
 10
0.0
 20
0.0
 30
0.0
  9
$PUCSXDIR
 10
1.0
 20
0.0
 30
0.0
  9
$PUCSYDIR
 10
0.0
 20
1.0
 30
0.0
  9
$USERI1
 70
     0
  9
$USERI2
 70
     0
  9
$USERI3
 70
     0
  9
$USERI4
 70
     0
  9
$USERI5
 70
     0
  9
$USERR1
 40
0.0
  9
$USERR2
 40
0.0
  9
$USERR3
 40
0.0
  9
$USERR4
 40
0.0
  9
$USERR5
 40
0.0
  9
$WORLDVIEW
 70
     1
  9
$SHADEDGE
 70
     3
  9
$SHADEDIF
 70
    70
  9
$TILEMODE
 70
     1
  9
$MAXACTVP
 70
    48
  9
$PINSBASE
 10
0.0
 20
0.0
 30
0.0
  9
$PLIMCHECK
 70
     0
  9
$PEXTMIN
 10
4.273573370203961
 20
5.205246163471485
 30
0.0
  9
$PEXTMAX
 10
194.6100952986349
 20
283.0697008572913
 30
0.0
  9
$PLIMMIN
 10
-5.873748779296875
 20
-5.873749732971191
  9
$PLIMMAX
 10
204.0995788574218
 20
291.1369009017943
  9
$UNITMODE
 70
     0
  9
$VISRETAIN
 70
     1
  9
$PLINEGEN
 70
     0
  9
$PSLTSCALE
 70
     1
  9
$TREEDEPTH
 70
  3020
  9
$PICKSTYLE
 70
     1
  9
$CMLSTYLE
  2
STANDARD
  9
$CMLJUST
 70
     0
  9
$CMLSCALE
 40
1.0
  9
$PROXYGRAPHICS
 70
     1
  9
$MEASUREMENT
 70
     0
  0
ENDSEC
  0
SECTION
  2
CLASSES
  0
CLASS
  1
ACDBDICTIONARYWDFLT
  2
AcDbDictionaryWithDefault
  3
AutoCAD 2000
 90
        0
280
     0
281
     0
  0
CLASS
  1
ACDBPLACEHOLDER
  2
AcDbPlaceHolder
  3
AutoCAD 2000
 90
        0
280
     0
281
     0
  0
CLASS
  1
LAYOUT
  2
AcDbLayout
  3
AutoCAD 2000
 90
        0
280
     0
281
     0
  0
CLASS
  1
LONG_TRANSACTION
  2
AcDbLongTransaction
  3
AutoCAD 2000
 90
        0
280
     0
281
     0
  0
CLASS
  1
LWPOLYLINE
  2
AcDbPolyline
  3
AutoCAD 2000
 90
        0
280
     0
281
     1
  0
CLASS
  1
HATCH
  2
AcDbHatch
  3
AutoCAD 2000
 90
        0
280
     0
281
     1
  0
CLASS
  1
XRECORD
  2
AcDbXrecord
  3
AutoCAD 2000
 90
        0
280
     0
281
     0
  0
CLASS
  1
LONG_TRANSACTION
  2
AcDbLongTransaction
  3
AutoCAD 2000
 90
        0
280
     0
281
     0
  0
CLASS
  1
LWPOLYLINE
  2
AcDbPolyline
  3
AutoCAD 2000
 90
        0
280
     0
281
     1
  0
CLASS
  1
HATCH
  2
AcDbHatch
  3
AutoCAD 2000
 90
        0
280
     0
281
     1
  0
CLASS
  1
XRECORD
  2
AcDbXrecord
  3
AutoCAD 2000
 90
        0
280
     0
281
     0
  0
CLASS
  1
LONG_TRANSACTION
  2
AcDbLongTransaction
  3
AutoCAD 2000
 90
        0
280
     0
281
     0
  0
CLASS
  1
LWPOLYLINE
  2
AcDbPolyline
  3
AutoCAD 2000
 90
        0
280
     0
281
     1
  0
CLASS
  1
HATCH
  2
AcDbHatch
  3
AutoCAD 2000
 90
        0
280
     0
281
     1
  0
CLASS
  1
XRECORD
  2
AcDbXrecord
  3
AutoCAD 2000
 90
        0
280
     0
281
     0
  0
CLASS
  1
LONG_TRANSACTION
  2
AcDbLongTransaction
  3
AutoCAD 2000
 90
        0
280
     0
281
     0
  0
CLASS
  1
LWPOLYLINE
  2
AcDbPolyline
  3
AutoCAD 2000
 90
        0
280
     0
281
     1
  0
CLASS
  1
HATCH
  2
AcDbHatch
  3
AutoCAD 2000
 90
        0
280
     0
281
     1
  0
CLASS
  1
XRECORD
  2
AcDbXrecord
  3
AutoCAD 2000
 90
        0
280
     0
281
     0
  0
CLASS
  1
LONG_TRANSACTION
  2
AcDbLongTransaction
  3
AutoCAD 2000
 90
        0
280
     0
281
     0
  0
CLASS
  1
LWPOLYLINE
  2
AcDbPolyline
  3
AutoCAD 2000
 90
        0
280
     0
281
     1
  0
CLASS
  1
HATCH
  2
AcDbHatch
  3
AutoCAD 2000
 90
        0
280
     0
281
     1
  0
CLASS
  1
XRECORD
  2
AcDbXrecord
  3
AutoCAD 2000
 90
        0
280
     0
281
     0
  0
CLASS
  1
LONG_TRANSACTION
  2
AcDbLongTransaction
  3
AutoCAD 2000
 90
        0
280
     0
281
     0
  0
CLASS
  1
LWPOLYLINE
  2
AcDbPolyline
  3
AutoCAD 2000
 90
        0
280
     0
281
     1
  0
CLASS
  1
HATCH
  2
AcDbHatch
  3
AutoCAD 2000
 90
        0
280
     0
281
     1
  0
CLASS
  1
XRECORD
  2
AcDbXrecord
  3
AutoCAD 2000
 90
        0
280
     0
281
     0
  0
CLASS
  1
LONG_TRANSACTION
  2
AcDbLongTransaction
  3
AutoCAD 2000
 90
        0
280
     0
281
     0
  0
CLASS
  1
LWPOLYLINE
  2
AcDbPolyline
  3
AutoCAD 2000
 90
        0
280
     0
281
     1
  0
CLASS
  1
HATCH
  2
AcDbHatch
  3
AutoCAD 2000
 90
        0
280
     0
281
     1
  0
CLASS
  1
XRECORD
  2
AcDbXrecord
  3
AutoCAD 2000
 90
        0
280
     0
281
     0
  0
CLASS
  1
LONG_TRANSACTION
  2
AcDbLongTransaction
  3
AutoCAD 2000
 90
        0
280
     0
281
     0
  0
CLASS
  1
LWPOLYLINE
  2
AcDbPolyline
  3
AutoCAD 2000
 90
        0
280
     0
281
     1
  0
CLASS
  1
HATCH
  2
AcDbHatch
  3
AutoCAD 2000
 90
        0
280
     0
281
     1
  0
CLASS
  1
XRECORD
  2
AcDbXrecord
  3
AutoCAD 2000
 90
        0
280
     0
281
     0
  0
CLASS
  1
LONG_TRANSACTION
  2
AcDbLongTransaction
  3
AutoCAD 2000
 90
        0
280
     0
281
     0
  0
CLASS
  1
LWPOLYLINE
  2
AcDbPolyline
  3
AutoCAD 2000
 90
        0
280
     0
281
     1
  0
CLASS
  1
HATCH
  2
AcDbHatch
  3
AutoCAD 2000
 90
        0
280
     0
281
     1
  0
CLASS
  1
XRECORD
  2
AcDbXrecord
  3
AutoCAD 2000
 90
        0
280
     0
281
     0
  0
CLASS
  1
LONG_TRANSACTION
  2
AcDbLongTransaction
  3
AutoCAD 2000
 90
        0
280
     0
281
     0
  0
CLASS
  1
LWPOLYLINE
  2
AcDbPolyline
  3
AutoCAD 2000
 90
        0
280
     0
281
     1
  0
CLASS
  1
HATCH
  2
AcDbHatch
  3
AutoCAD 2000
 90
        0
280
     0
281
     1
  0
CLASS
  1
XRECORD
  2
AcDbXrecord
  3
AutoCAD 2000
 90
        0
280
     0
281
     0
  0
CLASS
  1
LONG_TRANSACTION
  2
AcDbLongTransaction
  3
AutoCAD 2000
 90
        0
280
     0
281
     0
  0
CLASS
  1
LWPOLYLINE
  2
AcDbPolyline
  3
AutoCAD 2000
 90
        0
280
     0
281
     1
  0
CLASS
  1
HATCH
  2
AcDbHatch
  3
AutoCAD 2000
 90
        0
280
     0
281
     1
  0
CLASS
  1
XRECORD
  2
AcDbXrecord
  3
AutoCAD 2000
 90
        0
280
     0
281
     0
  0
CLASS
  1
LONG_TRANSACTION
  2
AcDbLongTransaction
  3
AutoCAD 2000
 90
        0
280
     0
281
     0
  0
CLASS
  1
LWPOLYLINE
  2
AcDbPolyline
  3
AutoCAD 2000
 90
        0
280
     0
281
     1
  0
CLASS
  1
HATCH
  2
AcDbHatch
  3
AutoCAD 2000
 90
        0
280
     0
281
     1
  0
CLASS
  1
XRECORD
  2
AcDbXrecord
  3
AutoCAD 2000
 90
        0
280
     0
281
     0
  0
CLASS
  1
LONG_TRANSACTION
  2
AcDbLongTransaction
  3
AutoCAD 2000
 90
        0
280
     0
281
     0
  0
CLASS
  1
LWPOLYLINE
  2
AcDbPolyline
  3
AutoCAD 2000
 90
        0
280
     0
281
     1
  0
CLASS
  1
HATCH
  2
AcDbHatch
  3
AutoCAD 2000
 90
        0
280
     0
281
     1
  0
CLASS
  1
XRECORD
  2
AcDbXrecord
  3
AutoCAD 2000
 90
        0
280
     0
281
     0
  0
CLASS
  1
LONG_TRANSACTION
  2
AcDbLongTransaction
  3
AutoCAD 2000
 90
        0
280
     0
281
     0
  0
CLASS
  1
LWPOLYLINE
  2
AcDbPolyline
  3
AutoCAD 2000
 90
        0
280
     0
281
     1
  0
CLASS
  1
HATCH
  2
AcDbHatch
  3
AutoCAD 2000
 90
        0
280
     0
281
     1
  0
CLASS
  1
XRECORD
  2
AcDbXrecord
  3
AutoCAD 2000
 90
        0
280
     0
281
     0
  0
CLASS
  1
LONG_TRANSACTION
  2
AcDbLongTransaction
  3
AutoCAD 2000
 90
        0
280
     0
281
     0
  0
CLASS
  1
LWPOLYLINE
  2
AcDbPolyline
  3
AutoCAD 2000
 90
        0
280
     0
281
     1
  0
CLASS
  1
HATCH
  2
AcDbHatch
  3
AutoCAD 2000
 90
        0
280
     0
281
     1
  0
CLASS
  1
XRECORD
  2
AcDbXrecord
  3
AutoCAD 2000
 90
        0
280
     0
281
     0
  0
CLASS
  1
LONG_TRANSACTION
  2
AcDbLongTransaction
  3
AutoCAD 2000
 90
        0
280
     0
281
     0
  0
CLASS
  1
LWPOLYLINE
  2
AcDbPolyline
  3
AutoCAD 2000
 90
        0
280
     0
281
     1
  0
CLASS
  1
HATCH
  2
AcDbHatch
  3
AutoCAD 2000
 90
        0
280
     0
281
     1
  0
CLASS
  1
XRECORD
  2
AcDbXrecord
  3
AutoCAD 2000
 90
        0
280
     0
281
     0
  0
CLASS
  1
LONG_TRANSACTION
  2
AcDbLongTransaction
  3
AutoCAD 2000
 90
        0
280
     0
281
     0
  0
CLASS
  1
LWPOLYLINE
  2
AcDbPolyline
  3
AutoCAD 2000
 90
        0
280
     0
281
     1
  0
CLASS
  1
HATCH
  2
AcDbHatch
  3
AutoCAD 2000
 90
        0
280
     0
281
     1
  0
CLASS
  1
XRECORD
  2
AcDbXrecord
  3
AutoCAD 2000
 90
        0
280
     0
281
     0
  0
CLASS
  1
LONG_TRANSACTION
  2
AcDbLongTransaction
  3
AutoCAD 2000
 90
        0
280
     0
281
     0
  0
CLASS
  1
LWPOLYLINE
  2
AcDbPolyline
  3
AutoCAD 2000
 90
        0
280
     0
281
     1
  0
CLASS
  1
HATCH
  2
AcDbHatch
  3
AutoCAD 2000
 90
        0
280
     0
281
     1
  0
CLASS
  1
XRECORD
  2
AcDbXrecord
  3
AutoCAD 2000
 90
        0
280
     0
281
     0
  0
CLASS
  1
LONG_TRANSACTION
  2
AcDbLongTransaction
  3
AutoCAD 2000
 90
        0
280
     0
281
     0
  0
CLASS
  1
LWPOLYLINE
  2
AcDbPolyline
  3
AutoCAD 2000
 90
        0
280
     0
281
     1
  0
CLASS
  1
HATCH
  2
AcDbHatch
  3
AutoCAD 2000
 90
        0
280
     0
281
     1
  0
CLASS
  1
XRECORD
  2
AcDbXrecord
  3
AutoCAD 2000
 90
        0
280
     0
281
     0
  0
CLASS
  1
LONG_TRANSACTION
  2
AcDbLongTransaction
  3
AutoCAD 2000
 90
        0
280
     0
281
     0
  0
CLASS
  1
LWPOLYLINE
  2
AcDbPolyline
  3
AutoCAD 2000
 90
        0
280
     0
281
     1
  0
CLASS
  1
HATCH
  2
AcDbHatch
  3
AutoCAD 2000
 90
        0
280
     0
281
     1
  0
CLASS
  1
XRECORD
  2
AcDbXrecord
  3
AutoCAD 2000
 90
        0
280
     0
281
     0
  0
CLASS
  1
LONG_TRANSACTION
  2
AcDbLongTransaction
  3
AutoCAD 2000
 90
        0
280
     0
281
     0
  0
CLASS
  1
LWPOLYLINE
  2
AcDbPolyline
  3
AutoCAD 2000
 90
        0
280
     0
281
     1
  0
CLASS
  1
HATCH
  2
AcDbHatch
  3
AutoCAD 2000
 90
        0
280
     0
281
     1
  0
CLASS
  1
XRECORD
  2
AcDbXrecord
  3
AutoCAD 2000
 90
        0
280
     0
281
     0
  0
CLASS
  1
LONG_TRANSACTION
  2
AcDbLongTransaction
  3
AutoCAD 2000
 90
        0
280
     0
281
     0
  0
CLASS
  1
LWPOLYLINE
  2
AcDbPolyline
  3
AutoCAD 2000
 90
        0
280
     0
281
     1
  0
CLASS
  1
HATCH
  2
AcDbHatch
  3
AutoCAD 2000
 90
        0
280
     0
281
     1
  0
CLASS
  1
XRECORD
  2
AcDbXrecord
  3
AutoCAD 2000
 90
        0
280
     0
281
     0
  0
CLASS
  1
LONG_TRANSACTION
  2
AcDbLongTransaction
  3
AutoCAD 2000
 90
        0
280
     0
281
     0
  0
CLASS
  1
LWPOLYLINE
  2
AcDbPolyline
  3
AutoCAD 2000
 90
        0
280
     0
281
     1
  0
CLASS
  1
HATCH
  2
AcDbHatch
  3
AutoCAD 2000
 90
        0
280
     0
281
     1
  0
CLASS
  1
XRECORD
  2
AcDbXrecord
  3
AutoCAD 2000
 90
        0
280
     0
281
     0
  0
CLASS
  1
LONG_TRANSACTION
  2
AcDbLongTransaction
  3
AutoCAD 2000
 90
        0
280
     0
281
     0
  0
CLASS
  1
LWPOLYLINE
  2
AcDbPolyline
  3
AutoCAD 2000
 90
        0
280
     0
281
     1
  0
CLASS
  1
HATCH
  2
AcDbHatch
  3
AutoCAD 2000
 90
        0
280
     0
281
     1
  0
CLASS
  1
XRECORD
  2
AcDbXrecord
  3
AutoCAD 2000
 90
        0
280
     0
281
     0
  0
CLASS
  1
LONG_TRANSACTION
  2
AcDbLongTransaction
  3
AutoCAD 2000
 90
        0
280
     0
281
     0
  0
CLASS
  1
LWPOLYLINE
  2
AcDbPolyline
  3
AutoCAD 2000
 90
        0
280
     0
281
     1
  0
CLASS
  1
HATCH
  2
AcDbHatch
  3
AutoCAD 2000
 90
        0
280
     0
281
     1
  0
CLASS
  1
XRECORD
  2
AcDbXrecord
  3
AutoCAD 2000
 90
        0
280
     0
281
     0
  0
CLASS
  1
LONG_TRANSACTION
  2
AcDbLongTransaction
  3
AutoCAD 2000
 90
        0
280
     0
281
     0
  0
CLASS
  1
LWPOLYLINE
  2
AcDbPolyline
  3
AutoCAD 2000
 90
        0
280
     0
281
     1
  0
CLASS
  1
HATCH
  2
AcDbHatch
  3
AutoCAD 2000
 90
        0
280
     0
281
     1
  0
CLASS
  1
XRECORD
  2
AcDbXrecord
  3
AutoCAD 2000
 90
        0
280
     0
281
     0
  0
CLASS
  1
LONG_TRANSACTION
  2
AcDbLongTransaction
  3
AutoCAD 2000
 90
        0
280
     0
281
     0
  0
CLASS
  1
LWPOLYLINE
  2
AcDbPolyline
  3
AutoCAD 2000
 90
        0
280
     0
281
     1
  0
CLASS
  1
HATCH
  2
AcDbHatch
  3
AutoCAD 2000
 90
        0
280
     0
281
     1
  0
CLASS
  1
XRECORD
  2
AcDbXrecord
  3
AutoCAD 2000
 90
        0
280
     0
281
     0
  0
CLASS
  1
DICTIONARYVAR
  2
AcDbDictionaryVar
  3
AutoCAD 2000
 90
        0
280
     0
281
     0
  0
CLASS
  1
LONG_TRANSACTION
  2
AcDbLongTransaction
  3
AutoCAD 2000
 90
        0
280
     0
281
     0
  0
CLASS
  1
LWPOLYLINE
  2
AcDbPolyline
  3
AutoCAD 2000
 90
        0
280
     0
281
     1
  0
CLASS
  1
HATCH
  2
AcDbHatch
  3
AutoCAD 2000
 90
        0
280
     0
281
     1
  0
CLASS
  1
XRECORD
  2
AcDbXrecord
  3
AutoCAD 2000
 90
        0
280
     0
281
     0
  0
CLASS
  1
LONG_TRANSACTION
  2
AcDbLongTransaction
  3
AutoCAD 2000
 90
        0
280
     0
281
     0
  0
CLASS
  1
LWPOLYLINE
  2
AcDbPolyline
  3
AutoCAD 2000
 90
        0
280
     0
281
     1
  0
CLASS
  1
HATCH
  2
AcDbHatch
  3
AutoCAD 2000
 90
        0
280
     0
281
     1
  0
CLASS
  1
XRECORD
  2
AcDbXrecord
  3
AutoCAD 2000
 90
        0
280
     0
281
     0
  0
CLASS
  1
LONG_TRANSACTION
  2
AcDbLongTransaction
  3
AutoCAD 2000
 90
        0
280
     0
281
     0
  0
CLASS
  1
LWPOLYLINE
  2
AcDbPolyline
  3
AutoCAD 2000
 90
        0
280
     0
281
     1
  0
CLASS
  1
HATCH
  2
AcDbHatch
  3
AutoCAD 2000
 90
        0
280
     0
281
     1
  0
CLASS
  1
XRECORD
  2
AcDbXrecord
  3
AutoCAD 2000
 90
        0
280
     0
281
     0
  0
ENDSEC
  0
SECTION
  2
TABLES
  0
TABLE
  2
VPORT
  5
8
330
0
100
AcDbSymbolTable
 70
     7
  0
VPORT
  5
83CF
330
8
100
AcDbSymbolTableRecord
100
AcDbViewportTableRecord
  2
*ACTIVE
 70
     0
 10
0.0
 20
0.0
 11
1.0
 21
1.0
 12
438.3973296801279
 22
1.216450788590009
 13
0.0
 23
0.0
 14
1.0
 24
1.0
 15
10.0
 25
10.0
 16
0.0
 26
0.0
 36
1.0
 17
0.0
 27
0.0
 37
0.0
 40
1881.835951457072
 41
2.295194508009153
 42
50.0
 43
0.0
 44
0.0
 50
0.0
 51
0.0
 71
     0
 72
   100
 73
     1
 74
     1
 75
     0
 76
     0
 77
     0
 78
     0
  0
ENDTAB
  0
TABLE
  2
LTYPE
  5
5
330
0
100
AcDbSymbolTable
 70
     7
  0
LTYPE
  5
13
330
5
100
AcDbSymbolTableRecord
100
AcDbLinetypeTableRecord
  2
BYBLOCK
 70
     0
  3

 72
    65
 73
     0
 40
0.0
  0
LTYPE
  5
14
330
5
100
AcDbSymbolTableRecord
100
AcDbLinetypeTableRecord
  2
BYLAYER
 70
     0
  3

 72
    65
 73
     0
 40
0.0
  0
LTYPE
  5
15
330
5
100
AcDbSymbolTableRecord
100
AcDbLinetypeTableRecord
  2
CONTINUOUS
 70
     0
  3
Solid line
 72
    65
 73
     0
 40
0.0
  0
LTYPE
  5
22
330
5
100
AcDbSymbolTableRecord
100
AcDbLinetypeTableRecord
  2
CONTINOUS
 70
     0
  3
Solid line
 72
    65
 73
     0
 40
0.0
  0
LTYPE
  5
23
330
5
100
AcDbSymbolTableRecord
100
AcDbLinetypeTableRecord
  2
DASHED
 70
     0
  3
__ __ __ __ __ __ __ __ __ __ __ __ __ __ __
 72
    65
 73
     2
 40
0.75
 49
0.5
 74
     0
 49
-0.25
 74
     0
  0
LTYPE
  5
24
330
5
100
AcDbSymbolTableRecord
100
AcDbLinetypeTableRecord
  2
DASHDOT
 70
     0
  3
__ . __ . __ . __ . __ . __ . __ . __ . __ . __
 72
    65
 73
     4
 40
1.0
 49
0.5
 74
     0
 49
-0.25
 74
     0
 49
0.0
 74
     0
 49
-0.25
 74
     0
  0
LTYPE
  5
3932
330
5
100
AcDbSymbolTableRecord
100
AcDbLinetypeTableRecord
  2
DIVIDE
 70
     0
  3
Divide ____ . . ____ . . ____ . . ____ . . ____
 72
    65
 73
     6
 40
1.25
 49
0.5
 74
     0
 49
-0.25
 74
     0
 49
0.0
 74
     0
 49
-0.25
 74
     0
 49
0.0
 74
     0
 49
-0.25
 74
     0
  0
ENDTAB
  0
TABLE
  2
LAYER
  5
2
330
0
100
AcDbSymbolTable
 70
    19
  0
LAYER
  5
10
330
2
100
AcDbSymbolTableRecord
100
AcDbLayerTableRecord
  2
0
 70
     0
 62
     7
  6
CONTINOUS
  0
LAYER
  5
2F
330
2
100
AcDbSymbolTableRecord
100
AcDbLayerTableRecord
  2
10
 70
     0
 62
     4
  6
CONTINOUS
  0
LAYER
  5
31
330
2
100
AcDbSymbolTableRecord
100
AcDbLayerTableRecord
  2
12
 70
     0
 62
     3
  6
CONTINOUS
  0
LAYER
  5
35
330
2
100
AcDbSymbolTableRecord
100
AcDbLayerTableRecord
  2
16
 70
     0
 62
     6
  6
DASHDOT
  0
LAYER
  5
36
330
2
100
AcDbSymbolTableRecord
100
AcDbLayerTableRecord
  2
17
 70
     0
 62
     2
  6
DASHDOT
  0
LAYER
  5
38
330
2
100
AcDbSymbolTableRecord
100
AcDbLayerTableRecord
  2
19
 70
     0
 62
     7
  6
CONTINOUS
  0
LAYER
  5
3D
330
2
100
AcDbSymbolTableRecord
100
AcDbLayerTableRecord
  2
24
 70
     0
 62
     2
  6
CONTINOUS
  0
LAYER
  5
3A2
330
2
100
AcDbSymbolTableRecord
100
AcDbLayerTableRecord
  2
30
 70
     0
 62
     9
  6
CONTINUOUS
  0
LAYER
  5
3A4
330
2
100
AcDbSymbolTableRecord
100
AcDbLayerTableRecord
  2
DEFPOINTS
 70
     0
 62
     7
  6
CONTINUOUS
  0
LAYER
  5
3933
330
2
100
AcDbSymbolTableRecord
100
AcDbLayerTableRecord
  2
18
 70
     0
 62
     5
  6
DIVIDE
  0
LAYER
  5
74BA
330
2
100
AcDbSymbolTableRecord
100
AcDbLayerTableRecord
  2
21
 70
     0
 62
     7
  6
CONTINUOUS
  0
ENDTAB
  0
TABLE
  2
STYLE
  5
3
330
0
100
AcDbSymbolTable
 70
     4
  0
STYLE
  5
11
330
3
100
AcDbSymbolTableRecord
100
AcDbTextStyleTableRecord
  2
STANDARD
 70
     0
 40
0.0
 41
1.0
 50
0.0
 71
     0
 42
2.0
  3
txt.shx
  4
bigfont.shx
  0
STYLE
  5
42
330
3
100
AcDbSymbolTableRecord
100
AcDbTextStyleTableRecord
  2
STANDARD1
 70
     0
 40
0.0
 41
1.0
 50
0.0
 71
     0
 42
5.0
  3
MONOTXT
  4
BIGFONT
  0
ENDTAB
  0
TABLE
  2
VIEW
  5
6
330
0
100
AcDbSymbolTable
 70
     3
  0
VIEW
  5
230C
330
6
100
AcDbSymbolTableRecord
100
AcDbViewTableRecord
  2
OLE1
 70
     0
 40
148.9124878027714
 10
429.4976280407223
 20
2.560626997828478
 41
103.1458057716444
 11
0.0
 21
0.0
 31
1.0
 12
0.0
 22
0.0
 32
0.0
 42
50.0
 43
0.0
 44
0.0
 50
0.0
 71
     0
  0
VIEW
  5
230E
330
6
100
AcDbSymbolTableRecord
100
AcDbViewTableRecord
  2
OLE2
 70
     0
 40
170.7786920545775
 10
322.664969958371
 20
-5.978304054290276
 41
102.4672152327465
 11
0.0
 21
0.0
 31
1.0
 12
0.0
 22
0.0
 32
0.0
 42
50.0
 43
0.0
 44
0.0
 50
0.0
 71
     0
  0
VIEW
  5
23AA
330
6
100
AcDbSymbolTableRecord
100
AcDbViewTableRecord
  2
OLE3
 70
     0
 40
591.7897393182231
 10
84.79698158148218
 20
-46.09336010803996
 41
388.7920961799953
 11
0.0
 21
0.0
 31
1.0
 12
0.0
 22
0.0
 32
0.0
 42
50.0
 43
0.0
 44
0.0
 50
0.0
 71
     0
  0
ENDTAB
  0
TABLE
  2
UCS
  5
7
330
0
100
AcDbSymbolTable
 70
     0
  0
ENDTAB
  0
TABLE
  2
APPID
  5
9
330
0
100
AcDbSymbolTable
 70
     2
  0
APPID
  5
12
330
9
100
AcDbSymbolTableRecord
100
AcDbRegAppTableRecord
  2
ACAD
 70
     0
  0
APPID
  5
ECD
330
9
100
AcDbSymbolTableRecord
100
AcDbRegAppTableRecord
  2
CONTENTBLOCKICON
 70
     0
  0
ENDTAB
  0
TABLE
  2
DIMSTYLE
  5
A
330
0
100
AcDbSymbolTable
 70
     1
  0
DIMSTYLE
105
175
102
{ACAD_REACTORS
330
7941
330
794E
330
795B
330
7968
330
7975
330
7982
330
798F
330
79B7
330
79C4
330
79F1
330
79FE
330
7A14
330
7A92
330
7A9E
330
7AAB
330
7AB8
330
7AC9
330
7AD6
330
7B14
330
7B23
330
7B30
330
7B3D
330
7BD5
330
7BEB
330
7BF8
330
7C17
330
7C24
330
7C31
330
7C3E
330
7E1C
330
7E3B
330
7E87
330
7E94
330
7EAA
330
7EC0
330
7EF1
330
8094
330
80A2
330
80AF
330
80C5
330
80F6
330
8201
330
8220
330
8276
330
8277
330
8278
330
8302
330
8325
102
}
330
A
100
AcDbSymbolTableRecord
100
AcDbDimStyleTableRecord
  2
STANDARD
 70
     0
  3

  4

  5
OPEN
  6

  7

 40
1.0
 41
2.0
 42
5.0
 43
0.5
 44
0.5
 45
0.0
 46
0.0
 47
0.0
 48
0.0
140
8.0
141
0.09
142
0.0
143
25.4
144
1.0
145
0.0
146
1.0
147
1.0
 71
     0
 72
     0
 73
     0
 74
     1
 75
     0
 76
     0
 77
     3
 78
    12
170
     0
171
     2
172
     0
173
     0
174
     0
175
     0
176
     0
177
     0
178
     0
270
     2
271
     1
272
     1
273
     2
274
     2
340
11
275
     0
280
     0
281
     0
282
     0
283
     1
284
     0
285
     0
286
     0
287
     3
288
     0
  0
ENDTAB
  0
TABLE
  2
BLOCK_RECORD
  5
1
330
0
100
AcDbSymbolTable
 70
    68
  0
BLOCK_RECORD
  5
1E
102
{ACAD_XDICTIONARY
360
178
102
}
330
1
100
AcDbSymbolTableRecord
100
AcDbBlockTableRecord
  2
*MODEL_SPACE
  0
BLOCK_RECORD
  5
1A
102
{ACAD_XDICTIONARY
360
17A
102
}
330
1
100
AcDbSymbolTableRecord
100
AcDbBlockTableRecord
  2
*PAPER_SPACE
  0
BLOCK_RECORD
  5
3B2
330
1
100
AcDbSymbolTableRecord
100
AcDbBlockTableRecord
  2
_OPEN
  0
BLOCK_RECORD
  5
7942
330
1
100
AcDbSymbolTableRecord
100
AcDbBlockTableRecord
  2
*D15
  0
BLOCK_RECORD
  5
794F
330
1
100
AcDbSymbolTableRecord
100
AcDbBlockTableRecord
  2
*D16
  0
BLOCK_RECORD
  5
795C
330
1
100
AcDbSymbolTableRecord
100
AcDbBlockTableRecord
  2
*D17
  0
BLOCK_RECORD
  5
7969
330
1
100
AcDbSymbolTableRecord
100
AcDbBlockTableRecord
  2
*D18
  0
BLOCK_RECORD
  5
7976
330
1
100
AcDbSymbolTableRecord
100
AcDbBlockTableRecord
  2
*D19
  0
BLOCK_RECORD
  5
7983
330
1
100
AcDbSymbolTableRecord
100
AcDbBlockTableRecord
  2
*D20
  0
BLOCK_RECORD
  5
7990
330
1
100
AcDbSymbolTableRecord
100
AcDbBlockTableRecord
  2
*D21
  0
BLOCK_RECORD
  5
79B8
330
1
100
AcDbSymbolTableRecord
100
AcDbBlockTableRecord
  2
*D22
  0
BLOCK_RECORD
  5
79C5
330
1
100
AcDbSymbolTableRecord
100
AcDbBlockTableRecord
  2
*D23
  0
BLOCK_RECORD
  5
79F2
330
1
100
AcDbSymbolTableRecord
100
AcDbBlockTableRecord
  2
*D24
  0
BLOCK_RECORD
  5
79FF
330
1
100
AcDbSymbolTableRecord
100
AcDbBlockTableRecord
  2
*D25
  0
BLOCK_RECORD
  5
7A15
330
1
100
AcDbSymbolTableRecord
100
AcDbBlockTableRecord
  2
*D26
  0
BLOCK_RECORD
  5
7A93
330
1
100
AcDbSymbolTableRecord
100
AcDbBlockTableRecord
  2
*D27
  0
BLOCK_RECORD
  5
7A9F
330
1
100
AcDbSymbolTableRecord
100
AcDbBlockTableRecord
  2
*D28
  0
BLOCK_RECORD
  5
7AAC
330
1
100
AcDbSymbolTableRecord
100
AcDbBlockTableRecord
  2
*D29
  0
BLOCK_RECORD
  5
7AB9
330
1
100
AcDbSymbolTableRecord
100
AcDbBlockTableRecord
  2
*D30
  0
BLOCK_RECORD
  5
7ACA
330
1
100
AcDbSymbolTableRecord
100
AcDbBlockTableRecord
  2
*D31
  0
BLOCK_RECORD
  5
7AD7
330
1
100
AcDbSymbolTableRecord
100
AcDbBlockTableRecord
  2
*D32
  0
BLOCK_RECORD
  5
7B15
330
1
100
AcDbSymbolTableRecord
100
AcDbBlockTableRecord
  2
*D33
  0
BLOCK_RECORD
  5
7B24
330
1
100
AcDbSymbolTableRecord
100
AcDbBlockTableRecord
  2
*D34
  0
BLOCK_RECORD
  5
7B31
330
1
100
AcDbSymbolTableRecord
100
AcDbBlockTableRecord
  2
*D35
  0
BLOCK_RECORD
  5
7B3E
330
1
100
AcDbSymbolTableRecord
100
AcDbBlockTableRecord
  2
*D36
  0
BLOCK_RECORD
  5
7BD6
330
1
100
AcDbSymbolTableRecord
100
AcDbBlockTableRecord
  2
*D37
  0
BLOCK_RECORD
  5
7BEC
330
1
100
AcDbSymbolTableRecord
100
AcDbBlockTableRecord
  2
*D38
  0
BLOCK_RECORD
  5
7BF9
330
1
100
AcDbSymbolTableRecord
100
AcDbBlockTableRecord
  2
*D39
  0
BLOCK_RECORD
  5
7C18
330
1
100
AcDbSymbolTableRecord
100
AcDbBlockTableRecord
  2
*D40
  0
BLOCK_RECORD
  5
7C25
330
1
100
AcDbSymbolTableRecord
100
AcDbBlockTableRecord
  2
*D41
  0
BLOCK_RECORD
  5
7C32
330
1
100
AcDbSymbolTableRecord
100
AcDbBlockTableRecord
  2
*D42
  0
BLOCK_RECORD
  5
7C3F
330
1
100
AcDbSymbolTableRecord
100
AcDbBlockTableRecord
  2
*D43
  0
BLOCK_RECORD
  5
7E1D
330
1
100
AcDbSymbolTableRecord
100
AcDbBlockTableRecord
  2
*D44
  0
BLOCK_RECORD
  5
7E3C
330
1
100
AcDbSymbolTableRecord
100
AcDbBlockTableRecord
  2
*D45
  0
BLOCK_RECORD
  5
7E88
330
1
100
AcDbSymbolTableRecord
100
AcDbBlockTableRecord
  2
*D46
  0
BLOCK_RECORD
  5
7E95
330
1
100
AcDbSymbolTableRecord
100
AcDbBlockTableRecord
  2
*D47
  0
BLOCK_RECORD
  5
7EAB
330
1
100
AcDbSymbolTableRecord
100
AcDbBlockTableRecord
  2
*D48
  0
BLOCK_RECORD
  5
7EC1
330
1
100
AcDbSymbolTableRecord
100
AcDbBlockTableRecord
  2
*D49
  0
BLOCK_RECORD
  5
7EF2
330
1
100
AcDbSymbolTableRecord
100
AcDbBlockTableRecord
  2
*D50
  0
BLOCK_RECORD
  5
8095
330
1
100
AcDbSymbolTableRecord
100
AcDbBlockTableRecord
  2
*D51
  0
BLOCK_RECORD
  5
80A3
330
1
100
AcDbSymbolTableRecord
100
AcDbBlockTableRecord
  2
*D52
  0
BLOCK_RECORD
  5
80B0
330
1
100
AcDbSymbolTableRecord
100
AcDbBlockTableRecord
  2
*D53
  0
BLOCK_RECORD
  5
80C6
330
1
100
AcDbSymbolTableRecord
100
AcDbBlockTableRecord
  2
*D54
  0
BLOCK_RECORD
  5
80F7
330
1
100
AcDbSymbolTableRecord
100
AcDbBlockTableRecord
  2
*D55
  0
BLOCK_RECORD
  5
8202
330
1
100
AcDbSymbolTableRecord
100
AcDbBlockTableRecord
  2
*D56
  0
BLOCK_RECORD
  5
8221
330
1
100
AcDbSymbolTableRecord
100
AcDbBlockTableRecord
  2
*D57
  0
BLOCK_RECORD
  5
8279
330
1
100
AcDbSymbolTableRecord
100
AcDbBlockTableRecord
  2
*D61
  0
BLOCK_RECORD
  5
8284
330
1
100
AcDbSymbolTableRecord
100
AcDbBlockTableRecord
  2
*D62
  0
BLOCK_RECORD
  5
8290
330
1
100
AcDbSymbolTableRecord
100
AcDbBlockTableRecord
  2
*D63
  0
BLOCK_RECORD
  5
8303
330
1
100
AcDbSymbolTableRecord
100
AcDbBlockTableRecord
  2
*D65
  0
BLOCK_RECORD
  5
8326
330
1
100
AcDbSymbolTableRecord
100
AcDbBlockTableRecord
  2
*D67
  0
ENDTAB
  0
ENDSEC
  0
SECTION
  2
BLOCKS
  0
BLOCK
  5
1F
330
1E
100
AcDbEntity
  8
0
100
AcDbBlockBegin
  2
*MODEL_SPACE
 70
     0
 10
0.0
 20
0.0
 30
0.0
  3
*MODEL_SPACE
  1

  0
ENDBLK
  5
20
330
1E
100
AcDbEntity
  8
0
100
AcDbBlockEnd
  0
BLOCK
  5
1B
330
1A
100
AcDbEntity
 67
     1
  8
0
100
AcDbBlockBegin
  2
*PAPER_SPACE
 70
     0
 10
0.0
 20
0.0
 30
0.0
  3
*PAPER_SPACE
  1

  0
ENDBLK
  5
1C
330
1A
100
AcDbEntity
 67
     1
  8
0
100
AcDbBlockEnd
  0
BLOCK
  5
3B6
330
3B2
100
AcDbEntity
  8
0
100
AcDbBlockBegin
  2
_OPEN
 70
     0
 10
0.0
 20
0.0
 30
0.0
  3
_OPEN
  1

  0
LINE
  5
3B3
330
3B2
100
AcDbEntity
  8
30
  6
CONTINUOUS
 62
     0
100
AcDbLine
 10
-1.0
 20
0.1666666666666666
 30
0.0
 11
0.0
 21
0.0
 31
0.0
  0
LINE
  5
3B4
330
3B2
100
AcDbEntity
  8
30
  6
CONTINUOUS
 62
     0
100
AcDbLine
 10
-1.0
 20
-0.1666666666666666
 30
0.0
 11
0.0
 21
0.0
 31
0.0
  0
LINE
  5
3B5
330
3B2
100
AcDbEntity
  8
30
  6
CONTINUOUS
 62
     0
100
AcDbLine
 10
0.0
 20
0.0
 30
0.0
 11
-1.0
 21
0.0
 31
0.0
  0
ENDBLK
  5
3B7
330
3B2
100
AcDbEntity
  8
0
100
AcDbBlockEnd
  0
BLOCK
  5
794C
330
7942
100
AcDbEntity
  8
0
100
AcDbBlockBegin
  2
*D15
 70
     1
 10
0.0
 20
0.0
 30
0.0
  3
*D15
  1

  0
LINE
  5
7EFE
330
7942
100
AcDbEntity
  8
30
  6
CONTINUOUS
 62
     0
100
AcDbLine
 10
-132.4999694824201
 20
169.9997558594
 30
0.0
 11
-190.2056428798467
 21
169.9997558594
 31
0.0
  0
LINE
  5
7EFF
330
7942
100
AcDbEntity
  8
30
  6
CONTINUOUS
 62
     0
100
AcDbLine
 10
-109.9999389648399
 20
0.0000000000000014
 30
0.0
 11
-190.2056428798467
 21
0.0000000000000241
 31
0.0
  0
LINE
  5
7F00
330
7942
100
AcDbEntity
  8
30
  6
CONTINUOUS
 62
     0
100
AcDbLine
 10
-189.7056428798468
 20
167.9997558594
 30
0.0
 11
-189.7056428798468
 21
2.000000000000023
 31
0.0
  0
INSERT
  5
7F01
330
7942
100
AcDbEntity
  8
30
  6
CONTINUOUS
 62
     0
100
AcDbBlockReference
  2
_OPEN
 10
-189.7056428798468
 20
169.9997558594
 30
0.0
 41
2.0
 42
2.0
 43
2.0
 50
90.0
  0
INSERT
  5
7F02
330
7942
100
AcDbEntity
  8
30
  6
CONTINUOUS
 62
     0
100
AcDbBlockReference
  2
_OPEN
 10
-189.7056428798468
 20
0.000000000000024
 30
0.0
 41
2.0
 42
2.0
 43
2.0
 50
270.0
  0
MTEXT
  5
7F03
330
7942
100
AcDbEntity
  8
30
  6
CONTINUOUS
 62
     0
100
AcDbMText
 10
-194.7056428798468
 20
84.99987792969998
 30
0.0
 40
8.0
 41
0.0
 71
     5
 72
     1
  1
\A1;170
 11
0.0000000000000001
 21
1.0
 31
0.0
1001
ACAD
1000
MTEXTBEGIN
1070
    73
1070
     1
1070
    44
1040
1.0
1070
    74
1070
     0
1000
MTEXTEND
  0
POINT
  5
7F04
330
7942
100
AcDbEntity
  8
DEFPOINTS
  6
CONTINUOUS
 62
     0
100
AcDbPoint
 10
-127.4999694824201
 20
169.9997558594
 30
0.0
  0
POINT
  5
7F05
330
7942
100
AcDbEntity
  8
DEFPOINTS
  6
CONTINUOUS
 62
     0
100
AcDbPoint
 10
-104.9999389648399
 20
0.0
 30
0.0
  0
POINT
  5
7F06
330
7942
100
AcDbEntity
  8
DEFPOINTS
  6
CONTINUOUS
 62
     0
100
AcDbPoint
 10
-189.7056428798468
 20
0.000000000000024
 30
0.0
  0
ENDBLK
  5
794D
330
7942
100
AcDbEntity
  8
0
100
AcDbBlockEnd
  0
BLOCK
  5
7959
330
794F
100
AcDbEntity
  8
0
100
AcDbBlockBegin
  2
*D16
 70
     1
 10
0.0
 20
0.0
 30
0.0
  3
*D16
  1

  0
LINE
  5
83F3
330
794F
100
AcDbEntity
  8
30
  6
CONTINUOUS
 62
     0
100
AcDbLine
 10
-109.9999389648399
 20
0.0000000000000014
 30
0.0
 11
-190.2056428798468
 21
0.0000000000000241
 31
0.0
  0
LINE
  5
83F4
330
794F
100
AcDbEntity
  8
30
  6
CONTINUOUS
 62
     0
100
AcDbLine
 10
-132.4999694824199
 20
-190.0
 30
0.0
 11
-190.2056428798469
 21
-190.0
 31
0.0
  0
LINE
  5
83F5
330
794F
100
AcDbEntity
  8
30
  6
CONTINUOUS
 62
     0
100
AcDbLine
 10
-189.7056428798468
 20
-1.999999999999976
 30
0.0
 11
-189.7056428798469
 21
-188.0
 31
0.0
  0
INSERT
  5
83F6
330
794F
100
AcDbEntity
  8
30
  6
CONTINUOUS
 62
     0
100
AcDbBlockReference
  2
_OPEN
 10
-189.7056428798468
 20
0.000000000000024
 30
0.0
 41
2.0
 42
2.0
 43
2.0
 50
90.0
  0
INSERT
  5
83F7
330
794F
100
AcDbEntity
  8
30
  6
CONTINUOUS
 62
     0
100
AcDbBlockReference
  2
_OPEN
 10
-189.7056428798469
 20
-190.0
 30
0.0
 41
2.0
 42
2.0
 43
2.0
 50
270.0
  0
MTEXT
  5
83F8
330
794F
100
AcDbEntity
  8
30
  6
CONTINUOUS
 62
     0
100
AcDbMText
 10
-194.7056428798468
 20
-95.00000000000001
 30
0.0
 40
8.0
 41
0.0
 71
     5
 72
     1
  1
\A1;190
 11
0.0000000000000001
 21
1.0
 31
0.0
  0
POINT
  5
83F9
330
794F
100
AcDbEntity
  8
DEFPOINTS
  6
CONTINUOUS
 62
     0
100
AcDbPoint
 10
-104.9999389648399
 20
0.0
 30
0.0
  0
POINT
  5
83FA
330
794F
100
AcDbEntity
  8
DEFPOINTS
  6
CONTINUOUS
 62
     0
100
AcDbPoint
 10
-127.4999694824199
 20
-190.0
 30
0.0
  0
POINT
  5
83FB
330
794F
100
AcDbEntity
  8
DEFPOINTS
  6
CONTINUOUS
 62
     0
100
AcDbPoint
 10
-189.7056428798469
 20
-190.0
 30
0.0
  0
ENDBLK
  5
795A
330
794F
100
AcDbEntity
  8
0
100
AcDbBlockEnd
  0
BLOCK
  5
7966
330
795C
100
AcDbEntity
  8
0
100
AcDbBlockBegin
  2
*D17
 70
     1
 10
0.0
 20
0.0
 30
0.0
  3
*D17
  1

  0
LINE
  5
7F10
330
795C
100
AcDbEntity
  8
30
  6
CONTINUOUS
 62
     0
100
AcDbLine
 10
-154.99996948242
 20
200.0
 30
0.0
 11
-220.719053609071
 21
200.0
 31
0.0
  0
LINE
  5
7F11
330
795C
100
AcDbEntity
  8
30
  6
CONTINUOUS
 62
     0
100
AcDbLine
 10
-154.99996948242
 20
0.0000000000000014
 30
0.0
 11
-220.7190536090711
 21
0.00000000000002
 31
0.0
  0
LINE
  5
7F12
330
795C
100
AcDbEntity
  8
30
  6
CONTINUOUS
 62
     0
100
AcDbLine
 10
-220.219053609071
 20
198.0
 30
0.0
 11
-220.219053609071
 21
2.000000000000019
 31
0.0
  0
INSERT
  5
7F13
330
795C
100
AcDbEntity
  8
30
  6
CONTINUOUS
 62
     0
100
AcDbBlockReference
  2
_OPEN
 10
-220.219053609071
 20
200.0
 30
0.0
 41
2.0
 42
2.0
 43
2.0
 50
90.0
  0
INSERT
  5
7F14
330
795C
100
AcDbEntity
  8
30
  6
CONTINUOUS
 62
     0
100
AcDbBlockReference
  2
_OPEN
 10
-220.219053609071
 20
0.0000000000000199
 30
0.0
 41
2.0
 42
2.0
 43
2.0
 50
270.0
  0
MTEXT
  5
7F15
330
795C
100
AcDbEntity
  8
30
  6
CONTINUOUS
 62
     0
100
AcDbMText
 10
-225.2190536090711
 20
100.0
 30
0.0
 40
8.0
 41
0.0
 71
     5
 72
     1
  1
\A1;200
 11
0.0000000000000001
 21
1.0
 31
0.0
1001
ACAD
1000
MTEXTBEGIN
1070
    73
1070
     1
1070
    44
1040
1.0
1070
    74
1070
     0
1000
MTEXTEND
  0
POINT
  5
7F16
330
795C
100
AcDbEntity
  8
DEFPOINTS
  6
CONTINUOUS
 62
     0
100
AcDbPoint
 10
-149.9999694824199
 20
200.0
 30
0.0
  0
POINT
  5
7F17
330
795C
100
AcDbEntity
  8
DEFPOINTS
  6
CONTINUOUS
 62
     0
100
AcDbPoint
 10
-149.9999694824199
 20
0.0
 30
0.0
  0
POINT
  5
7F18
330
795C
100
AcDbEntity
  8
DEFPOINTS
  6
CONTINUOUS
 62
     0
100
AcDbPoint
 10
-220.219053609071
 20
0.0000000000000199
 30
0.0
  0
ENDBLK
  5
7967
330
795C
100
AcDbEntity
  8
0
100
AcDbBlockEnd
  0
BLOCK
  5
7973
330
7969
100
AcDbEntity
  8
0
100
AcDbBlockBegin
  2
*D18
 70
     1
 10
0.0
 20
0.0
 30
0.0
  3
*D18
  1

  0
LINE
  5
83FC
330
7969
100
AcDbEntity
  8
30
  6
CONTINUOUS
 62
     0
100
AcDbLine
 10
-154.99996948242
 20
0.0000000000000014
 30
0.0
 11
-220.719053609071
 21
0.00000000000002
 31
0.0
  0
LINE
  5
83FD
330
7969
100
AcDbEntity
  8
30
  6
CONTINUOUS
 62
     0
100
AcDbLine
 10
-154.99996948242
 20
-220.0
 30
0.0
 11
-220.7190536090711
 21
-219.9999999999999
 31
0.0
  0
LINE
  5
83FE
330
7969
100
AcDbEntity
  8
30
  6
CONTINUOUS
 62
     0
100
AcDbLine
 10
-220.219053609071
 20
-1.99999999999998
 30
0.0
 11
-220.219053609071
 21
-217.9999999999999
 31
0.0
  0
INSERT
  5
83FF
330
7969
100
AcDbEntity
  8
30
  6
CONTINUOUS
 62
     0
100
AcDbBlockReference
  2
_OPEN
 10
-220.219053609071
 20
0.0000000000000199
 30
0.0
 41
2.0
 42
2.0
 43
2.0
 50
90.0
  0
INSERT
  5
8400
330
7969
100
AcDbEntity
  8
30
  6
CONTINUOUS
 62
     0
100
AcDbBlockReference
  2
_OPEN
 10
-220.219053609071
 20
-219.9999999999999
 30
0.0
 41
2.0
 42
2.0
 43
2.0
 50
270.0
  0
MTEXT
  5
8401
330
7969
100
AcDbEntity
  8
30
  6
CONTINUOUS
 62
     0
100
AcDbMText
 10
-225.219053609071
 20
-110.0
 30
0.0
 40
8.0
 41
0.0
 71
     5
 72
     1
  1
\A1;220
 11
0.0000000000000001
 21
1.0
 31
0.0
  0
POINT
  5
8402
330
7969
100
AcDbEntity
  8
DEFPOINTS
  6
CONTINUOUS
 62
     0
100
AcDbPoint
 10
-149.9999694824199
 20
0.0
 30
0.0
  0
POINT
  5
8403
330
7969
100
AcDbEntity
  8
DEFPOINTS
  6
CONTINUOUS
 62
     0
100
AcDbPoint
 10
-149.9999694824199
 20
-220.0
 30
0.0
  0
POINT
  5
8404
330
7969
100
AcDbEntity
  8
DEFPOINTS
  6
CONTINUOUS
 62
     0
100
AcDbPoint
 10
-220.219053609071
 20
-219.9999999999999
 30
0.0
  0
ENDBLK
  5
7974
330
7969
100
AcDbEntity
  8
0
100
AcDbBlockEnd
  0
BLOCK
  5
7980
330
7976
100
AcDbEntity
  8
0
100
AcDbBlockBegin
  2
*D19
 70
     1
 10
0.0
 20
0.0
 30
0.0
  3
*D19
  1

  0
LINE
  5
7F22
330
7976
100
AcDbEntity
  8
30
  6
CONTINUOUS
 62
     0
100
AcDbLine
 10
-225.719053609071
 20
200.0
 30
0.0
 11
-254.328125530238
 21
200.0
 31
0.0
  0
LINE
  5
7F23
330
7976
100
AcDbEntity
  8
30
  6
CONTINUOUS
 62
     0
100
AcDbLine
 10
-225.719053609071
 20
-219.9999999999999
 30
0.0
 11
-254.328125530238
 21
-219.9999999999999
 31
0.0
  0
LINE
  5
7F24
330
7976
100
AcDbEntity
  8
30
  6
CONTINUOUS
 62
     0
100
AcDbLine
 10
-253.828125530238
 20
198.0
 30
0.0
 11
-253.8281255302381
 21
-217.9999999999999
 31
0.0
  0
INSERT
  5
7F25
330
7976
100
AcDbEntity
  8
30
  6
CONTINUOUS
 62
     0
100
AcDbBlockReference
  2
_OPEN
 10
-253.828125530238
 20
200.0
 30
0.0
 41
2.0
 42
2.0
 43
2.0
 50
90.0
  0
INSERT
  5
7F26
330
7976
100
AcDbEntity
  8
30
  6
CONTINUOUS
 62
     0
100
AcDbBlockReference
  2
_OPEN
 10
-253.8281255302381
 20
-219.9999999999999
 30
0.0
 41
2.0
 42
2.0
 43
2.0
 50
270.0
  0
MTEXT
  5
7F27
330
7976
100
AcDbEntity
  8
30
  6
CONTINUOUS
 62
     0
100
AcDbMText
 10
-258.828125530238
 20
-10.0
 30
0.0
 40
8.0
 41
0.0
 71
     5
 72
     1
  1
\A1;420
 11
0.0000000000000001
 21
1.0
 31
0.0
1001
ACAD
1000
MTEXTBEGIN
1070
    73
1070
     1
1070
    44
1040
1.0
1070
    74
1070
     0
1000
MTEXTEND
  0
POINT
  5
7F28
330
7976
100
AcDbEntity
  8
DEFPOINTS
  6
CONTINUOUS
 62
     0
100
AcDbPoint
 10
-220.719053609071
 20
200.0
 30
0.0
  0
POINT
  5
7F29
330
7976
100
AcDbEntity
  8
DEFPOINTS
  6
CONTINUOUS
 62
     0
100
AcDbPoint
 10
-220.7190536090712
 20
-219.9999999999999
 30
0.0
  0
POINT
  5
7F2A
330
7976
100
AcDbEntity
  8
DEFPOINTS
  6
CONTINUOUS
 62
     0
100
AcDbPoint
 10
-253.8281255302381
 20
-219.9999999999999
 30
0.0
  0
ENDBLK
  5
7981
330
7976
100
AcDbEntity
  8
0
100
AcDbBlockEnd
  0
BLOCK
  5
798D
330
7983
100
AcDbEntity
  8
0
100
AcDbBlockBegin
  2
*D20
 70
     1
 10
0.0
 20
0.0
 30
0.0
  3
*D20
  1

  0
LINE
  5
7F2B
330
7983
100
AcDbEntity
  8
30
  6
CONTINUOUS
 62
     0
100
AcDbLine
 10
-149.9999694824199
 20
-225.0
 30
0.0
 11
-149.9999694824199
 21
-252.3352211087594
 31
0.0
  0
LINE
  5
7F2C
330
7983
100
AcDbEntity
  8
30
  6
CONTINUOUS
 62
     0
100
AcDbLine
 10
-0.0000000000000003
 20
-225.0
 30
0.0
 11
-0.000000000000002
 21
-252.3352211087594
 31
0.0
  0
LINE
  5
7F2D
330
7983
100
AcDbEntity
  8
30
  6
CONTINUOUS
 62
     0
100
AcDbLine
 10
-147.99996948242
 20
-251.8352211087594
 30
0.0
 11
-2.0
 21
-251.8352211087594
 31
0.0
  0
INSERT
  5
7F2E
330
7983
100
AcDbEntity
  8
30
  6
CONTINUOUS
 62
     0
100
AcDbBlockReference
  2
_OPEN
 10
-149.9999694824199
 20
-251.8352211087594
 30
0.0
 41
2.0
 42
2.0
 43
2.0
 50
180.0
  0
INSERT
  5
7F2F
330
7983
100
AcDbEntity
  8
30
  6
CONTINUOUS
 62
     0
100
AcDbBlockReference
  2
_OPEN
 10
-0.0000000000000019
 20
-251.8352211087594
 30
0.0
 41
2.0
 42
2.0
 43
2.0
  0
MTEXT
  5
7F30
330
7983
100
AcDbEntity
  8
30
  6
CONTINUOUS
 62
     0
100
AcDbMText
 10
-74.99998474121003
 20
-246.8352211087594
 30
0.0
 40
8.0
 41
0.0
 71
     5
 72
     1
  1
\A1;150
1001
ACAD
1000
MTEXTBEGIN
1070
    73
1070
     1
1070
    44
1040
1.0
1070
    74
1070
     0
1000
MTEXTEND
  0
POINT
  5
7F31
330
7983
100
AcDbEntity
  8
DEFPOINTS
  6
CONTINUOUS
 62
     0
100
AcDbPoint
 10
-149.9999694824199
 20
-220.0
 30
0.0
  0
POINT
  5
7F32
330
7983
100
AcDbEntity
  8
DEFPOINTS
  6
CONTINUOUS
 62
     0
100
AcDbPoint
 10
0.0
 20
-220.0
 30
0.0
  0
POINT
  5
7F33
330
7983
100
AcDbEntity
  8
DEFPOINTS
  6
CONTINUOUS
 62
     0
100
AcDbPoint
 10
-0.0000000000000019
 20
-251.8352211087594
 30
0.0
  0
ENDBLK
  5
798E
330
7983
100
AcDbEntity
  8
0
100
AcDbBlockEnd
  0
BLOCK
  5
799A
330
7990
100
AcDbEntity
  8
0
100
AcDbBlockBegin
  2
*D21
 70
     1
 10
0.0
 20
0.0
 30
0.0
  3
*D21
  1

  0
LINE
  5
8217
330
7990
100
AcDbEntity
  8
30
  6
CONTINUOUS
 62
     0
100
AcDbLine
 10
-0.0000000000000003
 20
-225.0
 30
0.0
 11
-0.000000000000002
 21
-252.001887775426
 31
0.0
  0
LINE
  5
8218
330
7990
100
AcDbEntity
  8
30
  6
CONTINUOUS
 62
     0
100
AcDbLine
 10
220.0
 20
-225.0
 30
0.0
 11
220.0
 21
-252.001887775426
 31
0.0
  0
LINE
  5
8219
330
7990
100
AcDbEntity
  8
30
  6
CONTINUOUS
 62
     0
100
AcDbLine
 10
1.999999999999998
 20
-251.501887775426
 30
0.0
 11
218.0
 21
-251.501887775426
 31
0.0
  0
INSERT
  5
821A
330
7990
100
AcDbEntity
  8
30
  6
CONTINUOUS
 62
     0
100
AcDbBlockReference
  2
_OPEN
 10
-0.0000000000000019
 20
-251.501887775426
 30
0.0
 41
2.0
 42
2.0
 43
2.0
 50
180.0
  0
INSERT
  5
821B
330
7990
100
AcDbEntity
  8
30
  6
CONTINUOUS
 62
     0
100
AcDbBlockReference
  2
_OPEN
 10
220.0
 20
-251.501887775426
 30
0.0
 41
2.0
 42
2.0
 43
2.0
  0
MTEXT
  5
821C
330
7990
100
AcDbEntity
  8
30
  6
CONTINUOUS
 62
     0
100
AcDbMText
 10
110.0
 20
-246.501887775426
 30
0.0
 40
8.0
 41
0.0
 71
     5
 72
     1
  1
\A1;220
1001
ACAD
1000
MTEXTBEGIN
1070
    73
1070
     1
1070
    44
1040
1.0
1070
    74
1070
     0
1000
MTEXTEND
  0
POINT
  5
821D
330
7990
100
AcDbEntity
  8
DEFPOINTS
  6
CONTINUOUS
 62
     0
100
AcDbPoint
 10
0.0
 20
-220.0
 30
0.0
  0
POINT
  5
821E
330
7990
100
AcDbEntity
  8
DEFPOINTS
  6
CONTINUOUS
 62
     0
100
AcDbPoint
 10
220.0
 20
-220.0
 30
0.0
  0
POINT
  5
821F
330
7990
100
AcDbEntity
  8
DEFPOINTS
  6
CONTINUOUS
 62
     0
100
AcDbPoint
 10
220.0
 20
-251.501887775426
 30
0.0
  0
ENDBLK
  5
799B
330
7990
100
AcDbEntity
  8
0
100
AcDbBlockEnd
  0
BLOCK
  5
79C2
330
79B8
100
AcDbEntity
  8
0
100
AcDbBlockBegin
  2
*D22
 70
     1
 10
0.0
 20
0.0
 30
0.0
  3
*D22
  1

  0
LINE
  5
7F3D
330
79B8
100
AcDbEntity
  8
30
  6
CONTINUOUS
 62
     0
100
AcDbLine
 10
-173.1430664063
 20
-401.0
 30
0.0
 11
-207.177937262596
 21
-401.0
 31
0.0
  0
LINE
  5
7F3E
330
79B8
100
AcDbEntity
  8
30
  6
CONTINUOUS
 62
     0
100
AcDbLine
 10
-171.0
 20
-601.0
 30
0.0
 11
-207.177937262596
 21
-601.0
 31
0.0
  0
LINE
  5
7F3F
330
79B8
100
AcDbEntity
  8
30
  6
CONTINUOUS
 62
     0
100
AcDbLine
 10
-206.677937262596
 20
-403.0
 30
0.0
 11
-206.677937262596
 21
-599.0
 31
0.0
  0
INSERT
  5
7F40
330
79B8
100
AcDbEntity
  8
30
  6
CONTINUOUS
 62
     0
100
AcDbBlockReference
  2
_OPEN
 10
-206.677937262596
 20
-401.0
 30
0.0
 41
2.0
 42
2.0
 43
2.0
 50
90.0
  0
INSERT
  5
7F41
330
79B8
100
AcDbEntity
  8
30
  6
CONTINUOUS
 62
     0
100
AcDbBlockReference
  2
_OPEN
 10
-206.677937262596
 20
-601.0
 30
0.0
 41
2.0
 42
2.0
 43
2.0
 50
270.0
  0
MTEXT
  5
7F42
330
79B8
100
AcDbEntity
  8
30
  6
CONTINUOUS
 62
     0
100
AcDbMText
 10
-211.6779372625958
 20
-501.0
 30
0.0
 40
8.0
 41
0.0
 71
     5
 72
     1
  1
\A1;200
 11
0.0000000000000001
 21
1.0
 31
0.0
1001
ACAD
1000
MTEXTBEGIN
1070
    73
1070
     1
1070
    44
1040
1.0
1070
    74
1070
     0
1000
MTEXTEND
  0
POINT
  5
7F43
330
79B8
100
AcDbEntity
  8
DEFPOINTS
  6
CONTINUOUS
 62
     0
100
AcDbPoint
 10
-168.1430664062999
 20
-401.0
 30
0.0
  0
POINT
  5
7F44
330
79B8
100
AcDbEntity
  8
DEFPOINTS
  6
CONTINUOUS
 62
     0
100
AcDbPoint
 10
-166.0
 20
-601.0
 30
0.0
  0
POINT
  5
7F45
330
79B8
100
AcDbEntity
  8
DEFPOINTS
  6
CONTINUOUS
 62
     0
100
AcDbPoint
 10
-206.677937262596
 20
-601.0
 30
0.0
  0
ENDBLK
  5
79C3
330
79B8
100
AcDbEntity
  8
0
100
AcDbBlockEnd
  0
BLOCK
  5
79CF
330
79C5
100
AcDbEntity
  8
0
100
AcDbBlockBegin
  2
*D23
 70
     1
 10
0.0
 20
0.0
 30
0.0
  3
*D23
  1

  0
LINE
  5
8405
330
79C5
100
AcDbEntity
  8
30
  6
CONTINUOUS
 62
     0
100
AcDbLine
 10
-171.0
 20
-601.0
 30
0.0
 11
-207.177937262596
 21
-601.0
 31
0.0
  0
LINE
  5
8406
330
79C5
100
AcDbEntity
  8
30
  6
CONTINUOUS
 62
     0
100
AcDbLine
 10
-173.1430664062999
 20
-821.0
 30
0.0
 11
-207.1779372625961
 21
-821.0
 31
0.0
  0
LINE
  5
8407
330
79C5
100
AcDbEntity
  8
30
  6
CONTINUOUS
 62
     0
100
AcDbLine
 10
-206.677937262596
 20
-603.0
 30
0.0
 11
-206.6779372625961
 21
-819.0
 31
0.0
  0
INSERT
  5
8408
330
79C5
100
AcDbEntity
  8
30
  6
CONTINUOUS
 62
     0
100
AcDbBlockReference
  2
_OPEN
 10
-206.677937262596
 20
-601.0
 30
0.0
 41
2.0
 42
2.0
 43
2.0
 50
90.0
  0
INSERT
  5
8409
330
79C5
100
AcDbEntity
  8
30
  6
CONTINUOUS
 62
     0
100
AcDbBlockReference
  2
_OPEN
 10
-206.6779372625961
 20
-821.0
 30
0.0
 41
2.0
 42
2.0
 43
2.0
 50
270.0
  0
MTEXT
  5
840A
330
79C5
100
AcDbEntity
  8
30
  6
CONTINUOUS
 62
     0
100
AcDbMText
 10
-211.6779372625959
 20
-711.0
 30
0.0
 40
8.0
 41
0.0
 71
     5
 72
     1
  1
\A1;220
 11
0.0000000000000001
 21
1.0
 31
0.0
  0
POINT
  5
840B
330
79C5
100
AcDbEntity
  8
DEFPOINTS
  6
CONTINUOUS
 62
     0
100
AcDbPoint
 10
-166.0
 20
-601.0
 30
0.0
  0
POINT
  5
840C
330
79C5
100
AcDbEntity
  8
DEFPOINTS
  6
CONTINUOUS
 62
     0
100
AcDbPoint
 10
-168.1430664062999
 20
-821.0
 30
0.0
  0
POINT
  5
840D
330
79C5
100
AcDbEntity
  8
DEFPOINTS
  6
CONTINUOUS
 62
     0
100
AcDbPoint
 10
-206.6779372625961
 20
-821.0
 30
0.0
  0
ENDBLK
  5
79D0
330
79C5
100
AcDbEntity
  8
0
100
AcDbBlockEnd
  0
BLOCK
  5
79FC
330
79F2
100
AcDbEntity
  8
0
100
AcDbBlockBegin
  2
*D24
 70
     1
 10
0.0
 20
0.0
 30
0.0
  3
*D24
  1

  0
LINE
  5
7F4F
330
79F2
100
AcDbEntity
  8
30
  6
CONTINUOUS
 62
     0
100
AcDbLine
 10
-112.5
 20
-410.9997558592998
 30
0.0
 11
-112.5
 21
-347.0376992547721
 31
0.0
  0
LINE
  5
7F50
330
79F2
100
AcDbEntity
  8
30
  6
CONTINUOUS
 62
     0
100
AcDbLine
 10
0.0000000000000003
 20
-402.0
 30
0.0
 11
0.0000000000000037
 21
-347.0376992547721
 31
0.0
  0
LINE
  5
7F51
330
79F2
100
AcDbEntity
  8
30
  6
CONTINUOUS
 62
     0
100
AcDbLine
 10
-110.4999999999999
 20
-347.5376992547722
 30
0.0
 11
-1.999999999999995
 21
-347.5376992547722
 31
0.0
  0
INSERT
  5
7F52
330
79F2
100
AcDbEntity
  8
30
  6
CONTINUOUS
 62
     0
100
AcDbBlockReference
  2
_OPEN
 10
-112.5
 20
-347.5376992547722
 30
0.0
 41
2.0
 42
2.0
 43
2.0
 50
180.0
  0
INSERT
  5
7F53
330
79F2
100
AcDbEntity
  8
30
  6
CONTINUOUS
 62
     0
100
AcDbBlockReference
  2
_OPEN
 10
0.0000000000000036
 20
-347.5376992547722
 30
0.0
 41
2.0
 42
2.0
 43
2.0
  0
MTEXT
  5
7F54
330
79F2
100
AcDbEntity
  8
30
  6
CONTINUOUS
 62
     0
100
AcDbMText
 10
-56.25
 20
-342.5376992547721
 30
0.0
 40
8.0
 41
0.0
 71
     5
 72
     1
  1
\A1;112.5
1001
ACAD
1000
MTEXTBEGIN
1070
    73
1070
     1
1070
    44
1040
1.0
1070
    74
1070
     0
1000
MTEXTEND
  0
POINT
  5
7F55
330
79F2
100
AcDbEntity
  8
DEFPOINTS
  6
CONTINUOUS
 62
     0
100
AcDbPoint
 10
-112.5
 20
-415.9997558593
 30
0.0
  0
POINT
  5
7F56
330
79F2
100
AcDbEntity
  8
DEFPOINTS
  6
CONTINUOUS
 62
     0
100
AcDbPoint
 10
0.0
 20
-407.0
 30
0.0
  0
POINT
  5
7F57
330
79F2
100
AcDbEntity
  8
DEFPOINTS
  6
CONTINUOUS
 62
     0
100
AcDbPoint
 10
0.0000000000000036
 20
-347.5376992547722
 30
0.0
  0
ENDBLK
  5
79FD
330
79F2
100
AcDbEntity
  8
0
100
AcDbBlockEnd
  0
BLOCK
  5
7A09
330
79FF
100
AcDbEntity
  8
0
100
AcDbBlockBegin
  2
*D25
 70
     1
 10
0.0
 20
0.0
 30
0.0
  3
*D25
  1

  0
LINE
  5
840E
330
79FF
100
AcDbEntity
  8
30
  6
CONTINUOUS
 62
     0
100
AcDbLine
 10
0.0000000000000003
 20
-402.0
 30
0.0
 11
0.0000000000000037
 21
-347.0376992547721
 31
0.0
  0
LINE
  5
840F
330
79FF
100
AcDbEntity
  8
30
  6
CONTINUOUS
 62
     0
100
AcDbLine
 10
182.5
 20
-410.9997558593
 30
0.0
 11
182.5
 21
-347.0376992547721
 31
0.0
  0
LINE
  5
8410
330
79FF
100
AcDbEntity
  8
30
  6
CONTINUOUS
 62
     0
100
AcDbLine
 10
2.000000000000003
 20
-347.5376992547722
 30
0.0
 11
180.4999999999999
 21
-347.5376992547722
 31
0.0
  0
INSERT
  5
8411
330
79FF
100
AcDbEntity
  8
30
  6
CONTINUOUS
 62
     0
100
AcDbBlockReference
  2
_OPEN
 10
0.0000000000000036
 20
-347.5376992547722
 30
0.0
 41
2.0
 42
2.0
 43
2.0
 50
180.0
  0
INSERT
  5
8412
330
79FF
100
AcDbEntity
  8
30
  6
CONTINUOUS
 62
     0
100
AcDbBlockReference
  2
_OPEN
 10
182.5
 20
-347.5376992547722
 30
0.0
 41
2.0
 42
2.0
 43
2.0
  0
MTEXT
  5
8413
330
79FF
100
AcDbEntity
  8
30
  6
CONTINUOUS
 62
     0
100
AcDbMText
 10
91.25
 20
-342.5376992547721
 30
0.0
 40
8.0
 41
0.0
 71
     5
 72
     1
  1
\A1;182.5
  0
POINT
  5
8414
330
79FF
100
AcDbEntity
  8
DEFPOINTS
  6
CONTINUOUS
 62
     0
100
AcDbPoint
 10
0.0
 20
-407.0
 30
0.0
  0
POINT
  5
8415
330
79FF
100
AcDbEntity
  8
DEFPOINTS
  6
CONTINUOUS
 62
     0
100
AcDbPoint
 10
182.5
 20
-415.9997558593
 30
0.0
  0
POINT
  5
8416
330
79FF
100
AcDbEntity
  8
DEFPOINTS
  6
CONTINUOUS
 62
     0
100
AcDbPoint
 10
182.5
 20
-347.5376992547722
 30
0.0
  0
ENDBLK
  5
7A0A
330
79FF
100
AcDbEntity
  8
0
100
AcDbBlockEnd
  0
BLOCK
  5
7A1E
330
7A15
100
AcDbEntity
  8
0
100
AcDbBlockBegin
  2
*D26
 70
     1
 10
0.0
 20
0.0
 30
0.0
  3
*D26
  1

  0
LINE
  5
7F61
330
7A15
100
AcDbEntity
  8
30
  6
CONTINUOUS
 62
     0
100
AcDbLine
 10
223.7981624972533
 20
-379.4644241414876
 30
0.0
 11
204.1314958305866
 21
-379.4644241414876
 31
0.0
  0
LINE
  5
7F62
330
7A15
100
AcDbEntity
  8
30
  6
CONTINUOUS
 62
     0
100
AcDbLine
 10
204.1314958305866
 20
-379.4644241414876
 30
0.0
 11
185.5962237927911
 21
-423.6234562141235
 31
0.0
  0
MTEXT
  5
7F63
330
7A15
100
AcDbEntity
  8
30
  6
CONTINUOUS
 62
     0
100
AcDbMText
 10
214.4648291639199
 20
-374.4644241414876
 30
0.0
 40
8.0
 41
0.0
 71
     5
 72
     1
  1
\A1;\U+220512
1001
ACAD
1000
MTEXTBEGIN
1070
    73
1070
     1
1070
    44
1040
1.0
1070
    74
1070
     0
1000
MTEXTEND
  0
INSERT
  5
7F64
330
7A15
100
AcDbEntity
  8
30
  6
CONTINUOUS
 62
     0
100
AcDbBlockReference
  2
_OPEN
 10
184.8221678445933
 20
-425.4675921605926
 30
0.0
 41
2.0
 42
2.0
 43
2.0
 50
247.2303027904337
  0
LINE
  5
7F65
330
7A15
100
AcDbEntity
  8
30
  6
CONTINUOUS
 62
     0
100
AcDbLine
 10
182.4099999999999
 20
-431.0
 30
0.0
 11
182.5899999999999
 21
-431.0
 31
0.0
  0
LINE
  5
7F66
330
7A15
100
AcDbEntity
  8
30
  6
CONTINUOUS
 62
     0
100
AcDbLine
 10
182.5
 20
-431.09
 30
0.0
 11
182.4999999999999
 21
-430.9099999999999
 31
0.0
  0
POINT
  5
7F67
330
7A15
100
AcDbEntity
  8
DEFPOINTS
  6
CONTINUOUS
 62
     0
100
AcDbPoint
 10
184.8221678445933
 20
-425.4675921605926
 30
0.0
  0
POINT
  5
7F68
330
7A15
100
AcDbEntity
  8
DEFPOINTS
  6
CONTINUOUS
 62
     0
100
AcDbPoint
 10
180.1778321554064
 20
-436.5324078394073
 30
0.0
  0
ENDBLK
  5
7A1F
330
7A15
100
AcDbEntity
  8
0
100
AcDbBlockEnd
  0
BLOCK
  5
7A9C
330
7A93
100
AcDbEntity
  8
0
100
AcDbBlockBegin
  2
*D27
 70
     1
 10
0.0
 20
0.0
 30
0.0
  3
*D27
  1

  0
LINE
  5
81AA
330
7A93
100
AcDbEntity
  8
30
  6
CONTINUOUS
 62
     0
100
AcDbLine
 10
259.3498135648802
 20
599.4792248978533
 30
0.0
 11
239.683146898212
 21
599.4792248978533
 31
0.0
  0
LINE
  5
81AB
330
7A93
100
AcDbEntity
  8
30
  6
CONTINUOUS
 62
     0
100
AcDbLine
 10
239.683146898212
 20
599.4792248978533
 30
0.0
 11
176.7581538911376
 21
559.6185170397782
 31
0.0
  0
MTEXT
  5
81AC
330
7A93
100
AcDbEntity
  8
30
  6
CONTINUOUS
 62
     0
100
AcDbMText
 10
250.016480231547
 20
604.4792248978533
 30
0.0
 40
8.0
 41
0.0
 71
     5
 72
     1
  1
\A1;\U+220512
1001
ACAD
1000
MTEXTBEGIN
1070
    73
1070
     1
1070
    44
1040
1.0
1070
    74
1070
     0
1000
MTEXTEND
  0
INSERT
  5
81AD
330
7A93
100
AcDbEntity
  8
30
  6
CONTINUOUS
 62
     0
100
AcDbBlockReference
  2
_OPEN
 10
175.0686154183532
 20
558.5482555067961
 30
0.0
 41
2.0
 42
2.0
 43
2.0
 50
212.3527801083056
  0
LINE
  5
81AE
330
7A93
100
AcDbEntity
  8
30
  6
CONTINUOUS
 62
     0
100
AcDbLine
 10
169.9099999999999
 20
555.3374709078497
 30
0.0
 11
170.0899999999999
 21
555.3374709078497
 31
0.0
  0
LINE
  5
81AF
330
7A93
100
AcDbEntity
  8
30
  6
CONTINUOUS
 62
     0
100
AcDbLine
 10
169.9999999999999
 20
555.2474709078498
 30
0.0
 11
169.9999999999999
 21
555.4274709078498
 31
0.0
  0
POINT
  5
81B0
330
7A93
100
AcDbEntity
  8
DEFPOINTS
  6
CONTINUOUS
 62
     0
100
AcDbPoint
 10
175.0686154183532
 20
558.5482555067961
 30
0.0
  0
POINT
  5
81B1
330
7A93
100
AcDbEntity
  8
DEFPOINTS
  6
CONTINUOUS
 62
     0
100
AcDbPoint
 10
164.9313845816467
 20
552.1266863089035
 30
0.0
  0
ENDBLK
  5
7A9D
330
7A93
100
AcDbEntity
  8
0
100
AcDbBlockEnd
  0
BLOCK
  5
7AA9
330
7A9F
100
AcDbEntity
  8
0
100
AcDbBlockBegin
  2
*D28
 70
     1
 10
0.0
 20
0.0
 30
0.0
  3
*D28
  1

  0
LINE
  5
81BB
330
7A9F
100
AcDbEntity
  8
30
  6
CONTINUOUS
 62
     0
100
AcDbLine
 10
152.5
 20
890.3374709078496
 30
0.0
 11
177.5915043198656
 21
890.3374709078496
 31
0.0
  0
LINE
  5
81BC
330
7A9F
100
AcDbEntity
  8
30
  6
CONTINUOUS
 62
     0
100
AcDbLine
 10
152.5
 20
770.3374709078497
 30
0.0
 11
177.5915043198656
 21
770.3374709078497
 31
0.0
  0
LINE
  5
81BD
330
7A9F
100
AcDbEntity
  8
30
  6
CONTINUOUS
 62
     0
100
AcDbLine
 10
177.0915043198656
 20
888.3374709078497
 30
0.0
 11
177.0915043198655
 21
772.3374709078496
 31
0.0
  0
INSERT
  5
81BE
330
7A9F
100
AcDbEntity
  8
30
  6
CONTINUOUS
 62
     0
100
AcDbBlockReference
  2
_OPEN
 10
177.0915043198656
 20
890.3374709078496
 30
0.0
 41
2.0
 42
2.0
 43
2.0
 50
90.0
  0
INSERT
  5
81BF
330
7A9F
100
AcDbEntity
  8
30
  6
CONTINUOUS
 62
     0
100
AcDbBlockReference
  2
_OPEN
 10
177.0915043198655
 20
770.3374709078497
 30
0.0
 41
2.0
 42
2.0
 43
2.0
 50
270.0
  0
MTEXT
  5
81C0
330
7A9F
100
AcDbEntity
  8
30
  6
CONTINUOUS
 62
     0
100
AcDbMText
 10
172.0915043198655
 20
830.3374709078497
 30
0.0
 40
8.0
 41
0.0
 71
     5
 72
     1
  1
\A1;120
 11
0.0000000000000001
 21
1.0
 31
0.0
1001
ACAD
1000
MTEXTBEGIN
1070
    73
1070
     1
1070
    44
1040
1.0
1070
    74
1070
     0
1000
MTEXTEND
  0
POINT
  5
81C1
330
7A9F
100
AcDbEntity
  8
DEFPOINTS
  6
CONTINUOUS
 62
     0
100
AcDbPoint
 10
147.5
 20
890.3374709078496
 30
0.0
  0
POINT
  5
81C2
330
7A9F
100
AcDbEntity
  8
DEFPOINTS
  6
CONTINUOUS
 62
     0
100
AcDbPoint
 10
147.5
 20
770.3374709078497
 30
0.0
  0
POINT
  5
81C3
330
7A9F
100
AcDbEntity
  8
DEFPOINTS
  6
CONTINUOUS
 62
     0
100
AcDbPoint
 10
177.0915043198655
 20
770.3374709078497
 30
0.0
  0
ENDBLK
  5
7AAA
330
7A9F
100
AcDbEntity
  8
0
100
AcDbBlockEnd
  0
BLOCK
  5
7AB6
330
7AAC
100
AcDbEntity
  8
0
100
AcDbBlockBegin
  2
*D29
 70
     1
 10
0.0
 20
0.0
 30
0.0
  3
*D29
  1

  0
LINE
  5
81B2
330
7AAC
100
AcDbEntity
  8
30
  6
CONTINUOUS
 62
     0
100
AcDbLine
 10
152.4999999999996
 20
890.3374709078496
 30
0.0
 11
164.468163552281
 21
890.3374709078496
 31
0.0
  0
LINE
  5
81B3
330
7AAC
100
AcDbEntity
  8
30
  6
CONTINUOUS
 62
     0
100
AcDbLine
 10
152.4999999999996
 20
870.3374709078497
 30
0.0
 11
164.468163552281
 21
870.3374709078497
 31
0.0
  0
LINE
  5
81B4
330
7AAC
100
AcDbEntity
  8
30
  6
CONTINUOUS
 62
     0
100
AcDbLine
 10
163.968163552281
 20
888.3374709078497
 30
0.0
 11
163.968163552281
 21
872.3374709078496
 31
0.0
  0
INSERT
  5
81B5
330
7AAC
100
AcDbEntity
  8
30
  6
CONTINUOUS
 62
     0
100
AcDbBlockReference
  2
_OPEN
 10
163.968163552281
 20
890.3374709078496
 30
0.0
 41
2.0
 42
2.0
 43
2.0
 50
90.0
  0
INSERT
  5
81B6
330
7AAC
100
AcDbEntity
  8
30
  6
CONTINUOUS
 62
     0
100
AcDbBlockReference
  2
_OPEN
 10
163.968163552281
 20
870.3374709078497
 30
0.0
 41
2.0
 42
2.0
 43
2.0
 50
270.0
  0
MTEXT
  5
81B7
330
7AAC
100
AcDbEntity
  8
30
  6
CONTINUOUS
 62
     0
100
AcDbMText
 10
158.9681635522809
 20
880.3374709078497
 30
0.0
 40
8.0
 41
0.0
 71
     5
 72
     1
  1
\A1;20
 11
0.0000000000000001
 21
1.0
 31
0.0
1001
ACAD
1000
MTEXTBEGIN
1070
    73
1070
     1
1070
    44
1040
1.0
1070
    74
1070
     0
1000
MTEXTEND
  0
POINT
  5
81B8
330
7AAC
100
AcDbEntity
  8
DEFPOINTS
  6
CONTINUOUS
 62
     0
100
AcDbPoint
 10
147.4999999999996
 20
890.3374709078496
 30
0.0
  0
POINT
  5
81B9
330
7AAC
100
AcDbEntity
  8
DEFPOINTS
  6
CONTINUOUS
 62
     0
100
AcDbPoint
 10
147.4999999999996
 20
870.3374709078497
 30
0.0
  0
POINT
  5
81BA
330
7AAC
100
AcDbEntity
  8
DEFPOINTS
  6
CONTINUOUS
 62
     0
100
AcDbPoint
 10
163.968163552281
 20
870.3374709078497
 30
0.0
  0
ENDBLK
  5
7AB7
330
7AAC
100
AcDbEntity
  8
0
100
AcDbBlockEnd
  0
BLOCK
  5
7AC3
330
7AB9
100
AcDbEntity
  8
0
100
AcDbBlockBegin
  2
*D30
 70
     1
 10
0.0
 20
0.0
 30
0.0
  3
*D30
  1

  0
LINE
  5
81DF
330
7AB9
100
AcDbEntity
  8
30
  6
CONTINUOUS
 62
     0
100
AcDbLine
 10
152.4999999999996
 20
870.3374709078497
 30
0.0
 11
164.468163552281
 21
870.3374709078497
 31
0.0
  0
LINE
  5
81E0
330
7AB9
100
AcDbEntity
  8
30
  6
CONTINUOUS
 62
     0
100
AcDbLine
 10
152.4999999999996
 20
845.3374709078497
 30
0.0
 11
164.468163552281
 21
845.3374709078497
 31
0.0
  0
LINE
  5
81E1
330
7AB9
100
AcDbEntity
  8
30
  6
CONTINUOUS
 62
     0
100
AcDbLine
 10
163.968163552281
 20
868.3374709078497
 30
0.0
 11
163.968163552281
 21
847.3374709078496
 31
0.0
  0
INSERT
  5
81E2
330
7AB9
100
AcDbEntity
  8
30
  6
CONTINUOUS
 62
     0
100
AcDbBlockReference
  2
_OPEN
 10
163.968163552281
 20
870.3374709078497
 30
0.0
 41
2.0
 42
2.0
 43
2.0
 50
90.0
  0
INSERT
  5
81E3
330
7AB9
100
AcDbEntity
  8
30
  6
CONTINUOUS
 62
     0
100
AcDbBlockReference
  2
_OPEN
 10
163.968163552281
 20
845.3374709078497
 30
0.0
 41
2.0
 42
2.0
 43
2.0
 50
270.0
  0
MTEXT
  5
81E4
330
7AB9
100
AcDbEntity
  8
30
  6
CONTINUOUS
 62
     0
100
AcDbMText
 10
158.9681635522809
 20
857.8374709078497
 30
0.0
 40
8.0
 41
0.0
 71
     5
 72
     1
  1
\A1;25
 11
0.0000000000000001
 21
1.0
 31
0.0
1001
ACAD
1000
MTEXTBEGIN
1070
    73
1070
     1
1070
    44
1040
1.0
1070
    74
1070
     0
1000
MTEXTEND
  0
POINT
  5
81E5
330
7AB9
100
AcDbEntity
  8
DEFPOINTS
  6
CONTINUOUS
 62
     0
100
AcDbPoint
 10
147.4999999999996
 20
870.3374709078497
 30
0.0
  0
POINT
  5
81E6
330
7AB9
100
AcDbEntity
  8
DEFPOINTS
  6
CONTINUOUS
 62
     0
100
AcDbPoint
 10
147.4999999999996
 20
845.3374709078497
 30
0.0
  0
POINT
  5
81E7
330
7AB9
100
AcDbEntity
  8
DEFPOINTS
  6
CONTINUOUS
 62
     0
100
AcDbPoint
 10
163.968163552281
 20
845.3374709078497
 30
0.0
  0
ENDBLK
  5
7AC4
330
7AB9
100
AcDbEntity
  8
0
100
AcDbBlockEnd
  0
BLOCK
  5
7AD4
330
7ACA
100
AcDbEntity
  8
0
100
AcDbBlockBegin
  2
*D31
 70
     1
 10
0.0
 20
0.0
 30
0.0
  3
*D31
  1

  0
LINE
  5
81D6
330
7ACA
100
AcDbEntity
  8
30
  6
CONTINUOUS
 62
     0
100
AcDbLine
 10
82.5
 20
840.3374709078496
 30
0.0
 11
96.4025453981376
 21
840.3374709078496
 31
0.0
  0
LINE
  5
81D7
330
7ACA
100
AcDbEntity
  8
30
  6
CONTINUOUS
 62
     0
100
AcDbLine
 10
82.5
 20
820.3374709078497
 30
0.0
 11
96.4025453981376
 21
820.3374709078497
 31
0.0
  0
LINE
  5
81D8
330
7ACA
100
AcDbEntity
  8
30
  6
CONTINUOUS
 62
     0
100
AcDbLine
 10
95.90254539813759
 20
838.3374709078497
 30
0.0
 11
95.90254539813759
 21
822.3374709078496
 31
0.0
  0
INSERT
  5
81D9
330
7ACA
100
AcDbEntity
  8
30
  6
CONTINUOUS
 62
     0
100
AcDbBlockReference
  2
_OPEN
 10
95.90254539813759
 20
840.3374709078496
 30
0.0
 41
2.0
 42
2.0
 43
2.0
 50
90.0
  0
INSERT
  5
81DA
330
7ACA
100
AcDbEntity
  8
30
  6
CONTINUOUS
 62
     0
100
AcDbBlockReference
  2
_OPEN
 10
95.90254539813759
 20
820.3374709078497
 30
0.0
 41
2.0
 42
2.0
 43
2.0
 50
270.0
  0
MTEXT
  5
81DB
330
7ACA
100
AcDbEntity
  8
30
  6
CONTINUOUS
 62
     0
100
AcDbMText
 10
90.90254539813747
 20
830.3374709078497
 30
0.0
 40
8.0
 41
0.0
 71
     5
 72
     1
  1
\A1;20
 11
0.0000000000000001
 21
1.0
 31
0.0
1001
ACAD
1000
MTEXTBEGIN
1070
    73
1070
     1
1070
    44
1040
1.0
1070
    74
1070
     0
1000
MTEXTEND
  0
POINT
  5
81DC
330
7ACA
100
AcDbEntity
  8
DEFPOINTS
  6
CONTINUOUS
 62
     0
100
AcDbPoint
 10
77.5
 20
840.3374709078496
 30
0.0
  0
POINT
  5
81DD
330
7ACA
100
AcDbEntity
  8
DEFPOINTS
  6
CONTINUOUS
 62
     0
100
AcDbPoint
 10
77.5
 20
820.3374709078497
 30
0.0
  0
POINT
  5
81DE
330
7ACA
100
AcDbEntity
  8
DEFPOINTS
  6
CONTINUOUS
 62
     0
100
AcDbPoint
 10
95.90254539813759
 20
820.3374709078497
 30
0.0
  0
ENDBLK
  5
7AD5
330
7ACA
100
AcDbEntity
  8
0
100
AcDbBlockEnd
  0
BLOCK
  5
7AE1
330
7AD7
100
AcDbEntity
  8
0
100
AcDbBlockBegin
  2
*D32
 70
     1
 10
0.0
 20
0.0
 30
0.0
  3
*D32
  1

  0
LINE
  5
81CD
330
7AD7
100
AcDbEntity
  8
30
  6
CONTINUOUS
 62
     0
100
AcDbLine
 10
82.5
 20
820.3374709078497
 30
0.0
 11
96.4025453981376
 21
820.3374709078497
 31
0.0
  0
LINE
  5
81CE
330
7AD7
100
AcDbEntity
  8
30
  6
CONTINUOUS
 62
     0
100
AcDbLine
 10
82.5
 20
795.3374709078497
 30
0.0
 11
96.40254539813758
 21
795.3374709078497
 31
0.0
  0
LINE
  5
81CF
330
7AD7
100
AcDbEntity
  8
30
  6
CONTINUOUS
 62
     0
100
AcDbLine
 10
95.90254539813759
 20
818.3374709078497
 30
0.0
 11
95.90254539813757
 21
797.3374709078496
 31
0.0
  0
INSERT
  5
81D0
330
7AD7
100
AcDbEntity
  8
30
  6
CONTINUOUS
 62
     0
100
AcDbBlockReference
  2
_OPEN
 10
95.90254539813759
 20
820.3374709078497
 30
0.0
 41
2.0
 42
2.0
 43
2.0
 50
90.0
  0
INSERT
  5
81D1
330
7AD7
100
AcDbEntity
  8
30
  6
CONTINUOUS
 62
     0
100
AcDbBlockReference
  2
_OPEN
 10
95.90254539813757
 20
795.3374709078497
 30
0.0
 41
2.0
 42
2.0
 43
2.0
 50
270.0
  0
MTEXT
  5
81D2
330
7AD7
100
AcDbEntity
  8
30
  6
CONTINUOUS
 62
     0
100
AcDbMText
 10
90.90254539813745
 20
807.8374709078497
 30
0.0
 40
8.0
 41
0.0
 71
     5
 72
     1
  1
\A1;25
 11
0.0000000000000001
 21
1.0
 31
0.0
1001
ACAD
1000
MTEXTBEGIN
1070
    73
1070
     1
1070
    44
1040
1.0
1070
    74
1070
     0
1000
MTEXTEND
  0
POINT
  5
81D3
330
7AD7
100
AcDbEntity
  8
DEFPOINTS
  6
CONTINUOUS
 62
     0
100
AcDbPoint
 10
77.5
 20
820.3374709078497
 30
0.0
  0
POINT
  5
81D4
330
7AD7
100
AcDbEntity
  8
DEFPOINTS
  6
CONTINUOUS
 62
     0
100
AcDbPoint
 10
77.5
 20
795.3374709078497
 30
0.0
  0
POINT
  5
81D5
330
7AD7
100
AcDbEntity
  8
DEFPOINTS
  6
CONTINUOUS
 62
     0
100
AcDbPoint
 10
95.90254539813757
 20
795.3374709078497
 30
0.0
  0
ENDBLK
  5
7AE2
330
7AD7
100
AcDbEntity
  8
0
100
AcDbBlockEnd
  0
BLOCK
  5
7B1F
330
7B15
100
AcDbEntity
  8
0
100
AcDbBlockBegin
  2
*D33
 70
     1
 10
0.0
 20
0.0
 30
0.0
  3
*D33
  1

  0
LINE
  5
81C4
330
7B15
100
AcDbEntity
  8
30
  6
CONTINUOUS
 62
     0
100
AcDbLine
 10
82.5
 20
840.3374709078496
 30
0.0
 11
111.2180532685105
 21
840.3374709078496
 31
0.0
  0
LINE
  5
81C5
330
7B15
100
AcDbEntity
  8
30
  6
CONTINUOUS
 62
     0
100
AcDbLine
 10
82.5
 20
770.3374709078497
 30
0.0
 11
111.2180532685105
 21
770.3374709078497
 31
0.0
  0
LINE
  5
81C6
330
7B15
100
AcDbEntity
  8
30
  6
CONTINUOUS
 62
     0
100
AcDbLine
 10
110.7180532685106
 20
838.3374709078497
 30
0.0
 11
110.7180532685105
 21
772.3374709078496
 31
0.0
  0
INSERT
  5
81C7
330
7B15
100
AcDbEntity
  8
30
  6
CONTINUOUS
 62
     0
100
AcDbBlockReference
  2
_OPEN
 10
110.7180532685106
 20
840.3374709078496
 30
0.0
 41
2.0
 42
2.0
 43
2.0
 50
90.0
  0
INSERT
  5
81C8
330
7B15
100
AcDbEntity
  8
30
  6
CONTINUOUS
 62
     0
100
AcDbBlockReference
  2
_OPEN
 10
110.7180532685105
 20
770.3374709078497
 30
0.0
 41
2.0
 42
2.0
 43
2.0
 50
270.0
  0
MTEXT
  5
81C9
330
7B15
100
AcDbEntity
  8
30
  6
CONTINUOUS
 62
     0
100
AcDbMText
 10
105.7180532685104
 20
805.3374709078497
 30
0.0
 40
8.0
 41
0.0
 71
     5
 72
     1
  1
\A1;70
 11
0.0000000000000001
 21
1.0
 31
0.0
1001
ACAD
1000
MTEXTBEGIN
1070
    73
1070
     1
1070
    44
1040
1.0
1070
    74
1070
     0
1000
MTEXTEND
  0
POINT
  5
81CA
330
7B15
100
AcDbEntity
  8
DEFPOINTS
  6
CONTINUOUS
 62
     0
100
AcDbPoint
 10
77.5
 20
840.3374709078496
 30
0.0
  0
POINT
  5
81CB
330
7B15
100
AcDbEntity
  8
DEFPOINTS
  6
CONTINUOUS
 62
     0
100
AcDbPoint
 10
77.5
 20
770.3374709078497
 30
0.0
  0
POINT
  5
81CC
330
7B15
100
AcDbEntity
  8
DEFPOINTS
  6
CONTINUOUS
 62
     0
100
AcDbPoint
 10
110.7180532685105
 20
770.3374709078497
 30
0.0
  0
ENDBLK
  5
7B20
330
7B15
100
AcDbEntity
  8
0
100
AcDbBlockEnd
  0
BLOCK
  5
7B2E
330
7B24
100
AcDbEntity
  8
0
100
AcDbBlockBegin
  2
*D34
 70
     1
 10
0.0
 20
0.0
 30
0.0
  3
*D34
  1

  0
LINE
  5
81A1
330
7B24
100
AcDbEntity
  8
30
  6
CONTINUOUS
 62
     0
100
AcDbLine
 10
-69.99999999999977
 20
905.5867313670654
 30
0.0
 11
-69.99999999999977
 21
920.884663997946
 31
0.0
  0
LINE
  5
81A2
330
7B24
100
AcDbEntity
  8
30
  6
CONTINUOUS
 62
     0
100
AcDbLine
 10
0.0000000000002277
 20
905.5867313670654
 30
0.0
 11
0.0000000000002286
 21
920.884663997946
 31
0.0
  0
LINE
  5
81A3
330
7B24
100
AcDbEntity
  8
30
  6
CONTINUOUS
 62
     0
100
AcDbLine
 10
-67.99999999999977
 20
920.384663997946
 30
0.0
 11
-1.999999999999771
 21
920.384663997946
 31
0.0
  0
INSERT
  5
81A4
330
7B24
100
AcDbEntity
  8
30
  6
CONTINUOUS
 62
     0
100
AcDbBlockReference
  2
_OPEN
 10
-69.99999999999977
 20
920.384663997946
 30
0.0
 41
2.0
 42
2.0
 43
2.0
 50
180.0
  0
INSERT
  5
81A5
330
7B24
100
AcDbEntity
  8
30
  6
CONTINUOUS
 62
     0
100
AcDbBlockReference
  2
_OPEN
 10
0.0000000000002286
 20
920.384663997946
 30
0.0
 41
2.0
 42
2.0
 43
2.0
  0
MTEXT
  5
81A6
330
7B24
100
AcDbEntity
  8
30
  6
CONTINUOUS
 62
     0
100
AcDbMText
 10
-34.99999999999977
 20
925.384663997946
 30
0.0
 40
8.0
 41
0.0
 71
     5
 72
     1
  1
\A1;70
1001
ACAD
1000
MTEXTBEGIN
1070
    73
1070
     1
1070
    44
1040
1.0
1070
    74
1070
     0
1000
MTEXTEND
  0
POINT
  5
81A7
330
7B24
100
AcDbEntity
  8
DEFPOINTS
  6
CONTINUOUS
 62
     0
100
AcDbPoint
 10
-69.99999999999977
 20
900.5867313670654
 30
0.0
  0
POINT
  5
81A8
330
7B24
100
AcDbEntity
  8
DEFPOINTS
  6
CONTINUOUS
 62
     0
100
AcDbPoint
 10
0.0000000000002274
 20
900.5867313670654
 30
0.0
  0
POINT
  5
81A9
330
7B24
100
AcDbEntity
  8
DEFPOINTS
  6
CONTINUOUS
 62
     0
100
AcDbPoint
 10
0.0000000000002286
 20
920.384663997946
 30
0.0
  0
ENDBLK
  5
7B2F
330
7B24
100
AcDbEntity
  8
0
100
AcDbBlockEnd
  0
BLOCK
  5
7B3B
330
7B31
100
AcDbEntity
  8
0
100
AcDbBlockBegin
  2
*D35
 70
     1
 10
0.0
 20
0.0
 30
0.0
  3
*D35
  1

  0
LINE
  5
8198
330
7B31
100
AcDbEntity
  8
30
  6
CONTINUOUS
 62
     0
100
AcDbLine
 10
0.0000000000002277
 20
906.5867313670652
 30
0.0
 11
0.0000000000002286
 21
920.884663997946
 31
0.0
  0
LINE
  5
8199
330
7B31
100
AcDbEntity
  8
30
  6
CONTINUOUS
 62
     0
100
AcDbLine
 10
70.0
 20
905.5867313670654
 30
0.0
 11
70.0
 21
920.884663997946
 31
0.0
  0
LINE
  5
819A
330
7B31
100
AcDbEntity
  8
30
  6
CONTINUOUS
 62
     0
100
AcDbLine
 10
2.000000000000228
 20
920.384663997946
 30
0.0
 11
68.0
 21
920.384663997946
 31
0.0
  0
INSERT
  5
819B
330
7B31
100
AcDbEntity
  8
30
  6
CONTINUOUS
 62
     0
100
AcDbBlockReference
  2
_OPEN
 10
0.0000000000002286
 20
920.384663997946
 30
0.0
 41
2.0
 42
2.0
 43
2.0
 50
180.0
  0
INSERT
  5
819C
330
7B31
100
AcDbEntity
  8
30
  6
CONTINUOUS
 62
     0
100
AcDbBlockReference
  2
_OPEN
 10
70.0
 20
920.384663997946
 30
0.0
 41
2.0
 42
2.0
 43
2.0
  0
MTEXT
  5
819D
330
7B31
100
AcDbEntity
  8
30
  6
CONTINUOUS
 62
     0
100
AcDbMText
 10
35.00000000000011
 20
925.384663997946
 30
0.0
 40
8.0
 41
0.0
 71
     5
 72
     1
  1
\A1;70
1001
ACAD
1000
MTEXTBEGIN
1070
    73
1070
     1
1070
    44
1040
1.0
1070
    74
1070
     0
1000
MTEXTEND
  0
POINT
  5
819E
330
7B31
100
AcDbEntity
  8
DEFPOINTS
  6
CONTINUOUS
 62
     0
100
AcDbPoint
 10
0.0000000000002274
 20
901.5867313670652
 30
0.0
  0
POINT
  5
819F
330
7B31
100
AcDbEntity
  8
DEFPOINTS
  6
CONTINUOUS
 62
     0
100
AcDbPoint
 10
70.0
 20
900.5867313670654
 30
0.0
  0
POINT
  5
81A0
330
7B31
100
AcDbEntity
  8
DEFPOINTS
  6
CONTINUOUS
 62
     0
100
AcDbPoint
 10
70.0
 20
920.384663997946
 30
0.0
  0
ENDBLK
  5
7B3C
330
7B31
100
AcDbEntity
  8
0
100
AcDbBlockEnd
  0
BLOCK
  5
7B48
330
7B3E
100
AcDbEntity
  8
0
100
AcDbBlockBegin
  2
*D36
 70
     1
 10
0.0
 20
0.0
 30
0.0
  3
*D36
  1

  0
LINE
  5
81E8
330
7B3E
100
AcDbEntity
  8
30
  6
CONTINUOUS
 62
     0
100
AcDbLine
 10
70.0
 20
906.5867313670652
 30
0.0
 11
70.0
 21
920.884663997946
 31
0.0
  0
LINE
  5
81E9
330
7B3E
100
AcDbEntity
  8
30
  6
CONTINUOUS
 62
     0
100
AcDbLine
 10
140.0
 20
905.5867313670654
 30
0.0
 11
140.0
 21
920.884663997946
 31
0.0
  0
LINE
  5
81EA
330
7B3E
100
AcDbEntity
  8
30
  6
CONTINUOUS
 62
     0
100
AcDbLine
 10
72.0
 20
920.384663997946
 30
0.0
 11
138.0
 21
920.384663997946
 31
0.0
  0
INSERT
  5
81EB
330
7B3E
100
AcDbEntity
  8
30
  6
CONTINUOUS
 62
     0
100
AcDbBlockReference
  2
_OPEN
 10
70.0
 20
920.384663997946
 30
0.0
 41
2.0
 42
2.0
 43
2.0
 50
180.0
  0
INSERT
  5
81EC
330
7B3E
100
AcDbEntity
  8
30
  6
CONTINUOUS
 62
     0
100
AcDbBlockReference
  2
_OPEN
 10
140.0
 20
920.384663997946
 30
0.0
 41
2.0
 42
2.0
 43
2.0
  0
MTEXT
  5
81ED
330
7B3E
100
AcDbEntity
  8
30
  6
CONTINUOUS
 62
     0
100
AcDbMText
 10
105.0
 20
925.384663997946
 30
0.0
 40
8.0
 41
0.0
 71
     5
 72
     1
  1
\A1;70
1001
ACAD
1000
MTEXTBEGIN
1070
    73
1070
     1
1070
    44
1040
1.0
1070
    74
1070
     0
1000
MTEXTEND
  0
POINT
  5
81EE
330
7B3E
100
AcDbEntity
  8
DEFPOINTS
  6
CONTINUOUS
 62
     0
100
AcDbPoint
 10
70.0
 20
901.5867313670652
 30
0.0
  0
POINT
  5
81EF
330
7B3E
100
AcDbEntity
  8
DEFPOINTS
  6
CONTINUOUS
 62
     0
100
AcDbPoint
 10
140.0
 20
900.5867313670654
 30
0.0
  0
POINT
  5
81F0
330
7B3E
100
AcDbEntity
  8
DEFPOINTS
  6
CONTINUOUS
 62
     0
100
AcDbPoint
 10
140.0
 20
920.384663997946
 30
0.0
  0
ENDBLK
  5
7B49
330
7B3E
100
AcDbEntity
  8
0
100
AcDbBlockEnd
  0
BLOCK
  5
7BE0
330
7BD6
100
AcDbEntity
  8
0
100
AcDbBlockBegin
  2
*D37
 70
     1
 10
0.0
 20
0.0
 30
0.0
  3
*D37
  1

  0
LINE
  5
808B
330
7BD6
100
AcDbEntity
  8
30
  6
CONTINUOUS
 62
     0
100
AcDbLine
 10
1063.586497997648
 20
85.0
 30
0.0
 11
1078.19739818114
 21
85.0
 31
0.0
  0
LINE
  5
808C
330
7BD6
100
AcDbEntity
  8
30
  6
CONTINUOUS
 62
     0
100
AcDbLine
 10
1063.586497997648
 20
35.0
 30
0.0
 11
1078.19739818114
 21
34.99999999999999
 31
0.0
  0
LINE
  5
808D
330
7BD6
100
AcDbEntity
  8
30
  6
CONTINUOUS
 62
     0
100
AcDbLine
 10
1077.697398181139
 20
83.0
 30
0.0
 11
1077.697398181139
 21
36.99999999999999
 31
0.0
  0
INSERT
  5
808E
330
7BD6
100
AcDbEntity
  8
30
  6
CONTINUOUS
 62
     0
100
AcDbBlockReference
  2
_OPEN
 10
1077.697398181139
 20
85.0
 30
0.0
 41
2.0
 42
2.0
 43
2.0
 50
90.0
  0
INSERT
  5
808F
330
7BD6
100
AcDbEntity
  8
30
  6
CONTINUOUS
 62
     0
100
AcDbBlockReference
  2
_OPEN
 10
1077.697398181139
 20
34.99999999999999
 30
0.0
 41
2.0
 42
2.0
 43
2.0
 50
270.0
  0
MTEXT
  5
8090
330
7BD6
100
AcDbEntity
  8
30
  6
CONTINUOUS
 62
     0
100
AcDbMText
 10
1072.69739818114
 20
60.00000000000017
 30
0.0
 40
8.0
 41
0.0
 71
     5
 72
     1
  1
\A1;50
 11
0.0000000000000001
 21
1.0
 31
0.0
1001
ACAD
1000
MTEXTBEGIN
1070
    73
1070
     1
1070
    44
1040
1.0
1070
    74
1070
     0
1000
MTEXTEND
  0
POINT
  5
8091
330
7BD6
100
AcDbEntity
  8
DEFPOINTS
  6
CONTINUOUS
 62
     0
100
AcDbPoint
 10
1058.586497997648
 20
85.0
 30
0.0
  0
POINT
  5
8092
330
7BD6
100
AcDbEntity
  8
DEFPOINTS
  6
CONTINUOUS
 62
     0
100
AcDbPoint
 10
1058.586497997648
 20
35.0
 30
0.0
  0
POINT
  5
8093
330
7BD6
100
AcDbEntity
  8
DEFPOINTS
  6
CONTINUOUS
 62
     0
100
AcDbPoint
 10
1077.697398181139
 20
34.99999999999999
 30
0.0
  0
ENDBLK
  5
7BE1
330
7BD6
100
AcDbEntity
  8
0
100
AcDbBlockEnd
  0
BLOCK
  5
7BF6
330
7BEC
100
AcDbEntity
  8
0
100
AcDbBlockBegin
  2
*D38
 70
     1
 10
0.0
 20
0.0
 30
0.0
  3
*D38
  1

  0
LINE
  5
8082
330
7BEC
100
AcDbEntity
  8
30
  6
CONTINUOUS
 62
     0
100
AcDbLine
 10
1042.0001220703
 20
97.5
 30
0.0
 11
1095.023111921884
 21
97.5
 31
0.0
  0
LINE
  5
8083
330
7BEC
100
AcDbEntity
  8
30
  6
CONTINUOUS
 62
     0
100
AcDbLine
 10
1042.0001220703
 20
22.5
 30
0.0
 11
1095.023111921884
 21
22.49999999999998
 31
0.0
  0
LINE
  5
8084
330
7BEC
100
AcDbEntity
  8
30
  6
CONTINUOUS
 62
     0
100
AcDbLine
 10
1094.523111921884
 20
95.49999999999998
 30
0.0
 11
1094.523111921884
 21
24.49999999999998
 31
0.0
  0
INSERT
  5
8085
330
7BEC
100
AcDbEntity
  8
30
  6
CONTINUOUS
 62
     0
100
AcDbBlockReference
  2
_OPEN
 10
1094.523111921884
 20
97.5
 30
0.0
 41
2.0
 42
2.0
 43
2.0
 50
90.0
  0
INSERT
  5
8086
330
7BEC
100
AcDbEntity
  8
30
  6
CONTINUOUS
 62
     0
100
AcDbBlockReference
  2
_OPEN
 10
1094.523111921884
 20
22.49999999999998
 30
0.0
 41
2.0
 42
2.0
 43
2.0
 50
270.0
  0
MTEXT
  5
8087
330
7BEC
100
AcDbEntity
  8
30
  6
CONTINUOUS
 62
     0
100
AcDbMText
 10
1089.523111921884
 20
60.00000000000015
 30
0.0
 40
8.0
 41
0.0
 71
     5
 72
     1
  1
\A1;75
 11
0.0000000000000001
 21
1.0
 31
0.0
1001
ACAD
1000
MTEXTBEGIN
1070
    73
1070
     1
1070
    44
1040
1.0
1070
    74
1070
     0
1000
MTEXTEND
  0
POINT
  5
8088
330
7BEC
100
AcDbEntity
  8
DEFPOINTS
  6
CONTINUOUS
 62
     0
100
AcDbPoint
 10
1037.0001220703
 20
97.5
 30
0.0
  0
POINT
  5
8089
330
7BEC
100
AcDbEntity
  8
DEFPOINTS
  6
CONTINUOUS
 62
     0
100
AcDbPoint
 10
1037.0001220703
 20
22.5
 30
0.0
  0
POINT
  5
808A
330
7BEC
100
AcDbEntity
  8
DEFPOINTS
  6
CONTINUOUS
 62
     0
100
AcDbPoint
 10
1094.523111921884
 20
22.49999999999998
 30
0.0
  0
ENDBLK
  5
7BF7
330
7BEC
100
AcDbEntity
  8
0
100
AcDbBlockEnd
  0
BLOCK
  5
7C03
330
7BF9
100
AcDbEntity
  8
0
100
AcDbBlockBegin
  2
*D39
 70
     1
 10
0.0
 20
0.0
 30
0.0
  3
*D39
  1

  0
LINE
  5
8079
330
7BF9
100
AcDbEntity
  8
30
  6
CONTINUOUS
 62
     0
100
AcDbLine
 10
1099.523111921884
 20
60.0
 30
0.0
 11
1132.040469722994
 21
60.0
 31
0.0
  0
LINE
  5
807A
330
7BF9
100
AcDbEntity
  8
30
  6
CONTINUOUS
 62
     0
100
AcDbLine
 10
1062.981811523399
 20
-0.0000000000000014
 30
0.0
 11
1132.040469722994
 21
-0.000000000000021
 31
0.0
  0
LINE
  5
807B
330
7BF9
100
AcDbEntity
  8
30
  6
CONTINUOUS
 62
     0
100
AcDbLine
 10
1131.540469722994
 20
57.99999999999998
 30
0.0
 11
1131.540469722994
 21
1.999999999999979
 31
0.0
  0
INSERT
  5
807C
330
7BF9
100
AcDbEntity
  8
30
  6
CONTINUOUS
 62
     0
100
AcDbBlockReference
  2
_OPEN
 10
1131.540469722994
 20
60.0
 30
0.0
 41
2.0
 42
2.0
 43
2.0
 50
90.0
  0
INSERT
  5
807D
330
7BF9
100
AcDbEntity
  8
30
  6
CONTINUOUS
 62
     0
100
AcDbBlockReference
  2
_OPEN
 10
1131.540469722994
 20
-0.0000000000000208
 30
0.0
 41
2.0
 42
2.0
 43
2.0
 50
270.0
  0
MTEXT
  5
807E
330
7BF9
100
AcDbEntity
  8
30
  6
CONTINUOUS
 62
     0
100
AcDbMText
 10
1126.540469722994
 20
30.00000000000016
 30
0.0
 40
8.0
 41
0.0
 71
     5
 72
     1
  1
\A1;60
 11
0.0000000000000001
 21
1.0
 31
0.0
1001
ACAD
1000
MTEXTBEGIN
1070
    73
1070
     1
1070
    44
1040
1.0
1070
    74
1070
     0
1000
MTEXTEND
  0
POINT
  5
807F
330
7BF9
100
AcDbEntity
  8
DEFPOINTS
  6
CONTINUOUS
 62
     0
100
AcDbPoint
 10
1094.523111921884
 20
60.0
 30
0.0
  0
POINT
  5
8080
330
7BF9
100
AcDbEntity
  8
DEFPOINTS
  6
CONTINUOUS
 62
     0
100
AcDbPoint
 10
1057.9818115234
 20
0.0
 30
0.0
  0
POINT
  5
8081
330
7BF9
100
AcDbEntity
  8
DEFPOINTS
  6
CONTINUOUS
 62
     0
100
AcDbPoint
 10
1131.540469722994
 20
-0.0000000000000208
 30
0.0
  0
ENDBLK
  5
7C04
330
7BF9
100
AcDbEntity
  8
0
100
AcDbBlockEnd
  0
BLOCK
  5
7C22
330
7C18
100
AcDbEntity
  8
0
100
AcDbBlockBegin
  2
*D40
 70
     1
 10
0.0
 20
0.0
 30
0.0
  3
*D40
  1

  0
LINE
  5
8067
330
7C18
100
AcDbEntity
  8
30
  6
CONTINUOUS
 62
     0
100
AcDbLine
 10
1063.9818115234
 20
-0.0000000000000017
 30
0.0
 11
1132.040469722994
 21
-0.000000000000021
 31
0.0
  0
LINE
  5
8068
330
7C18
100
AcDbEntity
  8
30
  6
CONTINUOUS
 62
     0
100
AcDbLine
 10
1062.981811523399
 20
-100.0
 30
0.0
 11
1132.040469722994
 21
-100.0
 31
0.0
  0
LINE
  5
8069
330
7C18
100
AcDbEntity
  8
30
  6
CONTINUOUS
 62
     0
100
AcDbLine
 10
1131.540469722994
 20
-2.000000000000019
 30
0.0
 11
1131.540469722994
 21
-98.00000000000002
 31
0.0
  0
INSERT
  5
806A
330
7C18
100
AcDbEntity
  8
30
  6
CONTINUOUS
 62
     0
100
AcDbBlockReference
  2
_OPEN
 10
1131.540469722994
 20
-0.0000000000000208
 30
0.0
 41
2.0
 42
2.0
 43
2.0
 50
90.0
  0
INSERT
  5
806B
330
7C18
100
AcDbEntity
  8
30
  6
CONTINUOUS
 62
     0
100
AcDbBlockReference
  2
_OPEN
 10
1131.540469722994
 20
-100.0
 30
0.0
 41
2.0
 42
2.0
 43
2.0
 50
270.0
  0
MTEXT
  5
806C
330
7C18
100
AcDbEntity
  8
30
  6
CONTINUOUS
 62
     0
100
AcDbMText
 10
1126.540469722994
 20
-49.99999999999985
 30
0.0
 40
8.0
 41
0.0
 71
     5
 72
     1
  1
\A1;100
 11
0.0000000000000001
 21
1.0
 31
0.0
1001
ACAD
1000
MTEXTBEGIN
1070
    73
1070
     1
1070
    44
1040
1.0
1070
    74
1070
     0
1000
MTEXTEND
  0
POINT
  5
806D
330
7C18
100
AcDbEntity
  8
DEFPOINTS
  6
CONTINUOUS
 62
     0
100
AcDbPoint
 10
1058.981811523399
 20
-0.0000000000000003
 30
0.0
  0
POINT
  5
806E
330
7C18
100
AcDbEntity
  8
DEFPOINTS
  6
CONTINUOUS
 62
     0
100
AcDbPoint
 10
1057.9818115234
 20
-100.0
 30
0.0
  0
POINT
  5
806F
330
7C18
100
AcDbEntity
  8
DEFPOINTS
  6
CONTINUOUS
 62
     0
100
AcDbPoint
 10
1131.540469722994
 20
-100.0
 30
0.0
  0
ENDBLK
  5
7C23
330
7C18
100
AcDbEntity
  8
0
100
AcDbBlockEnd
  0
BLOCK
  5
7C2F
330
7C25
100
AcDbEntity
  8
0
100
AcDbBlockBegin
  2
*D41
 70
     1
 10
0.0
 20
0.0
 30
0.0
  3
*D41
  1

  0
LINE
  5
7FE6
330
7C25
100
AcDbEntity
  8
30
  6
CONTINUOUS
 62
     0
100
AcDbLine
 10
907.0001220703
 20
-225.0
 30
0.0
 11
907.0001220703
 21
-293.2288816386853
 31
0.0
  0
LINE
  5
7FE7
330
7C25
100
AcDbEntity
  8
30
  6
CONTINUOUS
 62
     0
100
AcDbLine
 10
625.0
 20
-5.00000000000008
 30
0.0
 11
625.0
 21
-293.2288816386853
 31
0.0
  0
LINE
  5
7FE8
330
7C25
100
AcDbEntity
  8
30
  6
CONTINUOUS
 62
     0
100
AcDbLine
 10
905.0001220703
 20
-292.7288816386854
 30
0.0
 11
627.0
 21
-292.7288816386854
 31
0.0
  0
INSERT
  5
7FE9
330
7C25
100
AcDbEntity
  8
30
  6
CONTINUOUS
 62
     0
100
AcDbBlockReference
  2
_OPEN
 10
907.0001220703
 20
-292.7288816386854
 30
0.0
 41
2.0
 42
2.0
 43
2.0
  0
INSERT
  5
7FEA
330
7C25
100
AcDbEntity
  8
30
  6
CONTINUOUS
 62
     0
100
AcDbBlockReference
  2
_OPEN
 10
625.0
 20
-292.7288816386854
 30
0.0
 41
2.0
 42
2.0
 43
2.0
 50
180.0
  0
MTEXT
  5
7FEB
330
7C25
100
AcDbEntity
  8
30
  6
CONTINUOUS
 62
     0
100
AcDbMText
 10
766.00006103515
 20
-287.7288816386853
 30
0.0
 40
8.0
 41
0.0
 71
     5
 72
     1
  1
\A1;282
1001
ACAD
1000
MTEXTBEGIN
1070
    73
1070
     1
1070
    44
1040
1.0
1070
    74
1070
     0
1000
MTEXTEND
  0
POINT
  5
7FEC
330
7C25
100
AcDbEntity
  8
DEFPOINTS
  6
CONTINUOUS
 62
     0
100
AcDbPoint
 10
907.0001220703
 20
-220.0
 30
0.0
  0
POINT
  5
7FED
330
7C25
100
AcDbEntity
  8
DEFPOINTS
  6
CONTINUOUS
 62
     0
100
AcDbPoint
 10
625.0
 20
-0.0000000000000817
 30
0.0
  0
POINT
  5
7FEE
330
7C25
100
AcDbEntity
  8
DEFPOINTS
  6
CONTINUOUS
 62
     0
100
AcDbPoint
 10
625.0
 20
-292.7288816386854
 30
0.0
  0
ENDBLK
  5
7C30
330
7C25
100
AcDbEntity
  8
0
100
AcDbBlockEnd
  0
BLOCK
  5
7C3C
330
7C32
100
AcDbEntity
  8
0
100
AcDbBlockBegin
  2
*D42
 70
     1
 10
0.0
 20
0.0
 30
0.0
  3
*D42
  1

  0
LINE
  5
7FEF
330
7C32
100
AcDbEntity
  8
30
  6
CONTINUOUS
 62
     0
100
AcDbLine
 10
907.0001220703
 20
-226.0
 30
0.0
 11
907.0001220703
 21
-312.5241580823661
 31
0.0
  0
LINE
  5
7FF0
330
7C32
100
AcDbEntity
  8
30
  6
CONTINUOUS
 62
     0
100
AcDbLine
 10
590.9998397826427
 20
-5.0
 30
0.0
 11
590.9998397826427
 21
-312.5241580823661
 31
0.0
  0
LINE
  5
7FF1
330
7C32
100
AcDbEntity
  8
30
  6
CONTINUOUS
 62
     0
100
AcDbLine
 10
905.0001220703
 20
-312.0241580823661
 30
0.0
 11
592.9998397826428
 21
-312.0241580823661
 31
0.0
  0
INSERT
  5
7FF2
330
7C32
100
AcDbEntity
  8
30
  6
CONTINUOUS
 62
     0
100
AcDbBlockReference
  2
_OPEN
 10
907.0001220703
 20
-312.0241580823661
 30
0.0
 41
2.0
 42
2.0
 43
2.0
  0
INSERT
  5
7FF3
330
7C32
100
AcDbEntity
  8
30
  6
CONTINUOUS
 62
     0
100
AcDbBlockReference
  2
_OPEN
 10
590.9998397826427
 20
-312.0241580823661
 30
0.0
 41
2.0
 42
2.0
 43
2.0
 50
180.0
  0
MTEXT
  5
7FF4
330
7C32
100
AcDbEntity
  8
30
  6
CONTINUOUS
 62
     0
100
AcDbMText
 10
748.9999809264713
 20
-307.0241580823661
 30
0.0
 40
8.0
 41
0.0
 71
     5
 72
     1
  1
\A1;316
1001
ACAD
1000
MTEXTBEGIN
1070
    73
1070
     1
1070
    44
1040
1.0
1070
    74
1070
     0
1000
MTEXTEND
  0
POINT
  5
7FF5
330
7C32
100
AcDbEntity
  8
DEFPOINTS
  6
CONTINUOUS
 62
     0
100
AcDbPoint
 10
907.0001220703
 20
-221.0
 30
0.0
  0
POINT
  5
7FF6
330
7C32
100
AcDbEntity
  8
DEFPOINTS
  6
CONTINUOUS
 62
     0
100
AcDbPoint
 10
590.9998397826427
 20
0.0
 30
0.0
  0
POINT
  5
7FF7
330
7C32
100
AcDbEntity
  8
DEFPOINTS
  6
CONTINUOUS
 62
     0
100
AcDbPoint
 10
590.9998397826427
 20
-312.0241580823661
 30
0.0
  0
ENDBLK
  5
7C3D
330
7C32
100
AcDbEntity
  8
0
100
AcDbBlockEnd
  0
BLOCK
  5
7C48
330
7C3F
100
AcDbEntity
  8
0
100
AcDbBlockBegin
  2
*D43
 70
     1
 10
0.0
 20
0.0
 30
0.0
  3
*D43
  1

  0
LINE
  5
7FF8
330
7C3F
100
AcDbEntity
  8
30
  6
CONTINUOUS
 62
     0
100
AcDbLine
 10
1067.64278488619
 20
147.9359448810664
 30
0.0
 11
1047.976118219523
 21
147.9359448810664
 31
0.0
  0
LINE
  5
7FF9
330
7C3F
100
AcDbEntity
  8
30
  6
CONTINUOUS
 62
     0
100
AcDbLine
 10
1047.976118219523
 20
147.9359448810664
 30
0.0
 11
1025.052267438669
 21
92.3948907125349
 31
0.0
  0
MTEXT
  5
7FFA
330
7C3F
100
AcDbEntity
  8
30
  6
CONTINUOUS
 62
     0
100
AcDbMText
 10
1058.309451552858
 20
152.9359448810664
 30
0.0
 40
8.0
 41
0.0
 71
     5
 72
     1
  1
\A1;\U+220512
1001
ACAD
1000
MTEXTBEGIN
1070
    73
1070
     1
1070
    44
1040
1.0
1070
    74
1070
     0
1000
MTEXTEND
  0
INSERT
  5
7FFB
330
7C3F
100
AcDbEntity
  8
30
  6
CONTINUOUS
 62
     0
100
AcDbBlockReference
  2
_OPEN
 10
1024.289231096576
 20
90.54616803440115
 30
0.0
 41
2.0
 42
2.0
 43
2.0
 50
247.5722465862308
  0
LINE
  5
7FFC
330
7C3F
100
AcDbEntity
  8
30
  6
CONTINUOUS
 62
     0
100
AcDbLine
 10
1021.910122070299
 20
84.99999999999991
 30
0.0
 11
1022.0901220703
 21
84.99999999999984
 31
0.0
  0
LINE
  5
7FFD
330
7C3F
100
AcDbEntity
  8
30
  6
CONTINUOUS
 62
     0
100
AcDbLine
 10
1022.0001220703
 20
84.90999999999973
 30
0.0
 11
1022.0001220703
 21
85.0899999999998
 31
0.0
  0
POINT
  5
7FFE
330
7C3F
100
AcDbEntity
  8
DEFPOINTS
  6
CONTINUOUS
 62
     0
100
AcDbPoint
 10
1024.289231096576
 20
90.54616803440115
 30
0.0
  0
POINT
  5
7FFF
330
7C3F
100
AcDbEntity
  8
DEFPOINTS
  6
CONTINUOUS
 62
     0
100
AcDbPoint
 10
1019.711013044022
 20
79.45383196559856
 30
0.0
  0
ENDBLK
  5
7C49
330
7C3F
100
AcDbEntity
  8
0
100
AcDbBlockEnd
  0
BLOCK
  5
7E27
330
7E1D
100
AcDbEntity
  8
0
100
AcDbBlockBegin
  2
*D44
 70
     1
 10
0.0
 20
0.0
 30
0.0
  3
*D44
  1

  0
LINE
  5
8000
330
7E1D
100
AcDbEntity
  8
30
  6
CONTINUOUS
 62
     0
100
AcDbLine
 10
907.0001220703
 20
-298.2288816386853
 30
0.0
 11
907.0001220703
 21
-367.1203184733531
 31
0.0
  0
LINE
  5
8001
330
7E1D
100
AcDbEntity
  8
30
  6
CONTINUOUS
 62
     0
100
AcDbLine
 10
380.9992675780383
 20
-5.0
 30
0.0
 11
380.9992675780383
 21
-367.1203184733531
 31
0.0
  0
LINE
  5
8002
330
7E1D
100
AcDbEntity
  8
30
  6
CONTINUOUS
 62
     0
100
AcDbLine
 10
905.0001220703
 20
-366.6203184733531
 30
0.0
 11
382.9992675780383
 21
-366.6203184733531
 31
0.0
  0
INSERT
  5
8003
330
7E1D
100
AcDbEntity
  8
30
  6
CONTINUOUS
 62
     0
100
AcDbBlockReference
  2
_OPEN
 10
907.0001220703
 20
-366.6203184733531
 30
0.0
 41
2.0
 42
2.0
 43
2.0
  0
INSERT
  5
8004
330
7E1D
100
AcDbEntity
  8
30
  6
CONTINUOUS
 62
     0
100
AcDbBlockReference
  2
_OPEN
 10
380.9992675780383
 20
-366.6203184733531
 30
0.0
 41
2.0
 42
2.0
 43
2.0
 50
180.0
  0
MTEXT
  5
8005
330
7E1D
100
AcDbEntity
  8
30
  6
CONTINUOUS
 62
     0
100
AcDbMText
 10
643.9996948241692
 20
-361.6203184733531
 30
0.0
 40
8.0
 41
0.0
 71
     5
 72
     1
  1
\A1;526
1001
ACAD
1000
MTEXTBEGIN
1070
    73
1070
     1
1070
    44
1040
1.0
1070
    74
1070
     0
1000
MTEXTEND
  0
POINT
  5
8006
330
7E1D
100
AcDbEntity
  8
DEFPOINTS
  6
CONTINUOUS
 62
     0
100
AcDbPoint
 10
907.0001220703
 20
-293.2288816386853
 30
0.0
  0
POINT
  5
8007
330
7E1D
100
AcDbEntity
  8
DEFPOINTS
  6
CONTINUOUS
 62
     0
100
AcDbPoint
 10
380.9992675780383
 20
0.0
 30
0.0
  0
POINT
  5
8008
330
7E1D
100
AcDbEntity
  8
DEFPOINTS
  6
CONTINUOUS
 62
     0
100
AcDbPoint
 10
380.9992675780383
 20
-366.6203184733531
 30
0.0
  0
ENDBLK
  5
7E28
330
7E1D
100
AcDbEntity
  8
0
100
AcDbBlockEnd
  0
BLOCK
  5
7E46
330
7E3C
100
AcDbEntity
  8
0
100
AcDbBlockBegin
  2
*D45
 70
     1
 10
0.0
 20
0.0
 30
0.0
  3
*D45
  1

  0
LINE
  5
8009
330
7E3C
100
AcDbEntity
  8
30
  6
CONTINUOUS
 62
     0
100
AcDbLine
 10
907.0001220703
 20
-317.0241580823661
 30
0.0
 11
907.0001220703
 21
-337.885589028533
 31
0.0
  0
LINE
  5
800A
330
7E3C
100
AcDbEntity
  8
30
  6
CONTINUOUS
 62
     0
100
AcDbLine
 10
511.0001068115055
 20
-5.0
 30
0.0
 11
511.0001068115055
 21
-337.885589028533
 31
0.0
  0
LINE
  5
800B
330
7E3C
100
AcDbEntity
  8
30
  6
CONTINUOUS
 62
     0
100
AcDbLine
 10
905.0001220703
 20
-337.3855890285331
 30
0.0
 11
513.0001068115054
 21
-337.3855890285331
 31
0.0
  0
INSERT
  5
800C
330
7E3C
100
AcDbEntity
  8
30
  6
CONTINUOUS
 62
     0
100
AcDbBlockReference
  2
_OPEN
 10
907.0001220703
 20
-337.3855890285331
 30
0.0
 41
2.0
 42
2.0
 43
2.0
  0
INSERT
  5
800D
330
7E3C
100
AcDbEntity
  8
30
  6
CONTINUOUS
 62
     0
100
AcDbBlockReference
  2
_OPEN
 10
511.0001068115055
 20
-337.3855890285331
 30
0.0
 41
2.0
 42
2.0
 43
2.0
 50
180.0
  0
MTEXT
  5
800E
330
7E3C
100
AcDbEntity
  8
30
  6
CONTINUOUS
 62
     0
100
AcDbMText
 10
709.0001144409027
 20
-332.3855890285331
 30
0.0
 40
8.0
 41
0.0
 71
     5
 72
     1
  1
\A1;396
1001
ACAD
1000
MTEXTBEGIN
1070
    73
1070
     1
1070
    44
1040
1.0
1070
    74
1070
     0
1000
MTEXTEND
  0
POINT
  5
800F
330
7E3C
100
AcDbEntity
  8
DEFPOINTS
  6
CONTINUOUS
 62
     0
100
AcDbPoint
 10
907.0001220703
 20
-312.0241580823661
 30
0.0
  0
POINT
  5
8010
330
7E3C
100
AcDbEntity
  8
DEFPOINTS
  6
CONTINUOUS
 62
     0
100
AcDbPoint
 10
511.0001068115055
 20
0.0
 30
0.0
  0
POINT
  5
8011
330
7E3C
100
AcDbEntity
  8
DEFPOINTS
  6
CONTINUOUS
 62
     0
100
AcDbPoint
 10
511.0001068115055
 20
-337.3855890285331
 30
0.0
  0
ENDBLK
  5
7E47
330
7E3C
100
AcDbEntity
  8
0
100
AcDbBlockEnd
  0
BLOCK
  5
7E92
330
7E88
100
AcDbEntity
  8
0
100
AcDbBlockBegin
  2
*D46
 70
     1
 10
0.0
 20
0.0
 30
0.0
  3
*D46
  1

  0
LINE
  5
8012
330
7E88
100
AcDbEntity
  8
30
  6
CONTINUOUS
 62
     0
100
AcDbLine
 10
907.0001220703
 20
310.0
 30
0.0
 11
907.0001220703
 21
339.3993563182501
 31
0.0
  0
LINE
  5
8013
330
7E88
100
AcDbEntity
  8
30
  6
CONTINUOUS
 62
     0
100
AcDbLine
 10
642.0
 20
185.0002441405998
 30
0.0
 11
642.0
 21
339.3993563182501
 31
0.0
  0
LINE
  5
8014
330
7E88
100
AcDbEntity
  8
30
  6
CONTINUOUS
 62
     0
100
AcDbLine
 10
905.0001220703
 20
338.8993563182501
 30
0.0
 11
644.0
 21
338.8993563182501
 31
0.0
  0
INSERT
  5
8015
330
7E88
100
AcDbEntity
  8
30
  6
CONTINUOUS
 62
     0
100
AcDbBlockReference
  2
_OPEN
 10
907.0001220703
 20
338.8993563182501
 30
0.0
 41
2.0
 42
2.0
 43
2.0
  0
INSERT
  5
8016
330
7E88
100
AcDbEntity
  8
30
  6
CONTINUOUS
 62
     0
100
AcDbBlockReference
  2
_OPEN
 10
642.0
 20
338.8993563182501
 30
0.0
 41
2.0
 42
2.0
 43
2.0
 50
180.0
  0
MTEXT
  5
8017
330
7E88
100
AcDbEntity
  8
30
  6
CONTINUOUS
 62
     0
100
AcDbMText
 10
774.50006103515
 20
343.8993563182501
 30
0.0
 40
8.0
 41
0.0
 71
     5
 72
     1
  1
\A1;265
1001
ACAD
1000
MTEXTBEGIN
1070
    73
1070
     1
1070
    44
1040
1.0
1070
    74
1070
     0
1000
MTEXTEND
  0
POINT
  5
8018
330
7E88
100
AcDbEntity
  8
DEFPOINTS
  6
CONTINUOUS
 62
     0
100
AcDbPoint
 10
907.0001220703
 20
305.0
 30
0.0
  0
POINT
  5
8019
330
7E88
100
AcDbEntity
  8
DEFPOINTS
  6
CONTINUOUS
 62
     0
100
AcDbPoint
 10
642.0
 20
180.0002441405998
 30
0.0
  0
POINT
  5
801A
330
7E88
100
AcDbEntity
  8
DEFPOINTS
  6
CONTINUOUS
 62
     0
100
AcDbPoint
 10
642.0
 20
338.8993563182501
 30
0.0
  0
ENDBLK
  5
7E93
330
7E88
100
AcDbEntity
  8
0
100
AcDbBlockEnd
  0
BLOCK
  5
7E9F
330
7E95
100
AcDbEntity
  8
0
100
AcDbBlockBegin
  2
*D47
 70
     1
 10
0.0
 20
0.0
 30
0.0
  3
*D47
  1

  0
LINE
  5
801B
330
7E95
100
AcDbEntity
  8
30
  6
CONTINUOUS
 62
     0
100
AcDbLine
 10
907.0001220703
 20
344.3993563182501
 30
0.0
 11
907.0001220703
 21
367.8974730805674
 31
0.0
  0
LINE
  5
801C
330
7E95
100
AcDbEntity
  8
30
  6
CONTINUOUS
 62
     0
100
AcDbLine
 10
612.0
 20
185.0002441405998
 30
0.0
 11
612.0
 21
367.8974730805674
 31
0.0
  0
LINE
  5
801D
330
7E95
100
AcDbEntity
  8
30
  6
CONTINUOUS
 62
     0
100
AcDbLine
 10
905.0001220703
 20
367.3974730805674
 30
0.0
 11
614.0
 21
367.3974730805674
 31
0.0
  0
INSERT
  5
801E
330
7E95
100
AcDbEntity
  8
30
  6
CONTINUOUS
 62
     0
100
AcDbBlockReference
  2
_OPEN
 10
907.0001220703
 20
367.3974730805674
 30
0.0
 41
2.0
 42
2.0
 43
2.0
  0
INSERT
  5
801F
330
7E95
100
AcDbEntity
  8
30
  6
CONTINUOUS
 62
     0
100
AcDbBlockReference
  2
_OPEN
 10
612.0
 20
367.3974730805674
 30
0.0
 41
2.0
 42
2.0
 43
2.0
 50
180.0
  0
MTEXT
  5
8020
330
7E95
100
AcDbEntity
  8
30
  6
CONTINUOUS
 62
     0
100
AcDbMText
 10
759.5000610351498
 20
372.3974730805674
 30
0.0
 40
8.0
 41
0.0
 71
     5
 72
     1
  1
\A1;295
1001
ACAD
1000
MTEXTBEGIN
1070
    73
1070
     1
1070
    44
1040
1.0
1070
    74
1070
     0
1000
MTEXTEND
  0
POINT
  5
8021
330
7E95
100
AcDbEntity
  8
DEFPOINTS
  6
CONTINUOUS
 62
     0
100
AcDbPoint
 10
907.0001220703
 20
339.3993563182501
 30
0.0
  0
POINT
  5
8022
330
7E95
100
AcDbEntity
  8
DEFPOINTS
  6
CONTINUOUS
 62
     0
100
AcDbPoint
 10
612.0
 20
180.0002441405998
 30
0.0
  0
POINT
  5
8023
330
7E95
100
AcDbEntity
  8
DEFPOINTS
  6
CONTINUOUS
 62
     0
100
AcDbPoint
 10
612.0
 20
367.3974730805674
 30
0.0
  0
ENDBLK
  5
7EA0
330
7E95
100
AcDbEntity
  8
0
100
AcDbBlockEnd
  0
BLOCK
  5
7EB5
330
7EAB
100
AcDbEntity
  8
0
100
AcDbBlockBegin
  2
*D48
 70
     1
 10
0.0
 20
0.0
 30
0.0
  3
*D48
  1

  0
LINE
  5
8024
330
7EAB
100
AcDbEntity
  8
30
  6
CONTINUOUS
 62
     0
100
AcDbLine
 10
907.0001220703
 20
372.3974730805674
 30
0.0
 11
907.0001220703
 21
387.2354856987957
 31
0.0
  0
LINE
  5
8025
330
7EAB
100
AcDbEntity
  8
30
  6
CONTINUOUS
 62
     0
100
AcDbLine
 10
582.0
 20
185.0002441405998
 30
0.0
 11
582.0
 21
387.2354856987957
 31
0.0
  0
LINE
  5
8026
330
7EAB
100
AcDbEntity
  8
30
  6
CONTINUOUS
 62
     0
100
AcDbLine
 10
905.0001220703
 20
386.7354856987958
 30
0.0
 11
584.0
 21
386.7354856987958
 31
0.0
  0
INSERT
  5
8027
330
7EAB
100
AcDbEntity
  8
30
  6
CONTINUOUS
 62
     0
100
AcDbBlockReference
  2
_OPEN
 10
907.0001220703
 20
386.7354856987958
 30
0.0
 41
2.0
 42
2.0
 43
2.0
  0
INSERT
  5
8028
330
7EAB
100
AcDbEntity
  8
30
  6
CONTINUOUS
 62
     0
100
AcDbBlockReference
  2
_OPEN
 10
582.0
 20
386.7354856987958
 30
0.0
 41
2.0
 42
2.0
 43
2.0
 50
180.0
  0
MTEXT
  5
8029
330
7EAB
100
AcDbEntity
  8
30
  6
CONTINUOUS
 62
     0
100
AcDbMText
 10
744.50006103515
 20
391.7354856987957
 30
0.0
 40
8.0
 41
0.0
 71
     5
 72
     1
  1
\A1;325
1001
ACAD
1000
MTEXTBEGIN
1070
    73
1070
     1
1070
    44
1040
1.0
1070
    74
1070
     0
1000
MTEXTEND
  0
POINT
  5
802A
330
7EAB
100
AcDbEntity
  8
DEFPOINTS
  6
CONTINUOUS
 62
     0
100
AcDbPoint
 10
907.0001220703
 20
367.3974730805674
 30
0.0
  0
POINT
  5
802B
330
7EAB
100
AcDbEntity
  8
DEFPOINTS
  6
CONTINUOUS
 62
     0
100
AcDbPoint
 10
582.0
 20
180.0002441405998
 30
0.0
  0
POINT
  5
802C
330
7EAB
100
AcDbEntity
  8
DEFPOINTS
  6
CONTINUOUS
 62
     0
100
AcDbPoint
 10
582.0
 20
386.7354856987958
 30
0.0
  0
ENDBLK
  5
7EB6
330
7EAB
100
AcDbEntity
  8
0
100
AcDbBlockEnd
  0
BLOCK
  5
7ECB
330
7EC1
100
AcDbEntity
  8
0
100
AcDbBlockBegin
  2
*D49
 70
     1
 10
0.0
 20
0.0
 30
0.0
  3
*D49
  1

  0
LINE
  5
802D
330
7EC1
100
AcDbEntity
  8
30
  6
CONTINUOUS
 62
     0
100
AcDbLine
 10
907.0001220703
 20
391.7354856987957
 30
0.0
 11
907.0001220703
 21
415.7336024611122
 31
0.0
  0
LINE
  5
802E
330
7EC1
100
AcDbEntity
  8
30
  6
CONTINUOUS
 62
     0
100
AcDbLine
 10
512.0
 20
185.0002441405998
 30
0.0
 11
512.0
 21
415.7336024611122
 31
0.0
  0
LINE
  5
802F
330
7EC1
100
AcDbEntity
  8
30
  6
CONTINUOUS
 62
     0
100
AcDbLine
 10
905.0001220703
 20
415.2336024611122
 30
0.0
 11
514.0
 21
415.2336024611122
 31
0.0
  0
INSERT
  5
8030
330
7EC1
100
AcDbEntity
  8
30
  6
CONTINUOUS
 62
     0
100
AcDbBlockReference
  2
_OPEN
 10
907.0001220703
 20
415.2336024611122
 30
0.0
 41
2.0
 42
2.0
 43
2.0
  0
INSERT
  5
8031
330
7EC1
100
AcDbEntity
  8
30
  6
CONTINUOUS
 62
     0
100
AcDbBlockReference
  2
_OPEN
 10
512.0
 20
415.2336024611122
 30
0.0
 41
2.0
 42
2.0
 43
2.0
 50
180.0
  0
MTEXT
  5
8032
330
7EC1
100
AcDbEntity
  8
30
  6
CONTINUOUS
 62
     0
100
AcDbMText
 10
709.5000610351498
 20
420.2336024611122
 30
0.0
 40
8.0
 41
0.0
 71
     5
 72
     1
  1
\A1;395
1001
ACAD
1000
MTEXTBEGIN
1070
    73
1070
     1
1070
    44
1040
1.0
1070
    74
1070
     0
1000
MTEXTEND
  0
POINT
  5
8033
330
7EC1
100
AcDbEntity
  8
DEFPOINTS
  6
CONTINUOUS
 62
     0
100
AcDbPoint
 10
907.0001220703
 20
386.7354856987958
 30
0.0
  0
POINT
  5
8034
330
7EC1
100
AcDbEntity
  8
DEFPOINTS
  6
CONTINUOUS
 62
     0
100
AcDbPoint
 10
512.0
 20
180.0002441405998
 30
0.0
  0
POINT
  5
8035
330
7EC1
100
AcDbEntity
  8
DEFPOINTS
  6
CONTINUOUS
 62
     0
100
AcDbPoint
 10
512.0
 20
415.2336024611122
 30
0.0
  0
ENDBLK
  5
7ECC
330
7EC1
100
AcDbEntity
  8
0
100
AcDbBlockEnd
  0
BLOCK
  5
7EFC
330
7EF2
100
AcDbEntity
  8
0
100
AcDbBlockBegin
  2
*D50
 70
     1
 10
0.0
 20
0.0
 30
0.0
  3
*D50
  1

  0
LINE
  5
8036
330
7EF2
100
AcDbEntity
  8
30
  6
CONTINUOUS
 62
     0
100
AcDbLine
 10
-110.0
 20
310.0
 30
0.0
 11
-110.0
 21
325.4310626344431
 31
0.0
  0
LINE
  5
8037
330
7EF2
100
AcDbEntity
  8
30
  6
CONTINUOUS
 62
     0
100
AcDbLine
 10
110.0
 20
310.0
 30
0.0
 11
110.0
 21
325.4310626344431
 31
0.0
  0
LINE
  5
8038
330
7EF2
100
AcDbEntity
  8
30
  6
CONTINUOUS
 62
     0
100
AcDbLine
 10
-108.0
 20
324.9310626344431
 30
0.0
 11
108.0
 21
324.9310626344431
 31
0.0
  0
INSERT
  5
8039
330
7EF2
100
AcDbEntity
  8
30
  6
CONTINUOUS
 62
     0
100
AcDbBlockReference
  2
_OPEN
 10
-110.0
 20
324.9310626344431
 30
0.0
 41
2.0
 42
2.0
 43
2.0
 50
180.0
  0
INSERT
  5
803A
330
7EF2
100
AcDbEntity
  8
30
  6
CONTINUOUS
 62
     0
100
AcDbBlockReference
  2
_OPEN
 10
110.0
 20
324.9310626344431
 30
0.0
 41
2.0
 42
2.0
 43
2.0
  0
MTEXT
  5
803B
330
7EF2
100
AcDbEntity
  8
30
  6
CONTINUOUS
 62
     0
100
AcDbMText
 10
0.0000000000000003
 20
329.9310626344431
 30
0.0
 40
8.0
 41
0.0
 71
     5
 72
     1
  1
\A1;220
1001
ACAD
1000
MTEXTBEGIN
1070
    73
1070
     1
1070
    44
1040
1.0
1070
    74
1070
     0
1000
MTEXTEND
  0
POINT
  5
803C
330
7EF2
100
AcDbEntity
  8
DEFPOINTS
  6
CONTINUOUS
 62
     0
100
AcDbPoint
 10
-110.0
 20
305.0
 30
0.0
  0
POINT
  5
803D
330
7EF2
100
AcDbEntity
  8
DEFPOINTS
  6
CONTINUOUS
 62
     0
100
AcDbPoint
 10
110.0
 20
305.0
 30
0.0
  0
POINT
  5
803E
330
7EF2
100
AcDbEntity
  8
DEFPOINTS
  6
CONTINUOUS
 62
     0
100
AcDbPoint
 10
110.0
 20
324.9310626344431
 30
0.0
  0
ENDBLK
  5
7EFD
330
7EF2
100
AcDbEntity
  8
0
100
AcDbBlockEnd
  0
BLOCK
  5
809F
330
8095
100
AcDbEntity
  8
0
100
AcDbBlockBegin
  2
*D51
 70
     1
 10
0.0
 20
0.0
 30
0.0
  3
*D51
  1

  0
LINE
  5
8129
330
8095
100
AcDbEntity
  8
30
  6
CONTINUOUS
 62
     0
100
AcDbLine
 10
945.0001220702999
 20
-431.0
 30
0.0
 11
973.2375933803835
 21
-431.0
 31
0.0
  0
LINE
  5
812A
330
8095
100
AcDbEntity
  8
30
  6
CONTINUOUS
 62
     0
100
AcDbLine
 10
918.0001220702999
 20
-451.0
 30
0.0
 11
973.2375933803835
 21
-451.0
 31
0.0
  0
LINE
  5
812B
330
8095
100
AcDbEntity
  8
30
  6
CONTINUOUS
 62
     0
100
AcDbLine
 10
972.7375933803832
 20
-433.0
 30
0.0
 11
972.7375933803832
 21
-449.0
 31
0.0
  0
INSERT
  5
812C
330
8095
100
AcDbEntity
  8
30
  6
CONTINUOUS
 62
     0
100
AcDbBlockReference
  2
_OPEN
 10
972.7375933803832
 20
-431.0
 30
0.0
 41
2.0
 42
2.0
 43
2.0
 50
90.0
  0
INSERT
  5
812D
330
8095
100
AcDbEntity
  8
30
  6
CONTINUOUS
 62
     0
100
AcDbBlockReference
  2
_OPEN
 10
972.7375933803832
 20
-451.0
 30
0.0
 41
2.0
 42
2.0
 43
2.0
 50
270.0
  0
MTEXT
  5
812E
330
8095
100
AcDbEntity
  8
30
  6
CONTINUOUS
 62
     0
100
AcDbMText
 10
967.7375933803835
 20
-440.9999999999998
 30
0.0
 40
8.0
 41
0.0
 71
     5
 72
     1
  1
\A1;20
 11
0.0000000000000001
 21
1.0
 31
0.0
1001
ACAD
1000
MTEXTBEGIN
1070
    73
1070
     1
1070
    44
1040
1.0
1070
    74
1070
     0
1000
MTEXTEND
  0
POINT
  5
812F
330
8095
100
AcDbEntity
  8
DEFPOINTS
  6
CONTINUOUS
 62
     0
100
AcDbPoint
 10
940.0001220703
 20
-431.0
 30
0.0
  0
POINT
  5
8130
330
8095
100
AcDbEntity
  8
DEFPOINTS
  6
CONTINUOUS
 62
     0
100
AcDbPoint
 10
913.0001220703
 20
-451.0
 30
0.0
  0
POINT
  5
8131
330
8095
100
AcDbEntity
  8
DEFPOINTS
  6
CONTINUOUS
 62
     0
100
AcDbPoint
 10
972.7375933803832
 20
-451.0
 30
0.0
  0
ENDBLK
  5
80A0
330
8095
100
AcDbEntity
  8
0
100
AcDbBlockEnd
  0
BLOCK
  5
80AD
330
80A3
100
AcDbEntity
  8
0
100
AcDbBlockBegin
  2
*D52
 70
     1
 10
0.0
 20
0.0
 30
0.0
  3
*D52
  1

  0
LINE
  5
8120
330
80A3
100
AcDbEntity
  8
30
  6
CONTINUOUS
 62
     0
100
AcDbLine
 10
950.0001220703
 20
-431.0
 30
0.0
 11
997.5858625891254
 21
-431.0
 31
0.0
  0
LINE
  5
8121
330
80A3
100
AcDbEntity
  8
30
  6
CONTINUOUS
 62
     0
100
AcDbLine
 10
912.0001220703001
 20
-601.0
 30
0.0
 11
997.5858625891254
 21
-601.0
 31
0.0
  0
LINE
  5
8122
330
80A3
100
AcDbEntity
  8
30
  6
CONTINUOUS
 62
     0
100
AcDbLine
 10
997.0858625891251
 20
-433.0
 30
0.0
 11
997.0858625891251
 21
-599.0
 31
0.0
  0
INSERT
  5
8123
330
80A3
100
AcDbEntity
  8
30
  6
CONTINUOUS
 62
     0
100
AcDbBlockReference
  2
_OPEN
 10
997.0858625891251
 20
-431.0
 30
0.0
 41
2.0
 42
2.0
 43
2.0
 50
90.0
  0
INSERT
  5
8124
330
80A3
100
AcDbEntity
  8
30
  6
CONTINUOUS
 62
     0
100
AcDbBlockReference
  2
_OPEN
 10
997.0858625891251
 20
-601.0
 30
0.0
 41
2.0
 42
2.0
 43
2.0
 50
270.0
  0
MTEXT
  5
8125
330
80A3
100
AcDbEntity
  8
30
  6
CONTINUOUS
 62
     0
100
AcDbMText
 10
992.0858625891254
 20
-515.9999999999999
 30
0.0
 40
8.0
 41
0.0
 71
     5
 72
     1
  1
\A1;170
 11
0.0000000000000001
 21
1.0
 31
0.0
1001
ACAD
1000
MTEXTBEGIN
1070
    73
1070
     1
1070
    44
1040
1.0
1070
    74
1070
     0
1000
MTEXTEND
  0
POINT
  5
8126
330
80A3
100
AcDbEntity
  8
DEFPOINTS
  6
CONTINUOUS
 62
     0
100
AcDbPoint
 10
945.0001220702999
 20
-431.0
 30
0.0
  0
POINT
  5
8127
330
80A3
100
AcDbEntity
  8
DEFPOINTS
  6
CONTINUOUS
 62
     0
100
AcDbPoint
 10
907.0001220703
 20
-601.0
 30
0.0
  0
POINT
  5
8128
330
80A3
100
AcDbEntity
  8
DEFPOINTS
  6
CONTINUOUS
 62
     0
100
AcDbPoint
 10
997.0858625891251
 20
-601.0
 30
0.0
  0
ENDBLK
  5
80AE
330
80A3
100
AcDbEntity
  8
0
100
AcDbBlockEnd
  0
BLOCK
  5
80BA
330
80B0
100
AcDbEntity
  8
0
100
AcDbBlockBegin
  2
*D53
 70
     1
 10
0.0
 20
0.0
 30
0.0
  3
*D53
  1

  0
LINE
  5
8105
330
80B0
100
AcDbEntity
  8
30
  6
CONTINUOUS
 62
     0
100
AcDbLine
 10
917.0001220702999
 20
-601.0
 30
0.0
 11
997.5858625891254
 21
-601.0
 31
0.0
  0
LINE
  5
8106
330
80B0
100
AcDbEntity
  8
30
  6
CONTINUOUS
 62
     0
100
AcDbLine
 10
945.0001220702999
 20
-791.0
 30
0.0
 11
997.5858625891254
 21
-791.0
 31
0.0
  0
LINE
  5
8107
330
80B0
100
AcDbEntity
  8
30
  6
CONTINUOUS
 62
     0
100
AcDbLine
 10
997.0858625891256
 20
-603.0
 30
0.0
 11
997.0858625891251
 21
-789.0
 31
0.0
  0
INSERT
  5
8108
330
80B0
100
AcDbEntity
  8
30
  6
CONTINUOUS
 62
     0
100
AcDbBlockReference
  2
_OPEN
 10
997.0858625891256
 20
-601.0
 30
0.0
 41
2.0
 42
2.0
 43
2.0
 50
90.0
  0
INSERT
  5
8109
330
80B0
100
AcDbEntity
  8
30
  6
CONTINUOUS
 62
     0
100
AcDbBlockReference
  2
_OPEN
 10
997.0858625891251
 20
-791.0
 30
0.0
 41
2.0
 42
2.0
 43
2.0
 50
270.0
  0
MTEXT
  5
810A
330
80B0
100
AcDbEntity
  8
30
  6
CONTINUOUS
 62
     0
100
AcDbMText
 10
992.0858625891256
 20
-695.9999999999999
 30
0.0
 40
8.0
 41
0.0
 71
     5
 72
     1
  1
\A1;190
 11
0.0000000000000001
 21
1.0
 31
0.0
1001
ACAD
1000
MTEXTBEGIN
1070
    73
1070
     1
1070
    44
1040
1.0
1070
    74
1070
     0
1000
MTEXTEND
  0
POINT
  5
810B
330
80B0
100
AcDbEntity
  8
DEFPOINTS
  6
CONTINUOUS
 62
     0
100
AcDbPoint
 10
912.0001220703001
 20
-601.0
 30
0.0
  0
POINT
  5
810C
330
80B0
100
AcDbEntity
  8
DEFPOINTS
  6
CONTINUOUS
 62
     0
100
AcDbPoint
 10
940.0001220703
 20
-791.0
 30
0.0
  0
POINT
  5
810D
330
80B0
100
AcDbEntity
  8
DEFPOINTS
  6
CONTINUOUS
 62
     0
100
AcDbPoint
 10
997.0858625891251
 20
-791.0
 30
0.0
  0
ENDBLK
  5
80BB
330
80B0
100
AcDbEntity
  8
0
100
AcDbBlockEnd
  0
BLOCK
  5
80D0
330
80C6
100
AcDbEntity
  8
0
100
AcDbBlockBegin
  2
*D54
 70
     1
 10
0.0
 20
0.0
 30
0.0
  3
*D54
  1

  0
LINE
  5
8117
330
80C6
100
AcDbEntity
  8
30
  6
CONTINUOUS
 62
     0
100
AcDbLine
 10
950.0001220703
 20
-791.0
 30
0.0
 11
969.2364119032683
 21
-791.0
 31
0.0
  0
LINE
  5
8118
330
80C6
100
AcDbEntity
  8
30
  6
CONTINUOUS
 62
     0
100
AcDbLine
 10
918.0001220702999
 20
-771.0
 30
0.0
 11
969.2364119032683
 21
-771.0
 31
0.0
  0
LINE
  5
8119
330
80C6
100
AcDbEntity
  8
30
  6
CONTINUOUS
 62
     0
100
AcDbLine
 10
968.7364119032684
 20
-789.0
 30
0.0
 11
968.7364119032684
 21
-773.0
 31
0.0
  0
INSERT
  5
811A
330
80C6
100
AcDbEntity
  8
30
  6
CONTINUOUS
 62
     0
100
AcDbBlockReference
  2
_OPEN
 10
968.7364119032684
 20
-791.0
 30
0.0
 41
2.0
 42
2.0
 43
2.0
 50
270.0
  0
INSERT
  5
811B
330
80C6
100
AcDbEntity
  8
30
  6
CONTINUOUS
 62
     0
100
AcDbBlockReference
  2
_OPEN
 10
968.7364119032684
 20
-771.0
 30
0.0
 41
2.0
 42
2.0
 43
2.0
 50
90.0
  0
MTEXT
  5
811C
330
80C6
100
AcDbEntity
  8
30
  6
CONTINUOUS
 62
     0
100
AcDbMText
 10
963.7364119032683
 20
-780.9999999999996
 30
0.0
 40
8.0
 41
0.0
 71
     5
 72
     1
  1
\A1;20
 11
0.0000000000000001
 21
1.0
 31
0.0
1001
ACAD
1000
MTEXTBEGIN
1070
    73
1070
     1
1070
    44
1040
1.0
1070
    74
1070
     0
1000
MTEXTEND
  0
POINT
  5
811D
330
80C6
100
AcDbEntity
  8
DEFPOINTS
  6
CONTINUOUS
 62
     0
100
AcDbPoint
 10
945.0001220702999
 20
-791.0
 30
0.0
  0
POINT
  5
811E
330
80C6
100
AcDbEntity
  8
DEFPOINTS
  6
CONTINUOUS
 62
     0
100
AcDbPoint
 10
913.0001220703
 20
-771.0
 30
0.0
  0
POINT
  5
811F
330
80C6
100
AcDbEntity
  8
DEFPOINTS
  6
CONTINUOUS
 62
     0
100
AcDbPoint
 10
968.7364119032684
 20
-771.0
 30
0.0
  0
ENDBLK
  5
80D1
330
80C6
100
AcDbEntity
  8
0
100
AcDbBlockEnd
  0
BLOCK
  5
8101
330
80F7
100
AcDbEntity
  8
0
100
AcDbBlockBegin
  2
*D55
 70
     1
 10
0.0
 20
0.0
 30
0.0
  3
*D55
  1

  0
LINE
  5
810E
330
80F7
100
AcDbEntity
  8
30
  6
CONTINUOUS
 62
     0
100
AcDbLine
 10
907.0001220703
 20
-826.0
 30
0.0
 11
907.0001220703
 21
-894.1351367055514
 31
0.0
  0
LINE
  5
810F
330
80F7
100
AcDbEntity
  8
30
  6
CONTINUOUS
 62
     0
100
AcDbLine
 10
692.0
 20
-859.0
 30
0.0
 11
692.0
 21
-894.1351367055514
 31
0.0
  0
LINE
  5
8110
330
80F7
100
AcDbEntity
  8
30
  6
CONTINUOUS
 62
     0
100
AcDbLine
 10
905.0001220703
 20
-893.6351367055513
 30
0.0
 11
694.0
 21
-893.6351367055513
 31
0.0
  0
INSERT
  5
8111
330
80F7
100
AcDbEntity
  8
30
  6
CONTINUOUS
 62
     0
100
AcDbBlockReference
  2
_OPEN
 10
907.0001220703
 20
-893.6351367055513
 30
0.0
 41
2.0
 42
2.0
 43
2.0
  0
INSERT
  5
8112
330
80F7
100
AcDbEntity
  8
30
  6
CONTINUOUS
 62
     0
100
AcDbBlockReference
  2
_OPEN
 10
692.0
 20
-893.6351367055513
 30
0.0
 41
2.0
 42
2.0
 43
2.0
 50
180.0
  0
MTEXT
  5
8113
330
80F7
100
AcDbEntity
  8
30
  6
CONTINUOUS
 62
     0
100
AcDbMText
 10
799.50006103515
 20
-888.6351367055512
 30
0.0
 40
8.0
 41
0.0
 71
     5
 72
     1
  1
\A1;215
1001
ACAD
1000
MTEXTBEGIN
1070
    73
1070
     1
1070
    44
1040
1.0
1070
    74
1070
     0
1000
MTEXTEND
  0
POINT
  5
8114
330
80F7
100
AcDbEntity
  8
DEFPOINTS
  6
CONTINUOUS
 62
     0
100
AcDbPoint
 10
907.0001220703
 20
-821.0
 30
0.0
  0
POINT
  5
8115
330
80F7
100
AcDbEntity
  8
DEFPOINTS
  6
CONTINUOUS
 62
     0
100
AcDbPoint
 10
692.0
 20
-854.0
 30
0.0
  0
POINT
  5
8116
330
80F7
100
AcDbEntity
  8
DEFPOINTS
  6
CONTINUOUS
 62
     0
100
AcDbPoint
 10
692.0
 20
-893.6351367055513
 30
0.0
  0
ENDBLK
  5
8102
330
80F7
100
AcDbEntity
  8
0
100
AcDbBlockEnd
  0
BLOCK
  5
820C
330
8202
100
AcDbEntity
  8
0
100
AcDbBlockBegin
  2
*D56
 70
     1
 10
0.0
 20
0.0
 30
0.0
  3
*D56
  1

  0
LINE
  5
82F9
330
8202
100
AcDbEntity
  8
30
  6
CONTINUOUS
 62
     0
100
AcDbLine
 10
-99.99999999999978
 20
535.3373488374497
 30
0.0
 11
-99.9999999999998
 21
354.5631140044442
 31
0.0
  0
LINE
  5
82FA
330
8202
100
AcDbEntity
  8
30
  6
CONTINUOUS
 62
     0
100
AcDbLine
 10
-0.0000000000000003
 20
437.5196003617957
 30
0.0
 11
-0.0000000000000054
 21
354.5631140044442
 31
0.0
  0
LINE
  5
82FB
330
8202
100
AcDbEntity
  8
30
  6
CONTINUOUS
 62
     0
100
AcDbLine
 10
-97.99999999999981
 20
355.0631140044442
 30
0.0
 11
-2.000000000000005
 21
355.0631140044442
 31
0.0
  0
INSERT
  5
82FC
330
8202
100
AcDbEntity
  8
30
  6
CONTINUOUS
 62
     0
100
AcDbBlockReference
  2
_OPEN
 10
-99.9999999999998
 20
355.0631140044442
 30
0.0
 41
2.0
 42
2.0
 43
2.0
 50
180.0
  0
INSERT
  5
82FD
330
8202
100
AcDbEntity
  8
30
  6
CONTINUOUS
 62
     0
100
AcDbBlockReference
  2
_OPEN
 10
-0.0000000000000054
 20
355.0631140044442
 30
0.0
 41
2.0
 42
2.0
 43
2.0
  0
MTEXT
  5
82FE
330
8202
100
AcDbEntity
  8
30
  6
CONTINUOUS
 62
     0
100
AcDbMText
 10
-52.43996826262264
 20
360.0631140044443
 30
0.0
 40
8.0
 41
0.0
 71
     5
 72
     1
  1
\A1;100
1001
ACAD
1000
MTEXTBEGIN
1070
    73
1070
     1
1070
    44
1040
1.0
1070
    74
1070
     0
1000
MTEXTEND
  0
POINT
  5
82FF
330
8202
100
AcDbEntity
  8
DEFPOINTS
  6
CONTINUOUS
 62
     0
100
AcDbPoint
 10
-99.99999999999978
 20
540.3373488374497
 30
0.0
  0
POINT
  5
8300
330
8202
100
AcDbEntity
  8
DEFPOINTS
  6
CONTINUOUS
 62
     0
100
AcDbPoint
 10
0.0
 20
442.5196003617957
 30
0.0
  0
POINT
  5
8301
330
8202
100
AcDbEntity
  8
DEFPOINTS
  6
CONTINUOUS
 62
     0
100
AcDbPoint
 10
-0.0000000000000054
 20
355.0631140044442
 30
0.0
  0
ENDBLK
  5
820D
330
8202
100
AcDbEntity
  8
0
100
AcDbBlockEnd
  0
BLOCK
  5
822B
330
8221
100
AcDbEntity
  8
0
100
AcDbBlockBegin
  2
*D57
 70
     1
 10
0.0
 20
0.0
 30
0.0
  3
*D57
  1

  0
LINE
  5
830F
330
8221
100
AcDbEntity
  8
30
  6
CONTINUOUS
 62
     0
100
AcDbLine
 10
-99.99999999999978
 20
-840.9998779296998
 30
0.0
 11
-99.99999999999978
 21
-926.8716017435801
 31
0.0
  0
LINE
  5
8310
330
8221
100
AcDbEntity
  8
30
  6
CONTINUOUS
 62
     0
100
AcDbLine
 10
-0.0000000000000003
 20
-796.5926135610889
 30
0.0
 11
-0.0000000000000083
 21
-926.8716017435801
 31
0.0
  0
LINE
  5
8311
330
8221
100
AcDbEntity
  8
30
  6
CONTINUOUS
 62
     0
100
AcDbLine
 10
-97.99999999999979
 20
-926.3716017435802
 30
0.0
 11
-2.000000000000008
 21
-926.3716017435802
 31
0.0
  0
INSERT
  5
8312
330
8221
100
AcDbEntity
  8
30
  6
CONTINUOUS
 62
     0
100
AcDbBlockReference
  2
_OPEN
 10
-99.99999999999978
 20
-926.3716017435802
 30
0.0
 41
2.0
 42
2.0
 43
2.0
 50
180.0
  0
INSERT
  5
8313
330
8221
100
AcDbEntity
  8
30
  6
CONTINUOUS
 62
     0
100
AcDbBlockReference
  2
_OPEN
 10
-0.0000000000000083
 20
-926.3716017435802
 30
0.0
 41
2.0
 42
2.0
 43
2.0
  0
MTEXT
  5
8314
330
8221
100
AcDbEntity
  8
30
  6
CONTINUOUS
 62
     0
100
AcDbMText
 10
-49.9999999999999
 20
-921.3716017435801
 30
0.0
 40
8.0
 41
0.0
 71
     5
 72
     1
  1
\A1;100
1001
ACAD
1000
MTEXTBEGIN
1070
    73
1070
     1
1070
    44
1040
1.0
1070
    74
1070
     0
1000
MTEXTEND
  0
POINT
  5
8315
330
8221
100
AcDbEntity
  8
DEFPOINTS
  6
CONTINUOUS
 62
     0
100
AcDbPoint
 10
-99.99999999999978
 20
-835.9998779296997
 30
0.0
  0
POINT
  5
8316
330
8221
100
AcDbEntity
  8
DEFPOINTS
  6
CONTINUOUS
 62
     0
100
AcDbPoint
 10
0.0
 20
-791.5926135610889
 30
0.0
  0
POINT
  5
8317
330
8221
100
AcDbEntity
  8
DEFPOINTS
  6
CONTINUOUS
 62
     0
100
AcDbPoint
 10
-0.0000000000000083
 20
-926.3716017435802
 30
0.0
  0
ENDBLK
  5
822C
330
8221
100
AcDbEntity
  8
0
100
AcDbBlockEnd
  0
BLOCK
  5
8282
330
8279
100
AcDbEntity
  8
0
100
AcDbBlockBegin
  2
*D61
 70
     1
 10
0.0
 20
0.0
 30
0.0
  3
*D61
  1

  0
LINE
  5
82B7
330
8279
100
AcDbEntity
  8
30
  6
CONTINUOUS
 62
     0
100
AcDbLine
 10
871.2440671286792
 20
-85.11565626740207
 30
0.0
 11
896.2440671286792
 21
-85.11565626740207
 31
0.0
  0
LINE
  5
82B8
330
8279
100
AcDbEntity
  8
30
  6
CONTINUOUS
 62
     0
100
AcDbLine
 10
896.2440671286792
 20
-85.11565626740207
 30
0.0
 11
932.566746743058
 21
-111.3760611071058
 31
0.0
  0
MTEXT
  5
82B9
330
8279
100
AcDbEntity
  8
30
  6
CONTINUOUS
 62
     0
100
AcDbMText
 10
883.2440671286791
 20
-80.11565626740202
 30
0.0
 40
8.0
 41
0.0
 71
     5
 72
     1
  1
\A1;\U+22058.2
1001
ACAD
1000
MTEXTBEGIN
1070
    73
1070
     1
1070
    44
1040
1.0
1070
    74
1070
     0
1000
MTEXTEND
  0
INSERT
  5
82BA
330
8279
100
AcDbEntity
  8
30
  6
CONTINUOUS
 62
     0
100
AcDbBlockReference
  2
_OPEN
 10
934.1875255642229
 20
-112.5478443690036
 30
0.0
 41
2.0
 42
2.0
 43
2.0
 50
324.1339953469384
  0
LINE
  5
82BB
330
8279
100
AcDbEntity
  8
30
  6
CONTINUOUS
 62
     0
100
AcDbLine
 10
937.4201220702994
 20
-114.95
 30
0.0
 11
937.6001220702997
 21
-114.95
 31
0.0
  0
LINE
  5
82BC
330
8279
100
AcDbEntity
  8
30
  6
CONTINUOUS
 62
     0
100
AcDbLine
 10
937.5101220702996
 20
-115.0400000000001
 30
0.0
 11
937.5101220702996
 21
-114.86
 31
0.0
  0
POINT
  5
82BD
330
8279
100
AcDbEntity
  8
DEFPOINTS
  6
CONTINUOUS
 62
     0
100
AcDbPoint
 10
934.1875255642229
 20
-112.5478443690036
 30
0.0
  0
POINT
  5
82BE
330
8279
100
AcDbEntity
  8
DEFPOINTS
  6
CONTINUOUS
 62
     0
100
AcDbPoint
 10
940.8327185763759
 20
-117.3521556309965
 30
0.0
  0
ENDBLK
  5
8283
330
8279
100
AcDbEntity
  8
0
100
AcDbBlockEnd
  0
BLOCK
  5
828E
330
8284
100
AcDbEntity
  8
0
100
AcDbBlockBegin
  2
*D62
 70
     1
 10
0.0
 20
0.0
 30
0.0
  3
*D62
  1

  0
LINE
  5
82A4
330
8284
100
AcDbEntity
  8
30
  6
CONTINUOUS
 62
     0
100
AcDbLine
 10
937.0101220703004
 20
-108.9499999999999
 30
0.0
 11
937.0101220703004
 21
-45.81859550944318
 31
0.0
  0
LINE
  5
82A5
330
8284
100
AcDbEntity
  8
30
  6
CONTINUOUS
 62
     0
100
AcDbLine
 10
907.0001220703
 20
-57.5
 30
0.0
 11
907.0001220703
 21
-45.81859550944318
 31
0.0
  0
LINE
  5
82A6
330
8284
100
AcDbEntity
  8
30
  6
CONTINUOUS
 62
     0
100
AcDbLine
 10
935.0101220703002
 20
-46.31859550944319
 30
0.0
 11
909.0001220702999
 21
-46.31859550944319
 31
0.0
  0
INSERT
  5
82A7
330
8284
100
AcDbEntity
  8
30
  6
CONTINUOUS
 62
     0
100
AcDbBlockReference
  2
_OPEN
 10
937.0101220703004
 20
-46.31859550944319
 30
0.0
 41
2.0
 42
2.0
 43
2.0
  0
INSERT
  5
82A8
330
8284
100
AcDbEntity
  8
30
  6
CONTINUOUS
 62
     0
100
AcDbBlockReference
  2
_OPEN
 10
907.0001220703
 20
-46.31859550944319
 30
0.0
 41
2.0
 42
2.0
 43
2.0
 50
180.0
  0
MTEXT
  5
82A9
330
8284
100
AcDbEntity
  8
30
  6
CONTINUOUS
 62
     0
100
AcDbMText
 10
922.0051220703
 20
-41.31859550944319
 30
0.0
 40
8.0
 41
0.0
 71
     5
 72
     1
  1
\A1;30
1001
ACAD
1000
MTEXTBEGIN
1070
    73
1070
     1
1070
    44
1040
1.0
1070
    74
1070
     0
1000
MTEXTEND
  0
POINT
  5
82AA
330
8284
100
AcDbEntity
  8
DEFPOINTS
  6
CONTINUOUS
 62
     0
100
AcDbPoint
 10
937.0101220703004
 20
-113.9499999999999
 30
0.0
  0
POINT
  5
82AB
330
8284
100
AcDbEntity
  8
DEFPOINTS
  6
CONTINUOUS
 62
     0
100
AcDbPoint
 10
907.0001220703
 20
-62.5
 30
0.0
  0
POINT
  5
82AC
330
8284
100
AcDbEntity
  8
DEFPOINTS
  6
CONTINUOUS
 62
     0
100
AcDbPoint
 10
907.0001220703
 20
-46.31859550944319
 30
0.0
  0
ENDBLK
  5
828F
330
8284
100
AcDbEntity
  8
0
100
AcDbBlockEnd
  0
BLOCK
  5
829A
330
8290
100
AcDbEntity
  8
0
100
AcDbBlockBegin
  2
*D63
 70
     1
 10
0.0
 20
0.0
 30
0.0
  3
*D63
  1

  0
LINE
  5
82AD
330
8290
100
AcDbEntity
  8
30
  6
CONTINUOUS
 62
     0
100
AcDbLine
 10
942.5101220702995
 20
-115.04
 30
0.0
 11
954.473859504109
 21
-115.04
 31
0.0
  0
LINE
  5
82AE
330
8290
100
AcDbEntity
  8
30
  6
CONTINUOUS
 62
     0
100
AcDbLine
 10
912.0001220703001
 20
-0.0000000000000014
 30
0.0
 11
954.473859504109
 21
-0.0000000000000134
 31
0.0
  0
LINE
  5
82AF
330
8290
100
AcDbEntity
  8
30
  6
CONTINUOUS
 62
     0
100
AcDbLine
 10
953.973859504109
 20
-113.04
 30
0.0
 11
953.973859504109
 21
-2.000000000000013
 31
0.0
  0
INSERT
  5
82B0
330
8290
100
AcDbEntity
  8
30
  6
CONTINUOUS
 62
     0
100
AcDbBlockReference
  2
_OPEN
 10
953.973859504109
 20
-115.04
 30
0.0
 41
2.0
 42
2.0
 43
2.0
 50
270.0
  0
INSERT
  5
82B1
330
8290
100
AcDbEntity
  8
30
  6
CONTINUOUS
 62
     0
100
AcDbBlockReference
  2
_OPEN
 10
953.973859504109
 20
-0.0000000000000133
 30
0.0
 41
2.0
 42
2.0
 43
2.0
 50
90.0
  0
MTEXT
  5
82B2
330
8290
100
AcDbEntity
  8
30
  6
CONTINUOUS
 62
     0
100
AcDbMText
 10
948.9738595041089
 20
-57.51999999999986
 30
0.0
 40
8.0
 41
0.0
 71
     5
 72
     1
  1
\A1;115
 11
0.0000000000000001
 21
1.0
 31
0.0
1001
ACAD
1000
MTEXTBEGIN
1070
    73
1070
     1
1070
    44
1040
1.0
1070
    74
1070
     0
1000
MTEXTEND
  0
POINT
  5
82B3
330
8290
100
AcDbEntity
  8
DEFPOINTS
  6
CONTINUOUS
 62
     0
100
AcDbPoint
 10
937.5101220702994
 20
-115.04
 30
0.0
  0
POINT
  5
82B4
330
8290
100
AcDbEntity
  8
DEFPOINTS
  6
CONTINUOUS
 62
     0
100
AcDbPoint
 10
907.0001220703
 20
0.0
 30
0.0
  0
POINT
  5
82B5
330
8290
100
AcDbEntity
  8
DEFPOINTS
  6
CONTINUOUS
 62
     0
100
AcDbPoint
 10
953.973859504109
 20
-0.0000000000000133
 30
0.0
  0
ENDBLK
  5
829B
330
8290
100
AcDbEntity
  8
0
100
AcDbBlockEnd
  0
BLOCK
  5
830D
330
8303
100
AcDbEntity
  8
0
100
AcDbBlockBegin
  2
*D65
 70
     1
 10
0.0
 20
0.0
 30
0.0
  3
*D65
  1

  0
LINE
  5
8304
330
8303
100
AcDbEntity
  8
30
  6
CONTINUOUS
 62
     0
100
AcDbLine
 10
-0.0000000000000006
 20
432.5196003617957
 30
0.0
 11
-0.0000000000000054
 21
354.5631140044442
 31
0.0
  0
LINE
  5
8305
330
8303
100
AcDbEntity
  8
30
  6
CONTINUOUS
 62
     0
100
AcDbLine
 10
170.0
 20
535.3373488374497
 30
0.0
 11
170.0
 21
354.5631140044442
 31
0.0
  0
LINE
  5
8306
330
8303
100
AcDbEntity
  8
30
  6
CONTINUOUS
 62
     0
100
AcDbLine
 10
1.999999999999994
 20
355.0631140044442
 30
0.0
 11
168.0
 21
355.0631140044442
 31
0.0
  0
INSERT
  5
8307
330
8303
100
AcDbEntity
  8
30
  6
CONTINUOUS
 62
     0
100
AcDbBlockReference
  2
_OPEN
 10
-0.0000000000000054
 20
355.0631140044442
 30
0.0
 41
2.0
 42
2.0
 43
2.0
 50
180.0
  0
INSERT
  5
8308
330
8303
100
AcDbEntity
  8
30
  6
CONTINUOUS
 62
     0
100
AcDbBlockReference
  2
_OPEN
 10
170.0
 20
355.0631140044442
 30
0.0
 41
2.0
 42
2.0
 43
2.0
  0
MTEXT
  5
8309
330
8303
100
AcDbEntity
  8
30
  6
CONTINUOUS
 62
     0
100
AcDbMText
 10
85.0
 20
360.0631140044443
 30
0.0
 40
8.0
 41
0.0
 71
     5
 72
     1
  1
\A1;170
1001
ACAD
1000
MTEXTBEGIN
1070
    73
1070
     1
1070
    44
1040
1.0
1070
    74
1070
     0
1000
MTEXTEND
  0
POINT
  5
830A
330
8303
100
AcDbEntity
  8
DEFPOINTS
  6
CONTINUOUS
 62
     0
100
AcDbPoint
 10
-0.0000000000000003
 20
437.5196003617957
 30
0.0
  0
POINT
  5
830B
330
8303
100
AcDbEntity
  8
DEFPOINTS
  6
CONTINUOUS
 62
     0
100
AcDbPoint
 10
170.0
 20
540.3373488374497
 30
0.0
  0
POINT
  5
830C
330
8303
100
AcDbEntity
  8
DEFPOINTS
  6
CONTINUOUS
 62
     0
100
AcDbPoint
 10
170.0
 20
355.0631140044442
 30
0.0
  0
ENDBLK
  5
830E
330
8303
100
AcDbEntity
  8
0
100
AcDbBlockEnd
  0
BLOCK
  5
8330
330
8326
100
AcDbEntity
  8
0
100
AcDbBlockBegin
  2
*D67
 70
     1
 10
0.0
 20
0.0
 30
0.0
  3
*D67
  1

  0
LINE
  5
8332
330
8326
100
AcDbEntity
  8
30
  6
CONTINUOUS
 62
     0
100
AcDbLine
 10
-0.0000000000000003
 20
-832.0
 30
0.0
 11
-0.0000000000000061
 21
-926.8716017435801
 31
0.0
  0
LINE
  5
8333
330
8326
100
AcDbEntity
  8
30
  6
CONTINUOUS
 62
     0
100
AcDbLine
 10
169.9999999999999
 20
-876.0
 30
0.0
 11
169.9999999999999
 21
-926.8716017435801
 31
0.0
  0
LINE
  5
8334
330
8326
100
AcDbEntity
  8
30
  6
CONTINUOUS
 62
     0
100
AcDbLine
 10
1.999999999999993
 20
-926.3716017435802
 30
0.0
 11
167.9999999999999
 21
-926.3716017435802
 31
0.0
  0
INSERT
  5
8335
330
8326
100
AcDbEntity
  8
30
  6
CONTINUOUS
 62
     0
100
AcDbBlockReference
  2
_OPEN
 10
-0.0000000000000061
 20
-926.3716017435802
 30
0.0
 41
2.0
 42
2.0
 43
2.0
 50
180.0
  0
INSERT
  5
8336
330
8326
100
AcDbEntity
  8
30
  6
CONTINUOUS
 62
     0
100
AcDbBlockReference
  2
_OPEN
 10
169.9999999999999
 20
-926.3716017435802
 30
0.0
 41
2.0
 42
2.0
 43
2.0
  0
MTEXT
  5
8337
330
8326
100
AcDbEntity
  8
30
  6
CONTINUOUS
 62
     0
100
AcDbMText
 10
84.99999999999998
 20
-921.3716017435801
 30
0.0
 40
8.0
 41
0.0
 71
     5
 72
     1
  1
\A1;170
1001
ACAD
1000
MTEXTBEGIN
1070
    73
1070
     1
1070
    44
1040
1.0
1070
    74
1070
     0
1000
MTEXTEND
  0
POINT
  5
8338
330
8326
100
AcDbEntity
  8
DEFPOINTS
  6
CONTINUOUS
 62
     0
100
AcDbPoint
 10
0.0
 20
-827.0
 30
0.0
  0
POINT
  5
8339
330
8326
100
AcDbEntity
  8
DEFPOINTS
  6
CONTINUOUS
 62
     0
100
AcDbPoint
 10
169.9999999999999
 20
-871.0
 30
0.0
  0
POINT
  5
833A
330
8326
100
AcDbEntity
  8
DEFPOINTS
  6
CONTINUOUS
 62
     0
100
AcDbPoint
 10
169.9999999999999
 20
-926.3716017435802
 30
0.0
  0
ENDBLK
  5
8331
330
8326
100
AcDbEntity
  8
0
100
AcDbBlockEnd
  0
ENDSEC
  0
SECTION
  2
ENTITIES
  0
LINE
  5
B5
330
1E
100
AcDbEntity
  8
16
100
AcDbLine
 10
257.6361914121166
 20
0.0000000000000107
 30
0.0
 11
-145.0
 21
0.0
 31
0.0
  0
MTEXT
  5
BF3
330
1E
100
AcDbEntity
  8
24
  6
CONTINUOUS
100
AcDbMText
 10
142.1181906098743
 20
177.5
 30
0.0
 40
3.0
 41
0.0
 71
     1
 72
     1
  1
\A1;
1001
ACAD
1000
MTEXTBEGIN
1070
    73
1070
     1
1070
    44
1040
1.0
1070
    74
1070
     0
1000
MTEXTEND
  0
LINE
  5
1C9A
330
1E
100
AcDbEntity
  8
16
100
AcDbLine
 10
0.0
 20
442.5196003617957
 30
0.0
 11
0.0
 21
620.5196003617957
 31
0.0
  0
LINE
  5
1C9B
330
1E
100
AcDbEntity
  8
16
100
AcDbLine
 10
1139.622771828753
 20
0.0
 30
0.0
 11
387.0
 21
0.0
 31
0.0
  0
LINE
  5
2260
330
1E
100
AcDbEntity
  8
16
100
AcDbLine
 10
202.1634296945399
 20
-601.0
 30
0.0
 11
-166.0
 21
-601.0
 31
0.0
  0
LINE
  5
2261
330
1E
100
AcDbEntity
  8
16
100
AcDbLine
 10
0.0
 20
-791.5926135610889
 30
0.0
 11
0.0
 21
-375.8062147299115
 31
0.0
  0
MTEXT
  5
5D8A
330
1E
100
AcDbEntity
  8
19
  6
CONTINUOUS
100
AcDbMText
 10
685.9781581780007
 20
690.4067160988287
 30
0.0
 40
7.0
 41
94.0
 71
     1
 72
     5
  1
XS1600NE 4P DO
  7
STANDARD1
1001
ACAD
1000
MTEXTBEGIN
1070
    73
1070
     1
1070
    44
1040
1.0
1070
    74
1070
     0
1000
MTEXTEND
  0
LINE
  5
7514
330
1E
100
AcDbEntity
  8
16
100
AcDbLine
 10
0.0
 20
-225.5943258971377
 30
0.0
 11
0.0
 21
223.9297673754971
 31
0.0
  0
LWPOLYLINE
  5
768F
330
1E
100
AcDbEntity
  8
18
100
AcDbPolyline
 90
        5
 70
     0
 43
0.0
 10
220.0
 20
-401.0
 10
220.0
 20
-821.0
 10
-150.0
 20
-821.0
 10
-150.0
 20
-401.0
 10
220.0
 20
-401.0
  0
LWPOLYLINE
  5
7690
330
1E
100
AcDbEntity
  8
24
  6
CONTINUOUS
 62
     2
100
AcDbPolyline
 90
        2
 70
     0
 43
0.0
 10
-168.1430664062999
 20
-815.0
 10
231.005859375
 20
-815.0
  0
LWPOLYLINE
  5
7691
330
1E
100
AcDbEntity
  8
24
  6
CONTINUOUS
 62
     2
100
AcDbPolyline
 90
        2
 70
     0
 43
0.0
 10
-168.1430664062999
 20
-827.0
 10
231.005859375
 20
-827.0
  0
LWPOLYLINE
  5
7694
330
1E
100
AcDbEntity
  8
12
100
AcDbPolyline
 90
        2
 70
     0
 43
0.0
 10
-112.5
 20
-811.0
 10
-112.5
 20
-771.0
  0
CIRCLE
  5
7695
330
1E
100
AcDbEntity
  8
12
100
AcDbCircle
 10
-112.5
 20
-791.0
 30
0.0
 40
6.0
  0
LWPOLYLINE
  5
7696
330
1E
100
AcDbEntity
  8
12
100
AcDbPolyline
 90
        2
 70
     0
 43
0.0
 10
-132.4999999999999
 20
-791.0
 10
-92.5
 20
-791.0
  0
LWPOLYLINE
  5
7697
330
1E
100
AcDbEntity
  8
12
100
AcDbPolyline
 90
        2
 70
     0
 43
0.0
 10
182.5
 20
-811.0
 10
182.5
 20
-771.0
  0
CIRCLE
  5
769A
330
1E
100
AcDbEntity
  8
12
100
AcDbCircle
 10
182.5
 20
-791.0
 30
0.0
 40
6.0
  0
LWPOLYLINE
  5
769B
330
1E
100
AcDbEntity
  8
12
100
AcDbPolyline
 90
        2
 70
     0
 43
0.0
 10
162.5
 20
-791.0
 10
202.4999999999999
 20
-791.0
  0
LWPOLYLINE
  5
769C
330
1E
100
AcDbEntity
  8
24
  6
CONTINUOUS
 62
     2
100
AcDbPolyline
 90
        4
 70
     0
 43
0.0
 10
-174.3190917968999
 20
-417.5306396484999
 10
-170.3847311652896
 20
-407.0
 10
231.6022035227569
 20
-407.0
 10
232.9074707030998
 20
-420.1326904296998
  0
CIRCLE
  5
76A1
330
1E
100
AcDbEntity
  8
12
100
AcDbCircle
 10
-112.5
 20
-431.0
 30
0.0
 40
6.0
  0
LWPOLYLINE
  5
76A2
330
1E
100
AcDbEntity
  8
12
100
AcDbPolyline
 90
        2
 70
     0
 43
0.0
 10
-132.4999999999999
 20
-431.0
 10
-92.5
 20
-431.0
  0
CIRCLE
  5
76A4
330
1E
100
AcDbEntity
  8
12
100
AcDbCircle
 10
182.5
 20
-431.0
 30
0.0
 40
6.0
  0
LWPOLYLINE
  5
76A5
330
1E
100
AcDbEntity
  8
12
100
AcDbPolyline
 90
        2
 70
     0
 43
0.0
 10
162.5
 20
-431.0
 10
202.4999999999999
 20
-431.0
  0
LINE
  5
76C7
330
1E
100
AcDbEntity
  8
12
100
AcDbLine
 10
182.5
 20
-415.9997558593
 30
0.0
 11
182.5
 21
-446.0
 31
0.0
  0
LINE
  5
76C9
330
1E
100
AcDbEntity
  8
12
100
AcDbLine
 10
-112.5
 20
-415.9997558593
 30
0.0
 11
-112.5
 21
-446.0
 31
0.0
  0
CIRCLE
  5
787D
330
1E
100
AcDbEntity
  8
18
100
AcDbCircle
 10
401.2315250447239
 20
8.845360839738534
 30
0.0
 40
20.00000000000003
  0
LWPOLYLINE
  5
787E
330
1E
100
AcDbEntity
  8
18
100
AcDbPolyline
 90
        4
 70
     1
 43
0.0
 10
489.7912597656
 20
17.22119140619997
 10
488.4304199217998
 20
-8.742797851600016
 10
452.4801025389998
 20
-6.858886718800022
 10
453.8409423827999
 20
19.10559082029998
  0
LWPOLYLINE
  5
787F
330
1E
100
AcDbEntity
  8
10
  6
CONTINUOUS
100
AcDbPolyline
 90
        3
 70
     0
 43
0.0
 10
630.9999997764996
 20
29.39387638889934
 42
0.1010205125138069
 10
625.0
 20
0.0
 42
0.1010204964585539
 10
630.9999979079198
 20
-29.39387200239071
  0
LWPOLYLINE
  5
7880
330
1E
100
AcDbEntity
  8
10
  6
CONTINUOUS
100
AcDbPolyline
 90
       21
 70
     0
 43
0.0
 10
784.0
 20
200.0004882811999
 10
647.0
 20
40.00048828119997
 10
647.0
 20
-50.0
 10
712.0
 20
-50.0
 10
712.0
 20
-170.0
 10
650.0
 20
-170.0
 10
647.0
 20
-170.0
 10
647.0
 20
-220.0
 10
907.0001220703
 20
-220.0
 10
907.0001220703
 20
-137.5
 10
907.0001220703
 20
-62.5
 10
907.0001220703
 20
22.5
 10
907.0001220703
 20
97.5
 10
907.0001220703
 20
200.0004882811999
 10
745.0
 20
200.0004882811999
 10
650.0
 20
200.0004882811999
 10
650.0
 20
170.0002441406
 10
642.0
 20
170.0002441406
 10
642.0
 20
-140.0
 10
650.0
 20
-140.0
 10
650.0
 20
-170.0
  0
LWPOLYLINE
  5
7881
330
1E
100
AcDbEntity
  8
12
  6
DASHED
100
AcDbPolyline
 90
        4
 70
     0
 43
0.0
 10
688.0
 20
-226.0
 10
688.0
 20
-238.0
 10
696.0
 20
-238.0
 10
696.0
 20
-226.0
  0
LWPOLYLINE
  5
7882
330
1E
100
AcDbEntity
  8
12
  6
DASHED
100
AcDbPolyline
 90
        4
 70
     0
 43
0.0
 10
701.0
 20
-226.0
 10
701.0
 20
-236.0
 10
683.0
 20
-236.0
 10
683.0
 20
-226.0
  0
LWPOLYLINE
  5
7883
330
1E
100
AcDbEntity
  8
12
  6
DASHED
100
AcDbPolyline
 90
        7
 70
     0
 43
0.0
 10
722.0
 20
-220.0
 10
722.0
 20
-270.0
 10
716.0
 20
-270.0
 10
716.0
 20
-232.0
 42
0.4142135623730951
 10
710.0
 20
-226.0
 10
672.0
 20
-226.0
 10
672.0
 20
-220.0
  0
LWPOLYLINE
  5
7884
330
1E
100
AcDbEntity
  8
12
  6
DASHED
100
AcDbPolyline
 90
        2
 70
     0
 43
0.0
 10
692.0
 20
-204.7546386719
 10
692.0
 20
-253.0
  0
LWPOLYLINE
  5
7885
330
1E
100
AcDbEntity
  8
12
  6
DASHED
100
AcDbPolyline
 90
        2
 70
     0
 43
0.0
 10
674.9972045268
 20
-226.0
 42
0.0002357521657335
 10
675.0009765625
 20
-226.0000017785312
  0
LWPOLYLINE
  5
7886
330
1E
100
AcDbEntity
  8
10
  6
CONTINUOUS
100
AcDbPolyline
 90
        3
 70
     0
 43
0.0
 10
631.0
 20
-29.39404296880002
 10
631.0
 20
-47.5
 10
642.0
 20
-47.5
  0
LWPOLYLINE
  5
7887
330
1E
100
AcDbEntity
  8
12
  6
DASHED
100
AcDbPolyline
 90
        4
 70
     0
 43
0.0
 10
907.0001220703
 20
-220.0
 10
957.0001220703
 20
-220.0
 10
957.0001220703
 20
-214.0
 10
919.0001220702999
 20
-214.0
  0
LWPOLYLINE
  5
7888
330
1E
100
AcDbEntity
  8
12
  6
DASHED
100
AcDbPolyline
 90
        2
 70
     0
 43
0.0
 10
888.1151123047001
 20
-190.0
 10
940.0001220703
 20
-190.0
  0
LWPOLYLINE
  5
7889
330
1E
100
AcDbEntity
  8
12
  6
DASHED
100
AcDbPolyline
 90
        3
 70
     0
 43
0.0
 10
913.0001220703
 20
-208.0
 10
913.0001220703
 20
-170.0
 10
907.0001220703
 20
-170.0
  0
LWPOLYLINE
  5
788A
330
1E
100
AcDbEntity
  8
12
  6
DASHED
100
AcDbPolyline
 90
        4
 70
     0
 43
0.0
 10
913.0001220703
 20
-199.0
 10
923.0001220703
 20
-199.0
 10
923.0001220703
 20
-181.0
 10
913.0001220703
 20
-181.0
  0
LWPOLYLINE
  5
788B
330
1E
100
AcDbEntity
  8
12
  6
DASHED
100
AcDbPolyline
 90
        4
 70
     0
 43
0.0
 10
913.0001220703
 20
-194.0
 10
925.0001220703
 20
-194.0
 10
925.0001220703
 20
-186.0
 10
913.0001220703
 20
-186.0
  0
LWPOLYLINE
  5
788C
330
1E
100
AcDbEntity
  8
12
  6
DASHED
100
AcDbPolyline
 90
        2
 70
     0
 43
0.0
 10
-919.0001220702999
 20
-214.0
 42
0.4142135623730951
 10
-913.0001220703
 20
-208.0
210
0.0
220
0.0
230
-1.0
  0
LWPOLYLINE
  5
788D
330
1E
100
AcDbEntity
  8
12
  6
DASHED
100
AcDbPolyline
 90
        2
 70
     0
 43
0.0
 10
-913.0001220703
 20
-172.9972045268999
 42
0.0002357521594807
 10
-913.000123848831
 20
-173.0009765624999
210
0.0
220
0.0
230
-1.0
  0
LWPOLYLINE
  5
788E
330
1E
100
AcDbEntity
  8
0
  6
CONTINUOUS
100
AcDbPolyline
 90
        4
 70
     0
 43
0.0
 10
907.0001220703
 20
-62.5
 10
992.0001220702999
 20
-62.5
 10
992.0001220702999
 20
-137.5
 10
907.0001220703
 20
-137.5
  0
CIRCLE
  5
788F
330
1E
100
AcDbEntity
  8
24
  6
CONTINOUS
100
AcDbCircle
 10
1022.0001220703
 20
-75.0
 30
0.0
 40
6.0
  0
LWPOLYLINE
  5
7890
330
1E
100
AcDbEntity
  8
24
  6
CONTINOUS
100
AcDbPolyline
 90
        2
 70
     0
 43
0.0
 10
1022.0001220703
 20
-62.5
 10
1022.0001220703
 20
-137.5
  0
CIRCLE
  5
7891
330
1E
100
AcDbEntity
  8
24
  6
CONTINOUS
100
AcDbCircle
 10
977.0001220702999
 20
-75.0
 30
0.0
 40
6.0
  0
LWPOLYLINE
  5
7892
330
1E
100
AcDbEntity
  8
24
  6
CONTINOUS
100
AcDbPolyline
 90
        2
 70
     0
 43
0.0
 10
977.0001220702999
 20
-62.5
 10
977.0001220702999
 20
-137.5
  0
LWPOLYLINE
  5
7893
330
1E
100
AcDbEntity
  8
0
  6
CONTINUOUS
100
AcDbPolyline
 90
        4
 70
     0
 43
0.0
 10
1002.0001220703
 20
-137.5
 10
1037.0001220703
 20
-137.5
 10
1037.0001220703
 20
-62.5
 10
1002.0001220703
 20
-62.5
  0
LWPOLYLINE
  5
7894
330
1E
100
AcDbEntity
  8
24
  6
CONTINOUS
100
AcDbPolyline
 90
        2
 70
     0
 43
0.0
 10
962.0001220703001
 20
-125.0
 10
992.0001220702999
 20
-125.0
  0
CIRCLE
  5
7895
330
1E
100
AcDbEntity
  8
24
  6
CONTINOUS
100
AcDbCircle
 10
977.0001220702999
 20
-125.0
 30
0.0
 40
6.0
  0
CIRCLE
  5
7896
330
1E
100
AcDbEntity
  8
24
  6
CONTINOUS
100
AcDbCircle
 10
977.0001220702999
 20
-100.0
 30
0.0
 40
6.0
  0
CIRCLE
  5
7897
330
1E
100
AcDbEntity
  8
24
  6
CONTINOUS
100
AcDbCircle
 10
1022.0001220703
 20
-125.0
 30
0.0
 40
6.0
  0
CIRCLE
  5
7899
330
1E
100
AcDbEntity
  8
24
  6
CONTINOUS
100
AcDbCircle
 10
1022.0001220703
 20
-100.0
 30
0.0
 40
6.0
  0
LWPOLYLINE
  5
789A
330
1E
100
AcDbEntity
  8
24
  6
CONTINOUS
100
AcDbPolyline
 90
        2
 70
     0
 43
0.0
 10
962.0001220703001
 20
-75.0
 10
992.0001220702999
 20
-75.0
  0
LWPOLYLINE
  5
789C
330
1E
100
AcDbEntity
  8
10
  6
CONTINUOUS
100
AcDbPolyline
 90
        4
 70
     0
 43
0.0
 10
803.0
 20
280.0
 10
822.0001220703
 20
280.0
 10
822.0001220703
 20
225.0
 10
803.0
 20
225.0
  0
LWPOLYLINE
  5
789D
330
1E
100
AcDbEntity
  8
10
  6
CONTINUOUS
100
AcDbPolyline
 90
        5
 70
     0
 43
0.0
 10
803.0
 20
265.0
 10
785.0
 20
265.0
 10
785.0
 20
305.0
 10
907.0001220703
 20
305.0
 10
907.0001220703
 20
200.0
  0
LWPOLYLINE
  5
789E
330
1E
100
AcDbEntity
  8
10
  6
CONTINUOUS
100
AcDbPolyline
 90
        4
 70
     0
 43
0.0
 10
783.0
 20
200.0
 10
803.0
 20
220.0
 10
803.0
 20
295.0
 10
907.0001220703
 20
295.0
  0
LWPOLYLINE
  5
789F
330
1E
100
AcDbEntity
  8
10
  6
CONTINUOUS
100
AcDbPolyline
 90
        3
 70
     0
 43
0.0
 10
785.0
 20
295.0
 10
798.0
 20
295.0
 10
798.0
 20
265.0
  0
LWPOLYLINE
  5
78A0
330
1E
100
AcDbEntity
  8
18
100
AcDbPolyline
 90
        6
 70
     0
 43
0.0
 10
558.814453125
 20
41.26660156249999
 10
585.6098632811998
 20
27.80029296869997
 10
619.4384765625
 20
15.48779296869997
 10
628.3310546875
 20
39.91943359369997
 10
594.5024414061998
 20
52.232421875
 10
565.3198242186999
 20
59.14013671869998
  0
LWPOLYLINE
  5
78A1
330
1E
100
AcDbEntity
  8
24
  6
CONTINOUS
100
AcDbPolyline
 90
        2
 70
     0
 43
0.0
 10
656.564453125
 20
15.80908203119997
 10
497.0263671875
 20
73.87646484369998
  0
LWPOLYLINE
  5
78A2
330
1E
100
AcDbEntity
  8
18
100
AcDbPolyline
 90
        2
 70
     0
 43
0.0
 10
564.4082031249999
 20
226.6342773436999
 10
642.0
 20
60.23791503899996
  0
LWPOLYLINE
  5
78A3
330
1E
100
AcDbEntity
  8
18
100
AcDbPolyline
 90
        2
 70
     0
 43
0.0
 10
546.7353515624998
 20
218.3931884764998
 10
642.0
 20
14.0974121094
  0
LWPOLYLINE
  5
78A4
330
1E
100
AcDbEntity
  8
10
  6
CONTINUOUS
100
AcDbPolyline
 90
        5
 70
     0
 43
0.0
 10
530.3546142577999
 20
200.0004882811999
 10
520.0
 20
200.0004882811999
 10
520.0
 20
170.0002441406
 10
512.0
 20
170.0002441406
 10
512.0
 20
86.91271972649998
  0
LWPOLYLINE
  5
78A5
330
1E
100
AcDbEntity
  8
24
  6
CONTINOUS
100
AcDbPolyline
 90
        2
 70
     0
 43
0.0
 10
504.6999511717998
 20
3.422119140599988
 10
352.3774414061998
 20
11.4050292969
  0
LWPOLYLINE
  5
78A6
330
1E
100
AcDbEntity
  8
18
100
AcDbPolyline
 90
        2
 70
     0
 43
0.0
 10
381.1528324663996
 20
9.897010487999976
 42
0.0077576782792663
 10
380.9992675780383
 20
0.0
  0
LWPOLYLINE
  5
78A7
330
1E
100
AcDbEntity
  8
18
100
AcDbPolyline
 90
        2
 70
     0
 43
0.0
 10
453.8409423827999
 20
19.10559082029998
 10
423.9136962889999
 20
17.17919921869997
  0
LWPOLYLINE
  5
78A8
330
1E
100
AcDbEntity
  8
18
100
AcDbPolyline
 90
        2
 70
     0
 43
0.0
 10
452.4801025389998
 20
-6.858886718800022
 10
422.9183349609
 20
-1.815307617200004
  0
LWPOLYLINE
  5
78A9
330
1E
100
AcDbEntity
  8
18
100
AcDbPolyline
 90
        2
 70
     0
 43
0.0
 10
417.7001092584211
 20
20.19359252023082
 42
0.2638042091158015
 10
423.9137676649463
 20
17.17993441838165
  0
LWPOLYLINE
  5
78AA
330
1E
100
AcDbEntity
  8
18
100
AcDbPolyline
 90
        2
 70
     0
 43
0.0
 10
422.9183420501263
 20
-1.814654085380425
 42
0.2638043047502554
 10
416.4237168056088
 20
-4.162325050143181
  0
CIRCLE
  5
78AB
330
1E
100
AcDbEntity
  8
18
100
AcDbCircle
 10
541.1922638803428
 20
57.80214617441992
 30
0.0
 40
20.00000000000003
  0
LWPOLYLINE
  5
78AC
330
1E
100
AcDbEntity
  8
18
100
AcDbPolyline
 90
        2
 70
     0
 43
0.0
 10
560.259163027285
 20
63.83952848801801
 42
0.2638042091192741
 10
565.3201964974185
 20
59.14084503812773
  0
LWPOLYLINE
  5
78AD
330
1E
100
AcDbEntity
  8
30
  6
CONTINUOUS
100
AcDbPolyline
 90
        2
 70
     0
 43
0.0
 10
522.3982485929
 20
64.64178854190004
 42
0.087489044355794
 10
511.0001068115053
 20
0.0
  0
LWPOLYLINE
  5
78AE
330
1E
100
AcDbEntity
  8
18
100
AcDbPolyline
 90
        2
 70
     0
 43
0.0
 10
558.8147508045872
 20
41.26727681804186
 42
0.2638043047467738
 10
551.9175165506426
 20
40.92104615506172
  0
LWPOLYLINE
  5
78AF
330
1E
100
AcDbEntity
  8
18
100
AcDbPolyline
 90
        2
 70
     0
 43
0.0
 10
564.4079589842998
 20
226.6341552734
 10
546.7351074217998
 20
218.3930664061999
  0
LWPOLYLINE
  5
78B0
330
1E
100
AcDbEntity
  8
10
  6
CONTINUOUS
100
AcDbPolyline
 90
        5
 70
     0
 43
0.0
 10
629.4328613281
 20
200.0004882811999
 10
620.0
 20
200.0004882811999
 10
620.0
 20
170.0002441406
 10
612.0
 20
170.0002441406
 10
612.0
 20
86.91271972649998
  0
LWPOLYLINE
  5
78B1
330
1E
100
AcDbEntity
  8
10
  6
CONTINUOUS
100
AcDbPolyline
 90
        5
 70
     0
 43
0.0
 10
600.2922363280998
 20
200.0004882811999
 10
590.0
 20
200.0004882811999
 10
590.0
 20
170.0002441406
 10
582.0
 20
170.0002441406
 10
582.0
 20
86.91271972649998
  0
LWPOLYLINE
  5
78B2
330
1E
100
AcDbEntity
  8
10
  6
CONTINUOUS
100
AcDbPolyline
 90
        3
 70
     0
 43
0.0
 10
631.0
 20
29.39404296869998
 10
631.0
 20
47.5
 10
642.0
 20
47.5
  0
LWPOLYLINE
  5
78B3
330
1E
100
AcDbEntity
  8
10
  6
CONTINUOUS
100
AcDbPolyline
 90
        2
 70
     0
 43
0.0
 10
597.5083007811998
 20
31.39892578119997
 10
622.8012695311998
 20
21.47021484369996
  0
LWPOLYLINE
  5
78B4
330
1E
100
AcDbEntity
  8
10
  6
CONTINUOUS
100
AcDbPolyline
 90
        2
 70
     0
 43
0.0
 10
597.5733659669002
 20
37.28015475920006
 42
0.0874890443557359
 10
590.9998397826427
 20
0.0
  0
LWPOLYLINE
  5
78B5
330
1E
100
AcDbEntity
  8
18
100
AcDbPolyline
 90
        2
 70
     0
 43
0.0
 10
624.2903764969999
 20
20.55957790530623
 42
0.0879559986137034
 10
622.8017597680841
 20
21.4712760480761
  0
LWPOLYLINE
  5
78B6
330
1E
100
AcDbEntity
  8
18
100
AcDbPolyline
 90
        2
 70
     0
 43
0.0
 10
627.189453125
 20
17.98974609369996
 10
624.2905273436998
 20
20.55908203119996
  0
LWPOLYLINE
  5
78B7
330
1E
100
AcDbEntity
  8
10
  6
CONTINUOUS
100
AcDbPolyline
 90
        2
 70
     0
 43
0.0
 10
627.0615234375
 20
33.17529296869997
 10
601.3037109375
 20
41.82763671869998
  0
LWPOLYLINE
  5
78B8
330
1E
100
AcDbEntity
  8
18
100
AcDbPolyline
 90
        2
 70
     0
 43
0.0
 10
594.5024414061998
 20
52.232421875
 10
585.6098632811998
 20
27.80029296869997
  0
LWPOLYLINE
  5
78B9
330
1E
100
AcDbEntity
  8
10
  6
CONTINUOUS
100
AcDbPolyline
 90
        2
 70
     0
 43
0.0
 10
596.3593876069999
 20
33.94479158839998
 42
0.4069108977780547
 10
597.5079596827059
 20
31.39904485301576
  0
LWPOLYLINE
  5
78BA
330
1E
100
AcDbEntity
  8
10
  6
CONTINUOUS
100
AcDbPolyline
 90
        2
 70
     0
 43
0.0
 10
601.3038422059
 20
41.82753673339994
 42
0.4069135725242378
 10
598.7875998257614
 20
40.61566134867756
  0
LWPOLYLINE
  5
78BB
330
1E
100
AcDbEntity
  8
10
  6
CONTINUOUS
100
AcDbPolyline
 90
        2
 70
     0
 43
0.0
 10
598.7875976561999
 20
40.61572265619997
 10
596.359375
 20
33.94482421869998
  0
LWPOLYLINE
  5
78BC
330
1E
100
AcDbEntity
  8
18
100
AcDbPolyline
 90
        2
 70
     0
 43
0.0
 10
631.0
 20
32.9755859375
 10
628.7880859374999
 20
32.916015625
  0
LWPOLYLINE
  5
78BD
330
1E
100
AcDbEntity
  8
18
100
AcDbPolyline
 90
        2
 70
     0
 43
0.0
 10
627.0616305721042
 20
33.17517365970684
 42
0.0879559385459796
 10
628.7880042319259
 20
32.91671059116402
  0
LWPOLYLINE
  5
78BE
330
1E
100
AcDbEntity
  8
10
  6
CONTINUOUS
100
AcDbPolyline
 90
        6
 70
     0
 43
0.0
 10
745.0
 20
200.0
 10
745.0
 20
225.0
 10
755.0
 20
235.0
 10
755.0
 20
265.0
 10
785.0
 20
265.0
 10
755.0
 20
235.0
  0
LWPOLYLINE
  5
78BF
330
1E
100
AcDbEntity
  8
10
  6
CONTINUOUS
100
AcDbPolyline
 90
        5
 70
     0
 43
0.0
 10
892.0001220702998
 20
208.0
 10
892.0001220702998
 20
285.0
 10
875.0001220703
 20
285.0
 10
852.0001220702999
 20
215.0
 10
852.0001220702999
 20
200.0
  0
LWPOLYLINE
  5
78C0
330
1E
100
AcDbEntity
  8
10
  6
CONTINUOUS
100
AcDbPolyline
 90
        4
 70
     0
 43
0.0
 10
873.3572998047
 20
280.0
 10
829.0001220703
 20
280.0
 10
829.0001220703
 20
225.0
 10
855.2860107422
 20
225.0
  0
LWPOLYLINE
  5
78C1
330
1E
100
AcDbEntity
  8
24
  6
CONTINOUS
100
AcDbPolyline
 90
        2
 70
     0
 43
0.0
 10
1007.000122070299
 20
85.0
 10
1058.586497997648
 20
85.0
  0
LWPOLYLINE
  5
78C2
330
1E
100
AcDbEntity
  8
24
  6
CONTINOUS
100
AcDbPolyline
 90
        2
 70
     0
 43
0.0
 10
892.0001220702998
 20
60.0
 10
1057.9818115234
 20
60.0
  0
LWPOLYLINE
  5
78C3
330
1E
100
AcDbEntity
  8
21
100
AcDbPolyline
 90
        4
 70
     0
 43
0.0
 10
907.0001220703
 20
22.5
 10
992.0001220702999
 20
22.5
 10
992.0001220702999
 20
97.5
 10
907.0001220703
 20
97.5
  0
CIRCLE
  5
78C4
330
1E
100
AcDbEntity
  8
24
  6
CONTINOUS
100
AcDbCircle
 10
1022.0001220703
 20
60.0
 30
0.0
 40
6.0
  0
LWPOLYLINE
  5
78C5
330
1E
100
AcDbEntity
  8
24
  6
CONTINOUS
100
AcDbPolyline
 90
        2
 70
     0
 43
0.0
 10
1022.0001220703
 20
97.5
 10
1022.0001220703
 20
22.5
  0
CIRCLE
  5
78C6
330
1E
100
AcDbEntity
  8
24
  6
CONTINOUS
100
AcDbCircle
 10
977.0001220702999
 20
60.0
 30
0.0
 40
6.0
  0
LWPOLYLINE
  5
78C7
330
1E
100
AcDbEntity
  8
24
  6
CONTINOUS
100
AcDbPolyline
 90
        2
 70
     0
 43
0.0
 10
977.0001220702999
 20
97.5
 10
977.0001220702999
 20
22.5
  0
LWPOLYLINE
  5
78C8
330
1E
100
AcDbEntity
  8
0
  6
CONTINUOUS
100
AcDbPolyline
 90
        4
 70
     0
 43
0.0
 10
1002.0001220703
 20
97.5
 10
1037.0001220703
 20
97.5
 10
1037.0001220703
 20
22.5
 10
1002.0001220703
 20
22.5
  0
LWPOLYLINE
  5
78C9
330
1E
100
AcDbEntity
  8
24
  6
CONTINOUS
100
AcDbPolyline
 90
        2
 70
     0
 43
0.0
 10
962.0001220703001
 20
35.0
 10
992.0001220702999
 20
35.0
  0
CIRCLE
  5
78CA
330
1E
100
AcDbEntity
  8
24
  6
CONTINOUS
100
AcDbCircle
 10
977.0001220702999
 20
35.0
 30
0.0
 40
6.0
  0
CIRCLE
  5
78CB
330
1E
100
AcDbEntity
  8
24
  6
CONTINOUS
100
AcDbCircle
 10
1022.0001220703
 20
35.0
 30
0.0
 40
6.0
  0
LWPOLYLINE
  5
78CC
330
1E
100
AcDbEntity
  8
24
  6
CONTINOUS
100
AcDbPolyline
 90
        2
 70
     0
 43
0.0
 10
962.0001220703001
 20
85.0
 10
992.0001220702999
 20
85.0
  0
CIRCLE
  5
78CD
330
1E
100
AcDbEntity
  8
24
  6
CONTINOUS
100
AcDbCircle
 10
977.0001220702999
 20
85.0
 30
0.0
 40
6.0
  0
CIRCLE
  5
78CE
330
1E
100
AcDbEntity
  8
24
  6
CONTINOUS
100
AcDbCircle
 10
1022.0001220703
 20
85.0
 30
0.0
 40
6.0
  0
LWPOLYLINE
  5
78CF
330
1E
100
AcDbEntity
  8
12
  6
DASHED
100
AcDbPolyline
 90
        7
 70
     0
 43
0.0
 10
907.0001220703
 20
200.0004882811999
 10
957.0001220703
 20
200.0004882811999
 10
957.0001220703
 20
194.0004882811999
 10
919.0001220702999
 20
194.0004882811999
 42
0.4142135623730951
 10
913.0001220703
 20
188.0004882811999
 10
913.0001220703
 20
150.0
 10
907.0001220703
 20
150.0
  0
LWPOLYLINE
  5
78D0
330
1E
100
AcDbEntity
  8
12
  6
DASHED
100
AcDbPolyline
 90
        2
 70
     0
 43
0.0
 10
888.1151123047001
 20
170.0
 10
940.0001220703
 20
170.0
  0
LWPOLYLINE
  5
78D1
330
1E
100
AcDbEntity
  8
12
  6
DASHED
100
AcDbPolyline
 90
        4
 70
     0
 43
0.0
 10
913.0001220703
 20
174.0
 10
925.0001220703
 20
174.0
 10
925.0001220703
 20
166.0
 10
913.0001220703
 20
166.0
  0
LWPOLYLINE
  5
78D2
330
1E
100
AcDbEntity
  8
12
  6
DASHED
100
AcDbPolyline
 90
        4
 70
     0
 43
0.0
 10
923.0001220703
 20
174.0002441406
 10
925.0001220703
 20
174.0002441406
 10
925.0001220703
 20
166.0002441405999
 10
923.0001220703
 20
166.0002441405999
  0
LWPOLYLINE
  5
78D3
330
1E
100
AcDbEntity
  8
12
  6
DASHED
100
AcDbPolyline
 90
        4
 70
     0
 43
0.0
 10
913.0001220703
 20
179.0002441405999
 10
923.0001220703
 20
179.0002441405999
 10
923.0001220703
 20
161.0002441405999
 10
913.0001220703
 20
161.0002441405999
  0
LWPOLYLINE
  5
78D4
330
1E
100
AcDbEntity
  8
12
  6
DASHED
100
AcDbPolyline
 90
        2
 70
     0
 43
0.0
 10
913.0001220703
 20
152.9972045268
 42
0.0002357521657335
 10
913.0001238488317
 20
153.0009765625
  0
LWPOLYLINE
  5
78D5
330
1E
100
AcDbEntity
  8
10
  6
CONTINUOUS
100
AcDbPolyline
 90
        2
 70
     0
 43
0.0
 10
852.0001220702999
 20
208.0
 10
907.0001220703
 20
208.0
  0
LWPOLYLINE
  5
78D6
330
1E
100
AcDbEntity
  8
10
  6
CONTINUOUS
100
AcDbPolyline
 90
        2
 70
     0
 43
0.0
 10
822.0001220703
 20
260.4999999999999
 10
829.0001220703
 20
260.4999999999999
  0
LWPOLYLINE
  5
78D7
330
1E
100
AcDbEntity
  8
10
  6
CONTINUOUS
100
AcDbPolyline
 90
        2
 70
     0
 43
0.0
 10
822.0001220703
 20
244.4999999999999
 10
829.0001220703
 20
244.4999999999999
  0
LWPOLYLINE
  5
791E
330
1E
100
AcDbEntity
  8
10
  6
CONTINUOUS
100
AcDbPolyline
 90
        4
 70
     1
 43
0.0
 10
39.0
 20
43.0
 10
39.0
 20
-52.0
 10
-39.0
 20
-52.0
 10
-39.0
 20
43.0
  0
LWPOLYLINE
  5
791F
330
1E
100
AcDbEntity
  8
10
  6
CONTINUOUS
100
AcDbPolyline
 90
        8
 70
     1
 43
0.0
 10
220.0
 20
208.0
 10
110.0
 20
208.0
 10
110.0
 20
305.0
 10
-110.0
 20
305.0
 10
-110.0
 20
208.0
 10
-149.9999694824199
 20
208.0
 10
-149.9999694824199
 20
-220.0
 10
220.0
 20
-220.0
  0
LWPOLYLINE
  5
7921
330
1E
100
AcDbEntity
  8
10
  6
CONTINUOUS
100
AcDbPolyline
 90
        4
 70
     0
 43
0.0
 10
-104.9999389648399
 20
200.0
 10
-104.9999389648399
 20
-170.0
 10
175.0
 20
-170.0
 10
175.0
 20
200.0
  0
LWPOLYLINE
  5
7922
330
1E
100
AcDbEntity
  8
10
  6
CONTINUOUS
100
AcDbPolyline
 90
        2
 70
     0
 43
0.0
 10
175.0
 20
-140.0
 10
-104.9999389648399
 20
-140.0
  0
LWPOLYLINE
  5
7923
330
1E
100
AcDbEntity
  8
12
  6
DASHED
100
AcDbPolyline
 90
        2
 70
     0
 43
0.0
 10
-35.0
 20
-139.0
 10
-35.0
 20
-169.0
  0
LWPOLYLINE
  5
7924
330
1E
100
AcDbEntity
  8
12
  6
DASHED
100
AcDbPolyline
 90
        2
 70
     0
 43
0.0
 10
-112.49993896484
 20
-205.0
 10
-112.49993896484
 20
-175.0
  0
CIRCLE
  5
7925
330
1E
100
AcDbEntity
  8
12
  6
DASHED
100
AcDbCircle
 10
-112.49993896484
 20
-190.0
 30
0.0
 40
6.0
  0
LWPOLYLINE
  5
7926
330
1E
100
AcDbEntity
  8
12
  6
DASHED
100
AcDbPolyline
 90
        2
 70
     0
 43
0.0
 10
-127.4999694824199
 20
-190.0
 10
-97.49993896483999
 20
-190.0
  0
LWPOLYLINE
  5
7927
330
1E
100
AcDbEntity
  8
12
  6
DASHED
100
AcDbPolyline
 90
        2
 70
     0
 43
0.0
 10
-50.0
 20
-154.0
 10
-20.0
 20
-154.0
  0
CIRCLE
  5
7928
330
1E
100
AcDbEntity
  8
12
  6
DASHED
100
AcDbCircle
 10
-35.0
 20
-154.0
 30
0.0
 40
8.5
  0
LWPOLYLINE
  5
7929
330
1E
100
AcDbEntity
  8
12
  6
DASHED
100
AcDbPolyline
 90
        2
 70
     0
 43
0.0
 10
35.0
 20
-139.0
 10
35.0
 20
-169.0
  0
LWPOLYLINE
  5
792A
330
1E
100
AcDbEntity
  8
12
  6
DASHED
100
AcDbPolyline
 90
        2
 70
     0
 43
0.0
 10
167.4999694824198
 20
-190.0
 10
197.5
 20
-190.0
  0
LWPOLYLINE
  5
792B
330
1E
100
AcDbEntity
  8
12
  6
DASHED
100
AcDbPolyline
 90
        2
 70
     0
 43
0.0
 10
182.5
 20
-205.0
 10
182.5
 20
-175.0
  0
CIRCLE
  5
792C
330
1E
100
AcDbEntity
  8
12
  6
DASHED
100
AcDbCircle
 10
182.5
 20
-190.0
 30
0.0
 40
6.0
  0
CIRCLE
  5
792D
330
1E
100
AcDbEntity
  8
12
  6
DASHED
100
AcDbCircle
 10
35.0
 20
-154.0
 30
0.0
 40
8.5
  0
LWPOLYLINE
  5
792E
330
1E
100
AcDbEntity
  8
12
  6
DASHED
100
AcDbPolyline
 90
        2
 70
     0
 43
0.0
 10
20.0
 20
-154.0
 10
50.0
 20
-154.0
  0
LWPOLYLINE
  5
792F
330
1E
100
AcDbEntity
  8
10
  6
CONTINUOUS
100
AcDbPolyline
 90
        2
 70
     0
 43
0.0
 10
-149.9999694824199
 20
200.0
 10
220.0
 20
200.0
  0
LWPOLYLINE
  5
7931
330
1E
100
AcDbEntity
  8
10
  6
CONTINUOUS
100
AcDbPolyline
 90
        4
 70
     1
 43
0.0
 10
22.5
 20
27.5
 10
-22.5
 20
27.5
 10
-22.5
 20
-27.5
 10
22.5
 20
-27.5
  0
CIRCLE
  5
7932
330
1E
100
AcDbEntity
  8
12
  6
DASHED
100
AcDbCircle
 10
-35.0
 20
183.9997558593999
 30
0.0
 40
8.5
  0
LWPOLYLINE
  5
7933
330
1E
100
AcDbEntity
  8
12
  6
DASHED
100
AcDbPolyline
 90
        2
 70
     0
 43
0.0
 10
-35.0
 20
199.0
 10
-35.0
 20
168.9997558594
  0
LWPOLYLINE
  5
7934
330
1E
100
AcDbEntity
  8
12
  6
DASHED
100
AcDbPolyline
 90
        2
 70
     0
 43
0.0
 10
-112.49993896484
 20
154.9997558594
 10
-112.49993896484
 20
184.9997558592998
  0
CIRCLE
  5
7935
330
1E
100
AcDbEntity
  8
12
  6
DASHED
100
AcDbCircle
 10
-112.49993896484
 20
169.9997558594
 30
0.0
 40
6.0
  0
LWPOLYLINE
  5
7936
330
1E
100
AcDbEntity
  8
10
  6
CONTINUOUS
100
AcDbPolyline
 90
        2
 70
     0
 43
0.0
 10
-110.0
 20
208.0
 10
-110.0
 20
200.0
  0
LWPOLYLINE
  5
7937
330
1E
100
AcDbEntity
  8
12
  6
DASHED
100
AcDbPolyline
 90
        2
 70
     0
 43
0.0
 10
-50.0
 20
183.9997558593999
 10
-20.0
 20
183.9997558593999
  0
LWPOLYLINE
  5
7938
330
1E
100
AcDbEntity
  8
12
  6
DASHED
100
AcDbPolyline
 90
        2
 70
     0
 43
0.0
 10
167.4999694824198
 20
169.9997558594
 10
197.5
 20
169.9997558594
  0
LWPOLYLINE
  5
7939
330
1E
100
AcDbEntity
  8
12
  6
DASHED
100
AcDbPolyline
 90
        2
 70
     0
 43
0.0
 10
35.0
 20
199.0
 10
35.0
 20
168.9997558594
  0
CIRCLE
  5
793A
330
1E
100
AcDbEntity
  8
12
  6
DASHED
100
AcDbCircle
 10
35.0
 20
183.9997558593999
 30
0.0
 40
8.5
  0
LWPOLYLINE
  5
793B
330
1E
100
AcDbEntity
  8
12
  6
DASHED
100
AcDbPolyline
 90
        2
 70
     0
 43
0.0
 10
20.0
 20
183.9997558593999
 10
50.0
 20
183.9997558593999
  0
LWPOLYLINE
  5
793C
330
1E
100
AcDbEntity
  8
12
  6
DASHED
100
AcDbPolyline
 90
        2
 70
     0
 43
0.0
 10
182.5
 20
154.9997558594
 10
182.5
 20
184.9997558592998
  0
CIRCLE
  5
793D
330
1E
100
AcDbEntity
  8
12
  6
DASHED
100
AcDbCircle
 10
182.5
 20
169.9997558594
 30
0.0
 40
6.0
  0
LWPOLYLINE
  5
793E
330
1E
100
AcDbEntity
  8
10
  6
CONTINUOUS
100
AcDbPolyline
 90
        2
 70
     0
 43
0.0
 10
110.0
 20
208.0
 10
110.0
 20
200.0
  0
LWPOLYLINE
  5
793F
330
1E
100
AcDbEntity
  8
12
  6
DASHED
100
AcDbPolyline
 90
        2
 70
     0
 43
0.0
 10
-127.4999694824201
 20
169.9997558594
 10
-97.49993896483999
 20
169.9997558594
  0
LWPOLYLINE
  5
7940
330
1E
100
AcDbEntity
  8
10
  6
CONTINUOUS
100
AcDbPolyline
 90
        2
 70
     0
 43
0.0
 10
175.0
 20
169.9997558594
 10
-104.9999389648399
 20
169.9997558594
  0
DIMENSION
  5
7941
330
1E
100
AcDbEntity
  8
30
  6
CONTINUOUS
100
AcDbDimension
  2
*D15
 10
-189.7056428798468
 20
0.000000000000024
 30
0.0
 11
-194.7056428798468
 21
84.99987792969998
 31
0.0
 70
    32
  3
STANDARD
100
AcDbAlignedDimension
 13
-127.4999694824201
 23
169.9997558594
 33
0.0
 14
-104.9999389648399
 24
0.0
 34
0.0
 50
90.0
100
AcDbRotatedDimension
  0
DIMENSION
  5
794E
330
1E
100
AcDbEntity
  8
30
  6
CONTINUOUS
100
AcDbDimension
  2
*D16
 10
-189.7056428798469
 20
-190.0
 30
0.0
 11
-194.7056428798468
 21
-95.00000000000001
 31
0.0
 70
    32
  3
STANDARD
100
AcDbAlignedDimension
 13
-104.9999389648399
 23
0.0
 33
0.0
 14
-127.4999694824199
 24
-190.0
 34
0.0
 50
90.0
100
AcDbRotatedDimension
1001
ACAD
1000
DSTYLE
1002
{
1070
   287
1070
     4
1070
   287
1070
     4
1070
   279
1070
     1
1002
}
  0
DIMENSION
  5
795B
330
1E
100
AcDbEntity
  8
30
  6
CONTINUOUS
100
AcDbDimension
  2
*D17
 10
-220.219053609071
 20
0.0000000000000199
 30
0.0
 11
-225.2190536090711
 21
100.0
 31
0.0
 70
    32
  3
STANDARD
100
AcDbAlignedDimension
 13
-149.9999694824199
 23
200.0
 33
0.0
 14
-149.9999694824199
 24
0.0
 34
0.0
 50
90.0
100
AcDbRotatedDimension
  0
DIMENSION
  5
7968
330
1E
100
AcDbEntity
  8
30
  6
CONTINUOUS
100
AcDbDimension
  2
*D18
 10
-220.219053609071
 20
-219.9999999999999
 30
0.0
 11
-225.219053609071
 21
-110.0
 31
0.0
 70
    32
  3
STANDARD
100
AcDbAlignedDimension
 13
-149.9999694824199
 23
0.0
 33
0.0
 14
-149.9999694824199
 24
-220.0
 34
0.0
 50
90.0
100
AcDbRotatedDimension
1001
ACAD
1000
DSTYLE
1002
{
1070
   287
1070
     4
1070
   287
1070
     4
1070
   279
1070
     1
1002
}
  0
DIMENSION
  5
7975
330
1E
100
AcDbEntity
  8
30
  6
CONTINUOUS
100
AcDbDimension
  2
*D19
 10
-253.8281255302381
 20
-219.9999999999999
 30
0.0
 11
-258.828125530238
 21
-10.0
 31
0.0
 70
    32
  3
STANDARD
100
AcDbAlignedDimension
 13
-220.719053609071
 23
200.0
 33
0.0
 14
-220.7190536090712
 24
-219.9999999999999
 34
0.0
 50
90.0
100
AcDbRotatedDimension
  0
DIMENSION
  5
7982
330
1E
100
AcDbEntity
  8
30
  6
CONTINUOUS
100
AcDbDimension
  2
*D20
 10
-0.0000000000000019
 20
-251.8352211087594
 30
0.0
 11
-74.99998474121003
 21
-246.8352211087594
 31
0.0
 70
    32
  3
STANDARD
100
AcDbAlignedDimension
 13
-149.9999694824199
 23
-220.0
 33
0.0
 14
0.0
 24
-220.0
 34
0.0
100
AcDbRotatedDimension
  0
DIMENSION
  5
798F
330
1E
100
AcDbEntity
  8
30
  6
CONTINUOUS
100
AcDbDimension
  2
*D21
 10
220.0
 20
-251.501887775426
 30
0.0
 11
110.0
 21
-246.501887775426
 31
0.0
 70
    32
  3
STANDARD
100
AcDbAlignedDimension
 13
0.0
 23
-220.0
 33
0.0
 14
220.0
 24
-220.0
 34
0.0
100
AcDbRotatedDimension
  0
DIMENSION
  5
79B7
330
1E
100
AcDbEntity
  8
30
  6
CONTINUOUS
100
AcDbDimension
  2
*D22
 10
-206.677937262596
 20
-601.0
 30
0.0
 11
-211.6779372625958
 21
-501.0
 31
0.0
 70
    32
  3
STANDARD
100
AcDbAlignedDimension
 13
-168.1430664062999
 23
-401.0
 33
0.0
 14
-166.0
 24
-601.0
 34
0.0
 50
90.0
100
AcDbRotatedDimension
  0
DIMENSION
  5
79C4
330
1E
100
AcDbEntity
  8
30
  6
CONTINUOUS
100
AcDbDimension
  2
*D23
 10
-206.6779372625961
 20
-821.0
 30
0.0
 11
-211.6779372625959
 21
-711.0
 31
0.0
 70
    32
  3
STANDARD
100
AcDbAlignedDimension
 13
-166.0
 23
-601.0
 33
0.0
 14
-168.1430664062999
 24
-821.0
 34
0.0
 50
90.0
100
AcDbRotatedDimension
1001
ACAD
1000
DSTYLE
1002
{
1070
   287
1070
     4
1070
   287
1070
     4
1070
   279
1070
     1
1002
}
  0
LINE
  5
79D1
330
1E
100
AcDbEntity
  8
24
  6
CONTINUOUS
 62
     2
100
AcDbLine
 10
-168.1430664062999
 20
-821.0
 30
0.0
 11
-171.7170410155999
 21
-805.2415771485
 31
0.0
  0
LINE
  5
79D2
330
1E
100
AcDbEntity
  8
24
  6
CONTINUOUS
 62
     2
100
AcDbLine
 10
-171.7170410155999
 20
-805.2415771485
 30
0.0
 11
-163.9106445312999
 21
-788.3280029297
 31
0.0
  0
LINE
  5
79D3
330
1E
100
AcDbEntity
  8
24
  6
CONTINUOUS
 62
     2
100
AcDbLine
 10
-163.9106445312999
 20
-788.3280029297
 30
0.0
 11
-170.052734375
 21
-771.0
 31
0.0
  0
LINE
  5
79D4
330
1E
100
AcDbEntity
  8
24
  6
CONTINUOUS
 62
     2
100
AcDbLine
 10
-170.052734375
 20
-771.0
 30
0.0
 11
232.9155273436999
 21
-771.0
 31
0.0
  0
LINE
  5
79D5
330
1E
100
AcDbEntity
  8
24
  6
CONTINUOUS
 62
     2
100
AcDbLine
 10
232.9155273436999
 20
-771.0
 30
0.0
 11
226.40234375
 21
-788.3280029297
 31
0.0
  0
LINE
  5
79D6
330
1E
100
AcDbEntity
  8
24
  6
CONTINUOUS
 62
     2
100
AcDbLine
 10
226.40234375
 20
-788.3280029297
 30
0.0
 11
234.2084960937
 21
-802.6395263672
 31
0.0
  0
LINE
  5
79D7
330
1E
100
AcDbEntity
  8
24
  6
CONTINUOUS
 62
     2
100
AcDbLine
 10
234.2084960937
 20
-802.6395263672
 30
0.0
 11
231.005859375
 21
-821.0
 31
0.0
  0
LINE
  5
79D9
330
1E
100
AcDbEntity
  8
24
  6
CONTINUOUS
 62
     2
100
AcDbLine
 10
-168.1430664062999
 20
-821.0
 30
0.0
 11
-173.0180664063
 21
-841.6707763672
 31
0.0
  0
LINE
  5
79DA
330
1E
100
AcDbEntity
  8
24
  6
CONTINUOUS
 62
     2
100
AcDbLine
 10
-173.0180664063
 20
-841.6707763672
 30
0.0
 11
-163.9106445312999
 21
-855.9822998047
 31
0.0
  0
LINE
  5
79DB
330
1E
100
AcDbEntity
  8
24
  6
CONTINUOUS
 62
     2
100
AcDbLine
 10
-163.9106445312999
 20
-855.9822998047
 30
0.0
 11
-169.0981445312999
 21
-871.0
 31
0.0
  0
LINE
  5
79DC
330
1E
100
AcDbEntity
  8
24
  6
CONTINUOUS
 62
     2
100
AcDbLine
 10
-169.0981445312999
 20
-871.0
 30
0.0
 11
232.9155273436999
 21
-871.0
 31
0.0
  0
LINE
  5
79DD
330
1E
100
AcDbEntity
  8
24
  6
CONTINUOUS
 62
     2
100
AcDbLine
 10
232.9155273436999
 20
-871.0
 30
0.0
 11
229.0043945311999
 21
-852.0792236328
 31
0.0
  0
LINE
  5
79DE
330
1E
100
AcDbEntity
  8
24
  6
CONTINUOUS
 62
     2
100
AcDbLine
 10
229.0043945311999
 20
-852.0792236328
 30
0.0
 11
234.2084960937
 21
-837.7677001952999
 31
0.0
  0
LINE
  5
79DF
330
1E
100
AcDbEntity
  8
24
  6
CONTINUOUS
 62
     2
100
AcDbLine
 10
234.2084960937
 20
-837.7677001952999
 30
0.0
 11
231.005859375
 21
-821.0
 31
0.0
  0
LINE
  5
79E9
330
1E
100
AcDbEntity
  8
24
  6
CONTINUOUS
 62
     2
100
AcDbLine
 10
232.9074707030998
 20
-420.1326904296998
 30
0.0
 11
225.1013183593999
 21
-431.8421630859999
 31
0.0
  0
LINE
  5
79EA
330
1E
100
AcDbEntity
  8
24
  6
CONTINUOUS
 62
     2
100
AcDbLine
 10
225.1013183593999
 20
-431.8421630859999
 30
0.0
 11
232.9155273436999
 21
-451.0
 31
0.0
  0
LINE
  5
79EB
330
1E
100
AcDbEntity
  8
24
  6
CONTINUOUS
 62
     2
100
AcDbLine
 10
232.9155273436999
 20
-451.0
 30
0.0
 11
-169.0981445312999
 21
-451.0
 31
0.0
  0
LINE
  5
79EC
330
1E
100
AcDbEntity
  8
24
  6
CONTINUOUS
 62
     2
100
AcDbLine
 10
-169.0981445312999
 20
-451.0
 30
0.0
 11
-161.30859375
 21
-429.2399902344
 31
0.0
  0
LINE
  5
79ED
330
1E
100
AcDbEntity
  8
24
  6
CONTINUOUS
 62
     2
100
AcDbLine
 10
-161.30859375
 20
-429.2399902344
 30
0.0
 11
-174.3190917968999
 21
-417.5306396484999
 31
0.0
  0
DIMENSION
  5
79F1
330
1E
100
AcDbEntity
  8
30
  6
CONTINUOUS
100
AcDbDimension
  2
*D24
 10
0.0000000000000036
 20
-347.5376992547722
 30
0.0
 11
-56.25
 21
-342.5376992547721
 31
0.0
 70
    32
  3
STANDARD
100
AcDbAlignedDimension
 13
-112.5
 23
-415.9997558593
 33
0.0
 14
0.0
 24
-407.0
 34
0.0
100
AcDbRotatedDimension
  0
DIMENSION
  5
79FE
330
1E
100
AcDbEntity
  8
30
  6
CONTINUOUS
100
AcDbDimension
  2
*D25
 10
182.5
 20
-347.5376992547722
 30
0.0
 11
91.25
 21
-342.5376992547721
 31
0.0
 70
    32
  3
STANDARD
100
AcDbAlignedDimension
 13
0.0
 23
-407.0
 33
0.0
 14
182.5
 24
-415.9997558593
 34
0.0
100
AcDbRotatedDimension
1001
ACAD
1000
DSTYLE
1002
{
1070
   287
1070
     4
1070
   287
1070
     4
1070
   279
1070
     1
1002
}
  0
DIMENSION
  5
7A14
330
1E
100
AcDbEntity
  8
30
  6
CONTINUOUS
100
AcDbDimension
  2
*D26
 10
180.1778321554064
 20
-436.5324078394073
 30
0.0
 11
214.4648291639199
 21
-379.4644241414876
 31
0.0
 70
   163
  1
<>
  3
STANDARD
100
AcDbDiametricDimension
 15
184.8221678445933
 25
-425.4675921605926
 35
0.0
 40
0.0
1001
ACAD
1000
DSTYLE
1002
{
1070
   288
1070
     1
1002
}
  0
LWPOLYLINE
  5
7A6B
330
1E
100
AcDbEntity
  8
10
  6
CONTINUOUS
100
AcDbPolyline
 90
        4
 70
     0
 43
0.0
 10
-39.0
 20
505.3372267671496
 10
-39.0
 20
494.3372267671496
 10
39.0
 20
494.3372267671496
 10
39.0
 20
505.3372267671496
  0
LWPOLYLINE
  5
7A6C
330
1E
100
AcDbEntity
  8
10
  6
CONTINUOUS
100
AcDbPolyline
 90
        4
 70
     0
 43
0.0
 10
-20.0
 20
494.3372267671496
 10
-20.0
 20
454.3369826265498
 10
20.0
 20
454.3369826265498
 10
20.0
 20
494.3372267671496
  0
LWPOLYLINE
  5
7A6D
330
1E
100
AcDbEntity
  8
12
  6
DASHED
100
AcDbPolyline
 90
        2
 70
     0
 43
0.0
 10
-99.99999999999978
 20
570.3374709078498
 10
-99.99999999999978
 20
540.3373488374497
  0
LWPOLYLINE
  5
7A6E
330
1E
100
AcDbEntity
  8
12
  6
DASHED
100
AcDbPolyline
 90
        2
 70
     0
 43
0.0
 10
-114.9999999999997
 20
555.3374709078496
 10
-84.99999999999976
 20
555.3374709078496
  0
CIRCLE
  5
7A6F
330
1E
100
AcDbEntity
  8
12
  6
DASHED
100
AcDbCircle
 10
-99.99999999999978
 20
555.3374709078496
 30
0.0
 40
6.0
  0
LWPOLYLINE
  5
7A72
330
1E
100
AcDbEntity
  8
12
  6
DASHED
100
AcDbPolyline
 90
        2
 70
     0
 43
0.0
 10
170.0
 20
570.3374709078498
 10
170.0
 20
540.3373488374497
  0
CIRCLE
  5
7A73
330
1E
100
AcDbEntity
  8
12
  6
DASHED
100
AcDbCircle
 10
170.0
 20
555.3374709078496
 30
0.0
 40
6.0
  0
LWPOLYLINE
  5
7A74
330
1E
100
AcDbEntity
  8
12
  6
DASHED
100
AcDbPolyline
 90
        2
 70
     0
 43
0.0
 10
155.0
 20
555.3374709078496
 10
185.0
 20
555.3374709078496
  0
LWPOLYLINE
  5
7A75
330
1E
100
AcDbEntity
  8
24
  6
CONTINOUS
100
AcDbPolyline
 90
        2
 70
     0
 43
0.0
 10
-69.99999999999977
 20
740.3374709078497
 10
-69.99999999999977
 20
900.5867313670654
  0
LWPOLYLINE
  5
7A76
330
1E
100
AcDbEntity
  8
24
  6
CONTINOUS
100
AcDbPolyline
 90
        2
 70
     0
 43
0.0
 10
70.0
 20
740.3374709078497
 10
70.0
 20
900.5867313670654
  0
LWPOLYLINE
  5
7A7A
330
1E
100
AcDbEntity
  8
24
  6
CONTINOUS
100
AcDbPolyline
 90
        2
 70
     0
 43
0.0
 10
-22.5
 20
870.3374709078497
 10
22.5
 20
870.3374709078497
  0
LWPOLYLINE
  5
7A7B
330
1E
100
AcDbEntity
  8
10
  6
CONTINUOUS
100
AcDbPolyline
 90
        2
 70
     0
 43
0.0
 10
-77.49999999999976
 20
795.3374709078497
 10
-62.49999999999977
 20
795.3374709078497
  0
LWPOLYLINE
  5
7A7C
330
1E
100
AcDbEntity
  8
24
  6
CONTINOUS
100
AcDbPolyline
 90
        2
 70
     0
 43
0.0
 10
47.5
 20
820.3374709078497
 10
92.5
 20
820.3374709078497
  0
LWPOLYLINE
  5
7A7D
330
1E
100
AcDbEntity
  8
10
  6
CONTINUOUS
100
AcDbPolyline
 90
        2
 70
     0
 43
0.0
 10
-7.5
 20
845.3374709078497
 10
7.5
 20
845.3374709078497
  0
LINE
  5
7A7E
330
1E
100
AcDbEntity
  8
10
  6
CONTINUOUS
100
AcDbLine
 10
147.5
 20
770.3372267671498
 30
0.0
 11
147.5
 21
890.3374709078496
 31
0.0
  0
LINE
  5
7A7F
330
1E
100
AcDbEntity
  8
10
  6
CONTINUOUS
100
AcDbLine
 10
147.5
 20
890.3374709078496
 30
0.0
 11
132.4999999999999
 21
890.3374709078496
 31
0.0
  0
LINE
  5
7A80
330
1E
100
AcDbEntity
  8
10
  6
CONTINUOUS
100
AcDbLine
 10
132.4999999999999
 20
890.3374709078496
 30
0.0
 11
132.4999999999999
 21
770.3374709078497
 31
0.0
  0
LINE
  5
7A81
330
1E
100
AcDbEntity
  8
10
  6
CONTINUOUS
100
AcDbLine
 10
219.990234375
 20
770.3374709078497
 30
0.0
 11
-150.0004882812995
 21
770.3374709078499
 31
0.0
  0
LINE
  5
7A82
330
1E
100
AcDbEntity
  8
10
  6
CONTINUOUS
100
AcDbLine
 10
77.5
 20
770.3374709078497
 30
0.0
 11
77.5
 21
840.3374709078496
 31
0.0
  0
LINE
  5
7A83
330
1E
100
AcDbEntity
  8
10
  6
CONTINUOUS
100
AcDbLine
 10
77.5
 20
840.3374709078496
 30
0.0
 11
62.5
 21
840.3374709078496
 31
0.0
  0
LINE
  5
7A84
330
1E
100
AcDbEntity
  8
10
  6
CONTINUOUS
100
AcDbLine
 10
62.5
 20
840.3374709078496
 30
0.0
 11
62.5
 21
770.3374709078497
 31
0.0
  0
LINE
  5
7A86
330
1E
100
AcDbEntity
  8
10
  6
CONTINUOUS
100
AcDbLine
 10
7.5
 20
770.3374709078497
 30
0.0
 11
7.5
 21
890.3374709078496
 31
0.0
  0
LINE
  5
7A87
330
1E
100
AcDbEntity
  8
10
  6
CONTINUOUS
100
AcDbLine
 10
7.5
 20
890.3374709078496
 30
0.0
 11
-7.5
 21
890.3374709078496
 31
0.0
  0
LINE
  5
7A88
330
1E
100
AcDbEntity
  8
10
  6
CONTINUOUS
100
AcDbLine
 10
-7.5
 20
890.3374709078496
 30
0.0
 11
-7.5
 21
770.3374709078497
 31
0.0
  0
LINE
  5
7A8A
330
1E
100
AcDbEntity
  8
10
  6
CONTINUOUS
100
AcDbLine
 10
-62.49999999999977
 20
770.3374709078497
 30
0.0
 11
-62.49999999999977
 21
840.3374709078496
 31
0.0
  0
LINE
  5
7A8B
330
1E
100
AcDbEntity
  8
10
  6
CONTINUOUS
100
AcDbLine
 10
-62.49999999999977
 20
840.3374709078496
 30
0.0
 11
-77.49999999999977
 21
840.3374709078496
 31
0.0
  0
LINE
  5
7A8C
330
1E
100
AcDbEntity
  8
10
  6
CONTINUOUS
100
AcDbLine
 10
-77.49999999999977
 20
840.3374709078496
 30
0.0
 11
-77.49999999999977
 21
770.3374709078497
 31
0.0
  0
LINE
  5
7A8E
330
1E
100
AcDbEntity
  8
10
  6
CONTINUOUS
100
AcDbLine
 10
-150.0004882812995
 20
770.3374709078499
 30
0.0
 11
-150.0004882812995
 21
505.3372267671496
 31
0.0
  0
LINE
  5
7A8F
330
1E
100
AcDbEntity
  8
10
  6
CONTINUOUS
100
AcDbLine
 10
-150.0004882812995
 20
505.3372267671496
 30
0.0
 11
219.990234375
 21
505.3372267671496
 31
0.0
  0
LINE
  5
7A90
330
1E
100
AcDbEntity
  8
10
  6
CONTINUOUS
100
AcDbLine
 10
219.990234375
 20
505.3372267671496
 30
0.0
 11
219.990234375
 21
770.3374709078497
 31
0.0
  0
DIMENSION
  5
7A92
330
1E
100
AcDbEntity
  8
30
  6
CONTINUOUS
100
AcDbDimension
  2
*D27
 10
164.9313845816467
 20
552.1266863089035
 30
0.0
 11
250.016480231547
 21
599.4792248978533
 31
0.0
 70
   163
  3
STANDARD
100
AcDbDiametricDimension
 15
175.0686154183532
 25
558.5482555067961
 35
0.0
 40
0.0
1001
ACAD
1000
DSTYLE
1002
{
1070
   288
1070
     1
1002
}
  0
DIMENSION
  5
7A9E
330
1E
100
AcDbEntity
  8
30
  6
CONTINUOUS
100
AcDbDimension
  2
*D28
 10
177.0915043198655
 20
770.3374709078497
 30
0.0
 11
172.0915043198655
 21
830.3374709078497
 31
0.0
 70
    32
  3
STANDARD
100
AcDbAlignedDimension
 13
147.5
 23
890.3374709078496
 33
0.0
 14
147.5
 24
770.3374709078497
 34
0.0
 50
90.0
100
AcDbRotatedDimension
  0
DIMENSION
  5
7AAB
330
1E
100
AcDbEntity
  8
30
  6
CONTINUOUS
100
AcDbDimension
  2
*D29
 10
163.968163552281
 20
870.3374709078497
 30
0.0
 11
158.9681635522809
 21
880.3374709078497
 31
0.0
 70
    32
  3
STANDARD
100
AcDbAlignedDimension
 13
147.4999999999996
 23
890.3374709078496
 33
0.0
 14
147.4999999999996
 24
870.3374709078497
 34
0.0
 50
90.0
100
AcDbRotatedDimension
  0
DIMENSION
  5
7AB8
330
1E
100
AcDbEntity
  8
30
  6
CONTINUOUS
100
AcDbDimension
  2
*D30
 10
163.968163552281
 20
845.3374709078497
 30
0.0
 11
158.9681635522809
 21
857.8374709078497
 31
0.0
 70
    32
  3
STANDARD
100
AcDbAlignedDimension
 13
147.4999999999996
 23
870.3374709078497
 33
0.0
 14
147.4999999999996
 24
845.3374709078497
 34
0.0
 50
90.0
100
AcDbRotatedDimension
  0
LWPOLYLINE
  5
7AC5
330
1E
100
AcDbEntity
  8
10
  6
CONTINUOUS
100
AcDbPolyline
 90
        2
 70
     0
 43
0.0
 10
132.4999999999999
 20
845.3374709078497
 10
147.5
 20
845.3374709078497
  0
LWPOLYLINE
  5
7AC6
330
1E
100
AcDbEntity
  8
10
  6
CONTINUOUS
100
AcDbPolyline
 90
        2
 70
     0
 43
0.0
 10
62.5
 20
795.3374709078497
 10
77.5
 20
795.3374709078497
  0
LWPOLYLINE
  5
7AC7
330
1E
100
AcDbEntity
  8
24
  6
CONTINOUS
100
AcDbPolyline
 90
        2
 70
     0
 43
0.0
 10
0.0000000000002274
 20
740.3374709078497
 10
0.0000000000002274
 20
900.5867313670654
  0
LWPOLYLINE
  5
7AC8
330
1E
100
AcDbEntity
  8
24
  6
CONTINOUS
100
AcDbPolyline
 90
        2
 70
     0
 43
0.0
 10
140.0
 20
740.3374709078497
 10
140.0
 20
900.5867313670654
  0
DIMENSION
  5
7AC9
330
1E
100
AcDbEntity
  8
30
  6
CONTINUOUS
100
AcDbDimension
  2
*D31
 10
95.90254539813759
 20
820.3374709078497
 30
0.0
 11
90.90254539813747
 21
830.3374709078497
 31
0.0
 70
    32
  3
STANDARD
100
AcDbAlignedDimension
 13
77.5
 23
840.3374709078496
 33
0.0
 14
77.5
 24
820.3374709078497
 34
0.0
 50
90.0
100
AcDbRotatedDimension
  0
DIMENSION
  5
7AD6
330
1E
100
AcDbEntity
  8
30
  6
CONTINUOUS
100
AcDbDimension
  2
*D32
 10
95.90254539813757
 20
795.3374709078497
 30
0.0
 11
90.90254539813745
 21
807.8374709078497
 31
0.0
 70
    32
  3
STANDARD
100
AcDbAlignedDimension
 13
77.5
 23
820.3374709078497
 33
0.0
 14
77.5
 24
795.3374709078497
 34
0.0
 50
90.0
100
AcDbRotatedDimension
  0
DIMENSION
  5
7B14
330
1E
100
AcDbEntity
  8
30
  6
CONTINUOUS
100
AcDbDimension
  2
*D33
 10
110.7180532685105
 20
770.3374709078497
 30
0.0
 11
105.7180532685104
 21
805.3374709078497
 31
0.0
 70
    32
  3
STANDARD
100
AcDbAlignedDimension
 13
77.5
 23
840.3374709078496
 33
0.0
 14
77.5
 24
770.3374709078497
 34
0.0
 50
90.0
100
AcDbRotatedDimension
  0
LWPOLYLINE
  5
7B21
330
1E
100
AcDbEntity
  8
24
  6
CONTINOUS
100
AcDbPolyline
 90
        2
 70
     0
 43
0.0
 10
118.5
 20
870.3374709078497
 10
163.4999999999999
 20
870.3374709078497
  0
LWPOLYLINE
  5
7B22
330
1E
100
AcDbEntity
  8
24
  6
CONTINOUS
100
AcDbPolyline
 90
        2
 70
     0
 43
0.0
 10
-92.49999999999976
 20
820.3374709078497
 10
-47.49999999999977
 20
820.3374709078497
  0
DIMENSION
  5
7B23
330
1E
100
AcDbEntity
  8
30
  6
CONTINUOUS
100
AcDbDimension
  2
*D34
 10
0.0000000000002286
 20
920.384663997946
 30
0.0
 11
-34.99999999999977
 21
925.384663997946
 31
0.0
 70
    32
  3
STANDARD
100
AcDbAlignedDimension
 13
-69.99999999999977
 23
900.5867313670654
 33
0.0
 14
0.0000000000002274
 24
900.5867313670654
 34
0.0
100
AcDbRotatedDimension
  0
DIMENSION
  5
7B30
330
1E
100
AcDbEntity
  8
30
  6
CONTINUOUS
100
AcDbDimension
  2
*D35
 10
70.0
 20
920.384663997946
 30
0.0
 11
35.00000000000011
 21
925.384663997946
 31
0.0
 70
    32
  3
STANDARD
100
AcDbAlignedDimension
 13
0.0000000000002274
 23
901.5867313670652
 33
0.0
 14
70.0
 24
900.5867313670654
 34
0.0
100
AcDbRotatedDimension
  0
DIMENSION
  5
7B3D
330
1E
100
AcDbEntity
  8
30
  6
CONTINUOUS
100
AcDbDimension
  2
*D36
 10
140.0
 20
920.384663997946
 30
0.0
 11
105.0
 21
925.384663997946
 31
0.0
 70
    32
  3
STANDARD
100
AcDbAlignedDimension
 13
70.0
 23
901.5867313670652
 33
0.0
 14
140.0
 24
900.5867313670654
 34
0.0
100
AcDbRotatedDimension
  0
LWPOLYLINE
  5
7BD1
330
1E
100
AcDbEntity
  8
24
  6
CONTINOUS
100
AcDbPolyline
 90
        2
 70
     0
 43
0.0
 10
1007.000122070299
 20
35.0
 10
1058.586497997648
 20
35.0
  0
LWPOLYLINE
  5
7BD2
330
1E
100
AcDbEntity
  8
24
  6
CONTINOUS
100
AcDbPolyline
 90
        2
 70
     0
 43
0.0
 10
892.0001220702998
 20
-100.0
 10
1057.9818115234
 20
-100.0
  0
LWPOLYLINE
  5
7BD3
330
1E
100
AcDbEntity
  8
24
  6
CONTINOUS
100
AcDbPolyline
 90
        2
 70
     0
 43
0.0
 10
1007.000122070299
 20
-125.0
 10
1058.586497997648
 20
-125.0
  0
LWPOLYLINE
  5
7BD4
330
1E
100
AcDbEntity
  8
24
  6
CONTINOUS
100
AcDbPolyline
 90
        2
 70
     0
 43
0.0
 10
1007.000122070299
 20
-75.0
 10
1058.586497997648
 20
-75.0
  0
DIMENSION
  5
7BD5
330
1E
100
AcDbEntity
  8
30
  6
CONTINUOUS
100
AcDbDimension
  2
*D37
 10
1077.697398181139
 20
34.99999999999999
 30
0.0
 11
1072.69739818114
 21
60.00000000000017
 31
0.0
 70
    32
  3
STANDARD
100
AcDbAlignedDimension
 13
1058.586497997648
 23
85.0
 33
0.0
 14
1058.586497997648
 24
35.0
 34
0.0
 50
90.0
100
AcDbRotatedDimension
  0
DIMENSION
  5
7BEB
330
1E
100
AcDbEntity
  8
30
  6
CONTINUOUS
100
AcDbDimension
  2
*D38
 10
1094.523111921884
 20
22.49999999999998
 30
0.0
 11
1089.523111921884
 21
60.00000000000015
 31
0.0
 70
    32
  3
STANDARD
100
AcDbAlignedDimension
 13
1037.0001220703
 23
97.5
 33
0.0
 14
1037.0001220703
 24
22.5
 34
0.0
 50
90.0
100
AcDbRotatedDimension
  0
DIMENSION
  5
7BF8
330
1E
100
AcDbEntity
  8
30
  6
CONTINUOUS
100
AcDbDimension
  2
*D39
 10
1131.540469722994
 20
-0.0000000000000208
 30
0.0
 11
1126.540469722994
 21
30.00000000000016
 31
0.0
 70
    32
  3
STANDARD
100
AcDbAlignedDimension
 13
1094.523111921884
 23
60.0
 33
0.0
 14
1057.9818115234
 24
0.0
 34
0.0
 50
90.0
100
AcDbRotatedDimension
  0
DIMENSION
  5
7C17
330
1E
100
AcDbEntity
  8
30
  6
CONTINUOUS
100
AcDbDimension
  2
*D40
 10
1131.540469722994
 20
-100.0
 30
0.0
 11
1126.540469722994
 21
-49.99999999999985
 31
0.0
 70
    32
  3
STANDARD
100
AcDbAlignedDimension
 13
1058.981811523399
 23
-0.0000000000000003
 33
0.0
 14
1057.9818115234
 24
-100.0
 34
0.0
 50
90.0
100
AcDbRotatedDimension
  0
DIMENSION
  5
7C24
330
1E
100
AcDbEntity
  8
30
  6
CONTINUOUS
100
AcDbDimension
  2
*D41
 10
625.0
 20
-292.7288816386854
 30
0.0
 11
766.00006103515
 21
-287.7288816386853
 31
0.0
 70
    32
  3
STANDARD
100
AcDbAlignedDimension
 13
907.0001220703
 23
-220.0
 33
0.0
 14
625.0
 24
-0.0000000000000817
 34
0.0
100
AcDbRotatedDimension
  0
DIMENSION
  5
7C31
330
1E
100
AcDbEntity
  8
30
  6
CONTINUOUS
100
AcDbDimension
  2
*D42
 10
590.9998397826427
 20
-312.0241580823661
 30
0.0
 11
748.9999809264713
 21
-307.0241580823661
 31
0.0
 70
    32
  3
STANDARD
100
AcDbAlignedDimension
 13
907.0001220703
 23
-221.0
 33
0.0
 14
590.9998397826427
 24
0.0
 34
0.0
100
AcDbRotatedDimension
  0
DIMENSION
  5
7C3E
330
1E
100
AcDbEntity
  8
30
  6
CONTINUOUS
100
AcDbDimension
  2
*D43
 10
1019.711013044022
 20
79.45383196559856
 30
0.0
 11
1058.309451552858
 21
147.9359448810664
 31
0.0
 70
   163
  3
STANDARD
100
AcDbDiametricDimension
 15
1024.289231096576
 25
90.54616803440115
 35
0.0
 40
0.0
1001
ACAD
1000
DSTYLE
1002
{
1070
   288
1070
     1
1002
}
  0
DIMENSION
  5
7E1C
330
1E
100
AcDbEntity
  8
30
  6
CONTINUOUS
100
AcDbDimension
  2
*D44
 10
380.9992675780383
 20
-366.6203184733531
 30
0.0
 11
643.9996948241692
 21
-361.6203184733531
 31
0.0
 70
    32
  3
STANDARD
100
AcDbAlignedDimension
 13
907.0001220703
 23
-293.2288816386853
 33
0.0
 14
380.9992675780383
 24
0.0
 34
0.0
100
AcDbRotatedDimension
  0
DIMENSION
  5
7E3B
330
1E
100
AcDbEntity
  8
30
  6
CONTINUOUS
100
AcDbDimension
  2
*D45
 10
511.0001068115055
 20
-337.3855890285331
 30
0.0
 11
709.0001144409027
 21
-332.3855890285331
 31
0.0
 70
    32
  3
STANDARD
100
AcDbAlignedDimension
 13
907.0001220703
 23
-312.0241580823661
 33
0.0
 14
511.0001068115055
 24
0.0
 34
0.0
100
AcDbRotatedDimension
  0
DIMENSION
  5
7E87
330
1E
100
AcDbEntity
  8
30
  6
CONTINUOUS
100
AcDbDimension
  2
*D46
 10
642.0
 20
338.8993563182501
 30
0.0
 11
774.50006103515
 21
343.8993563182501
 31
0.0
 70
    32
  3
STANDARD
100
AcDbAlignedDimension
 13
907.0001220703
 23
305.0
 33
0.0
 14
642.0
 24
180.0002441405998
 34
0.0
100
AcDbRotatedDimension
  0
DIMENSION
  5
7E94
330
1E
100
AcDbEntity
  8
30
  6
CONTINUOUS
100
AcDbDimension
  2
*D47
 10
612.0
 20
367.3974730805674
 30
0.0
 11
759.5000610351498
 21
372.3974730805674
 31
0.0
 70
    32
  3
STANDARD
100
AcDbAlignedDimension
 13
907.0001220703
 23
339.3993563182501
 33
0.0
 14
612.0
 24
180.0002441405998
 34
0.0
100
AcDbRotatedDimension
  0
DIMENSION
  5
7EAA
330
1E
100
AcDbEntity
  8
30
  6
CONTINUOUS
100
AcDbDimension
  2
*D48
 10
582.0
 20
386.7354856987958
 30
0.0
 11
744.50006103515
 21
391.7354856987957
 31
0.0
 70
    32
  3
STANDARD
100
AcDbAlignedDimension
 13
907.0001220703
 23
367.3974730805674
 33
0.0
 14
582.0
 24
180.0002441405998
 34
0.0
100
AcDbRotatedDimension
  0
DIMENSION
  5
7EC0
330
1E
100
AcDbEntity
  8
30
  6
CONTINUOUS
100
AcDbDimension
  2
*D49
 10
512.0
 20
415.2336024611122
 30
0.0
 11
709.5000610351498
 21
420.2336024611122
 31
0.0
 70
    32
  3
STANDARD
100
AcDbAlignedDimension
 13
907.0001220703
 23
386.7354856987958
 33
0.0
 14
512.0
 24
180.0002441405998
 34
0.0
100
AcDbRotatedDimension
  0
DIMENSION
  5
7EF1
330
1E
100
AcDbEntity
  8
30
  6
CONTINUOUS
100
AcDbDimension
  2
*D50
 10
110.0
 20
324.9310626344431
 30
0.0
 11
0.0000000000000003
 21
329.9310626344431
 31
0.0
 70
    32
  3
STANDARD
100
AcDbAlignedDimension
 13
-110.0
 23
305.0
 33
0.0
 14
110.0
 24
305.0
 34
0.0
100
AcDbRotatedDimension
  0
LWPOLYLINE
  5
803F
330
1E
100
AcDbEntity
  8
12
  6
DASHED
100
AcDbPolyline
 90
        2
 70
     0
 43
0.0
 10
888.1151123047001
 20
-431.0
 10
940.0001220703
 20
-431.0
  0
LWPOLYLINE
  5
8040
330
1E
100
AcDbEntity
  8
12
  6
DASHED
100
AcDbPolyline
 90
        7
 70
     0
 43
0.0
 10
907.0001220703
 20
-400.9995117187999
 10
957.0001220703
 20
-400.9995117187999
 10
957.0001220703
 20
-406.9995117187999
 10
919.0001220702999
 20
-406.9995117187999
 42
0.4142135623730951
 10
913.0001220703
 20
-412.9995117187999
 10
913.0001220703
 20
-451.0
 10
907.0001220703
 20
-451.0
  0
LWPOLYLINE
  5
8041
330
1E
100
AcDbEntity
  8
12
  6
DASHED
100
AcDbPolyline
 90
        4
 70
     0
 43
0.0
 10
913.0001220703
 20
-421.9997558594
 10
923.0001220703
 20
-421.9997558594
 10
923.0001220703
 20
-439.9997558594
 10
913.0001220703
 20
-439.9997558594
  0
LWPOLYLINE
  5
8042
330
1E
100
AcDbEntity
  8
12
  6
DASHED
100
AcDbPolyline
 90
        4
 70
     0
 43
0.0
 10
913.0001220703
 20
-427.0
 10
925.0001220703
 20
-427.0
 10
925.0001220703
 20
-435.0
 10
913.0001220703
 20
-435.0
  0
LWPOLYLINE
  5
8043
330
1E
100
AcDbEntity
  8
12
  6
DASHED
100
AcDbPolyline
 90
        2
 70
     0
 43
0.0
 10
913.0001220703
 20
-448.0027954731998
 42
0.0002357521657335
 10
913.0001238488317
 20
-447.9990234375
  0
LWPOLYLINE
  5
8044
330
1E
100
AcDbEntity
  8
12
  6
DASHED
100
AcDbPolyline
 90
        4
 70
     0
 43
0.0
 10
923.0001220703
 20
-426.9997558594
 10
925.0001220703
 20
-426.9997558594
 10
925.0001220703
 20
-434.9997558594
 10
923.0001220703
 20
-434.9997558594
  0
LWPOLYLINE
  5
8045
330
1E
100
AcDbEntity
  8
12
  6
DASHED
100
AcDbPolyline
 90
        2
 70
     0
 43
0.0
 10
888.1151123047001
 20
-791.0
 10
940.0001220703
 20
-791.0
  0
LWPOLYLINE
  5
8046
330
1E
100
AcDbEntity
  8
12
  6
DASHED
100
AcDbPolyline
 90
        4
 70
     0
 43
0.0
 10
907.0001220703
 20
-821.0
 10
957.0001220703
 20
-821.0
 10
957.0001220703
 20
-815.0
 10
919.0001220702999
 20
-815.0
  0
LWPOLYLINE
  5
8047
330
1E
100
AcDbEntity
  8
12
  6
DASHED
100
AcDbPolyline
 90
        4
 70
     0
 43
0.0
 10
913.0001220703
 20
-795.0
 10
925.0001220703
 20
-795.0
 10
925.0001220703
 20
-787.0
 10
913.0001220703
 20
-787.0
  0
LWPOLYLINE
  5
8048
330
1E
100
AcDbEntity
  8
12
  6
DASHED
100
AcDbPolyline
 90
        4
 70
     0
 43
0.0
 10
913.0001220703
 20
-800.0
 10
923.0001220703
 20
-800.0
 10
923.0001220703
 20
-782.0
 10
913.0001220703
 20
-782.0
  0
LWPOLYLINE
  5
8049
330
1E
100
AcDbEntity
  8
12
  6
DASHED
100
AcDbPolyline
 90
        3
 70
     0
 43
0.0
 10
913.0001220703
 20
-809.0
 10
913.0001220703
 20
-771.0
 10
907.0001220703
 20
-771.0
  0
LWPOLYLINE
  5
804A
330
1E
100
AcDbEntity
  8
12
  6
DASHED
100
AcDbPolyline
 90
        2
 70
     0
 43
0.0
 10
-919.0001220702999
 20
-815.0
 42
0.4142135623730951
 10
-913.0001220703
 20
-809.0
210
0.0
220
0.0
230
-1.0
  0
LWPOLYLINE
  5
804B
330
1E
100
AcDbEntity
  8
12
  6
DASHED
100
AcDbPolyline
 90
        2
 70
     0
 43
0.0
 10
-913.0001220703
 20
-773.9972045269
 42
0.0002357521594807
 10
-913.000123848831
 20
-774.0009765625
210
0.0
220
0.0
230
-1.0
  0
LWPOLYLINE
  5
804C
330
1E
100
AcDbEntity
  8
12
  6
DASHED
100
AcDbPolyline
 90
        2
 70
     0
 43
0.0
 10
692.0
 20
-805.7546386719
 10
692.0
 20
-854.0
  0
LWPOLYLINE
  5
804D
330
1E
100
AcDbEntity
  8
12
  6
DASHED
100
AcDbPolyline
 90
        4
 70
     0
 43
0.0
 10
701.0
 20
-827.0
 10
701.0
 20
-837.0
 10
683.0
 20
-837.0
 10
683.0
 20
-827.0
  0
LWPOLYLINE
  5
804E
330
1E
100
AcDbEntity
  8
12
  6
DASHED
100
AcDbPolyline
 90
        2
 70
     0
 43
0.0
 10
674.9972045268
 20
-827.0
 42
0.0002357521657335
 10
675.0009765625
 20
-827.0000017785312
  0
LWPOLYLINE
  5
804F
330
1E
100
AcDbEntity
  8
12
  6
DASHED
100
AcDbPolyline
 90
        4
 70
     0
 43
0.0
 10
688.0
 20
-827.0
 10
688.0
 20
-839.0
 10
696.0
 20
-839.0
 10
696.0
 20
-827.0
  0
LWPOLYLINE
  5
8050
330
1E
100
AcDbEntity
  8
12
  6
DASHED
100
AcDbPolyline
 90
        7
 70
     0
 43
0.0
 10
722.0
 20
-821.0
 10
722.0
 20
-871.0
 10
716.0
 20
-871.0
 10
716.0
 20
-833.0
 42
0.4142135623730951
 10
710.0
 20
-827.0
 10
672.0
 20
-827.0
 10
672.0
 20
-821.0
  0
LWPOLYLINE
  5
8066
330
1E
100
AcDbEntity
  8
18
100
AcDbPolyline
 90
        4
 70
     1
 43
0.0
 10
907.0001220703
 20
-400.9995117187999
 10
647.0
 20
-400.9995117187999
 10
647.0
 20
-821.0
 10
907.0001220703
 20
-821.0
  0
DIMENSION
  5
8094
330
1E
100
AcDbEntity
  8
30
  6
CONTINUOUS
100
AcDbDimension
  2
*D51
 10
972.7375933803832
 20
-451.0
 30
0.0
 11
967.7375933803835
 21
-440.9999999999998
 31
0.0
 70
    32
  3
STANDARD
100
AcDbAlignedDimension
 13
940.0001220703
 23
-431.0
 33
0.0
 14
913.0001220703
 24
-451.0
 34
0.0
 50
90.0
100
AcDbRotatedDimension
  0
LINE
  5
80A1
330
1E
100
AcDbEntity
  8
16
100
AcDbLine
 10
946.2667848992751
 20
-601.0
 30
0.0
 11
617.5619305145722
 21
-601.0
 31
0.0
  0
DIMENSION
  5
80A2
330
1E
100
AcDbEntity
  8
30
  6
CONTINUOUS
100
AcDbDimension
  2
*D52
 10
997.0858625891251
 20
-601.0
 30
0.0
 11
992.0858625891254
 21
-515.9999999999999
 31
0.0
 70
    32
  3
STANDARD
100
AcDbAlignedDimension
 13
945.0001220702999
 23
-431.0
 33
0.0
 14
907.0001220703
 24
-601.0
 34
0.0
 50
90.0
100
AcDbRotatedDimension
  0
DIMENSION
  5
80AF
330
1E
100
AcDbEntity
  8
30
  6
CONTINUOUS
100
AcDbDimension
  2
*D53
 10
997.0858625891251
 20
-791.0
 30
0.0
 11
992.0858625891256
 21
-695.9999999999999
 31
0.0
 70
    32
  3
STANDARD
100
AcDbAlignedDimension
 13
912.0001220703001
 23
-601.0
 33
0.0
 14
940.0001220703
 24
-791.0
 34
0.0
 50
90.0
100
AcDbRotatedDimension
  0
DIMENSION
  5
80C5
330
1E
100
AcDbEntity
  8
30
  6
CONTINUOUS
100
AcDbDimension
  2
*D54
 10
968.7364119032684
 20
-771.0
 30
0.0
 11
963.7364119032683
 21
-780.9999999999996
 31
0.0
 70
    32
  3
STANDARD
100
AcDbAlignedDimension
 13
945.0001220702999
 23
-791.0
 33
0.0
 14
913.0001220703
 24
-771.0
 34
0.0
 50
90.0
100
AcDbRotatedDimension
  0
DIMENSION
  5
80F6
330
1E
100
AcDbEntity
  8
30
  6
CONTINUOUS
100
AcDbDimension
  2
*D55
 10
692.0
 20
-893.6351367055513
 30
0.0
 11
799.50006103515
 21
-888.6351367055512
 31
0.0
 70
    32
  3
STANDARD
100
AcDbAlignedDimension
 13
907.0001220703
 23
-821.0
 33
0.0
 14
692.0
 24
-854.0
 34
0.0
100
AcDbRotatedDimension
  0
LWPOLYLINE
  5
81FB
330
1E
100
AcDbEntity
  8
18
100
AcDbPolyline
 90
       12
 70
     0
 43
0.0
 10
-20.6845703125
 20
438.3372267671496
 42
-0.3952649206514862
 10
-15.69516982406276
 20
433.662623088552
 42
0.3952649206510883
 10
-20.68457031249999
 20
438.3372267671496
 10
-34.5
 20
438.3372267671496
 42
-0.4142135623730951
 10
-39.5
 20
443.3372267671495
 10
-39.5
 20
486.3372267671495
 10
39.5
 20
486.3372267671495
 10
39.5
 20
443.3372267671495
 42
-0.4142135623730951
 10
34.5
 20
438.3372267671496
 10
20.68472609898483
 20
438.3372267671496
 42
0.3952632559110944
 10
15.69532748464688
 20
433.6626518234107
 10
15.5029538412006
 20
408.1982150605827
  0
LWPOLYLINE
  5
81FF
330
1E
100
AcDbEntity
  8
18
100
AcDbPolyline
 90
        2
 70
     0
 43
0.0
 10
-15.69482421869997
 20
433.6624220796495
 10
-13.23583984369997
 20
408.7603732847392
  0
DIMENSION
  5
8201
330
1E
100
AcDbEntity
  8
30
  6
CONTINUOUS
100
AcDbDimension
  2
*D56
 10
-0.0000000000000054
 20
355.0631140044442
 30
0.0
 11
-52.43996826262264
 21
355.0631140044442
 31
0.0
 70
   160
  3
STANDARD
100
AcDbAlignedDimension
 13
-99.99999999999978
 23
540.3373488374497
 33
0.0
 14
0.0
 24
442.5196003617957
 34
0.0
100
AcDbRotatedDimension
1001
ACAD
1000
DSTYLE
1002
{
1070
    79
1070
     3
1002
}
  0
DIMENSION
  5
8220
330
1E
100
AcDbEntity
  8
30
  6
CONTINUOUS
100
AcDbDimension
  2
*D57
 10
-0.0000000000000083
 20
-926.3716017435802
 30
0.0
 11
-49.9999999999999
 21
-921.3716017435801
 31
0.0
 70
    32
  3
STANDARD
100
AcDbAlignedDimension
 13
-99.99999999999978
 23
-835.9998779296997
 33
0.0
 14
0.0
 24
-791.5926135610889
 34
0.0
100
AcDbRotatedDimension
1001
ACAD
1000
DSTYLE
1002
{
1070
    79
1070
     3
1002
}
  0
LINE
  5
826F
330
1E
100
AcDbEntity
  8
17
  6
CONTINOUS
100
AcDbLine
 10
922.0101220703003
 20
-127.4499999999999
 30
0.0
 11
834.0101220703003
 21
-127.4499999999999
 31
0.0
  0
LINE
  5
8270
330
1E
100
AcDbEntity
  8
17
  6
CONTINOUS
100
AcDbLine
 10
897.0101220703003
 20
-102.4499999999999
 30
0.0
 11
834.0101220703003
 21
-102.4499999999999
 31
0.0
  0
LINE
  5
8271
330
1E
100
AcDbEntity
  8
17
  6
CONTINOUS
100
AcDbLine
 10
834.0101220703003
 20
-102.4499999999999
 30
0.0
 11
834.0101220703003
 21
-127.4499999999999
 31
0.0
  0
LINE
  5
8272
330
1E
100
AcDbEntity
  8
17
  6
CONTINOUS
100
AcDbLine
 10
922.0101220703003
 20
-127.4499999999999
 30
0.0
 11
950.0101220703003
 21
-127.4499999999999
 31
0.0
  0
LINE
  5
8273
330
1E
100
AcDbEntity
  8
17
  6
CONTINOUS
100
AcDbLine
 10
897.0101220703003
 20
-102.4499999999999
 30
0.0
 11
950.0101220703003
 21
-102.4499999999999
 31
0.0
  0
CIRCLE
  5
8274
330
1E
100
AcDbEntity
  8
17
  6
CONTINOUS
100
AcDbCircle
 10
937.0101220703004
 20
-114.9499999999999
 30
0.0
 40
4.099999904599826
  0
LINE
  5
8275
330
1E
100
AcDbEntity
  8
17
  6
CONTINOUS
100
AcDbLine
 10
950.0101220703003
 20
-102.4499999999999
 30
0.0
 11
950.0101220703003
 21
-127.4499999999999
 31
0.0
  0
DIMENSION
  5
8276
330
1E
100
AcDbEntity
  8
30
  6
CONTINUOUS
100
AcDbDimension
  2
*D61
 10
940.8327185763759
 20
-117.3521556309965
 30
0.0
 11
883.2440671286791
 21
-85.11565626740202
 31
0.0
 70
   163
  3
STANDARD
100
AcDbDiametricDimension
 15
934.1875255642229
 25
-112.5478443690036
 35
0.0
 40
0.0
1001
ACAD
1000
DSTYLE
1002
{
1070
   288
1070
     1
1002
}
  0
DIMENSION
  5
8277
330
1E
100
AcDbEntity
  8
30
  6
CONTINUOUS
100
AcDbDimension
  2
*D62
 10
907.0001220703
 20
-46.31859550944319
 30
0.0
 11
922.0051220703
 21
-46.31859550944319
 31
0.0
 70
   160
  3
STANDARD
100
AcDbAlignedDimension
 13
937.0101220703004
 23
-113.9499999999999
 33
0.0
 14
907.0001220703
 24
-62.5
 34
0.0
100
AcDbRotatedDimension
1001
ACAD
1000
DSTYLE
1002
{
1070
    79
1070
     3
1002
}
  0
DIMENSION
  5
8278
330
1E
100
AcDbEntity
  8
30
  6
CONTINUOUS
100
AcDbDimension
  2
*D63
 10
953.973859504109
 20
-0.0000000000000133
 30
0.0
 11
948.9738595041089
 21
-57.51999999999986
 31
0.0
 70
    32
  3
STANDARD
100
AcDbAlignedDimension
 13
937.5101220702994
 23
-115.04
 33
0.0
 14
907.0001220703
 24
0.0
 34
0.0
 50
90.0
100
AcDbRotatedDimension
1001
ACAD
1000
DSTYLE
1002
{
1070
    79
1070
     3
1002
}
  0
DIMENSION
  5
8302
330
1E
100
AcDbEntity
  8
30
  6
CONTINUOUS
100
AcDbDimension
  2
*D65
 10
170.0
 20
355.0631140044442
 30
0.0
 11
85.0
 21
360.0631140044443
 31
0.0
 70
    32
  3
STANDARD
100
AcDbAlignedDimension
 13
-0.0000000000000003
 23
437.5196003617957
 33
0.0
 14
170.0
 24
540.3373488374497
 34
0.0
100
AcDbRotatedDimension
1001
ACAD
1000
DSTYLE
1002
{
1070
    79
1070
     3
1002
}
  0
DIMENSION
  5
8325
330
1E
100
AcDbEntity
  8
30
  6
CONTINUOUS
100
AcDbDimension
  2
*D67
 10
169.9999999999999
 20
-926.3716017435802
 30
0.0
 11
84.99999999999998
 21
-921.3716017435801
 31
0.0
 70
    32
  3
STANDARD
100
AcDbAlignedDimension
 13
0.0
 23
-827.0
 33
0.0
 14
169.9999999999999
 24
-871.0
 34
0.0
100
AcDbRotatedDimension
1001
ACAD
1000
DSTYLE
1002
{
1070
    79
1070
     3
1002
}
  0
CIRCLE
  5
8384
330
1E
100
AcDbEntity
  8
18
100
AcDbCircle
 10
0.0
 20
396.3372267671644
 30
0.0
 40
20.00000000000003
  0
VIEWPORT
  5
9AC
330
1A
100
AcDbEntity
 67
     1
  8
0
  6
CONTINUOUS
100
AcDbViewport
 10
171.9995348790992
 20
144.1384735538403
 30
0.0
 40
488.8676857773513
 41
292.3514905034161
 68
     1
 69
     1
1001
ACAD
1000
MVIEW
1002
{
1070
    16
1010
0.0
1020
0.0
1030
0.0
1010
0.0
1020
0.0
1030
1.0
1040
0.0
1040
292.3514905034161
1040
171.9995348790992
1040
144.1384735538403
1040
50.0
1040
0.0
1040
0.0
1070
     0
1070
   100
1070
     1
1070
     1
1070
     0
1070
     0
1070
     0
1070
     0
1040
0.0
1040
0.0
1040
0.0
1040
10.0
1040
10.0
1040
10.0
1040
10.0
1070
     0
1002
{
1002
}
1002
}
  0
ENDSEC
  0
SECTION
  2
OBJECTS
  0
DICTIONARY
  5
C
330
0
100
AcDbDictionary
  3
ACAD_GROUP
350
D
  3
ACAD_LAYOUT
350
19
  3
ACAD_MLINESTYLE
350
16
  3
ACAD_PLOTSETTINGS
350
18
  3
ACAD_PLOTSTYLENAME
350
E
  3
ACDBHEADERROUNDTRIPXREC
350
83D0
  3
ACDBVARIABLEDICTIONARY
350
6C1E
  0
DICTIONARY
  5
178
330
1E
100
AcDbDictionary
280
     1
  3
ACAD_LAYOUTSELFREF
360
83F2
  0
DICTIONARY
  5
17A
330
1A
100
AcDbDictionary
280
     1
  3
ACAD_LAYOUTSELFREF
360
83F1
  0
DICTIONARY
  5
D
102
{ACAD_REACTORS
330
C
102
}
330
C
100
AcDbDictionary
  0
DICTIONARY
  5
19
102
{ACAD_REACTORS
330
C
102
}
330
C
100
AcDbDictionary
  0
DICTIONARY
  5
16
102
{ACAD_REACTORS
330
C
102
}
330
C
100
AcDbDictionary
  3
STANDARD
350
17
  0
DICTIONARY
  5
18
102
{ACAD_REACTORS
330
C
102
}
330
C
100
AcDbDictionary
  0
ACDBDICTIONARYWDFLT
  5
E
102
{ACAD_REACTORS
330
C
102
}
330
C
100
AcDbDictionary
281
     1
  3
Normal
350
F
100
AcDbDictionaryWithDefault
340
F
  0
DICTIONARY
  5
83D0
102
{ACAD_REACTORS
330
C
102
}
330
C
100
AcDbDictionary
  3
CEPSNTYPE
350
83DA
  3
DIMSTYLEDATA
350
83DE
  3
FINGERPRINTGUID
350
83DB
  3
HYPERLINKBASE
350
83D3
  3
INSUNITS
350
83D9
  3
LAYOUTDICT
350
83D5
  3
LWETCUNION
350
83D8
  3
PLOTSETDICT
350
83D6
  3
PLOTSTYLNAMDICT
350
83D7
  3
PSVPSCALE
350
83DD
  3
PUCSBASE
350
83E1
  3
PUCSORGBACK
350
83E7
  3
PUCSORGBOTTOM
350
83E3
  3
PUCSORGFRONT
350
83E6
  3
PUCSORGLEFT
350
83E4
  3
PUCSORGRIGHT
350
83E5
  3
PUCSORGTOP
350
83E2
  3
PUCSORTHOREF
350
83DF
  3
PUCSORTHOVIEW
350
83E0
  3
STYLESHEET
350
83D4
  3
TSTACKALIGN
350
83D1
  3
TSTACKSIZE
350
83D2
  3
UCSBASE
350
83EA
  3
UCSORGBACK
350
83F0
  3
UCSORGBOTTOM
350
83EC
  3
UCSORGFRONT
350
83EF
  3
UCSORGLEFT
350
83ED
  3
UCSORGRIGHT
350
83EE
  3
UCSORGTOP
350
83EB
  3
UCSORTHOREF
350
83E8
  3
UCSORTHOVIEW
350
83E9
  3
VERSIONGUID
350
83DC
  0
DICTIONARY
  5
6C1E
102
{ACAD_REACTORS
330
C
102
}
330
C
100
AcDbDictionary
  3
DIMASSOC
350
8133
  3
SORTENTS
350
6C1F
  0
XRECORD
  5
83F2
102
{ACAD_REACTORS
330
178
102
}
330
178
100
AcDbXrecord
340
1E
  0
XRECORD
  5
83F1
102
{ACAD_REACTORS
330
17A
102
}
330
17A
100
AcDbXrecord
340
1A
  0
MLINESTYLE
  5
17
102
{ACAD_REACTORS
330
16
102
}
330
16
100
AcDbMlineStyle
  2
STANDARD
 70
     0
  3

 62
   256
 51
90.0
 52
90.0
 71
     2
 49
0.5
 62
   256
  6
BYLAYER
 49
-0.5
 62
   256
  6
BYLAYER
  0
ACDBPLACEHOLDER
  5
F
102
{ACAD_REACTORS
330
E
102
}
330
E
100
AcDbPlaceHolder
280
     0
  0
XRECORD
  5
83DA
102
{ACAD_REACTORS
330
83D0
102
}
330
83D0
100
AcDbXrecord
 90
        0
  0
XRECORD
  5
83DE
102
{ACAD_REACTORS
330
83D0
102
}
330
83D0
100
AcDbXrecord
1000
DSTYLE
1002
{
1070
    79
 70
     3
1070
   341
340
3B2
1070
   342
340
3B2
1002
}
  0
XRECORD
  5
83DB
102
{ACAD_REACTORS
330
83D0
102
}
330
83D0
100
AcDbXrecord
  1

  0
XRECORD
  5
83D3
102
{ACAD_REACTORS
330
83D0
102
}
330
83D0
100
AcDbXrecord
  1

  0
XRECORD
  5
83D9
102
{ACAD_REACTORS
330
83D0
102
}
330
83D0
100
AcDbXrecord
 90
        0
  0
XRECORD
  5
83D5
102
{ACAD_REACTORS
330
83D0
102
}
330
83D0
100
AcDbXrecord
340
19
  0
XRECORD
  5
83D8
102
{ACAD_REACTORS
330
83D0
102
}
330
83D0
100
AcDbXrecord
 90
    10781
  0
XRECORD
  5
83D6
102
{ACAD_REACTORS
330
83D0
102
}
330
83D0
100
AcDbXrecord
340
18
  0
XRECORD
  5
83D7
102
{ACAD_REACTORS
330
83D0
102
}
330
83D0
100
AcDbXrecord
340
E
  0
XRECORD
  5
83DD
102
{ACAD_REACTORS
330
83D0
102
}
330
83D0
100
AcDbXrecord
 40
0.0
  0
XRECORD
  5
83E1
102
{ACAD_REACTORS
330
83D0
102
}
330
83D0
100
AcDbXrecord
340
0
  0
XRECORD
  5
83E7
102
{ACAD_REACTORS
330
83D0
102
}
330
83D0
100
AcDbXrecord
 10
0.0
 20
0.0
 30
0.0
  0
XRECORD
  5
83E3
102
{ACAD_REACTORS
330
83D0
102
}
330
83D0
100
AcDbXrecord
 10
0.0
 20
0.0
 30
0.0
  0
XRECORD
  5
83E6
102
{ACAD_REACTORS
330
83D0
102
}
330
83D0
100
AcDbXrecord
 10
0.0
 20
0.0
 30
0.0
  0
XRECORD
  5
83E4
102
{ACAD_REACTORS
330
83D0
102
}
330
83D0
100
AcDbXrecord
 10
0.0
 20
0.0
 30
0.0
  0
XRECORD
  5
83E5
102
{ACAD_REACTORS
330
83D0
102
}
330
83D0
100
AcDbXrecord
 10
0.0
 20
0.0
 30
0.0
  0
XRECORD
  5
83E2
102
{ACAD_REACTORS
330
83D0
102
}
330
83D0
100
AcDbXrecord
 10
0.0
 20
0.0
 30
0.0
  0
XRECORD
  5
83DF
102
{ACAD_REACTORS
330
83D0
102
}
330
83D0
100
AcDbXrecord
340
0
  0
XRECORD
  5
83E0
102
{ACAD_REACTORS
330
83D0
102
}
330
83D0
100
AcDbXrecord
 70
     0
  0
XRECORD
  5
83D4
102
{ACAD_REACTORS
330
83D0
102
}
330
83D0
100
AcDbXrecord
  1
kiki.ctb
  0
XRECORD
  5
83D1
102
{ACAD_REACTORS
330
83D0
102
}
330
83D0
100
AcDbXrecord
 90
        1
  0
XRECORD
  5
83D2
102
{ACAD_REACTORS
330
83D0
102
}
330
83D0
100
AcDbXrecord
 90
       70
  0
XRECORD
  5
83EA
102
{ACAD_REACTORS
330
83D0
102
}
330
83D0
100
AcDbXrecord
340
0
  0
XRECORD
  5
83F0
102
{ACAD_REACTORS
330
83D0
102
}
330
83D0
100
AcDbXrecord
 10
0.0
 20
0.0
 30
0.0
  0
XRECORD
  5
83EC
102
{ACAD_REACTORS
330
83D0
102
}
330
83D0
100
AcDbXrecord
 10
0.0
 20
0.0
 30
0.0
  0
XRECORD
  5
83EF
102
{ACAD_REACTORS
330
83D0
102
}
330
83D0
100
AcDbXrecord
 10
0.0
 20
0.0
 30
0.0
  0
XRECORD
  5
83ED
102
{ACAD_REACTORS
330
83D0
102
}
330
83D0
100
AcDbXrecord
 10
0.0
 20
0.0
 30
0.0
  0
XRECORD
  5
83EE
102
{ACAD_REACTORS
330
83D0
102
}
330
83D0
100
AcDbXrecord
 10
0.0
 20
0.0
 30
0.0
  0
XRECORD
  5
83EB
102
{ACAD_REACTORS
330
83D0
102
}
330
83D0
100
AcDbXrecord
 10
0.0
 20
0.0
 30
0.0
  0
XRECORD
  5
83E8
102
{ACAD_REACTORS
330
83D0
102
}
330
83D0
100
AcDbXrecord
340
0
  0
XRECORD
  5
83E9
102
{ACAD_REACTORS
330
83D0
102
}
330
83D0
100
AcDbXrecord
 70
     0
  0
XRECORD
  5
83DC
102
{ACAD_REACTORS
330
83D0
102
}
330
83D0
100
AcDbXrecord
  1
{BDAB08C3-EE10-45E5-A8EA-EC84CE53B3F9}
  0
DICTIONARYVAR
  5
8133
102
{ACAD_REACTORS
330
6C1E
102
}
330
6C1E
100
DictionaryVariables
280
     0
  1
1
  0
DICTIONARYVAR
  5
6C1F
102
{ACAD_REACTORS
330
6C1E
102
}
330
6C1E
100
DictionaryVariables
280
     0
  1
96
  0
ENDSEC
  0
EOF
