  0
SECTION
  2
HEADER
  9
$ACADVER
  1
AC1014
  9
$ACADMAINTVER
 70
     9
  9
$DWGCODEPAGE
  3
ANSI_932
  9
$INSBASE
 10
0.0
 20
0.0
 30
0.0
  9
$EXTMIN
 10
-207.0934457379698
 20
-810.9423648938419
 30
0.0
  9
$EXTMAX
 10
708.9208925106841
 20
673.638077806536
 30
0.0
  9
$LIMMIN
 10
-184.0
 20
-675.0
  9
$LIMMAX
 10
509.0
 20
453.0
  9
$ORTHOMODE
 70
     0
  9
$REGENMODE
 70
     1
  9
$FILLMODE
 70
     1
  9
$QTEXTMODE
 70
     0
  9
$MIRRTEXT
 70
     1
  9
$DRAGMODE
 70
     2
  9
$LTSCALE
 40
10.0
  9
$OSMODE
 70
    37
  9
$ATTMODE
 70
     1
  9
$TEXTSIZE
 40
5.0
  9
$TRACEWID
 40
0.05
  9
$TEXTSTYLE
  7
STANDARD1
  9
$CLAYER
  8
30
  9
$CELTYPE
  6
CONTINUOUS
  9
$CECOLOR
 62
   256
  9
$CELTSCALE
 40
1.0
  9
$DELOBJ
 70
     1
  9
$DISPSILH
 70
     0
  9
$DIMSCALE
 40
1.0
  9
$DIMASZ
 40
2.0
  9
$DIMEXO
 40
1.0
  9
$DIMDLI
 40
0.5
  9
$DIMRND
 40
0.0
  9
$DIMDLE
 40
0.0
  9
$DIMEXE
 40
0.5
  9
$DIMTP
 40
0.0
  9
$DIMTM
 40
0.0
  9
$DIMTXT
 40
5.0
  9
$DIMCEN
 40
0.09
  9
$DIMTSZ
 40
0.0
  9
$DIMTOL
 70
     0
  9
$DIMLIM
 70
     0
  9
$DIMTIH
 70
     0
  9
$DIMTOH
 70
     1
  9
$DIMSE1
 70
     0
  9
$DIMSE2
 70
     0
  9
$DIMTAD
 70
     3
  9
$DIMZIN
 70
    12
  9
$DIMBLK
  1
OPEN
  9
$DIMASO
 70
     1
  9
$DIMSHO
 70
     1
  9
$DIMPOST
  1

  9
$DIMAPOST
  1

  9
$DIMALT
 70
     0
  9
$DIMALTD
 70
     2
  9
$DIMALTF
 40
25.4
  9
$DIMLFAC
 40
1.0
  9
$DIMTOFL
 70
     0
  9
$DIMTVP
 40
0.0
  9
$DIMTIX
 70
     0
  9
$DIMSOXD
 70
     0
  9
$DIMSAH
 70
     0
  9
$DIMBLK1
  1

  9
$DIMBLK2
  1

  9
$DIMSTYLE
  2
STANDARD
  9
$DIMCLRD
 70
     0
  9
$DIMCLRE
 70
     0
  9
$DIMCLRT
 70
     0
  9
$DIMTFAC
 40
1.0
  9
$DIMGAP
 40
1.0
  9
$DIMJUST
 70
     0
  9
$DIMSD1
 70
     0
  9
$DIMSD2
 70
     0
  9
$DIMTOLJ
 70
     1
  9
$DIMTZIN
 70
     0
  9
$DIMALTZ
 70
     0
  9
$DIMALTTZ
 70
     0
  9
$DIMFIT
 70
     3
  9
$DIMUPT
 70
     0
  9
$DIMUNIT
 70
     2
  9
$DIMDEC
 70
     1
  9
$DIMTDEC
 70
     1
  9
$DIMALTU
 70
     2
  9
$DIMALTTD
 70
     2
  9
$DIMTXSTY
  7
STANDARD
  9
$DIMAUNIT
 70
     0
  9
$LUNITS
 70
     2
  9
$LUPREC
 70
     4
  9
$SKETCHINC
 40
0.1
  9
$FILLETRAD
 40
0.0
  9
$AUNITS
 70
     0
  9
$AUPREC
 70
     0
  9
$MENU
  1
.
  9
$ELEVATION
 40
0.0
  9
$PELEVATION
 40
0.0
  9
$THICKNESS
 40
0.0
  9
$LIMCHECK
 70
     0
  9
$BLIPMODE
 70
     0
  9
$CHAMFERA
 40
0.0
  9
$CHAMFERB
 40
0.0
  9
$CHAMFERC
 40
0.0
  9
$CHAMFERD
 40
0.0
  9
$SKPOLY
 70
     0
  9
$TDCREATE
 40
2452286.555658657
  9
$TDUPDATE
 40
2453113.446206053
  9
$TDINDWG
 40
1.4921969560
  9
$TDUSRTIMER
 40
1.4921969560
  9
$USRTIMER
 70
     1
  9
$ANGBASE
 50
0.0
  9
$ANGDIR
 70
     0
  9
$PDMODE
 70
     0
  9
$PDSIZE
 40
0.0
  9
$PLINEWID
 40
0.0
  9
$COORDS
 70
     1
  9
$SPLFRAME
 70
     0
  9
$SPLINETYPE
 70
     6
  9
$SPLINESEGS
 70
     8
  9
$ATTDIA
 70
     0
  9
$ATTREQ
 70
     1
  9
$HANDLING
 70
 22529
  9
$HANDSEED
  5
77CB
  9
$SURFTAB1
 70
     6
  9
$SURFTAB2
 70
     6
  9
$SURFTYPE
 70
     6
  9
$SURFU
 70
     6
  9
$SURFV
 70
     6
  9
$UCSNAME
  2

  9
$UCSORG
 10
0.0
 20
0.0
 30
0.0
  9
$UCSXDIR
 10
1.0
 20
0.0
 30
0.0
  9
$UCSYDIR
 10
0.0
 20
1.0
 30
0.0
  9
$PUCSNAME
  2

  9
$PUCSORG
 10
0.0
 20
0.0
 30
0.0
  9
$PUCSXDIR
 10
1.0
 20
0.0
 30
0.0
  9
$PUCSYDIR
 10
0.0
 20
1.0
 30
0.0
  9
$USERI1
 70
     0
  9
$USERI2
 70
     0
  9
$USERI3
 70
     0
  9
$USERI4
 70
     0
  9
$USERI5
 70
     0
  9
$USERR1
 40
0.0
  9
$USERR2
 40
0.0
  9
$USERR3
 40
0.0
  9
$USERR4
 40
0.0
  9
$USERR5
 40
0.0
  9
$WORLDVIEW
 70
     1
  9
$SHADEDGE
 70
     3
  9
$SHADEDIF
 70
    70
  9
$TILEMODE
 70
     1
  9
$MAXACTVP
 70
    48
  9
$PINSBASE
 10
0.0
 20
0.0
 30
0.0
  9
$PLIMCHECK
 70
     0
  9
$PEXTMIN
 10
1.000000000000000E+20
 20
1.000000000000000E+20
 30
1.000000000000000E+20
  9
$PEXTMAX
 10
-1.000000000000000E+20
 20
-1.000000000000000E+20
 30
-1.000000000000000E+20
  9
$PLIMMIN
 10
-5.873748779296875
 20
-5.873749732971191
  9
$PLIMMAX
 10
204.0995788574218
 20
291.1369009017944
  9
$UNITMODE
 70
     0
  9
$VISRETAIN
 70
     1
  9
$PLINEGEN
 70
     0
  9
$PSLTSCALE
 70
     1
  9
$TREEDEPTH
 70
  3020
  9
$PICKSTYLE
 70
     1
  9
$CMLSTYLE
  2
STANDARD
  9
$CMLJUST
 70
     0
  9
$CMLSCALE
 40
1.0
  9
$PROXYGRAPHICS
 70
     1
  9
$MEASUREMENT
 70
     0
  0
ENDSEC
  0
SECTION
  2
CLASSES
  0
CLASS
  1
ACDBDICTIONARYWDFLT
  2
AcDbDictionaryWithDefault
  3
AutoCAD 2000
 90
        0
280
     0
281
     0
  0
CLASS
  1
ACDBPLACEHOLDER
  2
AcDbPlaceHolder
  3
AutoCAD 2000
 90
        0
280
     0
281
     0
  0
CLASS
  1
LAYOUT
  2
AcDbLayout
  3
AutoCAD 2000
 90
        0
280
     0
281
     0
  0
CLASS
  1
LONG_TRANSACTION
  2
AcDbLongTransaction
  3
AutoCAD 2000
 90
        0
280
     0
281
     0
  0
CLASS
  1
LWPOLYLINE
  2
AcDbPolyline
  3
AutoCAD 2000
 90
        0
280
     0
281
     1
  0
CLASS
  1
HATCH
  2
AcDbHatch
  3
AutoCAD 2000
 90
        0
280
     0
281
     1
  0
CLASS
  1
XRECORD
  2
AcDbXrecord
  3
AutoCAD 2000
 90
        0
280
     0
281
     0
  0
CLASS
  1
LONG_TRANSACTION
  2
AcDbLongTransaction
  3
AutoCAD 2000
 90
        0
280
     0
281
     0
  0
CLASS
  1
LWPOLYLINE
  2
AcDbPolyline
  3
AutoCAD 2000
 90
        0
280
     0
281
     1
  0
CLASS
  1
HATCH
  2
AcDbHatch
  3
AutoCAD 2000
 90
        0
280
     0
281
     1
  0
CLASS
  1
XRECORD
  2
AcDbXrecord
  3
AutoCAD 2000
 90
        0
280
     0
281
     0
  0
CLASS
  1
LONG_TRANSACTION
  2
AcDbLongTransaction
  3
AutoCAD 2000
 90
        0
280
     0
281
     0
  0
CLASS
  1
LWPOLYLINE
  2
AcDbPolyline
  3
AutoCAD 2000
 90
        0
280
     0
281
     1
  0
CLASS
  1
HATCH
  2
AcDbHatch
  3
AutoCAD 2000
 90
        0
280
     0
281
     1
  0
CLASS
  1
XRECORD
  2
AcDbXrecord
  3
AutoCAD 2000
 90
        0
280
     0
281
     0
  0
CLASS
  1
LONG_TRANSACTION
  2
AcDbLongTransaction
  3
AutoCAD 2000
 90
        0
280
     0
281
     0
  0
CLASS
  1
LWPOLYLINE
  2
AcDbPolyline
  3
AutoCAD 2000
 90
        0
280
     0
281
     1
  0
CLASS
  1
HATCH
  2
AcDbHatch
  3
AutoCAD 2000
 90
        0
280
     0
281
     1
  0
CLASS
  1
XRECORD
  2
AcDbXrecord
  3
AutoCAD 2000
 90
        0
280
     0
281
     0
  0
CLASS
  1
LONG_TRANSACTION
  2
AcDbLongTransaction
  3
AutoCAD 2000
 90
        0
280
     0
281
     0
  0
CLASS
  1
LWPOLYLINE
  2
AcDbPolyline
  3
AutoCAD 2000
 90
        0
280
     0
281
     1
  0
CLASS
  1
HATCH
  2
AcDbHatch
  3
AutoCAD 2000
 90
        0
280
     0
281
     1
  0
CLASS
  1
XRECORD
  2
AcDbXrecord
  3
AutoCAD 2000
 90
        0
280
     0
281
     0
  0
CLASS
  1
LONG_TRANSACTION
  2
AcDbLongTransaction
  3
AutoCAD 2000
 90
        0
280
     0
281
     0
  0
CLASS
  1
LWPOLYLINE
  2
AcDbPolyline
  3
AutoCAD 2000
 90
        0
280
     0
281
     1
  0
CLASS
  1
HATCH
  2
AcDbHatch
  3
AutoCAD 2000
 90
        0
280
     0
281
     1
  0
CLASS
  1
XRECORD
  2
AcDbXrecord
  3
AutoCAD 2000
 90
        0
280
     0
281
     0
  0
CLASS
  1
LONG_TRANSACTION
  2
AcDbLongTransaction
  3
AutoCAD 2000
 90
        0
280
     0
281
     0
  0
CLASS
  1
LWPOLYLINE
  2
AcDbPolyline
  3
AutoCAD 2000
 90
        0
280
     0
281
     1
  0
CLASS
  1
HATCH
  2
AcDbHatch
  3
AutoCAD 2000
 90
        0
280
     0
281
     1
  0
CLASS
  1
XRECORD
  2
AcDbXrecord
  3
AutoCAD 2000
 90
        0
280
     0
281
     0
  0
CLASS
  1
LONG_TRANSACTION
  2
AcDbLongTransaction
  3
AutoCAD 2000
 90
        0
280
     0
281
     0
  0
CLASS
  1
LWPOLYLINE
  2
AcDbPolyline
  3
AutoCAD 2000
 90
        0
280
     0
281
     1
  0
CLASS
  1
HATCH
  2
AcDbHatch
  3
AutoCAD 2000
 90
        0
280
     0
281
     1
  0
CLASS
  1
XRECORD
  2
AcDbXrecord
  3
AutoCAD 2000
 90
        0
280
     0
281
     0
  0
CLASS
  1
LONG_TRANSACTION
  2
AcDbLongTransaction
  3
AutoCAD 2000
 90
        0
280
     0
281
     0
  0
CLASS
  1
LWPOLYLINE
  2
AcDbPolyline
  3
AutoCAD 2000
 90
        0
280
     0
281
     1
  0
CLASS
  1
HATCH
  2
AcDbHatch
  3
AutoCAD 2000
 90
        0
280
     0
281
     1
  0
CLASS
  1
XRECORD
  2
AcDbXrecord
  3
AutoCAD 2000
 90
        0
280
     0
281
     0
  0
CLASS
  1
LONG_TRANSACTION
  2
AcDbLongTransaction
  3
AutoCAD 2000
 90
        0
280
     0
281
     0
  0
CLASS
  1
LWPOLYLINE
  2
AcDbPolyline
  3
AutoCAD 2000
 90
        0
280
     0
281
     1
  0
CLASS
  1
HATCH
  2
AcDbHatch
  3
AutoCAD 2000
 90
        0
280
     0
281
     1
  0
CLASS
  1
XRECORD
  2
AcDbXrecord
  3
AutoCAD 2000
 90
        0
280
     0
281
     0
  0
CLASS
  1
LONG_TRANSACTION
  2
AcDbLongTransaction
  3
AutoCAD 2000
 90
        0
280
     0
281
     0
  0
CLASS
  1
LWPOLYLINE
  2
AcDbPolyline
  3
AutoCAD 2000
 90
        0
280
     0
281
     1
  0
CLASS
  1
HATCH
  2
AcDbHatch
  3
AutoCAD 2000
 90
        0
280
     0
281
     1
  0
CLASS
  1
XRECORD
  2
AcDbXrecord
  3
AutoCAD 2000
 90
        0
280
     0
281
     0
  0
CLASS
  1
LONG_TRANSACTION
  2
AcDbLongTransaction
  3
AutoCAD 2000
 90
        0
280
     0
281
     0
  0
CLASS
  1
LWPOLYLINE
  2
AcDbPolyline
  3
AutoCAD 2000
 90
        0
280
     0
281
     1
  0
CLASS
  1
HATCH
  2
AcDbHatch
  3
AutoCAD 2000
 90
        0
280
     0
281
     1
  0
CLASS
  1
XRECORD
  2
AcDbXrecord
  3
AutoCAD 2000
 90
        0
280
     0
281
     0
  0
CLASS
  1
LONG_TRANSACTION
  2
AcDbLongTransaction
  3
AutoCAD 2000
 90
        0
280
     0
281
     0
  0
CLASS
  1
LWPOLYLINE
  2
AcDbPolyline
  3
AutoCAD 2000
 90
        0
280
     0
281
     1
  0
CLASS
  1
HATCH
  2
AcDbHatch
  3
AutoCAD 2000
 90
        0
280
     0
281
     1
  0
CLASS
  1
XRECORD
  2
AcDbXrecord
  3
AutoCAD 2000
 90
        0
280
     0
281
     0
  0
CLASS
  1
LONG_TRANSACTION
  2
AcDbLongTransaction
  3
AutoCAD 2000
 90
        0
280
     0
281
     0
  0
CLASS
  1
LWPOLYLINE
  2
AcDbPolyline
  3
AutoCAD 2000
 90
        0
280
     0
281
     1
  0
CLASS
  1
HATCH
  2
AcDbHatch
  3
AutoCAD 2000
 90
        0
280
     0
281
     1
  0
CLASS
  1
XRECORD
  2
AcDbXrecord
  3
AutoCAD 2000
 90
        0
280
     0
281
     0
  0
CLASS
  1
LONG_TRANSACTION
  2
AcDbLongTransaction
  3
AutoCAD 2000
 90
        0
280
     0
281
     0
  0
CLASS
  1
LWPOLYLINE
  2
AcDbPolyline
  3
AutoCAD 2000
 90
        0
280
     0
281
     1
  0
CLASS
  1
HATCH
  2
AcDbHatch
  3
AutoCAD 2000
 90
        0
280
     0
281
     1
  0
CLASS
  1
XRECORD
  2
AcDbXrecord
  3
AutoCAD 2000
 90
        0
280
     0
281
     0
  0
CLASS
  1
LONG_TRANSACTION
  2
AcDbLongTransaction
  3
AutoCAD 2000
 90
        0
280
     0
281
     0
  0
CLASS
  1
LWPOLYLINE
  2
AcDbPolyline
  3
AutoCAD 2000
 90
        0
280
     0
281
     1
  0
CLASS
  1
HATCH
  2
AcDbHatch
  3
AutoCAD 2000
 90
        0
280
     0
281
     1
  0
CLASS
  1
XRECORD
  2
AcDbXrecord
  3
AutoCAD 2000
 90
        0
280
     0
281
     0
  0
CLASS
  1
LONG_TRANSACTION
  2
AcDbLongTransaction
  3
AutoCAD 2000
 90
        0
280
     0
281
     0
  0
CLASS
  1
LWPOLYLINE
  2
AcDbPolyline
  3
AutoCAD 2000
 90
        0
280
     0
281
     1
  0
CLASS
  1
HATCH
  2
AcDbHatch
  3
AutoCAD 2000
 90
        0
280
     0
281
     1
  0
CLASS
  1
XRECORD
  2
AcDbXrecord
  3
AutoCAD 2000
 90
        0
280
     0
281
     0
  0
CLASS
  1
LONG_TRANSACTION
  2
AcDbLongTransaction
  3
AutoCAD 2000
 90
        0
280
     0
281
     0
  0
CLASS
  1
LWPOLYLINE
  2
AcDbPolyline
  3
AutoCAD 2000
 90
        0
280
     0
281
     1
  0
CLASS
  1
HATCH
  2
AcDbHatch
  3
AutoCAD 2000
 90
        0
280
     0
281
     1
  0
CLASS
  1
XRECORD
  2
AcDbXrecord
  3
AutoCAD 2000
 90
        0
280
     0
281
     0
  0
CLASS
  1
LONG_TRANSACTION
  2
AcDbLongTransaction
  3
AutoCAD 2000
 90
        0
280
     0
281
     0
  0
CLASS
  1
LWPOLYLINE
  2
AcDbPolyline
  3
AutoCAD 2000
 90
        0
280
     0
281
     1
  0
CLASS
  1
HATCH
  2
AcDbHatch
  3
AutoCAD 2000
 90
        0
280
     0
281
     1
  0
CLASS
  1
XRECORD
  2
AcDbXrecord
  3
AutoCAD 2000
 90
        0
280
     0
281
     0
  0
CLASS
  1
LONG_TRANSACTION
  2
AcDbLongTransaction
  3
AutoCAD 2000
 90
        0
280
     0
281
     0
  0
CLASS
  1
LWPOLYLINE
  2
AcDbPolyline
  3
AutoCAD 2000
 90
        0
280
     0
281
     1
  0
CLASS
  1
HATCH
  2
AcDbHatch
  3
AutoCAD 2000
 90
        0
280
     0
281
     1
  0
CLASS
  1
XRECORD
  2
AcDbXrecord
  3
AutoCAD 2000
 90
        0
280
     0
281
     0
  0
CLASS
  1
LONG_TRANSACTION
  2
AcDbLongTransaction
  3
AutoCAD 2000
 90
        0
280
     0
281
     0
  0
CLASS
  1
LWPOLYLINE
  2
AcDbPolyline
  3
AutoCAD 2000
 90
        0
280
     0
281
     1
  0
CLASS
  1
HATCH
  2
AcDbHatch
  3
AutoCAD 2000
 90
        0
280
     0
281
     1
  0
CLASS
  1
XRECORD
  2
AcDbXrecord
  3
AutoCAD 2000
 90
        0
280
     0
281
     0
  0
CLASS
  1
LONG_TRANSACTION
  2
AcDbLongTransaction
  3
AutoCAD 2000
 90
        0
280
     0
281
     0
  0
CLASS
  1
LWPOLYLINE
  2
AcDbPolyline
  3
AutoCAD 2000
 90
        0
280
     0
281
     1
  0
CLASS
  1
HATCH
  2
AcDbHatch
  3
AutoCAD 2000
 90
        0
280
     0
281
     1
  0
CLASS
  1
XRECORD
  2
AcDbXrecord
  3
AutoCAD 2000
 90
        0
280
     0
281
     0
  0
CLASS
  1
LONG_TRANSACTION
  2
AcDbLongTransaction
  3
AutoCAD 2000
 90
        0
280
     0
281
     0
  0
CLASS
  1
LWPOLYLINE
  2
AcDbPolyline
  3
AutoCAD 2000
 90
        0
280
     0
281
     1
  0
CLASS
  1
HATCH
  2
AcDbHatch
  3
AutoCAD 2000
 90
        0
280
     0
281
     1
  0
CLASS
  1
XRECORD
  2
AcDbXrecord
  3
AutoCAD 2000
 90
        0
280
     0
281
     0
  0
CLASS
  1
LONG_TRANSACTION
  2
AcDbLongTransaction
  3
AutoCAD 2000
 90
        0
280
     0
281
     0
  0
CLASS
  1
LWPOLYLINE
  2
AcDbPolyline
  3
AutoCAD 2000
 90
        0
280
     0
281
     1
  0
CLASS
  1
HATCH
  2
AcDbHatch
  3
AutoCAD 2000
 90
        0
280
     0
281
     1
  0
CLASS
  1
XRECORD
  2
AcDbXrecord
  3
AutoCAD 2000
 90
        0
280
     0
281
     0
  0
CLASS
  1
LONG_TRANSACTION
  2
AcDbLongTransaction
  3
AutoCAD 2000
 90
        0
280
     0
281
     0
  0
CLASS
  1
LWPOLYLINE
  2
AcDbPolyline
  3
AutoCAD 2000
 90
        0
280
     0
281
     1
  0
CLASS
  1
HATCH
  2
AcDbHatch
  3
AutoCAD 2000
 90
        0
280
     0
281
     1
  0
CLASS
  1
XRECORD
  2
AcDbXrecord
  3
AutoCAD 2000
 90
        0
280
     0
281
     0
  0
CLASS
  1
LONG_TRANSACTION
  2
AcDbLongTransaction
  3
AutoCAD 2000
 90
        0
280
     0
281
     0
  0
CLASS
  1
LWPOLYLINE
  2
AcDbPolyline
  3
AutoCAD 2000
 90
        0
280
     0
281
     1
  0
CLASS
  1
HATCH
  2
AcDbHatch
  3
AutoCAD 2000
 90
        0
280
     0
281
     1
  0
CLASS
  1
XRECORD
  2
AcDbXrecord
  3
AutoCAD 2000
 90
        0
280
     0
281
     0
  0
CLASS
  1
LONG_TRANSACTION
  2
AcDbLongTransaction
  3
AutoCAD 2000
 90
        0
280
     0
281
     0
  0
CLASS
  1
LWPOLYLINE
  2
AcDbPolyline
  3
AutoCAD 2000
 90
        0
280
     0
281
     1
  0
CLASS
  1
HATCH
  2
AcDbHatch
  3
AutoCAD 2000
 90
        0
280
     0
281
     1
  0
CLASS
  1
XRECORD
  2
AcDbXrecord
  3
AutoCAD 2000
 90
        0
280
     0
281
     0
  0
CLASS
  1
DICTIONARYVAR
  2
AcDbDictionaryVar
  3
AutoCAD 2000
 90
        0
280
     0
281
     0
  0
CLASS
  1
LONG_TRANSACTION
  2
AcDbLongTransaction
  3
AutoCAD 2000
 90
        0
280
     0
281
     0
  0
CLASS
  1
LWPOLYLINE
  2
AcDbPolyline
  3
AutoCAD 2000
 90
        0
280
     0
281
     1
  0
CLASS
  1
HATCH
  2
AcDbHatch
  3
AutoCAD 2000
 90
        0
280
     0
281
     1
  0
CLASS
  1
XRECORD
  2
AcDbXrecord
  3
AutoCAD 2000
 90
        0
280
     0
281
     0
  0
CLASS
  1
LONG_TRANSACTION
  2
AcDbLongTransaction
  3
AutoCAD 2000
 90
        0
280
     0
281
     0
  0
CLASS
  1
LWPOLYLINE
  2
AcDbPolyline
  3
AutoCAD 2000
 90
        0
280
     0
281
     1
  0
CLASS
  1
HATCH
  2
AcDbHatch
  3
AutoCAD 2000
 90
        0
280
     0
281
     1
  0
CLASS
  1
XRECORD
  2
AcDbXrecord
  3
AutoCAD 2000
 90
        0
280
     0
281
     0
  0
ENDSEC
  0
SECTION
  2
TABLES
  0
TABLE
  2
VPORT
  5
8
330
0
100
AcDbSymbolTable
 70
     2
  0
VPORT
  5
774D
330
8
100
AcDbSymbolTableRecord
100
AcDbViewportTableRecord
  2
*ACTIVE
 70
     0
 10
0.0
 20
0.0
 11
1.0
 21
1.0
 12
250.9033149800325
 22
-68.64069118460861
 13
0.0
 23
0.0
 14
1.0
 24
1.0
 15
10.0
 25
10.0
 16
0.0
 26
0.0
 36
1.0
 17
0.0
 27
0.0
 37
0.0
 40
1502.738987340139
 41
1.924949290060851
 42
50.0
 43
0.0
 44
0.0
 50
0.0
 51
0.0
 71
     0
 72
   100
 73
     1
 74
     1
 75
     0
 76
     0
 77
     0
 78
     0
  0
ENDTAB
  0
TABLE
  2
LTYPE
  5
5
330
0
100
AcDbSymbolTable
 70
     7
  0
LTYPE
  5
13
330
5
100
AcDbSymbolTableRecord
100
AcDbLinetypeTableRecord
  2
BYBLOCK
 70
     0
  3

 72
    65
 73
     0
 40
0.0
  0
LTYPE
  5
14
330
5
100
AcDbSymbolTableRecord
100
AcDbLinetypeTableRecord
  2
BYLAYER
 70
     0
  3

 72
    65
 73
     0
 40
0.0
  0
LTYPE
  5
15
330
5
100
AcDbSymbolTableRecord
100
AcDbLinetypeTableRecord
  2
CONTINUOUS
 70
     0
  3
Solid line
 72
    65
 73
     0
 40
0.0
  0
LTYPE
  5
22
330
5
100
AcDbSymbolTableRecord
100
AcDbLinetypeTableRecord
  2
CONTINOUS
 70
     0
  3
Solid line
 72
    65
 73
     0
 40
0.0
  0
LTYPE
  5
23
330
5
100
AcDbSymbolTableRecord
100
AcDbLinetypeTableRecord
  2
DASHED
 70
     0
  3
__ __ __ __ __ __ __ __ __ __ __ __ __ __ __
 72
    65
 73
     2
 40
0.75
 49
0.5
 74
     0
 49
-0.25
 74
     0
  0
LTYPE
  5
24
330
5
100
AcDbSymbolTableRecord
100
AcDbLinetypeTableRecord
  2
DASHDOT
 70
     0
  3
__ . __ . __ . __ . __ . __ . __ . __ . __ . __
 72
    65
 73
     4
 40
1.0
 49
0.5
 74
     0
 49
-0.25
 74
     0
 49
0.0
 74
     0
 49
-0.25
 74
     0
  0
LTYPE
  5
3932
330
5
100
AcDbSymbolTableRecord
100
AcDbLinetypeTableRecord
  2
DIVIDE
 70
     0
  3
Divide ____ . . ____ . . ____ . . ____ . . ____
 72
    65
 73
     6
 40
1.25
 49
0.5
 74
     0
 49
-0.25
 74
     0
 49
0.0
 74
     0
 49
-0.25
 74
     0
 49
0.0
 74
     0
 49
-0.25
 74
     0
  0
LTYPE
  5
6875
330
5
100
AcDbSymbolTableRecord
100
AcDbLinetypeTableRecord
  2
D159
 70
     0
  3
IGESIN-LineFont-D159
 72
    65
 73
     6
 40
11.29999999999999
 49
8.0
 74
     0
 49
-0.6
 74
     0
 49
0.75
 74
     0
 49
-0.6
 74
     0
 49
0.75
 74
     0
 49
-0.6
 74
     0
  0
LTYPE
  5
6876
330
5
100
AcDbSymbolTableRecord
100
AcDbLinetypeTableRecord
  2
D1485
 70
     0
  3
IGESIN-LineFont-D1485
 72
    65
 73
     2
 40
1.35
 49
0.75
 74
     0
 49
-0.6
 74
     0
  0
ENDTAB
  0
TABLE
  2
LAYER
  5
2
330
0
100
AcDbSymbolTable
 70
    19
  0
LAYER
  5
10
330
2
100
AcDbSymbolTableRecord
100
AcDbLayerTableRecord
  2
0
 70
     0
 62
     7
  6
CONTINOUS
  0
LAYER
  5
2F
330
2
100
AcDbSymbolTableRecord
100
AcDbLayerTableRecord
  2
10
 70
     0
 62
     4
  6
CONTINOUS
  0
LAYER
  5
31
330
2
100
AcDbSymbolTableRecord
100
AcDbLayerTableRecord
  2
12
 70
     0
 62
     3
  6
CONTINOUS
  0
LAYER
  5
35
330
2
100
AcDbSymbolTableRecord
100
AcDbLayerTableRecord
  2
16
 70
     0
 62
     6
  6
DASHDOT
  0
LAYER
  5
36
330
2
100
AcDbSymbolTableRecord
100
AcDbLayerTableRecord
  2
17
 70
     0
 62
     2
  6
DASHDOT
  0
LAYER
  5
38
330
2
100
AcDbSymbolTableRecord
100
AcDbLayerTableRecord
  2
19
 70
     0
 62
     7
  6
CONTINOUS
  0
LAYER
  5
3C
330
2
100
AcDbSymbolTableRecord
100
AcDbLayerTableRecord
  2
11
 70
     0
 62
     1
  6
CONTINOUS
  0
LAYER
  5
3D
330
2
100
AcDbSymbolTableRecord
100
AcDbLayerTableRecord
  2
24
 70
     0
 62
     2
  6
CONTINOUS
  0
LAYER
  5
3A2
330
2
100
AcDbSymbolTableRecord
100
AcDbLayerTableRecord
  2
30
 70
     0
 62
     9
  6
CONTINUOUS
  0
LAYER
  5
3A4
330
2
100
AcDbSymbolTableRecord
100
AcDbLayerTableRecord
  2
DEFPOINTS
 70
     0
 62
     7
  6
CONTINUOUS
  0
LAYER
  5
3933
330
2
100
AcDbSymbolTableRecord
100
AcDbLayerTableRecord
  2
18
 70
     0
 62
     5
  6
DIVIDE
  0
LAYER
  5
4709
330
2
100
AcDbSymbolTableRecord
100
AcDbLayerTableRecord
  2
L0_
 70
     0
 62
     7
  6
CONTINUOUS
  0
LAYER
  5
470B
330
2
100
AcDbSymbolTableRecord
100
AcDbLayerTableRecord
  2
L210_
 70
     0
 62
     7
  6
CONTINUOUS
  0
LAYER
  5
6877
330
2
100
AcDbSymbolTableRecord
100
AcDbLayerTableRecord
  2
L225_
 70
     0
 62
     7
  6
CONTINUOUS
  0
LAYER
  5
6878
330
2
100
AcDbSymbolTableRecord
100
AcDbLayerTableRecord
  2
L150_
 70
     0
 62
     7
  6
CONTINUOUS
  0
LAYER
  5
6879
330
2
100
AcDbSymbolTableRecord
100
AcDbLayerTableRecord
  2
L10_
 70
     0
 62
     7
  6
CONTINUOUS
  0
LAYER
  5
687A
330
2
100
AcDbSymbolTableRecord
100
AcDbLayerTableRecord
  2
L170_
 70
     0
 62
     7
  6
CONTINUOUS
  0
LAYER
  5
687B
330
2
100
AcDbSymbolTableRecord
100
AcDbLayerTableRecord
  2
L230_
 70
     0
 62
     7
  6
CONTINUOUS
  0
LAYER
  5
74BA
330
2
100
AcDbSymbolTableRecord
100
AcDbLayerTableRecord
  2
21
 70
     0
 62
     7
  6
CONTINUOUS
  0
ENDTAB
  0
TABLE
  2
STYLE
  5
3
330
0
100
AcDbSymbolTable
 70
     4
  0
STYLE
  5
11
330
3
100
AcDbSymbolTableRecord
100
AcDbTextStyleTableRecord
  2
STANDARD
 70
     0
 40
0.0
 41
1.0
 50
0.0
 71
     0
 42
2.0
  3
txt.shx
  4
bigfont.shx
  0
STYLE
  5
42
330
3
100
AcDbSymbolTableRecord
100
AcDbTextStyleTableRecord
  2
STANDARD1
 70
     0
 40
0.0
 41
1.0
 50
0.0
 71
     0
 42
5.0
  3
MONOTXT
  4
BIGFONT
  0
STYLE
  5
3ACF
330
3
100
AcDbSymbolTableRecord
100
AcDbTextStyleTableRecord
  2
SYMBOL3
 70
     0
 40
0.0
 41
1.0
 50
0.0
 71
     0
 42
0.2
  3
iges1003
  4

  0
STYLE
  5
687C
330
3
100
AcDbSymbolTableRecord
100
AcDbTextStyleTableRecord
  2
LEROY
 70
     0
 40
0.0
 41
1.0
 50
0.0
 71
     0
 42
0.2
  3
txt
  4

  0
ENDTAB
  0
TABLE
  2
VIEW
  5
6
330
0
100
AcDbSymbolTable
 70
     3
  0
VIEW
  5
230C
330
6
100
AcDbSymbolTableRecord
100
AcDbViewTableRecord
  2
OLE1
 70
     0
 40
148.9124878027715
 10
429.4976280407224
 20
2.560626997828478
 41
103.1458057716445
 11
0.0
 21
0.0
 31
1.0
 12
0.0
 22
0.0
 32
0.0
 42
50.0
 43
0.0
 44
0.0
 50
0.0
 71
     0
  0
VIEW
  5
230E
330
6
100
AcDbSymbolTableRecord
100
AcDbViewTableRecord
  2
OLE2
 70
     0
 40
170.7786920545776
 10
322.664969958371
 20
-5.978304054290276
 41
102.4672152327465
 11
0.0
 21
0.0
 31
1.0
 12
0.0
 22
0.0
 32
0.0
 42
50.0
 43
0.0
 44
0.0
 50
0.0
 71
     0
  0
VIEW
  5
23AA
330
6
100
AcDbSymbolTableRecord
100
AcDbViewTableRecord
  2
OLE3
 70
     0
 40
591.7897393182231
 10
84.79698158148218
 20
-46.09336010803997
 41
388.7920961799954
 11
0.0
 21
0.0
 31
1.0
 12
0.0
 22
0.0
 32
0.0
 42
50.0
 43
0.0
 44
0.0
 50
0.0
 71
     0
  0
ENDTAB
  0
TABLE
  2
UCS
  5
7
330
0
100
AcDbSymbolTable
 70
     0
  0
ENDTAB
  0
TABLE
  2
APPID
  5
9
330
0
100
AcDbSymbolTable
 70
     2
  0
APPID
  5
12
330
9
100
AcDbSymbolTableRecord
100
AcDbRegAppTableRecord
  2
ACAD
 70
     0
  0
APPID
  5
ECD
330
9
100
AcDbSymbolTableRecord
100
AcDbRegAppTableRecord
  2
CONTENTBLOCKICON
 70
     0
  0
ENDTAB
  0
TABLE
  2
DIMSTYLE
  5
A
330
0
100
AcDbSymbolTable
 70
     1
  0
DIMSTYLE
105
175
102
{ACAD_REACTORS
330
6D05
330
6D69
330
6D76
330
6DB7
330
6DED
330
6DFA
330
6E07
330
6E1D
330
6F16
330
6F52
330
6F5F
330
6F6C
330
6F79
330
6F86
330
6FBA
330
6FC7
330
6FE1
330
7515
330
7522
330
752F
330
753C
330
7549
330
7556
330
7563
330
7586
330
7593
330
772C
330
7739
102
}
330
A
100
AcDbSymbolTableRecord
100
AcDbDimStyleTableRecord
  2
STANDARD
 70
     0
  3

  4

  5
OPEN
  6

  7

 40
1.0
 41
2.0
 42
1.0
 43
0.5
 44
0.5
 45
0.0
 46
0.0
 47
0.0
 48
0.0
140
5.0
141
0.09
142
0.0
143
25.4
144
1.0
145
0.0
146
1.0
147
1.0
 71
     0
 72
     0
 73
     0
 74
     1
 75
     0
 76
     0
 77
     3
 78
    12
170
     0
171
     2
172
     0
173
     0
174
     0
175
     0
176
     0
177
     0
178
     0
270
     2
271
     1
272
     1
273
     2
274
     2
340
11
275
     0
280
     0
281
     0
282
     0
283
     1
284
     0
285
     0
286
     0
287
     3
288
     0
  0
ENDTAB
  0
TABLE
  2
BLOCK_RECORD
  5
1
330
0
100
AcDbSymbolTable
 70
    40
  0
BLOCK_RECORD
  5
1E
102
{ACAD_XDICTIONARY
360
178
102
}
330
1
100
AcDbSymbolTableRecord
100
AcDbBlockTableRecord
  2
*MODEL_SPACE
  0
BLOCK_RECORD
  5
1A
102
{ACAD_XDICTIONARY
360
17A
102
}
330
1
100
AcDbSymbolTableRecord
100
AcDbBlockTableRecord
  2
*PAPER_SPACE
  0
BLOCK_RECORD
  5
3B2
330
1
100
AcDbSymbolTableRecord
100
AcDbBlockTableRecord
  2
_OPEN
  0
BLOCK_RECORD
  5
46F7
330
1
100
AcDbSymbolTableRecord
100
AcDbBlockTableRecord
  2
B837
  0
BLOCK_RECORD
  5
6816
330
1
100
AcDbSymbolTableRecord
100
AcDbBlockTableRecord
  2
B2837
  0
BLOCK_RECORD
  5
681B
330
1
100
AcDbSymbolTableRecord
100
AcDbBlockTableRecord
  2
*D3
  0
BLOCK_RECORD
  5
6823
330
1
100
AcDbSymbolTableRecord
100
AcDbBlockTableRecord
  2
B2841
  0
BLOCK_RECORD
  5
6857
330
1
100
AcDbSymbolTableRecord
100
AcDbBlockTableRecord
  2
B4515
  0
BLOCK_RECORD
  5
685C
330
1
100
AcDbSymbolTableRecord
100
AcDbBlockTableRecord
  2
B4517
  0
BLOCK_RECORD
  5
6861
330
1
100
AcDbSymbolTableRecord
100
AcDbBlockTableRecord
  2
B4521
  0
BLOCK_RECORD
  5
6866
330
1
100
AcDbSymbolTableRecord
100
AcDbBlockTableRecord
  2
B4523
  0
BLOCK_RECORD
  5
686B
330
1
100
AcDbSymbolTableRecord
100
AcDbBlockTableRecord
  2
B4527
  0
BLOCK_RECORD
  5
6870
330
1
100
AcDbSymbolTableRecord
100
AcDbBlockTableRecord
  2
B4529
  0
BLOCK_RECORD
  5
6D16
330
1
100
AcDbSymbolTableRecord
100
AcDbBlockTableRecord
  2
*D11
  0
BLOCK_RECORD
  5
6D6A
330
1
100
AcDbSymbolTableRecord
100
AcDbBlockTableRecord
  2
*D12
  0
BLOCK_RECORD
  5
6D77
330
1
100
AcDbSymbolTableRecord
100
AcDbBlockTableRecord
  2
*D13
  0
BLOCK_RECORD
  5
6DB8
330
1
100
AcDbSymbolTableRecord
100
AcDbBlockTableRecord
  2
*D14
  0
BLOCK_RECORD
  5
6DEE
330
1
100
AcDbSymbolTableRecord
100
AcDbBlockTableRecord
  2
*D15
  0
BLOCK_RECORD
  5
6DFB
330
1
100
AcDbSymbolTableRecord
100
AcDbBlockTableRecord
  2
*D16
  0
BLOCK_RECORD
  5
6E08
330
1
100
AcDbSymbolTableRecord
100
AcDbBlockTableRecord
  2
*D17
  0
BLOCK_RECORD
  5
6E1E
330
1
100
AcDbSymbolTableRecord
100
AcDbBlockTableRecord
  2
*D18
  0
BLOCK_RECORD
  5
6F17
330
1
100
AcDbSymbolTableRecord
100
AcDbBlockTableRecord
  2
*D19
  0
BLOCK_RECORD
  5
6F53
330
1
100
AcDbSymbolTableRecord
100
AcDbBlockTableRecord
  2
*D20
  0
BLOCK_RECORD
  5
6F60
330
1
100
AcDbSymbolTableRecord
100
AcDbBlockTableRecord
  2
*D21
  0
BLOCK_RECORD
  5
6F6D
330
1
100
AcDbSymbolTableRecord
100
AcDbBlockTableRecord
  2
*D22
  0
BLOCK_RECORD
  5
6F7A
330
1
100
AcDbSymbolTableRecord
100
AcDbBlockTableRecord
  2
*D23
  0
BLOCK_RECORD
  5
6F87
330
1
100
AcDbSymbolTableRecord
100
AcDbBlockTableRecord
  2
*D24
  0
BLOCK_RECORD
  5
6FBB
330
1
100
AcDbSymbolTableRecord
100
AcDbBlockTableRecord
  2
*D25
  0
BLOCK_RECORD
  5
6FC8
330
1
100
AcDbSymbolTableRecord
100
AcDbBlockTableRecord
  2
*D26
  0
BLOCK_RECORD
  5
6FE2
330
1
100
AcDbSymbolTableRecord
100
AcDbBlockTableRecord
  2
*D27
  0
BLOCK_RECORD
  5
7516
330
1
100
AcDbSymbolTableRecord
100
AcDbBlockTableRecord
  2
*D28
  0
BLOCK_RECORD
  5
7523
330
1
100
AcDbSymbolTableRecord
100
AcDbBlockTableRecord
  2
*D29
  0
BLOCK_RECORD
  5
7530
330
1
100
AcDbSymbolTableRecord
100
AcDbBlockTableRecord
  2
*D30
  0
BLOCK_RECORD
  5
753D
330
1
100
AcDbSymbolTableRecord
100
AcDbBlockTableRecord
  2
*D31
  0
BLOCK_RECORD
  5
754A
330
1
100
AcDbSymbolTableRecord
100
AcDbBlockTableRecord
  2
*D32
  0
BLOCK_RECORD
  5
7557
330
1
100
AcDbSymbolTableRecord
100
AcDbBlockTableRecord
  2
*D33
  0
BLOCK_RECORD
  5
7564
330
1
100
AcDbSymbolTableRecord
100
AcDbBlockTableRecord
  2
*D34
  0
BLOCK_RECORD
  5
7587
330
1
100
AcDbSymbolTableRecord
100
AcDbBlockTableRecord
  2
*D36
  0
BLOCK_RECORD
  5
7594
330
1
100
AcDbSymbolTableRecord
100
AcDbBlockTableRecord
  2
*D37
  0
BLOCK_RECORD
  5
772D
330
1
100
AcDbSymbolTableRecord
100
AcDbBlockTableRecord
  2
*D38
  0
BLOCK_RECORD
  5
773A
330
1
100
AcDbSymbolTableRecord
100
AcDbBlockTableRecord
  2
*D39
  0
ENDTAB
  0
ENDSEC
  0
SECTION
  2
BLOCKS
  0
BLOCK
  5
1F
330
1E
100
AcDbEntity
  8
0
100
AcDbBlockBegin
  2
*MODEL_SPACE
 70
     0
 10
0.0
 20
0.0
 30
0.0
  3
*MODEL_SPACE
  1

  0
ENDBLK
  5
20
330
1E
100
AcDbEntity
  8
0
100
AcDbBlockEnd
  0
BLOCK
  5
1B
330
1A
100
AcDbEntity
 67
     1
  8
0
100
AcDbBlockBegin
  2
*PAPER_SPACE
 70
     0
 10
0.0
 20
0.0
 30
0.0
  3
*PAPER_SPACE
  1

  0
ENDBLK
  5
1C
330
1A
100
AcDbEntity
 67
     1
  8
0
100
AcDbBlockEnd
  0
BLOCK
  5
3B6
330
3B2
100
AcDbEntity
  8
0
100
AcDbBlockBegin
  2
_OPEN
 70
     0
 10
0.0
 20
0.0
 30
0.0
  3
_OPEN
  1

  0
LINE
  5
3B3
330
3B2
100
AcDbEntity
  8
30
  6
CONTINUOUS
 62
     0
100
AcDbLine
 10
-1.0
 20
0.1666666666666666
 30
0.0
 11
0.0
 21
0.0
 31
0.0
  0
LINE
  5
3B4
330
3B2
100
AcDbEntity
  8
30
  6
CONTINUOUS
 62
     0
100
AcDbLine
 10
-1.0
 20
-0.1666666666666666
 30
0.0
 11
0.0
 21
0.0
 31
0.0
  0
LINE
  5
3B5
330
3B2
100
AcDbEntity
  8
30
  6
CONTINUOUS
 62
     0
100
AcDbLine
 10
0.0
 20
0.0
 30
0.0
 11
-1.0
 21
0.0
 31
0.0
  0
ENDBLK
  5
3B7
330
3B2
100
AcDbEntity
  8
0
100
AcDbBlockEnd
  0
BLOCK
  5
46FA
330
46F7
100
AcDbEntity
  8
L0_
  6
CONTINUOUS
100
AcDbBlockBegin
  2
B837
 70
     0
 10
0.0
 20
0.0
 30
0.0
  3
B837
  1

  0
TEXT
  5
46F8
330
46F7
100
AcDbEntity
  8
L0_
  6
CONTINUOUS
100
AcDbText
 10
1984.080078125
 20
1307.4332275391
 30
0.0
 40
12.0
  1
n
 41
2.30859375
  7
SYMBOL3
 72
     5
 11
2002.080078125
 21
1307.4332275391
 31
0.0
100
AcDbText
 73
     2
  0
TEXT
  5
46F9
330
46F7
100
AcDbEntity
  8
L0_
  6
CONTINUOUS
100
AcDbText
 10
2002.080078125
 20
1307.4332275391
 30
0.0
 40
12.0
  1
11
 41
1.077343749999997
  7
SYMBOL3
 72
     5
 11
2018.880078125
 21
1307.4332275391
 31
0.0
100
AcDbText
 73
     2
  0
ENDBLK
  5
46FB
330
46F7
100
AcDbEntity
  8
L0_
  6
CONTINUOUS
100
AcDbBlockEnd
  0
BLOCK
  5
6819
330
6816
100
AcDbEntity
  8
L0_
  6
CONTINUOUS
100
AcDbBlockBegin
  2
B2837
 70
     0
 10
0.0
 20
0.0
 30
0.0
  3
B2837
  1

  0
TEXT
  5
6817
330
6816
100
AcDbEntity
  8
L0_
  6
CONTINUOUS
100
AcDbText
 10
2509.9870605469
 20
3096.0744628906
 30
0.0
 40
15.0
  1
n
 41
2.30859375
  7
SYMBOL3
 72
     5
 11
2532.4870605469
 21
3096.0744628906
 31
0.0
100
AcDbText
 73
     2
  0
TEXT
  5
6818
330
6816
100
AcDbEntity
  8
L0_
  6
CONTINUOUS
100
AcDbText
 10
2532.4870605469
 20
3096.0744628906
 30
0.0
 40
15.0
  1
9
 41
1.69296875
  7
SYMBOL3
 72
     5
 11
2548.9870605469
 21
3096.0744628906
 31
0.0
100
AcDbText
 73
     2
  0
ENDBLK
  5
681A
330
6816
100
AcDbEntity
  8
L0_
  6
CONTINUOUS
100
AcDbBlockEnd
  0
BLOCK
  5
6821
330
681B
100
AcDbEntity
  8
0
100
AcDbBlockBegin
  2
*D3
 70
     1
 10
0.0
 20
0.0
 30
0.0
  3
*D3
  1

  0
LINE
  5
681C
330
681B
100
AcDbEntity
  8
0
  6
BYBLOCK
100
AcDbLine
 10
2611.11303831454
 20
3175.571385345142
 30
0.0
 11
2562.968452781273
 21
3086.783914434756
 31
0.0
  0
LINE
  5
681D
330
681B
100
AcDbEntity
  8
0
  6
BYBLOCK
100
AcDbLine
 10
2562.968452781273
 20
3086.783914434756
 30
0.0
 11
2562.878452781273
 21
3086.783914434756
 31
0.0
  0
SOLID
  5
681E
330
681B
100
AcDbEntity
  8
0
  6
BYBLOCK
100
AcDbTrace
 10
2613.310735483583
 20
3174.379694465264
 30
0.0
 11
2608.915341145497
 21
3176.763076225018
 31
0.0
 12
2618.263183593799
 22
3188.757568359398
 32
0.0
 13
2618.263183593799
 23
3188.757568359398
 33
0.0
  0
POINT
  5
681F
330
681B
100
AcDbEntity
  8
DEFPOINTS
  6
BYBLOCK
 62
     0
100
AcDbPoint
 10
2618.263183593799
 20
3188.757568359398
 30
0.0
  0
POINT
  5
6820
330
681B
100
AcDbEntity
  8
DEFPOINTS
  6
BYBLOCK
 62
     0
100
AcDbPoint
 10
2622.553222656199
 20
3196.669189453198
 30
0.0
  0
ENDBLK
  5
6822
330
681B
100
AcDbEntity
  8
0
100
AcDbBlockEnd
  0
BLOCK
  5
6826
330
6823
100
AcDbEntity
  8
L210_
100
AcDbBlockBegin
  2
B2841
 70
     0
 10
0.0
 20
0.0
 30
0.0
  3
B2841
  1

  0
DIMENSION
  5
6824
330
6823
100
AcDbEntity
  8
L210_
100
AcDbDimension
  2
*D3
 10
2622.5532226562
 20
3196.6691894532
 30
0.0
 11
2658.4084472656
 21
3652.5883789063
 31
0.0
 70
     3
  1
 
100
AcDbDiametricDimension
 15
2618.263183593799
 25
3188.757568359398
 35
0.0
 40
116.0005747846635
  0
INSERT
  5
6825
330
6823
100
AcDbEntity
  8
L0_
  6
CONTINUOUS
100
AcDbBlockReference
  2
B2837
 10
0.0
 20
0.0
 30
0.0
  0
ENDBLK
  5
6827
330
6823
100
AcDbEntity
  8
L210_
100
AcDbBlockEnd
  0
BLOCK
  5
685A
330
6857
100
AcDbEntity
  8
L0_
  6
CONTINUOUS
100
AcDbBlockBegin
  2
B4515
 70
     0
 10
0.0
 20
0.0
 30
0.0
  3
B4515
  1

  0
LWPOLYLINE
  5
6858
330
6857
100
AcDbEntity
  8
L0_
  6
CONTINUOUS
100
AcDbPolyline
 90
        3
 70
     0
 43
0.0
 10
2080.641894800233
 20
3577.752173191962
 10
2070.6984863281
 20
3566.2465820313
 10
2083.835956340333
 20
3573.905360111234
  0
LWPOLYLINE
  5
6859
330
6857
100
AcDbEntity
  8
L0_
  6
CONTINUOUS
100
AcDbPolyline
 90
        4
 70
     0
 43
0.0
 10
2070.6984863281
 20
3566.2465820313
 10
2156.6696777344
 20
3637.629638671899
 10
2157.9443359375
 20
3637.629638671899
 10
2274.694335937499
 20
3637.629638671899
  0
ENDBLK
  5
685B
330
6857
100
AcDbEntity
  8
L0_
  6
CONTINUOUS
100
AcDbBlockEnd
  0
BLOCK
  5
685F
330
685C
100
AcDbEntity
  8
L230_
  6
CONTINUOUS
 62
     6
100
AcDbBlockBegin
  2
B4517
 70
     0
 10
0.0
 20
0.0
 30
0.0
  3
B4517
  1

  0
INSERT
  5
685D
330
685C
100
AcDbEntity
  8
L0_
  6
CONTINUOUS
100
AcDbBlockReference
  2
B4515
 10
0.0
 20
0.0
 30
0.0
  0
TEXT
  5
685E
330
685C
100
AcDbEntity
  8
L0_
  6
CONTINUOUS
100
AcDbText
 10
2167.3193359375
 20
3647.0046386719
 30
0.0
 40
15.0
  1
Insulator
 41
0.8893617021276597
  7
LEROY
 72
     5
 11
2271.8193359375
 21
3647.0046386719
 31
0.0
100
AcDbText
 73
     2
  0
ENDBLK
  5
6860
330
685C
100
AcDbEntity
  8
L230_
  6
CONTINUOUS
 62
     6
100
AcDbBlockEnd
  0
BLOCK
  5
6864
330
6861
100
AcDbEntity
  8
L0_
  6
CONTINUOUS
100
AcDbBlockBegin
  2
B4521
 70
     0
 10
0.0
 20
0.0
 30
0.0
  3
B4521
  1

  0
LWPOLYLINE
  5
6862
330
6861
100
AcDbEntity
  8
L0_
  6
CONTINUOUS
100
AcDbPolyline
 90
        3
 70
     0
 43
0.0
 10
2097.900399026019
 20
3515.880252433286
 10
2088.698486328099
 20
3527.9870605469
 10
2093.476465978473
 20
3513.550270375237
  0
LWPOLYLINE
  5
6863
330
6861
100
AcDbEntity
  8
L0_
  6
CONTINUOUS
100
AcDbPolyline
 90
        4
 70
     0
 43
0.0
 10
2088.698486328099
 20
3527.9870605469
 10
2130.16796875
 20
3449.249023437499
 10
2131.099853515599
 20
3449.249023437499
 10
2373.3498535156
 20
3449.249023437499
  0
ENDBLK
  5
6865
330
6861
100
AcDbEntity
  8
L0_
  6
CONTINUOUS
100
AcDbBlockEnd
  0
BLOCK
  5
6869
330
6866
100
AcDbEntity
  8
L230_
  6
CONTINUOUS
 62
     6
100
AcDbBlockBegin
  2
B4523
 70
     0
 10
0.0
 20
0.0
 30
0.0
  3
B4523
  1

  0
INSERT
  5
6867
330
6866
100
AcDbEntity
  8
L0_
  6
CONTINUOUS
100
AcDbBlockReference
  2
B4521
 10
0.0
 20
0.0
 30
0.0
  0
TEXT
  5
6868
330
6866
100
AcDbEntity
  8
L0_
  6
CONTINUOUS
100
AcDbText
 10
2140.4748535156
 20
3458.624023437499
 30
0.0
 40
15.0
  1
M8 mounting screw
 41
0.9531250000000001
  7
LEROY
 72
     5
 11
2369.224853515599
 21
3458.624023437499
 31
0.0
100
AcDbText
 73
     2
  0
ENDBLK
  5
686A
330
6866
100
AcDbEntity
  8
L230_
  6
CONTINUOUS
 62
     6
100
AcDbBlockEnd
  0
BLOCK
  5
686E
330
686B
100
AcDbEntity
  8
L0_
  6
CONTINUOUS
100
AcDbBlockBegin
  2
B4527
 70
     0
 10
0.0
 20
0.0
 30
0.0
  3
B4527
  1

  0
LWPOLYLINE
  5
686C
330
686B
100
AcDbEntity
  8
L0_
  6
CONTINUOUS
100
AcDbPolyline
 90
        3
 70
     0
 43
0.0
 10
2103.226365324067
 20
3186.096922203727
 10
2088.698486328099
 20
3190.5903320313
 10
2100.983752461289
 20
3181.628064682201
  0
LWPOLYLINE
  5
686D
330
686B
100
AcDbEntity
  8
L0_
  6
CONTINUOUS
100
AcDbPolyline
 90
        4
 70
     0
 43
0.0
 10
2088.698486328099
 20
3190.5903320313
 10
2224.342285156299
 20
3122.5200195313
 10
2225.397705078099
 20
3122.5200195313
 10
2467.6477050781
 20
3122.5200195313
  0
ENDBLK
  5
686F
330
686B
100
AcDbEntity
  8
L0_
  6
CONTINUOUS
100
AcDbBlockEnd
  0
BLOCK
  5
6873
330
6870
100
AcDbEntity
  8
L230_
  6
CONTINUOUS
 62
     6
100
AcDbBlockBegin
  2
B4529
 70
     0
 10
0.0
 20
0.0
 30
0.0
  3
B4529
  1

  0
INSERT
  5
6871
330
6870
100
AcDbEntity
  8
L0_
  6
CONTINUOUS
100
AcDbBlockReference
  2
B4527
 10
0.0
 20
0.0
 30
0.0
  0
TEXT
  5
6872
330
6870
100
AcDbEntity
  8
L0_
  6
CONTINUOUS
100
AcDbText
 10
2234.772705078099
 20
3131.8950195313
 30
0.0
 40
15.0
  1
M8 mounting screw
 41
0.9531250000000001
  7
LEROY
 72
     5
 11
2463.5227050781
 21
3131.8950195313
 31
0.0
100
AcDbText
 73
     2
  0
ENDBLK
  5
6874
330
6870
100
AcDbEntity
  8
L230_
  6
CONTINUOUS
 62
     6
100
AcDbBlockEnd
  0
BLOCK
  5
6D20
330
6D16
100
AcDbEntity
  8
0
100
AcDbBlockBegin
  2
*D11
 70
     1
 10
0.0
 20
0.0
 30
0.0
  3
*D11
  1

  0
LINE
  5
74B1
330
6D16
100
AcDbEntity
  8
30
  6
CONTINUOUS
 62
     0
100
AcDbLine
 10
-105.0002441405999
 20
516.1514359345528
 30
0.0
 11
-118.5002441405999
 21
516.1514359345528
 31
0.0
  0
LINE
  5
74B2
330
6D16
100
AcDbEntity
  8
30
  6
CONTINUOUS
 62
     0
100
AcDbLine
 10
-105.0002441405999
 20
376.1514359345528
 30
0.0
 11
-118.5002441405999
 21
376.1514359345528
 31
0.0
  0
LINE
  5
74B3
330
6D16
100
AcDbEntity
  8
30
  6
CONTINUOUS
 62
     0
100
AcDbLine
 10
-118.0002441405999
 20
514.1514359345528
 30
0.0
 11
-118.0002441405999
 21
378.1514359345528
 31
0.0
  0
INSERT
  5
74B4
330
6D16
100
AcDbEntity
  8
30
  6
CONTINUOUS
 62
     0
100
AcDbBlockReference
  2
_OPEN
 10
-118.0002441405999
 20
516.1514359345528
 30
0.0
 41
2.0
 42
2.0
 43
2.0
 50
90.0
  0
INSERT
  5
74B5
330
6D16
100
AcDbEntity
  8
30
  6
CONTINUOUS
 62
     0
100
AcDbBlockReference
  2
_OPEN
 10
-118.0002441405999
 20
376.1514359345528
 30
0.0
 41
2.0
 42
2.0
 43
2.0
 50
270.0
  0
MTEXT
  5
74B6
330
6D16
100
AcDbEntity
  8
30
  6
CONTINUOUS
 62
     0
100
AcDbMText
 10
-121.5002441406
 20
446.1514359345528
 30
0.0
 40
5.0
 41
0.0
 71
     5
 72
     1
  1
\A1;140
 11
0.0000000000000001
 21
1.0
 31
0.0
1001
ACAD
1000
MTEXTBEGIN
1070
    73
1070
     1
1070
    44
1040
1.0
1070
    74
1070
     0
1000
MTEXTEND
  0
POINT
  5
74B7
330
6D16
100
AcDbEntity
  8
DEFPOINTS
  6
CONTINUOUS
 62
     0
100
AcDbPoint
 10
-104.0002441405999
 20
516.1514359345528
 30
0.0
  0
POINT
  5
74B8
330
6D16
100
AcDbEntity
  8
DEFPOINTS
  6
CONTINUOUS
 62
     0
100
AcDbPoint
 10
-104.0002441405999
 20
376.1514359345528
 30
0.0
  0
POINT
  5
74B9
330
6D16
100
AcDbEntity
  8
DEFPOINTS
  6
CONTINUOUS
 62
     0
100
AcDbPoint
 10
-118.0002441405999
 20
376.1514359345528
 30
0.0
  0
ENDBLK
  5
6D21
330
6D16
100
AcDbEntity
  8
0
100
AcDbBlockEnd
  0
BLOCK
  5
6D74
330
6D6A
100
AcDbEntity
  8
0
100
AcDbBlockBegin
  2
*D12
 70
     1
 10
0.0
 20
0.0
 30
0.0
  3
*D12
  1

  0
LINE
  5
761B
330
6D6A
100
AcDbEntity
  8
30
  6
CONTINUOUS
 62
     0
100
AcDbLine
 10
359.5286347070141
 20
-1.0
 30
0.0
 11
359.5286347070141
 21
-292.9950458463608
 31
0.0
  0
LINE
  5
761C
330
6D6A
100
AcDbEntity
  8
30
  6
CONTINUOUS
 62
     0
100
AcDbLine
 10
376.5286347070141
 20
-141.0
 30
0.0
 11
376.5286347070141
 21
-292.9950458463608
 31
0.0
  0
LINE
  5
761D
330
6D6A
100
AcDbEntity
  8
30
  6
CONTINUOUS
 62
     0
100
AcDbLine
 10
361.5286347070141
 20
-292.4950458463608
 30
0.0
 11
374.5286347070141
 21
-292.4950458463608
 31
0.0
  0
INSERT
  5
761E
330
6D6A
100
AcDbEntity
  8
30
  6
CONTINUOUS
 62
     0
100
AcDbBlockReference
  2
_OPEN
 10
359.5286347070141
 20
-292.4950458463608
 30
0.0
 41
2.0
 42
2.0
 43
2.0
 50
180.0
  0
INSERT
  5
761F
330
6D6A
100
AcDbEntity
  8
30
  6
CONTINUOUS
 62
     0
100
AcDbBlockReference
  2
_OPEN
 10
376.5286347070141
 20
-292.4950458463608
 30
0.0
 41
2.0
 42
2.0
 43
2.0
  0
MTEXT
  5
7620
330
6D6A
100
AcDbEntity
  8
30
  6
CONTINUOUS
 62
     0
100
AcDbMText
 10
368.0286347070141
 20
-288.9950458463608
 30
0.0
 40
5.0
 41
0.0
 71
     5
 72
     1
  1
\A1;17
1001
ACAD
1000
MTEXTBEGIN
1070
    73
1070
     1
1070
    44
1040
1.0
1070
    74
1070
     0
1000
MTEXTEND
  0
POINT
  5
7621
330
6D6A
100
AcDbEntity
  8
DEFPOINTS
  6
CONTINUOUS
 62
     0
100
AcDbPoint
 10
359.5286347070141
 20
0.0
 30
0.0
  0
POINT
  5
7622
330
6D6A
100
AcDbEntity
  8
DEFPOINTS
  6
CONTINUOUS
 62
     0
100
AcDbPoint
 10
376.5286347070141
 20
-140.0
 30
0.0
  0
POINT
  5
7623
330
6D6A
100
AcDbEntity
  8
DEFPOINTS
  6
CONTINUOUS
 62
     0
100
AcDbPoint
 10
376.5286347070141
 20
-292.4950458463608
 30
0.0
  0
ENDBLK
  5
6D75
330
6D6A
100
AcDbEntity
  8
0
100
AcDbBlockEnd
  0
BLOCK
  5
6D81
330
6D77
100
AcDbEntity
  8
0
100
AcDbBlockBegin
  2
*D13
 70
     1
 10
0.0
 20
0.0
 30
0.0
  3
*D13
  1

  0
LINE
  5
7771
330
6D77
100
AcDbEntity
  8
30
  6
CONTINUOUS
 62
     0
100
AcDbLine
 10
376.5286347070141
 20
-141.0
 30
0.0
 11
376.5286347070141
 21
-292.9950458463608
 31
0.0
  0
LINE
  5
7772
330
6D77
100
AcDbEntity
  8
30
  6
CONTINUOUS
 62
     0
100
AcDbLine
 10
516.5286347070141
 20
-180.0
 30
0.0
 11
516.5286347070141
 21
-292.9950458463608
 31
0.0
  0
LINE
  5
7773
330
6D77
100
AcDbEntity
  8
30
  6
CONTINUOUS
 62
     0
100
AcDbLine
 10
378.5286347070141
 20
-292.4950458463608
 30
0.0
 11
514.5286347070141
 21
-292.4950458463608
 31
0.0
  0
INSERT
  5
7774
330
6D77
100
AcDbEntity
  8
30
  6
CONTINUOUS
 62
     0
100
AcDbBlockReference
  2
_OPEN
 10
376.5286347070141
 20
-292.4950458463608
 30
0.0
 41
2.0
 42
2.0
 43
2.0
 50
180.0
  0
INSERT
  5
7775
330
6D77
100
AcDbEntity
  8
30
  6
CONTINUOUS
 62
     0
100
AcDbBlockReference
  2
_OPEN
 10
516.5286347070141
 20
-292.4950458463608
 30
0.0
 41
2.0
 42
2.0
 43
2.0
  0
MTEXT
  5
7776
330
6D77
100
AcDbEntity
  8
30
  6
CONTINUOUS
 62
     0
100
AcDbMText
 10
446.5286347070141
 20
-288.9950458463608
 30
0.0
 40
5.0
 41
0.0
 71
     5
 72
     1
  1
\A1;140
  0
POINT
  5
7777
330
6D77
100
AcDbEntity
  8
DEFPOINTS
  6
CONTINUOUS
 62
     0
100
AcDbPoint
 10
376.5286347070141
 20
-140.0
 30
0.0
  0
POINT
  5
7778
330
6D77
100
AcDbEntity
  8
DEFPOINTS
  6
CONTINUOUS
 62
     0
100
AcDbPoint
 10
516.5286347070141
 20
-179.0
 30
0.0
  0
POINT
  5
7779
330
6D77
100
AcDbEntity
  8
DEFPOINTS
  6
CONTINUOUS
 62
     0
100
AcDbPoint
 10
516.5286347070141
 20
-292.4950458463608
 30
0.0
  0
ENDBLK
  5
6D82
330
6D77
100
AcDbEntity
  8
0
100
AcDbBlockEnd
  0
BLOCK
  5
6DC2
330
6DB8
100
AcDbEntity
  8
0
100
AcDbBlockBegin
  2
*D14
 70
     1
 10
0.0
 20
0.0
 30
0.0
  3
*D14
  1

  0
LINE
  5
7609
330
6DB8
100
AcDbEntity
  8
30
  6
CONTINUOUS
 62
     0
100
AcDbLine
 10
376.5286347070141
 20
-141.0
 30
0.0
 11
376.5286347070141
 21
-194.9087893196519
 31
0.0
  0
LINE
  5
760A
330
6DB8
100
AcDbEntity
  8
30
  6
CONTINUOUS
 62
     0
100
AcDbLine
 10
384.5286347070141
 20
-171.0
 30
0.0
 11
384.5286347070141
 21
-194.9087893196519
 31
0.0
  0
LINE
  5
760B
330
6DB8
100
AcDbEntity
  8
30
  6
CONTINUOUS
 62
     0
100
AcDbLine
 10
378.5286347070141
 20
-194.4087893196519
 30
0.0
 11
382.5286347070141
 21
-194.4087893196519
 31
0.0
  0
INSERT
  5
760C
330
6DB8
100
AcDbEntity
  8
30
  6
CONTINUOUS
 62
     0
100
AcDbBlockReference
  2
_OPEN
 10
376.5286347070141
 20
-194.4087893196519
 30
0.0
 41
2.0
 42
2.0
 43
2.0
 50
180.0
  0
INSERT
  5
760D
330
6DB8
100
AcDbEntity
  8
30
  6
CONTINUOUS
 62
     0
100
AcDbBlockReference
  2
_OPEN
 10
384.5286347070141
 20
-194.4087893196519
 30
0.0
 41
2.0
 42
2.0
 43
2.0
  0
MTEXT
  5
760E
330
6DB8
100
AcDbEntity
  8
30
  6
CONTINUOUS
 62
     0
100
AcDbMText
 10
380.5286347070141
 20
-190.9087893196519
 30
0.0
 40
5.0
 41
0.0
 71
     5
 72
     1
  1
\A1;8
1001
ACAD
1000
MTEXTBEGIN
1070
    73
1070
     1
1070
    44
1040
1.0
1070
    74
1070
     0
1000
MTEXTEND
  0
POINT
  5
760F
330
6DB8
100
AcDbEntity
  8
DEFPOINTS
  6
CONTINUOUS
 62
     0
100
AcDbPoint
 10
376.5286347070141
 20
-140.0
 30
0.0
  0
POINT
  5
7610
330
6DB8
100
AcDbEntity
  8
DEFPOINTS
  6
CONTINUOUS
 62
     0
100
AcDbPoint
 10
384.5286347070141
 20
-170.0
 30
0.0
  0
POINT
  5
7611
330
6DB8
100
AcDbEntity
  8
DEFPOINTS
  6
CONTINUOUS
 62
     0
100
AcDbPoint
 10
384.5286347070141
 20
-194.4087893196519
 30
0.0
  0
ENDBLK
  5
6DC3
330
6DB8
100
AcDbEntity
  8
0
100
AcDbBlockEnd
  0
BLOCK
  5
6DF8
330
6DEE
100
AcDbEntity
  8
0
100
AcDbBlockBegin
  2
*D15
 70
     1
 10
0.0
 20
0.0
 30
0.0
  3
*D15
  1

  0
LINE
  5
7600
330
6DEE
100
AcDbEntity
  8
30
  6
CONTINUOUS
 62
     0
100
AcDbLine
 10
245.5287415185602
 20
-0.9999999999999895
 30
0.0
 11
245.5287415185601
 21
-309.58595701602
 31
0.0
  0
LINE
  5
7601
330
6DEE
100
AcDbEntity
  8
30
  6
CONTINUOUS
 62
     0
100
AcDbLine
 10
325.5284744897574
 20
-1.0
 30
0.0
 11
325.5284744897574
 21
-309.58595701602
 31
0.0
  0
LINE
  5
7602
330
6DEE
100
AcDbEntity
  8
30
  6
CONTINUOUS
 62
     0
100
AcDbLine
 10
247.5287415185601
 20
-309.08595701602
 30
0.0
 11
323.5284744897574
 21
-309.08595701602
 31
0.0
  0
INSERT
  5
7603
330
6DEE
100
AcDbEntity
  8
30
  6
CONTINUOUS
 62
     0
100
AcDbBlockReference
  2
_OPEN
 10
245.5287415185601
 20
-309.08595701602
 30
0.0
 41
2.0
 42
2.0
 43
2.0
 50
180.0
  0
INSERT
  5
7604
330
6DEE
100
AcDbEntity
  8
30
  6
CONTINUOUS
 62
     0
100
AcDbBlockReference
  2
_OPEN
 10
325.5284744897574
 20
-309.08595701602
 30
0.0
 41
2.0
 42
2.0
 43
2.0
  0
MTEXT
  5
7605
330
6DEE
100
AcDbEntity
  8
30
  6
CONTINUOUS
 62
     0
100
AcDbMText
 10
285.5286080041588
 20
-305.58595701602
 30
0.0
 40
5.0
 41
0.0
 71
     5
 72
     1
  1
\A1;80
1001
ACAD
1000
MTEXTBEGIN
1070
    73
1070
     1
1070
    44
1040
1.0
1070
    74
1070
     0
1000
MTEXTEND
  0
POINT
  5
7606
330
6DEE
100
AcDbEntity
  8
DEFPOINTS
  6
CONTINUOUS
 62
     0
100
AcDbPoint
 10
245.5287415185602
 20
0.0000000000000105
 30
0.0
  0
POINT
  5
7607
330
6DEE
100
AcDbEntity
  8
DEFPOINTS
  6
CONTINUOUS
 62
     0
100
AcDbPoint
 10
325.5284744897574
 20
-0.0000000000000009
 30
0.0
  0
POINT
  5
7608
330
6DEE
100
AcDbEntity
  8
DEFPOINTS
  6
CONTINUOUS
 62
     0
100
AcDbPoint
 10
325.5284744897574
 20
-309.08595701602
 30
0.0
  0
ENDBLK
  5
6DF9
330
6DEE
100
AcDbEntity
  8
0
100
AcDbBlockEnd
  0
BLOCK
  5
6E05
330
6DFB
100
AcDbEntity
  8
0
100
AcDbBlockBegin
  2
*D16
 70
     1
 10
0.0
 20
0.0
 30
0.0
  3
*D16
  1

  0
LINE
  5
777A
330
6DFB
100
AcDbEntity
  8
30
  6
CONTINUOUS
 62
     0
100
AcDbLine
 10
325.5284744897574
 20
-1.0
 30
0.0
 11
325.5284744897574
 21
-309.58595701602
 31
0.0
  0
LINE
  5
777B
330
6DFB
100
AcDbEntity
  8
30
  6
CONTINUOUS
 62
     0
100
AcDbLine
 10
516.5286347070141
 20
-180.0
 30
0.0
 11
516.5286347070141
 21
-309.58595701602
 31
0.0
  0
LINE
  5
777C
330
6DFB
100
AcDbEntity
  8
30
  6
CONTINUOUS
 62
     0
100
AcDbLine
 10
327.5284744897574
 20
-309.08595701602
 30
0.0
 11
514.5286347070141
 21
-309.08595701602
 31
0.0
  0
INSERT
  5
777D
330
6DFB
100
AcDbEntity
  8
30
  6
CONTINUOUS
 62
     0
100
AcDbBlockReference
  2
_OPEN
 10
325.5284744897574
 20
-309.08595701602
 30
0.0
 41
2.0
 42
2.0
 43
2.0
 50
180.0
  0
INSERT
  5
777E
330
6DFB
100
AcDbEntity
  8
30
  6
CONTINUOUS
 62
     0
100
AcDbBlockReference
  2
_OPEN
 10
516.5286347070141
 20
-309.08595701602
 30
0.0
 41
2.0
 42
2.0
 43
2.0
  0
MTEXT
  5
777F
330
6DFB
100
AcDbEntity
  8
30
  6
CONTINUOUS
 62
     0
100
AcDbMText
 10
421.0285545983857
 20
-305.58595701602
 30
0.0
 40
5.0
 41
0.0
 71
     5
 72
     1
  1
\A1;191
  0
POINT
  5
7780
330
6DFB
100
AcDbEntity
  8
DEFPOINTS
  6
CONTINUOUS
 62
     0
100
AcDbPoint
 10
325.5284744897574
 20
-0.0000000000000009
 30
0.0
  0
POINT
  5
7781
330
6DFB
100
AcDbEntity
  8
DEFPOINTS
  6
CONTINUOUS
 62
     0
100
AcDbPoint
 10
516.5286347070141
 20
-179.0
 30
0.0
  0
POINT
  5
7782
330
6DFB
100
AcDbEntity
  8
DEFPOINTS
  6
CONTINUOUS
 62
     0
100
AcDbPoint
 10
516.5286347070141
 20
-309.08595701602
 30
0.0
  0
ENDBLK
  5
6E06
330
6DFB
100
AcDbEntity
  8
0
100
AcDbBlockEnd
  0
BLOCK
  5
6E12
330
6E08
100
AcDbEntity
  8
0
100
AcDbBlockBegin
  2
*D17
 70
     1
 10
0.0
 20
0.0
 30
0.0
  3
*D17
  1

  0
LINE
  5
7650
330
6E08
100
AcDbEntity
  8
30
  6
CONTINUOUS
 62
     0
100
AcDbLine
 10
375.5286347070141
 20
170.0
 30
0.0
 11
303.7426559383603
 21
170.0
 31
0.0
  0
LINE
  5
7651
330
6E08
100
AcDbEntity
  8
30
  6
CONTINUOUS
 62
     0
100
AcDbLine
 10
324.5284744897574
 20
0.0000000000000003
 30
0.0
 11
303.7426559383602
 21
0.0000000000000062
 31
0.0
  0
LINE
  5
7652
330
6E08
100
AcDbEntity
  8
30
  6
CONTINUOUS
 62
     0
100
AcDbLine
 10
304.2426559383603
 20
168.0
 30
0.0
 11
304.2426559383602
 21
2.000000000000006
 31
0.0
  0
INSERT
  5
7653
330
6E08
100
AcDbEntity
  8
30
  6
CONTINUOUS
 62
     0
100
AcDbBlockReference
  2
_OPEN
 10
304.2426559383603
 20
170.0
 30
0.0
 41
2.0
 42
2.0
 43
2.0
 50
90.0
  0
INSERT
  5
7654
330
6E08
100
AcDbEntity
  8
30
  6
CONTINUOUS
 62
     0
100
AcDbBlockReference
  2
_OPEN
 10
304.2426559383602
 20
0.000000000000006
 30
0.0
 41
2.0
 42
2.0
 43
2.0
 50
270.0
  0
MTEXT
  5
7655
330
6E08
100
AcDbEntity
  8
30
  6
CONTINUOUS
 62
     0
100
AcDbMText
 10
300.7426559383602
 20
85.00000000000007
 30
0.0
 40
5.0
 41
0.0
 71
     5
 72
     1
  1
\A1;170
 11
0.0000000000000001
 21
1.0
 31
0.0
1001
ACAD
1000
MTEXTBEGIN
1070
    73
1070
     1
1070
    44
1040
1.0
1070
    74
1070
     0
1000
MTEXTEND
  0
POINT
  5
7656
330
6E08
100
AcDbEntity
  8
DEFPOINTS
  6
CONTINUOUS
 62
     0
100
AcDbPoint
 10
376.5286347070141
 20
170.0
 30
0.0
  0
POINT
  5
7657
330
6E08
100
AcDbEntity
  8
DEFPOINTS
  6
CONTINUOUS
 62
     0
100
AcDbPoint
 10
325.5284744897574
 20
0.0
 30
0.0
  0
POINT
  5
7658
330
6E08
100
AcDbEntity
  8
DEFPOINTS
  6
CONTINUOUS
 62
     0
100
AcDbPoint
 10
304.2426559383602
 20
0.000000000000006
 30
0.0
  0
ENDBLK
  5
6E13
330
6E08
100
AcDbEntity
  8
0
100
AcDbBlockEnd
  0
BLOCK
  5
6E28
330
6E1E
100
AcDbEntity
  8
0
100
AcDbBlockBegin
  2
*D18
 70
     1
 10
0.0
 20
0.0
 30
0.0
  3
*D18
  1

  0
LINE
  5
7783
330
6E1E
100
AcDbEntity
  8
30
  6
CONTINUOUS
 62
     0
100
AcDbLine
 10
324.5284744897574
 20
0.0000000000000003
 30
0.0
 11
303.7426559383603
 21
0.0000000000000062
 31
0.0
  0
LINE
  5
7784
330
6E1E
100
AcDbEntity
  8
30
  6
CONTINUOUS
 62
     0
100
AcDbLine
 10
375.5286347070141
 20
-140.0
 30
0.0
 11
303.7426559383602
 21
-139.9999999999999
 31
0.0
  0
LINE
  5
7785
330
6E1E
100
AcDbEntity
  8
30
  6
CONTINUOUS
 62
     0
100
AcDbLine
 10
304.2426559383603
 20
-1.999999999999993
 30
0.0
 11
304.2426559383602
 21
-137.9999999999999
 31
0.0
  0
INSERT
  5
7786
330
6E1E
100
AcDbEntity
  8
30
  6
CONTINUOUS
 62
     0
100
AcDbBlockReference
  2
_OPEN
 10
304.2426559383603
 20
0.000000000000006
 30
0.0
 41
2.0
 42
2.0
 43
2.0
 50
90.0
  0
INSERT
  5
7787
330
6E1E
100
AcDbEntity
  8
30
  6
CONTINUOUS
 62
     0
100
AcDbBlockReference
  2
_OPEN
 10
304.2426559383602
 20
-139.9999999999999
 30
0.0
 41
2.0
 42
2.0
 43
2.0
 50
270.0
  0
MTEXT
  5
7788
330
6E1E
100
AcDbEntity
  8
30
  6
CONTINUOUS
 62
     0
100
AcDbMText
 10
300.7426559383603
 20
-69.99999999999992
 30
0.0
 40
5.0
 41
0.0
 71
     5
 72
     1
  1
\A1;140
 11
0.0000000000000001
 21
1.0
 31
0.0
  0
POINT
  5
7789
330
6E1E
100
AcDbEntity
  8
DEFPOINTS
  6
CONTINUOUS
 62
     0
100
AcDbPoint
 10
325.5284744897574
 20
0.0
 30
0.0
  0
POINT
  5
778A
330
6E1E
100
AcDbEntity
  8
DEFPOINTS
  6
CONTINUOUS
 62
     0
100
AcDbPoint
 10
376.5286347070141
 20
-140.0
 30
0.0
  0
POINT
  5
778B
330
6E1E
100
AcDbEntity
  8
DEFPOINTS
  6
CONTINUOUS
 62
     0
100
AcDbPoint
 10
304.2426559383602
 20
-139.9999999999999
 30
0.0
  0
ENDBLK
  5
6E29
330
6E1E
100
AcDbEntity
  8
0
100
AcDbBlockEnd
  0
BLOCK
  5
6F20
330
6F17
100
AcDbEntity
  8
0
100
AcDbBlockBegin
  2
*D19
 70
     1
 10
0.0
 20
0.0
 30
0.0
  3
*D19
  1

  0
LINE
  5
7636
330
6F17
100
AcDbEntity
  8
30
  6
CONTINUOUS
 62
     0
100
AcDbLine
 10
371.1398208945713
 20
-535.666441437328
 30
0.0
 11
358.4731542279043
 21
-535.666441437328
 31
0.0
  0
LINE
  5
7637
330
6F17
100
AcDbEntity
  8
30
  6
CONTINUOUS
 62
     0
100
AcDbLine
 10
358.4731542279043
 20
-535.666441437328
 30
0.0
 11
353.6610902390473
 21
-550.1026334038989
 31
0.0
  0
MTEXT
  5
7638
330
6F17
100
AcDbEntity
  8
30
  6
CONTINUOUS
 62
     0
100
AcDbMText
 10
366.9731542279046
 20
-532.1664414373279
 30
0.0
 40
5.0
 41
0.0
 71
     5
 72
     1
  1
\A1;R6
1001
ACAD
1000
MTEXTBEGIN
1070
    73
1070
     1
1070
    44
1040
1.0
1070
    74
1070
     0
1000
MTEXTEND
  0
INSERT
  5
7639
330
6F17
100
AcDbEntity
  8
30
  6
CONTINUOUS
 62
     0
100
AcDbBlockReference
  2
_OPEN
 10
353.0286347070136
 20
-552.0
 30
0.0
 41
2.0
 42
2.0
 43
2.0
 50
251.5650511770779
  0
LINE
  5
763A
330
6F17
100
AcDbEntity
  8
30
  6
CONTINUOUS
 62
     0
100
AcDbLine
 10
350.8831542279042
 20
-558.1664414373285
 30
0.0
 11
351.0631542279041
 21
-558.1664414373286
 31
0.0
  0
LINE
  5
763B
330
6F17
100
AcDbEntity
  8
30
  6
CONTINUOUS
 62
     0
100
AcDbLine
 10
350.9731542279041
 20
-558.2564414373287
 30
0.0
 11
350.9731542279041
 21
-558.0764414373286
 31
0.0
  0
POINT
  5
763C
330
6F17
100
AcDbEntity
  8
DEFPOINTS
  6
CONTINUOUS
 62
     0
100
AcDbPoint
 10
353.0286347070136
 20
-552.0
 30
0.0
  0
POINT
  5
763D
330
6F17
100
AcDbEntity
  8
DEFPOINTS
  6
CONTINUOUS
 62
     0
100
AcDbPoint
 10
350.9731542279041
 20
-558.1664414373286
 30
0.0
  0
ENDBLK
  5
6F21
330
6F17
100
AcDbEntity
  8
0
100
AcDbBlockEnd
  0
BLOCK
  5
6F5D
330
6F53
100
AcDbEntity
  8
0
100
AcDbBlockBegin
  2
*D20
 70
     1
 10
0.0
 20
0.0
 30
0.0
  3
*D20
  1

  0
LINE
  5
6F54
330
6F53
100
AcDbEntity
  8
30
  6
CONTINUOUS
 62
     0
100
AcDbLine
 10
-51.0
 20
-417.0
 30
0.0
 11
-201.5934457379698
 21
-416.9999999999999
 31
0.0
  0
LINE
  5
6F55
330
6F53
100
AcDbEntity
  8
30
  6
CONTINUOUS
 62
     0
100
AcDbLine
 10
-167.0
 20
-601.0
 30
0.0
 11
-201.5934457379699
 21
-601.0
 31
0.0
  0
LINE
  5
6F56
330
6F53
100
AcDbEntity
  8
30
  6
CONTINUOUS
 62
     0
100
AcDbLine
 10
-201.0934457379698
 20
-418.9999999999999
 30
0.0
 11
-201.0934457379699
 21
-599.0
 31
0.0
  0
INSERT
  5
6F57
330
6F53
100
AcDbEntity
  8
30
  6
CONTINUOUS
 62
     0
100
AcDbBlockReference
  2
_OPEN
 10
-201.0934457379698
 20
-416.9999999999999
 30
0.0
 41
2.0
 42
2.0
 43
2.0
 50
90.0
  0
INSERT
  5
6F58
330
6F53
100
AcDbEntity
  8
30
  6
CONTINUOUS
 62
     0
100
AcDbBlockReference
  2
_OPEN
 10
-201.0934457379699
 20
-601.0
 30
0.0
 41
2.0
 42
2.0
 43
2.0
 50
270.0
  0
MTEXT
  5
6F59
330
6F53
100
AcDbEntity
  8
30
  6
CONTINUOUS
 62
     0
100
AcDbMText
 10
-204.5934457379698
 20
-509.0
 30
0.0
 40
5.0
 41
0.0
 71
     5
 72
     1
  1
\A1;184
 11
0.0000000000000001
 21
1.0
 31
0.0
1001
ACAD
1000
MTEXTBEGIN
1070
    73
1070
     1
1070
    44
1040
1.0
1070
    74
1070
     0
1000
MTEXTEND
  0
POINT
  5
6F5A
330
6F53
100
AcDbEntity
  8
DEFPOINTS
  6
CONTINUOUS
 62
     0
100
AcDbPoint
 10
-50.0
 20
-417.0
 30
0.0
  0
POINT
  5
6F5B
330
6F53
100
AcDbEntity
  8
DEFPOINTS
  6
CONTINUOUS
 62
     0
100
AcDbPoint
 10
-166.0
 20
-601.0
 30
0.0
  0
POINT
  5
6F5C
330
6F53
100
AcDbEntity
  8
DEFPOINTS
  6
CONTINUOUS
 62
     0
100
AcDbPoint
 10
-201.0934457379699
 20
-601.0
 30
0.0
  0
ENDBLK
  5
6F5E
330
6F53
100
AcDbEntity
  8
0
100
AcDbBlockEnd
  0
BLOCK
  5
6F6A
330
6F60
100
AcDbEntity
  8
0
100
AcDbBlockBegin
  2
*D21
 70
     1
 10
0.0
 20
0.0
 30
0.0
  3
*D21
  1

  0
LINE
  5
778C
330
6F60
100
AcDbEntity
  8
30
  6
CONTINUOUS
 62
     0
100
AcDbLine
 10
-167.0
 20
-601.0
 30
0.0
 11
-201.5934457379699
 21
-601.0
 31
0.0
  0
LINE
  5
778D
330
6F60
100
AcDbEntity
  8
30
  6
CONTINUOUS
 62
     0
100
AcDbLine
 10
-51.0
 20
-754.9997558592999
 30
0.0
 11
-201.5934457379699
 21
-754.9997558592999
 31
0.0
  0
LINE
  5
778E
330
6F60
100
AcDbEntity
  8
30
  6
CONTINUOUS
 62
     0
100
AcDbLine
 10
-201.0934457379699
 20
-603.0
 30
0.0
 11
-201.0934457379699
 21
-752.9997558593
 31
0.0
  0
INSERT
  5
778F
330
6F60
100
AcDbEntity
  8
30
  6
CONTINUOUS
 62
     0
100
AcDbBlockReference
  2
_OPEN
 10
-201.0934457379699
 20
-601.0
 30
0.0
 41
2.0
 42
2.0
 43
2.0
 50
90.0
  0
INSERT
  5
7790
330
6F60
100
AcDbEntity
  8
30
  6
CONTINUOUS
 62
     0
100
AcDbBlockReference
  2
_OPEN
 10
-201.0934457379699
 20
-754.9997558592999
 30
0.0
 41
2.0
 42
2.0
 43
2.0
 50
270.0
  0
MTEXT
  5
7791
330
6F60
100
AcDbEntity
  8
30
  6
CONTINUOUS
 62
     0
100
AcDbMText
 10
-204.5934457379698
 20
-677.99987792965
 30
0.0
 40
5.0
 41
0.0
 71
     5
 72
     1
  1
\A1;154
 11
0.0000000000000001
 21
1.0
 31
0.0
  0
POINT
  5
7792
330
6F60
100
AcDbEntity
  8
DEFPOINTS
  6
CONTINUOUS
 62
     0
100
AcDbPoint
 10
-166.0
 20
-601.0
 30
0.0
  0
POINT
  5
7793
330
6F60
100
AcDbEntity
  8
DEFPOINTS
  6
CONTINUOUS
 62
     0
100
AcDbPoint
 10
-50.0
 20
-754.9997558592999
 30
0.0
  0
POINT
  5
7794
330
6F60
100
AcDbEntity
  8
DEFPOINTS
  6
CONTINUOUS
 62
     0
100
AcDbPoint
 10
-201.0934457379699
 20
-754.9997558592999
 30
0.0
  0
ENDBLK
  5
6F6B
330
6F60
100
AcDbEntity
  8
0
100
AcDbBlockEnd
  0
BLOCK
  5
6F77
330
6F6D
100
AcDbEntity
  8
0
100
AcDbBlockBegin
  2
*D22
 70
     1
 10
0.0
 20
0.0
 30
0.0
  3
*D22
  1

  0
LINE
  5
6F6E
330
6F6D
100
AcDbEntity
  8
30
  6
CONTINUOUS
 62
     0
100
AcDbLine
 10
-35.0
 20
-770.9997558592999
 30
0.0
 11
-35.0
 21
-810.9423648938419
 31
0.0
  0
LINE
  5
6F6F
330
6F6D
100
AcDbEntity
  8
30
  6
CONTINUOUS
 62
     0
100
AcDbLine
 10
35.0
 20
-770.9997558592999
 30
0.0
 11
35.0
 21
-810.9423648938419
 31
0.0
  0
LINE
  5
6F70
330
6F6D
100
AcDbEntity
  8
30
  6
CONTINUOUS
 62
     0
100
AcDbLine
 10
-33.0
 20
-810.4423648938418
 30
0.0
 11
33.0
 21
-810.4423648938418
 31
0.0
  0
INSERT
  5
6F71
330
6F6D
100
AcDbEntity
  8
30
  6
CONTINUOUS
 62
     0
100
AcDbBlockReference
  2
_OPEN
 10
-35.0
 20
-810.4423648938418
 30
0.0
 41
2.0
 42
2.0
 43
2.0
 50
180.0
  0
INSERT
  5
6F72
330
6F6D
100
AcDbEntity
  8
30
  6
CONTINUOUS
 62
     0
100
AcDbBlockReference
  2
_OPEN
 10
35.0
 20
-810.4423648938418
 30
0.0
 41
2.0
 42
2.0
 43
2.0
  0
MTEXT
  5
6F73
330
6F6D
100
AcDbEntity
  8
30
  6
CONTINUOUS
 62
     0
100
AcDbMText
 10
0.0000000000000002
 20
-806.9423648938418
 30
0.0
 40
5.0
 41
0.0
 71
     5
 72
     1
  1
\A1;70
1001
ACAD
1000
MTEXTBEGIN
1070
    73
1070
     1
1070
    44
1040
1.0
1070
    74
1070
     0
1000
MTEXTEND
  0
POINT
  5
6F74
330
6F6D
100
AcDbEntity
  8
DEFPOINTS
  6
CONTINUOUS
 62
     0
100
AcDbPoint
 10
-35.0
 20
-769.9997558593
 30
0.0
  0
POINT
  5
6F75
330
6F6D
100
AcDbEntity
  8
DEFPOINTS
  6
CONTINUOUS
 62
     0
100
AcDbPoint
 10
35.0
 20
-769.9997558593
 30
0.0
  0
POINT
  5
6F76
330
6F6D
100
AcDbEntity
  8
DEFPOINTS
  6
CONTINUOUS
 62
     0
100
AcDbPoint
 10
35.0
 20
-810.4423648938418
 30
0.0
  0
ENDBLK
  5
6F78
330
6F6D
100
AcDbEntity
  8
0
100
AcDbBlockEnd
  0
BLOCK
  5
6F84
330
6F7A
100
AcDbEntity
  8
0
100
AcDbBlockBegin
  2
*D23
 70
     1
 10
0.0
 20
0.0
 30
0.0
  3
*D23
  1

  0
LINE
  5
762D
330
6F7A
100
AcDbEntity
  8
30
  6
CONTINUOUS
 62
     0
100
AcDbLine
 10
278.0286347070141
 20
-645.0
 30
0.0
 11
278.0286347070141
 21
-684.2650401241262
 31
0.0
  0
LINE
  5
762E
330
6F7A
100
AcDbEntity
  8
30
  6
CONTINUOUS
 62
     0
100
AcDbLine
 10
359.0286347070141
 20
-645.0
 30
0.0
 11
359.0286347070141
 21
-684.2650401241262
 31
0.0
  0
LINE
  5
762F
330
6F7A
100
AcDbEntity
  8
30
  6
CONTINUOUS
 62
     0
100
AcDbLine
 10
280.0286347070141
 20
-683.7650401241262
 30
0.0
 11
357.0286347070141
 21
-683.7650401241262
 31
0.0
  0
INSERT
  5
7630
330
6F7A
100
AcDbEntity
  8
30
  6
CONTINUOUS
 62
     0
100
AcDbBlockReference
  2
_OPEN
 10
278.0286347070141
 20
-683.7650401241262
 30
0.0
 41
2.0
 42
2.0
 43
2.0
 50
180.0
  0
INSERT
  5
7631
330
6F7A
100
AcDbEntity
  8
30
  6
CONTINUOUS
 62
     0
100
AcDbBlockReference
  2
_OPEN
 10
359.0286347070141
 20
-683.7650401241262
 30
0.0
 41
2.0
 42
2.0
 43
2.0
  0
MTEXT
  5
7632
330
6F7A
100
AcDbEntity
  8
30
  6
CONTINUOUS
 62
     0
100
AcDbMText
 10
318.5286347070141
 20
-680.2650401241262
 30
0.0
 40
5.0
 41
0.0
 71
     5
 72
     1
  1
\A1;81
1001
ACAD
1000
MTEXTBEGIN
1070
    73
1070
     1
1070
    44
1040
1.0
1070
    74
1070
     0
1000
MTEXTEND
  0
POINT
  5
7633
330
6F7A
100
AcDbEntity
  8
DEFPOINTS
  6
CONTINUOUS
 62
     0
100
AcDbPoint
 10
278.0286347070141
 20
-644.0
 30
0.0
  0
POINT
  5
7634
330
6F7A
100
AcDbEntity
  8
DEFPOINTS
  6
CONTINUOUS
 62
     0
100
AcDbPoint
 10
359.0286347070141
 20
-644.0
 30
0.0
  0
POINT
  5
7635
330
6F7A
100
AcDbEntity
  8
DEFPOINTS
  6
CONTINUOUS
 62
     0
100
AcDbPoint
 10
359.0286347070141
 20
-683.7650401241262
 30
0.0
  0
ENDBLK
  5
6F85
330
6F7A
100
AcDbEntity
  8
0
100
AcDbBlockEnd
  0
BLOCK
  5
6F91
330
6F87
100
AcDbEntity
  8
0
100
AcDbBlockBegin
  2
*D24
 70
     1
 10
0.0
 20
0.0
 30
0.0
  3
*D24
  1

  0
LINE
  5
7624
330
6F87
100
AcDbEntity
  8
30
  6
CONTINUOUS
 62
     0
100
AcDbLine
 10
283.0286347070141
 20
-552.0
 30
0.0
 11
256.1259214396632
 21
-552.0
 31
0.0
  0
LINE
  5
7625
330
6F87
100
AcDbEntity
  8
30
  6
CONTINUOUS
 62
     0
100
AcDbLine
 10
283.0286347070141
 20
-650.0
 30
0.0
 11
256.1259214396632
 21
-650.0
 31
0.0
  0
LINE
  5
7626
330
6F87
100
AcDbEntity
  8
30
  6
CONTINUOUS
 62
     0
100
AcDbLine
 10
256.6259214396632
 20
-554.0
 30
0.0
 11
256.6259214396632
 21
-648.0
 31
0.0
  0
INSERT
  5
7627
330
6F87
100
AcDbEntity
  8
30
  6
CONTINUOUS
 62
     0
100
AcDbBlockReference
  2
_OPEN
 10
256.6259214396632
 20
-552.0
 30
0.0
 41
2.0
 42
2.0
 43
2.0
 50
90.0
  0
INSERT
  5
7628
330
6F87
100
AcDbEntity
  8
30
  6
CONTINUOUS
 62
     0
100
AcDbBlockReference
  2
_OPEN
 10
256.6259214396632
 20
-650.0
 30
0.0
 41
2.0
 42
2.0
 43
2.0
 50
270.0
  0
MTEXT
  5
7629
330
6F87
100
AcDbEntity
  8
30
  6
CONTINUOUS
 62
     0
100
AcDbMText
 10
253.1259214396633
 20
-600.9999999999998
 30
0.0
 40
5.0
 41
0.0
 71
     5
 72
     1
  1
\A1;98
 11
0.0000000000000001
 21
1.0
 31
0.0
1001
ACAD
1000
MTEXTBEGIN
1070
    73
1070
     1
1070
    44
1040
1.0
1070
    74
1070
     0
1000
MTEXTEND
  0
POINT
  5
762A
330
6F87
100
AcDbEntity
  8
DEFPOINTS
  6
CONTINUOUS
 62
     0
100
AcDbPoint
 10
284.0286347070141
 20
-552.0
 30
0.0
  0
POINT
  5
762B
330
6F87
100
AcDbEntity
  8
DEFPOINTS
  6
CONTINUOUS
 62
     0
100
AcDbPoint
 10
284.0286347070141
 20
-650.0
 30
0.0
  0
POINT
  5
762C
330
6F87
100
AcDbEntity
  8
DEFPOINTS
  6
CONTINUOUS
 62
     0
100
AcDbPoint
 10
256.6259214396632
 20
-650.0
 30
0.0
  0
ENDBLK
  5
6F92
330
6F87
100
AcDbEntity
  8
0
100
AcDbBlockEnd
  0
BLOCK
  5
6FC5
330
6FBB
100
AcDbEntity
  8
0
100
AcDbBlockBegin
  2
*D25
 70
     1
 10
0.0
 20
0.0
 30
0.0
  3
*D25
  1

  0
LINE
  5
7795
330
6FBB
100
AcDbEntity
  8
30
  6
CONTINUOUS
 62
     0
100
AcDbLine
 10
106.9998168945298
 20
200.0
 30
0.0
 11
145.3584367809216
 21
200.0
 31
0.0
  0
LINE
  5
7796
330
6FBB
100
AcDbEntity
  8
30
  6
CONTINUOUS
 62
     0
100
AcDbLine
 10
105.9998168945298
 20
-0.0000000000000003
 30
0.0
 11
145.3584367809216
 21
-0.0000000000000114
 31
0.0
  0
LINE
  5
7797
330
6FBB
100
AcDbEntity
  8
30
  6
CONTINUOUS
 62
     0
100
AcDbLine
 10
144.8584367809216
 20
198.0
 30
0.0
 11
144.8584367809216
 21
1.999999999999988
 31
0.0
  0
INSERT
  5
7798
330
6FBB
100
AcDbEntity
  8
30
  6
CONTINUOUS
 62
     0
100
AcDbBlockReference
  2
_OPEN
 10
144.8584367809216
 20
200.0
 30
0.0
 41
2.0
 42
2.0
 43
2.0
 50
90.0
  0
INSERT
  5
7799
330
6FBB
100
AcDbEntity
  8
30
  6
CONTINUOUS
 62
     0
100
AcDbBlockReference
  2
_OPEN
 10
144.8584367809216
 20
-0.0000000000000113
 30
0.0
 41
2.0
 42
2.0
 43
2.0
 50
270.0
  0
MTEXT
  5
779A
330
6FBB
100
AcDbEntity
  8
30
  6
CONTINUOUS
 62
     0
100
AcDbMText
 10
141.3584367809216
 20
100.0
 30
0.0
 40
5.0
 41
0.0
 71
     5
 72
     1
  1
\A1;200
 11
0.0000000000000001
 21
1.0
 31
0.0
  0
POINT
  5
779B
330
6FBB
100
AcDbEntity
  8
DEFPOINTS
  6
CONTINUOUS
 62
     0
100
AcDbPoint
 10
105.9998168945298
 20
200.0
 30
0.0
  0
POINT
  5
779C
330
6FBB
100
AcDbEntity
  8
DEFPOINTS
  6
CONTINUOUS
 62
     0
100
AcDbPoint
 10
104.9998168945298
 20
0.0
 30
0.0
  0
POINT
  5
779D
330
6FBB
100
AcDbEntity
  8
DEFPOINTS
  6
CONTINUOUS
 62
     0
100
AcDbPoint
 10
144.8584367809216
 20
-0.0000000000000113
 30
0.0
  0
ENDBLK
  5
6FC6
330
6FBB
100
AcDbEntity
  8
0
100
AcDbBlockEnd
  0
BLOCK
  5
6FD2
330
6FC8
100
AcDbEntity
  8
0
100
AcDbBlockBegin
  2
*D26
 70
     1
 10
0.0
 20
0.0
 30
0.0
  3
*D26
  1

  0
LINE
  5
779E
330
6FC8
100
AcDbEntity
  8
30
  6
CONTINUOUS
 62
     0
100
AcDbLine
 10
105.9998168945298
 20
-0.0000000000000003
 30
0.0
 11
145.3584367809216
 21
-0.0000000000000114
 31
0.0
  0
LINE
  5
779F
330
6FC8
100
AcDbEntity
  8
30
  6
CONTINUOUS
 62
     0
100
AcDbLine
 10
106.9998168945298
 20
-170.0
 30
0.0
 11
145.3584367809216
 21
-170.0
 31
0.0
  0
LINE
  5
77A0
330
6FC8
100
AcDbEntity
  8
30
  6
CONTINUOUS
 62
     0
100
AcDbLine
 10
144.8584367809216
 20
-2.000000000000011
 30
0.0
 11
144.8584367809216
 21
-168.0
 31
0.0
  0
INSERT
  5
77A1
330
6FC8
100
AcDbEntity
  8
30
  6
CONTINUOUS
 62
     0
100
AcDbBlockReference
  2
_OPEN
 10
144.8584367809216
 20
-0.0000000000000113
 30
0.0
 41
2.0
 42
2.0
 43
2.0
 50
90.0
  0
INSERT
  5
77A2
330
6FC8
100
AcDbEntity
  8
30
  6
CONTINUOUS
 62
     0
100
AcDbBlockReference
  2
_OPEN
 10
144.8584367809216
 20
-170.0
 30
0.0
 41
2.0
 42
2.0
 43
2.0
 50
270.0
  0
MTEXT
  5
77A3
330
6FC8
100
AcDbEntity
  8
30
  6
CONTINUOUS
 62
     0
100
AcDbMText
 10
141.3584367809216
 20
-84.99999999999998
 30
0.0
 40
5.0
 41
0.0
 71
     5
 72
     1
  1
\A1;170
 11
0.0000000000000001
 21
1.0
 31
0.0
  0
POINT
  5
77A4
330
6FC8
100
AcDbEntity
  8
DEFPOINTS
  6
CONTINUOUS
 62
     0
100
AcDbPoint
 10
104.9998168945298
 20
0.0
 30
0.0
  0
POINT
  5
77A5
330
6FC8
100
AcDbEntity
  8
DEFPOINTS
  6
CONTINUOUS
 62
     0
100
AcDbPoint
 10
105.9998168945298
 20
-170.0
 30
0.0
  0
POINT
  5
77A6
330
6FC8
100
AcDbEntity
  8
DEFPOINTS
  6
CONTINUOUS
 62
     0
100
AcDbPoint
 10
144.8584367809216
 20
-170.0
 30
0.0
  0
ENDBLK
  5
6FD3
330
6FC8
100
AcDbEntity
  8
0
100
AcDbBlockEnd
  0
BLOCK
  5
6FEC
330
6FE2
100
AcDbEntity
  8
0
100
AcDbBlockBegin
  2
*D27
 70
     1
 10
0.0
 20
0.0
 30
0.0
  3
*D27
  1

  0
LINE
  5
75AF
330
6FE2
100
AcDbEntity
  8
30
  6
CONTINUOUS
 62
     0
100
AcDbLine
 10
105.9998168945298
 20
200.0
 30
0.0
 11
164.4081821090277
 21
200.0
 31
0.0
  0
LINE
  5
75B0
330
6FE2
100
AcDbEntity
  8
30
  6
CONTINUOUS
 62
     0
100
AcDbLine
 10
105.9998168945298
 20
-170.0
 30
0.0
 11
164.4081821090276
 21
-170.0
 31
0.0
  0
LINE
  5
75B1
330
6FE2
100
AcDbEntity
  8
30
  6
CONTINUOUS
 62
     0
100
AcDbLine
 10
163.9081821090277
 20
198.0
 30
0.0
 11
163.9081821090276
 21
-168.0
 31
0.0
  0
INSERT
  5
75B2
330
6FE2
100
AcDbEntity
  8
30
  6
CONTINUOUS
 62
     0
100
AcDbBlockReference
  2
_OPEN
 10
163.9081821090277
 20
200.0
 30
0.0
 41
2.0
 42
2.0
 43
2.0
 50
90.0
  0
INSERT
  5
75B3
330
6FE2
100
AcDbEntity
  8
30
  6
CONTINUOUS
 62
     0
100
AcDbBlockReference
  2
_OPEN
 10
163.9081821090276
 20
-170.0
 30
0.0
 41
2.0
 42
2.0
 43
2.0
 50
270.0
  0
MTEXT
  5
75B4
330
6FE2
100
AcDbEntity
  8
30
  6
CONTINUOUS
 62
     0
100
AcDbMText
 10
160.4081821090276
 20
15.00000000000001
 30
0.0
 40
5.0
 41
0.0
 71
     5
 72
     1
  1
\A1;370
 11
0.0000000000000001
 21
1.0
 31
0.0
1001
ACAD
1000
MTEXTBEGIN
1070
    73
1070
     1
1070
    44
1040
1.0
1070
    74
1070
     0
1000
MTEXTEND
  0
POINT
  5
75B5
330
6FE2
100
AcDbEntity
  8
DEFPOINTS
  6
CONTINUOUS
 62
     0
100
AcDbPoint
 10
104.9998168945298
 20
200.0
 30
0.0
  0
POINT
  5
75B6
330
6FE2
100
AcDbEntity
  8
DEFPOINTS
  6
CONTINUOUS
 62
     0
100
AcDbPoint
 10
104.9998168945298
 20
-170.0
 30
0.0
  0
POINT
  5
75B7
330
6FE2
100
AcDbEntity
  8
DEFPOINTS
  6
CONTINUOUS
 62
     0
100
AcDbPoint
 10
163.9081821090276
 20
-170.0
 30
0.0
  0
ENDBLK
  5
6FED
330
6FE2
100
AcDbEntity
  8
0
100
AcDbBlockEnd
  0
BLOCK
  5
7520
330
7516
100
AcDbEntity
  8
0
100
AcDbBlockBegin
  2
*D28
 70
     1
 10
0.0
 20
0.0
 30
0.0
  3
*D28
  1

  0
LINE
  5
7662
330
7516
100
AcDbEntity
  8
30
  6
CONTINUOUS
 62
     0
100
AcDbLine
 10
647.5286347070141
 20
75.0
 30
0.0
 11
672.00085668291
 21
74.99999999999999
 31
0.0
  0
LINE
  5
7663
330
7516
100
AcDbEntity
  8
30
  6
CONTINUOUS
 62
     0
100
AcDbLine
 10
647.5286347070141
 20
45.0
 30
0.0
 11
672.00085668291
 21
44.99999999999999
 31
0.0
  0
LINE
  5
7664
330
7516
100
AcDbEntity
  8
30
  6
CONTINUOUS
 62
     0
100
AcDbLine
 10
671.5008566829101
 20
73.0
 30
0.0
 11
671.5008566829101
 21
46.99999999999999
 31
0.0
  0
INSERT
  5
7665
330
7516
100
AcDbEntity
  8
30
  6
CONTINUOUS
 62
     0
100
AcDbBlockReference
  2
_OPEN
 10
671.5008566829101
 20
75.0
 30
0.0
 41
2.0
 42
2.0
 43
2.0
 50
90.0
  0
INSERT
  5
7666
330
7516
100
AcDbEntity
  8
30
  6
CONTINUOUS
 62
     0
100
AcDbBlockReference
  2
_OPEN
 10
671.5008566829101
 20
44.99999999999999
 30
0.0
 41
2.0
 42
2.0
 43
2.0
 50
270.0
  0
MTEXT
  5
7667
330
7516
100
AcDbEntity
  8
30
  6
CONTINUOUS
 62
     0
100
AcDbMText
 10
668.0008566829101
 20
60.0000000000001
 30
0.0
 40
5.0
 41
0.0
 71
     5
 72
     1
  1
\A1;30
 11
0.0000000000000001
 21
1.0
 31
0.0
1001
ACAD
1000
MTEXTBEGIN
1070
    73
1070
     1
1070
    44
1040
1.0
1070
    74
1070
     0
1000
MTEXTEND
  0
POINT
  5
7668
330
7516
100
AcDbEntity
  8
DEFPOINTS
  6
CONTINUOUS
 62
     0
100
AcDbPoint
 10
646.5286347070141
 20
75.0
 30
0.0
  0
POINT
  5
7669
330
7516
100
AcDbEntity
  8
DEFPOINTS
  6
CONTINUOUS
 62
     0
100
AcDbPoint
 10
646.5286347070141
 20
45.0
 30
0.0
  0
POINT
  5
766A
330
7516
100
AcDbEntity
  8
DEFPOINTS
  6
CONTINUOUS
 62
     0
100
AcDbPoint
 10
671.5008566829101
 20
44.99999999999999
 30
0.0
  0
ENDBLK
  5
7521
330
7516
100
AcDbEntity
  8
0
100
AcDbBlockEnd
  0
BLOCK
  5
752D
330
7523
100
AcDbEntity
  8
0
100
AcDbBlockBegin
  2
*D29
 70
     1
 10
0.0
 20
0.0
 30
0.0
  3
*D29
  1

  0
LINE
  5
7647
330
7523
100
AcDbEntity
  8
30
  6
CONTINUOUS
 62
     0
100
AcDbLine
 10
647.5286347070141
 20
92.5
 30
0.0
 11
685.3164810867501
 21
92.49999999999998
 31
0.0
  0
LINE
  5
7648
330
7523
100
AcDbEntity
  8
30
  6
CONTINUOUS
 62
     0
100
AcDbLine
 10
647.5286347070141
 20
27.5
 30
0.0
 11
685.3164810867501
 21
27.49999999999998
 31
0.0
  0
LINE
  5
7649
330
7523
100
AcDbEntity
  8
30
  6
CONTINUOUS
 62
     0
100
AcDbLine
 10
684.8164810867501
 20
90.49999999999998
 30
0.0
 11
684.8164810867501
 21
29.49999999999998
 31
0.0
  0
INSERT
  5
764A
330
7523
100
AcDbEntity
  8
30
  6
CONTINUOUS
 62
     0
100
AcDbBlockReference
  2
_OPEN
 10
684.8164810867501
 20
92.49999999999998
 30
0.0
 41
2.0
 42
2.0
 43
2.0
 50
90.0
  0
INSERT
  5
764B
330
7523
100
AcDbEntity
  8
30
  6
CONTINUOUS
 62
     0
100
AcDbBlockReference
  2
_OPEN
 10
684.8164810867501
 20
27.49999999999998
 30
0.0
 41
2.0
 42
2.0
 43
2.0
 50
270.0
  0
MTEXT
  5
764C
330
7523
100
AcDbEntity
  8
30
  6
CONTINUOUS
 62
     0
100
AcDbMText
 10
681.3164810867501
 20
60.0000000000001
 30
0.0
 40
5.0
 41
0.0
 71
     5
 72
     1
  1
\A1;65
 11
0.0000000000000001
 21
1.0
 31
0.0
1001
ACAD
1000
MTEXTBEGIN
1070
    73
1070
     1
1070
    44
1040
1.0
1070
    74
1070
     0
1000
MTEXTEND
  0
POINT
  5
764D
330
7523
100
AcDbEntity
  8
DEFPOINTS
  6
CONTINUOUS
 62
     0
100
AcDbPoint
 10
646.5286347070141
 20
92.5
 30
0.0
  0
POINT
  5
764E
330
7523
100
AcDbEntity
  8
DEFPOINTS
  6
CONTINUOUS
 62
     0
100
AcDbPoint
 10
646.5286347070141
 20
27.5
 30
0.0
  0
POINT
  5
764F
330
7523
100
AcDbEntity
  8
DEFPOINTS
  6
CONTINUOUS
 62
     0
100
AcDbPoint
 10
684.8164810867501
 20
27.49999999999998
 30
0.0
  0
ENDBLK
  5
752E
330
7523
100
AcDbEntity
  8
0
100
AcDbBlockEnd
  0
BLOCK
  5
753A
330
7530
100
AcDbEntity
  8
0
100
AcDbBlockBegin
  2
*D30
 70
     1
 10
0.0
 20
0.0
 30
0.0
  3
*D30
  1

  0
LINE
  5
75EE
330
7530
100
AcDbEntity
  8
30
  6
CONTINUOUS
 62
     0
100
AcDbLine
 10
516.5286347070141
 20
-171.0
 30
0.0
 11
516.5286347070141
 21
-204.0059305795216
 31
0.0
  0
LINE
  5
75EF
330
7530
100
AcDbEntity
  8
30
  6
CONTINUOUS
 62
     0
100
AcDbLine
 10
586.5286347070141
 20
-133.4999999999999
 30
0.0
 11
586.5286347070141
 21
-204.0059305795216
 31
0.0
  0
LINE
  5
75F0
330
7530
100
AcDbEntity
  8
30
  6
CONTINUOUS
 62
     0
100
AcDbLine
 10
518.5286347070141
 20
-203.5059305795216
 30
0.0
 11
584.5286347070141
 21
-203.5059305795216
 31
0.0
  0
INSERT
  5
75F1
330
7530
100
AcDbEntity
  8
30
  6
CONTINUOUS
 62
     0
100
AcDbBlockReference
  2
_OPEN
 10
516.5286347070141
 20
-203.5059305795216
 30
0.0
 41
2.0
 42
2.0
 43
2.0
 50
180.0
  0
INSERT
  5
75F2
330
7530
100
AcDbEntity
  8
30
  6
CONTINUOUS
 62
     0
100
AcDbBlockReference
  2
_OPEN
 10
586.5286347070141
 20
-203.5059305795216
 30
0.0
 41
2.0
 42
2.0
 43
2.0
  0
MTEXT
  5
75F3
330
7530
100
AcDbEntity
  8
30
  6
CONTINUOUS
 62
     0
100
AcDbMText
 10
551.5286347070141
 20
-200.0059305795216
 30
0.0
 40
5.0
 41
0.0
 71
     5
 72
     1
  1
\A1;70
1001
ACAD
1000
MTEXTBEGIN
1070
    73
1070
     1
1070
    44
1040
1.0
1070
    74
1070
     0
1000
MTEXTEND
  0
POINT
  5
75F4
330
7530
100
AcDbEntity
  8
DEFPOINTS
  6
CONTINUOUS
 62
     0
100
AcDbPoint
 10
516.5286347070141
 20
-170.0
 30
0.0
  0
POINT
  5
75F5
330
7530
100
AcDbEntity
  8
DEFPOINTS
  6
CONTINUOUS
 62
     0
100
AcDbPoint
 10
586.5286347070141
 20
-132.4999999999999
 30
0.0
  0
POINT
  5
75F6
330
7530
100
AcDbEntity
  8
DEFPOINTS
  6
CONTINUOUS
 62
     0
100
AcDbPoint
 10
586.5286347070141
 20
-203.5059305795216
 30
0.0
  0
ENDBLK
  5
753B
330
7530
100
AcDbEntity
  8
0
100
AcDbBlockEnd
  0
BLOCK
  5
7547
330
753D
100
AcDbEntity
  8
0
100
AcDbBlockBegin
  2
*D31
 70
     1
 10
0.0
 20
0.0
 30
0.0
  3
*D31
  1

  0
LINE
  5
77A7
330
753D
100
AcDbEntity
  8
30
  6
CONTINUOUS
 62
     0
100
AcDbLine
 10
586.5286347070141
 20
-133.4999999999999
 30
0.0
 11
586.5286347070141
 21
-204.0059305795216
 31
0.0
  0
LINE
  5
77A8
330
753D
100
AcDbEntity
  8
30
  6
CONTINUOUS
 62
     0
100
AcDbLine
 10
601.5286347070141
 20
-133.4999999999999
 30
0.0
 11
601.5286347070141
 21
-204.0059305795216
 31
0.0
  0
LINE
  5
77A9
330
753D
100
AcDbEntity
  8
30
  6
CONTINUOUS
 62
     0
100
AcDbLine
 10
588.5286347070141
 20
-203.5059305795216
 30
0.0
 11
599.5286347070141
 21
-203.5059305795216
 31
0.0
  0
INSERT
  5
77AA
330
753D
100
AcDbEntity
  8
30
  6
CONTINUOUS
 62
     0
100
AcDbBlockReference
  2
_OPEN
 10
586.5286347070141
 20
-203.5059305795216
 30
0.0
 41
2.0
 42
2.0
 43
2.0
 50
180.0
  0
INSERT
  5
77AB
330
753D
100
AcDbEntity
  8
30
  6
CONTINUOUS
 62
     0
100
AcDbBlockReference
  2
_OPEN
 10
601.5286347070141
 20
-203.5059305795216
 30
0.0
 41
2.0
 42
2.0
 43
2.0
  0
MTEXT
  5
77AC
330
753D
100
AcDbEntity
  8
30
  6
CONTINUOUS
 62
     0
100
AcDbMText
 10
594.0286347070141
 20
-200.0059305795216
 30
0.0
 40
5.0
 41
0.0
 71
     5
 72
     1
  1
\A1;15
  0
POINT
  5
77AD
330
753D
100
AcDbEntity
  8
DEFPOINTS
  6
CONTINUOUS
 62
     0
100
AcDbPoint
 10
586.5286347070141
 20
-132.4999999999999
 30
0.0
  0
POINT
  5
77AE
330
753D
100
AcDbEntity
  8
DEFPOINTS
  6
CONTINUOUS
 62
     0
100
AcDbPoint
 10
601.5286347070141
 20
-132.4999999999999
 30
0.0
  0
POINT
  5
77AF
330
753D
100
AcDbEntity
  8
DEFPOINTS
  6
CONTINUOUS
 62
     0
100
AcDbPoint
 10
601.5286347070141
 20
-203.5059305795216
 30
0.0
  0
ENDBLK
  5
7548
330
753D
100
AcDbEntity
  8
0
100
AcDbBlockEnd
  0
BLOCK
  5
7554
330
754A
100
AcDbEntity
  8
0
100
AcDbBlockBegin
  2
*D32
 70
     1
 10
0.0
 20
0.0
 30
0.0
  3
*D32
  1

  0
LINE
  5
75DC
330
754A
100
AcDbEntity
  8
30
  6
CONTINUOUS
 62
     0
100
AcDbLine
 10
516.5286347070141
 20
-172.0
 30
0.0
 11
516.5286347070141
 21
-222.3035802060812
 31
0.0
  0
LINE
  5
75DD
330
754A
100
AcDbEntity
  8
30
  6
CONTINUOUS
 62
     0
100
AcDbLine
 10
631.5286347070141
 20
-133.4999999999999
 30
0.0
 11
631.5286347070141
 21
-222.3035802060812
 31
0.0
  0
LINE
  5
75DE
330
754A
100
AcDbEntity
  8
30
  6
CONTINUOUS
 62
     0
100
AcDbLine
 10
518.5286347070141
 20
-221.8035802060812
 30
0.0
 11
629.5286347070141
 21
-221.8035802060812
 31
0.0
  0
INSERT
  5
75DF
330
754A
100
AcDbEntity
  8
30
  6
CONTINUOUS
 62
     0
100
AcDbBlockReference
  2
_OPEN
 10
516.5286347070141
 20
-221.8035802060812
 30
0.0
 41
2.0
 42
2.0
 43
2.0
 50
180.0
  0
INSERT
  5
75E0
330
754A
100
AcDbEntity
  8
30
  6
CONTINUOUS
 62
     0
100
AcDbBlockReference
  2
_OPEN
 10
631.5286347070141
 20
-221.8035802060812
 30
0.0
 41
2.0
 42
2.0
 43
2.0
  0
MTEXT
  5
75E1
330
754A
100
AcDbEntity
  8
30
  6
CONTINUOUS
 62
     0
100
AcDbMText
 10
574.0286347070141
 20
-218.3035802060812
 30
0.0
 40
5.0
 41
0.0
 71
     5
 72
     1
  1
\A1;115
1001
ACAD
1000
MTEXTBEGIN
1070
    73
1070
     1
1070
    44
1040
1.0
1070
    74
1070
     0
1000
MTEXTEND
  0
POINT
  5
75E2
330
754A
100
AcDbEntity
  8
DEFPOINTS
  6
CONTINUOUS
 62
     0
100
AcDbPoint
 10
516.5286347070141
 20
-171.0
 30
0.0
  0
POINT
  5
75E3
330
754A
100
AcDbEntity
  8
DEFPOINTS
  6
CONTINUOUS
 62
     0
100
AcDbPoint
 10
631.5286347070141
 20
-132.4999999999999
 30
0.0
  0
POINT
  5
75E4
330
754A
100
AcDbEntity
  8
DEFPOINTS
  6
CONTINUOUS
 62
     0
100
AcDbPoint
 10
631.5286347070141
 20
-221.8035802060812
 30
0.0
  0
ENDBLK
  5
7555
330
754A
100
AcDbEntity
  8
0
100
AcDbBlockEnd
  0
BLOCK
  5
7561
330
7557
100
AcDbEntity
  8
0
100
AcDbBlockBegin
  2
*D33
 70
     1
 10
0.0
 20
0.0
 30
0.0
  3
*D33
  1

  0
LINE
  5
77B0
330
7557
100
AcDbEntity
  8
30
  6
CONTINUOUS
 62
     0
100
AcDbLine
 10
631.5286347070141
 20
-133.4999999999999
 30
0.0
 11
631.5286347070141
 21
-222.3035802060812
 31
0.0
  0
LINE
  5
77B1
330
7557
100
AcDbEntity
  8
30
  6
CONTINUOUS
 62
     0
100
AcDbLine
 10
646.5286347070141
 20
-133.4999999999999
 30
0.0
 11
646.5286347070141
 21
-222.3035802060812
 31
0.0
  0
LINE
  5
77B2
330
7557
100
AcDbEntity
  8
30
  6
CONTINUOUS
 62
     0
100
AcDbLine
 10
633.5286347070141
 20
-221.8035802060812
 30
0.0
 11
644.5286347070141
 21
-221.8035802060812
 31
0.0
  0
INSERT
  5
77B3
330
7557
100
AcDbEntity
  8
30
  6
CONTINUOUS
 62
     0
100
AcDbBlockReference
  2
_OPEN
 10
631.5286347070141
 20
-221.8035802060812
 30
0.0
 41
2.0
 42
2.0
 43
2.0
 50
180.0
  0
INSERT
  5
77B4
330
7557
100
AcDbEntity
  8
30
  6
CONTINUOUS
 62
     0
100
AcDbBlockReference
  2
_OPEN
 10
646.5286347070141
 20
-221.8035802060812
 30
0.0
 41
2.0
 42
2.0
 43
2.0
  0
MTEXT
  5
77B5
330
7557
100
AcDbEntity
  8
30
  6
CONTINUOUS
 62
     0
100
AcDbMText
 10
639.0286347070141
 20
-218.3035802060812
 30
0.0
 40
5.0
 41
0.0
 71
     5
 72
     1
  1
\A1;15
  0
POINT
  5
77B6
330
7557
100
AcDbEntity
  8
DEFPOINTS
  6
CONTINUOUS
 62
     0
100
AcDbPoint
 10
631.5286347070141
 20
-132.4999999999999
 30
0.0
  0
POINT
  5
77B7
330
7557
100
AcDbEntity
  8
DEFPOINTS
  6
CONTINUOUS
 62
     0
100
AcDbPoint
 10
646.5286347070141
 20
-132.4999999999999
 30
0.0
  0
POINT
  5
77B8
330
7557
100
AcDbEntity
  8
DEFPOINTS
  6
CONTINUOUS
 62
     0
100
AcDbPoint
 10
646.5286347070141
 20
-221.8035802060812
 30
0.0
  0
ENDBLK
  5
7562
330
7557
100
AcDbEntity
  8
0
100
AcDbBlockEnd
  0
BLOCK
  5
756E
330
7564
100
AcDbEntity
  8
0
100
AcDbBlockBegin
  2
*D34
 70
     1
 10
0.0
 20
0.0
 30
0.0
  3
*D34
  1

  0
LINE
  5
75CA
330
7564
100
AcDbEntity
  8
30
  6
CONTINUOUS
 62
     0
100
AcDbLine
 10
516.5286347070141
 20
-180.0
 30
0.0
 11
516.5286347070141
 21
-242.2646505505822
 31
0.0
  0
LINE
  5
75CB
330
7564
100
AcDbEntity
  8
30
  6
CONTINUOUS
 62
     0
100
AcDbLine
 10
646.5286347070141
 20
-133.4999999999999
 30
0.0
 11
646.5286347070141
 21
-242.2646505505822
 31
0.0
  0
LINE
  5
75CC
330
7564
100
AcDbEntity
  8
30
  6
CONTINUOUS
 62
     0
100
AcDbLine
 10
518.5286347070141
 20
-241.7646505505822
 30
0.0
 11
644.5286347070141
 21
-241.7646505505822
 31
0.0
  0
INSERT
  5
75CD
330
7564
100
AcDbEntity
  8
30
  6
CONTINUOUS
 62
     0
100
AcDbBlockReference
  2
_OPEN
 10
516.5286347070141
 20
-241.7646505505822
 30
0.0
 41
2.0
 42
2.0
 43
2.0
 50
180.0
  0
INSERT
  5
75CE
330
7564
100
AcDbEntity
  8
30
  6
CONTINUOUS
 62
     0
100
AcDbBlockReference
  2
_OPEN
 10
646.5286347070141
 20
-241.7646505505822
 30
0.0
 41
2.0
 42
2.0
 43
2.0
  0
MTEXT
  5
75CF
330
7564
100
AcDbEntity
  8
30
  6
CONTINUOUS
 62
     0
100
AcDbMText
 10
581.5286347070141
 20
-238.2646505505822
 30
0.0
 40
5.0
 41
0.0
 71
     5
 72
     1
  1
\A1;130
1001
ACAD
1000
MTEXTBEGIN
1070
    73
1070
     1
1070
    44
1040
1.0
1070
    74
1070
     0
1000
MTEXTEND
  0
POINT
  5
75D0
330
7564
100
AcDbEntity
  8
DEFPOINTS
  6
CONTINUOUS
 62
     0
100
AcDbPoint
 10
516.5286347070141
 20
-179.0
 30
0.0
  0
POINT
  5
75D1
330
7564
100
AcDbEntity
  8
DEFPOINTS
  6
CONTINUOUS
 62
     0
100
AcDbPoint
 10
646.5286347070141
 20
-132.4999999999999
 30
0.0
  0
POINT
  5
75D2
330
7564
100
AcDbEntity
  8
DEFPOINTS
  6
CONTINUOUS
 62
     0
100
AcDbPoint
 10
646.5286347070141
 20
-241.7646505505822
 30
0.0
  0
ENDBLK
  5
756F
330
7564
100
AcDbEntity
  8
0
100
AcDbBlockEnd
  0
BLOCK
  5
7591
330
7587
100
AcDbEntity
  8
0
100
AcDbBlockBegin
  2
*D36
 70
     1
 10
0.0
 20
0.0
 30
0.0
  3
*D36
  1

  0
LINE
  5
7588
330
7587
100
AcDbEntity
  8
30
  6
CONTINUOUS
 62
     0
100
AcDbLine
 10
-69.99987792964998
 20
602.1514359345529
 30
0.0
 11
-69.99987792964998
 21
668.1380778065358
 31
0.0
  0
LINE
  5
7589
330
7587
100
AcDbEntity
  8
30
  6
CONTINUOUS
 62
     0
100
AcDbLine
 10
0.0000000000000001
 20
647.1514359345528
 30
0.0
 11
0.0000000000000013
 21
668.1380778065358
 31
0.0
  0
LINE
  5
758A
330
7587
100
AcDbEntity
  8
30
  6
CONTINUOUS
 62
     0
100
AcDbLine
 10
-67.99987792964998
 20
667.6380778065358
 30
0.0
 11
-1.999999999999998
 21
667.6380778065358
 31
0.0
  0
INSERT
  5
758B
330
7587
100
AcDbEntity
  8
30
  6
CONTINUOUS
 62
     0
100
AcDbBlockReference
  2
_OPEN
 10
-69.99987792964998
 20
667.6380778065358
 30
0.0
 41
2.0
 42
2.0
 43
2.0
 50
180.0
  0
INSERT
  5
758C
330
7587
100
AcDbEntity
  8
30
  6
CONTINUOUS
 62
     0
100
AcDbBlockReference
  2
_OPEN
 10
0.0000000000000013
 20
667.6380778065358
 30
0.0
 41
2.0
 42
2.0
 43
2.0
  0
MTEXT
  5
758D
330
7587
100
AcDbEntity
  8
30
  6
CONTINUOUS
 62
     0
100
AcDbMText
 10
-34.99993896482499
 20
671.1380778065358
 30
0.0
 40
5.0
 41
0.0
 71
     5
 72
     1
  1
\A1;70
1001
ACAD
1000
MTEXTBEGIN
1070
    73
1070
     1
1070
    44
1040
1.0
1070
    74
1070
     0
1000
MTEXTEND
  0
POINT
  5
758E
330
7587
100
AcDbEntity
  8
DEFPOINTS
  6
CONTINUOUS
 62
     0
100
AcDbPoint
 10
-69.99987792964998
 20
601.1514359345528
 30
0.0
  0
POINT
  5
758F
330
7587
100
AcDbEntity
  8
DEFPOINTS
  6
CONTINUOUS
 62
     0
100
AcDbPoint
 10
0.0
 20
646.1514359345528
 30
0.0
  0
POINT
  5
7590
330
7587
100
AcDbEntity
  8
DEFPOINTS
  6
CONTINUOUS
 62
     0
100
AcDbPoint
 10
0.0000000000000013
 20
667.6380778065358
 30
0.0
  0
ENDBLK
  5
7592
330
7587
100
AcDbEntity
  8
0
100
AcDbBlockEnd
  0
BLOCK
  5
759E
330
7594
100
AcDbEntity
  8
0
100
AcDbBlockBegin
  2
*D37
 70
     1
 10
0.0
 20
0.0
 30
0.0
  3
*D37
  1

  0
LINE
  5
77B9
330
7594
100
AcDbEntity
  8
30
  6
CONTINUOUS
 62
     0
100
AcDbLine
 10
0.0000000000000001
 20
647.1514359345528
 30
0.0
 11
0.0000000000000013
 21
668.1380778065358
 31
0.0
  0
LINE
  5
77BA
330
7594
100
AcDbEntity
  8
30
  6
CONTINUOUS
 62
     0
100
AcDbLine
 10
70.0
 20
602.1514359345529
 30
0.0
 11
70.0
 21
668.1380778065358
 31
0.0
  0
LINE
  5
77BB
330
7594
100
AcDbEntity
  8
30
  6
CONTINUOUS
 62
     0
100
AcDbLine
 10
2.000000000000001
 20
667.6380778065358
 30
0.0
 11
68.0
 21
667.6380778065358
 31
0.0
  0
INSERT
  5
77BC
330
7594
100
AcDbEntity
  8
30
  6
CONTINUOUS
 62
     0
100
AcDbBlockReference
  2
_OPEN
 10
0.0000000000000013
 20
667.6380778065358
 30
0.0
 41
2.0
 42
2.0
 43
2.0
 50
180.0
  0
INSERT
  5
77BD
330
7594
100
AcDbEntity
  8
30
  6
CONTINUOUS
 62
     0
100
AcDbBlockReference
  2
_OPEN
 10
70.0
 20
667.6380778065358
 30
0.0
 41
2.0
 42
2.0
 43
2.0
  0
MTEXT
  5
77BE
330
7594
100
AcDbEntity
  8
30
  6
CONTINUOUS
 62
     0
100
AcDbMText
 10
35.0
 20
671.1380778065358
 30
0.0
 40
5.0
 41
0.0
 71
     5
 72
     1
  1
\A1;70
  0
POINT
  5
77BF
330
7594
100
AcDbEntity
  8
DEFPOINTS
  6
CONTINUOUS
 62
     0
100
AcDbPoint
 10
0.0
 20
646.1514359345528
 30
0.0
  0
POINT
  5
77C0
330
7594
100
AcDbEntity
  8
DEFPOINTS
  6
CONTINUOUS
 62
     0
100
AcDbPoint
 10
70.0
 20
601.1514359345528
 30
0.0
  0
POINT
  5
77C1
330
7594
100
AcDbEntity
  8
DEFPOINTS
  6
CONTINUOUS
 62
     0
100
AcDbPoint
 10
70.0
 20
667.6380778065358
 30
0.0
  0
ENDBLK
  5
759F
330
7594
100
AcDbEntity
  8
0
100
AcDbBlockEnd
  0
BLOCK
  5
7737
330
772D
100
AcDbEntity
  8
0
100
AcDbBlockBegin
  2
*D38
 70
     1
 10
0.0
 20
0.0
 30
0.0
  3
*D38
  1

  0
LINE
  5
772E
330
772D
100
AcDbEntity
  8
30
  6
CONTINUOUS
 62
     0
100
AcDbLine
 10
685.8164810867501
 20
60.0
 30
0.0
 11
708.9208925106841
 21
60.0
 31
0.0
  0
LINE
  5
772F
330
772D
100
AcDbEntity
  8
30
  6
CONTINUOUS
 62
     0
100
AcDbLine
 10
549.5286347070141
 20
-0.0000000000000003
 30
0.0
 11
708.9208925106841
 21
-0.0000000000000454
 31
0.0
  0
LINE
  5
7730
330
772D
100
AcDbEntity
  8
30
  6
CONTINUOUS
 62
     0
100
AcDbLine
 10
708.4208925106841
 20
57.99999999999999
 30
0.0
 11
708.4208925106841
 21
1.999999999999954
 31
0.0
  0
INSERT
  5
7731
330
772D
100
AcDbEntity
  8
30
  6
CONTINUOUS
 62
     0
100
AcDbBlockReference
  2
_OPEN
 10
708.4208925106841
 20
60.0
 30
0.0
 41
2.0
 42
2.0
 43
2.0
 50
90.0
  0
INSERT
  5
7732
330
772D
100
AcDbEntity
  8
30
  6
CONTINUOUS
 62
     0
100
AcDbBlockReference
  2
_OPEN
 10
708.4208925106841
 20
-0.0000000000000453
 30
0.0
 41
2.0
 42
2.0
 43
2.0
 50
270.0
  0
MTEXT
  5
7733
330
772D
100
AcDbEntity
  8
30
  6
CONTINUOUS
 62
     0
100
AcDbMText
 10
704.9208925106841
 20
30.00000000000008
 30
0.0
 40
5.0
 41
0.0
 71
     5
 72
     1
  1
\A1;60
 11
0.0000000000000001
 21
1.0
 31
0.0
1001
ACAD
1000
MTEXTBEGIN
1070
    73
1070
     1
1070
    44
1040
1.0
1070
    74
1070
     0
1000
MTEXTEND
  0
POINT
  5
7734
330
772D
100
AcDbEntity
  8
DEFPOINTS
  6
CONTINUOUS
 62
     0
100
AcDbPoint
 10
684.8164810867501
 20
60.0
 30
0.0
  0
POINT
  5
7735
330
772D
100
AcDbEntity
  8
DEFPOINTS
  6
CONTINUOUS
 62
     0
100
AcDbPoint
 10
548.5286347070141
 20
0.0
 30
0.0
  0
POINT
  5
7736
330
772D
100
AcDbEntity
  8
DEFPOINTS
  6
CONTINUOUS
 62
     0
100
AcDbPoint
 10
708.4208925106841
 20
-0.0000000000000453
 30
0.0
  0
ENDBLK
  5
7738
330
772D
100
AcDbEntity
  8
0
100
AcDbBlockEnd
  0
BLOCK
  5
7744
330
773A
100
AcDbEntity
  8
0
100
AcDbBlockBegin
  2
*D39
 70
     1
 10
0.0
 20
0.0
 30
0.0
  3
*D39
  1

  0
LINE
  5
77C2
330
773A
100
AcDbEntity
  8
30
  6
CONTINUOUS
 62
     0
100
AcDbLine
 10
549.5286347070141
 20
-0.0000000000000003
 30
0.0
 11
708.9208925106841
 21
-0.0000000000000454
 31
0.0
  0
LINE
  5
77C3
330
773A
100
AcDbEntity
  8
30
  6
CONTINUOUS
 62
     0
100
AcDbLine
 10
697.5286347070141
 20
-100.0
 30
0.0
 11
708.9208925106841
 21
-100.0
 31
0.0
  0
LINE
  5
77C4
330
773A
100
AcDbEntity
  8
30
  6
CONTINUOUS
 62
     0
100
AcDbLine
 10
708.4208925106841
 20
-2.000000000000045
 30
0.0
 11
708.4208925106841
 21
-98.0
 31
0.0
  0
INSERT
  5
77C5
330
773A
100
AcDbEntity
  8
30
  6
CONTINUOUS
 62
     0
100
AcDbBlockReference
  2
_OPEN
 10
708.4208925106841
 20
-0.0000000000000453
 30
0.0
 41
2.0
 42
2.0
 43
2.0
 50
90.0
  0
INSERT
  5
77C6
330
773A
100
AcDbEntity
  8
30
  6
CONTINUOUS
 62
     0
100
AcDbBlockReference
  2
_OPEN
 10
708.4208925106841
 20
-100.0
 30
0.0
 41
2.0
 42
2.0
 43
2.0
 50
270.0
  0
MTEXT
  5
77C7
330
773A
100
AcDbEntity
  8
30
  6
CONTINUOUS
 62
     0
100
AcDbMText
 10
704.9208925106841
 20
-49.99999999999991
 30
0.0
 40
5.0
 41
0.0
 71
     5
 72
     1
  1
\A1;100
 11
0.0000000000000001
 21
1.0
 31
0.0
  0
POINT
  5
77C8
330
773A
100
AcDbEntity
  8
DEFPOINTS
  6
CONTINUOUS
 62
     0
100
AcDbPoint
 10
548.5286347070141
 20
0.0
 30
0.0
  0
POINT
  5
77C9
330
773A
100
AcDbEntity
  8
DEFPOINTS
  6
CONTINUOUS
 62
     0
100
AcDbPoint
 10
696.5286347070141
 20
-100.0
 30
0.0
  0
POINT
  5
77CA
330
773A
100
AcDbEntity
  8
DEFPOINTS
  6
CONTINUOUS
 62
     0
100
AcDbPoint
 10
708.4208925106841
 20
-100.0
 30
0.0
  0
ENDBLK
  5
7745
330
773A
100
AcDbEntity
  8
0
100
AcDbBlockEnd
  0
ENDSEC
  0
SECTION
  2
ENTITIES
  0
LINE
  5
B5
330
1E
100
AcDbEntity
  8
16
100
AcDbLine
 10
257.6361914121166
 20
0.0000000000000107
 30
0.0
 11
-145.0
 21
0.0
 31
0.0
  0
MTEXT
  5
BF3
330
1E
100
AcDbEntity
  8
24
  6
CONTINUOUS
100
AcDbMText
 10
142.1181906098743
 20
177.5
 30
0.0
 40
3.0
 41
0.0
 71
     1
 72
     1
  1
\A1;
1001
ACAD
1000
MTEXTBEGIN
1070
    73
1070
     1
1070
    44
1040
1.0
1070
    74
1070
     0
1000
MTEXTEND
  0
LINE
  5
1C9A
330
1E
100
AcDbEntity
  8
16
100
AcDbLine
 10
0.0
 20
258.0
 30
0.0
 11
0.0
 21
436.0
 31
0.0
  0
LINE
  5
1C9B
330
1E
100
AcDbEntity
  8
16
100
AcDbLine
 10
548.5286347070141
 20
0.0
 30
0.0
 11
310.5286347070141
 21
0.0
 31
0.0
  0
LINE
  5
2233
330
1E
100
AcDbEntity
  8
16
100
AcDbLine
 10
318.5286347070141
 20
-793.1306816323568
 30
0.0
 11
318.5286347070141
 21
-371.5602850821105
 31
0.0
  0
LINE
  5
2234
330
1E
100
AcDbEntity
  8
16
100
AcDbLine
 10
450.692064401554
 20
-601.0
 30
0.0
 11
216.6329947673454
 21
-601.0
 31
0.0
  0
LINE
  5
2260
330
1E
100
AcDbEntity
  8
16
100
AcDbLine
 10
202.1634296945399
 20
-601.0
 30
0.0
 11
-166.0
 21
-601.0
 31
0.0
  0
LINE
  5
2261
330
1E
100
AcDbEntity
  8
16
100
AcDbLine
 10
0.0
 20
-791.5926135610889
 30
0.0
 11
0.0
 21
-375.8062147299115
 31
0.0
  0
MTEXT
  5
5D8A
330
1E
100
AcDbEntity
  8
19
  6
CONTINUOUS
100
AcDbMText
 10
374.2872028735446
 20
477.9117742797816
 30
0.0
 40
7.0
 41
94.0
 71
     1
 72
     5
  1
XS1600NE 3P RC
  7
STANDARD1
1001
ACAD
1000
MTEXTBEGIN
1070
    73
1070
     1
1070
    44
1040
1.0
1070
    74
1070
     0
1000
MTEXTEND
  0
LINE
  5
6976
330
1E
100
AcDbEntity
  8
10
  6
CONTINUOUS
100
AcDbLine
 10
-105.0
 20
-120.0
 30
0.0
 11
105.0
 21
-120.0
 31
0.0
  0
LINE
  5
6977
330
1E
100
AcDbEntity
  8
10
  6
CONTINUOUS
100
AcDbLine
 10
-105.0
 20
-62.0
 30
0.0
 11
105.0
 21
-62.0
 31
0.0
  0
LINE
  5
6978
330
1E
100
AcDbEntity
  8
12
  6
DASHED
100
AcDbLine
 10
-50.0
 20
-154.0
 30
0.0
 11
-20.0
 21
-154.0
 31
0.0
  0
LINE
  5
6979
330
1E
100
AcDbEntity
  8
10
  6
CONTINUOUS
100
AcDbLine
 10
104.9998168945298
 20
-140.0
 30
0.0
 11
-105.0
 21
-140.0
 31
0.0
  0
LINE
  5
6981
330
1E
100
AcDbEntity
  8
12
  6
DASHED
100
AcDbLine
 10
34.99993896485
 20
-139.0
 30
0.0
 11
34.99993896485
 21
-169.0
 31
0.0
  0
LINE
  5
6982
330
1E
100
AcDbEntity
  8
12
  6
DASHED
100
AcDbLine
 10
-35.0
 20
-139.0
 30
0.0
 11
-35.0
 21
-169.0
 31
0.0
  0
CIRCLE
  5
6983
330
1E
100
AcDbEntity
  8
12
  6
DASHED
100
AcDbCircle
 10
34.99993896485
 20
-154.0
 30
0.0
 40
8.5
  0
CIRCLE
  5
6984
330
1E
100
AcDbEntity
  8
12
  6
DASHED
100
AcDbCircle
 10
-35.0
 20
-154.0
 30
0.0
 40
8.5
  0
LINE
  5
6989
330
1E
100
AcDbEntity
  8
12
  6
DASHED
100
AcDbLine
 10
19.99993896485
 20
-154.0
 30
0.0
 11
49.99993896485
 21
-154.0
 31
0.0
  0
LINE
  5
698B
330
1E
100
AcDbEntity
  8
10
  6
CONTINUOUS
100
AcDbLine
 10
-22.5
 20
27.5
 30
0.0
 11
-22.5
 21
-27.5
 31
0.0
  0
LINE
  5
698E
330
1E
100
AcDbEntity
  8
10
  6
CONTINUOUS
100
AcDbLine
 10
22.5
 20
27.5
 30
0.0
 11
22.5
 21
-27.5
 31
0.0
  0
LINE
  5
698F
330
1E
100
AcDbEntity
  8
10
  6
CONTINUOUS
100
AcDbLine
 10
-22.5
 20
-27.5
 30
0.0
 11
22.5
 21
-27.5
 31
0.0
  0
LINE
  5
6991
330
1E
100
AcDbEntity
  8
10
  6
CONTINUOUS
100
AcDbLine
 10
-22.5
 20
27.5
 30
0.0
 11
22.5
 21
27.5
 31
0.0
  0
LINE
  5
6994
330
1E
100
AcDbEntity
  8
12
  6
DASHED
100
AcDbLine
 10
-50.0
 20
183.9997558592999
 30
0.0
 11
-20.0
 21
183.9997558592999
 31
0.0
  0
LINE
  5
6995
330
1E
100
AcDbEntity
  8
10
  6
CONTINUOUS
100
AcDbLine
 10
104.9998168945298
 20
169.9997558592999
 30
0.0
 11
-105.0
 21
169.9997558592999
 31
0.0
  0
CIRCLE
  5
69A6
330
1E
100
AcDbEntity
  8
12
  6
DASHED
100
AcDbCircle
 10
-35.0
 20
183.9997558592999
 30
0.0
 40
8.5
  0
LINE
  5
69A7
330
1E
100
AcDbEntity
  8
12
  6
DASHED
100
AcDbLine
 10
-35.0
 20
199.0
 30
0.0
 11
-35.0
 21
168.9997558592999
 31
0.0
  0
LINE
  5
69A9
330
1E
100
AcDbEntity
  8
12
  6
DASHED
100
AcDbLine
 10
19.99993896485
 20
183.9997558592999
 30
0.0
 11
49.99993896485
 21
183.9997558592999
 31
0.0
  0
CIRCLE
  5
69AA
330
1E
100
AcDbEntity
  8
12
  6
DASHED
100
AcDbCircle
 10
34.99993896485
 20
183.9997558592999
 30
0.0
 40
8.5
  0
LINE
  5
69AB
330
1E
100
AcDbEntity
  8
12
  6
DASHED
100
AcDbLine
 10
34.99993896485
 20
199.0
 30
0.0
 11
34.99993896485
 21
168.9997558592999
 31
0.0
  0
LINE
  5
69B9
330
1E
100
AcDbEntity
  8
L0_
  6
CONTINUOUS
 62
     2
100
AcDbLine
 10
-126.8352050781004
 20
-739.9997558593
 30
0.0
 11
125.2814941405995
 21
-739.9997558593
 31
0.0
  0
LINE
  5
69BA
330
1E
100
AcDbEntity
  8
L0_
  6
CONTINUOUS
 62
     2
100
AcDbLine
 10
-126.1672363281004
 20
-431.9997558593
 30
0.0
 11
125.9499511718995
 21
-431.9997558593
 31
0.0
  0
LINE
  5
69BB
330
1E
100
AcDbEntity
  8
L150_
  6
DASHED
 62
     7
100
AcDbLine
 10
131.9499511718995
 20
-397.9997558592999
 30
0.0
 11
-120.1672363281004
 21
-397.9997558592999
 31
0.0
  0
LINE
  5
69BC
330
1E
100
AcDbEntity
  8
L150_
  6
DASHED
 62
     7
100
AcDbLine
 10
125.0285644530995
 20
-773.9997558593
 30
0.0
 11
-124.3015136719004
 21
-773.9997558593
 31
0.0
  0
LINE
  5
69BD
330
1E
100
AcDbEntity
  8
L0_
  6
CONTINUOUS
 62
     2
100
AcDbLine
 10
125.9499511718995
 20
-779.9997558592999
 30
0.0
 11
-126.8352050781004
 21
-779.9997558592999
 31
0.0
  0
LINE
  5
69BE
330
1E
100
AcDbEntity
  8
L0_
  6
CONTINUOUS
 62
     2
100
AcDbLine
 10
135.9499511718995
 20
-391.9997558592999
 30
0.0
 11
-116.1672363281004
 21
-391.9997558592999
 31
0.0
  0
LINE
  5
69CC
330
1E
100
AcDbEntity
  8
10
  6
CONTINUOUS
100
AcDbLine
 10
365.5286347070141
 20
47.5
 30
0.0
 11
376.5286347070141
 21
47.5
 31
0.0
  0
LINE
  5
69CD
330
1E
100
AcDbEntity
  8
10
  6
CONTINUOUS
100
AcDbLine
 10
365.5286347070141
 20
-47.5
 30
0.0
 11
376.5286347070141
 21
-47.5
 31
0.0
  0
CIRCLE
  5
69CE
330
1E
100
AcDbEntity
  8
18
100
AcDbCircle
 10
275.7209404189525
 20
57.80212868525814
 30
0.0
 40
20.0000000000001
  0
ARC
  5
69CF
330
1E
100
AcDbEntity
  8
10
  6
CONTINUOUS
100
AcDbCircle
 10
434.5279022852146
 20
0.0
 30
0.0
 40
188.9991607666544
100
AcDbArc
 50
159.9999133832608
 51
180.0
  0
ARC
  5
69D0
330
1E
100
AcDbEntity
  8
10
  6
CONTINUOUS
100
AcDbCircle
 10
434.5286347070141
 20
0.0
 30
0.0
 40
75.0
100
AcDbArc
 50
180.0
 51
203.073913987651
  0
LINE
  5
69D1
330
1E
100
AcDbEntity
  8
10
  6
CONTINUOUS
100
AcDbLine
 10
365.5286347070141
 20
-29.39404296880002
 30
0.0
 11
365.5286347070141
 21
-47.5
 31
0.0
  0
LINE
  5
69D2
330
1E
100
AcDbEntity
  8
18
100
AcDbLine
 10
329.0310761133141
 20
52.232421875
 30
0.0
 11
299.8484589258141
 21
59.14013671869998
 31
0.0
  0
LINE
  5
69D3
330
1E
100
AcDbEntity
  8
18
100
AcDbLine
 10
320.1384979883141
 20
27.80029296869997
 30
0.0
 11
293.3430878320141
 21
41.26660156249999
 31
0.0
  0
ARC
  5
69D4
330
1E
100
AcDbEntity
  8
18
100
AcDbCircle
 10
301.4612863751153
 20
65.95259114023338
 30
0.0
 40
7.000000000040719
100
AcDbArc
 50
197.5698696909479
 51
256.6826297870069
  0
ARC
  5
69D5
330
1E
100
AcDbEntity
  8
18
100
AcDbCircle
 10
290.2000890978097
 20
35.01270701271778
 30
0.0
 40
7.000000000035854
100
AcDbArc
 50
63.31735842156748
 51
122.4301390088877
  0
ARC
  5
69D6
330
1E
100
AcDbEntity
  8
10
  6
CONTINUOUS
100
AcDbCircle
 10
434.5279022852146
 20
0.0
 30
0.0
 40
108.9994277954571
100
AcDbArc
 50
159.999913383234
 51
180.0
  0
LINE
  5
69D7
330
1E
100
AcDbEntity
  8
18
100
AcDbLine
 10
329.0310761133141
 20
52.232421875
 30
0.0
 11
320.1384979883141
 21
27.80029296869997
 31
0.0
  0
LINE
  5
69D8
330
1E
100
AcDbEntity
  8
18
100
AcDbLine
 10
329.0310761133141
 20
52.232421875
 30
0.0
 11
362.8596893945141
 21
39.91943359369997
 31
0.0
  0
LINE
  5
69D9
330
1E
100
AcDbEntity
  8
18
100
AcDbLine
 10
362.8596893945141
 20
39.91943359369997
 30
0.0
 11
353.9671112695141
 21
15.48779296869997
 31
0.0
  0
LINE
  5
69DA
330
1E
100
AcDbEntity
  8
18
100
AcDbLine
 10
320.1384979883141
 20
27.80029296869997
 30
0.0
 11
353.9671112695141
 21
15.48779296869997
 31
0.0
  0
ARC
  5
69DB
330
1E
100
AcDbEntity
  8
10
  6
CONTINUOUS
100
AcDbCircle
 10
332.7674042383141
 20
33.2607421875
 30
0.0
 40
1.999999999970313
100
AcDbArc
 50
159.9997221383797
 51
248.5674954434578
  0
ARC
  5
69DC
330
1E
100
AcDbEntity
  8
10
  6
CONTINUOUS
100
AcDbCircle
 10
363.1824902636744
 20
37.91500565583374
 30
0.0
 40
5.000000000014309
100
AcDbArc
 50
251.4320994474181
 51
271.538373194407
  0
ARC
  5
69DD
330
1E
100
AcDbEntity
  8
10
  6
CONTINUOUS
100
AcDbCircle
 10
355.5034864953422
 20
16.81711695391368
 30
0.0
 40
4.999999999950349
100
AcDbArc
 50
48.46161501428159
 51
68.56790242145416
  0
ARC
  5
69DE
330
1E
100
AcDbEntity
  8
10
  6
CONTINUOUS
100
AcDbCircle
 10
335.1956268945141
 20
39.931640625
 30
0.0
 40
1.999999999976979
100
AcDbArc
 50
71.43229716816506
 51
160.0005964028956
  0
LINE
  5
69DF
330
1E
100
AcDbEntity
  8
10
  6
CONTINUOUS
100
AcDbLine
 10
361.7180878320141
 20
17.98974609369997
 30
0.0
 11
358.8191620508141
 21
20.55908203119997
 31
0.0
  0
LINE
  5
69E0
330
1E
100
AcDbEntity
  8
10
  6
CONTINUOUS
100
AcDbLine
 10
333.3162323633141
 20
40.61572265619997
 30
0.0
 11
330.8880097070141
 21
33.94482421869998
 31
0.0
  0
LINE
  5
69E3
330
1E
100
AcDbEntity
  8
10
  6
CONTINUOUS
100
AcDbLine
 10
332.0369354883141
 20
31.39892578119997
 30
0.0
 11
357.3299042383141
 21
21.47021484369997
 31
0.0
  0
LINE
  5
69E4
330
1E
100
AcDbEntity
  8
10
  6
CONTINUOUS
100
AcDbLine
 10
365.5286347070141
 20
29.39404296869998
 30
0.0
 11
365.5286347070141
 21
47.5
 31
0.0
  0
ARC
  5
69E5
330
1E
100
AcDbEntity
  8
10
  6
CONTINUOUS
100
AcDbCircle
 10
434.5286347070141
 20
0.0
 30
0.0
 40
74.99999999992823
100
AcDbArc
 50
156.9260823699605
 51
180.0
  0
LINE
  5
69F0
330
1E
100
AcDbEntity
  8
L225_
  6
CONTINUOUS
 62
     3
100
AcDbLine
 10
503.2423803787651
 20
-154.0
 30
0.0
 11
549.5286347070141
 21
-154.0
 31
0.0
  0
LINE
  5
69F3
330
1E
100
AcDbEntity
  8
12
  6
DASHED
100
AcDbLine
 10
522.5286347070141
 20
-167.0
 30
0.0
 11
522.5286347070141
 21
-139.0
 31
0.0
  0
LINE
  5
69F6
330
1E
100
AcDbEntity
  8
12
  6
DASHED
100
AcDbLine
 10
532.5286347070141
 20
-163.0
 30
0.0
 11
532.5286347070141
 21
-145.0
 31
0.0
  0
LINE
  5
69F7
330
1E
100
AcDbEntity
  8
12
  6
DASHED
100
AcDbLine
 10
556.5286347070141
 20
-179.0
 30
0.0
 11
516.5286347070141
 21
-179.0
 31
0.0
  0
LINE
  5
69F8
330
1E
100
AcDbEntity
  8
12
  6
DASHED
100
AcDbLine
 10
528.5286347070141
 20
-173.0
 30
0.0
 11
556.5286347070141
 21
-173.0
 31
0.0
  0
LINE
  5
69F9
330
1E
100
AcDbEntity
  8
12
  6
DASHED
100
AcDbLine
 10
516.5286347070141
 20
-170.0
 30
0.0
 11
516.5286347070141
 21
-179.0
 31
0.0
  0
LINE
  5
69FA
330
1E
100
AcDbEntity
  8
12
  6
DASHED
100
AcDbLine
 10
532.5286347070141
 20
-163.0
 30
0.0
 11
522.5286347070141
 21
-163.0
 31
0.0
  0
ARC
  5
69FB
330
1E
100
AcDbEntity
  8
12
  6
DASHED
100
AcDbCircle
 10
-528.5286347070141
 20
-167.0
 30
0.0
 40
6.0
210
0.0
220
0.0
230
-1.0
100
AcDbArc
 50
270.0
 51
0.0
  0
LINE
  5
69FC
330
1E
100
AcDbEntity
  8
12
  6
DASHED
100
AcDbLine
 10
556.5286347070141
 20
-179.0
 30
0.0
 11
556.5286347070141
 21
-173.0
 31
0.0
  0
LINE
  5
69FD
330
1E
100
AcDbEntity
  8
12
  6
DASHED
100
AcDbLine
 10
534.5286347070141
 20
-158.0
 30
0.0
 11
534.5286347070141
 21
-150.0
 31
0.0
  0
LINE
  5
69FE
330
1E
100
AcDbEntity
  8
12
  6
DASHED
100
AcDbLine
 10
532.5286347070141
 20
-145.0
 30
0.0
 11
522.5286347070141
 21
-145.0
 31
0.0
  0
LINE
  5
69FF
330
1E
100
AcDbEntity
  8
12
  6
DASHED
100
AcDbLine
 10
534.5286347070141
 20
-158.0
 30
0.0
 11
522.5286347070141
 21
-158.0
 31
0.0
  0
ARC
  5
6A00
330
1E
100
AcDbEntity
  8
12
  6
DASHED
100
AcDbCircle
 10
-518.5286347070141
 20
-142.0009765624999
 30
0.0
 40
4.000001778531175
210
0.0
220
0.0
230
-1.0
100
AcDbArc
 50
179.9459695860092
 51
180.0
  0
LINE
  5
6A01
330
1E
100
AcDbEntity
  8
12
  6
DASHED
100
AcDbLine
 10
522.5286347070141
 20
-150.0
 30
0.0
 11
534.5286347070141
 21
-150.0
 31
0.0
  0
LINE
  5
6A02
330
1E
100
AcDbEntity
  8
12
  6
DASHED
100
AcDbLine
 10
516.5286347070141
 20
-139.0
 30
0.0
 11
522.5286347070141
 21
-139.0
 31
0.0
  0
LINE
  5
6A0E
330
1E
100
AcDbEntity
  8
12
  6
DASHED
100
AcDbLine
 10
528.5286347070141
 20
203.0
 30
0.0
 11
556.5286347070141
 21
203.0
 31
0.0
  0
LINE
  5
6A0F
330
1E
100
AcDbEntity
  8
12
  6
DASHED
100
AcDbLine
 10
556.5286347070141
 20
209.0
 30
0.0
 11
516.5286347070141
 21
209.0
 31
0.0
  0
LINE
  5
6A10
330
1E
100
AcDbEntity
  8
12
  6
DASHED
100
AcDbLine
 10
501.9612518945141
 20
184.0
 30
0.0
 11
552.3443085352146
 21
184.0
 31
0.0
  0
LINE
  5
6A11
330
1E
100
AcDbEntity
  8
12
  6
DASHED
100
AcDbLine
 10
522.5286347070141
 20
197.0
 30
0.0
 11
522.5286347070141
 21
169.0
 31
0.0
  0
LINE
  5
6A12
330
1E
100
AcDbEntity
  8
12
  6
DASHED
100
AcDbLine
 10
534.5286347070141
 20
188.0
 30
0.0
 11
534.5286347070141
 21
180.0
 31
0.0
  0
LINE
  5
6A13
330
1E
100
AcDbEntity
  8
12
  6
DASHED
100
AcDbLine
 10
516.5286347070141
 20
200.0
 30
0.0
 11
516.5286347070141
 21
209.0
 31
0.0
  0
LINE
  5
6A14
330
1E
100
AcDbEntity
  8
12
  6
DASHED
100
AcDbLine
 10
532.5286347070141
 20
175.0
 30
0.0
 11
522.5286347070141
 21
175.0
 31
0.0
  0
LINE
  5
6A15
330
1E
100
AcDbEntity
  8
12
  6
DASHED
100
AcDbLine
 10
532.5286347070141
 20
193.0
 30
0.0
 11
522.5286347070141
 21
193.0
 31
0.0
  0
LINE
  5
6A16
330
1E
100
AcDbEntity
  8
12
  6
DASHED
100
AcDbLine
 10
532.5286347070141
 20
193.0
 30
0.0
 11
532.5286347070141
 21
175.0
 31
0.0
  0
LINE
  5
6A17
330
1E
100
AcDbEntity
  8
12
  6
DASHED
100
AcDbLine
 10
534.5286347070141
 20
188.0
 30
0.0
 11
522.5286347070141
 21
188.0
 31
0.0
  0
ARC
  5
6A18
330
1E
100
AcDbEntity
  8
12
  6
DASHED
100
AcDbCircle
 10
518.5286347070141
 20
172.0009765624999
 30
0.0
 40
4.000001778531269
100
AcDbArc
 50
359.9459695845762
 51
0.0
  0
ARC
  5
6A19
330
1E
100
AcDbEntity
  8
12
  6
DASHED
100
AcDbCircle
 10
528.5286347070141
 20
197.0
 30
0.0
 40
6.0
100
AcDbArc
 50
90.0
 51
180.0
  0
LINE
  5
6A1A
330
1E
100
AcDbEntity
  8
12
  6
DASHED
100
AcDbLine
 10
522.5286347070141
 20
180.0
 30
0.0
 11
534.5286347070141
 21
180.0
 31
0.0
  0
LINE
  5
6A1B
330
1E
100
AcDbEntity
  8
12
  6
DASHED
100
AcDbLine
 10
516.5286347070141
 20
169.0
 30
0.0
 11
522.5286347070141
 21
169.0
 31
0.0
  0
LINE
  5
6A1C
330
1E
100
AcDbEntity
  8
12
  6
DASHED
100
AcDbLine
 10
556.5286347070141
 20
209.0
 30
0.0
 11
556.5286347070141
 21
203.0
 31
0.0
  0
LINE
  5
6A25
330
1E
100
AcDbEntity
  8
L0_
  6
CONTINUOUS
 62
     2
100
AcDbLine
 10
-119.64453125
 20
-765.9609375
 30
0.0
 11
-128.6313476561999
 21
-752.9799804687
 31
0.0
  0
LINE
  5
6A26
330
1E
100
AcDbEntity
  8
L0_
  6
CONTINUOUS
 62
     2
100
AcDbLine
 10
-126.8352050781004
 20
-779.9997558592999
 30
0.0
 11
-119.64453125
 21
-765.9609375
 31
0.0
  0
LINE
  5
6A27
330
1E
100
AcDbEntity
  8
L0_
  6
CONTINUOUS
 62
     2
100
AcDbLine
 10
-128.6313476561999
 20
-752.9799804687
 30
0.0
 11
-126.8352050781004
 21
-739.9997558593
 31
0.0
  0
CIRCLE
  5
6A29
330
1E
100
AcDbEntity
  8
12
100
AcDbCircle
 10
35.0
 20
-754.9997558592999
 30
0.0
 40
4.5
  0
CIRCLE
  5
6A2A
330
1E
100
AcDbEntity
  8
12
100
AcDbCircle
 10
-35.0
 20
-754.9997558592999
 30
0.0
 40
4.5
  0
LINE
  5
6A2B
330
1E
100
AcDbEntity
  8
12
100
AcDbLine
 10
-50.0
 20
-754.9997558592999
 30
0.0
 11
-20.0
 21
-754.9997558592999
 31
0.0
  0
LINE
  5
6A2E
330
1E
100
AcDbEntity
  8
L0_
  6
CONTINUOUS
 62
     2
100
AcDbLine
 10
-116.1672363281004
 20
-416.9997558592999
 30
0.0
 11
-126.1672363281004
 21
-406.9997558593
 31
0.0
  0
LINE
  5
6A2F
330
1E
100
AcDbEntity
  8
L0_
  6
CONTINUOUS
 62
     2
100
AcDbLine
 10
-126.1672363281004
 20
-431.9997558593
 30
0.0
 11
-116.1672363281004
 21
-416.9997558592999
 31
0.0
  0
LINE
  5
6A30
330
1E
100
AcDbEntity
  8
L0_
  6
CONTINUOUS
 62
     2
100
AcDbLine
 10
-126.1672363281004
 20
-406.9997558593
 30
0.0
 11
-116.1672363281004
 21
-391.9997558592999
 31
0.0
  0
LINE
  5
6A31
330
1E
100
AcDbEntity
  8
L0_
  6
CONTINUOUS
 62
     2
100
AcDbLine
 10
-116.1672363281004
 20
-416.9997558592999
 30
0.0
 11
-126.1672363281004
 21
-406.9997558593
 31
0.0
  0
LINE
  5
6A32
330
1E
100
AcDbEntity
  8
L0_
  6
CONTINUOUS
 62
     2
100
AcDbLine
 10
-126.1672363281004
 20
-431.9997558593
 30
0.0
 11
-116.1672363281004
 21
-416.9997558592999
 31
0.0
  0
LINE
  5
6A33
330
1E
100
AcDbEntity
  8
L0_
  6
CONTINUOUS
 62
     2
100
AcDbLine
 10
-126.1672363281004
 20
-406.9997558593
 30
0.0
 11
-116.1672363281004
 21
-391.9997558592999
 31
0.0
  0
LINE
  5
6A34
330
1E
100
AcDbEntity
  8
L0_
  6
CONTINUOUS
 62
     2
100
AcDbLine
 10
-126.1672363281004
 20
-406.9997558593
 30
0.0
 11
-116.1672363281004
 21
-391.9997558592999
 31
0.0
  0
LINE
  5
6A35
330
1E
100
AcDbEntity
  8
L0_
  6
CONTINUOUS
 62
     2
100
AcDbLine
 10
-116.1672363281004
 20
-416.9997558592999
 30
0.0
 11
-126.1672363281004
 21
-406.9997558593
 31
0.0
  0
LINE
  5
6A36
330
1E
100
AcDbEntity
  8
L0_
  6
CONTINUOUS
 62
     2
100
AcDbLine
 10
-126.1672363281004
 20
-431.9997558593
 30
0.0
 11
-116.1672363281004
 21
-416.9997558592999
 31
0.0
  0
CIRCLE
  5
6A37
330
1E
100
AcDbEntity
  8
12
100
AcDbCircle
 10
35.0
 20
-417.0
 30
0.0
 40
4.5
  0
LINE
  5
6A38
330
1E
100
AcDbEntity
  8
12
100
AcDbLine
 10
-50.0
 20
-417.0
 30
0.0
 11
-20.0
 21
-417.0
 31
0.0
  0
LINE
  5
6A39
330
1E
100
AcDbEntity
  8
12
100
AcDbLine
 10
-35.0
 20
-401.9997558592999
 30
0.0
 11
-35.0
 21
-432.0
 31
0.0
  0
CIRCLE
  5
6A3A
330
1E
100
AcDbEntity
  8
12
100
AcDbCircle
 10
-35.0
 20
-417.0
 30
0.0
 40
4.5
  0
LINE
  5
6A3B
330
1E
100
AcDbEntity
  8
12
100
AcDbLine
 10
35.0
 20
-401.9997558592999
 30
0.0
 11
35.0
 21
-432.0
 31
0.0
  0
LINE
  5
6A3F
330
1E
100
AcDbEntity
  8
L0_
  6
CONTINUOUS
 62
     2
100
AcDbLine
 10
118.9011230468995
 20
-762.9653320312
 30
0.0
 11
127.8876953124999
 21
-752.9799804687
 31
0.0
  0
LINE
  5
6A40
330
1E
100
AcDbEntity
  8
L0_
  6
CONTINUOUS
 62
     2
100
AcDbLine
 10
125.9499511718995
 20
-779.9997558592999
 30
0.0
 11
118.9011230468995
 21
-762.9653320312
 31
0.0
  0
LINE
  5
6A41
330
1E
100
AcDbEntity
  8
L0_
  6
CONTINUOUS
 62
     2
100
AcDbLine
 10
127.8876953124999
 20
-752.9799804687
 30
0.0
 11
125.2814941405995
 21
-739.9997558593
 31
0.0
  0
LINE
  5
6A42
330
1E
100
AcDbEntity
  8
L0_
  6
CONTINUOUS
 62
     2
100
AcDbLine
 10
135.9499511718995
 20
-416.9997558592999
 30
0.0
 11
125.9499511718995
 21
-406.9997558593
 31
0.0
  0
LINE
  5
6A43
330
1E
100
AcDbEntity
  8
L0_
  6
CONTINUOUS
 62
     2
100
AcDbLine
 10
125.9499511718995
 20
-431.9997558593
 30
0.0
 11
135.9499511718995
 21
-416.9997558592999
 31
0.0
  0
LINE
  5
6A44
330
1E
100
AcDbEntity
  8
L0_
  6
CONTINUOUS
 62
     2
100
AcDbLine
 10
125.9499511718995
 20
-406.9997558593
 30
0.0
 11
135.9499511718995
 21
-391.9997558592999
 31
0.0
  0
LWPOLYLINE
  5
6B40
330
1E
100
AcDbEntity
  8
10
  6
CONTINUOUS
100
AcDbPolyline
 90
       16
 70
     1
 43
0.0
 10
117.49993896485
 20
-170.0
 10
22.49993896485
 20
-170.0
 10
-22.5
 20
-170.0
 10
-47.5
 20
-170.0
 10
-92.5
 20
-170.0
 10
-105.0
 20
-170.0
 10
-105.0
 20
200.0
 10
-92.5
 20
200.0
 10
-47.5
 20
200.0
 10
-22.5
 20
200.0
 10
22.49993896485
 20
200.0
 10
117.49993896485
 20
200.0
 10
92.49981689452988
 20
200.0
 10
104.9998168945298
 20
200.0
 10
104.9998168945298
 20
-170.0
 10
92.49981689452988
 20
-170.0
  0
LWPOLYLINE
  5
6B41
330
1E
100
AcDbEntity
  8
10
  6
CONTINUOUS
100
AcDbPolyline
 90
        4
 70
     1
 43
0.0
 10
39.0
 20
-52.0
 10
-39.0
 20
-52.0
 10
-39.0
 20
43.0
 10
39.0
 20
43.0
  0
LWPOLYLINE
  5
6C06
330
1E
100
AcDbEntity
  8
10
  6
CONTINUOUS
100
AcDbPolyline
 90
        8
 70
     1
 43
0.0
 10
384.5286347070141
 20
-170.0
 10
384.5286347070141
 20
-140.0
 10
376.5286347070141
 20
-140.0
 10
376.5286347070141
 20
170.0
 10
384.5286347070141
 20
170.0
 10
384.5286347070141
 20
200.0
 10
516.5286347070141
 20
200.0
 10
516.5286347070141
 20
-170.0
  0
LWPOLYLINE
  5
6C07
330
1E
100
AcDbEntity
  8
10
  6
CONTINUOUS
100
AcDbPolyline
 90
        2
 70
     0
 43
0.0
 10
365.5286347070141
 20
32.97558593749998
 10
363.3167206445141
 20
32.91601562499998
  0
LWPOLYLINE
  5
6C08
330
1E
100
AcDbEntity
  8
10
  6
CONTINUOUS
100
AcDbPolyline
 90
        2
 70
     0
 43
0.0
 10
361.5901581445141
 20
33.17529296869996
 10
335.8323456445141
 20
41.82763671869996
  0
DIMENSION
  5
6D05
330
1E
100
AcDbEntity
  8
30
  6
CONTINUOUS
100
AcDbDimension
  2
*D11
 10
-118.0002441405999
 20
376.1514359345528
 30
0.0
 11
-121.5002441406
 21
446.1514359345528
 31
0.0
 70
    32
  3
STANDARD
100
AcDbAlignedDimension
 13
-104.0002441405999
 23
516.1514359345528
 33
0.0
 14
-104.0002441405999
 24
376.1514359345528
 34
0.0
 50
90.0
100
AcDbRotatedDimension
  0
DIMENSION
  5
6D69
330
1E
100
AcDbEntity
  8
30
  6
CONTINUOUS
100
AcDbDimension
  2
*D12
 10
376.5286347070141
 20
-292.4950458463608
 30
0.0
 11
368.0286347070141
 21
-288.9950458463608
 31
0.0
 70
    32
  3
STANDARD
100
AcDbAlignedDimension
 13
359.5286347070141
 23
0.0
 33
0.0
 14
376.5286347070141
 24
-140.0
 34
0.0
100
AcDbRotatedDimension
  0
DIMENSION
  5
6D76
330
1E
100
AcDbEntity
  8
30
  6
CONTINUOUS
100
AcDbDimension
  2
*D13
 10
516.5286347070141
 20
-292.4950458463608
 30
0.0
 11
446.5286347070141
 21
-288.9950458463608
 31
0.0
 70
    32
  3
STANDARD
100
AcDbAlignedDimension
 13
376.5286347070141
 23
-140.0
 33
0.0
 14
516.5286347070141
 24
-179.0
 34
0.0
100
AcDbRotatedDimension
1001
ACAD
1000
DSTYLE
1002
{
1070
   287
1070
     4
1070
   287
1070
     4
1070
   279
1070
     1
1002
}
  0
DIMENSION
  5
6DB7
330
1E
100
AcDbEntity
  8
30
  6
CONTINUOUS
100
AcDbDimension
  2
*D14
 10
384.5286347070141
 20
-194.4087893196519
 30
0.0
 11
380.5286347070141
 21
-190.9087893196519
 31
0.0
 70
    32
  3
STANDARD
100
AcDbAlignedDimension
 13
376.5286347070141
 23
-140.0
 33
0.0
 14
384.5286347070141
 24
-170.0
 34
0.0
100
AcDbRotatedDimension
  0
LEADER
  5
6DEB
330
1E
100
AcDbEntity
  8
30
  6
CONTINUOUS
100
AcDbLeader
  3
STANDARD
 76
     3
 10
532.5286347070141
 20
-145.0
 30
0.0
 10
552.6799877411033
 20
-124.8476320125517
 30
0.0
 10
566.1987878034404
 20
-124.8370630914487
 30
0.0
211
-1.0
221
0.0
231
0.0
1001
ACAD
1000
DSTYLE
1002
{
1070
     5
1000
OPEN
1070
   342
1005
3B2
1002
}
  0
TEXT
  5
6DEC
330
1E
100
AcDbEntity
  8
30
  6
CONTINUOUS
100
AcDbText
 10
554.6069447209356
 20
-123.3255563437092
 30
0.0
 40
4.0
  1
M8
100
AcDbText
  0
DIMENSION
  5
6DED
330
1E
100
AcDbEntity
  8
30
  6
CONTINUOUS
100
AcDbDimension
  2
*D15
 10
325.5284744897574
 20
-309.08595701602
 30
0.0
 11
285.5286080041588
 21
-305.58595701602
 31
0.0
 70
    32
  3
STANDARD
100
AcDbAlignedDimension
 13
245.5287415185602
 23
0.0000000000000105
 33
0.0
 14
325.5284744897574
 24
-0.0000000000000009
 34
0.0
100
AcDbRotatedDimension
  0
DIMENSION
  5
6DFA
330
1E
100
AcDbEntity
  8
30
  6
CONTINUOUS
100
AcDbDimension
  2
*D16
 10
516.5286347070141
 20
-309.08595701602
 30
0.0
 11
421.0285545983857
 21
-305.58595701602
 31
0.0
 70
    32
  3
STANDARD
100
AcDbAlignedDimension
 13
325.5284744897574
 23
-0.0000000000000009
 33
0.0
 14
516.5286347070141
 24
-179.0
 34
0.0
100
AcDbRotatedDimension
1001
ACAD
1000
DSTYLE
1002
{
1070
   287
1070
     4
1070
   287
1070
     4
1070
   279
1070
     1
1002
}
  0
DIMENSION
  5
6E07
330
1E
100
AcDbEntity
  8
30
  6
CONTINUOUS
100
AcDbDimension
  2
*D17
 10
304.2426559383602
 20
0.000000000000006
 30
0.0
 11
300.7426559383602
 21
85.00000000000007
 31
0.0
 70
    32
  3
STANDARD
100
AcDbAlignedDimension
 13
376.5286347070141
 23
170.0
 33
0.0
 14
325.5284744897574
 24
0.0
 34
0.0
 50
90.0
100
AcDbRotatedDimension
  0
DIMENSION
  5
6E1D
330
1E
100
AcDbEntity
  8
30
  6
CONTINUOUS
100
AcDbDimension
  2
*D18
 10
304.2426559383602
 20
-139.9999999999999
 30
0.0
 11
300.7426559383603
 21
-69.99999999999992
 31
0.0
 70
    32
  3
STANDARD
100
AcDbAlignedDimension
 13
325.5284744897574
 23
0.0
 33
0.0
 14
376.5286347070141
 24
-140.0
 34
0.0
 50
90.0
100
AcDbRotatedDimension
1001
ACAD
1000
DSTYLE
1002
{
1070
   287
1070
     4
1070
   287
1070
     4
1070
   279
1070
     1
1002
}
  0
LWPOLYLINE
  5
6ED0
330
1E
100
AcDbEntity
  8
18
100
AcDbPolyline
 90
        4
 70
     1
 43
0.0
 10
-104.9997558594004
 20
-770.9997558592999
 10
-104.9997558594004
 20
-400.9997558592999
 10
105.0
 20
-400.9997558592999
 10
105.0
 20
-770.9997558592999
  0
LINE
  5
6ED1
330
1E
100
AcDbEntity
  8
12
100
AcDbLine
 10
35.0
 20
-401.9997558592999
 30
0.0
 11
35.0
 21
-432.0
 31
0.0
  0
LINE
  5
6ED2
330
1E
100
AcDbEntity
  8
12
100
AcDbLine
 10
-35.0
 20
-739.9995117185999
 30
0.0
 11
-35.0
 21
-769.9997558593
 31
0.0
  0
LINE
  5
6ED3
330
1E
100
AcDbEntity
  8
12
100
AcDbLine
 10
35.0
 20
-739.9995117185999
 30
0.0
 11
35.0
 21
-769.9997558593
 31
0.0
  0
LINE
  5
6ED4
330
1E
100
AcDbEntity
  8
12
100
AcDbLine
 10
20.0
 20
-754.9997558592999
 30
0.0
 11
50.0
 21
-754.9997558592999
 31
0.0
  0
TEXT
  5
6ED5
330
1E
100
AcDbEntity
  8
30
  6
CONTINUOUS
100
AcDbText
 10
59.73704305844648
 20
-725.4473330673581
 30
0.0
 40
5.0
  1
%%C9
100
AcDbText
  0
LEADER
  5
6ED6
330
1E
100
AcDbEntity
  8
30
  6
CONTINUOUS
100
AcDbLeader
  3
STANDARD
 76
     3
 10
37.99768925567889
 20
-749.9416939150058
 30
0.0
 10
47.75154943503184
 20
-725.7265809280352
 30
0.0
 10
78.52425257157768
 20
-725.7829347399749
 30
0.0
1001
ACAD
1000
DSTYLE
1002
{
1070
     5
1000
OPEN
1070
   342
1005
3B2
1002
}
  0
LWPOLYLINE
  5
6F14
330
1E
100
AcDbEntity
  8
18
100
AcDbPolyline
 90
        4
 70
     1
 43
0.0
 10
423.5286347070141
 20
-771.0
 10
423.5286347070141
 20
-401.0
 10
213.5286347070141
 20
-401.0
 10
213.5286347070141
 20
-771.0
  0
LWPOLYLINE
  5
6F15
330
1E
100
AcDbEntity
  8
11
  6
CONTINUOUS
100
AcDbPolyline
 90
        8
 70
     1
 43
0.0
 10
359.0286347070141
 20
-644.0
 10
359.0286347070141
 20
-558.0
 42
0.4142135623730951
 10
353.0286347070141
 20
-552.0
 10
284.0286347070141
 20
-552.0
 42
0.4142135623730951
 10
278.0286347070141
 20
-558.0
 10
278.0286347070141
 20
-644.0
 42
0.4142135623730951
 10
284.0286347070141
 20
-650.0
 10
353.0286347070141
 20
-650.0
 42
0.4142135623730951
  0
DIMENSION
  5
6F16
330
1E
100
AcDbEntity
  8
30
  6
CONTINUOUS
100
AcDbDimension
  2
*D19
 10
350.9731542279041
 20
-558.1664414373286
 30
0.0
 11
366.9731542279046
 21
-535.666441437328
 31
0.0
 70
   164
  1
R6
  3
STANDARD
100
AcDbRadialDimension
 15
353.0286347070136
 25
-552.0
 35
0.0
 40
0.0
1001
ACAD
1000
DSTYLE
1002
{
1070
   288
1070
     1
1002
}
  0
DIMENSION
  5
6F52
330
1E
100
AcDbEntity
  8
30
  6
CONTINUOUS
100
AcDbDimension
  2
*D20
 10
-201.0934457379699
 20
-601.0
 30
0.0
 11
-204.5934457379698
 21
-509.0
 31
0.0
 70
    32
  3
STANDARD
100
AcDbAlignedDimension
 13
-50.0
 23
-417.0
 33
0.0
 14
-166.0
 24
-601.0
 34
0.0
 50
90.0
100
AcDbRotatedDimension
  0
DIMENSION
  5
6F5F
330
1E
100
AcDbEntity
  8
30
  6
CONTINUOUS
100
AcDbDimension
  2
*D21
 10
-201.0934457379699
 20
-754.9997558592999
 30
0.0
 11
-204.5934457379698
 21
-677.99987792965
 31
0.0
 70
    32
  3
STANDARD
100
AcDbAlignedDimension
 13
-166.0
 23
-601.0
 33
0.0
 14
-50.0
 24
-754.9997558592999
 34
0.0
 50
90.0
100
AcDbRotatedDimension
1001
ACAD
1000
DSTYLE
1002
{
1070
   287
1070
     4
1070
   287
1070
     4
1070
   279
1070
     1
1002
}
  0
DIMENSION
  5
6F6C
330
1E
100
AcDbEntity
  8
30
  6
CONTINUOUS
100
AcDbDimension
  2
*D22
 10
35.0
 20
-810.4423648938418
 30
0.0
 11
0.0000000000000002
 21
-806.9423648938418
 31
0.0
 70
    32
  3
STANDARD
100
AcDbAlignedDimension
 13
-35.0
 23
-769.9997558593
 33
0.0
 14
35.0
 24
-769.9997558593
 34
0.0
100
AcDbRotatedDimension
  0
DIMENSION
  5
6F79
330
1E
100
AcDbEntity
  8
30
  6
CONTINUOUS
100
AcDbDimension
  2
*D23
 10
359.0286347070141
 20
-683.7650401241262
 30
0.0
 11
318.5286347070141
 21
-680.2650401241262
 31
0.0
 70
    32
  3
STANDARD
100
AcDbAlignedDimension
 13
278.0286347070141
 23
-644.0
 33
0.0
 14
359.0286347070141
 24
-644.0
 34
0.0
100
AcDbRotatedDimension
  0
DIMENSION
  5
6F86
330
1E
100
AcDbEntity
  8
30
  6
CONTINUOUS
100
AcDbDimension
  2
*D24
 10
256.6259214396632
 20
-650.0
 30
0.0
 11
253.1259214396633
 21
-600.9999999999998
 31
0.0
 70
    32
  3
STANDARD
100
AcDbAlignedDimension
 13
284.0286347070141
 23
-552.0
 33
0.0
 14
284.0286347070141
 24
-650.0
 34
0.0
 50
90.0
100
AcDbRotatedDimension
  0
DIMENSION
  5
6FBA
330
1E
100
AcDbEntity
  8
30
  6
CONTINUOUS
100
AcDbDimension
  2
*D25
 10
144.8584367809216
 20
-0.0000000000000113
 30
0.0
 11
141.3584367809216
 21
100.0
 31
0.0
 70
    32
  3
STANDARD
100
AcDbAlignedDimension
 13
105.9998168945298
 23
200.0
 33
0.0
 14
104.9998168945298
 24
0.0
 34
0.0
 50
90.0
100
AcDbRotatedDimension
1001
ACAD
1000
DSTYLE
1002
{
1070
   287
1070
     4
1070
   287
1070
     4
1070
   279
1070
     1
1002
}
  0
DIMENSION
  5
6FC7
330
1E
100
AcDbEntity
  8
30
  6
CONTINUOUS
100
AcDbDimension
  2
*D26
 10
144.8584367809216
 20
-170.0
 30
0.0
 11
141.3584367809216
 21
-84.99999999999998
 31
0.0
 70
    32
  3
STANDARD
100
AcDbAlignedDimension
 13
104.9998168945298
 23
0.0
 33
0.0
 14
105.9998168945298
 24
-170.0
 34
0.0
 50
90.0
100
AcDbRotatedDimension
1001
ACAD
1000
DSTYLE
1002
{
1070
   287
1070
     4
1070
   287
1070
     4
1070
   279
1070
     1
1002
}
  0
DIMENSION
  5
6FE1
330
1E
100
AcDbEntity
  8
30
  6
CONTINUOUS
100
AcDbDimension
  2
*D27
 10
163.9081821090276
 20
-170.0
 30
0.0
 11
160.4081821090276
 21
15.00000000000001
 31
0.0
 70
    32
  3
STANDARD
100
AcDbAlignedDimension
 13
104.9998168945298
 23
200.0
 33
0.0
 14
104.9998168945298
 24
-170.0
 34
0.0
 50
90.0
100
AcDbRotatedDimension
  0
LINE
  5
73FF
330
1E
100
AcDbEntity
  8
12
100
AcDbLine
 10
20.0
 20
-417.0
 30
0.0
 11
50.0
 21
-417.0
 31
0.0
  0
LINE
  5
7474
330
1E
100
AcDbEntity
  8
10
  6
CONTINUOUS
100
AcDbLine
 10
20.0
 20
325.1509476533529
 30
0.0
 11
20.0
 21
365.1511917939529
 31
0.0
  0
LINE
  5
7475
330
1E
100
AcDbEntity
  8
10
  6
CONTINUOUS
100
AcDbLine
 10
-20.0
 20
325.1509476533529
 30
0.0
 11
-20.0
 21
365.1511917939529
 31
0.0
  0
LINE
  5
747A
330
1E
100
AcDbEntity
  8
24
  6
CONTINOUS
100
AcDbLine
 10
-42.01000976559998
 20
631.1514359345529
 30
0.0
 11
22.49975585940001
 21
631.1514359345529
 31
0.0
  0
LINE
  5
747E
330
1E
100
AcDbEntity
  8
10
  6
CONTINUOUS
100
AcDbLine
 10
-39.0
 20
365.1511917939529
 30
0.0
 11
39.0
 21
365.1511917939529
 31
0.0
  0
LINE
  5
7484
330
1E
100
AcDbEntity
  8
21
100
AcDbLine
 10
-10.0
 20
516.1514359345528
 30
0.0
 11
-10.0
 21
601.1514359345528
 31
0.0
  0
LINE
  5
7485
330
1E
100
AcDbEntity
  8
21
100
AcDbLine
 10
-79.99975585929997
 20
516.1514359345528
 30
0.0
 11
-79.99975585929997
 21
556.1514359345529
 31
0.0
  0
LINE
  5
7489
330
1E
100
AcDbEntity
  8
21
100
AcDbLine
 10
-79.99975585929997
 20
556.1514359345529
 30
0.0
 11
-77.49975585929997
 21
556.1514359345529
 31
0.0
  0
LINE
  5
748D
330
1E
100
AcDbEntity
  8
21
100
AcDbLine
 10
-7.5
 20
601.1514359345528
 30
0.0
 11
-10.0
 21
601.1514359345528
 31
0.0
  0
LINE
  5
7491
330
1E
100
AcDbEntity
  8
10
  6
CONTINUOUS
100
AcDbLine
 10
-39.0
 20
365.1511917939529
 30
0.0
 11
-39.0
 21
376.1511917939528
 31
0.0
  0
LINE
  5
7492
330
1E
100
AcDbEntity
  8
10
  6
CONTINUOUS
100
AcDbLine
 10
104.9902343749999
 20
376.1511917939528
 30
0.0
 11
104.9902343749999
 21
516.1514359345528
 31
0.0
  0
LINE
  5
7495
330
1E
100
AcDbEntity
  8
21
100
AcDbLine
 10
80.0
 20
516.1514359345528
 30
0.0
 11
80.0
 21
556.1514359345529
 31
0.0
  0
LINE
  5
7498
330
1E
100
AcDbEntity
  8
24
  6
CONTINOUS
100
AcDbLine
 10
47.5
 20
586.1514359345529
 30
0.0
 11
92.5
 21
586.1514359345529
 31
0.0
  0
LINE
  5
749B
330
1E
100
AcDbEntity
  8
L0_
  6
CONTINUOUS
 62
     2
100
AcDbLine
 10
77.5
 20
556.1514359345529
 30
0.0
 11
80.0
 21
556.1514359345529
 31
0.0
  0
LINE
  5
74AA
330
1E
100
AcDbEntity
  8
10
  6
CONTINUOUS
100
AcDbLine
 10
39.0
 20
365.1511917939529
 30
0.0
 11
39.0
 21
376.1511917939528
 31
0.0
  0
LINE
  5
74AE
330
1E
100
AcDbEntity
  8
10
  6
CONTINUOUS
100
AcDbLine
 10
-105.0002441405999
 20
384.1511917939529
 30
0.0
 11
104.9902343749999
 21
384.1511917939529
 31
0.0
  0
LWPOLYLINE
  5
74AF
330
1E
100
AcDbEntity
  8
10
  6
CONTINUOUS
100
AcDbPolyline
 90
        5
 70
     0
 43
0.0
 10
-105.0002441405999
 20
516.1514359345528
 10
-105.0002441405999
 20
376.1511917939528
 10
104.9902343749999
 20
376.1511917939528
 10
104.9902343749999
 20
516.1514359345528
 10
-105.0
 20
516.1514359345528
  0
LINE
  5
74B0
330
1E
100
AcDbEntity
  8
10
  6
CONTINUOUS
100
AcDbLine
 10
-20.0
 20
325.1509476533529
 30
0.0
 11
20.0
 21
325.1509476533529
 31
0.0
  0
LWPOLYLINE
  5
74BD
330
1E
100
AcDbEntity
  8
21
100
AcDbPolyline
 90
        7
 70
     0
 43
0.0
 10
60.0
 20
516.1514359345528
 10
60.0
 20
556.1514359345529
 10
62.5
 20
556.1514359345529
 10
77.5
 20
556.1514359345529
 10
77.5
 20
601.1514359345528
 10
62.5
 20
601.1514359345528
 10
62.5
 20
556.1514359345529
  0
LWPOLYLINE
  5
74BE
330
1E
100
AcDbEntity
  8
21
100
AcDbPolyline
 90
        7
 70
     0
 43
0.0
 10
10.0
 20
516.1514359345528
 10
10.0
 20
601.1514359345528
 10
7.5
 20
601.1514359345528
 10
7.5
 20
646.1514359345528
 10
-7.5
 20
646.1514359345528
 10
-7.5
 20
601.1514359345528
 10
7.5
 20
601.1514359345528
  0
LWPOLYLINE
  5
74BF
330
1E
100
AcDbEntity
  8
21
100
AcDbPolyline
 90
        7
 70
     0
 43
0.0
 10
-60.0
 20
516.1514359345528
 10
-60.0
 20
556.1514359345529
 10
-62.5
 20
556.1514359345529
 10
-62.5
 20
601.1514359345528
 10
-77.49975585929997
 20
601.1514359345528
 10
-77.49975585929997
 20
556.1514359345529
 10
-62.5
 20
556.1514359345529
  0
LINE
  5
74C0
330
1E
100
AcDbEntity
  8
24
  6
CONTINOUS
100
AcDbLine
 10
-92.5
 20
586.1514359345529
 30
0.0
 11
-47.5
 21
586.1514359345529
 31
0.0
  0
LINE
  5
74E5
330
1E
100
AcDbEntity
  8
21
100
AcDbLine
 10
516.5286347070141
 20
-132.4999999999999
 30
0.0
 11
601.5286347070141
 21
-132.4999999999999
 31
0.0
  0
LINE
  5
74E8
330
1E
100
AcDbEntity
  8
21
100
AcDbLine
 10
516.5286347070141
 20
-67.5
 30
0.0
 11
601.5286347070141
 21
-67.5
 31
0.0
  0
ARC
  5
74E9
330
1E
100
AcDbEntity
  8
12
  6
DASHED
100
AcDbCircle
 10
-518.5286347070141
 20
-142.0009765624999
 30
0.0
 40
4.000001778531175
210
0.0
220
0.0
230
-1.0
100
AcDbArc
 50
179.9459695860092
 51
180.0
  0
LINE
  5
74EA
330
1E
100
AcDbEntity
  8
12
  6
DASHED
100
AcDbLine
 10
516.5286347070141
 20
-139.0
 30
0.0
 11
522.5286347070141
 21
-139.0
 31
0.0
  0
LINE
  5
74EB
330
1E
100
AcDbEntity
  8
21
100
AcDbLine
 10
601.5286347070141
 20
-67.5
 30
0.0
 11
601.5286347070141
 21
-132.4999999999999
 31
0.0
  0
LINE
  5
74EC
330
1E
100
AcDbEntity
  8
21
100
AcDbLine
 10
646.5286347070141
 20
-67.5
 30
0.0
 11
646.5286347070141
 21
-132.4999999999999
 31
0.0
  0
LINE
  5
74F1
330
1E
100
AcDbEntity
  8
21
100
AcDbLine
 10
611.5286347070141
 20
-132.4999999999999
 30
0.0
 11
646.5286347070141
 21
-132.4999999999999
 31
0.0
  0
LINE
  5
74F4
330
1E
100
AcDbEntity
  8
21
100
AcDbLine
 10
611.5286347070141
 20
-67.5
 30
0.0
 11
646.5286347070141
 21
-67.5
 31
0.0
  0
LINE
  5
74F5
330
1E
100
AcDbEntity
  8
24
  6
CONTINOUS
100
AcDbLine
 10
571.5286347070141
 20
45.0
 30
0.0
 11
601.5286347070141
 21
45.0
 31
0.0
  0
LINE
  5
74F6
330
1E
100
AcDbEntity
  8
24
  6
CONTINOUS
100
AcDbLine
 10
571.5286347070141
 20
75.0
 30
0.0
 11
601.5286347070141
 21
75.0
 31
0.0
  0
LINE
  5
74F7
330
1E
100
AcDbEntity
  8
21
100
AcDbLine
 10
516.5286347070141
 20
27.5
 30
0.0
 11
601.5286347070141
 21
27.5
 31
0.0
  0
LINE
  5
74F8
330
1E
100
AcDbEntity
  8
21
100
AcDbLine
 10
516.5286347070141
 20
92.5
 30
0.0
 11
601.5286347070141
 21
92.5
 31
0.0
  0
LINE
  5
74F9
330
1E
100
AcDbEntity
  8
21
100
AcDbLine
 10
646.5286347070141
 20
27.5
 30
0.0
 11
646.5286347070141
 21
92.5
 31
0.0
  0
LINE
  5
74FA
330
1E
100
AcDbEntity
  8
21
100
AcDbLine
 10
601.5286347070141
 20
27.5
 30
0.0
 11
601.5286347070141
 21
92.5
 31
0.0
  0
LINE
  5
74FB
330
1E
100
AcDbEntity
  8
24
  6
CONTINOUS
100
AcDbLine
 10
586.5286347070141
 20
92.5
 30
0.0
 11
586.5286347070141
 21
27.5
 31
0.0
  0
LINE
  5
74FC
330
1E
100
AcDbEntity
  8
24
  6
CONTINOUS
100
AcDbLine
 10
631.5286347070141
 20
92.5
 30
0.0
 11
631.5286347070141
 21
27.5
 31
0.0
  0
CIRCLE
  5
74FD
330
1E
100
AcDbEntity
  8
24
  6
CONTINOUS
100
AcDbCircle
 10
631.5286347070141
 20
45.0
 30
0.0
 40
6.0
  0
LINE
  5
74FE
330
1E
100
AcDbEntity
  8
21
100
AcDbLine
 10
611.5286347070141
 20
27.5
 30
0.0
 11
646.5286347070141
 21
27.5
 31
0.0
  0
CIRCLE
  5
74FF
330
1E
100
AcDbEntity
  8
24
  6
CONTINOUS
100
AcDbCircle
 10
586.5286347070141
 20
45.0
 30
0.0
 40
6.0
  0
CIRCLE
  5
7500
330
1E
100
AcDbEntity
  8
24
  6
CONTINOUS
100
AcDbCircle
 10
631.5286347070141
 20
75.0
 30
0.0
 40
6.0
  0
LINE
  5
7501
330
1E
100
AcDbEntity
  8
21
100
AcDbLine
 10
611.5286347070141
 20
92.5
 30
0.0
 11
646.5286347070141
 21
92.5
 31
0.0
  0
CIRCLE
  5
7502
330
1E
100
AcDbEntity
  8
24
  6
CONTINOUS
100
AcDbCircle
 10
586.5286347070141
 20
75.0
 30
0.0
 40
6.0
  0
LINE
  5
7503
330
1E
100
AcDbEntity
  8
24
  6
CONTINOUS
100
AcDbLine
 10
501.5286347070141
 20
60.0
 30
0.0
 11
696.5286347070141
 21
60.0
 31
0.0
  0
LINE
  5
7505
330
1E
100
AcDbEntity
  8
24
  6
CONTINOUS
100
AcDbLine
 10
616.5286347070141
 20
75.0
 30
0.0
 11
646.5286347070141
 21
75.0
 31
0.0
  0
LINE
  5
7506
330
1E
100
AcDbEntity
  8
24
  6
CONTINOUS
100
AcDbLine
 10
616.5286347070141
 20
45.0
 30
0.0
 11
646.5286347070141
 21
45.0
 31
0.0
  0
CIRCLE
  5
7507
330
1E
100
AcDbEntity
  8
24
  6
CONTINOUS
100
AcDbCircle
 10
631.5286347070141
 20
-115.0
 30
0.0
 40
6.0
  0
LINE
  5
7508
330
1E
100
AcDbEntity
  8
24
  6
CONTINOUS
100
AcDbLine
 10
631.5286347070141
 20
-67.5
 30
0.0
 11
631.5286347070141
 21
-132.4999999999999
 31
0.0
  0
LINE
  5
7509
330
1E
100
AcDbEntity
  8
24
  6
CONTINOUS
100
AcDbLine
 10
586.5286347070141
 20
-67.5
 30
0.0
 11
586.5286347070141
 21
-132.4999999999999
 31
0.0
  0
CIRCLE
  5
750A
330
1E
100
AcDbEntity
  8
24
  6
CONTINOUS
100
AcDbCircle
 10
586.5286347070141
 20
-115.0
 30
0.0
 40
6.0
  0
LINE
  5
750B
330
1E
100
AcDbEntity
  8
21
100
AcDbLine
 10
601.5286347070141
 20
-132.4999999999999
 30
0.0
 11
601.5286347070141
 21
-67.5
 31
0.0
  0
LINE
  5
750C
330
1E
100
AcDbEntity
  8
24
  6
CONTINOUS
100
AcDbLine
 10
571.5286347070141
 20
-115.0
 30
0.0
 11
601.5286347070141
 21
-115.0
 31
0.0
  0
LINE
  5
750D
330
1E
100
AcDbEntity
  8
24
  6
CONTINOUS
100
AcDbLine
 10
571.5286347070141
 20
-85.0
 30
0.0
 11
601.5286347070141
 21
-85.0
 31
0.0
  0
CIRCLE
  5
750E
330
1E
100
AcDbEntity
  8
24
  6
CONTINOUS
100
AcDbCircle
 10
586.5286347070141
 20
-85.0
 30
0.0
 40
6.0
  0
CIRCLE
  5
750F
330
1E
100
AcDbEntity
  8
24
  6
CONTINOUS
100
AcDbCircle
 10
631.5286347070141
 20
-85.0
 30
0.0
 40
6.0
  0
LINE
  5
7510
330
1E
100
AcDbEntity
  8
24
  6
CONTINOUS
100
AcDbLine
 10
501.5286347070141
 20
-100.0
 30
0.0
 11
696.5286347070141
 21
-100.0
 31
0.0
  0
LINE
  5
7511
330
1E
100
AcDbEntity
  8
24
  6
CONTINOUS
100
AcDbLine
 10
616.5286347070141
 20
-115.0
 30
0.0
 11
646.5286347070141
 21
-115.0
 31
0.0
  0
LINE
  5
7512
330
1E
100
AcDbEntity
  8
24
  6
CONTINOUS
100
AcDbLine
 10
616.5286347070141
 20
-85.0
 30
0.0
 11
646.5286347070141
 21
-85.0
 31
0.0
  0
LINE
  5
7513
330
1E
100
AcDbEntity
  8
21
100
AcDbLine
 10
611.5286347070141
 20
-67.5
 30
0.0
 11
646.5286347070141
 21
-67.5
 31
0.0
  0
LINE
  5
7514
330
1E
100
AcDbEntity
  8
16
100
AcDbLine
 10
0.0
 20
-225.5943258971378
 30
0.0
 11
0.0
 21
190.1920729340395
 31
0.0
  0
DIMENSION
  5
7515
330
1E
100
AcDbEntity
  8
30
  6
CONTINUOUS
100
AcDbDimension
  2
*D28
 10
671.5008566829101
 20
44.99999999999999
 30
0.0
 11
668.0008566829101
 21
60.0000000000001
 31
0.0
 70
    32
  3
STANDARD
100
AcDbAlignedDimension
 13
646.5286347070141
 23
75.0
 33
0.0
 14
646.5286347070141
 24
45.0
 34
0.0
 50
90.0
100
AcDbRotatedDimension
  0
DIMENSION
  5
7522
330
1E
100
AcDbEntity
  8
30
  6
CONTINUOUS
100
AcDbDimension
  2
*D29
 10
684.8164810867501
 20
27.49999999999998
 30
0.0
 11
681.3164810867501
 21
60.0000000000001
 31
0.0
 70
    32
  3
STANDARD
100
AcDbAlignedDimension
 13
646.5286347070141
 23
92.5
 33
0.0
 14
646.5286347070141
 24
27.5
 34
0.0
 50
90.0
100
AcDbRotatedDimension
  0
DIMENSION
  5
752F
330
1E
100
AcDbEntity
  8
30
  6
CONTINUOUS
100
AcDbDimension
  2
*D30
 10
586.5286347070141
 20
-203.5059305795216
 30
0.0
 11
551.5286347070141
 21
-200.0059305795216
 31
0.0
 70
    32
  3
STANDARD
100
AcDbAlignedDimension
 13
516.5286347070141
 23
-170.0
 33
0.0
 14
586.5286347070141
 24
-132.4999999999999
 34
0.0
100
AcDbRotatedDimension
  0
DIMENSION
  5
753C
330
1E
100
AcDbEntity
  8
30
  6
CONTINUOUS
100
AcDbDimension
  2
*D31
 10
601.5286347070141
 20
-203.5059305795216
 30
0.0
 11
594.0286347070141
 21
-200.0059305795216
 31
0.0
 70
    32
  3
STANDARD
100
AcDbAlignedDimension
 13
586.5286347070141
 23
-132.4999999999999
 33
0.0
 14
601.5286347070141
 24
-132.4999999999999
 34
0.0
100
AcDbRotatedDimension
1001
ACAD
1000
DSTYLE
1002
{
1070
   287
1070
     4
1070
   287
1070
     4
1070
   279
1070
     1
1002
}
  0
DIMENSION
  5
7549
330
1E
100
AcDbEntity
  8
30
  6
CONTINUOUS
100
AcDbDimension
  2
*D32
 10
631.5286347070141
 20
-221.8035802060812
 30
0.0
 11
574.0286347070141
 21
-218.3035802060812
 31
0.0
 70
    32
  3
STANDARD
100
AcDbAlignedDimension
 13
516.5286347070141
 23
-171.0
 33
0.0
 14
631.5286347070141
 24
-132.4999999999999
 34
0.0
100
AcDbRotatedDimension
  0
DIMENSION
  5
7556
330
1E
100
AcDbEntity
  8
30
  6
CONTINUOUS
100
AcDbDimension
  2
*D33
 10
646.5286347070141
 20
-221.8035802060812
 30
0.0
 11
639.0286347070141
 21
-218.3035802060812
 31
0.0
 70
    32
  3
STANDARD
100
AcDbAlignedDimension
 13
631.5286347070141
 23
-132.4999999999999
 33
0.0
 14
646.5286347070141
 24
-132.4999999999999
 34
0.0
100
AcDbRotatedDimension
1001
ACAD
1000
DSTYLE
1002
{
1070
   287
1070
     4
1070
   287
1070
     4
1070
   279
1070
     1
1002
}
  0
DIMENSION
  5
7563
330
1E
100
AcDbEntity
  8
30
  6
CONTINUOUS
100
AcDbDimension
  2
*D34
 10
646.5286347070141
 20
-241.7646505505822
 30
0.0
 11
581.5286347070141
 21
-238.2646505505822
 31
0.0
 70
    32
  3
STANDARD
100
AcDbAlignedDimension
 13
516.5286347070141
 23
-179.0
 33
0.0
 14
646.5286347070141
 24
-132.4999999999999
 34
0.0
100
AcDbRotatedDimension
  0
DIMENSION
  5
7586
330
1E
100
AcDbEntity
  8
30
  6
CONTINUOUS
100
AcDbDimension
  2
*D36
 10
0.0000000000000013
 20
667.6380778065358
 30
0.0
 11
-34.99993896482499
 21
671.1380778065358
 31
0.0
 70
    32
  3
STANDARD
100
AcDbAlignedDimension
 13
-69.99987792964998
 23
601.1514359345528
 33
0.0
 14
0.0
 24
646.1514359345528
 34
0.0
100
AcDbRotatedDimension
  0
DIMENSION
  5
7593
330
1E
100
AcDbEntity
  8
30
  6
CONTINUOUS
100
AcDbDimension
  2
*D37
 10
70.0
 20
667.6380778065358
 30
0.0
 11
35.0
 21
671.1380778065358
 31
0.0
 70
    32
  3
STANDARD
100
AcDbAlignedDimension
 13
0.0
 23
646.1514359345528
 33
0.0
 14
70.0
 24
601.1514359345528
 34
0.0
100
AcDbRotatedDimension
1001
ACAD
1000
DSTYLE
1002
{
1070
   287
1070
     4
1070
   287
1070
     4
1070
   279
1070
     1
1002
}
  0
LEADER
  5
7727
330
1E
100
AcDbEntity
  8
30
  6
CONTINUOUS
100
AcDbLeader
  3
STANDARD
 73
     0
 40
5.0
 76
     3
 10
589.9232410401801
 20
79.44074386051579
 30
0.0
 10
598.4168899646065
 20
108.02312234303
 30
0.0
 10
617.1923373664631
 20
108.02312234303
 30
0.0
340
7728
213
0.0
223
-2.5
233
0.0
1001
ACAD
1000
DSTYLE
1002
{
1070
     5
1000
OPEN
1070
    77
1070
     0
1070
   147
1040
1.0
1002
}
  0
MTEXT
  5
7728
102
{ACAD_REACTORS
330
7727
102
}
330
1E
100
AcDbEntity
  8
30
  6
CONTINUOUS
100
AcDbMText
 10
618.1923373664631
 20
110.52312234303
 30
0.0
 40
5.0
 41
0.0
 71
     1
 72
     1
  1
\A1;
1001
ACAD
1000
MTEXTBEGIN
1070
    73
1070
     1
1070
    44
1040
1.0
1070
    74
1070
     0
1000
MTEXTEND
  0
TEXT
  5
772B
330
1E
100
AcDbEntity
  8
30
  6
CONTINUOUS
100
AcDbText
 10
601.0990925414671
 20
109.3629231845447
 30
0.0
 40
5.0
  1
%%C12
  7
STANDARD1
100
AcDbText
  0
DIMENSION
  5
772C
330
1E
100
AcDbEntity
  8
30
  6
CONTINUOUS
100
AcDbDimension
  2
*D38
 10
708.4208925106841
 20
-0.0000000000000453
 30
0.0
 11
704.9208925106841
 21
30.00000000000008
 31
0.0
 70
    32
  3
STANDARD
100
AcDbAlignedDimension
 13
684.8164810867501
 23
60.0
 33
0.0
 14
548.5286347070141
 24
0.0
 34
0.0
 50
90.0
100
AcDbRotatedDimension
  0
DIMENSION
  5
7739
330
1E
100
AcDbEntity
  8
30
  6
CONTINUOUS
100
AcDbDimension
  2
*D39
 10
708.4208925106841
 20
-100.0
 30
0.0
 11
704.9208925106841
 21
-49.99999999999991
 31
0.0
 70
    32
  3
STANDARD
100
AcDbAlignedDimension
 13
548.5286347070141
 23
0.0
 33
0.0
 14
696.5286347070141
 24
-100.0
 34
0.0
 50
90.0
100
AcDbRotatedDimension
1001
ACAD
1000
DSTYLE
1002
{
1070
   287
1070
     4
1070
   279
1070
     1
1002
}
  0
VIEWPORT
  5
9AC
330
1A
100
AcDbEntity
 67
     1
  8
0
  6
CONTINUOUS
100
AcDbViewport
 10
208.9465890368148
 20
144.1384735538403
 30
0.0
 40
562.7617940927827
 41
292.3514905034161
 68
     1
 69
     1
1001
ACAD
1000
MVIEW
1002
{
1070
    16
1010
0.0
1020
0.0
1030
0.0
1010
0.0
1020
0.0
1030
1.0
1040
0.0
1040
292.3514905034161
1040
208.9465890368148
1040
144.1384735538403
1040
50.0
1040
0.0
1040
0.0
1070
     0
1070
   100
1070
     1
1070
     1
1070
     0
1070
     0
1070
     0
1070
     0
1040
0.0
1040
0.0
1040
0.0
1040
10.0
1040
10.0
1040
10.0
1040
10.0
1070
     0
1002
{
1002
}
1002
}
  0
ENDSEC
  0
SECTION
  2
OBJECTS
  0
DICTIONARY
  5
C
330
0
100
AcDbDictionary
  3
ACAD_GROUP
350
D
  3
ACAD_LAYOUT
350
19
  3
ACAD_MLINESTYLE
350
16
  3
ACAD_PLOTSETTINGS
350
18
  3
ACAD_PLOTSTYLENAME
350
E
  3
ACADDIM
350
7729
  3
ACDBHEADERROUNDTRIPXREC
350
774E
  3
ACDBVARIABLEDICTIONARY
350
6C1E
  0
DICTIONARY
  5
178
330
1E
100
AcDbDictionary
280
     1
  3
ACAD_LAYOUTSELFREF
360
7770
  0
DICTIONARY
  5
17A
330
1A
100
AcDbDictionary
280
     1
  3
ACAD_LAYOUTSELFREF
360
776F
  0
DICTIONARY
  5
D
102
{ACAD_REACTORS
330
C
102
}
330
C
100
AcDbDictionary
  0
DICTIONARY
  5
19
102
{ACAD_REACTORS
330
C
102
}
330
C
100
AcDbDictionary
  0
DICTIONARY
  5
16
102
{ACAD_REACTORS
330
C
102
}
330
C
100
AcDbDictionary
  3
STANDARD
350
17
  0
DICTIONARY
  5
18
102
{ACAD_REACTORS
330
C
102
}
330
C
100
AcDbDictionary
  0
ACDBDICTIONARYWDFLT
  5
E
102
{ACAD_REACTORS
330
C
102
}
330
C
100
AcDbDictionary
281
     1
  3
Normal
350
F
100
AcDbDictionaryWithDefault
340
F
  0
XRECORD
  5
7729
102
{ACAD_REACTORS
330
C
102
}
330
C
100
AcDbXrecord
 90
   990106
  3

 60
     0
 61
     0
 62
     1
 63
     3
 64
     0
 65
     0
 66
     0
 67
     3
 68
     1
 69
     0
 70
     0
 71
     0
 72
     0
 40
0.0
170
     0
340
7728
  0
DICTIONARY
  5
774E
102
{ACAD_REACTORS
330
C
102
}
330
C
100
AcDbDictionary
  3
CEPSNTYPE
350
7758
  3
DIMSTYLEDATA
350
775C
  3
FINGERPRINTGUID
350
7759
  3
HYPERLINKBASE
350
7751
  3
INSUNITS
350
7757
  3
LAYOUTDICT
350
7753
  3
LWETCUNION
350
7756
  3
PLOTSETDICT
350
7754
  3
PLOTSTYLNAMDICT
350
7755
  3
PSVPSCALE
350
775B
  3
PUCSBASE
350
775F
  3
PUCSORGBACK
350
7765
  3
PUCSORGBOTTOM
350
7761
  3
PUCSORGFRONT
350
7764
  3
PUCSORGLEFT
350
7762
  3
PUCSORGRIGHT
350
7763
  3
PUCSORGTOP
350
7760
  3
PUCSORTHOREF
350
775D
  3
PUCSORTHOVIEW
350
775E
  3
STYLESHEET
350
7752
  3
TSTACKALIGN
350
774F
  3
TSTACKSIZE
350
7750
  3
UCSBASE
350
7768
  3
UCSORGBACK
350
776E
  3
UCSORGBOTTOM
350
776A
  3
UCSORGFRONT
350
776D
  3
UCSORGLEFT
350
776B
  3
UCSORGRIGHT
350
776C
  3
UCSORGTOP
350
7769
  3
UCSORTHOREF
350
7766
  3
UCSORTHOVIEW
350
7767
  3
VERSIONGUID
350
775A
  0
DICTIONARY
  5
6C1E
102
{ACAD_REACTORS
330
C
102
}
330
C
100
AcDbDictionary
  3
DIMASSOC
350
7747
  3
SORTENTS
350
6C1F
  0
XRECORD
  5
7770
102
{ACAD_REACTORS
330
178
102
}
330
178
100
AcDbXrecord
340
1E
  0
XRECORD
  5
776F
102
{ACAD_REACTORS
330
17A
102
}
330
17A
100
AcDbXrecord
340
1A
  0
MLINESTYLE
  5
17
102
{ACAD_REACTORS
330
16
102
}
330
16
100
AcDbMlineStyle
  2
STANDARD
 70
     0
  3

 62
   256
 51
90.0
 52
90.0
 71
     2
 49
0.5
 62
   256
  6
BYLAYER
 49
-0.5
 62
   256
  6
BYLAYER
  0
ACDBPLACEHOLDER
  5
F
102
{ACAD_REACTORS
330
E
102
}
330
E
100
AcDbPlaceHolder
280
     0
  0
XRECORD
  5
7758
102
{ACAD_REACTORS
330
774E
102
}
330
774E
100
AcDbXrecord
 90
        0
  0
XRECORD
  5
775C
102
{ACAD_REACTORS
330
774E
102
}
330
774E
100
AcDbXrecord
1000
DSTYLE
1002
{
1070
    79
 70
     3
1070
   341
340
3B2
1070
   342
340
3B2
1002
}
  0
XRECORD
  5
7759
102
{ACAD_REACTORS
330
774E
102
}
330
774E
100
AcDbXrecord
  1

  0
XRECORD
  5
7751
102
{ACAD_REACTORS
330
774E
102
}
330
774E
100
AcDbXrecord
  1

  0
XRECORD
  5
7757
102
{ACAD_REACTORS
330
774E
102
}
330
774E
100
AcDbXrecord
 90
        0
  0
XRECORD
  5
7753
102
{ACAD_REACTORS
330
774E
102
}
330
774E
100
AcDbXrecord
340
19
  0
XRECORD
  5
7756
102
{ACAD_REACTORS
330
774E
102
}
330
774E
100
AcDbXrecord
 90
    10781
  0
XRECORD
  5
7754
102
{ACAD_REACTORS
330
774E
102
}
330
774E
100
AcDbXrecord
340
18
  0
XRECORD
  5
7755
102
{ACAD_REACTORS
330
774E
102
}
330
774E
100
AcDbXrecord
340
E
  0
XRECORD
  5
775B
102
{ACAD_REACTORS
330
774E
102
}
330
774E
100
AcDbXrecord
 40
0.0
  0
XRECORD
  5
775F
102
{ACAD_REACTORS
330
774E
102
}
330
774E
100
AcDbXrecord
340
0
  0
XRECORD
  5
7765
102
{ACAD_REACTORS
330
774E
102
}
330
774E
100
AcDbXrecord
 10
0.0
 20
0.0
 30
0.0
  0
XRECORD
  5
7761
102
{ACAD_REACTORS
330
774E
102
}
330
774E
100
AcDbXrecord
 10
0.0
 20
0.0
 30
0.0
  0
XRECORD
  5
7764
102
{ACAD_REACTORS
330
774E
102
}
330
774E
100
AcDbXrecord
 10
0.0
 20
0.0
 30
0.0
  0
XRECORD
  5
7762
102
{ACAD_REACTORS
330
774E
102
}
330
774E
100
AcDbXrecord
 10
0.0
 20
0.0
 30
0.0
  0
XRECORD
  5
7763
102
{ACAD_REACTORS
330
774E
102
}
330
774E
100
AcDbXrecord
 10
0.0
 20
0.0
 30
0.0
  0
XRECORD
  5
7760
102
{ACAD_REACTORS
330
774E
102
}
330
774E
100
AcDbXrecord
 10
0.0
 20
0.0
 30
0.0
  0
XRECORD
  5
775D
102
{ACAD_REACTORS
330
774E
102
}
330
774E
100
AcDbXrecord
340
0
  0
XRECORD
  5
775E
102
{ACAD_REACTORS
330
774E
102
}
330
774E
100
AcDbXrecord
 70
     0
  0
XRECORD
  5
7752
102
{ACAD_REACTORS
330
774E
102
}
330
774E
100
AcDbXrecord
  1
kiki.ctb
  0
XRECORD
  5
774F
102
{ACAD_REACTORS
330
774E
102
}
330
774E
100
AcDbXrecord
 90
        1
  0
XRECORD
  5
7750
102
{ACAD_REACTORS
330
774E
102
}
330
774E
100
AcDbXrecord
 90
       70
  0
XRECORD
  5
7768
102
{ACAD_REACTORS
330
774E
102
}
330
774E
100
AcDbXrecord
340
0
  0
XRECORD
  5
776E
102
{ACAD_REACTORS
330
774E
102
}
330
774E
100
AcDbXrecord
 10
0.0
 20
0.0
 30
0.0
  0
XRECORD
  5
776A
102
{ACAD_REACTORS
330
774E
102
}
330
774E
100
AcDbXrecord
 10
0.0
 20
0.0
 30
0.0
  0
XRECORD
  5
776D
102
{ACAD_REACTORS
330
774E
102
}
330
774E
100
AcDbXrecord
 10
0.0
 20
0.0
 30
0.0
  0
XRECORD
  5
776B
102
{ACAD_REACTORS
330
774E
102
}
330
774E
100
AcDbXrecord
 10
0.0
 20
0.0
 30
0.0
  0
XRECORD
  5
776C
102
{ACAD_REACTORS
330
774E
102
}
330
774E
100
AcDbXrecord
 10
0.0
 20
0.0
 30
0.0
  0
XRECORD
  5
7769
102
{ACAD_REACTORS
330
774E
102
}
330
774E
100
AcDbXrecord
 10
0.0
 20
0.0
 30
0.0
  0
XRECORD
  5
7766
102
{ACAD_REACTORS
330
774E
102
}
330
774E
100
AcDbXrecord
340
0
  0
XRECORD
  5
7767
102
{ACAD_REACTORS
330
774E
102
}
330
774E
100
AcDbXrecord
 70
     0
  0
XRECORD
  5
775A
102
{ACAD_REACTORS
330
774E
102
}
330
774E
100
AcDbXrecord
  1
{1276E9A8-4143-42F5-B9BC-6FDB4C44743A}
  0
DICTIONARYVAR
  5
7747
102
{ACAD_REACTORS
330
6C1E
102
}
330
6C1E
100
DictionaryVariables
280
     0
  1
1
  0
DICTIONARYVAR
  5
6C1F
102
{ACAD_REACTORS
330
6C1E
102
}
330
6C1E
100
DictionaryVariables
280
     0
  1
96
  0
ENDSEC
  0
EOF
