  0
SECTION
  2
HEADER
  9
$ACADVER
  1
AC1014
  9
$ACADMAINTVER
 70
     9
  9
$DWGCODEPAGE
  3
ANSI_932
  9
$INSBASE
 10
0.0
 20
0.0
 30
0.0
  9
$EXTMIN
 10
-210.0510884674136
 20
-820.9587778946975
 30
-0.0000000000000129
  9
$EXTMAX
 10
642.7613487489816
 20
639.0672823506556
 30
0.0000000000000023
  9
$LIMMIN
 10
-302.0
 20
-689.0
  9
$LIMMAX
 10
615.0
 20
462.0
  9
$ORTHOMODE
 70
     1
  9
$REGENMODE
 70
     1
  9
$FILLMODE
 70
     1
  9
$QTEXTMODE
 70
     0
  9
$MIRRTEXT
 70
     1
  9
$DRAGMODE
 70
     2
  9
$LTSCALE
 40
10.0
  9
$OSMODE
 70
    37
  9
$ATTMODE
 70
     1
  9
$TEXTSIZE
 40
5.0
  9
$TRACEWID
 40
0.05
  9
$TEXTSTYLE
  7
STANDARD1
  9
$CLAYER
  8
30
  9
$CELTYPE
  6
CONTINUOUS
  9
$CECOLOR
 62
   256
  9
$CELTSCALE
 40
1.0
  9
$DELOBJ
 70
     1
  9
$DISPSILH
 70
     0
  9
$DIMSCALE
 40
1.0
  9
$DIMASZ
 40
2.0
  9
$DIMEXO
 40
1.0
  9
$DIMDLI
 40
0.5
  9
$DIMRND
 40
0.0
  9
$DIMDLE
 40
0.0
  9
$DIMEXE
 40
0.5
  9
$DIMTP
 40
0.0
  9
$DIMTM
 40
0.0
  9
$DIMTXT
 40
5.0
  9
$DIMCEN
 40
0.09
  9
$DIMTSZ
 40
0.0
  9
$DIMTOL
 70
     0
  9
$DIMLIM
 70
     0
  9
$DIMTIH
 70
     0
  9
$DIMTOH
 70
     1
  9
$DIMSE1
 70
     0
  9
$DIMSE2
 70
     0
  9
$DIMTAD
 70
     3
  9
$DIMZIN
 70
    12
  9
$DIMBLK
  1
OPEN
  9
$DIMASO
 70
     1
  9
$DIMSHO
 70
     1
  9
$DIMPOST
  1

  9
$DIMAPOST
  1

  9
$DIMALT
 70
     0
  9
$DIMALTD
 70
     2
  9
$DIMALTF
 40
25.4
  9
$DIMLFAC
 40
1.0
  9
$DIMTOFL
 70
     0
  9
$DIMTVP
 40
0.0
  9
$DIMTIX
 70
     0
  9
$DIMSOXD
 70
     0
  9
$DIMSAH
 70
     0
  9
$DIMBLK1
  1

  9
$DIMBLK2
  1

  9
$DIMSTYLE
  2
STANDARD
  9
$DIMCLRD
 70
     0
  9
$DIMCLRE
 70
     0
  9
$DIMCLRT
 70
     0
  9
$DIMTFAC
 40
1.0
  9
$DIMGAP
 40
1.0
  9
$DIMJUST
 70
     0
  9
$DIMSD1
 70
     0
  9
$DIMSD2
 70
     0
  9
$DIMTOLJ
 70
     1
  9
$DIMTZIN
 70
     0
  9
$DIMALTZ
 70
     0
  9
$DIMALTTZ
 70
     0
  9
$DIMFIT
 70
     3
  9
$DIMUPT
 70
     0
  9
$DIMUNIT
 70
     2
  9
$DIMDEC
 70
     1
  9
$DIMTDEC
 70
     1
  9
$DIMALTU
 70
     2
  9
$DIMALTTD
 70
     2
  9
$DIMTXSTY
  7
STANDARD
  9
$DIMAUNIT
 70
     0
  9
$LUNITS
 70
     2
  9
$LUPREC
 70
     4
  9
$SKETCHINC
 40
0.1
  9
$FILLETRAD
 40
0.0
  9
$AUNITS
 70
     0
  9
$AUPREC
 70
     0
  9
$MENU
  1
.
  9
$ELEVATION
 40
0.0
  9
$PELEVATION
 40
0.0
  9
$THICKNESS
 40
0.0
  9
$LIMCHECK
 70
     0
  9
$BLIPMODE
 70
     0
  9
$CHAMFERA
 40
0.0
  9
$CHAMFERB
 40
0.0
  9
$CHAMFERC
 40
0.0
  9
$CHAMFERD
 40
0.0
  9
$SKPOLY
 70
     0
  9
$TDCREATE
 40
2452286.555658657
  9
$TDUPDATE
 40
2453113.450040682
  9
$TDINDWG
 40
1.4294328819
  9
$TDUSRTIMER
 40
1.4294328819
  9
$USRTIMER
 70
     1
  9
$ANGBASE
 50
0.0
  9
$ANGDIR
 70
     0
  9
$PDMODE
 70
     0
  9
$PDSIZE
 40
0.0
  9
$PLINEWID
 40
0.0
  9
$COORDS
 70
     1
  9
$SPLFRAME
 70
     0
  9
$SPLINETYPE
 70
     6
  9
$SPLINESEGS
 70
     8
  9
$ATTDIA
 70
     0
  9
$ATTREQ
 70
     1
  9
$HANDLING
 70
 22529
  9
$HANDSEED
  5
76C9
  9
$SURFTAB1
 70
     6
  9
$SURFTAB2
 70
     6
  9
$SURFTYPE
 70
     6
  9
$SURFU
 70
     6
  9
$SURFV
 70
     6
  9
$UCSNAME
  2

  9
$UCSORG
 10
0.0
 20
0.0
 30
0.0
  9
$UCSXDIR
 10
1.0
 20
0.0
 30
0.0
  9
$UCSYDIR
 10
0.0
 20
1.0
 30
0.0
  9
$PUCSNAME
  2

  9
$PUCSORG
 10
0.0
 20
0.0
 30
0.0
  9
$PUCSXDIR
 10
1.0
 20
0.0
 30
0.0
  9
$PUCSYDIR
 10
0.0
 20
1.0
 30
0.0
  9
$USERI1
 70
     0
  9
$USERI2
 70
     0
  9
$USERI3
 70
     0
  9
$USERI4
 70
     0
  9
$USERI5
 70
     0
  9
$USERR1
 40
0.0
  9
$USERR2
 40
0.0
  9
$USERR3
 40
0.0
  9
$USERR4
 40
0.0
  9
$USERR5
 40
0.0
  9
$WORLDVIEW
 70
     1
  9
$SHADEDGE
 70
     3
  9
$SHADEDIF
 70
    70
  9
$TILEMODE
 70
     1
  9
$MAXACTVP
 70
    48
  9
$PINSBASE
 10
0.0
 20
0.0
 30
0.0
  9
$PLIMCHECK
 70
     0
  9
$PEXTMIN
 10
4.273573370203962
 20
5.205246163471485
 30
0.0
  9
$PEXTMAX
 10
194.6100952986349
 20
283.0697008572913
 30
0.0
  9
$PLIMMIN
 10
-5.873748779296875
 20
-5.873749732971191
  9
$PLIMMAX
 10
204.0995788574218
 20
291.1369009017944
  9
$UNITMODE
 70
     0
  9
$VISRETAIN
 70
     1
  9
$PLINEGEN
 70
     0
  9
$PSLTSCALE
 70
     1
  9
$TREEDEPTH
 70
  3020
  9
$PICKSTYLE
 70
     1
  9
$CMLSTYLE
  2
STANDARD
  9
$CMLJUST
 70
     0
  9
$CMLSCALE
 40
1.0
  9
$PROXYGRAPHICS
 70
     1
  9
$MEASUREMENT
 70
     0
  0
ENDSEC
  0
SECTION
  2
CLASSES
  0
CLASS
  1
ACDBDICTIONARYWDFLT
  2
AcDbDictionaryWithDefault
  3
AutoCAD 2000
 90
        0
280
     0
281
     0
  0
CLASS
  1
ACDBPLACEHOLDER
  2
AcDbPlaceHolder
  3
AutoCAD 2000
 90
        0
280
     0
281
     0
  0
CLASS
  1
LAYOUT
  2
AcDbLayout
  3
AutoCAD 2000
 90
        0
280
     0
281
     0
  0
CLASS
  1
LONG_TRANSACTION
  2
AcDbLongTransaction
  3
AutoCAD 2000
 90
        0
280
     0
281
     0
  0
CLASS
  1
LWPOLYLINE
  2
AcDbPolyline
  3
AutoCAD 2000
 90
        0
280
     0
281
     1
  0
CLASS
  1
HATCH
  2
AcDbHatch
  3
AutoCAD 2000
 90
        0
280
     0
281
     1
  0
CLASS
  1
XRECORD
  2
AcDbXrecord
  3
AutoCAD 2000
 90
        0
280
     0
281
     0
  0
CLASS
  1
LONG_TRANSACTION
  2
AcDbLongTransaction
  3
AutoCAD 2000
 90
        0
280
     0
281
     0
  0
CLASS
  1
LWPOLYLINE
  2
AcDbPolyline
  3
AutoCAD 2000
 90
        0
280
     0
281
     1
  0
CLASS
  1
HATCH
  2
AcDbHatch
  3
AutoCAD 2000
 90
        0
280
     0
281
     1
  0
CLASS
  1
XRECORD
  2
AcDbXrecord
  3
AutoCAD 2000
 90
        0
280
     0
281
     0
  0
CLASS
  1
LONG_TRANSACTION
  2
AcDbLongTransaction
  3
AutoCAD 2000
 90
        0
280
     0
281
     0
  0
CLASS
  1
LWPOLYLINE
  2
AcDbPolyline
  3
AutoCAD 2000
 90
        0
280
     0
281
     1
  0
CLASS
  1
HATCH
  2
AcDbHatch
  3
AutoCAD 2000
 90
        0
280
     0
281
     1
  0
CLASS
  1
XRECORD
  2
AcDbXrecord
  3
AutoCAD 2000
 90
        0
280
     0
281
     0
  0
CLASS
  1
LONG_TRANSACTION
  2
AcDbLongTransaction
  3
AutoCAD 2000
 90
        0
280
     0
281
     0
  0
CLASS
  1
LWPOLYLINE
  2
AcDbPolyline
  3
AutoCAD 2000
 90
        0
280
     0
281
     1
  0
CLASS
  1
HATCH
  2
AcDbHatch
  3
AutoCAD 2000
 90
        0
280
     0
281
     1
  0
CLASS
  1
XRECORD
  2
AcDbXrecord
  3
AutoCAD 2000
 90
        0
280
     0
281
     0
  0
CLASS
  1
LONG_TRANSACTION
  2
AcDbLongTransaction
  3
AutoCAD 2000
 90
        0
280
     0
281
     0
  0
CLASS
  1
LWPOLYLINE
  2
AcDbPolyline
  3
AutoCAD 2000
 90
        0
280
     0
281
     1
  0
CLASS
  1
HATCH
  2
AcDbHatch
  3
AutoCAD 2000
 90
        0
280
     0
281
     1
  0
CLASS
  1
XRECORD
  2
AcDbXrecord
  3
AutoCAD 2000
 90
        0
280
     0
281
     0
  0
CLASS
  1
LONG_TRANSACTION
  2
AcDbLongTransaction
  3
AutoCAD 2000
 90
        0
280
     0
281
     0
  0
CLASS
  1
LWPOLYLINE
  2
AcDbPolyline
  3
AutoCAD 2000
 90
        0
280
     0
281
     1
  0
CLASS
  1
HATCH
  2
AcDbHatch
  3
AutoCAD 2000
 90
        0
280
     0
281
     1
  0
CLASS
  1
XRECORD
  2
AcDbXrecord
  3
AutoCAD 2000
 90
        0
280
     0
281
     0
  0
CLASS
  1
LONG_TRANSACTION
  2
AcDbLongTransaction
  3
AutoCAD 2000
 90
        0
280
     0
281
     0
  0
CLASS
  1
LWPOLYLINE
  2
AcDbPolyline
  3
AutoCAD 2000
 90
        0
280
     0
281
     1
  0
CLASS
  1
HATCH
  2
AcDbHatch
  3
AutoCAD 2000
 90
        0
280
     0
281
     1
  0
CLASS
  1
XRECORD
  2
AcDbXrecord
  3
AutoCAD 2000
 90
        0
280
     0
281
     0
  0
CLASS
  1
LONG_TRANSACTION
  2
AcDbLongTransaction
  3
AutoCAD 2000
 90
        0
280
     0
281
     0
  0
CLASS
  1
LWPOLYLINE
  2
AcDbPolyline
  3
AutoCAD 2000
 90
        0
280
     0
281
     1
  0
CLASS
  1
HATCH
  2
AcDbHatch
  3
AutoCAD 2000
 90
        0
280
     0
281
     1
  0
CLASS
  1
XRECORD
  2
AcDbXrecord
  3
AutoCAD 2000
 90
        0
280
     0
281
     0
  0
CLASS
  1
LONG_TRANSACTION
  2
AcDbLongTransaction
  3
AutoCAD 2000
 90
        0
280
     0
281
     0
  0
CLASS
  1
LWPOLYLINE
  2
AcDbPolyline
  3
AutoCAD 2000
 90
        0
280
     0
281
     1
  0
CLASS
  1
HATCH
  2
AcDbHatch
  3
AutoCAD 2000
 90
        0
280
     0
281
     1
  0
CLASS
  1
XRECORD
  2
AcDbXrecord
  3
AutoCAD 2000
 90
        0
280
     0
281
     0
  0
CLASS
  1
LONG_TRANSACTION
  2
AcDbLongTransaction
  3
AutoCAD 2000
 90
        0
280
     0
281
     0
  0
CLASS
  1
LWPOLYLINE
  2
AcDbPolyline
  3
AutoCAD 2000
 90
        0
280
     0
281
     1
  0
CLASS
  1
HATCH
  2
AcDbHatch
  3
AutoCAD 2000
 90
        0
280
     0
281
     1
  0
CLASS
  1
XRECORD
  2
AcDbXrecord
  3
AutoCAD 2000
 90
        0
280
     0
281
     0
  0
CLASS
  1
LONG_TRANSACTION
  2
AcDbLongTransaction
  3
AutoCAD 2000
 90
        0
280
     0
281
     0
  0
CLASS
  1
LWPOLYLINE
  2
AcDbPolyline
  3
AutoCAD 2000
 90
        0
280
     0
281
     1
  0
CLASS
  1
HATCH
  2
AcDbHatch
  3
AutoCAD 2000
 90
        0
280
     0
281
     1
  0
CLASS
  1
XRECORD
  2
AcDbXrecord
  3
AutoCAD 2000
 90
        0
280
     0
281
     0
  0
CLASS
  1
LONG_TRANSACTION
  2
AcDbLongTransaction
  3
AutoCAD 2000
 90
        0
280
     0
281
     0
  0
CLASS
  1
LWPOLYLINE
  2
AcDbPolyline
  3
AutoCAD 2000
 90
        0
280
     0
281
     1
  0
CLASS
  1
HATCH
  2
AcDbHatch
  3
AutoCAD 2000
 90
        0
280
     0
281
     1
  0
CLASS
  1
XRECORD
  2
AcDbXrecord
  3
AutoCAD 2000
 90
        0
280
     0
281
     0
  0
CLASS
  1
LONG_TRANSACTION
  2
AcDbLongTransaction
  3
AutoCAD 2000
 90
        0
280
     0
281
     0
  0
CLASS
  1
LWPOLYLINE
  2
AcDbPolyline
  3
AutoCAD 2000
 90
        0
280
     0
281
     1
  0
CLASS
  1
HATCH
  2
AcDbHatch
  3
AutoCAD 2000
 90
        0
280
     0
281
     1
  0
CLASS
  1
XRECORD
  2
AcDbXrecord
  3
AutoCAD 2000
 90
        0
280
     0
281
     0
  0
CLASS
  1
LONG_TRANSACTION
  2
AcDbLongTransaction
  3
AutoCAD 2000
 90
        0
280
     0
281
     0
  0
CLASS
  1
LWPOLYLINE
  2
AcDbPolyline
  3
AutoCAD 2000
 90
        0
280
     0
281
     1
  0
CLASS
  1
HATCH
  2
AcDbHatch
  3
AutoCAD 2000
 90
        0
280
     0
281
     1
  0
CLASS
  1
XRECORD
  2
AcDbXrecord
  3
AutoCAD 2000
 90
        0
280
     0
281
     0
  0
CLASS
  1
LONG_TRANSACTION
  2
AcDbLongTransaction
  3
AutoCAD 2000
 90
        0
280
     0
281
     0
  0
CLASS
  1
LWPOLYLINE
  2
AcDbPolyline
  3
AutoCAD 2000
 90
        0
280
     0
281
     1
  0
CLASS
  1
HATCH
  2
AcDbHatch
  3
AutoCAD 2000
 90
        0
280
     0
281
     1
  0
CLASS
  1
XRECORD
  2
AcDbXrecord
  3
AutoCAD 2000
 90
        0
280
     0
281
     0
  0
CLASS
  1
LONG_TRANSACTION
  2
AcDbLongTransaction
  3
AutoCAD 2000
 90
        0
280
     0
281
     0
  0
CLASS
  1
LWPOLYLINE
  2
AcDbPolyline
  3
AutoCAD 2000
 90
        0
280
     0
281
     1
  0
CLASS
  1
HATCH
  2
AcDbHatch
  3
AutoCAD 2000
 90
        0
280
     0
281
     1
  0
CLASS
  1
XRECORD
  2
AcDbXrecord
  3
AutoCAD 2000
 90
        0
280
     0
281
     0
  0
CLASS
  1
LONG_TRANSACTION
  2
AcDbLongTransaction
  3
AutoCAD 2000
 90
        0
280
     0
281
     0
  0
CLASS
  1
LWPOLYLINE
  2
AcDbPolyline
  3
AutoCAD 2000
 90
        0
280
     0
281
     1
  0
CLASS
  1
HATCH
  2
AcDbHatch
  3
AutoCAD 2000
 90
        0
280
     0
281
     1
  0
CLASS
  1
XRECORD
  2
AcDbXrecord
  3
AutoCAD 2000
 90
        0
280
     0
281
     0
  0
CLASS
  1
LONG_TRANSACTION
  2
AcDbLongTransaction
  3
AutoCAD 2000
 90
        0
280
     0
281
     0
  0
CLASS
  1
LWPOLYLINE
  2
AcDbPolyline
  3
AutoCAD 2000
 90
        0
280
     0
281
     1
  0
CLASS
  1
HATCH
  2
AcDbHatch
  3
AutoCAD 2000
 90
        0
280
     0
281
     1
  0
CLASS
  1
XRECORD
  2
AcDbXrecord
  3
AutoCAD 2000
 90
        0
280
     0
281
     0
  0
CLASS
  1
LONG_TRANSACTION
  2
AcDbLongTransaction
  3
AutoCAD 2000
 90
        0
280
     0
281
     0
  0
CLASS
  1
LWPOLYLINE
  2
AcDbPolyline
  3
AutoCAD 2000
 90
        0
280
     0
281
     1
  0
CLASS
  1
HATCH
  2
AcDbHatch
  3
AutoCAD 2000
 90
        0
280
     0
281
     1
  0
CLASS
  1
XRECORD
  2
AcDbXrecord
  3
AutoCAD 2000
 90
        0
280
     0
281
     0
  0
CLASS
  1
LONG_TRANSACTION
  2
AcDbLongTransaction
  3
AutoCAD 2000
 90
        0
280
     0
281
     0
  0
CLASS
  1
LWPOLYLINE
  2
AcDbPolyline
  3
AutoCAD 2000
 90
        0
280
     0
281
     1
  0
CLASS
  1
HATCH
  2
AcDbHatch
  3
AutoCAD 2000
 90
        0
280
     0
281
     1
  0
CLASS
  1
XRECORD
  2
AcDbXrecord
  3
AutoCAD 2000
 90
        0
280
     0
281
     0
  0
CLASS
  1
LONG_TRANSACTION
  2
AcDbLongTransaction
  3
AutoCAD 2000
 90
        0
280
     0
281
     0
  0
CLASS
  1
LWPOLYLINE
  2
AcDbPolyline
  3
AutoCAD 2000
 90
        0
280
     0
281
     1
  0
CLASS
  1
HATCH
  2
AcDbHatch
  3
AutoCAD 2000
 90
        0
280
     0
281
     1
  0
CLASS
  1
XRECORD
  2
AcDbXrecord
  3
AutoCAD 2000
 90
        0
280
     0
281
     0
  0
CLASS
  1
LONG_TRANSACTION
  2
AcDbLongTransaction
  3
AutoCAD 2000
 90
        0
280
     0
281
     0
  0
CLASS
  1
LWPOLYLINE
  2
AcDbPolyline
  3
AutoCAD 2000
 90
        0
280
     0
281
     1
  0
CLASS
  1
HATCH
  2
AcDbHatch
  3
AutoCAD 2000
 90
        0
280
     0
281
     1
  0
CLASS
  1
XRECORD
  2
AcDbXrecord
  3
AutoCAD 2000
 90
        0
280
     0
281
     0
  0
CLASS
  1
LONG_TRANSACTION
  2
AcDbLongTransaction
  3
AutoCAD 2000
 90
        0
280
     0
281
     0
  0
CLASS
  1
LWPOLYLINE
  2
AcDbPolyline
  3
AutoCAD 2000
 90
        0
280
     0
281
     1
  0
CLASS
  1
HATCH
  2
AcDbHatch
  3
AutoCAD 2000
 90
        0
280
     0
281
     1
  0
CLASS
  1
XRECORD
  2
AcDbXrecord
  3
AutoCAD 2000
 90
        0
280
     0
281
     0
  0
CLASS
  1
LONG_TRANSACTION
  2
AcDbLongTransaction
  3
AutoCAD 2000
 90
        0
280
     0
281
     0
  0
CLASS
  1
LWPOLYLINE
  2
AcDbPolyline
  3
AutoCAD 2000
 90
        0
280
     0
281
     1
  0
CLASS
  1
HATCH
  2
AcDbHatch
  3
AutoCAD 2000
 90
        0
280
     0
281
     1
  0
CLASS
  1
XRECORD
  2
AcDbXrecord
  3
AutoCAD 2000
 90
        0
280
     0
281
     0
  0
CLASS
  1
LONG_TRANSACTION
  2
AcDbLongTransaction
  3
AutoCAD 2000
 90
        0
280
     0
281
     0
  0
CLASS
  1
LWPOLYLINE
  2
AcDbPolyline
  3
AutoCAD 2000
 90
        0
280
     0
281
     1
  0
CLASS
  1
HATCH
  2
AcDbHatch
  3
AutoCAD 2000
 90
        0
280
     0
281
     1
  0
CLASS
  1
XRECORD
  2
AcDbXrecord
  3
AutoCAD 2000
 90
        0
280
     0
281
     0
  0
CLASS
  1
LONG_TRANSACTION
  2
AcDbLongTransaction
  3
AutoCAD 2000
 90
        0
280
     0
281
     0
  0
CLASS
  1
LWPOLYLINE
  2
AcDbPolyline
  3
AutoCAD 2000
 90
        0
280
     0
281
     1
  0
CLASS
  1
HATCH
  2
AcDbHatch
  3
AutoCAD 2000
 90
        0
280
     0
281
     1
  0
CLASS
  1
XRECORD
  2
AcDbXrecord
  3
AutoCAD 2000
 90
        0
280
     0
281
     0
  0
CLASS
  1
LONG_TRANSACTION
  2
AcDbLongTransaction
  3
AutoCAD 2000
 90
        0
280
     0
281
     0
  0
CLASS
  1
LWPOLYLINE
  2
AcDbPolyline
  3
AutoCAD 2000
 90
        0
280
     0
281
     1
  0
CLASS
  1
HATCH
  2
AcDbHatch
  3
AutoCAD 2000
 90
        0
280
     0
281
     1
  0
CLASS
  1
XRECORD
  2
AcDbXrecord
  3
AutoCAD 2000
 90
        0
280
     0
281
     0
  0
CLASS
  1
LONG_TRANSACTION
  2
AcDbLongTransaction
  3
AutoCAD 2000
 90
        0
280
     0
281
     0
  0
CLASS
  1
LWPOLYLINE
  2
AcDbPolyline
  3
AutoCAD 2000
 90
        0
280
     0
281
     1
  0
CLASS
  1
HATCH
  2
AcDbHatch
  3
AutoCAD 2000
 90
        0
280
     0
281
     1
  0
CLASS
  1
XRECORD
  2
AcDbXrecord
  3
AutoCAD 2000
 90
        0
280
     0
281
     0
  0
CLASS
  1
LONG_TRANSACTION
  2
AcDbLongTransaction
  3
AutoCAD 2000
 90
        0
280
     0
281
     0
  0
CLASS
  1
LWPOLYLINE
  2
AcDbPolyline
  3
AutoCAD 2000
 90
        0
280
     0
281
     1
  0
CLASS
  1
HATCH
  2
AcDbHatch
  3
AutoCAD 2000
 90
        0
280
     0
281
     1
  0
CLASS
  1
XRECORD
  2
AcDbXrecord
  3
AutoCAD 2000
 90
        0
280
     0
281
     0
  0
CLASS
  1
LONG_TRANSACTION
  2
AcDbLongTransaction
  3
AutoCAD 2000
 90
        0
280
     0
281
     0
  0
CLASS
  1
LWPOLYLINE
  2
AcDbPolyline
  3
AutoCAD 2000
 90
        0
280
     0
281
     1
  0
CLASS
  1
HATCH
  2
AcDbHatch
  3
AutoCAD 2000
 90
        0
280
     0
281
     1
  0
CLASS
  1
XRECORD
  2
AcDbXrecord
  3
AutoCAD 2000
 90
        0
280
     0
281
     0
  0
CLASS
  1
LONG_TRANSACTION
  2
AcDbLongTransaction
  3
AutoCAD 2000
 90
        0
280
     0
281
     0
  0
CLASS
  1
LWPOLYLINE
  2
AcDbPolyline
  3
AutoCAD 2000
 90
        0
280
     0
281
     1
  0
CLASS
  1
HATCH
  2
AcDbHatch
  3
AutoCAD 2000
 90
        0
280
     0
281
     1
  0
CLASS
  1
XRECORD
  2
AcDbXrecord
  3
AutoCAD 2000
 90
        0
280
     0
281
     0
  0
CLASS
  1
LONG_TRANSACTION
  2
AcDbLongTransaction
  3
AutoCAD 2000
 90
        0
280
     0
281
     0
  0
CLASS
  1
LWPOLYLINE
  2
AcDbPolyline
  3
AutoCAD 2000
 90
        0
280
     0
281
     1
  0
CLASS
  1
HATCH
  2
AcDbHatch
  3
AutoCAD 2000
 90
        0
280
     0
281
     1
  0
CLASS
  1
XRECORD
  2
AcDbXrecord
  3
AutoCAD 2000
 90
        0
280
     0
281
     0
  0
CLASS
  1
LONG_TRANSACTION
  2
AcDbLongTransaction
  3
AutoCAD 2000
 90
        0
280
     0
281
     0
  0
CLASS
  1
LWPOLYLINE
  2
AcDbPolyline
  3
AutoCAD 2000
 90
        0
280
     0
281
     1
  0
CLASS
  1
HATCH
  2
AcDbHatch
  3
AutoCAD 2000
 90
        0
280
     0
281
     1
  0
CLASS
  1
XRECORD
  2
AcDbXrecord
  3
AutoCAD 2000
 90
        0
280
     0
281
     0
  0
CLASS
  1
LONG_TRANSACTION
  2
AcDbLongTransaction
  3
AutoCAD 2000
 90
        0
280
     0
281
     0
  0
CLASS
  1
LWPOLYLINE
  2
AcDbPolyline
  3
AutoCAD 2000
 90
        0
280
     0
281
     1
  0
CLASS
  1
HATCH
  2
AcDbHatch
  3
AutoCAD 2000
 90
        0
280
     0
281
     1
  0
CLASS
  1
XRECORD
  2
AcDbXrecord
  3
AutoCAD 2000
 90
        0
280
     0
281
     0
  0
CLASS
  1
LONG_TRANSACTION
  2
AcDbLongTransaction
  3
AutoCAD 2000
 90
        0
280
     0
281
     0
  0
CLASS
  1
LWPOLYLINE
  2
AcDbPolyline
  3
AutoCAD 2000
 90
        0
280
     0
281
     1
  0
CLASS
  1
HATCH
  2
AcDbHatch
  3
AutoCAD 2000
 90
        0
280
     0
281
     1
  0
CLASS
  1
XRECORD
  2
AcDbXrecord
  3
AutoCAD 2000
 90
        0
280
     0
281
     0
  0
CLASS
  1
DICTIONARYVAR
  2
AcDbDictionaryVar
  3
AutoCAD 2000
 90
        0
280
     0
281
     0
  0
CLASS
  1
LONG_TRANSACTION
  2
AcDbLongTransaction
  3
AutoCAD 2000
 90
        0
280
     0
281
     0
  0
CLASS
  1
LWPOLYLINE
  2
AcDbPolyline
  3
AutoCAD 2000
 90
        0
280
     0
281
     1
  0
CLASS
  1
HATCH
  2
AcDbHatch
  3
AutoCAD 2000
 90
        0
280
     0
281
     1
  0
CLASS
  1
XRECORD
  2
AcDbXrecord
  3
AutoCAD 2000
 90
        0
280
     0
281
     0
  0
ENDSEC
  0
SECTION
  2
TABLES
  0
TABLE
  2
VPORT
  5
8
330
0
100
AcDbSymbolTable
 70
     3
  0
VPORT
  5
768A
330
8
100
AcDbSymbolTableRecord
100
AcDbViewportTableRecord
  2
*ACTIVE
 70
     0
 10
0.0
 20
0.0
 11
1.0
 21
1.0
 12
216.3551301407839
 22
-90.94574777202092
 13
0.0
 23
0.0
 14
1.0
 24
1.0
 15
10.0
 25
10.0
 16
0.0
 26
0.0
 36
1.0
 17
0.0
 27
0.0
 37
0.0
 40
1477.759170288819
 41
1.924949290060851
 42
50.0
 43
0.0
 44
0.0
 50
0.0
 51
0.0
 71
     0
 72
   100
 73
     1
 74
     1
 75
     0
 76
     0
 77
     0
 78
     0
  0
ENDTAB
  0
TABLE
  2
LTYPE
  5
5
330
0
100
AcDbSymbolTable
 70
    13
  0
LTYPE
  5
13
330
5
100
AcDbSymbolTableRecord
100
AcDbLinetypeTableRecord
  2
BYBLOCK
 70
     0
  3

 72
    65
 73
     0
 40
0.0
  0
LTYPE
  5
14
330
5
100
AcDbSymbolTableRecord
100
AcDbLinetypeTableRecord
  2
BYLAYER
 70
     0
  3

 72
    65
 73
     0
 40
0.0
  0
LTYPE
  5
15
330
5
100
AcDbSymbolTableRecord
100
AcDbLinetypeTableRecord
  2
CONTINUOUS
 70
     0
  3
Solid line
 72
    65
 73
     0
 40
0.0
  0
LTYPE
  5
22
330
5
100
AcDbSymbolTableRecord
100
AcDbLinetypeTableRecord
  2
CONTINOUS
 70
     0
  3
Solid line
 72
    65
 73
     0
 40
0.0
  0
LTYPE
  5
23
330
5
100
AcDbSymbolTableRecord
100
AcDbLinetypeTableRecord
  2
DASHED
 70
     0
  3
__ __ __ __ __ __ __ __ __ __ __ __ __ __ __
 72
    65
 73
     2
 40
0.75
 49
0.5
 74
     0
 49
-0.25
 74
     0
  0
LTYPE
  5
24
330
5
100
AcDbSymbolTableRecord
100
AcDbLinetypeTableRecord
  2
DASHDOT
 70
     0
  3
__ . __ . __ . __ . __ . __ . __ . __ . __ . __
 72
    65
 73
     4
 40
1.0
 49
0.5
 74
     0
 49
-0.25
 74
     0
 49
0.0
 74
     0
 49
-0.25
 74
     0
  0
LTYPE
  5
4C47
330
5
100
AcDbSymbolTableRecord
100
AcDbLinetypeTableRecord
  2
DIVIDE
 70
     0
  3
Divide ____ . . ____ . . ____ . . ____ . . ____
 72
    65
 73
     6
 40
1.25
 49
0.5
 74
     0
 49
-0.25
 74
     0
 49
0.0
 74
     0
 49
-0.25
 74
     0
 49
0.0
 74
     0
 49
-0.25
 74
     0
  0
LTYPE
  5
4F58
330
5
100
AcDbSymbolTableRecord
100
AcDbLinetypeTableRecord
  2
D329
 70
     0
  3
IGESIN-LineFont-D329
 72
    65
 73
     2
 40
1.35
 49
0.75
 74
     0
 49
-0.6
 74
     0
  0
LTYPE
  5
5061
330
5
100
AcDbSymbolTableRecord
100
AcDbLinetypeTableRecord
  2
D341
 70
     0
  3
IGESIN-LineFont-D341
 72
    65
 73
     4
 40
9.449999999999999
 49
7.5
 74
     0
 49
-0.6
 74
     0
 49
0.75
 74
     0
 49
-0.6
 74
     0
  0
LTYPE
  5
60FF
330
5
100
AcDbSymbolTableRecord
100
AcDbLinetypeTableRecord
  2
D325
 70
     0
  3
IGESIN-LineFont-D325
 72
    65
 73
     2
 40
1.35
 49
0.75
 74
     0
 49
-0.6
 74
     0
  0
LTYPE
  5
6314
330
5
100
AcDbSymbolTableRecord
100
AcDbLinetypeTableRecord
  2
D131
 70
     0
  3
IGESIN-LineFont-D131
 72
    65
 73
     6
 40
11.29999999999999
 49
8.0
 74
     0
 49
-0.6
 74
     0
 49
0.75
 74
     0
 49
-0.6
 74
     0
 49
0.75
 74
     0
 49
-0.6
 74
     0
  0
LTYPE
  5
6795
330
5
100
AcDbSymbolTableRecord
100
AcDbLinetypeTableRecord
  2
D1559
 70
     0
  3
IGESIN-LineFont-D1559
 72
    65
 73
     2
 40
1.35
 49
0.75
 74
     0
 49
-0.6
 74
     0
  0
LTYPE
  5
68E2
330
5
100
AcDbSymbolTableRecord
100
AcDbLinetypeTableRecord
  2
D1101
 70
     0
  3
IGESIN-LineFont-D1101
 72
    65
 73
     6
 40
11.29999999999999
 49
8.0
 74
     0
 49
-0.6
 74
     0
 49
0.75
 74
     0
 49
-0.6
 74
     0
 49
0.75
 74
     0
 49
-0.6
 74
     0
  0
LTYPE
  5
7068
330
5
100
AcDbSymbolTableRecord
100
AcDbLinetypeTableRecord
  2
D159
 70
     0
  3
IGESIN-LineFont-D159
 72
    65
 73
     6
 40
11.29999999999999
 49
8.0
 74
     0
 49
-0.6
 74
     0
 49
0.75
 74
     0
 49
-0.6
 74
     0
 49
0.75
 74
     0
 49
-0.6
 74
     0
  0
LTYPE
  5
7069
330
5
100
AcDbSymbolTableRecord
100
AcDbLinetypeTableRecord
  2
D1485
 70
     0
  3
IGESIN-LineFont-D1485
 72
    65
 73
     2
 40
1.35
 49
0.75
 74
     0
 49
-0.6
 74
     0
  0
ENDTAB
  0
TABLE
  2
LAYER
  5
2
330
0
100
AcDbSymbolTable
 70
    19
  0
LAYER
  5
10
330
2
100
AcDbSymbolTableRecord
100
AcDbLayerTableRecord
  2
0
 70
     0
 62
     7
  6
CONTINOUS
  0
LAYER
  5
2F
330
2
100
AcDbSymbolTableRecord
100
AcDbLayerTableRecord
  2
10
 70
     0
 62
     4
  6
CONTINOUS
  0
LAYER
  5
31
330
2
100
AcDbSymbolTableRecord
100
AcDbLayerTableRecord
  2
12
 70
     0
 62
     3
  6
CONTINOUS
  0
LAYER
  5
35
330
2
100
AcDbSymbolTableRecord
100
AcDbLayerTableRecord
  2
16
 70
     0
 62
     6
  6
DASHDOT
  0
LAYER
  5
38
330
2
100
AcDbSymbolTableRecord
100
AcDbLayerTableRecord
  2
19
 70
     0
 62
     7
  6
CONTINOUS
  0
LAYER
  5
3C
330
2
100
AcDbSymbolTableRecord
100
AcDbLayerTableRecord
  2
11
 70
     0
 62
     1
  6
CONTINOUS
  0
LAYER
  5
3D
330
2
100
AcDbSymbolTableRecord
100
AcDbLayerTableRecord
  2
24
 70
     0
 62
     2
  6
CONTINOUS
  0
LAYER
  5
3A2
330
2
100
AcDbSymbolTableRecord
100
AcDbLayerTableRecord
  2
30
 70
     0
 62
     9
  6
CONTINUOUS
  0
LAYER
  5
3A4
330
2
100
AcDbSymbolTableRecord
100
AcDbLayerTableRecord
  2
DEFPOINTS
 70
     0
 62
     7
  6
CONTINUOUS
  0
LAYER
  5
3BBA
330
2
100
AcDbSymbolTableRecord
100
AcDbLayerTableRecord
  2
18
 70
     0
 62
     5
  6
DIVIDE
  0
LAYER
  5
3BBB
330
2
100
AcDbSymbolTableRecord
100
AcDbLayerTableRecord
  2
21
 70
     0
 62
     7
  6
CONTINUOUS
  0
LAYER
  5
5797
330
2
100
AcDbSymbolTableRecord
100
AcDbLayerTableRecord
  2
L210_
 70
     0
 62
     7
  6
CONTINUOUS
  0
LAYER
  5
5D4D
330
2
100
AcDbSymbolTableRecord
100
AcDbLayerTableRecord
  2
17
 70
     0
 62
     2
  6
DASHDOT
  0
LAYER
  5
6100
330
2
100
AcDbSymbolTableRecord
100
AcDbLayerTableRecord
  2
L10_
 70
     0
 62
     7
  6
CONTINUOUS
  0
LAYER
  5
6796
330
2
100
AcDbSymbolTableRecord
100
AcDbLayerTableRecord
  2
L0_
 70
     0
 62
     7
  6
CONTINUOUS
  0
LAYER
  5
6797
330
2
100
AcDbSymbolTableRecord
100
AcDbLayerTableRecord
  2
L150_
 70
     0
 62
     7
  6
CONTINUOUS
  0
LAYER
  5
6798
330
2
100
AcDbSymbolTableRecord
100
AcDbLayerTableRecord
  2
L225_
 70
     0
 62
     7
  6
CONTINUOUS
  0
LAYER
  5
6B44
330
2
100
AcDbSymbolTableRecord
100
AcDbLayerTableRecord
  2
L170_
 70
     0
 62
     7
  6
CONTINUOUS
  0
LAYER
  5
706A
330
2
100
AcDbSymbolTableRecord
100
AcDbLayerTableRecord
  2
L230_
 70
     0
 62
     7
  6
CONTINUOUS
  0
ENDTAB
  0
TABLE
  2
STYLE
  5
3
330
0
100
AcDbSymbolTable
 70
     5
  0
STYLE
  5
11
330
3
100
AcDbSymbolTableRecord
100
AcDbTextStyleTableRecord
  2
STANDARD
 70
     0
 40
0.0
 41
1.0
 50
0.0
 71
     0
 42
2.0
  3
txt.shx
  4
bigfont.shx
  0
STYLE
  5
42
330
3
100
AcDbSymbolTableRecord
100
AcDbTextStyleTableRecord
  2
STANDARD1
 70
     0
 40
0.0
 41
1.0
 50
0.0
 71
     0
 42
5.0
  3
MONOTXT
  4
BIGFONT
  0
STYLE
  5
4C46
330
3
100
AcDbSymbolTableRecord
100
AcDbTextStyleTableRecord
  2

 70
     1
 40
0.0
 41
1.0
 50
0.0
 71
     0
 42
5.0
  3
ltypeshp.shx
  4

  0
STYLE
  5
4F59
330
3
100
AcDbSymbolTableRecord
100
AcDbTextStyleTableRecord
  2
SYMBOL3
 70
     0
 40
0.0
 41
1.0
 50
0.0
 71
     0
 42
0.2
  3
iges1003
  4

  0
STYLE
  5
706B
330
3
100
AcDbSymbolTableRecord
100
AcDbTextStyleTableRecord
  2
LEROY
 70
     0
 40
0.0
 41
1.0
 50
0.0
 71
     0
 42
0.2
  3
txt
  4

  0
ENDTAB
  0
TABLE
  2
VIEW
  5
6
330
0
100
AcDbSymbolTable
 70
     3
  0
VIEW
  5
230C
330
6
100
AcDbSymbolTableRecord
100
AcDbViewTableRecord
  2
OLE1
 70
     0
 40
148.9124878027715
 10
429.4976280407224
 20
2.560626997828478
 41
103.1458057716445
 11
0.0
 21
0.0
 31
1.0
 12
0.0
 22
0.0
 32
0.0
 42
50.0
 43
0.0
 44
0.0
 50
0.0
 71
     0
  0
VIEW
  5
230E
330
6
100
AcDbSymbolTableRecord
100
AcDbViewTableRecord
  2
OLE2
 70
     0
 40
170.7786920545776
 10
322.664969958371
 20
-5.978304054290276
 41
102.4672152327465
 11
0.0
 21
0.0
 31
1.0
 12
0.0
 22
0.0
 32
0.0
 42
50.0
 43
0.0
 44
0.0
 50
0.0
 71
     0
  0
VIEW
  5
23AA
330
6
100
AcDbSymbolTableRecord
100
AcDbViewTableRecord
  2
OLE3
 70
     0
 40
591.7897393182231
 10
84.79698158148218
 20
-46.09336010803997
 41
388.7920961799954
 11
0.0
 21
0.0
 31
1.0
 12
0.0
 22
0.0
 32
0.0
 42
50.0
 43
0.0
 44
0.0
 50
0.0
 71
     0
  0
ENDTAB
  0
TABLE
  2
UCS
  5
7
330
0
100
AcDbSymbolTable
 70
     0
  0
ENDTAB
  0
TABLE
  2
APPID
  5
9
330
0
100
AcDbSymbolTable
 70
     2
  0
APPID
  5
12
330
9
100
AcDbSymbolTableRecord
100
AcDbRegAppTableRecord
  2
ACAD
 70
     0
  0
APPID
  5
ECD
330
9
100
AcDbSymbolTableRecord
100
AcDbRegAppTableRecord
  2
CONTENTBLOCKICON
 70
     0
  0
ENDTAB
  0
TABLE
  2
DIMSTYLE
  5
A
330
0
100
AcDbSymbolTable
 70
     1
  0
DIMSTYLE
105
175
102
{ACAD_REACTORS
330
6B8E
330
6BB7
330
6BC4
330
6BD1
330
6FBC
330
7158
330
7165
330
71A2
330
71AF
330
7319
330
7326
330
7345
330
739D
330
73AA
330
73B7
330
73D1
330
73DE
330
73F8
330
747A
330
74BF
102
}
330
A
100
AcDbSymbolTableRecord
100
AcDbDimStyleTableRecord
  2
STANDARD
 70
     0
  3

  4

  5
OPEN
  6

  7

 40
1.0
 41
2.0
 42
1.0
 43
0.5
 44
0.5
 45
0.0
 46
0.0
 47
0.0
 48
0.0
140
5.0
141
0.09
142
0.0
143
25.4
144
1.0
145
0.0
146
1.0
147
1.0
 71
     0
 72
     0
 73
     0
 74
     1
 75
     0
 76
     0
 77
     3
 78
    12
170
     0
171
     2
172
     0
173
     0
174
     0
175
     0
176
     0
177
     0
178
     0
270
     2
271
     1
272
     1
273
     2
274
     2
340
11
275
     0
280
     0
281
     0
282
     0
283
     1
284
     0
285
     0
286
     0
287
     3
288
     0
  0
ENDTAB
  0
TABLE
  2
BLOCK_RECORD
  5
1
330
0
100
AcDbSymbolTable
 70
    35
  0
BLOCK_RECORD
  5
1E
102
{ACAD_XDICTIONARY
360
178
102
}
330
1
100
AcDbSymbolTableRecord
100
AcDbBlockTableRecord
  2
*MODEL_SPACE
  0
BLOCK_RECORD
  5
1A
102
{ACAD_XDICTIONARY
360
17A
102
}
330
1
100
AcDbSymbolTableRecord
100
AcDbBlockTableRecord
  2
*PAPER_SPACE
  0
BLOCK_RECORD
  5
3B2
330
1
100
AcDbSymbolTableRecord
100
AcDbBlockTableRecord
  2
_OPEN
  0
BLOCK_RECORD
  5
5372
330
1
100
AcDbSymbolTableRecord
100
AcDbBlockTableRecord
  2
*D1
  0
BLOCK_RECORD
  5
537E
330
1
100
AcDbSymbolTableRecord
100
AcDbBlockTableRecord
  2
*D2
  0
BLOCK_RECORD
  5
538A
330
1
100
AcDbSymbolTableRecord
100
AcDbBlockTableRecord
  2
*D3
  0
BLOCK_RECORD
  5
5396
330
1
100
AcDbSymbolTableRecord
100
AcDbBlockTableRecord
  2
*D4
  0
BLOCK_RECORD
  5
53A2
330
1
100
AcDbSymbolTableRecord
100
AcDbBlockTableRecord
  2
*D5
  0
BLOCK_RECORD
  5
53AE
330
1
100
AcDbSymbolTableRecord
100
AcDbBlockTableRecord
  2
*D6
  0
BLOCK_RECORD
  5
53BA
330
1
100
AcDbSymbolTableRecord
100
AcDbBlockTableRecord
  2
*D7
  0
BLOCK_RECORD
  5
53C6
330
1
100
AcDbSymbolTableRecord
100
AcDbBlockTableRecord
  2
A$C18746642
  0
BLOCK_RECORD
  5
572B
330
1
100
AcDbSymbolTableRecord
100
AcDbBlockTableRecord
  2
B2383
  0
BLOCK_RECORD
  5
5730
330
1
100
AcDbSymbolTableRecord
100
AcDbBlockTableRecord
  2
*D10
  0
BLOCK_RECORD
  5
5738
330
1
100
AcDbSymbolTableRecord
100
AcDbBlockTableRecord
  2
B2387
  0
BLOCK_RECORD
  5
5F6A
330
1
100
AcDbSymbolTableRecord
100
AcDbBlockTableRecord
  2
*D12
  0
BLOCK_RECORD
  5
5F76
330
1
100
AcDbSymbolTableRecord
100
AcDbBlockTableRecord
  2
A$C59C36ED1
  0
BLOCK_RECORD
  5
6B8F
330
1
100
AcDbSymbolTableRecord
100
AcDbBlockTableRecord
  2
*D14
  0
BLOCK_RECORD
  5
6BB8
330
1
100
AcDbSymbolTableRecord
100
AcDbBlockTableRecord
  2
*D15
  0
BLOCK_RECORD
  5
6BC5
330
1
100
AcDbSymbolTableRecord
100
AcDbBlockTableRecord
  2
*D16
  0
BLOCK_RECORD
  5
6BD2
330
1
100
AcDbSymbolTableRecord
100
AcDbBlockTableRecord
  2
*D17
  0
BLOCK_RECORD
  5
6CB9
330
1
100
AcDbSymbolTableRecord
100
AcDbBlockTableRecord
  2
REVDATE
  0
BLOCK_RECORD
  5
6FBF
330
1
100
AcDbSymbolTableRecord
100
AcDbBlockTableRecord
  2
*D19
  0
BLOCK_RECORD
  5
7159
330
1
100
AcDbSymbolTableRecord
100
AcDbBlockTableRecord
  2
*D20
  0
BLOCK_RECORD
  5
7166
330
1
100
AcDbSymbolTableRecord
100
AcDbBlockTableRecord
  2
*D21
  0
BLOCK_RECORD
  5
71A3
330
1
100
AcDbSymbolTableRecord
100
AcDbBlockTableRecord
  2
*D22
  0
BLOCK_RECORD
  5
71B0
330
1
100
AcDbSymbolTableRecord
100
AcDbBlockTableRecord
  2
*D23
  0
BLOCK_RECORD
  5
731A
330
1
100
AcDbSymbolTableRecord
100
AcDbBlockTableRecord
  2
*D24
  0
BLOCK_RECORD
  5
7327
330
1
100
AcDbSymbolTableRecord
100
AcDbBlockTableRecord
  2
*D25
  0
BLOCK_RECORD
  5
7346
330
1
100
AcDbSymbolTableRecord
100
AcDbBlockTableRecord
  2
*D26
  0
BLOCK_RECORD
  5
739E
330
1
100
AcDbSymbolTableRecord
100
AcDbBlockTableRecord
  2
*D27
  0
BLOCK_RECORD
  5
73AB
330
1
100
AcDbSymbolTableRecord
100
AcDbBlockTableRecord
  2
*D28
  0
BLOCK_RECORD
  5
73B8
330
1
100
AcDbSymbolTableRecord
100
AcDbBlockTableRecord
  2
*D29
  0
BLOCK_RECORD
  5
73D2
330
1
100
AcDbSymbolTableRecord
100
AcDbBlockTableRecord
  2
*D30
  0
BLOCK_RECORD
  5
73DF
330
1
100
AcDbSymbolTableRecord
100
AcDbBlockTableRecord
  2
*D31
  0
BLOCK_RECORD
  5
73F9
330
1
100
AcDbSymbolTableRecord
100
AcDbBlockTableRecord
  2
*D32
  0
BLOCK_RECORD
  5
747B
330
1
100
AcDbSymbolTableRecord
100
AcDbBlockTableRecord
  2
*D33
  0
BLOCK_RECORD
  5
74C0
330
1
100
AcDbSymbolTableRecord
100
AcDbBlockTableRecord
  2
*D34
  0
ENDTAB
  0
ENDSEC
  0
SECTION
  2
BLOCKS
  0
BLOCK
  5
1F
330
1E
100
AcDbEntity
  8
0
100
AcDbBlockBegin
  2
*MODEL_SPACE
 70
     0
 10
0.0
 20
0.0
 30
0.0
  3
*MODEL_SPACE
  1

  0
ENDBLK
  5
20
330
1E
100
AcDbEntity
  8
0
100
AcDbBlockEnd
  0
BLOCK
  5
1B
330
1A
100
AcDbEntity
 67
     1
  8
0
100
AcDbBlockBegin
  2
*PAPER_SPACE
 70
     0
 10
0.0
 20
0.0
 30
0.0
  3
*PAPER_SPACE
  1

  0
ENDBLK
  5
1C
330
1A
100
AcDbEntity
 67
     1
  8
0
100
AcDbBlockEnd
  0
BLOCK
  5
3B6
330
3B2
100
AcDbEntity
  8
0
100
AcDbBlockBegin
  2
_OPEN
 70
     0
 10
0.0
 20
0.0
 30
0.0
  3
_OPEN
  1

  0
LINE
  5
3B3
330
3B2
100
AcDbEntity
  8
30
  6
CONTINUOUS
 62
     0
100
AcDbLine
 10
-1.0
 20
0.1666666666666666
 30
0.0
 11
0.0
 21
0.0
 31
0.0
  0
LINE
  5
3B4
330
3B2
100
AcDbEntity
  8
30
  6
CONTINUOUS
 62
     0
100
AcDbLine
 10
-1.0
 20
-0.1666666666666666
 30
0.0
 11
0.0
 21
0.0
 31
0.0
  0
LINE
  5
3B5
330
3B2
100
AcDbEntity
  8
30
  6
CONTINUOUS
 62
     0
100
AcDbLine
 10
0.0
 20
0.0
 30
0.0
 11
-1.0
 21
0.0
 31
0.0
  0
ENDBLK
  5
3B7
330
3B2
100
AcDbEntity
  8
0
100
AcDbBlockEnd
  0
BLOCK
  5
537C
330
5372
100
AcDbEntity
  8
0
100
AcDbBlockBegin
  2
*D1
 70
     1
 10
0.0
 20
0.0
 30
0.0
  3
*D1
  1

  0
LINE
  5
5373
330
5372
100
AcDbEntity
  8
10
 62
     0
100
AcDbLine
 10
1408.1479492188
 20
471.74888305664
 30
0.0
 11
1408.1479492188
 21
574.0164868164099
 31
0.0
  0
LINE
  5
5374
330
5372
100
AcDbEntity
  8
10
 62
     0
100
AcDbLine
 10
1515.6480712891
 20
408.7488525390599
 30
0.0
 11
1515.6480712891
 21
574.0164868164099
 31
0.0
  0
LINE
  5
5375
330
5372
100
AcDbEntity
  8
10
 62
     0
100
AcDbLine
 10
1408.3279492188
 20
573.83648681641
 30
0.0
 11
1515.4680712891
 21
573.83648681641
 31
0.0
  0
MTEXT
  5
5376
330
5372
100
AcDbEntity
  8
10
 62
     0
100
AcDbMText
 10
1456.951817203372
 20
587.33648681641
 30
0.0
 40
0.18
 41
0.0
 71
     5
 72
     1
  1
\A1;107.5
  7
SYMBOL3
1001
ACAD
1000
MTEXTBEGIN
1070
    73
1070
     1
1070
    44
1040
1.0
1070
    74
1070
     0
1000
MTEXTEND
  0
SOLID
  5
5377
330
5372
100
AcDbEntity
  8
10
 62
     0
100
AcDbTrace
 10
1408.3279492188
 20
573.8664868164099
 30
0.0
 11
1408.3279492188
 21
573.80648681641
 31
0.0
 12
1408.1479492188
 22
573.83648681641
 32
0.0
 13
1408.1479492188
 23
573.83648681641
 33
0.0
  0
SOLID
  5
5378
330
5372
100
AcDbEntity
  8
10
 62
     0
100
AcDbTrace
 10
1515.4680712891
 20
573.8664868164099
 30
0.0
 11
1515.4680712891
 21
573.80648681641
 31
0.0
 12
1515.6480712891
 22
573.83648681641
 32
0.0
 13
1515.6480712891
 23
573.83648681641
 33
0.0
  0
POINT
  5
5379
330
5372
100
AcDbEntity
  8
DEFPOINTS
 62
     0
100
AcDbPoint
 10
1408.1479492188
 20
471.68638305664
 30
0.0
  0
POINT
  5
537A
330
5372
100
AcDbEntity
  8
DEFPOINTS
 62
     0
100
AcDbPoint
 10
1515.6480712891
 20
408.68635253906
 30
0.0
  0
POINT
  5
537B
330
5372
100
AcDbEntity
  8
DEFPOINTS
 62
     0
100
AcDbPoint
 10
1515.6480712891
 20
573.83648681641
 30
0.0
  0
ENDBLK
  5
537D
330
5372
100
AcDbEntity
  8
0
100
AcDbBlockEnd
  0
BLOCK
  5
5388
330
537E
100
AcDbEntity
  8
0
100
AcDbBlockBegin
  2
*D2
 70
     1
 10
0.0
 20
0.0
 30
0.0
  3
*D2
  1

  0
LINE
  5
537F
330
537E
100
AcDbEntity
  8
10
 62
     0
100
AcDbLine
 10
1408.1479492188
 20
471.74888305664
 30
0.0
 11
1408.1479492188
 21
523.8737255859399
 31
0.0
  0
LINE
  5
5380
330
537E
100
AcDbEntity
  8
10
 62
     0
100
AcDbLine
 10
1495.1480712891
 20
448.62861328125
 30
0.0
 11
1495.1480712891
 21
523.87372558594
 31
0.0
  0
LINE
  5
5381
330
537E
100
AcDbEntity
  8
10
 62
     0
100
AcDbLine
 10
1408.3279492188
 20
523.69372558594
 30
0.0
 11
1494.9680712891
 21
523.69372558594
 31
0.0
  0
MTEXT
  5
5382
330
537E
100
AcDbEntity
  8
10
 62
     0
100
AcDbMText
 10
1451.607153789427
 20
537.19372558594
 30
0.0
 40
0.18
 41
0.0
 71
     5
 72
     1
  1
\A1;87
  7
SYMBOL3
1001
ACAD
1000
MTEXTBEGIN
1070
    73
1070
     1
1070
    44
1040
1.0
1070
    74
1070
     0
1000
MTEXTEND
  0
SOLID
  5
5383
330
537E
100
AcDbEntity
  8
10
 62
     0
100
AcDbTrace
 10
1408.3279492188
 20
523.7237255859399
 30
0.0
 11
1408.3279492188
 21
523.66372558594
 31
0.0
 12
1408.1479492188
 22
523.69372558594
 32
0.0
 13
1408.1479492188
 23
523.69372558594
 33
0.0
  0
SOLID
  5
5384
330
537E
100
AcDbEntity
  8
10
 62
     0
100
AcDbTrace
 10
1494.9680712891
 20
523.7237255859399
 30
0.0
 11
1494.9680712891
 21
523.66372558594
 31
0.0
 12
1495.1480712891
 22
523.69372558594
 32
0.0
 13
1495.1480712891
 23
523.69372558594
 33
0.0
  0
POINT
  5
5385
330
537E
100
AcDbEntity
  8
DEFPOINTS
 62
     0
100
AcDbPoint
 10
1408.1479492188
 20
471.68638305664
 30
0.0
  0
POINT
  5
5386
330
537E
100
AcDbEntity
  8
DEFPOINTS
 62
     0
100
AcDbPoint
 10
1495.1480712891
 20
448.56611328125
 30
0.0
  0
POINT
  5
5387
330
537E
100
AcDbEntity
  8
DEFPOINTS
 62
     0
100
AcDbPoint
 10
1495.1480712891
 20
523.69372558594
 30
0.0
  0
ENDBLK
  5
5389
330
537E
100
AcDbEntity
  8
0
100
AcDbBlockEnd
  0
BLOCK
  5
5394
330
538A
100
AcDbEntity
  8
0
100
AcDbBlockBegin
  2
*D3
 70
     1
 10
0.0
 20
0.0
 30
0.0
  3
*D3
  1

  0
LINE
  5
538B
330
538A
100
AcDbEntity
  8
10
 62
     0
100
AcDbLine
 10
1408.1479492188
 20
225.8366577148399
 30
0.0
 11
1408.1479492188
 21
164.2525866699199
 31
0.0
  0
LINE
  5
538C
330
538A
100
AcDbEntity
  8
10
 62
     0
100
AcDbLine
 10
1393.1479492188
 20
259.83665771484
 30
0.0
 11
1393.1479492188
 21
164.2525866699199
 31
0.0
  0
LINE
  5
538D
330
538A
100
AcDbEntity
  8
10
 62
     0
100
AcDbLine
 10
1407.967949218799
 20
164.4325866699199
 30
0.0
 11
1393.3279492188
 21
164.4325866699199
 31
0.0
  0
MTEXT
  5
538E
330
538A
100
AcDbEntity
  8
10
 62
     0
100
AcDbMText
 10
1360.43980773724
 20
177.93258666992
 30
0.0
 40
0.18
 41
0.0
 71
     5
 72
     1
  1
\A1;15
  7
SYMBOL3
1001
ACAD
1000
MTEXTBEGIN
1070
    73
1070
     1
1070
    44
1040
1.0
1070
    74
1070
     0
1000
MTEXTEND
  0
SOLID
  5
538F
330
538A
100
AcDbEntity
  8
10
 62
     0
100
AcDbTrace
 10
1407.967949218799
 20
164.4625866699199
 30
0.0
 11
1407.967949218799
 21
164.40258666992
 31
0.0
 12
1408.1479492188
 22
164.4325866699199
 32
0.0
 13
1408.1479492188
 23
164.4325866699199
 33
0.0
  0
SOLID
  5
5390
330
538A
100
AcDbEntity
  8
10
 62
     0
100
AcDbTrace
 10
1393.3279492188
 20
164.4625866699199
 30
0.0
 11
1393.3279492188
 21
164.40258666992
 31
0.0
 12
1393.1479492188
 22
164.4325866699199
 32
0.0
 13
1393.1479492188
 23
164.4325866699199
 33
0.0
  0
POINT
  5
5391
330
538A
100
AcDbEntity
  8
DEFPOINTS
 62
     0
100
AcDbPoint
 10
1408.1479492188
 20
225.8991577148399
 30
0.0
  0
POINT
  5
5392
330
538A
100
AcDbEntity
  8
DEFPOINTS
 62
     0
100
AcDbPoint
 10
1393.1479492188
 20
259.89915771484
 30
0.0
  0
POINT
  5
5393
330
538A
100
AcDbEntity
  8
DEFPOINTS
 62
     0
100
AcDbPoint
 10
1393.1479492188
 20
164.4325866699199
 30
0.0
  0
ENDBLK
  5
5395
330
538A
100
AcDbEntity
  8
0
100
AcDbBlockEnd
  0
BLOCK
  5
53A0
330
5396
100
AcDbEntity
  8
0
100
AcDbBlockBegin
  2
*D4
 70
     1
 10
0.0
 20
0.0
 30
0.0
  3
*D4
  1

  0
LINE
  5
5397
330
5396
100
AcDbEntity
  8
10
 62
     0
100
AcDbLine
 10
1377.1479492188
 20
367.6677734375
 30
0.0
 11
1377.1479492188
 21
115.7286914062499
 31
0.0
  0
LINE
  5
5398
330
5396
100
AcDbEntity
  8
10
 62
     0
100
AcDbLine
 10
1408.1479492188
 20
225.8366577148399
 30
0.0
 11
1408.1479492188
 21
115.7286914062499
 31
0.0
  0
LINE
  5
5399
330
5396
100
AcDbEntity
  8
10
 62
     0
100
AcDbLine
 10
1377.3279492188
 20
115.9086914062499
 30
0.0
 11
1407.967949218799
 21
115.9086914062499
 31
0.0
  0
MTEXT
  5
539A
330
5396
100
AcDbEntity
  8
10
 62
     0
100
AcDbMText
 10
1390.672659997064
 20
129.4086914062499
 30
0.0
 40
0.18
 41
0.0
 71
     5
 72
     1
  1
\A1;31
  7
SYMBOL3
1001
ACAD
1000
MTEXTBEGIN
1070
    73
1070
     1
1070
    44
1040
1.0
1070
    74
1070
     0
1000
MTEXTEND
  0
SOLID
  5
539B
330
5396
100
AcDbEntity
  8
10
 62
     0
100
AcDbTrace
 10
1377.3279492188
 20
115.9386914062499
 30
0.0
 11
1377.3279492188
 21
115.87869140625
 31
0.0
 12
1377.1479492188
 22
115.9086914062499
 32
0.0
 13
1377.1479492188
 23
115.9086914062499
 33
0.0
  0
SOLID
  5
539C
330
5396
100
AcDbEntity
  8
10
 62
     0
100
AcDbTrace
 10
1407.967949218799
 20
115.9386914062499
 30
0.0
 11
1407.967949218799
 21
115.87869140625
 31
0.0
 12
1408.1479492188
 22
115.9086914062499
 32
0.0
 13
1408.1479492188
 23
115.9086914062499
 33
0.0
  0
POINT
  5
539D
330
5396
100
AcDbEntity
  8
DEFPOINTS
 62
     0
100
AcDbPoint
 10
1377.1479492188
 20
367.7302734374999
 30
0.0
  0
POINT
  5
539E
330
5396
100
AcDbEntity
  8
DEFPOINTS
 62
     0
100
AcDbPoint
 10
1408.1479492188
 20
225.8991577148399
 30
0.0
  0
POINT
  5
539F
330
5396
100
AcDbEntity
  8
DEFPOINTS
 62
     0
100
AcDbPoint
 10
1408.1479492188
 20
115.9086914062499
 30
0.0
  0
ENDBLK
  5
53A1
330
5396
100
AcDbEntity
  8
0
100
AcDbBlockEnd
  0
BLOCK
  5
53AC
330
53A2
100
AcDbEntity
  8
0
100
AcDbBlockBegin
  2
*D5
 70
     1
 10
0.0
 20
0.0
 30
0.0
  3
*D5
  1

  0
LINE
  5
53A3
330
53A2
100
AcDbEntity
  8
10
 62
     0
100
AcDbLine
 10
1542.6040771484
 20
415.792755129682
 30
0.0
 11
1629.719178712973
 21
415.7927589376051
 31
0.0
  0
LINE
  5
53A4
330
53A2
100
AcDbEntity
  8
10
 62
     0
100
AcDbLine
 10
1542.6040771484
 20
281.792755129682
 30
0.0
 11
1629.7191845703
 21
281.7927589376054
 31
0.0
  0
LINE
  5
53A5
330
53A2
100
AcDbEntity
  8
10
 62
     0
100
AcDbLine
 10
1629.539178720841
 20
415.6127589297371
 30
0.0
 11
1629.539184562432
 21
281.9727589297373
 31
0.0
  0
MTEXT
  5
53A6
330
53A2
100
AcDbEntity
  8
10
 62
     0
100
AcDbMText
 10
1616.039184719544
 20
342.9059393539334
 30
0.0
 40
0.18
 41
0.0
 71
     5
 72
     1
  1
\A1;134
  7
SYMBOL3
 11
-0.0000000437114009
 21
0.9999999999999992
 31
0.0
1001
ACAD
1000
MTEXTBEGIN
1070
    73
1070
     1
1070
    44
1040
1.0
1070
    74
1070
     0
1000
MTEXTEND
  0
SOLID
  5
53A7
330
53A2
100
AcDbEntity
  8
10
 62
     0
100
AcDbTrace
 10
1629.509178720841
 20
415.6127589284258
 30
0.0
 11
1629.56917872084
 21
415.6127589310485
 31
0.0
 12
1629.539178712973
 22
415.7927589297371
 32
0.0
 13
1629.539178712973
 23
415.7927589297371
 33
0.0
  0
SOLID
  5
53A8
330
53A2
100
AcDbEntity
  8
10
 62
     0
100
AcDbTrace
 10
1629.509184562432
 20
281.972758928426
 30
0.0
 11
1629.569184562432
 21
281.9727589310487
 31
0.0
 12
1629.5391845703
 22
281.7927589297373
 32
0.0
 13
1629.5391845703
 23
281.7927589297373
 33
0.0
  0
POINT
  5
53A9
330
53A2
100
AcDbEntity
  8
DEFPOINTS
 62
     0
100
AcDbPoint
 10
1542.5415771484
 20
415.7927551269501
 30
0.0
  0
POINT
  5
53AA
330
53A2
100
AcDbEntity
  8
DEFPOINTS
 62
     0
100
AcDbPoint
 10
1542.5415771484
 20
281.7927551269501
 30
0.0
  0
POINT
  5
53AB
330
53A2
100
AcDbEntity
  8
DEFPOINTS
 62
     0
100
AcDbPoint
 10
1629.5391845703
 20
281.7927589297373
 30
0.0
  0
ENDBLK
  5
53AD
330
53A2
100
AcDbEntity
  8
0
100
AcDbBlockEnd
  0
BLOCK
  5
53B8
330
53AE
100
AcDbEntity
  8
0
100
AcDbBlockBegin
  2
*D6
 70
     1
 10
0.0
 20
0.0
 30
0.0
  3
*D6
  1

  0
LINE
  5
53AF
330
53AE
100
AcDbEntity
  8
10
 62
     0
100
AcDbLine
 10
1408.1479492188
 20
225.8366577148399
 30
0.0
 11
1408.1479492188
 21
116.1434558105499
 31
0.0
  0
LINE
  5
53B0
330
53AE
100
AcDbEntity
  8
10
 62
     0
100
AcDbLine
 10
1565.6480712891
 20
288.8366577148399
 30
0.0
 11
1565.6480712891
 21
116.1434558105499
 31
0.0
  0
LINE
  5
53B1
330
53AE
100
AcDbEntity
  8
10
 62
     0
100
AcDbLine
 10
1408.3279492188
 20
116.3234558105499
 30
0.0
 11
1565.4680712891
 21
116.3234558105499
 31
0.0
  0
MTEXT
  5
53B2
330
53AE
100
AcDbEntity
  8
10
 62
     0
100
AcDbMText
 10
1483.783238101872
 20
129.82345581055
 30
0.0
 40
0.18
 41
0.0
 71
     5
 72
     1
  1
\A1;157.5
  7
SYMBOL3
1001
ACAD
1000
MTEXTBEGIN
1070
    73
1070
     1
1070
    44
1040
1.0
1070
    74
1070
     0
1000
MTEXTEND
  0
SOLID
  5
53B3
330
53AE
100
AcDbEntity
  8
10
 62
     0
100
AcDbTrace
 10
1408.3279492188
 20
116.3534558105499
 30
0.0
 11
1408.3279492188
 21
116.2934558105499
 31
0.0
 12
1408.1479492188
 22
116.3234558105499
 32
0.0
 13
1408.1479492188
 23
116.3234558105499
 33
0.0
  0
SOLID
  5
53B4
330
53AE
100
AcDbEntity
  8
10
 62
     0
100
AcDbTrace
 10
1565.4680712891
 20
116.3534558105499
 30
0.0
 11
1565.4680712891
 21
116.2934558105499
 31
0.0
 12
1565.6480712891
 22
116.3234558105499
 32
0.0
 13
1565.6480712891
 23
116.3234558105499
 33
0.0
  0
POINT
  5
53B5
330
53AE
100
AcDbEntity
  8
DEFPOINTS
 62
     0
100
AcDbPoint
 10
1408.1479492188
 20
225.8991577148399
 30
0.0
  0
POINT
  5
53B6
330
53AE
100
AcDbEntity
  8
DEFPOINTS
 62
     0
100
AcDbPoint
 10
1565.6480712891
 20
288.89915771484
 30
0.0
  0
POINT
  5
53B7
330
53AE
100
AcDbEntity
  8
DEFPOINTS
 62
     0
100
AcDbPoint
 10
1565.6480712891
 20
116.3234558105499
 30
0.0
  0
ENDBLK
  5
53B9
330
53AE
100
AcDbEntity
  8
0
100
AcDbBlockEnd
  0
BLOCK
  5
53C4
330
53BA
100
AcDbEntity
  8
0
100
AcDbBlockBegin
  2
*D7
 70
     1
 10
0.0
 20
0.0
 30
0.0
  3
*D7
  1

  0
LINE
  5
53BB
330
53BA
100
AcDbEntity
  8
10
 62
     0
100
AcDbLine
 10
1408.1479492188
 20
225.8366577148399
 30
0.0
 11
1408.1479492188
 21
164.2525866699199
 31
0.0
  0
LINE
  5
53BC
330
53BA
100
AcDbEntity
  8
10
 62
     0
100
AcDbLine
 10
1545.148193359399
 20
248.9568664550799
 30
0.0
 11
1545.148193359399
 21
164.2525866699199
 31
0.0
  0
LINE
  5
53BD
330
53BA
100
AcDbEntity
  8
10
 62
     0
100
AcDbLine
 10
1408.3279492188
 20
164.4325866699199
 30
0.0
 11
1544.9681933594
 21
164.4325866699199
 31
0.0
  0
MTEXT
  5
53BE
330
53BA
100
AcDbEntity
  8
10
 62
     0
100
AcDbMText
 10
1472.349887305842
 20
177.9325866699198
 30
0.0
 40
0.18
 41
0.0
 71
     5
 72
     1
  1
\A1;137
  7
SYMBOL3
1001
ACAD
1000
MTEXTBEGIN
1070
    73
1070
     1
1070
    44
1040
1.0
1070
    74
1070
     0
1000
MTEXTEND
  0
SOLID
  5
53BF
330
53BA
100
AcDbEntity
  8
10
 62
     0
100
AcDbTrace
 10
1408.3279492188
 20
164.4625866699199
 30
0.0
 11
1408.3279492188
 21
164.40258666992
 31
0.0
 12
1408.1479492188
 22
164.4325866699199
 32
0.0
 13
1408.1479492188
 23
164.4325866699199
 33
0.0
  0
SOLID
  5
53C0
330
53BA
100
AcDbEntity
  8
10
 62
     0
100
AcDbTrace
 10
1544.9681933594
 20
164.4625866699199
 30
0.0
 11
1544.9681933594
 21
164.40258666992
 31
0.0
 12
1545.148193359399
 22
164.4325866699199
 32
0.0
 13
1545.148193359399
 23
164.4325866699199
 33
0.0
  0
POINT
  5
53C1
330
53BA
100
AcDbEntity
  8
DEFPOINTS
 62
     0
100
AcDbPoint
 10
1408.1479492188
 20
225.8991577148399
 30
0.0
  0
POINT
  5
53C2
330
53BA
100
AcDbEntity
  8
DEFPOINTS
 62
     0
100
AcDbPoint
 10
1545.148193359399
 20
249.0193664550799
 30
0.0
  0
POINT
  5
53C3
330
53BA
100
AcDbEntity
  8
DEFPOINTS
 62
     0
100
AcDbPoint
 10
1545.148193359399
 20
164.4325866699199
 30
0.0
  0
ENDBLK
  5
53C5
330
53BA
100
AcDbEntity
  8
0
100
AcDbBlockEnd
  0
BLOCK
  5
5452
330
53C6
100
AcDbEntity
  8
0
100
AcDbBlockBegin
  2
A$C18746642
 70
     0
 10
0.0
 20
0.0
 30
0.0
  3
A$C18746642
  1

  0
DIMENSION
  5
53C7
330
53C6
100
AcDbEntity
  8
10
100
AcDbDimension
  2
*D1
 10
122.5001220702999
 20
225.04376220703
 30
0.0
 11
63.80386798457243
 21
238.54376220703
 31
0.0
 12
-1393.1479492188
 22
-348.7927246093799
 32
0.0
 70
   128
  1
107.5
  3
STANDARD
100
AcDbAlignedDimension
 13
15.0
 23
122.89365844726
 33
0.0
 14
122.5001220702999
 24
59.89362792968006
 34
0.0
 50
180.0
100
AcDbRotatedDimension
1001
ACAD
1000
DSTYLE
1002
{
1070
   287
1070
     5
1070
   287
1070
     5
1070
   287
1070
     5
1070
   279
1070
     2
1002
}
  0
DIMENSION
  5
53C8
330
53C6
100
AcDbEntity
  8
10
100
AcDbDimension
  2
*D2
 10
102.0001220703
 20
174.90100097656
 30
0.0
 11
58.45920457062698
 21
188.40100097656
 31
0.0
 12
-1393.1479492188
 22
-348.7927246093799
 32
0.0
 70
   128
  1
87
  3
STANDARD
100
AcDbAlignedDimension
 13
15.0
 23
122.89365844726
 33
0.0
 14
102.0001220703
 24
99.77338867187008
 34
0.0
 50
180.0
100
AcDbRotatedDimension
1001
ACAD
1000
DSTYLE
1002
{
1070
   287
1070
     5
1070
   287
1070
     5
1070
   287
1070
     5
1070
   279
1070
     2
1002
}
  0
DIMENSION
  5
53C9
330
53C6
100
AcDbEntity
  8
10
100
AcDbDimension
  2
*D3
 10
0.0
 20
-184.3601379394599
 30
0.0
 11
-32.70814148155932
 21
-170.8601379394599
 31
0.0
 12
-1393.1479492188
 22
-348.7927246093799
 32
0.0
 70
   128
  1
15
  3
STANDARD
100
AcDbAlignedDimension
 13
15.0
 23
-122.8935668945399
 33
0.0
 14
0.0
 24
-88.89356689453995
 34
0.0
 50
180.0
100
AcDbRotatedDimension
1001
ACAD
1000
DSTYLE
1002
{
1070
   287
1070
     5
1070
   287
1070
     5
1070
   287
1070
     5
1070
   279
1070
     2
1002
}
  0
LWPOLYLINE
  5
53CA
330
53C6
100
AcDbEntity
  8
10
  6
CONTINUOUS
100
AcDbPolyline
 90
        2
 70
     0
 43
0.001
 10
-51.9998779297
 20
0.0
 10
126.8000488280999
 20
0.0
  0
DIMENSION
  5
53CB
330
53C6
100
AcDbEntity
  8
10
100
AcDbDimension
  2
*D4
 10
15.0
 20
-232.8840332031299
 30
0.0
 11
-2.475289221735465
 21
-219.3840332031299
 31
0.0
 12
-1393.1479492188
 22
-348.7927246093799
 32
0.0
 70
   128
  1
31
  3
STANDARD
100
AcDbAlignedDimension
 13
-16.0
 23
18.93754882812004
 33
0.0
 14
15.0
 24
-122.8935668945399
 34
0.0
 50
180.0
100
AcDbRotatedDimension
1001
ACAD
1000
DSTYLE
1002
{
1070
   287
1070
     5
1070
   287
1070
     5
1070
   287
1070
     5
1070
   279
1070
     2
1002
}
  0
DIMENSION
  5
53CC
330
53C6
100
AcDbEntity
  8
10
100
AcDbDimension
  2
*D5
 10
236.3912353515004
 20
-66.99996567964257
 30
0.0
 11
222.8912355007444
 21
-5.886785255446341
 31
0.0
 12
-1393.1479492188
 22
-348.7927246093799
 32
0.0
 70
   128
  1
134
 51
269.9999974955212
  3
STANDARD
100
AcDbAlignedDimension
 13
149.3936279295999
 23
67.00003051757005
 33
0.0
 14
149.3936279295999
 24
-66.99996948242994
 34
0.0
 50
90.0
100
AcDbRotatedDimension
1001
ACAD
1000
DSTYLE
1002
{
1070
   287
1070
     5
1070
   287
1070
     5
1070
   287
1070
     5
1070
   279
1070
     2
1002
}
  0
LWPOLYLINE
  5
53CD
330
53C6
100
AcDbEntity
  8
10
  6
CONTINUOUS
100
AcDbPolyline
 90
        2
 70
     0
 43
0.001
 10
0.0
 20
-24.99999999999994
 10
0.0
 20
-95.99996948242994
  0
LWPOLYLINE
  5
53CE
330
53C6
100
AcDbEntity
  8
10
  6
CONTINUOUS
100
AcDbPolyline
 90
        2
 70
     0
 43
0.001
 10
70.0001220703
 20
-50.00003051757994
 10
70.0001220703
 20
-58.99996948242995
  0
LWPOLYLINE
  5
53CF
330
53C6
100
AcDbEntity
  8
10
  6
CONTINUOUS
100
AcDbPolyline
 90
        2
 70
     0
 43
0.001
 10
19.0
 20
77.50015258789011
 10
19.0
 20
-77.49996948242994
  0
LWPOLYLINE
  5
53D0
330
53C6
100
AcDbEntity
  8
10
  6
CONTINUOUS
100
AcDbPolyline
 90
        2
 70
     0
 43
0.001
 10
15.0
 20
96.00006103514999
 10
15.0
 20
-95.99996948242994
  0
LWPOLYLINE
  5
53D1
330
53C6
100
AcDbEntity
  8
10
  6
CONTINUOUS
100
AcDbPolyline
 90
        2
 70
     0
 43
0.001
 10
25.80004882809999
 20
-50.00003051757994
 10
25.80004882809999
 20
-77.49996948242994
  0
DIMENSION
  5
53D2
330
53C6
100
AcDbEntity
  8
10
100
AcDbDimension
  2
*D6
 10
172.5001220702999
 20
-232.4692687988299
 30
0.0
 11
90.63528888307246
 21
-218.9692687988299
 31
0.0
 12
-1393.1479492188
 22
-348.7927246093799
 32
0.0
 70
   128
  1
157.5
  3
STANDARD
100
AcDbAlignedDimension
 13
15.0
 23
-122.8935668945399
 33
0.0
 14
172.5001220702999
 24
-59.89356689453996
 34
0.0
 50
180.0
100
AcDbRotatedDimension
1001
ACAD
1000
DSTYLE
1002
{
1070
   287
1070
     5
1070
   287
1070
     5
1070
   287
1070
     5
1070
   279
1070
     2
1002
}
  0
DIMENSION
  5
53D3
330
53C6
100
AcDbEntity
  8
10
100
AcDbDimension
  2
*D7
 10
152.0002441405999
 20
-184.3601379394599
 30
0.0
 11
79.20193808704221
 21
-170.8601379394601
 31
0.0
 12
-1393.1479492188
 22
-348.7927246093799
 32
0.0
 70
   128
  1
137
  3
STANDARD
100
AcDbAlignedDimension
 13
15.0
 23
-122.8935668945399
 33
0.0
 14
152.0002441405999
 24
-99.77335815429995
 34
0.0
 50
180.0
100
AcDbRotatedDimension
1001
ACAD
1000
DSTYLE
1002
{
1070
   287
1070
     5
1070
   287
1070
     5
1070
   287
1070
     5
1070
   279
1070
     2
1002
}
  0
LWPOLYLINE
  5
53D4
330
53C6
100
AcDbEntity
  8
10
  6
CONTINUOUS
100
AcDbPolyline
 90
        2
 70
     0
 43
0.001
 10
239.8000488280999
 20
-66.99996948242994
 10
60.0001220703
 20
-66.99996948242994
  0
LWPOLYLINE
  5
53D5
330
53C6
100
AcDbEntity
  8
10
  6
CONTINUOUS
100
AcDbPolyline
 90
        2
 70
     0
 43
0.001
 10
70.0001220703
 20
-77.49996948242994
 10
19.0
 20
-77.49996948242994
  0
LWPOLYLINE
  5
53D6
330
53C6
100
AcDbEntity
  8
10
  6
D329
100
AcDbPolyline
 90
        2
 70
     0
 43
0.001
 10
15.0
 20
-95.99996948242994
 10
15.0
 20
-129.9999694824299
  0
LWPOLYLINE
  5
53D7
330
53C6
100
AcDbEntity
  8
10
  6
D329
100
AcDbPolyline
 90
        2
 70
     0
 43
0.001
 10
19.0
 20
-77.49996948242994
 10
19.0
 20
-129.9999694824299
  0
LWPOLYLINE
  5
53D8
330
53C6
100
AcDbEntity
  8
10
  6
D329
100
AcDbPolyline
 90
        2
 70
     0
 43
0.001
 10
19.0
 20
-129.9999694824299
 10
15.0
 20
-129.9999694824299
  0
LWPOLYLINE
  5
53D9
330
53C6
100
AcDbEntity
  8
10
  6
CONTINUOUS
100
AcDbPolyline
 90
        2
 70
     0
 43
0.001
 10
15.0
 20
-95.99996948242994
 10
0.0
 20
-95.99996948242994
  0
LWPOLYLINE
  5
53DA
330
53C6
100
AcDbEntity
  8
10
  6
D341
100
AcDbPolyline
 90
        2
 70
     0
 43
0.001
 10
102.0002441405999
 20
-55.76306152343994
 10
102.0002441405999
 20
-106.8797607421899
  0
LWPOLYLINE
  5
53DB
330
53C6
100
AcDbEntity
  8
10
  6
D341
100
AcDbPolyline
 90
        2
 70
     0
 43
0.001
 10
104.3001708983999
 20
-55.76303100585994
 10
104.3001708983999
 20
-106.8797302246099
  0
LWPOLYLINE
  5
53DC
330
53C6
100
AcDbEntity
  8
10
  6
CONTINUOUS
100
AcDbPolyline
 90
        2
 70
     0
 43
0.001
 10
70.0001220703
 20
-58.99996948242995
 10
97.00012207029999
 20
-58.99996948242995
  0
LWPOLYLINE
  5
53DD
330
53C6
100
AcDbEntity
  8
10
  6
CONTINUOUS
100
AcDbPolyline
 90
        2
 70
     0
 43
0.001
 10
70.0001220703
 20
-74.99996948242994
 10
97.00012207029999
 20
-74.99996948242994
  0
LWPOLYLINE
  5
53DE
330
53C6
100
AcDbEntity
  8
10
  6
CONTINUOUS
100
AcDbPolyline
 90
        2
 70
     0
 43
0.001
 10
70.0001220703
 20
-74.99996948242994
 10
70.0001220703
 20
-77.49996948242994
  0
LWPOLYLINE
  5
53DF
330
53C6
100
AcDbEntity
  8
10
  6
CONTINUOUS
100
AcDbPolyline
 90
        2
 70
     0
 43
0.001
 10
70.0001220703
 20
-58.99996948242995
 10
70.0001220703
 20
-74.99996948242994
  0
LWPOLYLINE
  5
53E0
330
53C6
100
AcDbEntity
  8
10
  6
CONTINUOUS
100
AcDbPolyline
 90
        2
 70
     0
 43
0.001
 10
113.8001708983999
 20
-70.99996948242995
 10
113.8001708983999
 20
-74.99996948242994
  0
LWPOLYLINE
  5
53E1
330
53C6
100
AcDbEntity
  8
10
  6
CONTINUOUS
100
AcDbPolyline
 90
        2
 70
     0
 43
0.001
 10
113.8001708983999
 20
-62.99996948242995
 10
113.8001708983999
 20
-70.99996948242995
  0
LWPOLYLINE
  5
53E2
330
53C6
100
AcDbEntity
  8
10
  6
CONTINUOUS
100
AcDbPolyline
 90
        2
 70
     0
 43
0.001
 10
97.00012207029999
 20
-74.49996948242994
 10
97.00012207029999
 20
-74.99996948242994
  0
LWPOLYLINE
  5
53E3
330
53C6
100
AcDbEntity
  8
10
  6
CONTINUOUS
100
AcDbPolyline
 90
        2
 70
     0
 43
0.001
 10
97.00012207029999
 20
-59.49996948242994
 10
97.00012207029999
 20
-74.49996948242994
  0
LWPOLYLINE
  5
53E4
330
53C6
100
AcDbEntity
  8
10
  6
CONTINUOUS
100
AcDbPolyline
 90
        2
 70
     0
 43
0.001
 10
102.0001220703
 20
-55.76303100585994
 10
104.3001708983999
 20
-55.76303100585994
  0
LWPOLYLINE
  5
53E5
330
53C6
100
AcDbEntity
  8
10
  6
CONTINUOUS
100
AcDbPolyline
 90
        2
 70
     0
 43
0.001
 10
121.4283245110998
 20
-70.99997084972994
 42
0.2679492641254716
 10
121.4283250196999
 20
-62.9999689960199
 42
0.2679492641254716
  0
LWPOLYLINE
  5
53E6
330
53C6
100
AcDbEntity
  8
10
  6
CONTINUOUS
100
AcDbPolyline
 90
        2
 70
     0
 43
0.001
 10
102.0001220703
 20
-59.49996948242994
 10
102.0001220703
 20
-74.49996948242994
  0
LWPOLYLINE
  5
53E7
330
53C6
100
AcDbEntity
  8
10
  6
CONTINUOUS
100
AcDbPolyline
 90
        2
 70
     0
 43
0.001
 10
104.3001708983999
 20
-70.99996948242995
 10
97.00012207029999
 20
-70.99996948242995
  0
LWPOLYLINE
  5
53E8
330
53C6
100
AcDbEntity
  8
10
  6
CONTINUOUS
100
AcDbPolyline
 90
        2
 70
     0
 43
0.001
 10
104.3001708983999
 20
-62.99996948242995
 10
97.00012207029999
 20
-62.99996948242995
  0
LWPOLYLINE
  5
53E9
330
53C6
100
AcDbEntity
  8
10
  6
CONTINUOUS
100
AcDbPolyline
 90
        2
 70
     0
 43
0.001
 10
104.3001708983999
 20
-70.75277709960994
 10
113.8001708983999
 20
-70.75277709960994
  0
LWPOLYLINE
  5
53EA
330
53C6
100
AcDbEntity
  8
10
  6
CONTINUOUS
100
AcDbPolyline
 90
        2
 70
     0
 43
0.001
 10
104.3001708983999
 20
-63.24716186523994
 10
113.8001708983999
 20
-63.24716186523994
  0
LWPOLYLINE
  5
53EB
330
53C6
100
AcDbEntity
  8
10
  6
CONTINUOUS
100
AcDbPolyline
 90
        2
 70
     0
 43
0.001
 10
113.8001708983999
 20
-58.99996948242995
 10
113.8001708983999
 20
-62.99996948242995
  0
LWPOLYLINE
  5
53EC
330
53C6
100
AcDbEntity
  8
10
  6
CONTINUOUS
100
AcDbPolyline
 90
        2
 70
     0
 43
0.001
 10
102.0001220703
 20
-59.49996948242994
 10
97.00012207029999
 20
-59.49996948242994
  0
LWPOLYLINE
  5
53ED
330
53C6
100
AcDbEntity
  8
10
  6
CONTINUOUS
100
AcDbPolyline
 90
        2
 70
     0
 43
0.001
 10
97.00012207029999
 20
-58.99996948242995
 10
97.00012207029999
 20
-59.49996948242994
  0
LWPOLYLINE
  5
53EE
330
53C6
100
AcDbEntity
  8
10
  6
CONTINUOUS
100
AcDbPolyline
 90
        2
 70
     0
 43
0.001
 10
102.0001220703
 20
-74.49996948242994
 10
97.00012207029999
 20
-74.49996948242994
  0
LWPOLYLINE
  5
53EF
330
53C6
100
AcDbEntity
  8
10
  6
CONTINUOUS
100
AcDbPolyline
 90
        2
 70
     0
 43
0.001
 10
121.4283447264999
 20
-62.99996948242995
 10
113.8001708983999
 20
-62.99996948242995
  0
LWPOLYLINE
  5
53F0
330
53C6
100
AcDbEntity
  8
10
  6
CONTINUOUS
100
AcDbPolyline
 90
        2
 70
     0
 43
0.001
 10
121.4283447264999
 20
-70.99996948242995
 10
113.8001708983999
 20
-70.99996948242995
  0
LWPOLYLINE
  5
53F1
330
53C6
100
AcDbEntity
  8
10
  6
CONTINUOUS
100
AcDbPolyline
 90
        2
 70
     0
 43
0.001
 10
113.8001708983999
 20
-74.99996948242994
 10
104.3001708983999
 20
-74.99996948242994
  0
LWPOLYLINE
  5
53F2
330
53C6
100
AcDbEntity
  8
10
  6
CONTINUOUS
100
AcDbPolyline
 90
        2
 70
     0
 43
0.001
 10
113.8001708983999
 20
-58.99996948242995
 10
104.3001708983999
 20
-58.99996948242995
  0
LWPOLYLINE
  5
53F3
330
53C6
100
AcDbEntity
  8
10
  6
D341
100
AcDbPolyline
 90
        2
 70
     0
 43
0.001
 10
152.0002441405999
 20
-55.76306152343994
 10
152.0002441405999
 20
-106.8797607421899
  0
LWPOLYLINE
  5
53F4
330
53C6
100
AcDbEntity
  8
10
  6
D341
100
AcDbPolyline
 90
        2
 70
     0
 43
0.001
 10
154.3001708983999
 20
-55.76303100585994
 10
154.3001708983999
 20
-106.8797302246099
  0
LWPOLYLINE
  5
53F5
330
53C6
100
AcDbEntity
  8
10
  6
CONTINUOUS
100
AcDbPolyline
 90
        2
 70
     0
 43
0.001
 10
164.3001708983999
 20
-74.99996948242994
 10
154.3001708983999
 20
-74.99996948242994
  0
LWPOLYLINE
  5
53F6
330
53C6
100
AcDbEntity
  8
10
  6
CONTINUOUS
100
AcDbPolyline
 90
        2
 70
     0
 43
0.001
 10
164.3001708983999
 20
-58.99996948242995
 10
154.3001708983999
 20
-58.99996948242995
  0
LWPOLYLINE
  5
53F7
330
53C6
100
AcDbEntity
  8
10
  6
CONTINUOUS
100
AcDbPolyline
 90
        2
 70
     0
 43
0.001
 10
154.3001708983999
 20
-63.24716186523994
 10
164.3001708983999
 20
-63.24716186523994
  0
LWPOLYLINE
  5
53F8
330
53C6
100
AcDbEntity
  8
10
  6
CONTINUOUS
100
AcDbPolyline
 90
        2
 70
     0
 43
0.001
 10
154.3001708983999
 20
-70.75277709960994
 10
164.3001708983999
 20
-70.75277709960994
  0
LWPOLYLINE
  5
53F9
330
53C6
100
AcDbEntity
  8
10
  6
CONTINUOUS
100
AcDbPolyline
 90
        2
 70
     0
 43
0.001
 10
147.0001220702999
 20
-74.49996948242994
 10
147.0001220702999
 20
-74.99996948242994
  0
LWPOLYLINE
  5
53FA
330
53C6
100
AcDbEntity
  8
10
  6
CONTINUOUS
100
AcDbPolyline
 90
        2
 70
     0
 43
0.001
 10
147.0001220702999
 20
-59.49996948242994
 10
147.0001220702999
 20
-74.49996948242994
  0
LWPOLYLINE
  5
53FB
330
53C6
100
AcDbEntity
  8
10
  6
CONTINUOUS
100
AcDbPolyline
 90
        2
 70
     0
 43
0.001
 10
152.0001220703
 20
-55.76303100585994
 10
154.3001708983999
 20
-55.76303100585994
  0
LWPOLYLINE
  5
53FC
330
53C6
100
AcDbEntity
  8
10
  6
CONTINUOUS
100
AcDbPolyline
 90
        2
 70
     0
 43
0.001
 10
154.3001708983999
 20
-70.99996948242995
 10
147.0001220702999
 20
-70.99996948242995
  0
LWPOLYLINE
  5
53FD
330
53C6
100
AcDbEntity
  8
10
  6
CONTINUOUS
100
AcDbPolyline
 90
        2
 70
     0
 43
0.001
 10
154.3001708983999
 20
-62.99996948242995
 10
147.0001220702999
 20
-62.99996948242995
  0
LWPOLYLINE
  5
53FE
330
53C6
100
AcDbEntity
  8
10
  6
CONTINUOUS
100
AcDbPolyline
 90
        2
 70
     0
 43
0.001
 10
147.0001220702999
 20
-59.49996948242994
 10
152.0001220703
 20
-59.49996948242994
  0
LWPOLYLINE
  5
53FF
330
53C6
100
AcDbEntity
  8
10
  6
CONTINUOUS
100
AcDbPolyline
 90
        2
 70
     0
 43
0.001
 10
152.0001220703
 20
-59.49996948242994
 10
152.0001220703
 20
-74.49996948242994
  0
LWPOLYLINE
  5
5400
330
53C6
100
AcDbEntity
  8
10
  6
CONTINUOUS
100
AcDbPolyline
 90
        2
 70
     0
 43
0.001
 10
147.0001220702999
 20
-74.49996948242994
 10
152.0001220703
 20
-74.49996948242994
  0
LWPOLYLINE
  5
5401
330
53C6
100
AcDbEntity
  8
10
  6
CONTINUOUS
100
AcDbPolyline
 90
        2
 70
     0
 43
0.001
 10
147.0001220702999
 20
-58.99996948242995
 10
147.0001220702999
 20
-59.49996948242994
  0
LWPOLYLINE
  5
5402
330
53C6
100
AcDbEntity
  8
10
  6
CONTINUOUS
100
AcDbPolyline
 90
        2
 70
     0
 43
0.001
 10
147.0001220702999
 20
-74.99996948242994
 10
127.5001220702999
 20
-74.99996948242994
  0
LWPOLYLINE
  5
5403
330
53C6
100
AcDbEntity
  8
10
  6
CONTINUOUS
100
AcDbPolyline
 90
        2
 70
     0
 43
0.001
 10
147.0001220702999
 20
-58.99996948242995
 10
127.5001220702999
 20
-58.99996948242995
  0
LWPOLYLINE
  5
5404
330
53C6
100
AcDbEntity
  8
10
  6
CONTINUOUS
100
AcDbPolyline
 90
        2
 70
     0
 43
0.001
 10
164.3001708983999
 20
-70.99996948242995
 10
164.3001708983999
 20
-74.99996948242994
  0
LWPOLYLINE
  5
5405
330
53C6
100
AcDbEntity
  8
10
  6
CONTINUOUS
100
AcDbPolyline
 90
        2
 70
     0
 43
0.001
 10
164.3001708983999
 20
-62.99996948242995
 10
164.3001708983999
 20
-70.99996948242995
  0
LWPOLYLINE
  5
5406
330
53C6
100
AcDbEntity
  8
10
  6
CONTINUOUS
100
AcDbPolyline
 90
        2
 70
     0
 43
0.001
 10
171.4283245110998
 20
-70.99997084972994
 42
0.2679492641254716
 10
171.4283250196999
 20
-62.9999689960199
 42
0.2679492641254716
  0
LWPOLYLINE
  5
5407
330
53C6
100
AcDbEntity
  8
10
  6
CONTINUOUS
100
AcDbPolyline
 90
        2
 70
     0
 43
0.001
 10
171.4283447264999
 20
-70.99996948242995
 10
164.3001708983999
 20
-70.99996948242995
  0
LWPOLYLINE
  5
5408
330
53C6
100
AcDbEntity
  8
10
  6
CONTINUOUS
100
AcDbPolyline
 90
        2
 70
     0
 43
0.001
 10
171.4283447264999
 20
-62.99996948242995
 10
164.3001708983999
 20
-62.99996948242995
  0
LWPOLYLINE
  5
5409
330
53C6
100
AcDbEntity
  8
10
  6
CONTINUOUS
100
AcDbPolyline
 90
        2
 70
     0
 43
0.001
 10
164.3001708983999
 20
-58.99996948242995
 10
164.3001708983999
 20
-62.99996948242995
  0
LWPOLYLINE
  5
540A
330
53C6
100
AcDbEntity
  8
10
  6
CONTINUOUS
100
AcDbPolyline
 90
        2
 70
     0
 43
0.001
 10
60.0001220703
 20
67.00003051757005
 10
239.8000488280999
 20
67.00003051757005
  0
LWPOLYLINE
  5
540B
330
53C6
100
AcDbEntity
  8
10
  6
CONTINUOUS
100
AcDbPolyline
 90
        2
 70
     0
 43
0.001
 10
70.0001220703
 20
59.00003051757005
 10
70.0001220703
 20
50.0
  0
LWPOLYLINE
  5
540C
330
53C6
100
AcDbEntity
  8
10
  6
CONTINUOUS
100
AcDbPolyline
 90
        2
 70
     0
 43
0.001
 10
25.80004882809999
 20
77.50015258789011
 10
25.80004882809999
 20
50.0
  0
LWPOLYLINE
  5
540D
330
53C6
100
AcDbEntity
  8
10
  6
CONTINUOUS
100
AcDbPolyline
 90
        2
 70
     0
 43
0.001
 10
0.0
 20
96.00006103514999
 10
0.0
 20
25.00012207031005
  0
LWPOLYLINE
  5
540E
330
53C6
100
AcDbEntity
  8
10
  6
CONTINUOUS
100
AcDbPolyline
 90
        2
 70
     0
 43
0.001
 10
70.0001220703
 20
50.0
 10
25.80004882809999
 20
50.0
  0
LWPOLYLINE
  5
540F
330
53C6
100
AcDbEntity
  8
10
  6
CONTINUOUS
100
AcDbPolyline
 90
        2
 70
     0
 43
0.001
 10
70.0001220703
 20
-50.00003051757994
 10
25.80004882809999
 20
-50.00003051757994
  0
LWPOLYLINE
  5
5410
330
53C6
100
AcDbEntity
  8
10
  6
CONTINUOUS
100
AcDbPolyline
 90
        2
 70
     0
 43
0.001
 10
0.0
 20
25.00012207031005
 10
0.0
 20
-24.99999999999994
  0
LWPOLYLINE
  5
5411
330
53C6
100
AcDbEntity
  8
10
  6
CONTINUOUS
100
AcDbPolyline
 90
        2
 70
     0
 43
0.001
 10
-1.999877929700005
 20
6.505249023430053
 10
-1.999877929700005
 20
-24.99999999999994
  0
LWPOLYLINE
  5
5412
330
53C6
100
AcDbEntity
  8
10
  6
CONTINUOUS
100
AcDbPolyline
 90
        2
 70
     0
 43
0.001
 10
0.0
 20
-24.99999999999994
 10
-1.999877929700005
 20
-24.99999999999994
  0
LWPOLYLINE
  5
5413
330
53C6
100
AcDbEntity
  8
10
  6
CONTINUOUS
100
AcDbPolyline
 90
        2
 70
     0
 43
0.001
 10
-1.999877929700005
 20
14.87072753906005
 10
-1.999877929700005
 20
6.505249023430053
  0
LWPOLYLINE
  5
5414
330
53C6
100
AcDbEntity
  8
10
  6
CONTINUOUS
100
AcDbPolyline
 90
        2
 70
     0
 43
0.001
 10
-1.999877929700005
 20
6.505249023430053
 10
-16.0
 20
11.83114624023005
  0
LWPOLYLINE
  5
5415
330
53C6
100
AcDbEntity
  8
10
  6
CONTINUOUS
100
AcDbPolyline
 90
        2
 70
     0
 43
0.001
 10
-13.80603027350002
 20
17.59851074218005
 10
-16.0
 20
11.83114624023005
  0
LWPOLYLINE
  5
5416
330
53C6
100
AcDbEntity
  8
10
  6
CONTINUOUS
100
AcDbPolyline
 90
        2
 70
     0
 43
0.001
 10
-1.999877929700005
 20
14.87072753906005
 10
-13.80603027350002
 20
17.59851074218005
  0
LWPOLYLINE
  5
5417
330
53C6
100
AcDbEntity
  8
10
  6
CONTINUOUS
100
AcDbPolyline
 90
        2
 70
     0
 43
0.001
 10
-1.999877929700005
 20
25.00012207031005
 10
0.0
 20
25.00012207031005
  0
LWPOLYLINE
  5
5418
330
53C6
100
AcDbEntity
  8
10
  6
CONTINUOUS
100
AcDbPolyline
 90
        2
 70
     0
 43
0.001
 10
-1.999877929700005
 20
25.00012207031005
 10
-1.999877929700005
 20
14.87072753906005
  0
LWPOLYLINE
  5
5419
330
53C6
100
AcDbEntity
  8
10
  6
CONTINUOUS
100
AcDbPolyline
 90
        2
 70
     0
 43
0.001
 10
70.0001220703
 20
50.0
 10
70.0001220703
 20
-50.00003051757994
  0
LWPOLYLINE
  5
541A
330
53C6
100
AcDbEntity
  8
10
  6
CONTINUOUS
100
AcDbPolyline
 90
        2
 70
     0
 43
0.001
 10
72.70007324209996
 20
50.0
 10
72.70007324209996
 20
-50.00003051757994
  0
LWPOLYLINE
  5
541B
330
53C6
100
AcDbEntity
  8
10
  6
CONTINUOUS
100
AcDbPolyline
 90
        2
 70
     0
 43
0.001
 10
72.70007324209996
 20
-50.00003051757994
 10
70.0001220703
 20
-50.00003051757994
  0
LWPOLYLINE
  5
541C
330
53C6
100
AcDbEntity
  8
10
  6
CONTINUOUS
100
AcDbPolyline
 90
        2
 70
     0
 43
0.001
 10
72.70007324209996
 20
50.0
 10
70.0001220703
 20
50.0
  0
LWPOLYLINE
  5
541D
330
53C6
100
AcDbEntity
  8
10
  6
CONTINUOUS
100
AcDbPolyline
 90
        2
 70
     0
 43
0.001
 10
70.0001220703
 20
77.50015258789011
 10
19.0
 20
77.50015258789011
  0
LWPOLYLINE
  5
541E
330
53C6
100
AcDbEntity
  8
10
  6
D329
100
AcDbPolyline
 90
        2
 70
     0
 43
0.001
 10
15.0
 20
130.00006103515
 10
15.0
 20
96.00006103514999
  0
LWPOLYLINE
  5
541F
330
53C6
100
AcDbEntity
  8
10
  6
D329
100
AcDbPolyline
 90
        2
 70
     0
 43
0.001
 10
19.0
 20
130.00006103515
 10
19.0
 20
77.50015258789011
  0
LWPOLYLINE
  5
5420
330
53C6
100
AcDbEntity
  8
10
  6
CONTINUOUS
100
AcDbPolyline
 90
        2
 70
     0
 43
0.001
 10
0.0
 20
96.00006103514999
 10
15.0
 20
96.00006103514999
  0
LWPOLYLINE
  5
5421
330
53C6
100
AcDbEntity
  8
10
  6
D329
100
AcDbPolyline
 90
        2
 70
     0
 43
0.001
 10
19.0
 20
130.00006103515
 10
15.0
 20
130.00006103515
  0
LWPOLYLINE
  5
5422
330
53C6
100
AcDbEntity
  8
10
  6
D341
100
AcDbPolyline
 90
        2
 70
     0
 43
0.001
 10
102.0001220703
 20
55.76309204101005
 10
102.0001220703
 20
106.87979125976
  0
LWPOLYLINE
  5
5423
330
53C6
100
AcDbEntity
  8
10
  6
D341
100
AcDbPolyline
 90
        2
 70
     0
 43
0.001
 10
104.3001708983999
 20
55.76309204101005
 10
104.3001708983999
 20
106.87979125976
  0
LWPOLYLINE
  5
5424
330
53C6
100
AcDbEntity
  8
10
  6
CONTINUOUS
100
AcDbPolyline
 90
        2
 70
     0
 43
0.001
 10
70.0001220703
 20
75.00003051757005
 10
97.00012207029999
 20
75.00003051757005
  0
LWPOLYLINE
  5
5425
330
53C6
100
AcDbEntity
  8
10
  6
CONTINUOUS
100
AcDbPolyline
 90
        2
 70
     0
 43
0.001
 10
70.0001220703
 20
59.00003051757005
 10
97.00012207029999
 20
59.00003051757005
  0
LWPOLYLINE
  5
5426
330
53C6
100
AcDbEntity
  8
10
  6
CONTINUOUS
100
AcDbPolyline
 90
        2
 70
     0
 43
0.001
 10
70.0001220703
 20
75.00003051757005
 10
70.0001220703
 20
59.00003051757005
  0
LWPOLYLINE
  5
5427
330
53C6
100
AcDbEntity
  8
10
  6
CONTINUOUS
100
AcDbPolyline
 90
        2
 70
     0
 43
0.001
 10
70.0001220703
 20
77.50015258789011
 10
70.0001220703
 20
75.00003051757005
  0
LWPOLYLINE
  5
5428
330
53C6
100
AcDbEntity
  8
10
  6
CONTINUOUS
100
AcDbPolyline
 90
        2
 70
     0
 43
0.001
 10
113.8001708983999
 20
63.00003051757006
 10
113.8001708983999
 20
59.00003051757005
  0
LWPOLYLINE
  5
5429
330
53C6
100
AcDbEntity
  8
10
  6
CONTINUOUS
100
AcDbPolyline
 90
        2
 70
     0
 43
0.001
 10
113.8001708983999
 20
71.00003051757005
 10
113.8001708983999
 20
63.00003051757006
  0
LWPOLYLINE
  5
542A
330
53C6
100
AcDbEntity
  8
10
  6
CONTINUOUS
100
AcDbPolyline
 90
        2
 70
     0
 43
0.001
 10
97.00012207029999
 20
59.50003051757005
 10
97.00012207029999
 20
59.00003051757005
  0
LWPOLYLINE
  5
542B
330
53C6
100
AcDbEntity
  8
10
  6
CONTINUOUS
100
AcDbPolyline
 90
        2
 70
     0
 43
0.001
 10
97.00012207029999
 20
74.50003051757005
 10
97.00012207029999
 20
59.50003051757005
  0
LWPOLYLINE
  5
542C
330
53C6
100
AcDbEntity
  8
10
  6
CONTINUOUS
100
AcDbPolyline
 90
        2
 70
     0
 43
0.001
 10
121.4283245110998
 20
63.00002915027
 42
0.2679492641254716
 10
121.4283250196999
 20
71.00003100398004
 42
0.2679492641254716
  0
LWPOLYLINE
  5
542D
330
53C6
100
AcDbEntity
  8
10
  6
CONTINUOUS
100
AcDbPolyline
 90
        2
 70
     0
 43
0.001
 10
102.0001220703
 20
74.50003051757005
 10
102.0001220703
 20
59.50003051757005
  0
LWPOLYLINE
  5
542E
330
53C6
100
AcDbEntity
  8
10
  6
CONTINUOUS
100
AcDbPolyline
 90
        2
 70
     0
 43
0.001
 10
104.3001708983999
 20
63.00003051757006
 10
97.00012207029999
 20
63.00003051757006
  0
LWPOLYLINE
  5
542F
330
53C6
100
AcDbEntity
  8
10
  6
CONTINUOUS
100
AcDbPolyline
 90
        2
 70
     0
 43
0.001
 10
104.3001708983999
 20
71.00003051757005
 10
97.00012207029999
 20
71.00003051757005
  0
LWPOLYLINE
  5
5430
330
53C6
100
AcDbEntity
  8
10
  6
CONTINUOUS
100
AcDbPolyline
 90
        2
 70
     0
 43
0.001
 10
104.3001708983999
 20
63.24722290039011
 10
113.8001708983999
 20
63.24722290039011
  0
LWPOLYLINE
  5
5431
330
53C6
100
AcDbEntity
  8
10
  6
CONTINUOUS
100
AcDbPolyline
 90
        2
 70
     0
 43
0.001
 10
104.3001708983999
 20
70.75283813476005
 10
113.8001708983999
 20
70.75283813476005
  0
LWPOLYLINE
  5
5432
330
53C6
100
AcDbEntity
  8
10
  6
CONTINUOUS
100
AcDbPolyline
 90
        2
 70
     0
 43
0.001
 10
113.8001708983999
 20
75.00003051757005
 10
113.8001708983999
 20
71.00003051757005
  0
LWPOLYLINE
  5
5433
330
53C6
100
AcDbEntity
  8
10
  6
CONTINUOUS
100
AcDbPolyline
 90
        2
 70
     0
 43
0.001
 10
102.0001220703
 20
74.50003051757005
 10
97.00012207029999
 20
74.50003051757005
  0
LWPOLYLINE
  5
5434
330
53C6
100
AcDbEntity
  8
10
  6
CONTINUOUS
100
AcDbPolyline
 90
        2
 70
     0
 43
0.001
 10
97.00012207029999
 20
75.00003051757005
 10
97.00012207029999
 20
74.50003051757005
  0
LWPOLYLINE
  5
5435
330
53C6
100
AcDbEntity
  8
10
  6
CONTINUOUS
100
AcDbPolyline
 90
        2
 70
     0
 43
0.001
 10
102.0001220703
 20
59.50003051757005
 10
97.00012207029999
 20
59.50003051757005
  0
LWPOLYLINE
  5
5436
330
53C6
100
AcDbEntity
  8
10
  6
CONTINUOUS
100
AcDbPolyline
 90
        2
 70
     0
 43
0.001
 10
121.4283447264999
 20
71.00003051757005
 10
113.8001708983999
 20
71.00003051757005
  0
LWPOLYLINE
  5
5437
330
53C6
100
AcDbEntity
  8
10
  6
CONTINUOUS
100
AcDbPolyline
 90
        2
 70
     0
 43
0.001
 10
121.4283447264999
 20
63.00003051757006
 10
113.8001708983999
 20
63.00003051757006
  0
LWPOLYLINE
  5
5438
330
53C6
100
AcDbEntity
  8
10
  6
CONTINUOUS
100
AcDbPolyline
 90
        2
 70
     0
 43
0.001
 10
113.8001708983999
 20
59.00003051757005
 10
104.3001708983999
 20
59.00003051757005
  0
LWPOLYLINE
  5
5439
330
53C6
100
AcDbEntity
  8
10
  6
CONTINUOUS
100
AcDbPolyline
 90
        2
 70
     0
 43
0.001
 10
104.3001708983999
 20
75.00003051757005
 10
113.8001708983999
 20
75.00003051757005
  0
LWPOLYLINE
  5
543A
330
53C6
100
AcDbEntity
  8
10
  6
CONTINUOUS
100
AcDbPolyline
 90
        2
 70
     0
 43
0.001
 10
102.0001220703
 20
55.76309204101005
 10
104.3001708983999
 20
55.76309204101005
  0
LWPOLYLINE
  5
543B
330
53C6
100
AcDbEntity
  8
10
  6
D341
100
AcDbPolyline
 90
        2
 70
     0
 43
0.001
 10
154.3001708983999
 20
55.76309204101005
 10
154.3001708983999
 20
106.87979125976
  0
LWPOLYLINE
  5
543C
330
53C6
100
AcDbEntity
  8
10
  6
D341
100
AcDbPolyline
 90
        2
 70
     0
 43
0.001
 10
152.0001220703
 20
55.76309204101005
 10
152.0001220703
 20
106.87979125976
  0
LWPOLYLINE
  5
543D
330
53C6
100
AcDbEntity
  8
10
  6
CONTINUOUS
100
AcDbPolyline
 90
        2
 70
     0
 43
0.001
 10
164.3001708983999
 20
59.00003051757005
 10
154.3001708983999
 20
59.00003051757005
  0
LWPOLYLINE
  5
543E
330
53C6
100
AcDbEntity
  8
10
  6
CONTINUOUS
100
AcDbPolyline
 90
        2
 70
     0
 43
0.001
 10
164.3001708983999
 20
75.00003051757005
 10
154.3001708983999
 20
75.00003051757005
  0
LWPOLYLINE
  5
543F
330
53C6
100
AcDbEntity
  8
10
  6
CONTINUOUS
100
AcDbPolyline
 90
        2
 70
     0
 43
0.001
 10
154.3001708983999
 20
70.75283813476005
 10
164.3001708983999
 20
70.75283813476005
  0
LWPOLYLINE
  5
5440
330
53C6
100
AcDbEntity
  8
10
  6
CONTINUOUS
100
AcDbPolyline
 90
        2
 70
     0
 43
0.001
 10
154.3001708983999
 20
63.24722290039011
 10
164.3001708983999
 20
63.24722290039011
  0
LWPOLYLINE
  5
5441
330
53C6
100
AcDbEntity
  8
10
  6
CONTINUOUS
100
AcDbPolyline
 90
        2
 70
     0
 43
0.001
 10
147.0001220702999
 20
59.50003051757005
 10
147.0001220702999
 20
59.00003051757005
  0
LWPOLYLINE
  5
5442
330
53C6
100
AcDbEntity
  8
10
  6
CONTINUOUS
100
AcDbPolyline
 90
        2
 70
     0
 43
0.001
 10
147.0001220702999
 20
74.50003051757005
 10
147.0001220702999
 20
59.50003051757005
  0
LWPOLYLINE
  5
5443
330
53C6
100
AcDbEntity
  8
10
  6
CONTINUOUS
100
AcDbPolyline
 90
        2
 70
     0
 43
0.001
 10
154.3001708983999
 20
63.00003051757006
 10
147.0001220702999
 20
63.00003051757006
  0
LWPOLYLINE
  5
5444
330
53C6
100
AcDbEntity
  8
10
  6
CONTINUOUS
100
AcDbPolyline
 90
        2
 70
     0
 43
0.001
 10
154.3001708983999
 20
71.00003051757005
 10
147.0001220702999
 20
71.00003051757005
  0
LWPOLYLINE
  5
5445
330
53C6
100
AcDbEntity
  8
10
  6
CONTINUOUS
100
AcDbPolyline
 90
        2
 70
     0
 43
0.001
 10
147.0001220702999
 20
74.50003051757005
 10
152.0001220703
 20
74.50003051757005
  0
LWPOLYLINE
  5
5446
330
53C6
100
AcDbEntity
  8
10
  6
CONTINUOUS
100
AcDbPolyline
 90
        2
 70
     0
 43
0.001
 10
152.0001220703
 20
74.50003051757005
 10
152.0001220703
 20
59.50003051757005
  0
LWPOLYLINE
  5
5447
330
53C6
100
AcDbEntity
  8
10
  6
CONTINUOUS
100
AcDbPolyline
 90
        2
 70
     0
 43
0.001
 10
147.0001220702999
 20
59.50003051757005
 10
152.0001220703
 20
59.50003051757005
  0
LWPOLYLINE
  5
5448
330
53C6
100
AcDbEntity
  8
10
  6
CONTINUOUS
100
AcDbPolyline
 90
        2
 70
     0
 43
0.001
 10
147.0001220702999
 20
75.00003051757005
 10
147.0001220702999
 20
74.50003051757005
  0
LWPOLYLINE
  5
5449
330
53C6
100
AcDbEntity
  8
10
  6
CONTINUOUS
100
AcDbPolyline
 90
        2
 70
     0
 43
0.001
 10
147.0001220702999
 20
59.00003051757005
 10
127.5001220702999
 20
59.00003051757005
  0
LWPOLYLINE
  5
544A
330
53C6
100
AcDbEntity
  8
10
  6
CONTINUOUS
100
AcDbPolyline
 90
        2
 70
     0
 43
0.001
 10
147.0001220702999
 20
75.00003051757005
 10
127.5001220702999
 20
75.00003051757005
  0
LWPOLYLINE
  5
544B
330
53C6
100
AcDbEntity
  8
10
  6
CONTINUOUS
100
AcDbPolyline
 90
        2
 70
     0
 43
0.001
 10
152.0001220703
 20
55.76309204101005
 10
154.3001708983999
 20
55.76309204101005
  0
LWPOLYLINE
  5
544C
330
53C6
100
AcDbEntity
  8
10
  6
CONTINUOUS
100
AcDbPolyline
 90
        2
 70
     0
 43
0.001
 10
164.3001708983999
 20
63.00003051757006
 10
164.3001708983999
 20
59.00003051757005
  0
LWPOLYLINE
  5
544D
330
53C6
100
AcDbEntity
  8
10
  6
CONTINUOUS
100
AcDbPolyline
 90
        2
 70
     0
 43
0.001
 10
164.3001708983999
 20
71.00003051757005
 10
164.3001708983999
 20
63.00003051757006
  0
LWPOLYLINE
  5
544E
330
53C6
100
AcDbEntity
  8
10
  6
CONTINUOUS
100
AcDbPolyline
 90
        2
 70
     0
 43
0.001
 10
171.4283245110998
 20
63.00002915027
 42
0.2679492641254716
 10
171.4283250196999
 20
71.00003100398004
 42
0.2679492641254716
  0
LWPOLYLINE
  5
544F
330
53C6
100
AcDbEntity
  8
10
  6
CONTINUOUS
100
AcDbPolyline
 90
        2
 70
     0
 43
0.001
 10
171.4283447264999
 20
63.00003051757006
 10
164.3001708983999
 20
63.00003051757006
  0
LWPOLYLINE
  5
5450
330
53C6
100
AcDbEntity
  8
10
  6
CONTINUOUS
100
AcDbPolyline
 90
        2
 70
     0
 43
0.001
 10
171.4283447264999
 20
71.00003051757005
 10
164.3001708983999
 20
71.00003051757005
  0
LWPOLYLINE
  5
5451
330
53C6
100
AcDbEntity
  8
10
  6
CONTINUOUS
100
AcDbPolyline
 90
        2
 70
     0
 43
0.001
 10
164.3001708983999
 20
75.00003051757005
 10
164.3001708983999
 20
71.00003051757005
  0
ENDBLK
  5
5453
330
53C6
100
AcDbEntity
  8
0
100
AcDbBlockEnd
  0
BLOCK
  5
572E
330
572B
100
AcDbEntity
  8
L210_
  6
CONTINUOUS
 62
     4
100
AcDbBlockBegin
  2
B2383
 70
     0
 10
0.0
 20
0.0
 30
0.0
  3
B2383
  1

  0
TEXT
  5
572C
330
572B
100
AcDbEntity
  8
L210_
  6
CONTINUOUS
 62
     4
100
AcDbText
 10
1634.50866699219
 20
455.024810791016
 30
0.0
 40
12.0
  1
n
 41
1.5390625
  7
SYMBOL3
 72
     5
 11
1646.50866699219
 21
455.024810791016
 31
0.0
100
AcDbText
 73
     2
  0
TEXT
  5
572D
330
572B
100
AcDbEntity
  8
L210_
  6
CONTINUOUS
 62
     4
100
AcDbText
 10
1652.50866699219
 20
455.024810791016
 30
0.0
 40
12.0
  1
9
 41
1.050000000000011
 72
     5
 11
1660.90866699219
 21
455.024810791016
 31
0.0
100
AcDbText
 73
     2
  0
ENDBLK
  5
572F
330
572B
100
AcDbEntity
  8
L210_
  6
CONTINUOUS
 62
     4
100
AcDbBlockEnd
  0
BLOCK
  5
5736
330
5730
100
AcDbEntity
  8
0
100
AcDbBlockBegin
  2
*D10
 70
     1
 10
0.0
 20
0.0
 30
0.0
  3
*D10
  1

  0
LINE
  5
5731
330
5730
100
AcDbEntity
  8
0
  6
BYBLOCK
 62
     4
100
AcDbLine
 10
1588.251651067949
 20
494.6908712885527
 30
0.0
 11
1628.550785128842
 21
449.4601341890538
 31
0.0
  0
LINE
  5
5732
330
5730
100
AcDbEntity
  8
0
  6
BYBLOCK
 62
     4
100
AcDbLine
 10
1628.550785128842
 20
449.4601341890538
 30
0.0
 11
1628.640785128842
 21
449.4601341890538
 31
0.0
  0
SOLID
  5
5733
330
5730
100
AcDbEntity
  8
0
  6
BYBLOCK
 62
     4
100
AcDbTrace
 10
1586.385055966953
 20
493.0277950037911
 30
0.0
 11
1590.118246168946
 21
496.3539475733141
 31
0.0
 12
1578.27319335938
 22
505.890441894531
 32
0.0
 13
1578.27319335938
 23
505.890441894531
 33
0.0
  0
POINT
  5
5734
330
5730
100
AcDbEntity
  8
DEFPOINTS
  6
BYBLOCK
 62
     0
100
AcDbPoint
 10
1578.27319335938
 20
505.890441894531
 30
0.0
  0
POINT
  5
5735
330
5730
100
AcDbEntity
  8
DEFPOINTS
  6
BYBLOCK
 62
     0
100
AcDbPoint
 10
1572.286132812499
 20
512.6101684570311
 30
0.0
  0
ENDBLK
  5
5737
330
5730
100
AcDbEntity
  8
0
100
AcDbBlockEnd
  0
BLOCK
  5
573B
330
5738
100
AcDbEntity
  8
L210_
100
AcDbBlockBegin
  2
B2387
 70
     0
 10
0.0
 20
0.0
 30
0.0
  3
B2387
  1

  0
DIMENSION
  5
5739
330
5738
100
AcDbEntity
  8
L210_
100
AcDbDimension
  2
*D10
 10
1572.286132812499
 20
512.610168457031
 30
0.0
 11
1389.58799470825
 21
376.195648193359
 31
0.0
 70
     3
  1
 
100
AcDbDiametricDimension
 15
1578.27319335938
 25
505.890441894531
 35
0.0
 40
75.57920257499124
  0
INSERT
  5
573A
330
5738
100
AcDbEntity
  8
L210_
  6
CONTINUOUS
 62
     4
100
AcDbBlockReference
  2
B2383
 10
0.0
 20
0.0
 30
0.0
  0
ENDBLK
  5
573C
330
5738
100
AcDbEntity
  8
L210_
100
AcDbBlockEnd
  0
BLOCK
  5
5F74
330
5F6A
100
AcDbEntity
  8
0
100
AcDbBlockBegin
  2
*D12
 70
     1
 10
0.0
 20
0.0
 30
0.0
  3
*D12
  1

  0
LINE
  5
5F6B
330
5F6A
100
AcDbEntity
  8
30
  6
CONTINUOUS
 62
     0
100
AcDbLine
 10
0.1181906098743895
 20
311.8005361318753
 30
0.0
 11
0.1181906098743913
 21
340.6194088241316
 31
0.0
  0
LINE
  5
5F6C
330
5F6A
100
AcDbEntity
  8
30
  6
CONTINUOUS
 62
     0
100
AcDbLine
 10
35.11819060987439
 20
276.8005361318753
 30
0.0
 11
35.1181906098744
 21
340.6194088241316
 31
0.0
  0
LINE
  5
5F6D
330
5F6A
100
AcDbEntity
  8
30
  6
CONTINUOUS
 62
     0
100
AcDbLine
 10
2.118190609874391
 20
340.1194088241315
 30
0.0
 11
33.11819060987439
 21
340.1194088241315
 31
0.0
  0
INSERT
  5
5F6E
330
5F6A
100
AcDbEntity
  8
30
  6
CONTINUOUS
 62
     0
100
AcDbBlockReference
  2
_OPEN
 10
0.1181906098743912
 20
340.1194088241315
 30
0.0
 41
2.0
 42
2.0
 43
2.0
 50
180.0
  0
INSERT
  5
5F6F
330
5F6A
100
AcDbEntity
  8
30
  6
CONTINUOUS
 62
     0
100
AcDbBlockReference
  2
_OPEN
 10
35.1181906098744
 20
340.1194088241315
 30
0.0
 41
2.0
 42
2.0
 43
2.0
  0
MTEXT
  5
5F70
330
5F6A
100
AcDbEntity
  8
30
  6
CONTINUOUS
 62
     0
100
AcDbMText
 10
17.61819060987439
 20
343.1194088241316
 30
0.0
 40
4.0
 41
0.0
 71
     5
 72
     1
  1
\A1;35
1001
ACAD
1000
MTEXTBEGIN
1070
    73
1070
     1
1070
    44
1040
1.0
1070
    74
1070
     0
1000
MTEXTEND
  0
POINT
  5
5F71
330
5F6A
100
AcDbEntity
  8
DEFPOINTS
  6
CONTINUOUS
 62
     0
100
AcDbPoint
 10
0.1181906098743894
 20
310.8005361318753
 30
0.0
  0
POINT
  5
5F72
330
5F6A
100
AcDbEntity
  8
DEFPOINTS
  6
CONTINUOUS
 62
     0
100
AcDbPoint
 10
35.11819060987439
 20
275.8005361318753
 30
0.0
  0
POINT
  5
5F73
330
5F6A
100
AcDbEntity
  8
DEFPOINTS
  6
CONTINUOUS
 62
     0
100
AcDbPoint
 10
35.1181906098744
 20
340.1194088241315
 30
0.0
  0
ENDBLK
  5
5F75
330
5F6A
100
AcDbEntity
  8
0
100
AcDbBlockEnd
  0
BLOCK
  5
5F7A
330
5F76
100
AcDbEntity
  8
0
100
AcDbBlockBegin
  2
A$C59C36ED1
 70
     0
 10
0.0
 20
0.0
 30
0.0
  3
A$C59C36ED1
  1

  0
DIMENSION
  5
5F77
330
5F76
100
AcDbEntity
  8
30
  6
CONTINUOUS
100
AcDbDimension
  2
*D12
 10
0.0000000000000071
 20
64.31887269225626
 30
0.0
 11
-17.49999999999999
 21
67.31887269225627
 31
0.0
 12
-35.11819060987439
 22
-275.8005361318753
 32
0.0
  3
STANDARD
100
AcDbAlignedDimension
 13
-35.0
 23
35.0
 33
0.0
 14
0.0
 24
0.0
 34
0.0
100
AcDbRotatedDimension
1001
ACAD
1000
DSTYLE
1002
{
1070
   287
1070
     4
1070
   287
1070
     4
1070
   287
1070
     4
1070
   279
1070
     1
1002
}
  0
LINE
  5
5F78
330
5F76
100
AcDbEntity
  8
17
  6
CONTINOUS
100
AcDbLine
 10
8.0
 20
0.0
 30
0.0
 11
-8.0
 21
0.0
 31
0.0
  0
LINE
  5
5F79
330
5F76
100
AcDbEntity
  8
17
  6
CONTINOUS
100
AcDbLine
 10
0.0
 20
-8.0
 30
0.0
 11
0.0
 21
8.0
 31
0.0
  0
ENDBLK
  5
5F7B
330
5F76
100
AcDbEntity
  8
0
100
AcDbBlockEnd
  0
BLOCK
  5
6B98
330
6B8F
100
AcDbEntity
  8
0
100
AcDbBlockBegin
  2
*D14
 70
     1
 10
0.0
 20
0.0
 30
0.0
  3
*D14
  1

  0
LINE
  5
75A6
330
6B8F
100
AcDbEntity
  8
30
  6
CONTINUOUS
 62
     0
100
AcDbLine
 10
163.5618512824186
 20
-454.0005275142471
 30
0.0
 11
149.2285179490865
 21
-454.0005275142471
 31
0.0
  0
LINE
  5
75A7
330
6B8F
100
AcDbEntity
  8
30
  6
CONTINUOUS
 62
     0
100
AcDbLine
 10
149.2285179490865
 20
-454.0005275142471
 30
0.0
 11
126.6215770472136
 21
-465.0794143327338
 31
0.0
  0
MTEXT
  5
75A8
330
6B8F
100
AcDbEntity
  8
30
  6
CONTINUOUS
 62
     0
100
AcDbMText
 10
159.3951846157519
 20
-450.5005275142472
 30
0.0
 40
5.0
 41
0.0
 71
     5
 72
     1
  1
\A1;%%c9
1001
ACAD
1000
MTEXTBEGIN
1070
    73
1070
     1
1070
    44
1040
1.0
1070
    74
1070
     0
1000
MTEXTEND
  0
INSERT
  5
75A9
330
6B8F
100
AcDbEntity
  8
30
  6
CONTINUOUS
 62
     0
100
AcDbBlockReference
  2
_OPEN
 10
124.8256430847443
 20
-465.9595400069698
 30
0.0
 41
2.0
 42
2.0
 43
2.0
 50
206.1078904606274
  0
LINE
  5
75AA
330
6B8F
100
AcDbEntity
  8
30
  6
CONTINUOUS
 62
     0
100
AcDbLine
 10
122.0417421410403
 20
-467.2797285183238
 30
0.0
 11
122.2217421410403
 21
-467.2797285183238
 31
0.0
  0
LINE
  5
75AB
330
6B8F
100
AcDbEntity
  8
30
  6
CONTINUOUS
 62
     0
100
AcDbLine
 10
122.1317421410403
 20
-467.3697285183237
 30
0.0
 11
122.1317421410403
 21
-467.1897285183238
 31
0.0
  0
POINT
  5
75AC
330
6B8F
100
AcDbEntity
  8
DEFPOINTS
  6
CONTINUOUS
 62
     0
100
AcDbPoint
 10
124.8256430847443
 20
-465.9595400069698
 30
0.0
  0
POINT
  5
75AD
330
6B8F
100
AcDbEntity
  8
DEFPOINTS
  6
CONTINUOUS
 62
     0
100
AcDbPoint
 10
119.4378411973364
 20
-468.5999170296778
 30
0.0
  0
ENDBLK
  5
6B99
330
6B8F
100
AcDbEntity
  8
0
100
AcDbBlockEnd
  0
BLOCK
  5
6BC2
330
6BB8
100
AcDbEntity
  8
0
100
AcDbBlockBegin
  2
*D15
 70
     1
 10
0.0
 20
0.0
 30
0.0
  3
*D15
  1

  0
LINE
  5
75B7
330
6BB8
100
AcDbEntity
  8
30
  6
CONTINUOUS
 62
     0
100
AcDbLine
 10
-122.5
 20
-670.3467593415666
 30
0.0
 11
-122.5
 21
-808.366248617624
 31
0.0
  0
LINE
  5
75B8
330
6BB8
100
AcDbEntity
  8
30
  6
CONTINUOUS
 62
     0
100
AcDbLine
 10
122.5
 20
-670.3467589481638
 30
0.0
 11
122.4999999999999
 21
-808.366248617624
 31
0.0
  0
LINE
  5
75B9
330
6BB8
100
AcDbEntity
  8
30
  6
CONTINUOUS
 62
     0
100
AcDbLine
 10
-120.5
 20
-807.866248617624
 30
0.0
 11
120.4999999999999
 21
-807.866248617624
 31
0.0
  0
INSERT
  5
75BA
330
6BB8
100
AcDbEntity
  8
30
  6
CONTINUOUS
 62
     0
100
AcDbBlockReference
  2
_OPEN
 10
-122.5
 20
-807.866248617624
 30
0.0
 41
2.0
 42
2.0
 43
2.0
 50
180.0
  0
INSERT
  5
75BB
330
6BB8
100
AcDbEntity
  8
30
  6
CONTINUOUS
 62
     0
100
AcDbBlockReference
  2
_OPEN
 10
122.4999999999999
 20
-807.866248617624
 30
0.0
 41
2.0
 42
2.0
 43
2.0
  0
MTEXT
  5
75BC
330
6BB8
100
AcDbEntity
  8
30
  6
CONTINUOUS
 62
     0
100
AcDbMText
 10
-0.000000000000014
 20
-804.366248617624
 30
0.0
 40
5.0
 41
0.0
 71
     5
 72
     1
  1
\A1;245
1001
ACAD
1000
MTEXTBEGIN
1070
    73
1070
     1
1070
    44
1040
1.0
1070
    74
1070
     0
1000
MTEXTEND
  0
POINT
  5
75BD
330
6BB8
100
AcDbEntity
  8
DEFPOINTS
  6
CONTINUOUS
 62
     0
100
AcDbPoint
 10
-122.5
 20
-669.3467593415666
 30
0.0
  0
POINT
  5
75BE
330
6BB8
100
AcDbEntity
  8
DEFPOINTS
  6
CONTINUOUS
 62
     0
100
AcDbPoint
 10
122.5
 20
-669.3467589481638
 30
0.0
  0
POINT
  5
75BF
330
6BB8
100
AcDbEntity
  8
DEFPOINTS
  6
CONTINUOUS
 62
     0
100
AcDbPoint
 10
122.4999999999999
 20
-807.866248617624
 30
0.0
  0
ENDBLK
  5
6BC3
330
6BB8
100
AcDbEntity
  8
0
100
AcDbBlockEnd
  0
BLOCK
  5
6BCF
330
6BC5
100
AcDbEntity
  8
0
100
AcDbBlockBegin
  2
*D16
 70
     1
 10
0.0
 20
0.0
 30
0.0
  3
*D16
  1

  0
LINE
  5
75AE
330
6BC5
100
AcDbEntity
  8
30
  6
CONTINUOUS
 62
     0
100
AcDbLine
 10
-138.5
 20
-469.3467288239867
 30
0.0
 11
-163.4999999999999
 21
-469.3467288239867
 31
0.0
  0
LINE
  5
75AF
330
6BC5
100
AcDbEntity
  8
30
  6
CONTINUOUS
 62
     0
100
AcDbLine
 10
-138.5
 20
-654.3467593415666
 30
0.0
 11
-163.4999999999999
 21
-654.3467593415666
 31
0.0
  0
LINE
  5
75B0
330
6BC5
100
AcDbEntity
  8
30
  6
CONTINUOUS
 62
     0
100
AcDbLine
 10
-162.9999999999999
 20
-471.3467288239867
 30
0.0
 11
-163.0
 21
-652.3467593415666
 31
0.0
  0
INSERT
  5
75B1
330
6BC5
100
AcDbEntity
  8
30
  6
CONTINUOUS
 62
     0
100
AcDbBlockReference
  2
_OPEN
 10
-162.9999999999999
 20
-469.3467288239867
 30
0.0
 41
2.0
 42
2.0
 43
2.0
 50
90.0
  0
INSERT
  5
75B2
330
6BC5
100
AcDbEntity
  8
30
  6
CONTINUOUS
 62
     0
100
AcDbBlockReference
  2
_OPEN
 10
-163.0
 20
-654.3467593415666
 30
0.0
 41
2.0
 42
2.0
 43
2.0
 50
270.0
  0
MTEXT
  5
75B3
330
6BC5
100
AcDbEntity
  8
30
  6
CONTINUOUS
 62
     0
100
AcDbMText
 10
-166.4999999999998
 20
-561.8467440827767
 30
0.0
 40
5.0
 41
0.0
 71
     5
 72
     1
  1
\A1;185
 11
0.0000000000000001
 21
1.0
 31
0.0
1001
ACAD
1000
MTEXTBEGIN
1070
    73
1070
     1
1070
    44
1040
1.0
1070
    74
1070
     0
1000
MTEXTEND
  0
POINT
  5
75B4
330
6BC5
100
AcDbEntity
  8
DEFPOINTS
  6
CONTINUOUS
 62
     0
100
AcDbPoint
 10
-137.5
 20
-469.3467288239867
 30
0.0
  0
POINT
  5
75B5
330
6BC5
100
AcDbEntity
  8
DEFPOINTS
  6
CONTINUOUS
 62
     0
100
AcDbPoint
 10
-137.5
 20
-654.3467593415666
 30
0.0
  0
POINT
  5
75B6
330
6BC5
100
AcDbEntity
  8
DEFPOINTS
  6
CONTINUOUS
 62
     0
100
AcDbPoint
 10
-163.0
 20
-654.3467593415666
 30
0.0
  0
ENDBLK
  5
6BD0
330
6BC5
100
AcDbEntity
  8
0
100
AcDbBlockEnd
  0
BLOCK
  5
6BDC
330
6BD2
100
AcDbEntity
  8
0
100
AcDbBlockBegin
  2
*D17
 70
     1
 10
0.0
 20
0.0
 30
0.0
  3
*D17
  1

  0
LINE
  5
74A4
330
6BD2
100
AcDbEntity
  8
30
  6
CONTINUOUS
 62
     0
100
AcDbLine
 10
-114.0
 20
-353.7821220577191
 30
0.0
 11
-189.4999999999999
 21
-353.782122057719
 31
0.0
  0
LINE
  5
74A5
330
6BD2
100
AcDbEntity
  8
30
  6
CONTINUOUS
 62
     0
100
AcDbLine
 10
-114.0
 20
-763.7821220577192
 30
0.0
 11
-189.4999999999999
 21
-763.7821220577192
 31
0.0
  0
LINE
  5
74A6
330
6BD2
100
AcDbEntity
  8
30
  6
CONTINUOUS
 62
     0
100
AcDbLine
 10
-188.9999999999999
 20
-355.782122057719
 30
0.0
 11
-189.0
 21
-761.7821220577192
 31
0.0
  0
INSERT
  5
74A7
330
6BD2
100
AcDbEntity
  8
30
  6
CONTINUOUS
 62
     0
100
AcDbBlockReference
  2
_OPEN
 10
-188.9999999999999
 20
-353.782122057719
 30
0.0
 41
2.0
 42
2.0
 43
2.0
 50
90.0
  0
INSERT
  5
74A8
330
6BD2
100
AcDbEntity
  8
30
  6
CONTINUOUS
 62
     0
100
AcDbBlockReference
  2
_OPEN
 10
-189.0
 20
-763.7821220577192
 30
0.0
 41
2.0
 42
2.0
 43
2.0
 50
270.0
  0
MTEXT
  5
74A9
330
6BD2
100
AcDbEntity
  8
30
  6
CONTINUOUS
 62
     0
100
AcDbMText
 10
-192.4999999999998
 20
-558.7821220577191
 30
0.0
 40
5.0
 41
0.0
 71
     5
 72
     1
  1
\A1;410
 11
0.0000000000000001
 21
1.0
 31
0.0
1001
ACAD
1000
MTEXTBEGIN
1070
    73
1070
     1
1070
    44
1040
1.0
1070
    74
1070
     0
1000
MTEXTEND
  0
POINT
  5
74AA
330
6BD2
100
AcDbEntity
  8
DEFPOINTS
  6
CONTINUOUS
 62
     0
100
AcDbPoint
 10
-113.0
 20
-353.7821220577191
 30
0.0
  0
POINT
  5
74AB
330
6BD2
100
AcDbEntity
  8
DEFPOINTS
  6
CONTINUOUS
 62
     0
100
AcDbPoint
 10
-113.0
 20
-763.7821220577192
 30
0.0
  0
POINT
  5
74AC
330
6BD2
100
AcDbEntity
  8
DEFPOINTS
  6
CONTINUOUS
 62
     0
100
AcDbPoint
 10
-189.0
 20
-763.7821220577192
 30
0.0
  0
ENDBLK
  5
6BDD
330
6BD2
100
AcDbEntity
  8
0
100
AcDbBlockEnd
  0
BLOCK
  5
6CBA
330
6CB9
100
AcDbEntity
  8
0
100
AcDbBlockBegin
  2
REVDATE
 70
     2
 10
0.0
 20
0.0
 30
0.0
  3
REVDATE
  1
REVDATE
  0
ATTDEF
  5
6CBB
330
6CB9
100
AcDbEntity
  8
0
  6
CONTINUOUS
 62
     0
100
AcDbText
 10
0.0
 20
0.0
 30
0.0
 40
19.18333333333333
  1

100
AcDbAttributeDefinition
  3

  2
USER
 70
     8
  0
ATTDEF
  5
6CBC
330
6CB9
100
AcDbEntity
  8
0
  6
CONTINUOUS
 62
     0
100
AcDbText
 10
0.0
 20
0.0
 30
0.0
 40
19.18333333333333
  1

100
AcDbAttributeDefinition
  3

  2
REVDATE
 70
     8
  0
ATTDEF
  5
6CBD
330
6CB9
100
AcDbEntity
  8
0
  6
CONTINUOUS
 62
     0
100
AcDbText
 10
0.0
 20
0.0
 30
0.0
 40
19.18333333333333
  1

100
AcDbAttributeDefinition
  3

  2
FNAME
 70
     8
  0
ENDBLK
  5
6CBE
330
6CB9
100
AcDbEntity
  8
0
100
AcDbBlockEnd
  0
BLOCK
  5
6FC8
330
6FBF
100
AcDbEntity
  8
0
100
AcDbBlockBegin
  2
*D19
 70
     1
 10
0.0
 20
0.0
 30
0.0
  3
*D19
  1

  0
LINE
  5
742C
330
6FBF
100
AcDbEntity
  8
30
  6
CONTINUOUS
 62
     0
100
AcDbLine
 10
173.4783348436844
 20
111.1856039853692
 30
0.0
 11
156.2283348436825
 21
111.1856039853691
 31
0.0
  0
LINE
  5
742D
330
6FBF
100
AcDbEntity
  8
30
  6
CONTINUOUS
 62
     0
100
AcDbLine
 10
156.2283348436825
 20
111.1856039853691
 30
0.0
 11
133.6213939418134
 21
100.1067171668831
 31
0.0
  0
MTEXT
  5
742E
330
6FBF
100
AcDbEntity
  8
30
  6
CONTINUOUS
 62
     0
100
AcDbMText
 10
169.3116681770178
 20
114.6856039853691
 30
0.0
 40
5.0
 41
0.0
 71
     5
 72
     1
  1
\A1;M8
1001
ACAD
1000
MTEXTBEGIN
1070
    73
1070
     1
1070
    44
1040
1.0
1070
    74
1070
     0
1000
MTEXTEND
  0
INSERT
  5
742F
330
6FBF
100
AcDbEntity
  8
30
  6
CONTINUOUS
 62
     0
100
AcDbBlockReference
  2
_OPEN
 10
131.8254599793442
 20
99.2265914926471
 30
0.0
 41
2.0
 42
2.0
 43
2.0
 50
206.1078904606298
  0
LINE
  5
7430
330
6FBF
100
AcDbEntity
  8
30
  6
CONTINUOUS
 62
     0
100
AcDbLine
 10
129.0415590356404
 20
97.90640298129305
 30
0.0
 11
129.2215590356404
 21
97.90640298129304
 31
0.0
  0
LINE
  5
7431
330
6FBF
100
AcDbEntity
  8
30
  6
CONTINUOUS
 62
     0
100
AcDbLine
 10
129.1315590356404
 20
97.81640298129305
 30
0.0
 11
129.1315590356403
 21
97.99640298129306
 31
0.0
  0
POINT
  5
7432
330
6FBF
100
AcDbEntity
  8
DEFPOINTS
  6
CONTINUOUS
 62
     0
100
AcDbPoint
 10
131.8254599793442
 20
99.2265914926471
 30
0.0
  0
POINT
  5
7433
330
6FBF
100
AcDbEntity
  8
DEFPOINTS
  6
CONTINUOUS
 62
     0
100
AcDbPoint
 10
126.4376580919365
 20
96.58621446993899
 30
0.0
  0
ENDBLK
  5
6FC9
330
6FBF
100
AcDbEntity
  8
0
100
AcDbBlockEnd
  0
BLOCK
  5
7163
330
7159
100
AcDbEntity
  8
0
100
AcDbBlockBegin
  2
*D20
 70
     1
 10
0.0
 20
0.0
 30
0.0
  3
*D20
  1

  0
LINE
  5
7199
330
7159
100
AcDbEntity
  8
30
  6
CONTINUOUS
 62
     0
100
AcDbLine
 10
568.0085593836763
 20
60.0
 30
0.0
 11
597.3603040234443
 21
60.0
 31
0.0
  0
LINE
  5
719A
330
7159
100
AcDbEntity
  8
30
  6
CONTINUOUS
 62
     0
100
AcDbLine
 10
568.0085593836763
 20
30.0
 30
0.0
 11
597.3603040234443
 21
29.99999999999999
 31
0.0
  0
LINE
  5
719B
330
7159
100
AcDbEntity
  8
30
  6
CONTINUOUS
 62
     0
100
AcDbLine
 10
596.8603040234443
 20
57.99999999999999
 30
0.0
 11
596.8603040234443
 21
31.99999999999999
 31
0.0
  0
INSERT
  5
719C
330
7159
100
AcDbEntity
  8
30
  6
CONTINUOUS
 62
     0
100
AcDbBlockReference
  2
_OPEN
 10
596.8603040234443
 20
60.0
 30
0.0
 41
2.0
 42
2.0
 43
2.0
 50
90.0
  0
INSERT
  5
719D
330
7159
100
AcDbEntity
  8
30
  6
CONTINUOUS
 62
     0
100
AcDbBlockReference
  2
_OPEN
 10
596.8603040234443
 20
29.99999999999999
 30
0.0
 41
2.0
 42
2.0
 43
2.0
 50
270.0
  0
MTEXT
  5
719E
330
7159
100
AcDbEntity
  8
30
  6
CONTINUOUS
 62
     0
100
AcDbMText
 10
593.3603040234443
 20
45.00000000000009
 30
0.0
 40
5.0
 41
0.0
 71
     5
 72
     1
  1
\A1;30
 11
0.0000000000000001
 21
1.0
 31
0.0
1001
ACAD
1000
MTEXTBEGIN
1070
    73
1070
     1
1070
    44
1040
1.0
1070
    74
1070
     0
1000
MTEXTEND
  0
POINT
  5
719F
330
7159
100
AcDbEntity
  8
DEFPOINTS
  6
CONTINUOUS
 62
     0
100
AcDbPoint
 10
567.0085593836764
 20
60.0
 30
0.0
  0
POINT
  5
71A0
330
7159
100
AcDbEntity
  8
DEFPOINTS
  6
CONTINUOUS
 62
     0
100
AcDbPoint
 10
567.0085593836764
 20
30.0
 30
0.0
  0
POINT
  5
71A1
330
7159
100
AcDbEntity
  8
DEFPOINTS
  6
CONTINUOUS
 62
     0
100
AcDbPoint
 10
596.8603040234443
 20
29.99999999999999
 30
0.0
  0
ENDBLK
  5
7164
330
7159
100
AcDbEntity
  8
0
100
AcDbBlockEnd
  0
BLOCK
  5
7170
330
7166
100
AcDbEntity
  8
0
100
AcDbBlockBegin
  2
*D21
 70
     1
 10
0.0
 20
0.0
 30
0.0
  3
*D21
  1

  0
LINE
  5
7190
330
7166
100
AcDbEntity
  8
30
  6
CONTINUOUS
 62
     0
100
AcDbLine
 10
577.0085593836763
 20
77.5
 30
0.0
 11
615.719657770051
 21
77.49999999999999
 31
0.0
  0
LINE
  5
7191
330
7166
100
AcDbEntity
  8
30
  6
CONTINUOUS
 62
     0
100
AcDbLine
 10
577.0085593836763
 20
12.5
 30
0.0
 11
615.719657770051
 21
12.49999999999999
 31
0.0
  0
LINE
  5
7192
330
7166
100
AcDbEntity
  8
30
  6
CONTINUOUS
 62
     0
100
AcDbLine
 10
615.219657770051
 20
75.49999999999998
 30
0.0
 11
615.219657770051
 21
14.49999999999999
 31
0.0
  0
INSERT
  5
7193
330
7166
100
AcDbEntity
  8
30
  6
CONTINUOUS
 62
     0
100
AcDbBlockReference
  2
_OPEN
 10
615.219657770051
 20
77.49999999999999
 30
0.0
 41
2.0
 42
2.0
 43
2.0
 50
90.0
  0
INSERT
  5
7194
330
7166
100
AcDbEntity
  8
30
  6
CONTINUOUS
 62
     0
100
AcDbBlockReference
  2
_OPEN
 10
615.219657770051
 20
12.49999999999999
 30
0.0
 41
2.0
 42
2.0
 43
2.0
 50
270.0
  0
MTEXT
  5
7195
330
7166
100
AcDbEntity
  8
30
  6
CONTINUOUS
 62
     0
100
AcDbMText
 10
611.7196577700511
 20
45.00000000000009
 30
0.0
 40
5.0
 41
0.0
 71
     5
 72
     1
  1
\A1;65
 11
0.0000000000000001
 21
1.0
 31
0.0
1001
ACAD
1000
MTEXTBEGIN
1070
    73
1070
     1
1070
    44
1040
1.0
1070
    74
1070
     0
1000
MTEXTEND
  0
POINT
  5
7196
330
7166
100
AcDbEntity
  8
DEFPOINTS
  6
CONTINUOUS
 62
     0
100
AcDbPoint
 10
576.0085593836763
 20
77.5
 30
0.0
  0
POINT
  5
7197
330
7166
100
AcDbEntity
  8
DEFPOINTS
  6
CONTINUOUS
 62
     0
100
AcDbPoint
 10
576.0085593836763
 20
12.5
 30
0.0
  0
POINT
  5
7198
330
7166
100
AcDbEntity
  8
DEFPOINTS
  6
CONTINUOUS
 62
     0
100
AcDbPoint
 10
615.219657770051
 20
12.49999999999999
 30
0.0
  0
ENDBLK
  5
7171
330
7166
100
AcDbEntity
  8
0
100
AcDbBlockEnd
  0
BLOCK
  5
71AD
330
71A3
100
AcDbEntity
  8
0
100
AcDbBlockBegin
  2
*D22
 70
     1
 10
0.0
 20
0.0
 30
0.0
  3
*D22
  1

  0
LINE
  5
71A4
330
71A3
100
AcDbEntity
  8
30
  6
CONTINUOUS
 62
     0
100
AcDbLine
 10
616.2196577700511
 20
45.0
 30
0.0
 11
642.7519085577996
 21
44.99999999999999
 31
0.0
  0
LINE
  5
71A5
330
71A3
100
AcDbEntity
  8
30
  6
CONTINUOUS
 62
     0
100
AcDbLine
 10
447.0084373133763
 20
-0.0000000000000003
 30
0.0
 11
642.7519085577996
 21
-0.0000000000000557
 31
0.0
  0
LINE
  5
71A6
330
71A3
100
AcDbEntity
  8
30
  6
CONTINUOUS
 62
     0
100
AcDbLine
 10
642.2519085577996
 20
42.99999999999999
 30
0.0
 11
642.2519085577996
 21
1.999999999999944
 31
0.0
  0
INSERT
  5
71A7
330
71A3
100
AcDbEntity
  8
30
  6
CONTINUOUS
 62
     0
100
AcDbBlockReference
  2
_OPEN
 10
642.2519085577996
 20
44.99999999999999
 30
0.0
 41
2.0
 42
2.0
 43
2.0
 50
90.0
  0
INSERT
  5
71A8
330
71A3
100
AcDbEntity
  8
30
  6
CONTINUOUS
 62
     0
100
AcDbBlockReference
  2
_OPEN
 10
642.2519085577996
 20
-0.0000000000000556
 30
0.0
 41
2.0
 42
2.0
 43
2.0
 50
270.0
  0
MTEXT
  5
71A9
330
71A3
100
AcDbEntity
  8
30
  6
CONTINUOUS
 62
     0
100
AcDbMText
 10
638.7519085577996
 20
22.50000000000007
 30
0.0
 40
5.0
 41
0.0
 71
     5
 72
     1
  1
\A1;45
 11
0.0000000000000001
 21
1.0
 31
0.0
1001
ACAD
1000
MTEXTBEGIN
1070
    73
1070
     1
1070
    44
1040
1.0
1070
    74
1070
     0
1000
MTEXTEND
  0
POINT
  5
71AA
330
71A3
100
AcDbEntity
  8
DEFPOINTS
  6
CONTINUOUS
 62
     0
100
AcDbPoint
 10
615.219657770051
 20
45.0
 30
0.0
  0
POINT
  5
71AB
330
71A3
100
AcDbEntity
  8
DEFPOINTS
  6
CONTINUOUS
 62
     0
100
AcDbPoint
 10
446.0084373133764
 20
0.0
 30
0.0
  0
POINT
  5
71AC
330
71A3
100
AcDbEntity
  8
DEFPOINTS
  6
CONTINUOUS
 62
     0
100
AcDbPoint
 10
642.2519085577996
 20
-0.0000000000000556
 30
0.0
  0
ENDBLK
  5
71AE
330
71A3
100
AcDbEntity
  8
0
100
AcDbBlockEnd
  0
BLOCK
  5
71BA
330
71B0
100
AcDbEntity
  8
0
100
AcDbBlockBegin
  2
*D23
 70
     1
 10
0.0
 20
0.0
 30
0.0
  3
*D23
  1

  0
LINE
  5
76AE
330
71B0
100
AcDbEntity
  8
30
  6
CONTINUOUS
 62
     0
100
AcDbLine
 10
447.0084373133763
 20
-0.0000000000000003
 30
0.0
 11
642.7519085577996
 21
-0.0000000000000557
 31
0.0
  0
LINE
  5
76AF
330
71B0
100
AcDbEntity
  8
30
  6
CONTINUOUS
 62
     0
100
AcDbLine
 10
532.0084373133763
 20
-115.0
 30
0.0
 11
642.7519085577996
 21
-115.0
 31
0.0
  0
LINE
  5
76B0
330
71B0
100
AcDbEntity
  8
30
  6
CONTINUOUS
 62
     0
100
AcDbLine
 10
642.2519085577996
 20
-2.000000000000055
 30
0.0
 11
642.2519085577996
 21
-113.0
 31
0.0
  0
INSERT
  5
76B1
330
71B0
100
AcDbEntity
  8
30
  6
CONTINUOUS
 62
     0
100
AcDbBlockReference
  2
_OPEN
 10
642.2519085577996
 20
-0.0000000000000556
 30
0.0
 41
2.0
 42
2.0
 43
2.0
 50
90.0
  0
INSERT
  5
76B2
330
71B0
100
AcDbEntity
  8
30
  6
CONTINUOUS
 62
     0
100
AcDbBlockReference
  2
_OPEN
 10
642.2519085577996
 20
-115.0
 30
0.0
 41
2.0
 42
2.0
 43
2.0
 50
270.0
  0
MTEXT
  5
76B3
330
71B0
100
AcDbEntity
  8
30
  6
CONTINUOUS
 62
     0
100
AcDbMText
 10
638.7519085577996
 20
-57.49999999999994
 30
0.0
 40
5.0
 41
0.0
 71
     5
 72
     1
  1
\A1;115
 11
0.0000000000000001
 21
1.0
 31
0.0
  0
POINT
  5
76B4
330
71B0
100
AcDbEntity
  8
DEFPOINTS
  6
CONTINUOUS
 62
     0
100
AcDbPoint
 10
446.0084373133764
 20
0.0
 30
0.0
  0
POINT
  5
76B5
330
71B0
100
AcDbEntity
  8
DEFPOINTS
  6
CONTINUOUS
 62
     0
100
AcDbPoint
 10
531.0084373133763
 20
-115.0
 30
0.0
  0
POINT
  5
76B6
330
71B0
100
AcDbEntity
  8
DEFPOINTS
  6
CONTINUOUS
 62
     0
100
AcDbPoint
 10
642.2519085577996
 20
-115.0
 30
0.0
  0
ENDBLK
  5
71BB
330
71B0
100
AcDbEntity
  8
0
100
AcDbBlockEnd
  0
BLOCK
  5
7324
330
731A
100
AcDbEntity
  8
0
100
AcDbBlockBegin
  2
*D24
 70
     1
 10
0.0
 20
0.0
 30
0.0
  3
*D24
  1

  0
LINE
  5
731B
330
731A
100
AcDbEntity
  8
30
  6
CONTINUOUS
 62
     0
100
AcDbLine
 10
-135.00006103518
 20
209.90640258789
 30
0.0
 11
-191.1441089012768
 21
209.90640258789
 31
0.0
  0
LINE
  5
731C
330
731A
100
AcDbEntity
  8
30
  6
CONTINUOUS
 62
     0
100
AcDbLine
 10
-135.00006103518
 20
-210.09359741211
 30
0.0
 11
-191.1441089012769
 21
-210.09359741211
 31
0.0
  0
LINE
  5
731D
330
731A
100
AcDbEntity
  8
30
  6
CONTINUOUS
 62
     0
100
AcDbLine
 10
-190.6441089012768
 20
207.90640258789
 30
0.0
 11
-190.6441089012769
 21
-208.09359741211
 31
0.0
  0
INSERT
  5
731E
330
731A
100
AcDbEntity
  8
30
  6
CONTINUOUS
 62
     0
100
AcDbBlockReference
  2
_OPEN
 10
-190.6441089012768
 20
209.90640258789
 30
0.0
 41
2.0
 42
2.0
 43
2.0
 50
90.0
  0
INSERT
  5
731F
330
731A
100
AcDbEntity
  8
30
  6
CONTINUOUS
 62
     0
100
AcDbBlockReference
  2
_OPEN
 10
-190.6441089012769
 20
-210.09359741211
 30
0.0
 41
2.0
 42
2.0
 43
2.0
 50
270.0
  0
MTEXT
  5
7320
330
731A
100
AcDbEntity
  8
30
  6
CONTINUOUS
 62
     0
100
AcDbMText
 10
-194.1441089012768
 20
-0.0935974121100308
 30
0.0
 40
5.0
 41
0.0
 71
     5
 72
     1
  1
\A1;420
 11
0.0000000000000001
 21
1.0
 31
0.0
1001
ACAD
1000
MTEXTBEGIN
1070
    73
1070
     1
1070
    44
1040
1.0
1070
    74
1070
     0
1000
MTEXTEND
  0
POINT
  5
7321
330
731A
100
AcDbEntity
  8
DEFPOINTS
  6
CONTINUOUS
 62
     0
100
AcDbPoint
 10
-134.00006103518
 20
209.90640258789
 30
0.0
  0
POINT
  5
7322
330
731A
100
AcDbEntity
  8
DEFPOINTS
  6
CONTINUOUS
 62
     0
100
AcDbPoint
 10
-134.00006103518
 20
-210.09359741211
 30
0.0
  0
POINT
  5
7323
330
731A
100
AcDbEntity
  8
DEFPOINTS
  6
CONTINUOUS
 62
     0
100
AcDbPoint
 10
-190.6441089012769
 20
-210.09359741211
 30
0.0
  0
ENDBLK
  5
7325
330
731A
100
AcDbEntity
  8
0
100
AcDbBlockEnd
  0
BLOCK
  5
7331
330
7327
100
AcDbEntity
  8
0
100
AcDbBlockBegin
  2
*D25
 70
     1
 10
0.0
 20
0.0
 30
0.0
  3
*D25
  1

  0
LINE
  5
7591
330
7327
100
AcDbEntity
  8
30
  6
CONTINUOUS
 62
     0
100
AcDbLine
 10
1.0
 20
-0.0000000000000003
 30
0.0
 11
63.10315311051636
 21
-0.0000000000000179
 31
0.0
  0
LINE
  5
7592
330
7327
100
AcDbEntity
  8
30
  6
CONTINUOUS
 62
     0
100
AcDbLine
 10
0.9000000000000003
 20
-14.99359741211
 30
0.0
 11
63.10315311051636
 21
-14.99359741211002
 31
0.0
  0
LINE
  5
7593
330
7327
100
AcDbEntity
  8
30
  6
CONTINUOUS
 62
     0
100
AcDbLine
 10
62.60315311051636
 20
-2.000000000000017
 30
0.0
 11
62.60315311051636
 21
-12.99359741211001
 31
0.0
  0
INSERT
  5
7594
330
7327
100
AcDbEntity
  8
30
  6
CONTINUOUS
 62
     0
100
AcDbBlockReference
  2
_OPEN
 10
62.60315311051636
 20
-0.0000000000000177
 30
0.0
 41
2.0
 42
2.0
 43
2.0
 50
90.0
  0
INSERT
  5
7595
330
7327
100
AcDbEntity
  8
30
  6
CONTINUOUS
 62
     0
100
AcDbBlockReference
  2
_OPEN
 10
62.60315311051636
 20
-14.99359741211002
 30
0.0
 41
2.0
 42
2.0
 43
2.0
 50
270.0
  0
MTEXT
  5
7596
330
7327
100
AcDbEntity
  8
30
  6
CONTINUOUS
 62
     0
100
AcDbMText
 10
59.10315311051636
 20
-7.496798706055007
 30
0.0
 40
5.0
 41
0.0
 71
     5
 72
     1
  1
\A1;15
 11
0.0000000000000001
 21
1.0
 31
0.0
1001
ACAD
1000
MTEXTBEGIN
1070
    73
1070
     1
1070
    44
1040
1.0
1070
    74
1070
     0
1000
MTEXTEND
  0
POINT
  5
7597
330
7327
100
AcDbEntity
  8
DEFPOINTS
  6
CONTINUOUS
 62
     0
100
AcDbPoint
 10
0.0
 20
0.0
 30
0.0
  0
POINT
  5
7598
330
7327
100
AcDbEntity
  8
DEFPOINTS
  6
CONTINUOUS
 62
     0
100
AcDbPoint
 10
-0.0999999999999997
 20
-14.99359741211
 30
0.0
  0
POINT
  5
7599
330
7327
100
AcDbEntity
  8
DEFPOINTS
  6
CONTINUOUS
 62
     0
100
AcDbPoint
 10
62.60315311051636
 20
-14.99359741211002
 30
0.0
  0
ENDBLK
  5
7332
330
7327
100
AcDbEntity
  8
0
100
AcDbBlockEnd
  0
BLOCK
  5
7350
330
7346
100
AcDbEntity
  8
0
100
AcDbBlockBegin
  2
*D26
 70
     1
 10
0.0
 20
0.0
 30
0.0
  3
*D26
  1

  0
LINE
  5
7434
330
7346
100
AcDbEntity
  8
30
  6
CONTINUOUS
 62
     0
100
AcDbLine
 10
-134.00006103518
 20
-211.09359741211
 30
0.0
 11
-134.00006103518
 21
-253.9965345579321
 31
0.0
  0
LINE
  5
7435
330
7346
100
AcDbEntity
  8
30
  6
CONTINUOUS
 62
     0
100
AcDbLine
 10
133.9998779297
 20
-211.0935970187072
 30
0.0
 11
133.9998779297
 21
-253.9965345579321
 31
0.0
  0
LINE
  5
7436
330
7346
100
AcDbEntity
  8
30
  6
CONTINUOUS
 62
     0
100
AcDbLine
 10
-132.00006103518
 20
-253.4965345579321
 30
0.0
 11
131.9998779297
 21
-253.4965345579321
 31
0.0
  0
INSERT
  5
7437
330
7346
100
AcDbEntity
  8
30
  6
CONTINUOUS
 62
     0
100
AcDbBlockReference
  2
_OPEN
 10
-134.00006103518
 20
-253.4965345579321
 30
0.0
 41
2.0
 42
2.0
 43
2.0
 50
180.0
  0
INSERT
  5
7438
330
7346
100
AcDbEntity
  8
30
  6
CONTINUOUS
 62
     0
100
AcDbBlockReference
  2
_OPEN
 10
133.9998779297
 20
-253.4965345579321
 30
0.0
 41
2.0
 42
2.0
 43
2.0
  0
MTEXT
  5
7439
330
7346
100
AcDbEntity
  8
30
  6
CONTINUOUS
 62
     0
100
AcDbMText
 10
-0.0000915527400023
 20
-249.9965345579321
 30
0.0
 40
5.0
 41
0.0
 71
     5
 72
     1
  1
\A1;268
1001
ACAD
1000
MTEXTBEGIN
1070
    73
1070
     1
1070
    44
1040
1.0
1070
    74
1070
     0
1000
MTEXTEND
  0
POINT
  5
743A
330
7346
100
AcDbEntity
  8
DEFPOINTS
  6
CONTINUOUS
 62
     0
100
AcDbPoint
 10
-134.00006103518
 20
-210.09359741211
 30
0.0
  0
POINT
  5
743B
330
7346
100
AcDbEntity
  8
DEFPOINTS
  6
CONTINUOUS
 62
     0
100
AcDbPoint
 10
133.9998779297
 20
-210.0935970187071
 30
0.0
  0
POINT
  5
743C
330
7346
100
AcDbEntity
  8
DEFPOINTS
  6
CONTINUOUS
 62
     0
100
AcDbPoint
 10
133.9998779297
 20
-253.4965345579321
 30
0.0
  0
ENDBLK
  5
7351
330
7346
100
AcDbEntity
  8
0
100
AcDbBlockEnd
  0
BLOCK
  5
73A8
330
739E
100
AcDbEntity
  8
0
100
AcDbBlockBegin
  2
*D27
 70
     1
 10
0.0
 20
0.0
 30
0.0
  3
*D27
  1

  0
LINE
  5
739F
330
739E
100
AcDbEntity
  8
30
  6
CONTINUOUS
 62
     0
100
AcDbLine
 10
255.008437313349
 20
-15.99999999999998
 30
0.0
 11
255.008437313349
 21
-254.6616354506663
 31
0.0
  0
LINE
  5
73A0
330
739E
100
AcDbEntity
  8
30
  6
CONTINUOUS
 62
     0
100
AcDbLine
 10
321.0084373133763
 20
-211.0
 30
0.0
 11
321.0084373133763
 21
-254.6616354506663
 31
0.0
  0
LINE
  5
73A1
330
739E
100
AcDbEntity
  8
30
  6
CONTINUOUS
 62
     0
100
AcDbLine
 10
257.008437313349
 20
-254.1616354506663
 30
0.0
 11
319.0084373133763
 21
-254.1616354506663
 31
0.0
  0
INSERT
  5
73A2
330
739E
100
AcDbEntity
  8
30
  6
CONTINUOUS
 62
     0
100
AcDbBlockReference
  2
_OPEN
 10
255.008437313349
 20
-254.1616354506663
 30
0.0
 41
2.0
 42
2.0
 43
2.0
 50
180.0
  0
INSERT
  5
73A3
330
739E
100
AcDbEntity
  8
30
  6
CONTINUOUS
 62
     0
100
AcDbBlockReference
  2
_OPEN
 10
321.0084373133763
 20
-254.1616354506663
 30
0.0
 41
2.0
 42
2.0
 43
2.0
  0
MTEXT
  5
73A4
330
739E
100
AcDbEntity
  8
30
  6
CONTINUOUS
 62
     0
100
AcDbMText
 10
288.0084373133627
 20
-250.6616354506663
 30
0.0
 40
5.0
 41
0.0
 71
     5
 72
     1
  1
\A1;66
1001
ACAD
1000
MTEXTBEGIN
1070
    73
1070
     1
1070
    44
1040
1.0
1070
    74
1070
     0
1000
MTEXTEND
  0
POINT
  5
73A5
330
739E
100
AcDbEntity
  8
DEFPOINTS
  6
CONTINUOUS
 62
     0
100
AcDbPoint
 10
255.008437313349
 20
-14.99999999999998
 30
0.0
  0
POINT
  5
73A6
330
739E
100
AcDbEntity
  8
DEFPOINTS
  6
CONTINUOUS
 62
     0
100
AcDbPoint
 10
321.0084373133763
 20
-210.0
 30
0.0
  0
POINT
  5
73A7
330
739E
100
AcDbEntity
  8
DEFPOINTS
  6
CONTINUOUS
 62
     0
100
AcDbPoint
 10
321.0084373133763
 20
-254.1616354506663
 30
0.0
  0
ENDBLK
  5
73A9
330
739E
100
AcDbEntity
  8
0
100
AcDbBlockEnd
  0
BLOCK
  5
73B5
330
73AB
100
AcDbEntity
  8
0
100
AcDbBlockBegin
  2
*D28
 70
     1
 10
0.0
 20
0.0
 30
0.0
  3
*D28
  1

  0
LINE
  5
73AC
330
73AB
100
AcDbEntity
  8
30
  6
CONTINUOUS
 62
     0
100
AcDbLine
 10
303.0084373133763
 20
-211.0
 30
0.0
 11
303.0084373133763
 21
-236.1833473501101
 31
0.0
  0
LINE
  5
73AD
330
73AB
100
AcDbEntity
  8
30
  6
CONTINUOUS
 62
     0
100
AcDbLine
 10
321.0084373133763
 20
-212.0
 30
0.0
 11
321.0084373133763
 21
-236.1833473501101
 31
0.0
  0
LINE
  5
73AE
330
73AB
100
AcDbEntity
  8
30
  6
CONTINUOUS
 62
     0
100
AcDbLine
 10
305.0084373133763
 20
-235.6833473501101
 30
0.0
 11
319.0084373133763
 21
-235.6833473501101
 31
0.0
  0
INSERT
  5
73AF
330
73AB
100
AcDbEntity
  8
30
  6
CONTINUOUS
 62
     0
100
AcDbBlockReference
  2
_OPEN
 10
303.0084373133763
 20
-235.6833473501101
 30
0.0
 41
2.0
 42
2.0
 43
2.0
 50
180.0
  0
INSERT
  5
73B0
330
73AB
100
AcDbEntity
  8
30
  6
CONTINUOUS
 62
     0
100
AcDbBlockReference
  2
_OPEN
 10
321.0084373133763
 20
-235.6833473501101
 30
0.0
 41
2.0
 42
2.0
 43
2.0
  0
MTEXT
  5
73B1
330
73AB
100
AcDbEntity
  8
30
  6
CONTINUOUS
 62
     0
100
AcDbMText
 10
312.0084373133763
 20
-232.1833473501101
 30
0.0
 40
5.0
 41
0.0
 71
     5
 72
     1
  1
\A1;18
1001
ACAD
1000
MTEXTBEGIN
1070
    73
1070
     1
1070
    44
1040
1.0
1070
    74
1070
     0
1000
MTEXTEND
  0
POINT
  5
73B2
330
73AB
100
AcDbEntity
  8
DEFPOINTS
  6
CONTINUOUS
 62
     0
100
AcDbPoint
 10
303.0084373133763
 20
-210.0
 30
0.0
  0
POINT
  5
73B3
330
73AB
100
AcDbEntity
  8
DEFPOINTS
  6
CONTINUOUS
 62
     0
100
AcDbPoint
 10
321.0084373133763
 20
-211.0
 30
0.0
  0
POINT
  5
73B4
330
73AB
100
AcDbEntity
  8
DEFPOINTS
  6
CONTINUOUS
 62
     0
100
AcDbPoint
 10
321.0084373133763
 20
-235.6833473501101
 30
0.0
  0
ENDBLK
  5
73B6
330
73AB
100
AcDbEntity
  8
0
100
AcDbBlockEnd
  0
BLOCK
  5
73C2
330
73B8
100
AcDbEntity
  8
0
100
AcDbBlockBegin
  2
*D29
 70
     1
 10
0.0
 20
0.0
 30
0.0
  3
*D29
  1

  0
LINE
  5
76B7
330
73B8
100
AcDbEntity
  8
30
  6
CONTINUOUS
 62
     0
100
AcDbLine
 10
321.0084373133763
 20
-212.0
 30
0.0
 11
321.0084373133763
 21
-236.1833473501101
 31
0.0
  0
LINE
  5
76B8
330
73B8
100
AcDbEntity
  8
30
  6
CONTINUOUS
 62
     0
100
AcDbLine
 10
531.0084373133763
 20
-148.5
 30
0.0
 11
531.0084373133763
 21
-236.1833473501101
 31
0.0
  0
LINE
  5
76B9
330
73B8
100
AcDbEntity
  8
30
  6
CONTINUOUS
 62
     0
100
AcDbLine
 10
323.0084373133763
 20
-235.6833473501101
 30
0.0
 11
529.0084373133764
 21
-235.6833473501101
 31
0.0
  0
INSERT
  5
76BA
330
73B8
100
AcDbEntity
  8
30
  6
CONTINUOUS
 62
     0
100
AcDbBlockReference
  2
_OPEN
 10
321.0084373133763
 20
-235.6833473501101
 30
0.0
 41
2.0
 42
2.0
 43
2.0
 50
180.0
  0
INSERT
  5
76BB
330
73B8
100
AcDbEntity
  8
30
  6
CONTINUOUS
 62
     0
100
AcDbBlockReference
  2
_OPEN
 10
531.0084373133763
 20
-235.6833473501101
 30
0.0
 41
2.0
 42
2.0
 43
2.0
  0
MTEXT
  5
76BC
330
73B8
100
AcDbEntity
  8
30
  6
CONTINUOUS
 62
     0
100
AcDbMText
 10
426.0084373133763
 20
-232.1833473501101
 30
0.0
 40
5.0
 41
0.0
 71
     5
 72
     1
  1
\A1;210
  0
POINT
  5
76BD
330
73B8
100
AcDbEntity
  8
DEFPOINTS
  6
CONTINUOUS
 62
     0
100
AcDbPoint
 10
321.0084373133763
 20
-211.0
 30
0.0
  0
POINT
  5
76BE
330
73B8
100
AcDbEntity
  8
DEFPOINTS
  6
CONTINUOUS
 62
     0
100
AcDbPoint
 10
531.0084373133763
 20
-147.5
 30
0.0
  0
POINT
  5
76BF
330
73B8
100
AcDbEntity
  8
DEFPOINTS
  6
CONTINUOUS
 62
     0
100
AcDbPoint
 10
531.0084373133763
 20
-235.6833473501101
 30
0.0
  0
ENDBLK
  5
73C3
330
73B8
100
AcDbEntity
  8
0
100
AcDbBlockEnd
  0
BLOCK
  5
73DC
330
73D2
100
AcDbEntity
  8
0
100
AcDbBlockBegin
  2
*D30
 70
     1
 10
0.0
 20
0.0
 30
0.0
  3
*D30
  1

  0
LINE
  5
76C0
330
73D2
100
AcDbEntity
  8
30
  6
CONTINUOUS
 62
     0
100
AcDbLine
 10
321.0084373133763
 20
-211.0
 30
0.0
 11
321.0084373133763
 21
-254.6616354506663
 31
0.0
  0
LINE
  5
76C1
330
73D2
100
AcDbEntity
  8
30
  6
CONTINUOUS
 62
     0
100
AcDbLine
 10
576.0085593836763
 20
-148.5
 30
0.0
 11
576.0085593836763
 21
-254.6616354506663
 31
0.0
  0
LINE
  5
76C2
330
73D2
100
AcDbEntity
  8
30
  6
CONTINUOUS
 62
     0
100
AcDbLine
 10
323.0084373133763
 20
-254.1616354506663
 30
0.0
 11
574.0085593836763
 21
-254.1616354506663
 31
0.0
  0
INSERT
  5
76C3
330
73D2
100
AcDbEntity
  8
30
  6
CONTINUOUS
 62
     0
100
AcDbBlockReference
  2
_OPEN
 10
321.0084373133763
 20
-254.1616354506663
 30
0.0
 41
2.0
 42
2.0
 43
2.0
 50
180.0
  0
INSERT
  5
76C4
330
73D2
100
AcDbEntity
  8
30
  6
CONTINUOUS
 62
     0
100
AcDbBlockReference
  2
_OPEN
 10
576.0085593836763
 20
-254.1616354506663
 30
0.0
 41
2.0
 42
2.0
 43
2.0
  0
MTEXT
  5
76C5
330
73D2
100
AcDbEntity
  8
30
  6
CONTINUOUS
 62
     0
100
AcDbMText
 10
448.5084983485263
 20
-250.6616354506663
 30
0.0
 40
5.0
 41
0.0
 71
     5
 72
     1
  1
\A1;255
  0
POINT
  5
76C6
330
73D2
100
AcDbEntity
  8
DEFPOINTS
  6
CONTINUOUS
 62
     0
100
AcDbPoint
 10
321.0084373133763
 20
-210.0
 30
0.0
  0
POINT
  5
76C7
330
73D2
100
AcDbEntity
  8
DEFPOINTS
  6
CONTINUOUS
 62
     0
100
AcDbPoint
 10
576.0085593836763
 20
-147.5
 30
0.0
  0
POINT
  5
76C8
330
73D2
100
AcDbEntity
  8
DEFPOINTS
  6
CONTINUOUS
 62
     0
100
AcDbPoint
 10
576.0085593836763
 20
-254.1616354506663
 30
0.0
  0
ENDBLK
  5
73DD
330
73D2
100
AcDbEntity
  8
0
100
AcDbBlockEnd
  0
BLOCK
  5
73E9
330
73DF
100
AcDbEntity
  8
0
100
AcDbBlockBegin
  2
*D31
 70
     1
 10
0.0
 20
0.0
 30
0.0
  3
*D31
  1

  0
LINE
  5
73E0
330
73DF
100
AcDbEntity
  8
30
  6
CONTINUOUS
 62
     0
100
AcDbLine
 10
516.0084373133763
 20
-148.5
 30
0.0
 11
516.0084373133763
 21
-198.0680855074242
 31
0.0
  0
LINE
  5
73E1
330
73DF
100
AcDbEntity
  8
30
  6
CONTINUOUS
 62
     0
100
AcDbLine
 10
531.0084373133763
 20
-149.5
 30
0.0
 11
531.0084373133763
 21
-198.0680855074242
 31
0.0
  0
LINE
  5
73E2
330
73DF
100
AcDbEntity
  8
30
  6
CONTINUOUS
 62
     0
100
AcDbLine
 10
518.0084373133763
 20
-197.5680855074242
 30
0.0
 11
529.0084373133764
 21
-197.5680855074242
 31
0.0
  0
INSERT
  5
73E3
330
73DF
100
AcDbEntity
  8
30
  6
CONTINUOUS
 62
     0
100
AcDbBlockReference
  2
_OPEN
 10
516.0084373133763
 20
-197.5680855074242
 30
0.0
 41
2.0
 42
2.0
 43
2.0
 50
180.0
  0
INSERT
  5
73E4
330
73DF
100
AcDbEntity
  8
30
  6
CONTINUOUS
 62
     0
100
AcDbBlockReference
  2
_OPEN
 10
531.0084373133763
 20
-197.5680855074242
 30
0.0
 41
2.0
 42
2.0
 43
2.0
  0
MTEXT
  5
73E5
330
73DF
100
AcDbEntity
  8
30
  6
CONTINUOUS
 62
     0
100
AcDbMText
 10
523.5084373133763
 20
-194.0680855074242
 30
0.0
 40
5.0
 41
0.0
 71
     5
 72
     1
  1
\A1;15
1001
ACAD
1000
MTEXTBEGIN
1070
    73
1070
     1
1070
    44
1040
1.0
1070
    74
1070
     0
1000
MTEXTEND
  0
POINT
  5
73E6
330
73DF
100
AcDbEntity
  8
DEFPOINTS
  6
CONTINUOUS
 62
     0
100
AcDbPoint
 10
516.0084373133763
 20
-147.5
 30
0.0
  0
POINT
  5
73E7
330
73DF
100
AcDbEntity
  8
DEFPOINTS
  6
CONTINUOUS
 62
     0
100
AcDbPoint
 10
531.0084373133763
 20
-148.5
 30
0.0
  0
POINT
  5
73E8
330
73DF
100
AcDbEntity
  8
DEFPOINTS
  6
CONTINUOUS
 62
     0
100
AcDbPoint
 10
531.0084373133763
 20
-197.5680855074242
 30
0.0
  0
ENDBLK
  5
73EA
330
73DF
100
AcDbEntity
  8
0
100
AcDbBlockEnd
  0
BLOCK
  5
7403
330
73F9
100
AcDbEntity
  8
0
100
AcDbBlockBegin
  2
*D32
 70
     1
 10
0.0
 20
0.0
 30
0.0
  3
*D32
  1

  0
LINE
  5
73FA
330
73F9
100
AcDbEntity
  8
30
  6
CONTINUOUS
 62
     0
100
AcDbLine
 10
561.0085593836763
 20
-164.0134277343749
 30
0.0
 11
561.0085593836763
 21
-198.0680855074242
 31
0.0
  0
LINE
  5
73FB
330
73F9
100
AcDbEntity
  8
30
  6
CONTINUOUS
 62
     0
100
AcDbLine
 10
576.0085593836763
 20
-148.5
 30
0.0
 11
576.0085593836763
 21
-198.0680855074242
 31
0.0
  0
LINE
  5
73FC
330
73F9
100
AcDbEntity
  8
30
  6
CONTINUOUS
 62
     0
100
AcDbLine
 10
563.0085593836763
 20
-197.5680855074242
 30
0.0
 11
574.0085593836763
 21
-197.5680855074242
 31
0.0
  0
INSERT
  5
73FD
330
73F9
100
AcDbEntity
  8
30
  6
CONTINUOUS
 62
     0
100
AcDbBlockReference
  2
_OPEN
 10
561.0085593836763
 20
-197.5680855074242
 30
0.0
 41
2.0
 42
2.0
 43
2.0
 50
180.0
  0
INSERT
  5
73FE
330
73F9
100
AcDbEntity
  8
30
  6
CONTINUOUS
 62
     0
100
AcDbBlockReference
  2
_OPEN
 10
576.0085593836763
 20
-197.5680855074242
 30
0.0
 41
2.0
 42
2.0
 43
2.0
  0
MTEXT
  5
73FF
330
73F9
100
AcDbEntity
  8
30
  6
CONTINUOUS
 62
     0
100
AcDbMText
 10
568.5085593836763
 20
-194.0680855074242
 30
0.0
 40
5.0
 41
0.0
 71
     5
 72
     1
  1
\A1;15
1001
ACAD
1000
MTEXTBEGIN
1070
    73
1070
     1
1070
    44
1040
1.0
1070
    74
1070
     0
1000
MTEXTEND
  0
POINT
  5
7400
330
73F9
100
AcDbEntity
  8
DEFPOINTS
  6
CONTINUOUS
 62
     0
100
AcDbPoint
 10
561.0085593836763
 20
-163.0134277343749
 30
0.0
  0
POINT
  5
7401
330
73F9
100
AcDbEntity
  8
DEFPOINTS
  6
CONTINUOUS
 62
     0
100
AcDbPoint
 10
576.0085593836763
 20
-147.5
 30
0.0
  0
POINT
  5
7402
330
73F9
100
AcDbEntity
  8
DEFPOINTS
  6
CONTINUOUS
 62
     0
100
AcDbPoint
 10
576.0085593836763
 20
-197.5680855074242
 30
0.0
  0
ENDBLK
  5
7404
330
73F9
100
AcDbEntity
  8
0
100
AcDbBlockEnd
  0
BLOCK
  5
7485
330
747B
100
AcDbEntity
  8
0
100
AcDbBlockBegin
  2
*D33
 70
     1
 10
0.0
 20
0.0
 30
0.0
  3
*D33
  1

  0
LINE
  5
74B6
330
747B
100
AcDbEntity
  8
30
  6
CONTINUOUS
 62
     0
100
AcDbLine
 10
-113.0
 20
-764.7821220577192
 30
0.0
 11
-113.0
 21
-788.5141774885155
 31
0.0
  0
LINE
  5
74B7
330
747B
100
AcDbEntity
  8
30
  6
CONTINUOUS
 62
     0
100
AcDbLine
 10
113.0
 20
-764.7821217259689
 30
0.0
 11
113.0
 21
-788.5141774885155
 31
0.0
  0
LINE
  5
74B8
330
747B
100
AcDbEntity
  8
30
  6
CONTINUOUS
 62
     0
100
AcDbLine
 10
-111.0
 20
-788.0141774885155
 30
0.0
 11
111.0
 21
-788.0141774885155
 31
0.0
  0
INSERT
  5
74B9
330
747B
100
AcDbEntity
  8
30
  6
CONTINUOUS
 62
     0
100
AcDbBlockReference
  2
_OPEN
 10
-113.0
 20
-788.0141774885155
 30
0.0
 41
2.0
 42
2.0
 43
2.0
 50
180.0
  0
INSERT
  5
74BA
330
747B
100
AcDbEntity
  8
30
  6
CONTINUOUS
 62
     0
100
AcDbBlockReference
  2
_OPEN
 10
113.0
 20
-788.0141774885155
 30
0.0
 41
2.0
 42
2.0
 43
2.0
  0
MTEXT
  5
74BB
330
747B
100
AcDbEntity
  8
30
  6
CONTINUOUS
 62
     0
100
AcDbMText
 10
0.0000000000000002
 20
-784.5141774885155
 30
0.0
 40
5.0
 41
0.0
 71
     5
 72
     1
  1
\A1;226
1001
ACAD
1000
MTEXTBEGIN
1070
    73
1070
     1
1070
    44
1040
1.0
1070
    74
1070
     0
1000
MTEXTEND
  0
POINT
  5
74BC
330
747B
100
AcDbEntity
  8
DEFPOINTS
  6
CONTINUOUS
 62
     0
100
AcDbPoint
 10
-113.0
 20
-763.7821220577192
 30
0.0
  0
POINT
  5
74BD
330
747B
100
AcDbEntity
  8
DEFPOINTS
  6
CONTINUOUS
 62
     0
100
AcDbPoint
 10
113.0
 20
-763.7821217259689
 30
0.0
  0
POINT
  5
74BE
330
747B
100
AcDbEntity
  8
DEFPOINTS
  6
CONTINUOUS
 62
     0
100
AcDbPoint
 10
113.0
 20
-788.0141774885155
 30
0.0
  0
ENDBLK
  5
7486
330
747B
100
AcDbEntity
  8
0
100
AcDbBlockEnd
  0
BLOCK
  5
74C9
330
74C0
100
AcDbEntity
  8
0
100
AcDbBlockBegin
  2
*D34
 70
     1
 10
0.0
 20
0.0
 30
0.0
  3
*D34
  1

  0
LINE
  5
74C1
330
74C0
100
AcDbEntity
  8
30
  6
CONTINUOUS
 62
     0
100
AcDbLine
 10
494.8621159223343
 20
93.82023936417729
 30
0.0
 11
507.528782589001
 21
93.82023936417729
 31
0.0
  0
LINE
  5
74C2
330
74C0
100
AcDbEntity
  8
30
  6
CONTINUOUS
 62
     0
100
AcDbLine
 10
507.528782589001
 20
93.82023936417729
 30
0.0
 11
514.0628415966996
 21
67.75981039119185
 31
0.0
  0
MTEXT
  5
74C3
330
74C0
100
AcDbEntity
  8
30
  6
CONTINUOUS
 62
     0
100
AcDbMText
 10
500.6954492556675
 20
97.32023936417727
 30
0.0
 40
5.0
 41
0.0
 71
     5
 72
     1
  1
\A1;\U+220512
1001
ACAD
1000
MTEXTBEGIN
1070
    73
1070
     1
1070
    44
1040
1.0
1070
    74
1070
     0
1000
MTEXTEND
  0
INSERT
  5
74C4
330
74C0
100
AcDbEntity
  8
30
  6
CONTINUOUS
 62
     0
100
AcDbBlockReference
  2
_OPEN
 10
514.5492405258688
 20
65.81985779339388
 30
0.0
 41
2.0
 42
2.0
 43
2.0
 50
284.0754526162776
  0
LINE
  5
74C5
330
74C0
100
AcDbEntity
  8
30
  6
CONTINUOUS
 62
     0
100
AcDbLine
 10
515.9184373133764
 20
60.0
 30
0.0
 11
516.0984373133764
 21
60.00000000000001
 31
0.0
  0
LINE
  5
74C6
330
74C0
100
AcDbEntity
  8
30
  6
CONTINUOUS
 62
     0
100
AcDbLine
 10
516.0084373133765
 20
59.90999999999999
 30
0.0
 11
516.0084373133763
 21
60.08999999999999
 31
0.0
  0
POINT
  5
74C7
330
74C0
100
AcDbEntity
  8
DEFPOINTS
  6
CONTINUOUS
 62
     0
100
AcDbPoint
 10
514.5492405258688
 20
65.81985779339388
 30
0.0
  0
POINT
  5
74C8
330
74C0
100
AcDbEntity
  8
DEFPOINTS
  6
CONTINUOUS
 62
     0
100
AcDbPoint
 10
517.467634100884
 20
54.18014220660611
 30
0.0
  0
ENDBLK
  5
74CA
330
74C0
100
AcDbEntity
  8
0
100
AcDbBlockEnd
  0
ENDSEC
  0
SECTION
  2
ENTITIES
  0
LINE
  5
B4
330
1E
100
AcDbEntity
  8
16
100
AcDbLine
 10
0.0
 20
-246.73200679413
 30
0.0
 11
0.0
 21
217.0
 31
0.0
  0
MTEXT
  5
BF3
330
1E
100
AcDbEntity
  8
24
  6
CONTINUOUS
100
AcDbMText
 10
142.1181906098743
 20
177.5
 30
0.0
 40
3.0
 41
0.0
 71
     1
 72
     1
  1
\A1;
1001
ACAD
1000
MTEXTBEGIN
1070
    73
1070
     1
1070
    44
1040
1.0
1070
    74
1070
     0
1000
MTEXTEND
  0
LINE
  5
1C9A
330
1E
100
AcDbEntity
  8
16
100
AcDbLine
 10
0.0
 20
268.6354464041774
 30
0.0
 11
0.0
 21
610.0650248706293
 31
0.0
  0
LINE
  5
1C9B
330
1E
100
AcDbEntity
  8
16
100
AcDbLine
 10
447.0084373133763
 20
-0.0000000000000003
 30
0.0
 11
256.0454807032225
 21
0.0
 31
0.0
  0
LINE
  5
2260
330
1E
100
AcDbEntity
  8
16
100
AcDbLine
 10
167.3950046580739
 20
-561.8467589481638
 30
0.0
 11
-140.1065049170443
 21
-561.8467593415666
 31
0.0
  0
LINE
  5
4C5A
330
1E
100
AcDbEntity
  8
16
100
AcDbLine
 10
187.7701008478178
 20
0.0000001967014072
 30
0.0
 11
-109.7701008478177
 21
-0.0000001967014356
 31
0.0
  0
LWPOLYLINE
  5
62AB
330
1E
100
AcDbEntity
  8
16
100
AcDbPolyline
 90
        2
 70
     0
 43
0.0
 10
0.0
 20
-820.9319926119569
 10
0.0
 20
-313.0931245496349
  0
LWPOLYLINE
  5
6462
330
1E
100
AcDbEntity
  8
10
  6
CONTINUOUS
100
AcDbPolyline
 90
        6
 70
     0
 43
0.0
 10
134.0
 20
388.0000003934028
 10
-134.0
 20
388.0
 10
134.0
 20
388.0000003934028
 10
134.0
 20
370.0000003934028
 10
-134.0
 20
370.0
 10
-134.0
 20
388.0
  0
LINE
  5
6463
330
1E
100
AcDbEntity
  8
18
100
AcDbLine
 10
-210.0
 20
396.0000000000007
 30
0.0
 11
214.0
 21
396.000000604155
 31
0.0
  0
LWPOLYLINE
  5
6467
330
1E
100
AcDbEntity
  8
10
  6
CONTINUOUS
100
AcDbPolyline
 90
        4
 70
     0
 43
0.0
 10
-105.0
 20
388.0
 10
-105.0
 20
519.0000000000001
 10
105.0
 20
519.0000003934028
 10
105.0
 20
388.0000003934028
  0
LINE
  5
6469
330
1E
100
AcDbEntity
  8
18
100
AcDbLine
 10
214.0
 20
388.0000006041543
 30
0.0
 11
134.0
 21
388.0000003934028
 31
0.0
  0
LINE
  5
646A
330
1E
100
AcDbEntity
  8
18
100
AcDbLine
 10
214.0
 20
392.0000006041543
 30
0.0
 11
214.0
 21
388.0000006041543
 31
0.0
  0
LINE
  5
6480
330
1E
100
AcDbEntity
  8
18
100
AcDbLine
 10
-210.0
 20
388.0
 30
0.0
 11
-134.0
 21
388.0
 31
0.0
  0
LINE
  5
6481
330
1E
100
AcDbEntity
  8
18
100
AcDbLine
 10
-210.0
 20
388.0
 30
0.0
 11
-210.0
 21
392.0
 31
0.0
  0
LWPOLYLINE
  5
6608
330
1E
100
AcDbEntity
  8
10
  6
CONTINOUS
100
AcDbPolyline
 90
        4
 70
     0
 43
0.0
 10
-31.00006103516011
 20
367.9998779297
 10
-31.00006103516011
 20
363.0
 10
30.99993896483988
 20
363.0
 10
30.99993896483988
 20
367.9998779297
  0
LWPOLYLINE
  5
6609
330
1E
100
AcDbEntity
  8
10
  6
CONTINOUS
100
AcDbPolyline
 90
        4
 70
     0
 10
-15.86512012400123
 20
359.0
 40
0.001
 41
0.001
 10
-15.41352112400125
 20
336.0
 40
0.001
 41
0.001
 10
15.58647887599875
 20
336.0
 40
0.001
 41
0.001
 10
16.03807787599873
 20
359.0
 40
0.0
 41
0.0
  0
LWPOLYLINE
  5
660A
330
1E
100
AcDbEntity
  8
10
  6
CONTINOUS
100
AcDbPolyline
 90
        4
 70
     0
 10
-22.14996337891011
 20
363.0
 40
0.001
 41
0.001
 10
-22.14996337891011
 20
359.0
 40
0.001
 41
0.001
 10
21.85003662108988
 20
359.0
 40
0.001
 41
0.001
 10
21.85003662108988
 20
363.0
 40
0.0
 41
0.0
  0
MTEXT
  5
678B
330
1E
100
AcDbEntity
  8
19
  6
CONTINUOUS
100
AcDbMText
 10
336.4674848269278
 20
485.9999999999999
 30
0.0
 40
7.0
 41
94.0
 71
     1
 72
     5
  1
XS1600NE 3P FP 
  7
STANDARD1
1001
ACAD
1000
MTEXTBEGIN
1070
    73
1070
     1
1070
    44
1040
1.0
1070
    74
1070
     0
1000
MTEXTEND
  0
CIRCLE
  5
6B61
330
1E
100
AcDbEntity
  8
12
  6
DASHDOT
 62
     3
100
AcDbCircle
 10
-122.5
 20
-654.3467593415666
 30
0.0
 40
4.5
  0
CIRCLE
  5
6B63
330
1E
100
AcDbEntity
  8
12
  6
DASHDOT
 62
     3
100
AcDbCircle
 10
122.5
 20
-654.3467589481638
 30
0.0
 40
4.5
  0
CIRCLE
  5
6B69
330
1E
100
AcDbEntity
  8
12
  6
DASHDOT
 62
     3
100
AcDbCircle
 10
-122.5
 20
-469.3467288239867
 30
0.0
 40
4.5
  0
CIRCLE
  5
6B6B
330
1E
100
AcDbEntity
  8
12
  6
DASHDOT
 62
     3
100
AcDbCircle
 10
122.5
 20
-469.3467284305838
 30
0.0
 40
4.5
  0
LWPOLYLINE
  5
6B86
330
1E
100
AcDbEntity
  8
12
  6
DASHDOT
 62
     3
100
AcDbPolyline
 90
        2
 70
     0
 43
0.0
 10
107.4999999999999
 20
-469.3467284305838
 10
137.5
 20
-469.3467284305838
  0
LWPOLYLINE
  5
6B87
330
1E
100
AcDbEntity
  8
12
  6
DASHDOT
 62
     3
100
AcDbPolyline
 90
        2
 70
     0
 43
0.0
 10
122.5
 20
-484.3467284305838
 10
122.5
 20
-454.3467284305839
  0
LWPOLYLINE
  5
6B88
330
1E
100
AcDbEntity
  8
12
  6
DASHDOT
 62
     3
100
AcDbPolyline
 90
        2
 70
     0
 43
0.0
 10
107.4999999999999
 20
-654.3467589481638
 10
137.5
 20
-654.3467589481638
  0
LWPOLYLINE
  5
6B89
330
1E
100
AcDbEntity
  8
12
  6
DASHDOT
 62
     3
100
AcDbPolyline
 90
        2
 70
     0
 43
0.0
 10
122.5
 20
-669.3467589481638
 10
122.5
 20
-639.3467589481637
  0
LWPOLYLINE
  5
6B8A
330
1E
100
AcDbEntity
  8
12
  6
DASHDOT
 62
     3
100
AcDbPolyline
 90
        2
 70
     0
 43
0.0
 10
-137.5
 20
-469.3467288239867
 10
-107.4999999999999
 20
-469.3467288239867
  0
LWPOLYLINE
  5
6B8B
330
1E
100
AcDbEntity
  8
12
  6
DASHDOT
 62
     3
100
AcDbPolyline
 90
        2
 70
     0
 43
0.0
 10
-122.5
 20
-484.3467288239867
 10
-122.5
 20
-454.3467288239867
  0
LWPOLYLINE
  5
6B8C
330
1E
100
AcDbEntity
  8
12
  6
DASHDOT
 62
     3
100
AcDbPolyline
 90
        2
 70
     0
 43
0.0
 10
-137.5
 20
-654.3467593415666
 10
-107.4999999999999
 20
-654.3467593415666
  0
LWPOLYLINE
  5
6B8D
330
1E
100
AcDbEntity
  8
12
  6
DASHDOT
 62
     3
100
AcDbPolyline
 90
        2
 70
     0
 43
0.0
 10
-122.5
 20
-669.3467593415666
 10
-122.5
 20
-639.3467593415667
  0
DIMENSION
  5
6B8E
330
1E
100
AcDbEntity
  8
30
  6
CONTINUOUS
100
AcDbDimension
  2
*D14
 10
119.4378411973364
 20
-468.5999170296778
 30
0.0
 11
159.3951846157519
 21
-454.0005275142472
 31
0.0
 70
   163
  1
%%c9
  3
STANDARD
100
AcDbDiametricDimension
 15
124.8256430847443
 25
-465.9595400069698
 35
0.0
 40
0.0
1001
ACAD
1000
DSTYLE
1002
{
1070
   288
1070
     1
1002
}
  0
DIMENSION
  5
6BB7
330
1E
100
AcDbEntity
  8
30
  6
CONTINUOUS
100
AcDbDimension
  2
*D15
 10
122.4999999999999
 20
-807.866248617624
 30
0.0
 11
-0.000000000000014
 21
-804.366248617624
 31
0.0
 70
    32
  3
STANDARD
100
AcDbAlignedDimension
 13
-122.5
 23
-669.3467593415666
 33
0.0
 14
122.5
 24
-669.3467589481638
 34
0.0
100
AcDbRotatedDimension
  0
DIMENSION
  5
6BC4
330
1E
100
AcDbEntity
  8
30
  6
CONTINUOUS
100
AcDbDimension
  2
*D16
 10
-163.0
 20
-654.3467593415666
 30
0.0
 11
-166.4999999999998
 21
-561.8467440827767
 31
0.0
 70
    32
  3
STANDARD
100
AcDbAlignedDimension
 13
-137.5
 23
-469.3467288239867
 33
0.0
 14
-137.5
 24
-654.3467593415666
 34
0.0
 50
90.0
100
AcDbRotatedDimension
  0
DIMENSION
  5
6BD1
330
1E
100
AcDbEntity
  8
30
  6
CONTINUOUS
100
AcDbDimension
  2
*D17
 10
-189.0
 20
-763.7821220577192
 30
0.0
 11
-192.4999999999998
 21
-558.7821220577191
 31
0.0
 70
    32
  3
STANDARD
100
AcDbAlignedDimension
 13
-113.0
 23
-353.7821220577191
 33
0.0
 14
-113.0
 24
-763.7821220577192
 34
0.0
 50
90.0
100
AcDbRotatedDimension
  0
DIMENSION
  5
6FBC
330
1E
100
AcDbEntity
  8
30
  6
CONTINUOUS
100
AcDbDimension
  2
*D19
 10
126.4376580919365
 20
96.58621446993899
 30
0.0
 11
169.3116681770178
 21
111.1856039853692
 31
0.0
 70
   163
  1
M8
  3
STANDARD
100
AcDbDiametricDimension
 15
131.8254599793442
 25
99.2265914926471
 35
0.0
 40
0.0
1001
ACAD
1000
DSTYLE
1002
{
1070
   288
1070
     1
1002
}
  0
LINE
  5
70B6
330
1E
100
AcDbEntity
  8
24
  6
CONTINOUS
100
AcDbLine
 10
431.0084373133763
 20
45.0
 30
0.0
 11
626.0085593836763
 21
45.0
 31
0.0
  0
ARC
  5
70BC
330
1E
100
AcDbEntity
  8
30
  6
CONTINUOUS
100
AcDbCircle
 10
364.0084373133763
 20
-15.0
 30
0.0
 40
109.0000000000273
100
AcDbArc
 50
162.8941923836369
 51
180.0
  0
ARC
  5
70BE
330
1E
100
AcDbEntity
  8
10
  6
CONTINUOUS
100
AcDbCircle
 10
364.0084373133763
 20
-15.0
 30
0.0
 40
75.00000000005576
100
AcDbArc
 50
156.9260823699256
 51
203.0739139876335
  0
LINE
  5
70BF
330
1E
100
AcDbEntity
  8
18
100
AcDbLine
 10
325.0084373133763
 20
-236.17199707031
 30
0.0
 11
325.0084373133763
 21
241.76721191406
 31
0.0
  0
LINE
  5
70C0
330
1E
100
AcDbEntity
  8
18
100
AcDbLine
 10
321.0084373133763
 20
-210.0
 30
0.0
 11
321.0084373133763
 21
-236.17199707031
 31
0.0
  0
LINE
  5
70C1
330
1E
100
AcDbEntity
  8
18
100
AcDbLine
 10
321.0084373133763
 20
-236.17199707031
 30
0.0
 11
325.0084373133763
 21
-236.17199707031
 31
0.0
  0
LINE
  5
70C3
330
1E
100
AcDbEntity
  8
10
  6
CONTINUOUS
100
AcDbLine
 10
295.0084373133763
 20
-64.69359741211
 30
0.0
 11
303.0084373133763
 21
-64.69359741211
 31
0.0
  0
LINE
  5
70C4
330
1E
100
AcDbEntity
  8
10
  6
CONTINUOUS
100
AcDbLine
 10
295.0084373133763
 20
-44.39404296874999
 30
0.0
 11
295.0084373133763
 21
-64.69359741211
 31
0.0
  0
LINE
  5
70C5
330
1E
100
AcDbEntity
  8
10
  6
CONTINUOUS
100
AcDbLine
 10
291.0699607508763
 20
18.17529296875
 30
0.0
 11
265.3121482508763
 21
26.82763671875
 31
0.0
  0
LINE
  5
70C6
330
1E
100
AcDbEntity
  8
10
  6
CONTINUOUS
100
AcDbLine
 10
261.5167380945763
 20
16.39892578125
 30
0.0
 11
286.8097068445763
 21
6.47021484375
 31
0.0
  0
ARC
  5
70C7
330
1E
100
AcDbEntity
  8
10
  6
CONTINUOUS
100
AcDbCircle
 10
262.2472068445763
 20
18.2607421875
 30
0.0
 40
1.999999999977215
100
AcDbArc
 50
159.9997221378451
 51
248.5674954461243
  0
ARC
  5
70C8
330
1E
100
AcDbEntity
  8
10
  6
CONTINUOUS
100
AcDbCircle
 10
264.6754295008763
 20
24.931640625
 30
0.0
 40
1.999999999983488
100
AcDbArc
 50
71.43229717125699
 51
160.0005964025257
  0
LINE
  5
70C9
330
1E
100
AcDbEntity
  8
10
  6
CONTINUOUS
100
AcDbLine
 10
262.7960349695763
 20
25.61572265625
 30
0.0
 11
260.3678123133763
 21
18.94482421875
 31
0.0
  0
ARC
  5
70CA
330
1E
100
AcDbEntity
  8
10
  6
CONTINUOUS
100
AcDbCircle
 10
292.6619456033424
 20
22.9147358026525
 30
0.0
 40
5.000000000014477
100
AcDbArc
 50
251.4320994472945
 51
271.5383731946221
  0
ARC
  5
70CB
330
1E
100
AcDbEntity
  8
10
  6
CONTINUOUS
100
AcDbCircle
 10
284.9827957081988
 20
1.816445620632805
 30
0.0
 40
5.000000000031704
100
AcDbArc
 50
48.46161501502344
 51
68.56790242171307
  0
LINE
  5
70CC
330
1E
100
AcDbEntity
  8
10
  6
CONTINUOUS
100
AcDbLine
 10
291.1978904383763
 20
2.98974609375
 30
0.0
 11
288.2989646570763
 21
5.55908203125
 31
0.0
  0
LINE
  5
70CD
330
1E
100
AcDbEntity
  8
10
  6
CONTINUOUS
100
AcDbLine
 10
295.0084373133763
 20
17.9755859375
 30
0.0
 11
292.7965232508763
 21
17.916015625
 31
0.0
  0
LINE
  5
70CE
330
1E
100
AcDbEntity
  8
10
  6
CONTINUOUS
100
AcDbLine
 10
295.0084373133763
 20
14.39404296875
 30
0.0
 11
295.0084373133763
 21
34.70640258788999
 31
0.0
  0
LINE
  5
70CF
330
1E
100
AcDbEntity
  8
10
  6
CONTINUOUS
100
AcDbLine
 10
295.0084373133763
 20
34.70640258788999
 30
0.0
 11
303.0084373133763
 21
34.70640258788999
 31
0.0
  0
LINE
  5
70D0
330
1E
100
AcDbEntity
  8
18
100
AcDbLine
 10
321.0084373133763
 20
210.0
 30
0.0
 11
321.0084373133763
 21
243.07470703125
 31
0.0
  0
LINE
  5
70D2
330
1E
100
AcDbEntity
  8
18
100
AcDbLine
 10
321.0084373133763
 20
243.07470703125
 30
0.0
 11
325.0084373133763
 21
241.76721191406
 31
0.0
  0
LINE
  5
70D6
330
1E
100
AcDbEntity
  8
24
  6
CONTINOUS
100
AcDbLine
 10
561.0085593836763
 20
-82.5
 30
0.0
 11
561.0085593836763
 21
-163.0134277343749
 31
0.0
  0
LINE
  5
70D7
330
1E
100
AcDbEntity
  8
24
  6
CONTINOUS
100
AcDbLine
 10
516.0084373133763
 20
-82.5
 30
0.0
 11
516.0084373133763
 21
-163.0134277343749
 31
0.0
  0
ARC
  5
70D8
330
1E
100
AcDbEntity
  8
L0_
  6
CONTINUOUS
 62
     2
100
AcDbCircle
 10
-448.0084373133763
 20
-157.0009765625
 30
0.0
 40
4.000001778531222
210
0.0
220
0.0
230
-1.0
100
AcDbArc
 50
179.9459695852862
 51
180.0
  0
LINE
  5
70DB
330
1E
100
AcDbEntity
  8
24
  6
CONTINOUS
100
AcDbLine
 10
546.0084373133764
 20
-130.0
 30
0.0
 11
576.0085593836763
 21
-130.0
 31
0.0
  0
LINE
  5
70DC
330
1E
100
AcDbEntity
  8
24
  6
CONTINOUS
100
AcDbLine
 10
546.0084373133764
 20
-100.0
 30
0.0
 11
576.0085593836763
 21
-100.0
 31
0.0
  0
LINE
  5
70DD
330
1E
100
AcDbEntity
  8
21
  6
CONTINUOUS
100
AcDbLine
 10
541.0084373133763
 20
-82.5
 30
0.0
 11
576.0085593836763
 21
-82.5
 31
0.0
  0
LINE
  5
70DE
330
1E
100
AcDbEntity
  8
21
  6
CONTINUOUS
100
AcDbLine
 10
541.0084373133763
 20
-147.5
 30
0.0
 11
576.0085593836763
 21
-147.5
 31
0.0
  0
LINE
  5
70DF
330
1E
100
AcDbEntity
  8
21
  6
CONTINUOUS
100
AcDbLine
 10
446.0084373133764
 20
-147.5
 30
0.0
 11
531.0084373133763
 21
-147.5
 31
0.0
  0
LINE
  5
70E0
330
1E
100
AcDbEntity
  8
21
  6
CONTINUOUS
100
AcDbLine
 10
446.0084373133764
 20
-82.5
 30
0.0
 11
531.0084373133763
 21
-82.5
 31
0.0
  0
LINE
  5
70E1
330
1E
100
AcDbEntity
  8
21
  6
CONTINUOUS
100
AcDbLine
 10
531.0084373133763
 20
-82.5
 30
0.0
 11
531.0084373133763
 21
-147.5
 31
0.0
  0
CIRCLE
  5
70E2
330
1E
100
AcDbEntity
  8
24
  6
CONTINOUS
100
AcDbCircle
 10
516.0084373133763
 20
-130.0
 30
0.0
 40
6.0
  0
CIRCLE
  5
70E3
330
1E
100
AcDbEntity
  8
24
  6
CONTINOUS
100
AcDbCircle
 10
516.0084373133763
 20
-100.0
 30
0.0
 40
6.0
  0
LINE
  5
70E4
330
1E
100
AcDbEntity
  8
24
  6
CONTINOUS
100
AcDbLine
 10
501.0084373133763
 20
-130.0
 30
0.0
 11
531.0084373133763
 21
-130.0
 31
0.0
  0
LINE
  5
70E5
330
1E
100
AcDbEntity
  8
24
  6
CONTINOUS
100
AcDbLine
 10
501.0084373133763
 20
-100.0
 30
0.0
 11
531.0084373133763
 21
-100.0
 31
0.0
  0
LINE
  5
70E6
330
1E
100
AcDbEntity
  8
21
  6
CONTINUOUS
100
AcDbLine
 10
576.0085593836763
 20
-82.5
 30
0.0
 11
576.0085593836763
 21
-147.5
 31
0.0
  0
CIRCLE
  5
70E7
330
1E
100
AcDbEntity
  8
24
  6
CONTINOUS
100
AcDbCircle
 10
561.0085593836763
 20
-130.0
 30
0.0
 40
6.0
  0
CIRCLE
  5
70E8
330
1E
100
AcDbEntity
  8
24
  6
CONTINOUS
100
AcDbCircle
 10
561.0085593836763
 20
-100.0
 30
0.0
 40
6.0
  0
LINE
  5
70E9
330
1E
100
AcDbEntity
  8
21
  6
CONTINUOUS
100
AcDbLine
 10
541.0084373133763
 20
12.5
 30
0.0
 11
576.0085593836763
 21
12.5
 31
0.0
  0
LINE
  5
70EA
330
1E
100
AcDbEntity
  8
21
  6
CONTINUOUS
100
AcDbLine
 10
541.0084373133763
 20
77.5
 30
0.0
 11
576.0085593836763
 21
77.5
 31
0.0
  0
LINE
  5
70EB
330
1E
100
AcDbEntity
  8
21
  6
CONTINUOUS
100
AcDbLine
 10
531.0084373133763
 20
12.5
 30
0.0
 11
531.0084373133763
 21
77.5
 31
0.0
  0
LINE
  5
70EC
330
1E
100
AcDbEntity
  8
24
  6
CONTINOUS
100
AcDbLine
 10
516.0084373133763
 20
77.5
 30
0.0
 11
516.0084373133763
 21
12.5
 31
0.0
  0
LINE
  5
70ED
330
1E
100
AcDbEntity
  8
21
  6
CONTINUOUS
100
AcDbLine
 10
446.0084373133764
 20
12.5
 30
0.0
 11
531.0084373133763
 21
12.5
 31
0.0
  0
CIRCLE
  5
70EE
330
1E
100
AcDbEntity
  8
24
  6
CONTINOUS
100
AcDbCircle
 10
516.0084373133763
 20
60.0
 30
0.0
 40
6.0
  0
CIRCLE
  5
70EF
330
1E
100
AcDbEntity
  8
24
  6
CONTINOUS
100
AcDbCircle
 10
516.0084373133763
 20
30.0
 30
0.0
 40
6.0
  0
LINE
  5
70F0
330
1E
100
AcDbEntity
  8
24
  6
CONTINOUS
100
AcDbLine
 10
501.0084373133763
 20
30.0
 30
0.0
 11
531.0084373133763
 21
30.0
 31
0.0
  0
LINE
  5
70F1
330
1E
100
AcDbEntity
  8
24
  6
CONTINOUS
100
AcDbLine
 10
501.0084373133763
 20
60.0
 30
0.0
 11
531.0084373133763
 21
60.0
 31
0.0
  0
LINE
  5
70F2
330
1E
100
AcDbEntity
  8
21
  6
CONTINUOUS
100
AcDbLine
 10
446.0084373133764
 20
77.5
 30
0.0
 11
531.0084373133763
 21
77.5
 31
0.0
  0
LINE
  5
70F3
330
1E
100
AcDbEntity
  8
21
  6
CONTINUOUS
100
AcDbLine
 10
576.0085593836763
 20
12.5
 30
0.0
 11
576.0085593836763
 21
77.5
 31
0.0
  0
LINE
  5
70F4
330
1E
100
AcDbEntity
  8
24
  6
CONTINOUS
100
AcDbLine
 10
561.0085593836763
 20
77.5
 30
0.0
 11
561.0085593836763
 21
12.5
 31
0.0
  0
CIRCLE
  5
70F5
330
1E
100
AcDbEntity
  8
24
  6
CONTINOUS
100
AcDbCircle
 10
561.0085593836763
 20
60.0
 30
0.0
 40
6.0
  0
CIRCLE
  5
70F6
330
1E
100
AcDbEntity
  8
24
  6
CONTINOUS
100
AcDbCircle
 10
561.0085593836763
 20
30.0
 30
0.0
 40
6.0
  0
ARC
  5
70F7
330
1E
100
AcDbEntity
  8
L150_
  6
CONTINUOUS
 62
     7
100
AcDbCircle
 10
448.0084373133763
 20
157.0009765625
 30
0.0
 40
4.000001778531231
100
AcDbArc
 50
359.9459695851429
 51
0.0
  0
LWPOLYLINE
  5
7128
330
1E
100
AcDbEntity
  8
10
  6
CONTINUOUS
100
AcDbPolyline
 90
        8
 70
     0
 43
0.0
 10
321.0084373133763
 20
185.0
 10
452.0084373133763
 20
185.0
 10
452.0084373133763
 20
154.0
 10
446.0084373133764
 20
154.0
 10
446.0084373133764
 20
-154.0
 10
452.0084373133763
 20
-154.0
 10
452.0084373133763
 20
-185.0
 10
321.0084373133763
 20
-185.0
  0
LWPOLYLINE
  5
7129
330
1E
100
AcDbEntity
  8
10
  6
CONTINUOUS
100
AcDbPolyline
 90
        4
 70
     1
 43
0.0
 10
321.0084373133763
 20
-210.0
 10
303.0084373133763
 20
-210.0
 10
303.0084373133763
 20
210.0
 10
321.0084373133763
 20
210.0
  0
LINE
  5
7156
330
1E
100
AcDbEntity
  8
24
  6
CONTINOUS
100
AcDbLine
 10
546.0084373133764
 20
60.0
 30
0.0
 11
576.0085593836763
 21
60.0
 31
0.0
  0
LINE
  5
7157
330
1E
100
AcDbEntity
  8
24
  6
CONTINOUS
100
AcDbLine
 10
546.0084373133764
 20
30.0
 30
0.0
 11
576.0085593836763
 21
30.0
 31
0.0
  0
DIMENSION
  5
7158
330
1E
100
AcDbEntity
  8
30
  6
CONTINUOUS
100
AcDbDimension
  2
*D20
 10
596.8603040234443
 20
29.99999999999999
 30
0.0
 11
593.3603040234443
 21
45.00000000000009
 31
0.0
 70
    32
  3
STANDARD
100
AcDbAlignedDimension
 13
567.0085593836764
 23
60.0
 33
0.0
 14
567.0085593836764
 24
30.0
 34
0.0
 50
90.0
100
AcDbRotatedDimension
  0
DIMENSION
  5
7165
330
1E
100
AcDbEntity
  8
30
  6
CONTINUOUS
100
AcDbDimension
  2
*D21
 10
615.219657770051
 20
12.49999999999999
 30
0.0
 11
611.7196577700511
 21
45.00000000000009
 31
0.0
 70
    32
  3
STANDARD
100
AcDbAlignedDimension
 13
576.0085593836763
 23
77.5
 33
0.0
 14
576.0085593836763
 24
12.5
 34
0.0
 50
90.0
100
AcDbRotatedDimension
  0
DIMENSION
  5
71A2
330
1E
100
AcDbEntity
  8
30
  6
CONTINUOUS
100
AcDbDimension
  2
*D22
 10
642.2519085577996
 20
-0.0000000000000556
 30
0.0
 11
638.7519085577996
 21
22.50000000000007
 31
0.0
 70
    32
  3
STANDARD
100
AcDbAlignedDimension
 13
615.219657770051
 23
45.0
 33
0.0
 14
446.0084373133764
 24
0.0
 34
0.0
 50
90.0
100
AcDbRotatedDimension
  0
DIMENSION
  5
71AF
330
1E
100
AcDbEntity
  8
30
  6
CONTINUOUS
100
AcDbDimension
  2
*D23
 10
642.2519085577996
 20
-115.0
 30
0.0
 11
638.7519085577996
 21
-57.49999999999994
 31
0.0
 70
    32
  3
STANDARD
100
AcDbAlignedDimension
 13
446.0084373133764
 23
0.0
 33
0.0
 14
531.0084373133763
 24
-115.0
 34
0.0
 50
90.0
100
AcDbRotatedDimension
1001
ACAD
1000
DSTYLE
1002
{
1070
   287
1070
     4
1070
   287
1070
     4
1070
   287
1070
     4
1070
   279
1070
     1
1002
}
  0
LINE
  5
71FD
330
1E
100
AcDbEntity
  8
12
  6
DASHDOT
 62
     3
100
AcDbLine
 10
-137.50006103518
 20
-92.59359741211
 30
0.0
 11
-107.50006103518
 21
-92.59359741211
 31
0.0
  0
CIRCLE
  5
71FE
330
1E
100
AcDbEntity
  8
12
  6
DASHDOT
 62
     3
100
AcDbCircle
 10
-122.50006103518
 20
-92.59359741211
 30
0.0
 40
4.0
  0
CIRCLE
  5
71FF
330
1E
100
AcDbEntity
  8
12
  6
DASHDOT
 62
     3
100
AcDbCircle
 10
-122.50006103518
 20
-92.59359741211
 30
0.0
 40
3.323499917980029
  0
LINE
  5
7200
330
1E
100
AcDbEntity
  8
12
  6
DASHDOT
 62
     3
100
AcDbLine
 10
-122.50006103518
 20
-107.59359741211
 30
0.0
 11
-122.50006103518
 21
-77.59359741211
 31
0.0
  0
LINE
  5
7201
330
1E
100
AcDbEntity
  8
12
  6
DASHDOT
 62
     3
100
AcDbLine
 10
-137.50006103518
 20
92.40640258788999
 30
0.0
 11
-107.50006103518
 21
92.40640258788999
 31
0.0
  0
CIRCLE
  5
7202
330
1E
100
AcDbEntity
  8
12
  6
DASHDOT
 62
     3
100
AcDbCircle
 10
-122.50006103518
 20
92.40640258788999
 30
0.0
 40
4.0
  0
CIRCLE
  5
7203
330
1E
100
AcDbEntity
  8
12
  6
DASHDOT
 62
     3
100
AcDbCircle
 10
-122.50006103518
 20
92.40640258788999
 30
0.0
 40
3.323499917980029
  0
LINE
  5
7204
330
1E
100
AcDbEntity
  8
12
  6
DASHDOT
 62
     3
100
AcDbLine
 10
-122.50006103518
 20
77.40640258788999
 30
0.0
 11
-122.50006103518
 21
107.40640258789
 31
0.0
  0
LINE
  5
7209
330
1E
100
AcDbEntity
  8
12
  6
DASHDOT
 62
     3
100
AcDbLine
 10
107.4998779297
 20
-92.59359701870716
 30
0.0
 11
137.4998779296999
 21
-92.59359701870716
 31
0.0
  0
CIRCLE
  5
720A
330
1E
100
AcDbEntity
  8
12
  6
DASHDOT
 62
     3
100
AcDbCircle
 10
122.4998779297
 20
-92.59359701870716
 30
0.0
 40
4.0
  0
CIRCLE
  5
720B
330
1E
100
AcDbEntity
  8
12
  6
DASHDOT
 62
     3
100
AcDbCircle
 10
122.4998779297
 20
-92.59359701870716
 30
0.0
 40
3.32349991789988
  0
LINE
  5
720C
330
1E
100
AcDbEntity
  8
12
  6
DASHDOT
 62
     3
100
AcDbLine
 10
122.4998779297
 20
-107.5935970187071
 30
0.0
 11
122.4998779297
 21
-77.59359701870716
 31
0.0
  0
LINE
  5
720D
330
1E
100
AcDbEntity
  8
12
  6
DASHDOT
 62
     3
100
AcDbLine
 10
107.4998779297
 20
92.40640298129283
 30
0.0
 11
137.4998779296999
 21
92.40640298129283
 31
0.0
  0
CIRCLE
  5
720E
330
1E
100
AcDbEntity
  8
12
  6
DASHDOT
 62
     3
100
AcDbCircle
 10
122.4998779297
 20
92.40640298129283
 30
0.0
 40
4.0
  0
CIRCLE
  5
720F
330
1E
100
AcDbEntity
  8
12
  6
DASHDOT
 62
     3
100
AcDbCircle
 10
122.4998779297
 20
92.40640298129283
 30
0.0
 40
3.32349991789988
  0
LINE
  5
7210
330
1E
100
AcDbEntity
  8
12
  6
DASHDOT
 62
     3
100
AcDbLine
 10
122.4998779297
 20
77.40640298129284
 30
0.0
 11
122.4998779297
 21
107.4064029812928
 31
0.0
  0
LWPOLYLINE
  5
7236
330
1E
100
AcDbEntity
  8
10
  6
D329
100
AcDbPolyline
 90
        4
 70
     1
 43
0.0
 10
104.9998779297
 20
-185.0935970187071
 10
-105.00006103518
 20
-185.09359741211
 10
-105.00006103518
 20
184.9064025878899
 10
104.9998779297
 20
184.9064029812928
  0
LWPOLYLINE
  5
7237
330
1E
100
AcDbEntity
  8
10
  6
CONTINUOUS
100
AcDbPolyline
 90
        4
 70
     1
 43
0.0
 10
133.9998779297
 20
-210.0935970187071
 10
-134.00006103518
 20
-210.09359741211
 10
-134.00006103518
 20
209.90640258789
 10
133.9998779297
 20
209.9064029812928
  0
LWPOLYLINE
  5
7238
330
1E
100
AcDbEntity
  8
10
  6
CONTINUOUS
100
AcDbPolyline
 90
        4
 70
     1
 43
0.0
 10
39.00000000000001
 20
-64.69359741211
 10
-38.99999999999998
 20
-64.69359741211
 10
-38.99999999999998
 20
34.70640258788999
 10
39.00000000000001
 20
34.70640258788999
  0
LWPOLYLINE
  5
7239
330
1E
100
AcDbEntity
  8
10
  6
CONTINUOUS
100
AcDbPolyline
 90
        4
 70
     1
 43
0.0
 10
22.50000000000001
 20
-42.49359741211
 10
-22.49999999999998
 20
-42.49359741211
 10
-22.49999999999998
 20
16.90640258789
 10
22.50000000000001
 20
16.90640258789
  0
LINE
  5
72DD
330
1E
100
AcDbEntity
  8
21
  6
CONTINUOUS
100
AcDbLine
 10
77.5
 20
518.9999996065971
 30
0.0
 11
77.5
 21
588.9999996065973
 31
0.0
  0
LINE
  5
72E0
330
1E
100
AcDbEntity
  8
21
  6
CONTINUOUS
100
AcDbLine
 10
62.5
 20
518.9999996065971
 30
0.0
 11
62.5
 21
588.9999996065973
 31
0.0
  0
LINE
  5
72E5
330
1E
100
AcDbEntity
  8
21
  6
CONTINUOUS
100
AcDbLine
 10
77.5
 20
588.9999996065973
 30
0.0
 11
62.5
 21
588.9999996065973
 31
0.0
  0
LINE
  5
72E6
330
1E
100
AcDbEntity
  8
24
  6
CONTINOUS
100
AcDbLine
 10
92.5
 20
573.9999996065972
 30
0.0
 11
47.5
 21
573.9999996065972
 31
0.0
  0
LINE
  5
72EC
330
1E
100
AcDbEntity
  8
21
  6
CONTINUOUS
100
AcDbLine
 10
-7.5
 20
518.9997554658971
 30
0.0
 11
-7.5
 21
638.9999996065973
 31
0.0
  0
LINE
  5
72ED
330
1E
100
AcDbEntity
  8
21
  6
CONTINUOUS
100
AcDbLine
 10
7.5
 20
518.9999996065971
 30
0.0
 11
7.5
 21
638.9999996065973
 31
0.0
  0
LINE
  5
72EE
330
1E
100
AcDbEntity
  8
21
  6
CONTINUOUS
100
AcDbLine
 10
7.5
 20
638.9999996065973
 30
0.0
 11
-7.5
 21
638.9999996065973
 31
0.0
  0
LINE
  5
7317
330
1E
100
AcDbEntity
  8
24
  6
CONTINOUS
100
AcDbLine
 10
22.5
 20
623.9999996065972
 30
0.0
 11
-22.5
 21
623.9999996065972
 31
0.0
  0
DIMENSION
  5
7319
330
1E
100
AcDbEntity
  8
30
  6
CONTINUOUS
100
AcDbDimension
  2
*D24
 10
-190.6441089012769
 20
-210.09359741211
 30
0.0
 11
-194.1441089012768
 21
-0.0935974121100308
 31
0.0
 70
    32
  3
STANDARD
100
AcDbAlignedDimension
 13
-134.00006103518
 23
209.90640258789
 33
0.0
 14
-134.00006103518
 24
-210.09359741211
 34
0.0
 50
90.0
100
AcDbRotatedDimension
  0
DIMENSION
  5
7326
330
1E
100
AcDbEntity
  8
30
  6
CONTINUOUS
100
AcDbDimension
  2
*D25
 10
62.60315311051636
 20
-14.99359741211002
 30
0.0
 11
59.10315311051636
 21
-7.496798706055007
 31
0.0
 70
    32
  3
STANDARD
100
AcDbAlignedDimension
 13
0.0
 23
0.0
 33
0.0
 14
-0.0999999999999997
 24
-14.99359741211
 34
0.0
 50
90.0
100
AcDbRotatedDimension
  0
DIMENSION
  5
7345
330
1E
100
AcDbEntity
  8
30
  6
CONTINUOUS
100
AcDbDimension
  2
*D26
 10
133.9998779297
 20
-253.4965345579321
 30
0.0
 11
-0.0000915527400023
 21
-249.9965345579321
 31
0.0
 70
    32
  3
STANDARD
100
AcDbAlignedDimension
 13
-134.00006103518
 23
-210.09359741211
 33
0.0
 14
133.9998779297
 24
-210.0935970187071
 34
0.0
100
AcDbRotatedDimension
  0
DIMENSION
  5
739D
330
1E
100
AcDbEntity
  8
30
  6
CONTINUOUS
100
AcDbDimension
  2
*D27
 10
321.0084373133763
 20
-254.1616354506663
 30
0.0
 11
288.0084373133627
 21
-250.6616354506663
 31
0.0
 70
    32
  3
STANDARD
100
AcDbAlignedDimension
 13
255.008437313349
 23
-14.99999999999998
 33
0.0
 14
321.0084373133763
 24
-210.0
 34
0.0
100
AcDbRotatedDimension
  0
DIMENSION
  5
73AA
330
1E
100
AcDbEntity
  8
30
  6
CONTINUOUS
100
AcDbDimension
  2
*D28
 10
321.0084373133763
 20
-235.6833473501101
 30
0.0
 11
312.0084373133763
 21
-232.1833473501101
 31
0.0
 70
    32
  3
STANDARD
100
AcDbAlignedDimension
 13
303.0084373133763
 23
-210.0
 33
0.0
 14
321.0084373133763
 24
-211.0
 34
0.0
100
AcDbRotatedDimension
  0
DIMENSION
  5
73B7
330
1E
100
AcDbEntity
  8
30
  6
CONTINUOUS
100
AcDbDimension
  2
*D29
 10
531.0084373133763
 20
-235.6833473501101
 30
0.0
 11
426.0084373133763
 21
-232.1833473501101
 31
0.0
 70
    32
  3
STANDARD
100
AcDbAlignedDimension
 13
321.0084373133763
 23
-211.0
 33
0.0
 14
531.0084373133763
 24
-147.5
 34
0.0
100
AcDbRotatedDimension
1001
ACAD
1000
DSTYLE
1002
{
1070
   287
1070
     4
1070
   287
1070
     4
1070
   287
1070
     4
1070
   279
1070
     1
1002
}
  0
DIMENSION
  5
73D1
330
1E
100
AcDbEntity
  8
30
  6
CONTINUOUS
100
AcDbDimension
  2
*D30
 10
576.0085593836763
 20
-254.1616354506663
 30
0.0
 11
448.5084983485263
 21
-250.6616354506663
 31
0.0
 70
    32
  3
STANDARD
100
AcDbAlignedDimension
 13
321.0084373133763
 23
-210.0
 33
0.0
 14
576.0085593836763
 24
-147.5
 34
0.0
100
AcDbRotatedDimension
1001
ACAD
1000
DSTYLE
1002
{
1070
   287
1070
     4
1070
   287
1070
     4
1070
   287
1070
     4
1070
   279
1070
     1
1002
}
  0
DIMENSION
  5
73DE
330
1E
100
AcDbEntity
  8
30
  6
CONTINUOUS
100
AcDbDimension
  2
*D31
 10
531.0084373133763
 20
-197.5680855074242
 30
0.0
 11
523.5084373133763
 21
-194.0680855074242
 31
0.0
 70
    32
  3
STANDARD
100
AcDbAlignedDimension
 13
516.0084373133763
 23
-147.5
 33
0.0
 14
531.0084373133763
 24
-148.5
 34
0.0
100
AcDbRotatedDimension
  0
DIMENSION
  5
73F8
330
1E
100
AcDbEntity
  8
30
  6
CONTINUOUS
100
AcDbDimension
  2
*D32
 10
576.0085593836763
 20
-197.5680855074242
 30
0.0
 11
568.5085593836763
 21
-194.0680855074242
 31
0.0
 70
    32
  3
STANDARD
100
AcDbAlignedDimension
 13
561.0085593836763
 23
-163.0134277343749
 33
0.0
 14
576.0085593836763
 24
-147.5
 34
0.0
100
AcDbRotatedDimension
  0
LINE
  5
740C
330
1E
100
AcDbEntity
  8
21
  6
CONTINUOUS
100
AcDbLine
 10
-62.5
 20
518.9997550724942
 30
0.0
 11
-77.5
 21
518.9997550724942
 31
0.0
  0
LINE
  5
740D
330
1E
100
AcDbEntity
  8
24
  6
CONTINOUS
100
AcDbLine
 10
-47.5
 20
573.9997550724943
 30
0.0
 11
-92.5
 21
573.9997550724943
 31
0.0
  0
LINE
  5
740E
330
1E
100
AcDbEntity
  8
21
  6
CONTINUOUS
100
AcDbLine
 10
-62.5
 20
588.9997550724944
 30
0.0
 11
-77.5
 21
588.9997550724944
 31
0.0
  0
LINE
  5
740F
330
1E
100
AcDbEntity
  8
21
  6
CONTINUOUS
100
AcDbLine
 10
-77.5
 20
518.9997550724942
 30
0.0
 11
-77.5
 21
588.9997550724944
 31
0.0
  0
LINE
  5
7410
330
1E
100
AcDbEntity
  8
21
  6
CONTINUOUS
100
AcDbLine
 10
-62.5
 20
518.9997550724942
 30
0.0
 11
-62.5
 21
588.9997550724944
 31
0.0
  0
LWPOLYLINE
  5
7455
330
1E
100
AcDbEntity
  8
18
100
AcDbPolyline
 90
        4
 70
     1
 43
0.0
 10
133.9998779297
 20
-768.7821216951427
 10
-134.00006103518
 20
-768.7821220885456
 10
-134.00006103518
 20
-348.7821220885455
 10
133.9998779297
 20
-348.7821216951427
  0
LWPOLYLINE
  5
7479
330
1E
100
AcDbEntity
  8
11
  6
CONTINUOUS
100
AcDbPolyline
 90
        4
 70
     1
 43
0.0
 10
113.0
 20
-763.7821217259689
 10
-113.0
 20
-763.7821220577192
 10
-113.0
 20
-353.7821220577191
 10
113.0
 20
-353.7821217259689
  0
DIMENSION
  5
747A
330
1E
100
AcDbEntity
  8
30
  6
CONTINUOUS
100
AcDbDimension
  2
*D33
 10
113.0
 20
-788.0141774885155
 30
0.0
 11
0.0000000000000002
 21
-784.5141774885155
 31
0.0
 70
    32
  3
STANDARD
100
AcDbAlignedDimension
 13
-113.0
 23
-763.7821220577192
 33
0.0
 14
113.0
 24
-763.7821217259689
 34
0.0
100
AcDbRotatedDimension
  0
DIMENSION
  5
74BF
330
1E
100
AcDbEntity
  8
30
  6
CONTINUOUS
100
AcDbDimension
  2
*D34
 10
517.467634100884
 20
54.18014220660611
 30
0.0
 11
500.6954492556675
 21
93.82023936417727
 31
0.0
 70
   163
  3
STANDARD
100
AcDbDiametricDimension
 15
514.5492405258688
 25
65.81985779339388
 35
0.0
 40
0.0
1001
ACAD
1000
DSTYLE
1002
{
1070
   288
1070
     1
1002
}
  0
VIEWPORT
  5
9AC
330
1A
100
AcDbEntity
 67
     1
  8
0
  6
CONTINUOUS
100
AcDbViewport
 10
171.9995348790992
 20
144.1384735538403
 30
0.0
 40
488.8676857773514
 41
292.3514905034161
 68
     1
 69
     1
1001
ACAD
1000
MVIEW
1002
{
1070
    16
1010
0.0
1020
0.0
1030
0.0
1010
0.0
1020
0.0
1030
1.0
1040
0.0
1040
292.3514905034161
1040
171.9995348790992
1040
144.1384735538403
1040
50.0
1040
0.0
1040
0.0
1070
     0
1070
   100
1070
     1
1070
     1
1070
     0
1070
     0
1070
     0
1070
     0
1040
0.0
1040
0.0
1040
0.0
1040
10.0
1040
10.0
1040
10.0
1040
10.0
1070
     0
1002
{
1002
}
1002
}
  0
ENDSEC
  0
SECTION
  2
OBJECTS
  0
DICTIONARY
  5
C
330
0
100
AcDbDictionary
  3
ACAD_GROUP
350
D
  3
ACAD_LAYOUT
350
19
  3
ACAD_MLINESTYLE
350
16
  3
ACAD_PLOTSETTINGS
350
18
  3
ACAD_PLOTSTYLENAME
350
E
  3
ACDBHEADERROUNDTRIPXREC
350
768B
  3
ACDBVARIABLEDICTIONARY
350
7688
  0
DICTIONARY
  5
178
330
1E
100
AcDbDictionary
280
     1
  3
ACAD_LAYOUTSELFREF
360
76AD
  0
DICTIONARY
  5
17A
330
1A
100
AcDbDictionary
280
     1
  3
ACAD_LAYOUTSELFREF
360
76AC
  0
DICTIONARY
  5
D
102
{ACAD_REACTORS
330
C
102
}
330
C
100
AcDbDictionary
  0
DICTIONARY
  5
19
102
{ACAD_REACTORS
330
C
102
}
330
C
100
AcDbDictionary
  0
DICTIONARY
  5
16
102
{ACAD_REACTORS
330
C
102
}
330
C
100
AcDbDictionary
  3
STANDARD
350
17
  0
DICTIONARY
  5
18
102
{ACAD_REACTORS
330
C
102
}
330
C
100
AcDbDictionary
  0
ACDBDICTIONARYWDFLT
  5
E
102
{ACAD_REACTORS
330
C
102
}
330
C
100
AcDbDictionary
281
     1
  3
Normal
350
F
100
AcDbDictionaryWithDefault
340
F
  0
DICTIONARY
  5
768B
102
{ACAD_REACTORS
330
C
102
}
330
C
100
AcDbDictionary
  3
CEPSNTYPE
350
7695
  3
DIMSTYLEDATA
350
7699
  3
FINGERPRINTGUID
350
7696
  3
HYPERLINKBASE
350
768E
  3
INSUNITS
350
7694
  3
LAYOUTDICT
350
7690
  3
LWETCUNION
350
7693
  3
PLOTSETDICT
350
7691
  3
PLOTSTYLNAMDICT
350
7692
  3
PSVPSCALE
350
7698
  3
PUCSBASE
350
769C
  3
PUCSORGBACK
350
76A2
  3
PUCSORGBOTTOM
350
769E
  3
PUCSORGFRONT
350
76A1
  3
PUCSORGLEFT
350
769F
  3
PUCSORGRIGHT
350
76A0
  3
PUCSORGTOP
350
769D
  3
PUCSORTHOREF
350
769A
  3
PUCSORTHOVIEW
350
769B
  3
STYLESHEET
350
768F
  3
TSTACKALIGN
350
768C
  3
TSTACKSIZE
350
768D
  3
UCSBASE
350
76A5
  3
UCSORGBACK
350
76AB
  3
UCSORGBOTTOM
350
76A7
  3
UCSORGFRONT
350
76AA
  3
UCSORGLEFT
350
76A8
  3
UCSORGRIGHT
350
76A9
  3
UCSORGTOP
350
76A6
  3
UCSORTHOREF
350
76A3
  3
UCSORTHOVIEW
350
76A4
  3
VERSIONGUID
350
7697
  0
DICTIONARY
  5
7688
102
{ACAD_REACTORS
330
C
102
}
330
C
100
AcDbDictionary
  3
DIMASSOC
350
7689
  0
XRECORD
  5
76AD
102
{ACAD_REACTORS
330
178
102
}
330
178
100
AcDbXrecord
340
1E
  0
XRECORD
  5
76AC
102
{ACAD_REACTORS
330
17A
102
}
330
17A
100
AcDbXrecord
340
1A
  0
MLINESTYLE
  5
17
102
{ACAD_REACTORS
330
16
102
}
330
16
100
AcDbMlineStyle
  2
STANDARD
 70
     0
  3

 62
   256
 51
90.0
 52
90.0
 71
     2
 49
0.5
 62
   256
  6
BYLAYER
 49
-0.5
 62
   256
  6
BYLAYER
  0
ACDBPLACEHOLDER
  5
F
102
{ACAD_REACTORS
330
E
102
}
330
E
100
AcDbPlaceHolder
280
     0
  0
XRECORD
  5
7695
102
{ACAD_REACTORS
330
768B
102
}
330
768B
100
AcDbXrecord
 90
        0
  0
XRECORD
  5
7699
102
{ACAD_REACTORS
330
768B
102
}
330
768B
100
AcDbXrecord
1000
DSTYLE
1002
{
1070
    79
 70
     3
1070
   341
340
3B2
1070
   342
340
3B2
1002
}
  0
XRECORD
  5
7696
102
{ACAD_REACTORS
330
768B
102
}
330
768B
100
AcDbXrecord
  1

  0
XRECORD
  5
768E
102
{ACAD_REACTORS
330
768B
102
}
330
768B
100
AcDbXrecord
  1

  0
XRECORD
  5
7694
102
{ACAD_REACTORS
330
768B
102
}
330
768B
100
AcDbXrecord
 90
        0
  0
XRECORD
  5
7690
102
{ACAD_REACTORS
330
768B
102
}
330
768B
100
AcDbXrecord
340
19
  0
XRECORD
  5
7693
102
{ACAD_REACTORS
330
768B
102
}
330
768B
100
AcDbXrecord
 90
    10781
  0
XRECORD
  5
7691
102
{ACAD_REACTORS
330
768B
102
}
330
768B
100
AcDbXrecord
340
18
  0
XRECORD
  5
7692
102
{ACAD_REACTORS
330
768B
102
}
330
768B
100
AcDbXrecord
340
E
  0
XRECORD
  5
7698
102
{ACAD_REACTORS
330
768B
102
}
330
768B
100
AcDbXrecord
 40
0.0
  0
XRECORD
  5
769C
102
{ACAD_REACTORS
330
768B
102
}
330
768B
100
AcDbXrecord
340
0
  0
XRECORD
  5
76A2
102
{ACAD_REACTORS
330
768B
102
}
330
768B
100
AcDbXrecord
 10
0.0
 20
0.0
 30
0.0
  0
XRECORD
  5
769E
102
{ACAD_REACTORS
330
768B
102
}
330
768B
100
AcDbXrecord
 10
0.0
 20
0.0
 30
0.0
  0
XRECORD
  5
76A1
102
{ACAD_REACTORS
330
768B
102
}
330
768B
100
AcDbXrecord
 10
0.0
 20
0.0
 30
0.0
  0
XRECORD
  5
769F
102
{ACAD_REACTORS
330
768B
102
}
330
768B
100
AcDbXrecord
 10
0.0
 20
0.0
 30
0.0
  0
XRECORD
  5
76A0
102
{ACAD_REACTORS
330
768B
102
}
330
768B
100
AcDbXrecord
 10
0.0
 20
0.0
 30
0.0
  0
XRECORD
  5
769D
102
{ACAD_REACTORS
330
768B
102
}
330
768B
100
AcDbXrecord
 10
0.0
 20
0.0
 30
0.0
  0
XRECORD
  5
769A
102
{ACAD_REACTORS
330
768B
102
}
330
768B
100
AcDbXrecord
340
0
  0
XRECORD
  5
769B
102
{ACAD_REACTORS
330
768B
102
}
330
768B
100
AcDbXrecord
 70
     0
  0
XRECORD
  5
768F
102
{ACAD_REACTORS
330
768B
102
}
330
768B
100
AcDbXrecord
  1
kiki.ctb
  0
XRECORD
  5
768C
102
{ACAD_REACTORS
330
768B
102
}
330
768B
100
AcDbXrecord
 90
        1
  0
XRECORD
  5
768D
102
{ACAD_REACTORS
330
768B
102
}
330
768B
100
AcDbXrecord
 90
       70
  0
XRECORD
  5
76A5
102
{ACAD_REACTORS
330
768B
102
}
330
768B
100
AcDbXrecord
340
0
  0
XRECORD
  5
76AB
102
{ACAD_REACTORS
330
768B
102
}
330
768B
100
AcDbXrecord
 10
0.0
 20
0.0
 30
0.0
  0
XRECORD
  5
76A7
102
{ACAD_REACTORS
330
768B
102
}
330
768B
100
AcDbXrecord
 10
0.0
 20
0.0
 30
0.0
  0
XRECORD
  5
76AA
102
{ACAD_REACTORS
330
768B
102
}
330
768B
100
AcDbXrecord
 10
0.0
 20
0.0
 30
0.0
  0
XRECORD
  5
76A8
102
{ACAD_REACTORS
330
768B
102
}
330
768B
100
AcDbXrecord
 10
0.0
 20
0.0
 30
0.0
  0
XRECORD
  5
76A9
102
{ACAD_REACTORS
330
768B
102
}
330
768B
100
AcDbXrecord
 10
0.0
 20
0.0
 30
0.0
  0
XRECORD
  5
76A6
102
{ACAD_REACTORS
330
768B
102
}
330
768B
100
AcDbXrecord
 10
0.0
 20
0.0
 30
0.0
  0
XRECORD
  5
76A3
102
{ACAD_REACTORS
330
768B
102
}
330
768B
100
AcDbXrecord
340
0
  0
XRECORD
  5
76A4
102
{ACAD_REACTORS
330
768B
102
}
330
768B
100
AcDbXrecord
 70
     0
  0
XRECORD
  5
7697
102
{ACAD_REACTORS
330
768B
102
}
330
768B
100
AcDbXrecord
  1
{A1C26C7A-7E3E-4F14-8114-4CBA739971D6}
  0
DICTIONARYVAR
  5
7689
102
{ACAD_REACTORS
330
7688
102
}
330
7688
100
DictionaryVariables
280
     0
  1
1
  0
ENDSEC
  0
EOF
