  0
SECTION
  2
HEADER
  9
$ACADVER
  1
AC1014
  9
$ACADMAINTVER
 70
     9
  9
$DWGCODEPAGE
  3
ANSI_932
  9
$INSBASE
 10
0.0
 20
0.0
 30
0.0
  9
$EXTMIN
 10
-210.1724886262263
 20
-820.9570643061828
 30
-0.0015258207003583
  9
$EXTMAX
 10
628.5909903957254
 20
610.0925163747915
 30
0.0000000349246037
  9
$LIMMIN
 10
-302.0
 20
-689.0
  9
$LIMMAX
 10
615.0
 20
462.0
  9
$ORTHOMODE
 70
     1
  9
$REGENMODE
 70
     1
  9
$FILLMODE
 70
     1
  9
$QTEXTMODE
 70
     0
  9
$MIRRTEXT
 70
     1
  9
$DRAGMODE
 70
     2
  9
$LTSCALE
 40
30.0
  9
$OSMODE
 70
    37
  9
$ATTMODE
 70
     1
  9
$TEXTSIZE
 40
5.0
  9
$TRACEWID
 40
0.05
  9
$TEXTSTYLE
  7
STANDARD1
  9
$CLAYER
  8
30
  9
$CELTYPE
  6
CONTINUOUS
  9
$CECOLOR
 62
   256
  9
$CELTSCALE
 40
1.0
  9
$DELOBJ
 70
     1
  9
$DISPSILH
 70
     0
  9
$DIMSCALE
 40
1.0
  9
$DIMASZ
 40
2.0
  9
$DIMEXO
 40
1.0
  9
$DIMDLI
 40
0.5
  9
$DIMRND
 40
0.0
  9
$DIMDLE
 40
0.0
  9
$DIMEXE
 40
0.5
  9
$DIMTP
 40
0.0
  9
$DIMTM
 40
0.0
  9
$DIMTXT
 40
6.0
  9
$DIMCEN
 40
0.09
  9
$DIMTSZ
 40
0.0
  9
$DIMTOL
 70
     0
  9
$DIMLIM
 70
     0
  9
$DIMTIH
 70
     0
  9
$DIMTOH
 70
     1
  9
$DIMSE1
 70
     0
  9
$DIMSE2
 70
     0
  9
$DIMTAD
 70
     3
  9
$DIMZIN
 70
    12
  9
$DIMBLK
  1
OPEN
  9
$DIMASO
 70
     1
  9
$DIMSHO
 70
     1
  9
$DIMPOST
  1

  9
$DIMAPOST
  1

  9
$DIMALT
 70
     0
  9
$DIMALTD
 70
     2
  9
$DIMALTF
 40
25.4
  9
$DIMLFAC
 40
1.0
  9
$DIMTOFL
 70
     0
  9
$DIMTVP
 40
0.0
  9
$DIMTIX
 70
     0
  9
$DIMSOXD
 70
     0
  9
$DIMSAH
 70
     0
  9
$DIMBLK1
  1

  9
$DIMBLK2
  1

  9
$DIMSTYLE
  2
STANDARD
  9
$DIMCLRD
 70
     0
  9
$DIMCLRE
 70
     0
  9
$DIMCLRT
 70
     0
  9
$DIMTFAC
 40
1.0
  9
$DIMGAP
 40
2.0
  9
$DIMJUST
 70
     0
  9
$DIMSD1
 70
     0
  9
$DIMSD2
 70
     0
  9
$DIMTOLJ
 70
     1
  9
$DIMTZIN
 70
     0
  9
$DIMALTZ
 70
     0
  9
$DIMALTTZ
 70
     0
  9
$DIMFIT
 70
     3
  9
$DIMUPT
 70
     0
  9
$DIMUNIT
 70
     2
  9
$DIMDEC
 70
     1
  9
$DIMTDEC
 70
     1
  9
$DIMALTU
 70
     2
  9
$DIMALTTD
 70
     2
  9
$DIMTXSTY
  7
STANDARD
  9
$DIMAUNIT
 70
     0
  9
$LUNITS
 70
     2
  9
$LUPREC
 70
     4
  9
$SKETCHINC
 40
0.1
  9
$FILLETRAD
 40
0.0
  9
$AUNITS
 70
     0
  9
$AUPREC
 70
     0
  9
$MENU
  1
.
  9
$ELEVATION
 40
0.0
  9
$PELEVATION
 40
0.0
  9
$THICKNESS
 40
0.0
  9
$LIMCHECK
 70
     0
  9
$BLIPMODE
 70
     0
  9
$CHAMFERA
 40
0.0
  9
$CHAMFERB
 40
0.0
  9
$CHAMFERC
 40
0.0
  9
$CHAMFERD
 40
0.0
  9
$SKPOLY
 70
     0
  9
$TDCREATE
 40
2452286.555658657
  9
$TDUPDATE
 40
2453250.477369791
  9
$TDINDWG
 40
1.5000945602
  9
$TDUSRTIMER
 40
1.5000945602
  9
$USRTIMER
 70
     1
  9
$ANGBASE
 50
0.0
  9
$ANGDIR
 70
     0
  9
$PDMODE
 70
     0
  9
$PDSIZE
 40
0.0
  9
$PLINEWID
 40
0.0
  9
$COORDS
 70
     0
  9
$SPLFRAME
 70
     0
  9
$SPLINETYPE
 70
     6
  9
$SPLINESEGS
 70
     8
  9
$ATTDIA
 70
     0
  9
$ATTREQ
 70
     1
  9
$HANDLING
 70
 22529
  9
$HANDSEED
  5
85BD
  9
$SURFTAB1
 70
     6
  9
$SURFTAB2
 70
     6
  9
$SURFTYPE
 70
     6
  9
$SURFU
 70
     6
  9
$SURFV
 70
     6
  9
$UCSNAME
  2

  9
$UCSORG
 10
0.0
 20
0.0
 30
0.0
  9
$UCSXDIR
 10
1.0
 20
0.0
 30
0.0
  9
$UCSYDIR
 10
0.0
 20
1.0
 30
0.0
  9
$PUCSNAME
  2

  9
$PUCSORG
 10
0.0
 20
0.0
 30
0.0
  9
$PUCSXDIR
 10
1.0
 20
0.0
 30
0.0
  9
$PUCSYDIR
 10
0.0
 20
1.0
 30
0.0
  9
$USERI1
 70
     0
  9
$USERI2
 70
     0
  9
$USERI3
 70
     0
  9
$USERI4
 70
     0
  9
$USERI5
 70
     0
  9
$USERR1
 40
0.0
  9
$USERR2
 40
0.0
  9
$USERR3
 40
0.0
  9
$USERR4
 40
0.0
  9
$USERR5
 40
0.0
  9
$WORLDVIEW
 70
     1
  9
$SHADEDGE
 70
     3
  9
$SHADEDIF
 70
    70
  9
$TILEMODE
 70
     1
  9
$MAXACTVP
 70
    48
  9
$PINSBASE
 10
0.0
 20
0.0
 30
0.0
  9
$PLIMCHECK
 70
     0
  9
$PEXTMIN
 10
4.273573370203962
 20
5.205246163471485
 30
0.0
  9
$PEXTMAX
 10
194.6100952986349
 20
283.0697008572913
 30
0.0
  9
$PLIMMIN
 10
-5.873748779296875
 20
-5.873749732971191
  9
$PLIMMAX
 10
204.0995788574218
 20
291.1369009017944
  9
$UNITMODE
 70
     0
  9
$VISRETAIN
 70
     1
  9
$PLINEGEN
 70
     0
  9
$PSLTSCALE
 70
     1
  9
$TREEDEPTH
 70
  3020
  9
$PICKSTYLE
 70
     1
  9
$CMLSTYLE
  2
STANDARD
  9
$CMLJUST
 70
     0
  9
$CMLSCALE
 40
1.0
  9
$PROXYGRAPHICS
 70
     1
  9
$MEASUREMENT
 70
     0
  0
ENDSEC
  0
SECTION
  2
CLASSES
  0
CLASS
  1
ACDBDICTIONARYWDFLT
  2
AcDbDictionaryWithDefault
  3
AutoCAD 2000
 90
        0
280
     0
281
     0
  0
CLASS
  1
ACDBPLACEHOLDER
  2
AcDbPlaceHolder
  3
AutoCAD 2000
 90
        0
280
     0
281
     0
  0
CLASS
  1
LAYOUT
  2
AcDbLayout
  3
AutoCAD 2000
 90
        0
280
     0
281
     0
  0
CLASS
  1
LONG_TRANSACTION
  2
AcDbLongTransaction
  3
AutoCAD 2000
 90
        0
280
     0
281
     0
  0
CLASS
  1
LWPOLYLINE
  2
AcDbPolyline
  3
AutoCAD 2000
 90
        0
280
     0
281
     1
  0
CLASS
  1
HATCH
  2
AcDbHatch
  3
AutoCAD 2000
 90
        0
280
     0
281
     1
  0
CLASS
  1
XRECORD
  2
AcDbXrecord
  3
AutoCAD 2000
 90
        0
280
     0
281
     0
  0
CLASS
  1
LONG_TRANSACTION
  2
AcDbLongTransaction
  3
AutoCAD 2000
 90
        0
280
     0
281
     0
  0
CLASS
  1
LWPOLYLINE
  2
AcDbPolyline
  3
AutoCAD 2000
 90
        0
280
     0
281
     1
  0
CLASS
  1
HATCH
  2
AcDbHatch
  3
AutoCAD 2000
 90
        0
280
     0
281
     1
  0
CLASS
  1
XRECORD
  2
AcDbXrecord
  3
AutoCAD 2000
 90
        0
280
     0
281
     0
  0
CLASS
  1
LONG_TRANSACTION
  2
AcDbLongTransaction
  3
AutoCAD 2000
 90
        0
280
     0
281
     0
  0
CLASS
  1
LWPOLYLINE
  2
AcDbPolyline
  3
AutoCAD 2000
 90
        0
280
     0
281
     1
  0
CLASS
  1
HATCH
  2
AcDbHatch
  3
AutoCAD 2000
 90
        0
280
     0
281
     1
  0
CLASS
  1
XRECORD
  2
AcDbXrecord
  3
AutoCAD 2000
 90
        0
280
     0
281
     0
  0
CLASS
  1
LONG_TRANSACTION
  2
AcDbLongTransaction
  3
AutoCAD 2000
 90
        0
280
     0
281
     0
  0
CLASS
  1
LWPOLYLINE
  2
AcDbPolyline
  3
AutoCAD 2000
 90
        0
280
     0
281
     1
  0
CLASS
  1
HATCH
  2
AcDbHatch
  3
AutoCAD 2000
 90
        0
280
     0
281
     1
  0
CLASS
  1
XRECORD
  2
AcDbXrecord
  3
AutoCAD 2000
 90
        0
280
     0
281
     0
  0
CLASS
  1
LONG_TRANSACTION
  2
AcDbLongTransaction
  3
AutoCAD 2000
 90
        0
280
     0
281
     0
  0
CLASS
  1
LWPOLYLINE
  2
AcDbPolyline
  3
AutoCAD 2000
 90
        0
280
     0
281
     1
  0
CLASS
  1
HATCH
  2
AcDbHatch
  3
AutoCAD 2000
 90
        0
280
     0
281
     1
  0
CLASS
  1
XRECORD
  2
AcDbXrecord
  3
AutoCAD 2000
 90
        0
280
     0
281
     0
  0
CLASS
  1
LONG_TRANSACTION
  2
AcDbLongTransaction
  3
AutoCAD 2000
 90
        0
280
     0
281
     0
  0
CLASS
  1
LWPOLYLINE
  2
AcDbPolyline
  3
AutoCAD 2000
 90
        0
280
     0
281
     1
  0
CLASS
  1
HATCH
  2
AcDbHatch
  3
AutoCAD 2000
 90
        0
280
     0
281
     1
  0
CLASS
  1
XRECORD
  2
AcDbXrecord
  3
AutoCAD 2000
 90
        0
280
     0
281
     0
  0
CLASS
  1
LONG_TRANSACTION
  2
AcDbLongTransaction
  3
AutoCAD 2000
 90
        0
280
     0
281
     0
  0
CLASS
  1
LWPOLYLINE
  2
AcDbPolyline
  3
AutoCAD 2000
 90
        0
280
     0
281
     1
  0
CLASS
  1
HATCH
  2
AcDbHatch
  3
AutoCAD 2000
 90
        0
280
     0
281
     1
  0
CLASS
  1
XRECORD
  2
AcDbXrecord
  3
AutoCAD 2000
 90
        0
280
     0
281
     0
  0
CLASS
  1
LONG_TRANSACTION
  2
AcDbLongTransaction
  3
AutoCAD 2000
 90
        0
280
     0
281
     0
  0
CLASS
  1
LWPOLYLINE
  2
AcDbPolyline
  3
AutoCAD 2000
 90
        0
280
     0
281
     1
  0
CLASS
  1
HATCH
  2
AcDbHatch
  3
AutoCAD 2000
 90
        0
280
     0
281
     1
  0
CLASS
  1
XRECORD
  2
AcDbXrecord
  3
AutoCAD 2000
 90
        0
280
     0
281
     0
  0
CLASS
  1
LONG_TRANSACTION
  2
AcDbLongTransaction
  3
AutoCAD 2000
 90
        0
280
     0
281
     0
  0
CLASS
  1
LWPOLYLINE
  2
AcDbPolyline
  3
AutoCAD 2000
 90
        0
280
     0
281
     1
  0
CLASS
  1
HATCH
  2
AcDbHatch
  3
AutoCAD 2000
 90
        0
280
     0
281
     1
  0
CLASS
  1
XRECORD
  2
AcDbXrecord
  3
AutoCAD 2000
 90
        0
280
     0
281
     0
  0
CLASS
  1
LONG_TRANSACTION
  2
AcDbLongTransaction
  3
AutoCAD 2000
 90
        0
280
     0
281
     0
  0
CLASS
  1
LWPOLYLINE
  2
AcDbPolyline
  3
AutoCAD 2000
 90
        0
280
     0
281
     1
  0
CLASS
  1
HATCH
  2
AcDbHatch
  3
AutoCAD 2000
 90
        0
280
     0
281
     1
  0
CLASS
  1
XRECORD
  2
AcDbXrecord
  3
AutoCAD 2000
 90
        0
280
     0
281
     0
  0
CLASS
  1
LONG_TRANSACTION
  2
AcDbLongTransaction
  3
AutoCAD 2000
 90
        0
280
     0
281
     0
  0
CLASS
  1
LWPOLYLINE
  2
AcDbPolyline
  3
AutoCAD 2000
 90
        0
280
     0
281
     1
  0
CLASS
  1
HATCH
  2
AcDbHatch
  3
AutoCAD 2000
 90
        0
280
     0
281
     1
  0
CLASS
  1
XRECORD
  2
AcDbXrecord
  3
AutoCAD 2000
 90
        0
280
     0
281
     0
  0
CLASS
  1
LONG_TRANSACTION
  2
AcDbLongTransaction
  3
AutoCAD 2000
 90
        0
280
     0
281
     0
  0
CLASS
  1
LWPOLYLINE
  2
AcDbPolyline
  3
AutoCAD 2000
 90
        0
280
     0
281
     1
  0
CLASS
  1
HATCH
  2
AcDbHatch
  3
AutoCAD 2000
 90
        0
280
     0
281
     1
  0
CLASS
  1
XRECORD
  2
AcDbXrecord
  3
AutoCAD 2000
 90
        0
280
     0
281
     0
  0
CLASS
  1
LONG_TRANSACTION
  2
AcDbLongTransaction
  3
AutoCAD 2000
 90
        0
280
     0
281
     0
  0
CLASS
  1
LWPOLYLINE
  2
AcDbPolyline
  3
AutoCAD 2000
 90
        0
280
     0
281
     1
  0
CLASS
  1
HATCH
  2
AcDbHatch
  3
AutoCAD 2000
 90
        0
280
     0
281
     1
  0
CLASS
  1
XRECORD
  2
AcDbXrecord
  3
AutoCAD 2000
 90
        0
280
     0
281
     0
  0
CLASS
  1
LONG_TRANSACTION
  2
AcDbLongTransaction
  3
AutoCAD 2000
 90
        0
280
     0
281
     0
  0
CLASS
  1
LWPOLYLINE
  2
AcDbPolyline
  3
AutoCAD 2000
 90
        0
280
     0
281
     1
  0
CLASS
  1
HATCH
  2
AcDbHatch
  3
AutoCAD 2000
 90
        0
280
     0
281
     1
  0
CLASS
  1
XRECORD
  2
AcDbXrecord
  3
AutoCAD 2000
 90
        0
280
     0
281
     0
  0
CLASS
  1
LONG_TRANSACTION
  2
AcDbLongTransaction
  3
AutoCAD 2000
 90
        0
280
     0
281
     0
  0
CLASS
  1
LWPOLYLINE
  2
AcDbPolyline
  3
AutoCAD 2000
 90
        0
280
     0
281
     1
  0
CLASS
  1
HATCH
  2
AcDbHatch
  3
AutoCAD 2000
 90
        0
280
     0
281
     1
  0
CLASS
  1
XRECORD
  2
AcDbXrecord
  3
AutoCAD 2000
 90
        0
280
     0
281
     0
  0
CLASS
  1
LONG_TRANSACTION
  2
AcDbLongTransaction
  3
AutoCAD 2000
 90
        0
280
     0
281
     0
  0
CLASS
  1
LWPOLYLINE
  2
AcDbPolyline
  3
AutoCAD 2000
 90
        0
280
     0
281
     1
  0
CLASS
  1
HATCH
  2
AcDbHatch
  3
AutoCAD 2000
 90
        0
280
     0
281
     1
  0
CLASS
  1
XRECORD
  2
AcDbXrecord
  3
AutoCAD 2000
 90
        0
280
     0
281
     0
  0
CLASS
  1
LONG_TRANSACTION
  2
AcDbLongTransaction
  3
AutoCAD 2000
 90
        0
280
     0
281
     0
  0
CLASS
  1
LWPOLYLINE
  2
AcDbPolyline
  3
AutoCAD 2000
 90
        0
280
     0
281
     1
  0
CLASS
  1
HATCH
  2
AcDbHatch
  3
AutoCAD 2000
 90
        0
280
     0
281
     1
  0
CLASS
  1
XRECORD
  2
AcDbXrecord
  3
AutoCAD 2000
 90
        0
280
     0
281
     0
  0
CLASS
  1
LONG_TRANSACTION
  2
AcDbLongTransaction
  3
AutoCAD 2000
 90
        0
280
     0
281
     0
  0
CLASS
  1
LWPOLYLINE
  2
AcDbPolyline
  3
AutoCAD 2000
 90
        0
280
     0
281
     1
  0
CLASS
  1
HATCH
  2
AcDbHatch
  3
AutoCAD 2000
 90
        0
280
     0
281
     1
  0
CLASS
  1
XRECORD
  2
AcDbXrecord
  3
AutoCAD 2000
 90
        0
280
     0
281
     0
  0
CLASS
  1
LONG_TRANSACTION
  2
AcDbLongTransaction
  3
AutoCAD 2000
 90
        0
280
     0
281
     0
  0
CLASS
  1
LWPOLYLINE
  2
AcDbPolyline
  3
AutoCAD 2000
 90
        0
280
     0
281
     1
  0
CLASS
  1
HATCH
  2
AcDbHatch
  3
AutoCAD 2000
 90
        0
280
     0
281
     1
  0
CLASS
  1
XRECORD
  2
AcDbXrecord
  3
AutoCAD 2000
 90
        0
280
     0
281
     0
  0
CLASS
  1
LONG_TRANSACTION
  2
AcDbLongTransaction
  3
AutoCAD 2000
 90
        0
280
     0
281
     0
  0
CLASS
  1
LWPOLYLINE
  2
AcDbPolyline
  3
AutoCAD 2000
 90
        0
280
     0
281
     1
  0
CLASS
  1
HATCH
  2
AcDbHatch
  3
AutoCAD 2000
 90
        0
280
     0
281
     1
  0
CLASS
  1
XRECORD
  2
AcDbXrecord
  3
AutoCAD 2000
 90
        0
280
     0
281
     0
  0
CLASS
  1
LONG_TRANSACTION
  2
AcDbLongTransaction
  3
AutoCAD 2000
 90
        0
280
     0
281
     0
  0
CLASS
  1
LWPOLYLINE
  2
AcDbPolyline
  3
AutoCAD 2000
 90
        0
280
     0
281
     1
  0
CLASS
  1
HATCH
  2
AcDbHatch
  3
AutoCAD 2000
 90
        0
280
     0
281
     1
  0
CLASS
  1
XRECORD
  2
AcDbXrecord
  3
AutoCAD 2000
 90
        0
280
     0
281
     0
  0
CLASS
  1
LONG_TRANSACTION
  2
AcDbLongTransaction
  3
AutoCAD 2000
 90
        0
280
     0
281
     0
  0
CLASS
  1
LWPOLYLINE
  2
AcDbPolyline
  3
AutoCAD 2000
 90
        0
280
     0
281
     1
  0
CLASS
  1
HATCH
  2
AcDbHatch
  3
AutoCAD 2000
 90
        0
280
     0
281
     1
  0
CLASS
  1
XRECORD
  2
AcDbXrecord
  3
AutoCAD 2000
 90
        0
280
     0
281
     0
  0
CLASS
  1
LONG_TRANSACTION
  2
AcDbLongTransaction
  3
AutoCAD 2000
 90
        0
280
     0
281
     0
  0
CLASS
  1
LWPOLYLINE
  2
AcDbPolyline
  3
AutoCAD 2000
 90
        0
280
     0
281
     1
  0
CLASS
  1
HATCH
  2
AcDbHatch
  3
AutoCAD 2000
 90
        0
280
     0
281
     1
  0
CLASS
  1
XRECORD
  2
AcDbXrecord
  3
AutoCAD 2000
 90
        0
280
     0
281
     0
  0
CLASS
  1
LONG_TRANSACTION
  2
AcDbLongTransaction
  3
AutoCAD 2000
 90
        0
280
     0
281
     0
  0
CLASS
  1
LWPOLYLINE
  2
AcDbPolyline
  3
AutoCAD 2000
 90
        0
280
     0
281
     1
  0
CLASS
  1
HATCH
  2
AcDbHatch
  3
AutoCAD 2000
 90
        0
280
     0
281
     1
  0
CLASS
  1
XRECORD
  2
AcDbXrecord
  3
AutoCAD 2000
 90
        0
280
     0
281
     0
  0
CLASS
  1
LONG_TRANSACTION
  2
AcDbLongTransaction
  3
AutoCAD 2000
 90
        0
280
     0
281
     0
  0
CLASS
  1
LWPOLYLINE
  2
AcDbPolyline
  3
AutoCAD 2000
 90
        0
280
     0
281
     1
  0
CLASS
  1
HATCH
  2
AcDbHatch
  3
AutoCAD 2000
 90
        0
280
     0
281
     1
  0
CLASS
  1
XRECORD
  2
AcDbXrecord
  3
AutoCAD 2000
 90
        0
280
     0
281
     0
  0
CLASS
  1
LONG_TRANSACTION
  2
AcDbLongTransaction
  3
AutoCAD 2000
 90
        0
280
     0
281
     0
  0
CLASS
  1
LWPOLYLINE
  2
AcDbPolyline
  3
AutoCAD 2000
 90
        0
280
     0
281
     1
  0
CLASS
  1
HATCH
  2
AcDbHatch
  3
AutoCAD 2000
 90
        0
280
     0
281
     1
  0
CLASS
  1
XRECORD
  2
AcDbXrecord
  3
AutoCAD 2000
 90
        0
280
     0
281
     0
  0
CLASS
  1
LONG_TRANSACTION
  2
AcDbLongTransaction
  3
AutoCAD 2000
 90
        0
280
     0
281
     0
  0
CLASS
  1
LWPOLYLINE
  2
AcDbPolyline
  3
AutoCAD 2000
 90
        0
280
     0
281
     1
  0
CLASS
  1
HATCH
  2
AcDbHatch
  3
AutoCAD 2000
 90
        0
280
     0
281
     1
  0
CLASS
  1
XRECORD
  2
AcDbXrecord
  3
AutoCAD 2000
 90
        0
280
     0
281
     0
  0
CLASS
  1
LONG_TRANSACTION
  2
AcDbLongTransaction
  3
AutoCAD 2000
 90
        0
280
     0
281
     0
  0
CLASS
  1
LWPOLYLINE
  2
AcDbPolyline
  3
AutoCAD 2000
 90
        0
280
     0
281
     1
  0
CLASS
  1
HATCH
  2
AcDbHatch
  3
AutoCAD 2000
 90
        0
280
     0
281
     1
  0
CLASS
  1
XRECORD
  2
AcDbXrecord
  3
AutoCAD 2000
 90
        0
280
     0
281
     0
  0
CLASS
  1
LONG_TRANSACTION
  2
AcDbLongTransaction
  3
AutoCAD 2000
 90
        0
280
     0
281
     0
  0
CLASS
  1
LWPOLYLINE
  2
AcDbPolyline
  3
AutoCAD 2000
 90
        0
280
     0
281
     1
  0
CLASS
  1
HATCH
  2
AcDbHatch
  3
AutoCAD 2000
 90
        0
280
     0
281
     1
  0
CLASS
  1
XRECORD
  2
AcDbXrecord
  3
AutoCAD 2000
 90
        0
280
     0
281
     0
  0
CLASS
  1
LONG_TRANSACTION
  2
AcDbLongTransaction
  3
AutoCAD 2000
 90
        0
280
     0
281
     0
  0
CLASS
  1
LWPOLYLINE
  2
AcDbPolyline
  3
AutoCAD 2000
 90
        0
280
     0
281
     1
  0
CLASS
  1
HATCH
  2
AcDbHatch
  3
AutoCAD 2000
 90
        0
280
     0
281
     1
  0
CLASS
  1
XRECORD
  2
AcDbXrecord
  3
AutoCAD 2000
 90
        0
280
     0
281
     0
  0
CLASS
  1
LONG_TRANSACTION
  2
AcDbLongTransaction
  3
AutoCAD 2000
 90
        0
280
     0
281
     0
  0
CLASS
  1
LWPOLYLINE
  2
AcDbPolyline
  3
AutoCAD 2000
 90
        0
280
     0
281
     1
  0
CLASS
  1
HATCH
  2
AcDbHatch
  3
AutoCAD 2000
 90
        0
280
     0
281
     1
  0
CLASS
  1
XRECORD
  2
AcDbXrecord
  3
AutoCAD 2000
 90
        0
280
     0
281
     0
  0
CLASS
  1
LONG_TRANSACTION
  2
AcDbLongTransaction
  3
AutoCAD 2000
 90
        0
280
     0
281
     0
  0
CLASS
  1
LWPOLYLINE
  2
AcDbPolyline
  3
AutoCAD 2000
 90
        0
280
     0
281
     1
  0
CLASS
  1
HATCH
  2
AcDbHatch
  3
AutoCAD 2000
 90
        0
280
     0
281
     1
  0
CLASS
  1
XRECORD
  2
AcDbXrecord
  3
AutoCAD 2000
 90
        0
280
     0
281
     0
  0
CLASS
  1
LONG_TRANSACTION
  2
AcDbLongTransaction
  3
AutoCAD 2000
 90
        0
280
     0
281
     0
  0
CLASS
  1
LWPOLYLINE
  2
AcDbPolyline
  3
AutoCAD 2000
 90
        0
280
     0
281
     1
  0
CLASS
  1
HATCH
  2
AcDbHatch
  3
AutoCAD 2000
 90
        0
280
     0
281
     1
  0
CLASS
  1
XRECORD
  2
AcDbXrecord
  3
AutoCAD 2000
 90
        0
280
     0
281
     0
  0
CLASS
  1
LONG_TRANSACTION
  2
AcDbLongTransaction
  3
AutoCAD 2000
 90
        0
280
     0
281
     0
  0
CLASS
  1
LWPOLYLINE
  2
AcDbPolyline
  3
AutoCAD 2000
 90
        0
280
     0
281
     1
  0
CLASS
  1
HATCH
  2
AcDbHatch
  3
AutoCAD 2000
 90
        0
280
     0
281
     1
  0
CLASS
  1
XRECORD
  2
AcDbXrecord
  3
AutoCAD 2000
 90
        0
280
     0
281
     0
  0
CLASS
  1
DICTIONARYVAR
  2
AcDbDictionaryVar
  3
AutoCAD 2000
 90
        0
280
     0
281
     0
  0
CLASS
  1
LONG_TRANSACTION
  2
AcDbLongTransaction
  3
AutoCAD 2000
 90
        0
280
     0
281
     0
  0
CLASS
  1
LWPOLYLINE
  2
AcDbPolyline
  3
AutoCAD 2000
 90
        0
280
     0
281
     1
  0
CLASS
  1
HATCH
  2
AcDbHatch
  3
AutoCAD 2000
 90
        0
280
     0
281
     1
  0
CLASS
  1
XRECORD
  2
AcDbXrecord
  3
AutoCAD 2000
 90
        0
280
     0
281
     0
  0
ENDSEC
  0
SECTION
  2
TABLES
  0
TABLE
  2
VPORT
  5
8
330
0
100
AcDbSymbolTable
 70
     4
  0
VPORT
  5
8599
330
8
100
AcDbSymbolTableRecord
100
AcDbViewportTableRecord
  2
*ACTIVE
 70
     0
 10
0.0
 20
0.0
 11
1.0
 21
1.0
 12
209.2092508847492
 22
-105.4322739656956
 13
0.0
 23
0.0
 14
1.0
 24
1.0
 15
10.0
 25
10.0
 16
0.0
 26
0.0
 36
1.0
 17
0.0
 27
0.0
 37
0.0
 40
1451.497774693436
 41
2.295194508009153
 42
50.0
 43
0.0
 44
0.0
 50
0.0
 51
0.0
 71
     0
 72
   100
 73
     1
 74
     1
 75
     0
 76
     0
 77
     0
 78
     0
  0
ENDTAB
  0
TABLE
  2
LTYPE
  5
5
330
0
100
AcDbSymbolTable
 70
     5
  0
LTYPE
  5
13
330
5
100
AcDbSymbolTableRecord
100
AcDbLinetypeTableRecord
  2
BYBLOCK
 70
     0
  3

 72
    65
 73
     0
 40
0.0
  0
LTYPE
  5
14
330
5
100
AcDbSymbolTableRecord
100
AcDbLinetypeTableRecord
  2
BYLAYER
 70
     0
  3

 72
    65
 73
     0
 40
0.0
  0
LTYPE
  5
15
330
5
100
AcDbSymbolTableRecord
100
AcDbLinetypeTableRecord
  2
CONTINUOUS
 70
     0
  3
Solid line
 72
    65
 73
     0
 40
0.0
  0
LTYPE
  5
22
330
5
100
AcDbSymbolTableRecord
100
AcDbLinetypeTableRecord
  2
CONTINOUS
 70
     0
  3
Solid line
 72
    65
 73
     0
 40
0.0
  0
LTYPE
  5
24
330
5
100
AcDbSymbolTableRecord
100
AcDbLinetypeTableRecord
  2
DASHDOT
 70
     0
  3
__ . __ . __ . __ . __ . __ . __ . __ . __ . __
 72
    65
 73
     4
 40
1.0
 49
0.5
 74
     0
 49
-0.25
 74
     0
 49
0.0
 74
     0
 49
-0.25
 74
     0
  0
LTYPE
  5
4C47
330
5
100
AcDbSymbolTableRecord
100
AcDbLinetypeTableRecord
  2
DIVIDE
 70
     0
  3
Divide ____ . . ____ . . ____ . . ____ . . ____
 72
    65
 73
     6
 40
1.25
 49
0.5
 74
     0
 49
-0.25
 74
     0
 49
0.0
 74
     0
 49
-0.25
 74
     0
 49
0.0
 74
     0
 49
-0.25
 74
     0
  0
LTYPE
  5
4F58
330
5
100
AcDbSymbolTableRecord
100
AcDbLinetypeTableRecord
  2
D329
 70
     0
  3
IGESIN-LineFont-D329
 72
    65
 73
     2
 40
1.35
 49
0.75
 74
     0
 49
-0.6
 74
     0
  0
ENDTAB
  0
TABLE
  2
LAYER
  5
2
330
0
100
AcDbSymbolTable
 70
    11
  0
LAYER
  5
10
330
2
100
AcDbSymbolTableRecord
100
AcDbLayerTableRecord
  2
0
 70
     0
 62
     7
  6
CONTINOUS
  0
LAYER
  5
2F
330
2
100
AcDbSymbolTableRecord
100
AcDbLayerTableRecord
  2
10
 70
     0
 62
     4
  6
CONTINOUS
  0
LAYER
  5
31
330
2
100
AcDbSymbolTableRecord
100
AcDbLayerTableRecord
  2
12
 70
     0
 62
     3
  6
CONTINOUS
  0
LAYER
  5
35
330
2
100
AcDbSymbolTableRecord
100
AcDbLayerTableRecord
  2
16
 70
     4
 62
     6
  6
DASHDOT
  0
LAYER
  5
38
330
2
100
AcDbSymbolTableRecord
100
AcDbLayerTableRecord
  2
19
 70
     0
 62
     7
  6
CONTINOUS
  0
LAYER
  5
3C
330
2
100
AcDbSymbolTableRecord
100
AcDbLayerTableRecord
  2
11
 70
     0
 62
     1
  6
CONTINOUS
  0
LAYER
  5
3D
330
2
100
AcDbSymbolTableRecord
100
AcDbLayerTableRecord
  2
24
 70
     0
 62
     2
  6
CONTINOUS
  0
LAYER
  5
3A2
330
2
100
AcDbSymbolTableRecord
100
AcDbLayerTableRecord
  2
30
 70
     0
 62
     9
  6
CONTINUOUS
  0
LAYER
  5
3A4
330
2
100
AcDbSymbolTableRecord
100
AcDbLayerTableRecord
  2
DEFPOINTS
 70
     0
 62
     7
  6
CONTINUOUS
  0
LAYER
  5
3BBA
330
2
100
AcDbSymbolTableRecord
100
AcDbLayerTableRecord
  2
18
 70
     0
 62
     5
  6
DIVIDE
  0
LAYER
  5
3BBB
330
2
100
AcDbSymbolTableRecord
100
AcDbLayerTableRecord
  2
21
 70
     0
 62
     7
  6
CONTINUOUS
  0
ENDTAB
  0
TABLE
  2
STYLE
  5
3
330
0
100
AcDbSymbolTable
 70
     2
  0
STYLE
  5
11
330
3
100
AcDbSymbolTableRecord
100
AcDbTextStyleTableRecord
  2
STANDARD
 70
     0
 40
0.0
 41
1.0
 50
0.0
 71
     0
 42
2.0
  3
txt.shx
  4
bigfont.shx
  0
STYLE
  5
42
330
3
100
AcDbSymbolTableRecord
100
AcDbTextStyleTableRecord
  2
STANDARD1
 70
     0
 40
0.0
 41
1.0
 50
0.0
 71
     0
 42
5.0
  3
MONOTXT
  4
BIGFONT
  0
ENDTAB
  0
TABLE
  2
VIEW
  5
6
330
0
100
AcDbSymbolTable
 70
     3
  0
VIEW
  5
230C
330
6
100
AcDbSymbolTableRecord
100
AcDbViewTableRecord
  2
OLE1
 70
     0
 40
148.9124878027715
 10
429.4976280407224
 20
2.560626997828478
 41
103.1458057716445
 11
0.0
 21
0.0
 31
1.0
 12
0.0
 22
0.0
 32
0.0
 42
50.0
 43
0.0
 44
0.0
 50
0.0
 71
     0
  0
VIEW
  5
230E
330
6
100
AcDbSymbolTableRecord
100
AcDbViewTableRecord
  2
OLE2
 70
     0
 40
170.7786920545776
 10
322.664969958371
 20
-5.978304054290276
 41
102.4672152327465
 11
0.0
 21
0.0
 31
1.0
 12
0.0
 22
0.0
 32
0.0
 42
50.0
 43
0.0
 44
0.0
 50
0.0
 71
     0
  0
VIEW
  5
23AA
330
6
100
AcDbSymbolTableRecord
100
AcDbViewTableRecord
  2
OLE3
 70
     0
 40
591.7897393182231
 10
84.79698158148218
 20
-46.09336010803997
 41
388.7920961799954
 11
0.0
 21
0.0
 31
1.0
 12
0.0
 22
0.0
 32
0.0
 42
50.0
 43
0.0
 44
0.0
 50
0.0
 71
     0
  0
ENDTAB
  0
TABLE
  2
UCS
  5
7
330
0
100
AcDbSymbolTable
 70
     0
  0
ENDTAB
  0
TABLE
  2
APPID
  5
9
330
0
100
AcDbSymbolTable
 70
     2
  0
APPID
  5
12
330
9
100
AcDbSymbolTableRecord
100
AcDbRegAppTableRecord
  2
ACAD
 70
     0
  0
APPID
  5
ECD
330
9
100
AcDbSymbolTableRecord
100
AcDbRegAppTableRecord
  2
CONTENTBLOCKICON
 70
     0
  0
ENDTAB
  0
TABLE
  2
DIMSTYLE
  5
A
330
0
100
AcDbSymbolTable
 70
     1
  0
DIMSTYLE
105
175
102
{ACAD_REACTORS
330
7904
330
78F3
330
78F2
330
78F0
330
78EF
330
78D4
330
78CA
330
78BC
330
6FBC
330
8397
330
83C7
330
84B4
330
84BB
330
84BD
330
84BE
330
84C0
330
84C1
330
84CF
102
}
330
A
100
AcDbSymbolTableRecord
100
AcDbDimStyleTableRecord
  2
STANDARD
 70
     0
  3

  4

  5
OPEN
  6

  7

 40
1.0
 41
2.0
 42
1.0
 43
0.5
 44
0.5
 45
0.0
 46
0.0
 47
0.0
 48
0.0
140
6.0
141
0.09
142
0.0
143
25.4
144
1.0
145
0.0
146
1.0
147
2.0
 71
     0
 72
     0
 73
     0
 74
     1
 75
     0
 76
     0
 77
     3
 78
    12
170
     0
171
     2
172
     0
173
     0
174
     0
175
     0
176
     0
177
     0
178
     0
270
     2
271
     1
272
     1
273
     2
274
     2
340
11
275
     0
280
     0
281
     0
282
     0
283
     1
284
     0
285
     0
286
     0
287
     3
288
     0
  0
ENDTAB
  0
TABLE
  2
BLOCK_RECORD
  5
1
330
0
100
AcDbSymbolTable
 70
    59
  0
BLOCK_RECORD
  5
1E
102
{ACAD_XDICTIONARY
360
178
102
}
330
1
100
AcDbSymbolTableRecord
100
AcDbBlockTableRecord
  2
*MODEL_SPACE
  0
BLOCK_RECORD
  5
1A
102
{ACAD_XDICTIONARY
360
17A
102
}
330
1
100
AcDbSymbolTableRecord
100
AcDbBlockTableRecord
  2
*PAPER_SPACE
  0
BLOCK_RECORD
  5
3B2
330
1
100
AcDbSymbolTableRecord
100
AcDbBlockTableRecord
  2
_OPEN
  0
BLOCK_RECORD
  5
6FBF
330
1
100
AcDbSymbolTableRecord
100
AcDbBlockTableRecord
  2
*D1
  0
BLOCK_RECORD
  5
731A
330
1
100
AcDbSymbolTableRecord
100
AcDbBlockTableRecord
  2
*D2
  0
BLOCK_RECORD
  5
7346
330
1
100
AcDbSymbolTableRecord
100
AcDbBlockTableRecord
  2
*D3
  0
BLOCK_RECORD
  5
74A1
330
1
100
AcDbSymbolTableRecord
100
AcDbBlockTableRecord
  2
*D4
  0
BLOCK_RECORD
  5
74AD
330
1
100
AcDbSymbolTableRecord
100
AcDbBlockTableRecord
  2
*D5
  0
BLOCK_RECORD
  5
74B9
330
1
100
AcDbSymbolTableRecord
100
AcDbBlockTableRecord
  2
*D6
  0
BLOCK_RECORD
  5
74C5
330
1
100
AcDbSymbolTableRecord
100
AcDbBlockTableRecord
  2
*D7
  0
BLOCK_RECORD
  5
753C
330
1
100
AcDbSymbolTableRecord
100
AcDbBlockTableRecord
  2
*D8
  0
BLOCK_RECORD
  5
7905
330
1
100
AcDbSymbolTableRecord
100
AcDbBlockTableRecord
  2
*D9
  0
BLOCK_RECORD
  5
7911
330
1
100
AcDbSymbolTableRecord
100
AcDbBlockTableRecord
  2
*D10
  0
BLOCK_RECORD
  5
7929
330
1
100
AcDbSymbolTableRecord
100
AcDbBlockTableRecord
  2
*D11
  0
BLOCK_RECORD
  5
7935
330
1
100
AcDbSymbolTableRecord
100
AcDbBlockTableRecord
  2
*D12
  0
BLOCK_RECORD
  5
7941
330
1
100
AcDbSymbolTableRecord
100
AcDbBlockTableRecord
  2
*D13
  0
BLOCK_RECORD
  5
794D
330
1
100
AcDbSymbolTableRecord
100
AcDbBlockTableRecord
  2
*D14
  0
BLOCK_RECORD
  5
7959
330
1
100
AcDbSymbolTableRecord
100
AcDbBlockTableRecord
  2
*D15
  0
BLOCK_RECORD
  5
7965
330
1
100
AcDbSymbolTableRecord
100
AcDbBlockTableRecord
  2
*D16
  0
BLOCK_RECORD
  5
7971
330
1
100
AcDbSymbolTableRecord
100
AcDbBlockTableRecord
  2
*D17
  0
BLOCK_RECORD
  5
8398
330
1
100
AcDbSymbolTableRecord
100
AcDbBlockTableRecord
  2
*D38
  0
BLOCK_RECORD
  5
83C8
330
1
100
AcDbSymbolTableRecord
100
AcDbBlockTableRecord
  2
*D39
  0
BLOCK_RECORD
  5
83FC
330
1
100
AcDbSymbolTableRecord
100
AcDbBlockTableRecord
  2
*D40
  0
BLOCK_RECORD
  5
8409
330
1
100
AcDbSymbolTableRecord
100
AcDbBlockTableRecord
  2
*D41
  0
BLOCK_RECORD
  5
8416
330
1
100
AcDbSymbolTableRecord
100
AcDbBlockTableRecord
  2
*D42
  0
BLOCK_RECORD
  5
8433
330
1
100
AcDbSymbolTableRecord
100
AcDbBlockTableRecord
  2
*D43
  0
BLOCK_RECORD
  5
843F
330
1
100
AcDbSymbolTableRecord
100
AcDbBlockTableRecord
  2
*D44
  0
BLOCK_RECORD
  5
844B
330
1
100
AcDbSymbolTableRecord
100
AcDbBlockTableRecord
  2
*D45
  0
BLOCK_RECORD
  5
8457
330
1
100
AcDbSymbolTableRecord
100
AcDbBlockTableRecord
  2
*D46
  0
BLOCK_RECORD
  5
8463
330
1
100
AcDbSymbolTableRecord
100
AcDbBlockTableRecord
  2
*D47
  0
BLOCK_RECORD
  5
846F
330
1
100
AcDbSymbolTableRecord
100
AcDbBlockTableRecord
  2
*D48
  0
BLOCK_RECORD
  5
847B
330
1
100
AcDbSymbolTableRecord
100
AcDbBlockTableRecord
  2
*D49
  0
BLOCK_RECORD
  5
84DD
330
1
100
AcDbSymbolTableRecord
100
AcDbBlockTableRecord
  2
*D51
  0
BLOCK_RECORD
  5
84E9
330
1
100
AcDbSymbolTableRecord
100
AcDbBlockTableRecord
  2
*D52
  0
BLOCK_RECORD
  5
84F5
330
1
100
AcDbSymbolTableRecord
100
AcDbBlockTableRecord
  2
*D53
  0
BLOCK_RECORD
  5
8501
330
1
100
AcDbSymbolTableRecord
100
AcDbBlockTableRecord
  2
*D54
  0
BLOCK_RECORD
  5
850D
330
1
100
AcDbSymbolTableRecord
100
AcDbBlockTableRecord
  2
*D55
  0
BLOCK_RECORD
  5
8519
330
1
100
AcDbSymbolTableRecord
100
AcDbBlockTableRecord
  2
*D56
  0
BLOCK_RECORD
  5
8525
330
1
100
AcDbSymbolTableRecord
100
AcDbBlockTableRecord
  2
*D57
  0
ENDTAB
  0
ENDSEC
  0
SECTION
  2
BLOCKS
  0
BLOCK
  5
1F
330
1E
100
AcDbEntity
  8
0
100
AcDbBlockBegin
  2
*MODEL_SPACE
 70
     0
 10
0.0
 20
0.0
 30
0.0
  3
*MODEL_SPACE
  1

  0
ENDBLK
  5
20
330
1E
100
AcDbEntity
  8
0
100
AcDbBlockEnd
  0
BLOCK
  5
1B
330
1A
100
AcDbEntity
 67
     1
  8
0
100
AcDbBlockBegin
  2
*PAPER_SPACE
 70
     0
 10
0.0
 20
0.0
 30
0.0
  3
*PAPER_SPACE
  1

  0
ENDBLK
  5
1C
330
1A
100
AcDbEntity
 67
     1
  8
0
100
AcDbBlockEnd
  0
BLOCK
  5
3B6
330
3B2
100
AcDbEntity
  8
0
100
AcDbBlockBegin
  2
_OPEN
 70
     0
 10
0.0
 20
0.0
 30
0.0
  3
_OPEN
  1

  0
LINE
  5
3B3
330
3B2
100
AcDbEntity
  8
30
  6
CONTINUOUS
 62
     0
100
AcDbLine
 10
-1.0
 20
0.1666666666666666
 30
0.0
 11
0.0
 21
0.0
 31
0.0
  0
LINE
  5
3B4
330
3B2
100
AcDbEntity
  8
30
  6
CONTINUOUS
 62
     0
100
AcDbLine
 10
-1.0
 20
-0.1666666666666666
 30
0.0
 11
0.0
 21
0.0
 31
0.0
  0
LINE
  5
3B5
330
3B2
100
AcDbEntity
  8
30
  6
CONTINUOUS
 62
     0
100
AcDbLine
 10
0.0
 20
0.0
 30
0.0
 11
-1.0
 21
0.0
 31
0.0
  0
ENDBLK
  5
3B7
330
3B2
100
AcDbEntity
  8
0
100
AcDbBlockEnd
  0
BLOCK
  5
6FC8
330
6FBF
100
AcDbEntity
  8
0
100
AcDbBlockBegin
  2
*D1
 70
     1
 10
0.0
 20
0.0
 30
0.0
  3
*D1
  1

  0
LINE
  5
7DAF
330
6FBF
100
AcDbEntity
  8
30
  6
CONTINUOUS
 62
     0
100
AcDbLine
 10
599.7070681496763
 20
153.3692010040761
 30
0.0
 11
579.6237348163398
 21
153.3692010040761
 31
0.0
  0
LINE
  5
7DB0
330
6FBF
100
AcDbEntity
  8
30
  6
CONTINUOUS
 62
     0
100
AcDbLine
 10
579.6237348163398
 20
153.3692010040761
 30
0.0
 11
557.0167939144722
 21
142.2903141855901
 31
0.0
  0
MTEXT
  5
7DB1
330
6FBF
100
AcDbEntity
  8
30
  6
CONTINUOUS
 62
     0
100
AcDbMText
 10
592.7070681496765
 20
158.3692010040761
 30
0.0
 40
6.0
 41
0.0
 71
     5
 72
     1
  1
\A1;%%c13
1001
ACAD
1000
MTEXTBEGIN
1070
    73
1070
     1
1070
    44
1040
1.0
1070
    74
1070
     0
1000
MTEXTEND
  0
INSERT
  5
7DB2
330
6FBF
100
AcDbEntity
  8
30
  6
CONTINUOUS
 62
     0
100
AcDbBlockReference
  2
_OPEN
 10
555.220859952003
 20
141.410188511354
 30
0.0
 41
2.0
 42
2.0
 43
2.0
 50
206.107890460631
  0
LINE
  5
7DB3
330
6FBF
100
AcDbEntity
  8
30
  6
CONTINUOUS
 62
     0
100
AcDbLine
 10
552.4369590082991
 20
140.0899999999999
 30
0.0
 11
552.6169590082992
 21
140.0899999999999
 31
0.0
  0
LINE
  5
7DB4
330
6FBF
100
AcDbEntity
  8
30
  6
CONTINUOUS
 62
     0
100
AcDbLine
 10
552.5269590082992
 20
139.9999999999998
 30
0.0
 11
552.5269590082991
 21
140.1799999999999
 31
0.0
  0
POINT
  5
7DB5
330
6FBF
100
AcDbEntity
  8
DEFPOINTS
  6
CONTINUOUS
 62
     0
100
AcDbPoint
 10
555.220859952003
 20
141.410188511354
 30
0.0
  0
POINT
  5
7DB6
330
6FBF
100
AcDbEntity
  8
DEFPOINTS
  6
CONTINUOUS
 62
     0
100
AcDbPoint
 10
549.8330580645953
 20
138.7698114886458
 30
0.0
  0
ENDBLK
  5
6FC9
330
6FBF
100
AcDbEntity
  8
0
100
AcDbBlockEnd
  0
BLOCK
  5
7324
330
731A
100
AcDbEntity
  8
0
100
AcDbBlockBegin
  2
*D2
 70
     1
 10
0.0
 20
0.0
 30
0.0
  3
*D2
  1

  0
LINE
  5
7D82
330
731A
100
AcDbEntity
  8
30
  6
CONTINUOUS
 62
     0
100
AcDbLine
 10
-135.00015258792
 20
209.90640258789
 30
0.0
 11
-191.1442004540168
 21
209.90640258789
 31
0.0
  0
LINE
  5
7D83
330
731A
100
AcDbEntity
  8
30
  6
CONTINUOUS
 62
     0
100
AcDbLine
 10
-135.00015258792
 20
-210.09359741211
 30
0.0
 11
-191.1442004540169
 21
-210.09359741211
 31
0.0
  0
LINE
  5
7D84
330
731A
100
AcDbEntity
  8
30
  6
CONTINUOUS
 62
     0
100
AcDbLine
 10
-190.6442004540168
 20
207.90640258789
 30
0.0
 11
-190.6442004540169
 21
-208.09359741211
 31
0.0
  0
INSERT
  5
7D85
330
731A
100
AcDbEntity
  8
30
  6
CONTINUOUS
 62
     0
100
AcDbBlockReference
  2
_OPEN
 10
-190.6442004540168
 20
209.90640258789
 30
0.0
 41
2.0
 42
2.0
 43
2.0
 50
90.0
  0
INSERT
  5
7D86
330
731A
100
AcDbEntity
  8
30
  6
CONTINUOUS
 62
     0
100
AcDbBlockReference
  2
_OPEN
 10
-190.6442004540169
 20
-210.09359741211
 30
0.0
 41
2.0
 42
2.0
 43
2.0
 50
270.0
  0
MTEXT
  5
7D87
330
731A
100
AcDbEntity
  8
30
  6
CONTINUOUS
 62
     0
100
AcDbMText
 10
-195.6442004540169
 20
-0.0935974121100307
 30
0.0
 40
6.0
 41
0.0
 71
     5
 72
     1
  1
\A1;420
 11
0.0000000000000001
 21
1.0
 31
0.0
1001
ACAD
1000
MTEXTBEGIN
1070
    73
1070
     1
1070
    44
1040
1.0
1070
    74
1070
     0
1000
MTEXTEND
  0
POINT
  5
7D88
330
731A
100
AcDbEntity
  8
DEFPOINTS
  6
CONTINUOUS
 62
     0
100
AcDbPoint
 10
-134.00015258792
 20
209.90640258789
 30
0.0
  0
POINT
  5
7D89
330
731A
100
AcDbEntity
  8
DEFPOINTS
  6
CONTINUOUS
 62
     0
100
AcDbPoint
 10
-134.00015258792
 20
-210.09359741211
 30
0.0
  0
POINT
  5
7D8A
330
731A
100
AcDbEntity
  8
DEFPOINTS
  6
CONTINUOUS
 62
     0
100
AcDbPoint
 10
-190.6442004540169
 20
-210.09359741211
 30
0.0
  0
ENDBLK
  5
7325
330
731A
100
AcDbEntity
  8
0
100
AcDbBlockEnd
  0
BLOCK
  5
7350
330
7346
100
AcDbEntity
  8
0
100
AcDbBlockBegin
  2
*D3
 70
     1
 10
0.0
 20
0.0
 30
0.0
  3
*D3
  1

  0
LINE
  5
7D79
330
7346
100
AcDbEntity
  8
30
  6
CONTINUOUS
 62
     0
100
AcDbLine
 10
-134.00015258792
 20
-211.09359741211
 30
0.0
 11
-134.00015258792
 21
-253.9965349513349
 31
0.0
  0
LINE
  5
7D7A
330
7346
100
AcDbEntity
  8
30
  6
CONTINUOUS
 62
     0
100
AcDbLine
 10
203.9997863769599
 20
-211.09359741211
 30
0.0
 11
203.9997863769599
 21
-253.9965349513349
 31
0.0
  0
LINE
  5
7D7B
330
7346
100
AcDbEntity
  8
30
  6
CONTINUOUS
 62
     0
100
AcDbLine
 10
-132.00015258792
 20
-253.4965349513349
 30
0.0
 11
201.9997863769599
 21
-253.4965349513349
 31
0.0
  0
INSERT
  5
7D7C
330
7346
100
AcDbEntity
  8
30
  6
CONTINUOUS
 62
     0
100
AcDbBlockReference
  2
_OPEN
 10
-134.00015258792
 20
-253.4965349513349
 30
0.0
 41
2.0
 42
2.0
 43
2.0
 50
180.0
  0
INSERT
  5
7D7D
330
7346
100
AcDbEntity
  8
30
  6
CONTINUOUS
 62
     0
100
AcDbBlockReference
  2
_OPEN
 10
203.9997863769599
 20
-253.4965349513349
 30
0.0
 41
2.0
 42
2.0
 43
2.0
  0
MTEXT
  5
7D7E
330
7346
100
AcDbEntity
  8
30
  6
CONTINUOUS
 62
     0
100
AcDbMText
 10
34.99981689451994
 20
-248.4965349513349
 30
0.0
 40
6.0
 41
0.0
 71
     5
 72
     1
  1
\A1;338
1001
ACAD
1000
MTEXTBEGIN
1070
    73
1070
     1
1070
    44
1040
1.0
1070
    74
1070
     0
1000
MTEXTEND
  0
POINT
  5
7D7F
330
7346
100
AcDbEntity
  8
DEFPOINTS
  6
CONTINUOUS
 62
     0
100
AcDbPoint
 10
-134.00015258792
 20
-210.09359741211
 30
0.0
  0
POINT
  5
7D80
330
7346
100
AcDbEntity
  8
DEFPOINTS
  6
CONTINUOUS
 62
     0
100
AcDbPoint
 10
203.9997863769599
 20
-210.09359741211
 30
0.0
  0
POINT
  5
7D81
330
7346
100
AcDbEntity
  8
DEFPOINTS
  6
CONTINUOUS
 62
     0
100
AcDbPoint
 10
203.9997863769599
 20
-253.4965349513349
 30
0.0
  0
ENDBLK
  5
7351
330
7346
100
AcDbEntity
  8
0
100
AcDbBlockEnd
  0
BLOCK
  5
74AB
330
74A1
100
AcDbEntity
  8
0
100
AcDbBlockBegin
  2
*D4
 70
     1
 10
0.0
 20
0.0
 30
0.0
  3
*D4
  1

  0
LINE
  5
838C
330
74A1
100
AcDbEntity
  8
30
  6
CONTINUOUS
 62
     0
100
AcDbLine
 10
-114.0001831054801
 20
-353.7821222075336
 30
0.0
 11
-189.5001831054799
 21
-353.7821222075336
 31
0.0
  0
LINE
  5
838D
330
74A1
100
AcDbEntity
  8
30
  6
CONTINUOUS
 62
     0
100
AcDbLine
 10
-114.0001831054801
 20
-763.7821222075338
 30
0.0
 11
-189.50018310548
 21
-763.7821222075338
 31
0.0
  0
LINE
  5
838E
330
74A1
100
AcDbEntity
  8
30
  6
CONTINUOUS
 62
     0
100
AcDbLine
 10
-189.00018310548
 20
-355.7821222075336
 30
0.0
 11
-189.00018310548
 21
-761.7821222075337
 31
0.0
  0
INSERT
  5
838F
330
74A1
100
AcDbEntity
  8
30
  6
CONTINUOUS
 62
     0
100
AcDbBlockReference
  2
_OPEN
 10
-189.00018310548
 20
-353.7821222075336
 30
0.0
 41
2.0
 42
2.0
 43
2.0
 50
90.0
  0
INSERT
  5
8390
330
74A1
100
AcDbEntity
  8
30
  6
CONTINUOUS
 62
     0
100
AcDbBlockReference
  2
_OPEN
 10
-189.00018310548
 20
-763.7821222075338
 30
0.0
 41
2.0
 42
2.0
 43
2.0
 50
270.0
  0
MTEXT
  5
8391
330
74A1
100
AcDbEntity
  8
30
  6
CONTINUOUS
 62
     0
100
AcDbMText
 10
-194.0001831054799
 20
-558.7821222075338
 30
0.0
 40
6.0
 41
0.0
 71
     5
 72
     1
  1
\A1;410
 11
0.0000000000000001
 21
1.0
 31
0.0
1001
ACAD
1000
MTEXTBEGIN
1070
    73
1070
     1
1070
    44
1040
1.0
1070
    74
1070
     0
1000
MTEXTEND
  0
POINT
  5
8392
330
74A1
100
AcDbEntity
  8
DEFPOINTS
  6
CONTINUOUS
 62
     0
100
AcDbPoint
 10
-113.0001831054801
 20
-353.7821222075336
 30
0.0
  0
POINT
  5
8393
330
74A1
100
AcDbEntity
  8
DEFPOINTS
  6
CONTINUOUS
 62
     0
100
AcDbPoint
 10
-113.0001831054801
 20
-763.7821222075338
 30
0.0
  0
POINT
  5
8394
330
74A1
100
AcDbEntity
  8
DEFPOINTS
  6
CONTINUOUS
 62
     0
100
AcDbPoint
 10
-189.00018310548
 20
-763.7821222075338
 30
0.0
  0
ENDBLK
  5
74AC
330
74A1
100
AcDbEntity
  8
0
100
AcDbBlockEnd
  0
BLOCK
  5
74B7
330
74AD
100
AcDbEntity
  8
0
100
AcDbBlockBegin
  2
*D5
 70
     1
 10
0.0
 20
0.0
 30
0.0
  3
*D5
  1

  0
LINE
  5
8383
330
74AD
100
AcDbEntity
  8
30
  6
CONTINUOUS
 62
     0
100
AcDbLine
 10
-138.50018310548
 20
-469.3467289738013
 30
0.0
 11
-163.50018310548
 21
-469.3467289738013
 31
0.0
  0
LINE
  5
8384
330
74AD
100
AcDbEntity
  8
30
  6
CONTINUOUS
 62
     0
100
AcDbLine
 10
-138.50018310548
 20
-654.3467594913813
 30
0.0
 11
-163.50018310548
 21
-654.3467594913813
 31
0.0
  0
LINE
  5
8385
330
74AD
100
AcDbEntity
  8
30
  6
CONTINUOUS
 62
     0
100
AcDbLine
 10
-163.00018310548
 20
-471.3467289738012
 30
0.0
 11
-163.0001831054801
 21
-652.3467594913812
 31
0.0
  0
INSERT
  5
8386
330
74AD
100
AcDbEntity
  8
30
  6
CONTINUOUS
 62
     0
100
AcDbBlockReference
  2
_OPEN
 10
-163.00018310548
 20
-469.3467289738013
 30
0.0
 41
2.0
 42
2.0
 43
2.0
 50
90.0
  0
INSERT
  5
8387
330
74AD
100
AcDbEntity
  8
30
  6
CONTINUOUS
 62
     0
100
AcDbBlockReference
  2
_OPEN
 10
-163.0001831054801
 20
-654.3467594913813
 30
0.0
 41
2.0
 42
2.0
 43
2.0
 50
270.0
  0
MTEXT
  5
8388
330
74AD
100
AcDbEntity
  8
30
  6
CONTINUOUS
 62
     0
100
AcDbMText
 10
-168.0001831054799
 20
-561.8467442325912
 30
0.0
 40
6.0
 41
0.0
 71
     5
 72
     1
  1
\A1;185
 11
0.0000000000000001
 21
1.0
 31
0.0
1001
ACAD
1000
MTEXTBEGIN
1070
    73
1070
     1
1070
    44
1040
1.0
1070
    74
1070
     0
1000
MTEXTEND
  0
POINT
  5
8389
330
74AD
100
AcDbEntity
  8
DEFPOINTS
  6
CONTINUOUS
 62
     0
100
AcDbPoint
 10
-137.50018310548
 20
-469.3467289738013
 30
0.0
  0
POINT
  5
838A
330
74AD
100
AcDbEntity
  8
DEFPOINTS
  6
CONTINUOUS
 62
     0
100
AcDbPoint
 10
-137.50018310548
 20
-654.3467594913813
 30
0.0
  0
POINT
  5
838B
330
74AD
100
AcDbEntity
  8
DEFPOINTS
  6
CONTINUOUS
 62
     0
100
AcDbPoint
 10
-163.0001831054801
 20
-654.3467594913813
 30
0.0
  0
ENDBLK
  5
74B8
330
74AD
100
AcDbEntity
  8
0
100
AcDbBlockEnd
  0
BLOCK
  5
74C3
330
74B9
100
AcDbEntity
  8
0
100
AcDbBlockBegin
  2
*D6
 70
     1
 10
0.0
 20
0.0
 30
0.0
  3
*D6
  1

  0
LINE
  5
837A
330
74B9
100
AcDbEntity
  8
30
  6
CONTINUOUS
 62
     0
100
AcDbLine
 10
-113.0001831054801
 20
-764.7821222075338
 30
0.0
 11
-113.0001831054801
 21
-788.5141776383301
 31
0.0
  0
LINE
  5
837B
330
74B9
100
AcDbEntity
  8
30
  6
CONTINUOUS
 62
     0
100
AcDbLine
 10
182.9998168945199
 20
-764.7821218757835
 30
0.0
 11
182.9998168945199
 21
-788.5141776383301
 31
0.0
  0
LINE
  5
837C
330
74B9
100
AcDbEntity
  8
30
  6
CONTINUOUS
 62
     0
100
AcDbLine
 10
-111.00018310548
 20
-788.0141776383301
 30
0.0
 11
180.9998168945199
 21
-788.0141776383301
 31
0.0
  0
INSERT
  5
837D
330
74B9
100
AcDbEntity
  8
30
  6
CONTINUOUS
 62
     0
100
AcDbBlockReference
  2
_OPEN
 10
-113.0001831054801
 20
-788.0141776383301
 30
0.0
 41
2.0
 42
2.0
 43
2.0
 50
180.0
  0
INSERT
  5
837E
330
74B9
100
AcDbEntity
  8
30
  6
CONTINUOUS
 62
     0
100
AcDbBlockReference
  2
_OPEN
 10
182.9998168945199
 20
-788.0141776383301
 30
0.0
 41
2.0
 42
2.0
 43
2.0
  0
MTEXT
  5
837F
330
74B9
100
AcDbEntity
  8
30
  6
CONTINUOUS
 62
     0
100
AcDbMText
 10
34.99981689451991
 20
-783.01417763833
 30
0.0
 40
6.0
 41
0.0
 71
     5
 72
     1
  1
\A1;296
1001
ACAD
1000
MTEXTBEGIN
1070
    73
1070
     1
1070
    44
1040
1.0
1070
    74
1070
     0
1000
MTEXTEND
  0
POINT
  5
8380
330
74B9
100
AcDbEntity
  8
DEFPOINTS
  6
CONTINUOUS
 62
     0
100
AcDbPoint
 10
-113.0001831054801
 20
-763.7821222075338
 30
0.0
  0
POINT
  5
8381
330
74B9
100
AcDbEntity
  8
DEFPOINTS
  6
CONTINUOUS
 62
     0
100
AcDbPoint
 10
182.9998168945199
 20
-763.7821218757835
 30
0.0
  0
POINT
  5
8382
330
74B9
100
AcDbEntity
  8
DEFPOINTS
  6
CONTINUOUS
 62
     0
100
AcDbPoint
 10
182.9998168945199
 20
-788.0141776383301
 30
0.0
  0
ENDBLK
  5
74C4
330
74B9
100
AcDbEntity
  8
0
100
AcDbBlockEnd
  0
BLOCK
  5
74CF
330
74C5
100
AcDbEntity
  8
0
100
AcDbBlockBegin
  2
*D7
 70
     1
 10
0.0
 20
0.0
 30
0.0
  3
*D7
  1

  0
LINE
  5
8371
330
74C5
100
AcDbEntity
  8
30
  6
CONTINUOUS
 62
     0
100
AcDbLine
 10
-122.50018310548
 20
-670.3467594913812
 30
0.0
 11
-122.50018310548
 21
-808.3662487674386
 31
0.0
  0
LINE
  5
8372
330
74C5
100
AcDbEntity
  8
30
  6
CONTINUOUS
 62
     0
100
AcDbLine
 10
192.4998168945199
 20
-670.3467590979784
 30
0.0
 11
192.4998168945199
 21
-808.3662487674386
 31
0.0
  0
LINE
  5
8373
330
74C5
100
AcDbEntity
  8
30
  6
CONTINUOUS
 62
     0
100
AcDbLine
 10
-120.50018310548
 20
-807.8662487674385
 30
0.0
 11
190.4998168945199
 21
-807.8662487674385
 31
0.0
  0
INSERT
  5
8374
330
74C5
100
AcDbEntity
  8
30
  6
CONTINUOUS
 62
     0
100
AcDbBlockReference
  2
_OPEN
 10
-122.50018310548
 20
-807.8662487674385
 30
0.0
 41
2.0
 42
2.0
 43
2.0
 50
180.0
  0
INSERT
  5
8375
330
74C5
100
AcDbEntity
  8
30
  6
CONTINUOUS
 62
     0
100
AcDbBlockReference
  2
_OPEN
 10
192.4998168945199
 20
-807.8662487674385
 30
0.0
 41
2.0
 42
2.0
 43
2.0
  0
MTEXT
  5
8376
330
74C5
100
AcDbEntity
  8
30
  6
CONTINUOUS
 62
     0
100
AcDbMText
 10
34.9998168945199
 20
-802.8662487674386
 30
0.0
 40
6.0
 41
0.0
 71
     5
 72
     1
  1
\A1;315
1001
ACAD
1000
MTEXTBEGIN
1070
    73
1070
     1
1070
    44
1040
1.0
1070
    74
1070
     0
1000
MTEXTEND
  0
POINT
  5
8377
330
74C5
100
AcDbEntity
  8
DEFPOINTS
  6
CONTINUOUS
 62
     0
100
AcDbPoint
 10
-122.50018310548
 20
-669.3467594913812
 30
0.0
  0
POINT
  5
8378
330
74C5
100
AcDbEntity
  8
DEFPOINTS
  6
CONTINUOUS
 62
     0
100
AcDbPoint
 10
192.4998168945199
 20
-669.3467590979784
 30
0.0
  0
POINT
  5
8379
330
74C5
100
AcDbEntity
  8
DEFPOINTS
  6
CONTINUOUS
 62
     0
100
AcDbPoint
 10
192.4998168945199
 20
-807.8662487674385
 30
0.0
  0
ENDBLK
  5
74D0
330
74C5
100
AcDbEntity
  8
0
100
AcDbBlockEnd
  0
BLOCK
  5
7546
330
753C
100
AcDbEntity
  8
0
100
AcDbBlockBegin
  2
*D8
 70
     1
 10
0.0
 20
0.0
 30
0.0
  3
*D8
  1

  0
LINE
  5
7D0E
330
753C
100
AcDbEntity
  8
30
  6
CONTINUOUS
 62
     0
100
AcDbLine
 10
1.0
 20
-0.0000001967014217
 30
0.0
 11
63.10315311051636
 21
-0.0000001967014392
 31
0.0
  0
LINE
  5
7D0F
330
753C
100
AcDbEntity
  8
30
  6
CONTINUOUS
 62
     0
100
AcDbLine
 10
0.8999999999999772
 20
-14.99359760881142
 30
0.0
 11
63.10315311051636
 21
-14.99359760881144
 31
0.0
  0
LINE
  5
7D10
330
753C
100
AcDbEntity
  8
30
  6
CONTINUOUS
 62
     0
100
AcDbLine
 10
62.60315311051636
 20
-2.000000196701439
 30
0.0
 11
62.60315311051636
 21
-12.99359760881144
 31
0.0
  0
INSERT
  5
7D11
330
753C
100
AcDbEntity
  8
30
  6
CONTINUOUS
 62
     0
100
AcDbBlockReference
  2
_OPEN
 10
62.60315311051636
 20
-0.0000001967014391
 30
0.0
 41
2.0
 42
2.0
 43
2.0
 50
90.0
  0
INSERT
  5
7D12
330
753C
100
AcDbEntity
  8
30
  6
CONTINUOUS
 62
     0
100
AcDbBlockReference
  2
_OPEN
 10
62.60315311051636
 20
-14.99359760881144
 30
0.0
 41
2.0
 42
2.0
 43
2.0
 50
270.0
  0
MTEXT
  5
7D13
330
753C
100
AcDbEntity
  8
30
  6
CONTINUOUS
 62
     0
100
AcDbMText
 10
57.60315311051636
 20
-7.496798902756431
 30
0.0
 40
6.0
 41
0.0
 71
     5
 72
     1
  1
\A1;15
 11
0.0000000000000001
 21
1.0
 31
0.0
1001
ACAD
1000
MTEXTBEGIN
1070
    73
1070
     1
1070
    44
1040
1.0
1070
    74
1070
     0
1000
MTEXTEND
  0
POINT
  5
7D14
330
753C
100
AcDbEntity
  8
DEFPOINTS
  6
CONTINUOUS
 62
     0
100
AcDbPoint
 10
0.0
 20
-0.0000001967014214
 30
0.0
  0
POINT
  5
7D15
330
753C
100
AcDbEntity
  8
DEFPOINTS
  6
CONTINUOUS
 62
     0
100
AcDbPoint
 10
-0.1000000000000227
 20
-14.99359760881142
 30
0.0
  0
POINT
  5
7D16
330
753C
100
AcDbEntity
  8
DEFPOINTS
  6
CONTINUOUS
 62
     0
100
AcDbPoint
 10
62.60315311051636
 20
-14.99359760881144
 30
0.0
  0
ENDBLK
  5
7547
330
753C
100
AcDbEntity
  8
0
100
AcDbBlockEnd
  0
BLOCK
  5
790F
330
7905
100
AcDbEntity
  8
0
100
AcDbBlockBegin
  2
*D9
 70
     1
 10
0.0
 20
0.0
 30
0.0
  3
*D9
  1

  0
LINE
  5
7E68
330
7905
100
AcDbEntity
  8
30
  6
CONTINUOUS
 62
     0
100
AcDbLine
 10
351.5269590082994
 20
-237.26559448242
 30
0.0
 11
351.5269590082994
 21
-265.3580984749315
 31
0.0
  0
LINE
  5
7E69
330
7905
100
AcDbEntity
  8
30
  6
CONTINUOUS
 62
     0
100
AcDbLine
 10
567.5269590082994
 20
-152.59359741211
 30
0.0
 11
567.5269590082994
 21
-265.3580984749315
 31
0.0
  0
LINE
  5
7E6A
330
7905
100
AcDbEntity
  8
30
  6
CONTINUOUS
 62
     0
100
AcDbLine
 10
353.5269590082994
 20
-264.8580984749315
 30
0.0
 11
565.5269590082993
 21
-264.8580984749315
 31
0.0
  0
INSERT
  5
7E6B
330
7905
100
AcDbEntity
  8
30
  6
CONTINUOUS
 62
     0
100
AcDbBlockReference
  2
_OPEN
 10
351.5269590082994
 20
-264.8580984749315
 30
0.0
 41
2.0
 42
2.0
 43
2.0
 50
180.0
  0
INSERT
  5
7E6C
330
7905
100
AcDbEntity
  8
30
  6
CONTINUOUS
 62
     0
100
AcDbBlockReference
  2
_OPEN
 10
567.5269590082994
 20
-264.8580984749315
 30
0.0
 41
2.0
 42
2.0
 43
2.0
  0
MTEXT
  5
7E6D
330
7905
100
AcDbEntity
  8
30
  6
CONTINUOUS
 62
     0
100
AcDbMText
 10
459.1165399292918
 20
-259.8580984749315
 30
0.0
 40
6.0
 41
0.0
 71
     5
 72
     1
  1
\A1;216
1001
ACAD
1000
MTEXTBEGIN
1070
    73
1070
     1
1070
    44
1040
1.0
1070
    74
1070
     0
1000
MTEXTEND
  0
POINT
  5
7E6E
330
7905
100
AcDbEntity
  8
DEFPOINTS
  6
CONTINUOUS
 62
     0
100
AcDbPoint
 10
351.5269590082994
 20
-236.2655944824199
 30
0.0
  0
POINT
  5
7E6F
330
7905
100
AcDbEntity
  8
DEFPOINTS
  6
CONTINUOUS
 62
     0
100
AcDbPoint
 10
567.5269590082994
 20
-151.59359741211
 30
0.0
  0
POINT
  5
7E70
330
7905
100
AcDbEntity
  8
DEFPOINTS
  6
CONTINUOUS
 62
     0
100
AcDbPoint
 10
567.5269590082994
 20
-264.8580984749315
 30
0.0
  0
ENDBLK
  5
7910
330
7905
100
AcDbEntity
  8
0
100
AcDbBlockEnd
  0
BLOCK
  5
791B
330
7911
100
AcDbEntity
  8
0
100
AcDbBlockBegin
  2
*D10
 70
     1
 10
0.0
 20
0.0
 30
0.0
  3
*D10
  1

  0
LINE
  5
83EC
330
7911
100
AcDbEntity
  8
30
  6
CONTINUOUS
 62
     0
100
AcDbLine
 10
512.5269590082994
 20
-152.5
 30
0.0
 11
512.5269590082994
 21
-194.1090543427972
 31
0.0
  0
LINE
  5
83ED
330
7911
100
AcDbEntity
  8
30
  6
CONTINUOUS
 62
     0
100
AcDbLine
 10
492.5269590082995
 20
-136.8515906119832
 30
0.0
 11
492.5269590082995
 21
-194.1090543427972
 31
0.0
  0
LINE
  5
83EE
330
7911
100
AcDbEntity
  8
30
  6
CONTINUOUS
 62
     0
100
AcDbLine
 10
510.5269590082993
 20
-193.6090543427972
 30
0.0
 11
494.5269590082994
 21
-193.6090543427972
 31
0.0
  0
INSERT
  5
83EF
330
7911
100
AcDbEntity
  8
30
  6
CONTINUOUS
 62
     0
100
AcDbBlockReference
  2
_OPEN
 10
512.5269590082994
 20
-193.6090543427972
 30
0.0
 41
2.0
 42
2.0
 43
2.0
  0
INSERT
  5
83F0
330
7911
100
AcDbEntity
  8
30
  6
CONTINUOUS
 62
     0
100
AcDbBlockReference
  2
_OPEN
 10
492.5269590082995
 20
-193.6090543427972
 30
0.0
 41
2.0
 42
2.0
 43
2.0
 50
180.0
  0
MTEXT
  5
83F1
330
7911
100
AcDbEntity
  8
30
  6
CONTINUOUS
 62
     0
100
AcDbMText
 10
502.003458391835
 20
-188.6090543427972
 30
0.0
 40
6.0
 41
0.0
 71
     5
 72
     1
  1
\A1;20
1001
ACAD
1000
MTEXTBEGIN
1070
    73
1070
     1
1070
    44
1040
1.0
1070
    74
1070
     0
1000
MTEXTEND
  0
POINT
  5
83F2
330
7911
100
AcDbEntity
  8
DEFPOINTS
  6
CONTINUOUS
 62
     0
100
AcDbPoint
 10
512.5269590082994
 20
-151.5
 30
0.0
  0
POINT
  5
83F3
330
7911
100
AcDbEntity
  8
DEFPOINTS
  6
CONTINUOUS
 62
     0
100
AcDbPoint
 10
492.5269590082995
 20
-135.8515906119832
 30
0.0
  0
POINT
  5
83F4
330
7911
100
AcDbEntity
  8
DEFPOINTS
  6
CONTINUOUS
 62
     0
100
AcDbPoint
 10
492.5269590082995
 20
-193.6090543427972
 30
0.0
  0
ENDBLK
  5
791C
330
7911
100
AcDbEntity
  8
0
100
AcDbBlockEnd
  0
BLOCK
  5
7933
330
7929
100
AcDbEntity
  8
0
100
AcDbBlockBegin
  2
*D11
 70
     1
 10
0.0
 20
0.0
 30
0.0
  3
*D11
  1

  0
LINE
  5
7E5F
330
7929
100
AcDbEntity
  8
30
  6
CONTINUOUS
 62
     0
100
AcDbLine
 10
285.5269590082994
 20
-16.09359741211005
 30
0.0
 11
285.5269590082994
 21
-265.3580984749315
 31
0.0
  0
LINE
  5
7E60
330
7929
100
AcDbEntity
  8
30
  6
CONTINUOUS
 62
     0
100
AcDbLine
 10
351.5269590082994
 20
-237.26559448242
 30
0.0
 11
351.5269590082994
 21
-265.3580984749315
 31
0.0
  0
LINE
  5
7E61
330
7929
100
AcDbEntity
  8
30
  6
CONTINUOUS
 62
     0
100
AcDbLine
 10
287.5269590082994
 20
-264.8580984749315
 30
0.0
 11
349.5269590082994
 21
-264.8580984749315
 31
0.0
  0
INSERT
  5
7E62
330
7929
100
AcDbEntity
  8
30
  6
CONTINUOUS
 62
     0
100
AcDbBlockReference
  2
_OPEN
 10
285.5269590082994
 20
-264.8580984749315
 30
0.0
 41
2.0
 42
2.0
 43
2.0
 50
180.0
  0
INSERT
  5
7E63
330
7929
100
AcDbEntity
  8
30
  6
CONTINUOUS
 62
     0
100
AcDbBlockReference
  2
_OPEN
 10
351.5269590082994
 20
-264.8580984749315
 30
0.0
 41
2.0
 42
2.0
 43
2.0
  0
MTEXT
  5
7E64
330
7929
100
AcDbEntity
  8
30
  6
CONTINUOUS
 62
     0
100
AcDbMText
 10
318.1165399292918
 20
-259.8580984749315
 30
0.0
 40
6.0
 41
0.0
 71
     5
 72
     1
  1
\A1;66
1001
ACAD
1000
MTEXTBEGIN
1070
    73
1070
     1
1070
    44
1040
1.0
1070
    74
1070
     0
1000
MTEXTEND
  0
POINT
  5
7E65
330
7929
100
AcDbEntity
  8
DEFPOINTS
  6
CONTINUOUS
 62
     0
100
AcDbPoint
 10
285.5269590082994
 20
-15.09359741211005
 30
0.0
  0
POINT
  5
7E66
330
7929
100
AcDbEntity
  8
DEFPOINTS
  6
CONTINUOUS
 62
     0
100
AcDbPoint
 10
351.5269590082994
 20
-236.2655944824199
 30
0.0
  0
POINT
  5
7E67
330
7929
100
AcDbEntity
  8
DEFPOINTS
  6
CONTINUOUS
 62
     0
100
AcDbPoint
 10
351.5269590082994
 20
-264.8580984749315
 30
0.0
  0
ENDBLK
  5
7934
330
7929
100
AcDbEntity
  8
0
100
AcDbBlockEnd
  0
BLOCK
  5
793F
330
7935
100
AcDbEntity
  8
0
100
AcDbBlockBegin
  2
*D12
 70
     1
 10
0.0
 20
0.0
 30
0.0
  3
*D12
  1

  0
LINE
  5
7CE2
330
7935
100
AcDbEntity
  8
30
  6
CONTINUOUS
 62
     0
100
AcDbLine
 10
333.5269590082994
 20
-211.09359741211
 30
0.0
 11
333.5269590082994
 21
-244.522657513025
 31
0.0
  0
LINE
  5
7CE3
330
7935
100
AcDbEntity
  8
30
  6
CONTINUOUS
 62
     0
100
AcDbLine
 10
351.5269590082994
 20
-237.26559448242
 30
0.0
 11
351.5269590082994
 21
-244.522657513025
 31
0.0
  0
LINE
  5
7CE4
330
7935
100
AcDbEntity
  8
30
  6
CONTINUOUS
 62
     0
100
AcDbLine
 10
335.5269590082994
 20
-244.022657513025
 30
0.0
 11
349.5269590082994
 21
-244.022657513025
 31
0.0
  0
INSERT
  5
7CE5
330
7935
100
AcDbEntity
  8
30
  6
CONTINUOUS
 62
     0
100
AcDbBlockReference
  2
_OPEN
 10
333.5269590082994
 20
-244.022657513025
 30
0.0
 41
2.0
 42
2.0
 43
2.0
 50
180.0
  0
INSERT
  5
7CE6
330
7935
100
AcDbEntity
  8
30
  6
CONTINUOUS
 62
     0
100
AcDbBlockReference
  2
_OPEN
 10
351.5269590082994
 20
-244.022657513025
 30
0.0
 41
2.0
 42
2.0
 43
2.0
  0
MTEXT
  5
7CE7
330
7935
100
AcDbEntity
  8
30
  6
CONTINUOUS
 62
     0
100
AcDbMText
 10
342.3805904371456
 20
-239.022657513025
 30
0.0
 40
6.0
 41
0.0
 71
     5
 72
     1
  1
\A1;18
1001
ACAD
1000
MTEXTBEGIN
1070
    73
1070
     1
1070
    44
1040
1.0
1070
    74
1070
     0
1000
MTEXTEND
  0
POINT
  5
7CE8
330
7935
100
AcDbEntity
  8
DEFPOINTS
  6
CONTINUOUS
 62
     0
100
AcDbPoint
 10
333.5269590082994
 20
-210.09359741211
 30
0.0
  0
POINT
  5
7CE9
330
7935
100
AcDbEntity
  8
DEFPOINTS
  6
CONTINUOUS
 62
     0
100
AcDbPoint
 10
351.5269590082994
 20
-236.2655944824199
 30
0.0
  0
POINT
  5
7CEA
330
7935
100
AcDbEntity
  8
DEFPOINTS
  6
CONTINUOUS
 62
     0
100
AcDbPoint
 10
351.5269590082994
 20
-244.022657513025
 30
0.0
  0
ENDBLK
  5
7940
330
7935
100
AcDbEntity
  8
0
100
AcDbBlockEnd
  0
BLOCK
  5
794B
330
7941
100
AcDbEntity
  8
0
100
AcDbBlockBegin
  2
*D13
 70
     1
 10
0.0
 20
0.0
 30
0.0
  3
*D13
  1

  0
LINE
  5
83B5
330
7941
100
AcDbEntity
  8
30
  6
CONTINUOUS
 62
     0
100
AcDbLine
 10
553.5269590082994
 20
-129.0
 30
0.0
 11
628.540655713846
 21
-129.0
 31
0.0
  0
LINE
  5
83B6
330
7941
100
AcDbEntity
  8
30
  6
CONTINUOUS
 62
     0
100
AcDbLine
 10
448.0084373133763
 20
-0.0000000000000006
 30
0.0
 11
628.540655713846
 21
-0.0000000000000517
 31
0.0
  0
LINE
  5
83B7
330
7941
100
AcDbEntity
  8
30
  6
CONTINUOUS
 62
     0
100
AcDbLine
 10
628.040655713846
 20
-127.0
 30
0.0
 11
628.040655713846
 21
-2.000000000000051
 31
0.0
  0
INSERT
  5
83B8
330
7941
100
AcDbEntity
  8
30
  6
CONTINUOUS
 62
     0
100
AcDbBlockReference
  2
_OPEN
 10
628.040655713846
 20
-129.0
 30
0.0
 41
2.0
 42
2.0
 43
2.0
 50
270.0
  0
INSERT
  5
83B9
330
7941
100
AcDbEntity
  8
30
  6
CONTINUOUS
 62
     0
100
AcDbBlockReference
  2
_OPEN
 10
628.040655713846
 20
-0.0000000000000516
 30
0.0
 41
2.0
 42
2.0
 43
2.0
 50
90.0
  0
MTEXT
  5
83BA
330
7941
100
AcDbEntity
  8
30
  6
CONTINUOUS
 62
     0
100
AcDbMText
 10
623.040655713846
 20
-64.50000000000004
 30
0.0
 40
6.0
 41
0.0
 71
     5
 72
     1
  1
\A1;129
 11
0.0000000000000001
 21
1.0
 31
0.0
1001
ACAD
1000
MTEXTBEGIN
1070
    73
1070
     1
1070
    44
1040
1.0
1070
    74
1070
     0
1000
MTEXTEND
  0
POINT
  5
83BB
330
7941
100
AcDbEntity
  8
DEFPOINTS
  6
CONTINUOUS
 62
     0
100
AcDbPoint
 10
552.5269590082993
 20
-129.0
 30
0.0
  0
POINT
  5
83BC
330
7941
100
AcDbEntity
  8
DEFPOINTS
  6
CONTINUOUS
 62
     0
100
AcDbPoint
 10
447.0084373133763
 20
-0.0000000000000003
 30
0.0
  0
POINT
  5
83BD
330
7941
100
AcDbEntity
  8
DEFPOINTS
  6
CONTINUOUS
 62
     0
100
AcDbPoint
 10
628.040655713846
 20
-0.0000000000000516
 30
0.0
  0
ENDBLK
  5
794C
330
7941
100
AcDbEntity
  8
0
100
AcDbBlockEnd
  0
BLOCK
  5
7957
330
794D
100
AcDbEntity
  8
0
100
AcDbBlockBegin
  2
*D14
 70
     1
 10
0.0
 20
0.0
 30
0.0
  3
*D14
  1

  0
LINE
  5
7E56
330
794D
100
AcDbEntity
  8
30
  6
CONTINUOUS
 62
     0
100
AcDbLine
 10
552.5269590082993
 20
-142.1532506339481
 30
0.0
 11
552.5269590082993
 21
-194.7798123730099
 31
0.0
  0
LINE
  5
7E57
330
794D
100
AcDbEntity
  8
30
  6
CONTINUOUS
 62
     0
100
AcDbLine
 10
567.5269590082994
 20
-152.59359741211
 30
0.0
 11
567.5269590082994
 21
-194.7798123730099
 31
0.0
  0
LINE
  5
7E58
330
794D
100
AcDbEntity
  8
30
  6
CONTINUOUS
 62
     0
100
AcDbLine
 10
554.5269590082994
 20
-194.2798123730099
 30
0.0
 11
565.5269590082993
 21
-194.2798123730099
 31
0.0
  0
INSERT
  5
7E59
330
794D
100
AcDbEntity
  8
30
  6
CONTINUOUS
 62
     0
100
AcDbBlockReference
  2
_OPEN
 10
552.5269590082993
 20
-194.2798123730099
 30
0.0
 41
2.0
 42
2.0
 43
2.0
 50
180.0
  0
INSERT
  5
7E5A
330
794D
100
AcDbEntity
  8
30
  6
CONTINUOUS
 62
     0
100
AcDbBlockReference
  2
_OPEN
 10
567.5269590082994
 20
-194.2798123730099
 30
0.0
 41
2.0
 42
2.0
 43
2.0
  0
MTEXT
  5
7E5B
330
794D
100
AcDbEntity
  8
30
  6
CONTINUOUS
 62
     0
100
AcDbMText
 10
559.369046724285
 20
-189.2798123730099
 30
0.0
 40
6.0
 41
0.0
 71
     5
 72
     1
  1
\A1;15
1001
ACAD
1000
MTEXTBEGIN
1070
    73
1070
     1
1070
    44
1040
1.0
1070
    74
1070
     0
1000
MTEXTEND
  0
POINT
  5
7E5C
330
794D
100
AcDbEntity
  8
DEFPOINTS
  6
CONTINUOUS
 62
     0
100
AcDbPoint
 10
552.5269590082993
 20
-141.1532506339481
 30
0.0
  0
POINT
  5
7E5D
330
794D
100
AcDbEntity
  8
DEFPOINTS
  6
CONTINUOUS
 62
     0
100
AcDbPoint
 10
567.5269590082994
 20
-151.59359741211
 30
0.0
  0
POINT
  5
7E5E
330
794D
100
AcDbEntity
  8
DEFPOINTS
  6
CONTINUOUS
 62
     0
100
AcDbPoint
 10
567.5269590082994
 20
-194.2798123730099
 30
0.0
  0
ENDBLK
  5
7958
330
794D
100
AcDbEntity
  8
0
100
AcDbBlockEnd
  0
BLOCK
  5
7963
330
7959
100
AcDbEntity
  8
0
100
AcDbBlockBegin
  2
*D15
 70
     1
 10
0.0
 20
0.0
 30
0.0
  3
*D15
  1

  0
LINE
  5
7E3A
330
7959
100
AcDbEntity
  8
30
  6
CONTINUOUS
 62
     0
100
AcDbLine
 10
520.5269590082994
 20
-152.5
 30
0.0
 11
520.5269590082994
 21
-194.1090543427972
 31
0.0
  0
LINE
  5
7E3B
330
7959
100
AcDbEntity
  8
30
  6
CONTINUOUS
 62
     0
100
AcDbLine
 10
512.5269590082994
 20
-142.1532506339481
 30
0.0
 11
512.5269590082994
 21
-194.1090543427972
 31
0.0
  0
LINE
  5
7E3C
330
7959
100
AcDbEntity
  8
30
  6
CONTINUOUS
 62
     0
100
AcDbLine
 10
518.5269590082993
 20
-193.6090543427972
 30
0.0
 11
514.5269590082993
 21
-193.6090543427972
 31
0.0
  0
INSERT
  5
7E3D
330
7959
100
AcDbEntity
  8
30
  6
CONTINUOUS
 62
     0
100
AcDbBlockReference
  2
_OPEN
 10
520.5269590082994
 20
-193.6090543427972
 30
0.0
 41
2.0
 42
2.0
 43
2.0
  0
INSERT
  5
7E3E
330
7959
100
AcDbEntity
  8
30
  6
CONTINUOUS
 62
     0
100
AcDbBlockReference
  2
_OPEN
 10
512.5269590082994
 20
-193.6090543427972
 30
0.0
 41
2.0
 42
2.0
 43
2.0
 50
180.0
  0
MTEXT
  5
7E3F
330
7959
100
AcDbEntity
  8
30
  6
CONTINUOUS
 62
     0
100
AcDbMText
 10
516.9278396036443
 20
-188.6090543427972
 30
0.0
 40
6.0
 41
0.0
 71
     5
 72
     1
  1
\A1;8
1001
ACAD
1000
MTEXTBEGIN
1070
    73
1070
     1
1070
    44
1040
1.0
1070
    74
1070
     0
1000
MTEXTEND
  0
POINT
  5
7E40
330
7959
100
AcDbEntity
  8
DEFPOINTS
  6
CONTINUOUS
 62
     0
100
AcDbPoint
 10
520.5269590082994
 20
-151.5
 30
0.0
  0
POINT
  5
7E41
330
7959
100
AcDbEntity
  8
DEFPOINTS
  6
CONTINUOUS
 62
     0
100
AcDbPoint
 10
512.5269590082994
 20
-141.1532506339481
 30
0.0
  0
POINT
  5
7E42
330
7959
100
AcDbEntity
  8
DEFPOINTS
  6
CONTINUOUS
 62
     0
100
AcDbPoint
 10
512.5269590082994
 20
-193.6090543427972
 30
0.0
  0
ENDBLK
  5
7964
330
7959
100
AcDbEntity
  8
0
100
AcDbBlockEnd
  0
BLOCK
  5
796F
330
7965
100
AcDbEntity
  8
0
100
AcDbBlockBegin
  2
*D16
 70
     1
 10
0.0
 20
0.0
 30
0.0
  3
*D16
  1

  0
LINE
  5
7E43
330
7965
100
AcDbEntity
  8
30
  6
CONTINUOUS
 62
     0
100
AcDbLine
 10
520.5269590082994
 20
-142.1532506339481
 30
0.0
 11
520.5269590082994
 21
-194.6090543427972
 31
0.0
  0
LINE
  5
7E44
330
7965
100
AcDbEntity
  8
30
  6
CONTINUOUS
 62
     0
100
AcDbLine
 10
552.5269590082993
 20
-142.1532506339481
 30
0.0
 11
552.5269590082993
 21
-194.6090543427972
 31
0.0
  0
LINE
  5
7E45
330
7965
100
AcDbEntity
  8
30
  6
CONTINUOUS
 62
     0
100
AcDbLine
 10
522.5269590082993
 20
-194.1090543427972
 30
0.0
 11
550.5269590082994
 21
-194.1090543427972
 31
0.0
  0
INSERT
  5
7E46
330
7965
100
AcDbEntity
  8
30
  6
CONTINUOUS
 62
     0
100
AcDbBlockReference
  2
_OPEN
 10
520.5269590082994
 20
-194.1090543427972
 30
0.0
 41
2.0
 42
2.0
 43
2.0
 50
180.0
  0
INSERT
  5
7E47
330
7965
100
AcDbEntity
  8
30
  6
CONTINUOUS
 62
     0
100
AcDbBlockReference
  2
_OPEN
 10
552.5269590082993
 20
-194.1090543427972
 30
0.0
 41
2.0
 42
2.0
 43
2.0
  0
MTEXT
  5
7E48
330
7965
100
AcDbEntity
  8
30
  6
CONTINUOUS
 62
     0
100
AcDbMText
 10
537.3129202624722
 20
-189.1090543427972
 30
0.0
 40
6.0
 41
0.0
 71
     5
 72
     1
  1
\A1;32
1001
ACAD
1000
MTEXTBEGIN
1070
    73
1070
     1
1070
    44
1040
1.0
1070
    74
1070
     0
1000
MTEXTEND
  0
POINT
  5
7E49
330
7965
100
AcDbEntity
  8
DEFPOINTS
  6
CONTINUOUS
 62
     0
100
AcDbPoint
 10
520.5269590082994
 20
-141.1532506339481
 30
0.0
  0
POINT
  5
7E4A
330
7965
100
AcDbEntity
  8
DEFPOINTS
  6
CONTINUOUS
 62
     0
100
AcDbPoint
 10
552.5269590082993
 20
-141.1532506339481
 30
0.0
  0
POINT
  5
7E4B
330
7965
100
AcDbEntity
  8
DEFPOINTS
  6
CONTINUOUS
 62
     0
100
AcDbPoint
 10
552.5269590082993
 20
-194.1090543427972
 30
0.0
  0
ENDBLK
  5
7970
330
7965
100
AcDbEntity
  8
0
100
AcDbBlockEnd
  0
BLOCK
  5
797B
330
7971
100
AcDbEntity
  8
0
100
AcDbBlockBegin
  2
*D17
 70
     1
 10
0.0
 20
0.0
 30
0.0
  3
*D17
  1

  0
LINE
  5
83BE
330
7971
100
AcDbEntity
  8
30
  6
CONTINUOUS
 62
     0
100
AcDbLine
 10
449.0084373133763
 20
-0.0000000000000008
 30
0.0
 11
628.540655713846
 21
-0.0000000000000517
 31
0.0
  0
LINE
  5
83BF
330
7971
100
AcDbEntity
  8
30
  6
CONTINUOUS
 62
     0
100
AcDbLine
 10
568.5269590082993
 20
129.0
 30
0.0
 11
628.540655713846
 21
128.9999999999999
 31
0.0
  0
LINE
  5
83C0
330
7971
100
AcDbEntity
  8
30
  6
CONTINUOUS
 62
     0
100
AcDbLine
 10
628.040655713846
 20
1.999999999999948
 30
0.0
 11
628.040655713846
 21
126.9999999999999
 31
0.0
  0
INSERT
  5
83C1
330
7971
100
AcDbEntity
  8
30
  6
CONTINUOUS
 62
     0
100
AcDbBlockReference
  2
_OPEN
 10
628.040655713846
 20
-0.0000000000000516
 30
0.0
 41
2.0
 42
2.0
 43
2.0
 50
270.0
  0
INSERT
  5
83C2
330
7971
100
AcDbEntity
  8
30
  6
CONTINUOUS
 62
     0
100
AcDbBlockReference
  2
_OPEN
 10
628.040655713846
 20
128.9999999999999
 30
0.0
 41
2.0
 42
2.0
 43
2.0
 50
90.0
  0
MTEXT
  5
83C3
330
7971
100
AcDbEntity
  8
30
  6
CONTINUOUS
 62
     0
100
AcDbMText
 10
623.040655713846
 20
64.49999999999995
 30
0.0
 40
6.0
 41
0.0
 71
     5
 72
     1
  1
\A1;129
 11
0.0000000000000001
 21
1.0
 31
0.0
1001
ACAD
1000
MTEXTBEGIN
1070
    73
1070
     1
1070
    44
1040
1.0
1070
    74
1070
     0
1000
MTEXTEND
  0
POINT
  5
83C4
330
7971
100
AcDbEntity
  8
DEFPOINTS
  6
CONTINUOUS
 62
     0
100
AcDbPoint
 10
448.0084373133763
 20
-0.0000000000000006
 30
0.0
  0
POINT
  5
83C5
330
7971
100
AcDbEntity
  8
DEFPOINTS
  6
CONTINUOUS
 62
     0
100
AcDbPoint
 10
567.5269590082994
 20
129.0
 30
0.0
  0
POINT
  5
83C6
330
7971
100
AcDbEntity
  8
DEFPOINTS
  6
CONTINUOUS
 62
     0
100
AcDbPoint
 10
628.040655713846
 20
128.9999999999999
 30
0.0
  0
ENDBLK
  5
797C
330
7971
100
AcDbEntity
  8
0
100
AcDbBlockEnd
  0
BLOCK
  5
83A1
330
8398
100
AcDbEntity
  8
0
100
AcDbBlockBegin
  2
*D38
 70
     1
 10
0.0
 20
0.0
 30
0.0
  3
*D38
  1

  0
LINE
  5
8588
330
8398
100
AcDbEntity
  8
30
  6
CONTINUOUS
 62
     0
100
AcDbLine
 10
154.3919549172562
 20
-446.9404756563691
 30
0.0
 11
142.3919549172561
 21
-446.9404756563691
 31
0.0
  0
LINE
  5
8589
330
8398
100
AcDbEntity
  8
30
  6
CONTINUOUS
 62
     0
100
AcDbLine
 10
142.3919549172561
 20
-446.9404756563691
 30
0.0
 11
125.9043897204578
 21
-463.3968118832473
 31
0.0
  0
MTEXT
  5
858A
330
8398
100
AcDbEntity
  8
30
  6
CONTINUOUS
 62
     0
100
AcDbMText
 10
149.3919549172562
 20
-441.940475656369
 30
0.0
 40
6.0
 41
0.0
 71
     5
 72
     1
  1
\A1;\U+22059
1001
ACAD
1000
MTEXTBEGIN
1070
    73
1070
     1
1070
    44
1040
1.0
1070
    74
1070
     0
1000
MTEXTEND
  0
INSERT
  5
858B
330
8398
100
AcDbEntity
  8
30
  6
CONTINUOUS
 62
     0
100
AcDbBlockReference
  2
_OPEN
 10
124.4888361989917
 20
-464.8096842157194
 30
0.0
 41
2.0
 42
2.0
 43
2.0
 50
224.9456868324123
  0
LINE
  5
858C
330
8398
100
AcDbEntity
  8
30
  6
CONTINUOUS
 62
     0
100
AcDbLine
 10
121.2138407756932
 20
-467.9886469637815
 30
0.0
 11
121.3938407756932
 21
-467.9886469637815
 31
0.0
  0
LINE
  5
858D
330
8398
100
AcDbEntity
  8
30
  6
CONTINUOUS
 62
     0
100
AcDbLine
 10
121.3038407756932
 20
-468.0786469637816
 30
0.0
 11
121.3038407756932
 21
-467.8986469637815
 31
0.0
  0
POINT
  5
858E
330
8398
100
AcDbEntity
  8
DEFPOINTS
  6
CONTINUOUS
 62
     0
100
AcDbPoint
 10
124.4888361989917
 20
-464.8096842157194
 30
0.0
  0
POINT
  5
858F
330
8398
100
AcDbEntity
  8
DEFPOINTS
  6
CONTINUOUS
 62
     0
100
AcDbPoint
 10
118.1188453523947
 20
-471.1676097118438
 30
0.0
  0
ENDBLK
  5
83A2
330
8398
100
AcDbEntity
  8
0
100
AcDbBlockEnd
  0
BLOCK
  5
83D1
330
83C8
100
AcDbEntity
  8
0
100
AcDbBlockBegin
  2
*D39
 70
     1
 10
0.0
 20
0.0
 30
0.0
  3
*D39
  1

  0
LINE
  5
8580
330
83C8
100
AcDbEntity
  8
30
  6
CONTINUOUS
 62
     0
100
AcDbLine
 10
154.5879005185225
 20
114.8126555119193
 30
0.0
 11
142.5879005185224
 21
114.8126555119193
 31
0.0
  0
LINE
  5
8581
330
83C8
100
AcDbEntity
  8
30
  6
CONTINUOUS
 62
     0
100
AcDbLine
 10
142.5879005185224
 20
114.8126555119193
 30
0.0
 11
126.1003353217245
 21
98.35631928504122
 31
0.0
  0
MTEXT
  5
8582
330
83C8
100
AcDbEntity
  8
30
  6
CONTINUOUS
 62
     0
100
AcDbMText
 10
149.5879005185225
 20
119.8126555119193
 30
0.0
 40
6.0
 41
0.0
 71
     5
 72
     1
  1
\A1;M8
1001
ACAD
1000
MTEXTBEGIN
1070
    73
1070
     1
1070
    44
1040
1.0
1070
    74
1070
     0
1000
MTEXTEND
  0
INSERT
  5
8583
330
83C8
100
AcDbEntity
  8
30
  6
CONTINUOUS
 62
     0
100
AcDbBlockReference
  2
_OPEN
 10
124.6847818002585
 20
96.94344695256912
 30
0.0
 41
2.0
 42
2.0
 43
2.0
 50
224.9456868324128
  0
LINE
  5
8584
330
83C8
100
AcDbEntity
  8
30
  6
CONTINUOUS
 62
     0
100
AcDbLine
 10
121.40978637696
 20
93.76448420450685
 30
0.0
 11
121.58978637696
 21
93.76448420450689
 31
0.0
  0
LINE
  5
8585
330
83C8
100
AcDbEntity
  8
30
  6
CONTINUOUS
 62
     0
100
AcDbLine
 10
121.4997863769599
 20
93.67448420450683
 30
0.0
 11
121.4997863769599
 21
93.85448420450684
 31
0.0
  0
POINT
  5
8586
330
83C8
100
AcDbEntity
  8
DEFPOINTS
  6
CONTINUOUS
 62
     0
100
AcDbPoint
 10
124.6847818002585
 20
96.94344695256912
 30
0.0
  0
POINT
  5
8587
330
83C8
100
AcDbEntity
  8
DEFPOINTS
  6
CONTINUOUS
 62
     0
100
AcDbPoint
 10
118.3147909536614
 20
90.5855214564446
 30
0.0
  0
ENDBLK
  5
83D2
330
83C8
100
AcDbEntity
  8
0
100
AcDbBlockEnd
  0
BLOCK
  5
8406
330
83FC
100
AcDbEntity
  8
0
100
AcDbBlockBegin
  2
*D40
 70
     1
 10
0.0
 20
0.0
 30
0.0
  3
*D40
  1

  0
LINE
  5
83FD
330
83FC
100
AcDbEntity
  8
30
  6
CONTINUOUS
 62
     0
100
AcDbLine
 10
204.9135211240012
 20
388.0
 30
0.0
 11
239.131064002824
 21
388.0
 31
0.0
  0
LINE
  5
83FE
330
83FC
100
AcDbEntity
  8
30
  6
CONTINUOUS
 62
     0
100
AcDbLine
 10
163.4135211240012
 20
604.0
 30
0.0
 11
239.1310640028241
 21
604.0
 31
0.0
  0
LINE
  5
83FF
330
83FC
100
AcDbEntity
  8
30
  6
CONTINUOUS
 62
     0
100
AcDbLine
 10
238.6310640028241
 20
390.0
 30
0.0
 11
238.6310640028241
 21
602.0
 31
0.0
  0
INSERT
  5
8400
330
83FC
100
AcDbEntity
  8
30
  6
CONTINUOUS
 62
     0
100
AcDbBlockReference
  2
_OPEN
 10
238.6310640028241
 20
388.0
 30
0.0
 41
2.0
 42
2.0
 43
2.0
 50
270.0
  0
INSERT
  5
8401
330
83FC
100
AcDbEntity
  8
30
  6
CONTINUOUS
 62
     0
100
AcDbBlockReference
  2
_OPEN
 10
238.6310640028241
 20
604.0
 30
0.0
 41
2.0
 42
2.0
 43
2.0
 50
90.0
  0
MTEXT
  5
8402
330
83FC
100
AcDbEntity
  8
30
  6
CONTINUOUS
 62
     0
100
AcDbMText
 10
233.631064002824
 20
496.0
 30
0.0
 40
6.0
 41
0.0
 71
     5
 72
     1
  1
\A1;216
 11
0.0000000000000001
 21
1.0
 31
0.0
1001
ACAD
1000
MTEXTBEGIN
1070
    73
1070
     1
1070
    44
1040
1.0
1070
    74
1070
     0
1000
MTEXTEND
  0
POINT
  5
8403
330
83FC
100
AcDbEntity
  8
DEFPOINTS
  6
CONTINUOUS
 62
     0
100
AcDbPoint
 10
203.9135211240012
 20
388.0
 30
0.0
  0
POINT
  5
8404
330
83FC
100
AcDbEntity
  8
DEFPOINTS
  6
CONTINUOUS
 62
     0
100
AcDbPoint
 10
162.4135211240012
 20
604.0
 30
0.0
  0
POINT
  5
8405
330
83FC
100
AcDbEntity
  8
DEFPOINTS
  6
CONTINUOUS
 62
     0
100
AcDbPoint
 10
238.6310640028241
 20
604.0
 30
0.0
  0
ENDBLK
  5
8407
330
83FC
100
AcDbEntity
  8
0
100
AcDbBlockEnd
  0
BLOCK
  5
8413
330
8409
100
AcDbEntity
  8
0
100
AcDbBlockBegin
  2
*D41
 70
     1
 10
0.0
 20
0.0
 30
0.0
  3
*D41
  1

  0
LINE
  5
840A
330
8409
100
AcDbEntity
  8
30
  6
CONTINUOUS
 62
     0
100
AcDbLine
 10
351.5269590082994
 20
186.0
 30
0.0
 11
351.5269590082994
 21
258.4737345222993
 31
0.0
  0
LINE
  5
840B
330
8409
100
AcDbEntity
  8
30
  6
CONTINUOUS
 62
     0
100
AcDbLine
 10
445.0422177972994
 20
186.0
 30
0.0
 11
445.0422177972994
 21
258.4737345222993
 31
0.0
  0
LINE
  5
840C
330
8409
100
AcDbEntity
  8
30
  6
CONTINUOUS
 62
     0
100
AcDbLine
 10
353.5269590082994
 20
257.9737345222993
 30
0.0
 11
443.0422177972994
 21
257.9737345222993
 31
0.0
  0
INSERT
  5
840D
330
8409
100
AcDbEntity
  8
30
  6
CONTINUOUS
 62
     0
100
AcDbBlockReference
  2
_OPEN
 10
351.5269590082994
 20
257.9737345222993
 30
0.0
 41
2.0
 42
2.0
 43
2.0
 50
180.0
  0
INSERT
  5
840E
330
8409
100
AcDbEntity
  8
30
  6
CONTINUOUS
 62
     0
100
AcDbBlockReference
  2
_OPEN
 10
445.0422177972994
 20
257.9737345222993
 30
0.0
 41
2.0
 42
2.0
 43
2.0
  0
MTEXT
  5
840F
330
8409
100
AcDbEntity
  8
30
  6
CONTINUOUS
 62
     0
100
AcDbMText
 10
398.2845884027994
 20
262.9737345222993
 30
0.0
 40
6.0
 41
0.0
 71
     5
 72
     1
  1
\A1;93.5
1001
ACAD
1000
MTEXTBEGIN
1070
    73
1070
     1
1070
    44
1040
1.0
1070
    74
1070
     0
1000
MTEXTEND
  0
POINT
  5
8410
330
8409
100
AcDbEntity
  8
DEFPOINTS
  6
CONTINUOUS
 62
     0
100
AcDbPoint
 10
351.5269590082994
 20
185.0
 30
0.0
  0
POINT
  5
8411
330
8409
100
AcDbEntity
  8
DEFPOINTS
  6
CONTINUOUS
 62
     0
100
AcDbPoint
 10
445.0422177972994
 20
185.0
 30
0.0
  0
POINT
  5
8412
330
8409
100
AcDbEntity
  8
DEFPOINTS
  6
CONTINUOUS
 62
     0
100
AcDbPoint
 10
445.0422177972994
 20
257.9737345222993
 30
0.0
  0
ENDBLK
  5
8414
330
8409
100
AcDbEntity
  8
0
100
AcDbBlockEnd
  0
BLOCK
  5
8420
330
8416
100
AcDbEntity
  8
0
100
AcDbBlockBegin
  2
*D42
 70
     1
 10
0.0
 20
0.0
 30
0.0
  3
*D42
  1

  0
LINE
  5
8417
330
8416
100
AcDbEntity
  8
30
  6
CONTINUOUS
 62
     0
100
AcDbLine
 10
175.9135211240012
 20
388.0
 30
0.0
 11
207.2747278700807
 21
388.0
 31
0.0
  0
LINE
  5
8418
330
8416
100
AcDbEntity
  8
30
  6
CONTINUOUS
 62
     0
100
AcDbLine
 10
175.9135211240012
 20
481.515258789
 30
0.0
 11
207.2747278700808
 21
481.515258789
 31
0.0
  0
LINE
  5
8419
330
8416
100
AcDbEntity
  8
30
  6
CONTINUOUS
 62
     0
100
AcDbLine
 10
206.7747278700807
 20
390.0
 30
0.0
 11
206.7747278700808
 21
479.5152587889999
 31
0.0
  0
INSERT
  5
841A
330
8416
100
AcDbEntity
  8
30
  6
CONTINUOUS
 62
     0
100
AcDbBlockReference
  2
_OPEN
 10
206.7747278700807
 20
388.0
 30
0.0
 41
2.0
 42
2.0
 43
2.0
 50
270.0
  0
INSERT
  5
841B
330
8416
100
AcDbEntity
  8
30
  6
CONTINUOUS
 62
     0
100
AcDbBlockReference
  2
_OPEN
 10
206.7747278700808
 20
481.515258789
 30
0.0
 41
2.0
 42
2.0
 43
2.0
 50
90.0
  0
MTEXT
  5
841C
330
8416
100
AcDbEntity
  8
30
  6
CONTINUOUS
 62
     0
100
AcDbMText
 10
201.7747278700807
 20
434.7576293945
 30
0.0
 40
6.0
 41
0.0
 71
     5
 72
     1
  1
\A1;93.5
 11
0.0000000000000001
 21
1.0
 31
0.0
1001
ACAD
1000
MTEXTBEGIN
1070
    73
1070
     1
1070
    44
1040
1.0
1070
    74
1070
     0
1000
MTEXTEND
  0
POINT
  5
841D
330
8416
100
AcDbEntity
  8
DEFPOINTS
  6
CONTINUOUS
 62
     0
100
AcDbPoint
 10
174.9135211240012
 20
388.0
 30
0.0
  0
POINT
  5
841E
330
8416
100
AcDbEntity
  8
DEFPOINTS
  6
CONTINUOUS
 62
     0
100
AcDbPoint
 10
174.9135211240012
 20
481.515258789
 30
0.0
  0
POINT
  5
841F
330
8416
100
AcDbEntity
  8
DEFPOINTS
  6
CONTINUOUS
 62
     0
100
AcDbPoint
 10
206.7747278700808
 20
481.515258789
 30
0.0
  0
ENDBLK
  5
8421
330
8416
100
AcDbEntity
  8
0
100
AcDbBlockEnd
  0
BLOCK
  5
843D
330
8433
100
AcDbEntity
  8
0
100
AcDbBlockBegin
  2
*D43
 70
     1
 10
0.0
 20
0.0
 30
0.0
  3
*D43
  1

  0
LINE
  5
8434
330
8433
100
AcDbEntity
  8
30
  6
CONTINUOUS
 62
     0
100
AcDbLine
 10
-135.00015258792
 20
209.90640258789
 30
0.0
 11
-191.1442004540168
 21
209.90640258789
 31
0.0
  0
LINE
  5
8435
330
8433
100
AcDbEntity
  8
30
  6
CONTINUOUS
 62
     0
100
AcDbLine
 10
-135.00015258792
 20
-210.09359741211
 30
0.0
 11
-191.1442004540169
 21
-210.09359741211
 31
0.0
  0
LINE
  5
8436
330
8433
100
AcDbEntity
  8
30
  6
CONTINUOUS
 62
     0
100
AcDbLine
 10
-190.6442004540168
 20
207.90640258789
 30
0.0
 11
-190.6442004540169
 21
-208.09359741211
 31
0.0
  0
INSERT
  5
8437
330
8433
100
AcDbEntity
  8
30
  6
CONTINUOUS
 62
     0
100
AcDbBlockReference
  2
_OPEN
 10
-190.6442004540168
 20
209.90640258789
 30
0.0
 41
2.0
 42
2.0
 43
2.0
 50
90.0
  0
INSERT
  5
8438
330
8433
100
AcDbEntity
  8
30
  6
CONTINUOUS
 62
     0
100
AcDbBlockReference
  2
_OPEN
 10
-190.6442004540169
 20
-210.09359741211
 30
0.0
 41
2.0
 42
2.0
 43
2.0
 50
270.0
  0
MTEXT
  5
8439
330
8433
100
AcDbEntity
  8
30
  6
CONTINUOUS
 62
     0
100
AcDbMText
 10
-195.6442004540169
 20
-0.0935974121100307
 30
0.0
 40
6.0
 41
0.0
 71
     5
 72
     1
  1
\A1;420
 11
0.0000000000000001
 21
1.0
 31
0.0
1001
ACAD
1000
MTEXTBEGIN
1070
    73
1070
     1
1070
    44
1040
1.0
1070
    74
1070
     0
1000
MTEXTEND
  0
POINT
  5
843A
330
8433
100
AcDbEntity
  8
DEFPOINTS
  6
CONTINUOUS
 62
     0
100
AcDbPoint
 10
-134.00015258792
 20
209.90640258789
 30
0.0
  0
POINT
  5
843B
330
8433
100
AcDbEntity
  8
DEFPOINTS
  6
CONTINUOUS
 62
     0
100
AcDbPoint
 10
-134.00015258792
 20
-210.09359741211
 30
0.0
  0
POINT
  5
843C
330
8433
100
AcDbEntity
  8
DEFPOINTS
  6
CONTINUOUS
 62
     0
100
AcDbPoint
 10
-190.6442004540169
 20
-210.09359741211
 30
0.0
  0
ENDBLK
  5
843E
330
8433
100
AcDbEntity
  8
0
100
AcDbBlockEnd
  0
BLOCK
  5
8449
330
843F
100
AcDbEntity
  8
0
100
AcDbBlockBegin
  2
*D44
 70
     1
 10
0.0
 20
0.0
 30
0.0
  3
*D44
  1

  0
LINE
  5
8440
330
843F
100
AcDbEntity
  8
30
  6
CONTINUOUS
 62
     0
100
AcDbLine
 10
-134.00015258792
 20
-211.09359741211
 30
0.0
 11
-134.00015258792
 21
-253.9965349513349
 31
0.0
  0
LINE
  5
8441
330
843F
100
AcDbEntity
  8
30
  6
CONTINUOUS
 62
     0
100
AcDbLine
 10
133.9997863769599
 20
-211.09359741211
 30
0.0
 11
133.9997863769599
 21
-253.9965349513349
 31
0.0
  0
LINE
  5
8442
330
843F
100
AcDbEntity
  8
30
  6
CONTINUOUS
 62
     0
100
AcDbLine
 10
-132.00015258792
 20
-253.4965349513349
 30
0.0
 11
131.9997863769599
 21
-253.4965349513349
 31
0.0
  0
INSERT
  5
8443
330
843F
100
AcDbEntity
  8
30
  6
CONTINUOUS
 62
     0
100
AcDbBlockReference
  2
_OPEN
 10
-134.00015258792
 20
-253.4965349513349
 30
0.0
 41
2.0
 42
2.0
 43
2.0
 50
180.0
  0
INSERT
  5
8444
330
843F
100
AcDbEntity
  8
30
  6
CONTINUOUS
 62
     0
100
AcDbBlockReference
  2
_OPEN
 10
133.9997863769599
 20
-253.4965349513349
 30
0.0
 41
2.0
 42
2.0
 43
2.0
  0
MTEXT
  5
8445
330
843F
100
AcDbEntity
  8
30
  6
CONTINUOUS
 62
     0
100
AcDbMText
 10
-0.0001831054800615
 20
-248.4965349513349
 30
0.0
 40
6.0
 41
0.0
 71
     5
 72
     1
  1
\A1;268
1001
ACAD
1000
MTEXTBEGIN
1070
    73
1070
     1
1070
    44
1040
1.0
1070
    74
1070
     0
1000
MTEXTEND
  0
POINT
  5
8446
330
843F
100
AcDbEntity
  8
DEFPOINTS
  6
CONTINUOUS
 62
     0
100
AcDbPoint
 10
-134.00015258792
 20
-210.09359741211
 30
0.0
  0
POINT
  5
8447
330
843F
100
AcDbEntity
  8
DEFPOINTS
  6
CONTINUOUS
 62
     0
100
AcDbPoint
 10
133.9997863769599
 20
-210.09359741211
 30
0.0
  0
POINT
  5
8448
330
843F
100
AcDbEntity
  8
DEFPOINTS
  6
CONTINUOUS
 62
     0
100
AcDbPoint
 10
133.9997863769599
 20
-253.4965349513349
 30
0.0
  0
ENDBLK
  5
844A
330
843F
100
AcDbEntity
  8
0
100
AcDbBlockEnd
  0
BLOCK
  5
8455
330
844B
100
AcDbEntity
  8
0
100
AcDbBlockBegin
  2
*D45
 70
     1
 10
0.0
 20
0.0
 30
0.0
  3
*D45
  1

  0
LINE
  5
844C
330
844B
100
AcDbEntity
  8
30
  6
CONTINUOUS
 62
     0
100
AcDbLine
 10
-113.0
 20
-353.7821222429656
 30
0.0
 11
-188.4999999999999
 21
-353.7821222429656
 31
0.0
  0
LINE
  5
844D
330
844B
100
AcDbEntity
  8
30
  6
CONTINUOUS
 62
     0
100
AcDbLine
 10
-113.0
 20
-763.7821222429657
 30
0.0
 11
-188.4999999999999
 21
-763.7821222429657
 31
0.0
  0
LINE
  5
844E
330
844B
100
AcDbEntity
  8
30
  6
CONTINUOUS
 62
     0
100
AcDbLine
 10
-187.9999999999999
 20
-355.7821222429656
 30
0.0
 11
-188.0
 21
-761.7821222429657
 31
0.0
  0
INSERT
  5
844F
330
844B
100
AcDbEntity
  8
30
  6
CONTINUOUS
 62
     0
100
AcDbBlockReference
  2
_OPEN
 10
-187.9999999999999
 20
-353.7821222429656
 30
0.0
 41
2.0
 42
2.0
 43
2.0
 50
90.0
  0
INSERT
  5
8450
330
844B
100
AcDbEntity
  8
30
  6
CONTINUOUS
 62
     0
100
AcDbBlockReference
  2
_OPEN
 10
-188.0
 20
-763.7821222429657
 30
0.0
 41
2.0
 42
2.0
 43
2.0
 50
270.0
  0
MTEXT
  5
8451
330
844B
100
AcDbEntity
  8
30
  6
CONTINUOUS
 62
     0
100
AcDbMText
 10
-192.9999999999998
 20
-558.7821222429656
 30
0.0
 40
6.0
 41
0.0
 71
     5
 72
     1
  1
\A1;410
 11
0.0000000000000001
 21
1.0
 31
0.0
1001
ACAD
1000
MTEXTBEGIN
1070
    73
1070
     1
1070
    44
1040
1.0
1070
    74
1070
     0
1000
MTEXTEND
  0
POINT
  5
8452
330
844B
100
AcDbEntity
  8
DEFPOINTS
  6
CONTINUOUS
 62
     0
100
AcDbPoint
 10
-112.0
 20
-353.7821222429656
 30
0.0
  0
POINT
  5
8453
330
844B
100
AcDbEntity
  8
DEFPOINTS
  6
CONTINUOUS
 62
     0
100
AcDbPoint
 10
-112.0
 20
-763.7821222429657
 30
0.0
  0
POINT
  5
8454
330
844B
100
AcDbEntity
  8
DEFPOINTS
  6
CONTINUOUS
 62
     0
100
AcDbPoint
 10
-188.0
 20
-763.7821222429657
 30
0.0
  0
ENDBLK
  5
8456
330
844B
100
AcDbEntity
  8
0
100
AcDbBlockEnd
  0
BLOCK
  5
8461
330
8457
100
AcDbEntity
  8
0
100
AcDbBlockBegin
  2
*D46
 70
     1
 10
0.0
 20
0.0
 30
0.0
  3
*D46
  1

  0
LINE
  5
8458
330
8457
100
AcDbEntity
  8
30
  6
CONTINUOUS
 62
     0
100
AcDbLine
 10
-137.5
 20
-469.3467290092333
 30
0.0
 11
-162.4999999999999
 21
-469.3467290092333
 31
0.0
  0
LINE
  5
8459
330
8457
100
AcDbEntity
  8
30
  6
CONTINUOUS
 62
     0
100
AcDbLine
 10
-137.5
 20
-654.3467595268132
 30
0.0
 11
-162.5
 21
-654.3467595268132
 31
0.0
  0
LINE
  5
845A
330
8457
100
AcDbEntity
  8
30
  6
CONTINUOUS
 62
     0
100
AcDbLine
 10
-161.9999999999999
 20
-471.3467290092332
 30
0.0
 11
-162.0
 21
-652.3467595268132
 31
0.0
  0
INSERT
  5
845B
330
8457
100
AcDbEntity
  8
30
  6
CONTINUOUS
 62
     0
100
AcDbBlockReference
  2
_OPEN
 10
-161.9999999999999
 20
-469.3467290092333
 30
0.0
 41
2.0
 42
2.0
 43
2.0
 50
90.0
  0
INSERT
  5
845C
330
8457
100
AcDbEntity
  8
30
  6
CONTINUOUS
 62
     0
100
AcDbBlockReference
  2
_OPEN
 10
-162.0
 20
-654.3467595268132
 30
0.0
 41
2.0
 42
2.0
 43
2.0
 50
270.0
  0
MTEXT
  5
845D
330
8457
100
AcDbEntity
  8
30
  6
CONTINUOUS
 62
     0
100
AcDbMText
 10
-166.9999999999998
 20
-561.8467442680232
 30
0.0
 40
6.0
 41
0.0
 71
     5
 72
     1
  1
\A1;185
 11
0.0000000000000001
 21
1.0
 31
0.0
1001
ACAD
1000
MTEXTBEGIN
1070
    73
1070
     1
1070
    44
1040
1.0
1070
    74
1070
     0
1000
MTEXTEND
  0
POINT
  5
845E
330
8457
100
AcDbEntity
  8
DEFPOINTS
  6
CONTINUOUS
 62
     0
100
AcDbPoint
 10
-136.4999999999999
 20
-469.3467290092333
 30
0.0
  0
POINT
  5
845F
330
8457
100
AcDbEntity
  8
DEFPOINTS
  6
CONTINUOUS
 62
     0
100
AcDbPoint
 10
-136.4999999999999
 20
-654.3467595268132
 30
0.0
  0
POINT
  5
8460
330
8457
100
AcDbEntity
  8
DEFPOINTS
  6
CONTINUOUS
 62
     0
100
AcDbPoint
 10
-162.0
 20
-654.3467595268132
 30
0.0
  0
ENDBLK
  5
8462
330
8457
100
AcDbEntity
  8
0
100
AcDbBlockEnd
  0
BLOCK
  5
846D
330
8463
100
AcDbEntity
  8
0
100
AcDbBlockBegin
  2
*D47
 70
     1
 10
0.0
 20
0.0
 30
0.0
  3
*D47
  1

  0
LINE
  5
8464
330
8463
100
AcDbEntity
  8
30
  6
CONTINUOUS
 62
     0
100
AcDbLine
 10
-112.0
 20
-764.7821222429658
 30
0.0
 11
-112.0
 21
-788.514177673762
 31
0.0
  0
LINE
  5
8465
330
8463
100
AcDbEntity
  8
30
  6
CONTINUOUS
 62
     0
100
AcDbLine
 10
114.0
 20
-764.7821219112155
 30
0.0
 11
114.0
 21
-788.514177673762
 31
0.0
  0
LINE
  5
8466
330
8463
100
AcDbEntity
  8
30
  6
CONTINUOUS
 62
     0
100
AcDbLine
 10
-110.0
 20
-788.014177673762
 30
0.0
 11
112.0
 21
-788.014177673762
 31
0.0
  0
INSERT
  5
8467
330
8463
100
AcDbEntity
  8
30
  6
CONTINUOUS
 62
     0
100
AcDbBlockReference
  2
_OPEN
 10
-112.0
 20
-788.014177673762
 30
0.0
 41
2.0
 42
2.0
 43
2.0
 50
180.0
  0
INSERT
  5
8468
330
8463
100
AcDbEntity
  8
30
  6
CONTINUOUS
 62
     0
100
AcDbBlockReference
  2
_OPEN
 10
114.0
 20
-788.014177673762
 30
0.0
 41
2.0
 42
2.0
 43
2.0
  0
MTEXT
  5
8469
330
8463
100
AcDbEntity
  8
30
  6
CONTINUOUS
 62
     0
100
AcDbMText
 10
1.0
 20
-783.0141776737621
 30
0.0
 40
6.0
 41
0.0
 71
     5
 72
     1
  1
\A1;226
1001
ACAD
1000
MTEXTBEGIN
1070
    73
1070
     1
1070
    44
1040
1.0
1070
    74
1070
     0
1000
MTEXTEND
  0
POINT
  5
846A
330
8463
100
AcDbEntity
  8
DEFPOINTS
  6
CONTINUOUS
 62
     0
100
AcDbPoint
 10
-112.0
 20
-763.7821222429657
 30
0.0
  0
POINT
  5
846B
330
8463
100
AcDbEntity
  8
DEFPOINTS
  6
CONTINUOUS
 62
     0
100
AcDbPoint
 10
114.0
 20
-763.7821219112155
 30
0.0
  0
POINT
  5
846C
330
8463
100
AcDbEntity
  8
DEFPOINTS
  6
CONTINUOUS
 62
     0
100
AcDbPoint
 10
114.0
 20
-788.014177673762
 30
0.0
  0
ENDBLK
  5
846E
330
8463
100
AcDbEntity
  8
0
100
AcDbBlockEnd
  0
BLOCK
  5
8479
330
846F
100
AcDbEntity
  8
0
100
AcDbBlockBegin
  2
*D48
 70
     1
 10
0.0
 20
0.0
 30
0.0
  3
*D48
  1

  0
LINE
  5
8470
330
846F
100
AcDbEntity
  8
30
  6
CONTINUOUS
 62
     0
100
AcDbLine
 10
-121.5
 20
-670.3467595268132
 30
0.0
 11
-121.5
 21
-808.3662488028705
 31
0.0
  0
LINE
  5
8471
330
846F
100
AcDbEntity
  8
30
  6
CONTINUOUS
 62
     0
100
AcDbLine
 10
123.5
 20
-670.3467591334104
 30
0.0
 11
123.4999999999999
 21
-808.3662488028705
 31
0.0
  0
LINE
  5
8472
330
846F
100
AcDbEntity
  8
30
  6
CONTINUOUS
 62
     0
100
AcDbLine
 10
-119.5
 20
-807.8662488028706
 30
0.0
 11
121.4999999999999
 21
-807.8662488028706
 31
0.0
  0
INSERT
  5
8473
330
846F
100
AcDbEntity
  8
30
  6
CONTINUOUS
 62
     0
100
AcDbBlockReference
  2
_OPEN
 10
-121.5
 20
-807.8662488028706
 30
0.0
 41
2.0
 42
2.0
 43
2.0
 50
180.0
  0
INSERT
  5
8474
330
846F
100
AcDbEntity
  8
30
  6
CONTINUOUS
 62
     0
100
AcDbBlockReference
  2
_OPEN
 10
123.4999999999999
 20
-807.8662488028706
 30
0.0
 41
2.0
 42
2.0
 43
2.0
  0
MTEXT
  5
8475
330
846F
100
AcDbEntity
  8
30
  6
CONTINUOUS
 62
     0
100
AcDbMText
 10
0.9999999999999861
 20
-802.8662488028706
 30
0.0
 40
6.0
 41
0.0
 71
     5
 72
     1
  1
\A1;245
1001
ACAD
1000
MTEXTBEGIN
1070
    73
1070
     1
1070
    44
1040
1.0
1070
    74
1070
     0
1000
MTEXTEND
  0
POINT
  5
8476
330
846F
100
AcDbEntity
  8
DEFPOINTS
  6
CONTINUOUS
 62
     0
100
AcDbPoint
 10
-121.5
 20
-669.3467595268132
 30
0.0
  0
POINT
  5
8477
330
846F
100
AcDbEntity
  8
DEFPOINTS
  6
CONTINUOUS
 62
     0
100
AcDbPoint
 10
123.5
 20
-669.3467591334104
 30
0.0
  0
POINT
  5
8478
330
846F
100
AcDbEntity
  8
DEFPOINTS
  6
CONTINUOUS
 62
     0
100
AcDbPoint
 10
123.4999999999999
 20
-807.8662488028706
 30
0.0
  0
ENDBLK
  5
847A
330
846F
100
AcDbEntity
  8
0
100
AcDbBlockEnd
  0
BLOCK
  5
8485
330
847B
100
AcDbEntity
  8
0
100
AcDbBlockBegin
  2
*D49
 70
     1
 10
0.0
 20
0.0
 30
0.0
  3
*D49
  1

  0
LINE
  5
847C
330
847B
100
AcDbEntity
  8
30
  6
CONTINUOUS
 62
     0
100
AcDbLine
 10
1.0
 20
-0.0000001967014217
 30
0.0
 11
63.10315311051636
 21
-0.0000001967014392
 31
0.0
  0
LINE
  5
847D
330
847B
100
AcDbEntity
  8
30
  6
CONTINUOUS
 62
     0
100
AcDbLine
 10
0.8999999999999772
 20
-14.99359760881142
 30
0.0
 11
63.10315311051636
 21
-14.99359760881144
 31
0.0
  0
LINE
  5
847E
330
847B
100
AcDbEntity
  8
30
  6
CONTINUOUS
 62
     0
100
AcDbLine
 10
62.60315311051636
 20
-2.000000196701439
 30
0.0
 11
62.60315311051636
 21
-12.99359760881144
 31
0.0
  0
INSERT
  5
847F
330
847B
100
AcDbEntity
  8
30
  6
CONTINUOUS
 62
     0
100
AcDbBlockReference
  2
_OPEN
 10
62.60315311051636
 20
-0.0000001967014391
 30
0.0
 41
2.0
 42
2.0
 43
2.0
 50
90.0
  0
INSERT
  5
8480
330
847B
100
AcDbEntity
  8
30
  6
CONTINUOUS
 62
     0
100
AcDbBlockReference
  2
_OPEN
 10
62.60315311051636
 20
-14.99359760881144
 30
0.0
 41
2.0
 42
2.0
 43
2.0
 50
270.0
  0
MTEXT
  5
8481
330
847B
100
AcDbEntity
  8
30
  6
CONTINUOUS
 62
     0
100
AcDbMText
 10
57.60315311051636
 20
-7.496798902756431
 30
0.0
 40
6.0
 41
0.0
 71
     5
 72
     1
  1
\A1;15
 11
0.0000000000000001
 21
1.0
 31
0.0
1001
ACAD
1000
MTEXTBEGIN
1070
    73
1070
     1
1070
    44
1040
1.0
1070
    74
1070
     0
1000
MTEXTEND
  0
POINT
  5
8482
330
847B
100
AcDbEntity
  8
DEFPOINTS
  6
CONTINUOUS
 62
     0
100
AcDbPoint
 10
0.0
 20
-0.0000001967014214
 30
0.0
  0
POINT
  5
8483
330
847B
100
AcDbEntity
  8
DEFPOINTS
  6
CONTINUOUS
 62
     0
100
AcDbPoint
 10
-0.1000000000000227
 20
-14.99359760881142
 30
0.0
  0
POINT
  5
8484
330
847B
100
AcDbEntity
  8
DEFPOINTS
  6
CONTINUOUS
 62
     0
100
AcDbPoint
 10
62.60315311051636
 20
-14.99359760881144
 30
0.0
  0
ENDBLK
  5
8486
330
847B
100
AcDbEntity
  8
0
100
AcDbBlockEnd
  0
BLOCK
  5
84E7
330
84DD
100
AcDbEntity
  8
0
100
AcDbBlockBegin
  2
*D51
 70
     1
 10
0.0
 20
0.0
 30
0.0
  3
*D51
  1

  0
LINE
  5
8531
330
84DD
100
AcDbEntity
  8
30
  6
CONTINUOUS
 62
     0
100
AcDbLine
 10
-136.0001525879201
 20
209.9064025868478
 30
0.0
 11
-192.1442004540169
 21
209.9064025868479
 31
0.0
  0
LINE
  5
8532
330
84DD
100
AcDbEntity
  8
30
  6
CONTINUOUS
 62
     0
100
AcDbLine
 10
-136.0001525879201
 20
-210.0935974131522
 30
0.0
 11
-192.144200454017
 21
-210.0935974131521
 31
0.0
  0
LINE
  5
8533
330
84DD
100
AcDbEntity
  8
30
  6
CONTINUOUS
 62
     0
100
AcDbLine
 10
-191.6442004540169
 20
207.9064025868478
 30
0.0
 11
-191.644200454017
 21
-208.0935974131522
 31
0.0
  0
INSERT
  5
8534
330
84DD
100
AcDbEntity
  8
30
  6
CONTINUOUS
 62
     0
100
AcDbBlockReference
  2
_OPEN
 10
-191.6442004540169
 20
209.9064025868478
 30
0.0
 41
2.0
 42
2.0
 43
2.0
 50
90.0
  0
INSERT
  5
8535
330
84DD
100
AcDbEntity
  8
30
  6
CONTINUOUS
 62
     0
100
AcDbBlockReference
  2
_OPEN
 10
-191.644200454017
 20
-210.0935974131522
 30
0.0
 41
2.0
 42
2.0
 43
2.0
 50
270.0
  0
MTEXT
  5
8536
330
84DD
100
AcDbEntity
  8
30
  6
CONTINUOUS
 62
     0
100
AcDbMText
 10
-196.6442004540169
 20
-0.0935974131521836
 30
0.0
 40
6.0
 41
0.0
 71
     5
 72
     1
  1
\A1;420
 11
0.0000000000000001
 21
1.0
 31
0.0
1001
ACAD
1000
MTEXTBEGIN
1070
    73
1070
     1
1070
    44
1040
1.0
1070
    74
1070
     0
1000
MTEXTEND
  0
POINT
  5
8537
330
84DD
100
AcDbEntity
  8
DEFPOINTS
  6
CONTINUOUS
 62
     0
100
AcDbPoint
 10
-135.0001525879201
 20
209.9064025868478
 30
0.0
  0
POINT
  5
8538
330
84DD
100
AcDbEntity
  8
DEFPOINTS
  6
CONTINUOUS
 62
     0
100
AcDbPoint
 10
-135.0001525879201
 20
-210.0935974131522
 30
0.0
  0
POINT
  5
8539
330
84DD
100
AcDbEntity
  8
DEFPOINTS
  6
CONTINUOUS
 62
     0
100
AcDbPoint
 10
-191.644200454017
 20
-210.0935974131522
 30
0.0
  0
ENDBLK
  5
84E8
330
84DD
100
AcDbEntity
  8
0
100
AcDbBlockEnd
  0
BLOCK
  5
84F3
330
84E9
100
AcDbEntity
  8
0
100
AcDbBlockBegin
  2
*D52
 70
     1
 10
0.0
 20
0.0
 30
0.0
  3
*D52
  1

  0
LINE
  5
853A
330
84E9
100
AcDbEntity
  8
30
  6
CONTINUOUS
 62
     0
100
AcDbLine
 10
-114.0
 20
-353.7821222440078
 30
0.0
 11
-189.4999999999999
 21
-353.7821222440078
 31
0.0
  0
LINE
  5
853B
330
84E9
100
AcDbEntity
  8
30
  6
CONTINUOUS
 62
     0
100
AcDbLine
 10
-114.0
 20
-763.7821222440079
 30
0.0
 11
-189.5
 21
-763.7821222440079
 31
0.0
  0
LINE
  5
853C
330
84E9
100
AcDbEntity
  8
30
  6
CONTINUOUS
 62
     0
100
AcDbLine
 10
-188.9999999999999
 20
-355.7821222440078
 30
0.0
 11
-189.0
 21
-761.7821222440079
 31
0.0
  0
INSERT
  5
853D
330
84E9
100
AcDbEntity
  8
30
  6
CONTINUOUS
 62
     0
100
AcDbBlockReference
  2
_OPEN
 10
-188.9999999999999
 20
-353.7821222440078
 30
0.0
 41
2.0
 42
2.0
 43
2.0
 50
90.0
  0
INSERT
  5
853E
330
84E9
100
AcDbEntity
  8
30
  6
CONTINUOUS
 62
     0
100
AcDbBlockReference
  2
_OPEN
 10
-189.0
 20
-763.7821222440079
 30
0.0
 41
2.0
 42
2.0
 43
2.0
 50
270.0
  0
MTEXT
  5
853F
330
84E9
100
AcDbEntity
  8
30
  6
CONTINUOUS
 62
     0
100
AcDbMText
 10
-193.9999999999998
 20
-558.7821222440079
 30
0.0
 40
6.0
 41
0.0
 71
     5
 72
     1
  1
\A1;410
 11
0.0000000000000001
 21
1.0
 31
0.0
1001
ACAD
1000
MTEXTBEGIN
1070
    73
1070
     1
1070
    44
1040
1.0
1070
    74
1070
     0
1000
MTEXTEND
  0
POINT
  5
8540
330
84E9
100
AcDbEntity
  8
DEFPOINTS
  6
CONTINUOUS
 62
     0
100
AcDbPoint
 10
-113.0
 20
-353.7821222440078
 30
0.0
  0
POINT
  5
8541
330
84E9
100
AcDbEntity
  8
DEFPOINTS
  6
CONTINUOUS
 62
     0
100
AcDbPoint
 10
-113.0
 20
-763.7821222440079
 30
0.0
  0
POINT
  5
8542
330
84E9
100
AcDbEntity
  8
DEFPOINTS
  6
CONTINUOUS
 62
     0
100
AcDbPoint
 10
-189.0
 20
-763.7821222440079
 30
0.0
  0
ENDBLK
  5
84F4
330
84E9
100
AcDbEntity
  8
0
100
AcDbBlockEnd
  0
BLOCK
  5
84FF
330
84F5
100
AcDbEntity
  8
0
100
AcDbBlockBegin
  2
*D53
 70
     1
 10
0.0
 20
0.0
 30
0.0
  3
*D53
  1

  0
LINE
  5
8543
330
84F5
100
AcDbEntity
  8
30
  6
CONTINUOUS
 62
     0
100
AcDbLine
 10
-135.0001525879201
 20
-211.0935974131522
 30
0.0
 11
-135.0001525879201
 21
-253.9965349523771
 31
0.0
  0
LINE
  5
8544
330
84F5
100
AcDbEntity
  8
30
  6
CONTINUOUS
 62
     0
100
AcDbLine
 10
132.9997863769599
 20
-211.0935974131522
 30
0.0
 11
132.9997863769599
 21
-253.9965349523771
 31
0.0
  0
LINE
  5
8545
330
84F5
100
AcDbEntity
  8
30
  6
CONTINUOUS
 62
     0
100
AcDbLine
 10
-133.0001525879201
 20
-253.4965349523771
 30
0.0
 11
130.9997863769599
 21
-253.4965349523771
 31
0.0
  0
INSERT
  5
8546
330
84F5
100
AcDbEntity
  8
30
  6
CONTINUOUS
 62
     0
100
AcDbBlockReference
  2
_OPEN
 10
-135.0001525879201
 20
-253.4965349523771
 30
0.0
 41
2.0
 42
2.0
 43
2.0
 50
180.0
  0
INSERT
  5
8547
330
84F5
100
AcDbEntity
  8
30
  6
CONTINUOUS
 62
     0
100
AcDbBlockReference
  2
_OPEN
 10
132.9997863769599
 20
-253.4965349523771
 30
0.0
 41
2.0
 42
2.0
 43
2.0
  0
MTEXT
  5
8548
330
84F5
100
AcDbEntity
  8
30
  6
CONTINUOUS
 62
     0
100
AcDbMText
 10
-1.00018310548009
 20
-248.4965349523771
 30
0.0
 40
6.0
 41
0.0
 71
     5
 72
     1
  1
\A1;268
1001
ACAD
1000
MTEXTBEGIN
1070
    73
1070
     1
1070
    44
1040
1.0
1070
    74
1070
     0
1000
MTEXTEND
  0
POINT
  5
8549
330
84F5
100
AcDbEntity
  8
DEFPOINTS
  6
CONTINUOUS
 62
     0
100
AcDbPoint
 10
-135.0001525879201
 20
-210.0935974131522
 30
0.0
  0
POINT
  5
854A
330
84F5
100
AcDbEntity
  8
DEFPOINTS
  6
CONTINUOUS
 62
     0
100
AcDbPoint
 10
132.9997863769599
 20
-210.0935974131522
 30
0.0
  0
POINT
  5
854B
330
84F5
100
AcDbEntity
  8
DEFPOINTS
  6
CONTINUOUS
 62
     0
100
AcDbPoint
 10
132.9997863769599
 20
-253.4965349523771
 30
0.0
  0
ENDBLK
  5
8500
330
84F5
100
AcDbEntity
  8
0
100
AcDbBlockEnd
  0
BLOCK
  5
850B
330
8501
100
AcDbEntity
  8
0
100
AcDbBlockBegin
  2
*D54
 70
     1
 10
0.0
 20
0.0
 30
0.0
  3
*D54
  1

  0
LINE
  5
854C
330
8501
100
AcDbEntity
  8
30
  6
CONTINUOUS
 62
     0
100
AcDbLine
 10
-138.5
 20
-469.3467290102754
 30
0.0
 11
-163.4999999999999
 21
-469.3467290102754
 31
0.0
  0
LINE
  5
854D
330
8501
100
AcDbEntity
  8
30
  6
CONTINUOUS
 62
     0
100
AcDbLine
 10
-138.5
 20
-654.3467595278554
 30
0.0
 11
-163.5
 21
-654.3467595278554
 31
0.0
  0
LINE
  5
854E
330
8501
100
AcDbEntity
  8
30
  6
CONTINUOUS
 62
     0
100
AcDbLine
 10
-163.0
 20
-471.3467290102754
 30
0.0
 11
-163.0
 21
-652.3467595278553
 31
0.0
  0
INSERT
  5
854F
330
8501
100
AcDbEntity
  8
30
  6
CONTINUOUS
 62
     0
100
AcDbBlockReference
  2
_OPEN
 10
-163.0
 20
-469.3467290102754
 30
0.0
 41
2.0
 42
2.0
 43
2.0
 50
90.0
  0
INSERT
  5
8550
330
8501
100
AcDbEntity
  8
30
  6
CONTINUOUS
 62
     0
100
AcDbBlockReference
  2
_OPEN
 10
-163.0
 20
-654.3467595278554
 30
0.0
 41
2.0
 42
2.0
 43
2.0
 50
270.0
  0
MTEXT
  5
8551
330
8501
100
AcDbEntity
  8
30
  6
CONTINUOUS
 62
     0
100
AcDbMText
 10
-167.9999999999999
 20
-561.8467442690654
 30
0.0
 40
6.0
 41
0.0
 71
     5
 72
     1
  1
\A1;185
 11
0.0000000000000001
 21
1.0
 31
0.0
1001
ACAD
1000
MTEXTBEGIN
1070
    73
1070
     1
1070
    44
1040
1.0
1070
    74
1070
     0
1000
MTEXTEND
  0
POINT
  5
8552
330
8501
100
AcDbEntity
  8
DEFPOINTS
  6
CONTINUOUS
 62
     0
100
AcDbPoint
 10
-137.5
 20
-469.3467290102754
 30
0.0
  0
POINT
  5
8553
330
8501
100
AcDbEntity
  8
DEFPOINTS
  6
CONTINUOUS
 62
     0
100
AcDbPoint
 10
-137.5
 20
-654.3467595278554
 30
0.0
  0
POINT
  5
8554
330
8501
100
AcDbEntity
  8
DEFPOINTS
  6
CONTINUOUS
 62
     0
100
AcDbPoint
 10
-163.0
 20
-654.3467595278554
 30
0.0
  0
ENDBLK
  5
850C
330
8501
100
AcDbEntity
  8
0
100
AcDbBlockEnd
  0
BLOCK
  5
8517
330
850D
100
AcDbEntity
  8
0
100
AcDbBlockBegin
  2
*D55
 70
     1
 10
0.0
 20
0.0
 30
0.0
  3
*D55
  1

  0
LINE
  5
8555
330
850D
100
AcDbEntity
  8
30
  6
CONTINUOUS
 62
     0
100
AcDbLine
 10
-122.5
 20
-670.3467595278554
 30
0.0
 11
-122.5
 21
-808.3662488039127
 31
0.0
  0
LINE
  5
8556
330
850D
100
AcDbEntity
  8
30
  6
CONTINUOUS
 62
     0
100
AcDbLine
 10
122.4999999999999
 20
-670.3467591344526
 30
0.0
 11
122.4999999999999
 21
-808.3662488039127
 31
0.0
  0
LINE
  5
8557
330
850D
100
AcDbEntity
  8
30
  6
CONTINUOUS
 62
     0
100
AcDbLine
 10
-120.5
 20
-807.8662488039126
 30
0.0
 11
120.4999999999999
 21
-807.8662488039126
 31
0.0
  0
INSERT
  5
8558
330
850D
100
AcDbEntity
  8
30
  6
CONTINUOUS
 62
     0
100
AcDbBlockReference
  2
_OPEN
 10
-122.5
 20
-807.8662488039126
 30
0.0
 41
2.0
 42
2.0
 43
2.0
 50
180.0
  0
INSERT
  5
8559
330
850D
100
AcDbEntity
  8
30
  6
CONTINUOUS
 62
     0
100
AcDbBlockReference
  2
_OPEN
 10
122.4999999999999
 20
-807.8662488039126
 30
0.0
 41
2.0
 42
2.0
 43
2.0
  0
MTEXT
  5
855A
330
850D
100
AcDbEntity
  8
30
  6
CONTINUOUS
 62
     0
100
AcDbMText
 10
-0.0000000000000423
 20
-802.8662488039127
 30
0.0
 40
6.0
 41
0.0
 71
     5
 72
     1
  1
\A1;245
1001
ACAD
1000
MTEXTBEGIN
1070
    73
1070
     1
1070
    44
1040
1.0
1070
    74
1070
     0
1000
MTEXTEND
  0
POINT
  5
855B
330
850D
100
AcDbEntity
  8
DEFPOINTS
  6
CONTINUOUS
 62
     0
100
AcDbPoint
 10
-122.5
 20
-669.3467595278554
 30
0.0
  0
POINT
  5
855C
330
850D
100
AcDbEntity
  8
DEFPOINTS
  6
CONTINUOUS
 62
     0
100
AcDbPoint
 10
122.4999999999999
 20
-669.3467591344525
 30
0.0
  0
POINT
  5
855D
330
850D
100
AcDbEntity
  8
DEFPOINTS
  6
CONTINUOUS
 62
     0
100
AcDbPoint
 10
122.4999999999999
 20
-807.8662488039126
 30
0.0
  0
ENDBLK
  5
8518
330
850D
100
AcDbEntity
  8
0
100
AcDbBlockEnd
  0
BLOCK
  5
8523
330
8519
100
AcDbEntity
  8
0
100
AcDbBlockBegin
  2
*D56
 70
     1
 10
0.0
 20
0.0
 30
0.0
  3
*D56
  1

  0
LINE
  5
855E
330
8519
100
AcDbEntity
  8
30
  6
CONTINUOUS
 62
     0
100
AcDbLine
 10
-113.0
 20
-764.7821222440079
 30
0.0
 11
-113.0
 21
-788.5141776748042
 31
0.0
  0
LINE
  5
855F
330
8519
100
AcDbEntity
  8
30
  6
CONTINUOUS
 62
     0
100
AcDbLine
 10
112.9999999999999
 20
-764.7821219122577
 30
0.0
 11
112.9999999999999
 21
-788.5141776748042
 31
0.0
  0
LINE
  5
8560
330
8519
100
AcDbEntity
  8
30
  6
CONTINUOUS
 62
     0
100
AcDbLine
 10
-111.0
 20
-788.0141776748042
 30
0.0
 11
110.9999999999999
 21
-788.0141776748042
 31
0.0
  0
INSERT
  5
8561
330
8519
100
AcDbEntity
  8
30
  6
CONTINUOUS
 62
     0
100
AcDbBlockReference
  2
_OPEN
 10
-113.0
 20
-788.0141776748042
 30
0.0
 41
2.0
 42
2.0
 43
2.0
 50
180.0
  0
INSERT
  5
8562
330
8519
100
AcDbEntity
  8
30
  6
CONTINUOUS
 62
     0
100
AcDbBlockReference
  2
_OPEN
 10
112.9999999999999
 20
-788.0141776748042
 30
0.0
 41
2.0
 42
2.0
 43
2.0
  0
MTEXT
  5
8563
330
8519
100
AcDbEntity
  8
30
  6
CONTINUOUS
 62
     0
100
AcDbMText
 10
-0.0000000000000281
 20
-783.0141776748043
 30
0.0
 40
6.0
 41
0.0
 71
     5
 72
     1
  1
\A1;226
1001
ACAD
1000
MTEXTBEGIN
1070
    73
1070
     1
1070
    44
1040
1.0
1070
    74
1070
     0
1000
MTEXTEND
  0
POINT
  5
8564
330
8519
100
AcDbEntity
  8
DEFPOINTS
  6
CONTINUOUS
 62
     0
100
AcDbPoint
 10
-113.0
 20
-763.7821222440079
 30
0.0
  0
POINT
  5
8565
330
8519
100
AcDbEntity
  8
DEFPOINTS
  6
CONTINUOUS
 62
     0
100
AcDbPoint
 10
112.9999999999999
 20
-763.7821219122577
 30
0.0
  0
POINT
  5
8566
330
8519
100
AcDbEntity
  8
DEFPOINTS
  6
CONTINUOUS
 62
     0
100
AcDbPoint
 10
112.9999999999999
 20
-788.0141776748042
 30
0.0
  0
ENDBLK
  5
8524
330
8519
100
AcDbEntity
  8
0
100
AcDbBlockEnd
  0
BLOCK
  5
852F
330
8525
100
AcDbEntity
  8
0
100
AcDbBlockBegin
  2
*D57
 70
     1
 10
0.0
 20
0.0
 30
0.0
  3
*D57
  1

  0
LINE
  5
8567
330
8525
100
AcDbEntity
  8
30
  6
CONTINUOUS
 62
     0
100
AcDbLine
 10
-0.0000000000000284
 20
-0.0000001977435889
 30
0.0
 11
62.10315311051633
 21
-0.0000001977436065
 31
0.0
  0
LINE
  5
8568
330
8525
100
AcDbEntity
  8
30
  6
CONTINUOUS
 62
     0
100
AcDbLine
 10
-0.1000000000000512
 20
-14.99359760985362
 30
0.0
 11
62.10315311051633
 21
-14.99359760985364
 31
0.0
  0
LINE
  5
8569
330
8525
100
AcDbEntity
  8
30
  6
CONTINUOUS
 62
     0
100
AcDbLine
 10
61.60315311051633
 20
-2.000000197743606
 30
0.0
 11
61.60315311051633
 21
-12.99359760985364
 31
0.0
  0
INSERT
  5
856A
330
8525
100
AcDbEntity
  8
30
  6
CONTINUOUS
 62
     0
100
AcDbBlockReference
  2
_OPEN
 10
61.60315311051633
 20
-0.0000001977436063
 30
0.0
 41
2.0
 42
2.0
 43
2.0
 50
90.0
  0
INSERT
  5
856B
330
8525
100
AcDbEntity
  8
30
  6
CONTINUOUS
 62
     0
100
AcDbBlockReference
  2
_OPEN
 10
61.60315311051633
 20
-14.99359760985364
 30
0.0
 41
2.0
 42
2.0
 43
2.0
 50
270.0
  0
MTEXT
  5
856C
330
8525
100
AcDbEntity
  8
30
  6
CONTINUOUS
 62
     0
100
AcDbMText
 10
56.60315311051633
 20
-7.496798903798612
 30
0.0
 40
6.0
 41
0.0
 71
     5
 72
     1
  1
\A1;15
 11
0.0000000000000001
 21
1.0
 31
0.0
1001
ACAD
1000
MTEXTBEGIN
1070
    73
1070
     1
1070
    44
1040
1.0
1070
    74
1070
     0
1000
MTEXTEND
  0
POINT
  5
856D
330
8525
100
AcDbEntity
  8
DEFPOINTS
  6
CONTINUOUS
 62
     0
100
AcDbPoint
 10
-1.000000000000028
 20
-0.0000001977435886
 30
0.0
  0
POINT
  5
856E
330
8525
100
AcDbEntity
  8
DEFPOINTS
  6
CONTINUOUS
 62
     0
100
AcDbPoint
 10
-1.100000000000051
 20
-14.99359760985362
 30
0.0
  0
POINT
  5
856F
330
8525
100
AcDbEntity
  8
DEFPOINTS
  6
CONTINUOUS
 62
     0
100
AcDbPoint
 10
61.60315311051633
 20
-14.99359760985364
 30
0.0
  0
ENDBLK
  5
8530
330
8525
100
AcDbEntity
  8
0
100
AcDbBlockEnd
  0
ENDSEC
  0
SECTION
  2
ENTITIES
  0
LINE
  5
B4
330
1E
100
AcDbEntity
  8
16
100
AcDbLine
 10
0.0
 20
-246.73200679413
 30
0.0
 11
0.0
 21
217.0
 31
0.0
  0
MTEXT
  5
BF3
330
1E
100
AcDbEntity
  8
24
  6
CONTINUOUS
100
AcDbMText
 10
142.1181906098743
 20
177.5
 30
0.0
 40
3.0
 41
0.0
 71
     1
 72
     1
  1
\A1;
1001
ACAD
1000
MTEXTBEGIN
1070
    73
1070
     1
1070
    44
1040
1.0
1070
    74
1070
     0
1000
MTEXTEND
  0
LINE
  5
1C9A
330
1E
100
AcDbEntity
  8
16
100
AcDbLine
 10
0.0
 20
268.3431641157899
 30
0.0
 11
0.0
 21
610.0650248706293
 31
0.0
  0
LINE
  5
1C9B
330
1E
100
AcDbEntity
  8
16
100
AcDbLine
 10
447.0084373133763
 20
-0.0000000000000003
 30
0.0
 11
256.0454807032225
 21
0.0
 31
0.0
  0
LINE
  5
4C5A
330
1E
100
AcDbEntity
  8
16
100
AcDbLine
 10
227.4336967785911
 20
0.0
 30
0.0
 11
-140.1065049170443
 21
0.0
 31
0.0
  0
LWPOLYLINE
  5
6462
330
1E
100
AcDbEntity
  8
10
  6
CONTINUOUS
100
AcDbPolyline
 90
        6
 70
     0
 43
0.0
 10
132.9997863769599
 20
388.0
 10
-134.0864788759987
 20
388.0
 10
132.9997863769599
 20
388.0
 10
132.9997863769599
 20
370.0
 10
-134.0864788759987
 20
370.0
 10
-134.0864788759987
 20
388.0
  0
LINE
  5
6463
330
1E
100
AcDbEntity
  8
18
100
AcDbLine
 10
-210.0864788759987
 20
396.0000000000007
 30
0.0
 11
212.9997863769599
 21
396.0000000000007
 31
0.0
  0
LWPOLYLINE
  5
6467
330
1E
100
AcDbEntity
  8
10
  6
CONTINUOUS
100
AcDbPolyline
 90
        4
 70
     0
 43
0.0
 10
-105.0864788759987
 20
388.0
 10
-105.0864788759987
 20
481.5152587890001
 10
103.9997863769599
 20
481.515258789
 10
103.9997863769599
 20
388.0
  0
LINE
  5
6469
330
1E
100
AcDbEntity
  8
18
100
AcDbLine
 10
212.9997863769599
 20
388.0
 30
0.0
 11
132.9997863769599
 21
388.0
 31
0.0
  0
LINE
  5
6480
330
1E
100
AcDbEntity
  8
18
100
AcDbLine
 10
-210.0864788759987
 20
388.0
 30
0.0
 11
-134.0864788759987
 21
388.0
 31
0.0
  0
LINE
  5
6481
330
1E
100
AcDbEntity
  8
18
100
AcDbLine
 10
-210.0864788759987
 20
388.0
 30
0.0
 11
-210.0864788759987
 21
392.0
 31
0.0
  0
LWPOLYLINE
  5
6608
330
1E
100
AcDbEntity
  8
10
  6
CONTINOUS
100
AcDbPolyline
 90
        4
 70
     0
 43
0.0
 10
-31.08653991115886
 20
367.9998779297
 10
-31.08653991115886
 20
363.0
 10
30.91346008884113
 20
363.0
 10
30.91346008884113
 20
367.9998779297
  0
LWPOLYLINE
  5
6609
330
1E
100
AcDbEntity
  8
10
  6
CONTINOUS
100
AcDbPolyline
 90
        4
 70
     0
 10
-15.95159899999998
 20
359.0
 40
0.001
 41
0.001
 10
-15.5
 20
327.3593749999999
 40
0.001
 41
0.001
 10
15.5
 20
327.3593749999999
 40
0.001
 41
0.001
 10
15.95159899999998
 20
359.0
 40
0.0
 41
0.0
  0
LWPOLYLINE
  5
660A
330
1E
100
AcDbEntity
  8
10
  6
CONTINOUS
100
AcDbPolyline
 90
        4
 70
     0
 10
-22.23644225490886
 20
363.0
 40
0.001
 41
0.001
 10
-22.23644225490886
 20
359.0
 40
0.001
 41
0.001
 10
21.76355774509113
 20
359.0
 40
0.001
 41
0.001
 10
21.76355774509113
 20
363.0
 40
0.0
 41
0.0
  0
DIMENSION
  5
6FBC
330
1E
100
AcDbEntity
  8
30
  6
CONTINUOUS
100
AcDbDimension
  2
*D1
 10
549.8330580645953
 20
138.7698114886458
 30
0.0
 11
592.7070681496765
 21
153.3692010040761
 31
0.0
 70
   163
  1
%%c13
  3
STANDARD
100
AcDbDiametricDimension
 15
555.220859952003
 25
141.410188511354
 35
0.0
 40
0.0
  0
LINE
  5
7492
330
1E
100
AcDbEntity
  8
16
100
AcDbLine
 10
272.3948215525938
 20
-561.8467590979784
 30
0.0
 11
-105.1066880225243
 21
-561.8467594913812
 31
0.0
  0
LWPOLYLINE
  5
7495
330
1E
100
AcDbEntity
  8
16
100
AcDbPolyline
 90
        2
 70
     0
 43
0.0
 10
0.0
 20
-820.9319927982456
 10
0.0
 20
-313.0931247359235
  0
DIMENSION
  5
78BC
330
1E
100
AcDbEntity
  8
30
  6
CONTINUOUS
100
AcDbDimension
  2
*D9
 10
567.5269590082994
 20
-264.8580984749315
 30
0.0
 11
459.1165399292918
 21
-264.8580984749315
 31
0.0
 70
   160
  3
STANDARD
100
AcDbAlignedDimension
 13
351.5269590082994
 23
-236.2655944824199
 33
0.0
 14
567.5269590082994
 24
-151.59359741211
 34
0.0
100
AcDbRotatedDimension
  0
LINE
  5
78C2
330
1E
100
AcDbEntity
  8
10
  6
CONTINUOUS
100
AcDbLine
 10
476.0422177972994
 20
-152.0
 30
0.0
 11
439.0422177972994
 21
-152.0
 31
0.0
  0
LINE
  5
78C3
330
1E
100
AcDbEntity
  8
10
  6
CONTINUOUS
100
AcDbLine
 10
476.0422177972994
 20
-153.0
 30
0.0
 11
439.0422177972994
 21
-153.0
 31
0.0
  0
LINE
  5
78C4
330
1E
100
AcDbEntity
  8
10
  6
CONTINUOUS
100
AcDbLine
 10
439.0422177972994
 20
145.0
 30
0.0
 11
476.0422177972994
 21
145.0
 31
0.0
  0
LINE
  5
78C5
330
1E
100
AcDbEntity
  8
10
  6
CONTINUOUS
100
AcDbLine
 10
476.0422177972994
 20
144.0
 30
0.0
 11
439.0422177972994
 21
144.0
 31
0.0
  0
LINE
  5
78C6
330
1E
100
AcDbEntity
  8
21
  6
CONTINUOUS
100
AcDbLine
 10
567.5269590082994
 20
123.0
 30
0.0
 11
439.0422177972994
 21
123.0
 31
0.0
  0
LINE
  5
78C7
330
1E
100
AcDbEntity
  8
21
  6
CONTINUOUS
100
AcDbLine
 10
567.5269590082994
 20
135.0
 30
0.0
 11
439.0422177972994
 21
135.0
 31
0.0
  0
LINE
  5
78C8
330
1E
100
AcDbEntity
  8
21
  6
CONTINUOUS
100
AcDbLine
 10
567.5269590082994
 20
-106.4999999999999
 30
0.0
 11
439.0422177972994
 21
-106.4999999999999
 31
0.0
  0
LINE
  5
78C9
330
1E
100
AcDbEntity
  8
21
  6
CONTINUOUS
100
AcDbLine
 10
567.5269590082994
 20
-151.5
 30
0.0
 11
439.0422177972994
 21
-151.5
 31
0.0
  0
DIMENSION
  5
78CA
330
1E
100
AcDbEntity
  8
30
  6
CONTINUOUS
100
AcDbDimension
  2
*D11
 10
351.5269590082994
 20
-264.8580984749315
 30
0.0
 11
318.1165399292918
 21
-264.8580984749315
 31
0.0
 70
   160
  3
STANDARD
100
AcDbAlignedDimension
 13
285.5269590082994
 23
-15.09359741211005
 33
0.0
 14
351.5269590082994
 24
-236.2655944824199
 34
0.0
100
AcDbRotatedDimension
  0
ARC
  5
78CE
330
1E
100
AcDbEntity
  8
30
  6
CONTINUOUS
100
AcDbCircle
 10
394.5269590082994
 20
-15.0
 30
0.0
 40
109.0000000000273
100
AcDbArc
 50
162.8941923836379
 51
180.0
  0
LINE
  5
78D2
330
1E
100
AcDbEntity
  8
18
100
AcDbLine
 10
355.5269590082994
 20
-236.17199707031
 30
0.0
 11
355.5269590082994
 21
241.76721191406
 31
0.0
  0
DIMENSION
  5
78D4
330
1E
100
AcDbEntity
  8
30
  6
CONTINUOUS
100
AcDbDimension
  2
*D12
 10
351.5269590082994
 20
-244.022657513025
 30
0.0
 11
342.3805904371456
 21
-244.022657513025
 31
0.0
 70
   160
  3
STANDARD
100
AcDbAlignedDimension
 13
333.5269590082994
 23
-210.09359741211
 33
0.0
 14
351.5269590082994
 24
-236.2655944824199
 34
0.0
100
AcDbRotatedDimension
  0
LINE
  5
78D5
330
1E
100
AcDbEntity
  8
18
100
AcDbLine
 10
351.5269590082994
 20
-210.0
 30
0.0
 11
351.5269590082994
 21
-236.17199707031
 31
0.0
  0
LINE
  5
78D6
330
1E
100
AcDbEntity
  8
18
100
AcDbLine
 10
351.5269590082994
 20
-236.17199707031
 30
0.0
 11
355.5269590082994
 21
-236.17199707031
 31
0.0
  0
LINE
  5
78E9
330
1E
100
AcDbEntity
  8
18
100
AcDbLine
 10
351.5269590082994
 20
210.0
 30
0.0
 11
351.5269590082994
 21
243.07470703125
 31
0.0
  0
LINE
  5
78EB
330
1E
100
AcDbEntity
  8
18
100
AcDbLine
 10
351.5269590082994
 20
243.07470703125
 30
0.0
 11
355.5269590082994
 21
241.76721191406
 31
0.0
  0
DIMENSION
  5
78EF
330
1E
100
AcDbEntity
  8
30
  6
CONTINUOUS
100
AcDbDimension
  2
*D13
 10
628.040655713846
 20
-0.0000000000000516
 30
0.0
 11
628.040655713846
 21
-64.50000000000004
 31
0.0
 70
   160
  3
STANDARD
100
AcDbAlignedDimension
 13
552.5269590082993
 23
-129.0
 33
0.0
 14
447.0084373133763
 24
-0.0000000000000003
 34
0.0
 50
90.0
100
AcDbRotatedDimension
  0
DIMENSION
  5
78F0
330
1E
100
AcDbEntity
  8
30
  6
CONTINUOUS
100
AcDbDimension
  2
*D14
 10
567.5269590082994
 20
-194.2798123730099
 30
0.0
 11
559.369046724285
 21
-194.2798123730099
 31
0.0
 70
   160
  3
STANDARD
100
AcDbAlignedDimension
 13
552.5269590082993
 23
-141.1532506339481
 33
0.0
 14
567.5269590082994
 24
-151.59359741211
 34
0.0
100
AcDbRotatedDimension
  0
DIMENSION
  5
78F2
330
1E
100
AcDbEntity
  8
30
  6
CONTINUOUS
100
AcDbDimension
  2
*D15
 10
512.5269590082994
 20
-193.6090543427972
 30
0.0
 11
516.9278396036443
 21
-193.6090543427972
 31
0.0
 70
   160
  3
STANDARD
100
AcDbAlignedDimension
 13
520.5269590082994
 23
-151.5
 33
0.0
 14
512.5269590082994
 24
-141.1532506339481
 34
0.0
 50
180.0
100
AcDbRotatedDimension
  0
DIMENSION
  5
78F3
330
1E
100
AcDbEntity
  8
30
  6
CONTINUOUS
100
AcDbDimension
  2
*D16
 10
552.5269590082993
 20
-194.1090543427972
 30
0.0
 11
537.3129202624722
 21
-194.1090543427972
 31
0.0
 70
   160
  3
STANDARD
100
AcDbAlignedDimension
 13
520.5269590082994
 23
-141.1532506339481
 33
0.0
 14
552.5269590082993
 24
-141.1532506339481
 34
0.0
100
AcDbRotatedDimension
  0
LINE
  5
78F7
330
1E
100
AcDbEntity
  8
10
  6
CONTINUOUS
100
AcDbLine
 10
476.0422177972994
 20
-152.0
 30
0.0
 11
476.0422177972994
 21
-153.0
 31
0.0
  0
LINE
  5
78F9
330
1E
100
AcDbEntity
  8
24
  6
CONTINOUS
100
AcDbLine
 10
520.5269590082994
 20
-122.5
 30
0.0
 11
512.5269590082994
 21
-122.5
 31
0.0
  0
LINE
  5
78FA
330
1E
100
AcDbEntity
  8
24
  6
CONTINOUS
100
AcDbLine
 10
520.5269590082994
 20
-135.4999999999999
 30
0.0
 11
512.5269590082994
 21
-135.4999999999999
 31
0.0
  0
ARC
  5
78FB
330
1E
100
AcDbEntity
  8
24
  6
CONTINOUS
100
AcDbCircle
 10
512.5269590082994
 20
-129.0
 30
0.0
 40
6.5
100
AcDbArc
 50
90.0
 51
270.0
  0
ARC
  5
78FC
330
1E
100
AcDbEntity
  8
24
  6
CONTINOUS
100
AcDbCircle
 10
520.5269590082994
 20
-129.0
 30
0.0
 40
6.5
100
AcDbArc
 50
270.0
 51
90.0
  0
CIRCLE
  5
78FD
330
1E
100
AcDbEntity
  8
24
  6
CONTINOUS
100
AcDbCircle
 10
552.5269590082993
 20
-129.0
 30
0.0
 40
6.5
  0
LINE
  5
78FE
330
1E
100
AcDbEntity
  8
21
  6
CONTINUOUS
100
AcDbLine
 10
567.5269590082994
 20
-106.4999999999999
 30
0.0
 11
567.5269590082994
 21
-151.5
 31
0.0
  0
LINE
  5
78FF
330
1E
100
AcDbEntity
  8
24
  6
CONTINOUS
100
AcDbLine
 10
520.5269590082994
 20
118.0
 30
0.0
 11
520.5269590082994
 21
140.0
 31
0.0
  0
LINE
  5
7900
330
1E
100
AcDbEntity
  8
24
  6
CONTINOUS
100
AcDbLine
 10
512.5269590082994
 20
140.0
 30
0.0
 11
512.5269590082994
 21
118.0
 31
0.0
  0
LINE
  5
7901
330
1E
100
AcDbEntity
  8
10
  6
CONTINUOUS
100
AcDbLine
 10
476.0422177972994
 20
145.0
 30
0.0
 11
476.0422177972994
 21
144.0
 31
0.0
  0
LINE
  5
7902
330
1E
100
AcDbEntity
  8
21
  6
CONTINUOUS
100
AcDbLine
 10
567.5269590082994
 20
135.0
 30
0.0
 11
567.5269590082994
 21
123.0
 31
0.0
  0
LINE
  5
7903
330
1E
100
AcDbEntity
  8
24
  6
CONTINOUS
100
AcDbLine
 10
552.5269590082993
 20
140.0
 30
0.0
 11
552.5269590082993
 21
118.0
 31
0.0
  0
DIMENSION
  5
7904
330
1E
100
AcDbEntity
  8
30
  6
CONTINUOUS
100
AcDbDimension
  2
*D17
 10
628.040655713846
 20
128.9999999999999
 30
0.0
 11
628.040655713846
 21
64.49999999999995
 31
0.0
 70
   160
  3
STANDARD
100
AcDbAlignedDimension
 13
448.0084373133763
 23
-0.0000000000000006
 33
0.0
 14
567.5269590082994
 24
129.0
 34
0.0
 50
90.0
100
AcDbRotatedDimension
  0
LWPOLYLINE
  5
7B05
330
1E
100
AcDbEntity
  8
10
  6
CONTINUOUS
100
AcDbPolyline
 90
        4
 70
     1
 43
0.0
 10
351.5269590082994
 20
210.0
 10
333.5269590082994
 20
210.0
 10
333.5269590082994
 20
-210.0
 10
351.5269590082994
 20
-210.0
  0
LWPOLYLINE
  5
7B06
330
1E
100
AcDbEntity
  8
10
  6
CONTINUOUS
100
AcDbPolyline
 90
        8
 70
     0
 43
0.0
 10
351.5269590082994
 20
-185.0
 10
445.0422177972994
 20
-185.0
 10
445.0422177972994
 20
-154.0
 10
439.0422177972994
 20
-154.0
 10
439.0422177972994
 20
154.0
 10
445.0422177972994
 20
154.0
 10
445.0422177972994
 20
185.0
 10
351.5269590082994
 20
185.0
  0
LWPOLYLINE
  5
7B0C
330
1E
100
AcDbEntity
  8
10
  6
CONTINUOUS
100
AcDbPolyline
 90
        2
 70
     0
 43
0.0
 10
-445.0422177972994
 20
-156.9972045268499
 42
0.000235752162611
 10
-445.0422195758306
 20
-157.0009765625
210
0.0
220
0.0
230
-1.0
  0
LWPOLYLINE
  5
7B0D
330
1E
100
AcDbEntity
  8
10
  6
CONTINUOUS
100
AcDbPolyline
 90
        3
 70
     0
 43
0.0
 10
325.5269590082994
 20
14.39404296875
 10
325.5269590082994
 20
32.5
 10
333.5269590082994
 20
32.5
  0
LWPOLYLINE
  5
7B0E
330
1E
100
AcDbEntity
  8
10
  6
CONTINUOUS
100
AcDbPolyline
 90
        3
 70
     0
 43
0.0
 10
325.5269590082994
 20
-44.39404296874999
 10
325.5269590082994
 20
-62.5
 10
333.5269590082994
 20
-62.5
  0
LWPOLYLINE
  5
7B10
330
1E
100
AcDbEntity
  8
10
  6
CONTINUOUS
100
AcDbPolyline
 90
        2
 70
     0
 43
0.0
 10
325.5269587847995
 20
14.39387638889056
 42
0.2041241247172612
 10
325.526956916155
 20
-44.39387200238226
  0
LWPOLYLINE
  5
7B12
330
1E
100
AcDbEntity
  8
10
  6
CONTINUOUS
100
AcDbPolyline
 90
        2
 70
     0
 43
0.0
 10
325.5269590082994
 20
17.9755859375
 10
323.3150449457994
 20
17.916015625
  0
LWPOLYLINE
  5
7B13
330
1E
100
AcDbEntity
  8
10
  6
CONTINUOUS
100
AcDbPolyline
 90
        2
 70
     0
 43
0.0
 10
321.7164121332994
 20
2.98974609375
 10
318.8174863519994
 20
5.55908203125
  0
LWPOLYLINE
  5
7B14
330
1E
100
AcDbEntity
  8
10
  6
CONTINUOUS
100
AcDbPolyline
 90
        2
 70
     0
 43
0.0
 10
318.816925693879
 20
5.559003791534132
 42
0.0879559986119804
 10
317.3283089649606
 20
6.470701934297466
  0
LWPOLYLINE
  5
7B15
330
1E
100
AcDbEntity
  8
10
  6
CONTINUOUS
100
AcDbPolyline
 90
        2
 70
     0
 43
0.0
 10
321.5883258957255
 20
18.17500102584665
 42
0.0879559385506984
 10
323.3146995556408
 20
17.91653795730616
  0
LWPOLYLINE
  5
7B1A
330
1E
100
AcDbEntity
  8
0
100
AcDbPolyline
 90
        2
 70
     0
 43
0.0
 10
445.0422177972994
 20
156.99720452684
 42
0.0002357521632361
 10
445.0422195758306
 20
157.0009765625
  0
LWPOLYLINE
  5
7B1B
330
1E
100
AcDbEntity
  8
10
  6
CONTINUOUS
100
AcDbPolyline
 90
        2
 70
     0
 43
0.0
 10
293.3145566644994
 20
25.61572265625
 10
290.8863340082994
 20
18.94482421875
  0
LWPOLYLINE
  5
7B1C
330
1E
100
AcDbEntity
  8
10
  6
CONTINUOUS
100
AcDbPolyline
 90
        2
 70
     0
 43
0.0
 10
321.5884824457994
 20
18.17529296875
 10
295.8306699457994
 20
26.82763671875
  0
LWPOLYLINE
  5
7B1D
330
1E
100
AcDbEntity
  8
10
  6
CONTINUOUS
100
AcDbPolyline
 90
        2
 70
     0
 43
0.0
 10
292.0352597894994
 20
16.39892578125
 10
317.3282285394994
 20
6.47021484375
  0
LWPOLYLINE
  5
7B1E
330
1E
100
AcDbEntity
  8
10
  6
CONTINUOUS
100
AcDbPolyline
 90
        2
 70
     0
 43
0.0
 10
290.8863466152993
 20
18.94479158841996
 42
0.40691089778081
 10
292.0349186910031
 20
16.39904485300931
  0
LWPOLYLINE
  5
7B1F
330
1E
100
AcDbEntity
  8
10
  6
CONTINUOUS
100
AcDbPolyline
 90
        2
 70
     0
 43
0.0
 10
295.8308012141994
 20
26.82753673343996
 42
0.4069135725155048
 10
293.3145588340412
 20
25.61566134873485
  0
LINE
  5
7BF3
330
1E
100
AcDbEntity
  8
24
  6
CONTINOUS
100
AcDbLine
 10
552.5269590082993
 20
-119.1532506339481
 30
0.0
 11
552.5269590082993
 21
-141.1532506339481
 31
0.0
  0
LINE
  5
7BF4
330
1E
100
AcDbEntity
  8
24
  6
CONTINOUS
100
AcDbLine
 10
512.5269590082994
 20
-119.1532506339481
 30
0.0
 11
512.5269590082994
 21
-141.1532506339481
 31
0.0
  0
LINE
  5
7BF5
330
1E
100
AcDbEntity
  8
24
  6
CONTINOUS
100
AcDbLine
 10
520.5269590082994
 20
-141.1532506339481
 30
0.0
 11
520.5269590082994
 21
-119.1532506339481
 31
0.0
  0
LINE
  5
80D7
330
1E
100
AcDbEntity
  8
21
  6
CONTINUOUS
100
AcDbLine
 10
92.41352112400125
 20
604.0
 30
0.0
 11
92.41352112400125
 21
512.5152587889998
 31
0.0
  0
LINE
  5
80D8
330
1E
100
AcDbEntity
  8
21
  6
CONTINUOUS
100
AcDbLine
 10
47.41352112400124
 20
604.0
 30
0.0
 11
47.41352112400124
 21
512.5152587889998
 31
0.0
  0
ARC
  5
80D9
330
1E
100
AcDbEntity
  8
24
  6
CONTINOUS
100
AcDbCircle
 10
69.91352112400125
 20
557.0
 30
0.0
 40
6.5
100
AcDbArc
 50
0.0
 51
180.0
  0
LINE
  5
80DA
330
1E
100
AcDbEntity
  8
24
  6
CONTINOUS
100
AcDbLine
 10
82.06677175794936
 20
557.0
 30
0.0
 11
60.06677175794937
 21
557.0
 31
0.0
  0
ARC
  5
80DB
330
1E
100
AcDbEntity
  8
24
  6
CONTINOUS
100
AcDbCircle
 10
69.91352112400125
 20
549.0
 30
0.0
 40
6.5
100
AcDbArc
 50
180.0
 51
0.0
  0
LINE
  5
80DC
330
1E
100
AcDbEntity
  8
24
  6
CONTINOUS
100
AcDbLine
 10
60.06677175794937
 20
549.0
 30
0.0
 11
82.06677175794936
 21
549.0
 31
0.0
  0
LINE
  5
80DD
330
1E
100
AcDbEntity
  8
24
  6
CONTINOUS
100
AcDbLine
 10
63.41352112400125
 20
557.0
 30
0.0
 11
63.41352112400125
 21
549.0
 31
0.0
  0
LINE
  5
80DE
330
1E
100
AcDbEntity
  8
24
  6
CONTINOUS
100
AcDbLine
 10
76.41352112400125
 20
557.0
 30
0.0
 11
76.41352112400125
 21
549.0
 31
0.0
  0
LINE
  5
80DF
330
1E
100
AcDbEntity
  8
21
  6
CONTINUOUS
100
AcDbLine
 10
47.41352112400124
 20
604.0
 30
0.0
 11
92.41352112400125
 21
604.0
 31
0.0
  0
CIRCLE
  5
80E0
330
1E
100
AcDbEntity
  8
24
  6
CONTINOUS
100
AcDbCircle
 10
69.91352112400125
 20
589.0
 30
0.0
 40
6.5
  0
LINE
  5
80E1
330
1E
100
AcDbEntity
  8
24
  6
CONTINOUS
100
AcDbLine
 10
60.06677175794937
 20
589.0
 30
0.0
 11
82.06677175794936
 21
589.0
 31
0.0
  0
LINE
  5
80E2
330
1E
100
AcDbEntity
  8
21
  6
CONTINUOUS
100
AcDbLine
 10
77.41352112400125
 20
604.0
 30
0.0
 11
62.41352112400125
 21
604.0
 31
0.0
  0
LINE
  5
80E3
330
1E
100
AcDbEntity
  8
21
  6
CONTINUOUS
100
AcDbLine
 10
22.5
 20
604.0
 30
0.0
 11
22.5
 21
512.5152587889998
 31
0.0
  0
LINE
  5
80E4
330
1E
100
AcDbEntity
  8
21
  6
CONTINUOUS
100
AcDbLine
 10
-22.5
 20
604.0
 30
0.0
 11
-22.5
 21
512.5152587889998
 31
0.0
  0
ARC
  5
80E5
330
1E
100
AcDbEntity
  8
24
  6
CONTINOUS
100
AcDbCircle
 10
0.0
 20
557.0
 30
0.0
 40
6.5
100
AcDbArc
 50
0.0
 51
180.0
  0
LINE
  5
80E6
330
1E
100
AcDbEntity
  8
24
  6
CONTINOUS
100
AcDbLine
 10
12.15325063394812
 20
557.0
 30
0.0
 11
-9.846749366051881
 21
557.0
 31
0.0
  0
ARC
  5
80E7
330
1E
100
AcDbEntity
  8
24
  6
CONTINOUS
100
AcDbCircle
 10
0.0
 20
549.0
 30
0.0
 40
6.5
100
AcDbArc
 50
180.0
 51
0.0
  0
LINE
  5
80E8
330
1E
100
AcDbEntity
  8
24
  6
CONTINOUS
100
AcDbLine
 10
-9.846749366051881
 20
549.0
 30
0.0
 11
12.15325063394812
 21
549.0
 31
0.0
  0
LINE
  5
80E9
330
1E
100
AcDbEntity
  8
24
  6
CONTINOUS
100
AcDbLine
 10
-6.5
 20
557.0
 30
0.0
 11
-6.5
 21
549.0
 31
0.0
  0
LINE
  5
80EA
330
1E
100
AcDbEntity
  8
24
  6
CONTINOUS
100
AcDbLine
 10
6.5
 20
557.0
 30
0.0
 11
6.5
 21
549.0
 31
0.0
  0
LINE
  5
80EB
330
1E
100
AcDbEntity
  8
21
  6
CONTINUOUS
100
AcDbLine
 10
-22.5
 20
604.0
 30
0.0
 11
22.5
 21
604.0
 31
0.0
  0
CIRCLE
  5
80EC
330
1E
100
AcDbEntity
  8
24
  6
CONTINOUS
100
AcDbCircle
 10
0.0
 20
589.0
 30
0.0
 40
6.5
  0
LINE
  5
80ED
330
1E
100
AcDbEntity
  8
24
  6
CONTINOUS
100
AcDbLine
 10
-9.846749366051881
 20
589.0
 30
0.0
 11
12.15325063394812
 21
589.0
 31
0.0
  0
LINE
  5
80EE
330
1E
100
AcDbEntity
  8
21
  6
CONTINUOUS
100
AcDbLine
 10
7.5
 20
604.0
 30
0.0
 11
-7.5
 21
604.0
 31
0.0
  0
LINE
  5
80EF
330
1E
100
AcDbEntity
  8
21
  6
CONTINUOUS
100
AcDbLine
 10
-47.58647887599875
 20
604.0
 30
0.0
 11
-47.58647887599875
 21
512.5152587889998
 31
0.0
  0
LINE
  5
80F0
330
1E
100
AcDbEntity
  8
21
  6
CONTINUOUS
100
AcDbLine
 10
-92.58647887599876
 20
604.0
 30
0.0
 11
-92.58647887599874
 21
512.5152587889998
 31
0.0
  0
ARC
  5
80F1
330
1E
100
AcDbEntity
  8
24
  6
CONTINOUS
100
AcDbCircle
 10
-70.08647887599875
 20
557.0
 30
0.0
 40
6.5
100
AcDbArc
 50
0.0
 51
180.0
  0
LINE
  5
80F2
330
1E
100
AcDbEntity
  8
24
  6
CONTINOUS
100
AcDbLine
 10
-57.93322824205063
 20
557.0
 30
0.0
 11
-79.93322824205063
 21
557.0
 31
0.0
  0
ARC
  5
80F3
330
1E
100
AcDbEntity
  8
24
  6
CONTINOUS
100
AcDbCircle
 10
-70.08647887599875
 20
549.0
 30
0.0
 40
6.5
100
AcDbArc
 50
180.0
 51
0.0
  0
LINE
  5
80F4
330
1E
100
AcDbEntity
  8
24
  6
CONTINOUS
100
AcDbLine
 10
-79.93322824205063
 20
549.0
 30
0.0
 11
-57.93322824205063
 21
549.0
 31
0.0
  0
LINE
  5
80F5
330
1E
100
AcDbEntity
  8
24
  6
CONTINOUS
100
AcDbLine
 10
-76.58647887599875
 20
557.0
 30
0.0
 11
-76.58647887599875
 21
549.0
 31
0.0
  0
LINE
  5
80F6
330
1E
100
AcDbEntity
  8
24
  6
CONTINOUS
100
AcDbLine
 10
-63.58647887599875
 20
557.0
 30
0.0
 11
-63.58647887599875
 21
549.0
 31
0.0
  0
LINE
  5
80F7
330
1E
100
AcDbEntity
  8
21
  6
CONTINUOUS
100
AcDbLine
 10
-92.58647887599876
 20
604.0
 30
0.0
 11
-47.58647887599875
 21
604.0
 31
0.0
  0
CIRCLE
  5
80F8
330
1E
100
AcDbEntity
  8
24
  6
CONTINOUS
100
AcDbCircle
 10
-70.08647887599875
 20
589.0
 30
0.0
 40
6.5
  0
LINE
  5
80F9
330
1E
100
AcDbEntity
  8
24
  6
CONTINOUS
100
AcDbLine
 10
-79.93322824205063
 20
589.0
 30
0.0
 11
-57.93322824205063
 21
589.0
 31
0.0
  0
LINE
  5
80FA
330
1E
100
AcDbEntity
  8
21
  6
CONTINUOUS
100
AcDbLine
 10
-62.58647887599875
 20
604.0
 30
0.0
 11
-77.58647887599875
 21
604.0
 31
0.0
  0
LINE
  5
836A
330
1E
100
AcDbEntity
  8
10
  6
CONTINUOUS
100
AcDbLine
 10
-105.0864788759987
 20
512.5152587889999
 30
0.0
 11
103.9997863769599
 21
512.5152587889999
 31
0.0
  0
LINE
  5
836B
330
1E
100
AcDbEntity
  8
10
  6
CONTINUOUS
100
AcDbLine
 10
-105.0864788759987
 20
481.5152587890001
 30
0.0
 11
-105.0864788759987
 21
512.5152587889999
 31
0.0
  0
LINE
  5
836C
330
1E
100
AcDbEntity
  8
10
  6
CONTINUOUS
100
AcDbLine
 10
103.9997863769599
 20
481.515258789
 30
0.0
 11
103.9997863769599
 21
512.5152587889998
 31
0.0
  0
DIMENSION
  5
8397
330
1E
100
AcDbEntity
  8
30
  6
CONTINUOUS
100
AcDbDimension
  2
*D38
 10
118.1188453523947
 20
-471.1676097118438
 30
0.0
 11
149.3919549172562
 21
-446.940475656369
 31
0.0
 70
   163
  3
STANDARD
100
AcDbDiametricDimension
 15
124.4888361989917
 25
-464.8096842157194
 35
0.0
 40
0.0
1001
ACAD
1000
DSTYLE
1002
{
1070
   288
1070
     1
1002
}
  0
DIMENSION
  5
83C7
330
1E
100
AcDbEntity
  8
30
  6
CONTINUOUS
100
AcDbDimension
  2
*D39
 10
118.3147909536614
 20
90.5855214564446
 30
0.0
 11
149.5879005185225
 21
114.8126555119193
 31
0.0
 70
   163
  1
M8
  3
STANDARD
100
AcDbDiametricDimension
 15
124.6847818002585
 25
96.94344695256912
 35
0.0
 40
0.0
1001
ACAD
1000
DSTYLE
1002
{
1070
   288
1070
     1
1002
}
  0
DIMENSION
  5
84B4
330
1E
100
AcDbEntity
  8
30
  6
CONTINUOUS
100
AcDbDimension
  2
*D51
 10
-191.644200454017
 20
-210.0935974131522
 30
0.0
 11
-196.6442004540169
 21
-0.0935974131521836
 31
0.0
 70
    32
  3
STANDARD
100
AcDbAlignedDimension
 13
-135.0001525879201
 23
209.9064025868478
 33
0.0
 14
-135.0001525879201
 24
-210.0935974131522
 34
0.0
 50
90.0
100
AcDbRotatedDimension
  0
LWPOLYLINE
  5
84B5
330
1E
100
AcDbEntity
  8
10
  6
CONTINUOUS
100
AcDbPolyline
 90
        4
 70
     1
 43
0.0
 10
132.9997863769599
 20
-210.0935974131522
 10
-135.0001525879201
 20
-210.0935974131522
 10
-135.0001525879201
 20
209.9064025868478
 10
132.9997863769599
 20
209.9064025868478
  0
LWPOLYLINE
  5
84B6
330
1E
100
AcDbEntity
  8
10
  6
D329
100
AcDbPolyline
 90
        4
 70
     1
 43
0.0
 10
103.9997863769599
 20
-185.0935974131522
 10
-106.0001525879201
 20
-185.0935974131522
 10
-106.0001525879201
 20
184.9064025868478
 10
103.9997863769599
 20
184.9064025868478
  0
LINE
  5
84B7
330
1E
100
AcDbEntity
  8
12
  6
DASHDOT
 62
     3
100
AcDbLine
 10
121.4997863769599
 20
-107.5935974131521
 30
0.0
 11
121.4997863769599
 21
-77.59359741315217
 31
0.0
  0
LINE
  5
84B8
330
1E
100
AcDbEntity
  8
12
  6
DASHDOT
 62
     3
100
AcDbLine
 10
-123.5001525879199
 20
-107.5935974131521
 30
0.0
 11
-123.5001525879199
 21
-77.59359741315217
 31
0.0
  0
LWPOLYLINE
  5
84B9
330
1E
100
AcDbEntity
  8
12
  6
DASHDOT
 62
     3
100
AcDbPolyline
 90
        2
 70
     0
 43
0.0
 10
-137.5
 20
-469.3467290102754
 10
-107.5
 20
-469.3467290102754
  0
LWPOLYLINE
  5
84BA
330
1E
100
AcDbEntity
  8
12
  6
DASHDOT
 62
     3
100
AcDbPolyline
 90
        2
 70
     0
 43
0.0
 10
-137.5
 20
-654.3467595278554
 10
-107.5
 20
-654.3467595278554
  0
DIMENSION
  5
84BB
330
1E
100
AcDbEntity
  8
30
  6
CONTINUOUS
100
AcDbDimension
  2
*D52
 10
-189.0
 20
-763.7821222440079
 30
0.0
 11
-193.9999999999998
 21
-558.7821222440079
 31
0.0
 70
    32
  3
STANDARD
100
AcDbAlignedDimension
 13
-113.0
 23
-353.7821222440078
 33
0.0
 14
-113.0
 24
-763.7821222440079
 34
0.0
 50
90.0
100
AcDbRotatedDimension
  0
LWPOLYLINE
  5
84BC
330
1E
100
AcDbEntity
  8
18
100
AcDbPolyline
 90
        4
 70
     1
 43
0.0
 10
133.9998779296999
 20
-768.7821218814315
 10
-134.00006103518
 20
-768.7821222748343
 10
-134.00006103518
 20
-348.7821222748343
 10
133.9998779296999
 20
-348.7821218814314
  0
DIMENSION
  5
84BD
330
1E
100
AcDbEntity
  8
30
  6
CONTINUOUS
100
AcDbDimension
  2
*D53
 10
132.9997863769599
 20
-253.4965349523771
 30
0.0
 11
-1.00018310548009
 21
-248.4965349523771
 31
0.0
 70
    32
  3
STANDARD
100
AcDbAlignedDimension
 13
-135.0001525879201
 23
-210.0935974131522
 33
0.0
 14
132.9997863769599
 24
-210.0935974131522
 34
0.0
100
AcDbRotatedDimension
  0
DIMENSION
  5
84BE
330
1E
100
AcDbEntity
  8
30
  6
CONTINUOUS
100
AcDbDimension
  2
*D54
 10
-163.0
 20
-654.3467595278554
 30
0.0
 11
-167.9999999999999
 21
-561.8467442690654
 31
0.0
 70
    32
  3
STANDARD
100
AcDbAlignedDimension
 13
-137.5
 23
-469.3467290102754
 33
0.0
 14
-137.5
 24
-654.3467595278554
 34
0.0
 50
90.0
100
AcDbRotatedDimension
  0
LWPOLYLINE
  5
84BF
330
1E
100
AcDbEntity
  8
11
  6
CONTINUOUS
100
AcDbPolyline
 90
        4
 70
     1
 43
0.0
 10
112.9999999999999
 20
-763.7821219122577
 10
-113.0
 20
-763.7821222440079
 10
-113.0
 20
-353.7821222440078
 10
112.9999999999999
 20
-353.7821219122576
  0
DIMENSION
  5
84C0
330
1E
100
AcDbEntity
  8
30
  6
CONTINUOUS
100
AcDbDimension
  2
*D55
 10
122.4999999999999
 20
-807.8662488039126
 30
0.0
 11
-0.0000000000000423
 21
-802.8662488039127
 31
0.0
 70
    32
  3
STANDARD
100
AcDbAlignedDimension
 13
-122.5
 23
-669.3467595278554
 33
0.0
 14
122.4999999999999
 24
-669.3467591344525
 34
0.0
100
AcDbRotatedDimension
  0
DIMENSION
  5
84C1
330
1E
100
AcDbEntity
  8
30
  6
CONTINUOUS
100
AcDbDimension
  2
*D56
 10
112.9999999999999
 20
-788.0141776748042
 30
0.0
 11
-0.0000000000000281
 21
-783.0141776748043
 31
0.0
 70
    32
  3
STANDARD
100
AcDbAlignedDimension
 13
-113.0
 23
-763.7821222440079
 33
0.0
 14
112.9999999999999
 24
-763.7821219122577
 34
0.0
100
AcDbRotatedDimension
  0
LWPOLYLINE
  5
84C2
330
1E
100
AcDbEntity
  8
12
  6
DASHDOT
 62
     3
100
AcDbPolyline
 90
        2
 70
     0
 43
0.0
 10
-122.5
 20
-669.3467595278554
 10
-122.5
 20
-639.3467595278553
  0
CIRCLE
  5
84C3
330
1E
100
AcDbEntity
  8
12
  6
DASHDOT
 62
     3
100
AcDbCircle
 10
-122.5
 20
-654.3467595278554
 30
0.0
 40
4.5
  0
LWPOLYLINE
  5
84C4
330
1E
100
AcDbEntity
  8
12
  6
DASHDOT
 62
     3
100
AcDbPolyline
 90
        2
 70
     0
 43
0.0
 10
122.4999999999999
 20
-669.3467591344525
 10
122.4999999999999
 20
-639.3467591344525
  0
CIRCLE
  5
84C5
330
1E
100
AcDbEntity
  8
12
  6
DASHDOT
 62
     3
100
AcDbCircle
 10
122.4999999999999
 20
-654.3467591344525
 30
0.0
 40
4.5
  0
LWPOLYLINE
  5
84C6
330
1E
100
AcDbEntity
  8
12
  6
DASHDOT
 62
     3
100
AcDbPolyline
 90
        2
 70
     0
 43
0.0
 10
107.4999999999999
 20
-654.3467591344525
 10
137.4999999999999
 20
-654.3467591344525
  0
LWPOLYLINE
  5
84C7
330
1E
100
AcDbEntity
  8
12
  6
DASHDOT
 62
     3
100
AcDbPolyline
 90
        2
 70
     0
 43
0.0
 10
-122.5
 20
-484.3467290102754
 10
-122.5
 20
-454.3467290102754
  0
CIRCLE
  5
84C8
330
1E
100
AcDbEntity
  8
12
  6
DASHDOT
 62
     3
100
AcDbCircle
 10
-122.5
 20
-469.3467290102754
 30
0.0
 40
4.5
  0
CIRCLE
  5
84C9
330
1E
100
AcDbEntity
  8
12
  6
DASHDOT
 62
     3
100
AcDbCircle
 10
122.4999999999999
 20
-469.3467286168726
 30
0.0
 40
4.5
  0
LWPOLYLINE
  5
84CA
330
1E
100
AcDbEntity
  8
12
  6
DASHDOT
 62
     3
100
AcDbPolyline
 90
        2
 70
     0
 43
0.0
 10
107.4999999999999
 20
-469.3467286168726
 10
137.4999999999999
 20
-469.3467286168726
  0
LWPOLYLINE
  5
84CB
330
1E
100
AcDbEntity
  8
12
  6
DASHDOT
 62
     3
100
AcDbPolyline
 90
        2
 70
     0
 43
0.0
 10
122.4999999999999
 20
-484.3467286168726
 10
122.4999999999999
 20
-454.3467286168726
  0
LINE
  5
84CC
330
1E
100
AcDbEntity
  8
12
  6
DASHDOT
 62
     3
100
AcDbLine
 10
-138.5001525879199
 20
92.40640258684789
 30
0.0
 11
-108.5001525879199
 21
92.40640258684789
 31
0.0
  0
LINE
  5
84CD
330
1E
100
AcDbEntity
  8
12
  6
DASHDOT
 62
     3
100
AcDbLine
 10
-138.5001525879199
 20
-92.59359741315217
 30
0.0
 11
-108.5001525879199
 21
-92.59359741315217
 31
0.0
  0
LWPOLYLINE
  5
84CE
330
1E
100
AcDbEntity
  8
10
  6
CONTINUOUS
100
AcDbPolyline
 90
        4
 70
     1
 43
0.0
 10
21.49999999999997
 20
-42.49359760985362
 10
-23.50000000000002
 20
-42.49359760985362
 10
-23.50000000000002
 20
16.90640239014646
 10
21.49999999999997
 20
16.90640239014646
  0
DIMENSION
  5
84CF
330
1E
100
AcDbEntity
  8
30
  6
CONTINUOUS
100
AcDbDimension
  2
*D57
 10
61.60315311051633
 20
-14.99359760985364
 30
0.0
 11
56.60315311051633
 21
-7.496798903798612
 31
0.0
 70
    32
  3
STANDARD
100
AcDbAlignedDimension
 13
-1.000000000000028
 23
-0.0000001977435886
 33
0.0
 14
-1.100000000000051
 24
-14.99359760985362
 34
0.0
 50
90.0
100
AcDbRotatedDimension
  0
LWPOLYLINE
  5
84D0
330
1E
100
AcDbEntity
  8
10
  6
CONTINUOUS
100
AcDbPolyline
 90
        4
 70
     1
 43
0.0
 10
37.99999999999997
 20
-64.69359760985361
 10
-40.00000000000002
 20
-64.69359760985361
 10
-40.00000000000002
 20
34.70640239014642
 10
37.99999999999997
 20
34.70640239014642
  0
CIRCLE
  5
84D1
330
1E
100
AcDbEntity
  8
12
  6
DASHDOT
 62
     3
100
AcDbCircle
 10
-123.5001525879199
 20
-92.59359741315217
 30
0.0
 40
3.323499917980029
  0
CIRCLE
  5
84D2
330
1E
100
AcDbEntity
  8
12
  6
DASHDOT
 62
     3
100
AcDbCircle
 10
-123.5001525879199
 20
-92.59359741315217
 30
0.0
 40
4.0
  0
LINE
  5
84D3
330
1E
100
AcDbEntity
  8
12
  6
DASHDOT
 62
     3
100
AcDbLine
 10
-123.5001525879199
 20
77.40640258684789
 30
0.0
 11
-123.5001525879199
 21
107.4064025868478
 31
0.0
  0
CIRCLE
  5
84D4
330
1E
100
AcDbEntity
  8
12
  6
DASHDOT
 62
     3
100
AcDbCircle
 10
-123.5001525879199
 20
92.40640258684789
 30
0.0
 40
3.323499917980029
  0
CIRCLE
  5
84D5
330
1E
100
AcDbEntity
  8
12
  6
DASHDOT
 62
     3
100
AcDbCircle
 10
-123.5001525879199
 20
92.40640258684789
 30
0.0
 40
4.0
  0
LINE
  5
84D6
330
1E
100
AcDbEntity
  8
12
  6
DASHDOT
 62
     3
100
AcDbLine
 10
106.4997863769599
 20
-92.59359741315217
 30
0.0
 11
136.4997863769599
 21
-92.59359741315217
 31
0.0
  0
CIRCLE
  5
84D7
330
1E
100
AcDbEntity
  8
12
  6
DASHDOT
 62
     3
100
AcDbCircle
 10
121.4997863769599
 20
-92.59359741315217
 30
0.0
 40
3.32349991789988
  0
CIRCLE
  5
84D8
330
1E
100
AcDbEntity
  8
12
  6
DASHDOT
 62
     3
100
AcDbCircle
 10
121.4997863769599
 20
-92.59359741315217
 30
0.0
 40
4.0
  0
LINE
  5
84D9
330
1E
100
AcDbEntity
  8
12
  6
DASHDOT
 62
     3
100
AcDbLine
 10
106.4997863769599
 20
92.40640258684789
 30
0.0
 11
136.4997863769599
 21
92.40640258684789
 31
0.0
  0
LINE
  5
84DA
330
1E
100
AcDbEntity
  8
12
  6
DASHDOT
 62
     3
100
AcDbLine
 10
121.4997863769599
 20
77.40640258684789
 30
0.0
 11
121.4997863769599
 21
107.4064025868478
 31
0.0
  0
CIRCLE
  5
84DB
330
1E
100
AcDbEntity
  8
12
  6
DASHDOT
 62
     3
100
AcDbCircle
 10
121.4997863769599
 20
92.40640258684789
 30
0.0
 40
3.32349991789988
  0
CIRCLE
  5
84DC
330
1E
100
AcDbEntity
  8
12
  6
DASHDOT
 62
     3
100
AcDbCircle
 10
121.4997863769599
 20
92.40640258684789
 30
0.0
 40
4.0
  0
MTEXT
  5
8597
330
1E
100
AcDbEntity
  8
19
  6
CONTINUOUS
100
AcDbMText
 10
345.2405700927538
 20
472.4282584081461
 30
0.0
 40
7.0
 41
94.0
 71
     1
 72
     5
  1
XS1000NE 3P FP\PXS1200NE 3P FP\PXH1000NE 3P FP\PXH1200NE 3P FP 
  7
STANDARD1
1001
ACAD
1000
MTEXTBEGIN
1070
    73
1070
     1
1070
    44
1040
1.0
1070
    74
1070
     0
1000
MTEXTEND
  0
VIEWPORT
  5
9AC
330
1A
100
AcDbEntity
 67
     1
  8
0
  6
CONTINUOUS
100
AcDbViewport
 10
171.9995348790992
 20
144.1384735538403
 30
0.0
 40
488.8676857773514
 41
292.3514905034161
 68
     1
 69
     1
1001
ACAD
1000
MVIEW
1002
{
1070
    16
1010
0.0
1020
0.0
1030
0.0
1010
0.0
1020
0.0
1030
1.0
1040
0.0
1040
292.3514905034161
1040
171.9995348790992
1040
144.1384735538403
1040
50.0
1040
0.0
1040
0.0
1070
     0
1070
   100
1070
     1
1070
     1
1070
     0
1070
     0
1070
     0
1070
     0
1040
0.0
1040
0.0
1040
0.0
1040
10.0
1040
10.0
1040
10.0
1040
10.0
1070
     0
1002
{
1002
}
1002
}
  0
ENDSEC
  0
SECTION
  2
OBJECTS
  0
DICTIONARY
  5
C
330
0
100
AcDbDictionary
  3
ACAD_GROUP
350
D
  3
ACAD_LAYOUT
350
19
  3
ACAD_MLINESTYLE
350
16
  3
ACAD_PLOTSETTINGS
350
18
  3
ACAD_PLOTSTYLENAME
350
E
  3
ACADDIM
350
8396
  3
ACDBHEADERROUNDTRIPXREC
350
859A
  3
ACDBVARIABLEDICTIONARY
350
7685
  0
DICTIONARY
  5
178
330
1E
100
AcDbDictionary
280
     1
  3
ACAD_LAYOUTSELFREF
360
85BC
  0
DICTIONARY
  5
17A
330
1A
100
AcDbDictionary
280
     1
  3
ACAD_LAYOUTSELFREF
360
85BB
  0
DICTIONARY
  5
D
102
{ACAD_REACTORS
330
C
102
}
330
C
100
AcDbDictionary
  0
DICTIONARY
  5
19
102
{ACAD_REACTORS
330
C
102
}
330
C
100
AcDbDictionary
  0
DICTIONARY
  5
16
102
{ACAD_REACTORS
330
C
102
}
330
C
100
AcDbDictionary
  3
STANDARD
350
17
  0
DICTIONARY
  5
18
102
{ACAD_REACTORS
330
C
102
}
330
C
100
AcDbDictionary
  0
ACDBDICTIONARYWDFLT
  5
E
102
{ACAD_REACTORS
330
C
102
}
330
C
100
AcDbDictionary
281
     1
  3
Normal
350
F
100
AcDbDictionaryWithDefault
340
F
  0
XRECORD
  5
8396
102
{ACAD_REACTORS
330
C
102
}
330
C
100
AcDbXrecord
 90
   990106
  3

 60
     0
 61
     0
 62
     1
 63
     3
 64
     0
 65
     0
 66
     0
 67
     3
 68
     1
 69
     0
 70
     0
 71
     0
 72
     0
 40
0.0
170
     0
  0
DICTIONARY
  5
859A
102
{ACAD_REACTORS
330
C
102
}
330
C
100
AcDbDictionary
  3
CEPSNTYPE
350
85A4
  3
DIMSTYLEDATA
350
85A8
  3
FINGERPRINTGUID
350
85A5
  3
HYPERLINKBASE
350
859D
  3
INSUNITS
350
85A3
  3
LAYOUTDICT
350
859F
  3
LWETCUNION
350
85A2
  3
PLOTSETDICT
350
85A0
  3
PLOTSTYLNAMDICT
350
85A1
  3
PSVPSCALE
350
85A7
  3
PUCSBASE
350
85AB
  3
PUCSORGBACK
350
85B1
  3
PUCSORGBOTTOM
350
85AD
  3
PUCSORGFRONT
350
85B0
  3
PUCSORGLEFT
350
85AE
  3
PUCSORGRIGHT
350
85AF
  3
PUCSORGTOP
350
85AC
  3
PUCSORTHOREF
350
85A9
  3
PUCSORTHOVIEW
350
85AA
  3
STYLESHEET
350
859E
  3
TSTACKALIGN
350
859B
  3
TSTACKSIZE
350
859C
  3
UCSBASE
350
85B4
  3
UCSORGBACK
350
85BA
  3
UCSORGBOTTOM
350
85B6
  3
UCSORGFRONT
350
85B9
  3
UCSORGLEFT
350
85B7
  3
UCSORGRIGHT
350
85B8
  3
UCSORGTOP
350
85B5
  3
UCSORTHOREF
350
85B2
  3
UCSORTHOVIEW
350
85B3
  3
VERSIONGUID
350
85A6
  0
DICTIONARY
  5
7685
102
{ACAD_REACTORS
330
C
102
}
330
C
100
AcDbDictionary
  3
DIMASSOC
350
7686
  0
XRECORD
  5
85BC
102
{ACAD_REACTORS
330
178
102
}
330
178
100
AcDbXrecord
340
1E
  0
XRECORD
  5
85BB
102
{ACAD_REACTORS
330
17A
102
}
330
17A
100
AcDbXrecord
340
1A
  0
MLINESTYLE
  5
17
102
{ACAD_REACTORS
330
16
102
}
330
16
100
AcDbMlineStyle
  2
STANDARD
 70
     0
  3

 62
   256
 51
90.0
 52
90.0
 71
     2
 49
0.5
 62
   256
  6
BYLAYER
 49
-0.5
 62
   256
  6
BYLAYER
  0
ACDBPLACEHOLDER
  5
F
102
{ACAD_REACTORS
330
E
102
}
330
E
100
AcDbPlaceHolder
280
     0
  0
XRECORD
  5
85A4
102
{ACAD_REACTORS
330
859A
102
}
330
859A
100
AcDbXrecord
 90
        0
  0
XRECORD
  5
85A8
102
{ACAD_REACTORS
330
859A
102
}
330
859A
100
AcDbXrecord
1000
DSTYLE
1002
{
1070
    79
 70
     3
1070
   341
340
3B2
1070
   342
340
3B2
1002
}
  0
XRECORD
  5
85A5
102
{ACAD_REACTORS
330
859A
102
}
330
859A
100
AcDbXrecord
  1

  0
XRECORD
  5
859D
102
{ACAD_REACTORS
330
859A
102
}
330
859A
100
AcDbXrecord
  1

  0
XRECORD
  5
85A3
102
{ACAD_REACTORS
330
859A
102
}
330
859A
100
AcDbXrecord
 90
        0
  0
XRECORD
  5
859F
102
{ACAD_REACTORS
330
859A
102
}
330
859A
100
AcDbXrecord
340
19
  0
XRECORD
  5
85A2
102
{ACAD_REACTORS
330
859A
102
}
330
859A
100
AcDbXrecord
 90
    10781
  0
XRECORD
  5
85A0
102
{ACAD_REACTORS
330
859A
102
}
330
859A
100
AcDbXrecord
340
18
  0
XRECORD
  5
85A1
102
{ACAD_REACTORS
330
859A
102
}
330
859A
100
AcDbXrecord
340
E
  0
XRECORD
  5
85A7
102
{ACAD_REACTORS
330
859A
102
}
330
859A
100
AcDbXrecord
 40
0.0
  0
XRECORD
  5
85AB
102
{ACAD_REACTORS
330
859A
102
}
330
859A
100
AcDbXrecord
340
0
  0
XRECORD
  5
85B1
102
{ACAD_REACTORS
330
859A
102
}
330
859A
100
AcDbXrecord
 10
0.0
 20
0.0
 30
0.0
  0
XRECORD
  5
85AD
102
{ACAD_REACTORS
330
859A
102
}
330
859A
100
AcDbXrecord
 10
0.0
 20
0.0
 30
0.0
  0
XRECORD
  5
85B0
102
{ACAD_REACTORS
330
859A
102
}
330
859A
100
AcDbXrecord
 10
0.0
 20
0.0
 30
0.0
  0
XRECORD
  5
85AE
102
{ACAD_REACTORS
330
859A
102
}
330
859A
100
AcDbXrecord
 10
0.0
 20
0.0
 30
0.0
  0
XRECORD
  5
85AF
102
{ACAD_REACTORS
330
859A
102
}
330
859A
100
AcDbXrecord
 10
0.0
 20
0.0
 30
0.0
  0
XRECORD
  5
85AC
102
{ACAD_REACTORS
330
859A
102
}
330
859A
100
AcDbXrecord
 10
0.0
 20
0.0
 30
0.0
  0
XRECORD
  5
85A9
102
{ACAD_REACTORS
330
859A
102
}
330
859A
100
AcDbXrecord
340
0
  0
XRECORD
  5
85AA
102
{ACAD_REACTORS
330
859A
102
}
330
859A
100
AcDbXrecord
 70
     0
  0
XRECORD
  5
859E
102
{ACAD_REACTORS
330
859A
102
}
330
859A
100
AcDbXrecord
  1
kiki.ctb
  0
XRECORD
  5
859B
102
{ACAD_REACTORS
330
859A
102
}
330
859A
100
AcDbXrecord
 90
        1
  0
XRECORD
  5
859C
102
{ACAD_REACTORS
330
859A
102
}
330
859A
100
AcDbXrecord
 90
       70
  0
XRECORD
  5
85B4
102
{ACAD_REACTORS
330
859A
102
}
330
859A
100
AcDbXrecord
340
0
  0
XRECORD
  5
85BA
102
{ACAD_REACTORS
330
859A
102
}
330
859A
100
AcDbXrecord
 10
0.0
 20
0.0
 30
0.0
  0
XRECORD
  5
85B6
102
{ACAD_REACTORS
330
859A
102
}
330
859A
100
AcDbXrecord
 10
0.0
 20
0.0
 30
0.0
  0
XRECORD
  5
85B9
102
{ACAD_REACTORS
330
859A
102
}
330
859A
100
AcDbXrecord
 10
0.0
 20
0.0
 30
0.0
  0
XRECORD
  5
85B7
102
{ACAD_REACTORS
330
859A
102
}
330
859A
100
AcDbXrecord
 10
0.0
 20
0.0
 30
0.0
  0
XRECORD
  5
85B8
102
{ACAD_REACTORS
330
859A
102
}
330
859A
100
AcDbXrecord
 10
0.0
 20
0.0
 30
0.0
  0
XRECORD
  5
85B5
102
{ACAD_REACTORS
330
859A
102
}
330
859A
100
AcDbXrecord
 10
0.0
 20
0.0
 30
0.0
  0
XRECORD
  5
85B2
102
{ACAD_REACTORS
330
859A
102
}
330
859A
100
AcDbXrecord
340
0
  0
XRECORD
  5
85B3
102
{ACAD_REACTORS
330
859A
102
}
330
859A
100
AcDbXrecord
 70
     0
  0
XRECORD
  5
85A6
102
{ACAD_REACTORS
330
859A
102
}
330
859A
100
AcDbXrecord
  1
{FC7196B3-076B-4A53-8EFE-B4258908FE06}
  0
DICTIONARYVAR
  5
7686
102
{ACAD_REACTORS
330
7685
102
}
330
7685
100
DictionaryVariables
280
     0
  1
1
  0
ENDSEC
  0
EOF
