  0
SECTION
  2
HEADER
  9
$ACADVER
  1
AC1014
  9
$ACADMAINTVER
 70
     9
  9
$DWGCODEPAGE
  3
ANSI_932
  9
$INSBASE
 10
0.0
 20
0.0
 30
0.0
  9
$EXTMIN
 10
-173.9651313262645
 20
-830.248050180357
 30
-0.0000000349181948
  9
$EXTMAX
 10
648.2319023213467
 20
714.6492476883176
 30
0.0000000814935746
  9
$LIMMIN
 10
-179.0
 20
-547.0
  9
$LIMMAX
 10
487.0
 20
238.0
  9
$ORTHOMODE
 70
     1
  9
$REGENMODE
 70
     1
  9
$FILLMODE
 70
     1
  9
$QTEXTMODE
 70
     0
  9
$MIRRTEXT
 70
     1
  9
$DRAGMODE
 70
     2
  9
$LTSCALE
 40
30.0
  9
$OSMODE
 70
    37
  9
$ATTMODE
 70
     1
  9
$TEXTSIZE
 40
2.0
  9
$TRACEWID
 40
0.05
  9
$TEXTSTYLE
  7
STANDARD
  9
$CLAYER
  8
30
  9
$CELTYPE
  6
CONTINUOUS
  9
$CECOLOR
 62
   256
  9
$CELTSCALE
 40
1.0
  9
$DELOBJ
 70
     1
  9
$DISPSILH
 70
     0
  9
$DIMSCALE
 40
1.0
  9
$DIMASZ
 40
2.0
  9
$DIMEXO
 40
1.0
  9
$DIMDLI
 40
0.5
  9
$DIMRND
 40
0.0
  9
$DIMDLE
 40
0.0
  9
$DIMEXE
 40
0.5
  9
$DIMTP
 40
0.0
  9
$DIMTM
 40
0.0
  9
$DIMTXT
 40
6.0
  9
$DIMCEN
 40
0.09
  9
$DIMTSZ
 40
0.0
  9
$DIMTOL
 70
     0
  9
$DIMLIM
 70
     0
  9
$DIMTIH
 70
     0
  9
$DIMTOH
 70
     1
  9
$DIMSE1
 70
     0
  9
$DIMSE2
 70
     0
  9
$DIMTAD
 70
     3
  9
$DIMZIN
 70
    12
  9
$DIMBLK
  1
OPEN
  9
$DIMASO
 70
     1
  9
$DIMSHO
 70
     1
  9
$DIMPOST
  1

  9
$DIMAPOST
  1

  9
$DIMALT
 70
     0
  9
$DIMALTD
 70
     2
  9
$DIMALTF
 40
25.4
  9
$DIMLFAC
 40
1.0
  9
$DIMTOFL
 70
     0
  9
$DIMTVP
 40
0.0
  9
$DIMTIX
 70
     0
  9
$DIMSOXD
 70
     0
  9
$DIMSAH
 70
     0
  9
$DIMBLK1
  1

  9
$DIMBLK2
  1

  9
$DIMSTYLE
  2
STANDARD
  9
$DIMCLRD
 70
     0
  9
$DIMCLRE
 70
     0
  9
$DIMCLRT
 70
     0
  9
$DIMTFAC
 40
1.0
  9
$DIMGAP
 40
2.0
  9
$DIMJUST
 70
     0
  9
$DIMSD1
 70
     0
  9
$DIMSD2
 70
     0
  9
$DIMTOLJ
 70
     1
  9
$DIMTZIN
 70
     0
  9
$DIMALTZ
 70
     0
  9
$DIMALTTZ
 70
     0
  9
$DIMFIT
 70
     3
  9
$DIMUPT
 70
     0
  9
$DIMUNIT
 70
     2
  9
$DIMDEC
 70
     1
  9
$DIMTDEC
 70
     1
  9
$DIMALTU
 70
     2
  9
$DIMALTTD
 70
     2
  9
$DIMTXSTY
  7
STANDARD
  9
$DIMAUNIT
 70
     0
  9
$LUNITS
 70
     2
  9
$LUPREC
 70
     4
  9
$SKETCHINC
 40
0.1
  9
$FILLETRAD
 40
0.0
  9
$AUNITS
 70
     0
  9
$AUPREC
 70
     0
  9
$MENU
  1
.
  9
$ELEVATION
 40
0.0
  9
$PELEVATION
 40
0.0
  9
$THICKNESS
 40
0.0
  9
$LIMCHECK
 70
     0
  9
$BLIPMODE
 70
     0
  9
$CHAMFERA
 40
0.0
  9
$CHAMFERB
 40
0.0
  9
$CHAMFERC
 40
0.0
  9
$CHAMFERD
 40
0.0
  9
$SKPOLY
 70
     0
  9
$TDCREATE
 40
2452286.555658657
  9
$TDUPDATE
 40
2453250.477009548
  9
$TDINDWG
 40
1.6405937500
  9
$TDUSRTIMER
 40
1.6405937500
  9
$USRTIMER
 70
     1
  9
$ANGBASE
 50
0.0
  9
$ANGDIR
 70
     0
  9
$PDMODE
 70
     0
  9
$PDSIZE
 40
0.0
  9
$PLINEWID
 40
0.0
  9
$COORDS
 70
     0
  9
$SPLFRAME
 70
     0
  9
$SPLINETYPE
 70
     6
  9
$SPLINESEGS
 70
     8
  9
$ATTDIA
 70
     0
  9
$ATTREQ
 70
     1
  9
$HANDLING
 70
 22529
  9
$HANDSEED
  5
A3EE
  9
$SURFTAB1
 70
     6
  9
$SURFTAB2
 70
     6
  9
$SURFTYPE
 70
     6
  9
$SURFU
 70
     6
  9
$SURFV
 70
     6
  9
$UCSNAME
  2

  9
$UCSORG
 10
0.0
 20
0.0
 30
0.0
  9
$UCSXDIR
 10
1.0
 20
0.0
 30
0.0
  9
$UCSYDIR
 10
0.0
 20
1.0
 30
0.0
  9
$PUCSNAME
  2

  9
$PUCSORG
 10
0.0
 20
0.0
 30
0.0
  9
$PUCSXDIR
 10
1.0
 20
0.0
 30
0.0
  9
$PUCSYDIR
 10
0.0
 20
1.0
 30
0.0
  9
$USERI1
 70
     0
  9
$USERI2
 70
     0
  9
$USERI3
 70
     0
  9
$USERI4
 70
     0
  9
$USERI5
 70
     0
  9
$USERR1
 40
0.0
  9
$USERR2
 40
0.0
  9
$USERR3
 40
0.0
  9
$USERR4
 40
0.0
  9
$USERR5
 40
0.0
  9
$WORLDVIEW
 70
     1
  9
$SHADEDGE
 70
     3
  9
$SHADEDIF
 70
    70
  9
$TILEMODE
 70
     1
  9
$MAXACTVP
 70
    48
  9
$PINSBASE
 10
0.0
 20
0.0
 30
0.0
  9
$PLIMCHECK
 70
     0
  9
$PEXTMIN
 10
1.000000000000000E+20
 20
1.000000000000000E+20
 30
1.000000000000000E+20
  9
$PEXTMAX
 10
-1.000000000000000E+20
 20
-1.000000000000000E+20
 30
-1.000000000000000E+20
  9
$PLIMMIN
 10
-5.873748779296875
 20
-5.873749732971191
  9
$PLIMMAX
 10
204.0995788574218
 20
291.1369009017943
  9
$UNITMODE
 70
     0
  9
$VISRETAIN
 70
     1
  9
$PLINEGEN
 70
     0
  9
$PSLTSCALE
 70
     1
  9
$TREEDEPTH
 70
  3020
  9
$PICKSTYLE
 70
     1
  9
$CMLSTYLE
  2
STANDARD
  9
$CMLJUST
 70
     0
  9
$CMLSCALE
 40
1.0
  9
$PROXYGRAPHICS
 70
     1
  9
$MEASUREMENT
 70
     0
  0
ENDSEC
  0
SECTION
  2
CLASSES
  0
CLASS
  1
ACDBDICTIONARYWDFLT
  2
AcDbDictionaryWithDefault
  3
AutoCAD 2000
 90
        0
280
     0
281
     0
  0
CLASS
  1
ACDBPLACEHOLDER
  2
AcDbPlaceHolder
  3
AutoCAD 2000
 90
        0
280
     0
281
     0
  0
CLASS
  1
LAYOUT
  2
AcDbLayout
  3
AutoCAD 2000
 90
        0
280
     0
281
     0
  0
CLASS
  1
LONG_TRANSACTION
  2
AcDbLongTransaction
  3
AutoCAD 2000
 90
        0
280
     0
281
     0
  0
CLASS
  1
LWPOLYLINE
  2
AcDbPolyline
  3
AutoCAD 2000
 90
        0
280
     0
281
     1
  0
CLASS
  1
HATCH
  2
AcDbHatch
  3
AutoCAD 2000
 90
        0
280
     0
281
     1
  0
CLASS
  1
XRECORD
  2
AcDbXrecord
  3
AutoCAD 2000
 90
        0
280
     0
281
     0
  0
CLASS
  1
LONG_TRANSACTION
  2
AcDbLongTransaction
  3
AutoCAD 2000
 90
        0
280
     0
281
     0
  0
CLASS
  1
LWPOLYLINE
  2
AcDbPolyline
  3
AutoCAD 2000
 90
        0
280
     0
281
     1
  0
CLASS
  1
HATCH
  2
AcDbHatch
  3
AutoCAD 2000
 90
        0
280
     0
281
     1
  0
CLASS
  1
XRECORD
  2
AcDbXrecord
  3
AutoCAD 2000
 90
        0
280
     0
281
     0
  0
CLASS
  1
LONG_TRANSACTION
  2
AcDbLongTransaction
  3
AutoCAD 2000
 90
        0
280
     0
281
     0
  0
CLASS
  1
LWPOLYLINE
  2
AcDbPolyline
  3
AutoCAD 2000
 90
        0
280
     0
281
     1
  0
CLASS
  1
HATCH
  2
AcDbHatch
  3
AutoCAD 2000
 90
        0
280
     0
281
     1
  0
CLASS
  1
XRECORD
  2
AcDbXrecord
  3
AutoCAD 2000
 90
        0
280
     0
281
     0
  0
CLASS
  1
LONG_TRANSACTION
  2
AcDbLongTransaction
  3
AutoCAD 2000
 90
        0
280
     0
281
     0
  0
CLASS
  1
LWPOLYLINE
  2
AcDbPolyline
  3
AutoCAD 2000
 90
        0
280
     0
281
     1
  0
CLASS
  1
HATCH
  2
AcDbHatch
  3
AutoCAD 2000
 90
        0
280
     0
281
     1
  0
CLASS
  1
XRECORD
  2
AcDbXrecord
  3
AutoCAD 2000
 90
        0
280
     0
281
     0
  0
CLASS
  1
LONG_TRANSACTION
  2
AcDbLongTransaction
  3
AutoCAD 2000
 90
        0
280
     0
281
     0
  0
CLASS
  1
LWPOLYLINE
  2
AcDbPolyline
  3
AutoCAD 2000
 90
        0
280
     0
281
     1
  0
CLASS
  1
HATCH
  2
AcDbHatch
  3
AutoCAD 2000
 90
        0
280
     0
281
     1
  0
CLASS
  1
XRECORD
  2
AcDbXrecord
  3
AutoCAD 2000
 90
        0
280
     0
281
     0
  0
CLASS
  1
LONG_TRANSACTION
  2
AcDbLongTransaction
  3
AutoCAD 2000
 90
        0
280
     0
281
     0
  0
CLASS
  1
LWPOLYLINE
  2
AcDbPolyline
  3
AutoCAD 2000
 90
        0
280
     0
281
     1
  0
CLASS
  1
HATCH
  2
AcDbHatch
  3
AutoCAD 2000
 90
        0
280
     0
281
     1
  0
CLASS
  1
XRECORD
  2
AcDbXrecord
  3
AutoCAD 2000
 90
        0
280
     0
281
     0
  0
CLASS
  1
LONG_TRANSACTION
  2
AcDbLongTransaction
  3
AutoCAD 2000
 90
        0
280
     0
281
     0
  0
CLASS
  1
LWPOLYLINE
  2
AcDbPolyline
  3
AutoCAD 2000
 90
        0
280
     0
281
     1
  0
CLASS
  1
HATCH
  2
AcDbHatch
  3
AutoCAD 2000
 90
        0
280
     0
281
     1
  0
CLASS
  1
XRECORD
  2
AcDbXrecord
  3
AutoCAD 2000
 90
        0
280
     0
281
     0
  0
CLASS
  1
LONG_TRANSACTION
  2
AcDbLongTransaction
  3
AutoCAD 2000
 90
        0
280
     0
281
     0
  0
CLASS
  1
LWPOLYLINE
  2
AcDbPolyline
  3
AutoCAD 2000
 90
        0
280
     0
281
     1
  0
CLASS
  1
HATCH
  2
AcDbHatch
  3
AutoCAD 2000
 90
        0
280
     0
281
     1
  0
CLASS
  1
XRECORD
  2
AcDbXrecord
  3
AutoCAD 2000
 90
        0
280
     0
281
     0
  0
CLASS
  1
LONG_TRANSACTION
  2
AcDbLongTransaction
  3
AutoCAD 2000
 90
        0
280
     0
281
     0
  0
CLASS
  1
LWPOLYLINE
  2
AcDbPolyline
  3
AutoCAD 2000
 90
        0
280
     0
281
     1
  0
CLASS
  1
HATCH
  2
AcDbHatch
  3
AutoCAD 2000
 90
        0
280
     0
281
     1
  0
CLASS
  1
XRECORD
  2
AcDbXrecord
  3
AutoCAD 2000
 90
        0
280
     0
281
     0
  0
CLASS
  1
LONG_TRANSACTION
  2
AcDbLongTransaction
  3
AutoCAD 2000
 90
        0
280
     0
281
     0
  0
CLASS
  1
LWPOLYLINE
  2
AcDbPolyline
  3
AutoCAD 2000
 90
        0
280
     0
281
     1
  0
CLASS
  1
HATCH
  2
AcDbHatch
  3
AutoCAD 2000
 90
        0
280
     0
281
     1
  0
CLASS
  1
XRECORD
  2
AcDbXrecord
  3
AutoCAD 2000
 90
        0
280
     0
281
     0
  0
CLASS
  1
LONG_TRANSACTION
  2
AcDbLongTransaction
  3
AutoCAD 2000
 90
        0
280
     0
281
     0
  0
CLASS
  1
LWPOLYLINE
  2
AcDbPolyline
  3
AutoCAD 2000
 90
        0
280
     0
281
     1
  0
CLASS
  1
HATCH
  2
AcDbHatch
  3
AutoCAD 2000
 90
        0
280
     0
281
     1
  0
CLASS
  1
XRECORD
  2
AcDbXrecord
  3
AutoCAD 2000
 90
        0
280
     0
281
     0
  0
CLASS
  1
LONG_TRANSACTION
  2
AcDbLongTransaction
  3
AutoCAD 2000
 90
        0
280
     0
281
     0
  0
CLASS
  1
LWPOLYLINE
  2
AcDbPolyline
  3
AutoCAD 2000
 90
        0
280
     0
281
     1
  0
CLASS
  1
HATCH
  2
AcDbHatch
  3
AutoCAD 2000
 90
        0
280
     0
281
     1
  0
CLASS
  1
XRECORD
  2
AcDbXrecord
  3
AutoCAD 2000
 90
        0
280
     0
281
     0
  0
CLASS
  1
LONG_TRANSACTION
  2
AcDbLongTransaction
  3
AutoCAD 2000
 90
        0
280
     0
281
     0
  0
CLASS
  1
LWPOLYLINE
  2
AcDbPolyline
  3
AutoCAD 2000
 90
        0
280
     0
281
     1
  0
CLASS
  1
HATCH
  2
AcDbHatch
  3
AutoCAD 2000
 90
        0
280
     0
281
     1
  0
CLASS
  1
XRECORD
  2
AcDbXrecord
  3
AutoCAD 2000
 90
        0
280
     0
281
     0
  0
CLASS
  1
LONG_TRANSACTION
  2
AcDbLongTransaction
  3
AutoCAD 2000
 90
        0
280
     0
281
     0
  0
CLASS
  1
LWPOLYLINE
  2
AcDbPolyline
  3
AutoCAD 2000
 90
        0
280
     0
281
     1
  0
CLASS
  1
HATCH
  2
AcDbHatch
  3
AutoCAD 2000
 90
        0
280
     0
281
     1
  0
CLASS
  1
XRECORD
  2
AcDbXrecord
  3
AutoCAD 2000
 90
        0
280
     0
281
     0
  0
CLASS
  1
LONG_TRANSACTION
  2
AcDbLongTransaction
  3
AutoCAD 2000
 90
        0
280
     0
281
     0
  0
CLASS
  1
LWPOLYLINE
  2
AcDbPolyline
  3
AutoCAD 2000
 90
        0
280
     0
281
     1
  0
CLASS
  1
HATCH
  2
AcDbHatch
  3
AutoCAD 2000
 90
        0
280
     0
281
     1
  0
CLASS
  1
XRECORD
  2
AcDbXrecord
  3
AutoCAD 2000
 90
        0
280
     0
281
     0
  0
CLASS
  1
LONG_TRANSACTION
  2
AcDbLongTransaction
  3
AutoCAD 2000
 90
        0
280
     0
281
     0
  0
CLASS
  1
LWPOLYLINE
  2
AcDbPolyline
  3
AutoCAD 2000
 90
        0
280
     0
281
     1
  0
CLASS
  1
HATCH
  2
AcDbHatch
  3
AutoCAD 2000
 90
        0
280
     0
281
     1
  0
CLASS
  1
XRECORD
  2
AcDbXrecord
  3
AutoCAD 2000
 90
        0
280
     0
281
     0
  0
CLASS
  1
LONG_TRANSACTION
  2
AcDbLongTransaction
  3
AutoCAD 2000
 90
        0
280
     0
281
     0
  0
CLASS
  1
LWPOLYLINE
  2
AcDbPolyline
  3
AutoCAD 2000
 90
        0
280
     0
281
     1
  0
CLASS
  1
HATCH
  2
AcDbHatch
  3
AutoCAD 2000
 90
        0
280
     0
281
     1
  0
CLASS
  1
XRECORD
  2
AcDbXrecord
  3
AutoCAD 2000
 90
        0
280
     0
281
     0
  0
CLASS
  1
LONG_TRANSACTION
  2
AcDbLongTransaction
  3
AutoCAD 2000
 90
        0
280
     0
281
     0
  0
CLASS
  1
LWPOLYLINE
  2
AcDbPolyline
  3
AutoCAD 2000
 90
        0
280
     0
281
     1
  0
CLASS
  1
HATCH
  2
AcDbHatch
  3
AutoCAD 2000
 90
        0
280
     0
281
     1
  0
CLASS
  1
XRECORD
  2
AcDbXrecord
  3
AutoCAD 2000
 90
        0
280
     0
281
     0
  0
CLASS
  1
LONG_TRANSACTION
  2
AcDbLongTransaction
  3
AutoCAD 2000
 90
        0
280
     0
281
     0
  0
CLASS
  1
LWPOLYLINE
  2
AcDbPolyline
  3
AutoCAD 2000
 90
        0
280
     0
281
     1
  0
CLASS
  1
HATCH
  2
AcDbHatch
  3
AutoCAD 2000
 90
        0
280
     0
281
     1
  0
CLASS
  1
XRECORD
  2
AcDbXrecord
  3
AutoCAD 2000
 90
        0
280
     0
281
     0
  0
CLASS
  1
LONG_TRANSACTION
  2
AcDbLongTransaction
  3
AutoCAD 2000
 90
        0
280
     0
281
     0
  0
CLASS
  1
LWPOLYLINE
  2
AcDbPolyline
  3
AutoCAD 2000
 90
        0
280
     0
281
     1
  0
CLASS
  1
HATCH
  2
AcDbHatch
  3
AutoCAD 2000
 90
        0
280
     0
281
     1
  0
CLASS
  1
XRECORD
  2
AcDbXrecord
  3
AutoCAD 2000
 90
        0
280
     0
281
     0
  0
CLASS
  1
LONG_TRANSACTION
  2
AcDbLongTransaction
  3
AutoCAD 2000
 90
        0
280
     0
281
     0
  0
CLASS
  1
LWPOLYLINE
  2
AcDbPolyline
  3
AutoCAD 2000
 90
        0
280
     0
281
     1
  0
CLASS
  1
HATCH
  2
AcDbHatch
  3
AutoCAD 2000
 90
        0
280
     0
281
     1
  0
CLASS
  1
XRECORD
  2
AcDbXrecord
  3
AutoCAD 2000
 90
        0
280
     0
281
     0
  0
CLASS
  1
LONG_TRANSACTION
  2
AcDbLongTransaction
  3
AutoCAD 2000
 90
        0
280
     0
281
     0
  0
CLASS
  1
LWPOLYLINE
  2
AcDbPolyline
  3
AutoCAD 2000
 90
        0
280
     0
281
     1
  0
CLASS
  1
HATCH
  2
AcDbHatch
  3
AutoCAD 2000
 90
        0
280
     0
281
     1
  0
CLASS
  1
XRECORD
  2
AcDbXrecord
  3
AutoCAD 2000
 90
        0
280
     0
281
     0
  0
CLASS
  1
LONG_TRANSACTION
  2
AcDbLongTransaction
  3
AutoCAD 2000
 90
        0
280
     0
281
     0
  0
CLASS
  1
LWPOLYLINE
  2
AcDbPolyline
  3
AutoCAD 2000
 90
        0
280
     0
281
     1
  0
CLASS
  1
HATCH
  2
AcDbHatch
  3
AutoCAD 2000
 90
        0
280
     0
281
     1
  0
CLASS
  1
XRECORD
  2
AcDbXrecord
  3
AutoCAD 2000
 90
        0
280
     0
281
     0
  0
CLASS
  1
LONG_TRANSACTION
  2
AcDbLongTransaction
  3
AutoCAD 2000
 90
        0
280
     0
281
     0
  0
CLASS
  1
LWPOLYLINE
  2
AcDbPolyline
  3
AutoCAD 2000
 90
        0
280
     0
281
     1
  0
CLASS
  1
HATCH
  2
AcDbHatch
  3
AutoCAD 2000
 90
        0
280
     0
281
     1
  0
CLASS
  1
XRECORD
  2
AcDbXrecord
  3
AutoCAD 2000
 90
        0
280
     0
281
     0
  0
CLASS
  1
LONG_TRANSACTION
  2
AcDbLongTransaction
  3
AutoCAD 2000
 90
        0
280
     0
281
     0
  0
CLASS
  1
LWPOLYLINE
  2
AcDbPolyline
  3
AutoCAD 2000
 90
        0
280
     0
281
     1
  0
CLASS
  1
HATCH
  2
AcDbHatch
  3
AutoCAD 2000
 90
        0
280
     0
281
     1
  0
CLASS
  1
XRECORD
  2
AcDbXrecord
  3
AutoCAD 2000
 90
        0
280
     0
281
     0
  0
CLASS
  1
LONG_TRANSACTION
  2
AcDbLongTransaction
  3
AutoCAD 2000
 90
        0
280
     0
281
     0
  0
CLASS
  1
LWPOLYLINE
  2
AcDbPolyline
  3
AutoCAD 2000
 90
        0
280
     0
281
     1
  0
CLASS
  1
HATCH
  2
AcDbHatch
  3
AutoCAD 2000
 90
        0
280
     0
281
     1
  0
CLASS
  1
XRECORD
  2
AcDbXrecord
  3
AutoCAD 2000
 90
        0
280
     0
281
     0
  0
CLASS
  1
LONG_TRANSACTION
  2
AcDbLongTransaction
  3
AutoCAD 2000
 90
        0
280
     0
281
     0
  0
CLASS
  1
LWPOLYLINE
  2
AcDbPolyline
  3
AutoCAD 2000
 90
        0
280
     0
281
     1
  0
CLASS
  1
HATCH
  2
AcDbHatch
  3
AutoCAD 2000
 90
        0
280
     0
281
     1
  0
CLASS
  1
XRECORD
  2
AcDbXrecord
  3
AutoCAD 2000
 90
        0
280
     0
281
     0
  0
CLASS
  1
LONG_TRANSACTION
  2
AcDbLongTransaction
  3
AutoCAD 2000
 90
        0
280
     0
281
     0
  0
CLASS
  1
LWPOLYLINE
  2
AcDbPolyline
  3
AutoCAD 2000
 90
        0
280
     0
281
     1
  0
CLASS
  1
HATCH
  2
AcDbHatch
  3
AutoCAD 2000
 90
        0
280
     0
281
     1
  0
CLASS
  1
XRECORD
  2
AcDbXrecord
  3
AutoCAD 2000
 90
        0
280
     0
281
     0
  0
CLASS
  1
LONG_TRANSACTION
  2
AcDbLongTransaction
  3
AutoCAD 2000
 90
        0
280
     0
281
     0
  0
CLASS
  1
LWPOLYLINE
  2
AcDbPolyline
  3
AutoCAD 2000
 90
        0
280
     0
281
     1
  0
CLASS
  1
HATCH
  2
AcDbHatch
  3
AutoCAD 2000
 90
        0
280
     0
281
     1
  0
CLASS
  1
XRECORD
  2
AcDbXrecord
  3
AutoCAD 2000
 90
        0
280
     0
281
     0
  0
CLASS
  1
LONG_TRANSACTION
  2
AcDbLongTransaction
  3
AutoCAD 2000
 90
        0
280
     0
281
     0
  0
CLASS
  1
LWPOLYLINE
  2
AcDbPolyline
  3
AutoCAD 2000
 90
        0
280
     0
281
     1
  0
CLASS
  1
HATCH
  2
AcDbHatch
  3
AutoCAD 2000
 90
        0
280
     0
281
     1
  0
CLASS
  1
XRECORD
  2
AcDbXrecord
  3
AutoCAD 2000
 90
        0
280
     0
281
     0
  0
CLASS
  1
LONG_TRANSACTION
  2
AcDbLongTransaction
  3
AutoCAD 2000
 90
        0
280
     0
281
     0
  0
CLASS
  1
LWPOLYLINE
  2
AcDbPolyline
  3
AutoCAD 2000
 90
        0
280
     0
281
     1
  0
CLASS
  1
HATCH
  2
AcDbHatch
  3
AutoCAD 2000
 90
        0
280
     0
281
     1
  0
CLASS
  1
XRECORD
  2
AcDbXrecord
  3
AutoCAD 2000
 90
        0
280
     0
281
     0
  0
CLASS
  1
LONG_TRANSACTION
  2
AcDbLongTransaction
  3
AutoCAD 2000
 90
        0
280
     0
281
     0
  0
CLASS
  1
LWPOLYLINE
  2
AcDbPolyline
  3
AutoCAD 2000
 90
        0
280
     0
281
     1
  0
CLASS
  1
HATCH
  2
AcDbHatch
  3
AutoCAD 2000
 90
        0
280
     0
281
     1
  0
CLASS
  1
XRECORD
  2
AcDbXrecord
  3
AutoCAD 2000
 90
        0
280
     0
281
     0
  0
CLASS
  1
LONG_TRANSACTION
  2
AcDbLongTransaction
  3
AutoCAD 2000
 90
        0
280
     0
281
     0
  0
CLASS
  1
LWPOLYLINE
  2
AcDbPolyline
  3
AutoCAD 2000
 90
        0
280
     0
281
     1
  0
CLASS
  1
HATCH
  2
AcDbHatch
  3
AutoCAD 2000
 90
        0
280
     0
281
     1
  0
CLASS
  1
XRECORD
  2
AcDbXrecord
  3
AutoCAD 2000
 90
        0
280
     0
281
     0
  0
CLASS
  1
DICTIONARYVAR
  2
AcDbDictionaryVar
  3
AutoCAD 2000
 90
        0
280
     0
281
     0
  0
CLASS
  1
LONG_TRANSACTION
  2
AcDbLongTransaction
  3
AutoCAD 2000
 90
        0
280
     0
281
     0
  0
CLASS
  1
LWPOLYLINE
  2
AcDbPolyline
  3
AutoCAD 2000
 90
        0
280
     0
281
     1
  0
CLASS
  1
HATCH
  2
AcDbHatch
  3
AutoCAD 2000
 90
        0
280
     0
281
     1
  0
CLASS
  1
XRECORD
  2
AcDbXrecord
  3
AutoCAD 2000
 90
        0
280
     0
281
     0
  0
CLASS
  1
LONG_TRANSACTION
  2
AcDbLongTransaction
  3
AutoCAD 2000
 90
        0
280
     0
281
     0
  0
CLASS
  1
LWPOLYLINE
  2
AcDbPolyline
  3
AutoCAD 2000
 90
        0
280
     0
281
     1
  0
CLASS
  1
HATCH
  2
AcDbHatch
  3
AutoCAD 2000
 90
        0
280
     0
281
     1
  0
CLASS
  1
XRECORD
  2
AcDbXrecord
  3
AutoCAD 2000
 90
        0
280
     0
281
     0
  0
CLASS
  1
LONG_TRANSACTION
  2
AcDbLongTransaction
  3
AutoCAD 2000
 90
        0
280
     0
281
     0
  0
CLASS
  1
LWPOLYLINE
  2
AcDbPolyline
  3
AutoCAD 2000
 90
        0
280
     0
281
     1
  0
CLASS
  1
HATCH
  2
AcDbHatch
  3
AutoCAD 2000
 90
        0
280
     0
281
     1
  0
CLASS
  1
XRECORD
  2
AcDbXrecord
  3
AutoCAD 2000
 90
        0
280
     0
281
     0
  0
ENDSEC
  0
SECTION
  2
TABLES
  0
TABLE
  2
VPORT
  5
8
330
0
100
AcDbSymbolTable
 70
     6
  0
VPORT
  5
A3AF
330
8
100
AcDbSymbolTableRecord
100
AcDbViewportTableRecord
  2
*ACTIVE
 70
     0
 10
0.0
 20
0.0
 11
1.0
 21
1.0
 12
237.1333854975409
 22
-57.79940124601967
 13
0.0
 23
0.0
 14
1.0
 24
1.0
 15
10.0
 25
10.0
 16
0.0
 26
0.0
 36
1.0
 17
0.0
 27
0.0
 37
0.0
 40
1567.579112189267
 41
2.295194508009153
 42
50.0
 43
0.0
 44
0.0
 50
0.0
 51
0.0
 71
     0
 72
   100
 73
     1
 74
     1
 75
     0
 76
     0
 77
     0
 78
     0
  0
ENDTAB
  0
TABLE
  2
LTYPE
  5
5
330
0
100
AcDbSymbolTable
 70
     5
  0
LTYPE
  5
13
330
5
100
AcDbSymbolTableRecord
100
AcDbLinetypeTableRecord
  2
BYBLOCK
 70
     0
  3

 72
    65
 73
     0
 40
0.0
  0
LTYPE
  5
14
330
5
100
AcDbSymbolTableRecord
100
AcDbLinetypeTableRecord
  2
BYLAYER
 70
     0
  3

 72
    65
 73
     0
 40
0.0
  0
LTYPE
  5
15
330
5
100
AcDbSymbolTableRecord
100
AcDbLinetypeTableRecord
  2
CONTINUOUS
 70
     0
  3
Solid line
 72
    65
 73
     0
 40
0.0
  0
LTYPE
  5
22
330
5
100
AcDbSymbolTableRecord
100
AcDbLinetypeTableRecord
  2
CONTINOUS
 70
     0
  3
Solid line
 72
    65
 73
     0
 40
0.0
  0
LTYPE
  5
23
330
5
100
AcDbSymbolTableRecord
100
AcDbLinetypeTableRecord
  2
DASHED
 70
     0
  3
__ __ __ __ __ __ __ __ __ __ __ __ __ __ __
 72
    65
 73
     2
 40
0.75
 49
0.5
 74
     0
 49
-0.25
 74
     0
  0
LTYPE
  5
24
330
5
100
AcDbSymbolTableRecord
100
AcDbLinetypeTableRecord
  2
DASHDOT
 70
     0
  3
__ . __ . __ . __ . __ . __ . __ . __ . __ . __
 72
    65
 73
     4
 40
1.0
 49
0.5
 74
     0
 49
-0.25
 74
     0
 49
0.0
 74
     0
 49
-0.25
 74
     0
  0
LTYPE
  5
4C47
330
5
100
AcDbSymbolTableRecord
100
AcDbLinetypeTableRecord
  2
DIVIDE
 70
     0
  3
Divide ____ . . ____ . . ____ . . ____ . . ____
 72
    65
 73
     6
 40
1.25
 49
0.5
 74
     0
 49
-0.25
 74
     0
 49
0.0
 74
     0
 49
-0.25
 74
     0
 49
0.0
 74
     0
 49
-0.25
 74
     0
  0
ENDTAB
  0
TABLE
  2
LAYER
  5
2
330
0
100
AcDbSymbolTable
 70
    11
  0
LAYER
  5
10
330
2
100
AcDbSymbolTableRecord
100
AcDbLayerTableRecord
  2
0
 70
     0
 62
     7
  6
CONTINOUS
  0
LAYER
  5
2F
330
2
100
AcDbSymbolTableRecord
100
AcDbLayerTableRecord
  2
10
 70
     0
 62
     4
  6
CONTINOUS
  0
LAYER
  5
31
330
2
100
AcDbSymbolTableRecord
100
AcDbLayerTableRecord
  2
12
 70
     0
 62
     3
  6
CONTINOUS
  0
LAYER
  5
35
330
2
100
AcDbSymbolTableRecord
100
AcDbLayerTableRecord
  2
16
 70
     0
 62
     6
  6
DASHDOT
  0
LAYER
  5
38
330
2
100
AcDbSymbolTableRecord
100
AcDbLayerTableRecord
  2
19
 70
     0
 62
     7
  6
CONTINOUS
  0
LAYER
  5
3C
330
2
100
AcDbSymbolTableRecord
100
AcDbLayerTableRecord
  2
11
 70
     0
 62
     1
  6
CONTINOUS
  0
LAYER
  5
3D
330
2
100
AcDbSymbolTableRecord
100
AcDbLayerTableRecord
  2
24
 70
     0
 62
     2
  6
CONTINOUS
  0
LAYER
  5
3A2
330
2
100
AcDbSymbolTableRecord
100
AcDbLayerTableRecord
  2
30
 70
     0
 62
     9
  6
CONTINUOUS
  0
LAYER
  5
3A4
330
2
100
AcDbSymbolTableRecord
100
AcDbLayerTableRecord
  2
DEFPOINTS
 70
     0
 62
     7
  6
CONTINUOUS
  0
LAYER
  5
3BBA
330
2
100
AcDbSymbolTableRecord
100
AcDbLayerTableRecord
  2
18
 70
     0
 62
     5
  6
DIVIDE
  0
LAYER
  5
929D
330
2
100
AcDbSymbolTableRecord
100
AcDbLayerTableRecord
  2
21
 70
     0
 62
     7
  6
CONTINUOUS
  0
ENDTAB
  0
TABLE
  2
STYLE
  5
3
330
0
100
AcDbSymbolTable
 70
     3
  0
STYLE
  5
11
330
3
100
AcDbSymbolTableRecord
100
AcDbTextStyleTableRecord
  2
STANDARD
 70
     0
 40
0.0
 41
1.0
 50
0.0
 71
     0
 42
2.0
  3
simplex.shx
  4
bigfont.shx
  0
STYLE
  5
42
330
3
100
AcDbSymbolTableRecord
100
AcDbTextStyleTableRecord
  2
STANDARD1
 70
     0
 40
0.0
 41
1.0
 50
0.0
 71
     0
 42
5.0
  3
simplex.shx
  4
BIGFONT.shx
  0
ENDTAB
  0
TABLE
  2
VIEW
  5
6
330
0
100
AcDbSymbolTable
 70
     3
  0
VIEW
  5
230C
330
6
100
AcDbSymbolTableRecord
100
AcDbViewTableRecord
  2
OLE1
 70
     0
 40
148.9124878027714
 10
429.4976280407223
 20
2.560626997828478
 41
103.1458057716444
 11
0.0
 21
0.0
 31
1.0
 12
0.0
 22
0.0
 32
0.0
 42
50.0
 43
0.0
 44
0.0
 50
0.0
 71
     0
  0
VIEW
  5
230E
330
6
100
AcDbSymbolTableRecord
100
AcDbViewTableRecord
  2
OLE2
 70
     0
 40
170.7786920545775
 10
322.664969958371
 20
-5.978304054290276
 41
102.4672152327465
 11
0.0
 21
0.0
 31
1.0
 12
0.0
 22
0.0
 32
0.0
 42
50.0
 43
0.0
 44
0.0
 50
0.0
 71
     0
  0
VIEW
  5
23AA
330
6
100
AcDbSymbolTableRecord
100
AcDbViewTableRecord
  2
OLE3
 70
     0
 40
591.7897393182231
 10
84.79698158148218
 20
-46.09336010803996
 41
388.7920961799953
 11
0.0
 21
0.0
 31
1.0
 12
0.0
 22
0.0
 32
0.0
 42
50.0
 43
0.0
 44
0.0
 50
0.0
 71
     0
  0
ENDTAB
  0
TABLE
  2
UCS
  5
7
330
0
100
AcDbSymbolTable
 70
     0
  0
ENDTAB
  0
TABLE
  2
APPID
  5
9
330
0
100
AcDbSymbolTable
 70
     2
  0
APPID
  5
12
330
9
100
AcDbSymbolTableRecord
100
AcDbRegAppTableRecord
  2
ACAD
 70
     0
  0
APPID
  5
ECD
330
9
100
AcDbSymbolTableRecord
100
AcDbRegAppTableRecord
  2
CONTENTBLOCKICON
 70
     0
  0
ENDTAB
  0
TABLE
  2
DIMSTYLE
  5
A
330
0
100
AcDbSymbolTable
 70
     1
  0
DIMSTYLE
105
175
102
{ACAD_REACTORS
330
768D
330
838B
330
83EC
330
833D
330
8353
330
8352
330
8347
330
91EB
330
93CC
330
93FB
330
93FA
330
943C
330
9449
330
9456
330
9463
330
9497
330
94A4
330
94B1
330
94BE
330
94D4
330
94E1
330
7673
330
907F
330
90B5
330
90B4
330
907E
330
9A60
330
833E
330
9DAC
330
9F73
330
9F74
330
9F75
330
9F76
330
9F77
330
9F78
330
9F79
330
9F7A
330
9F7B
330
9F7C
330
9F7E
330
9F7F
330
A2B4
102
}
330
A
100
AcDbSymbolTableRecord
100
AcDbDimStyleTableRecord
  2
STANDARD
 70
     0
  3

  4

  5
OPEN
  6

  7

 40
1.0
 41
2.0
 42
1.0
 43
0.5
 44
0.5
 45
0.0
 46
0.0
 47
0.0
 48
0.0
140
6.0
141
0.09
142
0.0
143
25.4
144
1.0
145
0.0
146
1.0
147
2.0
 71
     0
 72
     0
 73
     0
 74
     1
 75
     0
 76
     0
 77
     3
 78
    12
170
     0
171
     2
172
     0
173
     0
174
     0
175
     0
176
     0
177
     0
178
     0
270
     2
271
     1
272
     1
273
     2
274
     2
340
11
275
     0
280
     0
281
     0
282
     0
283
     1
284
     0
285
     0
286
     0
287
     3
288
     0
  0
ENDTAB
  0
TABLE
  2
BLOCK_RECORD
  5
1
330
0
100
AcDbSymbolTable
 70
    76
  0
BLOCK_RECORD
  5
1E
102
{ACAD_XDICTIONARY
360
178
102
}
330
1
100
AcDbSymbolTableRecord
100
AcDbBlockTableRecord
  2
*MODEL_SPACE
  0
BLOCK_RECORD
  5
1A
102
{ACAD_XDICTIONARY
360
17A
102
}
330
1
100
AcDbSymbolTableRecord
100
AcDbBlockTableRecord
  2
*PAPER_SPACE
  0
BLOCK_RECORD
  5
3B2
330
1
100
AcDbSymbolTableRecord
100
AcDbBlockTableRecord
  2
_OPEN
  0
BLOCK_RECORD
  5
768E
330
1
100
AcDbSymbolTableRecord
100
AcDbBlockTableRecord
  2
*D1
  0
BLOCK_RECORD
  5
83ED
330
1
100
AcDbSymbolTableRecord
100
AcDbBlockTableRecord
  2
*D2
  0
BLOCK_RECORD
  5
83F9
330
1
100
AcDbSymbolTableRecord
100
AcDbBlockTableRecord
  2
*D3
  0
BLOCK_RECORD
  5
8411
330
1
100
AcDbSymbolTableRecord
100
AcDbBlockTableRecord
  2
*D4
  0
BLOCK_RECORD
  5
841D
330
1
100
AcDbSymbolTableRecord
100
AcDbBlockTableRecord
  2
*D5
  0
BLOCK_RECORD
  5
8429
330
1
100
AcDbSymbolTableRecord
100
AcDbBlockTableRecord
  2
*D6
  0
BLOCK_RECORD
  5
8435
330
1
100
AcDbSymbolTableRecord
100
AcDbBlockTableRecord
  2
*D7
  0
BLOCK_RECORD
  5
8441
330
1
100
AcDbSymbolTableRecord
100
AcDbBlockTableRecord
  2
*D8
  0
BLOCK_RECORD
  5
90C2
330
1
100
AcDbSymbolTableRecord
100
AcDbBlockTableRecord
  2
*D25
  0
BLOCK_RECORD
  5
90CE
330
1
100
AcDbSymbolTableRecord
100
AcDbBlockTableRecord
  2
*D26
  0
BLOCK_RECORD
  5
90FE
330
1
100
AcDbSymbolTableRecord
100
AcDbBlockTableRecord
  2
*D27
  0
BLOCK_RECORD
  5
910A
330
1
100
AcDbSymbolTableRecord
100
AcDbBlockTableRecord
  2
*D28
  0
BLOCK_RECORD
  5
91EC
330
1
100
AcDbSymbolTableRecord
100
AcDbBlockTableRecord
  2
*D29
  0
BLOCK_RECORD
  5
93CD
330
1
100
AcDbSymbolTableRecord
100
AcDbBlockTableRecord
  2
*D30
  0
BLOCK_RECORD
  5
93FD
330
1
100
AcDbSymbolTableRecord
100
AcDbBlockTableRecord
  2
*D31
  0
BLOCK_RECORD
  5
9415
330
1
100
AcDbSymbolTableRecord
100
AcDbBlockTableRecord
  2
*D32
  0
BLOCK_RECORD
  5
943D
330
1
100
AcDbSymbolTableRecord
100
AcDbBlockTableRecord
  2
*D33
  0
BLOCK_RECORD
  5
944A
330
1
100
AcDbSymbolTableRecord
100
AcDbBlockTableRecord
  2
*D34
  0
BLOCK_RECORD
  5
9457
330
1
100
AcDbSymbolTableRecord
100
AcDbBlockTableRecord
  2
*D35
  0
BLOCK_RECORD
  5
9464
330
1
100
AcDbSymbolTableRecord
100
AcDbBlockTableRecord
  2
*D36
  0
BLOCK_RECORD
  5
9498
330
1
100
AcDbSymbolTableRecord
100
AcDbBlockTableRecord
  2
*D37
  0
BLOCK_RECORD
  5
94A5
330
1
100
AcDbSymbolTableRecord
100
AcDbBlockTableRecord
  2
*D38
  0
BLOCK_RECORD
  5
94B2
330
1
100
AcDbSymbolTableRecord
100
AcDbBlockTableRecord
  2
*D39
  0
BLOCK_RECORD
  5
94BF
330
1
100
AcDbSymbolTableRecord
100
AcDbBlockTableRecord
  2
*D40
  0
BLOCK_RECORD
  5
94D5
330
1
100
AcDbSymbolTableRecord
100
AcDbBlockTableRecord
  2
*D41
  0
BLOCK_RECORD
  5
94E2
330
1
100
AcDbSymbolTableRecord
100
AcDbBlockTableRecord
  2
*D42
  0
BLOCK_RECORD
  5
9A61
330
1
100
AcDbSymbolTableRecord
100
AcDbBlockTableRecord
  2
*D43
  0
BLOCK_RECORD
  5
9E43
330
1
100
AcDbSymbolTableRecord
100
AcDbBlockTableRecord
  2
*D47
  0
BLOCK_RECORD
  5
9F80
330
1
100
AcDbSymbolTableRecord
100
AcDbBlockTableRecord
  2
*D62
  0
BLOCK_RECORD
  5
9F8C
330
1
100
AcDbSymbolTableRecord
100
AcDbBlockTableRecord
  2
*D63
  0
BLOCK_RECORD
  5
9F98
330
1
100
AcDbSymbolTableRecord
100
AcDbBlockTableRecord
  2
*D64
  0
BLOCK_RECORD
  5
9FA4
330
1
100
AcDbSymbolTableRecord
100
AcDbBlockTableRecord
  2
*D65
  0
BLOCK_RECORD
  5
9FB0
330
1
100
AcDbSymbolTableRecord
100
AcDbBlockTableRecord
  2
*D66
  0
BLOCK_RECORD
  5
9FBC
330
1
100
AcDbSymbolTableRecord
100
AcDbBlockTableRecord
  2
*D67
  0
BLOCK_RECORD
  5
9FC8
330
1
100
AcDbSymbolTableRecord
100
AcDbBlockTableRecord
  2
*D68
  0
BLOCK_RECORD
  5
9FD4
330
1
100
AcDbSymbolTableRecord
100
AcDbBlockTableRecord
  2
*D69
  0
BLOCK_RECORD
  5
9FE0
330
1
100
AcDbSymbolTableRecord
100
AcDbBlockTableRecord
  2
*D70
  0
BLOCK_RECORD
  5
9FEC
330
1
100
AcDbSymbolTableRecord
100
AcDbBlockTableRecord
  2
*D71
  0
BLOCK_RECORD
  5
A004
330
1
100
AcDbSymbolTableRecord
100
AcDbBlockTableRecord
  2
*D73
  0
BLOCK_RECORD
  5
A010
330
1
100
AcDbSymbolTableRecord
100
AcDbBlockTableRecord
  2
*D74
  0
BLOCK_RECORD
  5
A2B5
330
1
100
AcDbSymbolTableRecord
100
AcDbBlockTableRecord
  2
*D75
  0
ENDTAB
  0
ENDSEC
  0
SECTION
  2
BLOCKS
  0
BLOCK
  5
1F
330
1E
100
AcDbEntity
  8
0
100
AcDbBlockBegin
  2
*MODEL_SPACE
 70
     0
 10
0.0
 20
0.0
 30
0.0
  3
*MODEL_SPACE
  1

  0
ENDBLK
  5
20
330
1E
100
AcDbEntity
  8
0
100
AcDbBlockEnd
  0
BLOCK
  5
1B
330
1A
100
AcDbEntity
 67
     1
  8
0
100
AcDbBlockBegin
  2
*PAPER_SPACE
 70
     0
 10
0.0
 20
0.0
 30
0.0
  3
*PAPER_SPACE
  1

  0
ENDBLK
  5
1C
330
1A
100
AcDbEntity
 67
     1
  8
0
100
AcDbBlockEnd
  0
BLOCK
  5
3B6
330
3B2
100
AcDbEntity
  8
0
100
AcDbBlockBegin
  2
_OPEN
 70
     0
 10
0.0
 20
0.0
 30
0.0
  3
_OPEN
  1

  0
LINE
  5
3B3
330
3B2
100
AcDbEntity
  8
30
  6
CONTINUOUS
 62
     0
100
AcDbLine
 10
-1.0
 20
0.1666666666666666
 30
0.0
 11
0.0
 21
0.0
 31
0.0
  0
LINE
  5
3B4
330
3B2
100
AcDbEntity
  8
30
  6
CONTINUOUS
 62
     0
100
AcDbLine
 10
-1.0
 20
-0.1666666666666666
 30
0.0
 11
0.0
 21
0.0
 31
0.0
  0
LINE
  5
3B5
330
3B2
100
AcDbEntity
  8
30
  6
CONTINUOUS
 62
     0
100
AcDbLine
 10
0.0
 20
0.0
 30
0.0
 11
-1.0
 21
0.0
 31
0.0
  0
ENDBLK
  5
3B7
330
3B2
100
AcDbEntity
  8
0
100
AcDbBlockEnd
  0
BLOCK
  5
7698
330
768E
100
AcDbEntity
  8
0
100
AcDbBlockBegin
  2
*D1
 70
     1
 10
0.0
 20
0.0
 30
0.0
  3
*D1
  1

  0
LINE
  5
9E86
330
768E
100
AcDbEntity
  8
30
  6
CONTINUOUS
 62
     0
100
AcDbLine
 10
402.4042601867131
 20
-679.500000113865
 30
0.0
 11
402.4042601867131
 21
-738.085449332625
 31
0.0
  0
LINE
  5
9E87
330
768E
100
AcDbEntity
  8
30
  6
CONTINUOUS
 62
     0
100
AcDbLine
 10
492.4042601867131
 20
-679.500000113865
 30
0.0
 11
492.4042601867131
 21
-738.085449332625
 31
0.0
  0
LINE
  5
9E88
330
768E
100
AcDbEntity
  8
30
  6
CONTINUOUS
 62
     0
100
AcDbLine
 10
404.4042601867131
 20
-737.585449332625
 30
0.0
 11
490.4042601867131
 21
-737.585449332625
 31
0.0
  0
INSERT
  5
9E89
330
768E
100
AcDbEntity
  8
30
  6
CONTINUOUS
 62
     0
100
AcDbBlockReference
  2
_OPEN
 10
402.4042601867131
 20
-737.585449332625
 30
0.0
 41
2.0
 42
2.0
 43
2.0
 50
180.0
  0
INSERT
  5
9E8A
330
768E
100
AcDbEntity
  8
30
  6
CONTINUOUS
 62
     0
100
AcDbBlockReference
  2
_OPEN
 10
492.4042601867131
 20
-737.585449332625
 30
0.0
 41
2.0
 42
2.0
 43
2.0
  0
MTEXT
  5
9E8B
330
768E
100
AcDbEntity
  8
30
  6
CONTINUOUS
 62
     0
100
AcDbMText
 10
447.4042601867131
 20
-732.5854493326249
 30
0.0
 40
6.0
 41
0.0
 71
     5
 72
     1
  1
\A1;90
1001
ACAD
1000
MTEXTBEGIN
1070
    73
1070
     1
1070
    44
1040
1.0
1070
    74
1070
     0
1000
MTEXTEND
  0
POINT
  5
9E8C
330
768E
100
AcDbEntity
  8
DEFPOINTS
  6
CONTINUOUS
 62
     0
100
AcDbPoint
 10
402.4042601867131
 20
-678.5000001138651
 30
0.0
  0
POINT
  5
9E8D
330
768E
100
AcDbEntity
  8
DEFPOINTS
  6
CONTINUOUS
 62
     0
100
AcDbPoint
 10
492.4042601867131
 20
-678.5000001138651
 30
0.0
  0
POINT
  5
9E8E
330
768E
100
AcDbEntity
  8
DEFPOINTS
  6
CONTINUOUS
 62
     0
100
AcDbPoint
 10
492.4042601867131
 20
-737.585449332625
 30
0.0
  0
ENDBLK
  5
7699
330
768E
100
AcDbEntity
  8
0
100
AcDbBlockEnd
  0
BLOCK
  5
83F7
330
83ED
100
AcDbEntity
  8
0
100
AcDbBlockBegin
  2
*D2
 70
     1
 10
0.0
 20
0.0
 30
0.0
  3
*D2
  1

  0
LINE
  5
9B7F
330
83ED
100
AcDbEntity
  8
30
  6
CONTINUOUS
 62
     0
100
AcDbLine
 10
544.5135643159351
 20
136.9986572266
 30
0.0
 11
597.2299506494964
 21
136.9986572265999
 31
0.0
  0
LINE
  5
9B80
330
83ED
100
AcDbEntity
  8
30
  6
CONTINUOUS
 62
     0
100
AcDbLine
 10
544.5135643159351
 20
151.9986572266
 30
0.0
 11
597.2299506494964
 21
151.9986572266
 31
0.0
  0
LINE
  5
9B81
330
83ED
100
AcDbEntity
  8
30
  6
CONTINUOUS
 62
     0
100
AcDbLine
 10
596.7299506494964
 20
138.9986572265999
 30
0.0
 11
596.7299506494964
 21
149.9986572265999
 31
0.0
  0
INSERT
  5
9B82
330
83ED
100
AcDbEntity
  8
30
  6
CONTINUOUS
 62
     0
100
AcDbBlockReference
  2
_OPEN
 10
596.7299506494964
 20
136.9986572265999
 30
0.0
 41
2.0
 42
2.0
 43
2.0
 50
270.0
  0
INSERT
  5
9B83
330
83ED
100
AcDbEntity
  8
30
  6
CONTINUOUS
 62
     0
100
AcDbBlockReference
  2
_OPEN
 10
596.7299506494964
 20
151.9986572266
 30
0.0
 41
2.0
 42
2.0
 43
2.0
 50
90.0
  0
MTEXT
  5
9B84
330
83ED
100
AcDbEntity
  8
30
  6
CONTINUOUS
 62
     0
100
AcDbMText
 10
591.7299506494964
 20
143.7415748127484
 30
0.0
 40
6.0
 41
0.0
 71
     5
 72
     1
  1
\A1;15
 11
0.0000000000000001
 21
1.0
 31
0.0
1001
ACAD
1000
MTEXTBEGIN
1070
    73
1070
     1
1070
    44
1040
1.0
1070
    74
1070
     0
1000
MTEXTEND
  0
POINT
  5
9B85
330
83ED
100
AcDbEntity
  8
DEFPOINTS
  6
CONTINUOUS
 62
     0
100
AcDbPoint
 10
543.5135643159351
 20
136.9986572266
 30
0.0
  0
POINT
  5
9B86
330
83ED
100
AcDbEntity
  8
DEFPOINTS
  6
CONTINUOUS
 62
     0
100
AcDbPoint
 10
543.5135643159351
 20
151.9986572266
 30
0.0
  0
POINT
  5
9B87
330
83ED
100
AcDbEntity
  8
DEFPOINTS
  6
CONTINUOUS
 62
     0
100
AcDbPoint
 10
596.7299506494964
 20
151.9986572266
 30
0.0
  0
ENDBLK
  5
83F8
330
83ED
100
AcDbEntity
  8
0
100
AcDbBlockEnd
  0
BLOCK
  5
8403
330
83F9
100
AcDbEntity
  8
0
100
AcDbBlockBegin
  2
*D3
 70
     1
 10
0.0
 20
0.0
 30
0.0
  3
*D3
  1

  0
LINE
  5
9B76
330
83F9
100
AcDbEntity
  8
30
  6
CONTINUOUS
 62
     0
100
AcDbLine
 10
454.5517625176744
 20
-0.0000000000000006
 30
0.0
 11
583.7246684674737
 21
-0.0000000000000372
 31
0.0
  0
LINE
  5
9B77
330
83F9
100
AcDbEntity
  8
30
  6
CONTINUOUS
 62
     0
100
AcDbLine
 10
468.419936386235
 20
143.9999999999999
 30
0.0
 11
583.7246684674737
 21
143.9999999999999
 31
0.0
  0
LINE
  5
9B78
330
83F9
100
AcDbEntity
  8
30
  6
CONTINUOUS
 62
     0
100
AcDbLine
 10
583.2246684674737
 20
1.999999999999962
 30
0.0
 11
583.2246684674737
 21
141.9999999999999
 31
0.0
  0
INSERT
  5
9B79
330
83F9
100
AcDbEntity
  8
30
  6
CONTINUOUS
 62
     0
100
AcDbBlockReference
  2
_OPEN
 10
583.2246684674737
 20
-0.000000000000037
 30
0.0
 41
2.0
 42
2.0
 43
2.0
 50
270.0
  0
INSERT
  5
9B7A
330
83F9
100
AcDbEntity
  8
30
  6
CONTINUOUS
 62
     0
100
AcDbBlockReference
  2
_OPEN
 10
583.2246684674737
 20
143.9999999999999
 30
0.0
 41
2.0
 42
2.0
 43
2.0
 50
90.0
  0
MTEXT
  5
9B7B
330
83F9
100
AcDbEntity
  8
30
  6
CONTINUOUS
 62
     0
100
AcDbMText
 10
578.2246684674738
 20
73.04784196101174
 30
0.0
 40
6.0
 41
0.0
 71
     5
 72
     1
  1
\A1;144
 11
0.0000000000000001
 21
1.0
 31
0.0
1001
ACAD
1000
MTEXTBEGIN
1070
    73
1070
     1
1070
    44
1040
1.0
1070
    74
1070
     0
1000
MTEXTEND
  0
POINT
  5
9B7C
330
83F9
100
AcDbEntity
  8
DEFPOINTS
  6
CONTINUOUS
 62
     0
100
AcDbPoint
 10
453.5517625176744
 20
-0.0000000000000003
 30
0.0
  0
POINT
  5
9B7D
330
83F9
100
AcDbEntity
  8
DEFPOINTS
  6
CONTINUOUS
 62
     0
100
AcDbPoint
 10
467.419936386235
 20
143.9999999999999
 30
0.0
  0
POINT
  5
9B7E
330
83F9
100
AcDbEntity
  8
DEFPOINTS
  6
CONTINUOUS
 62
     0
100
AcDbPoint
 10
583.2246684674737
 20
143.9999999999999
 30
0.0
  0
ENDBLK
  5
8404
330
83F9
100
AcDbEntity
  8
0
100
AcDbBlockEnd
  0
BLOCK
  5
841B
330
8411
100
AcDbEntity
  8
0
100
AcDbBlockBegin
  2
*D4
 70
     1
 10
0.0
 20
0.0
 30
0.0
  3
*D4
  1

  0
LINE
  5
9BAD
330
8411
100
AcDbEntity
  8
30
  6
CONTINUOUS
 62
     0
100
AcDbLine
 10
405.4199363862351
 20
-86.50048828119997
 30
0.0
 11
405.4199363862351
 21
-179.708715488558
 31
0.0
  0
LINE
  5
9BAE
330
8411
100
AcDbEntity
  8
30
  6
CONTINUOUS
 62
     0
100
AcDbLine
 10
426.4200828706351
 20
-70.79411621089997
 30
0.0
 11
426.4200828706351
 21
-179.708715488558
 31
0.0
  0
LINE
  5
9BAF
330
8411
100
AcDbEntity
  8
30
  6
CONTINUOUS
 62
     0
100
AcDbLine
 10
407.4199363862351
 20
-179.208715488558
 30
0.0
 11
424.420082870635
 21
-179.208715488558
 31
0.0
  0
INSERT
  5
9BB0
330
8411
100
AcDbEntity
  8
30
  6
CONTINUOUS
 62
     0
100
AcDbBlockReference
  2
_OPEN
 10
405.4199363862351
 20
-179.208715488558
 30
0.0
 41
2.0
 42
2.0
 43
2.0
 50
180.0
  0
INSERT
  5
9BB1
330
8411
100
AcDbEntity
  8
30
  6
CONTINUOUS
 62
     0
100
AcDbBlockReference
  2
_OPEN
 10
426.4200828706351
 20
-179.208715488558
 30
0.0
 41
2.0
 42
2.0
 43
2.0
  0
MTEXT
  5
9BB2
330
8411
100
AcDbEntity
  8
30
  6
CONTINUOUS
 62
     0
100
AcDbMText
 10
415.9700096284351
 20
-174.208715488558
 30
0.0
 40
6.0
 41
0.0
 71
     5
 72
     1
  1
\A1;21
1001
ACAD
1000
MTEXTBEGIN
1070
    73
1070
     1
1070
    44
1040
1.0
1070
    74
1070
     0
1000
MTEXTEND
  0
POINT
  5
9BB3
330
8411
100
AcDbEntity
  8
DEFPOINTS
  6
CONTINUOUS
 62
     0
100
AcDbPoint
 10
405.4199363862351
 20
-85.50048828119997
 30
0.0
  0
POINT
  5
9BB4
330
8411
100
AcDbEntity
  8
DEFPOINTS
  6
CONTINUOUS
 62
     0
100
AcDbPoint
 10
426.4200828706351
 20
-69.79411621089997
 30
0.0
  0
POINT
  5
9BB5
330
8411
100
AcDbEntity
  8
DEFPOINTS
  6
CONTINUOUS
 62
     0
100
AcDbPoint
 10
426.4200828706351
 20
-179.208715488558
 30
0.0
  0
ENDBLK
  5
841C
330
8411
100
AcDbEntity
  8
0
100
AcDbBlockEnd
  0
BLOCK
  5
8427
330
841D
100
AcDbEntity
  8
0
100
AcDbBlockBegin
  2
*D5
 70
     1
 10
0.0
 20
0.0
 30
0.0
  3
*D5
  1

  0
LINE
  5
994A
330
841D
100
AcDbEntity
  8
30
  6
CONTINUOUS
 62
     0
100
AcDbLine
 10
405.3200828706351
 20
-172.0002441405999
 30
0.0
 11
405.3200828706351
 21
-198.7344486611482
 31
0.0
  0
LINE
  5
994B
330
841D
100
AcDbEntity
  8
30
  6
CONTINUOUS
 62
     0
100
AcDbLine
 10
467.419936386235
 20
-144.5004882811999
 30
0.0
 11
467.419936386235
 21
-198.7344486611482
 31
0.0
  0
LINE
  5
994C
330
841D
100
AcDbEntity
  8
30
  6
CONTINUOUS
 62
     0
100
AcDbLine
 10
407.320082870635
 20
-198.2344486611482
 30
0.0
 11
465.4199363862351
 21
-198.2344486611482
 31
0.0
  0
INSERT
  5
994D
330
841D
100
AcDbEntity
  8
30
  6
CONTINUOUS
 62
     0
100
AcDbBlockReference
  2
_OPEN
 10
405.3200828706351
 20
-198.2344486611482
 30
0.0
 41
2.0
 42
2.0
 43
2.0
 50
180.0
  0
INSERT
  5
994E
330
841D
100
AcDbEntity
  8
30
  6
CONTINUOUS
 62
     0
100
AcDbBlockReference
  2
_OPEN
 10
467.419936386235
 20
-198.2344486611482
 30
0.0
 41
2.0
 42
2.0
 43
2.0
  0
MTEXT
  5
994F
330
841D
100
AcDbEntity
  8
30
  6
CONTINUOUS
 62
     0
100
AcDbMText
 10
425.2401698561258
 20
-193.2344486611482
 30
0.0
 40
6.0
 41
0.0
 71
     5
 72
     1
  1
\A1;62
1001
ACAD
1000
MTEXTBEGIN
1070
    73
1070
     1
1070
    44
1040
1.0
1070
    74
1070
     0
1000
MTEXTEND
  0
POINT
  5
9950
330
841D
100
AcDbEntity
  8
DEFPOINTS
  6
CONTINUOUS
 62
     0
100
AcDbPoint
 10
405.3200828706351
 20
-171.0002441405999
 30
0.0
  0
POINT
  5
9951
330
841D
100
AcDbEntity
  8
DEFPOINTS
  6
CONTINUOUS
 62
     0
100
AcDbPoint
 10
467.419936386235
 20
-143.5004882811999
 30
0.0
  0
POINT
  5
9952
330
841D
100
AcDbEntity
  8
DEFPOINTS
  6
CONTINUOUS
 62
     0
100
AcDbPoint
 10
467.419936386235
 20
-198.2344486611482
 30
0.0
  0
ENDBLK
  5
8428
330
841D
100
AcDbEntity
  8
0
100
AcDbBlockEnd
  0
BLOCK
  5
8433
330
8429
100
AcDbEntity
  8
0
100
AcDbBlockBegin
  2
*D6
 70
     1
 10
0.0
 20
0.0
 30
0.0
  3
*D6
  1

  0
LINE
  5
9941
330
8429
100
AcDbEntity
  8
30
  6
CONTINUOUS
 62
     0
100
AcDbLine
 10
467.419936386235
 20
-144.5004882811999
 30
0.0
 11
467.419936386235
 21
-198.7344486611493
 31
0.0
  0
LINE
  5
9942
330
8429
100
AcDbEntity
  8
30
  6
CONTINUOUS
 62
     0
100
AcDbLine
 10
552.4199363862351
 20
-122.5936279297
 30
0.0
 11
552.4199363862351
 21
-198.7344486611493
 31
0.0
  0
LINE
  5
9943
330
8429
100
AcDbEntity
  8
30
  6
CONTINUOUS
 62
     0
100
AcDbLine
 10
469.4199363862351
 20
-198.2344486611493
 30
0.0
 11
550.4199363862351
 21
-198.2344486611493
 31
0.0
  0
INSERT
  5
9944
330
8429
100
AcDbEntity
  8
30
  6
CONTINUOUS
 62
     0
100
AcDbBlockReference
  2
_OPEN
 10
467.419936386235
 20
-198.2344486611493
 30
0.0
 41
2.0
 42
2.0
 43
2.0
 50
180.0
  0
INSERT
  5
9945
330
8429
100
AcDbEntity
  8
30
  6
CONTINUOUS
 62
     0
100
AcDbBlockReference
  2
_OPEN
 10
552.4199363862351
 20
-198.2344486611493
 30
0.0
 41
2.0
 42
2.0
 43
2.0
  0
MTEXT
  5
9946
330
8429
100
AcDbEntity
  8
30
  6
CONTINUOUS
 62
     0
100
AcDbMText
 10
499.0982779642344
 20
-193.2344486611493
 30
0.0
 40
6.0
 41
0.0
 71
     5
 72
     1
  1
\A1;85
1001
ACAD
1000
MTEXTBEGIN
1070
    73
1070
     1
1070
    44
1040
1.0
1070
    74
1070
     0
1000
MTEXTEND
  0
POINT
  5
9947
330
8429
100
AcDbEntity
  8
DEFPOINTS
  6
CONTINUOUS
 62
     0
100
AcDbPoint
 10
467.419936386235
 20
-143.5004882811999
 30
0.0
  0
POINT
  5
9948
330
8429
100
AcDbEntity
  8
DEFPOINTS
  6
CONTINUOUS
 62
     0
100
AcDbPoint
 10
552.4199363862351
 20
-121.5936279297
 30
0.0
  0
POINT
  5
9949
330
8429
100
AcDbEntity
  8
DEFPOINTS
  6
CONTINUOUS
 62
     0
100
AcDbPoint
 10
552.4199363862351
 20
-198.2344486611493
 30
0.0
  0
ENDBLK
  5
8434
330
8429
100
AcDbEntity
  8
0
100
AcDbBlockEnd
  0
BLOCK
  5
843F
330
8435
100
AcDbEntity
  8
0
100
AcDbBlockBegin
  2
*D7
 70
     1
 10
0.0
 20
0.0
 30
0.0
  3
*D7
  1

  0
LINE
  5
9B64
330
8435
100
AcDbEntity
  8
30
  6
CONTINUOUS
 62
     0
100
AcDbLine
 10
267.419936386235
 20
171.0936279296999
 30
0.0
 11
267.419936386235
 21
217.4513534649002
 31
0.0
  0
LINE
  5
9B65
330
8435
100
AcDbEntity
  8
30
  6
CONTINUOUS
 62
     0
100
AcDbLine
 10
405.4199363862351
 20
116.4986572266
 30
0.0
 11
405.4199363862351
 21
217.4513534649002
 31
0.0
  0
LINE
  5
9B66
330
8435
100
AcDbEntity
  8
30
  6
CONTINUOUS
 62
     0
100
AcDbLine
 10
269.419936386235
 20
216.9513534649002
 30
0.0
 11
403.4199363862351
 21
216.9513534649002
 31
0.0
  0
INSERT
  5
9B67
330
8435
100
AcDbEntity
  8
30
  6
CONTINUOUS
 62
     0
100
AcDbBlockReference
  2
_OPEN
 10
267.419936386235
 20
216.9513534649002
 30
0.0
 41
2.0
 42
2.0
 43
2.0
 50
180.0
  0
INSERT
  5
9B68
330
8435
100
AcDbEntity
  8
30
  6
CONTINUOUS
 62
     0
100
AcDbBlockReference
  2
_OPEN
 10
405.4199363862351
 20
216.9513534649002
 30
0.0
 41
2.0
 42
2.0
 43
2.0
  0
MTEXT
  5
9B69
330
8435
100
AcDbEntity
  8
30
  6
CONTINUOUS
 62
     0
100
AcDbMText
 10
334.0515153336033
 20
221.9513534649002
 30
0.0
 40
6.0
 41
0.0
 71
     5
 72
     1
  1
\A1;138
1001
ACAD
1000
MTEXTBEGIN
1070
    73
1070
     1
1070
    44
1040
1.0
1070
    74
1070
     0
1000
MTEXTEND
  0
POINT
  5
9B6A
330
8435
100
AcDbEntity
  8
DEFPOINTS
  6
CONTINUOUS
 62
     0
100
AcDbPoint
 10
267.419936386235
 20
170.0936279297
 30
0.0
  0
POINT
  5
9B6B
330
8435
100
AcDbEntity
  8
DEFPOINTS
  6
CONTINUOUS
 62
     0
100
AcDbPoint
 10
405.4199363862351
 20
115.4986572266
 30
0.0
  0
POINT
  5
9B6C
330
8435
100
AcDbEntity
  8
DEFPOINTS
  6
CONTINUOUS
 62
     0
100
AcDbPoint
 10
405.4199363862351
 20
216.9513534649002
 30
0.0
  0
ENDBLK
  5
8440
330
8435
100
AcDbEntity
  8
0
100
AcDbBlockEnd
  0
BLOCK
  5
844B
330
8441
100
AcDbEntity
  8
0
100
AcDbBlockBegin
  2
*D8
 70
     1
 10
0.0
 20
0.0
 30
0.0
  3
*D8
  1

  0
LINE
  5
9B6D
330
8441
100
AcDbEntity
  8
30
  6
CONTINUOUS
 62
     0
100
AcDbLine
 10
480.7195361126068
 20
-0.0000000000000003
 30
0.0
 11
583.7246684674737
 21
-0.0000000000000295
 31
0.0
  0
LINE
  5
9B6E
330
8441
100
AcDbEntity
  8
30
  6
CONTINUOUS
 62
     0
100
AcDbLine
 10
553.4199363862351
 20
-114.0
 30
0.0
 11
583.7246684674737
 21
-114.0
 31
0.0
  0
LINE
  5
9B6F
330
8441
100
AcDbEntity
  8
30
  6
CONTINUOUS
 62
     0
100
AcDbLine
 10
583.2246684674737
 20
-2.000000000000029
 30
0.0
 11
583.2246684674737
 21
-112.0
 31
0.0
  0
INSERT
  5
9B70
330
8441
100
AcDbEntity
  8
30
  6
CONTINUOUS
 62
     0
100
AcDbBlockReference
  2
_OPEN
 10
583.2246684674737
 20
-0.0000000000000293
 30
0.0
 41
2.0
 42
2.0
 43
2.0
 50
90.0
  0
INSERT
  5
9B71
330
8441
100
AcDbEntity
  8
30
  6
CONTINUOUS
 62
     0
100
AcDbBlockReference
  2
_OPEN
 10
583.2246684674737
 20
-114.0
 30
0.0
 41
2.0
 42
2.0
 43
2.0
 50
270.0
  0
MTEXT
  5
9B72
330
8441
100
AcDbEntity
  8
30
  6
CONTINUOUS
 62
     0
100
AcDbMText
 10
578.2246684674738
 20
-58.93965591004853
 30
0.0
 40
6.0
 41
0.0
 71
     5
 72
     1
  1
\A1;114
 11
0.0000000000000001
 21
1.0
 31
0.0
1001
ACAD
1000
MTEXTBEGIN
1070
    73
1070
     1
1070
    44
1040
1.0
1070
    74
1070
     0
1000
MTEXTEND
  0
POINT
  5
9B73
330
8441
100
AcDbEntity
  8
DEFPOINTS
  6
CONTINUOUS
 62
     0
100
AcDbPoint
 10
479.7195361126068
 20
0.0
 30
0.0
  0
POINT
  5
9B74
330
8441
100
AcDbEntity
  8
DEFPOINTS
  6
CONTINUOUS
 62
     0
100
AcDbPoint
 10
552.4199363862351
 20
-114.0
 30
0.0
  0
POINT
  5
9B75
330
8441
100
AcDbEntity
  8
DEFPOINTS
  6
CONTINUOUS
 62
     0
100
AcDbPoint
 10
583.2246684674737
 20
-114.0
 30
0.0
  0
ENDBLK
  5
844C
330
8441
100
AcDbEntity
  8
0
100
AcDbBlockEnd
  0
BLOCK
  5
90CC
330
90C2
100
AcDbEntity
  8
0
100
AcDbBlockBegin
  2
*D25
 70
     1
 10
0.0
 20
0.0
 30
0.0
  3
*D25
  1

  0
LINE
  5
9EA1
330
90C2
100
AcDbEntity
  8
30
  6
CONTINUOUS
 62
     0
100
AcDbLine
 10
484.4980101867131
 20
-664.0000001138651
 30
0.0
 11
626.8105087262479
 21
-664.0000001138651
 31
0.0
  0
LINE
  5
9EA2
330
90C2
100
AcDbEntity
  8
30
  6
CONTINUOUS
 62
     0
100
AcDbLine
 10
584.4980101867131
 20
-639.0000001138651
 30
0.0
 11
626.8105087262479
 21
-639.0000001138651
 31
0.0
  0
LINE
  5
9EA3
330
90C2
100
AcDbEntity
  8
30
  6
CONTINUOUS
 62
     0
100
AcDbLine
 10
626.3105087262479
 20
-662.0000001138651
 30
0.0
 11
626.3105087262479
 21
-641.0000001138651
 31
0.0
  0
INSERT
  5
9EA4
330
90C2
100
AcDbEntity
  8
30
  6
CONTINUOUS
 62
     0
100
AcDbBlockReference
  2
_OPEN
 10
626.3105087262479
 20
-664.0000001138651
 30
0.0
 41
2.0
 42
2.0
 43
2.0
 50
270.0
  0
INSERT
  5
9EA5
330
90C2
100
AcDbEntity
  8
30
  6
CONTINUOUS
 62
     0
100
AcDbBlockReference
  2
_OPEN
 10
626.3105087262479
 20
-639.0000001138651
 30
0.0
 41
2.0
 42
2.0
 43
2.0
 50
90.0
  0
MTEXT
  5
9EA6
330
90C2
100
AcDbEntity
  8
30
  6
CONTINUOUS
 62
     0
100
AcDbMText
 10
621.310508726248
 20
-651.5000001138652
 30
0.0
 40
6.0
 41
0.0
 71
     5
 72
     1
  1
\A1;25
 11
0.0000000000000001
 21
1.0
 31
0.0
1001
ACAD
1000
MTEXTBEGIN
1070
    73
1070
     1
1070
    44
1040
1.0
1070
    74
1070
     0
1000
MTEXTEND
  0
POINT
  5
9EA7
330
90C2
100
AcDbEntity
  8
DEFPOINTS
  6
CONTINUOUS
 62
     0
100
AcDbPoint
 10
483.4980101867131
 20
-664.0000001138651
 30
0.0
  0
POINT
  5
9EA8
330
90C2
100
AcDbEntity
  8
DEFPOINTS
  6
CONTINUOUS
 62
     0
100
AcDbPoint
 10
583.4980101867131
 20
-639.0000001138651
 30
0.0
  0
POINT
  5
9EA9
330
90C2
100
AcDbEntity
  8
DEFPOINTS
  6
CONTINUOUS
 62
     0
100
AcDbPoint
 10
626.3105087262479
 20
-639.0000001138651
 30
0.0
  0
ENDBLK
  5
90CD
330
90C2
100
AcDbEntity
  8
0
100
AcDbBlockEnd
  0
BLOCK
  5
90D8
330
90CE
100
AcDbEntity
  8
0
100
AcDbBlockBegin
  2
*D26
 70
     1
 10
0.0
 20
0.0
 30
0.0
  3
*D26
  1

  0
LINE
  5
9E8F
330
90CE
100
AcDbEntity
  8
30
  6
CONTINUOUS
 62
     0
100
AcDbLine
 10
462.4316039367131
 20
-600.000000113865
 30
0.0
 11
643.1389415901084
 21
-600.000000113865
 31
0.0
  0
LINE
  5
9E90
330
90CE
100
AcDbEntity
  8
30
  6
CONTINUOUS
 62
     0
100
AcDbLine
 10
484.4980101867131
 20
-664.0000001138651
 30
0.0
 11
643.1389415901084
 21
-664.0000001138651
 31
0.0
  0
LINE
  5
9E91
330
90CE
100
AcDbEntity
  8
30
  6
CONTINUOUS
 62
     0
100
AcDbLine
 10
642.6389415901084
 20
-602.0000001138651
 30
0.0
 11
642.6389415901084
 21
-662.0000001138651
 31
0.0
  0
INSERT
  5
9E92
330
90CE
100
AcDbEntity
  8
30
  6
CONTINUOUS
 62
     0
100
AcDbBlockReference
  2
_OPEN
 10
642.6389415901084
 20
-600.000000113865
 30
0.0
 41
2.0
 42
2.0
 43
2.0
 50
90.0
  0
INSERT
  5
9E93
330
90CE
100
AcDbEntity
  8
30
  6
CONTINUOUS
 62
     0
100
AcDbBlockReference
  2
_OPEN
 10
642.6389415901084
 20
-664.0000001138651
 30
0.0
 41
2.0
 42
2.0
 43
2.0
 50
270.0
  0
MTEXT
  5
9E94
330
90CE
100
AcDbEntity
  8
30
  6
CONTINUOUS
 62
     0
100
AcDbMText
 10
637.6389415901085
 20
-631.5212378165299
 30
0.0
 40
6.0
 41
0.0
 71
     5
 72
     1
  1
\A1;64
 11
0.0000000000000001
 21
1.0
 31
0.0
1001
ACAD
1000
MTEXTBEGIN
1070
    73
1070
     1
1070
    44
1040
1.0
1070
    74
1070
     0
1000
MTEXTEND
  0
POINT
  5
9E95
330
90CE
100
AcDbEntity
  8
DEFPOINTS
  6
CONTINUOUS
 62
     0
100
AcDbPoint
 10
461.4316039367131
 20
-600.000000113865
 30
0.0
  0
POINT
  5
9E96
330
90CE
100
AcDbEntity
  8
DEFPOINTS
  6
CONTINUOUS
 62
     0
100
AcDbPoint
 10
483.4980101867131
 20
-664.0000001138651
 30
0.0
  0
POINT
  5
9E97
330
90CE
100
AcDbEntity
  8
DEFPOINTS
  6
CONTINUOUS
 62
     0
100
AcDbPoint
 10
642.6389415901084
 20
-664.0000001138651
 30
0.0
  0
ENDBLK
  5
90D9
330
90CE
100
AcDbEntity
  8
0
100
AcDbBlockEnd
  0
BLOCK
  5
9108
330
90FE
100
AcDbEntity
  8
0
100
AcDbBlockBegin
  2
*D27
 70
     1
 10
0.0
 20
0.0
 30
0.0
  3
*D27
  1

  0
LINE
  5
9EAA
330
90FE
100
AcDbEntity
  8
30
  6
CONTINUOUS
 62
     0
100
AcDbLine
 10
484.4980101867131
 20
-506.0000001138651
 30
0.0
 11
623.4490556712926
 21
-506.0000001138651
 31
0.0
  0
LINE
  5
9EAB
330
90FE
100
AcDbEntity
  8
30
  6
CONTINUOUS
 62
     0
100
AcDbLine
 10
594.4980101867131
 20
-531.0000001138651
 30
0.0
 11
623.4490556712926
 21
-531.0000001138651
 31
0.0
  0
LINE
  5
9EAC
330
90FE
100
AcDbEntity
  8
30
  6
CONTINUOUS
 62
     0
100
AcDbLine
 10
622.9490556712926
 20
-508.0000001138651
 30
0.0
 11
622.9490556712926
 21
-529.000000113865
 31
0.0
  0
INSERT
  5
9EAD
330
90FE
100
AcDbEntity
  8
30
  6
CONTINUOUS
 62
     0
100
AcDbBlockReference
  2
_OPEN
 10
622.9490556712926
 20
-506.0000001138651
 30
0.0
 41
2.0
 42
2.0
 43
2.0
 50
90.0
  0
INSERT
  5
9EAE
330
90FE
100
AcDbEntity
  8
30
  6
CONTINUOUS
 62
     0
100
AcDbBlockReference
  2
_OPEN
 10
622.9490556712926
 20
-531.0000001138651
 30
0.0
 41
2.0
 42
2.0
 43
2.0
 50
270.0
  0
MTEXT
  5
9EAF
330
90FE
100
AcDbEntity
  8
30
  6
CONTINUOUS
 62
     0
100
AcDbMText
 10
617.9490556712927
 20
-518.5000001138652
 30
0.0
 40
6.0
 41
0.0
 71
     5
 72
     1
  1
\A1;25
 11
0.0000000000000001
 21
1.0
 31
0.0
1001
ACAD
1000
MTEXTBEGIN
1070
    73
1070
     1
1070
    44
1040
1.0
1070
    74
1070
     0
1000
MTEXTEND
  0
POINT
  5
9EB0
330
90FE
100
AcDbEntity
  8
DEFPOINTS
  6
CONTINUOUS
 62
     0
100
AcDbPoint
 10
483.4980101867131
 20
-506.0000001138651
 30
0.0
  0
POINT
  5
9EB1
330
90FE
100
AcDbEntity
  8
DEFPOINTS
  6
CONTINUOUS
 62
     0
100
AcDbPoint
 10
593.4980101867131
 20
-531.0000001138651
 30
0.0
  0
POINT
  5
9EB2
330
90FE
100
AcDbEntity
  8
DEFPOINTS
  6
CONTINUOUS
 62
     0
100
AcDbPoint
 10
622.9490556712926
 20
-531.0000001138651
 30
0.0
  0
ENDBLK
  5
9109
330
90FE
100
AcDbEntity
  8
0
100
AcDbBlockEnd
  0
BLOCK
  5
9114
330
910A
100
AcDbEntity
  8
0
100
AcDbBlockBegin
  2
*D28
 70
     1
 10
0.0
 20
0.0
 30
0.0
  3
*D28
  1

  0
LINE
  5
9E98
330
910A
100
AcDbEntity
  8
30
  6
CONTINUOUS
 62
     0
100
AcDbLine
 10
484.4980101867131
 20
-506.0000001138651
 30
0.0
 11
643.1389415711309
 21
-506.0000001138651
 31
0.0
  0
LINE
  5
9E99
330
910A
100
AcDbEntity
  8
30
  6
CONTINUOUS
 62
     0
100
AcDbLine
 10
439.4980101867131
 20
-600.000000113865
 30
0.0
 11
643.1389415711309
 21
-600.000000113865
 31
0.0
  0
LINE
  5
9E9A
330
910A
100
AcDbEntity
  8
30
  6
CONTINUOUS
 62
     0
100
AcDbLine
 10
642.6389415711309
 20
-508.0000001138651
 30
0.0
 11
642.6389415711309
 21
-598.0000001138651
 31
0.0
  0
INSERT
  5
9E9B
330
910A
100
AcDbEntity
  8
30
  6
CONTINUOUS
 62
     0
100
AcDbBlockReference
  2
_OPEN
 10
642.6389415711309
 20
-506.0000001138651
 30
0.0
 41
2.0
 42
2.0
 43
2.0
 50
90.0
  0
INSERT
  5
9E9C
330
910A
100
AcDbEntity
  8
30
  6
CONTINUOUS
 62
     0
100
AcDbBlockReference
  2
_OPEN
 10
642.6389415711309
 20
-600.000000113865
 30
0.0
 41
2.0
 42
2.0
 43
2.0
 50
270.0
  0
MTEXT
  5
9E9D
330
910A
100
AcDbEntity
  8
30
  6
CONTINUOUS
 62
     0
100
AcDbMText
 10
637.638941571131
 20
-552.0870272902125
 30
0.0
 40
6.0
 41
0.0
 71
     5
 72
     1
  1
\A1;94
 11
0.0000000000000001
 21
1.0
 31
0.0
1001
ACAD
1000
MTEXTBEGIN
1070
    73
1070
     1
1070
    44
1040
1.0
1070
    74
1070
     0
1000
MTEXTEND
  0
POINT
  5
9E9E
330
910A
100
AcDbEntity
  8
DEFPOINTS
  6
CONTINUOUS
 62
     0
100
AcDbPoint
 10
483.4980101867131
 20
-506.0000001138651
 30
0.0
  0
POINT
  5
9E9F
330
910A
100
AcDbEntity
  8
DEFPOINTS
  6
CONTINUOUS
 62
     0
100
AcDbPoint
 10
438.4980101867131
 20
-600.000000113865
 30
0.0
  0
POINT
  5
9EA0
330
910A
100
AcDbEntity
  8
DEFPOINTS
  6
CONTINUOUS
 62
     0
100
AcDbPoint
 10
642.6389415711309
 20
-600.000000113865
 30
0.0
  0
ENDBLK
  5
9115
330
910A
100
AcDbEntity
  8
0
100
AcDbBlockEnd
  0
BLOCK
  5
91F6
330
91EC
100
AcDbEntity
  8
0
100
AcDbBlockBegin
  2
*D29
 70
     1
 10
0.0
 20
0.0
 30
0.0
  3
*D29
  1

  0
LINE
  5
A25B
330
91EC
100
AcDbEntity
  8
30
  6
CONTINUOUS
 62
     0
100
AcDbLine
 10
-22.49975585929989
 20
634.0
 30
0.0
 11
-22.49975585929988
 21
671.8554801843456
 31
0.0
  0
LINE
  5
A25C
330
91EC
100
AcDbEntity
  8
30
  6
CONTINUOUS
 62
     0
100
AcDbLine
 10
22.50024414070011
 20
634.0
 30
0.0
 11
22.50024414070011
 21
671.8554801843456
 31
0.0
  0
LINE
  5
A25D
330
91EC
100
AcDbEntity
  8
30
  6
CONTINUOUS
 62
     0
100
AcDbLine
 10
-20.49975585929988
 20
671.3554801843456
 30
0.0
 11
20.50024414070012
 21
671.3554801843456
 31
0.0
  0
INSERT
  5
A25E
330
91EC
100
AcDbEntity
  8
30
  6
CONTINUOUS
 62
     0
100
AcDbBlockReference
  2
_OPEN
 10
-22.49975585929988
 20
671.3554801843456
 30
0.0
 41
2.0
 42
2.0
 43
2.0
 50
180.0
  0
INSERT
  5
A25F
330
91EC
100
AcDbEntity
  8
30
  6
CONTINUOUS
 62
     0
100
AcDbBlockReference
  2
_OPEN
 10
22.50024414070011
 20
671.3554801843456
 30
0.0
 41
2.0
 42
2.0
 43
2.0
  0
MTEXT
  5
A260
330
91EC
100
AcDbEntity
  8
30
  6
CONTINUOUS
 62
     0
100
AcDbMText
 10
-2.710242156633627
 20
676.3554801843456
 30
0.0
 40
6.0
 41
0.0
 71
     5
 72
     1
  1
\A1;45
1001
ACAD
1000
MTEXTBEGIN
1070
    73
1070
     1
1070
    44
1040
1.0
1070
    74
1070
     0
1000
MTEXTEND
  0
POINT
  5
A261
330
91EC
100
AcDbEntity
  8
DEFPOINTS
  6
CONTINUOUS
 62
     0
100
AcDbPoint
 10
-22.49975585929996
 20
633.0
 30
0.0
  0
POINT
  5
A262
330
91EC
100
AcDbEntity
  8
DEFPOINTS
  6
CONTINUOUS
 62
     0
100
AcDbPoint
 10
22.50024414070003
 20
633.0
 30
0.0
  0
POINT
  5
A263
330
91EC
100
AcDbEntity
  8
DEFPOINTS
  6
CONTINUOUS
 62
     0
100
AcDbPoint
 10
22.50024414070003
 20
671.3554801843456
 30
0.0
  0
ENDBLK
  5
91F7
330
91EC
100
AcDbEntity
  8
0
100
AcDbBlockEnd
  0
BLOCK
  5
93D6
330
93CD
100
AcDbEntity
  8
0
100
AcDbBlockBegin
  2
*D30
 70
     1
 10
0.0
 20
0.0
 30
0.0
  3
*D30
  1

  0
LINE
  5
A276
330
93CD
100
AcDbEntity
  8
30
  6
CONTINUOUS
 62
     0
100
AcDbLine
 10
94.06026297932649
 20
642.5222693466475
 30
0.0
 11
76.89359631266057
 21
642.5222693466476
 31
0.0
  0
LINE
  5
A277
330
93CD
100
AcDbEntity
  8
30
  6
CONTINUOUS
 62
     0
100
AcDbLine
 10
76.89359631266057
 20
642.5222693466476
 30
0.0
 11
72.0815323238024
 21
628.0860773800761
 31
0.0
  0
MTEXT
  5
A278
330
93CD
100
AcDbEntity
  8
30
  6
CONTINUOUS
 62
     0
100
AcDbMText
 10
87.0602629793265
 20
647.5222693466475
 30
0.0
 40
6.0
 41
0.0
 71
     5
 72
     1
  1
\A1;%%c13
1001
ACAD
1000
MTEXTBEGIN
1070
    73
1070
     1
1070
    44
1040
1.0
1070
    74
1070
     0
1000
MTEXTEND
  0
INSERT
  5
A279
330
93CD
100
AcDbEntity
  8
30
  6
CONTINUOUS
 62
     0
100
AcDbBlockReference
  2
_OPEN
 10
71.44907679176859
 20
626.1887107839752
 30
0.0
 41
2.0
 42
2.0
 43
2.0
 50
251.5650511770743
  0
LINE
  5
A27A
330
93CD
100
AcDbEntity
  8
30
  6
CONTINUOUS
 62
     0
100
AcDbLine
 10
69.3035963126589
 20
620.0222693466474
 30
0.0
 11
69.48359631265891
 21
620.0222693466474
 31
0.0
  0
LINE
  5
A27B
330
93CD
100
AcDbEntity
  8
30
  6
CONTINUOUS
 62
     0
100
AcDbLine
 10
69.39359631265893
 20
619.9322693466475
 30
0.0
 11
69.39359631265891
 21
620.1122693466476
 31
0.0
  0
POINT
  5
A27C
330
93CD
100
AcDbEntity
  8
DEFPOINTS
  6
CONTINUOUS
 62
     0
100
AcDbPoint
 10
71.44907679176859
 20
626.1887107839752
 30
0.0
  0
POINT
  5
A27D
330
93CD
100
AcDbEntity
  8
DEFPOINTS
  6
CONTINUOUS
 62
     0
100
AcDbPoint
 10
69.39359631265893
 20
620.0222693466473
 30
0.0
  0
ENDBLK
  5
93D7
330
93CD
100
AcDbEntity
  8
0
100
AcDbBlockEnd
  0
BLOCK
  5
9407
330
93FD
100
AcDbEntity
  8
0
100
AcDbBlockBegin
  2
*D31
 70
     1
 10
0.0
 20
0.0
 30
0.0
  3
*D31
  1

  0
LINE
  5
A264
330
93FD
100
AcDbEntity
  8
30
  6
CONTINUOUS
 62
     0
100
AcDbLine
 10
-69.99999999999997
 20
620.0935058594
 30
0.0
 11
-69.99999999999997
 21
707.0532543537364
 31
0.0
  0
LINE
  5
A265
330
93FD
100
AcDbEntity
  8
30
  6
CONTINUOUS
 62
     0
100
AcDbLine
 10
0.0000000000000285
 20
620.0935058594
 30
0.0
 11
0.0000000000000338
 21
707.0532543537364
 31
0.0
  0
LINE
  5
A266
330
93FD
100
AcDbEntity
  8
30
  6
CONTINUOUS
 62
     0
100
AcDbLine
 10
-67.99999999999997
 20
706.5532543537364
 30
0.0
 11
-1.999999999999966
 21
706.5532543537364
 31
0.0
  0
INSERT
  5
A267
330
93FD
100
AcDbEntity
  8
30
  6
CONTINUOUS
 62
     0
100
AcDbBlockReference
  2
_OPEN
 10
-69.99999999999997
 20
706.5532543537364
 30
0.0
 41
2.0
 42
2.0
 43
2.0
 50
180.0
  0
INSERT
  5
A268
330
93FD
100
AcDbEntity
  8
30
  6
CONTINUOUS
 62
     0
100
AcDbBlockReference
  2
_OPEN
 10
0.0000000000000338
 20
706.5532543537364
 30
0.0
 41
2.0
 42
2.0
 43
2.0
  0
MTEXT
  5
A269
330
93FD
100
AcDbEntity
  8
30
  6
CONTINUOUS
 62
     0
100
AcDbMText
 10
-35.68598756442961
 20
711.5532543537364
 30
0.0
 40
6.0
 41
0.0
 71
     5
 72
     1
  1
\A1;70
1001
ACAD
1000
MTEXTBEGIN
1070
    73
1070
     1
1070
    44
1040
1.0
1070
    74
1070
     0
1000
MTEXTEND
  0
POINT
  5
A26A
330
93FD
100
AcDbEntity
  8
DEFPOINTS
  6
CONTINUOUS
 62
     0
100
AcDbPoint
 10
-69.99999999999997
 20
619.0935058594
 30
0.0
  0
POINT
  5
A26B
330
93FD
100
AcDbEntity
  8
DEFPOINTS
  6
CONTINUOUS
 62
     0
100
AcDbPoint
 10
0.0000000000000284
 20
619.0935058594
 30
0.0
  0
POINT
  5
A26C
330
93FD
100
AcDbEntity
  8
DEFPOINTS
  6
CONTINUOUS
 62
     0
100
AcDbPoint
 10
0.0000000000000338
 20
706.5532543537364
 30
0.0
  0
ENDBLK
  5
9408
330
93FD
100
AcDbEntity
  8
0
100
AcDbBlockEnd
  0
BLOCK
  5
941F
330
9415
100
AcDbEntity
  8
0
100
AcDbBlockBegin
  2
*D32
 70
     1
 10
0.0
 20
0.0
 30
0.0
  3
*D32
  1

  0
LINE
  5
A26D
330
9415
100
AcDbEntity
  8
30
  6
CONTINUOUS
 62
     0
100
AcDbLine
 10
0.0000000000000285
 20
620.0935058594
 30
0.0
 11
0.0000000000000338
 21
707.0532543537364
 31
0.0
  0
LINE
  5
A26E
330
9415
100
AcDbEntity
  8
30
  6
CONTINUOUS
 62
     0
100
AcDbLine
 10
69.99999999989999
 20
620.0935058594
 30
0.0
 11
69.99999999989999
 21
707.0532543537364
 31
0.0
  0
LINE
  5
A26F
330
9415
100
AcDbEntity
  8
30
  6
CONTINUOUS
 62
     0
100
AcDbLine
 10
2.000000000000033
 20
706.5532543537364
 30
0.0
 11
67.99999999989998
 21
706.5532543537364
 31
0.0
  0
INSERT
  5
A270
330
9415
100
AcDbEntity
  8
30
  6
CONTINUOUS
 62
     0
100
AcDbBlockReference
  2
_OPEN
 10
0.0000000000000338
 20
706.5532543537364
 30
0.0
 41
2.0
 42
2.0
 43
2.0
 50
180.0
  0
INSERT
  5
A271
330
9415
100
AcDbEntity
  8
30
  6
CONTINUOUS
 62
     0
100
AcDbBlockReference
  2
_OPEN
 10
69.99999999989999
 20
706.5532543537364
 30
0.0
 41
2.0
 42
2.0
 43
2.0
  0
MTEXT
  5
A272
330
9415
100
AcDbEntity
  8
30
  6
CONTINUOUS
 62
     0
100
AcDbMText
 10
34.31401243557039
 20
711.5532543537364
 30
0.0
 40
6.0
 41
0.0
 71
     5
 72
     1
  1
\A1;70
1001
ACAD
1000
MTEXTBEGIN
1070
    73
1070
     1
1070
    44
1040
1.0
1070
    74
1070
     0
1000
MTEXTEND
  0
POINT
  5
A273
330
9415
100
AcDbEntity
  8
DEFPOINTS
  6
CONTINUOUS
 62
     0
100
AcDbPoint
 10
0.0000000000000284
 20
619.0935058594
 30
0.0
  0
POINT
  5
A274
330
9415
100
AcDbEntity
  8
DEFPOINTS
  6
CONTINUOUS
 62
     0
100
AcDbPoint
 10
69.99999999989999
 20
619.0935058594
 30
0.0
  0
POINT
  5
A275
330
9415
100
AcDbEntity
  8
DEFPOINTS
  6
CONTINUOUS
 62
     0
100
AcDbPoint
 10
69.99999999989999
 20
706.5532543537364
 30
0.0
  0
ENDBLK
  5
9420
330
9415
100
AcDbEntity
  8
0
100
AcDbBlockEnd
  0
BLOCK
  5
9447
330
943D
100
AcDbEntity
  8
0
100
AcDbBlockBegin
  2
*D33
 70
     1
 10
0.0
 20
0.0
 30
0.0
  3
*D33
  1

  0
LINE
  5
A27E
330
943D
100
AcDbEntity
  8
30
  6
CONTINUOUS
 62
     0
100
AcDbLine
 10
106.0002441406
 20
548.9998779297
 30
0.0
 11
116.2167400158613
 21
548.9998779297
 31
0.0
  0
LINE
  5
A27F
330
943D
100
AcDbEntity
  8
30
  6
CONTINUOUS
 62
     0
100
AcDbLine
 10
86.00000000000006
 20
579.0
 30
0.0
 11
116.2167400158613
 21
579.0
 31
0.0
  0
LINE
  5
A280
330
943D
100
AcDbEntity
  8
30
  6
CONTINUOUS
 62
     0
100
AcDbLine
 10
115.7167400158613
 20
550.9998779296999
 30
0.0
 11
115.7167400158613
 21
577.0
 31
0.0
  0
INSERT
  5
A281
330
943D
100
AcDbEntity
  8
30
  6
CONTINUOUS
 62
     0
100
AcDbBlockReference
  2
_OPEN
 10
115.7167400158613
 20
548.9998779297
 30
0.0
 41
2.0
 42
2.0
 43
2.0
 50
270.0
  0
INSERT
  5
A282
330
943D
100
AcDbEntity
  8
30
  6
CONTINUOUS
 62
     0
100
AcDbBlockReference
  2
_OPEN
 10
115.7167400158613
 20
579.0
 30
0.0
 41
2.0
 42
2.0
 43
2.0
 50
90.0
  0
MTEXT
  5
A283
330
943D
100
AcDbEntity
  8
30
  6
CONTINUOUS
 62
     0
100
AcDbMText
 10
110.7167400158612
 20
563.99993896485
 30
0.0
 40
6.0
 41
0.0
 71
     5
 72
     1
  1
\A1;30
 11
0.0000000000000001
 21
1.0
 31
0.0
1001
ACAD
1000
MTEXTBEGIN
1070
    73
1070
     1
1070
    44
1040
1.0
1070
    74
1070
     0
1000
MTEXTEND
  0
POINT
  5
A284
330
943D
100
AcDbEntity
  8
DEFPOINTS
  6
CONTINUOUS
 62
     0
100
AcDbPoint
 10
105.0002441406
 20
548.9998779297
 30
0.0
  0
POINT
  5
A285
330
943D
100
AcDbEntity
  8
DEFPOINTS
  6
CONTINUOUS
 62
     0
100
AcDbPoint
 10
85.00000000000005
 20
579.0
 30
0.0
  0
POINT
  5
A286
330
943D
100
AcDbEntity
  8
DEFPOINTS
  6
CONTINUOUS
 62
     0
100
AcDbPoint
 10
115.7167400158613
 20
579.0
 30
0.0
  0
ENDBLK
  5
9448
330
943D
100
AcDbEntity
  8
0
100
AcDbBlockEnd
  0
BLOCK
  5
9454
330
944A
100
AcDbEntity
  8
0
100
AcDbBlockBegin
  2
*D34
 70
     1
 10
0.0
 20
0.0
 30
0.0
  3
*D34
  1

  0
LINE
  5
A3D3
330
944A
100
AcDbEntity
  8
30
  6
CONTINUOUS
 62
     0
100
AcDbLine
 10
86.00000000000006
 20
579.0
 30
0.0
 11
116.2167400158613
 21
579.0
 31
0.0
  0
LINE
  5
A3D4
330
944A
100
AcDbEntity
  8
30
  6
CONTINUOUS
 62
     0
100
AcDbLine
 10
86.00000000000006
 20
587.0
 30
0.0
 11
116.2167400158613
 21
587.0
 31
0.0
  0
LINE
  5
A3D5
330
944A
100
AcDbEntity
  8
30
  6
CONTINUOUS
 62
     0
100
AcDbLine
 10
115.7167400158613
 20
581.0
 30
0.0
 11
115.7167400158613
 21
585.0
 31
0.0
  0
MTEXT
  5
A3D6
330
944A
100
AcDbEntity
  8
30
  6
CONTINUOUS
 62
     0
100
AcDbMText
 10
110.7167400158613
 20
583.0
 30
0.0
 40
6.0
 41
0.0
 71
     5
 72
     1
  1
\A1;8
 11
0.0000000000000001
 21
1.0
 31
0.0
  0
INSERT
  5
A3D7
330
944A
100
AcDbEntity
  8
30
  6
CONTINUOUS
 62
     0
100
AcDbBlockReference
  2
_OPEN
 10
115.7167400158613
 20
579.0
 30
0.0
 41
2.0
 42
2.0
 43
2.0
 50
270.0
  0
INSERT
  5
A3D8
330
944A
100
AcDbEntity
  8
30
  6
CONTINUOUS
 62
     0
100
AcDbBlockReference
  2
_OPEN
 10
115.7167400158613
 20
587.0
 30
0.0
 41
2.0
 42
2.0
 43
2.0
 50
90.0
  0
POINT
  5
A3D9
330
944A
100
AcDbEntity
  8
DEFPOINTS
  6
CONTINUOUS
 62
     0
100
AcDbPoint
 10
85.00000000000005
 20
579.0
 30
0.0
  0
POINT
  5
A3DA
330
944A
100
AcDbEntity
  8
DEFPOINTS
  6
CONTINUOUS
 62
     0
100
AcDbPoint
 10
85.00000000000005
 20
587.0
 30
0.0
  0
POINT
  5
A3DB
330
944A
100
AcDbEntity
  8
DEFPOINTS
  6
CONTINUOUS
 62
     0
100
AcDbPoint
 10
115.7167400158613
 20
587.0
 30
0.0
  0
ENDBLK
  5
9455
330
944A
100
AcDbEntity
  8
0
100
AcDbBlockEnd
  0
BLOCK
  5
9461
330
9457
100
AcDbEntity
  8
0
100
AcDbBlockBegin
  2
*D35
 70
     1
 10
0.0
 20
0.0
 30
0.0
  3
*D35
  1

  0
LINE
  5
A3DC
330
9457
100
AcDbEntity
  8
30
  6
CONTINUOUS
 62
     0
100
AcDbLine
 10
86.00000000000006
 20
587.0
 30
0.0
 11
116.2167400158613
 21
587.0
 31
0.0
  0
LINE
  5
A3DD
330
9457
100
AcDbEntity
  8
30
  6
CONTINUOUS
 62
     0
100
AcDbLine
 10
86.00000000000006
 20
619.0
 30
0.0
 11
116.2167400158613
 21
619.0
 31
0.0
  0
LINE
  5
A3DE
330
9457
100
AcDbEntity
  8
30
  6
CONTINUOUS
 62
     0
100
AcDbLine
 10
115.7167400158613
 20
589.0
 30
0.0
 11
115.7167400158613
 21
617.0
 31
0.0
  0
INSERT
  5
A3DF
330
9457
100
AcDbEntity
  8
30
  6
CONTINUOUS
 62
     0
100
AcDbBlockReference
  2
_OPEN
 10
115.7167400158613
 20
587.0
 30
0.0
 41
2.0
 42
2.0
 43
2.0
 50
270.0
  0
INSERT
  5
A3E0
330
9457
100
AcDbEntity
  8
30
  6
CONTINUOUS
 62
     0
100
AcDbBlockReference
  2
_OPEN
 10
115.7167400158613
 20
619.0
 30
0.0
 41
2.0
 42
2.0
 43
2.0
 50
90.0
  0
MTEXT
  5
A3E1
330
9457
100
AcDbEntity
  8
30
  6
CONTINUOUS
 62
     0
100
AcDbMText
 10
110.7167400158612
 20
603.0
 30
0.0
 40
6.0
 41
0.0
 71
     5
 72
     1
  1
\A1;32
 11
0.0000000000000001
 21
1.0
 31
0.0
  0
POINT
  5
A3E2
330
9457
100
AcDbEntity
  8
DEFPOINTS
  6
CONTINUOUS
 62
     0
100
AcDbPoint
 10
85.00000000000005
 20
587.0
 30
0.0
  0
POINT
  5
A3E3
330
9457
100
AcDbEntity
  8
DEFPOINTS
  6
CONTINUOUS
 62
     0
100
AcDbPoint
 10
85.00000000000005
 20
619.0
 30
0.0
  0
POINT
  5
A3E4
330
9457
100
AcDbEntity
  8
DEFPOINTS
  6
CONTINUOUS
 62
     0
100
AcDbPoint
 10
115.7167400158613
 20
619.0
 30
0.0
  0
ENDBLK
  5
9462
330
9457
100
AcDbEntity
  8
0
100
AcDbBlockEnd
  0
BLOCK
  5
946E
330
9464
100
AcDbEntity
  8
0
100
AcDbBlockBegin
  2
*D36
 70
     1
 10
0.0
 20
0.0
 30
0.0
  3
*D36
  1

  0
LINE
  5
A3E5
330
9464
100
AcDbEntity
  8
30
  6
CONTINUOUS
 62
     0
100
AcDbLine
 10
86.00000000000006
 20
619.0
 30
0.0
 11
116.2167400158613
 21
619.0
 31
0.0
  0
LINE
  5
A3E6
330
9464
100
AcDbEntity
  8
30
  6
CONTINUOUS
 62
     0
100
AcDbLine
 10
93.50024414070009
 20
634.0
 30
0.0
 11
116.2167400158613
 21
634.0
 31
0.0
  0
LINE
  5
A3E7
330
9464
100
AcDbEntity
  8
30
  6
CONTINUOUS
 62
     0
100
AcDbLine
 10
115.7167400158613
 20
621.0
 30
0.0
 11
115.7167400158613
 21
632.0
 31
0.0
  0
INSERT
  5
A3E8
330
9464
100
AcDbEntity
  8
30
  6
CONTINUOUS
 62
     0
100
AcDbBlockReference
  2
_OPEN
 10
115.7167400158613
 20
619.0
 30
0.0
 41
2.0
 42
2.0
 43
2.0
 50
270.0
  0
INSERT
  5
A3E9
330
9464
100
AcDbEntity
  8
30
  6
CONTINUOUS
 62
     0
100
AcDbBlockReference
  2
_OPEN
 10
115.7167400158613
 20
634.0
 30
0.0
 41
2.0
 42
2.0
 43
2.0
 50
90.0
  0
MTEXT
  5
A3EA
330
9464
100
AcDbEntity
  8
30
  6
CONTINUOUS
 62
     0
100
AcDbMText
 10
110.7167400158612
 20
626.5
 30
0.0
 40
6.0
 41
0.0
 71
     5
 72
     1
  1
\A1;15
 11
0.0000000000000001
 21
1.0
 31
0.0
  0
POINT
  5
A3EB
330
9464
100
AcDbEntity
  8
DEFPOINTS
  6
CONTINUOUS
 62
     0
100
AcDbPoint
 10
85.00000000000005
 20
619.0
 30
0.0
  0
POINT
  5
A3EC
330
9464
100
AcDbEntity
  8
DEFPOINTS
  6
CONTINUOUS
 62
     0
100
AcDbPoint
 10
92.5002441407001
 20
634.0
 30
0.0
  0
POINT
  5
A3ED
330
9464
100
AcDbEntity
  8
DEFPOINTS
  6
CONTINUOUS
 62
     0
100
AcDbPoint
 10
115.7167400158613
 20
634.0
 30
0.0
  0
ENDBLK
  5
946F
330
9464
100
AcDbEntity
  8
0
100
AcDbBlockEnd
  0
BLOCK
  5
94A2
330
9498
100
AcDbEntity
  8
0
100
AcDbBlockBegin
  2
*D37
 70
     1
 10
0.0
 20
0.0
 30
0.0
  3
*D37
  1

  0
LINE
  5
A213
330
9498
100
AcDbEntity
  8
30
  6
CONTINUOUS
 62
     0
100
AcDbLine
 10
-105.9999389648499
 20
200.0
 30
0.0
 11
-166.4169122489493
 21
200.0
 31
0.0
  0
LINE
  5
A214
330
9498
100
AcDbEntity
  8
30
  6
CONTINUOUS
 62
     0
100
AcDbLine
 10
-105.9999389648499
 20
0.0000000000000003
 30
0.0
 11
-166.4169122489493
 21
0.0000000000000174
 31
0.0
  0
LINE
  5
A215
330
9498
100
AcDbEntity
  8
30
  6
CONTINUOUS
 62
     0
100
AcDbLine
 10
-165.9169122489493
 20
198.0
 30
0.0
 11
-165.9169122489493
 21
2.000000000000017
 31
0.0
  0
INSERT
  5
A216
330
9498
100
AcDbEntity
  8
30
  6
CONTINUOUS
 62
     0
100
AcDbBlockReference
  2
_OPEN
 10
-165.9169122489493
 20
200.0
 30
0.0
 41
2.0
 42
2.0
 43
2.0
 50
90.0
  0
INSERT
  5
A217
330
9498
100
AcDbEntity
  8
30
  6
CONTINUOUS
 62
     0
100
AcDbBlockReference
  2
_OPEN
 10
-165.9169122489493
 20
0.0000000000000173
 30
0.0
 41
2.0
 42
2.0
 43
2.0
 50
270.0
  0
MTEXT
  5
A218
330
9498
100
AcDbEntity
  8
30
  6
CONTINUOUS
 62
     0
100
AcDbMText
 10
-170.9169122489493
 20
100.0
 30
0.0
 40
6.0
 41
0.0
 71
     5
 72
     1
  1
\A1;200
 11
0.0000000000000001
 21
1.0
 31
0.0
1001
ACAD
1000
MTEXTBEGIN
1070
    73
1070
     1
1070
    44
1040
1.0
1070
    74
1070
     0
1000
MTEXTEND
  0
POINT
  5
A219
330
9498
100
AcDbEntity
  8
DEFPOINTS
  6
CONTINUOUS
 62
     0
100
AcDbPoint
 10
-104.9999389648499
 20
200.0
 30
0.0
  0
POINT
  5
A21A
330
9498
100
AcDbEntity
  8
DEFPOINTS
  6
CONTINUOUS
 62
     0
100
AcDbPoint
 10
-104.9999389648499
 20
0.0
 30
0.0
  0
POINT
  5
A21B
330
9498
100
AcDbEntity
  8
DEFPOINTS
  6
CONTINUOUS
 62
     0
100
AcDbPoint
 10
-165.9169122489493
 20
0.0000000000000173
 30
0.0
  0
ENDBLK
  5
94A3
330
9498
100
AcDbEntity
  8
0
100
AcDbBlockEnd
  0
BLOCK
  5
94AF
330
94A5
100
AcDbEntity
  8
0
100
AcDbBlockBegin
  2
*D38
 70
     1
 10
0.0
 20
0.0
 30
0.0
  3
*D38
  1

  0
LINE
  5
A237
330
94A5
100
AcDbEntity
  8
30
  6
CONTINUOUS
 62
     0
100
AcDbLine
 10
-105.9999389648499
 20
0.0000000000000003
 30
0.0
 11
-166.4169122489493
 21
0.0000000000000174
 31
0.0
  0
LINE
  5
A238
330
94A5
100
AcDbEntity
  8
30
  6
CONTINUOUS
 62
     0
100
AcDbLine
 10
-105.9999389648499
 20
-170.0
 30
0.0
 11
-166.4169122489494
 21
-170.0
 31
0.0
  0
LINE
  5
A239
330
94A5
100
AcDbEntity
  8
30
  6
CONTINUOUS
 62
     0
100
AcDbLine
 10
-165.9169122489493
 20
-1.999999999999982
 30
0.0
 11
-165.9169122489494
 21
-168.0
 31
0.0
  0
INSERT
  5
A23A
330
94A5
100
AcDbEntity
  8
30
  6
CONTINUOUS
 62
     0
100
AcDbBlockReference
  2
_OPEN
 10
-165.9169122489493
 20
0.0000000000000173
 30
0.0
 41
2.0
 42
2.0
 43
2.0
 50
90.0
  0
INSERT
  5
A23B
330
94A5
100
AcDbEntity
  8
30
  6
CONTINUOUS
 62
     0
100
AcDbBlockReference
  2
_OPEN
 10
-165.9169122489494
 20
-170.0
 30
0.0
 41
2.0
 42
2.0
 43
2.0
 50
270.0
  0
MTEXT
  5
A23C
330
94A5
100
AcDbEntity
  8
30
  6
CONTINUOUS
 62
     0
100
AcDbMText
 10
-170.9169122489493
 20
-85.00000000000001
 30
0.0
 40
6.0
 41
0.0
 71
     5
 72
     1
  1
\A1;170
 11
0.0000000000000001
 21
1.0
 31
0.0
1001
ACAD
1000
MTEXTBEGIN
1070
    73
1070
     1
1070
    44
1040
1.0
1070
    74
1070
     0
1000
MTEXTEND
  0
POINT
  5
A23D
330
94A5
100
AcDbEntity
  8
DEFPOINTS
  6
CONTINUOUS
 62
     0
100
AcDbPoint
 10
-104.9999389648499
 20
0.0
 30
0.0
  0
POINT
  5
A23E
330
94A5
100
AcDbEntity
  8
DEFPOINTS
  6
CONTINUOUS
 62
     0
100
AcDbPoint
 10
-104.9999389648499
 20
-170.0
 30
0.0
  0
POINT
  5
A23F
330
94A5
100
AcDbEntity
  8
DEFPOINTS
  6
CONTINUOUS
 62
     0
100
AcDbPoint
 10
-165.9169122489494
 20
-170.0
 30
0.0
  0
ENDBLK
  5
94B0
330
94A5
100
AcDbEntity
  8
0
100
AcDbBlockEnd
  0
BLOCK
  5
94BC
330
94B2
100
AcDbEntity
  8
0
100
AcDbBlockBegin
  2
*D39
 70
     1
 10
0.0
 20
0.0
 30
0.0
  3
*D39
  1

  0
LINE
  5
A21C
330
94B2
100
AcDbEntity
  8
30
  6
CONTINUOUS
 62
     0
100
AcDbLine
 10
-39.99999999999997
 20
47.5
 30
0.0
 11
-139.4197758474457
 21
47.50000000000002
 31
0.0
  0
LINE
  5
A21D
330
94B2
100
AcDbEntity
  8
30
  6
CONTINUOUS
 62
     0
100
AcDbLine
 10
-105.9999389648499
 20
0.0000000000000003
 30
0.0
 11
-139.4197758474457
 21
0.0000000000000098
 31
0.0
  0
LINE
  5
A21E
330
94B2
100
AcDbEntity
  8
30
  6
CONTINUOUS
 62
     0
100
AcDbLine
 10
-138.9197758474457
 20
45.50000000000003
 30
0.0
 11
-138.9197758474457
 21
2.000000000000009
 31
0.0
  0
INSERT
  5
A21F
330
94B2
100
AcDbEntity
  8
30
  6
CONTINUOUS
 62
     0
100
AcDbBlockReference
  2
_OPEN
 10
-138.9197758474457
 20
47.50000000000002
 30
0.0
 41
2.0
 42
2.0
 43
2.0
 50
90.0
  0
INSERT
  5
A220
330
94B2
100
AcDbEntity
  8
30
  6
CONTINUOUS
 62
     0
100
AcDbBlockReference
  2
_OPEN
 10
-138.9197758474457
 20
0.0000000000000096
 30
0.0
 41
2.0
 42
2.0
 43
2.0
 50
270.0
  0
MTEXT
  5
A221
330
94B2
100
AcDbEntity
  8
30
  6
CONTINUOUS
 62
     0
100
AcDbMText
 10
-143.9197758474457
 20
23.74999999999999
 30
0.0
 40
6.0
 41
0.0
 71
     5
 72
     1
  1
\A1;47.5
 11
0.0000000000000001
 21
1.0
 31
0.0
1001
ACAD
1000
MTEXTBEGIN
1070
    73
1070
     1
1070
    44
1040
1.0
1070
    74
1070
     0
1000
MTEXTEND
  0
POINT
  5
A222
330
94B2
100
AcDbEntity
  8
DEFPOINTS
  6
CONTINUOUS
 62
     0
100
AcDbPoint
 10
-38.99999999999997
 20
47.5
 30
0.0
  0
POINT
  5
A223
330
94B2
100
AcDbEntity
  8
DEFPOINTS
  6
CONTINUOUS
 62
     0
100
AcDbPoint
 10
-104.9999389648499
 20
0.0
 30
0.0
  0
POINT
  5
A224
330
94B2
100
AcDbEntity
  8
DEFPOINTS
  6
CONTINUOUS
 62
     0
100
AcDbPoint
 10
-138.9197758474457
 20
0.0000000000000096
 30
0.0
  0
ENDBLK
  5
94BD
330
94B2
100
AcDbEntity
  8
0
100
AcDbBlockEnd
  0
BLOCK
  5
94C9
330
94BF
100
AcDbEntity
  8
0
100
AcDbBlockBegin
  2
*D40
 70
     1
 10
0.0
 20
0.0
 30
0.0
  3
*D40
  1

  0
LINE
  5
A22E
330
94BF
100
AcDbEntity
  8
30
  6
CONTINUOUS
 62
     0
100
AcDbLine
 10
-105.9999389648499
 20
0.0000000000000003
 30
0.0
 11
-139.4197758474457
 21
0.0000000000000098
 31
0.0
  0
LINE
  5
A22F
330
94BF
100
AcDbEntity
  8
30
  6
CONTINUOUS
 62
     0
100
AcDbLine
 10
-39.99999999999997
 20
-47.5
 30
0.0
 11
-139.4197758474457
 21
-47.49999999999997
 31
0.0
  0
LINE
  5
A230
330
94BF
100
AcDbEntity
  8
30
  6
CONTINUOUS
 62
     0
100
AcDbLine
 10
-138.9197758474457
 20
-1.99999999999999
 30
0.0
 11
-138.9197758474457
 21
-45.49999999999997
 31
0.0
  0
INSERT
  5
A231
330
94BF
100
AcDbEntity
  8
30
  6
CONTINUOUS
 62
     0
100
AcDbBlockReference
  2
_OPEN
 10
-138.9197758474457
 20
0.0000000000000096
 30
0.0
 41
2.0
 42
2.0
 43
2.0
 50
90.0
  0
INSERT
  5
A232
330
94BF
100
AcDbEntity
  8
30
  6
CONTINUOUS
 62
     0
100
AcDbBlockReference
  2
_OPEN
 10
-138.9197758474457
 20
-47.49999999999997
 30
0.0
 41
2.0
 42
2.0
 43
2.0
 50
270.0
  0
MTEXT
  5
A233
330
94BF
100
AcDbEntity
  8
30
  6
CONTINUOUS
 62
     0
100
AcDbMText
 10
-143.9197758474457
 20
-23.75
 30
0.0
 40
6.0
 41
0.0
 71
     5
 72
     1
  1
\A1;47.5
 11
0.0000000000000001
 21
1.0
 31
0.0
1001
ACAD
1000
MTEXTBEGIN
1070
    73
1070
     1
1070
    44
1040
1.0
1070
    74
1070
     0
1000
MTEXTEND
  0
POINT
  5
A234
330
94BF
100
AcDbEntity
  8
DEFPOINTS
  6
CONTINUOUS
 62
     0
100
AcDbPoint
 10
-104.9999389648499
 20
0.0
 30
0.0
  0
POINT
  5
A235
330
94BF
100
AcDbEntity
  8
DEFPOINTS
  6
CONTINUOUS
 62
     0
100
AcDbPoint
 10
-38.99999999999997
 20
-47.5
 30
0.0
  0
POINT
  5
A236
330
94BF
100
AcDbEntity
  8
DEFPOINTS
  6
CONTINUOUS
 62
     0
100
AcDbPoint
 10
-138.9197758474457
 20
-47.49999999999997
 30
0.0
  0
ENDBLK
  5
94CA
330
94BF
100
AcDbEntity
  8
0
100
AcDbBlockEnd
  0
BLOCK
  5
94DF
330
94D5
100
AcDbEntity
  8
0
100
AcDbBlockBegin
  2
*D41
 70
     1
 10
0.0
 20
0.0
 30
0.0
  3
*D41
  1

  0
LINE
  5
A225
330
94D5
100
AcDbEntity
  8
30
  6
CONTINUOUS
 62
     0
100
AcDbLine
 10
-50.99999999999997
 20
184.0
 30
0.0
 11
-153.0815270822969
 21
184.0
 31
0.0
  0
LINE
  5
A226
330
94D5
100
AcDbEntity
  8
30
  6
CONTINUOUS
 62
     0
100
AcDbLine
 10
-105.9999389648499
 20
0.0000000000000003
 30
0.0
 11
-153.0815270822969
 21
0.0000000000000136
 31
0.0
  0
LINE
  5
A227
330
94D5
100
AcDbEntity
  8
30
  6
CONTINUOUS
 62
     0
100
AcDbLine
 10
-152.5815270822969
 20
182.0
 30
0.0
 11
-152.5815270822969
 21
2.000000000000013
 31
0.0
  0
INSERT
  5
A228
330
94D5
100
AcDbEntity
  8
30
  6
CONTINUOUS
 62
     0
100
AcDbBlockReference
  2
_OPEN
 10
-152.5815270822969
 20
184.0
 30
0.0
 41
2.0
 42
2.0
 43
2.0
 50
90.0
  0
INSERT
  5
A229
330
94D5
100
AcDbEntity
  8
30
  6
CONTINUOUS
 62
     0
100
AcDbBlockReference
  2
_OPEN
 10
-152.5815270822969
 20
0.0000000000000135
 30
0.0
 41
2.0
 42
2.0
 43
2.0
 50
270.0
  0
MTEXT
  5
A22A
330
94D5
100
AcDbEntity
  8
30
  6
CONTINUOUS
 62
     0
100
AcDbMText
 10
-157.5815270822969
 20
92.0
 30
0.0
 40
6.0
 41
0.0
 71
     5
 72
     1
  1
\A1;184
 11
0.0000000000000001
 21
1.0
 31
0.0
1001
ACAD
1000
MTEXTBEGIN
1070
    73
1070
     1
1070
    44
1040
1.0
1070
    74
1070
     0
1000
MTEXTEND
  0
POINT
  5
A22B
330
94D5
100
AcDbEntity
  8
DEFPOINTS
  6
CONTINUOUS
 62
     0
100
AcDbPoint
 10
-49.99999999999997
 20
184.0
 30
0.0
  0
POINT
  5
A22C
330
94D5
100
AcDbEntity
  8
DEFPOINTS
  6
CONTINUOUS
 62
     0
100
AcDbPoint
 10
-104.9999389648499
 20
0.0
 30
0.0
  0
POINT
  5
A22D
330
94D5
100
AcDbEntity
  8
DEFPOINTS
  6
CONTINUOUS
 62
     0
100
AcDbPoint
 10
-152.5815270822969
 20
0.0000000000000135
 30
0.0
  0
ENDBLK
  5
94E0
330
94D5
100
AcDbEntity
  8
0
100
AcDbBlockEnd
  0
BLOCK
  5
94EC
330
94E2
100
AcDbEntity
  8
0
100
AcDbBlockBegin
  2
*D42
 70
     1
 10
0.0
 20
0.0
 30
0.0
  3
*D42
  1

  0
LINE
  5
A240
330
94E2
100
AcDbEntity
  8
30
  6
CONTINUOUS
 62
     0
100
AcDbLine
 10
-105.9999389648499
 20
0.0000000000000003
 30
0.0
 11
-153.0815270822969
 21
0.0000000000000136
 31
0.0
  0
LINE
  5
A241
330
94E2
100
AcDbEntity
  8
30
  6
CONTINUOUS
 62
     0
100
AcDbLine
 10
-50.99999999999997
 20
-154.0
 30
0.0
 11
-153.0815270822969
 21
-153.9999999999999
 31
0.0
  0
LINE
  5
A242
330
94E2
100
AcDbEntity
  8
30
  6
CONTINUOUS
 62
     0
100
AcDbLine
 10
-152.5815270822969
 20
-1.999999999999986
 30
0.0
 11
-152.5815270822969
 21
-151.9999999999999
 31
0.0
  0
INSERT
  5
A243
330
94E2
100
AcDbEntity
  8
30
  6
CONTINUOUS
 62
     0
100
AcDbBlockReference
  2
_OPEN
 10
-152.5815270822969
 20
0.0000000000000135
 30
0.0
 41
2.0
 42
2.0
 43
2.0
 50
90.0
  0
INSERT
  5
A244
330
94E2
100
AcDbEntity
  8
30
  6
CONTINUOUS
 62
     0
100
AcDbBlockReference
  2
_OPEN
 10
-152.5815270822969
 20
-153.9999999999999
 30
0.0
 41
2.0
 42
2.0
 43
2.0
 50
270.0
  0
MTEXT
  5
A245
330
94E2
100
AcDbEntity
  8
30
  6
CONTINUOUS
 62
     0
100
AcDbMText
 10
-157.5815270822969
 20
-77.0
 30
0.0
 40
6.0
 41
0.0
 71
     5
 72
     1
  1
\A1;154
 11
0.0000000000000001
 21
1.0
 31
0.0
1001
ACAD
1000
MTEXTBEGIN
1070
    73
1070
     1
1070
    44
1040
1.0
1070
    74
1070
     0
1000
MTEXTEND
  0
POINT
  5
A246
330
94E2
100
AcDbEntity
  8
DEFPOINTS
  6
CONTINUOUS
 62
     0
100
AcDbPoint
 10
-104.9999389648499
 20
0.0
 30
0.0
  0
POINT
  5
A247
330
94E2
100
AcDbEntity
  8
DEFPOINTS
  6
CONTINUOUS
 62
     0
100
AcDbPoint
 10
-49.99999999999997
 20
-154.0
 30
0.0
  0
POINT
  5
A248
330
94E2
100
AcDbEntity
  8
DEFPOINTS
  6
CONTINUOUS
 62
     0
100
AcDbPoint
 10
-152.5815270822969
 20
-153.9999999999999
 30
0.0
  0
ENDBLK
  5
94ED
330
94E2
100
AcDbEntity
  8
0
100
AcDbBlockEnd
  0
BLOCK
  5
9A6B
330
9A61
100
AcDbEntity
  8
0
100
AcDbBlockBegin
  2
*D43
 70
     1
 10
0.0
 20
0.0
 30
0.0
  3
*D43
  1

  0
LINE
  5
A20A
330
9A61
100
AcDbEntity
  8
30
  6
CONTINUOUS
 62
     0
100
AcDbLine
 10
-104.9999389648499
 20
-171.0
 30
0.0
 11
-104.9999389648499
 21
-205.4867585002912
 31
0.0
  0
LINE
  5
A20B
330
9A61
100
AcDbEntity
  8
30
  6
CONTINUOUS
 62
     0
100
AcDbLine
 10
104.99993896488
 20
-171.0
 30
0.0
 11
104.99993896488
 21
-205.4867585002912
 31
0.0
  0
LINE
  5
A20C
330
9A61
100
AcDbEntity
  8
30
  6
CONTINUOUS
 62
     0
100
AcDbLine
 10
-102.9999389648499
 20
-204.9867585002912
 30
0.0
 11
102.99993896488
 21
-204.9867585002912
 31
0.0
  0
INSERT
  5
A20D
330
9A61
100
AcDbEntity
  8
30
  6
CONTINUOUS
 62
     0
100
AcDbBlockReference
  2
_OPEN
 10
-104.9999389648499
 20
-204.9867585002912
 30
0.0
 41
2.0
 42
2.0
 43
2.0
 50
180.0
  0
INSERT
  5
A20E
330
9A61
100
AcDbEntity
  8
30
  6
CONTINUOUS
 62
     0
100
AcDbBlockReference
  2
_OPEN
 10
104.99993896488
 20
-204.9867585002912
 30
0.0
 41
2.0
 42
2.0
 43
2.0
  0
MTEXT
  5
A20F
330
9A61
100
AcDbEntity
  8
30
  6
CONTINUOUS
 62
     0
100
AcDbMText
 10
0.0000000000150354
 20
-199.9867585002912
 30
0.0
 40
6.0
 41
0.0
 71
     5
 72
     1
  1
\A1;210
1001
ACAD
1000
MTEXTBEGIN
1070
    73
1070
     1
1070
    44
1040
1.0
1070
    74
1070
     0
1000
MTEXTEND
  0
POINT
  5
A210
330
9A61
100
AcDbEntity
  8
DEFPOINTS
  6
CONTINUOUS
 62
     0
100
AcDbPoint
 10
-104.9999389648499
 20
-170.0
 30
0.0
  0
POINT
  5
A211
330
9A61
100
AcDbEntity
  8
DEFPOINTS
  6
CONTINUOUS
 62
     0
100
AcDbPoint
 10
104.99993896488
 20
-170.0
 30
0.0
  0
POINT
  5
A212
330
9A61
100
AcDbEntity
  8
DEFPOINTS
  6
CONTINUOUS
 62
     0
100
AcDbPoint
 10
104.99993896488
 20
-204.9867585002912
 30
0.0
  0
ENDBLK
  5
9A6C
330
9A61
100
AcDbEntity
  8
0
100
AcDbBlockEnd
  0
BLOCK
  5
9E4D
330
9E43
100
AcDbEntity
  8
0
100
AcDbBlockBegin
  2
*D47
 70
     1
 10
0.0
 20
0.0
 30
0.0
  3
*D47
  1

  0
LINE
  5
A38A
330
9E43
100
AcDbEntity
  8
30
  6
CONTINUOUS
 62
     0
100
AcDbLine
 10
-44.99999999999997
 20
-643.0941162108999
 30
0.0
 11
-44.99999999999997
 21
-635.7220458984007
 31
0.0
  0
LINE
  5
A38B
330
9E43
100
AcDbEntity
  8
30
  6
CONTINUOUS
 62
     0
100
AcDbLine
 10
44.99902343750003
 20
-643.0941162108999
 30
0.0
 11
44.99902343750003
 21
-635.7220458984007
 31
0.0
  0
LINE
  5
A38C
330
9E43
100
AcDbEntity
  8
30
  6
CONTINUOUS
 62
     0
100
AcDbLine
 10
-42.99999999999997
 20
-636.2220458984007
 30
0.0
 11
42.99902343750003
 21
-636.2220458984007
 31
0.0
  0
INSERT
  5
A38D
330
9E43
100
AcDbEntity
  8
30
  6
CONTINUOUS
 62
     0
100
AcDbBlockReference
  2
_OPEN
 10
-44.99999999999997
 20
-636.2220458984007
 30
0.0
 41
2.0
 42
2.0
 43
2.0
 50
180.0
  0
INSERT
  5
A38E
330
9E43
100
AcDbEntity
  8
30
  6
CONTINUOUS
 62
     0
100
AcDbBlockReference
  2
_OPEN
 10
44.99902343750003
 20
-636.2220458984007
 30
0.0
 41
2.0
 42
2.0
 43
2.0
  0
MTEXT
  5
A38F
330
9E43
100
AcDbEntity
  8
30
  6
CONTINUOUS
 62
     0
100
AcDbMText
 10
3.844383445946306
 20
-631.2220458984007
 30
0.0
 40
6.0
 41
0.0
 71
     5
 72
     1
  1
\A1;90
1001
ACAD
1000
MTEXTBEGIN
1070
    73
1070
     1
1070
    44
1040
1.0
1070
    74
1070
     0
1000
MTEXTEND
  0
POINT
  5
A390
330
9E43
100
AcDbEntity
  8
DEFPOINTS
  6
CONTINUOUS
 62
     0
100
AcDbPoint
 10
-44.99999999999997
 20
-644.0941162108999
 30
0.0
  0
POINT
  5
A391
330
9E43
100
AcDbEntity
  8
DEFPOINTS
  6
CONTINUOUS
 62
     0
100
AcDbPoint
 10
44.99902343750003
 20
-644.0941162108999
 30
0.0
  0
POINT
  5
A392
330
9E43
100
AcDbEntity
  8
DEFPOINTS
  6
CONTINUOUS
 62
     0
100
AcDbPoint
 10
44.99902343750003
 20
-636.2220458984007
 30
0.0
  0
ENDBLK
  5
9E4E
330
9E43
100
AcDbEntity
  8
0
100
AcDbBlockEnd
  0
BLOCK
  5
9F8A
330
9F80
100
AcDbEntity
  8
0
100
AcDbBlockBegin
  2
*D62
 70
     1
 10
0.0
 20
0.0
 30
0.0
  3
*D62
  1

  0
LINE
  5
A378
330
9F80
100
AcDbEntity
  8
30
  6
CONTINUOUS
 62
     0
100
AcDbLine
 10
4.596435546900039
 20
-600.0004882812
 30
0.0
 11
150.9535217423333
 21
-600.0004882812
 31
0.0
  0
LINE
  5
A379
330
9F80
100
AcDbEntity
  8
30
  6
CONTINUOUS
 62
     0
100
AcDbLine
 10
28.09350585940004
 20
-401.0004882811999
 30
0.0
 11
150.9535217423334
 21
-401.0004882812
 31
0.0
  0
LINE
  5
A37A
330
9F80
100
AcDbEntity
  8
30
  6
CONTINUOUS
 62
     0
100
AcDbLine
 10
150.4535217423333
 20
-598.0004882811999
 30
0.0
 11
150.4535217423334
 21
-403.0004882812
 31
0.0
  0
INSERT
  5
A37B
330
9F80
100
AcDbEntity
  8
30
  6
CONTINUOUS
 62
     0
100
AcDbBlockReference
  2
_OPEN
 10
150.4535217423333
 20
-600.0004882812
 30
0.0
 41
2.0
 42
2.0
 43
2.0
 50
270.0
  0
INSERT
  5
A37C
330
9F80
100
AcDbEntity
  8
30
  6
CONTINUOUS
 62
     0
100
AcDbBlockReference
  2
_OPEN
 10
150.4535217423334
 20
-401.0004882812
 30
0.0
 41
2.0
 42
2.0
 43
2.0
 50
90.0
  0
MTEXT
  5
A37D
330
9F80
100
AcDbEntity
  8
30
  6
CONTINUOUS
 62
     0
100
AcDbMText
 10
145.4535217423335
 20
-502.8308461616923
 30
0.0
 40
6.0
 41
0.0
 71
     5
 72
     1
  1
\A1;199
 11
0.0000000000000001
 21
1.0
 31
0.0
1001
ACAD
1000
MTEXTBEGIN
1070
    73
1070
     1
1070
    44
1040
1.0
1070
    74
1070
     0
1000
MTEXTEND
  0
POINT
  5
A37E
330
9F80
100
AcDbEntity
  8
DEFPOINTS
  6
CONTINUOUS
 62
     0
100
AcDbPoint
 10
3.596435546900039
 20
-600.0004882812
 30
0.0
  0
POINT
  5
A37F
330
9F80
100
AcDbEntity
  8
DEFPOINTS
  6
CONTINUOUS
 62
     0
100
AcDbPoint
 10
27.09350585940004
 20
-401.0004882811999
 30
0.0
  0
POINT
  5
A380
330
9F80
100
AcDbEntity
  8
DEFPOINTS
  6
CONTINUOUS
 62
     0
100
AcDbPoint
 10
150.4535217423334
 20
-401.0004882812
 30
0.0
  0
ENDBLK
  5
9F8B
330
9F80
100
AcDbEntity
  8
0
100
AcDbBlockEnd
  0
BLOCK
  5
9F96
330
9F8C
100
AcDbEntity
  8
0
100
AcDbBlockBegin
  2
*D63
 70
     1
 10
0.0
 20
0.0
 30
0.0
  3
*D63
  1

  0
LINE
  5
A381
330
9F8C
100
AcDbEntity
  8
30
  6
CONTINUOUS
 62
     0
100
AcDbLine
 10
106.99945068368
 20
-600.0004882812
 30
0.0
 11
150.4535217423333
 21
-600.0004882812
 31
0.0
  0
LINE
  5
A382
330
9F8C
100
AcDbEntity
  8
30
  6
CONTINUOUS
 62
     0
100
AcDbLine
 10
28.09375000000002
 20
-769.0009765623999
 30
0.0
 11
150.4535217423333
 21
-769.0009765623999
 31
0.0
  0
LINE
  5
A383
330
9F8C
100
AcDbEntity
  8
30
  6
CONTINUOUS
 62
     0
100
AcDbLine
 10
149.9535217423333
 20
-602.0004882811999
 30
0.0
 11
149.9535217423333
 21
-767.0009765624
 31
0.0
  0
INSERT
  5
A384
330
9F8C
100
AcDbEntity
  8
30
  6
CONTINUOUS
 62
     0
100
AcDbBlockReference
  2
_OPEN
 10
149.9535217423333
 20
-600.0004882812
 30
0.0
 41
2.0
 42
2.0
 43
2.0
 50
90.0
  0
INSERT
  5
A385
330
9F8C
100
AcDbEntity
  8
30
  6
CONTINUOUS
 62
     0
100
AcDbBlockReference
  2
_OPEN
 10
149.9535217423333
 20
-769.0009765623999
 30
0.0
 41
2.0
 42
2.0
 43
2.0
 50
270.0
  0
MTEXT
  5
A386
330
9F8C
100
AcDbEntity
  8
30
  6
CONTINUOUS
 62
     0
100
AcDbMText
 10
144.9535217423334
 20
-682.9959494609288
 30
0.0
 40
6.0
 41
0.0
 71
     5
 72
     1
  1
\A1;169
 11
0.0000000000000001
 21
1.0
 31
0.0
1001
ACAD
1000
MTEXTBEGIN
1070
    73
1070
     1
1070
    44
1040
1.0
1070
    74
1070
     0
1000
MTEXTEND
  0
POINT
  5
A387
330
9F8C
100
AcDbEntity
  8
DEFPOINTS
  6
CONTINUOUS
 62
     0
100
AcDbPoint
 10
105.99945068368
 20
-600.0004882812
 30
0.0
  0
POINT
  5
A388
330
9F8C
100
AcDbEntity
  8
DEFPOINTS
  6
CONTINUOUS
 62
     0
100
AcDbPoint
 10
27.09375000000003
 20
-769.0009765623999
 30
0.0
  0
POINT
  5
A389
330
9F8C
100
AcDbEntity
  8
DEFPOINTS
  6
CONTINUOUS
 62
     0
100
AcDbPoint
 10
149.9535217423333
 20
-769.0009765623999
 30
0.0
  0
ENDBLK
  5
9F97
330
9F8C
100
AcDbEntity
  8
0
100
AcDbBlockEnd
  0
BLOCK
  5
9FA2
330
9F98
100
AcDbEntity
  8
0
100
AcDbBlockBegin
  2
*D64
 70
     1
 10
0.0
 20
0.0
 30
0.0
  3
*D64
  1

  0
LINE
  5
A34B
330
9F98
100
AcDbEntity
  8
30
  6
CONTINUOUS
 62
     0
100
AcDbLine
 10
106.99945068368
 20
-600.0326492902168
 30
0.0
 11
135.834958924934
 21
-600.0326492902168
 31
0.0
  0
LINE
  5
A34C
330
9F98
100
AcDbEntity
  8
30
  6
CONTINUOUS
 62
     0
100
AcDbLine
 10
106.99945068368
 20
-506.0004882811999
 30
0.0
 11
135.834958924934
 21
-506.0004882812
 31
0.0
  0
LINE
  5
A34D
330
9F98
100
AcDbEntity
  8
30
  6
CONTINUOUS
 62
     0
100
AcDbLine
 10
135.334958924934
 20
-598.0326492902167
 30
0.0
 11
135.334958924934
 21
-508.0004882812
 31
0.0
  0
INSERT
  5
A34E
330
9F98
100
AcDbEntity
  8
30
  6
CONTINUOUS
 62
     0
100
AcDbBlockReference
  2
_OPEN
 10
135.334958924934
 20
-600.0326492902168
 30
0.0
 41
2.0
 42
2.0
 43
2.0
 50
270.0
  0
INSERT
  5
A34F
330
9F98
100
AcDbEntity
  8
30
  6
CONTINUOUS
 62
     0
100
AcDbBlockReference
  2
_OPEN
 10
135.334958924934
 20
-506.0004882812
 30
0.0
 41
2.0
 42
2.0
 43
2.0
 50
90.0
  0
MTEXT
  5
A350
330
9F98
100
AcDbEntity
  8
30
  6
CONTINUOUS
 62
     0
100
AcDbMText
 10
130.3349589249341
 20
-554.303120597782
 30
0.0
 40
6.0
 41
0.0
 71
     5
 72
     1
  1
\A1;94
 11
0.0000000000000001
 21
1.0
 31
0.0
1001
ACAD
1000
MTEXTBEGIN
1070
    73
1070
     1
1070
    44
1040
1.0
1070
    74
1070
     0
1000
MTEXTEND
  0
POINT
  5
A351
330
9F98
100
AcDbEntity
  8
DEFPOINTS
  6
CONTINUOUS
 62
     0
100
AcDbPoint
 10
105.99945068368
 20
-600.0326492902168
 30
0.0
  0
POINT
  5
A352
330
9F98
100
AcDbEntity
  8
DEFPOINTS
  6
CONTINUOUS
 62
     0
100
AcDbPoint
 10
105.99945068368
 20
-506.0004882811999
 30
0.0
  0
POINT
  5
A353
330
9F98
100
AcDbEntity
  8
DEFPOINTS
  6
CONTINUOUS
 62
     0
100
AcDbPoint
 10
135.334958924934
 20
-506.0004882812
 30
0.0
  0
ENDBLK
  5
9FA3
330
9F98
100
AcDbEntity
  8
0
100
AcDbBlockEnd
  0
BLOCK
  5
9FAE
330
9FA4
100
AcDbEntity
  8
0
100
AcDbBlockBegin
  2
*D65
 70
     1
 10
0.0
 20
0.0
 30
0.0
  3
*D65
  1

  0
LINE
  5
A354
330
9FA4
100
AcDbEntity
  8
30
  6
CONTINUOUS
 62
     0
100
AcDbLine
 10
4.596435546900039
 20
-600.0004882812
 30
0.0
 11
135.834958924934
 21
-600.0004882812
 31
0.0
  0
LINE
  5
A355
330
9FA4
100
AcDbEntity
  8
30
  6
CONTINUOUS
 62
     0
100
AcDbLine
 10
38.09301757820006
 20
-663.9999999998999
 30
0.0
 11
135.834958924934
 21
-663.9999999998999
 31
0.0
  0
LINE
  5
A356
330
9FA4
100
AcDbEntity
  8
30
  6
CONTINUOUS
 62
     0
100
AcDbLine
 10
135.334958924934
 20
-602.0004882811999
 30
0.0
 11
135.334958924934
 21
-661.9999999999
 31
0.0
  0
INSERT
  5
A357
330
9FA4
100
AcDbEntity
  8
30
  6
CONTINUOUS
 62
     0
100
AcDbBlockReference
  2
_OPEN
 10
135.334958924934
 20
-600.0004882812
 30
0.0
 41
2.0
 42
2.0
 43
2.0
 50
90.0
  0
INSERT
  5
A358
330
9FA4
100
AcDbEntity
  8
30
  6
CONTINUOUS
 62
     0
100
AcDbBlockReference
  2
_OPEN
 10
135.334958924934
 20
-663.9999999998999
 30
0.0
 41
2.0
 42
2.0
 43
2.0
 50
270.0
  0
MTEXT
  5
A359
330
9FA4
100
AcDbEntity
  8
30
  6
CONTINUOUS
 62
     0
100
AcDbMText
 10
130.3349589249341
 20
-633.7385518273995
 30
0.0
 40
6.0
 41
0.0
 71
     5
 72
     1
  1
\A1;64
 11
0.0000000000000001
 21
1.0
 31
0.0
1001
ACAD
1000
MTEXTBEGIN
1070
    73
1070
     1
1070
    44
1040
1.0
1070
    74
1070
     0
1000
MTEXTEND
  0
POINT
  5
A35A
330
9FA4
100
AcDbEntity
  8
DEFPOINTS
  6
CONTINUOUS
 62
     0
100
AcDbPoint
 10
3.596435546900039
 20
-600.0004882812
 30
0.0
  0
POINT
  5
A35B
330
9FA4
100
AcDbEntity
  8
DEFPOINTS
  6
CONTINUOUS
 62
     0
100
AcDbPoint
 10
37.09301757820006
 20
-663.9999999998999
 30
0.0
  0
POINT
  5
A35C
330
9FA4
100
AcDbEntity
  8
DEFPOINTS
  6
CONTINUOUS
 62
     0
100
AcDbPoint
 10
135.334958924934
 20
-663.9999999998999
 30
0.0
  0
ENDBLK
  5
9FAF
330
9FA4
100
AcDbEntity
  8
0
100
AcDbBlockEnd
  0
BLOCK
  5
9FBA
330
9FB0
100
AcDbEntity
  8
0
100
AcDbBlockBegin
  2
*D66
 70
     1
 10
0.0
 20
0.0
 30
0.0
  3
*D66
  1

  0
LINE
  5
A35D
330
9FB0
100
AcDbEntity
  8
30
  6
CONTINUOUS
 62
     0
100
AcDbLine
 10
88.09399414070005
 20
-685.0009765623999
 30
0.0
 11
135.834958924934
 21
-685.0009765623999
 31
0.0
  0
LINE
  5
A35E
330
9FB0
100
AcDbEntity
  8
30
  6
CONTINUOUS
 62
     0
100
AcDbLine
 10
51.99951169495822
 20
-664.0004882811999
 30
0.0
 11
135.834958924934
 21
-664.0004882811999
 31
0.0
  0
LINE
  5
A35F
330
9FB0
100
AcDbEntity
  8
30
  6
CONTINUOUS
 62
     0
100
AcDbLine
 10
135.334958924934
 20
-683.0009765623999
 30
0.0
 11
135.334958924934
 21
-666.0004882812
 31
0.0
  0
INSERT
  5
A360
330
9FB0
100
AcDbEntity
  8
30
  6
CONTINUOUS
 62
     0
100
AcDbBlockReference
  2
_OPEN
 10
135.334958924934
 20
-685.0009765623999
 30
0.0
 41
2.0
 42
2.0
 43
2.0
 50
270.0
  0
INSERT
  5
A361
330
9FB0
100
AcDbEntity
  8
30
  6
CONTINUOUS
 62
     0
100
AcDbBlockReference
  2
_OPEN
 10
135.334958924934
 20
-664.0004882811999
 30
0.0
 41
2.0
 42
2.0
 43
2.0
 50
90.0
  0
MTEXT
  5
A362
330
9FB0
100
AcDbEntity
  8
30
  6
CONTINUOUS
 62
     0
100
AcDbMText
 10
130.3349589249341
 20
-674.5007324218
 30
0.0
 40
6.0
 41
0.0
 71
     5
 72
     1
  1
\A1;21
 11
0.0000000000000001
 21
1.0
 31
0.0
1001
ACAD
1000
MTEXTBEGIN
1070
    73
1070
     1
1070
    44
1040
1.0
1070
    74
1070
     0
1000
MTEXTEND
  0
POINT
  5
A363
330
9FB0
100
AcDbEntity
  8
DEFPOINTS
  6
CONTINUOUS
 62
     0
100
AcDbPoint
 10
87.09399414070006
 20
-685.0009765623999
 30
0.0
  0
POINT
  5
A364
330
9FB0
100
AcDbEntity
  8
DEFPOINTS
  6
CONTINUOUS
 62
     0
100
AcDbPoint
 10
50.99951169495821
 20
-664.0004882811999
 30
0.0
  0
POINT
  5
A365
330
9FB0
100
AcDbEntity
  8
DEFPOINTS
  6
CONTINUOUS
 62
     0
100
AcDbPoint
 10
135.334958924934
 20
-664.0004882811999
 30
0.0
  0
ENDBLK
  5
9FBB
330
9FB0
100
AcDbEntity
  8
0
100
AcDbBlockEnd
  0
BLOCK
  5
9FC6
330
9FBC
100
AcDbEntity
  8
0
100
AcDbBlockBegin
  2
*D67
 70
     1
 10
0.0
 20
0.0
 30
0.0
  3
*D67
  1

  0
LINE
  5
A36F
330
9FBC
100
AcDbEntity
  8
30
  6
CONTINUOUS
 62
     0
100
AcDbLine
 10
98.09399414070007
 20
-743.0009765623999
 30
0.0
 11
135.3349589249341
 21
-743.0009765623999
 31
0.0
  0
LINE
  5
A370
330
9FBC
100
AcDbEntity
  8
30
  6
CONTINUOUS
 62
     0
100
AcDbLine
 10
28.09375000000002
 20
-769.0009765623999
 30
0.0
 11
135.3349589249341
 21
-769.0009765623999
 31
0.0
  0
LINE
  5
A371
330
9FBC
100
AcDbEntity
  8
30
  6
CONTINUOUS
 62
     0
100
AcDbLine
 10
134.8349589249341
 20
-745.0009765623999
 30
0.0
 11
134.8349589249341
 21
-767.0009765624
 31
0.0
  0
INSERT
  5
A372
330
9FBC
100
AcDbEntity
  8
30
  6
CONTINUOUS
 62
     0
100
AcDbBlockReference
  2
_OPEN
 10
134.8349589249341
 20
-743.0009765623999
 30
0.0
 41
2.0
 42
2.0
 43
2.0
 50
90.0
  0
INSERT
  5
A373
330
9FBC
100
AcDbEntity
  8
30
  6
CONTINUOUS
 62
     0
100
AcDbBlockReference
  2
_OPEN
 10
134.8349589249341
 20
-769.0009765623999
 30
0.0
 41
2.0
 42
2.0
 43
2.0
 50
270.0
  0
MTEXT
  5
A374
330
9FBC
100
AcDbEntity
  8
30
  6
CONTINUOUS
 62
     0
100
AcDbMText
 10
129.8349589249342
 20
-755.6233836868869
 30
0.0
 40
6.0
 41
0.0
 71
     5
 72
     1
  1
\A1;26
 11
0.0000000000000001
 21
1.0
 31
0.0
1001
ACAD
1000
MTEXTBEGIN
1070
    73
1070
     1
1070
    44
1040
1.0
1070
    74
1070
     0
1000
MTEXTEND
  0
POINT
  5
A375
330
9FBC
100
AcDbEntity
  8
DEFPOINTS
  6
CONTINUOUS
 62
     0
100
AcDbPoint
 10
97.09399414070006
 20
-743.0009765623999
 30
0.0
  0
POINT
  5
A376
330
9FBC
100
AcDbEntity
  8
DEFPOINTS
  6
CONTINUOUS
 62
     0
100
AcDbPoint
 10
27.09375000000003
 20
-769.0009765623999
 30
0.0
  0
POINT
  5
A377
330
9FBC
100
AcDbEntity
  8
DEFPOINTS
  6
CONTINUOUS
 62
     0
100
AcDbPoint
 10
134.8349589249341
 20
-769.0009765623999
 30
0.0
  0
ENDBLK
  5
9FC7
330
9FBC
100
AcDbEntity
  8
0
100
AcDbBlockEnd
  0
BLOCK
  5
9FD2
330
9FC8
100
AcDbEntity
  8
0
100
AcDbBlockBegin
  2
*D68
 70
     1
 10
0.0
 20
0.0
 30
0.0
  3
*D68
  1

  0
LINE
  5
A366
330
9FC8
100
AcDbEntity
  8
30
  6
CONTINUOUS
 62
     0
100
AcDbLine
 10
98.09399414070007
 20
-685.0009765623999
 30
0.0
 11
135.8349589249342
 21
-685.0009765623999
 31
0.0
  0
LINE
  5
A367
330
9FC8
100
AcDbEntity
  8
30
  6
CONTINUOUS
 62
     0
100
AcDbLine
 10
98.09399414070007
 20
-743.0009765623999
 30
0.0
 11
135.8349589249341
 21
-743.0009765623999
 31
0.0
  0
LINE
  5
A368
330
9FC8
100
AcDbEntity
  8
30
  6
CONTINUOUS
 62
     0
100
AcDbLine
 10
135.3349589249342
 20
-687.0009765623999
 30
0.0
 11
135.3349589249341
 21
-741.0009765623999
 31
0.0
  0
INSERT
  5
A369
330
9FC8
100
AcDbEntity
  8
30
  6
CONTINUOUS
 62
     0
100
AcDbBlockReference
  2
_OPEN
 10
135.3349589249342
 20
-685.0009765623999
 30
0.0
 41
2.0
 42
2.0
 43
2.0
 50
90.0
  0
INSERT
  5
A36A
330
9FC8
100
AcDbEntity
  8
30
  6
CONTINUOUS
 62
     0
100
AcDbBlockReference
  2
_OPEN
 10
135.3349589249341
 20
-743.0009765623999
 30
0.0
 41
2.0
 42
2.0
 43
2.0
 50
270.0
  0
MTEXT
  5
A36B
330
9FC8
100
AcDbEntity
  8
30
  6
CONTINUOUS
 62
     0
100
AcDbMText
 10
130.3349589249342
 20
-715.3996259486832
 30
0.0
 40
6.0
 41
0.0
 71
     5
 72
     1
  1
\A1;58
 11
0.0000000000000001
 21
1.0
 31
0.0
1001
ACAD
1000
MTEXTBEGIN
1070
    73
1070
     1
1070
    44
1040
1.0
1070
    74
1070
     0
1000
MTEXTEND
  0
POINT
  5
A36C
330
9FC8
100
AcDbEntity
  8
DEFPOINTS
  6
CONTINUOUS
 62
     0
100
AcDbPoint
 10
97.09399414070006
 20
-685.0009765623999
 30
0.0
  0
POINT
  5
A36D
330
9FC8
100
AcDbEntity
  8
DEFPOINTS
  6
CONTINUOUS
 62
     0
100
AcDbPoint
 10
97.09399414070006
 20
-743.0009765623999
 30
0.0
  0
POINT
  5
A36E
330
9FC8
100
AcDbEntity
  8
DEFPOINTS
  6
CONTINUOUS
 62
     0
100
AcDbPoint
 10
135.3349589249341
 20
-743.0009765623999
 30
0.0
  0
ENDBLK
  5
9FD3
330
9FC8
100
AcDbEntity
  8
0
100
AcDbBlockEnd
  0
BLOCK
  5
9FDE
330
9FD4
100
AcDbEntity
  8
0
100
AcDbBlockBegin
  2
*D69
 70
     1
 10
0.0
 20
0.0
 30
0.0
  3
*D69
  1

  0
LINE
  5
A330
330
9FD4
100
AcDbEntity
  8
30
  6
CONTINUOUS
 62
     0
100
AcDbLine
 10
98.09350585940004
 20
-427.0004882811999
 30
0.0
 11
136.2584374381411
 21
-427.0004882812
 31
0.0
  0
LINE
  5
A331
330
9FD4
100
AcDbEntity
  8
30
  6
CONTINUOUS
 62
     0
100
AcDbLine
 10
28.09350585940004
 20
-401.0004882811999
 30
0.0
 11
136.2584374381411
 21
-401.0004882812
 31
0.0
  0
LINE
  5
A332
330
9FD4
100
AcDbEntity
  8
30
  6
CONTINUOUS
 62
     0
100
AcDbLine
 10
135.7584374381411
 20
-425.0004882812
 30
0.0
 11
135.7584374381411
 21
-403.0004882812
 31
0.0
  0
INSERT
  5
A333
330
9FD4
100
AcDbEntity
  8
30
  6
CONTINUOUS
 62
     0
100
AcDbBlockReference
  2
_OPEN
 10
135.7584374381411
 20
-427.0004882812
 30
0.0
 41
2.0
 42
2.0
 43
2.0
 50
270.0
  0
INSERT
  5
A334
330
9FD4
100
AcDbEntity
  8
30
  6
CONTINUOUS
 62
     0
100
AcDbBlockReference
  2
_OPEN
 10
135.7584374381411
 20
-401.0004882812
 30
0.0
 41
2.0
 42
2.0
 43
2.0
 50
90.0
  0
MTEXT
  5
A335
330
9FD4
100
AcDbEntity
  8
30
  6
CONTINUOUS
 62
     0
100
AcDbMText
 10
130.7584374381412
 20
-413.7615902248422
 30
0.0
 40
6.0
 41
0.0
 71
     5
 72
     1
  1
\A1;26
 11
0.0000000000000001
 21
1.0
 31
0.0
1001
ACAD
1000
MTEXTBEGIN
1070
    73
1070
     1
1070
    44
1040
1.0
1070
    74
1070
     0
1000
MTEXTEND
  0
POINT
  5
A336
330
9FD4
100
AcDbEntity
  8
DEFPOINTS
  6
CONTINUOUS
 62
     0
100
AcDbPoint
 10
97.09350585940004
 20
-427.0004882811999
 30
0.0
  0
POINT
  5
A337
330
9FD4
100
AcDbEntity
  8
DEFPOINTS
  6
CONTINUOUS
 62
     0
100
AcDbPoint
 10
27.09350585940004
 20
-401.0004882811999
 30
0.0
  0
POINT
  5
A338
330
9FD4
100
AcDbEntity
  8
DEFPOINTS
  6
CONTINUOUS
 62
     0
100
AcDbPoint
 10
135.7584374381411
 20
-401.0004882812
 30
0.0
  0
ENDBLK
  5
9FDF
330
9FD4
100
AcDbEntity
  8
0
100
AcDbBlockEnd
  0
BLOCK
  5
9FEA
330
9FE0
100
AcDbEntity
  8
0
100
AcDbBlockBegin
  2
*D70
 70
     1
 10
0.0
 20
0.0
 30
0.0
  3
*D70
  1

  0
LINE
  5
A339
330
9FE0
100
AcDbEntity
  8
30
  6
CONTINUOUS
 62
     0
100
AcDbLine
 10
98.09350585940004
 20
-485.0004882811999
 30
0.0
 11
136.0016255916007
 21
-485.0004882812
 31
0.0
  0
LINE
  5
A33A
330
9FE0
100
AcDbEntity
  8
30
  6
CONTINUOUS
 62
     0
100
AcDbLine
 10
98.09350585940004
 20
-427.0004882811999
 30
0.0
 11
136.0016255916007
 21
-427.0004882812
 31
0.0
  0
LINE
  5
A33B
330
9FE0
100
AcDbEntity
  8
30
  6
CONTINUOUS
 62
     0
100
AcDbLine
 10
135.5016255916007
 20
-483.0004882812
 30
0.0
 11
135.5016255916007
 21
-429.0004882812
 31
0.0
  0
INSERT
  5
A33C
330
9FE0
100
AcDbEntity
  8
30
  6
CONTINUOUS
 62
     0
100
AcDbBlockReference
  2
_OPEN
 10
135.5016255916007
 20
-485.0004882812
 30
0.0
 41
2.0
 42
2.0
 43
2.0
 50
270.0
  0
INSERT
  5
A33D
330
9FE0
100
AcDbEntity
  8
30
  6
CONTINUOUS
 62
     0
100
AcDbBlockReference
  2
_OPEN
 10
135.5016255916007
 20
-427.0004882812
 30
0.0
 41
2.0
 42
2.0
 43
2.0
 50
90.0
  0
MTEXT
  5
A33E
330
9FE0
100
AcDbEntity
  8
30
  6
CONTINUOUS
 62
     0
100
AcDbMText
 10
130.5016255916008
 20
-457.3991376674841
 30
0.0
 40
6.0
 41
0.0
 71
     5
 72
     1
  1
\A1;58
 11
0.0000000000000001
 21
1.0
 31
0.0
1001
ACAD
1000
MTEXTBEGIN
1070
    73
1070
     1
1070
    44
1040
1.0
1070
    74
1070
     0
1000
MTEXTEND
  0
POINT
  5
A33F
330
9FE0
100
AcDbEntity
  8
DEFPOINTS
  6
CONTINUOUS
 62
     0
100
AcDbPoint
 10
97.09350585940004
 20
-485.0004882811999
 30
0.0
  0
POINT
  5
A340
330
9FE0
100
AcDbEntity
  8
DEFPOINTS
  6
CONTINUOUS
 62
     0
100
AcDbPoint
 10
97.09350585940004
 20
-427.0004882811999
 30
0.0
  0
POINT
  5
A341
330
9FE0
100
AcDbEntity
  8
DEFPOINTS
  6
CONTINUOUS
 62
     0
100
AcDbPoint
 10
135.5016255916007
 20
-427.0004882812
 30
0.0
  0
ENDBLK
  5
9FEB
330
9FE0
100
AcDbEntity
  8
0
100
AcDbBlockEnd
  0
BLOCK
  5
9FF6
330
9FEC
100
AcDbEntity
  8
0
100
AcDbBlockBegin
  2
*D71
 70
     1
 10
0.0
 20
0.0
 30
0.0
  3
*D71
  1

  0
LINE
  5
A342
330
9FEC
100
AcDbEntity
  8
30
  6
CONTINUOUS
 62
     0
100
AcDbLine
 10
107.99945068368
 20
-506.0004882811999
 30
0.0
 11
136.0016255916007
 21
-506.0004882812
 31
0.0
  0
LINE
  5
A343
330
9FEC
100
AcDbEntity
  8
30
  6
CONTINUOUS
 62
     0
100
AcDbLine
 10
88.09350585940004
 20
-485.0004882811999
 30
0.0
 11
136.0016255916007
 21
-485.0004882812
 31
0.0
  0
LINE
  5
A344
330
9FEC
100
AcDbEntity
  8
30
  6
CONTINUOUS
 62
     0
100
AcDbLine
 10
135.5016255916007
 20
-504.0004882812
 30
0.0
 11
135.5016255916007
 21
-487.0004882812
 31
0.0
  0
INSERT
  5
A345
330
9FEC
100
AcDbEntity
  8
30
  6
CONTINUOUS
 62
     0
100
AcDbBlockReference
  2
_OPEN
 10
135.5016255916007
 20
-506.0004882812
 30
0.0
 41
2.0
 42
2.0
 43
2.0
 50
270.0
  0
INSERT
  5
A346
330
9FEC
100
AcDbEntity
  8
30
  6
CONTINUOUS
 62
     0
100
AcDbBlockReference
  2
_OPEN
 10
135.5016255916007
 20
-485.0004882812
 30
0.0
 41
2.0
 42
2.0
 43
2.0
 50
90.0
  0
MTEXT
  5
A347
330
9FEC
100
AcDbEntity
  8
30
  6
CONTINUOUS
 62
     0
100
AcDbMText
 10
130.5016255916008
 20
-494.1828463146771
 30
0.0
 40
6.0
 41
0.0
 71
     5
 72
     1
  1
\A1;21
 11
0.0000000000000001
 21
1.0
 31
0.0
1001
ACAD
1000
MTEXTBEGIN
1070
    73
1070
     1
1070
    44
1040
1.0
1070
    74
1070
     0
1000
MTEXTEND
  0
POINT
  5
A348
330
9FEC
100
AcDbEntity
  8
DEFPOINTS
  6
CONTINUOUS
 62
     0
100
AcDbPoint
 10
106.99945068368
 20
-506.0004882811999
 30
0.0
  0
POINT
  5
A349
330
9FEC
100
AcDbEntity
  8
DEFPOINTS
  6
CONTINUOUS
 62
     0
100
AcDbPoint
 10
87.09350585940004
 20
-485.0004882811999
 30
0.0
  0
POINT
  5
A34A
330
9FEC
100
AcDbEntity
  8
DEFPOINTS
  6
CONTINUOUS
 62
     0
100
AcDbPoint
 10
135.5016255916007
 20
-485.0004882812
 30
0.0
  0
ENDBLK
  5
9FF7
330
9FEC
100
AcDbEntity
  8
0
100
AcDbBlockEnd
  0
BLOCK
  5
A00E
330
A004
100
AcDbEntity
  8
0
100
AcDbBlockBegin
  2
*D73
 70
     1
 10
0.0
 20
0.0
 30
0.0
  3
*D73
  1

  0
LINE
  5
A39C
330
A004
100
AcDbEntity
  8
30
  6
CONTINUOUS
 62
     0
100
AcDbLine
 10
70.00000000000003
 20
-769.8343912759333
 30
0.0
 11
70.00000000000003
 21
-803.2921005667176
 31
0.0
  0
LINE
  5
A39D
330
A004
100
AcDbEntity
  8
30
  6
CONTINUOUS
 62
     0
100
AcDbLine
 10
0.0000000000000344
 20
-770.8343912759333
 30
0.0
 11
0.0000000000000324
 21
-803.2921005667176
 31
0.0
  0
LINE
  5
A39E
330
A004
100
AcDbEntity
  8
30
  6
CONTINUOUS
 62
     0
100
AcDbLine
 10
68.00000000000003
 20
-802.7921005667176
 30
0.0
 11
2.000000000000032
 21
-802.7921005667176
 31
0.0
  0
INSERT
  5
A39F
330
A004
100
AcDbEntity
  8
30
  6
CONTINUOUS
 62
     0
100
AcDbBlockReference
  2
_OPEN
 10
70.00000000000003
 20
-802.7921005667176
 30
0.0
 41
2.0
 42
2.0
 43
2.0
  0
INSERT
  5
A3A0
330
A004
100
AcDbEntity
  8
30
  6
CONTINUOUS
 62
     0
100
AcDbBlockReference
  2
_OPEN
 10
0.0000000000000324
 20
-802.7921005667176
 30
0.0
 41
2.0
 42
2.0
 43
2.0
 50
180.0
  0
MTEXT
  5
A3A1
330
A004
100
AcDbEntity
  8
30
  6
CONTINUOUS
 62
     0
100
AcDbMText
 10
33.66216216216347
 20
-797.7921005667176
 30
0.0
 40
6.0
 41
0.0
 71
     5
 72
     1
  1
\A1;70
1001
ACAD
1000
MTEXTBEGIN
1070
    73
1070
     1
1070
    44
1040
1.0
1070
    74
1070
     0
1000
MTEXTEND
  0
POINT
  5
A3A2
330
A004
100
AcDbEntity
  8
DEFPOINTS
  6
CONTINUOUS
 62
     0
100
AcDbPoint
 10
70.00000000000003
 20
-768.8343912759332
 30
0.0
  0
POINT
  5
A3A3
330
A004
100
AcDbEntity
  8
DEFPOINTS
  6
CONTINUOUS
 62
     0
100
AcDbPoint
 10
0.0000000000000344
 20
-769.8343912759333
 30
0.0
  0
POINT
  5
A3A4
330
A004
100
AcDbEntity
  8
DEFPOINTS
  6
CONTINUOUS
 62
     0
100
AcDbPoint
 10
0.0000000000000324
 20
-802.7921005667176
 30
0.0
  0
ENDBLK
  5
A00F
330
A004
100
AcDbEntity
  8
0
100
AcDbBlockEnd
  0
BLOCK
  5
A01A
330
A010
100
AcDbEntity
  8
0
100
AcDbBlockBegin
  2
*D74
 70
     1
 10
0.0
 20
0.0
 30
0.0
  3
*D74
  1

  0
LINE
  5
A2AB
330
A010
100
AcDbEntity
  8
30
  6
CONTINUOUS
 62
     0
100
AcDbLine
 10
-69.99902343749997
 20
-707.8343912759333
 30
0.0
 11
-69.99902343749997
 21
-803.2921005667176
 31
0.0
  0
LINE
  5
A2AC
330
A010
100
AcDbEntity
  8
30
  6
CONTINUOUS
 62
     0
100
AcDbLine
 10
0.0000000000000344
 20
-706.8343912759332
 30
0.0
 11
0.0000000000000284
 21
-803.2921005667176
 31
0.0
  0
LINE
  5
A2AD
330
A010
100
AcDbEntity
  8
30
  6
CONTINUOUS
 62
     0
100
AcDbLine
 10
-67.99902343749997
 20
-802.7921005667176
 30
0.0
 11
-1.999999999999971
 21
-802.7921005667176
 31
0.0
  0
INSERT
  5
A2AE
330
A010
100
AcDbEntity
  8
30
  6
CONTINUOUS
 62
     0
100
AcDbBlockReference
  2
_OPEN
 10
-69.99902343749997
 20
-802.7921005667176
 30
0.0
 41
2.0
 42
2.0
 43
2.0
 50
180.0
  0
INSERT
  5
A2AF
330
A010
100
AcDbEntity
  8
30
  6
CONTINUOUS
 62
     0
100
AcDbBlockReference
  2
_OPEN
 10
0.0000000000000285
 20
-802.7921005667176
 30
0.0
 41
2.0
 42
2.0
 43
2.0
  0
MTEXT
  5
A2B0
330
A010
100
AcDbEntity
  8
30
  6
CONTINUOUS
 62
     0
100
AcDbMText
 10
-36.33734955663654
 20
-797.7921005667176
 30
0.0
 40
6.0
 41
0.0
 71
     5
 72
     1
  1
\A1;70
1001
ACAD
1000
MTEXTBEGIN
1070
    73
1070
     1
1070
    44
1040
1.0
1070
    74
1070
     0
1000
MTEXTEND
  0
POINT
  5
A2B1
330
A010
100
AcDbEntity
  8
DEFPOINTS
  6
CONTINUOUS
 62
     0
100
AcDbPoint
 10
-69.99902343749997
 20
-706.8343912759332
 30
0.0
  0
POINT
  5
A2B2
330
A010
100
AcDbEntity
  8
DEFPOINTS
  6
CONTINUOUS
 62
     0
100
AcDbPoint
 10
0.0000000000000344
 20
-705.8343912759332
 30
0.0
  0
POINT
  5
A2B3
330
A010
100
AcDbEntity
  8
DEFPOINTS
  6
CONTINUOUS
 62
     0
100
AcDbPoint
 10
0.0000000000000285
 20
-802.7921005667176
 30
0.0
  0
ENDBLK
  5
A01B
330
A010
100
AcDbEntity
  8
0
100
AcDbBlockEnd
  0
BLOCK
  5
A2BF
330
A2B5
100
AcDbEntity
  8
0
100
AcDbBlockBegin
  2
*D75
 70
     1
 10
0.0
 20
0.0
 30
0.0
  3
*D75
  1

  0
LINE
  5
A393
330
A2B5
100
AcDbEntity
  8
30
  6
CONTINUOUS
 62
     0
100
AcDbLine
 10
104.9990234375
 20
-733.9995117186999
 30
0.0
 11
104.9990234375
 21
-830.173662433021
 31
0.0
  0
LINE
  5
A394
330
A2B5
100
AcDbEntity
  8
30
  6
CONTINUOUS
 62
     0
100
AcDbLine
 10
-104.9999999999999
 20
-734.0004882811999
 30
0.0
 11
-104.9999999999999
 21
-830.173662433021
 31
0.0
  0
LINE
  5
A395
330
A2B5
100
AcDbEntity
  8
30
  6
CONTINUOUS
 62
     0
100
AcDbLine
 10
102.9990234375
 20
-829.6736624330209
 30
0.0
 11
-102.9999999999999
 21
-829.6736624330209
 31
0.0
  0
INSERT
  5
A396
330
A2B5
100
AcDbEntity
  8
30
  6
CONTINUOUS
 62
     0
100
AcDbBlockReference
  2
_OPEN
 10
104.9990234375
 20
-829.6736624330209
 30
0.0
 41
2.0
 42
2.0
 43
2.0
  0
INSERT
  5
A397
330
A2B5
100
AcDbEntity
  8
30
  6
CONTINUOUS
 62
     0
100
AcDbBlockReference
  2
_OPEN
 10
-104.9999999999999
 20
-829.6736624330209
 30
0.0
 41
2.0
 42
2.0
 43
2.0
 50
180.0
  0
MTEXT
  5
A398
330
A2B5
100
AcDbEntity
  8
30
  6
CONTINUOUS
 62
     0
100
AcDbMText
 10
-0.0004882812499713
 20
-824.673662433021
 30
0.0
 40
6.0
 41
0.0
 71
     5
 72
     1
  1
\A1;210
1001
ACAD
1000
MTEXTBEGIN
1070
    73
1070
     1
1070
    44
1040
1.0
1070
    74
1070
     0
1000
MTEXTEND
  0
POINT
  5
A399
330
A2B5
100
AcDbEntity
  8
DEFPOINTS
  6
CONTINUOUS
 62
     0
100
AcDbPoint
 10
104.9990234375
 20
-732.9995117186999
 30
0.0
  0
POINT
  5
A39A
330
A2B5
100
AcDbEntity
  8
DEFPOINTS
  6
CONTINUOUS
 62
     0
100
AcDbPoint
 10
-104.9999999999999
 20
-733.0004882812
 30
0.0
  0
POINT
  5
A39B
330
A2B5
100
AcDbEntity
  8
DEFPOINTS
  6
CONTINUOUS
 62
     0
100
AcDbPoint
 10
-104.9999999999999
 20
-829.6736624330209
 30
0.0
  0
ENDBLK
  5
A2C0
330
A2B5
100
AcDbEntity
  8
0
100
AcDbBlockEnd
  0
ENDSEC
  0
SECTION
  2
ENTITIES
  0
LINE
  5
B4
330
1E
100
AcDbEntity
  8
16
100
AcDbLine
 10
0.0000000000000284
 20
-214.1719131951986
 30
0.0
 11
0.0000000000000284
 21
200.0
 31
0.0
  0
MTEXT
  5
BF3
330
1E
100
AcDbEntity
  8
24
  6
CONTINUOUS
100
AcDbMText
 10
142.1181906098743
 20
177.5
 30
0.0
 40
3.0
 41
0.0
 71
     1
 72
     1
  1
\A1;
1001
ACAD
1000
MTEXTBEGIN
1070
    73
1070
     1
1070
    44
1040
1.0
1070
    74
1070
     0
1000
MTEXTEND
  0
LINE
  5
1C9B
330
1E
100
AcDbEntity
  8
16
100
AcDbLine
 10
453.5517625176744
 20
-0.0000000000000003
 30
0.0
 11
166.3937097878775
 21
0.0
 31
0.0
  0
LINE
  5
4C5A
330
1E
100
AcDbEntity
  8
16
100
AcDbLine
 10
200.8112503086266
 20
0.0
 30
0.0
 11
-127.3695499245856
 21
0.0
 31
0.0
  0
LINE
  5
6B0B
330
1E
100
AcDbEntity
  8
16
100
AcDbLine
 10
447.4042601867131
 20
-737.585449332625
 30
0.0
 11
447.4042601867131
 21
-430.8286118952621
 31
0.0
  0
LEADER
  5
7673
330
1E
100
AcDbEntity
  8
30
  6
CONTINUOUS
100
AcDbLeader
  3
STANDARD
 76
     3
 10
492.4042601867131
 20
-669.5000001138651
 30
0.0
 10
507.7413198189606
 20
-729.8381598947222
 30
0.0
 10
535.7413198189603
 20
-729.8381598947222
 30
0.0
1001
ACAD
1000
DSTYLE
1002
{
1070
     5
1000
OPEN
1070
    77
1070
     0
1070
   147
1040
1.0
1070
   342
1005
3B2
1002
}
  0
TEXT
  5
7674
330
1E
100
AcDbEntity
  8
30
  6
CONTINUOUS
100
AcDbText
 10
515.7413198189606
 20
-726.8381598947224
 30
0.0
 40
5.0
  1
%%C11
100
AcDbText
  0
DIMENSION
  5
768D
330
1E
100
AcDbEntity
  8
30
  6
CONTINUOUS
100
AcDbDimension
  2
*D1
 10
492.4042601867131
 20
-737.585449332625
 30
0.0
 11
447.4042601867131
 21
-737.585449332625
 31
0.0
 70
   160
  3
STANDARD
100
AcDbAlignedDimension
 13
402.4042601867131
 23
-678.5000001138651
 33
0.0
 14
492.4042601867131
 24
-678.5000001138651
 34
0.0
100
AcDbRotatedDimension
  0
MTEXT
  5
7DBE
330
1E
100
AcDbEntity
  8
19
  6
CONTINUOUS
100
AcDbMText
 10
318.9179260199307
 20
487.970308242663
 30
0.0
 40
7.0
 41
94.0
 71
     1
 72
     5
  1
XS1000NE 3P PM\PXS1200NE 3P PM\PXH1000NE 3P PM\PXH1200NE 3P PM
  7
STANDARD1
1001
ACAD
1000
MTEXTBEGIN
1070
    73
1070
     1
1070
    44
1040
1.0
1070
    74
1070
     0
1000
MTEXTEND
  0
DIMENSION
  5
833D
330
1E
100
AcDbEntity
  8
30
  6
CONTINUOUS
100
AcDbDimension
  2
*D2
 10
596.7299506494964
 20
151.9986572266
 30
0.0
 11
596.7299506494964
 21
143.7415748127484
 31
0.0
 70
   160
  3
STANDARD
100
AcDbAlignedDimension
 13
543.5135643159351
 23
136.9986572266
 33
0.0
 14
543.5135643159351
 24
151.9986572266
 34
0.0
 50
90.0
100
AcDbRotatedDimension
  0
DIMENSION
  5
833E
330
1E
100
AcDbEntity
  8
30
  6
CONTINUOUS
100
AcDbDimension
  2
*D3
 10
583.2246684674737
 20
143.9999999999999
 30
0.0
 11
583.2246684674737
 21
73.04784196101173
 31
0.0
 70
   160
  3
STANDARD
100
AcDbAlignedDimension
 13
453.5517625176744
 23
-0.0000000000000003
 33
0.0
 14
467.419936386235
 24
143.9999999999999
 34
0.0
 50
90.0
100
AcDbRotatedDimension
  0
LINE
  5
8346
330
1E
100
AcDbEntity
  8
10
  6
CONTINUOUS
100
AcDbLine
 10
256.419936386235
 20
-29.39428710940001
 30
0.0
 11
256.419936386235
 21
-47.50024414059999
 31
0.0
  0
DIMENSION
  5
8347
330
1E
100
AcDbEntity
  8
30
  6
CONTINUOUS
100
AcDbDimension
  2
*D4
 10
426.4200828706351
 20
-179.208715488558
 30
0.0
 11
415.9700096284351
 21
-179.208715488558
 31
0.0
 70
   160
  3
STANDARD
100
AcDbAlignedDimension
 13
405.4199363862351
 23
-85.50048828119997
 33
0.0
 14
426.4200828706351
 24
-69.79411621089997
 34
0.0
100
AcDbRotatedDimension
  0
LINE
  5
834B
330
1E
100
AcDbEntity
  8
10
  6
CONTINUOUS
100
AcDbLine
 10
256.419936386235
 20
-47.50024414059999
 30
0.0
 11
267.419936386235
 21
-47.50024414059999
 31
0.0
  0
DIMENSION
  5
8352
330
1E
100
AcDbEntity
  8
30
  6
CONTINUOUS
100
AcDbDimension
  2
*D5
 10
467.419936386235
 20
-198.2344486611482
 30
0.0
 11
425.2401698561258
 21
-198.2344486611482
 31
0.0
 70
   160
  3
STANDARD
100
AcDbAlignedDimension
 13
405.3200828706351
 23
-171.0002441405999
 33
0.0
 14
467.419936386235
 24
-143.5004882811999
 34
0.0
100
AcDbRotatedDimension
1001
ACAD
1000
DSTYLE
1002
{
1070
   271
1070
     0
1070
    45
1040
0.0
1002
}
  0
DIMENSION
  5
8353
330
1E
100
AcDbEntity
  8
30
  6
CONTINUOUS
100
AcDbDimension
  2
*D6
 10
552.4199363862351
 20
-198.2344486611493
 30
0.0
 11
499.0982779642344
 21
-198.2344486611493
 31
0.0
 70
   160
  3
STANDARD
100
AcDbAlignedDimension
 13
467.419936386235
 23
-143.5004882811999
 33
0.0
 14
552.4199363862351
 24
-121.5936279297
 34
0.0
100
AcDbRotatedDimension
  0
LINE
  5
8354
330
1E
100
AcDbEntity
  8
0
  6
CONTINUOUS
100
AcDbLine
 10
467.419936386235
 20
-121.5
 30
0.0
 11
552.4199363862351
 21
-121.5
 31
0.0
  0
LINE
  5
8355
330
1E
100
AcDbEntity
  8
0
  6
CONTINUOUS
100
AcDbLine
 10
552.4199363862351
 20
-106.4999999999999
 30
0.0
 11
467.419936386235
 21
-106.4999999999999
 31
0.0
  0
LINE
  5
8381
330
1E
100
AcDbEntity
  8
0
  6
CONTINUOUS
100
AcDbLine
 10
552.4199363862351
 20
-106.4999999999999
 30
0.0
 11
552.4199363862351
 21
-121.5
 31
0.0
  0
LINE
  5
8382
330
1E
100
AcDbEntity
  8
24
  6
CONTINOUS
100
AcDbLine
 10
501.419936386235
 20
-91.19775390619997
 30
0.0
 11
501.419936386235
 21
-156.6791992186999
 31
0.0
  0
LINE
  5
8383
330
1E
100
AcDbEntity
  8
24
  6
CONTINOUS
100
AcDbLine
 10
537.4199363862351
 20
-88.45849609369997
 30
0.0
 11
537.4199363862351
 21
-155.7661132811999
 31
0.0
  0
LINE
  5
8384
330
1E
100
AcDbEntity
  8
0
  6
CONTINUOUS
100
AcDbLine
 10
543.9199363862351
 20
-106.4999999999999
 30
0.0
 11
543.9199363862351
 21
-121.5
 31
0.0
  0
LINE
  5
8385
330
1E
100
AcDbEntity
  8
0
  6
CONTINUOUS
100
AcDbLine
 10
530.9199363862351
 20
-106.4999999999999
 30
0.0
 11
530.9199363862351
 21
-121.5
 31
0.0
  0
LINE
  5
8386
330
1E
100
AcDbEntity
  8
0
  6
CONTINUOUS
100
AcDbLine
 10
490.9199363862351
 20
-106.4999999999999
 30
0.0
 11
490.9199363862351
 21
-121.5
 31
0.0
  0
LINE
  5
8387
330
1E
100
AcDbEntity
  8
0
  6
CONTINUOUS
100
AcDbLine
 10
511.919936386235
 20
-106.4999999999999
 30
0.0
 11
511.919936386235
 21
-121.5
 31
0.0
  0
CIRCLE
  5
8388
330
1E
100
AcDbEntity
  8
18
100
AcDbCircle
 10
166.6120955581597
 20
57.80003072667136
 30
0.0
 40
20.00000000000003
  0
DIMENSION
  5
838B
330
1E
100
AcDbEntity
  8
30
  6
CONTINUOUS
100
AcDbDimension
  2
*D7
 10
405.4199363862351
 20
216.9513534649002
 30
0.0
 11
334.0515153336033
 21
216.9513534649002
 31
0.0
 70
   160
  3
STANDARD
100
AcDbAlignedDimension
 13
267.419936386235
 23
170.0936279297
 33
0.0
 14
405.4199363862351
 24
115.4986572266
 34
0.0
100
AcDbRotatedDimension
  0
LINE
  5
8390
330
1E
100
AcDbEntity
  8
10
  6
CONTINUOUS
100
AcDbLine
 10
256.419936386235
 20
47.49975585940001
 30
0.0
 11
267.419936386235
 21
47.49975585940001
 31
0.0
  0
LINE
  5
8391
330
1E
100
AcDbEntity
  8
18
100
AcDbLine
 10
211.030532089335
 20
27.80004882809999
 30
0.0
 11
184.235121933135
 21
41.26635742190001
 31
0.0
  0
LINE
  5
8394
330
1E
100
AcDbEntity
  8
10
  6
CONTINUOUS
100
AcDbLine
 10
256.419936386235
 20
29.39379882809999
 30
0.0
 11
256.419936386235
 21
47.49975585940001
 31
0.0
  0
LINE
  5
8395
330
1E
100
AcDbEntity
  8
18
100
AcDbLine
 10
211.030532089335
 20
27.80004882809999
 30
0.0
 11
244.859145370635
 21
15.48754882809999
 31
0.0
  0
ARC
  5
8398
330
1E
100
AcDbEntity
  8
10
  6
CONTINUOUS
100
AcDbCircle
 10
325.419936386235
 20
-0.0002441405999889
 30
0.0
 40
74.99999999996735
100
AcDbArc
 50
156.9260823698896
 51
203.0739139876615
  0
LINE
  5
8399
330
1E
100
AcDbEntity
  8
18
100
AcDbLine
 10
219.923110214335
 20
52.23217773440001
 30
0.0
 11
190.740493026835
 21
59.13989257809999
 31
0.0
  0
ARC
  5
839A
330
1E
100
AcDbEntity
  8
18
100
AcDbCircle
 10
192.3525823696083
 20
65.95070172351416
 30
0.0
 40
6.999999999971634
100
AcDbArc
 50
197.5698696903585
 51
256.6826297871005
  0
ARC
  5
839B
330
1E
100
AcDbEntity
  8
18
100
AcDbCircle
 10
181.0913015912969
 20
35.01058817887951
 30
0.0
 40
7.00000000003626
100
AcDbArc
 50
63.31735842156689
 51
122.4301390081852
  0
LINE
  5
839C
330
1E
100
AcDbEntity
  8
18
100
AcDbLine
 10
219.923110214335
 20
52.23217773440001
 30
0.0
 11
253.751723495635
 21
39.91918945309999
 31
0.0
  0
LINE
  5
83A7
330
1E
100
AcDbEntity
  8
24
  6
CONTINOUS
100
AcDbLine
 10
537.4199363862351
 20
171.0783691405999
 30
0.0
 11
537.4199363862351
 21
99.46716308589998
 31
0.0
  0
LINE
  5
83A8
330
1E
100
AcDbEntity
  8
24
  6
CONTINOUS
100
AcDbLine
 10
501.419936386235
 20
171.0783691405999
 30
0.0
 11
501.419936386235
 21
99.46716308589998
 31
0.0
  0
LINE
  5
83C3
330
1E
100
AcDbEntity
  8
0
  6
CONTINUOUS
100
AcDbLine
 10
467.419936386235
 20
136.9986572266
 30
0.0
 11
552.4199363862351
 21
136.9986572266
 31
0.0
  0
LINE
  5
83C4
330
1E
100
AcDbEntity
  8
0
  6
CONTINUOUS
100
AcDbLine
 10
467.419936386235
 20
151.9986572266
 30
0.0
 11
552.4199363862351
 21
151.9986572266
 31
0.0
  0
LINE
  5
83E7
330
1E
100
AcDbEntity
  8
0
  6
CONTINUOUS
100
AcDbLine
 10
511.919936386235
 20
136.9986572266
 30
0.0
 11
511.919936386235
 21
151.9986572266
 31
0.0
  0
LINE
  5
83E8
330
1E
100
AcDbEntity
  8
0
  6
CONTINUOUS
100
AcDbLine
 10
490.9199363862351
 20
136.9986572266
 30
0.0
 11
490.9199363862351
 21
151.9986572266
 31
0.0
  0
LINE
  5
83E9
330
1E
100
AcDbEntity
  8
0
  6
CONTINUOUS
100
AcDbLine
 10
530.9199363862351
 20
136.9986572266
 30
0.0
 11
530.9199363862351
 21
151.9986572266
 31
0.0
  0
LINE
  5
83EA
330
1E
100
AcDbEntity
  8
0
  6
CONTINUOUS
100
AcDbLine
 10
552.4199363862351
 20
136.9986572266
 30
0.0
 11
552.4199363862351
 21
151.9986572266
 31
0.0
  0
LINE
  5
83EB
330
1E
100
AcDbEntity
  8
0
  6
CONTINUOUS
100
AcDbLine
 10
543.9199363862351
 20
136.9986572266
 30
0.0
 11
543.9199363862351
 21
151.9986572266
 31
0.0
  0
DIMENSION
  5
83EC
330
1E
100
AcDbEntity
  8
30
  6
CONTINUOUS
100
AcDbDimension
  2
*D8
 10
583.2246684674737
 20
-114.0
 30
0.0
 11
583.2246684674737
 21
-58.93965591004853
 31
0.0
 70
   160
  3
STANDARD
100
AcDbAlignedDimension
 13
479.7195361126068
 23
0.0
 33
0.0
 14
552.4199363862351
 24
-114.0
 34
0.0
 50
270.0
100
AcDbRotatedDimension
  0
LWPOLYLINE
  5
8656
330
1E
100
AcDbEntity
  8
10
  6
CONTINUOUS
100
AcDbPolyline
 90
        6
 70
     0
 43
0.0
 10
405.3200828706351
 20
107.4986572266
 10
402.820082870635
 20
107.4986572266
 10
402.820082870635
 20
105.9995117188
 10
402.820082870635
 20
-76.00048828119998
 10
402.820082870635
 20
-77.50048828119997
 10
405.3200828706351
 20
-77.50048828119997
  0
LWPOLYLINE
  5
8658
330
1E
100
AcDbEntity
  8
12
  6
DASHED
100
AcDbPolyline
 90
        4
 70
     0
 43
0.0
 10
405.419936386235
 20
89.49865722660002
 10
426.320082870635
 20
89.49865722660002
 10
426.320082870635
 20
99.49865722660002
 10
405.419936386235
 20
99.49865722660002
  0
LWPOLYLINE
  5
8659
330
1E
100
AcDbEntity
  8
12
  6
DASHED
100
AcDbPolyline
 90
        4
 70
     0
 43
0.0
 10
405.419936386235
 20
83.49865722660002
 10
417.5200340425351
 20
83.49865722660002
 10
417.5200340425351
 20
105.4986572266
 10
405.419936386235
 20
105.4986572266
  0
LWPOLYLINE
  5
865E
330
1E
100
AcDbEntity
  8
0
  6
CONTINUOUS
100
AcDbPolyline
 90
        2
 70
     0
 43
0.0
 10
405.419936386235
 20
-170.0002441406
 10
405.419936386235
 20
-170.0002441406
  0
LWPOLYLINE
  5
865F
330
1E
100
AcDbEntity
  8
12
  6
DASHED
100
AcDbPolyline
 90
        4
 70
     0
 43
0.0
 10
405.419936386235
 20
-75.50048828119997
 10
417.5200340425351
 20
-75.50048828119997
 10
417.5200340425351
 20
-53.50048828119998
 10
405.419936386235
 20
-53.50048828119998
  0
LWPOLYLINE
  5
8661
330
1E
100
AcDbEntity
  8
12
  6
DASHED
100
AcDbPolyline
 90
        4
 70
     0
 43
0.0
 10
405.419936386235
 20
-69.50048828119998
 10
426.4200828706351
 20
-69.70048828119996
 10
426.4200828706351
 20
-59.70048828119998
 10
405.419936386235
 20
-59.50048828119998
  0
LWPOLYLINE
  5
8667
330
1E
100
AcDbEntity
  8
10
  6
CONTINUOUS
100
AcDbPolyline
 90
        6
 70
     0
 43
0.0
 10
405.419936386235
 20
-29.50134277339998
 10
413.419936386235
 20
-29.50134277339998
 10
413.419936386235
 20
-19.50134277339998
 10
417.5200340425351
 20
-19.50134277339998
 10
417.5200340425351
 20
5.498657226600016
 10
405.419936386235
 20
5.498657226600016
  0
LWPOLYLINE
  5
866C
330
1E
100
AcDbEntity
  8
10
  6
CONTINUOUS
100
AcDbPolyline
 90
        6
 70
     0
 43
0.0
 10
405.419936386235
 20
60.49865722660001
 10
413.419936386235
 20
60.49865722660001
 10
413.419936386235
 20
50.49865722660001
 10
417.5200340425351
 20
50.49865722660001
 10
417.5200340425351
 20
25.49865722660001
 10
405.419936386235
 20
25.49865722660001
  0
LWPOLYLINE
  5
867C
330
1E
100
AcDbEntity
  8
10
  6
CONTINUOUS
100
AcDbPolyline
 90
        2
 70
     0
 43
0.0
 10
446.419936386235
 20
-85.50048828119997
 10
446.419936386235
 20
-143.5004882811999
  0
LWPOLYLINE
  5
8682
330
1E
100
AcDbEntity
  8
10
  6
CONTINUOUS
100
AcDbPolyline
 90
        2
 70
     0
 43
0.0
 10
446.419936386235
 20
115.4986572266
 10
446.419936386235
 20
173.4986572266
  0
LWPOLYLINE
  5
8689
330
1E
100
AcDbEntity
  8
10
  6
CONTINUOUS
100
AcDbPolyline
 90
        2
 70
     0
 43
0.0
 10
249.7094520261738
 20
20.55734795966466
 42
0.0879559986116207
 10
248.2208352972681
 20
21.46904610245978
  0
LWPOLYLINE
  5
868A
330
1E
100
AcDbEntity
  8
18
100
AcDbPolyline
 90
        2
 70
     0
 43
0.0
 10
253.751723495635
 20
39.91918945309999
 10
244.859145370635
 20
15.48754882809999
  0
LWPOLYLINE
  5
868B
330
1E
100
AcDbEntity
  8
10
  6
CONTINUOUS
100
AcDbPolyline
 90
        4
 70
     0
 43
0.0
 10
252.481459823735
 20
33.17504882809998
 10
224.874770370635
 20
42.44848632809999
 10
221.112075058135
 20
32.11157226559999
 10
248.221205917535
 20
21.46997070309998
  0
LWPOLYLINE
  5
868C
330
1E
100
AcDbEntity
  8
10
  6
CONTINUOUS
100
AcDbPolyline
 90
        2
 70
     0
 43
0.0
 10
252.609389511235
 20
17.98950195309998
 10
249.710463730035
 20
20.55883789059998
  0
LWPOLYLINE
  5
868F
330
1E
100
AcDbEntity
  8
10
  6
CONTINUOUS
100
AcDbPolyline
 90
        2
 70
     0
 43
0.0
 10
256.419936386235
 20
32.97534179690001
 10
254.208022323735
 20
32.91577148440001
  0
LWPOLYLINE
  5
8690
330
1E
100
AcDbEntity
  8
10
  6
CONTINUOUS
100
AcDbPolyline
 90
        2
 70
     0
 43
0.0
 10
252.4807896022498
 20
33.17317313109064
 42
0.0879559385456228
 10
254.2071632620704
 20
32.91471006258211
  0
LINE
  5
8714
330
1E
100
AcDbEntity
  8
10
  6
CONTINUOUS
100
AcDbLine
 10
-104.9999389648499
 20
-115.5
 30
0.0
 11
104.99993896488
 21
-115.5
 31
0.0
  0
LINE
  5
8715
330
1E
100
AcDbEntity
  8
10
  6
CONTINUOUS
100
AcDbLine
 10
-104.9999389648499
 20
-57.5
 30
0.0
 11
104.99993896488
 21
-57.5
 31
0.0
  0
LINE
  5
8716
330
1E
100
AcDbEntity
  8
10
  6
CONTINUOUS
100
AcDbLine
 10
104.99993896488
 20
-140.0
 30
0.0
 11
-104.9999389648499
 21
-140.0
 31
0.0
  0
LINE
  5
8717
330
1E
100
AcDbEntity
  8
10
  6
CONTINUOUS
100
AcDbLine
 10
104.99993896488
 20
170.0
 30
0.0
 11
-104.9999389648499
 21
170.0
 31
0.0
  0
CIRCLE
  5
871C
330
1E
100
AcDbEntity
  8
12
100
AcDbCircle
 10
-34.99999999999997
 20
-154.0
 30
0.0
 40
8.5
  0
LINE
  5
871D
330
1E
100
AcDbEntity
  8
12
100
AcDbLine
 10
-49.99999999999997
 20
-154.0
 30
0.0
 11
-19.99999999999997
 21
-154.0
 31
0.0
  0
LINE
  5
871E
330
1E
100
AcDbEntity
  8
12
100
AcDbLine
 10
-34.99999999999997
 20
-139.0
 30
0.0
 11
-34.99999999999997
 21
-169.0
 31
0.0
  0
LINE
  5
871F
330
1E
100
AcDbEntity
  8
12
100
AcDbLine
 10
20.00006103516003
 20
-154.0
 30
0.0
 11
50.00006103518003
 21
-154.0
 31
0.0
  0
CIRCLE
  5
8720
330
1E
100
AcDbEntity
  8
12
100
AcDbCircle
 10
35.00006103516003
 20
-154.0
 30
0.0
 40
8.5
  0
LINE
  5
8721
330
1E
100
AcDbEntity
  8
12
100
AcDbLine
 10
35.00006103516003
 20
-139.0
 30
0.0
 11
35.00006103516003
 21
-169.0
 31
0.0
  0
LINE
  5
8727
330
1E
100
AcDbEntity
  8
12
100
AcDbLine
 10
-34.99999999999997
 20
169.0
 30
0.0
 11
-34.99999999999997
 21
199.0
 31
0.0
  0
CIRCLE
  5
8728
330
1E
100
AcDbEntity
  8
12
100
AcDbCircle
 10
-34.99999999999997
 20
184.0
 30
0.0
 40
8.5
  0
LINE
  5
8729
330
1E
100
AcDbEntity
  8
12
100
AcDbLine
 10
-49.99999999999997
 20
184.0
 30
0.0
 11
-19.99999999999997
 21
184.0
 31
0.0
  0
LINE
  5
872A
330
1E
100
AcDbEntity
  8
12
100
AcDbLine
 10
35.00006103516003
 20
169.0
 30
0.0
 11
35.00006103516003
 21
199.0
 31
0.0
  0
CIRCLE
  5
872B
330
1E
100
AcDbEntity
  8
12
100
AcDbCircle
 10
35.00006103516003
 20
184.0
 30
0.0
 40
8.5
  0
LINE
  5
872C
330
1E
100
AcDbEntity
  8
12
100
AcDbLine
 10
20.00006103516003
 20
184.0
 30
0.0
 11
50.00006103518003
 21
184.0
 31
0.0
  0
DIMENSION
  5
907E
330
1E
100
AcDbEntity
  8
30
  6
CONTINUOUS
100
AcDbDimension
  2
*D25
 10
626.3105087262479
 20
-639.0000001138651
 30
0.0
 11
626.310508726248
 21
-651.5000001138652
 31
0.0
 70
   160
  1
25
  3
STANDARD
100
AcDbAlignedDimension
 13
483.4980101867131
 23
-664.0000001138651
 33
0.0
 14
583.4980101867131
 24
-639.0000001138651
 34
0.0
 50
90.0
100
AcDbRotatedDimension
1001
ACAD
1000
DSTYLE
1002
{
1070
   271
1070
     0
1002
}
  0
DIMENSION
  5
907F
330
1E
100
AcDbEntity
  8
30
  6
CONTINUOUS
100
AcDbDimension
  2
*D26
 10
642.6389415901084
 20
-664.0000001138651
 30
0.0
 11
642.6389415901085
 21
-631.5212378165299
 31
0.0
 70
   160
  3
STANDARD
100
AcDbAlignedDimension
 13
461.4316039367131
 23
-600.000000113865
 33
0.0
 14
483.4980101867131
 24
-664.0000001138651
 34
0.0
 50
270.0
100
AcDbRotatedDimension
1001
ACAD
1000
DSTYLE
1002
{
1070
   271
1070
     0
1002
}
  0
LINE
  5
9080
330
1E
100
AcDbEntity
  8
18
 48
2.0
100
AcDbLine
 10
592.4042601867131
 20
-639.0000001138651
 30
0.0
 11
602.4042601867131
 21
-648.0000001138651
 31
0.0
  0
LINE
  5
9081
330
1E
100
AcDbEntity
  8
18
  6
DASHED
 48
2.0
100
AcDbLine
 10
307.8212310636736
 20
-639.0000001138651
 30
0.0
 11
317.8212310636736
 21
-648.0000001138651
 31
0.0
  0
ARC
  5
9082
330
1E
100
AcDbEntity
  8
18
 48
2.0
100
AcDbCircle
 10
219.7814361417736
 20
-649.0000001138651
 30
0.0
 40
10.0
100
AcDbArc
 50
90.0
 51
180.0
  0
LINE
  5
9083
330
1E
100
AcDbEntity
  8
18
 48
2.0
100
AcDbLine
 10
259.7814361417736
 20
-648.0000001138651
 30
0.0
 11
259.7814361417736
 21
-639.0000001138651
 31
0.0
  0
LINE
  5
9085
330
1E
100
AcDbEntity
  8
18
 48
2.0
100
AcDbLine
 10
342.4042601867131
 20
-770.0000001138651
 30
0.0
 11
342.4042601867131
 21
-400.000000113865
 31
0.0
  0
LINE
  5
9086
330
1E
100
AcDbEntity
  8
18
  6
DASHED
 48
2.0
100
AcDbLine
 10
552.4042601867131
 20
-770.0000001138651
 30
0.0
 11
552.4042601867131
 21
-400.000000113865
 31
0.0
  0
LINE
  5
9088
330
1E
100
AcDbEntity
  8
18
 48
2.0
100
AcDbLine
 10
317.8212310636736
 20
-648.0000001138651
 30
0.0
 11
602.4042601867131
 21
-648.0000001138651
 31
0.0
  0
LINE
  5
9089
330
1E
100
AcDbEntity
  8
18
 48
2.0
100
AcDbLine
 10
602.4042601867131
 20
-689.0000001138651
 30
0.0
 11
317.8212310636736
 21
-689.0000001138651
 31
0.0
  0
LINE
  5
908B
330
1E
100
AcDbEntity
  8
12
  6
CONTINUOUS
 62
     3
100
AcDbLine
 10
255.8065826261736
 20
-664.0000001138651
 30
0.0
 11
170.3988677824736
 21
-664.0000001138651
 31
0.0
  0
ARC
  5
908C
330
1E
100
AcDbEntity
  8
18
 48
2.0
100
AcDbCircle
 10
223.7814361417736
 20
-653.0000001138651
 30
0.0
 40
5.0
100
AcDbArc
 50
90.0
 51
180.0
  0
LINE
  5
908D
330
1E
100
AcDbEntity
  8
18
 48
2.0
100
AcDbLine
 10
218.7814361417736
 20
-689.8328858560651
 30
0.0
 11
209.7814361417736
 21
-689.8328858560651
 31
0.0
  0
LINE
  5
908E
330
1E
100
AcDbEntity
  8
18
 48
2.0
100
AcDbLine
 10
218.7814361417736
 20
-689.8328858560651
 30
0.0
 11
218.7814361417736
 21
-653.0000001138651
 31
0.0
  0
LINE
  5
908F
330
1E
100
AcDbEntity
  8
18
 48
2.0
100
AcDbLine
 10
209.7814361417736
 20
-649.0000001138651
 30
0.0
 11
209.7814361417736
 21
-689.8328858560651
 31
0.0
  0
LINE
  5
9090
330
1E
100
AcDbEntity
  8
18
 48
2.0
100
AcDbLine
 10
259.7814361417736
 20
-648.0000001138651
 30
0.0
 11
223.7814361417736
 21
-648.0000001138651
 31
0.0
  0
LINE
  5
9091
330
1E
100
AcDbEntity
  8
18
  6
DASHED
 48
2.0
100
AcDbLine
 10
308.2831451261736
 20
-674.6978760904651
 30
0.0
 11
317.8212310636736
 21
-689.0000001138651
 31
0.0
  0
LINE
  5
9092
330
1E
100
AcDbEntity
  8
18
  6
DASHED
 48
2.0
100
AcDbLine
 10
317.8212310636736
 20
-648.0000001138651
 30
0.0
 11
308.2831451261736
 21
-674.6978760904651
 31
0.0
  0
LINE
  5
9095
330
1E
100
AcDbEntity
  8
18
 48
2.0
100
AcDbLine
 10
552.4042601867131
 20
-770.0000001138651
 30
0.0
 11
342.4042601867131
 21
-770.0000001138651
 31
0.0
  0
LINE
  5
9099
330
1E
100
AcDbEntity
  8
12
  6
CONTINUOUS
 62
     3
100
AcDbLine
 10
382.4042601867131
 20
-664.0000001138651
 30
0.0
 11
422.4042601867131
 21
-664.0000001138651
 31
0.0
  0
CIRCLE
  5
909A
330
1E
100
AcDbEntity
  8
12
  6
CONTINUOUS
 62
     3
100
AcDbCircle
 10
402.4042601867131
 20
-664.0000001138651
 30
0.0
 40
5.5
  0
CIRCLE
  5
909B
330
1E
100
AcDbEntity
  8
12
  6
CONTINUOUS
 62
     3
100
AcDbCircle
 10
492.4042601867131
 20
-664.0000001138651
 30
0.0
 40
5.5
  0
LINE
  5
909C
330
1E
100
AcDbEntity
  8
18
 48
2.0
100
AcDbLine
 10
590.4237914367131
 20
-672.700195426365
 30
0.0
 11
602.4042601867131
 21
-689.0000001138651
 31
0.0
  0
LINE
  5
909D
330
1E
100
AcDbEntity
  8
18
 48
2.0
100
AcDbLine
 10
602.4042601867131
 20
-648.0000001138651
 30
0.0
 11
590.4237914367131
 21
-672.700195426365
 31
0.0
  0
LINE
  5
909F
330
1E
100
AcDbEntity
  8
18
 48
2.0
100
AcDbLine
 10
602.4042601867131
 20
-531.0000001138651
 30
0.0
 11
317.8212310636736
 21
-531.0000001138651
 31
0.0
  0
LINE
  5
90A0
330
1E
100
AcDbEntity
  8
18
 48
2.0
100
AcDbLine
 10
307.8212310636736
 20
-522.000000113865
 30
0.0
 11
592.4042601867131
 21
-522.000000113865
 31
0.0
  0
LINE
  5
90A1
330
1E
100
AcDbEntity
  8
18
 48
2.0
100
AcDbLine
 10
592.4042601867131
 20
-639.0000001138651
 30
0.0
 11
307.8212310636736
 21
-639.0000001138651
 31
0.0
  0
LINE
  5
90A3
330
1E
100
AcDbEntity
  8
18
 48
2.0
100
AcDbLine
 10
592.4042601867131
 20
-481.0000001138651
 30
0.0
 11
307.8212310636736
 21
-481.0000001138651
 31
0.0
  0
LINE
  5
90A5
330
1E
100
AcDbEntity
  8
18
  6
DASHED
 48
2.0
100
AcDbLine
 10
314.2760650480736
 20
-500.907104606065
 30
0.0
 11
307.8212310636736
 21
-481.0000001138651
 31
0.0
  0
LINE
  5
90A6
330
1E
100
AcDbEntity
  8
18
 48
2.0
100
AcDbLine
 10
209.7814361417736
 20
-480.167114371665
 30
0.0
 11
209.7814361417736
 21
-521.000000113865
 31
0.0
  0
LINE
  5
90A7
330
1E
100
AcDbEntity
  8
18
 48
2.0
100
AcDbLine
 10
218.7814361417736
 20
-480.167114371665
 30
0.0
 11
218.7814361417736
 21
-517.000000113865
 31
0.0
  0
LINE
  5
90A9
330
1E
100
AcDbEntity
  8
18
 48
2.0
100
AcDbLine
 10
259.7814361417736
 20
-639.0000001138651
 30
0.0
 11
219.7814361417736
 21
-639.0000001138651
 31
0.0
  0
LINE
  5
90AA
330
1E
100
AcDbEntity
  8
12
  6
CONTINUOUS
 62
     3
100
AcDbLine
 10
232.9821197355736
 20
-506.0000001138651
 30
0.0
 11
188.0692779386736
 21
-506.0000001138651
 31
0.0
  0
ARC
  5
90AB
330
1E
100
AcDbEntity
  8
18
 48
2.0
100
AcDbCircle
 10
223.7814361417736
 20
-517.000000113865
 30
0.0
 40
5.0
100
AcDbArc
 50
180.0
 51
270.0
  0
LINE
  5
90AC
330
1E
100
AcDbEntity
  8
18
 48
2.0
100
AcDbLine
 10
259.7814361417736
 20
-531.0000001138651
 30
0.0
 11
219.7814361417736
 21
-531.0000001138651
 31
0.0
  0
ARC
  5
90AD
330
1E
100
AcDbEntity
  8
18
 48
2.0
100
AcDbCircle
 10
219.7814361417736
 20
-521.000000113865
 30
0.0
 40
10.0
100
AcDbArc
 50
180.0
 51
270.0
  0
LINE
  5
90AE
330
1E
100
AcDbEntity
  8
18
 48
2.0
100
AcDbLine
 10
259.7814361417736
 20
-522.000000113865
 30
0.0
 11
259.7814361417736
 21
-531.0000001138651
 31
0.0
  0
LINE
  5
90AF
330
1E
100
AcDbEntity
  8
18
 48
2.0
100
AcDbLine
 10
259.7814361417736
 20
-522.000000113865
 30
0.0
 11
223.7814361417736
 21
-522.000000113865
 31
0.0
  0
LINE
  5
90B0
330
1E
100
AcDbEntity
  8
18
  6
DASHED
 48
2.0
100
AcDbLine
 10
307.8212310636736
 20
-522.000000113865
 30
0.0
 11
314.2760650480736
 21
-500.907104606065
 31
0.0
  0
LINE
  5
90B1
330
1E
100
AcDbEntity
  8
18
  6
DASHED
 48
2.0
100
AcDbLine
 10
317.8212310636736
 20
-531.0000001138651
 30
0.0
 11
307.8212310636736
 21
-522.000000113865
 31
0.0
  0
LINE
  5
90B2
330
1E
100
AcDbEntity
  8
18
 48
2.0
100
AcDbLine
 10
209.7814361417736
 20
-480.167114371665
 30
0.0
 11
218.7814361417736
 21
-480.167114371665
 31
0.0
  0
DIMENSION
  5
90B4
330
1E
100
AcDbEntity
  8
30
  6
CONTINUOUS
100
AcDbDimension
  2
*D27
 10
622.9490556712926
 20
-531.0000001138651
 30
0.0
 11
622.9490556712927
 21
-518.5000001138652
 31
0.0
 70
   160
  1
25
  3
STANDARD
100
AcDbAlignedDimension
 13
483.4980101867131
 23
-506.0000001138651
 33
0.0
 14
593.4980101867131
 24
-531.0000001138651
 34
0.0
 50
270.0
100
AcDbRotatedDimension
1001
ACAD
1000
DSTYLE
1002
{
1070
   271
1070
     0
1002
}
  0
DIMENSION
  5
90B5
330
1E
100
AcDbEntity
  8
30
  6
CONTINUOUS
100
AcDbDimension
  2
*D28
 10
642.6389415711309
 20
-600.000000113865
 30
0.0
 11
642.638941571131
 21
-552.0870272902125
 31
0.0
 70
   160
  3
STANDARD
100
AcDbAlignedDimension
 13
483.4980101867131
 23
-506.0000001138651
 33
0.0
 14
438.4980101867131
 24
-600.000000113865
 34
0.0
 50
270.0
100
AcDbRotatedDimension
1001
ACAD
1000
DSTYLE
1002
{
1070
   271
1070
     0
1002
}
  0
LINE
  5
90B7
330
1E
100
AcDbEntity
  8
18
 48
2.0
100
AcDbLine
 10
552.4042601867131
 20
-400.000000113865
 30
0.0
 11
342.4042601867131
 21
-400.000000113865
 31
0.0
  0
LINE
  5
90B8
330
1E
100
AcDbEntity
  8
12
  6
CONTINUOUS
 62
     3
100
AcDbLine
 10
402.4042601867131
 20
-486.0000001138651
 30
0.0
 11
402.4042601867131
 21
-526.000000113865
 31
0.0
  0
LINE
  5
90B9
330
1E
100
AcDbEntity
  8
12
  6
CONTINUOUS
 62
     3
100
AcDbLine
 10
492.4042601867131
 20
-486.0000001138651
 30
0.0
 11
492.4042601867131
 21
-526.000000113865
 31
0.0
  0
LINE
  5
90BA
330
1E
100
AcDbEntity
  8
12
  6
CONTINUOUS
 62
     3
100
AcDbLine
 10
422.4042601867131
 20
-506.0000001138651
 30
0.0
 11
382.4042601867131
 21
-506.0000001138651
 31
0.0
  0
CIRCLE
  5
90BB
330
1E
100
AcDbEntity
  8
12
  6
CONTINUOUS
 62
     3
100
AcDbCircle
 10
402.4042601867131
 20
-506.0000001138651
 30
0.0
 40
5.5
  0
CIRCLE
  5
90BC
330
1E
100
AcDbEntity
  8
12
  6
CONTINUOUS
 62
     3
100
AcDbCircle
 10
492.4042601867131
 20
-506.0000001138651
 30
0.0
 40
5.5
  0
LINE
  5
90BF
330
1E
100
AcDbEntity
  8
18
 48
2.0
100
AcDbLine
 10
596.4164672180131
 20
-497.910644645065
 30
0.0
 11
592.4042601867131
 21
-481.0000001138651
 31
0.0
  0
LINE
  5
90C0
330
1E
100
AcDbEntity
  8
18
 48
2.0
100
AcDbLine
 10
592.4042601867131
 20
-522.000000113865
 30
0.0
 11
596.4164672180131
 21
-497.910644645065
 31
0.0
  0
LINE
  5
90C1
330
1E
100
AcDbEntity
  8
18
 48
2.0
100
AcDbLine
 10
602.4042601867131
 20
-531.0000001138651
 30
0.0
 11
592.4042601867131
 21
-522.000000113865
 31
0.0
  0
LINE
  5
915A
330
1E
100
AcDbEntity
  8
16
100
AcDbLine
 10
0.0000000000000284
 20
245.9724825939062
 30
0.0
 11
0.0000000000000284
 21
570.0427374114014
 31
0.0
  0
LINE
  5
9169
330
1E
100
AcDbEntity
  8
18
100
AcDbLine
 10
156.2191772461801
 20
506.9028320311999
 30
0.0
 11
149.98992919928
 21
517.0
 31
0.0
  0
LINE
  5
916A
330
1E
100
AcDbEntity
  8
18
100
AcDbLine
 10
-159.5539550780999
 20
508.1564941405999
 30
0.0
 11
-149.9997558592999
 21
517.0
 31
0.0
  0
LINE
  5
916B
330
1E
100
AcDbEntity
  8
10
  6
CONTINUOUS
100
AcDbLine
 10
-104.9997558592999
 20
487.0
 30
0.0
 11
-104.9997558592999
 21
548.9998779297
 31
0.0
  0
LINE
  5
916C
330
1E
100
AcDbEntity
  8
10
  6
CONTINUOUS
100
AcDbLine
 10
105.0002441406
 20
487.0
 30
0.0
 11
105.0002441406
 21
548.9998779297
 31
0.0
  0
LINE
  5
9197
330
1E
100
AcDbEntity
  8
18
100
AcDbLine
 10
-149.9997558592999
 20
517.0
 30
0.0
 11
149.98992919928
 21
517.0
 31
0.0
  0
LINE
  5
9199
330
1E
100
AcDbEntity
  8
21
100
AcDbLine
 10
-92.49999999999994
 20
634.0
 30
0.0
 11
-47.49999999999994
 21
634.0
 31
0.0
  0
LINE
  5
919A
330
1E
100
AcDbEntity
  8
21
100
AcDbLine
 10
-92.49999999999994
 20
548.9998779297
 30
0.0
 11
-92.49999999999994
 21
634.0
 31
0.0
  0
LINE
  5
919B
330
1E
100
AcDbEntity
  8
10
  6
CONTINUOUS
100
AcDbLine
 10
105.0002441406
 20
548.9998779297
 30
0.0
 11
-104.9999999999999
 21
548.9998779297
 31
0.0
  0
LINE
  5
91A3
330
1E
100
AcDbEntity
  8
21
100
AcDbLine
 10
-22.49975585929991
 20
634.0
 30
0.0
 11
22.50024414070009
 21
634.0
 31
0.0
  0
ARC
  5
91A4
330
1E
100
AcDbEntity
  8
24
  6
CONTINOUS
100
AcDbCircle
 10
69.99999999999994
 20
587.0
 30
0.0
 40
6.5
210
0.0
220
0.0
230
-1.0
100
AcDbArc
 50
0.0
 51
180.0
  0
LINE
  5
91A5
330
1E
100
AcDbEntity
  8
21
100
AcDbLine
 10
-47.49999999999994
 20
548.9998779297
 30
0.0
 11
-47.49999999999994
 21
634.0
 31
0.0
  0
LINE
  5
91A6
330
1E
100
AcDbEntity
  8
21
100
AcDbLine
 10
-22.49975585929991
 20
548.9998779297
 30
0.0
 11
-22.49975585929991
 21
634.0
 31
0.0
  0
ARC
  5
91A7
330
1E
100
AcDbEntity
  8
24
  6
CONTINOUS
100
AcDbCircle
 10
-0.0002441407000902
 20
587.0
 30
0.0
 40
6.5
210
0.0
220
0.0
230
-1.0
100
AcDbArc
 50
0.0
 51
180.0
  0
CIRCLE
  5
91A8
330
1E
100
AcDbEntity
  8
24
  6
CONTINOUS
100
AcDbCircle
 10
69.99999999999994
 20
619.0
 30
0.0
 40
6.5
210
0.0
220
0.0
230
-1.0
  0
LINE
  5
91A9
330
1E
100
AcDbEntity
  8
24
  6
CONTINOUS
100
AcDbLine
 10
15.00000000000005
 20
619.0
 30
0.0
 11
-14.99999999999994
 21
619.0
 31
0.0
  0
CIRCLE
  5
91AA
330
1E
100
AcDbEntity
  8
24
  6
CONTINOUS
100
AcDbCircle
 10
-0.0002441407000902
 20
619.0
 30
0.0
 40
6.5
210
0.0
220
0.0
230
-1.0
  0
ARC
  5
91AC
330
1E
100
AcDbEntity
  8
24
  6
CONTINOUS
100
AcDbCircle
 10
69.99999999999994
 20
579.0
 30
0.0
 40
6.5
210
0.0
220
0.0
230
-1.0
100
AcDbArc
 50
180.0
 51
0.0
  0
LINE
  5
91AE
330
1E
100
AcDbEntity
  8
24
  6
CONTINOUS
100
AcDbLine
 10
-76.49999999999995
 20
579.0
 30
0.0
 11
-76.49999999999995
 21
587.0
 31
0.0
  0
LINE
  5
91AF
330
1E
100
AcDbEntity
  8
24
  6
CONTINOUS
100
AcDbLine
 10
-63.49999999999994
 20
579.0
 30
0.0
 11
-63.49999999999994
 21
587.0
 31
0.0
  0
LINE
  5
91B0
330
1E
100
AcDbEntity
  8
24
  6
CONTINOUS
100
AcDbLine
 10
15.00000000000005
 20
587.0
 30
0.0
 11
-14.99999999999994
 21
587.0
 31
0.0
  0
LINE
  5
91B1
330
1E
100
AcDbEntity
  8
24
  6
CONTINOUS
100
AcDbLine
 10
15.00000000000005
 20
579.0
 30
0.0
 11
-14.99999999999994
 21
579.0
 31
0.0
  0
ARC
  5
91B4
330
1E
100
AcDbEntity
  8
24
  6
CONTINOUS
100
AcDbCircle
 10
-0.0002441407000902
 20
579.0
 30
0.0
 40
6.5
210
0.0
220
0.0
230
-1.0
100
AcDbArc
 50
180.0
 51
0.0
  0
LINE
  5
91B5
330
1E
100
AcDbEntity
  8
24
  6
CONTINOUS
100
AcDbLine
 10
-6.499755859299909
 20
579.0
 30
0.0
 11
-6.499755859299909
 21
587.0
 31
0.0
  0
LINE
  5
91B6
330
1E
100
AcDbEntity
  8
24
  6
CONTINOUS
100
AcDbLine
 10
6.50024414070009
 20
579.0
 30
0.0
 11
6.50024414070009
 21
587.0
 31
0.0
  0
ARC
  5
91B7
330
1E
100
AcDbEntity
  8
24
  6
CONTINOUS
100
AcDbCircle
 10
-70.00024414070009
 20
587.0
 30
0.0
 40
6.5
210
0.0
220
0.0
230
-1.0
100
AcDbArc
 50
0.0
 51
90.0
  0
LINE
  5
91B8
330
1E
100
AcDbEntity
  8
21
100
AcDbLine
 10
47.50024414070008
 20
548.9998779297
 30
0.0
 11
47.5002441407001
 21
634.0
 31
0.0
  0
LINE
  5
91B9
330
1E
100
AcDbEntity
  8
21
100
AcDbLine
 10
22.50024414070009
 20
548.9998779297
 30
0.0
 11
22.50024414070009
 21
634.0
 31
0.0
  0
ARC
  5
91BA
330
1E
100
AcDbEntity
  8
24
  6
CONTINOUS
100
AcDbCircle
 10
70.00024414070009
 20
587.0
 30
0.0
 40
6.5
100
AcDbArc
 50
0.0
 51
90.0
  0
LINE
  5
91BB
330
1E
100
AcDbEntity
  8
21
100
AcDbLine
 10
92.5002441407001
 20
548.9998779297
 30
0.0
 11
92.5002441407001
 21
634.0
 31
0.0
  0
LINE
  5
91BD
330
1E
100
AcDbEntity
  8
24
  6
CONTINOUS
100
AcDbLine
 10
85.00000000000005
 20
619.0
 30
0.0
 11
55.00000000000007
 21
619.0
 31
0.0
  0
ARC
  5
91BE
330
1E
100
AcDbEntity
  8
24
  6
CONTINOUS
100
AcDbCircle
 10
70.00024414070009
 20
619.0
 30
0.0
 40
6.5
100
AcDbArc
 50
270.0
 51
90.0
  0
LINE
  5
91BF
330
1E
100
AcDbEntity
  8
21
100
AcDbLine
 10
92.5002441407001
 20
634.0
 30
0.0
 11
70.00024414070009
 21
634.0
 31
0.0
  0
ARC
  5
91C0
330
1E
100
AcDbEntity
  8
24
  6
CONTINOUS
100
AcDbCircle
 10
-70.00024414070009
 20
619.0
 30
0.0
 40
6.5
210
0.0
220
0.0
230
-1.0
100
AcDbArc
 50
270.0
 51
90.0
  0
LINE
  5
91C1
330
1E
100
AcDbEntity
  8
21
100
AcDbLine
 10
47.5002441407001
 20
634.0
 30
0.0
 11
70.00024414070009
 21
634.0
 31
0.0
  0
LINE
  5
91C2
330
1E
100
AcDbEntity
  8
24
  6
CONTINOUS
100
AcDbLine
 10
85.00000000000005
 20
587.0
 30
0.0
 11
55.00000000000006
 21
587.0
 31
0.0
  0
LINE
  5
91C3
330
1E
100
AcDbEntity
  8
24
  6
CONTINOUS
100
AcDbLine
 10
85.00000000000005
 20
579.0
 30
0.0
 11
55.00000000000006
 21
579.0
 31
0.0
  0
ARC
  5
91C4
330
1E
100
AcDbEntity
  8
24
  6
CONTINOUS
100
AcDbCircle
 10
70.00024414070009
 20
579.0
 30
0.0
 40
6.5
100
AcDbArc
 50
270.0
 51
0.0
  0
LINE
  5
91C6
330
1E
100
AcDbEntity
  8
24
  6
CONTINOUS
100
AcDbLine
 10
63.50024414070009
 20
579.0
 30
0.0
 11
63.50024414070009
 21
587.0
 31
0.0
  0
ARC
  5
91C7
330
1E
100
AcDbEntity
  8
24
  6
CONTINOUS
100
AcDbCircle
 10
-70.00024414070009
 20
579.0
 30
0.0
 40
6.5
210
0.0
220
0.0
230
-1.0
100
AcDbArc
 50
270.0
 51
0.0
  0
LINE
  5
91CC
330
1E
100
AcDbEntity
  8
21
100
AcDbLine
 10
76.50024414070009
 20
579.0
 30
0.0
 11
76.50024414070009
 21
587.0
 31
0.0
  0
LINE
  5
91CF
330
1E
100
AcDbEntity
  8
21
100
AcDbLine
 10
92.5002441407001
 20
548.9998779297
 30
0.0
 11
117.5002441407
 21
548.9998779297
 31
0.0
  0
LINE
  5
91D8
330
1E
100
AcDbEntity
  8
18
100
AcDbLine
 10
154.9999389649801
 20
487.0
 30
0.0
 11
-154.9997558592998
 21
487.0
 31
0.0
  0
LINE
  5
91D9
330
1E
100
AcDbEntity
  8
18
100
AcDbLine
 10
-149.9997558592999
 20
496.0
 30
0.0
 11
149.98992919928
 21
496.0
 31
0.0
  0
LINE
  5
91DA
330
1E
100
AcDbEntity
  8
10
  6
CONTINUOUS
100
AcDbLine
 10
-104.9997558592999
 20
357.0
 30
0.0
 11
104.99993896488
 21
357.0
 31
0.0
  0
LINE
  5
91DB
330
1E
100
AcDbEntity
  8
10
  6
CONTINUOUS
100
AcDbLine
 10
-104.9997558592999
 20
349.0
 30
0.0
 11
104.99993896488
 21
349.0
 31
0.0
  0
LINE
  5
91DC
330
1E
100
AcDbEntity
  8
10
  6
CONTINUOUS
100
AcDbLine
 10
-104.9997558592999
 20
349.0
 30
0.0
 11
-104.9997558592999
 21
487.0
 31
0.0
  0
LINE
  5
91DD
330
1E
100
AcDbEntity
  8
18
100
AcDbLine
 10
-149.9997558592999
 20
496.0
 30
0.0
 11
-159.5539550780999
 21
508.1564941405999
 31
0.0
  0
LINE
  5
91DE
330
1E
100
AcDbEntity
  8
18
100
AcDbLine
 10
-154.9997558592998
 20
487.0
 30
0.0
 11
-149.9997558592999
 21
496.0
 31
0.0
  0
LINE
  5
91DF
330
1E
100
AcDbEntity
  8
10
  6
CONTINUOUS
100
AcDbLine
 10
-38.99999999999997
 20
338.0
 30
0.0
 11
39.00000000000003
 21
338.0
 31
0.0
  0
LINE
  5
91E0
330
1E
100
AcDbEntity
  8
10
  6
CONTINUOUS
100
AcDbLine
 10
-19.99999999999997
 20
297.9997558594
 30
0.0
 11
20.00000000000002
 21
297.9997558594
 31
0.0
  0
LINE
  5
91E1
330
1E
100
AcDbEntity
  8
10
  6
CONTINUOUS
100
AcDbLine
 10
-38.99999999999997
 20
338.0
 30
0.0
 11
-38.99999999999997
 21
349.0
 31
0.0
  0
LINE
  5
91E2
330
1E
100
AcDbEntity
  8
10
  6
CONTINUOUS
100
AcDbLine
 10
-19.99999999999997
 20
297.9997558594
 30
0.0
 11
-19.99999999999997
 21
338.0
 31
0.0
  0
LINE
  5
91E3
330
1E
100
AcDbEntity
  8
10
  6
CONTINUOUS
100
AcDbLine
 10
20.00000000000002
 20
297.9997558594
 30
0.0
 11
20.00000000000003
 21
338.0
 31
0.0
  0
LINE
  5
91E4
330
1E
100
AcDbEntity
  8
10
  6
CONTINUOUS
100
AcDbLine
 10
39.00000000000003
 20
338.0
 30
0.0
 11
39.00000000000003
 21
349.0
 31
0.0
  0
LINE
  5
91E6
330
1E
100
AcDbEntity
  8
10
  6
CONTINUOUS
100
AcDbLine
 10
104.99993896488
 20
349.0
 30
0.0
 11
104.99993896488
 21
487.0
 31
0.0
  0
LINE
  5
91E7
330
1E
100
AcDbEntity
  8
18
100
AcDbLine
 10
149.98992919928
 20
496.0
 30
0.0
 11
156.2191772461801
 21
506.9028320311999
 31
0.0
  0
LINE
  5
91E8
330
1E
100
AcDbEntity
  8
18
100
AcDbLine
 10
154.9999389649801
 20
487.0
 30
0.0
 11
149.98992919928
 21
496.0
 31
0.0
  0
DIMENSION
  5
91EB
330
1E
100
AcDbEntity
  8
30
  6
CONTINUOUS
100
AcDbDimension
  2
*D29
 10
22.50024414070003
 20
671.3554801843456
 30
0.0
 11
-2.710242156633711
 21
671.3554801843456
 31
0.0
 70
   160
  1
45
 51
0.000000000000007
  3
STANDARD
100
AcDbAlignedDimension
 13
-22.49975585929996
 23
633.0
 33
0.0
 14
22.50024414070003
 24
633.0
 34
0.0
100
AcDbRotatedDimension
  0
LINE
  5
93C8
330
1E
100
AcDbEntity
  8
24
  6
CONTINOUS
100
AcDbLine
 10
-55.00024414069992
 20
580.0936279296999
 30
0.0
 11
-85.00024414069992
 21
580.0936279296999
 31
0.0
  0
LINE
  5
93C9
330
1E
100
AcDbEntity
  8
24
  6
CONTINOUS
100
AcDbLine
 10
-55.00024414069992
 20
588.0936279296999
 30
0.0
 11
-85.00024414069992
 21
588.0936279296999
 31
0.0
  0
LINE
  5
93CA
330
1E
100
AcDbEntity
  8
24
  6
CONTINOUS
100
AcDbLine
 10
-55.00024414069992
 20
620.0936279297
 30
0.0
 11
-85.00024414069992
 21
620.0936279297
 31
0.0
  0
DIMENSION
  5
93CC
330
1E
100
AcDbEntity
  8
30
  6
CONTINUOUS
100
AcDbDimension
  2
*D30
 10
69.39359631265893
 20
620.0222693466473
 30
0.0
 11
87.0602629793265
 21
642.5222693466476
 31
0.0
 70
   164
  1
%%c13
  3
STANDARD
100
AcDbRadialDimension
 15
71.44907679176859
 25
626.1887107839752
 35
0.0
 40
0.0
1001
ACAD
1000
DSTYLE
1002
{
1070
   288
1070
     1
1002
}
  0
DIMENSION
  5
93FA
330
1E
100
AcDbEntity
  8
30
  6
CONTINUOUS
100
AcDbDimension
  2
*D32
 10
69.99999999989999
 20
706.5532543537364
 30
0.0
 11
34.31401243557039
 21
706.5532543537364
 31
0.0
 70
   160
  1
70
  3
STANDARD
100
AcDbAlignedDimension
 13
0.0000000000000284
 23
619.0935058594
 33
0.0
 14
69.99999999989999
 24
619.0935058594
 34
0.0
100
AcDbRotatedDimension
  0
DIMENSION
  5
93FB
330
1E
100
AcDbEntity
  8
30
  6
CONTINUOUS
100
AcDbDimension
  2
*D31
 10
0.0000000000000338
 20
706.5532543537364
 30
0.0
 11
-35.68598756442961
 21
706.5532543537364
 31
0.0
 70
   160
  1
70
  3
STANDARD
100
AcDbAlignedDimension
 13
-69.99999999999997
 23
619.0935058594
 33
0.0
 14
0.0000000000000284
 24
619.0935058594
 34
0.0
100
AcDbRotatedDimension
  0
DIMENSION
  5
943C
330
1E
100
AcDbEntity
  8
30
  6
CONTINUOUS
100
AcDbDimension
  2
*D33
 10
115.7167400158613
 20
579.0
 30
0.0
 11
110.7167400158612
 21
563.99993896485
 31
0.0
 70
    32
  3
STANDARD
100
AcDbAlignedDimension
 13
105.0002441406
 23
548.9998779297
 33
0.0
 14
85.00000000000005
 24
579.0
 34
0.0
 50
90.0
100
AcDbRotatedDimension
1001
ACAD
1000
DSTYLE
1002
{
1070
    79
1070
     3
1002
}
  0
DIMENSION
  5
9449
330
1E
100
AcDbEntity
  8
30
  6
CONTINUOUS
100
AcDbDimension
  2
*D34
 10
115.7167400158613
 20
587.0
 30
0.0
 11
115.7167400158613
 21
583.0
 31
0.0
 70
   160
  3
STANDARD
100
AcDbAlignedDimension
 13
85.00000000000005
 23
579.0
 33
0.0
 14
85.00000000000005
 24
587.0
 34
0.0
 50
90.0
100
AcDbRotatedDimension
1001
ACAD
1000
DSTYLE
1002
{
1070
   287
1070
     4
1070
   279
1070
     1
1070
    79
1070
     3
1002
}
  0
DIMENSION
  5
9456
330
1E
100
AcDbEntity
  8
30
  6
CONTINUOUS
100
AcDbDimension
  2
*D35
 10
115.7167400158613
 20
619.0
 30
0.0
 11
110.7167400158612
 21
603.0
 31
0.0
 70
    32
  3
STANDARD
100
AcDbAlignedDimension
 13
85.00000000000005
 23
587.0
 33
0.0
 14
85.00000000000005
 24
619.0
 34
0.0
 50
90.0
100
AcDbRotatedDimension
1001
ACAD
1000
DSTYLE
1002
{
1070
   287
1070
     4
1070
   279
1070
     1
1070
    79
1070
     3
1002
}
  0
DIMENSION
  5
9463
330
1E
100
AcDbEntity
  8
30
  6
CONTINUOUS
100
AcDbDimension
  2
*D36
 10
115.7167400158613
 20
634.0
 30
0.0
 11
110.7167400158612
 21
626.5
 31
0.0
 70
    32
  3
STANDARD
100
AcDbAlignedDimension
 13
85.00000000000005
 23
619.0
 33
0.0
 14
92.5002441407001
 24
634.0
 34
0.0
 50
90.0
100
AcDbRotatedDimension
1001
ACAD
1000
DSTYLE
1002
{
1070
   287
1070
     4
1070
   279
1070
     1
1070
    79
1070
     3
1002
}
  0
LWPOLYLINE
  5
948B
330
1E
100
AcDbEntity
  8
10
  6
CONTINUOUS
100
AcDbPolyline
 90
        4
 70
     1
 43
0.0
 10
104.99993896488
 20
-170.0
 10
-104.9999389648499
 20
-170.0
 10
-104.9999389648499
 20
200.0
 10
104.99993896488
 20
200.0
  0
LWPOLYLINE
  5
948F
330
1E
100
AcDbEntity
  8
10
  6
CONTINUOUS
100
AcDbPolyline
 90
        4
 70
     1
 43
0.0
 10
22.50006103516003
 20
-23.0
 10
-22.49999999999997
 20
-23.0
 10
-22.49999999999997
 20
32.0
 10
22.50006103516003
 20
32.0
  0
LWPOLYLINE
  5
9490
330
1E
100
AcDbEntity
  8
10
  6
CONTINUOUS
100
AcDbPolyline
 90
        4
 70
     1
 43
0.0
 10
39.00006103516003
 20
-47.5
 10
-38.99999999999997
 20
-47.5
 10
-38.99999999999997
 20
47.5
 10
39.00006103516003
 20
47.5
  0
DIMENSION
  5
9497
330
1E
100
AcDbEntity
  8
30
  6
CONTINUOUS
100
AcDbDimension
  2
*D37
 10
-165.9169122489493
 20
0.0000000000000173
 30
0.0
 11
-170.9169122489493
 21
100.0
 31
0.0
 70
    32
  3
STANDARD
100
AcDbAlignedDimension
 13
-104.9999389648499
 23
200.0
 33
0.0
 14
-104.9999389648499
 24
0.0
 34
0.0
 50
90.0
100
AcDbRotatedDimension
1001
ACAD
1000
DSTYLE
1002
{
1070
    79
1070
     3
1002
}
  0
DIMENSION
  5
94A4
330
1E
100
AcDbEntity
  8
30
  6
CONTINUOUS
100
AcDbDimension
  2
*D38
 10
-165.9169122489494
 20
-170.0
 30
0.0
 11
-170.9169122489493
 21
-85.00000000000001
 31
0.0
 70
    32
  3
STANDARD
100
AcDbAlignedDimension
 13
-104.9999389648499
 23
0.0
 33
0.0
 14
-104.9999389648499
 24
-170.0
 34
0.0
 50
90.0
100
AcDbRotatedDimension
1001
ACAD
1000
DSTYLE
1002
{
1070
    79
1070
     3
1002
}
  0
DIMENSION
  5
94B1
330
1E
100
AcDbEntity
  8
30
  6
CONTINUOUS
100
AcDbDimension
  2
*D39
 10
-138.9197758474457
 20
0.0000000000000096
 30
0.0
 11
-143.9197758474457
 21
23.74999999999999
 31
0.0
 70
    32
  3
STANDARD
100
AcDbAlignedDimension
 13
-38.99999999999997
 23
47.5
 33
0.0
 14
-104.9999389648499
 24
0.0
 34
0.0
 50
90.0
100
AcDbRotatedDimension
1001
ACAD
1000
DSTYLE
1002
{
1070
    79
1070
     3
1002
}
  0
DIMENSION
  5
94BE
330
1E
100
AcDbEntity
  8
30
  6
CONTINUOUS
100
AcDbDimension
  2
*D40
 10
-138.9197758474457
 20
-47.49999999999997
 30
0.0
 11
-143.9197758474457
 21
-23.75
 31
0.0
 70
    32
  3
STANDARD
100
AcDbAlignedDimension
 13
-104.9999389648499
 23
0.0
 33
0.0
 14
-38.99999999999997
 24
-47.5
 34
0.0
 50
90.0
100
AcDbRotatedDimension
1001
ACAD
1000
DSTYLE
1002
{
1070
    79
1070
     3
1002
}
  0
DIMENSION
  5
94D4
330
1E
100
AcDbEntity
  8
30
  6
CONTINUOUS
100
AcDbDimension
  2
*D41
 10
-152.5815270822969
 20
0.0000000000000135
 30
0.0
 11
-157.5815270822969
 21
92.0
 31
0.0
 70
    32
  3
STANDARD
100
AcDbAlignedDimension
 13
-49.99999999999997
 23
184.0
 33
0.0
 14
-104.9999389648499
 24
0.0
 34
0.0
 50
90.0
100
AcDbRotatedDimension
1001
ACAD
1000
DSTYLE
1002
{
1070
    79
1070
     3
1002
}
  0
DIMENSION
  5
94E1
330
1E
100
AcDbEntity
  8
30
  6
CONTINUOUS
100
AcDbDimension
  2
*D42
 10
-152.5815270822969
 20
-153.9999999999999
 30
0.0
 11
-157.5815270822969
 21
-77.0
 31
0.0
 70
    32
  3
STANDARD
100
AcDbAlignedDimension
 13
-104.9999389648499
 23
0.0
 33
0.0
 14
-49.99999999999997
 24
-154.0
 34
0.0
 50
90.0
100
AcDbRotatedDimension
1001
ACAD
1000
DSTYLE
1002
{
1070
    79
1070
     3
1002
}
  0
LINE
  5
99EF
330
1E
100
AcDbEntity
  8
12
  6
CONTINUOUS
 62
     3
100
AcDbLine
 10
402.4042601867131
 20
-644.0000001138651
 30
0.0
 11
402.4042601867131
 21
-684.000000113865
 31
0.0
  0
LINE
  5
99F0
330
1E
100
AcDbEntity
  8
12
  6
CONTINUOUS
 62
     3
100
AcDbLine
 10
512.4042601867131
 20
-506.0000001138651
 30
0.0
 11
472.4042601867131
 21
-506.0000001138651
 31
0.0
  0
LINE
  5
99F1
330
1E
100
AcDbEntity
  8
12
  6
CONTINUOUS
 62
     3
100
AcDbLine
 10
472.4042601867131
 20
-664.0000001138651
 30
0.0
 11
512.4042601867131
 21
-664.0000001138651
 31
0.0
  0
LINE
  5
99F2
330
1E
100
AcDbEntity
  8
12
  6
CONTINUOUS
 62
     3
100
AcDbLine
 10
492.4042601867131
 20
-644.0000001138651
 30
0.0
 11
492.4042601867131
 21
-684.000000113865
 31
0.0
  0
DIMENSION
  5
9A60
330
1E
100
AcDbEntity
  8
30
  6
CONTINUOUS
100
AcDbDimension
  2
*D43
 10
104.99993896488
 20
-204.9867585002912
 30
0.0
 11
0.0000000000150354
 21
-199.9867585002912
 31
0.0
 70
    32
  3
STANDARD
100
AcDbAlignedDimension
 13
-104.9999389648499
 23
-170.0
 33
0.0
 14
104.99993896488
 24
-170.0
 34
0.0
100
AcDbRotatedDimension
1001
ACAD
1000
DSTYLE
1002
{
1070
    79
1070
     3
1002
}
  0
LINE
  5
9B39
330
1E
100
AcDbEntity
  8
10
  6
CONTINUOUS
100
AcDbLine
 10
467.4199363862349
 20
-143.5004882811999
 30
0.0
 11
467.419936386235
 21
-85.50048828119997
 31
0.0
  0
LINE
  5
9B3A
330
1E
100
AcDbEntity
  8
10
  6
CONTINUOUS
100
AcDbLine
 10
467.419936386235
 20
-85.50048828119997
 30
0.0
 11
405.4199363862351
 21
-85.50048828119997
 31
0.0
  0
LINE
  5
9B3B
330
1E
100
AcDbEntity
  8
10
  6
CONTINUOUS
100
AcDbLine
 10
405.4199363862351
 20
-85.50048828119997
 30
0.0
 11
405.4199363862351
 21
115.4986572266
 31
0.0
  0
LINE
  5
9B3C
330
1E
100
AcDbEntity
  8
10
  6
CONTINUOUS
100
AcDbLine
 10
405.4199363862351
 20
115.4986572266
 30
0.0
 11
467.419936386235
 21
115.4986572265999
 31
0.0
  0
LINE
  5
9B41
330
1E
100
AcDbEntity
  8
10
  6
CONTINUOUS
100
AcDbLine
 10
467.419936386235
 20
115.4986572265999
 30
0.0
 11
467.419936386235
 21
173.4986572266
 31
0.0
  0
LINE
  5
9B42
330
1E
100
AcDbEntity
  8
10
  6
CONTINUOUS
100
AcDbLine
 10
467.419936386235
 20
173.4986572266
 30
0.0
 11
412.419936386235
 21
173.4986572265999
 31
0.0
  0
LINE
  5
9B43
330
1E
100
AcDbEntity
  8
10
  6
CONTINUOUS
100
AcDbLine
 10
412.419936386235
 20
173.4986572265999
 30
0.0
 11
412.419936386235
 21
200.0002441406
 31
0.0
  0
LINE
  5
9B44
330
1E
100
AcDbEntity
  8
10
  6
CONTINUOUS
100
AcDbLine
 10
412.419936386235
 20
200.0002441406
 30
0.0
 11
275.419936386235
 21
200.0002441406
 31
0.0
  0
LINE
  5
9B45
330
1E
100
AcDbEntity
  8
10
  6
CONTINUOUS
100
AcDbLine
 10
275.419936386235
 20
200.0002441406
 30
0.0
 11
275.419936386235
 21
170.0
 31
0.0
  0
LINE
  5
9B46
330
1E
100
AcDbEntity
  8
10
  6
CONTINUOUS
100
AcDbLine
 10
275.419936386235
 20
170.0
 30
0.0
 11
267.419936386235
 21
170.0
 31
0.0
  0
LINE
  5
9B47
330
1E
100
AcDbEntity
  8
10
  6
CONTINUOUS
100
AcDbLine
 10
267.419936386235
 20
170.0
 30
0.0
 11
267.419936386235
 21
-140.0002441405999
 31
0.0
  0
LINE
  5
9B48
330
1E
100
AcDbEntity
  8
10
  6
CONTINUOUS
100
AcDbLine
 10
267.419936386235
 20
-140.0002441405999
 30
0.0
 11
275.419936386235
 21
-140.0002441405999
 31
0.0
  0
LINE
  5
9B49
330
1E
100
AcDbEntity
  8
10
  6
CONTINUOUS
100
AcDbLine
 10
275.419936386235
 20
-140.0002441405999
 30
0.0
 11
275.419936386235
 21
-170.0002441406
 31
0.0
  0
LINE
  5
9B4A
330
1E
100
AcDbEntity
  8
10
  6
CONTINUOUS
100
AcDbLine
 10
275.419936386235
 20
-170.0002441406
 30
0.0
 11
412.419936386235
 21
-170.0002441405999
 31
0.0
  0
LINE
  5
9B4B
330
1E
100
AcDbEntity
  8
10
  6
CONTINUOUS
100
AcDbLine
 10
412.419936386235
 20
-170.0002441405999
 30
0.0
 11
412.4199363862351
 21
-143.5004882812
 31
0.0
  0
LINE
  5
9B4C
330
1E
100
AcDbEntity
  8
10
  6
CONTINUOUS
100
AcDbLine
 10
412.4199363862351
 20
-143.5004882812
 30
0.0
 11
467.4199363862349
 21
-143.5004882811999
 31
0.0
  0
LINE
  5
9C72
330
1E
100
AcDbEntity
  8
16
100
AcDbLine
 10
0.0000000000000284
 20
-814.1719131951985
 30
0.0
 11
0.0000000000000284
 21
-400.0
 31
0.0
  0
LINE
  5
9C73
330
1E
100
AcDbEntity
  8
16
100
AcDbLine
 10
200.8112503086266
 20
-600.0
 30
0.0
 11
-127.3695499245855
 21
-600.0
 31
0.0
  0
DIMENSION
  5
9DAC
330
1E
100
AcDbEntity
  8
30
  6
CONTINUOUS
100
AcDbDimension
  2
*D47
 10
44.99902343750003
 20
-636.2220458984007
 30
0.0
 11
3.844383445946306
 21
-636.2220458984007
 31
0.0
 70
   160
  3
STANDARD
100
AcDbAlignedDimension
 13
-44.99999999999997
 23
-644.0941162108999
 33
0.0
 14
44.99902343750003
 24
-644.0941162108999
 34
0.0
100
AcDbRotatedDimension
  0
LINE
  5
9DAD
330
1E
100
AcDbEntity
  8
18
 48
2.0
100
AcDbLine
 10
102.0
 20
-678.1384277344
 30
0.0
 11
102.0
 21
-491.8619384766
 31
0.0
  0
LINE
  5
9DAE
330
1E
100
AcDbEntity
  8
18
 48
2.0
100
AcDbLine
 10
-101.9999999999999
 20
-678.1381835937
 30
0.0
 11
-101.9999999999999
 21
-491.8629150391
 31
0.0
  0
LINE
  5
9DAF
330
1E
100
AcDbEntity
  8
18
 48
2.0
100
AcDbLine
 10
-86.99999999999997
 20
-743.0004882811999
 30
0.0
 11
0.0000000000000284
 21
-743.0004882811999
 31
0.0
  0
LINE
  5
9DB0
330
1E
100
AcDbEntity
  8
18
 48
2.0
100
AcDbLine
 10
-101.9999999999999
 20
-676.0004882811999
 30
0.0
 11
102.0
 21
-676.0004882811999
 31
0.0
  0
LINE
  5
9DB1
330
1E
100
AcDbEntity
  8
18
 48
2.0
100
AcDbLine
 10
-94.99999999999998
 20
-685.0004882811999
 30
0.0
 11
0.0000000000000284
 21
-685.0004882811999
 31
0.0
  0
LINE
  5
9DB2
330
1E
100
AcDbEntity
  8
18
 48
2.0
100
AcDbLine
 10
0.0000000000000284
 20
-769.0004882811999
 30
0.0
 11
-34.99999999999997
 21
-769.0004882811999
 31
0.0
  0
LINE
  5
9DB3
330
1E
100
AcDbEntity
  8
18
 48
2.0
100
AcDbLine
 10
-104.9999999999999
 20
-686.4448242186999
 30
0.0
 11
-104.9999999999999
 21
-733.0004882812
 31
0.0
  0
ARC
  5
9DB4
330
1E
100
AcDbEntity
  8
18
 48
2.0
100
AcDbCircle
 10
69.99999999999997
 20
-714.0004882811999
 30
0.0
 40
26.00000000001109
210
0.0
220
0.0
230
-1.0
100
AcDbArc
 50
142.0419663572379
 51
217.9580300006435
  0
ARC
  5
9DB5
330
1E
100
AcDbEntity
  8
18
 48
2.0
100
AcDbCircle
 10
69.99999999999997
 20
-714.0004882811999
 30
0.0
 40
25.99999999998813
210
0.0
220
0.0
230
-1.0
100
AcDbArc
 50
322.0419713659713
 51
37.95802134915738
  0
LINE
  5
9DB6
330
1E
100
AcDbEntity
  8
18
 48
2.0
100
AcDbLine
 10
-46.99999999999997
 20
-706.0004882811999
 30
0.0
 11
-46.99999999999997
 21
-722.0004882811999
 31
0.0
  0
LINE
  5
9DB7
330
1E
100
AcDbEntity
  8
18
 48
2.0
100
AcDbLine
 10
-92.99999999999997
 20
-706.0004882811999
 30
0.0
 11
-92.99999999999997
 21
-722.0004882811999
 31
0.0
  0
ARC
  5
9DB8
330
1E
100
AcDbEntity
  8
18
 48
2.0
100
AcDbCircle
 10
86.99999999999997
 20
-793.0004882811999
 30
0.0
 40
50.0
210
0.0
220
0.0
230
-1.0
100
AcDbArc
 50
90.0
 51
143.1300974542156
  0
LINE
  5
9DB9
330
1E
100
AcDbEntity
  8
18
 48
2.0
100
AcDbLine
 10
-92.99999999999997
 20
-722.0004882811999
 30
0.0
 11
-46.99999999999997
 21
-722.0004882811999
 31
0.0
  0
LINE
  5
9DBA
330
1E
100
AcDbEntity
  8
18
 48
2.0
100
AcDbLine
 10
-94.99999999999998
 20
-743.0004882811999
 30
0.0
 11
-86.99999999999997
 21
-743.0004882811999
 31
0.0
  0
ARC
  5
9DBB
330
1E
100
AcDbEntity
  8
18
 48
2.0
100
AcDbCircle
 10
94.99999999999998
 20
-733.0004882812
 30
0.0
 40
10.0
210
0.0
220
0.0
230
-1.0
100
AcDbArc
 50
270.0
 51
0.0
  0
LINE
  5
9DBC
330
1E
100
AcDbEntity
  8
18
 48
2.0
100
AcDbLine
 10
-90.49999999999997
 20
-729.9926757811999
 30
0.0
 11
-90.49999999999997
 21
-743.0004882811999
 31
0.0
  0
ARC
  5
9DBD
330
1E
100
AcDbEntity
  8
18
 48
2.0
100
AcDbCircle
 10
34.99999999999997
 20
-754.0004882812
 30
0.0
 40
15.0
210
0.0
220
0.0
230
-1.0
100
AcDbArc
 50
270.0
 51
323.1301297835552
  0
LINE
  5
9DBE
330
1E
100
AcDbEntity
  8
18
 48
2.0
100
AcDbLine
 10
-49.49999999999997
 20
-729.9926757811999
 30
0.0
 11
-49.49999999999997
 21
-743.0004882811999
 31
0.0
  0
LINE
  5
9DBF
330
1E
100
AcDbEntity
  8
18
 48
2.0
100
AcDbLine
 10
-46.99999999999997
 20
-706.0004882811999
 30
0.0
 11
-92.99999999999997
 21
-706.0004882811999
 31
0.0
  0
LINE
  5
9DC0
330
1E
100
AcDbEntity
  8
18
 48
2.0
100
AcDbLine
 10
-90.49999999999997
 20
-685.0004882811999
 30
0.0
 11
-90.49999999999997
 21
-698.0083007811999
 31
0.0
  0
ARC
  5
9DC1
330
1E
100
AcDbEntity
  8
18
 48
2.0
100
AcDbCircle
 10
94.99999999999998
 20
-695.0004882812
 30
0.0
 40
10.0
210
0.0
220
0.0
230
-1.0
100
AcDbArc
 50
0.0
 51
90.0
  0
ARC
  5
9DC2
330
1E
100
AcDbEntity
  8
18
 48
2.0
100
AcDbCircle
 10
91.99999999999997
 20
-686.4448242186999
 30
0.0
 40
13.0
210
0.0
220
0.0
230
-1.0
100
AcDbArc
 50
0.0
 51
39.7151355516487
  0
LINE
  5
9DC3
330
1E
100
AcDbEntity
  8
12
  6
CONTINUOUS
 62
     3
100
AcDbLine
 10
-44.99999999999997
 20
-679.0004882812
 30
0.0
 11
-44.99999999999997
 21
-644.0004882811999
 31
0.0
  0
LINE
  5
9DC4
330
1E
100
AcDbEntity
  8
12
  6
CONTINUOUS
 62
     3
100
AcDbLine
 10
-31.49999999999997
 20
-664.0004882811999
 30
0.0
 11
-58.49999999999997
 21
-664.0004882811999
 31
0.0
  0
LINE
  5
9DC5
330
1E
100
AcDbEntity
  8
18
 48
2.0
100
AcDbLine
 10
-49.49999999999997
 20
-685.0004882811999
 30
0.0
 11
-49.49999999999997
 21
-698.0083007811999
 31
0.0
  0
CIRCLE
  5
9DC6
330
1E
100
AcDbEntity
  8
12
  6
CONTINUOUS
 62
     3
100
AcDbCircle
 10
44.99999999999997
 20
-664.0004882811999
 30
0.0
 40
4.188000202199873
210
0.0
220
0.0
230
-1.0
  0
CIRCLE
  5
9DC7
330
1E
100
AcDbEntity
  8
12
  6
CONTINUOUS
 62
     3
100
AcDbCircle
 10
44.99999999999997
 20
-664.0004882811999
 30
0.0
 40
5.0
210
0.0
220
0.0
230
-1.0
  0
LINE
  5
9DC9
330
1E
100
AcDbEntity
  8
18
 48
2.0
100
AcDbLine
 10
86.99902343750002
 20
-743.0004882811999
 30
0.0
 11
0.0000000000000284
 21
-743.0004882811999
 31
0.0
  0
LINE
  5
9DCA
330
1E
100
AcDbEntity
  8
18
 48
2.0
100
AcDbLine
 10
93.00000000000002
 20
-722.0004882811999
 30
0.0
 11
47.00000000000002
 21
-722.0004882811999
 31
0.0
  0
LINE
  5
9DCB
330
1E
100
AcDbEntity
  8
18
 48
2.0
100
AcDbLine
 10
93.00000000000002
 20
-706.0004882811999
 30
0.0
 11
47.00000000000002
 21
-706.0004882811999
 31
0.0
  0
ARC
  5
9DCC
330
1E
100
AcDbEntity
  8
18
 48
2.0
100
AcDbCircle
 10
86.99902343750002
 20
-792.9995117186999
 30
0.0
 40
50.0
100
AcDbArc
 50
90.0
 51
143.1300974541587
  0
LINE
  5
9DCD
330
1E
100
AcDbEntity
  8
18
 48
2.0
100
AcDbLine
 10
95.00000000000003
 20
-685.0004882811999
 30
0.0
 11
0.0000000000000284
 21
-685.0004882811999
 31
0.0
  0
ARC
  5
9DCE
330
1E
100
AcDbEntity
  8
18
 48
2.0
100
AcDbCircle
 10
-0.0009765624999716
 20
-713.9995117186999
 30
0.0
 40
25.99999999993221
100
AcDbArc
 50
142.0419663570975
 51
217.9580300006435
  0
LINE
  5
9DCF
330
1E
100
AcDbEntity
  8
18
 48
2.0
100
AcDbLine
 10
-22.99999999999997
 20
-706.0004882811999
 30
0.0
 11
-22.99999999999997
 21
-722.0004882811999
 31
0.0
  0
LINE
  5
9DD0
330
1E
100
AcDbEntity
  8
18
 48
2.0
100
AcDbLine
 10
23.00000000000002
 20
-706.0004882811999
 30
0.0
 11
23.00000000000002
 21
-722.0004882811999
 31
0.0
  0
ARC
  5
9DD1
330
1E
100
AcDbEntity
  8
18
 48
2.0
100
AcDbCircle
 10
-0.0000000000000284
 20
-714.0004882811999
 30
0.0
 40
26.00000000001109
210
0.0
220
0.0
230
-1.0
100
AcDbArc
 50
142.0419663572379
 51
217.9580300006435
  0
LINE
  5
9DD2
330
1E
100
AcDbEntity
  8
18
 48
2.0
100
AcDbLine
 10
47.00000000000002
 20
-706.0004882811999
 30
0.0
 11
47.00000000000002
 21
-722.0004882811999
 31
0.0
  0
ARC
  5
9DD3
330
1E
100
AcDbEntity
  8
18
 48
2.0
100
AcDbCircle
 10
69.99902343750003
 20
-713.9995117186999
 30
0.0
 40
25.99999999993221
100
AcDbArc
 50
142.0419663570975
 51
217.9580300006435
  0
LINE
  5
9DD4
330
1E
100
AcDbEntity
  8
18
 48
2.0
100
AcDbLine
 10
0.0000000000000284
 20
-769.0004882811999
 30
0.0
 11
35.00000000000003
 21
-769.0004882811999
 31
0.0
  0
LINE
  5
9DD5
330
1E
100
AcDbEntity
  8
18
 48
2.0
100
AcDbLine
 10
-20.49999999999997
 20
-729.9926757811999
 30
0.0
 11
-20.49999999999997
 21
-743.0004882811999
 31
0.0
  0
LINE
  5
9DD6
330
1E
100
AcDbEntity
  8
18
 48
2.0
100
AcDbLine
 10
23.00000000000002
 20
-722.0004882811999
 30
0.0
 11
-22.99999999999997
 21
-722.0004882811999
 31
0.0
  0
LINE
  5
9DD7
330
1E
100
AcDbEntity
  8
18
 48
2.0
100
AcDbLine
 10
20.50000000000002
 20
-729.9926757811999
 30
0.0
 11
20.50000000000002
 21
-743.0004882811999
 31
0.0
  0
LINE
  5
9DD8
330
1E
100
AcDbEntity
  8
18
 48
2.0
100
AcDbLine
 10
49.50000000000002
 20
-729.9926757811999
 30
0.0
 11
49.50000000000002
 21
-743.0004882811999
 31
0.0
  0
ARC
  5
9DD9
330
1E
100
AcDbEntity
  8
18
 48
2.0
100
AcDbCircle
 10
34.99902343750003
 20
-753.9995117186999
 30
0.0
 40
15.0
100
AcDbArc
 50
270.0
 51
323.1301297837818
  0
LINE
  5
9DDA
330
1E
100
AcDbEntity
  8
18
 48
2.0
100
AcDbLine
 10
-20.49999999999997
 20
-685.0004882811999
 30
0.0
 11
-20.49999999999997
 21
-698.0083007811999
 31
0.0
  0
LINE
  5
9DDB
330
1E
100
AcDbEntity
  8
18
 48
2.0
100
AcDbLine
 10
-22.99999999999997
 20
-706.0004882811999
 30
0.0
 11
23.00000000000002
 21
-706.0004882811999
 31
0.0
  0
LINE
  5
9DDC
330
1E
100
AcDbEntity
  8
18
 48
2.0
100
AcDbLine
 10
20.50000000000002
 20
-685.0004882811999
 30
0.0
 11
20.50000000000002
 21
-698.0083007811999
 31
0.0
  0
LINE
  5
9DDD
330
1E
100
AcDbEntity
  8
12
  6
CONTINUOUS
 62
     3
100
AcDbLine
 10
44.99902343750003
 20
-679.0004882812
 30
0.0
 11
44.99902343750003
 21
-644.0004882811999
 31
0.0
  0
CIRCLE
  5
9DDE
330
1E
100
AcDbEntity
  8
12
  6
CONTINUOUS
 62
     3
100
AcDbCircle
 10
44.99902343750003
 20
-663.9995117186999
 30
0.0
 40
5.0
  0
LINE
  5
9DDF
330
1E
100
AcDbEntity
  8
12
  6
CONTINUOUS
 62
     3
100
AcDbLine
 10
31.50000000000003
 20
-664.0004882811999
 30
0.0
 11
58.50000000000003
 21
-664.0004882811999
 31
0.0
  0
CIRCLE
  5
9DE0
330
1E
100
AcDbEntity
  8
12
  6
CONTINUOUS
 62
     3
100
AcDbCircle
 10
44.99902343750003
 20
-663.9995117186999
 30
0.0
 40
4.188000202200328
  0
LINE
  5
9DE1
330
1E
100
AcDbEntity
  8
18
 48
2.0
100
AcDbLine
 10
49.50000000000002
 20
-685.0004882811999
 30
0.0
 11
49.50000000000002
 21
-698.0083007811999
 31
0.0
  0
LINE
  5
9DE2
330
1E
100
AcDbEntity
  8
18
 48
2.0
100
AcDbLine
 10
105.0
 20
-686.4448242186999
 30
0.0
 11
105.0
 21
-733.0004882812
 31
0.0
  0
LINE
  5
9DE3
330
1E
100
AcDbEntity
  8
18
 48
2.0
100
AcDbLine
 10
93.00000000000002
 20
-706.0004882811999
 30
0.0
 11
93.00000000000002
 21
-722.0004882811999
 31
0.0
  0
ARC
  5
9DE4
330
1E
100
AcDbEntity
  8
18
 48
2.0
100
AcDbCircle
 10
69.99902343750003
 20
-713.9995117186999
 30
0.0
 40
25.99999999998813
100
AcDbArc
 50
322.0419713659713
 51
37.95802134900934
  0
LINE
  5
9DE5
330
1E
100
AcDbEntity
  8
18
 48
2.0
100
AcDbLine
 10
86.99902343750002
 20
-743.0004882811999
 30
0.0
 11
94.99902343750003
 21
-743.0004882811999
 31
0.0
  0
LINE
  5
9DE6
330
1E
100
AcDbEntity
  8
18
 48
2.0
100
AcDbLine
 10
90.50000000000002
 20
-729.9926757811999
 30
0.0
 11
90.50000000000002
 21
-743.0004882811999
 31
0.0
  0
ARC
  5
9DE7
330
1E
100
AcDbEntity
  8
18
 48
2.0
100
AcDbCircle
 10
94.99902343750003
 20
-732.9995117186999
 30
0.0
 40
10.0
100
AcDbArc
 50
270.0
 51
0.0
  0
ARC
  5
9DE8
330
1E
100
AcDbEntity
  8
18
 48
2.0
100
AcDbCircle
 10
91.99902343750002
 20
-686.4438476562
 30
0.0
 40
13.0
100
AcDbArc
 50
0.0
 51
39.7084009849652
  0
ARC
  5
9DE9
330
1E
100
AcDbEntity
  8
18
 48
2.0
100
AcDbCircle
 10
94.99902343750003
 20
-694.9995117187
 30
0.0
 40
10.0
100
AcDbArc
 50
0.0
 51
90.0
  0
LINE
  5
9DEA
330
1E
100
AcDbEntity
  8
18
 48
2.0
100
AcDbLine
 10
90.50000000000002
 20
-685.0004882811999
 30
0.0
 11
90.50000000000002
 21
-698.0083007811999
 31
0.0
  0
LINE
  5
9DEB
330
1E
100
AcDbEntity
  8
18
 48
2.0
100
AcDbLine
 10
-101.9999999999999
 20
-494.0004882811999
 30
0.0
 11
102.0
 21
-494.0004882811999
 31
0.0
  0
LINE
  5
9DEC
330
1E
100
AcDbEntity
  8
18
 48
2.0
100
AcDbLine
 10
-87.00024414059996
 20
-427.0
 30
0.0
 11
-0.0002441405999605
 21
-427.0
 31
0.0
  0
LINE
  5
9DED
330
1E
100
AcDbEntity
  8
11
  6
CONTINUOUS
100
AcDbLine
 10
-79.99999999999997
 20
-625.5004882811999
 30
0.0
 11
-9.999999999999971
 21
-625.5004882811999
 31
0.0
  0
LINE
  5
9DEE
330
1E
100
AcDbEntity
  8
11
  6
CONTINUOUS
100
AcDbLine
 10
-79.99999999999997
 20
-592.5004882811999
 30
0.0
 11
-9.999999999999971
 21
-592.5004882811999
 31
0.0
  0
LINE
  5
9DEF
330
1E
100
AcDbEntity
  8
11
  6
CONTINUOUS
100
AcDbLine
 10
-79.99999999999997
 20
-577.5004882811999
 30
0.0
 11
-9.999999999999971
 21
-577.5004882811999
 31
0.0
  0
LINE
  5
9DF0
330
1E
100
AcDbEntity
  8
11
  6
CONTINUOUS
100
AcDbLine
 10
-79.99999999999997
 20
-544.5004882811999
 30
0.0
 11
-9.999999999999971
 21
-544.5004882811999
 31
0.0
  0
LINE
  5
9DF1
330
1E
100
AcDbEntity
  8
18
 48
2.0
100
AcDbLine
 10
-0.0002441405999605
 20
-401.0
 30
0.0
 11
-35.00024414059996
 21
-401.0
 31
0.0
  0
LINE
  5
9DF2
330
1E
100
AcDbEntity
  8
18
 48
2.0
100
AcDbLine
 10
-95.00024414059996
 20
-485.0
 30
0.0
 11
-0.0002441405999605
 21
-485.0
 31
0.0
  0
LINE
  5
9DF3
330
1E
100
AcDbEntity
  8
12
  6
CONTINUOUS
 62
     3
100
AcDbLine
 10
-45.00024414059995
 20
-491.0003662109
 30
0.0
 11
-45.00024414059995
 21
-521.0003662109
 31
0.0
  0
LINE
  5
9DF4
330
1E
100
AcDbEntity
  8
11
  6
CONTINUOUS
100
AcDbLine
 10
-79.99999999999997
 20
-544.5004882811999
 30
0.0
 11
-79.99999999999997
 21
-577.5004882811999
 31
0.0
  0
CIRCLE
  5
9DF5
330
1E
100
AcDbEntity
  8
12
  6
CONTINUOUS
 62
     3
100
AcDbCircle
 10
-43.99999999999997
 20
-630.5004882811999
 30
0.0
 40
1.75
  0
CIRCLE
  5
9DF6
330
1E
100
AcDbEntity
  8
12
  6
CONTINUOUS
 62
     3
100
AcDbCircle
 10
-43.99999999999997
 20
-630.5004882811999
 30
0.0
 40
1.425003051800104
  0
LINE
  5
9DF7
330
1E
100
AcDbEntity
  8
11
  6
CONTINUOUS
100
AcDbLine
 10
-79.99999999999997
 20
-592.5004882811999
 30
0.0
 11
-79.99999999999997
 21
-625.5004882811999
 31
0.0
  0
LINE
  5
9DF8
330
1E
100
AcDbEntity
  8
12
  6
CONTINUOUS
 62
     3
100
AcDbLine
 10
-58.50024414059996
 20
-506.0003662108999
 30
0.0
 11
-31.50024414059996
 21
-506.0003662108999
 31
0.0
  0
CIRCLE
  5
9DF9
330
1E
100
AcDbEntity
  8
12
  6
CONTINUOUS
 62
     3
100
AcDbCircle
 10
-43.99999999999997
 20
-539.5004882811999
 30
0.0
 40
1.75
  0
CIRCLE
  5
9DFA
330
1E
100
AcDbEntity
  8
12
  6
CONTINUOUS
 62
     3
100
AcDbCircle
 10
-43.99999999999997
 20
-539.5004882811999
 30
0.0
 40
1.425003051800104
  0
CIRCLE
  5
9DFB
330
1E
100
AcDbEntity
  8
12
  6
CONTINUOUS
 62
     3
100
AcDbCircle
 10
-45.00024414059995
 20
-506.0003662108999
 30
0.0
 40
5.0
  0
CIRCLE
  5
9DFC
330
1E
100
AcDbEntity
  8
12
  6
CONTINUOUS
 62
     3
100
AcDbCircle
 10
-45.00024414059995
 20
-506.0003662108999
 30
0.0
 40
4.188000202199873
  0
ARC
  5
9DFE
330
1E
100
AcDbEntity
  8
18
 48
2.0
100
AcDbCircle
 10
-87.00024414059996
 20
-377.0003662109
 30
0.0
 40
50.0
100
AcDbArc
 50
270.0
 51
323.1300974540677
  0
LINE
  5
9DFF
330
1E
100
AcDbEntity
  8
18
 48
2.0
100
AcDbLine
 10
-93.00024414059995
 20
-448.0
 30
0.0
 11
-47.00024414059996
 21
-448.0
 31
0.0
  0
LINE
  5
9E00
330
1E
100
AcDbEntity
  8
18
 48
2.0
100
AcDbLine
 10
-93.00024414059995
 20
-464.0
 30
0.0
 11
-47.00024414059996
 21
-464.0
 31
0.0
  0
ARC
  5
9E01
330
1E
100
AcDbEntity
  8
18
 48
2.0
100
AcDbCircle
 10
-92.00024414059996
 20
-483.5560302733999
 30
0.0
 40
13.0
100
AcDbArc
 50
180.0
 51
219.7168226088105
  0
ARC
  5
9E02
330
1E
100
AcDbEntity
  8
18
 48
2.0
100
AcDbCircle
 10
-95.00024414059996
 20
-475.0003662109
 30
0.0
 40
10.0
100
AcDbArc
 50
180.0
 51
270.0
  0
LINE
  5
9E03
330
1E
100
AcDbEntity
  8
18
 48
2.0
100
AcDbLine
 10
-93.00024414059995
 20
-464.0
 30
0.0
 11
-93.00024414059995
 21
-448.0
 31
0.0
  0
ARC
  5
9E04
330
1E
100
AcDbEntity
  8
18
 48
2.0
100
AcDbCircle
 10
-70.00024414059996
 20
-456.0003662108999
 30
0.0
 40
25.99999999998813
100
AcDbArc
 50
142.0419713659713
 51
217.9580213490093
  0
LINE
  5
9E05
330
1E
100
AcDbEntity
  8
18
 48
2.0
100
AcDbLine
 10
-90.50024414059995
 20
-440.0078125
 30
0.0
 11
-90.50024414059995
 21
-427.0
 31
0.0
  0
LINE
  5
9E06
330
1E
100
AcDbEntity
  8
18
 48
2.0
100
AcDbLine
 10
-90.50024414059995
 20
-485.0
 30
0.0
 11
-90.50024414059995
 21
-471.9921874999999
 31
0.0
  0
ARC
  5
9E07
330
1E
100
AcDbEntity
  8
18
 48
2.0
100
AcDbCircle
 10
-95.00024414059996
 20
-437.0003662109
 30
0.0
 40
10.0
100
AcDbArc
 50
90.0
 51
180.0
  0
LINE
  5
9E08
330
1E
100
AcDbEntity
  8
18
 48
2.0
100
AcDbLine
 10
-95.00024414059996
 20
-427.0
 30
0.0
 11
-87.00024414059996
 21
-427.0
 31
0.0
  0
LINE
  5
9E09
330
1E
100
AcDbEntity
  8
18
 48
2.0
100
AcDbLine
 10
-105.0002441405999
 20
-483.5556640624999
 30
0.0
 11
-105.0002441405999
 21
-437.0
 31
0.0
  0
LINE
  5
9E0A
330
1E
100
AcDbEntity
  8
18
 48
2.0
100
AcDbLine
 10
-47.00024414059996
 20
-464.0
 30
0.0
 11
-47.00024414059996
 21
-448.0
 31
0.0
  0
LINE
  5
9E0B
330
1E
100
AcDbEntity
  8
18
 48
2.0
100
AcDbLine
 10
-49.50024414059996
 20
-440.0078125
 30
0.0
 11
-49.50024414059996
 21
-427.0
 31
0.0
  0
LINE
  5
9E0C
330
1E
100
AcDbEntity
  8
18
 48
2.0
100
AcDbLine
 10
-49.50024414059996
 20
-485.0
 30
0.0
 11
-49.50024414059996
 21
-471.9921874999999
 31
0.0
  0
ARC
  5
9E0D
330
1E
100
AcDbEntity
  8
18
 48
2.0
100
AcDbCircle
 10
-70.00024414059996
 20
-456.0003662108999
 30
0.0
 40
25.99999999999375
100
AcDbArc
 50
322.0419663569266
 51
37.95803000047773
  0
ARC
  5
9E0E
330
1E
100
AcDbEntity
  8
18
 48
2.0
100
AcDbCircle
 10
-35.00024414059996
 20
-416.0003662109
 30
0.0
 40
15.0
100
AcDbArc
 50
90.0
 51
143.1301297838641
  0
LINE
  5
9E0F
330
1E
100
AcDbEntity
  8
12
  6
CONTINUOUS
 62
     3
100
AcDbLine
 10
44.99975585940004
 20
-491.0003662109
 30
0.0
 11
44.99975585940004
 21
-521.0003662109
 31
0.0
  0
LINE
  5
9E11
330
1E
100
AcDbEntity
  8
11
  6
CONTINUOUS
100
AcDbLine
 10
10.00000000000002
 20
-625.5004882811999
 30
0.0
 11
80.00000000000003
 21
-625.5004882811999
 31
0.0
  0
LINE
  5
9E12
330
1E
100
AcDbEntity
  8
11
  6
CONTINUOUS
100
AcDbLine
 10
10.00000000000002
 20
-592.5004882811999
 30
0.0
 11
80.00000000000003
 21
-592.5004882811999
 31
0.0
  0
LINE
  5
9E13
330
1E
100
AcDbEntity
  8
11
  6
CONTINUOUS
100
AcDbLine
 10
10.00000000000002
 20
-544.5004882811999
 30
0.0
 11
80.00000000000003
 21
-544.5004882811999
 31
0.0
  0
LINE
  5
9E14
330
1E
100
AcDbEntity
  8
11
  6
CONTINUOUS
100
AcDbLine
 10
10.00000000000002
 20
-577.5004882811999
 30
0.0
 11
80.00000000000003
 21
-577.5004882811999
 31
0.0
  0
LINE
  5
9E15
330
1E
100
AcDbEntity
  8
11
  6
CONTINUOUS
100
AcDbLine
 10
-9.999999999999971
 20
-544.5004882811999
 30
0.0
 11
-9.999999999999971
 21
-577.5004882811999
 31
0.0
  0
LINE
  5
9E16
330
1E
100
AcDbEntity
  8
11
  6
CONTINUOUS
100
AcDbLine
 10
10.00000000000002
 20
-544.5004882811999
 30
0.0
 11
10.00000000000002
 21
-577.5004882811999
 31
0.0
  0
LINE
  5
9E17
330
1E
100
AcDbEntity
  8
11
  6
CONTINUOUS
100
AcDbLine
 10
10.00000000000002
 20
-592.5004882811999
 30
0.0
 11
10.00000000000002
 21
-625.5004882811999
 31
0.0
  0
CIRCLE
  5
9E18
330
1E
100
AcDbEntity
  8
18
 48
2.0
100
AcDbCircle
 10
0.0000000000000284
 20
-588.0004882811999
 30
0.0
 40
1.5
  0
CIRCLE
  5
9E19
330
1E
100
AcDbEntity
  8
18
 48
2.0
100
AcDbCircle
 10
0.0000000000000284
 20
-588.0004882811999
 30
0.0
 40
2.0
  0
LINE
  5
9E1A
330
1E
100
AcDbEntity
  8
11
  6
CONTINUOUS
100
AcDbLine
 10
-9.999999999999971
 20
-592.5004882811999
 30
0.0
 11
-9.999999999999971
 21
-625.5004882811999
 31
0.0
  0
LINE
  5
9E1B
330
1E
100
AcDbEntity
  8
12
  6
CONTINUOUS
 62
     3
100
AcDbLine
 10
31.49975585940004
 20
-506.0003662108999
 30
0.0
 11
58.49975585940004
 21
-506.0003662108999
 31
0.0
  0
CIRCLE
  5
9E1C
330
1E
100
AcDbEntity
  8
12
  6
CONTINUOUS
 62
     3
100
AcDbCircle
 10
44.00000000000003
 20
-539.5004882811999
 30
0.0
 40
1.75
  0
CIRCLE
  5
9E1D
330
1E
100
AcDbEntity
  8
12
  6
CONTINUOUS
 62
     3
100
AcDbCircle
 10
44.00000000000003
 20
-539.5004882811999
 30
0.0
 40
1.425003051800104
  0
CIRCLE
  5
9E1E
330
1E
100
AcDbEntity
  8
12
  6
CONTINUOUS
 62
     3
100
AcDbCircle
 10
-44.99975585940004
 20
-506.0
 30
0.0
 40
4.188000202199873
210
0.0
220
0.0
230
-1.0
  0
CIRCLE
  5
9E1F
330
1E
100
AcDbEntity
  8
12
  6
CONTINUOUS
 62
     3
100
AcDbCircle
 10
-44.99975585940004
 20
-506.0
 30
0.0
 40
5.0
210
0.0
220
0.0
230
-1.0
  0
LINE
  5
9E20
330
1E
100
AcDbEntity
  8
11
  6
CONTINUOUS
100
AcDbLine
 10
80.00000000000003
 20
-544.5004882811999
 30
0.0
 11
80.00000000000003
 21
-577.5004882811999
 31
0.0
  0
LINE
  5
9E21
330
1E
100
AcDbEntity
  8
11
  6
CONTINUOUS
100
AcDbLine
 10
80.00000000000003
 20
-592.5004882811999
 30
0.0
 11
80.00000000000003
 21
-625.5004882811999
 31
0.0
  0
CIRCLE
  5
9E22
330
1E
100
AcDbEntity
  8
12
  6
CONTINUOUS
 62
     3
100
AcDbCircle
 10
88.00000000000002
 20
-588.0004882811999
 30
0.0
 40
1.5
  0
CIRCLE
  5
9E23
330
1E
100
AcDbEntity
  8
12
  6
CONTINUOUS
 62
     3
100
AcDbCircle
 10
88.00000000000002
 20
-588.0004882811999
 30
0.0
 40
2.0
  0
LINE
  5
9E24
330
1E
100
AcDbEntity
  8
18
 48
2.0
100
AcDbLine
 10
86.99975585940004
 20
-427.0
 30
0.0
 11
-0.0002441405999605
 21
-427.0
 31
0.0
  0
LINE
  5
9E25
330
1E
100
AcDbEntity
  8
18
 48
2.0
100
AcDbLine
 10
94.99975585940005
 20
-485.0
 30
0.0
 11
-0.0002441405999605
 21
-485.0
 31
0.0
  0
ARC
  5
9E26
330
1E
100
AcDbEntity
  8
18
 48
2.0
100
AcDbCircle
 10
-86.99975585940004
 20
-377.0
 30
0.0
 40
50.0
210
0.0
220
0.0
230
-1.0
100
AcDbArc
 50
270.0
 51
323.1300974540677
  0
LINE
  5
9E27
330
1E
100
AcDbEntity
  8
18
 48
2.0
100
AcDbLine
 10
46.99975585940004
 20
-464.0
 30
0.0
 11
92.99975585940003
 21
-464.0
 31
0.0
  0
LINE
  5
9E28
330
1E
100
AcDbEntity
  8
18
 48
2.0
100
AcDbLine
 10
92.99975585940003
 20
-448.0
 30
0.0
 11
46.99975585940004
 21
-448.0
 31
0.0
  0
ARC
  5
9E2A
330
1E
100
AcDbEntity
  8
18
 48
2.0
100
AcDbCircle
 10
-0.0002441405999605
 20
-456.0003662108999
 30
0.0
 40
25.99999999999375
100
AcDbArc
 50
322.0419663569266
 51
37.95803000047773
  0
LINE
  5
9E2B
330
1E
100
AcDbEntity
  8
18
 48
2.0
100
AcDbLine
 10
20.49975585940003
 20
-485.0
 30
0.0
 11
20.49975585940003
 21
-471.9921874999999
 31
0.0
  0
LINE
  5
9E2C
330
1E
100
AcDbEntity
  8
18
 48
2.0
100
AcDbLine
 10
20.49975585940003
 20
-440.0078125
 30
0.0
 11
20.49975585940003
 21
-427.0
 31
0.0
  0
LINE
  5
9E2D
330
1E
100
AcDbEntity
  8
18
 48
2.0
100
AcDbLine
 10
22.99975585940003
 20
-464.0
 30
0.0
 11
22.99975585940003
 21
-448.0
 31
0.0
  0
LINE
  5
9E2E
330
1E
100
AcDbEntity
  8
18
 48
2.0
100
AcDbLine
 10
22.99975585940003
 20
-448.0
 30
0.0
 11
-23.00024414059996
 21
-448.0
 31
0.0
  0
LINE
  5
9E2F
330
1E
100
AcDbEntity
  8
18
 48
2.0
100
AcDbLine
 10
-23.00024414059996
 20
-464.0
 30
0.0
 11
-23.00024414059996
 21
-448.0
 31
0.0
  0
LINE
  5
9E30
330
1E
100
AcDbEntity
  8
18
 48
2.0
100
AcDbLine
 10
22.99975585940003
 20
-464.0
 30
0.0
 11
-23.00024414059996
 21
-464.0
 31
0.0
  0
LINE
  5
9E31
330
1E
100
AcDbEntity
  8
18
 48
2.0
100
AcDbLine
 10
-20.50024414059996
 20
-440.0078125
 30
0.0
 11
-20.50024414059996
 21
-427.0
 31
0.0
  0
ARC
  5
9E32
330
1E
100
AcDbEntity
  8
18
 48
2.0
100
AcDbCircle
 10
0.0002441405999605
 20
-456.0
 30
0.0
 40
25.99999999999361
210
0.0
220
0.0
230
-1.0
100
AcDbArc
 50
322.0419663569266
 51
37.95803000047773
  0
LINE
  5
9E33
330
1E
100
AcDbEntity
  8
18
 48
2.0
100
AcDbLine
 10
-20.50024414059996
 20
-485.0
 30
0.0
 11
-20.50024414059996
 21
-471.9921874999999
 31
0.0
  0
ARC
  5
9E34
330
1E
100
AcDbEntity
  8
18
 48
2.0
100
AcDbCircle
 10
-69.99975585940004
 20
-456.0
 30
0.0
 40
25.99999999999361
210
0.0
220
0.0
230
-1.0
100
AcDbArc
 50
322.0419663569266
 51
37.95803000047773
  0
LINE
  5
9E35
330
1E
100
AcDbEntity
  8
18
 48
2.0
100
AcDbLine
 10
49.49975585940004
 20
-485.0
 30
0.0
 11
49.49975585940004
 21
-471.9921874999999
 31
0.0
  0
LINE
  5
9E36
330
1E
100
AcDbEntity
  8
18
 48
2.0
100
AcDbLine
 10
49.49975585940004
 20
-440.0078125
 30
0.0
 11
49.49975585940004
 21
-427.0
 31
0.0
  0
LINE
  5
9E37
330
1E
100
AcDbEntity
  8
18
 48
2.0
100
AcDbLine
 10
46.99975585940004
 20
-464.0
 30
0.0
 11
46.99975585940004
 21
-448.0
 31
0.0
  0
LINE
  5
9E38
330
1E
100
AcDbEntity
  8
18
 48
2.0
100
AcDbLine
 10
-0.0002441405999605
 20
-401.0
 30
0.0
 11
34.99975585940004
 21
-401.0
 31
0.0
  0
ARC
  5
9E39
330
1E
100
AcDbEntity
  8
18
 48
2.0
100
AcDbCircle
 10
-34.99975585940004
 20
-416.0
 30
0.0
 40
15.0
210
0.0
220
0.0
230
-1.0
100
AcDbArc
 50
90.0
 51
143.1301297838641
  0
LINE
  5
9E3A
330
1E
100
AcDbEntity
  8
18
 48
2.0
100
AcDbLine
 10
104.9997558594
 20
-483.5556640624999
 30
0.0
 11
104.9997558594
 21
-437.0
 31
0.0
  0
LINE
  5
9E3B
330
1E
100
AcDbEntity
  8
18
 48
2.0
100
AcDbLine
 10
94.99975585940005
 20
-427.0
 30
0.0
 11
86.99975585940004
 21
-427.0
 31
0.0
  0
ARC
  5
9E3C
330
1E
100
AcDbEntity
  8
18
 48
2.0
100
AcDbCircle
 10
-94.99975585940005
 20
-437.0
 30
0.0
 40
10.0
210
0.0
220
0.0
230
-1.0
100
AcDbArc
 50
90.0
 51
180.0
  0
LINE
  5
9E3D
330
1E
100
AcDbEntity
  8
18
 48
2.0
100
AcDbLine
 10
90.49975585940003
 20
-485.0
 30
0.0
 11
90.49975585940003
 21
-471.9921874999999
 31
0.0
  0
LINE
  5
9E3E
330
1E
100
AcDbEntity
  8
18
 48
2.0
100
AcDbLine
 10
90.49975585940003
 20
-440.0078125
 30
0.0
 11
90.49975585940003
 21
-427.0
 31
0.0
  0
ARC
  5
9E3F
330
1E
100
AcDbEntity
  8
18
 48
2.0
100
AcDbCircle
 10
-69.99975585940004
 20
-456.0
 30
0.0
 40
25.99999999998813
210
0.0
220
0.0
230
-1.0
100
AcDbArc
 50
142.0419713659713
 51
217.9580213490093
  0
LINE
  5
9E40
330
1E
100
AcDbEntity
  8
18
 48
2.0
100
AcDbLine
 10
92.99975585940003
 20
-464.0
 30
0.0
 11
92.99975585940003
 21
-448.0
 31
0.0
  0
ARC
  5
9E41
330
1E
100
AcDbEntity
  8
18
 48
2.0
100
AcDbCircle
 10
-94.99975585940005
 20
-475.0
 30
0.0
 40
10.0
210
0.0
220
0.0
230
-1.0
100
AcDbArc
 50
180.0
 51
270.0
  0
ARC
  5
9E42
330
1E
100
AcDbEntity
  8
18
 48
2.0
100
AcDbCircle
 10
-91.99975585940004
 20
-483.5556640624999
 30
0.0
 40
13.0
210
0.0
220
0.0
230
-1.0
100
AcDbArc
 50
180.0
 51
219.7134519102364
  0
DIMENSION
  5
9F73
330
1E
100
AcDbEntity
  8
30
  6
CONTINUOUS
100
AcDbDimension
  2
*D62
 10
150.4535217423334
 20
-401.0004882812
 30
0.0
 11
150.4535217423335
 21
-502.8308461616923
 31
0.0
 70
   160
  3
STANDARD
100
AcDbAlignedDimension
 13
3.596435546900039
 23
-600.0004882812
 33
0.0
 14
27.09350585940004
 24
-401.0004882811999
 34
0.0
 50
90.0
100
AcDbRotatedDimension
  0
DIMENSION
  5
9F74
330
1E
100
AcDbEntity
  8
30
  6
CONTINUOUS
100
AcDbDimension
  2
*D63
 10
149.9535217423333
 20
-769.0009765623999
 30
0.0
 11
149.9535217423334
 21
-682.9959494609288
 31
0.0
 70
   160
  3
STANDARD
100
AcDbAlignedDimension
 13
105.99945068368
 23
-600.0004882812
 33
0.0
 14
27.09375000000003
 24
-769.0009765623999
 34
0.0
 50
270.0
100
AcDbRotatedDimension
  0
DIMENSION
  5
9F75
330
1E
100
AcDbEntity
  8
30
  6
CONTINUOUS
100
AcDbDimension
  2
*D64
 10
135.334958924934
 20
-506.0004882812
 30
0.0
 11
135.3349589249341
 21
-554.303120597782
 31
0.0
 70
   160
  3
STANDARD
100
AcDbAlignedDimension
 13
105.99945068368
 23
-600.0326492902168
 33
0.0
 14
105.99945068368
 24
-506.0004882811999
 34
0.0
 50
90.0
100
AcDbRotatedDimension
  0
DIMENSION
  5
9F76
330
1E
100
AcDbEntity
  8
30
  6
CONTINUOUS
100
AcDbDimension
  2
*D65
 10
135.334958924934
 20
-663.9999999998999
 30
0.0
 11
135.3349589249341
 21
-633.7385518273995
 31
0.0
 70
   160
  3
STANDARD
100
AcDbAlignedDimension
 13
3.596435546900039
 23
-600.0004882812
 33
0.0
 14
37.09301757820006
 24
-663.9999999998999
 34
0.0
 50
270.0
100
AcDbRotatedDimension
  0
DIMENSION
  5
9F77
330
1E
100
AcDbEntity
  8
30
  6
CONTINUOUS
100
AcDbDimension
  2
*D66
 10
135.334958924934
 20
-664.0004882811999
 30
0.0
 11
135.3349589249341
 21
-674.5007324218
 31
0.0
 70
   160
  3
STANDARD
100
AcDbAlignedDimension
 13
87.09399414070006
 23
-685.0009765623999
 33
0.0
 14
50.99951169495821
 24
-664.0004882811999
 34
0.0
 50
90.0
100
AcDbRotatedDimension
  0
DIMENSION
  5
9F78
330
1E
100
AcDbEntity
  8
30
  6
CONTINUOUS
100
AcDbDimension
  2
*D67
 10
134.8349589249341
 20
-769.0009765623999
 30
0.0
 11
134.8349589249342
 21
-755.6233836868869
 31
0.0
 70
   160
  3
STANDARD
100
AcDbAlignedDimension
 13
97.09399414070006
 23
-743.0009765623999
 33
0.0
 14
27.09375000000003
 24
-769.0009765623999
 34
0.0
 50
270.0
100
AcDbRotatedDimension
  0
DIMENSION
  5
9F79
330
1E
100
AcDbEntity
  8
30
  6
CONTINUOUS
100
AcDbDimension
  2
*D68
 10
135.3349589249341
 20
-743.0009765623999
 30
0.0
 11
135.3349589249342
 21
-715.3996259486832
 31
0.0
 70
   160
  3
STANDARD
100
AcDbAlignedDimension
 13
97.09399414070006
 23
-685.0009765623999
 33
0.0
 14
97.09399414070006
 24
-743.0009765623999
 34
0.0
 50
270.0
100
AcDbRotatedDimension
  0
DIMENSION
  5
9F7A
330
1E
100
AcDbEntity
  8
30
  6
CONTINUOUS
100
AcDbDimension
  2
*D69
 10
135.7584374381411
 20
-401.0004882812
 30
0.0
 11
135.7584374381412
 21
-413.7615902248422
 31
0.0
 70
   160
  3
STANDARD
100
AcDbAlignedDimension
 13
97.09350585940004
 23
-427.0004882811999
 33
0.0
 14
27.09350585940004
 24
-401.0004882811999
 34
0.0
 50
90.0
100
AcDbRotatedDimension
  0
DIMENSION
  5
9F7B
330
1E
100
AcDbEntity
  8
30
  6
CONTINUOUS
100
AcDbDimension
  2
*D70
 10
135.5016255916007
 20
-427.0004882812
 30
0.0
 11
135.5016255916007
 21
-457.3991376674841
 31
0.0
 70
   160
  3
STANDARD
100
AcDbAlignedDimension
 13
97.09350585940004
 23
-485.0004882811999
 33
0.0
 14
97.09350585940004
 24
-427.0004882811999
 34
0.0
 50
90.0
100
AcDbRotatedDimension
  0
DIMENSION
  5
9F7C
330
1E
100
AcDbEntity
  8
30
  6
CONTINUOUS
100
AcDbDimension
  2
*D71
 10
135.5016255916007
 20
-485.0004882812
 30
0.0
 11
135.5016255916007
 21
-494.1828463146771
 31
0.0
 70
   160
  3
STANDARD
100
AcDbAlignedDimension
 13
106.99945068368
 23
-506.0004882811999
 33
0.0
 14
87.09350585940004
 24
-485.0004882811999
 34
0.0
 50
90.0
100
AcDbRotatedDimension
  0
DIMENSION
  5
9F7E
330
1E
100
AcDbEntity
  8
30
  6
CONTINUOUS
100
AcDbDimension
  2
*D73
 10
0.0000000000000324
 20
-802.7921005667176
 30
0.0
 11
33.66216216216347
 21
-802.7921005667176
 31
0.0
 70
   160
  3
STANDARD
100
AcDbAlignedDimension
 13
70.00000000000003
 23
-768.8343912759332
 33
0.0
 14
0.0000000000000344
 24
-769.8343912759333
 34
0.0
 50
180.0
100
AcDbRotatedDimension
  0
DIMENSION
  5
9F7F
330
1E
100
AcDbEntity
  8
30
  6
CONTINUOUS
100
AcDbDimension
  2
*D74
 10
0.0000000000000285
 20
-802.7921005667176
 30
0.0
 11
-36.33734955663654
 21
-802.7921005667176
 31
0.0
 70
   160
  3
STANDARD
100
AcDbAlignedDimension
 13
-69.99902343749997
 23
-706.8343912759332
 33
0.0
 14
0.0000000000000344
 24
-705.8343912759332
 34
0.0
100
AcDbRotatedDimension
  0
DIMENSION
  5
A2B4
330
1E
100
AcDbEntity
  8
30
  6
CONTINUOUS
100
AcDbDimension
  2
*D75
 10
-104.9999999999999
 20
-829.6736624330209
 30
0.0
 11
-0.0004882812499713
 21
-824.673662433021
 31
0.0
 70
    32
  3
STANDARD
100
AcDbAlignedDimension
 13
104.9990234375
 23
-732.9995117186999
 33
0.0
 14
-104.9999999999999
 24
-733.0004882812
 34
0.0
100
AcDbRotatedDimension
1001
ACAD
1000
DSTYLE
1002
{
1070
    79
1070
     3
1002
}
  0
LINE
  5
A2D3
330
1E
100
AcDbEntity
  8
16
100
AcDbLine
 10
648.2155104953398
 20
-600.000000113865
 30
0.0
 11
320.0347102621275
 21
-600.000000113865
 31
0.0
  0
VIEWPORT
  5
9AC
330
1A
100
AcDbEntity
 67
     1
  8
0
  6
CONTINUOUS
100
AcDbViewport
 10
233.2842860419309
 20
144.1384735538403
 30
0.0
 40
611.4371881030149
 41
292.3514905034161
 68
     1
 69
     1
1001
ACAD
1000
MVIEW
1002
{
1070
    16
1010
0.0
1020
0.0
1030
0.0
1010
0.0
1020
0.0
1030
1.0
1040
0.0
1040
292.3514905034161
1040
233.2842860419309
1040
144.1384735538403
1040
50.0
1040
0.0
1040
0.0
1070
     0
1070
   100
1070
     1
1070
     1
1070
     0
1070
     0
1070
     0
1070
     0
1040
0.0
1040
0.0
1040
0.0
1040
10.0
1040
10.0
1040
10.0
1040
10.0
1070
     0
1002
{
1002
}
1002
}
  0
ENDSEC
  0
SECTION
  2
OBJECTS
  0
DICTIONARY
  5
C
330
0
100
AcDbDictionary
  3
ACAD_GROUP
350
D
  3
ACAD_LAYOUT
350
19
  3
ACAD_MLINESTYLE
350
16
  3
ACAD_PLOTSETTINGS
350
18
  3
ACAD_PLOTSTYLENAME
350
E
  3
ACDBHEADERROUNDTRIPXREC
350
A3B0
  3
ACDBVARIABLEDICTIONARY
350
7B2E
  0
DICTIONARY
  5
178
330
1E
100
AcDbDictionary
280
     1
  3
ACAD_LAYOUTSELFREF
360
A3D2
  0
DICTIONARY
  5
17A
330
1A
100
AcDbDictionary
280
     1
  3
ACAD_LAYOUTSELFREF
360
A3D1
  0
DICTIONARY
  5
D
102
{ACAD_REACTORS
330
C
102
}
330
C
100
AcDbDictionary
  0
DICTIONARY
  5
19
102
{ACAD_REACTORS
330
C
102
}
330
C
100
AcDbDictionary
  0
DICTIONARY
  5
16
102
{ACAD_REACTORS
330
C
102
}
330
C
100
AcDbDictionary
  3
STANDARD
350
17
  0
DICTIONARY
  5
18
102
{ACAD_REACTORS
330
C
102
}
330
C
100
AcDbDictionary
  0
ACDBDICTIONARYWDFLT
  5
E
102
{ACAD_REACTORS
330
C
102
}
330
C
100
AcDbDictionary
281
     1
  3
Normal
350
F
100
AcDbDictionaryWithDefault
340
F
  0
DICTIONARY
  5
A3B0
102
{ACAD_REACTORS
330
C
102
}
330
C
100
AcDbDictionary
  3
CEPSNTYPE
350
A3BA
  3
DIMSTYLEDATA
350
A3BE
  3
FINGERPRINTGUID
350
A3BB
  3
HYPERLINKBASE
350
A3B3
  3
INSUNITS
350
A3B9
  3
LAYOUTDICT
350
A3B5
  3
LWETCUNION
350
A3B8
  3
PLOTSETDICT
350
A3B6
  3
PLOTSTYLNAMDICT
350
A3B7
  3
PSVPSCALE
350
A3BD
  3
PUCSBASE
350
A3C1
  3
PUCSORGBACK
350
A3C7
  3
PUCSORGBOTTOM
350
A3C3
  3
PUCSORGFRONT
350
A3C6
  3
PUCSORGLEFT
350
A3C4
  3
PUCSORGRIGHT
350
A3C5
  3
PUCSORGTOP
350
A3C2
  3
PUCSORTHOREF
350
A3BF
  3
PUCSORTHOVIEW
350
A3C0
  3
STYLESHEET
350
A3B4
  3
TSTACKALIGN
350
A3B1
  3
TSTACKSIZE
350
A3B2
  3
UCSBASE
350
A3CA
  3
UCSORGBACK
350
A3D0
  3
UCSORGBOTTOM
350
A3CC
  3
UCSORGFRONT
350
A3CF
  3
UCSORGLEFT
350
A3CD
  3
UCSORGRIGHT
350
A3CE
  3
UCSORGTOP
350
A3CB
  3
UCSORTHOREF
350
A3C8
  3
UCSORTHOVIEW
350
A3C9
  3
VERSIONGUID
350
A3BC
  0
DICTIONARY
  5
7B2E
102
{ACAD_REACTORS
330
C
102
}
330
C
100
AcDbDictionary
  3
DIMASSOC
350
7D99
  3
SORTENTS
350
7B2F
  0
XRECORD
  5
A3D2
102
{ACAD_REACTORS
330
178
102
}
330
178
100
AcDbXrecord
340
1E
  0
XRECORD
  5
A3D1
102
{ACAD_REACTORS
330
17A
102
}
330
17A
100
AcDbXrecord
340
1A
  0
MLINESTYLE
  5
17
102
{ACAD_REACTORS
330
16
102
}
330
16
100
AcDbMlineStyle
  2
STANDARD
 70
     0
  3

 62
   256
 51
90.0
 52
90.0
 71
     2
 49
0.5
 62
   256
  6
BYLAYER
 49
-0.5
 62
   256
  6
BYLAYER
  0
ACDBPLACEHOLDER
  5
F
102
{ACAD_REACTORS
330
E
102
}
330
E
100
AcDbPlaceHolder
280
     0
  0
XRECORD
  5
A3BA
102
{ACAD_REACTORS
330
A3B0
102
}
330
A3B0
100
AcDbXrecord
 90
        0
  0
XRECORD
  5
A3BE
102
{ACAD_REACTORS
330
A3B0
102
}
330
A3B0
100
AcDbXrecord
1000
DSTYLE
1002
{
1070
    79
 70
     3
1070
   341
340
3B2
1070
   342
340
3B2
1002
}
  0
XRECORD
  5
A3BB
102
{ACAD_REACTORS
330
A3B0
102
}
330
A3B0
100
AcDbXrecord
  1

  0
XRECORD
  5
A3B3
102
{ACAD_REACTORS
330
A3B0
102
}
330
A3B0
100
AcDbXrecord
  1

  0
XRECORD
  5
A3B9
102
{ACAD_REACTORS
330
A3B0
102
}
330
A3B0
100
AcDbXrecord
 90
        0
  0
XRECORD
  5
A3B5
102
{ACAD_REACTORS
330
A3B0
102
}
330
A3B0
100
AcDbXrecord
340
19
  0
XRECORD
  5
A3B8
102
{ACAD_REACTORS
330
A3B0
102
}
330
A3B0
100
AcDbXrecord
 90
    10781
  0
XRECORD
  5
A3B6
102
{ACAD_REACTORS
330
A3B0
102
}
330
A3B0
100
AcDbXrecord
340
18
  0
XRECORD
  5
A3B7
102
{ACAD_REACTORS
330
A3B0
102
}
330
A3B0
100
AcDbXrecord
340
E
  0
XRECORD
  5
A3BD
102
{ACAD_REACTORS
330
A3B0
102
}
330
A3B0
100
AcDbXrecord
 40
0.0
  0
XRECORD
  5
A3C1
102
{ACAD_REACTORS
330
A3B0
102
}
330
A3B0
100
AcDbXrecord
340
0
  0
XRECORD
  5
A3C7
102
{ACAD_REACTORS
330
A3B0
102
}
330
A3B0
100
AcDbXrecord
 10
0.0
 20
0.0
 30
0.0
  0
XRECORD
  5
A3C3
102
{ACAD_REACTORS
330
A3B0
102
}
330
A3B0
100
AcDbXrecord
 10
0.0
 20
0.0
 30
0.0
  0
XRECORD
  5
A3C6
102
{ACAD_REACTORS
330
A3B0
102
}
330
A3B0
100
AcDbXrecord
 10
0.0
 20
0.0
 30
0.0
  0
XRECORD
  5
A3C4
102
{ACAD_REACTORS
330
A3B0
102
}
330
A3B0
100
AcDbXrecord
 10
0.0
 20
0.0
 30
0.0
  0
XRECORD
  5
A3C5
102
{ACAD_REACTORS
330
A3B0
102
}
330
A3B0
100
AcDbXrecord
 10
0.0
 20
0.0
 30
0.0
  0
XRECORD
  5
A3C2
102
{ACAD_REACTORS
330
A3B0
102
}
330
A3B0
100
AcDbXrecord
 10
0.0
 20
0.0
 30
0.0
  0
XRECORD
  5
A3BF
102
{ACAD_REACTORS
330
A3B0
102
}
330
A3B0
100
AcDbXrecord
340
0
  0
XRECORD
  5
A3C0
102
{ACAD_REACTORS
330
A3B0
102
}
330
A3B0
100
AcDbXrecord
 70
     0
  0
XRECORD
  5
A3B4
102
{ACAD_REACTORS
330
A3B0
102
}
330
A3B0
100
AcDbXrecord
  1
KIKI.ctb
  0
XRECORD
  5
A3B1
102
{ACAD_REACTORS
330
A3B0
102
}
330
A3B0
100
AcDbXrecord
 90
        1
  0
XRECORD
  5
A3B2
102
{ACAD_REACTORS
330
A3B0
102
}
330
A3B0
100
AcDbXrecord
 90
       70
  0
XRECORD
  5
A3CA
102
{ACAD_REACTORS
330
A3B0
102
}
330
A3B0
100
AcDbXrecord
340
0
  0
XRECORD
  5
A3D0
102
{ACAD_REACTORS
330
A3B0
102
}
330
A3B0
100
AcDbXrecord
 10
0.0
 20
0.0
 30
0.0
  0
XRECORD
  5
A3CC
102
{ACAD_REACTORS
330
A3B0
102
}
330
A3B0
100
AcDbXrecord
 10
0.0
 20
0.0
 30
0.0
  0
XRECORD
  5
A3CF
102
{ACAD_REACTORS
330
A3B0
102
}
330
A3B0
100
AcDbXrecord
 10
0.0
 20
0.0
 30
0.0
  0
XRECORD
  5
A3CD
102
{ACAD_REACTORS
330
A3B0
102
}
330
A3B0
100
AcDbXrecord
 10
0.0
 20
0.0
 30
0.0
  0
XRECORD
  5
A3CE
102
{ACAD_REACTORS
330
A3B0
102
}
330
A3B0
100
AcDbXrecord
 10
0.0
 20
0.0
 30
0.0
  0
XRECORD
  5
A3CB
102
{ACAD_REACTORS
330
A3B0
102
}
330
A3B0
100
AcDbXrecord
 10
0.0
 20
0.0
 30
0.0
  0
XRECORD
  5
A3C8
102
{ACAD_REACTORS
330
A3B0
102
}
330
A3B0
100
AcDbXrecord
340
0
  0
XRECORD
  5
A3C9
102
{ACAD_REACTORS
330
A3B0
102
}
330
A3B0
100
AcDbXrecord
 70
     0
  0
XRECORD
  5
A3BC
102
{ACAD_REACTORS
330
A3B0
102
}
330
A3B0
100
AcDbXrecord
  1
{4C162F8D-46BB-4A94-93B9-965635149022}
  0
DICTIONARYVAR
  5
7D99
102
{ACAD_REACTORS
330
7B2E
102
}
330
7B2E
100
DictionaryVariables
280
     0
  1
1
  0
DICTIONARYVAR
  5
7B2F
102
{ACAD_REACTORS
330
7B2E
102
}
330
7B2E
100
DictionaryVariables
280
     0
  1
96
  0
ENDSEC
  0
EOF
