  0
SECTION
  2
HEADER
  9
$ACADVER
  1
AC1015
  9
$ACADMAINTVER
 70
    10
  9
$DWGCODEPAGE
  3
ANSI_932
  9
$INSBASE
 10
0.0
 20
0.0
 30
0.0
  9
$EXTMIN
 10
-62.34020037769403
 20
-328.2097939758625
 30
-0.0000000349181948
  9
$EXTMAX
 10
224.1830988313781
 20
226.0786726112507
 30
0.0000000814935746
  9
$LIMMIN
 10
-73.36291800000002
 20
-328.1505989999998
  9
$LIMMAX
 10
266.103609
 20
223.0601529999999
  9
$ORTHOMODE
 70
     0
  9
$REGENMODE
 70
     1
  9
$FILLMODE
 70
     1
  9
$QTEXTMODE
 70
     0
  9
$MIRRTEXT
 70
     1
  9
$LTSCALE
 40
10.0
  9
$ATTMODE
 70
     1
  9
$TEXTSIZE
 40
4.0
  9
$TRACEWID
 40
0.05
  9
$TEXTSTYLE
  7
STANDARD1
  9
$CLAYER
  8
0
  9
$CELTYPE
  6
CONTINUOUS
  9
$CECOLOR
 62
   256
  9
$CELTSCALE
 40
1.0
  9
$DISPSILH
 70
     0
  9
$DIMSCALE
 40
1.0
  9
$DIMASZ
 40
2.0
  9
$DIMEXO
 40
1.0
  9
$DIMDLI
 40
0.5
  9
$DIMRND
 40
0.0
  9
$DIMDLE
 40
0.0
  9
$DIMEXE
 40
0.5
  9
$DIMTP
 40
0.0
  9
$DIMTM
 40
0.0
  9
$DIMTXT
 40
4.0
  9
$DIMCEN
 40
0.09
  9
$DIMTSZ
 40
0.0
  9
$DIMTOL
 70
     0
  9
$DIMLIM
 70
     0
  9
$DIMTIH
 70
     0
  9
$DIMTOH
 70
     1
  9
$DIMSE1
 70
     0
  9
$DIMSE2
 70
     0
  9
$DIMTAD
 70
     3
  9
$DIMZIN
 70
    12
  9
$DIMBLK
  1
OPEN
  9
$DIMASO
 70
     1
  9
$DIMSHO
 70
     1
  9
$DIMPOST
  1

  9
$DIMAPOST
  1

  9
$DIMALT
 70
     0
  9
$DIMALTD
 70
     2
  9
$DIMALTF
 40
25.4
  9
$DIMLFAC
 40
1.0
  9
$DIMTOFL
 70
     0
  9
$DIMTVP
 40
0.0
  9
$DIMTIX
 70
     0
  9
$DIMSOXD
 70
     0
  9
$DIMSAH
 70
     0
  9
$DIMBLK1
  1

  9
$DIMBLK2
  1

  9
$DIMSTYLE
  2
STANDARD
  9
$DIMCLRD
 70
     0
  9
$DIMCLRE
 70
     0
  9
$DIMCLRT
 70
     0
  9
$DIMTFAC
 40
1.0
  9
$DIMGAP
 40
1.0
  9
$DIMJUST
 70
     0
  9
$DIMSD1
 70
     0
  9
$DIMSD2
 70
     0
  9
$DIMTOLJ
 70
     1
  9
$DIMTZIN
 70
     0
  9
$DIMALTZ
 70
     0
  9
$DIMALTTZ
 70
     0
  9
$DIMUPT
 70
     0
  9
$DIMDEC
 70
     1
  9
$DIMTDEC
 70
     1
  9
$DIMALTU
 70
     2
  9
$DIMALTTD
 70
     2
  9
$DIMTXSTY
  7
STANDARD
  9
$DIMAUNIT
 70
     0
  9
$DIMADEC
 70
     0
  9
$DIMALTRND
 40
0.0
  9
$DIMAZIN
 70
     3
  9
$DIMDSEP
 70
    46
  9
$DIMATFIT
 70
     3
  9
$DIMFRAC
 70
     0
  9
$DIMLDRBLK
  1
OPEN
  9
$DIMLUNIT
 70
     2
  9
$DIMLWD
 70
    -2
  9
$DIMLWE
 70
    -2
  9
$DIMTMOVE
 70
     0
  9
$LUNITS
 70
     2
  9
$LUPREC
 70
     4
  9
$SKETCHINC
 40
0.1
  9
$FILLETRAD
 40
0.0
  9
$AUNITS
 70
     0
  9
$AUPREC
 70
     0
  9
$MENU
  1
.
  9
$ELEVATION
 40
0.0
  9
$PELEVATION
 40
0.0
  9
$THICKNESS
 40
0.0
  9
$LIMCHECK
 70
     0
  9
$CHAMFERA
 40
0.0
  9
$CHAMFERB
 40
0.0
  9
$CHAMFERC
 40
0.0
  9
$CHAMFERD
 40
0.0
  9
$SKPOLY
 70
     0
  9
$TDCREATE
 40
2452286.555658657
  9
$TDUCREATE
 40
2452286.180658657
  9
$TDUPDATE
 40
2454854.562422233
  9
$TDUUPDATE
 40
2454854.187422233
  9
$TDINDWG
 40
1.4772775347
  9
$TDUSRTIMER
 40
1.4772760880
  9
$USRTIMER
 70
     1
  9
$ANGBASE
 50
0.0
  9
$ANGDIR
 70
     0
  9
$PDMODE
 70
     0
  9
$PDSIZE
 40
0.0
  9
$PLINEWID
 40
0.0
  9
$SPLFRAME
 70
     0
  9
$SPLINETYPE
 70
     6
  9
$SPLINESEGS
 70
     8
  9
$HANDSEED
  5
5CD0
  9
$SURFTAB1
 70
     6
  9
$SURFTAB2
 70
     6
  9
$SURFTYPE
 70
     6
  9
$SURFU
 70
     6
  9
$SURFV
 70
     6
  9
$UCSBASE
  2

  9
$UCSNAME
  2

  9
$UCSORG
 10
0.0
 20
0.0
 30
0.0
  9
$UCSXDIR
 10
1.0
 20
0.0
 30
0.0
  9
$UCSYDIR
 10
0.0
 20
1.0
 30
0.0
  9
$UCSORTHOREF
  2

  9
$UCSORTHOVIEW
 70
     0
  9
$UCSORGTOP
 10
0.0
 20
0.0
 30
0.0
  9
$UCSORGBOTTOM
 10
0.0
 20
0.0
 30
0.0
  9
$UCSORGLEFT
 10
0.0
 20
0.0
 30
0.0
  9
$UCSORGRIGHT
 10
0.0
 20
0.0
 30
0.0
  9
$UCSORGFRONT
 10
0.0
 20
0.0
 30
0.0
  9
$UCSORGBACK
 10
0.0
 20
0.0
 30
0.0
  9
$PUCSBASE
  2

  9
$PUCSNAME
  2

  9
$PUCSORG
 10
0.0
 20
0.0
 30
0.0
  9
$PUCSXDIR
 10
1.0
 20
0.0
 30
0.0
  9
$PUCSYDIR
 10
0.0
 20
1.0
 30
0.0
  9
$PUCSORTHOREF
  2

  9
$PUCSORTHOVIEW
 70
     0
  9
$PUCSORGTOP
 10
0.0
 20
0.0
 30
0.0
  9
$PUCSORGBOTTOM
 10
0.0
 20
0.0
 30
0.0
  9
$PUCSORGLEFT
 10
0.0
 20
0.0
 30
0.0
  9
$PUCSORGRIGHT
 10
0.0
 20
0.0
 30
0.0
  9
$PUCSORGFRONT
 10
0.0
 20
0.0
 30
0.0
  9
$PUCSORGBACK
 10
0.0
 20
0.0
 30
0.0
  9
$USERI1
 70
     0
  9
$USERI2
 70
     0
  9
$USERI3
 70
     0
  9
$USERI4
 70
     0
  9
$USERI5
 70
     0
  9
$USERR1
 40
0.0
  9
$USERR2
 40
0.0
  9
$USERR3
 40
0.0
  9
$USERR4
 40
0.0
  9
$USERR5
 40
0.0
  9
$WORLDVIEW
 70
     1
  9
$SHADEDGE
 70
     3
  9
$SHADEDIF
 70
    70
  9
$TILEMODE
 70
     1
  9
$MAXACTVP
 70
    48
  9
$PINSBASE
 10
0.0
 20
0.0
 30
0.0
  9
$PLIMCHECK
 70
     0
  9
$PEXTMIN
 10
4.273573
 20
5.205245999999998
 30
0.0
  9
$PEXTMAX
 10
194.610095
 20
283.0697009999998
 30
0.0
  9
$PLIMMIN
 10
-5.873749
 20
-5.87375
  9
$PLIMMAX
 10
204.099579
 20
291.1369009999999
  9
$UNITMODE
 70
     0
  9
$VISRETAIN
 70
     1
  9
$PLINEGEN
 70
     0
  9
$PSLTSCALE
 70
     1
  9
$TREEDEPTH
 70
  3020
  9
$CMLSTYLE
  2
STANDARD
  9
$CMLJUST
 70
     0
  9
$CMLSCALE
 40
1.0
  9
$PROXYGRAPHICS
 70
     1
  9
$MEASUREMENT
 70
     0
  9
$CELWEIGHT
370
    -1
  9
$ENDCAPS
280
     0
  9
$JOINSTYLE
280
     0
  9
$LWDISPLAY
290
     0
  9
$INSUNITS
 70
     0
  9
$HYPERLINKBASE
  1

  9
$STYLESHEET
  1
monochrome.ctb
  9
$XEDIT
290
     1
  9
$CEPSNTYPE
380
     0
  9
$PSTYLEMODE
290
     1
  9
$FINGERPRINTGUID
  2

  9
$VERSIONGUID
  2
{9C078C5C-66BA-4A87-8D49-A0C53FBE0E1C}
  9
$EXTNAMES
290
     1
  9
$PSVPSCALE
 40
0.0
  9
$OLESTARTUP
290
     0
  0
ENDSEC
  0
SECTION
  2
CLASSES
  0
CLASS
  1
ACDBDICTIONARYWDFLT
  2
AcDbDictionaryWithDefault
  3
AutoCAD 2000
 90
        0
280
     0
281
     0
  0
CLASS
  1
ACDBPLACEHOLDER
  2
AcDbPlaceHolder
  3
AutoCAD 2000
 90
        0
280
     0
281
     0
  0
CLASS
  1
LAYOUT
  2
AcDbLayout
  3
AutoCAD 2000
 90
        0
280
     0
281
     0
  0
CLASS
  1
LONG_TRANSACTION
  2
AcDbLongTransaction
  3
AutoCAD 2000
 90
    32768
280
     0
281
     0
  0
CLASS
  1
LWPOLYLINE
  2
AcDbPolyline
  3
AutoCAD 2000
 90
    32768
280
     0
281
     1
  0
CLASS
  1
HATCH
  2
AcDbHatch
  3
AutoCAD 2000
 90
    32768
280
     0
281
     1
  0
CLASS
  1
XRECORD
  2
AcDbXrecord
  3
AutoCAD 2000
 90
    32768
280
     0
281
     0
  0
CLASS
  1
LONG_TRANSACTION
  2
AcDbLongTransaction
  3
AutoCAD 2000
 90
    32768
280
     0
281
     0
  0
CLASS
  1
LWPOLYLINE
  2
AcDbPolyline
  3
AutoCAD 2000
 90
    32768
280
     0
281
     1
  0
CLASS
  1
HATCH
  2
AcDbHatch
  3
AutoCAD 2000
 90
    32768
280
     0
281
     1
  0
CLASS
  1
XRECORD
  2
AcDbXrecord
  3
AutoCAD 2000
 90
    32768
280
     0
281
     0
  0
CLASS
  1
LONG_TRANSACTION
  2
AcDbLongTransaction
  3
AutoCAD 2000
 90
    32768
280
     0
281
     0
  0
CLASS
  1
LWPOLYLINE
  2
AcDbPolyline
  3
AutoCAD 2000
 90
    32768
280
     0
281
     1
  0
CLASS
  1
HATCH
  2
AcDbHatch
  3
AutoCAD 2000
 90
    32768
280
     0
281
     1
  0
CLASS
  1
XRECORD
  2
AcDbXrecord
  3
AutoCAD 2000
 90
    32768
280
     0
281
     0
  0
CLASS
  1
LONG_TRANSACTION
  2
AcDbLongTransaction
  3
AutoCAD 2000
 90
    32768
280
     0
281
     0
  0
CLASS
  1
LWPOLYLINE
  2
AcDbPolyline
  3
AutoCAD 2000
 90
    32768
280
     0
281
     1
  0
CLASS
  1
HATCH
  2
AcDbHatch
  3
AutoCAD 2000
 90
    32768
280
     0
281
     1
  0
CLASS
  1
XRECORD
  2
AcDbXrecord
  3
AutoCAD 2000
 90
    32768
280
     0
281
     0
  0
CLASS
  1
LONG_TRANSACTION
  2
AcDbLongTransaction
  3
AutoCAD 2000
 90
    32768
280
     0
281
     0
  0
CLASS
  1
LWPOLYLINE
  2
AcDbPolyline
  3
AutoCAD 2000
 90
    32768
280
     0
281
     1
  0
CLASS
  1
HATCH
  2
AcDbHatch
  3
AutoCAD 2000
 90
    32768
280
     0
281
     1
  0
CLASS
  1
XRECORD
  2
AcDbXrecord
  3
AutoCAD 2000
 90
    32768
280
     0
281
     0
  0
CLASS
  1
LONG_TRANSACTION
  2
AcDbLongTransaction
  3
AutoCAD 2000
 90
    32768
280
     0
281
     0
  0
CLASS
  1
LWPOLYLINE
  2
AcDbPolyline
  3
AutoCAD 2000
 90
    32768
280
     0
281
     1
  0
CLASS
  1
HATCH
  2
AcDbHatch
  3
AutoCAD 2000
 90
    32768
280
     0
281
     1
  0
CLASS
  1
XRECORD
  2
AcDbXrecord
  3
AutoCAD 2000
 90
    32768
280
     0
281
     0
  0
CLASS
  1
LONG_TRANSACTION
  2
AcDbLongTransaction
  3
AutoCAD 2000
 90
    32768
280
     0
281
     0
  0
CLASS
  1
LWPOLYLINE
  2
AcDbPolyline
  3
AutoCAD 2000
 90
    32768
280
     0
281
     1
  0
CLASS
  1
HATCH
  2
AcDbHatch
  3
AutoCAD 2000
 90
    32768
280
     0
281
     1
  0
CLASS
  1
XRECORD
  2
AcDbXrecord
  3
AutoCAD 2000
 90
    32768
280
     0
281
     0
  0
CLASS
  1
LONG_TRANSACTION
  2
AcDbLongTransaction
  3
AutoCAD 2000
 90
    32768
280
     0
281
     0
  0
CLASS
  1
LWPOLYLINE
  2
AcDbPolyline
  3
AutoCAD 2000
 90
    32768
280
     0
281
     1
  0
CLASS
  1
HATCH
  2
AcDbHatch
  3
AutoCAD 2000
 90
    32768
280
     0
281
     1
  0
CLASS
  1
XRECORD
  2
AcDbXrecord
  3
AutoCAD 2000
 90
    32768
280
     0
281
     0
  0
CLASS
  1
LONG_TRANSACTION
  2
AcDbLongTransaction
  3
AutoCAD 2000
 90
    32768
280
     0
281
     0
  0
CLASS
  1
LWPOLYLINE
  2
AcDbPolyline
  3
AutoCAD 2000
 90
    32768
280
     0
281
     1
  0
CLASS
  1
HATCH
  2
AcDbHatch
  3
AutoCAD 2000
 90
    32768
280
     0
281
     1
  0
CLASS
  1
XRECORD
  2
AcDbXrecord
  3
AutoCAD 2000
 90
    32768
280
     0
281
     0
  0
CLASS
  1
LONG_TRANSACTION
  2
AcDbLongTransaction
  3
AutoCAD 2000
 90
    32768
280
     0
281
     0
  0
CLASS
  1
LWPOLYLINE
  2
AcDbPolyline
  3
AutoCAD 2000
 90
    32768
280
     0
281
     1
  0
CLASS
  1
HATCH
  2
AcDbHatch
  3
AutoCAD 2000
 90
    32768
280
     0
281
     1
  0
CLASS
  1
XRECORD
  2
AcDbXrecord
  3
AutoCAD 2000
 90
    32768
280
     0
281
     0
  0
CLASS
  1
LONG_TRANSACTION
  2
AcDbLongTransaction
  3
AutoCAD 2000
 90
    32768
280
     0
281
     0
  0
CLASS
  1
LWPOLYLINE
  2
AcDbPolyline
  3
AutoCAD 2000
 90
    32768
280
     0
281
     1
  0
CLASS
  1
HATCH
  2
AcDbHatch
  3
AutoCAD 2000
 90
    32768
280
     0
281
     1
  0
CLASS
  1
XRECORD
  2
AcDbXrecord
  3
AutoCAD 2000
 90
    32768
280
     0
281
     0
  0
CLASS
  1
LONG_TRANSACTION
  2
AcDbLongTransaction
  3
AutoCAD 2000
 90
    32768
280
     0
281
     0
  0
CLASS
  1
LWPOLYLINE
  2
AcDbPolyline
  3
AutoCAD 2000
 90
    32768
280
     0
281
     1
  0
CLASS
  1
HATCH
  2
AcDbHatch
  3
AutoCAD 2000
 90
    32768
280
     0
281
     1
  0
CLASS
  1
XRECORD
  2
AcDbXrecord
  3
AutoCAD 2000
 90
    32768
280
     0
281
     0
  0
CLASS
  1
LONG_TRANSACTION
  2
AcDbLongTransaction
  3
AutoCAD 2000
 90
    32768
280
     0
281
     0
  0
CLASS
  1
LWPOLYLINE
  2
AcDbPolyline
  3
AutoCAD 2000
 90
    32768
280
     0
281
     1
  0
CLASS
  1
HATCH
  2
AcDbHatch
  3
AutoCAD 2000
 90
    32768
280
     0
281
     1
  0
CLASS
  1
XRECORD
  2
AcDbXrecord
  3
AutoCAD 2000
 90
    32768
280
     0
281
     0
  0
CLASS
  1
LONG_TRANSACTION
  2
AcDbLongTransaction
  3
AutoCAD 2000
 90
    32768
280
     0
281
     0
  0
CLASS
  1
LWPOLYLINE
  2
AcDbPolyline
  3
AutoCAD 2000
 90
    32768
280
     0
281
     1
  0
CLASS
  1
HATCH
  2
AcDbHatch
  3
AutoCAD 2000
 90
    32768
280
     0
281
     1
  0
CLASS
  1
XRECORD
  2
AcDbXrecord
  3
AutoCAD 2000
 90
    32768
280
     0
281
     0
  0
CLASS
  1
LONG_TRANSACTION
  2
AcDbLongTransaction
  3
AutoCAD 2000
 90
    32768
280
     0
281
     0
  0
CLASS
  1
LWPOLYLINE
  2
AcDbPolyline
  3
AutoCAD 2000
 90
    32768
280
     0
281
     1
  0
CLASS
  1
HATCH
  2
AcDbHatch
  3
AutoCAD 2000
 90
    32768
280
     0
281
     1
  0
CLASS
  1
XRECORD
  2
AcDbXrecord
  3
AutoCAD 2000
 90
    32768
280
     0
281
     0
  0
CLASS
  1
LONG_TRANSACTION
  2
AcDbLongTransaction
  3
AutoCAD 2000
 90
    32768
280
     0
281
     0
  0
CLASS
  1
LWPOLYLINE
  2
AcDbPolyline
  3
AutoCAD 2000
 90
    32768
280
     0
281
     1
  0
CLASS
  1
HATCH
  2
AcDbHatch
  3
AutoCAD 2000
 90
    32768
280
     0
281
     1
  0
CLASS
  1
XRECORD
  2
AcDbXrecord
  3
AutoCAD 2000
 90
    32768
280
     0
281
     0
  0
CLASS
  1
LONG_TRANSACTION
  2
AcDbLongTransaction
  3
AutoCAD 2000
 90
    32768
280
     0
281
     0
  0
CLASS
  1
LWPOLYLINE
  2
AcDbPolyline
  3
AutoCAD 2000
 90
    32768
280
     0
281
     1
  0
CLASS
  1
HATCH
  2
AcDbHatch
  3
AutoCAD 2000
 90
    32768
280
     0
281
     1
  0
CLASS
  1
XRECORD
  2
AcDbXrecord
  3
AutoCAD 2000
 90
    32768
280
     0
281
     0
  0
CLASS
  1
LONG_TRANSACTION
  2
AcDbLongTransaction
  3
AutoCAD 2000
 90
    32768
280
     0
281
     0
  0
CLASS
  1
LWPOLYLINE
  2
AcDbPolyline
  3
AutoCAD 2000
 90
    32768
280
     0
281
     1
  0
CLASS
  1
HATCH
  2
AcDbHatch
  3
AutoCAD 2000
 90
    32768
280
     0
281
     1
  0
CLASS
  1
XRECORD
  2
AcDbXrecord
  3
AutoCAD 2000
 90
    32768
280
     0
281
     0
  0
CLASS
  1
LONG_TRANSACTION
  2
AcDbLongTransaction
  3
AutoCAD 2000
 90
    32768
280
     0
281
     0
  0
CLASS
  1
LWPOLYLINE
  2
AcDbPolyline
  3
AutoCAD 2000
 90
    32768
280
     0
281
     1
  0
CLASS
  1
HATCH
  2
AcDbHatch
  3
AutoCAD 2000
 90
    32768
280
     0
281
     1
  0
CLASS
  1
XRECORD
  2
AcDbXrecord
  3
AutoCAD 2000
 90
    32768
280
     0
281
     0
  0
CLASS
  1
LONG_TRANSACTION
  2
AcDbLongTransaction
  3
AutoCAD 2000
 90
    32768
280
     0
281
     0
  0
CLASS
  1
LWPOLYLINE
  2
AcDbPolyline
  3
AutoCAD 2000
 90
    32768
280
     0
281
     1
  0
CLASS
  1
HATCH
  2
AcDbHatch
  3
AutoCAD 2000
 90
    32768
280
     0
281
     1
  0
CLASS
  1
XRECORD
  2
AcDbXrecord
  3
AutoCAD 2000
 90
    32768
280
     0
281
     0
  0
CLASS
  1
LONG_TRANSACTION
  2
AcDbLongTransaction
  3
AutoCAD 2000
 90
    32768
280
     0
281
     0
  0
CLASS
  1
LWPOLYLINE
  2
AcDbPolyline
  3
AutoCAD 2000
 90
    32768
280
     0
281
     1
  0
CLASS
  1
HATCH
  2
AcDbHatch
  3
AutoCAD 2000
 90
    32768
280
     0
281
     1
  0
CLASS
  1
XRECORD
  2
AcDbXrecord
  3
AutoCAD 2000
 90
    32768
280
     0
281
     0
  0
CLASS
  1
LONG_TRANSACTION
  2
AcDbLongTransaction
  3
AutoCAD 2000
 90
    32768
280
     0
281
     0
  0
CLASS
  1
LWPOLYLINE
  2
AcDbPolyline
  3
AutoCAD 2000
 90
    32768
280
     0
281
     1
  0
CLASS
  1
HATCH
  2
AcDbHatch
  3
AutoCAD 2000
 90
    32768
280
     0
281
     1
  0
CLASS
  1
XRECORD
  2
AcDbXrecord
  3
AutoCAD 2000
 90
    32768
280
     0
281
     0
  0
CLASS
  1
DICTIONARYVAR
  2
AcDbDictionaryVar
  3
AutoCAD 2000
 90
        0
280
     0
281
     0
  0
CLASS
  1
LONG_TRANSACTION
  2
AcDbLongTransaction
  3
AutoCAD 2000
 90
    32768
280
     0
281
     0
  0
CLASS
  1
LWPOLYLINE
  2
AcDbPolyline
  3
AutoCAD 2000
 90
    32768
280
     0
281
     1
  0
CLASS
  1
HATCH
  2
AcDbHatch
  3
AutoCAD 2000
 90
    32768
280
     0
281
     1
  0
CLASS
  1
XRECORD
  2
AcDbXrecord
  3
AutoCAD 2000
 90
    32768
280
     0
281
     0
  0
CLASS
  1
LONG_TRANSACTION
  2
AcDbLongTransaction
  3
AutoCAD 2000
 90
    32768
280
     0
281
     0
  0
CLASS
  1
LWPOLYLINE
  2
AcDbPolyline
  3
AutoCAD 2000
 90
    32768
280
     0
281
     1
  0
CLASS
  1
HATCH
  2
AcDbHatch
  3
AutoCAD 2000
 90
    32768
280
     0
281
     1
  0
CLASS
  1
XRECORD
  2
AcDbXrecord
  3
AutoCAD 2000
 90
    32768
280
     0
281
     0
  0
CLASS
  1
LONG_TRANSACTION
  2
AcDbLongTransaction
  3
AutoCAD 2000
 90
    32768
280
     0
281
     0
  0
CLASS
  1
LWPOLYLINE
  2
AcDbPolyline
  3
AutoCAD 2000
 90
    32768
280
     0
281
     1
  0
CLASS
  1
HATCH
  2
AcDbHatch
  3
AutoCAD 2000
 90
    32768
280
     0
281
     1
  0
CLASS
  1
XRECORD
  2
AcDbXrecord
  3
AutoCAD 2000
 90
    32768
280
     0
281
     0
  0
CLASS
  1
LONG_TRANSACTION
  2
AcDbLongTransaction
  3
AutoCAD 2000
 90
    32768
280
     0
281
     0
  0
CLASS
  1
LWPOLYLINE
  2
AcDbPolyline
  3
AutoCAD 2000
 90
    32768
280
     0
281
     1
  0
CLASS
  1
HATCH
  2
AcDbHatch
  3
AutoCAD 2000
 90
    32768
280
     0
281
     1
  0
CLASS
  1
XRECORD
  2
AcDbXrecord
  3
AutoCAD 2000
 90
    32768
280
     0
281
     0
  0
ENDSEC
  0
SECTION
  2
TABLES
  0
TABLE
  2
VPORT
  5
8
330
0
100
AcDbSymbolTable
 70
     5
  0
VPORT
  5
5CAE
330
8
100
AcDbSymbolTableRecord
100
AcDbViewportTableRecord
  2
*Active
 70
     0
 10
0.0
 20
0.0
 11
1.0
 21
1.0
 12
80.92144922684207
 22
-51.06556068230588
 13
0.0
 23
0.0
 14
1.0
 24
1.0
 15
10.0
 25
10.0
 16
0.0
 26
0.0
 36
1.0
 17
0.0
 27
0.0
 37
0.0
 40
560.7212147486659
 41
1.839147286821705
 42
50.0
 43
0.0
 44
0.0
 50
0.0
 51
0.0
 71
     0
 72
   100
 73
     1
 74
     1
 75
     0
 76
     1
 77
     0
 78
     0
281
     0
 65
     1
110
0.0
120
0.0
130
0.0
111
1.0
121
0.0
131
0.0
112
0.0
122
1.0
132
0.0
 79
     0
146
0.0
  0
ENDTAB
  0
TABLE
  2
LTYPE
  5
5
330
0
100
AcDbSymbolTable
 70
     5
  0
LTYPE
  5
13
330
5
100
AcDbSymbolTableRecord
100
AcDbLinetypeTableRecord
  2
BYBLOCK
 70
     0
  3

 72
    65
 73
     0
 40
0.0
  0
LTYPE
  5
14
330
5
100
AcDbSymbolTableRecord
100
AcDbLinetypeTableRecord
  2
BYLAYER
 70
     0
  3

 72
    65
 73
     0
 40
0.0
  0
LTYPE
  5
15
330
5
100
AcDbSymbolTableRecord
100
AcDbLinetypeTableRecord
  2
CONTINUOUS
 70
     0
  3
Solid line
 72
    65
 73
     0
 40
0.0
  0
LTYPE
  5
22
330
5
100
AcDbSymbolTableRecord
100
AcDbLinetypeTableRecord
  2
CONTINOUS
 70
     0
  3
Solid line
 72
    65
 73
     0
 40
0.0
  0
LTYPE
  5
23
330
5
100
AcDbSymbolTableRecord
100
AcDbLinetypeTableRecord
  2
DASHED
 70
     0
  3
__ __ __ __ __ __ __ __ __ __ __ __ __ __ __
 72
    65
 73
     2
 40
0.75
 49
0.5
 74
     0
 49
-0.25
 74
     0
  0
LTYPE
  5
24
330
5
100
AcDbSymbolTableRecord
100
AcDbLinetypeTableRecord
  2
DASHDOT
 70
     0
  3
__ . __ . __ . __ . __ . __ . __ . __ . __ . __
 72
    65
 73
     4
 40
1.0
 49
0.5
 74
     0
 49
-0.25
 74
     0
 49
0.0
 74
     0
 49
-0.25
 74
     0
  0
LTYPE
  5
33DE
330
5
100
AcDbSymbolTableRecord
100
AcDbLinetypeTableRecord
  2
DIVIDE
 70
     0
  3
Divide ____ . . ____ . . ____ . . ____ . . ____
 72
    65
 73
     6
 40
1.25
 49
0.5
 74
     0
 49
-0.25
 74
     0
 49
0.0
 74
     0
 49
-0.25
 74
     0
 49
0.0
 74
     0
 49
-0.25
 74
     0
  0
ENDTAB
  0
TABLE
  2
LAYER
  5
2
330
0
100
AcDbSymbolTable
 70
    11
  0
LAYER
  5
10
330
2
100
AcDbSymbolTableRecord
100
AcDbLayerTableRecord
  2
0
 70
     0
 62
     7
  6
CONTINOUS
370
    -3
390
F
  0
LAYER
  5
2F
330
2
100
AcDbSymbolTableRecord
100
AcDbLayerTableRecord
  2
10
 70
     0
 62
     4
  6
CONTINOUS
370
    -3
390
F
  0
LAYER
  5
31
330
2
100
AcDbSymbolTableRecord
100
AcDbLayerTableRecord
  2
12
 70
     0
 62
     3
  6
CONTINOUS
370
    -3
390
F
  0
LAYER
  5
35
330
2
100
AcDbSymbolTableRecord
100
AcDbLayerTableRecord
  2
16
 70
     0
 62
     6
  6
DASHDOT
370
    -3
390
F
  0
LAYER
  5
36
330
2
100
AcDbSymbolTableRecord
100
AcDbLayerTableRecord
  2
17
 70
     0
 62
     2
  6
DASHDOT
370
    -3
390
F
  0
LAYER
  5
38
330
2
100
AcDbSymbolTableRecord
100
AcDbLayerTableRecord
  2
19
 70
     0
 62
     7
  6
CONTINOUS
370
    -3
390
F
  0
LAYER
  5
3C
330
2
100
AcDbSymbolTableRecord
100
AcDbLayerTableRecord
  2
11
 70
     0
 62
     1
  6
CONTINOUS
370
    -3
390
F
  0
LAYER
  5
3D
330
2
100
AcDbSymbolTableRecord
100
AcDbLayerTableRecord
  2
24
 70
     0
 62
     2
  6
CONTINOUS
370
    -3
390
F
  0
LAYER
  5
3A2
330
2
100
AcDbSymbolTableRecord
100
AcDbLayerTableRecord
  2
30
 70
     0
 62
     9
  6
CONTINUOUS
370
    -3
390
F
  0
LAYER
  5
3A4
330
2
100
AcDbSymbolTableRecord
100
AcDbLayerTableRecord
  2
DEFPOINTS
 70
     0
 62
     7
  6
CONTINUOUS
290
     0
370
    -3
390
F
  0
LAYER
  5
2AEF
330
2
100
AcDbSymbolTableRecord
100
AcDbLayerTableRecord
  2
18
 70
     0
 62
     5
  6
DIVIDE
370
    -3
390
F
  0
ENDTAB
  0
TABLE
  2
STYLE
  5
3
330
0
100
AcDbSymbolTable
 70
     3
  0
STYLE
  5
11
330
3
100
AcDbSymbolTableRecord
100
AcDbTextStyleTableRecord
  2
STANDARD
 70
     0
 40
0.0
 41
1.0
 50
0.0
 71
     0
 42
2.0
  3
txt.shx
  4
bigfont.shx
  0
STYLE
  5
42
330
3
100
AcDbSymbolTableRecord
100
AcDbTextStyleTableRecord
  2
STANDARD1
 70
     0
 40
0.0
 41
1.0
 50
0.0
 71
     0
 42
4.0
  3
MONOTXT
  4
BIGFONT
  0
STYLE
  5
3BC7
330
3
100
AcDbSymbolTableRecord
100
AcDbTextStyleTableRecord
  2
MX_NOTE_STANDARD
 70
     0
 40
0.0
 41
1.0
 50
0.0
 71
     0
 42
5.891046
  3
txt.shx
  4
extfont.shx
  0
ENDTAB
  0
TABLE
  2
VIEW
  5
6
330
0
100
AcDbSymbolTable
 70
     3
  0
VIEW
  5
230C
330
6
100
AcDbSymbolTableRecord
100
AcDbViewTableRecord
  2
OLE1
 70
     0
 40
148.912488
 10
429.497628
 20
2.560627
 41
103.145806
 11
0.0
 21
0.0
 31
1.0
 12
0.0
 22
0.0
 32
0.0
 42
50.0
 43
0.0
 44
0.0
 50
0.0
 71
     0
281
     0
 72
     0
  0
VIEW
  5
230E
330
6
100
AcDbSymbolTableRecord
100
AcDbViewTableRecord
  2
OLE2
 70
     0
 40
170.778692
 10
322.66497
 20
-5.978304
 41
102.467215
 11
0.0
 21
0.0
 31
1.0
 12
0.0
 22
0.0
 32
0.0
 42
50.0
 43
0.0
 44
0.0
 50
0.0
 71
     0
281
     0
 72
     0
  0
VIEW
  5
23AA
330
6
100
AcDbSymbolTableRecord
100
AcDbViewTableRecord
  2
OLE3
 70
     0
 40
591.7897389999998
 10
84.79698199999999
 20
-46.09335999999998
 41
388.792096
 11
0.0
 21
0.0
 31
1.0
 12
0.0
 22
0.0
 32
0.0
 42
50.0
 43
0.0
 44
0.0
 50
0.0
 71
     0
281
     0
 72
     0
  0
ENDTAB
  0
TABLE
  2
UCS
  5
7
330
0
100
AcDbSymbolTable
 70
     0
  0
ENDTAB
  0
TABLE
  2
APPID
  5
9
330
0
100
AcDbSymbolTable
 70
     2
  0
APPID
  5
12
330
9
100
AcDbSymbolTableRecord
100
AcDbRegAppTableRecord
  2
ACAD
 70
     0
  0
APPID
  5
ECD
330
9
100
AcDbSymbolTableRecord
100
AcDbRegAppTableRecord
  2
CONTENTBLOCKICON
 70
     0
  0
ENDTAB
  0
TABLE
  2
DIMSTYLE
  5
A
330
0
100
AcDbSymbolTable
 70
     2
100
AcDbDimStyleTable
 71
     1
340
175
  0
DIMSTYLE
105
175
102
{ACAD_REACTORS
330
51F7
330
51F6
330
51FA
330
536D
330
536E
330
5362
330
5360
330
536A
330
51B7
330
51BC
330
51BA
330
51E9
330
5361
330
535F
330
51B9
330
51B8
330
51C8
330
51CB
330
51B5
330
52BE
330
52C2
330
51E1
330
51E7
330
51E8
330
59A7
330
59AC
330
59A6
330
5B0C
330
5B0E
330
5B0F
330
5B10
330
5B24
330
51D5
102
}
330
A
100
AcDbSymbolTableRecord
100
AcDbDimStyleTableRecord
  2
STANDARD
 70
     0
 41
2.0
 42
1.0
 43
0.5
 44
0.5
 73
     0
 77
     3
 78
    12
140
4.0
147
1.0
271
     1
272
     1
340
11
341
3B2
342
3B2
  0
DIMSTYLE
105
3BCD
330
A
100
AcDbSymbolTableRecord
100
AcDbDimStyleTableRecord
  2
MXDIMSTYLE
 70
     0
 40
1.414212999999999
 41
2.5
 42
0.5
 43
3.75
 44
1.0
 73
     0
 74
     0
 77
     1
 78
     8
140
4.1656
141
2.5
143
0.03937
144
0.7071069999999999
147
1.0
171
     4
172
     1
274
     4
288
     1
340
3BC7
  0
ENDTAB
  0
TABLE
  2
BLOCK_RECORD
  5
1
330
0
100
AcDbSymbolTable
 70
    43
  0
BLOCK_RECORD
  5
1E
102
{ACAD_XDICTIONARY
360
178
102
}
330
1
100
AcDbSymbolTableRecord
100
AcDbBlockTableRecord
  2
*MODEL_SPACE
340
21
  0
BLOCK_RECORD
  5
1A
102
{ACAD_XDICTIONARY
360
17A
102
}
330
1
100
AcDbSymbolTableRecord
100
AcDbBlockTableRecord
  2
*PAPER_SPACE
340
1D
  0
BLOCK_RECORD
  5
3B2
330
1
100
AcDbSymbolTableRecord
100
AcDbBlockTableRecord
  2
_OPEN
340
0
102
{BLKREFS
331
572A
331
572B
331
5733
331
5734
331
573C
331
573D
331
57A9
331
57AA
331
57C4
331
57C5
331
57DF
331
57E0
331
57F8
331
57F9
331
5801
331
5802
331
586D
331
586E
331
5927
331
5928
331
5939
331
593A
331
5942
331
5943
331
594D
331
594E
331
5968
331
5969
331
5972
331
5973
331
597B
331
597C
331
5984
331
5985
331
598D
331
598E
331
5996
331
5997
331
599F
331
59A0
331
59D6
331
59E7
331
59E8
331
5A44
331
5A45
331
5A62
331
5A63
331
5A6B
331
5A6C
331
5A74
331
5A75
331
5A7C
331
5A7D
331
5A86
331
5A87
331
5A92
331
5A93
331
5A9E
331
5A9F
331
5AAC
331
5AAD
331
5AB8
331
5AB9
331
5B8B
331
5B8C
331
5B94
331
5B95
331
5B9D
331
5B9E
331
5BA8
331
5BA9
331
5BB1
331
5BB2
331
5BD5
331
5BD6
331
5BDE
331
5BDF
331
5BE7
331
5BE8
331
5BFE
331
5C32
331
5C33
331
5C3B
331
5C3C
331
5C45
331
5C46
331
5C4E
331
5C4F
331
5C56
331
5C5F
331
5C60
331
5C68
331
5C69
331
5C71
331
5C72
331
5C7A
331
5C7B
331
5C82
331
5C8A
331
5C92
331
5C9B
331
5C9C
331
5CA7
331
5CA8
102
}
  0
BLOCK_RECORD
  5
3A40
330
1
100
AcDbSymbolTableRecord
100
AcDbBlockTableRecord
  2
_OPEN30
340
0
  0
BLOCK_RECORD
  5
53A7
330
1
100
AcDbSymbolTableRecord
100
AcDbBlockTableRecord
  2
*D2
340
0
  0
BLOCK_RECORD
  5
53B3
330
1
100
AcDbSymbolTableRecord
100
AcDbBlockTableRecord
  2
*D3
340
0
  0
BLOCK_RECORD
  5
53C1
330
1
100
AcDbSymbolTableRecord
100
AcDbBlockTableRecord
  2
*D4
340
0
  0
BLOCK_RECORD
  5
53CF
330
1
100
AcDbSymbolTableRecord
100
AcDbBlockTableRecord
  2
*D5
340
0
  0
BLOCK_RECORD
  5
53DB
330
1
100
AcDbSymbolTableRecord
100
AcDbBlockTableRecord
  2
*D6
340
0
  0
BLOCK_RECORD
  5
53F3
330
1
100
AcDbSymbolTableRecord
100
AcDbBlockTableRecord
  2
*D7
340
0
  0
BLOCK_RECORD
  5
53FF
330
1
100
AcDbSymbolTableRecord
100
AcDbBlockTableRecord
  2
*D8
340
0
  0
BLOCK_RECORD
  5
540B
330
1
100
AcDbSymbolTableRecord
100
AcDbBlockTableRecord
  2
*D9
340
0
  0
BLOCK_RECORD
  5
5417
330
1
100
AcDbSymbolTableRecord
100
AcDbBlockTableRecord
  2
*D10
340
0
  0
BLOCK_RECORD
  5
541F
330
1
100
AcDbSymbolTableRecord
100
AcDbBlockTableRecord
  2
*D11
340
0
  0
BLOCK_RECORD
  5
542B
330
1
100
AcDbSymbolTableRecord
100
AcDbBlockTableRecord
  2
*D12
340
0
  0
BLOCK_RECORD
  5
5437
330
1
100
AcDbSymbolTableRecord
100
AcDbBlockTableRecord
  2
*D13
340
0
  0
BLOCK_RECORD
  5
5443
330
1
100
AcDbSymbolTableRecord
100
AcDbBlockTableRecord
  2
*D14
340
0
  0
BLOCK_RECORD
  5
5464
330
1
100
AcDbSymbolTableRecord
100
AcDbBlockTableRecord
  2
*D15
340
0
  0
BLOCK_RECORD
  5
547C
330
1
100
AcDbSymbolTableRecord
100
AcDbBlockTableRecord
  2
*D16
340
0
  0
BLOCK_RECORD
  5
54C4
330
1
100
AcDbSymbolTableRecord
100
AcDbBlockTableRecord
  2
*D17
340
0
  0
BLOCK_RECORD
  5
54D0
330
1
100
AcDbSymbolTableRecord
100
AcDbBlockTableRecord
  2
*D18
340
0
  0
BLOCK_RECORD
  5
54DC
330
1
100
AcDbSymbolTableRecord
100
AcDbBlockTableRecord
  2
*D19
340
0
  0
BLOCK_RECORD
  5
54E8
330
1
100
AcDbSymbolTableRecord
100
AcDbBlockTableRecord
  2
*D20
340
0
  0
BLOCK_RECORD
  5
54F4
330
1
100
AcDbSymbolTableRecord
100
AcDbBlockTableRecord
  2
*D21
340
0
  0
BLOCK_RECORD
  5
5500
330
1
100
AcDbSymbolTableRecord
100
AcDbBlockTableRecord
  2
*D22
340
0
  0
BLOCK_RECORD
  5
550E
330
1
100
AcDbSymbolTableRecord
100
AcDbBlockTableRecord
  2
*D23
340
0
  0
BLOCK_RECORD
  5
59B0
330
1
100
AcDbSymbolTableRecord
100
AcDbBlockTableRecord
  2
*D29
340
0
  0
BLOCK_RECORD
  5
59BB
330
1
100
AcDbSymbolTableRecord
100
AcDbBlockTableRecord
  2
*D30
340
0
  0
BLOCK_RECORD
  5
59C7
330
1
100
AcDbSymbolTableRecord
100
AcDbBlockTableRecord
  2
*D31
340
0
  0
BLOCK_RECORD
  5
5B4A
330
1
100
AcDbSymbolTableRecord
100
AcDbBlockTableRecord
  2
*D38
340
0
  0
BLOCK_RECORD
  5
5B56
330
1
100
AcDbSymbolTableRecord
100
AcDbBlockTableRecord
  2
*D39
340
0
  0
BLOCK_RECORD
  5
5B62
330
1
100
AcDbSymbolTableRecord
100
AcDbBlockTableRecord
  2
*D40
340
0
  0
BLOCK_RECORD
  5
5B6E
330
1
100
AcDbSymbolTableRecord
100
AcDbBlockTableRecord
  2
*D41
340
0
  0
BLOCK_RECORD
  5
5B7C
330
1
100
AcDbSymbolTableRecord
100
AcDbBlockTableRecord
  2
*D42
340
0
  0
ENDTAB
  0
ENDSEC
  0
SECTION
  2
BLOCKS
  0
BLOCK
  5
1F
330
1E
100
AcDbEntity
  8
0
100
AcDbBlockBegin
  2
*MODEL_SPACE
 70
     0
 10
0.0
 20
0.0
 30
0.0
  3
*MODEL_SPACE
  1

  0
ENDBLK
  5
20
330
1E
100
AcDbEntity
  8
0
100
AcDbBlockEnd
  0
BLOCK
  5
1B
330
1A
100
AcDbEntity
 67
     1
  8
0
100
AcDbBlockBegin
  2
*PAPER_SPACE
 70
     0
 10
0.0
 20
0.0
 30
0.0
  3
*PAPER_SPACE
  1

  0
ENDBLK
  5
1C
330
1A
100
AcDbEntity
 67
     1
  8
0
100
AcDbBlockEnd
  0
BLOCK
  5
3B6
330
3B2
100
AcDbEntity
  8
0
100
AcDbBlockBegin
  2
_OPEN
 70
     0
 10
0.0
 20
0.0
 30
0.0
  3
_OPEN
  1

  0
LINE
  5
3B3
330
3B2
100
AcDbEntity
  8
30
  6
Continuous
 62
     0
100
AcDbLine
 10
-1.0
 20
0.166667
 30
0.0
 11
0.0
 21
0.0
 31
0.0
1001
ACAD
1000
RTLwPs
1070
   158
  0
LINE
  5
3B4
330
3B2
100
AcDbEntity
  8
30
  6
Continuous
 62
     0
100
AcDbLine
 10
-1.0
 20
-0.166667
 30
0.0
 11
0.0
 21
0.0
 31
0.0
1001
ACAD
1000
RTLwPs
1070
   158
  0
LINE
  5
3B5
330
3B2
100
AcDbEntity
  8
30
  6
Continuous
 62
     0
100
AcDbLine
 10
0.0
 20
0.0
 30
0.0
 11
-1.0
 21
0.0
 31
0.0
1001
ACAD
1000
RTLwPs
1070
   158
  0
ENDBLK
  5
3B7
330
3B2
100
AcDbEntity
  8
0
100
AcDbBlockEnd
  0
BLOCK
  5
3A44
330
3A40
100
AcDbEntity
  8
0
  6
ByBlock
 62
     0
100
AcDbBlockBegin
  2
_OPEN30
 70
     2
 10
0.0
 20
0.0
 30
0.0
  3
_OPEN30
  1

  0
LINE
  5
3A41
330
3A40
100
AcDbEntity
  8
0
  6
ByBlock
 62
     0
100
AcDbLine
 10
-1.0
 20
0.267949
 30
0.0
 11
0.0
 21
0.0
 31
0.0
  0
LINE
  5
3A42
330
3A40
100
AcDbEntity
  8
0
  6
ByBlock
 62
     0
100
AcDbLine
 10
0.0
 20
0.0
 30
0.0
 11
-1.0
 21
-0.267949
 31
0.0
  0
LINE
  5
3A43
330
3A40
100
AcDbEntity
  8
0
  6
ByBlock
 62
     0
100
AcDbLine
 10
0.0
 20
0.0
 30
0.0
 11
-1.0
 21
0.0
 31
0.0
  0
ENDBLK
  5
3A45
330
3A40
100
AcDbEntity
  8
0
  6
ByBlock
 62
     0
100
AcDbBlockEnd
  0
BLOCK
  5
53B1
330
53A7
100
AcDbEntity
  8
0
100
AcDbBlockBegin
  2
*D2
 70
     1
 10
0.0
 20
0.0
 30
0.0
  3
*D2
  1

  0
LINE
  5
5C41
330
53A7
100
AcDbEntity
  8
30
  6
Continuous
 62
     0
370
    -2
100
AcDbLine
 10
195.08727
 20
-274.999996
 30
0.0
 11
195.08727
 21
-322.6961159999999
 31
0.0
  0
LINE
  5
5C42
330
53A7
100
AcDbEntity
  8
30
  6
Continuous
 62
     0
370
    -2
100
AcDbLine
 10
125.08729
 20
-274.999996
 30
0.0
 11
125.08729
 21
-322.6961159999999
 31
0.0
  0
LINE
  5
5C43
330
53A7
100
AcDbEntity
  8
30
  6
Continuous
 62
     0
370
    -2
100
AcDbLine
 10
193.08727
 20
-322.1961159999999
 30
0.0
 11
127.08729
 21
-322.1961159999999
 31
0.0
  0
MTEXT
  5
5C44
330
53A7
100
AcDbEntity
  8
30
  6
Continuous
 62
     0
100
AcDbMText
 10
160.0
 20
-326.1961159999999
 30
0.0
 40
4.0
 41
0.0
 71
     5
 72
     1
  1
\A1;more than 74
 73
     1
 44
1.0
  0
INSERT
  5
5C45
330
53A7
100
AcDbEntity
  8
30
  6
Continuous
 62
     0
370
    -2
100
AcDbBlockReference
  2
_OPEN
 10
195.08727
 20
-322.1961159999999
 30
0.0
 41
2.0
 42
2.0
 43
2.0
  0
INSERT
  5
5C46
330
53A7
100
AcDbEntity
  8
30
  6
Continuous
 62
     0
370
    -2
100
AcDbBlockReference
  2
_OPEN
 10
125.08729
 20
-322.1961159999999
 30
0.0
 41
2.0
 42
2.0
 43
2.0
 50
180.0
  0
POINT
  5
5C47
330
53A7
100
AcDbEntity
  8
DEFPOINTS
  6
Continuous
 62
     0
100
AcDbPoint
 10
195.08727
 20
-273.999996
 30
0.0
  0
POINT
  5
5C48
330
53A7
100
AcDbEntity
  8
DEFPOINTS
  6
Continuous
 62
     0
100
AcDbPoint
 10
125.08729
 20
-273.999996
 30
0.0
  0
POINT
  5
5C49
330
53A7
100
AcDbEntity
  8
DEFPOINTS
  6
Continuous
 62
     0
100
AcDbPoint
 10
125.08729
 20
-322.1961159999999
 30
0.0
  0
ENDBLK
  5
53B2
330
53A7
100
AcDbEntity
  8
0
100
AcDbBlockEnd
  0
BLOCK
  5
53BF
330
53B3
100
AcDbEntity
  8
0
100
AcDbBlockBegin
  2
*D3
 70
     1
 10
0.0
 20
0.0
 30
0.0
  3
*D3
  1

  0
LINE
  5
5BE4
330
53B3
100
AcDbEntity
  8
30
  6
Continuous
 62
     0
370
    -2
100
AcDbLine
 10
32.074997
 20
-42.00000199999999
 30
0.0
 11
57.01275400000002
 21
-42.000002
 31
0.0
  0
LINE
  5
5BE5
330
53B3
100
AcDbEntity
  8
30
  6
Continuous
 62
     0
370
    -2
100
AcDbLine
 10
35.20704800000004
 20
-50.00000200000002
 30
0.0
 11
57.01275400000001
 21
-50.00000200000003
 31
0.0
  0
LINE
  5
5BE6
330
53B3
100
AcDbEntity
  8
30
  6
Continuous
 62
     0
370
    -2
100
AcDbLine
 10
56.51275400000002
 20
-44.000002
 30
0.0
 11
56.51275400000002
 21
-48.00000200000003
 31
0.0
  0
INSERT
  5
5BE7
330
53B3
100
AcDbEntity
  8
30
  6
Continuous
 62
     0
370
    -2
100
AcDbBlockReference
  2
_OPEN
 10
56.51275400000002
 20
-42.000002
 30
0.0
 41
2.0
 42
2.0
 43
2.0
 50
90.0
  0
INSERT
  5
5BE8
330
53B3
100
AcDbEntity
  8
30
  6
Continuous
 62
     0
370
    -2
100
AcDbBlockReference
  2
_OPEN
 10
56.51275400000002
 20
-50.00000200000003
 30
0.0
 41
2.0
 42
2.0
 43
2.0
 50
270.0
  0
MTEXT
  5
5BE9
330
53B3
100
AcDbEntity
  8
30
  6
Continuous
 62
     0
100
AcDbMText
 10
53.51275400000003
 20
-46.125002
 30
0.0
 40
4.0
 41
0.0
 71
     5
 72
     1
  1
\A1;8
 11
0.0000000000000001
 21
1.0
 31
0.0
 73
     1
 44
1.0
  0
POINT
  5
5BEA
330
53B3
100
AcDbEntity
  8
DEFPOINTS
  6
Continuous
 62
     0
100
AcDbPoint
 10
31.07499699999999
 20
-42.00000199999999
 30
0.0
  0
POINT
  5
5BEB
330
53B3
100
AcDbEntity
  8
DEFPOINTS
  6
Continuous
 62
     0
100
AcDbPoint
 10
34.20704800000004
 20
-50.00000200000002
 30
0.0
  0
POINT
  5
5BEC
330
53B3
100
AcDbEntity
  8
DEFPOINTS
  6
Continuous
 62
     0
100
AcDbPoint
 10
56.51275400000002
 20
-50.00000200000003
 30
0.0
  0
ENDBLK
  5
53C0
330
53B3
100
AcDbEntity
  8
0
100
AcDbBlockEnd
  0
BLOCK
  5
53CD
330
53C1
100
AcDbEntity
  8
0
100
AcDbBlockBegin
  2
*D4
 70
     1
 10
0.0
 20
0.0
 30
0.0
  3
*D4
  1

  0
LINE
  5
5BD2
330
53C1
100
AcDbEntity
  8
30
  6
Continuous
 62
     0
370
    -2
100
AcDbLine
 10
36.72476540603025
 20
49.99875914965756
 30
0.0
 11
57.03764140603029
 21
49.99875914965755
 31
0.0
  0
LINE
  5
5BD3
330
53C1
100
AcDbEntity
  8
30
  6
Continuous
 62
     0
370
    -2
100
AcDbLine
 10
32.07499699999999
 20
40.0
 30
0.0
 11
57.03764140603028
 21
39.99999999999999
 31
0.0
  0
LINE
  5
5BD4
330
53C1
100
AcDbEntity
  8
30
  6
Continuous
 62
     0
370
    -2
100
AcDbLine
 10
56.53764140603028
 20
47.99875914965755
 30
0.0
 11
56.53764140603028
 21
41.99999999999999
 31
0.0
  0
INSERT
  5
5BD5
330
53C1
100
AcDbEntity
  8
30
  6
Continuous
 62
     0
370
    -2
100
AcDbBlockReference
  2
_OPEN
 10
56.53764140603029
 20
49.99875914965755
 30
0.0
 41
2.0
 42
2.0
 43
2.0
 50
90.0
  0
INSERT
  5
5BD6
330
53C1
100
AcDbEntity
  8
30
  6
Continuous
 62
     0
370
    -2
100
AcDbBlockReference
  2
_OPEN
 10
56.53764140603028
 20
39.99999999999999
 30
0.0
 41
2.0
 42
2.0
 43
2.0
 50
270.0
  0
MTEXT
  5
5BD7
330
53C1
100
AcDbEntity
  8
30
  6
Continuous
 62
     0
100
AcDbMText
 10
53.53764140603027
 20
45.1237586496576
 30
0.0
 40
4.0
 41
0.0
 71
     5
 72
     1
  1
\A1;10
 11
0.0000000000000001
 21
1.0
 31
0.0
 73
     1
 44
1.0
  0
POINT
  5
5BD8
330
53C1
100
AcDbEntity
  8
DEFPOINTS
  6
Continuous
 62
     0
100
AcDbPoint
 10
35.72476540603025
 20
49.99875914965756
 30
0.0
  0
POINT
  5
5BD9
330
53C1
100
AcDbEntity
  8
DEFPOINTS
  6
Continuous
 62
     0
100
AcDbPoint
 10
31.07499699999999
 20
40.0
 30
0.0
  0
POINT
  5
5BDA
330
53C1
100
AcDbEntity
  8
DEFPOINTS
  6
Continuous
 62
     0
100
AcDbPoint
 10
56.53764140603028
 20
39.99999999999999
 30
0.0
  0
ENDBLK
  5
53CE
330
53C1
100
AcDbEntity
  8
0
100
AcDbBlockEnd
  0
BLOCK
  5
53D9
330
53CF
100
AcDbEntity
  8
0
100
AcDbBlockBegin
  2
*D5
 70
     1
 10
0.0
 20
0.0
 30
0.0
  3
*D5
  1

  0
LINE
  5
57DC
330
53CF
100
AcDbEntity
  8
30
  6
Continuous
 62
     0
370
    -2
100
AcDbLine
 10
32.07499699999999
 20
40.0
 30
0.0
 11
57.01275400000003
 21
39.99999999999999
 31
0.0
  0
LINE
  5
57DD
330
53CF
100
AcDbEntity
  8
30
  6
Continuous
 62
     0
370
    -2
100
AcDbLine
 10
42.71915799999999
 20
-0.0000000000000003
 30
0.0
 11
57.01275400000003
 21
-0.0000000000000043
 31
0.0
  0
LINE
  5
57DE
330
53CF
100
AcDbEntity
  8
30
  6
Continuous
 62
     0
370
    -2
100
AcDbLine
 10
56.51275400000003
 20
37.99999999999999
 30
0.0
 11
56.51275400000002
 21
1.999999999999995
 31
0.0
  0
INSERT
  5
57DF
330
53CF
100
AcDbEntity
  8
30
  6
Continuous
 62
     0
370
    -2
100
AcDbBlockReference
  2
_OPEN
 10
56.51275400000003
 20
39.99999999999999
 30
0.0
 41
2.0
 42
2.0
 43
2.0
 50
90.0
  0
INSERT
  5
57E0
330
53CF
100
AcDbEntity
  8
30
  6
Continuous
 62
     0
370
    -2
100
AcDbBlockReference
  2
_OPEN
 10
56.51275400000002
 20
-0.0000000000000042
 30
0.0
 41
2.0
 42
2.0
 43
2.0
 50
270.0
  0
MTEXT
  5
57E1
330
53CF
100
AcDbEntity
  8
30
  6
Continuous
 62
     0
100
AcDbMText
 10
53.51275400000003
 20
20.0
 30
0.0
 40
4.0
 41
0.0
 71
     5
 72
     1
  1
\A1;40
 11
0.0000000000000001
 21
1.0
 31
0.0
 73
     1
 44
1.0
  0
POINT
  5
57E2
330
53CF
100
AcDbEntity
  8
DEFPOINTS
  6
Continuous
 62
     0
100
AcDbPoint
 10
31.07499699999999
 20
40.0
 30
0.0
  0
POINT
  5
57E3
330
53CF
100
AcDbEntity
  8
DEFPOINTS
  6
Continuous
 62
     0
100
AcDbPoint
 10
41.71915799999999
 20
0.0
 30
0.0
  0
POINT
  5
57E4
330
53CF
100
AcDbEntity
  8
DEFPOINTS
  6
Continuous
 62
     0
100
AcDbPoint
 10
56.51275400000002
 20
-0.0000000000000042
 30
0.0
  0
ENDBLK
  5
53DA
330
53CF
100
AcDbEntity
  8
0
100
AcDbBlockEnd
  0
BLOCK
  5
53E5
330
53DB
100
AcDbEntity
  8
0
100
AcDbBlockBegin
  2
*D6
 70
     1
 10
0.0
 20
0.0
 30
0.0
  3
*D6
  1

  0
LINE
  5
57A6
330
53DB
100
AcDbEntity
  8
30
  6
Continuous
 62
     0
370
    -2
100
AcDbLine
 10
42.71915799999999
 20
-0.0000000000000003
 30
0.0
 11
57.01275400000003
 21
-0.0000000000000043
 31
0.0
  0
LINE
  5
57A7
330
53DB
100
AcDbEntity
  8
30
  6
Continuous
 62
     0
370
    -2
100
AcDbLine
 10
32.074997
 20
-42.00000199999999
 30
0.0
 11
57.01275400000002
 21
-42.000002
 31
0.0
  0
LINE
  5
57A8
330
53DB
100
AcDbEntity
  8
30
  6
Continuous
 62
     0
370
    -2
100
AcDbLine
 10
56.51275400000002
 20
-2.000000000000003
 30
0.0
 11
56.51275400000002
 21
-40.000002
 31
0.0
  0
INSERT
  5
57A9
330
53DB
100
AcDbEntity
  8
30
  6
Continuous
 62
     0
370
    -2
100
AcDbBlockReference
  2
_OPEN
 10
56.51275400000002
 20
-0.0000000000000042
 30
0.0
 41
2.0
 42
2.0
 43
2.0
 50
90.0
  0
INSERT
  5
57AA
330
53DB
100
AcDbEntity
  8
30
  6
Continuous
 62
     0
370
    -2
100
AcDbBlockReference
  2
_OPEN
 10
56.51275400000002
 20
-42.000002
 30
0.0
 41
2.0
 42
2.0
 43
2.0
 50
270.0
  0
MTEXT
  5
57AB
330
53DB
100
AcDbEntity
  8
30
  6
Continuous
 62
     0
100
AcDbMText
 10
53.51275400000003
 20
-21.0
 30
0.0
 40
4.0
 41
0.0
 71
     5
 72
     1
  1
\A1;42
 11
0.0000000000000001
 21
1.0
 31
0.0
 73
     1
 44
1.0
  0
POINT
  5
57AC
330
53DB
100
AcDbEntity
  8
DEFPOINTS
  6
Continuous
 62
     0
100
AcDbPoint
 10
41.71915799999999
 20
0.0
 30
0.0
  0
POINT
  5
57AD
330
53DB
100
AcDbEntity
  8
DEFPOINTS
  6
Continuous
 62
     0
100
AcDbPoint
 10
31.07499699999999
 20
-42.00000199999999
 30
0.0
  0
POINT
  5
57AE
330
53DB
100
AcDbEntity
  8
DEFPOINTS
  6
Continuous
 62
     0
100
AcDbPoint
 10
56.51275400000002
 20
-42.000002
 30
0.0
  0
ENDBLK
  5
53E6
330
53DB
100
AcDbEntity
  8
0
100
AcDbBlockEnd
  0
BLOCK
  5
53FD
330
53F3
100
AcDbEntity
  8
0
100
AcDbBlockBegin
  2
*D7
 70
     1
 10
0.0
 20
0.0
 30
0.0
  3
*D7
  1

  0
LINE
  5
5BDB
330
53F3
100
AcDbEntity
  8
30
  6
Continuous
 62
     0
370
    -2
100
AcDbLine
 10
36.72476640603031
 20
49.99875914965756
 30
0.0
 11
66.22890340603028
 21
49.99875914965755
 31
0.0
  0
LINE
  5
5BDC
330
53F3
100
AcDbEntity
  8
30
  6
Continuous
 62
     0
370
    -2
100
AcDbLine
 10
34.49994099999997
 20
-50.00000200000002
 30
0.0
 11
66.22890340603025
 21
-50.00000200000003
 31
0.0
  0
LINE
  5
5BDD
330
53F3
100
AcDbEntity
  8
30
  6
Continuous
 62
     0
370
    -2
100
AcDbLine
 10
65.72890340603028
 20
47.99875914965755
 30
0.0
 11
65.72890340603025
 21
-48.00000200000003
 31
0.0
  0
INSERT
  5
5BDE
330
53F3
100
AcDbEntity
  8
30
  6
Continuous
 62
     0
370
    -2
100
AcDbBlockReference
  2
_OPEN
 10
65.72890340603028
 20
49.99875914965755
 30
0.0
 41
2.0
 42
2.0
 43
2.0
 50
90.0
  0
INSERT
  5
5BDF
330
53F3
100
AcDbEntity
  8
30
  6
Continuous
 62
     0
370
    -2
100
AcDbBlockReference
  2
_OPEN
 10
65.72890340603025
 20
-50.00000200000003
 30
0.0
 41
2.0
 42
2.0
 43
2.0
 50
270.0
  0
MTEXT
  5
5BE0
330
53F3
100
AcDbEntity
  8
30
  6
Continuous
 62
     0
100
AcDbMText
 10
62.72890340603026
 20
-0.0012408503424336
 30
0.0
 40
4.0
 41
0.0
 71
     5
 72
     1
  1
\A1;100
 11
0.0000000000000001
 21
1.0
 31
0.0
 73
     1
 44
1.0
  0
POINT
  5
5BE1
330
53F3
100
AcDbEntity
  8
DEFPOINTS
  6
Continuous
 62
     0
100
AcDbPoint
 10
35.72476640603031
 20
49.99875914965756
 30
0.0
  0
POINT
  5
5BE2
330
53F3
100
AcDbEntity
  8
DEFPOINTS
  6
Continuous
 62
     0
100
AcDbPoint
 10
33.49994099999998
 20
-50.00000200000002
 30
0.0
  0
POINT
  5
5BE3
330
53F3
100
AcDbEntity
  8
DEFPOINTS
  6
Continuous
 62
     0
100
AcDbPoint
 10
65.72890340603025
 20
-50.00000200000003
 30
0.0
  0
ENDBLK
  5
53FE
330
53F3
100
AcDbEntity
  8
0
100
AcDbBlockEnd
  0
BLOCK
  5
5409
330
53FF
100
AcDbEntity
  8
0
100
AcDbBlockBegin
  2
*D8
 70
     1
 10
0.0
 20
0.0
 30
0.0
  3
*D8
  1

  0
LINE
  5
5C2F
330
53FF
100
AcDbEntity
  8
30
  6
Continuous
 62
     0
370
    -2
100
AcDbLine
 10
-3.273677999999904
 20
-208.0000119999999
 30
0.0
 11
62.24569600000003
 21
-208.0000119999999
 31
0.0
  0
LINE
  5
5C30
330
53FF
100
AcDbEntity
  8
30
  6
Continuous
 62
     0
370
    -2
100
AcDbLine
 10
21.09229200000004
 20
-291.999988
 30
0.0
 11
62.24569600000002
 21
-291.999988
 31
0.0
  0
LINE
  5
5C31
330
53FF
100
AcDbEntity
  8
30
  6
Continuous
 62
     0
370
    -2
100
AcDbLine
 10
61.74569600000003
 20
-210.0000119999999
 30
0.0
 11
61.74569600000001
 21
-289.999988
 31
0.0
  0
INSERT
  5
5C32
330
53FF
100
AcDbEntity
  8
30
  6
Continuous
 62
     0
370
    -2
100
AcDbBlockReference
  2
_OPEN
 10
61.74569600000003
 20
-208.0000119999999
 30
0.0
 41
2.0
 42
2.0
 43
2.0
 50
90.0
  0
INSERT
  5
5C33
330
53FF
100
AcDbEntity
  8
30
  6
Continuous
 62
     0
370
    -2
100
AcDbBlockReference
  2
_OPEN
 10
61.74569600000001
 20
-291.999988
 30
0.0
 41
2.0
 42
2.0
 43
2.0
 50
270.0
  0
MTEXT
  5
5C34
330
53FF
100
AcDbEntity
  8
30
  6
Continuous
 62
     0
100
AcDbMText
 10
58.74569600000007
 20
-250.0
 30
0.0
 40
4.0
 41
0.0
 71
     5
 72
     1
  1
\A1;84
 11
0.0000000000000001
 21
1.0
 31
0.0
 73
     1
 44
1.0
  0
POINT
  5
5C35
330
53FF
100
AcDbEntity
  8
DEFPOINTS
  6
Continuous
 62
     0
100
AcDbPoint
 10
-4.273677999999904
 20
-208.0000119999999
 30
0.0
  0
POINT
  5
5C36
330
53FF
100
AcDbEntity
  8
DEFPOINTS
  6
Continuous
 62
     0
100
AcDbPoint
 10
20.09229200000004
 20
-291.999988
 30
0.0
  0
POINT
  5
5C37
330
53FF
100
AcDbEntity
  8
DEFPOINTS
  6
Continuous
 62
     0
100
AcDbPoint
 10
61.74569600000001
 20
-291.999988
 30
0.0
  0
ENDBLK
  5
540A
330
53FF
100
AcDbEntity
  8
0
100
AcDbBlockEnd
  0
BLOCK
  5
5415
330
540B
100
AcDbEntity
  8
0
100
AcDbBlockBegin
  2
*D9
 70
     1
 10
0.0
 20
0.0
 30
0.0
  3
*D9
  1

  0
LINE
  5
5C38
330
540B
100
AcDbEntity
  8
30
  6
Continuous
 62
     0
370
    -2
100
AcDbLine
 10
12.49999600000001
 20
-303.4494199999999
 30
0.0
 11
12.499996
 21
-322.6961159999999
 31
0.0
  0
LINE
  5
5C39
330
540B
100
AcDbEntity
  8
30
  6
Continuous
 62
     0
370
    -2
100
AcDbLine
 10
-12.49999799999989
 20
-217.5497179999999
 30
0.0
 11
-12.49999799999989
 21
-322.6961159999999
 31
0.0
  0
LINE
  5
5C3A
330
540B
100
AcDbEntity
  8
30
  6
Continuous
 62
     0
370
    -2
100
AcDbLine
 10
10.499996
 20
-322.1961159999999
 30
0.0
 11
-10.49999799999989
 21
-322.1961159999999
 31
0.0
  0
INSERT
  5
5C3B
330
540B
100
AcDbEntity
  8
30
  6
Continuous
 62
     0
370
    -2
100
AcDbBlockReference
  2
_OPEN
 10
12.499996
 20
-322.1961159999999
 30
0.0
 41
2.0
 42
2.0
 43
2.0
  0
INSERT
  5
5C3C
330
540B
100
AcDbEntity
  8
30
  6
Continuous
 62
     0
370
    -2
100
AcDbBlockReference
  2
_OPEN
 10
-12.49999799999989
 20
-322.1961159999999
 30
0.0
 41
2.0
 42
2.0
 43
2.0
 50
180.0
  0
MTEXT
  5
5C3D
330
540B
100
AcDbEntity
  8
30
  6
Continuous
 62
     0
100
AcDbMText
 10
-0.0000009999999449
 20
-319.1961159999999
 30
0.0
 40
4.0
 41
0.0
 71
     5
 72
     1
  1
\A1;25
 73
     1
 44
1.0
  0
POINT
  5
5C3E
330
540B
100
AcDbEntity
  8
DEFPOINTS
  6
Continuous
 62
     0
100
AcDbPoint
 10
12.49999600000001
 20
-302.4494199999999
 30
0.0
  0
POINT
  5
5C3F
330
540B
100
AcDbEntity
  8
DEFPOINTS
  6
Continuous
 62
     0
100
AcDbPoint
 10
-12.49999799999989
 20
-216.549718
 30
0.0
  0
POINT
  5
5C40
330
540B
100
AcDbEntity
  8
DEFPOINTS
  6
Continuous
 62
     0
100
AcDbPoint
 10
-12.49999799999989
 20
-322.1961159999999
 30
0.0
  0
ENDBLK
  5
5416
330
540B
100
AcDbEntity
  8
0
100
AcDbBlockEnd
  0
BLOCK
  5
541D
330
5417
100
AcDbEntity
  8
0
100
AcDbBlockBegin
  2
*D10
 70
     1
 10
0.0
 20
0.0
 30
0.0
  3
*D10
  1

  0
LINE
  5
5C8F
330
5417
100
AcDbEntity
  8
30
  6
Continuous
 62
     0
370
    -2
100
AcDbLine
 10
67.23855945793826
 20
-191.6593410417413
 30
0.0
 11
113.7052261246049
 21
-191.6593410417412
 31
0.0
  0
LINE
  5
5C90
330
5417
100
AcDbEntity
  8
30
  6
Continuous
 62
     0
370
    -2
100
AcDbLine
 10
113.7052261246049
 20
-191.6593410417412
 30
0.0
 11
125.6349257555612
 21
-222.2729926991644
 31
0.0
  0
MTEXT
  5
5C91
330
5417
100
AcDbEntity
  8
30
  6
Continuous
 62
     0
100
AcDbMText
 10
89.97189279127159
 20
-188.6593410417413
 30
0.0
 40
4.0
 41
0.0
 71
     5
 72
     1
  1
\A1;lsess than R2
 73
     1
 44
1.0
  0
INSERT
  5
5C92
330
5417
100
AcDbEntity
  8
30
  6
Continuous
 62
     0
370
    -2
100
AcDbBlockReference
  2
_OPEN
 10
126.3611077654224
 20
-224.1365000612518
 30
0.0
 41
2.0
 42
2.0
 43
2.0
 50
291.2901470150438
  0
LINE
  5
5C93
330
5417
100
AcDbEntity
  8
30
  6
Continuous
 62
     0
370
    -2
100
AcDbLine
 10
126.9972899999999
 20
-226.000008
 30
0.0
 11
127.1772899999999
 21
-226.000008
 31
0.0
  0
LINE
  5
5C94
330
5417
100
AcDbEntity
  8
30
  6
Continuous
 62
     0
370
    -2
100
AcDbLine
 10
127.08729
 20
-226.090008
 30
0.0
 11
127.08729
 21
-225.910008
 31
0.0
  0
POINT
  5
5C95
330
5417
100
AcDbEntity
  8
DEFPOINTS
  6
Continuous
 62
     0
100
AcDbPoint
 10
126.3611077654224
 20
-224.1365000612518
 30
0.0
  0
POINT
  5
5C96
330
5417
100
AcDbEntity
  8
DEFPOINTS
  6
Continuous
 62
     0
100
AcDbPoint
 10
127.08729
 20
-226.000008
 30
0.0
  0
ENDBLK
  5
541E
330
5417
100
AcDbEntity
  8
0
100
AcDbBlockEnd
  0
BLOCK
  5
5429
330
541F
100
AcDbEntity
  8
0
100
AcDbBlockBegin
  2
*D11
 70
     1
 10
0.0
 20
0.0
 30
0.0
  3
*D11
  1

  0
LINE
  5
586A
330
541F
100
AcDbEntity
  8
30
  6
Continuous
 62
     0
370
    -2
100
AcDbLine
 10
7.600002000000016
 20
-42.01091400000001
 30
0.0
 11
-57.83408700000002
 21
-42.01091399999999
 31
0.0
  0
LINE
  5
586B
330
541F
100
AcDbEntity
  8
30
  6
Continuous
 62
     0
370
    -2
100
AcDbLine
 10
-16.95001599999994
 20
41.99993999999999
 30
0.0
 11
-57.834087
 21
41.99993999999999
 31
0.0
  0
LINE
  5
586C
330
541F
100
AcDbEntity
  8
30
  6
Continuous
 62
     0
370
    -2
100
AcDbLine
 10
-57.33408700000001
 20
-40.01091399999999
 30
0.0
 11
-57.334087
 21
39.99993999999999
 31
0.0
  0
INSERT
  5
586D
330
541F
100
AcDbEntity
  8
30
  6
Continuous
 62
     0
370
    -2
100
AcDbBlockReference
  2
_OPEN
 10
-57.33408700000001
 20
-42.01091399999999
 30
0.0
 41
2.0
 42
2.0
 43
2.0
 50
270.0
  0
INSERT
  5
586E
330
541F
100
AcDbEntity
  8
30
  6
Continuous
 62
     0
370
    -2
100
AcDbBlockReference
  2
_OPEN
 10
-57.334087
 20
41.99993999999999
 30
0.0
 41
2.0
 42
2.0
 43
2.0
 50
90.0
  0
MTEXT
  5
586F
330
541F
100
AcDbEntity
  8
30
  6
Continuous
 62
     0
100
AcDbMText
 10
-60.33408700000001
 20
-0.0054860000000186
 30
0.0
 40
4.0
 41
0.0
 71
     5
 72
     1
  1
\A1;84
 11
0.0000000000000001
 21
1.0
 31
0.0
 73
     1
 44
1.0
  0
POINT
  5
5870
330
541F
100
AcDbEntity
  8
DEFPOINTS
  6
Continuous
 62
     0
100
AcDbPoint
 10
8.600002000000017
 20
-42.01091400000001
 30
0.0
  0
POINT
  5
5871
330
541F
100
AcDbEntity
  8
DEFPOINTS
  6
Continuous
 62
     0
100
AcDbPoint
 10
-15.95001599999994
 20
41.99993999999998
 30
0.0
  0
POINT
  5
5872
330
541F
100
AcDbEntity
  8
DEFPOINTS
  6
Continuous
 62
     0
100
AcDbPoint
 10
-57.334087
 20
41.99993999999999
 30
0.0
  0
ENDBLK
  5
542A
330
541F
100
AcDbEntity
  8
0
100
AcDbBlockEnd
  0
BLOCK
  5
5435
330
542B
100
AcDbEntity
  8
0
100
AcDbBlockBegin
  2
*D12
 70
     1
 10
0.0
 20
0.0
 30
0.0
  3
*D12
  1

  0
LINE
  5
57C1
330
542B
100
AcDbEntity
  8
30
  6
Continuous
 62
     0
370
    -2
100
AcDbLine
 10
-36.00003099999998
 20
-25.00003199999997
 30
0.0
 11
-48.73976599999998
 21
-25.00003199999997
 31
0.0
  0
LINE
  5
57C2
330
542B
100
AcDbEntity
  8
30
  6
Continuous
 62
     0
370
    -2
100
AcDbLine
 10
-36.00003099999998
 20
24.99997000000002
 30
0.0
 11
-48.73976599999997
 21
24.99997000000002
 31
0.0
  0
LINE
  5
57C3
330
542B
100
AcDbEntity
  8
30
  6
Continuous
 62
     0
370
    -2
100
AcDbLine
 10
-48.23976599999998
 20
-23.00003199999997
 30
0.0
 11
-48.23976599999997
 21
22.99997000000002
 31
0.0
  0
INSERT
  5
57C4
330
542B
100
AcDbEntity
  8
30
  6
Continuous
 62
     0
370
    -2
100
AcDbBlockReference
  2
_OPEN
 10
-48.23976599999998
 20
-25.00003199999997
 30
0.0
 41
2.0
 42
2.0
 43
2.0
 50
270.0
  0
INSERT
  5
57C5
330
542B
100
AcDbEntity
  8
30
  6
Continuous
 62
     0
370
    -2
100
AcDbBlockReference
  2
_OPEN
 10
-48.23976599999997
 20
24.99997000000002
 30
0.0
 41
2.0
 42
2.0
 43
2.0
 50
90.0
  0
MTEXT
  5
57C6
330
542B
100
AcDbEntity
  8
30
  6
Continuous
 62
     0
100
AcDbMText
 10
-51.23976599999997
 20
-0.0000319999999757
 30
0.0
 40
4.0
 41
0.0
 71
     5
 72
     1
  1
\A1;50
 11
0.0000000000000001
 21
1.0
 31
0.0
 73
     1
 44
1.0
  0
POINT
  5
57C7
330
542B
100
AcDbEntity
  8
DEFPOINTS
  6
Continuous
 62
     0
100
AcDbPoint
 10
-35.00003099999998
 20
-25.00003199999997
 30
0.0
  0
POINT
  5
57C8
330
542B
100
AcDbEntity
  8
DEFPOINTS
  6
Continuous
 62
     0
100
AcDbPoint
 10
-35.00003099999998
 20
24.99997000000002
 30
0.0
  0
POINT
  5
57C9
330
542B
100
AcDbEntity
  8
DEFPOINTS
  6
Continuous
 62
     0
100
AcDbPoint
 10
-48.23976599999997
 20
24.99997000000002
 30
0.0
  0
ENDBLK
  5
5436
330
542B
100
AcDbEntity
  8
0
100
AcDbBlockEnd
  0
BLOCK
  5
5441
330
5437
100
AcDbEntity
  8
0
100
AcDbBlockBegin
  2
*D13
 70
     1
 10
0.0
 20
0.0
 30
0.0
  3
*D13
  1

  0
LINE
  5
5730
330
5437
100
AcDbEntity
  8
30
  6
Continuous
 62
     0
370
    -2
100
AcDbLine
 10
35.99993899999998
 20
-25.00003100000003
 30
0.0
 11
35.99993899999998
 21
-69.990521
 31
0.0
  0
LINE
  5
5731
330
5437
100
AcDbEntity
  8
30
  6
Continuous
 62
     0
370
    -2
100
AcDbLine
 10
-36.00003199999997
 20
-25.00003100000003
 30
0.0
 11
-36.00003199999997
 21
-69.990521
 31
0.0
  0
LINE
  5
5732
330
5437
100
AcDbEntity
  8
30
  6
Continuous
 62
     0
370
    -2
100
AcDbLine
 10
33.99993899999998
 20
-69.490521
 30
0.0
 11
-34.00003199999997
 21
-69.490521
 31
0.0
  0
INSERT
  5
5733
330
5437
100
AcDbEntity
  8
30
  6
Continuous
 62
     0
370
    -2
100
AcDbBlockReference
  2
_OPEN
 10
35.99993899999998
 20
-69.490521
 30
0.0
 41
2.0
 42
2.0
 43
2.0
  0
INSERT
  5
5734
330
5437
100
AcDbEntity
  8
30
  6
Continuous
 62
     0
370
    -2
100
AcDbBlockReference
  2
_OPEN
 10
-36.00003199999997
 20
-69.490521
 30
0.0
 41
2.0
 42
2.0
 43
2.0
 50
180.0
  0
MTEXT
  5
5735
330
5437
100
AcDbEntity
  8
30
  6
Continuous
 62
     0
100
AcDbMText
 10
-0.0000449999999999
 20
-66.490521
 30
0.0
 40
4.0
 41
0.0
 71
     5
 72
     1
  1
\A1;72
 73
     1
 44
1.0
  0
POINT
  5
5736
330
5437
100
AcDbEntity
  8
DEFPOINTS
  6
Continuous
 62
     0
100
AcDbPoint
 10
35.99993899999998
 20
-24.00003100000003
 30
0.0
  0
POINT
  5
5737
330
5437
100
AcDbEntity
  8
DEFPOINTS
  6
Continuous
 62
     0
100
AcDbPoint
 10
-36.00003199999997
 20
-24.00003100000003
 30
0.0
  0
POINT
  5
5738
330
5437
100
AcDbEntity
  8
DEFPOINTS
  6
Continuous
 62
     0
100
AcDbPoint
 10
-36.00003199999997
 20
-69.490521
 30
0.0
  0
ENDBLK
  5
5442
330
5437
100
AcDbEntity
  8
0
100
AcDbBlockEnd
  0
BLOCK
  5
544D
330
5443
100
AcDbEntity
  8
0
100
AcDbBlockBegin
  2
*D14
 70
     1
 10
0.0
 20
0.0
 30
0.0
  3
*D14
  1

  0
LINE
  5
5727
330
5443
100
AcDbEntity
  8
30
  6
Continuous
 62
     0
370
    -2
100
AcDbLine
 10
24.99998499999998
 20
-49.07501300000001
 30
0.0
 11
24.99998499999998
 21
-61.81171800000004
 31
0.0
  0
LINE
  5
5728
330
5443
100
AcDbEntity
  8
30
  6
Continuous
 62
     0
370
    -2
100
AcDbLine
 10
-25.00001600000001
 20
-49.07501300000001
 30
0.0
 11
-25.00001600000001
 21
-61.81171800000004
 31
0.0
  0
LINE
  5
5729
330
5443
100
AcDbEntity
  8
30
  6
Continuous
 62
     0
370
    -2
100
AcDbLine
 10
22.99998499999998
 20
-61.31171800000004
 30
0.0
 11
-23.00001600000001
 21
-61.31171800000004
 31
0.0
  0
INSERT
  5
572A
330
5443
100
AcDbEntity
  8
30
  6
Continuous
 62
     0
370
    -2
100
AcDbBlockReference
  2
_OPEN
 10
24.99998499999998
 20
-61.31171800000004
 30
0.0
 41
2.0
 42
2.0
 43
2.0
  0
INSERT
  5
572B
330
5443
100
AcDbEntity
  8
30
  6
Continuous
 62
     0
370
    -2
100
AcDbBlockReference
  2
_OPEN
 10
-25.00001600000001
 20
-61.31171800000004
 30
0.0
 41
2.0
 42
2.0
 43
2.0
 50
180.0
  0
MTEXT
  5
572C
330
5443
100
AcDbEntity
  8
30
  6
Continuous
 62
     0
100
AcDbMText
 10
-0.0000149999999619
 20
-58.31171800000004
 30
0.0
 40
4.0
 41
0.0
 71
     5
 72
     1
  1
\A1;50
 73
     1
 44
1.0
  0
POINT
  5
572D
330
5443
100
AcDbEntity
  8
DEFPOINTS
  6
Continuous
 62
     0
100
AcDbPoint
 10
24.99998499999998
 20
-48.07501300000001
 30
0.0
  0
POINT
  5
572E
330
5443
100
AcDbEntity
  8
DEFPOINTS
  6
Continuous
 62
     0
100
AcDbPoint
 10
-25.00001600000001
 20
-48.07501300000001
 30
0.0
  0
POINT
  5
572F
330
5443
100
AcDbEntity
  8
DEFPOINTS
  6
Continuous
 62
     0
100
AcDbPoint
 10
-25.00001600000001
 20
-61.31171800000004
 30
0.0
  0
ENDBLK
  5
544E
330
5443
100
AcDbEntity
  8
0
100
AcDbBlockEnd
  0
BLOCK
  5
546E
330
5464
100
AcDbEntity
  8
0
100
AcDbBlockBegin
  2
*D15
 70
     1
 10
0.0
 20
0.0
 30
0.0
  3
*D15
  1

  0
LINE
  5
5739
330
5464
100
AcDbEntity
  8
30
  6
Continuous
 62
     0
370
    -2
100
AcDbLine
 10
37.49993899999998
 20
-47.25000299999999
 30
0.0
 11
37.49993899999998
 21
-79.20399800000001
 31
0.0
  0
LINE
  5
573A
330
5464
100
AcDbEntity
  8
30
  6
Continuous
 62
     0
370
    -2
100
AcDbLine
 10
-37.50004699999999
 20
-47.25000299999999
 30
0.0
 11
-37.50004699999999
 21
-79.20399800000001
 31
0.0
  0
LINE
  5
573B
330
5464
100
AcDbEntity
  8
30
  6
Continuous
 62
     0
370
    -2
100
AcDbLine
 10
35.49993899999998
 20
-78.70399800000001
 30
0.0
 11
-35.50004699999999
 21
-78.70399800000001
 31
0.0
  0
INSERT
  5
573C
330
5464
100
AcDbEntity
  8
30
  6
Continuous
 62
     0
370
    -2
100
AcDbBlockReference
  2
_OPEN
 10
37.49993899999998
 20
-78.70399800000001
 30
0.0
 41
2.0
 42
2.0
 43
2.0
  0
INSERT
  5
573D
330
5464
100
AcDbEntity
  8
30
  6
Continuous
 62
     0
370
    -2
100
AcDbBlockReference
  2
_OPEN
 10
-37.50004699999999
 20
-78.70399800000001
 30
0.0
 41
2.0
 42
2.0
 43
2.0
 50
180.0
  0
MTEXT
  5
573E
330
5464
100
AcDbEntity
  8
30
  6
Continuous
 62
     0
100
AcDbMText
 10
-0.0000529999999797
 20
-75.70399800000001
 30
0.0
 40
4.0
 41
0.0
 71
     5
 72
     1
  1
\A1;75
 73
     1
 44
1.0
  0
POINT
  5
573F
330
5464
100
AcDbEntity
  8
DEFPOINTS
  6
Continuous
 62
     0
100
AcDbPoint
 10
37.49993899999998
 20
-46.25000299999999
 30
0.0
  0
POINT
  5
5740
330
5464
100
AcDbEntity
  8
DEFPOINTS
  6
Continuous
 62
     0
100
AcDbPoint
 10
-37.50004699999999
 20
-46.25000299999999
 30
0.0
  0
POINT
  5
5741
330
5464
100
AcDbEntity
  8
DEFPOINTS
  6
Continuous
 62
     0
100
AcDbPoint
 10
-37.50004699999999
 20
-78.70399800000001
 30
0.0
  0
ENDBLK
  5
546F
330
5464
100
AcDbEntity
  8
0
100
AcDbBlockEnd
  0
BLOCK
  5
5486
330
547C
100
AcDbEntity
  8
0
100
AcDbBlockBegin
  2
*D16
 70
     1
 10
0.0
 20
0.0
 30
0.0
  3
*D16
  1

  0
LINE
  5
5CA3
330
547C
100
AcDbEntity
  8
30
  6
Continuous
 62
     0
370
    -2
100
AcDbLine
 10
194.087272
 20
-224.0000079999999
 30
0.0
 11
217.9642739999999
 21
-224.0000079999999
 31
0.0
  0
LINE
  5
5CA4
330
547C
100
AcDbEntity
  8
30
  6
Continuous
 62
     0
370
    -2
100
AcDbLine
 10
194.087272
 20
-275.999994
 30
0.0
 11
217.9642739999999
 21
-275.999994
 31
0.0
  0
LINE
  5
5CA5
330
547C
100
AcDbEntity
  8
30
  6
Continuous
 62
     0
370
    -2
100
AcDbLine
 10
217.4642739999999
 20
-226.0000079999999
 30
0.0
 11
217.4642739999999
 21
-273.999994
 31
0.0
  0
MTEXT
  5
5CA6
330
547C
100
AcDbEntity
  8
30
  6
Continuous
 62
     0
100
AcDbMText
 10
222.1682223234165
 20
-250.0
 30
0.0
 40
4.0
 41
0.0
 71
     5
 72
     1
  1
\A1;more than 52
 11
0.0000000000000001
 21
1.0
 31
0.0
 73
     1
 44
1.0
  0
INSERT
  5
5CA7
330
547C
100
AcDbEntity
  8
30
  6
Continuous
 62
     0
370
    -2
100
AcDbBlockReference
  2
_OPEN
 10
217.4642739999999
 20
-224.0000079999999
 30
0.0
 41
2.0
 42
2.0
 43
2.0
 50
90.0
  0
INSERT
  5
5CA8
330
547C
100
AcDbEntity
  8
30
  6
Continuous
 62
     0
370
    -2
100
AcDbBlockReference
  2
_OPEN
 10
217.4642739999999
 20
-275.999994
 30
0.0
 41
2.0
 42
2.0
 43
2.0
 50
270.0
  0
POINT
  5
5CA9
330
547C
100
AcDbEntity
  8
DEFPOINTS
  6
Continuous
 62
     0
100
AcDbPoint
 10
193.087272
 20
-224.0000079999999
 30
0.0
  0
POINT
  5
5CAA
330
547C
100
AcDbEntity
  8
DEFPOINTS
  6
Continuous
 62
     0
100
AcDbPoint
 10
193.087272
 20
-275.999994
 30
0.0
  0
POINT
  5
5CAB
330
547C
100
AcDbEntity
  8
DEFPOINTS
  6
Continuous
 62
     0
100
AcDbPoint
 10
217.4642739999999
 20
-275.999994
 30
0.0
  0
ENDBLK
  5
5487
330
547C
100
AcDbEntity
  8
0
100
AcDbBlockEnd
  0
BLOCK
  5
54CE
330
54C4
100
AcDbEntity
  8
0
100
AcDbBlockBegin
  2
*D17
 70
     1
 10
0.0
 20
0.0
 30
0.0
  3
*D17
  1

  0
LINE
  5
598A
330
54C4
100
AcDbEntity
  8
30
  6
Continuous
 62
     0
370
    -2
100
AcDbLine
 10
163.5481612062509
 20
48.19999999999999
 30
0.0
 11
163.5481612062509
 21
68.705577
 31
0.0
  0
LINE
  5
598B
330
54C4
100
AcDbEntity
  8
30
  6
Continuous
 62
     0
370
    -2
100
AcDbLine
 10
214.5481322062508
 20
44.00006200000001
 30
0.0
 11
214.5481322062508
 21
68.705577
 31
0.0
  0
LINE
  5
598C
330
54C4
100
AcDbEntity
  8
30
  6
Continuous
 62
     0
370
    -2
100
AcDbLine
 10
165.5481612062509
 20
68.20557700000001
 30
0.0
 11
212.5481322062508
 21
68.20557700000001
 31
0.0
  0
INSERT
  5
598D
330
54C4
100
AcDbEntity
  8
30
  6
Continuous
 62
     0
370
    -2
100
AcDbBlockReference
  2
_OPEN
 10
163.5481612062509
 20
68.20557700000001
 30
0.0
 41
2.0
 42
2.0
 43
2.0
 50
180.0
  0
INSERT
  5
598E
330
54C4
100
AcDbEntity
  8
30
  6
Continuous
 62
     0
370
    -2
100
AcDbBlockReference
  2
_OPEN
 10
214.5481322062508
 20
68.20557700000001
 30
0.0
 41
2.0
 42
2.0
 43
2.0
  0
MTEXT
  5
598F
330
54C4
100
AcDbEntity
  8
30
  6
Continuous
 62
     0
100
AcDbMText
 10
189.0481462062509
 20
71.205577
 30
0.0
 40
4.0
 41
0.0
 71
     5
 72
     1
  1
\A1;51
 73
     1
 44
1.0
  0
POINT
  5
5990
330
54C4
100
AcDbEntity
  8
DEFPOINTS
  6
Continuous
 62
     0
100
AcDbPoint
 10
163.5481612062509
 20
47.19999999999998
 30
0.0
  0
POINT
  5
5991
330
54C4
100
AcDbEntity
  8
DEFPOINTS
  6
Continuous
 62
     0
100
AcDbPoint
 10
214.5481322062508
 20
43.00006200000001
 30
0.0
  0
POINT
  5
5992
330
54C4
100
AcDbEntity
  8
DEFPOINTS
  6
Continuous
 62
     0
100
AcDbPoint
 10
214.5481322062508
 20
68.20557700000001
 30
0.0
  0
ENDBLK
  5
54CF
330
54C4
100
AcDbEntity
  8
0
100
AcDbBlockEnd
  0
BLOCK
  5
54DA
330
54D0
100
AcDbEntity
  8
0
100
AcDbBlockBegin
  2
*D18
 70
     1
 10
0.0
 20
0.0
 30
0.0
  3
*D18
  1

  0
LINE
  5
5965
330
54D0
100
AcDbEntity
  8
30
  6
Continuous
 62
     0
370
    -2
100
AcDbLine
 10
214.5481322062508
 20
-44.06257099999999
 30
0.0
 11
214.5481322062508
 21
-69.990521
 31
0.0
  0
LINE
  5
5966
330
54D0
100
AcDbEntity
  8
30
  6
Continuous
 62
     0
370
    -2
100
AcDbLine
 10
130.5481322062509
 20
8.500002999999992
 30
0.0
 11
130.5481322062509
 21
-69.990521
 31
0.0
  0
LINE
  5
5967
330
54D0
100
AcDbEntity
  8
30
  6
Continuous
 62
     0
370
    -2
100
AcDbLine
 10
212.5481322062508
 20
-69.490521
 30
0.0
 11
132.5481322062509
 21
-69.490521
 31
0.0
  0
INSERT
  5
5968
330
54D0
100
AcDbEntity
  8
30
  6
Continuous
 62
     0
370
    -2
100
AcDbBlockReference
  2
_OPEN
 10
214.5481322062508
 20
-69.490521
 30
0.0
 41
2.0
 42
2.0
 43
2.0
  0
INSERT
  5
5969
330
54D0
100
AcDbEntity
  8
30
  6
Continuous
 62
     0
370
    -2
100
AcDbBlockReference
  2
_OPEN
 10
130.5481322062509
 20
-69.490521
 30
0.0
 41
2.0
 42
2.0
 43
2.0
 50
180.0
  0
MTEXT
  5
596A
330
54D0
100
AcDbEntity
  8
30
  6
Continuous
 62
     0
100
AcDbMText
 10
172.5481322062509
 20
-66.490521
 30
0.0
 40
4.0
 41
0.0
 71
     5
 72
     1
  1
\A1;84
 73
     1
 44
1.0
  0
POINT
  5
596B
330
54D0
100
AcDbEntity
  8
DEFPOINTS
  6
Continuous
 62
     0
100
AcDbPoint
 10
214.5481322062508
 20
-43.06257099999998
 30
0.0
  0
POINT
  5
596C
330
54D0
100
AcDbEntity
  8
DEFPOINTS
  6
Continuous
 62
     0
100
AcDbPoint
 10
130.5481322062509
 20
9.500002999999992
 30
0.0
  0
POINT
  5
596D
330
54D0
100
AcDbEntity
  8
DEFPOINTS
  6
Continuous
 62
     0
100
AcDbPoint
 10
130.5481322062509
 20
-69.490521
 30
0.0
  0
ENDBLK
  5
54DB
330
54D0
100
AcDbEntity
  8
0
100
AcDbBlockEnd
  0
BLOCK
  5
54E6
330
54DC
100
AcDbEntity
  8
0
100
AcDbBlockBegin
  2
*D19
 70
     1
 10
0.0
 20
0.0
 30
0.0
  3
*D19
  1

  0
LINE
  5
5993
330
54DC
100
AcDbEntity
  8
30
  6
Continuous
 62
     0
370
    -2
100
AcDbLine
 10
171.5477412062509
 20
46.89999999999997
 30
0.0
 11
171.5477412062509
 21
59.77054900000002
 31
0.0
  0
LINE
  5
5994
330
54DC
100
AcDbEntity
  8
30
  6
Continuous
 62
     0
370
    -2
100
AcDbLine
 10
214.5481322062508
 20
44.00006000000002
 30
0.0
 11
214.5481322062508
 21
59.77054900000002
 31
0.0
  0
LINE
  5
5995
330
54DC
100
AcDbEntity
  8
30
  6
Continuous
 62
     0
370
    -2
100
AcDbLine
 10
173.5477412062509
 20
59.27054900000001
 30
0.0
 11
212.5481322062508
 21
59.27054900000001
 31
0.0
  0
INSERT
  5
5996
330
54DC
100
AcDbEntity
  8
30
  6
Continuous
 62
     0
370
    -2
100
AcDbBlockReference
  2
_OPEN
 10
171.5477412062509
 20
59.27054900000001
 30
0.0
 41
2.0
 42
2.0
 43
2.0
 50
180.0
  0
INSERT
  5
5997
330
54DC
100
AcDbEntity
  8
30
  6
Continuous
 62
     0
370
    -2
100
AcDbBlockReference
  2
_OPEN
 10
214.5481322062508
 20
59.27054900000001
 30
0.0
 41
2.0
 42
2.0
 43
2.0
  0
MTEXT
  5
5998
330
54DC
100
AcDbEntity
  8
30
  6
Continuous
 62
     0
100
AcDbMText
 10
193.0479362062509
 20
62.27054900000002
 30
0.0
 40
4.0
 41
0.0
 71
     5
 72
     1
  1
\A1;43
 73
     1
 44
1.0
  0
POINT
  5
5999
330
54DC
100
AcDbEntity
  8
DEFPOINTS
  6
Continuous
 62
     0
100
AcDbPoint
 10
171.5477412062509
 20
45.89999999999998
 30
0.0
  0
POINT
  5
599A
330
54DC
100
AcDbEntity
  8
DEFPOINTS
  6
Continuous
 62
     0
100
AcDbPoint
 10
214.5481322062508
 20
43.00006000000002
 30
0.0
  0
POINT
  5
599B
330
54DC
100
AcDbEntity
  8
DEFPOINTS
  6
Continuous
 62
     0
100
AcDbPoint
 10
214.5481322062508
 20
59.27054900000001
 30
0.0
  0
ENDBLK
  5
54E7
330
54DC
100
AcDbEntity
  8
0
100
AcDbBlockEnd
  0
BLOCK
  5
54F2
330
54E8
100
AcDbEntity
  8
0
100
AcDbBlockBegin
  2
*D20
 70
     1
 10
0.0
 20
0.0
 30
0.0
  3
*D20
  1

  0
LINE
  5
5981
330
54E8
100
AcDbEntity
  8
30
  6
Continuous
 62
     0
370
    -2
100
AcDbLine
 10
214.5481322062508
 20
-44.00005400000003
 30
0.0
 11
214.5481322062508
 21
-61.81171800000004
 31
0.0
  0
LINE
  5
5982
330
54E8
100
AcDbEntity
  8
30
  6
Continuous
 62
     0
370
    -2
100
AcDbLine
 10
154.5481912062509
 20
-37.89997099999999
 30
0.0
 11
154.5481912062509
 21
-61.81171800000004
 31
0.0
  0
LINE
  5
5983
330
54E8
100
AcDbEntity
  8
30
  6
Continuous
 62
     0
370
    -2
100
AcDbLine
 10
212.5481322062508
 20
-61.31171800000004
 30
0.0
 11
156.5481912062509
 21
-61.31171800000004
 31
0.0
  0
INSERT
  5
5984
330
54E8
100
AcDbEntity
  8
30
  6
Continuous
 62
     0
370
    -2
100
AcDbBlockReference
  2
_OPEN
 10
214.5481322062508
 20
-61.31171800000004
 30
0.0
 41
2.0
 42
2.0
 43
2.0
  0
INSERT
  5
5985
330
54E8
100
AcDbEntity
  8
30
  6
Continuous
 62
     0
370
    -2
100
AcDbBlockReference
  2
_OPEN
 10
154.5481912062509
 20
-61.31171800000004
 30
0.0
 41
2.0
 42
2.0
 43
2.0
 50
180.0
  0
MTEXT
  5
5986
330
54E8
100
AcDbEntity
  8
30
  6
Continuous
 62
     0
100
AcDbMText
 10
184.5481622062509
 20
-58.31171800000004
 30
0.0
 40
4.0
 41
0.0
 71
     5
 72
     1
  1
\A1;60
 73
     1
 44
1.0
  0
POINT
  5
5987
330
54E8
100
AcDbEntity
  8
DEFPOINTS
  6
Continuous
 62
     0
100
AcDbPoint
 10
214.5481322062508
 20
-43.00005400000003
 30
0.0
  0
POINT
  5
5988
330
54E8
100
AcDbEntity
  8
DEFPOINTS
  6
Continuous
 62
     0
100
AcDbPoint
 10
154.5481912062509
 20
-36.89997099999999
 30
0.0
  0
POINT
  5
5989
330
54E8
100
AcDbEntity
  8
DEFPOINTS
  6
Continuous
 62
     0
100
AcDbPoint
 10
154.5481912062509
 20
-61.31171800000004
 30
0.0
  0
ENDBLK
  5
54F3
330
54E8
100
AcDbEntity
  8
0
100
AcDbBlockEnd
  0
BLOCK
  5
54FE
330
54F4
100
AcDbEntity
  8
0
100
AcDbBlockBegin
  2
*D21
 70
     1
 10
0.0
 20
0.0
 30
0.0
  3
*D21
  1

  0
LINE
  5
599C
330
54F4
100
AcDbEntity
  8
30
  6
Continuous
 62
     0
370
    -2
100
AcDbLine
 10
154.0481302062509
 20
-38.0
 30
0.0
 11
122.3094862062509
 21
-37.99999999999999
 31
0.0
  0
LINE
  5
599D
330
54F4
100
AcDbEntity
  8
30
  6
Continuous
 62
     0
370
    -2
100
AcDbLine
 10
154.0481302062509
 20
38.0
 30
0.0
 11
122.3094862062509
 21
38.0
 31
0.0
  0
LINE
  5
599E
330
54F4
100
AcDbEntity
  8
30
  6
Continuous
 62
     0
370
    -2
100
AcDbLine
 10
122.8094862062509
 20
-35.99999999999999
 30
0.0
 11
122.8094862062509
 21
36.0
 31
0.0
  0
INSERT
  5
599F
330
54F4
100
AcDbEntity
  8
30
  6
Continuous
 62
     0
370
    -2
100
AcDbBlockReference
  2
_OPEN
 10
122.8094862062509
 20
-37.99999999999999
 30
0.0
 41
2.0
 42
2.0
 43
2.0
 50
270.0
  0
INSERT
  5
59A0
330
54F4
100
AcDbEntity
  8
30
  6
Continuous
 62
     0
370
    -2
100
AcDbBlockReference
  2
_OPEN
 10
122.8094862062509
 20
38.0
 30
0.0
 41
2.0
 42
2.0
 43
2.0
 50
90.0
  0
MTEXT
  5
59A1
330
54F4
100
AcDbEntity
  8
30
  6
Continuous
 62
     0
100
AcDbMText
 10
119.8094862062509
 20
0.0000000000000004
 30
0.0
 40
4.0
 41
0.0
 71
     5
 72
     1
  1
\A1;76
 11
0.0000000000000001
 21
1.0
 31
0.0
 73
     1
 44
1.0
  0
POINT
  5
59A2
330
54F4
100
AcDbEntity
  8
DEFPOINTS
  6
Continuous
 62
     0
100
AcDbPoint
 10
155.0481302062509
 20
-38.0
 30
0.0
  0
POINT
  5
59A3
330
54F4
100
AcDbEntity
  8
DEFPOINTS
  6
Continuous
 62
     0
100
AcDbPoint
 10
155.0481302062509
 20
38.0
 30
0.0
  0
POINT
  5
59A4
330
54F4
100
AcDbEntity
  8
DEFPOINTS
  6
Continuous
 62
     0
100
AcDbPoint
 10
122.8094862062509
 20
38.0
 30
0.0
  0
ENDBLK
  5
54FF
330
54F4
100
AcDbEntity
  8
0
100
AcDbBlockEnd
  0
BLOCK
  5
550C
330
5500
100
AcDbEntity
  8
0
100
AcDbBlockBegin
  2
*D22
 70
     1
 10
0.0
 20
0.0
 30
0.0
  3
*D22
  1

  0
LINE
  5
596E
330
5500
100
AcDbEntity
  8
30
  6
Continuous
 62
     0
370
    -2
100
AcDbLine
 10
146.5481322062509
 20
-26.0
 30
0.0
 11
146.5481322062509
 21
-61.81171800000004
 31
0.0
  0
LINE
  5
596F
330
5500
100
AcDbEntity
  8
30
  6
Continuous
 62
     0
370
    -2
100
AcDbLine
 10
142.5481322062509
 20
-25.0
 30
0.0
 11
142.5481322062509
 21
-61.81171800000004
 31
0.0
  0
LINE
  5
5970
330
5500
100
AcDbEntity
  8
30
  6
Continuous
 62
     0
370
    -2
100
AcDbLine
 10
148.5481322062509
 20
-61.31171800000004
 30
0.0
 11
150.5481322062509
 21
-61.31171800000004
 31
0.0
  0
LINE
  5
5971
330
5500
100
AcDbEntity
  8
30
  6
Continuous
 62
     0
370
    -2
100
AcDbLine
 10
140.5481322062509
 20
-61.31171800000004
 30
0.0
 11
131.0601267195842
 21
-61.31171800000004
 31
0.0
  0
INSERT
  5
5972
330
5500
100
AcDbEntity
  8
30
  6
Continuous
 62
     0
370
    -2
100
AcDbBlockReference
  2
_OPEN
 10
146.5481322062509
 20
-61.31171800000004
 30
0.0
 41
2.0
 42
2.0
 43
2.0
 50
180.0
  0
INSERT
  5
5973
330
5500
100
AcDbEntity
  8
30
  6
Continuous
 62
     0
370
    -2
100
AcDbBlockReference
  2
_OPEN
 10
142.5481322062509
 20
-61.31171800000004
 30
0.0
 41
2.0
 42
2.0
 43
2.0
  0
MTEXT
  5
5974
330
5500
100
AcDbEntity
  8
30
  6
Continuous
 62
     0
100
AcDbMText
 10
133.3934600529175
 20
-58.31171800000004
 30
0.0
 40
4.0
 41
0.0
 71
     5
 72
     1
  1
\A1;4
 73
     1
 44
1.0
  0
POINT
  5
5975
330
5500
100
AcDbEntity
  8
DEFPOINTS
  6
Continuous
 62
     0
100
AcDbPoint
 10
146.5481322062509
 20
-25.0
 30
0.0
  0
POINT
  5
5976
330
5500
100
AcDbEntity
  8
DEFPOINTS
  6
Continuous
 62
     0
100
AcDbPoint
 10
142.5481322062509
 20
-24.0
 30
0.0
  0
POINT
  5
5977
330
5500
100
AcDbEntity
  8
DEFPOINTS
  6
Continuous
 62
     0
100
AcDbPoint
 10
142.5481322062509
 20
-61.31171800000004
 30
0.0
  0
ENDBLK
  5
550D
330
5500
100
AcDbEntity
  8
0
100
AcDbBlockEnd
  0
BLOCK
  5
5518
330
550E
100
AcDbEntity
  8
0
100
AcDbBlockBegin
  2
*D23
 70
     1
 10
0.0
 20
0.0
 30
0.0
  3
*D23
  1

  0
LINE
  5
5978
330
550E
100
AcDbEntity
  8
30
  6
Continuous
 62
     0
370
    -2
100
AcDbLine
 10
154.5481322062509
 20
-38.5
 30
0.0
 11
154.5481322062509
 21
-61.81171800000004
 31
0.0
  0
LINE
  5
5979
330
550E
100
AcDbEntity
  8
30
  6
Continuous
 62
     0
370
    -2
100
AcDbLine
 10
146.5481322062509
 20
-26.0
 30
0.0
 11
146.5481322062509
 21
-61.81171800000004
 31
0.0
  0
LINE
  5
597A
330
550E
100
AcDbEntity
  8
30
  6
Continuous
 62
     0
370
    -2
100
AcDbLine
 10
152.5481322062509
 20
-61.31171800000004
 30
0.0
 11
148.5481322062509
 21
-61.31171800000004
 31
0.0
  0
INSERT
  5
597B
330
550E
100
AcDbEntity
  8
30
  6
Continuous
 62
     0
370
    -2
100
AcDbBlockReference
  2
_OPEN
 10
154.5481322062509
 20
-61.31171800000004
 30
0.0
 41
2.0
 42
2.0
 43
2.0
  0
INSERT
  5
597C
330
550E
100
AcDbEntity
  8
30
  6
Continuous
 62
     0
370
    -2
100
AcDbBlockReference
  2
_OPEN
 10
146.5481322062509
 20
-61.31171800000004
 30
0.0
 41
2.0
 42
2.0
 43
2.0
 50
180.0
  0
MTEXT
  5
597D
330
550E
100
AcDbEntity
  8
30
  6
Continuous
 62
     0
100
AcDbMText
 10
150.5481322062509
 20
-58.31171800000004
 30
0.0
 40
4.0
 41
0.0
 71
     5
 72
     1
  1
\A1;8
 73
     1
 44
1.0
  0
POINT
  5
597E
330
550E
100
AcDbEntity
  8
DEFPOINTS
  6
Continuous
 62
     0
100
AcDbPoint
 10
154.5481322062509
 20
-37.5
 30
0.0
  0
POINT
  5
597F
330
550E
100
AcDbEntity
  8
DEFPOINTS
  6
Continuous
 62
     0
100
AcDbPoint
 10
146.5481322062509
 20
-25.0
 30
0.0
  0
POINT
  5
5980
330
550E
100
AcDbEntity
  8
DEFPOINTS
  6
Continuous
 62
     0
100
AcDbPoint
 10
146.5481322062509
 20
-61.31171800000004
 30
0.0
  0
ENDBLK
  5
5519
330
550E
100
AcDbEntity
  8
0
100
AcDbBlockEnd
  0
BLOCK
  5
59B9
330
59B0
100
AcDbEntity
  8
0
100
AcDbBlockBegin
  2
*D29
 70
     1
 10
0.0
 20
0.0
 30
0.0
  3
*D29
  1

  0
LINE
  5
59D3
330
59B0
100
AcDbEntity
  8
30
  6
Continuous
 62
     0
370
    -2
100
AcDbLine
 10
210.4283863673141
 20
193.842494835158
 30
0.0
 11
197.428386367314
 21
193.842494835158
 31
0.0
  0
LINE
  5
59D4
330
59B0
100
AcDbEntity
  8
30
  6
Continuous
 62
     0
370
    -2
100
AcDbLine
 10
197.428386367314
 20
193.842494835158
 30
0.0
 11
185.2389291929838
 21
169.0766580769549
 31
0.0
  0
MTEXT
  5
59D5
330
59B0
100
AcDbEntity
  8
30
  6
Continuous
 62
     0
100
AcDbMText
 10
204.4283863673141
 20
196.842494835158
 30
0.0
 40
4.0
 41
0.0
 71
     5
 72
     1
  1
\A1;\U+22055.5
 73
     1
 44
1.0
  0
INSERT
  5
59D6
330
59B0
100
AcDbEntity
  8
30
  6
Continuous
 62
     0
370
    -2
100
AcDbBlockReference
  2
_OPEN
 10
184.3557334709516
 20
167.2822318966443
 30
0.0
 41
2.0
 42
2.0
 43
2.0
 50
243.7941245285318
  0
LINE
  5
59D7
330
59B0
100
AcDbEntity
  8
30
  6
Continuous
 62
     0
370
    -2
100
AcDbLine
 10
183.0513394457496
 20
164.8148960868408
 30
0.0
 11
183.2313394457497
 21
164.8148960868409
 31
0.0
  0
LINE
  5
59D8
330
59B0
100
AcDbEntity
  8
30
  6
Continuous
 62
     0
370
    -2
100
AcDbLine
 10
183.1413394457496
 20
164.7248960868408
 30
0.0
 11
183.1413394457497
 21
164.9048960868409
 31
0.0
  0
POINT
  5
59D9
330
59B0
100
AcDbEntity
  8
DEFPOINTS
  6
Continuous
 62
     0
100
AcDbPoint
 10
184.3557334709516
 20
167.2822318966443
 30
0.0
  0
POINT
  5
59DA
330
59B0
100
AcDbEntity
  8
DEFPOINTS
  6
Continuous
 62
     0
100
AcDbPoint
 10
181.9269454205476
 20
162.3475602770374
 30
0.0
  0
ENDBLK
  5
59BA
330
59B0
100
AcDbEntity
  8
0
100
AcDbBlockEnd
  0
BLOCK
  5
59C5
330
59BB
100
AcDbEntity
  8
0
100
AcDbBlockBegin
  2
*D30
 70
     1
 10
0.0
 20
0.0
 30
0.0
  3
*D30
  1

  0
LINE
  5
5A70
330
59BB
100
AcDbEntity
  8
30
  6
Continuous
 62
     0
370
    -2
100
AcDbLine
 10
190.6413399457498
 20
156.814895586841
 30
0.0
 11
190.6413399457498
 21
148.721807886383
 31
0.0
  0
LINE
  5
5A71
330
59BB
100
AcDbEntity
  8
30
  6
Continuous
 62
     0
370
    -2
100
AcDbLine
 10
175.6413399457498
 20
156.814895586841
 30
0.0
 11
175.6413399457498
 21
148.721807886383
 31
0.0
  0
LINE
  5
5A72
330
59BB
100
AcDbEntity
  8
30
  6
Continuous
 62
     0
370
    -2
100
AcDbLine
 10
188.6413399457498
 20
149.221807886383
 30
0.0
 11
177.6413399457498
 21
149.221807886383
 31
0.0
  0
MTEXT
  5
5A73
330
59BB
100
AcDbEntity
  8
30
  6
Continuous
 62
     0
100
AcDbMText
 10
183.1413399457498
 20
144.8862884303096
 30
0.0
 40
4.0
 41
0.0
 71
     5
 72
     1
  1
\A1;max15
 73
     1
 44
1.0
  0
INSERT
  5
5A74
330
59BB
100
AcDbEntity
  8
30
  6
Continuous
 62
     0
370
    -2
100
AcDbBlockReference
  2
_OPEN
 10
190.6413399457498
 20
149.221807886383
 30
0.0
 41
2.0
 42
2.0
 43
2.0
  0
INSERT
  5
5A75
330
59BB
100
AcDbEntity
  8
30
  6
Continuous
 62
     0
370
    -2
100
AcDbBlockReference
  2
_OPEN
 10
175.6413399457498
 20
149.221807886383
 30
0.0
 41
2.0
 42
2.0
 43
2.0
 50
180.0
  0
POINT
  5
5A76
330
59BB
100
AcDbEntity
  8
DEFPOINTS
  6
Continuous
 62
     0
100
AcDbPoint
 10
190.6413399457498
 20
157.814895586841
 30
0.0
  0
POINT
  5
5A77
330
59BB
100
AcDbEntity
  8
DEFPOINTS
  6
Continuous
 62
     0
100
AcDbPoint
 10
175.6413399457498
 20
157.814895586841
 30
0.0
  0
POINT
  5
5A78
330
59BB
100
AcDbEntity
  8
DEFPOINTS
  6
Continuous
 62
     0
100
AcDbPoint
 10
175.6413399457498
 20
149.221807886383
 30
0.0
  0
ENDBLK
  5
59C6
330
59BB
100
AcDbEntity
  8
0
100
AcDbBlockEnd
  0
BLOCK
  5
59D1
330
59C7
100
AcDbEntity
  8
0
100
AcDbBlockBegin
  2
*D31
 70
     1
 10
0.0
 20
0.0
 30
0.0
  3
*D31
  1

  0
LINE
  5
59E4
330
59C7
100
AcDbEntity
  8
30
  6
Continuous
 62
     0
370
    -2
100
AcDbLine
 10
191.8913399457498
 20
164.814896586841
 30
0.0
 11
200.2491769457499
 21
164.814896586841
 31
0.0
  0
LINE
  5
59E5
330
59C7
100
AcDbEntity
  8
30
  6
Continuous
 62
     0
370
    -2
100
AcDbLine
 10
191.6413399457498
 20
157.814895586841
 30
0.0
 11
200.2491769457499
 21
157.814895586841
 31
0.0
  0
LINE
  5
59E6
330
59C7
100
AcDbEntity
  8
30
  6
Continuous
 62
     0
370
    -2
100
AcDbLine
 10
199.7491769457498
 20
162.814896586841
 30
0.0
 11
199.7491769457498
 21
159.814895586841
 31
0.0
  0
INSERT
  5
59E7
330
59C7
100
AcDbEntity
  8
30
  6
Continuous
 62
     0
370
    -2
100
AcDbBlockReference
  2
_OPEN
 10
199.7491769457498
 20
164.814896586841
 30
0.0
 41
2.0
 42
2.0
 43
2.0
 50
90.0
  0
INSERT
  5
59E8
330
59C7
100
AcDbEntity
  8
30
  6
Continuous
 62
     0
370
    -2
100
AcDbBlockReference
  2
_OPEN
 10
199.7491769457498
 20
157.814895586841
 30
0.0
 41
2.0
 42
2.0
 43
2.0
 50
270.0
  0
MTEXT
  5
59E9
330
59C7
100
AcDbEntity
  8
30
  6
Continuous
 62
     0
100
AcDbMText
 10
196.7491769457498
 20
161.3148960868409
 30
0.0
 40
4.0
 41
0.0
 71
     5
 72
     1
  1
\A1;7
 11
0.0000000000000001
 21
1.0
 31
0.0
 73
     1
 44
1.0
  0
POINT
  5
59EA
330
59C7
100
AcDbEntity
  8
DEFPOINTS
  6
Continuous
 62
     0
100
AcDbPoint
 10
190.8913399457498
 20
164.814896586841
 30
0.0
  0
POINT
  5
59EB
330
59C7
100
AcDbEntity
  8
DEFPOINTS
  6
Continuous
 62
     0
100
AcDbPoint
 10
190.6413399457498
 20
157.814895586841
 30
0.0
  0
POINT
  5
59EC
330
59C7
100
AcDbEntity
  8
DEFPOINTS
  6
Continuous
 62
     0
100
AcDbPoint
 10
199.7491769457498
 20
157.814895586841
 30
0.0
  0
ENDBLK
  5
59D2
330
59C7
100
AcDbEntity
  8
0
100
AcDbBlockEnd
  0
BLOCK
  5
5B54
330
5B4A
100
AcDbEntity
  8
0
100
AcDbBlockBegin
  2
*D38
 70
     1
 10
0.0
 20
0.0
 30
0.0
  3
*D38
  1

  0
LINE
  5
5B88
330
5B4A
100
AcDbEntity
  8
30
  6
Continuous
 62
     0
370
    -2
100
AcDbLine
 10
-38.50004299999998
 20
222.0
 30
0.0
 11
-54.33820679239232
 21
222.0
 31
0.0
  0
LINE
  5
5B89
330
5B4A
100
AcDbEntity
  8
30
  6
Continuous
 62
     0
370
    -2
100
AcDbLine
 10
-7.050003499999981
 20
138.0
 30
0.0
 11
-54.33820679239235
 21
138.0
 31
0.0
  0
LINE
  5
5B8A
330
5B4A
100
AcDbEntity
  8
30
  6
Continuous
 62
     0
370
    -2
100
AcDbLine
 10
-53.83820679239232
 20
220.0
 30
0.0
 11
-53.83820679239235
 21
140.0
 31
0.0
  0
INSERT
  5
5B8B
330
5B4A
100
AcDbEntity
  8
30
  6
Continuous
 62
     0
370
    -2
100
AcDbBlockReference
  2
_OPEN
 10
-53.83820679239232
 20
222.0
 30
0.0
 41
2.0
 42
2.0
 43
2.0
 50
90.0
  0
INSERT
  5
5B8C
330
5B4A
100
AcDbEntity
  8
30
  6
Continuous
 62
     0
370
    -2
100
AcDbBlockReference
  2
_OPEN
 10
-53.83820679239235
 20
138.0
 30
0.0
 41
2.0
 42
2.0
 43
2.0
 50
270.0
  0
MTEXT
  5
5B8D
330
5B4A
100
AcDbEntity
  8
30
  6
Continuous
 62
     0
100
AcDbMText
 10
-56.83820679239236
 20
180.0
 30
0.0
 40
4.0
 41
0.0
 71
     5
 72
     1
  1
\A1;84
 11
0.0000000000000001
 21
1.0
 31
0.0
 73
     1
 44
1.0
  0
POINT
  5
5B8E
330
5B4A
100
AcDbEntity
  8
DEFPOINTS
  6
Continuous
 62
     0
100
AcDbPoint
 10
-37.50004299999998
 20
222.0
 30
0.0
  0
POINT
  5
5B8F
330
5B4A
100
AcDbEntity
  8
DEFPOINTS
  6
Continuous
 62
     0
100
AcDbPoint
 10
-6.050003499999981
 20
138.0
 30
0.0
  0
POINT
  5
5B90
330
5B4A
100
AcDbEntity
  8
DEFPOINTS
  6
Continuous
 62
     0
100
AcDbPoint
 10
-53.83820679239235
 20
138.0
 30
0.0
  0
ENDBLK
  5
5B55
330
5B4A
100
AcDbEntity
  8
0
100
AcDbBlockEnd
  0
BLOCK
  5
5B60
330
5B56
100
AcDbEntity
  8
0
100
AcDbBlockBegin
  2
*D39
 70
     1
 10
0.0
 20
0.0
 30
0.0
  3
*D39
  1

  0
LINE
  5
5B91
330
5B56
100
AcDbEntity
  8
30
  6
Continuous
 62
     0
370
    -2
100
AcDbLine
 10
-43.50009700000007
 20
221.9999999999999
 30
0.0
 11
-46.15940379239231
 21
221.9999999999999
 31
0.0
  0
LINE
  5
5B92
330
5B56
100
AcDbEntity
  8
30
  6
Continuous
 62
     0
370
    -2
100
AcDbLine
 10
-37.40001400000003
 20
162.0000589999999
 30
0.0
 11
-46.15940379239233
 21
162.0000589999999
 31
0.0
  0
LINE
  5
5B93
330
5B56
100
AcDbEntity
  8
30
  6
Continuous
 62
     0
370
    -2
100
AcDbLine
 10
-45.65940379239231
 20
219.9999999999999
 30
0.0
 11
-45.65940379239232
 21
164.0000589999999
 31
0.0
  0
INSERT
  5
5B94
330
5B56
100
AcDbEntity
  8
30
  6
Continuous
 62
     0
370
    -2
100
AcDbBlockReference
  2
_OPEN
 10
-45.65940379239231
 20
221.9999999999999
 30
0.0
 41
2.0
 42
2.0
 43
2.0
 50
90.0
  0
INSERT
  5
5B95
330
5B56
100
AcDbEntity
  8
30
  6
Continuous
 62
     0
370
    -2
100
AcDbBlockReference
  2
_OPEN
 10
-45.65940379239232
 20
162.0000589999999
 30
0.0
 41
2.0
 42
2.0
 43
2.0
 50
270.0
  0
MTEXT
  5
5B96
330
5B56
100
AcDbEntity
  8
30
  6
Continuous
 62
     0
100
AcDbMText
 10
-48.65940379239234
 20
192.00003
 30
0.0
 40
4.0
 41
0.0
 71
     5
 72
     1
  1
\A1;60
 11
0.0000000000000001
 21
1.0
 31
0.0
 73
     1
 44
1.0
  0
POINT
  5
5B97
330
5B56
100
AcDbEntity
  8
DEFPOINTS
  6
Continuous
 62
     0
100
AcDbPoint
 10
-42.50009700000007
 20
221.9999999999999
 30
0.0
  0
POINT
  5
5B98
330
5B56
100
AcDbEntity
  8
DEFPOINTS
  6
Continuous
 62
     0
100
AcDbPoint
 10
-36.40001400000003
 20
162.0000589999999
 30
0.0
  0
POINT
  5
5B99
330
5B56
100
AcDbEntity
  8
DEFPOINTS
  6
Continuous
 62
     0
100
AcDbPoint
 10
-45.65940379239232
 20
162.0000589999999
 30
0.0
  0
ENDBLK
  5
5B61
330
5B56
100
AcDbEntity
  8
0
100
AcDbBlockEnd
  0
BLOCK
  5
5B6C
330
5B62
100
AcDbEntity
  8
0
100
AcDbBlockBegin
  2
*D40
 70
     1
 10
0.0
 20
0.0
 30
0.0
  3
*D40
  1

  0
LINE
  5
5B9A
330
5B62
100
AcDbEntity
  8
30
  6
Continuous
 62
     0
370
    -2
100
AcDbLine
 10
-38.00004299999998
 20
161.9999999999999
 30
0.0
 11
-46.15940379239232
 21
161.9999999999999
 31
0.0
  0
LINE
  5
5B9B
330
5B62
100
AcDbEntity
  8
30
  6
Continuous
 62
     0
370
    -2
100
AcDbLine
 10
-38.38185199999996
 20
154.0
 30
0.0
 11
-46.15940379239232
 21
154.0
 31
0.0
  0
LINE
  5
5B9C
330
5B62
100
AcDbEntity
  8
30
  6
Continuous
 62
     0
370
    -2
100
AcDbLine
 10
-45.65940379239232
 20
159.9999999999999
 30
0.0
 11
-45.65940379239232
 21
156.0
 31
0.0
  0
INSERT
  5
5B9D
330
5B62
100
AcDbEntity
  8
30
  6
Continuous
 62
     0
370
    -2
100
AcDbBlockReference
  2
_OPEN
 10
-45.65940379239232
 20
161.9999999999999
 30
0.0
 41
2.0
 42
2.0
 43
2.0
 50
90.0
  0
INSERT
  5
5B9E
330
5B62
100
AcDbEntity
  8
30
  6
Continuous
 62
     0
370
    -2
100
AcDbBlockReference
  2
_OPEN
 10
-45.65940379239232
 20
154.0
 30
0.0
 41
2.0
 42
2.0
 43
2.0
 50
270.0
  0
MTEXT
  5
5B9F
330
5B62
100
AcDbEntity
  8
30
  6
Continuous
 62
     0
100
AcDbMText
 10
-48.65940379239234
 20
158.0
 30
0.0
 40
4.0
 41
0.0
 71
     5
 72
     1
  1
\A1;8
 11
0.0000000000000001
 21
1.0
 31
0.0
 73
     1
 44
1.0
  0
POINT
  5
5BA0
330
5B62
100
AcDbEntity
  8
DEFPOINTS
  6
Continuous
 62
     0
100
AcDbPoint
 10
-37.00004299999998
 20
161.9999999999999
 30
0.0
  0
POINT
  5
5BA1
330
5B62
100
AcDbEntity
  8
DEFPOINTS
  6
Continuous
 62
     0
100
AcDbPoint
 10
-37.38185199999996
 20
154.0
 30
0.0
  0
POINT
  5
5BA2
330
5B62
100
AcDbEntity
  8
DEFPOINTS
  6
Continuous
 62
     0
100
AcDbPoint
 10
-45.65940379239232
 20
154.0
 30
0.0
  0
ENDBLK
  5
5B6D
330
5B62
100
AcDbEntity
  8
0
100
AcDbBlockEnd
  0
BLOCK
  5
5B7A
330
5B6E
100
AcDbEntity
  8
0
100
AcDbBlockBegin
  2
*D41
 70
     1
 10
0.0
 20
0.0
 30
0.0
  3
*D41
  1

  0
LINE
  5
5BA3
330
5B6E
100
AcDbEntity
  8
30
  6
Continuous
 62
     0
370
    -2
100
AcDbLine
 10
-38.38185199999996
 20
154.0
 30
0.0
 11
-46.15940379239247
 21
154.0
 31
0.0
  0
LINE
  5
5BA4
330
5B6E
100
AcDbEntity
  8
30
  6
Continuous
 62
     0
370
    -2
100
AcDbLine
 10
-37.38185199999996
 20
150.0
 30
0.0
 11
-46.15940379239247
 21
150.0
 31
0.0
  0
LINE
  5
5BA5
330
5B6E
100
AcDbEntity
  8
30
  6
Continuous
 62
     0
370
    -2
100
AcDbLine
 10
-45.65940379239246
 20
156.0
 30
0.0
 11
-45.65940379239246
 21
158.0
 31
0.0
  0
LINE
  5
5BA6
330
5B6E
100
AcDbEntity
  8
30
  6
Continuous
 62
     0
370
    -2
100
AcDbLine
 10
-45.65940379239246
 20
148.0
 30
0.0
 11
-45.65940379239247
 21
140.8453278466667
 31
0.0
  0
LINE
  5
5BA7
330
5B6E
100
AcDbEntity
  8
30
  6
Continuous
 62
     0
370
    -2
100
AcDbLine
 10
-45.65940379239247
 20
140.8453278466667
 30
0.0
 11
-49.32607045905914
 21
140.8453278466667
 31
0.0
  0
INSERT
  5
5BA8
330
5B6E
100
AcDbEntity
  8
30
  6
Continuous
 62
     0
370
    -2
100
AcDbBlockReference
  2
_OPEN
 10
-45.65940379239246
 20
154.0
 30
0.0
 41
2.0
 42
2.0
 43
2.0
 50
270.0
  0
INSERT
  5
5BA9
330
5B6E
100
AcDbEntity
  8
30
  6
Continuous
 62
     0
370
    -2
100
AcDbBlockReference
  2
_OPEN
 10
-45.65940379239246
 20
150.0
 30
0.0
 41
2.0
 42
2.0
 43
2.0
 50
90.0
  0
MTEXT
  5
5BAA
330
5B6E
100
AcDbEntity
  8
30
  6
Continuous
 62
     0
100
AcDbMText
 10
-47.99273712572583
 20
143.8453278466667
 30
0.0
 40
4.0
 41
0.0
 71
     5
 72
     1
  1
\A1;4
 73
     1
 44
1.0
  0
POINT
  5
5BAB
330
5B6E
100
AcDbEntity
  8
DEFPOINTS
  6
Continuous
 62
     0
100
AcDbPoint
 10
-37.38185199999996
 20
154.0
 30
0.0
  0
POINT
  5
5BAC
330
5B6E
100
AcDbEntity
  8
DEFPOINTS
  6
Continuous
 62
     0
100
AcDbPoint
 10
-36.38185199999996
 20
150.0
 30
0.0
  0
POINT
  5
5BAD
330
5B6E
100
AcDbEntity
  8
DEFPOINTS
  6
Continuous
 62
     0
100
AcDbPoint
 10
-45.65940379239246
 20
150.0
 30
0.0
  0
ENDBLK
  5
5B7B
330
5B6E
100
AcDbEntity
  8
0
100
AcDbBlockEnd
  0
BLOCK
  5
5B86
330
5B7C
100
AcDbEntity
  8
0
100
AcDbBlockBegin
  2
*D42
 70
     1
 10
0.0
 20
0.0
 30
0.0
  3
*D42
  1

  0
LINE
  5
5BAE
330
5B7C
100
AcDbEntity
  8
30
  6
Continuous
 62
     0
370
    -2
100
AcDbLine
 10
38.481748
 20
222.0
 30
0.0
 11
46.29954771902377
 21
222.0
 31
0.0
  0
LINE
  5
5BAF
330
5B7C
100
AcDbEntity
  8
30
  6
Continuous
 62
     0
370
    -2
100
AcDbLine
 10
30.8818505
 20
198.0
 30
0.0
 11
46.29954771902376
 21
198.0
 31
0.0
  0
LINE
  5
5BB0
330
5B7C
100
AcDbEntity
  8
30
  6
Continuous
 62
     0
370
    -2
100
AcDbLine
 10
45.79954771902377
 20
220.0
 30
0.0
 11
45.79954771902376
 21
200.0
 31
0.0
  0
INSERT
  5
5BB1
330
5B7C
100
AcDbEntity
  8
30
  6
Continuous
 62
     0
370
    -2
100
AcDbBlockReference
  2
_OPEN
 10
45.79954771902377
 20
222.0
 30
0.0
 41
2.0
 42
2.0
 43
2.0
 50
90.0
  0
INSERT
  5
5BB2
330
5B7C
100
AcDbEntity
  8
30
  6
Continuous
 62
     0
370
    -2
100
AcDbBlockReference
  2
_OPEN
 10
45.79954771902376
 20
198.0
 30
0.0
 41
2.0
 42
2.0
 43
2.0
 50
270.0
  0
MTEXT
  5
5BB3
330
5B7C
100
AcDbEntity
  8
30
  6
Continuous
 62
     0
100
AcDbMText
 10
42.79954771902374
 20
210.0
 30
0.0
 40
4.0
 41
0.0
 71
     5
 72
     1
  1
\A1;24
 11
0.0000000000000001
 21
1.0
 31
0.0
 73
     1
 44
1.0
  0
POINT
  5
5BB4
330
5B7C
100
AcDbEntity
  8
DEFPOINTS
  6
Continuous
 62
     0
100
AcDbPoint
 10
37.481748
 20
222.0
 30
0.0
  0
POINT
  5
5BB5
330
5B7C
100
AcDbEntity
  8
DEFPOINTS
  6
Continuous
 62
     0
100
AcDbPoint
 10
29.8818505
 20
198.0
 30
0.0
  0
POINT
  5
5BB6
330
5B7C
100
AcDbEntity
  8
DEFPOINTS
  6
Continuous
 62
     0
100
AcDbPoint
 10
45.79954771902376
 20
198.0
 30
0.0
  0
ENDBLK
  5
5B87
330
5B7C
100
AcDbEntity
  8
0
100
AcDbBlockEnd
  0
ENDSEC
  0
SECTION
  2
ENTITIES
  0
LINE
  5
B4
330
1E
100
AcDbEntity
  8
16
100
AcDbLine
 10
0.0
 20
-68.697891
 30
0.0
 11
0.0
 21
71.25
 31
0.0
  0
LINE
  5
B5
330
1E
100
AcDbEntity
  8
16
100
AcDbLine
 10
48.424128
 20
0.0
 30
0.0
 11
-56.608689
 21
0.0
 31
0.0
  0
MTEXT
  5
BF3
330
1E
100
AcDbEntity
  8
24
  6
Continuous
100
AcDbMText
 10
142.118191
 20
177.5
 30
0.0
 40
3.0
 41
0.0
 71
     1
 72
     1
  1
\A1;
 73
     1
 44
1.0
  0
LINE
  5
1C9B
330
1E
100
AcDbEntity
  8
16
100
AcDbLine
 10
219.189032
 20
0.0
 30
0.0
 11
115.19371
 21
0.0
 31
0.0
  0
LINE
  5
2233
330
1E
100
AcDbEntity
  8
16
100
AcDbLine
 10
160.0
 20
-318.697891
 30
0.0
 11
160.0
 21
-178.75
 31
0.0
  0
LINE
  5
2234
330
1E
100
AcDbEntity
  8
16
100
AcDbLine
 10
208.424128
 20
-250.0
 30
0.0
 11
103.391311
 21
-250.0
 31
0.0
  0
LINE
  5
2260
330
1E
100
AcDbEntity
  8
16
100
AcDbLine
 10
48.424128
 20
-250.0
 30
0.0
 11
-56.608689
 21
-250.0
 31
0.0
  0
LINE
  5
2261
330
1E
100
AcDbEntity
  8
16
100
AcDbLine
 10
0.0
 20
-318.697891
 30
0.0
 11
0.0
 21
-178.75
 31
0.0
  0
DIMENSION
  5
51B5
330
1E
100
AcDbEntity
  8
30
  6
Continuous
100
AcDbDimension
  2
*D2
 10
125.08729
 20
-322.1961159999999
 30
0.0
 11
160.0
 21
-326.1961159999999
 31
0.0
 70
   160
  1
more than 74
 71
     5
 42
69.99998000000005
  3
STANDARD
100
AcDbAlignedDimension
 13
195.08727
 23
-273.999996
 33
0.0
 14
125.08729
 24
-273.999996
 34
0.0
100
AcDbRotatedDimension
1001
ACAD
1000
DSTYLE
1002
{
1070
   279
1070
     2
1002
}
  0
DIMENSION
  5
51B7
330
1E
100
AcDbEntity
  8
30
  6
Continuous
100
AcDbDimension
  2
*D3
 10
56.51275400000002
 20
-50.00000200000003
 30
0.0
 11
56.51275400000002
 21
-46.125002
 31
0.0
 70
   160
  1
<>
 71
     5
 42
8.000000000000028
  3
STANDARD
100
AcDbAlignedDimension
 13
31.07499699999999
 23
-42.00000199999999
 33
0.0
 14
34.20704800000004
 24
-50.00000200000002
 34
0.0
 50
90.0
100
AcDbRotatedDimension
  0
DIMENSION
  5
51B8
330
1E
100
AcDbEntity
  8
30
  6
Continuous
100
AcDbDimension
  2
*D4
 10
56.53764140603028
 20
39.99999999999999
 30
0.0
 11
56.53764140603027
 21
45.1237586496576
 31
0.0
 70
   160
  1
<>
 71
     5
 42
9.998759149657566
  3
STANDARD
100
AcDbAlignedDimension
 13
35.72476540603025
 23
49.99875914965756
 33
0.0
 14
31.07499699999999
 24
40.0
 34
0.0
 50
90.0
100
AcDbRotatedDimension
  0
DIMENSION
  5
51B9
330
1E
100
AcDbEntity
  8
30
  6
Continuous
100
AcDbDimension
  2
*D5
 10
56.51275400000002
 20
-0.0000000000000042
 30
0.0
 11
56.51275400000002
 21
20.0
 31
0.0
 70
   160
  1
<>
 71
     5
 42
40.0
  3
STANDARD
100
AcDbAlignedDimension
 13
31.07499699999999
 23
40.0
 33
0.0
 14
41.71915799999999
 24
0.0
 34
0.0
 50
90.0
100
AcDbRotatedDimension
  0
DIMENSION
  5
51BA
330
1E
100
AcDbEntity
  8
30
  6
Continuous
100
AcDbDimension
  2
*D6
 10
56.51275400000002
 20
-42.000002
 30
0.0
 11
56.51275400000002
 21
-21.0
 31
0.0
 70
   160
  1
<>
 71
     5
 42
42.00000199999999
  3
STANDARD
100
AcDbAlignedDimension
 13
41.71915799999999
 23
0.0
 33
0.0
 14
31.07499699999999
 24
-42.00000199999999
 34
0.0
 50
90.0
100
AcDbRotatedDimension
  0
DIMENSION
  5
51BC
330
1E
100
AcDbEntity
  8
30
  6
Continuous
100
AcDbDimension
  2
*D7
 10
65.72890340603025
 20
-50.00000200000003
 30
0.0
 11
65.72890340603027
 21
-0.0012408503424339
 31
0.0
 70
   160
  1
<>
 71
     5
 42
99.99876114965758
  3
STANDARD
100
AcDbAlignedDimension
 13
35.72476640603031
 23
49.99875914965756
 33
0.0
 14
33.49994099999998
 24
-50.00000200000002
 34
0.0
 50
90.0
100
AcDbRotatedDimension
  0
LINE
  5
51C0
330
1E
100
AcDbEntity
  8
11
  6
Continuous
100
AcDbLine
 10
127.08729
 20
-224.0000079999999
 30
0.0
 11
193.087272
 21
-224.0000079999999
 31
0.0
  0
LINE
  5
51C1
330
1E
100
AcDbEntity
  8
11
  6
Continuous
100
AcDbLine
 10
127.08729
 20
-275.999994
 30
0.0
 11
193.087272
 21
-275.999994
 31
0.0
  0
DIMENSION
  5
51C8
330
1E
100
AcDbEntity
  8
30
  6
Continuous
100
AcDbDimension
  2
*D8
 10
61.74569600000001
 20
-291.999988
 30
0.0
 11
61.74569600000006
 21
-250.0
 31
0.0
 70
   160
  1
<>
 71
     5
 42
83.99997600000006
  3
STANDARD
100
AcDbAlignedDimension
 13
-4.273677999999904
 23
-208.0000119999999
 33
0.0
 14
20.09229200000004
 24
-291.999988
 34
0.0
 50
90.0
100
AcDbRotatedDimension
  0
DIMENSION
  5
51CB
330
1E
100
AcDbEntity
  8
30
  6
Continuous
100
AcDbDimension
  2
*D9
 10
-12.49999799999989
 20
-322.1961159999999
 30
0.0
 11
-0.0000009999999451
 21
-322.1961159999999
 31
0.0
 70
   160
  1
<>
 71
     5
 42
24.9999939999999
  3
STANDARD
100
AcDbAlignedDimension
 13
12.49999600000001
 23
-302.4494199999999
 33
0.0
 14
-12.49999799999989
 24
-216.549718
 34
0.0
100
AcDbRotatedDimension
  0
LINE
  5
51D0
330
1E
100
AcDbEntity
  8
12
  6
CONTINOUS
100
AcDbLine
 10
8.273223000000029
 20
-291.999988
 30
0.0
 11
16.29614500000002
 21
-291.999988
 31
0.0
  0
CIRCLE
  5
51D1
330
1E
100
AcDbEntity
  8
12
  6
CONTINOUS
100
AcDbCircle
 10
12.49999600000001
 20
-291.999988
 30
0.0
 40
1.999999
  0
CIRCLE
  5
51D2
330
1E
100
AcDbEntity
  8
12
  6
CONTINOUS
100
AcDbCircle
 10
12.49999600000001
 20
-291.999988
 30
0.0
 40
1.25
  0
LINE
  5
51D3
330
1E
100
AcDbEntity
  8
12
  6
CONTINOUS
100
AcDbLine
 10
12.49999600000001
 20
-287.399991
 30
0.0
 11
12.49999600000001
 21
-297.2247039999999
 31
0.0
  0
MTEXT
  5
51D4
330
1E
100
AcDbEntity
  8
30
  6
Continuous
100
AcDbMText
 10
-26.61234583273869
 20
-181.3301486896762
 30
0.0
 40
3.535533
 41
0.0
 71
     4
 72
     1
  1
\W0.786;\A1;M4 OR %%C5
  7
MX_NOTE_STANDARD
 73
     1
 44
1.0
  0
LEADER
  5
51D5
330
1E
100
AcDbEntity
  8
30
  6
Continuous
100
AcDbLeader
  3
STANDARD
 74
     0
 76
     3
 10
-13.86880717739893
 20
-202.8113360354833
 30
0.0
 10
-30.30128414419186
 20
-184.2386880354833
 30
0.0
 10
-0.7577612614914529
 20
-184.2386880354833
 30
0.0
  0
LINE
  5
51D8
330
1E
100
AcDbEntity
  8
12
  6
CONTINOUS
100
AcDbLine
 10
-12.49999799999989
 20
-203.2000109999999
 30
0.0
 11
-12.49999799999989
 21
-212.2748639999999
 31
0.0
  0
LINE
  5
51DA
330
1E
100
AcDbEntity
  8
12
  6
CONTINOUS
100
AcDbLine
 10
-16.43772399999994
 20
-208.0000119999999
 30
0.0
 11
-8.386839999999949
 21
-208.0000119999999
 31
0.0
  0
CIRCLE
  5
51DB
330
1E
100
AcDbEntity
  8
12
  6
CONTINOUS
100
AcDbCircle
 10
-12.49999799999989
 20
-208.0000119999999
 30
0.0
 40
1.999999
  0
CIRCLE
  5
51DC
330
1E
100
AcDbEntity
  8
12
  6
CONTINOUS
100
AcDbCircle
 10
-12.49999799999989
 20
-208.0000119999999
 30
0.0
 40
1.25
  0
DIMENSION
  5
51E1
330
1E
100
AcDbEntity
  8
30
  6
Continuous
100
AcDbDimension
  2
*D10
 10
127.08729
 20
-226.000008
 30
0.0
 11
89.97189279127159
 21
-191.6593410417413
 31
0.0
 70
   164
  1
lsess than <>
 71
     5
 42
2.000000618898241
  3
STANDARD
100
AcDbRadialDimension
 15
126.3611077654224
 25
-224.1365000612518
 35
0.0
 40
0.0
  0
LINE
  5
51E2
330
1E
100
AcDbEntity
  8
11
  6
Continuous
100
AcDbLine
 10
125.08729
 20
-273.999994
 30
0.0
 11
125.08729
 21
-226.0000079999999
 31
0.0
  0
ARC
  5
51E3
330
1E
100
AcDbEntity
  8
11
  6
Continuous
100
AcDbCircle
 10
127.08729
 20
-273.999994
 30
0.0
 40
2.0
100
AcDbArc
 50
180.0010019999992
 51
270.0
  0
ARC
  5
51E4
330
1E
100
AcDbEntity
  8
11
  6
Continuous
100
AcDbCircle
 10
127.08729
 20
-226.0000079999999
 30
0.0
 40
2.0
100
AcDbArc
 50
90.0
 51
180.0000050000005
  0
MTEXT
  5
51E6
330
1E
100
AcDbEntity
  8
19
  6
Continuous
100
AcDbMText
 10
-41.15165444123777
 20
65.20090782807193
 30
0.0
 40
3.535533
 41
0.0
 71
     4
 72
     1
  1
%%C4.9
  7
MX_NOTE_STANDARD
 73
     1
 44
1.0
  0
LEADER
  5
51E7
330
1E
100
AcDbEntity
  8
19
  6
Continuous
100
AcDbLeader
  3
STANDARD
 71
     0
 74
     0
 76
     3
 10
-12.50001600000001
 20
41.99993999999998
 30
0.0
 10
-20.07567199999999
 20
62.38897499999996
 30
0.0
 10
-47.91631599999999
 20
62.38897499999996
 30
0.0
  0
DIMENSION
  5
51E8
330
1E
100
AcDbEntity
  8
30
  6
Continuous
100
AcDbDimension
  2
*D11
 10
-57.334087
 20
41.99993999999999
 30
0.0
 11
-57.33408700000001
 21
-0.005486000000019
 31
0.0
 70
   160
  1
<>
 71
     5
 42
84.01085399999999
  3
STANDARD
100
AcDbAlignedDimension
 13
8.600002000000017
 23
-42.01091400000001
 33
0.0
 14
-15.95001599999994
 24
41.99993999999998
 34
0.0
 50
90.0
100
AcDbRotatedDimension
  0
DIMENSION
  5
51E9
330
1E
100
AcDbEntity
  8
30
  6
Continuous
100
AcDbDimension
  2
*D12
 10
-48.23976599999997
 20
24.99997000000002
 30
0.0
 11
-48.23976599999998
 21
-0.0000319999999761
 31
0.0
 70
   160
  1
<>
 71
     5
 42
50.00000199999999
  3
STANDARD
100
AcDbAlignedDimension
 13
-35.00003099999998
 23
-25.00003199999997
 33
0.0
 14
-35.00003099999998
 24
24.99997000000002
 34
0.0
 50
90.0
100
AcDbRotatedDimension
  0
LINE
  5
51EB
330
1E
100
AcDbEntity
  8
10
  6
Continuous
100
AcDbLine
 10
7.499938999999983
 20
33.69999999999999
 30
0.0
 11
7.524826406030229
 21
49.99875914965756
 31
0.0
  0
LINE
  5
51EC
330
1E
100
AcDbEntity
  8
10
  6
Continuous
100
AcDbLine
 10
32.52482640603023
 20
49.99875914965756
 30
0.0
 11
32.49993899999998
 21
33.69999999999999
 31
0.0
  0
LINE
  5
51ED
330
1E
100
AcDbEntity
  8
10
  6
Continuous
100
AcDbLine
 10
-7.475174593969768
 20
49.99875914965756
 30
0.0
 11
-7.500062000000013
 21
33.69999999999999
 31
0.0
  0
LINE
  5
51EE
330
1E
100
AcDbEntity
  8
10
  6
Continuous
100
AcDbLine
 10
17.52482640603022
 20
49.99875914965756
 30
0.0
 11
17.49993899999998
 21
33.69999999999999
 31
0.0
  0
LINE
  5
51EF
330
1E
100
AcDbEntity
  8
10
  6
Continuous
100
AcDbLine
 10
-17.50006200000001
 20
33.69999999999999
 30
0.0
 11
-17.47517459396976
 21
49.99875914965756
 31
0.0
  0
LINE
  5
51F0
330
1E
100
AcDbEntity
  8
10
  6
Continuous
100
AcDbLine
 10
-32.47517459396977
 20
49.99875914965756
 30
0.0
 11
-32.50006200000001
 21
33.69999999999999
 31
0.0
  0
LINE
  5
51F1
330
1E
100
AcDbEntity
  8
10
  6
Continuous
100
AcDbLine
 10
-37.50004699999999
 20
46.25000099999994
 30
0.0
 11
-37.50004699999999
 21
-46.25000199999999
 31
0.0
  0
LINE
  5
51F2
330
1E
100
AcDbEntity
  8
10
  6
Continuous
 62
   254
100
AcDbLine
 10
37.49993899999998
 20
46.25000099999994
 30
0.0
 11
37.49993899999998
 21
-46.25000199999999
 31
0.0
  0
LINE
  5
51F3
330
1E
100
AcDbEntity
  8
17
  6
DASHDOT
100
AcDbLine
 10
24.99998499999998
 20
47.13567199999999
 30
0.0
 11
24.99998499999998
 21
33.23142599999994
 31
0.0
  0
LINE
  5
51F4
330
1E
100
AcDbEntity
  8
17
  6
DASHDOT
100
AcDbLine
 10
-25.00001600000001
 20
47.13567199999999
 30
0.0
 11
-25.00001600000001
 21
33.23142599999994
 31
0.0
  0
DIMENSION
  5
51F6
330
1E
100
AcDbEntity
  8
30
  6
Continuous
100
AcDbDimension
  2
*D13
 10
-36.00003199999997
 20
-69.490521
 30
0.0
 11
-0.0000450000000001
 21
-69.490521
 31
0.0
 70
   160
  1
<>
 71
     5
 42
71.99997099999996
  3
STANDARD
100
AcDbAlignedDimension
 13
35.99993899999998
 23
-24.00003100000003
 33
0.0
 14
-36.00003199999997
 24
-24.00003100000003
 34
0.0
100
AcDbRotatedDimension
  0
DIMENSION
  5
51F7
330
1E
100
AcDbEntity
  8
30
  6
Continuous
100
AcDbDimension
  2
*D14
 10
-25.00001600000001
 20
-61.31171800000004
 30
0.0
 11
-0.0000149999999621
 21
-61.31171800000004
 31
0.0
 70
   160
  1
<>
 71
     5
 42
50.000001
  3
STANDARD
100
AcDbAlignedDimension
 13
24.99998499999998
 23
-48.07501300000001
 33
0.0
 14
-25.00001600000001
 24
-48.07501300000001
 34
0.0
100
AcDbRotatedDimension
  0
DIMENSION
  5
51FA
330
1E
100
AcDbEntity
  8
30
  6
Continuous
100
AcDbDimension
  2
*D15
 10
-37.50004699999999
 20
-78.70399800000001
 30
0.0
 11
-0.0000529999999799
 21
-78.70399800000001
 31
0.0
 70
   160
  1
<>
 71
     5
 42
74.99998599999997
  3
STANDARD
100
AcDbAlignedDimension
 13
37.49993899999998
 23
-46.25000299999999
 33
0.0
 14
-37.50004699999999
 24
-46.25000299999999
 34
0.0
100
AcDbRotatedDimension
  0
LINE
  5
51FB
330
1E
100
AcDbEntity
  8
10
  6
Continuous
100
AcDbLine
 10
5.353097999999988
 20
17.27753199999995
 30
0.0
 11
-5.264327999999977
 21
17.27753199999995
 31
0.0
  0
LINE
  5
51FC
330
1E
100
AcDbEntity
  8
10
  6
Continuous
100
AcDbLine
 10
4.300000000000011
 20
21.38531799999998
 30
0.0
 11
-4.300007999999991
 21
21.38531799999998
 31
0.0
  0
LINE
  5
51FD
330
1E
100
AcDbEntity
  8
10
  6
Continuous
100
AcDbLine
 10
-6.500007999999979
 20
3.900029999999958
 30
0.0
 11
6.500007000000039
 21
3.900029999999958
 31
0.0
  0
LINE
  5
51FE
330
1E
100
AcDbEntity
  8
10
  6
Continuous
100
AcDbLine
 10
-6.500007999999979
 20
0.7500299999999811
 30
0.0
 11
6.500007000000039
 21
0.7500299999999811
 31
0.0
  0
LINE
  5
51FF
330
1E
100
AcDbEntity
  8
10
  6
Continuous
100
AcDbLine
 10
-6.050007999999991
 20
9.279081000000019
 30
0.0
 11
6.050000000000011
 21
9.279081000000019
 31
0.0
  0
LINE
  5
5200
330
1E
100
AcDbEntity
  8
10
  6
Continuous
100
AcDbLine
 10
10.00000000000005
 20
-24.0
 30
0.0
 11
-10.0
 21
-24.0
 31
0.0
  0
LINE
  5
5201
330
1E
100
AcDbEntity
  8
10
  6
Continuous
100
AcDbLine
 10
10.00000000000005
 20
24.0
 30
0.0
 11
-10.0
 21
24.0
 31
0.0
  0
LINE
  5
5202
330
1E
100
AcDbEntity
  8
10
  6
Continuous
100
AcDbLine
 10
34.99997000000002
 20
24.99997000000002
 30
0.0
 11
-35.00003199999997
 21
24.99997000000002
 31
0.0
  0
LINE
  5
5203
330
1E
100
AcDbEntity
  8
10
  6
Continuous
100
AcDbLine
 10
7.499938999999983
 20
33.69999999999999
 30
0.0
 11
-7.500062000000013
 21
33.69999999999999
 31
0.0
  0
LINE
  5
5204
330
1E
100
AcDbEntity
  8
10
  6
Continuous
100
AcDbLine
 10
7.499938999999983
 20
-33.70000900000002
 30
0.0
 11
-7.500062000000013
 21
-33.70000900000002
 31
0.0
  0
LINE
  5
5205
330
1E
100
AcDbEntity
  8
10
  6
Continuous
100
AcDbLine
 10
-35.00003199999997
 20
-25.00003199999997
 30
0.0
 11
34.99993899999998
 21
-25.00003199999997
 31
0.0
  0
LINE
  5
5206
330
1E
100
AcDbEntity
  8
10
  6
Continuous
100
AcDbLine
 10
-7.500062000000013
 20
-50.00000200000002
 30
0.0
 11
7.499938999999983
 21
-50.00000200000002
 31
0.0
  0
LINE
  5
5207
330
1E
100
AcDbEntity
  8
10
  6
Continuous
100
AcDbLine
 10
-6.074997999999993
 20
-42.00000199999999
 30
0.0
 11
6.074996999999996
 21
-42.00000199999999
 31
0.0
  0
LINE
  5
5209
330
1E
100
AcDbEntity
  8
10
  6
Continuous
100
AcDbLine
 10
-17.50006200000001
 20
-33.70000900000002
 30
0.0
 11
-32.50006200000001
 21
-33.70000900000002
 31
0.0
  0
LINE
  5
520A
330
1E
100
AcDbEntity
  8
10
  6
Continuous
100
AcDbLine
 10
-32.50006200000001
 20
-50.00000200000002
 30
0.0
 11
-17.50006200000001
 21
-50.00000200000002
 31
0.0
  0
LINE
  5
520B
330
1E
100
AcDbEntity
  8
17
  6
DASHDOT
100
AcDbLine
 10
-31.07499799999999
 20
-42.00000199999999
 30
0.0
 11
-18.925004
 21
-42.00000199999999
 31
0.0
  0
LINE
  5
520C
330
1E
100
AcDbEntity
  8
10
  6
Continuous
100
AcDbLine
 10
-35.69987899999995
 20
-47.19999999999998
 30
0.0
 11
-32.49993999999998
 21
-47.19999999999998
 31
0.0
  0
LINE
  5
520D
330
1E
100
AcDbEntity
  8
10
  6
Continuous
100
AcDbLine
 10
-32.50006200000001
 20
-37.900033
 30
0.0
 11
-37.50004699999999
 21
-37.900033
 31
0.0
  0
LINE
  5
520E
330
1E
100
AcDbEntity
  8
10
  6
Continuous
100
AcDbLine
 10
-35.70000099999998
 20
-50.00000200000002
 30
0.0
 11
-32.50006200000001
 21
-50.00000200000002
 31
0.0
  0
LINE
  5
520F
330
1E
100
AcDbEntity
  8
10
  6
Continuous
100
AcDbLine
 10
-35.70000099999998
 20
-46.25000199999999
 30
0.0
 11
-37.50004699999999
 21
-46.25000199999999
 31
0.0
  0
LINE
  5
5210
330
1E
100
AcDbEntity
  8
10
  6
Continuous
100
AcDbLine
 10
-35.70000099999998
 20
-46.25000199999999
 30
0.0
 11
-35.70000099999998
 21
-50.00000200000002
 31
0.0
  0
LINE
  5
5211
330
1E
100
AcDbEntity
  8
10
  6
Continuous
100
AcDbLine
 10
-32.50006200000001
 20
-50.00000200000002
 30
0.0
 11
-32.50006200000001
 21
-33.70000900000002
 31
0.0
  0
LINE
  5
5212
330
1E
100
AcDbEntity
  8
17
  6
DASHDOT
100
AcDbLine
 10
-25.00001600000001
 20
-35.92498900000004
 30
0.0
 11
-25.00001600000001
 21
-48.07501400000001
 31
0.0
  0
ARC
  5
5213
330
1E
100
AcDbEntity
  8
10
  6
Continuous
100
AcDbCircle
 10
-12.50001600000001
 20
-41.99993999999998
 30
0.0
 40
3.9
100
AcDbArc
 50
284.476691
 51
217.3004790000004
  0
LINE
  5
5214
330
1E
100
AcDbEntity
  8
10
  6
Continuous
100
AcDbLine
 10
-7.500062000000013
 20
-37.900033
 30
0.0
 11
-17.50006200000001
 21
-37.900033
 31
0.0
  0
LINE
  5
5215
330
1E
100
AcDbEntity
  8
10
  6
Continuous
100
AcDbLine
 10
-11.90007699999995
 20
-50.00000200000002
 30
0.0
 11
-7.500062000000013
 21
-50.00000200000002
 31
0.0
  0
LINE
  5
5216
330
1E
100
AcDbEntity
  8
10
  6
Continuous
100
AcDbLine
 10
-15.50007699999997
 20
-44.66631899999998
 30
0.0
 11
-15.50007699999997
 21
-50.00000200000002
 31
0.0
  0
LINE
  5
5217
330
1E
100
AcDbEntity
  8
10
  6
Continuous
100
AcDbLine
 10
-17.50006200000001
 20
-50.00000200000002
 30
0.0
 11
-17.50006200000001
 21
-33.70000900000002
 31
0.0
  0
LINE
  5
5218
330
1E
100
AcDbEntity
  8
10
  6
Continuous
100
AcDbLine
 10
-17.50006200000001
 20
-50.00000200000002
 30
0.0
 11
-15.50007699999997
 21
-50.00000200000002
 31
0.0
  0
LINE
  5
5219
330
1E
100
AcDbEntity
  8
10
  6
Continuous
100
AcDbLine
 10
-15.50007699999997
 20
-46.25000199999999
 30
0.0
 11
-11.90007699999995
 21
-46.25000199999999
 31
0.0
  0
ARC
  5
521A
330
1E
100
AcDbEntity
  8
10
  6
Continuous
100
AcDbCircle
 10
-11.40007699999995
 20
-46.26023800000001
 30
0.0
 40
0.5
100
AcDbArc
 50
104.476691
 51
180.0
  0
LINE
  5
521B
330
1E
100
AcDbEntity
  8
10
  6
Continuous
100
AcDbLine
 10
-11.90007699999995
 20
-46.26023800000001
 30
0.0
 11
-11.90007699999995
 21
-50.00000200000002
 31
0.0
  0
ARC
  5
521C
330
1E
100
AcDbEntity
  8
10
  6
Continuous
100
AcDbCircle
 10
-16.00007699999997
 20
-44.66631899999998
 30
0.0
 40
0.5
100
AcDbArc
 50
0.0
 51
37.30047900000048
  0
LINE
  5
521D
330
1E
100
AcDbEntity
  8
10
  6
Continuous
100
AcDbLine
 10
-7.500062000000013
 20
-33.70000900000002
 30
0.0
 11
-7.500062000000013
 21
-50.00000200000002
 31
0.0
  0
LINE
  5
521E
330
1E
100
AcDbEntity
  8
10
  6
Continuous
100
AcDbLine
 10
-17.50006200000001
 20
33.69999999999999
 30
0.0
 11
-32.50006200000001
 21
33.69999999999999
 31
0.0
  0
LINE
  5
521F
330
1E
100
AcDbEntity
  8
10
  6
Continuous
100
AcDbLine
 10
-36.00003199999997
 20
23.99997000000002
 30
0.0
 11
-36.00003199999997
 21
-24.00003199999997
 31
0.0
  0
ARC
  5
5220
330
1E
100
AcDbEntity
  8
10
  6
Continuous
100
AcDbCircle
 10
-35.00003199999997
 20
-24.00003199999997
 30
0.0
 40
1.0
100
AcDbArc
 50
179.999996999999
 51
270.0
  0
ARC
  5
5222
330
1E
100
AcDbEntity
  8
10
  6
Continuous
100
AcDbCircle
 10
-35.00003199999997
 20
23.99997000000002
 30
0.0
 40
1.0
100
AcDbArc
 50
90.0
 51
179.999996999999
  0
LINE
  5
5223
330
1E
100
AcDbEntity
  8
10
  6
Continuous
100
AcDbLine
 10
-6.500007999999979
 20
18.25002999999998
 30
0.0
 11
-6.500007999999979
 21
0.7500299999999811
 31
0.0
  0
LINE
  5
5224
330
1E
100
AcDbEntity
  8
10
  6
Continuous
100
AcDbLine
 10
-10.0
 20
24.0
 30
0.0
 11
-10.0
 21
-24.0
 31
0.0
  0
LINE
  5
5225
330
1E
100
AcDbEntity
  8
10
  6
Continuous
100
AcDbLine
 10
-11.00004699999999
 20
24.64641599999998
 30
0.0
 11
-11.00004699999999
 21
-24.646478
 31
0.0
  0
LINE
  5
5226
330
1E
100
AcDbEntity
  8
10
  6
Continuous
100
AcDbLine
 10
-10.0
 20
-24.0
 30
0.0
 11
-11.0
 21
-24.57735099999996
 31
0.0
  0
ARC
  5
5227
330
1E
100
AcDbEntity
  8
10
  6
Continuous
100
AcDbCircle
 10
-10.64649299999996
 20
-24.646478
 30
0.0
 40
0.353553
100
AcDbArc
 50
180.0
 51
270.0
  0
LINE
  5
5228
330
1E
100
AcDbEntity
  8
10
  6
Continuous
100
AcDbLine
 10
-10.0
 20
24.0
 30
0.0
 11
-11.0
 21
24.57734999999996
 31
0.0
  0
ARC
  5
5229
330
1E
100
AcDbEntity
  8
10
  6
Continuous
100
AcDbCircle
 10
-10.64649299999996
 20
24.64641599999998
 30
0.0
 40
0.353553
100
AcDbArc
 50
90.0
 51
180.0
  0
ARC
  5
522A
330
1E
100
AcDbEntity
  8
10
  6
Continuous
100
AcDbCircle
 10
-4.300007999999991
 20
19.63531799999998
 30
0.0
 40
1.75
100
AcDbArc
 50
90.0
 51
180.0
  0
LINE
  5
522B
330
1E
100
AcDbEntity
  8
10
  6
Continuous
100
AcDbLine
 10
-6.050007999999991
 20
19.63531799999998
 30
0.0
 11
-6.050007999999991
 21
3.900029999999958
 31
0.0
  0
LINE
  5
522C
330
1E
100
AcDbEntity
  8
10
  6
Continuous
100
AcDbLine
 10
-6.500007999999979
 20
15.10002999999994
 30
0.0
 11
-6.050007999999991
 21
15.10002999999994
 31
0.0
  0
LINE
  5
522D
330
1E
100
AcDbEntity
  8
10
  6
Continuous
100
AcDbLine
 10
-6.500007999999979
 20
18.25002999999998
 30
0.0
 11
-6.050007999999991
 21
18.25002999999998
 31
0.0
  0
LINE
  5
522E
330
1E
100
AcDbEntity
  8
10
  6
Continuous
100
AcDbLine
 10
32.49993899999998
 20
-33.70000900000002
 30
0.0
 11
17.49993899999998
 21
-33.70000900000002
 31
0.0
  0
LINE
  5
522F
330
1E
100
AcDbEntity
  8
10
  6
Continuous
100
AcDbLine
 10
17.49993899999998
 20
-50.00000200000002
 30
0.0
 11
33.49993899999998
 21
-50.00000200000002
 31
0.0
  0
LINE
  5
5230
330
1E
100
AcDbEntity
  8
17
  6
DASHDOT
100
AcDbLine
 10
18.925003
 20
-42.00000199999999
 30
0.0
 11
31.07499699999999
 21
-42.00000199999999
 31
0.0
  0
CIRCLE
  5
5231
330
1E
100
AcDbEntity
  8
12
  6
DASHED
100
AcDbCircle
 10
12.50000000000005
 20
-41.99993999999998
 30
0.0
 40
2.45
  0
ARC
  5
5232
330
1E
100
AcDbEntity
  8
12
  6
DASHED
100
AcDbCircle
 10
12.50000000000005
 20
-41.99993999999998
 30
0.0
 40
3.9
100
AcDbArc
 50
284.4766920000007
 51
217.3004790000004
  0
LINE
  5
5233
330
1E
100
AcDbEntity
  8
10
  6
Continuous
100
AcDbLine
 10
17.49993899999998
 20
-37.900033
 30
0.0
 11
7.499938999999983
 21
-37.900033
 31
0.0
  0
LINE
  5
5234
330
1E
100
AcDbEntity
  8
10
  6
Continuous
100
AcDbLine
 10
9.499938999999983
 20
-46.25000199999999
 30
0.0
 11
13.099939
 21
-46.25000199999999
 31
0.0
  0
LINE
  5
5235
330
1E
100
AcDbEntity
  8
10
  6
Continuous
100
AcDbLine
 10
15.94999999999998
 20
-41.99993999999998
 30
0.0
 11
9.050000000000011
 21
-41.99993999999998
 31
0.0
  0
LINE
  5
5236
330
1E
100
AcDbEntity
  8
10
  6
Continuous
100
AcDbLine
 10
9.499938999999983
 20
-44.66631899999998
 30
0.0
 11
9.499938999999983
 21
-50.00000200000002
 31
0.0
  0
LINE
  5
5237
330
1E
100
AcDbEntity
  8
10
  6
Continuous
100
AcDbLine
 10
7.499938999999983
 20
-50.00000200000002
 30
0.0
 11
7.499938999999983
 21
-33.70000900000002
 31
0.0
  0
LINE
  5
5238
330
1E
100
AcDbEntity
  8
10
  6
Continuous
100
AcDbLine
 10
7.499938999999983
 20
-50.00000200000002
 30
0.0
 11
9.499938999999983
 21
-50.00000200000002
 31
0.0
  0
ARC
  5
5239
330
1E
100
AcDbEntity
  8
10
  6
Continuous
100
AcDbCircle
 10
8.999938999999983
 20
-44.66631899999998
 30
0.0
 40
0.5
100
AcDbArc
 50
0.0
 51
37.30047900000048
  0
LINE
  5
523A
330
1E
100
AcDbEntity
  8
10
  6
Continuous
100
AcDbLine
 10
8.600000000000022
 20
-41.99604700000003
 30
0.0
 11
8.600000000000022
 21
-42.01091400000001
 31
0.0
  0
LINE
  5
523B
330
1E
100
AcDbEntity
  8
10
  6
Continuous
100
AcDbLine
 10
12.50000000000005
 20
-38.54993999999999
 30
0.0
 11
12.50000000000005
 21
-45.44994100000002
 31
0.0
  0
LINE
  5
523C
330
1E
100
AcDbEntity
  8
10
  6
Continuous
100
AcDbLine
 10
17.49993899999998
 20
-33.70000900000002
 30
0.0
 11
17.49993899999998
 21
-50.00000200000002
 31
0.0
  0
LINE
  5
523D
330
1E
100
AcDbEntity
  8
10
  6
Continuous
100
AcDbLine
 10
13.099939
 20
-50.00000200000002
 30
0.0
 11
17.49993899999998
 21
-50.00000200000002
 31
0.0
  0
ARC
  5
523E
330
1E
100
AcDbEntity
  8
10
  6
Continuous
100
AcDbCircle
 10
13.599939
 20
-46.26023800000001
 30
0.0
 40
0.5
100
AcDbArc
 50
104.4766920000006
 51
179.9999910000003
  0
LINE
  5
523F
330
1E
100
AcDbEntity
  8
10
  6
Continuous
100
AcDbLine
 10
13.099939
 20
-46.26023800000001
 30
0.0
 11
13.099939
 21
-50.00000200000002
 31
0.0
  0
LINE
  5
5240
330
1E
100
AcDbEntity
  8
10
  6
Continuous
100
AcDbLine
 10
37.49993899999998
 20
-37.900033
 30
0.0
 11
32.49993899999998
 21
-37.900033
 31
0.0
  0
LINE
  5
5241
330
1E
100
AcDbEntity
  8
10
  6
Continuous
100
AcDbLine
 10
35.69987800000001
 20
-46.25000199999999
 30
0.0
 11
37.49993899999998
 21
-46.25000199999999
 31
0.0
  0
LINE
  5
5242
330
1E
100
AcDbEntity
  8
10
  6
Continuous
100
AcDbLine
 10
32.49993899999998
 20
-50.00000200000002
 30
0.0
 11
32.49993899999998
 21
-33.70000900000002
 31
0.0
  0
LINE
  5
5243
330
1E
100
AcDbEntity
  8
17
  6
DASHDOT
100
AcDbLine
 10
24.99998499999998
 20
-35.92498900000004
 30
0.0
 11
24.99998499999998
 21
-48.07501400000001
 31
0.0
  0
LINE
  5
5244
330
1E
100
AcDbEntity
  8
10
  6
Continuous
100
AcDbLine
 10
35.69987800000001
 20
-47.19999999999998
 30
0.0
 11
32.49993899999998
 21
-47.19999999999998
 31
0.0
  0
LINE
  5
5245
330
1E
100
AcDbEntity
  8
10
  6
Continuous
100
AcDbLine
 10
32.49993899999998
 20
-50.00000200000002
 30
0.0
 11
35.69987800000001
 21
-50.00000200000002
 31
0.0
  0
LINE
  5
5246
330
1E
100
AcDbEntity
  8
10
  6
Continuous
100
AcDbLine
 10
35.69987800000001
 20
-46.25000199999999
 30
0.0
 11
35.69987800000001
 21
-50.00000200000002
 31
0.0
  0
LINE
  5
5247
330
1E
100
AcDbEntity
  8
10
  6
Continuous
100
AcDbLine
 10
32.49993899999998
 20
33.69999999999999
 30
0.0
 11
17.49993899999998
 21
33.69999999999999
 31
0.0
  0
LINE
  5
5248
330
1E
100
AcDbEntity
  8
10
  6
Continuous
100
AcDbLine
 10
23.30000000000001
 20
-17.5
 30
0.0
 11
26.90180800000002
 21
-17.5
 31
0.0
  0
LINE
  5
5249
330
1E
100
AcDbEntity
  8
10
  6
Continuous
100
AcDbLine
 10
23.19999999999998
 20
-17.90000000000003
 30
0.0
 11
27.09450900000001
 21
-17.90000000000003
 31
0.0
  0
LINE
  5
524A
330
1E
100
AcDbEntity
  8
10
  6
Continuous
100
AcDbLine
 10
12.90000000000003
 20
17.69999999999998
 30
0.0
 11
33.60000000000002
 21
17.69999999999998
 31
0.0
  0
LINE
  5
524B
330
1E
100
AcDbEntity
  8
10
  6
Continuous
100
AcDbLine
 10
13.00000000000005
 20
18.09999999999996
 30
0.0
 11
33.50000000000005
 21
18.09999999999996
 31
0.0
  0
HATCH
  5
524C
330
1E
100
AcDbEntity
  8
10
  6
Continuous
100
AcDbHatch
 10
0.0
 20
0.0
 30
0.0
210
0.0
220
0.0
230
1.0
  2
ANSI31
 70
     0
 71
     0
 91
        1
 92
        1
 93
       12
 72
     2
 10
12.9999995097055
 20
17.09999954425279
 40
1.0
 50
180.0
 51
270.0
 73
     0
 72
     1
 10
12.9999995097055
 20
18.09999954425279
 11
33.49999950970586
 21
18.09999954425279
 72
     2
 10
33.4999995097059
 20
17.09999954425382
 40
1.0
 50
270.0
 51
360.0
 73
     0
 72
     1
 10
34.4999995097059
 20
17.09999954425382
 11
34.4999995097059
 21
-0.0000004557467719
 72
     1
 10
34.4999995097059
 20
-0.0000004557467719
 11
34.09999950970598
 21
-0.0000004557467719
 72
     1
 10
34.09999950970592
 20
-0.0000004557467719
 11
34.09999950970592
 21
17.19999954425378
 72
     2
 10
33.59999950970603
 20
17.19999954425378
 40
0.5
 50
0.0
 51
90.0
 73
     1
 72
     1
 10
33.59999950970603
 20
17.69999954425282
 11
12.8999995097058
 21
17.69999954425282
 72
     2
 10
12.89999950970582
 20
17.19999954425281
 40
0.5
 50
90.0
 51
180.0
 73
     1
 72
     1
 10
12.39999950970553
 20
17.19999954425281
 11
12.39999950970553
 21
-0.0000004557467719
 72
     1
 10
12.39999950970553
 20
-0.0000004557467719
 11
11.9999995097055
 21
-0.0000004557467719
 72
     1
 10
11.9999995097055
 20
-0.0000004557467719
 11
11.9999995097055
 21
17.09999954425279
 97
        0
 75
     0
 76
     1
 52
0.0
 41
0.111355
 77
     0
 78
     1
 53
45.0
 43
-100.7925579999999
 44
-304.934275
 45
-0.2499999226377859
 46
0.2499999226377859
 79
     0
 98
        1
 10
-100.7925579999999
 20
-304.934275
  0
HATCH
  5
524D
330
1E
100
AcDbEntity
  8
10
  6
Continuous
100
AcDbHatch
 10
0.0
 20
0.0
 30
0.0
210
0.0
220
0.0
230
1.0
  2
ANSI31
 70
     0
 71
     0
 91
        1
 92
        1
 93
       28
 72
     1
 10
11.9999995097055
 20
-22.40000045574663
 11
11.9999995097055
 21
-0.0000004557467719
 72
     1
 10
11.9999995097055
 20
-0.0000004557467719
 11
12.39999950970553
 21
-0.0000004557467719
 72
     1
 10
12.39999950970553
 20
-0.0000004557467719
 11
12.39999950970553
 21
-22.50000045574671
 72
     2
 10
12.89999950970553
 20
-22.50000045574671
 40
0.5
 50
180.0
 51
270.0
 73
     1
 72
     1
 10
12.89999950970553
 20
-23.00000045574671
 11
18.09999950970594
 21
-23.00000045574671
 72
     2
 10
18.09999950970592
 20
-22.50000045574671
 40
0.5
 50
270.0
 51
360.0
 73
     1
 72
     1
 10
18.59999950970592
 20
-22.50000045574671
 11
18.59999950970592
 21
-22.20000045574676
 72
     2
 10
23.29999950970591
 20
-22.20000045574676
 40
4.700000000000002
 50
180.0
 51
270.0
 73
     0
 72
     1
 10
23.29999950970591
 20
-17.50000045574671
 11
26.90180823362159
 21
-17.50000045574671
 72
     1
 10
26.90180823362158
 20
-17.50000045574671
 11
28.99999950970584
 21
-15.59111151108101
 72
     1
 10
28.9999995097059
 20
-15.59111151108101
 11
28.9999995097059
 21
-13.60000045574668
 72
     2
 10
32.79999950970591
 20
-13.60000045574668
 40
3.799999999999987
 50
180.0
 51
268.8928999999999
 73
     0
 72
     1
 10
32.72657844015782
 20
-9.800709818463701
 11
33.59999950970595
 21
-9.800709818463701
 72
     2
 10
33.59999950970592
 20
-9.300709818463701
 40
0.5
 50
270.0
 51
360.0
 73
     1
 72
     1
 10
34.09999950970592
 20
-9.300709818463701
 11
34.09999950970592
 21
-0.0000004557467719
 72
     1
 10
34.09999950970592
 20
-0.0000004557467719
 11
34.49999950970584
 21
-0.0000004557467719
 72
     1
 10
34.4999995097059
 20
-0.0000004557467719
 11
34.4999995097059
 21
-9.200000455746817
 72
     2
 10
33.49999950970612
 20
-9.200000455746817
 40
1.0
 50
360.0
 51
450.0
 73
     0
 72
     1
 10
33.49999950970612
 20
-10.20000045574681
 11
32.69999950970595
 21
-10.20000045574681
 72
     2
 10
32.69999950970595
 20
-13.50000045574677
 40
3.299999999999996
 50
90.0
 51
180.0
 73
     1
 72
     1
 10
29.39999950970593
 20
-13.50000045574677
 11
29.39999950970593
 21
-15.81292440446651
 72
     1
 10
29.39999950970593
 20
-15.81292440446651
 11
27.0945085228265
 21
-17.9000004557468
 72
     1
 10
27.09450852282651
 20
-17.9000004557468
 11
23.19999950970594
 21
-17.9000004557468
 72
     2
 10
23.19999950970594
 20
-22.10000045574679
 40
4.200000000000002
 50
90.0
 51
180.0
 73
     1
 72
     1
 10
18.9999995097059
 20
-22.10000045574679
 11
18.9999995097059
 21
-22.40000045574652
 72
     2
 10
17.9999995097059
 20
-22.40000045574652
 40
1.0
 50
360.0
 51
450.0
 73
     0
 72
     1
 10
17.9999995097059
 20
-23.4000004557468
 11
12.9999995097059
 21
-23.4000004557468
 72
     2
 10
12.9999995097059
 20
-22.40000045574663
 40
0.9999999999999964
 50
90.0
 51
180.0
 73
     0
 97
        0
 75
     0
 76
     1
 52
0.0
 41
0.111355
 77
     0
 78
     1
 53
45.0
 43
-100.7925579999999
 44
-304.934275
 45
-0.2499999226377859
 46
0.2499999226377859
 79
     0
 98
        1
 10
-100.7925579999999
 20
-304.934275
  0
LINE
  5
524E
330
1E
100
AcDbEntity
  8
10
  6
Continuous
100
AcDbLine
 10
6.500007000000039
 20
18.25002999999998
 30
0.0
 11
6.500007000000039
 21
0.7500299999999811
 31
0.0
  0
LINE
  5
524F
330
1E
100
AcDbEntity
  8
10
  6
Continuous
100
AcDbLine
 10
10.00000000000005
 20
24.0
 30
0.0
 11
10.00000000000005
 21
-24.0
 31
0.0
  0
LINE
  5
5250
330
1E
100
AcDbEntity
  8
10
  6
Continuous
100
AcDbLine
 10
10.99993899999998
 20
24.64641599999998
 30
0.0
 11
10.99993899999998
 21
-24.646478
 31
0.0
  0
LINE
  5
5251
330
1E
100
AcDbEntity
  8
10
  6
Continuous
100
AcDbLine
 10
12.40000000000003
 20
17.19999999999998
 30
0.0
 11
12.40000000000003
 21
-22.5
 31
0.0
  0
LINE
  5
5252
330
1E
100
AcDbEntity
  8
10
  6
Continuous
100
AcDbLine
 10
12.00000000000005
 20
17.09999999999996
 30
0.0
 11
12.00000000000005
 21
-22.40000000000003
 31
0.0
  0
ARC
  5
5253
330
1E
100
AcDbEntity
  8
10
  6
Continuous
100
AcDbCircle
 10
13.00000000000005
 20
-22.40000000000003
 30
0.0
 40
1.0
100
AcDbArc
 50
180.0
 51
270.0
  0
ARC
  5
5254
330
1E
100
AcDbEntity
  8
10
  6
Continuous
100
AcDbCircle
 10
12.90000000000003
 20
-22.5
 30
0.0
 40
0.5
100
AcDbArc
 50
180.0
 51
270.0
  0
LINE
  5
5255
330
1E
100
AcDbEntity
  8
10
  6
Continuous
100
AcDbLine
 10
10.00000000000005
 20
-24.0
 30
0.0
 11
11.00000000000005
 21
-24.57735099999996
 31
0.0
  0
ARC
  5
5256
330
1E
100
AcDbEntity
  8
10
  6
Continuous
100
AcDbCircle
 10
10.646385
 20
-24.646478
 30
0.0
 40
0.353553
100
AcDbArc
 50
270.0
 51
0.0
  0
ARC
  5
5257
330
1E
100
AcDbEntity
  8
10
  6
Continuous
100
AcDbCircle
 10
23.30000000000001
 20
-22.19999999999998
 30
0.0
 40
4.7
100
AcDbArc
 50
90.0
 51
180.0
  0
ARC
  5
5258
330
1E
100
AcDbEntity
  8
10
  6
Continuous
100
AcDbCircle
 10
23.19999999999998
 20
-22.10000000000002
 30
0.0
 40
4.2
100
AcDbArc
 50
90.0
 51
180.0
  0
ARC
  5
5259
330
1E
100
AcDbEntity
  8
10
  6
Continuous
100
AcDbCircle
 10
18.00000000000005
 20
-22.40000000000003
 30
0.0
 40
1.0
100
AcDbArc
 50
270.0
 51
0.0
  0
ARC
  5
525A
330
1E
100
AcDbEntity
  8
10
  6
Continuous
100
AcDbCircle
 10
18.10000000000002
 20
-22.5
 30
0.0
 40
0.5
100
AcDbArc
 50
270.0
 51
0.0
  0
LINE
  5
525B
330
1E
100
AcDbEntity
  8
10
  6
Continuous
100
AcDbLine
 10
12.90000000000003
 20
-23.0
 30
0.0
 11
18.10000000000002
 21
-23.0
 31
0.0
  0
LINE
  5
525C
330
1E
100
AcDbEntity
  8
10
  6
Continuous
100
AcDbLine
 10
13.00000000000005
 20
-23.40000000000003
 30
0.0
 11
18.00000000000005
 21
-23.40000000000003
 31
0.0
  0
LINE
  5
525D
330
1E
100
AcDbEntity
  8
10
  6
Continuous
100
AcDbLine
 10
18.60000000000002
 20
-22.19999999999998
 30
0.0
 11
18.60000000000002
 21
-22.5
 31
0.0
  0
LINE
  5
525E
330
1E
100
AcDbEntity
  8
10
  6
Continuous
100
AcDbLine
 10
19.00000000000005
 20
-22.10000000000002
 30
0.0
 11
19.00000000000005
 21
-22.40000000000003
 31
0.0
  0
ARC
  5
525F
330
1E
100
AcDbEntity
  8
10
  6
Continuous
100
AcDbCircle
 10
12.90000000000003
 20
17.19999999999998
 30
0.0
 40
0.5
100
AcDbArc
 50
90.0
 51
180.0
  0
ARC
  5
5260
330
1E
100
AcDbEntity
  8
10
  6
Continuous
100
AcDbCircle
 10
13.00000000000005
 20
17.09999999999996
 30
0.0
 40
1.0
100
AcDbArc
 50
90.0
 51
180.0
  0
ARC
  5
5261
330
1E
100
AcDbEntity
  8
10
  6
Continuous
100
AcDbCircle
 10
4.300000000000011
 20
19.63531799999998
 30
0.0
 40
1.75
100
AcDbArc
 50
0.0
 51
90.0
  0
LINE
  5
5262
330
1E
100
AcDbEntity
  8
10
  6
Continuous
100
AcDbLine
 10
6.050000000000011
 20
19.63531799999998
 30
0.0
 11
6.050000000000011
 21
3.900029999999958
 31
0.0
  0
LINE
  5
5263
330
1E
100
AcDbEntity
  8
10
  6
Continuous
100
AcDbLine
 10
6.050000000000011
 20
15.10002999999994
 30
0.0
 11
6.500007000000039
 21
15.10002999999994
 31
0.0
  0
LINE
  5
5264
330
1E
100
AcDbEntity
  8
10
  6
Continuous
100
AcDbLine
 10
6.050000000000011
 20
18.25002999999998
 30
0.0
 11
6.500007000000039
 21
18.25002999999998
 31
0.0
  0
LINE
  5
5265
330
1E
100
AcDbEntity
  8
10
  6
Continuous
100
AcDbLine
 10
10.00000000000005
 20
24.0
 30
0.0
 11
11.00000000000005
 21
24.57734999999996
 31
0.0
  0
ARC
  5
5266
330
1E
100
AcDbEntity
  8
10
  6
Continuous
100
AcDbCircle
 10
10.646385
 20
24.64641599999998
 30
0.0
 40
0.353553
100
AcDbArc
 50
0.0
 51
90.0
  0
LINE
  5
5267
330
1E
100
AcDbEntity
  8
10
  6
Continuous
100
AcDbLine
 10
35.99993899999998
 20
23.99997000000002
 30
0.0
 11
35.99993899999998
 21
-24.00003199999997
 31
0.0
  0
LINE
  5
5268
330
1E
100
AcDbEntity
  8
10
  6
Continuous
100
AcDbLine
 10
34.10000000000002
 20
17.19999999999998
 30
0.0
 11
34.10000000000002
 21
-9.300710000000037
 31
0.0
  0
LINE
  5
5269
330
1E
100
AcDbEntity
  8
10
  6
Continuous
100
AcDbLine
 10
34.50000000000005
 20
-9.199999999999988
 30
0.0
 11
34.50000000000005
 21
17.09999999999996
 31
0.0
  0
ARC
  5
526A
330
1E
100
AcDbEntity
  8
10
  6
Continuous
100
AcDbCircle
 10
34.99993899999998
 20
-24.00003199999997
 30
0.0
 40
1.0
100
AcDbArc
 50
270.0
 51
359.9999989999985
  0
CIRCLE
  5
526B
330
1E
100
AcDbEntity
  8
10
  6
Continuous
100
AcDbCircle
 10
32.69995499999998
 20
-13.49985700000002
 30
0.0
 40
1.9
  0
ARC
  5
526C
330
1E
100
AcDbEntity
  8
10
  6
Continuous
100
AcDbCircle
 10
32.80000000000001
 20
-13.60000000000002
 30
0.0
 40
3.799999999999999
100
AcDbArc
 50
91.10710000000119
 51
180.0
  0
ARC
  5
526D
330
1E
100
AcDbEntity
  8
10
  6
Continuous
100
AcDbCircle
 10
32.69999999999999
 20
-13.5
 30
0.0
 40
3.299999999999999
100
AcDbArc
 50
90.0
 51
180.0
  0
LINE
  5
526E
330
1E
100
AcDbEntity
  8
10
  6
Continuous
100
AcDbLine
 10
32.69995499999998
 20
-10.59985699999998
 30
0.0
 11
32.69995499999998
 21
-16.39985699999999
 31
0.0
  0
LINE
  5
526F
330
1E
100
AcDbEntity
  8
10
  6
Continuous
100
AcDbLine
 10
35.59995499999996
 20
-13.49985700000002
 30
0.0
 11
29.79995500000001
 21
-13.49985700000002
 31
0.0
  0
LINE
  5
5270
330
1E
100
AcDbEntity
  8
10
  6
Continuous
100
AcDbLine
 10
26.90180800000002
 20
-17.5
 30
0.0
 11
29.00000000000005
 21
-15.59111200000001
 31
0.0
  0
LINE
  5
5271
330
1E
100
AcDbEntity
  8
10
  6
Continuous
100
AcDbLine
 10
29.40000000000003
 20
-15.81292400000001
 30
0.0
 11
27.09450900000001
 21
-17.90000000000003
 31
0.0
  0
LINE
  5
5272
330
1E
100
AcDbEntity
  8
10
  6
Continuous
100
AcDbLine
 10
29.00000000000005
 20
-13.5
 30
0.0
 11
29.00000000000005
 21
-15.59111200000001
 31
0.0
  0
LINE
  5
5273
330
1E
100
AcDbEntity
  8
10
  6
Continuous
100
AcDbLine
 10
29.40000000000003
 20
-13.5
 30
0.0
 11
29.40000000000003
 21
-15.81292400000001
 31
0.0
  0
LINE
  5
5274
330
1E
100
AcDbEntity
  8
10
  6
Continuous
100
AcDbLine
 10
33.60000000000002
 20
-9.800710000000037
 30
0.0
 11
32.72657800000001
 21
-9.800710000000037
 31
0.0
  0
LINE
  5
5275
330
1E
100
AcDbEntity
  8
10
  6
Continuous
100
AcDbLine
 10
32.69999999999999
 20
-10.19999999999998
 30
0.0
 11
33.50000000000005
 21
-10.19999999999998
 31
0.0
  0
ARC
  5
5276
330
1E
100
AcDbEntity
  8
10
  6
Continuous
100
AcDbCircle
 10
33.50000000000005
 20
-9.199999999999988
 30
0.0
 40
1.0
100
AcDbArc
 50
270.0
 51
0.0
  0
ARC
  5
5277
330
1E
100
AcDbEntity
  8
10
  6
Continuous
100
AcDbCircle
 10
33.60000000000002
 20
-9.300710000000037
 30
0.0
 40
0.5
100
AcDbArc
 50
270.0
 51
0.0
  0
ARC
  5
5278
330
1E
100
AcDbEntity
  8
10
  6
Continuous
100
AcDbCircle
 10
34.99997000000002
 20
23.99997000000002
 30
0.0
 40
1.0
100
AcDbArc
 50
0.0
 51
90.0
  0
ARC
  5
5279
330
1E
100
AcDbEntity
  8
10
  6
Continuous
100
AcDbCircle
 10
33.60000000000002
 20
17.19999999999998
 30
0.0
 40
0.5
100
AcDbArc
 50
0.0
 51
90.0
  0
ARC
  5
527A
330
1E
100
AcDbEntity
  8
10
  6
Continuous
100
AcDbCircle
 10
33.50000000000005
 20
17.09999999999996
 30
0.0
 40
1.0
100
AcDbArc
 50
0.0
 51
90.0
  0
LINE
  5
527B
330
1E
100
AcDbEntity
  8
10
  6
Continuous
100
AcDbLine
 10
-7.475174593969768
 20
49.99875914965756
 30
0.0
 11
7.524826406030229
 21
49.99875914965756
 31
0.0
  0
LINE
  5
527C
330
1E
100
AcDbEntity
  8
17
  6
DASHDOT
100
AcDbLine
 10
-6.074997999999993
 20
40.0
 30
0.0
 11
6.074996999999996
 21
40.0
 31
0.0
  0
LINE
  5
527E
330
1E
100
AcDbEntity
  8
10
  6
Continuous
100
AcDbLine
 10
-32.47517459396977
 20
49.99875914965756
 30
0.0
 11
-17.47517459396976
 21
49.99875914965756
 31
0.0
  0
LINE
  5
527F
330
1E
100
AcDbEntity
  8
17
  6
DASHDOT
100
AcDbLine
 10
-31.07499799999999
 20
40.0
 30
0.0
 11
-18.925004
 21
40.0
 31
0.0
  0
LINE
  5
5280
330
1E
100
AcDbEntity
  8
10
  6
Continuous
100
AcDbLine
 10
-35.69987899999995
 20
47.19999999999998
 30
0.0
 11
-32.49993999999998
 21
47.19999999999998
 31
0.0
  0
LINE
  5
5281
330
1E
100
AcDbEntity
  8
10
  6
Continuous
100
AcDbLine
 10
-32.50006200000001
 20
37.89996400000001
 30
0.0
 11
-37.50004699999999
 21
37.89996400000001
 31
0.0
  0
LINE
  5
5282
330
1E
100
AcDbEntity
  8
10
  6
Continuous
100
AcDbLine
 10
-35.67511359396974
 20
49.99875914965756
 30
0.0
 11
-32.47517459396977
 21
49.99875914965756
 31
0.0
  0
LINE
  5
5283
330
1E
100
AcDbEntity
  8
10
  6
Continuous
100
AcDbLine
 10
-35.70000099999998
 20
46.25000099999994
 30
0.0
 11
-37.50004699999999
 21
46.25000099999994
 31
0.0
  0
LINE
  5
5284
330
1E
100
AcDbEntity
  8
10
  6
Continuous
100
AcDbLine
 10
-35.70000099999998
 20
46.25000099999994
 30
0.0
 11
-35.67511359396974
 21
49.99875914965756
 31
0.0
  0
CIRCLE
  5
5285
330
1E
100
AcDbEntity
  8
12
  6
DASHED
100
AcDbCircle
 10
-12.50001600000001
 20
41.99993999999998
 30
0.0
 40
2.45
  0
ARC
  5
5286
330
1E
100
AcDbEntity
  8
12
  6
DASHED
100
AcDbCircle
 10
-12.50001600000001
 20
41.99993999999998
 30
0.0
 40
3.9
100
AcDbArc
 50
104.4781279999979
 51
37.3027730000001
  0
LINE
  5
5287
330
1E
100
AcDbEntity
  8
10
  6
Continuous
100
AcDbLine
 10
-7.500062000000013
 20
37.89996400000001
 30
0.0
 11
-17.50006200000001
 21
37.89996400000001
 31
0.0
  0
LINE
  5
5288
330
1E
100
AcDbEntity
  8
10
  6
Continuous
100
AcDbLine
 10
-13.10006199999998
 20
46.25000099999994
 30
0.0
 11
-9.500062000000013
 21
46.25000099999994
 31
0.0
  0
LINE
  5
5289
330
1E
100
AcDbEntity
  8
10
  6
Continuous
100
AcDbLine
 10
-9.05001599999997
 20
41.99993999999998
 30
0.0
 11
-15.95001599999994
 21
41.99993999999998
 31
0.0
  0
LINE
  5
528A
330
1E
100
AcDbEntity
  8
10
  6
Continuous
100
AcDbLine
 10
-17.47517459396976
 20
49.99875914965756
 30
0.0
 11
-13.07517459396973
 21
49.99875914965756
 31
0.0
  0
LINE
  5
528B
330
1E
100
AcDbEntity
  8
10
  6
Continuous
100
AcDbLine
 10
-12.50001600000001
 20
45.44993999999997
 30
0.0
 11
-12.50001600000001
 21
38.54993899999999
 31
0.0
  0
ARC
  5
528C
330
1E
100
AcDbEntity
  8
10
  6
Continuous
100
AcDbCircle
 10
-13.60006199999998
 20
46.26020999999997
 30
0.0
 40
0.5
100
AcDbArc
 50
284.4781280000011
 51
0.0000010000014034
  0
LINE
  5
528D
330
1E
100
AcDbEntity
  8
10
  6
Continuous
100
AcDbLine
 10
-13.10006199999998
 20
46.26020999999997
 30
0.0
 11
-13.07517459396973
 21
49.99875914965756
 31
0.0
  0
ARC
  5
528E
330
1E
100
AcDbEntity
  8
10
  6
Continuous
100
AcDbCircle
 10
-9.000062000000013
 20
44.66645799999997
 30
0.0
 40
0.5
100
AcDbArc
 50
180.0000010000013
 51
217.302773
  0
LINE
  5
528F
330
1E
100
AcDbEntity
  8
10
  6
Continuous
100
AcDbLine
 10
-9.500062000000013
 20
44.66645799999997
 30
0.0
 11
-9.475174593969768
 21
49.99875914965756
 31
0.0
  0
LINE
  5
5290
330
1E
100
AcDbEntity
  8
10
  6
Continuous
100
AcDbLine
 10
-9.475174593969768
 20
49.99875914965756
 30
0.0
 11
-7.475174593969768
 21
49.99875914965756
 31
0.0
  0
LINE
  5
5292
330
1E
100
AcDbEntity
  8
10
  6
Continuous
100
AcDbLine
 10
17.52482640603022
 20
49.99875914965756
 30
0.0
 11
32.52482640603023
 21
49.99875914965756
 31
0.0
  0
LINE
  5
5293
330
1E
100
AcDbEntity
  8
17
  6
DASHDOT
100
AcDbLine
 10
18.925003
 20
40.0
 30
0.0
 11
31.07499699999999
 21
40.0
 31
0.0
  0
ARC
  5
5294
330
1E
100
AcDbEntity
  8
10
  6
Continuous
100
AcDbCircle
 10
12.50000000000005
 20
41.99993999999998
 30
0.0
 40
3.9
100
AcDbArc
 50
104.4783329999995
 51
37.30310200000104
  0
LINE
  5
5295
330
1E
100
AcDbEntity
  8
10
  6
Continuous
100
AcDbLine
 10
17.49993899999998
 20
37.89996400000001
 30
0.0
 11
7.499938999999983
 21
37.89996400000001
 31
0.0
  0
LINE
  5
5296
330
1E
100
AcDbEntity
  8
10
  6
Continuous
100
AcDbLine
 10
11.89993900000001
 20
46.25000099999994
 30
0.0
 11
15.49993899999998
 21
46.25000099999994
 31
0.0
  0
LINE
  5
5297
330
1E
100
AcDbEntity
  8
10
  6
Continuous
100
AcDbLine
 10
7.524826406030229
 20
49.99875914965756
 30
0.0
 11
11.92482640603026
 21
49.99875914965756
 31
0.0
  0
ARC
  5
5298
330
1E
100
AcDbEntity
  8
10
  6
Continuous
100
AcDbCircle
 10
11.39993900000001
 20
46.26020599999998
 30
0.0
 40
0.5
100
AcDbArc
 50
284.4783329999994
 51
0.0
  0
LINE
  5
5299
330
1E
100
AcDbEntity
  8
10
  6
Continuous
100
AcDbLine
 10
11.89993900000001
 20
46.26020599999998
 30
0.0
 11
11.92482640603026
 21
49.99875914965756
 31
0.0
  0
ARC
  5
529A
330
1E
100
AcDbEntity
  8
10
  6
Continuous
100
AcDbCircle
 10
15.99993899999998
 20
44.66647799999998
 30
0.0
 40
0.5
100
AcDbArc
 50
180.0
 51
217.303102000001
  0
LINE
  5
529B
330
1E
100
AcDbEntity
  8
10
  6
Continuous
100
AcDbLine
 10
15.52482640603022
 20
49.99875914965756
 30
0.0
 11
17.52482640603022
 21
49.99875914965756
 31
0.0
  0
LINE
  5
529C
330
1E
100
AcDbEntity
  8
10
  6
Continuous
100
AcDbLine
 10
15.49993899999998
 20
44.66647799999998
 30
0.0
 11
15.52482640603022
 21
49.99875914965756
 31
0.0
  0
LINE
  5
529D
330
1E
100
AcDbEntity
  8
10
  6
Continuous
100
AcDbLine
 10
37.49993899999998
 20
37.89996400000001
 30
0.0
 11
32.49993899999998
 21
37.89996400000001
 31
0.0
  0
LINE
  5
529E
330
1E
100
AcDbEntity
  8
10
  6
Continuous
100
AcDbLine
 10
35.69987800000001
 20
46.25000099999994
 30
0.0
 11
37.49993899999998
 21
46.25000099999994
 31
0.0
  0
LINE
  5
529F
330
1E
100
AcDbEntity
  8
10
  6
Continuous
100
AcDbLine
 10
35.69987800000001
 20
47.19999999999998
 30
0.0
 11
32.49993899999998
 21
47.19999999999998
 31
0.0
  0
LINE
  5
52A0
330
1E
100
AcDbEntity
  8
10
  6
Continuous
100
AcDbLine
 10
32.52482640603023
 20
49.99875914965756
 30
0.0
 11
35.72476540603025
 21
49.99875914965756
 31
0.0
  0
LINE
  5
52A1
330
1E
100
AcDbEntity
  8
10
  6
Continuous
100
AcDbLine
 10
35.69987800000001
 20
46.25000099999994
 30
0.0
 11
35.72476540603025
 21
49.99875914965756
 31
0.0
  0
DIMENSION
  5
52BE
330
1E
100
AcDbEntity
  8
30
  6
Continuous
100
AcDbDimension
  2
*D16
 10
217.4642739999999
 20
-275.999994
 30
0.0
 11
222.1682223234165
 21
-250.0
 31
0.0
 70
   160
  1
more than 52
 71
     5
 42
51.99998600000004
 53
90.0
  3
STANDARD
100
AcDbAlignedDimension
 13
193.087272
 23
-224.0000079999999
 33
0.0
 14
193.087272
 24
-275.999994
 34
0.0
 50
90.0
100
AcDbRotatedDimension
1001
ACAD
1000
DSTYLE
1002
{
1070
   279
1070
     2
1002
}
  0
LINE
  5
52BF
330
1E
100
AcDbEntity
  8
11
  6
Continuous
100
AcDbLine
 10
195.08727
 20
-273.999994
 30
0.0
 11
195.08727
 21
-226.0000079999999
 31
0.0
  0
ARC
  5
52C0
330
1E
100
AcDbEntity
  8
11
  6
Continuous
100
AcDbCircle
 10
193.087272
 20
-273.999994
 30
0.0
 40
2.0
100
AcDbArc
 50
270.0
 51
359.9989989999988
  0
ARC
  5
52C1
330
1E
100
AcDbEntity
  8
11
  6
Continuous
100
AcDbCircle
 10
193.087272
 20
-226.0000079999999
 30
0.0
 40
2.0
100
AcDbArc
 50
359.9977419999995
 51
90.0
  0
DIMENSION
  5
535F
330
1E
100
AcDbEntity
  8
30
  6
Continuous
100
AcDbDimension
  2
*D17
 10
214.5481322062508
 20
68.20557700000001
 30
0.0
 11
189.0481462062509
 21
68.20557700000001
 31
0.0
 70
   160
  1
<>
 71
     5
 42
50.99997099999995
  3
STANDARD
100
AcDbAlignedDimension
 13
163.5481612062509
 23
47.19999999999998
 33
0.0
 14
214.5481322062508
 24
43.00006200000001
 34
0.0
100
AcDbRotatedDimension
  0
DIMENSION
  5
5360
330
1E
100
AcDbEntity
  8
30
  6
Continuous
100
AcDbDimension
  2
*D18
 10
130.5481322062509
 20
-69.490521
 30
0.0
 11
172.5481322062509
 21
-69.490521
 31
0.0
 70
   160
  1
<>
 71
     5
 42
83.99999999999995
  3
STANDARD
100
AcDbAlignedDimension
 13
214.5481322062508
 23
-43.06257099999998
 33
0.0
 14
130.5481322062509
 24
9.500002999999992
 34
0.0
100
AcDbRotatedDimension
  0
DIMENSION
  5
5361
330
1E
100
AcDbEntity
  8
30
  6
Continuous
100
AcDbDimension
  2
*D19
 10
214.5481322062508
 20
59.27054900000001
 30
0.0
 11
193.0479362062509
 21
59.27054900000001
 31
0.0
 70
   160
  1
<>
 71
     5
 42
43.00039099999992
  3
STANDARD
100
AcDbAlignedDimension
 13
171.5477412062509
 23
45.89999999999998
 33
0.0
 14
214.5481322062508
 24
43.00006000000002
 34
0.0
100
AcDbRotatedDimension
  0
DIMENSION
  5
5362
330
1E
100
AcDbEntity
  8
30
  6
Continuous
100
AcDbDimension
  2
*D20
 10
154.5481912062509
 20
-61.31171800000004
 30
0.0
 11
184.5481622062509
 21
-61.31171800000004
 31
0.0
 70
   160
  1
<>
 71
     5
 42
59.99994099999992
  3
STANDARD
100
AcDbAlignedDimension
 13
214.5481322062508
 23
-43.00005400000003
 33
0.0
 14
154.5481912062509
 24
-36.89997099999999
 34
0.0
100
AcDbRotatedDimension
  0
LINE
  5
5363
330
1E
100
AcDbEntity
  8
12
  6
DASHED
100
AcDbLine
 10
171.5481322062509
 20
39.55000000000001
 30
0.0
 11
214.5481322062508
 21
39.55000000000001
 31
0.0
  0
LINE
  5
5364
330
1E
100
AcDbEntity
  8
12
  6
DASHED
100
AcDbLine
 10
171.5481322062509
 20
44.44999999999999
 30
0.0
 11
214.5481322062508
 21
44.44999999999999
 31
0.0
  0
LINE
  5
5365
330
1E
100
AcDbEntity
  8
10
  6
Continuous
100
AcDbLine
 10
163.5481322062509
 20
46.25
 30
0.0
 11
214.0060602062509
 21
46.25
 31
0.0
  0
LINE
  5
5366
330
1E
100
AcDbEntity
  8
10
  6
Continuous
100
AcDbLine
 10
163.5481322062509
 20
-46.25
 30
0.0
 11
214.0060502062509
 21
-46.25
 31
0.0
  0
LINE
  5
5367
330
1E
100
AcDbEntity
  8
10
  6
Continuous
100
AcDbLine
 10
166.3481322062509
 20
50.0
 30
0.0
 11
211.6797232062509
 21
50.0
 31
0.0
  0
LINE
  5
5368
330
1E
100
AcDbEntity
  8
10
  6
Continuous
100
AcDbLine
 10
166.3481322062509
 20
-50.0
 30
0.0
 11
211.6797132062509
 21
-50.0
 31
0.0
  0
DIMENSION
  5
536A
330
1E
100
AcDbEntity
  8
30
  6
Continuous
100
AcDbDimension
  2
*D21
 10
122.8094862062509
 20
38.0
 30
0.0
 11
122.8094862062509
 21
0.0
 31
0.0
 70
   160
  1
<>
 71
     5
 42
76.0
  3
STANDARD
100
AcDbAlignedDimension
 13
155.0481302062509
 23
-38.0
 33
0.0
 14
155.0481302062509
 24
38.0
 34
0.0
 50
90.0
100
AcDbRotatedDimension
  0
LINE
  5
536B
330
1E
100
AcDbEntity
  8
10
  6
Continuous
100
AcDbLine
 10
154.5481322062509
 20
37.5
 30
0.0
 11
154.5481322062509
 21
-37.5
 31
0.0
  0
DIMENSION
  5
536D
330
1E
100
AcDbEntity
  8
30
  6
Continuous
100
AcDbDimension
  2
*D22
 10
142.5481322062509
 20
-61.31171800000004
 30
0.0
 11
133.3934600529175
 21
-61.31171800000004
 31
0.0
 70
   160
  1
<>
 71
     5
 42
4.0
  3
STANDARD
100
AcDbAlignedDimension
 13
146.5481322062509
 23
-25.0
 33
0.0
 14
142.5481322062509
 24
-24.0
 34
0.0
100
AcDbRotatedDimension
  0
DIMENSION
  5
536E
330
1E
100
AcDbEntity
  8
30
  6
Continuous
100
AcDbDimension
  2
*D23
 10
146.5481322062509
 20
-61.31171800000004
 30
0.0
 11
150.5481322062509
 21
-61.31171800000004
 31
0.0
 70
   160
  1
<>
 71
     5
 42
8.0
  3
STANDARD
100
AcDbAlignedDimension
 13
154.5481322062509
 23
-37.5
 33
0.0
 14
146.5481322062509
 24
-25.0
 34
0.0
100
AcDbRotatedDimension
  0
LINE
  5
536F
330
1E
100
AcDbEntity
  8
10
  6
Continuous
100
AcDbLine
 10
135.1695282062509
 20
21.25771900000001
 30
0.0
 11
142.5481322062509
 21
18.27656999999999
 31
0.0
  0
LINE
  5
5370
330
1E
100
AcDbEntity
  8
10
  6
Continuous
100
AcDbLine
 10
133.2964962062509
 20
16.6218
 30
0.0
 11
142.5481322062509
 21
12.88389599999999
 31
0.0
  0
LINE
  5
5371
330
1E
100
AcDbEntity
  8
10
  6
Continuous
100
AcDbLine
 10
135.7728032062509
 20
19.39617900000001
 30
0.0
 11
142.5481322062509
 21
16.65876800000001
 31
0.0
  0
LINE
  5
5372
330
1E
100
AcDbEntity
  8
10
  6
Continuous
100
AcDbLine
 10
142.5481322062509
 20
14.50171
 30
0.0
 11
135.0170282062509
 21
17.54445499999997
 31
0.0
  0
ARC
  5
5376
330
1E
100
AcDbEntity
  8
30
  6
Continuous
100
AcDbCircle
 10
157.5981322062509
 20
9.5
 30
0.0
 40
27.05
100
AcDbArc
 50
163.6663309999992
 51
180.0
  0
LINE
  5
5378
330
1E
100
AcDbEntity
  8
10
  6
Continuous
100
AcDbLine
 10
132.8913952062509
 20
20.29070899999999
 30
0.0
 11
132.3294852062509
 21
18.89993299999997
 31
0.0
  0
CIRCLE
  5
5379
330
1E
100
AcDbEntity
  8
10
  6
Continuous
100
AcDbCircle
 10
135.3916442062508
 20
18.47166899999996
 30
0.0
 40
1.0
  0
ARC
  5
537A
330
1E
100
AcDbEntity
  8
10
  6
Continuous
100
AcDbCircle
 10
133.9520572062509
 20
18.244371
 30
0.0
 40
1.75
100
AcDbArc
 50
157.9999999999992
 51
248.0000000000019
  0
ARC
  5
537B
330
1E
100
AcDbEntity
  8
10
  6
Continuous
100
AcDbCircle
 10
134.5139672062509
 20
19.63514700000001
 30
0.0
 40
1.75
100
AcDbArc
 50
68.00000000000199
 51
157.9999999999992
  0
LINE
  5
537C
330
1E
100
AcDbEntity
  8
10
  6
Continuous
100
AcDbLine
 10
163.5481322062509
 20
-47.19999999999998
 30
0.0
 11
166.3481322062509
 21
-50.0
 31
0.0
  0
LINE
  5
537D
330
1E
100
AcDbEntity
  8
10
  6
Continuous
100
AcDbLine
 10
163.5481322062509
 20
-38.0
 30
0.0
 11
163.5481322062509
 21
-47.19999999999998
 31
0.0
  0
LINE
  5
537E
330
1E
100
AcDbEntity
  8
10
  6
Continuous
100
AcDbLine
 10
163.5481322062509
 20
-38.0
 30
0.0
 11
155.0481322062509
 21
-38.0
 31
0.0
  0
ARC
  5
537F
330
1E
100
AcDbEntity
  8
10
  6
Continuous
100
AcDbCircle
 10
155.0481322062509
 20
-37.5
 30
0.0
 40
0.5
100
AcDbArc
 50
180.0
 51
270.0
  0
LINE
  5
5382
330
1E
100
AcDbEntity
  8
10
  6
Continuous
100
AcDbLine
 10
143.5481322062509
 20
24.23809499999999
 30
0.0
 11
143.5481322062509
 21
-24.25
 31
0.0
  0
LINE
  5
5383
330
1E
100
AcDbEntity
  8
10
  6
Continuous
100
AcDbLine
 10
146.5481322062509
 20
25.0
 30
0.0
 11
146.5481322062509
 21
-25.0
 31
0.0
  0
LINE
  5
5384
330
1E
100
AcDbEntity
  8
10
  6
Continuous
100
AcDbLine
 10
142.5481322062509
 20
24.0
 30
0.0
 11
142.5481322062509
 21
-24.0
 31
0.0
  0
LINE
  5
5386
330
1E
100
AcDbEntity
  8
10
  6
Continuous
100
AcDbLine
 10
146.5481322062509
 20
-25.0
 30
0.0
 11
154.5481322062509
 21
-25.0
 31
0.0
  0
LINE
  5
5387
330
1E
100
AcDbEntity
  8
10
  6
Continuous
100
AcDbLine
 10
146.5481322062509
 20
-25.0
 30
0.0
 11
142.5481322062509
 21
-24.0
 31
0.0
  0
LINE
  5
5388
330
1E
100
AcDbEntity
  8
10
  6
Continuous
100
AcDbLine
 10
154.5481322062509
 20
25.0
 30
0.0
 11
146.5481322062509
 21
25.0
 31
0.0
  0
LINE
  5
5389
330
1E
100
AcDbEntity
  8
10
  6
Continuous
100
AcDbLine
 10
146.5481322062509
 20
25.0
 30
0.0
 11
142.5481322062509
 21
24.0
 31
0.0
  0
LINE
  5
538C
330
1E
100
AcDbEntity
  8
10
  6
Continuous
100
AcDbLine
 10
163.5481322062509
 20
38.09999999999996
 30
0.0
 11
171.5481322062509
 21
38.09999999999996
 31
0.0
  0
LINE
  5
538D
330
1E
100
AcDbEntity
  8
10
  6
Continuous
100
AcDbLine
 10
163.5481322062509
 20
45.89999999999998
 30
0.0
 11
171.5481322062509
 21
45.89999999999998
 31
0.0
  0
LINE
  5
538E
330
1E
100
AcDbEntity
  8
10
  6
Continuous
100
AcDbLine
 10
163.5481322062509
 20
47.19999999999998
 30
0.0
 11
166.3481322062509
 21
50.0
 31
0.0
  0
LINE
  5
538F
330
1E
100
AcDbEntity
  8
10
  6
Continuous
100
AcDbLine
 10
163.5481322062509
 20
38.0
 30
0.0
 11
155.0481322062509
 21
38.0
 31
0.0
  0
ARC
  5
5390
330
1E
100
AcDbEntity
  8
10
  6
Continuous
100
AcDbCircle
 10
155.0481322062509
 20
37.5
 30
0.0
 40
0.5
100
AcDbArc
 50
90.0
 51
180.0
  0
LINE
  5
5391
330
1E
100
AcDbEntity
  8
10
  6
Continuous
100
AcDbLine
 10
163.5481322062509
 20
47.19999999999998
 30
0.0
 11
163.5481322062509
 21
38.0
 31
0.0
  0
LINE
  5
5392
330
1E
100
AcDbEntity
  8
10
  6
Continuous
100
AcDbLine
 10
171.5481322062509
 20
38.09999999999996
 30
0.0
 11
171.5481322062509
 21
45.89999999999998
 31
0.0
  0
LINE
  5
5393
330
1E
100
AcDbEntity
  8
10
  6
Continuous
100
AcDbLine
 10
214.5481322062508
 20
43.06262799999996
 30
0.0
 11
214.5481322062508
 21
15.800048
 31
0.0
  0
LINE
  5
5394
330
1E
100
AcDbEntity
  8
10
  6
Continuous
100
AcDbLine
 10
214.5481322062508
 20
-20.10652000000004
 30
0.0
 11
214.5481322062508
 21
-43.06257099999998
 31
0.0
  0
LINE
  5
5395
330
1E
100
AcDbEntity
  8
10
  6
Continuous
100
AcDbLine
 10
213.6514022062509
 20
-48.33532300000001
 30
0.0
 11
214.5481322062508
 21
-43.06257099999998
 31
0.0
  0
ARC
  5
5396
330
1E
100
AcDbEntity
  8
10
  6
Continuous
 62
   254
100
AcDbCircle
 10
211.6797132062509
 20
-48.0
 30
0.0
 40
2.0
100
AcDbArc
 50
270.0
 51
350.3481370000006
  0
LINE
  5
5397
330
1E
100
AcDbEntity
  8
10
  6
Continuous
100
AcDbLine
 10
211.7479712062509
 20
-15.64986900000002
 30
0.0
 11
211.2479712062509
 21
-17.64986900000002
 31
0.0
  0
LINE
  5
5398
330
1E
100
AcDbEntity
  8
10
  6
Continuous
100
AcDbLine
 10
210.7981322062508
 20
-17.56705699999997
 30
0.0
 11
213.0657702062509
 21
-18.17466899999999
 31
0.0
  0
LINE
  5
5399
330
1E
100
AcDbEntity
  8
10
  6
Continuous
100
AcDbLine
 10
210.7981322062508
 20
17.79998699999998
 30
0.0
 11
212.0481012062508
 21
17.79998699999998
 31
0.0
  0
LINE
  5
539A
330
1E
100
AcDbEntity
  8
10
  6
Continuous
100
AcDbLine
 10
210.7981322062508
 20
17.79998699999998
 30
0.0
 11
210.7981322062508
 21
-17.56704900000005
 31
0.0
  0
LINE
  5
539B
330
1E
100
AcDbEntity
  8
10
  6
Continuous
100
AcDbLine
 10
211.1071902062509
 20
-17.64986900000002
 30
0.0
 11
211.2479712062509
 21
-17.64986900000002
 31
0.0
  0
ARC
  5
539C
330
1E
100
AcDbEntity
  8
10
  6
Continuous
100
AcDbCircle
 10
212.5481322062508
 20
-20.10652000000004
 30
0.0
 40
2.0
100
AcDbArc
 50
0.0
 51
75.00000000000209
  0
LINE
  5
539D
330
1E
100
AcDbEntity
  8
10
  6
Continuous
100
AcDbLine
 10
211.7479712062509
 20
-15.64986900000002
 30
0.0
 11
214.0479712062509
 21
-17.94986900000003
 31
0.0
  0
LINE
  5
539E
330
1E
100
AcDbEntity
  8
10
  6
Continuous
100
AcDbLine
 10
214.0479712062509
 20
-17.94986900000003
 30
0.0
 11
214.1505542062509
 21
-18.90975600000001
 31
0.0
  0
ARC
  5
539F
330
1E
100
AcDbEntity
  8
10
  6
Continuous
100
AcDbCircle
 10
214.0481012062508
 20
15.800048
 30
0.0
 40
0.5
100
AcDbArc
 50
270.0
 51
0.0
  0
ARC
  5
53A0
330
1E
100
AcDbEntity
  8
10
  6
Continuous
100
AcDbCircle
 10
212.5366912062508
 20
16.75669099999999
 30
0.0
 40
0.3
100
AcDbArc
 50
189.9999999999986
 51
228.9999999999995
  0
ARC
  5
53A1
330
1E
100
AcDbEntity
  8
10
  6
Continuous
100
AcDbCircle
 10
212.5366912062508
 20
16.75669099999999
 30
0.0
 40
0.3
100
AcDbArc
 50
189.9999999999986
 51
228.9999999999995
  0
LINE
  5
53A2
330
1E
100
AcDbEntity
  8
10
  6
Continuous
100
AcDbLine
 10
212.0481012062508
 20
17.79998699999998
 30
0.0
 11
212.241248206251
 21
16.70459699999997
 31
0.0
  0
LINE
  5
53A3
330
1E
100
AcDbEntity
  8
10
  6
Continuous
100
AcDbLine
 10
213.7550912062509
 20
15.300048
 30
0.0
 11
214.0481012062508
 21
15.300048
 31
0.0
  0
LINE
  5
53A4
330
1E
100
AcDbEntity
  8
10
  6
Continuous
100
AcDbLine
 10
212.3398732062508
 20
16.53027799999995
 30
0.0
 11
213.7550912062509
 21
15.300048
 31
0.0
  0
LINE
  5
53A5
330
1E
100
AcDbEntity
  8
10
  6
Continuous
100
AcDbLine
 10
213.6514132062508
 20
48.33532200000002
 30
0.0
 11
214.5481322062508
 21
43.06262799999996
 31
0.0
  0
ARC
  5
53A6
330
1E
100
AcDbEntity
  8
10
  6
Continuous
100
AcDbCircle
 10
211.6797232062509
 20
48.0
 30
0.0
 40
2.0
100
AcDbArc
 50
9.651861000000939
 51
90.0
  0
LINE
  5
5875
330
1E
100
AcDbEntity
  8
10
  6
Continuous
100
AcDbLine
 10
5.353098500000044
 20
17.27753199999995
 30
0.0
 11
-5.264328499999919
 21
17.27753199999995
 31
0.0
  0
LINE
  5
5876
330
1E
100
AcDbEntity
  8
10
  6
Continuous
100
AcDbLine
 10
-6.500007500000037
 20
3.900030000000015
 30
0.0
 11
6.500007499999981
 21
3.900030000000015
 31
0.0
  0
LINE
  5
5877
330
1E
100
AcDbEntity
  8
10
  6
Continuous
100
AcDbLine
 10
-6.050007499999992
 20
9.279080999999905
 30
0.0
 11
6.049999500000069
 21
9.279080999999905
 31
0.0
  0
LINE
  5
587C
330
1E
100
AcDbEntity
  8
10
  6
Continuous
100
AcDbLine
 10
-6.500007500000037
 20
15.10002999999994
 30
0.0
 11
-6.050007499999992
 21
15.10002999999994
 31
0.0
  0
LINE
  5
587D
330
1E
100
AcDbEntity
  8
10
  6
Continuous
100
AcDbLine
 10
-6.500007500000037
 20
18.25002999999992
 30
0.0
 11
-6.050007499999992
 21
18.25002999999992
 31
0.0
  0
LINE
  5
5881
330
1E
100
AcDbEntity
  8
10
  6
Continuous
100
AcDbLine
 10
6.049999500000069
 20
15.10002999999994
 30
0.0
 11
6.500007499999981
 21
15.10002999999994
 31
0.0
  0
LINE
  5
5882
330
1E
100
AcDbEntity
  8
10
  6
Continuous
100
AcDbLine
 10
6.049999500000069
 20
18.25002999999992
 30
0.0
 11
6.500007499999981
 21
18.25002999999992
 31
0.0
  0
TEXT
  5
59A5
330
1E
100
AcDbEntity
  8
19
  6
Continuous
100
AcDbText
 10
165.3782574920217
 20
221.0448441088611
 30
0.0
 40
5.0
  1
FC-53ET 3P
  7
STANDARD1
100
AcDbText
  0
DIMENSION
  5
59A6
330
1E
100
AcDbEntity
  8
30
  6
Continuous
100
AcDbDimension
  2
*D31
 10
199.7491769457498
 20
157.814895586841
 30
0.0
 11
199.7491769457498
 21
161.3148960868409
 31
0.0
 70
   160
  1
<>
 71
     5
 42
7.000000999999997
  3
STANDARD
100
AcDbAlignedDimension
 13
190.8913399457498
 23
164.814896586841
 33
0.0
 14
190.6413399457498
 24
157.814895586841
 34
0.0
 50
90.0
100
AcDbRotatedDimension
  0
DIMENSION
  5
59A7
330
1E
100
AcDbEntity
  8
30
  6
Continuous
100
AcDbDimension
  2
*D29
 10
181.9269454205476
 20
162.3475602770374
 30
0.0
 11
204.4283863673141
 21
193.842494835158
 31
0.0
 70
   163
  1
<>
 71
     5
 42
5.499999580648989
  3
STANDARD
100
AcDbDiametricDimension
 15
184.3557334709516
 25
167.2822318966443
 35
0.0
 40
0.0
  0
LINE
  5
59A8
330
1E
100
AcDbEntity
  8
24
100
AcDbLine
 10
175.6413399457498
 20
157.814895586841
 30
0.0
 11
175.6413399457498
 21
187.190979586841
 31
0.0
  0
LINE
  5
59A9
330
1E
100
AcDbEntity
  8
24
100
AcDbLine
 10
190.6413399457498
 20
157.814895586841
 30
0.0
 11
190.6413399457498
 21
187.190979586841
 31
0.0
  0
CIRCLE
  5
59AA
330
1E
100
AcDbEntity
  8
24
100
AcDbCircle
 10
183.1413399457498
 20
164.814896586841
 30
0.0
 40
2.75
  0
LINE
  5
59AB
330
1E
100
AcDbEntity
  8
17
  6
DASHDOT
100
AcDbLine
 10
183.1413399457498
 20
172.564896586841
 30
0.0
 11
183.1413399457498
 21
157.064896586841
 31
0.0
  0
DIMENSION
  5
59AC
330
1E
100
AcDbEntity
  8
30
  6
Continuous
100
AcDbDimension
  2
*D30
 10
175.6413399457498
 20
149.221807886383
 30
0.0
 11
183.1413399457498
 21
144.8862884303096
 31
0.0
 70
   160
  1
max<>
 71
     5
 42
15.0
  3
STANDARD
100
AcDbAlignedDimension
 13
190.6413399457498
 23
157.814895586841
 33
0.0
 14
175.6413399457498
 24
157.814895586841
 34
0.0
 50
180.0
100
AcDbRotatedDimension
1001
ACAD
1000
DSTYLE
1002
{
1070
   279
1070
     2
1002
}
  0
MTEXT
  5
59AD
330
1E
100
AcDbEntity
  8
19
  6
Continuous
100
AcDbMText
 10
177.4250468928707
 20
135.8261932220275
 30
0.0
 40
5.0
 41
0.0
 71
     1
 72
     1
  1
\W0.879;\A1;t≦4
  7
STANDARD1
 73
     1
 44
1.0
  0
LINE
  5
59AE
330
1E
100
AcDbEntity
  8
24
100
AcDbLine
 10
175.6413399457498
 20
157.814895586841
 30
0.0
 11
190.6413399457498
 21
157.814895586841
 31
0.0
  0
LINE
  5
59AF
330
1E
100
AcDbEntity
  8
17
  6
DASHDOT
100
AcDbLine
 10
175.3913399457498
 20
164.814896586841
 30
0.0
 11
190.8913399457498
 21
164.814896586841
 31
0.0
  0
LWPOLYLINE
  5
59F1
330
1E
100
AcDbEntity
  8
18
  6
DIVIDE
100
AcDbPolyline
 90
        4
 70
     1
 43
0.0
 10
-37.5
 20
-299.75
 10
37.5
 20
-299.75
 10
37.5
 20
-200.2499999999999
 10
-37.5
 20
-200.2499999999999
  0
LINE
  5
59F3
330
1E
100
AcDbEntity
  8
24
  6
DASHDOT
100
AcDbLine
 10
188.1481322062508
 20
36.79999999999995
 30
0.0
 11
188.8481322062509
 21
34.0
 31
0.0
  0
LINE
  5
59F4
330
1E
100
AcDbEntity
  8
24
  6
DASHDOT
100
AcDbLine
 10
190.5481322062509
 20
36.54289400000005
 30
0.0
 11
190.5481322062509
 21
35.20000000000004
 31
0.0
  0
LINE
  5
59F5
330
1E
100
AcDbEntity
  8
24
  6
DASHDOT
100
AcDbLine
 10
190.8481322062509
 20
34.0
 30
0.0
 11
190.1481322062508
 21
36.79999999999995
 31
0.0
  0
LINE
  5
59F6
330
1E
100
AcDbEntity
  8
24
  6
DASHDOT
100
AcDbLine
 10
186.653955206251
 20
44.5
 30
0.0
 11
186.653955206251
 21
35.5
 31
0.0
  0
LINE
  5
59F7
330
1E
100
AcDbEntity
  8
24
  6
DASHDOT
100
AcDbLine
 10
188.1481322062508
 20
34.0
 30
0.0
 11
188.1481322062508
 21
46.0
 31
0.0
  0
ARC
  5
59F8
330
1E
100
AcDbEntity
  8
24
  6
DASHDOT
100
AcDbCircle
 10
185.3882272062509
 20
37.10000000000002
 30
0.0
 40
1.6
100
AcDbArc
 50
197.0334100000007
 51
270.0
  0
LINE
  5
59F9
330
1E
100
AcDbEntity
  8
24
  6
DASHDOT
100
AcDbLine
 10
185.3882272062509
 20
35.5
 30
0.0
 11
186.653955206251
 21
35.5
 31
0.0
  0
LINE
  5
59FA
330
1E
100
AcDbEntity
  8
24
  6
DASHDOT
100
AcDbLine
 10
188.1481322062508
 20
34.0
 30
0.0
 11
190.8481322062509
 21
34.0
 31
0.0
  0
LINE
  5
59FB
330
1E
100
AcDbEntity
  8
24
  6
DASHDOT
100
AcDbLine
 10
192.3481322062509
 20
42.0
 30
0.0
 11
199.6539562062509
 21
42.0
 31
0.0
  0
LINE
  5
59FC
330
1E
100
AcDbEntity
  8
24
  6
DASHDOT
100
AcDbLine
 10
199.6539562062509
 20
42.5
 30
0.0
 11
192.3481322062509
 21
42.5
 31
0.0
  0
LINE
  5
59FD
330
1E
100
AcDbEntity
  8
24
  6
DASHDOT
100
AcDbLine
 10
192.3481322062509
 20
38.0
 30
0.0
 11
199.6539562062509
 21
38.0
 31
0.0
  0
LINE
  5
59FE
330
1E
100
AcDbEntity
  8
24
  6
DASHDOT
100
AcDbLine
 10
192.3481322062509
 20
37.5
 30
0.0
 11
199.6539562062509
 21
37.5
 31
0.0
  0
LINE
  5
59FF
330
1E
100
AcDbEntity
  8
24
  6
DASHDOT
100
AcDbLine
 10
174.7481442062509
 20
40.0
 30
0.0
 11
204.7481452062509
 21
40.0
 31
0.0
  0
LINE
  5
5A00
330
1E
100
AcDbEntity
  8
24
  6
DASHDOT
100
AcDbLine
 10
186.653955206251
 20
44.5
 30
0.0
 11
185.3882272062509
 21
44.5
 31
0.0
  0
ARC
  5
5A01
330
1E
100
AcDbEntity
  8
24
  6
DASHDOT
100
AcDbCircle
 10
194.8539552062508
 20
40.0
 30
0.0
 40
11.5
100
AcDbArc
 50
163.1999889999988
 51
196.7999850000012
  0
ARC
  5
5A02
330
1E
100
AcDbEntity
  8
24
  6
DASHDOT
100
AcDbCircle
 10
185.3882272062509
 20
42.89999999999998
 30
0.0
 40
1.6
100
AcDbArc
 50
90.0
 51
162.9665899999992
  0
LINE
  5
5A03
330
1E
100
AcDbEntity
  8
24
  6
DASHDOT
100
AcDbLine
 10
188.1481322062508
 20
46.0
 30
0.0
 11
190.8481322062509
 21
46.0
 31
0.0
  0
LINE
  5
5A04
330
1E
100
AcDbEntity
  8
24
  6
DASHDOT
100
AcDbLine
 10
186.9481322062508
 20
44.04999999999995
 30
0.0
 11
187.8481322062509
 21
44.04999999999995
 31
0.0
  0
LINE
  5
5A05
330
1E
100
AcDbEntity
  8
24
  6
DASHDOT
100
AcDbLine
 10
186.653955206251
 20
38.0
 30
0.0
 11
187.245381206251
 21
38.0
 31
0.0
  0
LINE
  5
5A06
330
1E
100
AcDbEntity
  8
24
  6
DASHDOT
100
AcDbLine
 10
186.9481322062508
 20
35.95000000000004
 30
0.0
 11
187.8481322062509
 21
35.95000000000004
 31
0.0
  0
SPLINE
  5
5A07
330
1E
100
AcDbEntity
  8
24
  6
DASHDOT
100
AcDbSpline
210
0.0
220
0.0
230
1.0
 70
     8
 71
     3
 72
    55
 73
    51
 74
    49
 42
0.0000000001
 43
0.0000000001
 44
0.000001
 12
-0.2169304578160424
 22
0.9761870601845336
 32
0.0
 13
0.0046239517060918
 23
0.9999893094781661
 33
0.0
 40
0.0
 40
0.0
 40
0.0
 40
0.0
 40
0.0437569220238625
 40
0.0875135305951176
 40
0.1312755701087972
 40
0.1750376094504257
 40
0.2187938241451016
 40
0.2625500362757181
 40
0.3062892585533236
 40
0.3500284758650772
 40
0.3937398216690819
 40
0.4374511601531694
 40
0.4811242574570912
 40
0.5247973450301428
 40
0.568422451457999
 40
0.6120475457280698
 40
0.6556157063047566
 40
0.6991838522828314
 40
0.7426877102869691
 40
0.7861915579188385
 40
0.8296272735879851
 40
0.8730629775103267
 40
0.9164281475954007
 40
0.9597933047015626
 40
1.003086366766038
 40
1.046379414694101
 40
1.089599731301322
 40
1.132820032890378
 40
1.175967996175528
 40
1.219115943425242
 40
1.26219300057567
 40
1.305270040784861
 40
1.348278752327484
 40
1.391287446239311
 40
1.434231893442851
 40
1.477176333852305
 40
1.520062938375898
 40
1.562949535944074
 40
1.605785576126202
 40
1.648621609266635
 40
1.691414829409662
 40
1.734208042473233
 40
1.776966654796407
 40
1.819725259758304
 40
1.862457945136824
 40
1.905190623241537
 40
1.947906558641986
 40
1.990622487064075
 40
2.033331354958136
 40
2.076039743334759
 40
2.076039743334759
 40
2.076039743334759
 40
2.076039743334759
 10
186.9481325743219
 20
35.95000044462344
 30
0.0
 10
186.9449685046128
 20
35.96423875831451
 30
0.0
 10
186.9386295697945
 20
35.99271288061823
 30
0.0
 10
186.9290940117534
 20
36.03541980760214
 30
0.0
 10
186.9195468974478
 20
36.0781258992073
 30
0.0
 10
186.910000057511
 20
36.12083191773885
 30
0.0
 10
186.900466427514
 20
36.16353889817684
 30
0.0
 10
186.8909594947202
 20
36.20624404025453
 30
0.0
 10
186.8814911629145
 20
36.24895195772671
 30
0.0
 10
186.8720757775227
 20
36.29165626951236
 30
0.0
 10
186.8627244451588
 20
36.33436514475405
 30
0.0
 10
186.8534521428425
 20
36.37706870160042
 30
0.0
 10
186.8442691296084
 20
36.41977851280246
 30
0.0
 10
186.8351910634072
 20
36.46248137784812
 30
0.0
 10
186.8262275640612
 20
36.50519209941009
 30
0.0
 10
186.8173948802968
 20
36.54789436280232
 30
0.0
 10
186.8087020948851
 20
36.59060596193348
 30
0.0
 10
186.8001658943079
 20
36.63330793615449
 30
0.0
 10
186.7917949530074
 20
36.67602078131457
 30
0.0
 10
186.7836012528803
 20
36.71872304296263
 30
0.0
 10
186.7755883448678
 20
36.76143649528546
 30
0.0
 10
186.7677682086951
 20
36.80413867900256
 30
0.0
 10
186.7601443868999
 20
36.84685246881768
 30
0.0
 10
186.7527287863978
 20
36.88955465475059
 30
0.0
 10
186.7455250623954
 20
36.93226872640673
 30
0.0
 10
186.7385449698558
 20
36.97497100572002
 30
0.0
 10
186.7317923545207
 20
37.01768530573954
 30
0.0
 10
186.7252786214563
 20
37.06038778054671
 30
0.0
 10
186.7190077605345
 20
37.10310222910369
 30
0.0
 10
186.7129908761059
 20
37.14580498959934
 30
0.0
 10
186.7072322902086
 20
37.18851950915237
 30
0.0
 10
186.7017427455908
 20
37.23122266133827
 30
0.0
 10
186.6965269537436
 20
37.27393717241579
 30
0.0
 10
186.6915952307041
 20
37.31664094107538
 30
0.0
 10
186.6869527304038
 20
37.35935558111757
 30
0.0
 10
186.6826043060624
 20
37.40206025877599
 30
0.0
 10
186.6785506061521
 20
37.44477455664947
 30
0.0
 10
186.6747959659087
 20
37.48747991490044
 30
0.0
 10
186.6713415063027
 20
37.53019369644326
 30
0.0
 10
186.6681911009212
 20
37.57289977650909
 30
0.0
 10
186.6653463061427
 20
37.61561300137223
 30
0.0
 10
186.6628105884318
 20
37.65831984358195
 30
0.0
 10
186.6605858812784
 20
37.70103246851226
 30
0.0
 10
186.6586754239063
 20
37.74374011406924
 30
0.0
 10
186.6570815814833
 20
37.78645210301341
 30
0.0
 10
186.6558073061299
 20
37.82916059888076
 30
0.0
 10
186.6548552516677
 20
37.87187190910659
 30
0.0
 10
186.6542279718897
 20
37.9145813033643
 30
0.0
 10
186.6539290412004
 20
37.95729171599992
 30
0.0
 10
186.6539483623707
 20
37.9857644673562
 30
0.0
 10
186.6540141895458
 20
38.00000044462342
 30
0.0
 11
186.9481325743219
 21
35.95000044462344
 31
0.0
 11
186.938624226949
 21
35.99271147355202
 31
0.0
 11
186.929091683956
 21
36.03541711129017
 31
0.0
 11
186.9195460793725
 21
36.07812539649557
 31
0.0
 11
186.9100009056555
 21
36.12083377795693
 31
0.0
 11
186.9004697409056
 21
36.16353932014772
 31
0.0
 11
186.8909636341727
 21
36.20625044462369
 31
0.0
 11
186.8814985873984
 21
36.24895328505442
 31
0.0
 11
186.8720832642597
 21
36.29166711129042
 31
0.0
 11
186.8627359708224
 21
36.33436734537116
 31
0.0
 11
186.8534630190962
 21
36.37708377795718
 31
0.0
 11
186.844284754072
 21
36.41978154151388
 31
0.0
 11
186.8352054355688
 21
36.46250044462391
 31
0.0
 11
186.8262473109668
 21
36.5051959014676
 31
0.0
 11
186.8174128789914
 21
36.54791711129064
 31
0.0
 11
186.8087259925995
 21
36.59061046800701
 31
0.0
 11
186.8001877146784
 21
36.63333377795729
 31
0.0
 11
186.7918222240281
 21
36.67602574739962
 31
0.0
 11
186.7836255772532
 21
36.71875044462387
 31
0.0
 11
186.7756182005049
 21
36.76144170048255
 31
0.0
 11
186.7677951785796
 21
36.80416711129041
 31
0.0
 11
186.7601768469277
 21
36.84685784851092
 31
0.0
 11
186.7527584998299
 21
36.88958377795697
 31
0.0
 11
186.7455601456505
 21
36.93227421034658
 31
0.0
 11
186.7385775221775
 21
36.97500044462362
 31
0.0
 11
186.731830058826
 21
37.01769081429318
 31
0.0
 11
186.7253140631077
 21
37.06041711129026
 31
0.0
 11
186.7190480818637
 21
37.10310767731084
 31
0.0
 11
186.713029285355
 21
37.1458337779569
 31
0.0
 11
186.7072752424634
 21
37.18852480858254
 31
0.0
 11
186.7017841879662
 21
37.23125044462369
 31
0.0
 11
186.6965725481524
 21
37.2739422276193
 31
0.0
 11
186.691639769988
 21
37.31666711129046
 31
0.0
 11
186.6870001491437
 21
37.35936019800192
 31
0.0
 11
186.6826503416622
 21
37.40208377795721
 31
0.0
 11
186.6785990155999
 21
37.44477859868115
 31
0.0
 11
186.6748434580085
 21
37.48750044462392
 31
0.0
 11
186.6713908955463
 21
37.53019712140693
 31
0.0
 11
186.6682399852417
 21
37.57291711129056
 31
0.0
 11
186.6653966616494
 21
37.61561576723119
 31
0.0
 11
186.6628607895765
 21
37.65833377795721
 31
0.0
 11
186.6606372066311
 21
37.701034534369
 31
0.0
 11
186.6587268948418
 21
37.74375044462368
 31
0.0
 11
186.6571338762741
 21
37.78645342652788
 31
0.0
 11
186.6558599553244
 21
37.82916711129018
 31
0.0
 11
186.6549084699297
 21
37.87187244773844
 31
0.0
 11
186.6542817829253
 21
37.91458377795683
 31
0.0
 11
186.6539828071444
 21
37.95729159736268
 31
0.0
 11
186.6540141895458
 21
38.00000044462342
 31
0.0
  0
SPLINE
  5
5A08
330
1E
100
AcDbEntity
  8
24
  6
DASHDOT
100
AcDbSpline
210
0.0
220
0.0
230
1.0
 70
     8
 71
     3
 72
    79
 73
    75
 74
    73
 42
0.0000000001
 43
0.0000000001
 44
0.000001
 12
0.216930457819766
 22
0.9761870601837062
 32
0.0
 13
0.2169304578196485
 23
0.9761870601837323
 33
0.0
 40
0.0
 40
0.0
 40
0.0
 40
0.0
 40
0.1152356051514543
 40
0.2304713228570127
 40
0.3455886675656785
 40
0.4607057863456955
 40
0.5755618983185505
 40
0.6904175998100572
 40
0.8048923384914697
 40
0.9193664704323104
 40
1.033380092391168
 40
1.147393109798358
 40
1.260928734879069
 40
1.374463629316187
 40
1.487555640969576
 40
1.600646799382747
 40
1.713383730785946
 40
1.826119700542926
 40
1.938653292388659
 40
2.05118708972966
 40
2.163714936530605
 40
2.276243025951354
 40
2.388953957463625
 40
2.5016651592606
 40
2.614731325711791
 40
2.727797781106251
 40
2.841356917840311
 40
2.954917317288892
 40
3.068999216327183
 40
3.183082075707253
 40
3.297627855882885
 40
3.412174309172474
 40
3.527067813493165
 40
3.6419617225146
 40
3.757061948391216
 40
3.872162289022351
 40
3.987362235385483
 40
4.102562152992932
 40
4.217762070600697
 40
4.332962016963877
 40
4.448062357594908
 40
4.563162583471525
 40
4.678056492492905
 40
4.792949996813624
 40
4.907496450103212
 40
5.022042230278914
 40
5.136125089659001
 40
5.250206988697236
 40
5.363767388145845
 40
5.477326524879876
 40
5.590392980274279
 40
5.703459146725583
 40
5.816170348522542
 40
5.928881280034813
 40
6.041409369455534
 40
6.153937216256476
 40
6.266471013597475
 40
6.379004605443166
 40
6.491740575200163
 40
6.604477506603406
 40
6.717568665016599
 40
6.830660676669962
 40
6.944195571107165
 40
7.057731196187816
 40
7.171744213594978
 40
7.285757835553836
 40
7.400231967494677
 40
7.514706706176145
 40
7.629562407667613
 40
7.744418519640477
 40
7.859535638420466
 40
7.974652983129132
 40
8.089888700834739
 40
8.205124305986144
 40
8.205124305986144
 40
8.205124305986144
 40
8.205124305986144
 10
186.9481325743219
 20
35.95000044462344
 30
0.0
 10
186.9564652785161
 20
35.9874976134972
 30
0.0
 10
186.9731544632421
 20
36.06248669978728
 30
0.0
 10
186.9980880849436
 20
36.17495222053328
 30
0.0
 10
187.0227487940246
 20
36.28743760738484
 30
0.0
 10
187.0469483242428
 20
36.39989391106319
 30
0.0
 10
187.0705247874616
 20
36.51239370128784
 30
0.0
 10
187.0932799465119
 20
36.62484444656722
 30
0.0
 10
187.1150595899848
 20
36.73735900547304
 30
0.0
 10
187.1356600572167
 20
36.84981070808619
 30
0.0
 10
187.1549301839686
 20
36.96234246170963
 30
0.0
 10
187.1727090529974
 20
37.07480331219902
 30
0.0
 10
187.1888867517545
 20
37.18734505230872
 30
0.0
 10
187.2033071177408
 20
37.29981666048672
 30
0.0
 10
187.2158542300288
 20
37.41236428391486
 30
0.0
 10
187.2263792588843
 20
37.52485270282773
 30
0.0
 10
187.2347577876205
 20
37.63740313208693
 30
0.0
 10
187.2408496271894
 20
37.74991546380064
 30
0.0
 10
187.2445216697369
 20
37.86246535569131
 30
0.0
 10
187.2458073458085
 20
37.97499805198926
 30
0.0
 10
187.2447362151056
 20
38.08753097587098
 30
0.0
 10
187.2413438491028
 20
38.2000766732198
 30
0.0
 10
187.2356612277474
 20
38.31259097257731
 30
0.0
 10
187.2277199289337
 20
38.42514798568346
 30
0.0
 10
187.217557311192
 20
38.53764495489622
 30
0.0
 10
187.2051969444511
 20
38.65020590588471
 30
0.0
 10
187.1906877411108
 20
38.7626754366505
 30
0.0
 10
187.1742214734704
 20
38.87521580643956
 30
0.0
 10
187.1560338485813
 20
38.98766666474955
 30
0.0
 10
187.1363091993986
 20
39.10019062222248
 30
0.0
 10
187.115286844512
 20
39.21263611573068
 30
0.0
 10
187.0931508270014
 20
39.32514240804637
 30
0.0
 10
187.0701372001945
 20
39.43759038444312
 30
0.0
 10
187.0464349539457
 20
39.55008345246552
 30
0.0
 10
187.0222714232343
 20
39.66254863457579
 30
0.0
 10
186.997751186213
 20
39.77504089742195
 30
0.0
 10
186.9730004421515
 20
39.88751661138565
 30
0.0
 10
186.9481325743224
 20
40.00000044462362
 30
0.0
 10
186.9232647064909
 20
40.11248427786106
 30
0.0
 10
186.8985139624297
 20
40.2249599918249
 30
0.0
 10
186.8739937254087
 20
40.33745225467112
 30
0.0
 10
186.8498301946972
 20
40.4499174367813
 30
0.0
 10
186.8261279484483
 20
40.5624105048037
 30
0.0
 10
186.8031143216415
 20
40.67485848120043
 30
0.0
 10
186.7809783041312
 20
40.78736477351618
 30
0.0
 10
186.7599559492439
 20
40.89981026702431
 30
0.0
 10
186.7402313000617
 20
41.01233422449736
 30
0.0
 10
186.7220436751725
 20
41.12478508280729
 30
0.0
 10
186.7055774075321
 20
41.23732545259634
 30
0.0
 10
186.6910682041921
 20
41.34979498336215
 30
0.0
 10
186.6787078374512
 20
41.46235593435064
 30
0.0
 10
186.6685452197094
 20
41.57485290356342
 30
0.0
 10
186.660603920896
 20
41.68740991666962
 30
0.0
 10
186.6549212995406
 20
41.79992421602711
 30
0.0
 10
186.6515289335377
 20
41.91246991337592
 30
0.0
 10
186.6504578028353
 20
42.02500283725764
 30
0.0
 10
186.6517434789061
 20
42.13753553355559
 30
0.0
 10
186.6554155214548
 20
42.2500854254462
 30
0.0
 10
186.6615073610229
 20
42.36259775715997
 30
0.0
 10
186.6698858897595
 20
42.47514818641915
 30
0.0
 10
186.6804109186155
 20
42.587636605332
 30
0.0
 10
186.6929580309029
 20
42.70018422876025
 30
0.0
 10
186.7073783968897
 20
42.81265583693815
 30
0.0
 10
186.7235560956464
 20
42.92519757704794
 30
0.0
 10
186.7413349646753
 20
43.03765842753727
 30
0.0
 10
186.7606050914271
 20
43.1501901811607
 30
0.0
 10
186.781205558659
 20
43.26264188377388
 30
0.0
 10
186.8029852021317
 20
43.37515644267972
 30
0.0
 10
186.8257403611827
 20
43.487607187959
 30
0.0
 10
186.8493168244009
 20
43.60010697818376
 30
0.0
 10
186.8735163546192
 20
43.71256328186204
 30
0.0
 10
186.8981770637002
 20
43.82504866871367
 30
0.0
 10
186.9231106854021
 20
43.93751418945955
 30
0.0
 10
186.9397998701277
 20
44.01250327574971
 30
0.0
 10
186.9481325743219
 20
44.05000044462346
 30
0.0
 11
186.9481325743219
 21
35.95000044462344
 31
0.0
 11
186.9731401839039
 21
36.0624900102014
 31
0.0
 11
186.9980535106689
 21
36.17500044462346
 31
0.0
 11
187.0226774074562
 21
36.2874534032313
 31
0.0
 11
187.0468665729044
 21
36.40000044462345
 31
0.0
 11
187.070396107135
 21
36.51242058855217
 31
0.0
 11
187.0931471408209
 21
36.62500044462348
 31
0.0
 11
187.1148727365563
 21
36.73739468698602
 31
0.0
 11
187.1354705942109
 21
36.85000044462347
 31
0.0
 11
187.1546911389852
 21
36.96238228578687
 31
0.0
 11
187.1724709047618
 21
37.07500044462347
 31
0.0
 11
187.1886018041681
 21
37.18738431319684
 31
0.0
 11
187.203016411741
 21
37.30000044462346
 31
0.0
 11
187.2155228092866
 21
37.4123988203396
 31
0.0
 11
187.2260340463109
 21
37.52500044462343
 31
0.0
 11
187.2343797648526
 21
37.63742805019629
 31
0.0
 11
187.2404507396335
 21
37.75000044462342
 31
0.0
 11
187.2441253090257
 21
37.86247403572946
 31
0.0
 11
187.245415544738
 21
37.97500044462347
 31
0.0
 11
187.2443506446274
 21
38.0875232606854
 31
0.0
 11
187.2409660021209
 21
38.20000044462346
 31
0.0
 11
187.2352876842396
 21
38.31256825771891
 31
0.0
 11
187.2273617741456
 21
38.42500044462346
 31
0.0
 11
187.2171967876731
 21
38.53760875991383
 31
0.0
 11
187.2048625231756
 21
38.6500004446234
 31
0.0
 11
187.1903703205836
 21
38.76263105789073
 31
0.0
 11
187.1739664620424
 21
38.87500044462342
 31
0.0
 11
187.1557877981878
 21
38.98762467416236
 31
0.0
 11
187.1361260054495
 21
39.10000044462341
 31
0.0
 11
187.115110722482
 21
39.21260193033032
 31
0.0
 11
187.0930321185691
 21
39.32500044462344
 31
0.0
 11
187.0700296810081
 21
39.4375677838965
 31
0.0
 11
187.0463757665731
 21
39.55000044462337
 31
0.0
 11
187.0222165569268
 21
39.66253663881147
 31
0.0
 11
186.9977220454331
 21
39.77500044462343
 31
0.0
 11
186.9729830971281
 21
39.88751272065531
 31
0.0
 11
186.9481325743215
 21
40.00000044462342
 31
0.0
 11
186.9232820515148
 21
40.1124881685916
 31
0.0
 11
186.8985431032096
 21
40.22500044462347
 31
0.0
 11
186.8740485917161
 21
40.33746425043537
 31
0.0
 11
186.8498893820698
 21
40.45000044462347
 31
0.0
 11
186.8262354676348
 21
40.56243310535029
 31
0.0
 11
186.8032330300738
 21
40.67500044462337
 31
0.0
 11
186.7811544261609
 21
40.7873989589165
 31
0.0
 11
186.7601391431932
 21
40.90000044462342
 31
0.0
 11
186.7404773504551
 21
41.01237621508454
 31
0.0
 11
186.7222986866005
 21
41.12500044462342
 31
0.0
 11
186.7058948280593
 21
41.23736983135614
 31
0.0
 11
186.6914026254675
 21
41.35000044462347
 31
0.0
 11
186.6790683609701
 21
41.46239212933298
 31
0.0
 11
186.6689033744975
 21
41.57500044462347
 31
0.0
 11
186.6609774644038
 21
41.68743263152802
 31
0.0
 11
186.6552991465225
 21
41.80000044462346
 31
0.0
 11
186.651914504016
 21
41.9124776285615
 31
0.0
 11
186.6508496039056
 21
42.02500044462342
 31
0.0
 11
186.6521398396177
 21
42.13752685351744
 31
0.0
 11
186.6558144090103
 21
42.25000044462342
 31
0.0
 11
186.6618853837909
 21
42.36257283905058
 31
0.0
 11
186.6702311023329
 21
42.47500044462348
 31
0.0
 11
186.6807423393574
 21
42.58760206890729
 31
0.0
 11
186.6932487369028
 21
42.70000044462344
 31
0.0
 11
186.7076633444759
 21
42.81261657605011
 31
0.0
 11
186.723794243882
 21
42.92500044462346
 31
0.0
 11
186.7415740096586
 21
43.03761860346003
 31
0.0
 11
186.7607945544329
 21
43.15000044462343
 31
0.0
 11
186.7813924120875
 21
43.26260620226088
 31
0.0
 11
186.803118007823
 21
43.37500044462347
 31
0.0
 11
186.825869041509
 21
43.4875803006947
 31
0.0
 11
186.8493985757394
 21
43.60000044462347
 31
0.0
 11
186.8735877411877
 21
43.7125474860156
 31
0.0
 11
186.8982116379749
 21
43.82500044462344
 31
0.0
 11
186.9231249647402
 21
43.9375108790455
 31
0.0
 11
186.9481325743219
 21
44.05000044462346
 31
0.0
  0
LINE
  5
5A09
330
1E
100
AcDbEntity
  8
24
  6
DASHDOT
100
AcDbLine
 10
188.1481322062508
 20
43.20000000000004
 30
0.0
 11
188.8481322062509
 21
46.0
 31
0.0
  0
ARC
  5
5A0A
330
1E
100
AcDbEntity
  8
24
  6
DASHDOT
100
AcDbCircle
 10
188.248132206251
 20
41.29999999999995
 30
0.0
 40
0.3
100
AcDbArc
 50
270.0
 51
0.0
  0
ARC
  5
5A0B
330
1E
100
AcDbEntity
  8
24
  6
DASHDOT
100
AcDbCircle
 10
188.248132206251
 20
42.70000000000004
 30
0.0
 40
0.3
100
AcDbArc
 50
0.0
 51
90.0
  0
LINE
  5
5A0C
330
1E
100
AcDbEntity
  8
24
  6
DASHDOT
100
AcDbLine
 10
188.5481322062509
 20
41.29999999999995
 30
0.0
 11
188.5481322062509
 21
42.70000000000004
 31
0.0
  0
SPLINE
  5
5A0D
330
1E
100
AcDbEntity
  8
24
  6
DASHDOT
100
AcDbSpline
210
0.0
220
0.0
230
1.0
 70
     8
 71
     3
 72
    55
 73
    51
 74
    49
 42
0.0000000001
 43
0.0000000001
 44
0.000001
 12
0.0034274732673631
 22
0.9999941261962501
 32
0.0
 13
-0.2169304578161108
 23
0.9761870601845185
 33
0.0
 40
0.0
 40
0.0
 40
0.0
 40
0.0
 40
0.0427086049425902
 40
0.0854177080221238
 40
0.1281352723289915
 40
0.1708528366910048
 40
0.2135895949018511
 40
0.2563263532965017
 40
0.2990929617673075
 40
0.341859570132114
 40
0.3846662484938565
 40
0.4274729470214314
 40
0.4703280074134895
 40
0.5131830885102553
 40
0.5560931903518295
 40
0.5990033122573104
 40
0.6419737794884482
 40
0.6849442657658507
 40
0.7279791425818419
 40
0.7710140376812817
 40
0.8141161053717437
 40
0.8572181901295415
 40
0.9003890705753178
 40
0.9435599668248785
 40
0.9868002107146407
 40
1.030040469101928
 40
1.0733495440042
 40
1.116658633328752
 40
1.160034714256732
 40
1.203410808311416
 40
1.246851066592762
 40
1.290291336657848
 40
1.333792105760736
 40
1.377292885207344
 40
1.420849610856979
 40
1.464406346476294
 40
1.508013246268104
 40
1.551620154672116
 40
1.595270672544822
 40
1.638921197651819
 40
1.68260823365861
 40
1.726295275366204
 40
1.770011200883301
 40
1.813727130701519
 40
1.85746363082186
 40
1.901200133772502
 40
1.944948554768515
 40
1.988696977123479
 40
2.032448518077313
 40
2.076200740729715
 40
2.076200740729715
 40
2.076200740729715
 40
2.076200740729715
 10
188.145376350465
 20
42.00000044462348
 30
0.0
 10
188.1454251446656
 20
42.01423656265035
 30
0.0
 10
188.1454081195181
 20
42.04270948241874
 30
0.0
 10
188.1450453145655
 20
42.08542012263021
 30
0.0
 10
188.1443424526642
 20
42.12812954053998
 30
0.0
 10
188.1433006794101
 20
42.17084124512
 30
0.0
 10
188.1419201629044
 20
42.21354974676475
 30
0.0
 10
188.1402011133632
 20
42.25626232106656
 30
0.0
 10
188.1381441341898
 20
42.29896991562933
 30
0.0
 10
188.1357490988681
 20
42.34168323023982
 30
0.0
 10
188.133016979354
 20
42.38438968910204
 30
0.0
 10
188.1299545702101
 20
42.42710327109628
 30
0.0
 10
188.1265705573052
 20
42.46980874402941
 30
0.0
 10
188.122871300821
 20
42.51252264204531
 30
0.0
 10
188.1188659327159
 20
42.5552273395828
 30
0.0
 10
188.1145603661849
 20
42.59794145381097
 30
0.0
 10
188.1099641802089
 20
42.64064550148158
 30
0.0
 10
188.1050828450906
 20
42.68335973306867
 30
0.0
 10
188.0999263739024
 20
42.72606323957775
 30
0.0
 10
188.0945000003303
 20
42.76877748511622
 30
0.0
 10
188.0888143208665
 20
42.81148057304368
 30
0.0
 10
188.0828741903862
 20
42.85419475894882
 30
0.0
 10
188.0766905586758
 20
42.89689754138659
 30
0.0
 10
188.0702679549205
 20
42.93961159207833
 30
0.0
 10
188.0636176237129
 20
42.98231417086972
 30
0.0
 10
188.0567438354122
 20
43.02502798890517
 30
0.0
 10
188.0496580646506
 20
43.06773040231552
 30
0.0
 10
188.0423651596813
 20
43.11044384435177
 30
0.0
 10
188.0348774909272
 20
43.1531462429586
 30
0.0
 10
188.0271998192218
 20
43.19585930100909
 30
0.0
 10
188.0193445621335
 20
43.23856180059348
 30
0.0
 10
188.011316480035
 20
43.28127442190199
 30
0.0
 10
188.0031279479072
 20
43.32397710435994
 30
0.0
 10
187.9947838187754
 20
43.36668919880485
 30
0.0
 10
187.986296343198
 20
43.40939205020746
 30
0.0
 10
187.9776715661474
 20
43.45210346030682
 30
0.0
 10
187.9689225015352
 20
43.49480665067079
 30
0.0
 10
187.9600554938313
 20
43.53751742622629
 30
0.0
 10
187.9510832233627
 20
43.58022106494803
 30
0.0
 10
187.9420124145523
 20
43.62293117969506
 30
0.0
 10
187.9328553317503
 20
43.66563532554537
 30
0.0
 10
187.9236191541281
 20
43.70834473312647
 30
0.0
 10
187.9143156673094
 20
43.75104938132047
 30
0.0
 10
187.9049531506534
 20
43.79375800003352
 30
0.0
 10
187.895543412018
 20
43.83646325951809
 30
0.0
 10
187.8860953306065
 20
43.879171141907
 30
0.0
 10
187.8766200683468
 20
43.92187707073077
 30
0.0
 10
187.8671272936963
 20
43.96458424400534
 30
0.0
 10
187.8576268600853
 20
44.00729101180653
 30
0.0
 10
187.8512963042188
 20
44.0357636600876
 30
0.0
 10
187.848132574322
 20
44.05000044462346
 30
0.0
 11
188.145376350465
 21
42.00000044462348
 31
0.0
 11
188.1453527768844
 21
42.04270954657033
 31
0.0
 11
188.1449895396958
 21
42.08541711129018
 31
0.0
 11
188.144286856228
 21
42.12812890414247
 31
0.0
 11
188.143245283044
 21
42.17083377795694
 31
0.0
 11
188.1418646844303
 21
42.21354824128574
 31
0.0
 11
188.1401461391766
 21
42.2562504446237
 31
0.0
 11
188.1380888215739
 21
42.29896755409098
 31
0.0
 11
188.1356946667608
 21
42.34166711129041
 31
0.0
 11
188.1329630681768
 21
42.38438656388081
 31
0.0
 11
188.1299031737903
 21
42.42708377795722
 31
0.0
 11
188.1265192681846
 21
42.46980504862157
 31
0.0
 11
188.1228229655673
 21
42.51250044462392
 31
0.0
 11
188.1188172695687
 21
42.55522318651887
 31
0.0
 11
188.1145150967199
 21
42.59791711129056
 31
0.0
 11
188.1099181430331
 21
42.64064099595586
 31
0.0
 11
188.1050406218768
 21
42.68333377795727
 31
0.0
 11
188.0998829890012
 21
42.72605848411538
 31
0.0
 11
188.0944608410565
 21
42.76875044462386
 31
0.0
 11
188.0887736105577
 21
42.81147566613157
 31
0.0
 11
188.0828380358381
 21
42.85416711129042
 31
0.0
 11
188.0766525120481
 21
42.89689257173963
 31
0.0
 11
188.0702347331902
 21
42.93958377795698
 31
0.0
 11
188.0635822273013
 21
42.9823092210942
 31
0.0
 11
188.0567134600821
 21
43.02500044462362
 31
0.0
 11
188.0496254274175
 21
43.06772556961263
 31
0.0
 11
188.0423377674091
 21
43.11041711129028
 31
0.0
 11
188.0348477185602
 21
43.15314162444008
 31
0.0
 11
188.0271753017741
 21
43.19583377795689
 31
0.0
 11
188.0193176354234
 21
43.23855746570191
 31
0.0
 11
188.0112947337055
 21
43.2812504446237
 31
0.0
 11
188.0031038476651
 21
43.32397311548803
 31
0.0
 11
187.9947647337329
 21
43.36666711129043
 31
0.0
 11
187.9862752138705
 21
43.40938849561564
 31
0.0
 11
187.9776553328842
 21
43.45208377795716
 31
0.0
 11
187.9689044864409
 21
43.49480361694645
 31
0.0
 11
187.9600420041812
 21
43.5375004446239
 31
0.0
 11
187.9510683046871
 21
43.58021859799191
 31
0.0
 11
187.9420015811446
 21
43.62291711129057
 31
0.0
 11
187.9328434944597
 21
43.66563346306614
 31
0.0
 11
187.9236108972954
 21
43.70833377795716
 31
0.0
 11
187.9143069926316
 21
43.75104817402456
 31
0.0
 11
187.9049475728747
 21
43.7937504446237
 31
0.0
 11
187.8955379843425
 21
43.83646275220505
 31
0.0
 11
187.886092375008
 21
43.87916711129017
 31
0.0
 11
187.8766179011083
 21
43.92187728348969
 31
0.0
 11
187.8671268575418
 21
43.96458377795681
 31
0.0
 11
187.8576282852081
 21
44.00729179325094
 31
0.0
 11
187.848132574322
 21
44.05000044462346
 31
0.0
  0
LINE
  5
5A0E
330
1E
100
AcDbEntity
  8
24
  6
DASHDOT
100
AcDbLine
 10
188.1481322062508
 20
41.0
 30
0.0
 11
188.248132206251
 21
41.0
 31
0.0
  0
LINE
  5
5A0F
330
1E
100
AcDbEntity
  8
24
  6
DASHDOT
100
AcDbLine
 10
188.1481322062508
 20
43.0
 30
0.0
 11
188.248132206251
 21
43.0
 31
0.0
  0
LINE
  5
5A10
330
1E
100
AcDbEntity
  8
24
  6
DASHDOT
100
AcDbLine
 10
187.554013206251
 20
42.0
 30
0.0
 11
188.1481322062508
 21
42.0
 31
0.0
  0
ARC
  5
5A11
330
1E
100
AcDbEntity
  8
24
  6
DASHDOT
100
AcDbCircle
 10
188.248132206251
 20
37.29999999999995
 30
0.0
 40
0.3
100
AcDbArc
 50
270.0
 51
0.0
  0
ARC
  5
5A12
330
1E
100
AcDbEntity
  8
24
  6
DASHDOT
100
AcDbCircle
 10
188.248132206251
 20
38.70000000000004
 30
0.0
 40
0.3
100
AcDbArc
 50
0.0
 51
90.0
  0
LINE
  5
5A13
330
1E
100
AcDbEntity
  8
24
  6
DASHDOT
100
AcDbLine
 10
188.1481322062508
 20
37.0
 30
0.0
 11
188.248132206251
 21
37.0
 31
0.0
  0
LINE
  5
5A14
330
1E
100
AcDbEntity
  8
24
  6
DASHDOT
100
AcDbLine
 10
188.1481322062508
 20
39.0
 30
0.0
 11
188.248132206251
 21
39.0
 31
0.0
  0
LINE
  5
5A15
330
1E
100
AcDbEntity
  8
24
  6
DASHDOT
100
AcDbLine
 10
188.5481322062509
 20
38.70000000000004
 30
0.0
 11
188.5481322062509
 21
37.29999999999995
 31
0.0
  0
SPLINE
  5
5A16
330
1E
100
AcDbEntity
  8
24
  6
DASHDOT
100
AcDbSpline
210
0.0
220
0.0
230
1.0
 70
     8
 71
     3
 72
    71
 73
    67
 74
    65
 42
0.0000000001
 43
0.0000000001
 44
0.000001
 12
0.2169304578185634
 22
0.9761870601839733
 32
0.0
 13
0.2169304578186913
 23
0.9761870601839449
 33
0.0
 40
0.0
 40
0.0
 40
0.0
 40
0.0
 40
0.1296676152133095
 40
0.2593353661303711
 40
0.3888620587091739
 40
0.5183882630553284
 40
0.6475267039589192
 40
0.7766641595440866
 40
0.9052195797373878
 40
1.033773477100953
 40
1.161657696846878
 40
1.289541252873644
 40
1.416833340182319
 40
1.544124711226172
 40
1.670973814695166
 40
1.797822167178469
 40
1.92442604488985
 40
2.051029163199947
 40
2.177632266838574
 40
2.304236174937141
 40
2.431082895359977
 40
2.557930403629485
 40
2.68521391997907
 40
2.812498180487596
 40
2.94036061324616
 40
3.068223728644975
 40
3.196740440945234
 40
3.325258472010611
 40
3.454367662412894
 40
3.583477762589784
 40
3.713024407423688
 40
3.842571583176006
 40
3.972349638440165
 40
4.10212780024946
 40
4.231905962058677
 40
4.361684017322919
 40
4.491231193075154
 40
4.62077783790919
 40
4.749887938085996
 40
4.878997128488307
 40
5.007515159553727
 40
5.136031871853986
 40
5.263894987252667
 40
5.391757420011285
 40
5.519041680519811
 40
5.64632519686939
 40
5.773172705138898
 40
5.900019425561762
 40
6.026623333660272
 40
6.153226437298956
 40
6.27982955560905
 40
6.40643343332043
 40
6.533281785803749
 40
6.660130889272715
 40
6.787422260316546
 40
6.914714347625247
 40
7.042597903651954
 40
7.170482123397914
 40
7.299036020761508
 40
7.427591440954934
 40
7.556728896539945
 40
7.685867337443666
 40
7.815393541789813
 40
7.944920234368643
 40
8.074587985285759
 40
8.20425560049909
 40
8.20425560049909
 40
8.20425560049909
 40
8.20425560049909
 10
187.848132574322
 20
35.95000044462344
 30
0.0
 10
187.8575088593661
 20
35.99219372732216
 30
0.0
 10
187.876351652176
 20
36.07656025777835
 30
0.0
 10
187.9045886694159
 20
36.20306794917792
 30
0.0
 10
187.9325017008719
 20
36.32959951484821
 30
0.0
 10
187.9597681976823
 20
36.45609198717628
 30
0.0
 10
187.9861034062569
 20
36.58264983747473
 30
0.0
 10
188.011168268507
 20
36.70913653488054
 30
0.0
 10
188.0346898145441
 20
36.8357223004927
 30
0.0
 10
188.0563226483669
 20
36.96222239988912
 30
0.0
 10
188.075794057285
 20
37.08884771256474
 30
0.0
 10
188.0929728483025
 20
37.21538044806266
 30
0.0
 10
188.1077871706516
 20
37.34201342639875
 30
0.0
 10
188.1201206719818
 20
37.4685663122227
 30
0.0
 10
188.1298893713843
 20
37.59519526675338
 30
0.0
 10
188.1369892686608
 20
37.72177310131095
 30
0.0
 10
188.1413252650995
 20
37.84839433231875
 30
0.0
 10
188.142802251998
 20
37.97500038814621
 30
0.0
 10
188.1413192828753
 20
38.10160636040649
 30
0.0
 10
188.1369835108847
 20
38.22822699085561
 30
0.0
 10
188.1298962984858
 20
38.3548043584315
 30
0.0
 10
188.1201589414729
 20
38.48143187430903
 30
0.0
 10
188.1078815853085
 20
38.60798425121825
 30
0.0
 10
188.0931546298511
 20
38.73461485599557
 30
0.0
 10
188.0761001659883
 20
38.86114734086646
 30
0.0
 10
188.0567967551334
 20
38.98777130831581
 30
0.0
 10
188.0353801997195
 20
39.11427568755689
 30
0.0
 10
188.0120819519909
 20
39.2408679651643
 30
0.0
 10
187.9872051010703
 20
39.36736005329502
 30
0.0
 10
187.9609797150658
 20
39.49392868621785
 30
0.0
 10
187.9337051749403
 20
39.62042402654981
 30
0.0
 10
187.9056199390174
 20
39.74696938330836
 30
0.0
 10
187.877010754058
 20
39.87347608099288
 30
0.0
 10
187.8481325743218
 20
40.00000044462338
 30
0.0
 10
187.8192543945861
 20
40.126524808254
 30
0.0
 10
187.7906452096267
 20
40.25303150593847
 30
0.0
 10
187.7625599737037
 20
40.37957686269709
 30
0.0
 10
187.7352854335779
 20
40.50607220302897
 30
0.0
 10
187.7090600475734
 20
40.63264083595184
 30
0.0
 10
187.6841831966529
 20
40.75913292408253
 30
0.0
 10
187.6608849489246
 20
40.88572520169004
 30
0.0
 10
187.6394683935107
 20
41.01222958093107
 30
0.0
 10
187.6201649826553
 20
41.13885354838033
 30
0.0
 10
187.603110518793
 20
41.26538603325127
 30
0.0
 10
187.5883835633355
 20
41.39201663802858
 30
0.0
 10
187.5761062071709
 20
41.51856901493777
 30
0.0
 10
187.566368850158
 20
41.64519653081533
 30
0.0
 10
187.5592816377592
 20
41.77177389839121
 30
0.0
 10
187.5549458657685
 20
41.89839452884034
 30
0.0
 10
187.5534628966458
 20
42.02500050110059
 30
0.0
 10
187.5549398835439
 20
42.15160655692812
 30
0.0
 10
187.5592758799828
 20
42.2782277879359
 30
0.0
 10
187.5663757772589
 20
42.40480562249349
 30
0.0
 10
187.5761444766617
 20
42.53143457702413
 30
0.0
 10
187.5884779779914
 20
42.65798746284812
 30
0.0
 10
187.603292300341
 20
42.78462044118414
 30
0.0
 10
187.6204710913579
 20
42.91115317668213
 30
0.0
 10
187.6399425002766
 20
43.03777848935768
 30
0.0
 10
187.6615753340992
 20
43.1642785887542
 30
0.0
 10
187.6850968801366
 20
43.29086435436626
 30
0.0
 10
187.7101617423864
 20
43.41735105177221
 30
0.0
 10
187.7364969509612
 20
43.54390890207057
 30
0.0
 10
187.7637634477719
 20
43.67040137439863
 30
0.0
 10
187.7916764792279
 20
43.79693294006895
 30
0.0
 10
187.8199134964677
 20
43.9234406314686
 30
0.0
 10
187.8387562892778
 20
44.00780716192474
 30
0.0
 10
187.848132574322
 20
44.05000044462346
 30
0.0
 11
187.848132574322
 21
35.95000044462344
 31
0.0
 11
187.8763498180684
 21
36.07656077911099
 31
0.0
 11
187.9045475580123
 21
36.20312544462348
 31
0.0
 11
187.932401211889
 21
36.32962184637597
 31
0.0
 11
187.9596452471757
 21
36.45625044462343
 31
0.0
 11
187.9859034317987
 21
36.5826911284644
 31
0.0
 11
188.0109547489507
 21
36.70937544462347
 31
0.0
 11
188.034388311981
 21
36.83577705193437
 31
0.0
 11
188.0560051704755
 21
36.96250044462343
 31
0.0
 11
188.0754230669344
 21
37.08890187407542
 31
0.0
 11
188.0926086146375
 21
37.21562544462347
 31
0.0
 11
188.1073809317133
 21
37.34205746834874
 31
0.0
 11
188.1197091673172
 21
37.46875044462342
 31
0.0
 11
188.1294482403749
 21
37.59522513762965
 31
0.0
 11
188.1365339101447
 21
37.72187544462346
 31
0.0
 11
188.1408502334904
 21
37.84840573200685
 31
0.0
 11
188.1423099247494
 21
37.97500044462342
 31
0.0
 11
188.1408452816557
 21
38.10159508522619
 31
0.0
 11
188.1365301928569
 21
38.22812544462342
 31
0.0
 11
188.1294582350592
 21
38.35477488249489
 31
0.0
 11
188.1197512965799
 21
38.48125044462344
 31
0.0
 11
188.1074803932326
 21
38.6079410933703
 31
0.0
 11
188.0927957181269
 21
38.73437544462342
 31
0.0
 11
188.0757361347108
 21
38.86109471737816
 31
0.0
 11
188.0564859397065
 21
38.98750044462346
 31
0.0
 11
188.0350796701185
 21
39.11422186513283
 31
0.0
 11
188.0118628513991
 21
39.24062544462342
 31
0.0
 11
187.9869926630448
 21
39.3673166355941
 31
0.0
 11
187.9608409747729
 21
39.49375044462342
 31
0.0
 11
187.9335789824473
 21
39.62039608279241
 31
0.0
 11
187.9055532392673
 21
39.74687544462344
 31
0.0
 11
187.8769697479912
 21
39.87346662898847
 31
0.0
 11
187.848132574322
 21
40.00000044462348
 31
0.0
 11
187.8192954006528
 21
40.12653426025835
 31
0.0
 11
187.7907119093767
 21
40.25312544462346
 31
0.0
 11
187.7626861661967
 21
40.3796048064544
 31
0.0
 11
187.7354241738709
 21
40.50625044462347
 31
0.0
 11
187.709272485599
 21
40.63268425365271
 31
0.0
 11
187.6844022972447
 21
40.75937544462343
 31
0.0
 11
187.6611854785254
 21
40.8857790241141
 31
0.0
 11
187.6397792089375
 21
41.01250044462346
 31
0.0
 11
187.6205290139329
 21
41.1389061718686
 31
0.0
 11
187.6034694305171
 21
41.26562544462342
 31
0.0
 11
187.5887847554114
 21
41.39205979587655
 31
0.0
 11
187.5765138520639
 21
41.51875044462338
 31
0.0
 11
187.5668069135846
 21
41.64522600675192
 31
0.0
 11
187.5597349557869
 21
41.77187544462341
 31
0.0
 11
187.555419866988
 21
41.89840580402059
 31
0.0
 11
187.5539552238944
 21
42.02500044462342
 31
0.0
 11
187.5554149151532
 21
42.15159515723999
 31
0.0
 11
187.5597312384988
 21
42.27812544462338
 31
0.0
 11
187.5668169082684
 21
42.40477575161722
 31
0.0
 11
187.5765559813261
 21
42.53125044462342
 31
0.0
 11
187.5888842169299
 21
42.65794342089811
 31
0.0
 11
187.6036565340059
 21
42.78437544462337
 31
0.0
 11
187.6208420817087
 21
42.9110990151714
 31
0.0
 11
187.6402599781678
 21
43.03750044462339
 31
0.0
 11
187.6618768366624
 21
43.16422383731247
 31
0.0
 11
187.6853103996929
 21
43.29062544462345
 31
0.0
 11
187.7103617168447
 21
43.41730976078241
 31
0.0
 11
187.7366199014679
 21
43.54375044462346
 31
0.0
 11
187.7638639367548
 21
43.67037904287087
 31
0.0
 11
187.7917175906315
 21
43.79687544462339
 31
0.0
 11
187.8199153305753
 21
43.92344011013594
 31
0.0
 11
187.848132574322
 21
44.05000044462346
 31
0.0
  0
LINE
  5
5A17
330
1E
100
AcDbEntity
  8
24
  6
DASHDOT
100
AcDbLine
 10
190.4016862062509
 20
43.10355400000003
 30
0.0
 11
190.2945242062509
 21
42.99639200000001
 31
0.0
  0
LINE
  5
5A18
330
1E
100
AcDbEntity
  8
24
  6
DASHDOT
100
AcDbLine
 10
190.8481322062509
 20
46.0
 30
0.0
 11
190.1481322062508
 21
43.20000000000004
 31
0.0
  0
ARC
  5
5A19
330
1E
100
AcDbEntity
  8
24
  6
DASHDOT
100
AcDbCircle
 10
190.248132206251
 20
42.70000000000004
 30
0.0
 40
0.3
100
AcDbArc
 50
0.0
 51
90.0
  0
LINE
  5
5A1A
330
1E
100
AcDbEntity
  8
24
  6
DASHDOT
100
AcDbLine
 10
190.4016862062509
 20
36.89644699999997
 30
0.0
 11
190.2945242062509
 21
37.00360899999998
 31
0.0
  0
ARC
  5
5A1B
330
1E
100
AcDbEntity
  8
24
  6
DASHDOT
100
AcDbCircle
 10
190.248132206251
 20
39.29999999999995
 30
0.0
 40
0.3
100
AcDbArc
 50
0.0
 51
90.0
  0
ARC
  5
5A1C
330
1E
100
AcDbEntity
  8
24
  6
DASHDOT
100
AcDbCircle
 10
190.248132206251
 20
37.29999999999995
 30
0.0
 40
0.3
100
AcDbArc
 50
270.0
 51
0.0
  0
ARC
  5
5A1D
330
1E
100
AcDbEntity
  8
24
  6
DASHDOT
100
AcDbCircle
 10
190.248132206251
 20
40.70000000000004
 30
0.0
 40
0.3
100
AcDbArc
 50
270.0
 51
0.0
  0
LINE
  5
5A1E
330
1E
100
AcDbEntity
  8
24
  6
DASHDOT
100
AcDbLine
 10
190.1481322062508
 20
43.20000000000004
 30
0.0
 11
190.1481322062508
 21
43.0
 31
0.0
  0
LINE
  5
5A1F
330
1E
100
AcDbEntity
  8
24
  6
DASHDOT
100
AcDbLine
 10
190.1481322062508
 20
43.0
 30
0.0
 11
190.248132206251
 21
43.0
 31
0.0
  0
LINE
  5
5A20
330
1E
100
AcDbEntity
  8
24
  6
DASHDOT
100
AcDbLine
 10
190.1481322062508
 20
39.60000000000002
 30
0.0
 11
190.1481322062508
 21
40.39999999999998
 31
0.0
  0
LINE
  5
5A21
330
1E
100
AcDbEntity
  8
24
  6
DASHDOT
100
AcDbLine
 10
190.1481322062508
 20
40.39999999999998
 30
0.0
 11
190.248132206251
 21
40.39999999999998
 31
0.0
  0
LINE
  5
5A22
330
1E
100
AcDbEntity
  8
24
  6
DASHDOT
100
AcDbLine
 10
190.1481322062508
 20
39.60000000000002
 30
0.0
 11
190.248132206251
 21
39.60000000000002
 31
0.0
  0
LINE
  5
5A23
330
1E
100
AcDbEntity
  8
24
  6
DASHDOT
100
AcDbLine
 10
190.1481322062508
 20
37.0
 30
0.0
 11
190.248132206251
 21
37.0
 31
0.0
  0
LINE
  5
5A24
330
1E
100
AcDbEntity
  8
24
  6
DASHDOT
100
AcDbLine
 10
190.1481322062508
 20
36.79999999999995
 30
0.0
 11
190.1481322062508
 21
37.0
 31
0.0
  0
LINE
  5
5A25
330
1E
100
AcDbEntity
  8
24
  6
DASHDOT
100
AcDbLine
 10
190.5481322062509
 20
42.70000000000004
 30
0.0
 11
190.5481322062509
 21
40.70000000000004
 31
0.0
  0
LINE
  5
5A26
330
1E
100
AcDbEntity
  8
24
  6
DASHDOT
100
AcDbLine
 10
190.5481322062509
 20
43.45710699999995
 30
0.0
 11
190.5481322062509
 21
44.79999999999995
 31
0.0
  0
ARC
  5
5A27
330
1E
100
AcDbEntity
  8
24
  6
DASHDOT
100
AcDbCircle
 10
190.0481322062509
 20
43.45710699999995
 30
0.0
 40
0.5
100
AcDbArc
 50
315.0
 51
0.0
  0
LINE
  5
5A28
330
1E
100
AcDbEntity
  8
24
  6
DASHDOT
100
AcDbLine
 10
190.5481322062509
 20
37.29999999999995
 30
0.0
 11
190.5481322062509
 21
39.29999999999995
 31
0.0
  0
ARC
  5
5A29
330
1E
100
AcDbEntity
  8
24
  6
DASHDOT
100
AcDbCircle
 10
190.0481322062509
 20
36.54289400000005
 30
0.0
 40
0.5
100
AcDbArc
 50
0.0
 51
44.99999999999985
  0
LINE
  5
5A2A
330
1E
100
AcDbEntity
  8
24
  6
DASHDOT
100
AcDbLine
 10
192.3481322062509
 20
37.5
 30
0.0
 11
190.8481322062509
 21
37.5
 31
0.0
  0
LINE
  5
5A2B
330
1E
100
AcDbEntity
  8
24
  6
DASHDOT
100
AcDbLine
 10
192.3481322062509
 20
42.5
 30
0.0
 11
190.8481322062509
 21
42.5
 31
0.0
  0
LINE
  5
5A2C
330
1E
100
AcDbEntity
  8
24
  6
DASHDOT
100
AcDbLine
 10
199.6539562062509
 20
42.5
 30
0.0
 11
200.6539562062509
 21
41.5
 31
0.0
  0
LINE
  5
5A2D
330
1E
100
AcDbEntity
  8
24
  6
DASHDOT
100
AcDbLine
 10
199.6539562062509
 20
37.5
 30
0.0
 11
200.6539562062509
 21
38.5
 31
0.0
  0
LINE
  5
5A2E
330
1E
100
AcDbEntity
  8
24
  6
DASHDOT
100
AcDbLine
 10
199.6539562062509
 20
42.5
 30
0.0
 11
199.6539562062509
 21
37.5
 31
0.0
  0
LINE
  5
5A2F
330
1E
100
AcDbEntity
  8
24
  6
DASHDOT
100
AcDbLine
 10
200.6539562062509
 20
38.5
 30
0.0
 11
200.6539562062509
 21
41.5
 31
0.0
  0
LINE
  5
5B07
330
1E
100
AcDbEntity
  8
10
  6
Continuous
100
AcDbLine
 10
37.481748
 20
222.0
 30
0.0
 11
-37.50004299999998
 21
222.0
 31
0.0
  0
LINE
  5
5B08
330
1E
100
AcDbEntity
  8
10
  6
Continuous
100
AcDbLine
 10
36.981748
 20
162.0
 30
0.0
 11
-37.00004299999998
 21
162.0
 31
0.0
  0
LINE
  5
5B09
330
1E
100
AcDbEntity
  8
10
  6
Continuous
100
AcDbLine
 10
35.881748
 20
154.0
 30
0.0
 11
-36.00003199999999
 21
154.0
 31
0.0
  0
LINE
  5
5B0A
330
1E
100
AcDbEntity
  8
10
  6
Continuous
100
AcDbLine
 10
10.53629349999999
 20
151.0
 30
0.0
 11
-10.53640150000002
 21
151.0
 31
0.0
  0
LINE
  5
5B0B
330
1E
100
AcDbEntity
  8
10
  6
Continuous
100
AcDbLine
 10
10.381745
 20
150.0
 30
0.0
 11
-10.38185300000002
 21
150.0
 31
0.0
  0
DIMENSION
  5
5B0C
330
1E
100
AcDbEntity
  8
30
  6
Continuous
100
AcDbDimension
  2
*D38
 10
-53.83820679239235
 20
138.0
 30
0.0
 11
-53.83820679239236
 21
180.0
 31
0.0
 70
   160
  1
<>
 71
     5
 42
84.0
  3
STANDARD
100
AcDbAlignedDimension
 13
-37.50004299999998
 23
222.0
 33
0.0
 14
-6.050003499999981
 24
138.0
 34
0.0
 50
90.0
100
AcDbRotatedDimension
  0
LINE
  5
5B0D
330
1E
100
AcDbEntity
  8
10
  6
Continuous
100
AcDbLine
 10
-37.50004299999998
 20
222.0
 30
0.0
 11
-37.50004299999998
 21
162.5
 31
0.0
  0
DIMENSION
  5
5B0E
330
1E
100
AcDbEntity
  8
30
  6
Continuous
100
AcDbDimension
  2
*D39
 10
-45.65940379239232
 20
162.0000589999999
 30
0.0
 11
-45.65940379239235
 21
192.00003
 31
0.0
 70
   160
  1
<>
 71
     5
 42
59.99994100000003
  3
STANDARD
100
AcDbAlignedDimension
 13
-42.50009700000007
 23
221.9999999999999
 33
0.0
 14
-36.40001400000003
 24
162.0000589999999
 34
0.0
 50
90.0
100
AcDbRotatedDimension
  0
DIMENSION
  5
5B0F
330
1E
100
AcDbEntity
  8
30
  6
Continuous
100
AcDbDimension
  2
*D40
 10
-45.65940379239232
 20
154.0
 30
0.0
 11
-45.65940379239235
 21
158.0
 31
0.0
 70
   160
  1
<>
 71
     5
 42
7.999999999999943
  3
STANDARD
100
AcDbAlignedDimension
 13
-37.00004299999998
 23
161.9999999999999
 33
0.0
 14
-37.38185199999996
 24
154.0
 34
0.0
 50
90.0
100
AcDbRotatedDimension
  0
DIMENSION
  5
5B10
330
1E
100
AcDbEntity
  8
30
  6
Continuous
100
AcDbDimension
  2
*D41
 10
-45.65940379239246
 20
150.0
 30
0.0
 11
-47.99273712572583
 21
140.8453278466667
 31
0.0
 70
   160
  1
<>
 71
     5
 42
4.0
  3
STANDARD
100
AcDbAlignedDimension
 13
-37.38185199999996
 23
154.0
 33
0.0
 14
-36.38185199999996
 24
150.0
 34
0.0
 50
90.0
100
AcDbRotatedDimension
  0
ARC
  5
5B11
330
1E
100
AcDbEntity
  8
10
  6
Continuous
100
AcDbCircle
 10
-37.00004299999998
 20
162.4999999999998
 30
0.0
 40
0.5
100
AcDbArc
 50
180.0
 51
270.0
  0
LINE
  5
5B12
330
1E
100
AcDbEntity
  8
17
  6
DASHDOT
100
AcDbLine
 10
-30.0
 20
157.0
 30
0.0
 11
-30.0
 21
198.0
 31
0.0
  0
LINE
  5
5B13
330
1E
100
AcDbEntity
  8
17
  6
DASHDOT
100
AcDbLine
 10
-20.0
 20
157.0
 30
0.0
 11
-20.0
 21
198.0
 31
0.0
  0
LINE
  5
5B14
330
1E
100
AcDbEntity
  8
10
  6
Continuous
100
AcDbLine
 10
-36.00003199999999
 20
154.0
 30
0.0
 11
-36.00003199999999
 21
162.0
 31
0.0
  0
LINE
  5
5B15
330
1E
100
AcDbEntity
  8
10
  6
Continuous
100
AcDbLine
 10
-11.000047
 20
154.0
 30
0.0
 11
-10.38185300000002
 21
150.0
 31
0.0
  0
LINE
  5
5B16
330
1E
100
AcDbEntity
  8
24
  6
DASHDOT
100
AcDbLine
 10
-30.0
 20
196.0
 30
0.0
 11
-20.0
 21
196.0
 31
0.0
  0
LINE
  5
5B17
330
1E
100
AcDbEntity
  8
24
  6
DASHDOT
100
AcDbLine
 10
-29.5
 20
194.5999999999999
 30
0.0
 11
-20.5
 21
194.5999999999999
 31
0.0
  0
LINE
  5
5B18
330
1E
100
AcDbEntity
  8
24
  6
DASHDOT
100
AcDbLine
 10
-30.0
 20
198.0
 30
0.0
 11
-20.0
 21
198.0
 31
0.0
  0
ARC
  5
5B19
330
1E
100
AcDbEntity
  8
24
  6
DASHDOT
100
AcDbCircle
 10
-24.88180799999998
 20
202.2999999999999
 30
0.0
 40
12.0
100
AcDbArc
 50
254.58
 51
285.5199999999999
  0
LINE
  5
5B1A
330
1E
100
AcDbEntity
  8
24
  6
DASHDOT
100
AcDbLine
 10
-29.88180799999998
 20
193.5999999999999
 30
0.0
 11
-19.88180799999997
 21
193.5999999999999
 31
0.0
  0
LINE
  5
5B1B
330
1E
100
AcDbEntity
  8
24
  6
DASHDOT
100
AcDbLine
 10
-29.88180799999998
 20
193.5999999999999
 30
0.0
 11
-29.88180799999998
 21
194.5999999999999
 31
0.0
  0
LINE
  5
5B1C
330
1E
100
AcDbEntity
  8
24
  6
DASHDOT
100
AcDbLine
 10
-29.5
 20
196.0
 30
0.0
 11
-29.5
 21
194.5999999999999
 31
0.0
  0
ARC
  5
5B1D
330
1E
100
AcDbEntity
  8
24
  6
DASHDOT
100
AcDbCircle
 10
-27.66180799999995
 20
192.2799999999999
 30
0.0
 40
1.6
100
AcDbArc
 50
185.25
 51
254.58
  0
LINE
  5
5B1E
330
1E
100
AcDbEntity
  8
24
  6
DASHDOT
100
AcDbLine
 10
-29.38180799999997
 20
193.5999999999999
 30
0.0
 11
-29.25180799999998
 21
192.1399999999998
 31
0.0
  0
LINE
  5
5B1F
330
1E
100
AcDbEntity
  8
24
  6
DASHDOT
100
AcDbLine
 10
-19.88180799999997
 20
193.5999999999999
 30
0.0
 11
-19.88180799999997
 21
194.5999999999999
 31
0.0
  0
ARC
  5
5B20
330
1E
100
AcDbEntity
  8
24
  6
DASHDOT
100
AcDbCircle
 10
-22.101808
 20
192.2799999999999
 30
0.0
 40
1.6
100
AcDbArc
 50
285.5199999999999
 51
354.8399999999998
  0
LINE
  5
5B21
330
1E
100
AcDbEntity
  8
24
  6
DASHDOT
100
AcDbLine
 10
-20.38180799999997
 20
193.5999999999999
 30
0.0
 11
-20.51180799999997
 21
192.1399999999998
 31
0.0
  0
LINE
  5
5B22
330
1E
100
AcDbEntity
  8
24
  6
DASHDOT
100
AcDbLine
 10
-20.5
 20
194.5999999999999
 30
0.0
 11
-20.5
 21
196.0
 31
0.0
  0
LINE
  5
5B23
330
1E
100
AcDbEntity
  8
16
100
AcDbLine
 10
0.0000000000000041
 20
119.9708194754172
 30
0.0
 11
0.0000000000000041
 21
220.159372
 31
0.0
  0
DIMENSION
  5
5B24
330
1E
100
AcDbEntity
  8
30
  6
Continuous
100
AcDbDimension
  2
*D42
 10
45.79954771902376
 20
198.0
 30
0.0
 11
42.79954771902374
 21
210.0
 31
0.0
 70
    32
 71
     5
 42
24.00000000000003
  3
STANDARD
100
AcDbAlignedDimension
 13
37.481748
 23
222.0
 33
0.0
 14
29.8818505
 24
198.0
 34
0.0
 50
90.0
100
AcDbRotatedDimension
  0
LINE
  5
5B25
330
1E
100
AcDbEntity
  8
10
  6
Continuous
100
AcDbLine
 10
37.481748
 20
222.0
 30
0.0
 11
37.481748
 21
162.5
 31
0.0
  0
LINE
  5
5B26
330
1E
100
AcDbEntity
  8
17
  6
DASHDOT
100
AcDbLine
 10
-4.999999999999989
 20
157.0
 30
0.0
 11
-4.999999999999989
 21
198.0
 31
0.0
  0
LINE
  5
5B27
330
1E
100
AcDbEntity
  8
17
  6
DASHDOT
100
AcDbLine
 10
5.00000000000001
 20
157.0
 30
0.0
 11
5.00000000000001
 21
198.0
 31
0.0
  0
LINE
  5
5B28
330
1E
100
AcDbEntity
  8
10
  6
Continuous
100
AcDbLine
 10
-6.050003499999981
 20
138.0
 30
0.0
 11
6.05000350000008
 21
138.0
 31
0.0
  0
LINE
  5
5B29
330
1E
100
AcDbEntity
  8
10
  6
Continuous
100
AcDbLine
 10
-6.050003499999981
 20
138.0
 30
0.0
 11
-6.050003499999981
 21
150.0
 31
0.0
  0
LINE
  5
5B2A
330
1E
100
AcDbEntity
  8
10
  6
Continuous
100
AcDbLine
 10
6.05000350000008
 20
138.0
 30
0.0
 11
6.05000350000008
 21
150.0
 31
0.0
  0
ARC
  5
5B2B
330
1E
100
AcDbEntity
  8
24
  6
DASHDOT
100
AcDbCircle
 10
2.898192000000005
 20
192.2799999999999
 30
0.0
 40
1.6
100
AcDbArc
 50
285.5199999999999
 51
354.8399999999998
  0
LINE
  5
5B2C
330
1E
100
AcDbEntity
  8
24
  6
DASHDOT
100
AcDbLine
 10
-4.999999999999989
 20
196.0
 30
0.0
 11
5.00000000000001
 21
196.0
 31
0.0
  0
LINE
  5
5B2D
330
1E
100
AcDbEntity
  8
24
  6
DASHDOT
100
AcDbLine
 10
-4.499999999999989
 20
194.5999999999999
 30
0.0
 11
4.50000000000001
 21
194.5999999999999
 31
0.0
  0
LINE
  5
5B2E
330
1E
100
AcDbEntity
  8
24
  6
DASHDOT
100
AcDbLine
 10
-4.999999999999989
 20
198.0
 30
0.0
 11
5.00000000000001
 21
198.0
 31
0.0
  0
LINE
  5
5B2F
330
1E
100
AcDbEntity
  8
24
  6
DASHDOT
100
AcDbLine
 10
-4.881807999999967
 20
193.5999999999999
 30
0.0
 11
5.118192000000032
 21
193.5999999999999
 31
0.0
  0
LINE
  5
5B30
330
1E
100
AcDbEntity
  8
24
  6
DASHDOT
100
AcDbLine
 10
-4.499999999999989
 20
196.0
 30
0.0
 11
-4.499999999999989
 21
194.5999999999999
 31
0.0
  0
ARC
  5
5B31
330
1E
100
AcDbEntity
  8
24
  6
DASHDOT
100
AcDbCircle
 10
-2.66180799999994
 20
192.2799999999999
 30
0.0
 40
1.6
100
AcDbArc
 50
185.25
 51
254.58
  0
LINE
  5
5B32
330
1E
100
AcDbEntity
  8
24
  6
DASHDOT
100
AcDbLine
 10
-4.381807999999967
 20
193.5999999999999
 30
0.0
 11
-4.251807999999972
 21
192.1399999999998
 31
0.0
  0
LINE
  5
5B33
330
1E
100
AcDbEntity
  8
24
  6
DASHDOT
100
AcDbLine
 10
-4.881807999999967
 20
193.5999999999999
 30
0.0
 11
-4.881807999999967
 21
194.5999999999999
 31
0.0
  0
ARC
  5
5B34
330
1E
100
AcDbEntity
  8
24
  6
DASHDOT
100
AcDbCircle
 10
0.1181920000000325
 20
202.2999999999999
 30
0.0
 40
12.0
100
AcDbArc
 50
254.58
 51
285.5199999999999
  0
LINE
  5
5B35
330
1E
100
AcDbEntity
  8
24
  6
DASHDOT
100
AcDbLine
 10
5.118192000000032
 20
193.5999999999999
 30
0.0
 11
5.118192000000032
 21
194.5999999999999
 31
0.0
  0
LINE
  5
5B36
330
1E
100
AcDbEntity
  8
24
  6
DASHDOT
100
AcDbLine
 10
4.618192000000032
 20
193.5999999999999
 30
0.0
 11
4.488192000000037
 21
192.1399999999998
 31
0.0
  0
LINE
  5
5B37
330
1E
100
AcDbEntity
  8
24
  6
DASHDOT
100
AcDbLine
 10
4.50000000000001
 20
194.5999999999999
 30
0.0
 11
4.50000000000001
 21
196.0
 31
0.0
  0
LINE
  5
5B38
330
1E
100
AcDbEntity
  8
17
  6
DASHDOT
100
AcDbLine
 10
30.0
 20
157.0
 30
0.0
 11
30.0
 21
198.0
 31
0.0
  0
LINE
  5
5B39
330
1E
100
AcDbEntity
  8
17
  6
DASHDOT
100
AcDbLine
 10
20.0
 20
157.0
 30
0.0
 11
20.0
 21
198.0
 31
0.0
  0
LINE
  5
5B3A
330
1E
100
AcDbEntity
  8
10
  6
Continuous
100
AcDbLine
 10
35.99993900000001
 20
162.0
 30
0.0
 11
35.99993900000001
 21
154.0
 31
0.0
  0
LINE
  5
5B3B
330
1E
100
AcDbEntity
  8
10
  6
Continuous
100
AcDbLine
 10
10.99993899999998
 20
154.0
 30
0.0
 11
10.381745
 21
150.0
 31
0.0
  0
ARC
  5
5B3C
330
1E
100
AcDbEntity
  8
10
  6
Continuous
100
AcDbCircle
 10
36.981748
 20
162.5
 30
0.0
 40
0.5
100
AcDbArc
 50
270.0
 51
0.0
  0
LINE
  5
5B3D
330
1E
100
AcDbEntity
  8
24
  6
DASHDOT
100
AcDbLine
 10
20.11819200000002
 20
193.5999999999999
 30
0.0
 11
30.11819200000002
 21
193.5999999999999
 31
0.0
  0
ARC
  5
5B3E
330
1E
100
AcDbEntity
  8
24
  6
DASHDOT
100
AcDbCircle
 10
25.11819200000002
 20
202.2999999999999
 30
0.0
 40
12.0
100
AcDbArc
 50
254.58
 51
285.5199999999999
  0
LINE
  5
5B3F
330
1E
100
AcDbEntity
  8
24
  6
DASHDOT
100
AcDbLine
 10
20.0
 20
198.0
 30
0.0
 11
30.0
 21
198.0
 31
0.0
  0
LINE
  5
5B40
330
1E
100
AcDbEntity
  8
24
  6
DASHDOT
100
AcDbLine
 10
20.5
 20
194.5999999999999
 30
0.0
 11
29.5
 21
194.5999999999999
 31
0.0
  0
LINE
  5
5B41
330
1E
100
AcDbEntity
  8
24
  6
DASHDOT
100
AcDbLine
 10
20.0
 20
196.0
 30
0.0
 11
30.0
 21
196.0
 31
0.0
  0
LINE
  5
5B42
330
1E
100
AcDbEntity
  8
24
  6
DASHDOT
100
AcDbLine
 10
20.11819200000002
 20
193.5999999999999
 30
0.0
 11
20.11819200000002
 21
194.5999999999999
 31
0.0
  0
LINE
  5
5B43
330
1E
100
AcDbEntity
  8
24
  6
DASHDOT
100
AcDbLine
 10
20.61819200000002
 20
193.5999999999999
 30
0.0
 11
20.74819200000001
 21
192.1399999999998
 31
0.0
  0
ARC
  5
5B44
330
1E
100
AcDbEntity
  8
24
  6
DASHDOT
100
AcDbCircle
 10
22.33819200000005
 20
192.2799999999999
 30
0.0
 40
1.6
100
AcDbArc
 50
185.25
 51
254.58
  0
LINE
  5
5B45
330
1E
100
AcDbEntity
  8
24
  6
DASHDOT
100
AcDbLine
 10
20.5
 20
196.0
 30
0.0
 11
20.5
 21
194.5999999999999
 31
0.0
  0
LINE
  5
5B46
330
1E
100
AcDbEntity
  8
24
  6
DASHDOT
100
AcDbLine
 10
29.5
 20
194.5999999999999
 30
0.0
 11
29.5
 21
196.0
 31
0.0
  0
LINE
  5
5B47
330
1E
100
AcDbEntity
  8
24
  6
DASHDOT
100
AcDbLine
 10
29.61819200000002
 20
193.5999999999999
 30
0.0
 11
29.48819200000002
 21
192.1399999999998
 31
0.0
  0
ARC
  5
5B48
330
1E
100
AcDbEntity
  8
24
  6
DASHDOT
100
AcDbCircle
 10
27.89819199999999
 20
192.2799999999999
 30
0.0
 40
1.6
100
AcDbArc
 50
285.5199999999999
 51
354.8399999999998
  0
LINE
  5
5B49
330
1E
100
AcDbEntity
  8
24
  6
DASHDOT
100
AcDbLine
 10
30.11819200000002
 20
193.5999999999999
 30
0.0
 11
30.11819200000002
 21
194.5999999999999
 31
0.0
  0
LWPOLYLINE
  5
5CAC
330
1E
100
AcDbEntity
  8
18
  6
DIVIDE
100
AcDbPolyline
 90
        4
 70
     1
 43
0.0
 10
122.5
 20
-299.75
 10
197.5
 20
-299.75
 10
197.5
 20
-200.2499999999999
 10
122.5
 20
-200.2499999999999
  0
VIEWPORT
  5
9AC
330
1A
100
AcDbEntity
 67
     1
  8
0
  6
Continuous
100
AcDbViewport
 10
171.999535
 20
144.1384739999999
 30
0.0
 40
488.867686
 41
292.351491
 68
    -1
 69
     1
 12
171.999535
 22
144.1384739999999
 13
0.0
 23
0.0
 14
10.0
 24
10.0
 15
10.0
 25
10.0
 16
0.0
 26
0.0
 36
1.0
 17
0.0
 27
0.0
 37
0.0
 42
50.0
 43
0.0
 44
0.0
 45
292.351491
 50
0.0
 51
0.0
 72
   100
 90
    32800
  1

281
     0
 71
     1
 74
     0
110
0.0
120
0.0
130
0.0
111
1.0
121
0.0
131
0.0
112
0.0
122
1.0
132
0.0
 79
     0
146
0.0
  0
ENDSEC
  0
SECTION
  2
OBJECTS
  0
DICTIONARY
  5
C
330
0
100
AcDbDictionary
281
     1
  3
ACAD_GROUP
350
D
  3
ACAD_LAYOUT
350
19
  3
ACAD_MLINESTYLE
350
16
  3
ACAD_PLOTSETTINGS
350
18
  3
ACAD_PLOTSTYLENAME
350
E
  3
ACADDIM
350
3625
  3
ACDBHEADERROUNDTRIPXREC
350
5CAF
  3
ACDBVARIABLEDICTIONARY
350
3682
  0
DICTIONARY
  5
178
330
1E
100
AcDbDictionary
280
     1
281
     1
  3
ACAD_LAYOUTSELFREF
360
3A0D
  0
DICTIONARY
  5
17A
330
1A
100
AcDbDictionary
280
     1
281
     1
  3
ACAD_LAYOUTSELFREF
360
3A0C
  0
DICTIONARY
  5
D
102
{ACAD_REACTORS
330
C
102
}
330
C
100
AcDbDictionary
281
     1
  0
DICTIONARY
  5
19
102
{ACAD_REACTORS
330
C
102
}
330
C
100
AcDbDictionary
281
     1
  3
MODEL
350
21
  3
ﾚｲｱｳﾄ1
350
1D
  0
DICTIONARY
  5
16
102
{ACAD_REACTORS
330
C
102
}
330
C
100
AcDbDictionary
281
     1
  3
STANDARD
350
17
  0
DICTIONARY
  5
18
102
{ACAD_REACTORS
330
C
102
}
330
C
100
AcDbDictionary
281
     1
  0
ACDBDICTIONARYWDFLT
  5
E
102
{ACAD_REACTORS
330
C
102
}
330
C
100
AcDbDictionary
281
     1
  3
Normal
350
F
100
AcDbDictionaryWithDefault
340
F
  0
XRECORD
  5
3625
102
{ACAD_REACTORS
330
C
102
}
330
C
100
AcDbXrecord
280
     1
 90
   990106
  3

 60
     0
 61
     0
 62
     1
 63
     3
 64
     0
 65
     0
 66
     0
 67
     3
 68
     1
 69
     0
 70
     0
 71
     0
 72
     0
 40
0.0
170
     0
340
0
  0
DICTIONARY
  5
5CAF
102
{ACAD_REACTORS
330
C
102
}
330
C
100
AcDbDictionary
281
     1
  3
CEPSNTYPE
350
5CB9
  3
DIMSTYLEDATA
350
5CBD
  3
FINGERPRINTGUID
350
5CBA
  3
HYPERLINKBASE
350
5CB2
  3
INSUNITS
350
5CB8
  3
LAYOUTDICT
350
5CB4
  3
LWETCUNION
350
5CB7
  3
PLOTSETDICT
350
5CB5
  3
PLOTSTYLNAMDICT
350
5CB6
  3
PSVPSCALE
350
5CBC
  3
PUCSBASE
350
5CC0
  3
PUCSORGBACK
350
5CC6
  3
PUCSORGBOTTOM
350
5CC2
  3
PUCSORGFRONT
350
5CC5
  3
PUCSORGLEFT
350
5CC3
  3
PUCSORGRIGHT
350
5CC4
  3
PUCSORGTOP
350
5CC1
  3
PUCSORTHOREF
350
5CBE
  3
PUCSORTHOVIEW
350
5CBF
  3
STYLESHEET
350
5CB3
  3
TSTACKALIGN
350
5CB0
  3
TSTACKSIZE
350
5CB1
  3
UCSBASE
350
5CC9
  3
UCSORGBACK
350
5CCF
  3
UCSORGBOTTOM
350
5CCB
  3
UCSORGFRONT
350
5CCE
  3
UCSORGLEFT
350
5CCC
  3
UCSORGRIGHT
350
5CCD
  3
UCSORGTOP
350
5CCA
  3
UCSORTHOREF
350
5CC7
  3
UCSORTHOVIEW
350
5CC8
  3
VERSIONGUID
350
5CBB
  0
DICTIONARY
  5
3682
102
{ACAD_REACTORS
330
C
102
}
330
C
100
AcDbDictionary
281
     1
  3
DIMASSOC
350
3A2F
  3
SORTENTS
350
3683
  0
XRECORD
  5
3A0D
102
{ACAD_REACTORS
330
178
102
}
330
178
100
AcDbXrecord
280
     1
340
1E
  0
XRECORD
  5
3A0C
102
{ACAD_REACTORS
330
17A
102
}
330
17A
100
AcDbXrecord
280
     1
340
1A
  0
LAYOUT
  5
21
102
{ACAD_REACTORS
330
19
102
}
330
19
100
AcDbPlotSettings
  1

  2
\\PRINT_SERV\RICOH IPSiO NX730N RPCS
  4
A4
  6
OLE1
 40
5.873749732971191
 41
5.873747825622558
 42
5.873748779296875
 43
5.873748779296875
 44
209.9733276367187
 45
296.9259948730469
 46
28.73
 47
6.379999999999999
 48
0.0
 49
0.0
140
0.0
141
0.0
142
1.0
143
2.0
 70
 11940
 72
     1
 73
     0
 74
     1
  7
monochrome.ctb
 75
     0
147
0.5
148
62.34020037769403
149
318.7382997042059
100
AcDbLayout
  1
Model
 70
     1
 71
     0
 10
0.0
 20
0.0
 11
12.0
 21
9.0
 12
0.0
 22
0.0
 32
0.0
 14
0.0
 24
0.0
 34
0.0
 15
0.0
 25
0.0
 35
0.0
146
0.0
 13
0.0
 23
0.0
 33
0.0
 16
1.0
 26
0.0
 36
0.0
 17
0.0
 27
1.0
 37
0.0
 76
     0
330
1E
  0
LAYOUT
  5
1D
102
{ACAD_REACTORS
330
19
102
}
330
19
100
AcDbPlotSettings
  1

  2
EPSON LP-8300
  4
A4
  6

 40
5.873749732971191
 41
5.873747825622557
 42
5.873748779296875
 43
5.873748779296875
 44
297.0106506347656
 45
209.9733276367186
 46
0.0
 47
0.0
 48
0.0
 49
0.0
140
0.0
141
0.0
142
1.0
143
1.0
 70
   672
 72
     1
 73
     1
 74
     5
  7
MCCB.ctb
 75
     0
147
1.0
148
0.0
149
0.0
100
AcDbLayout
  1
ﾚｲｱｳﾄ1
 70
     1
 71
     1
 10
-5.873749
 20
-5.87375
 11
204.099579
 21
291.1369009999999
 12
0.0
 22
0.0
 32
0.0
 14
4.273573
 24
5.205245999999998
 34
0.0
 15
194.610095
 25
283.0697009999998
 35
0.0
146
0.0
 13
0.0
 23
0.0
 33
0.0
 16
1.0
 26
0.0
 36
0.0
 17
0.0
 27
1.0
 37
0.0
 76
     0
330
1A
331
9AC
  0
MLINESTYLE
  5
17
102
{ACAD_REACTORS
330
16
102
}
330
16
100
AcDbMlineStyle
  2
STANDARD
 70
     0
  3

 62
   256
 51
90.0
 52
90.0
 71
     2
 49
0.5
 62
   256
  6
BYLAYER
 49
-0.5
 62
   256
  6
BYLAYER
  0
ACDBPLACEHOLDER
  5
F
102
{ACAD_REACTORS
330
E
102
}
330
E
  0
XRECORD
  5
5CB9
102
{ACAD_REACTORS
330
5CAF
102
}
330
5CAF
100
AcDbXrecord
280
     1
 90
        0
  0
XRECORD
  5
5CBD
102
{ACAD_REACTORS
330
5CAF
102
}
330
5CAF
100
AcDbXrecord
280
     1
1000
DSTYLE
1002
{
1070
    79
 70
     3
1070
   341
340
3B2
1070
   342
340
3B2
1002
}
  0
XRECORD
  5
5CBA
102
{ACAD_REACTORS
330
5CAF
102
}
330
5CAF
100
AcDbXrecord
280
     1
  1

  0
XRECORD
  5
5CB2
102
{ACAD_REACTORS
330
5CAF
102
}
330
5CAF
100
AcDbXrecord
280
     1
  1

  0
XRECORD
  5
5CB8
102
{ACAD_REACTORS
330
5CAF
102
}
330
5CAF
100
AcDbXrecord
280
     1
 90
        0
  0
XRECORD
  5
5CB4
102
{ACAD_REACTORS
330
5CAF
102
}
330
5CAF
100
AcDbXrecord
280
     1
340
19
  0
XRECORD
  5
5CB7
102
{ACAD_REACTORS
330
5CAF
102
}
330
5CAF
100
AcDbXrecord
280
     1
 90
    10781
  0
XRECORD
  5
5CB5
102
{ACAD_REACTORS
330
5CAF
102
}
330
5CAF
100
AcDbXrecord
280
     1
340
18
  0
XRECORD
  5
5CB6
102
{ACAD_REACTORS
330
5CAF
102
}
330
5CAF
100
AcDbXrecord
280
     1
340
E
  0
XRECORD
  5
5CBC
102
{ACAD_REACTORS
330
5CAF
102
}
330
5CAF
100
AcDbXrecord
280
     1
 40
0.0
  0
XRECORD
  5
5CC0
102
{ACAD_REACTORS
330
5CAF
102
}
330
5CAF
100
AcDbXrecord
280
     1
340
0
  0
XRECORD
  5
5CC6
102
{ACAD_REACTORS
330
5CAF
102
}
330
5CAF
100
AcDbXrecord
280
     1
 10
0.0
 20
0.0
 30
0.0
  0
XRECORD
  5
5CC2
102
{ACAD_REACTORS
330
5CAF
102
}
330
5CAF
100
AcDbXrecord
280
     1
 10
0.0
 20
0.0
 30
0.0
  0
XRECORD
  5
5CC5
102
{ACAD_REACTORS
330
5CAF
102
}
330
5CAF
100
AcDbXrecord
280
     1
 10
0.0
 20
0.0
 30
0.0
  0
XRECORD
  5
5CC3
102
{ACAD_REACTORS
330
5CAF
102
}
330
5CAF
100
AcDbXrecord
280
     1
 10
0.0
 20
0.0
 30
0.0
  0
XRECORD
  5
5CC4
102
{ACAD_REACTORS
330
5CAF
102
}
330
5CAF
100
AcDbXrecord
280
     1
 10
0.0
 20
0.0
 30
0.0
  0
XRECORD
  5
5CC1
102
{ACAD_REACTORS
330
5CAF
102
}
330
5CAF
100
AcDbXrecord
280
     1
 10
0.0
 20
0.0
 30
0.0
  0
XRECORD
  5
5CBE
102
{ACAD_REACTORS
330
5CAF
102
}
330
5CAF
100
AcDbXrecord
280
     1
340
0
  0
XRECORD
  5
5CBF
102
{ACAD_REACTORS
330
5CAF
102
}
330
5CAF
100
AcDbXrecord
280
     1
 70
     0
  0
XRECORD
  5
5CB3
102
{ACAD_REACTORS
330
5CAF
102
}
330
5CAF
100
AcDbXrecord
280
     1
  1
monochrome.ctb
  0
XRECORD
  5
5CB0
102
{ACAD_REACTORS
330
5CAF
102
}
330
5CAF
100
AcDbXrecord
280
     1
 90
        1
  0
XRECORD
  5
5CB1
102
{ACAD_REACTORS
330
5CAF
102
}
330
5CAF
100
AcDbXrecord
280
     1
 90
       70
  0
XRECORD
  5
5CC9
102
{ACAD_REACTORS
330
5CAF
102
}
330
5CAF
100
AcDbXrecord
280
     1
340
0
  0
XRECORD
  5
5CCF
102
{ACAD_REACTORS
330
5CAF
102
}
330
5CAF
100
AcDbXrecord
280
     1
 10
0.0
 20
0.0
 30
0.0
  0
XRECORD
  5
5CCB
102
{ACAD_REACTORS
330
5CAF
102
}
330
5CAF
100
AcDbXrecord
280
     1
 10
0.0
 20
0.0
 30
0.0
  0
XRECORD
  5
5CCE
102
{ACAD_REACTORS
330
5CAF
102
}
330
5CAF
100
AcDbXrecord
280
     1
 10
0.0
 20
0.0
 30
0.0
  0
XRECORD
  5
5CCC
102
{ACAD_REACTORS
330
5CAF
102
}
330
5CAF
100
AcDbXrecord
280
     1
 10
0.0
 20
0.0
 30
0.0
  0
XRECORD
  5
5CCD
102
{ACAD_REACTORS
330
5CAF
102
}
330
5CAF
100
AcDbXrecord
280
     1
 10
0.0
 20
0.0
 30
0.0
  0
XRECORD
  5
5CCA
102
{ACAD_REACTORS
330
5CAF
102
}
330
5CAF
100
AcDbXrecord
280
     1
 10
0.0
 20
0.0
 30
0.0
  0
XRECORD
  5
5CC7
102
{ACAD_REACTORS
330
5CAF
102
}
330
5CAF
100
AcDbXrecord
280
     1
340
0
  0
XRECORD
  5
5CC8
102
{ACAD_REACTORS
330
5CAF
102
}
330
5CAF
100
AcDbXrecord
280
     1
 70
     0
  0
XRECORD
  5
5CBB
102
{ACAD_REACTORS
330
5CAF
102
}
330
5CAF
100
AcDbXrecord
280
     1
  1
{9C078C5C-66BA-4A87-8D49-A0C53FBE0E1C}
  0
DICTIONARYVAR
  5
3A2F
102
{ACAD_REACTORS
330
3682
102
}
330
3682
100
DictionaryVariables
280
     0
  1
1
  0
DICTIONARYVAR
  5
3683
102
{ACAD_REACTORS
330
3682
102
}
330
3682
100
DictionaryVariables
280
     0
  1
96
  0
ENDSEC
  0
EOF
