  0
SECTION
  2
HEADER
  9
$ACADVER
  1
AC1015
  9
$ACADMAINTVER
 70
    10
  9
$DWGCODEPAGE
  3
ANSI_932
  9
$INSBASE
 10
0.0
 20
0.0
 30
0.0
  9
$EXTMIN
 10
-62.34020037769403
 20
-328.2267092594409
 30
-0.0000000000000058
  9
$EXTMAX
 10
235.1384776375431
 20
226.0702193569354
 30
0.0000000000000104
  9
$LIMMIN
 10
-73.36291800000002
 20
-328.1505989999998
  9
$LIMMAX
 10
266.103609
 20
223.0601529999999
  9
$ORTHOMODE
 70
     0
  9
$REGENMODE
 70
     1
  9
$FILLMODE
 70
     1
  9
$QTEXTMODE
 70
     0
  9
$MIRRTEXT
 70
     1
  9
$LTSCALE
 40
10.0
  9
$ATTMODE
 70
     1
  9
$TEXTSIZE
 40
4.0
  9
$TRACEWID
 40
0.05
  9
$TEXTSTYLE
  7
STANDARD1
  9
$CLAYER
  8
0
  9
$CELTYPE
  6
CONTINUOUS
  9
$CECOLOR
 62
   256
  9
$CELTSCALE
 40
1.0
  9
$DISPSILH
 70
     0
  9
$DIMSCALE
 40
1.0
  9
$DIMASZ
 40
2.0
  9
$DIMEXO
 40
1.0
  9
$DIMDLI
 40
0.5
  9
$DIMRND
 40
0.0
  9
$DIMDLE
 40
0.0
  9
$DIMEXE
 40
0.5
  9
$DIMTP
 40
0.0
  9
$DIMTM
 40
0.0
  9
$DIMTXT
 40
4.0
  9
$DIMCEN
 40
0.09
  9
$DIMTSZ
 40
0.0
  9
$DIMTOL
 70
     0
  9
$DIMLIM
 70
     0
  9
$DIMTIH
 70
     0
  9
$DIMTOH
 70
     1
  9
$DIMSE1
 70
     0
  9
$DIMSE2
 70
     0
  9
$DIMTAD
 70
     3
  9
$DIMZIN
 70
    12
  9
$DIMBLK
  1
OPEN
  9
$DIMASO
 70
     1
  9
$DIMSHO
 70
     1
  9
$DIMPOST
  1

  9
$DIMAPOST
  1

  9
$DIMALT
 70
     0
  9
$DIMALTD
 70
     2
  9
$DIMALTF
 40
25.4
  9
$DIMLFAC
 40
1.0
  9
$DIMTOFL
 70
     0
  9
$DIMTVP
 40
0.0
  9
$DIMTIX
 70
     0
  9
$DIMSOXD
 70
     0
  9
$DIMSAH
 70
     0
  9
$DIMBLK1
  1

  9
$DIMBLK2
  1

  9
$DIMSTYLE
  2
STANDARD
  9
$DIMCLRD
 70
     0
  9
$DIMCLRE
 70
     0
  9
$DIMCLRT
 70
     0
  9
$DIMTFAC
 40
1.0
  9
$DIMGAP
 40
1.0
  9
$DIMJUST
 70
     0
  9
$DIMSD1
 70
     0
  9
$DIMSD2
 70
     0
  9
$DIMTOLJ
 70
     1
  9
$DIMTZIN
 70
     0
  9
$DIMALTZ
 70
     0
  9
$DIMALTTZ
 70
     0
  9
$DIMUPT
 70
     0
  9
$DIMDEC
 70
     1
  9
$DIMTDEC
 70
     1
  9
$DIMALTU
 70
     2
  9
$DIMALTTD
 70
     2
  9
$DIMTXSTY
  7
STANDARD
  9
$DIMAUNIT
 70
     0
  9
$DIMADEC
 70
     0
  9
$DIMALTRND
 40
0.0
  9
$DIMAZIN
 70
     3
  9
$DIMDSEP
 70
    46
  9
$DIMATFIT
 70
     3
  9
$DIMFRAC
 70
     0
  9
$DIMLDRBLK
  1
OPEN
  9
$DIMLUNIT
 70
     2
  9
$DIMLWD
 70
    -2
  9
$DIMLWE
 70
    -2
  9
$DIMTMOVE
 70
     0
  9
$LUNITS
 70
     2
  9
$LUPREC
 70
     4
  9
$SKETCHINC
 40
0.1
  9
$FILLETRAD
 40
0.0
  9
$AUNITS
 70
     0
  9
$AUPREC
 70
     0
  9
$MENU
  1
.
  9
$ELEVATION
 40
0.0
  9
$PELEVATION
 40
0.0
  9
$THICKNESS
 40
0.0
  9
$LIMCHECK
 70
     0
  9
$CHAMFERA
 40
0.0
  9
$CHAMFERB
 40
0.0
  9
$CHAMFERC
 40
0.0
  9
$CHAMFERD
 40
0.0
  9
$SKPOLY
 70
     0
  9
$TDCREATE
 40
2452286.555658657
  9
$TDUCREATE
 40
2452286.180658657
  9
$TDUPDATE
 40
2454854.687012800
  9
$TDUUPDATE
 40
2454854.312012801
  9
$TDINDWG
 40
1.5500352199
  9
$TDUSRTIMER
 40
1.5500330556
  9
$USRTIMER
 70
     1
  9
$ANGBASE
 50
0.0
  9
$ANGDIR
 70
     0
  9
$PDMODE
 70
     0
  9
$PDSIZE
 40
0.0
  9
$PLINEWID
 40
0.0
  9
$SPLFRAME
 70
     0
  9
$SPLINETYPE
 70
     6
  9
$SPLINESEGS
 70
     8
  9
$HANDSEED
  5
6BD3
  9
$SURFTAB1
 70
     6
  9
$SURFTAB2
 70
     6
  9
$SURFTYPE
 70
     6
  9
$SURFU
 70
     6
  9
$SURFV
 70
     6
  9
$UCSBASE
  2

  9
$UCSNAME
  2

  9
$UCSORG
 10
0.0
 20
0.0
 30
0.0
  9
$UCSXDIR
 10
1.0
 20
0.0
 30
0.0
  9
$UCSYDIR
 10
0.0
 20
1.0
 30
0.0
  9
$UCSORTHOREF
  2

  9
$UCSORTHOVIEW
 70
     0
  9
$UCSORGTOP
 10
0.0
 20
0.0
 30
0.0
  9
$UCSORGBOTTOM
 10
0.0
 20
0.0
 30
0.0
  9
$UCSORGLEFT
 10
0.0
 20
0.0
 30
0.0
  9
$UCSORGRIGHT
 10
0.0
 20
0.0
 30
0.0
  9
$UCSORGFRONT
 10
0.0
 20
0.0
 30
0.0
  9
$UCSORGBACK
 10
0.0
 20
0.0
 30
0.0
  9
$PUCSBASE
  2

  9
$PUCSNAME
  2

  9
$PUCSORG
 10
0.0
 20
0.0
 30
0.0
  9
$PUCSXDIR
 10
1.0
 20
0.0
 30
0.0
  9
$PUCSYDIR
 10
0.0
 20
1.0
 30
0.0
  9
$PUCSORTHOREF
  2

  9
$PUCSORTHOVIEW
 70
     0
  9
$PUCSORGTOP
 10
0.0
 20
0.0
 30
0.0
  9
$PUCSORGBOTTOM
 10
0.0
 20
0.0
 30
0.0
  9
$PUCSORGLEFT
 10
0.0
 20
0.0
 30
0.0
  9
$PUCSORGRIGHT
 10
0.0
 20
0.0
 30
0.0
  9
$PUCSORGFRONT
 10
0.0
 20
0.0
 30
0.0
  9
$PUCSORGBACK
 10
0.0
 20
0.0
 30
0.0
  9
$USERI1
 70
     0
  9
$USERI2
 70
     0
  9
$USERI3
 70
     0
  9
$USERI4
 70
     0
  9
$USERI5
 70
     0
  9
$USERR1
 40
0.0
  9
$USERR2
 40
0.0
  9
$USERR3
 40
0.0
  9
$USERR4
 40
0.0
  9
$USERR5
 40
0.0
  9
$WORLDVIEW
 70
     1
  9
$SHADEDGE
 70
     3
  9
$SHADEDIF
 70
    70
  9
$TILEMODE
 70
     1
  9
$MAXACTVP
 70
    48
  9
$PINSBASE
 10
0.0
 20
0.0
 30
0.0
  9
$PLIMCHECK
 70
     0
  9
$PEXTMIN
 10
4.273573
 20
5.205245999999998
 30
0.0
  9
$PEXTMAX
 10
194.610095
 20
283.0697009999997
 30
0.0
  9
$PLIMMIN
 10
-5.873749
 20
-5.87375
  9
$PLIMMAX
 10
204.099579
 20
291.1369009999999
  9
$UNITMODE
 70
     0
  9
$VISRETAIN
 70
     1
  9
$PLINEGEN
 70
     0
  9
$PSLTSCALE
 70
     1
  9
$TREEDEPTH
 70
  3020
  9
$CMLSTYLE
  2
STANDARD
  9
$CMLJUST
 70
     0
  9
$CMLSCALE
 40
1.0
  9
$PROXYGRAPHICS
 70
     1
  9
$MEASUREMENT
 70
     0
  9
$CELWEIGHT
370
    -1
  9
$ENDCAPS
280
     0
  9
$JOINSTYLE
280
     0
  9
$LWDISPLAY
290
     0
  9
$INSUNITS
 70
     0
  9
$HYPERLINKBASE
  1

  9
$STYLESHEET
  1
monochrome.ctb
  9
$XEDIT
290
     1
  9
$CEPSNTYPE
380
     0
  9
$PSTYLEMODE
290
     1
  9
$FINGERPRINTGUID
  2

  9
$VERSIONGUID
  2
{0B9E3B4E-3C8D-458C-87A1-13CB1F1EB6EE}
  9
$EXTNAMES
290
     1
  9
$PSVPSCALE
 40
0.0
  9
$OLESTARTUP
290
     0
  0
ENDSEC
  0
SECTION
  2
CLASSES
  0
CLASS
  1
ACDBDICTIONARYWDFLT
  2
AcDbDictionaryWithDefault
  3
AutoCAD 2000
 90
        0
280
     0
281
     0
  0
CLASS
  1
ACDBPLACEHOLDER
  2
AcDbPlaceHolder
  3
AutoCAD 2000
 90
        0
280
     0
281
     0
  0
CLASS
  1
LAYOUT
  2
AcDbLayout
  3
AutoCAD 2000
 90
        0
280
     0
281
     0
  0
CLASS
  1
LONG_TRANSACTION
  2
AcDbLongTransaction
  3
AutoCAD 2000
 90
    32768
280
     0
281
     0
  0
CLASS
  1
LWPOLYLINE
  2
AcDbPolyline
  3
AutoCAD 2000
 90
    32768
280
     0
281
     1
  0
CLASS
  1
HATCH
  2
AcDbHatch
  3
AutoCAD 2000
 90
    32768
280
     0
281
     1
  0
CLASS
  1
XRECORD
  2
AcDbXrecord
  3
AutoCAD 2000
 90
    32768
280
     0
281
     0
  0
CLASS
  1
LONG_TRANSACTION
  2
AcDbLongTransaction
  3
AutoCAD 2000
 90
    32768
280
     0
281
     0
  0
CLASS
  1
LWPOLYLINE
  2
AcDbPolyline
  3
AutoCAD 2000
 90
    32768
280
     0
281
     1
  0
CLASS
  1
HATCH
  2
AcDbHatch
  3
AutoCAD 2000
 90
    32768
280
     0
281
     1
  0
CLASS
  1
XRECORD
  2
AcDbXrecord
  3
AutoCAD 2000
 90
    32768
280
     0
281
     0
  0
CLASS
  1
LONG_TRANSACTION
  2
AcDbLongTransaction
  3
AutoCAD 2000
 90
    32768
280
     0
281
     0
  0
CLASS
  1
LWPOLYLINE
  2
AcDbPolyline
  3
AutoCAD 2000
 90
    32768
280
     0
281
     1
  0
CLASS
  1
HATCH
  2
AcDbHatch
  3
AutoCAD 2000
 90
    32768
280
     0
281
     1
  0
CLASS
  1
XRECORD
  2
AcDbXrecord
  3
AutoCAD 2000
 90
    32768
280
     0
281
     0
  0
CLASS
  1
LONG_TRANSACTION
  2
AcDbLongTransaction
  3
AutoCAD 2000
 90
    32768
280
     0
281
     0
  0
CLASS
  1
LWPOLYLINE
  2
AcDbPolyline
  3
AutoCAD 2000
 90
    32768
280
     0
281
     1
  0
CLASS
  1
HATCH
  2
AcDbHatch
  3
AutoCAD 2000
 90
    32768
280
     0
281
     1
  0
CLASS
  1
XRECORD
  2
AcDbXrecord
  3
AutoCAD 2000
 90
    32768
280
     0
281
     0
  0
CLASS
  1
LONG_TRANSACTION
  2
AcDbLongTransaction
  3
AutoCAD 2000
 90
    32768
280
     0
281
     0
  0
CLASS
  1
LWPOLYLINE
  2
AcDbPolyline
  3
AutoCAD 2000
 90
    32768
280
     0
281
     1
  0
CLASS
  1
HATCH
  2
AcDbHatch
  3
AutoCAD 2000
 90
    32768
280
     0
281
     1
  0
CLASS
  1
XRECORD
  2
AcDbXrecord
  3
AutoCAD 2000
 90
    32768
280
     0
281
     0
  0
CLASS
  1
LONG_TRANSACTION
  2
AcDbLongTransaction
  3
AutoCAD 2000
 90
    32768
280
     0
281
     0
  0
CLASS
  1
LWPOLYLINE
  2
AcDbPolyline
  3
AutoCAD 2000
 90
    32768
280
     0
281
     1
  0
CLASS
  1
HATCH
  2
AcDbHatch
  3
AutoCAD 2000
 90
    32768
280
     0
281
     1
  0
CLASS
  1
XRECORD
  2
AcDbXrecord
  3
AutoCAD 2000
 90
    32768
280
     0
281
     0
  0
CLASS
  1
LONG_TRANSACTION
  2
AcDbLongTransaction
  3
AutoCAD 2000
 90
    32768
280
     0
281
     0
  0
CLASS
  1
LWPOLYLINE
  2
AcDbPolyline
  3
AutoCAD 2000
 90
    32768
280
     0
281
     1
  0
CLASS
  1
HATCH
  2
AcDbHatch
  3
AutoCAD 2000
 90
    32768
280
     0
281
     1
  0
CLASS
  1
XRECORD
  2
AcDbXrecord
  3
AutoCAD 2000
 90
    32768
280
     0
281
     0
  0
CLASS
  1
LONG_TRANSACTION
  2
AcDbLongTransaction
  3
AutoCAD 2000
 90
    32768
280
     0
281
     0
  0
CLASS
  1
LWPOLYLINE
  2
AcDbPolyline
  3
AutoCAD 2000
 90
    32768
280
     0
281
     1
  0
CLASS
  1
HATCH
  2
AcDbHatch
  3
AutoCAD 2000
 90
    32768
280
     0
281
     1
  0
CLASS
  1
XRECORD
  2
AcDbXrecord
  3
AutoCAD 2000
 90
    32768
280
     0
281
     0
  0
CLASS
  1
LONG_TRANSACTION
  2
AcDbLongTransaction
  3
AutoCAD 2000
 90
    32768
280
     0
281
     0
  0
CLASS
  1
LWPOLYLINE
  2
AcDbPolyline
  3
AutoCAD 2000
 90
    32768
280
     0
281
     1
  0
CLASS
  1
HATCH
  2
AcDbHatch
  3
AutoCAD 2000
 90
    32768
280
     0
281
     1
  0
CLASS
  1
XRECORD
  2
AcDbXrecord
  3
AutoCAD 2000
 90
    32768
280
     0
281
     0
  0
CLASS
  1
LONG_TRANSACTION
  2
AcDbLongTransaction
  3
AutoCAD 2000
 90
    32768
280
     0
281
     0
  0
CLASS
  1
LWPOLYLINE
  2
AcDbPolyline
  3
AutoCAD 2000
 90
    32768
280
     0
281
     1
  0
CLASS
  1
HATCH
  2
AcDbHatch
  3
AutoCAD 2000
 90
    32768
280
     0
281
     1
  0
CLASS
  1
XRECORD
  2
AcDbXrecord
  3
AutoCAD 2000
 90
    32768
280
     0
281
     0
  0
CLASS
  1
LONG_TRANSACTION
  2
AcDbLongTransaction
  3
AutoCAD 2000
 90
    32768
280
     0
281
     0
  0
CLASS
  1
LWPOLYLINE
  2
AcDbPolyline
  3
AutoCAD 2000
 90
    32768
280
     0
281
     1
  0
CLASS
  1
HATCH
  2
AcDbHatch
  3
AutoCAD 2000
 90
    32768
280
     0
281
     1
  0
CLASS
  1
XRECORD
  2
AcDbXrecord
  3
AutoCAD 2000
 90
    32768
280
     0
281
     0
  0
CLASS
  1
LONG_TRANSACTION
  2
AcDbLongTransaction
  3
AutoCAD 2000
 90
    32768
280
     0
281
     0
  0
CLASS
  1
LWPOLYLINE
  2
AcDbPolyline
  3
AutoCAD 2000
 90
    32768
280
     0
281
     1
  0
CLASS
  1
HATCH
  2
AcDbHatch
  3
AutoCAD 2000
 90
    32768
280
     0
281
     1
  0
CLASS
  1
XRECORD
  2
AcDbXrecord
  3
AutoCAD 2000
 90
    32768
280
     0
281
     0
  0
CLASS
  1
LONG_TRANSACTION
  2
AcDbLongTransaction
  3
AutoCAD 2000
 90
    32768
280
     0
281
     0
  0
CLASS
  1
LWPOLYLINE
  2
AcDbPolyline
  3
AutoCAD 2000
 90
    32768
280
     0
281
     1
  0
CLASS
  1
HATCH
  2
AcDbHatch
  3
AutoCAD 2000
 90
    32768
280
     0
281
     1
  0
CLASS
  1
XRECORD
  2
AcDbXrecord
  3
AutoCAD 2000
 90
    32768
280
     0
281
     0
  0
CLASS
  1
LONG_TRANSACTION
  2
AcDbLongTransaction
  3
AutoCAD 2000
 90
    32768
280
     0
281
     0
  0
CLASS
  1
LWPOLYLINE
  2
AcDbPolyline
  3
AutoCAD 2000
 90
    32768
280
     0
281
     1
  0
CLASS
  1
HATCH
  2
AcDbHatch
  3
AutoCAD 2000
 90
    32768
280
     0
281
     1
  0
CLASS
  1
XRECORD
  2
AcDbXrecord
  3
AutoCAD 2000
 90
    32768
280
     0
281
     0
  0
CLASS
  1
LONG_TRANSACTION
  2
AcDbLongTransaction
  3
AutoCAD 2000
 90
    32768
280
     0
281
     0
  0
CLASS
  1
LWPOLYLINE
  2
AcDbPolyline
  3
AutoCAD 2000
 90
    32768
280
     0
281
     1
  0
CLASS
  1
HATCH
  2
AcDbHatch
  3
AutoCAD 2000
 90
    32768
280
     0
281
     1
  0
CLASS
  1
XRECORD
  2
AcDbXrecord
  3
AutoCAD 2000
 90
    32768
280
     0
281
     0
  0
CLASS
  1
LONG_TRANSACTION
  2
AcDbLongTransaction
  3
AutoCAD 2000
 90
    32768
280
     0
281
     0
  0
CLASS
  1
LWPOLYLINE
  2
AcDbPolyline
  3
AutoCAD 2000
 90
    32768
280
     0
281
     1
  0
CLASS
  1
HATCH
  2
AcDbHatch
  3
AutoCAD 2000
 90
    32768
280
     0
281
     1
  0
CLASS
  1
XRECORD
  2
AcDbXrecord
  3
AutoCAD 2000
 90
    32768
280
     0
281
     0
  0
CLASS
  1
LONG_TRANSACTION
  2
AcDbLongTransaction
  3
AutoCAD 2000
 90
    32768
280
     0
281
     0
  0
CLASS
  1
LWPOLYLINE
  2
AcDbPolyline
  3
AutoCAD 2000
 90
    32768
280
     0
281
     1
  0
CLASS
  1
HATCH
  2
AcDbHatch
  3
AutoCAD 2000
 90
    32768
280
     0
281
     1
  0
CLASS
  1
XRECORD
  2
AcDbXrecord
  3
AutoCAD 2000
 90
    32768
280
     0
281
     0
  0
CLASS
  1
LONG_TRANSACTION
  2
AcDbLongTransaction
  3
AutoCAD 2000
 90
    32768
280
     0
281
     0
  0
CLASS
  1
LWPOLYLINE
  2
AcDbPolyline
  3
AutoCAD 2000
 90
    32768
280
     0
281
     1
  0
CLASS
  1
HATCH
  2
AcDbHatch
  3
AutoCAD 2000
 90
    32768
280
     0
281
     1
  0
CLASS
  1
XRECORD
  2
AcDbXrecord
  3
AutoCAD 2000
 90
    32768
280
     0
281
     0
  0
CLASS
  1
LONG_TRANSACTION
  2
AcDbLongTransaction
  3
AutoCAD 2000
 90
    32768
280
     0
281
     0
  0
CLASS
  1
LWPOLYLINE
  2
AcDbPolyline
  3
AutoCAD 2000
 90
    32768
280
     0
281
     1
  0
CLASS
  1
HATCH
  2
AcDbHatch
  3
AutoCAD 2000
 90
    32768
280
     0
281
     1
  0
CLASS
  1
XRECORD
  2
AcDbXrecord
  3
AutoCAD 2000
 90
    32768
280
     0
281
     0
  0
CLASS
  1
LONG_TRANSACTION
  2
AcDbLongTransaction
  3
AutoCAD 2000
 90
    32768
280
     0
281
     0
  0
CLASS
  1
LWPOLYLINE
  2
AcDbPolyline
  3
AutoCAD 2000
 90
    32768
280
     0
281
     1
  0
CLASS
  1
HATCH
  2
AcDbHatch
  3
AutoCAD 2000
 90
    32768
280
     0
281
     1
  0
CLASS
  1
XRECORD
  2
AcDbXrecord
  3
AutoCAD 2000
 90
    32768
280
     0
281
     0
  0
CLASS
  1
LONG_TRANSACTION
  2
AcDbLongTransaction
  3
AutoCAD 2000
 90
    32768
280
     0
281
     0
  0
CLASS
  1
LWPOLYLINE
  2
AcDbPolyline
  3
AutoCAD 2000
 90
    32768
280
     0
281
     1
  0
CLASS
  1
HATCH
  2
AcDbHatch
  3
AutoCAD 2000
 90
    32768
280
     0
281
     1
  0
CLASS
  1
XRECORD
  2
AcDbXrecord
  3
AutoCAD 2000
 90
    32768
280
     0
281
     0
  0
CLASS
  1
LONG_TRANSACTION
  2
AcDbLongTransaction
  3
AutoCAD 2000
 90
    32768
280
     0
281
     0
  0
CLASS
  1
LWPOLYLINE
  2
AcDbPolyline
  3
AutoCAD 2000
 90
    32768
280
     0
281
     1
  0
CLASS
  1
HATCH
  2
AcDbHatch
  3
AutoCAD 2000
 90
    32768
280
     0
281
     1
  0
CLASS
  1
XRECORD
  2
AcDbXrecord
  3
AutoCAD 2000
 90
    32768
280
     0
281
     0
  0
CLASS
  1
DICTIONARYVAR
  2
AcDbDictionaryVar
  3
AutoCAD 2000
 90
        0
280
     0
281
     0
  0
CLASS
  1
LONG_TRANSACTION
  2
AcDbLongTransaction
  3
AutoCAD 2000
 90
    32768
280
     0
281
     0
  0
CLASS
  1
LWPOLYLINE
  2
AcDbPolyline
  3
AutoCAD 2000
 90
    32768
280
     0
281
     1
  0
CLASS
  1
HATCH
  2
AcDbHatch
  3
AutoCAD 2000
 90
    32768
280
     0
281
     1
  0
CLASS
  1
XRECORD
  2
AcDbXrecord
  3
AutoCAD 2000
 90
    32768
280
     0
281
     0
  0
CLASS
  1
LONG_TRANSACTION
  2
AcDbLongTransaction
  3
AutoCAD 2000
 90
    32768
280
     0
281
     0
  0
CLASS
  1
LWPOLYLINE
  2
AcDbPolyline
  3
AutoCAD 2000
 90
    32768
280
     0
281
     1
  0
CLASS
  1
HATCH
  2
AcDbHatch
  3
AutoCAD 2000
 90
    32768
280
     0
281
     1
  0
CLASS
  1
XRECORD
  2
AcDbXrecord
  3
AutoCAD 2000
 90
    32768
280
     0
281
     0
  0
CLASS
  1
LONG_TRANSACTION
  2
AcDbLongTransaction
  3
AutoCAD 2000
 90
    32768
280
     0
281
     0
  0
CLASS
  1
LWPOLYLINE
  2
AcDbPolyline
  3
AutoCAD 2000
 90
    32768
280
     0
281
     1
  0
CLASS
  1
HATCH
  2
AcDbHatch
  3
AutoCAD 2000
 90
    32768
280
     0
281
     1
  0
CLASS
  1
XRECORD
  2
AcDbXrecord
  3
AutoCAD 2000
 90
    32768
280
     0
281
     0
  0
CLASS
  1
LONG_TRANSACTION
  2
AcDbLongTransaction
  3
AutoCAD 2000
 90
    32768
280
     0
281
     0
  0
CLASS
  1
LWPOLYLINE
  2
AcDbPolyline
  3
AutoCAD 2000
 90
    32768
280
     0
281
     1
  0
CLASS
  1
HATCH
  2
AcDbHatch
  3
AutoCAD 2000
 90
    32768
280
     0
281
     1
  0
CLASS
  1
XRECORD
  2
AcDbXrecord
  3
AutoCAD 2000
 90
    32768
280
     0
281
     0
  0
ENDSEC
  0
SECTION
  2
TABLES
  0
TABLE
  2
VPORT
  5
8
330
0
100
AcDbSymbolTable
 70
     3
  0
VPORT
  5
6BB1
330
8
100
AcDbSymbolTableRecord
100
AcDbViewportTableRecord
  2
*Active
 70
     0
 10
0.0
 20
0.0
 11
1.0
 21
1.0
 12
86.39913862992456
 22
-51.07824495125271
 13
0.0
 23
0.0
 14
1.0
 24
1.0
 15
10.0
 25
10.0
 16
0.0
 26
0.0
 36
1.0
 17
0.0
 27
0.0
 37
0.0
 40
560.7297749832976
 41
1.839147286821705
 42
50.0
 43
0.0
 44
0.0
 50
0.0
 51
0.0
 71
     0
 72
   100
 73
     1
 74
     1
 75
     0
 76
     1
 77
     0
 78
     0
281
     0
 65
     1
110
0.0
120
0.0
130
0.0
111
1.0
121
0.0
131
0.0
112
0.0
122
1.0
132
0.0
 79
     0
146
0.0
  0
ENDTAB
  0
TABLE
  2
LTYPE
  5
5
330
0
100
AcDbSymbolTable
 70
     5
  0
LTYPE
  5
13
330
5
100
AcDbSymbolTableRecord
100
AcDbLinetypeTableRecord
  2
BYBLOCK
 70
     0
  3

 72
    65
 73
     0
 40
0.0
  0
LTYPE
  5
14
330
5
100
AcDbSymbolTableRecord
100
AcDbLinetypeTableRecord
  2
BYLAYER
 70
     0
  3

 72
    65
 73
     0
 40
0.0
  0
LTYPE
  5
15
330
5
100
AcDbSymbolTableRecord
100
AcDbLinetypeTableRecord
  2
CONTINUOUS
 70
     0
  3
Solid line
 72
    65
 73
     0
 40
0.0
  0
LTYPE
  5
22
330
5
100
AcDbSymbolTableRecord
100
AcDbLinetypeTableRecord
  2
CONTINOUS
 70
     0
  3
Solid line
 72
    65
 73
     0
 40
0.0
  0
LTYPE
  5
23
330
5
100
AcDbSymbolTableRecord
100
AcDbLinetypeTableRecord
  2
DASHED
 70
     0
  3
__ __ __ __ __ __ __ __ __ __ __ __ __ __ __
 72
    65
 73
     2
 40
0.75
 49
0.5
 74
     0
 49
-0.25
 74
     0
  0
LTYPE
  5
24
330
5
100
AcDbSymbolTableRecord
100
AcDbLinetypeTableRecord
  2
DASHDOT
 70
     0
  3
__ . __ . __ . __ . __ . __ . __ . __ . __ . __
 72
    65
 73
     4
 40
1.0
 49
0.5
 74
     0
 49
-0.25
 74
     0
 49
0.0
 74
     0
 49
-0.25
 74
     0
  0
LTYPE
  5
33DE
330
5
100
AcDbSymbolTableRecord
100
AcDbLinetypeTableRecord
  2
DIVIDE
 70
     0
  3
Divide ____ . . ____ . . ____ . . ____ . . ____
 72
    65
 73
     6
 40
1.25
 49
0.5
 74
     0
 49
-0.25
 74
     0
 49
0.0
 74
     0
 49
-0.25
 74
     0
 49
0.0
 74
     0
 49
-0.25
 74
     0
  0
ENDTAB
  0
TABLE
  2
LAYER
  5
2
330
0
100
AcDbSymbolTable
 70
    11
  0
LAYER
  5
10
330
2
100
AcDbSymbolTableRecord
100
AcDbLayerTableRecord
  2
0
 70
     0
 62
     7
  6
CONTINOUS
370
    -3
390
F
  0
LAYER
  5
2F
330
2
100
AcDbSymbolTableRecord
100
AcDbLayerTableRecord
  2
10
 70
     0
 62
     4
  6
CONTINOUS
370
    -3
390
F
  0
LAYER
  5
31
330
2
100
AcDbSymbolTableRecord
100
AcDbLayerTableRecord
  2
12
 70
     0
 62
     3
  6
CONTINOUS
370
    -3
390
F
  0
LAYER
  5
35
330
2
100
AcDbSymbolTableRecord
100
AcDbLayerTableRecord
  2
16
 70
     0
 62
     6
  6
DASHDOT
370
    -3
390
F
  0
LAYER
  5
36
330
2
100
AcDbSymbolTableRecord
100
AcDbLayerTableRecord
  2
17
 70
     0
 62
     2
  6
DASHDOT
370
    -3
390
F
  0
LAYER
  5
38
330
2
100
AcDbSymbolTableRecord
100
AcDbLayerTableRecord
  2
19
 70
     0
 62
     7
  6
CONTINOUS
370
    -3
390
F
  0
LAYER
  5
3C
330
2
100
AcDbSymbolTableRecord
100
AcDbLayerTableRecord
  2
11
 70
     0
 62
     1
  6
CONTINOUS
370
    -3
390
F
  0
LAYER
  5
3D
330
2
100
AcDbSymbolTableRecord
100
AcDbLayerTableRecord
  2
24
 70
     0
 62
     2
  6
CONTINOUS
370
    -3
390
F
  0
LAYER
  5
3A2
330
2
100
AcDbSymbolTableRecord
100
AcDbLayerTableRecord
  2
30
 70
     0
 62
     9
  6
CONTINUOUS
370
    -3
390
F
  0
LAYER
  5
3A4
330
2
100
AcDbSymbolTableRecord
100
AcDbLayerTableRecord
  2
DEFPOINTS
 70
     0
 62
     7
  6
CONTINUOUS
290
     0
370
    -3
390
F
  0
LAYER
  5
2AEF
330
2
100
AcDbSymbolTableRecord
100
AcDbLayerTableRecord
  2
18
 70
     0
 62
     5
  6
DIVIDE
370
    -3
390
F
  0
ENDTAB
  0
TABLE
  2
STYLE
  5
3
330
0
100
AcDbSymbolTable
 70
     3
  0
STYLE
  5
11
330
3
100
AcDbSymbolTableRecord
100
AcDbTextStyleTableRecord
  2
STANDARD
 70
     0
 40
0.0
 41
1.0
 50
0.0
 71
     0
 42
2.0
  3
txt.shx
  4
bigfont.shx
  0
STYLE
  5
42
330
3
100
AcDbSymbolTableRecord
100
AcDbTextStyleTableRecord
  2
STANDARD1
 70
     0
 40
0.0
 41
1.0
 50
0.0
 71
     0
 42
4.0
  3
MONOTXT
  4
BIGFONT
  0
STYLE
  5
3BC7
330
3
100
AcDbSymbolTableRecord
100
AcDbTextStyleTableRecord
  2
MX_NOTE_STANDARD
 70
     0
 40
0.0
 41
1.0
 50
0.0
 71
     0
 42
5.891046
  3
txt.shx
  4
extfont.shx
  0
ENDTAB
  0
TABLE
  2
VIEW
  5
6
330
0
100
AcDbSymbolTable
 70
     3
  0
VIEW
  5
230C
330
6
100
AcDbSymbolTableRecord
100
AcDbViewTableRecord
  2
OLE1
 70
     0
 40
148.912488
 10
429.497628
 20
2.560627
 41
103.145806
 11
0.0
 21
0.0
 31
1.0
 12
0.0
 22
0.0
 32
0.0
 42
50.0
 43
0.0
 44
0.0
 50
0.0
 71
     0
281
     0
 72
     0
  0
VIEW
  5
230E
330
6
100
AcDbSymbolTableRecord
100
AcDbViewTableRecord
  2
OLE2
 70
     0
 40
170.778692
 10
322.66497
 20
-5.978304
 41
102.467215
 11
0.0
 21
0.0
 31
1.0
 12
0.0
 22
0.0
 32
0.0
 42
50.0
 43
0.0
 44
0.0
 50
0.0
 71
     0
281
     0
 72
     0
  0
VIEW
  5
23AA
330
6
100
AcDbSymbolTableRecord
100
AcDbViewTableRecord
  2
OLE3
 70
     0
 40
591.7897389999998
 10
84.79698199999999
 20
-46.09335999999998
 41
388.792096
 11
0.0
 21
0.0
 31
1.0
 12
0.0
 22
0.0
 32
0.0
 42
50.0
 43
0.0
 44
0.0
 50
0.0
 71
     0
281
     0
 72
     0
  0
ENDTAB
  0
TABLE
  2
UCS
  5
7
330
0
100
AcDbSymbolTable
 70
     0
  0
ENDTAB
  0
TABLE
  2
APPID
  5
9
330
0
100
AcDbSymbolTable
 70
     2
  0
APPID
  5
12
330
9
100
AcDbSymbolTableRecord
100
AcDbRegAppTableRecord
  2
ACAD
 70
     0
  0
APPID
  5
ECD
330
9
100
AcDbSymbolTableRecord
100
AcDbRegAppTableRecord
  2
CONTENTBLOCKICON
 70
     0
  0
ENDTAB
  0
TABLE
  2
DIMSTYLE
  5
A
330
0
100
AcDbSymbolTable
 70
     2
100
AcDbDimStyleTable
 71
     1
340
175
  0
DIMSTYLE
105
175
102
{ACAD_REACTORS
330
59A7
330
59AC
330
59A6
330
6042
330
6041
330
605B
330
605A
330
6059
330
600C
330
600F
330
600E
330
6012
330
61C2
330
61C4
330
61C7
330
61FB
330
61D3
330
61D2
330
61C3
330
61D1
330
61C5
330
51E7
330
694B
330
694C
330
694D
330
694E
330
694F
330
6AA9
330
6AAA
330
6AB3
330
6AB9
330
6AC0
102
}
330
A
100
AcDbSymbolTableRecord
100
AcDbDimStyleTableRecord
  2
STANDARD
 70
     0
 41
2.0
 42
1.0
 43
0.5
 44
0.5
 73
     0
 77
     3
 78
    12
140
4.0
147
1.0
271
     1
272
     1
340
11
341
3B2
342
3B2
  0
DIMSTYLE
105
3BCD
330
A
100
AcDbSymbolTableRecord
100
AcDbDimStyleTableRecord
  2
MXDIMSTYLE
 70
     0
 40
1.414212999999999
 41
2.5
 42
0.5
 43
3.75
 44
1.0
 73
     0
 74
     0
 77
     1
 78
     8
140
4.1656
141
2.5
143
0.03937
144
0.7071069999999999
147
1.0
171
     4
172
     1
274
     4
288
     1
340
3BC7
  0
ENDTAB
  0
TABLE
  2
BLOCK_RECORD
  5
1
330
0
100
AcDbSymbolTable
 70
    43
  0
BLOCK_RECORD
  5
1E
102
{ACAD_XDICTIONARY
360
178
102
}
330
1
100
AcDbSymbolTableRecord
100
AcDbBlockTableRecord
  2
*MODEL_SPACE
340
21
  0
BLOCK_RECORD
  5
1A
102
{ACAD_XDICTIONARY
360
17A
102
}
330
1
100
AcDbSymbolTableRecord
100
AcDbBlockTableRecord
  2
*PAPER_SPACE
340
1D
  0
BLOCK_RECORD
  5
3B2
330
1
100
AcDbSymbolTableRecord
100
AcDbBlockTableRecord
  2
_OPEN
340
0
102
{BLKREFS
331
59D6
331
59E7
331
59E8
331
6618
331
6619
331
6623
331
6624
331
662C
331
662D
331
6635
331
6636
331
663E
331
663F
331
6647
331
6648
331
6650
331
6651
331
6659
331
665A
331
6686
331
6687
331
6698
331
6699
331
66AA
331
66AB
331
66B3
331
66B4
331
66BC
331
66BD
331
66C6
331
66C7
331
66E2
331
66E3
331
66EC
331
66ED
331
66FE
331
66FF
331
6707
331
6708
331
6710
331
6711
331
6774
331
6775
331
677D
331
677E
331
6846
331
6847
331
684F
331
6850
331
6867
331
6868
331
6881
331
6882
331
6893
331
6894
331
68A6
331
68A7
331
68AF
331
68B0
331
68B7
331
68C0
331
68C1
331
68C9
331
68CA
331
68D5
331
68D6
331
68E1
331
68E2
331
68EF
331
68F0
331
68FB
331
68FC
331
69CE
331
69CF
331
69D7
331
69D8
331
69E0
331
69E1
331
69EB
331
69EC
331
69F4
331
69F5
331
6A81
331
6A82
331
6A51
331
6A5C
331
6A5D
331
6A68
331
6A69
331
6A75
331
6A76
331
6ACA
331
6AD5
331
6AD6
331
6AE1
331
6AE2
331
6AEE
331
6AEF
331
6AFA
331
6AFB
331
6B04
331
6B0C
331
6B0D
331
6B15
331
6B16
331
6B1F
331
6B20
331
6B28
331
6B29
331
6B5F
331
6B60
331
6B6A
331
6B6B
331
6B74
331
6B75
331
6B7E
331
6B7F
331
6B89
331
6B8A
102
}
  0
BLOCK_RECORD
  5
3A40
330
1
100
AcDbSymbolTableRecord
100
AcDbBlockTableRecord
  2
_OPEN30
340
0
  0
BLOCK_RECORD
  5
59B0
330
1
100
AcDbSymbolTableRecord
100
AcDbBlockTableRecord
  2
*D2
340
0
  0
BLOCK_RECORD
  5
59BB
330
1
100
AcDbSymbolTableRecord
100
AcDbBlockTableRecord
  2
*D3
340
0
  0
BLOCK_RECORD
  5
59C7
330
1
100
AcDbSymbolTableRecord
100
AcDbBlockTableRecord
  2
*D4
340
0
  0
BLOCK_RECORD
  5
6211
330
1
100
AcDbSymbolTableRecord
100
AcDbBlockTableRecord
  2
*D5
340
0
  0
BLOCK_RECORD
  5
621D
330
1
100
AcDbSymbolTableRecord
100
AcDbBlockTableRecord
  2
*D6
340
0
  0
BLOCK_RECORD
  5
6235
330
1
100
AcDbSymbolTableRecord
100
AcDbBlockTableRecord
  2
*D7
340
0
  0
BLOCK_RECORD
  5
6241
330
1
100
AcDbSymbolTableRecord
100
AcDbBlockTableRecord
  2
*D8
340
0
  0
BLOCK_RECORD
  5
6269
330
1
100
AcDbSymbolTableRecord
100
AcDbBlockTableRecord
  2
*D9
340
0
  0
BLOCK_RECORD
  5
6275
330
1
100
AcDbSymbolTableRecord
100
AcDbBlockTableRecord
  2
*D10
340
0
  0
BLOCK_RECORD
  5
6281
330
1
100
AcDbSymbolTableRecord
100
AcDbBlockTableRecord
  2
*D11
340
0
  0
BLOCK_RECORD
  5
628D
330
1
100
AcDbSymbolTableRecord
100
AcDbBlockTableRecord
  2
*D12
340
0
  0
BLOCK_RECORD
  5
6295
330
1
100
AcDbSymbolTableRecord
100
AcDbBlockTableRecord
  2
*D13
340
0
  0
BLOCK_RECORD
  5
62A1
330
1
100
AcDbSymbolTableRecord
100
AcDbBlockTableRecord
  2
*D14
340
0
  0
BLOCK_RECORD
  5
62C2
330
1
100
AcDbSymbolTableRecord
100
AcDbBlockTableRecord
  2
*D15
340
0
  0
BLOCK_RECORD
  5
62CE
330
1
100
AcDbSymbolTableRecord
100
AcDbBlockTableRecord
  2
*D16
340
0
  0
BLOCK_RECORD
  5
62DA
330
1
100
AcDbSymbolTableRecord
100
AcDbBlockTableRecord
  2
*D17
340
0
  0
BLOCK_RECORD
  5
62F2
330
1
100
AcDbSymbolTableRecord
100
AcDbBlockTableRecord
  2
*D18
340
0
  0
BLOCK_RECORD
  5
633A
330
1
100
AcDbSymbolTableRecord
100
AcDbBlockTableRecord
  2
*D19
340
0
  0
BLOCK_RECORD
  5
6344
330
1
100
AcDbSymbolTableRecord
100
AcDbBlockTableRecord
  2
*D20
340
0
  0
BLOCK_RECORD
  5
6350
330
1
100
AcDbSymbolTableRecord
100
AcDbBlockTableRecord
  2
*D21
340
0
  0
BLOCK_RECORD
  5
635C
330
1
100
AcDbSymbolTableRecord
100
AcDbBlockTableRecord
  2
*D22
340
0
  0
BLOCK_RECORD
  5
6368
330
1
100
AcDbSymbolTableRecord
100
AcDbBlockTableRecord
  2
*D23
340
0
  0
BLOCK_RECORD
  5
6374
330
1
100
AcDbSymbolTableRecord
100
AcDbBlockTableRecord
  2
*D24
340
0
  0
BLOCK_RECORD
  5
6380
330
1
100
AcDbSymbolTableRecord
100
AcDbBlockTableRecord
  2
*D25
340
0
  0
BLOCK_RECORD
  5
638E
330
1
100
AcDbSymbolTableRecord
100
AcDbBlockTableRecord
  2
*D26
340
0
  0
BLOCK_RECORD
  5
639A
330
1
100
AcDbSymbolTableRecord
100
AcDbBlockTableRecord
  2
*D27
340
0
  0
BLOCK_RECORD
  5
698D
330
1
100
AcDbSymbolTableRecord
100
AcDbBlockTableRecord
  2
*D28
340
0
  0
BLOCK_RECORD
  5
6999
330
1
100
AcDbSymbolTableRecord
100
AcDbBlockTableRecord
  2
*D29
340
0
  0
BLOCK_RECORD
  5
69A5
330
1
100
AcDbSymbolTableRecord
100
AcDbBlockTableRecord
  2
*D30
340
0
  0
BLOCK_RECORD
  5
69B1
330
1
100
AcDbSymbolTableRecord
100
AcDbBlockTableRecord
  2
*D31
340
0
  0
BLOCK_RECORD
  5
69BF
330
1
100
AcDbSymbolTableRecord
100
AcDbBlockTableRecord
  2
*D32
340
0
  0
BLOCK_RECORD
  5
6A4D
330
1
100
AcDbSymbolTableRecord
100
AcDbBlockTableRecord
  2
*D33
340
0
  0
BLOCK_RECORD
  5
6A58
330
1
100
AcDbSymbolTableRecord
100
AcDbBlockTableRecord
  2
*D34
340
0
  0
BLOCK_RECORD
  5
6A64
330
1
100
AcDbSymbolTableRecord
100
AcDbBlockTableRecord
  2
*D35
340
0
  0
BLOCK_RECORD
  5
6A70
330
1
100
AcDbSymbolTableRecord
100
AcDbBlockTableRecord
  2
*D36
340
0
  0
BLOCK_RECORD
  5
6A7C
330
1
100
AcDbSymbolTableRecord
100
AcDbBlockTableRecord
  2
*D37
340
0
  0
BLOCK_RECORD
  5
6AC6
330
1
100
AcDbSymbolTableRecord
100
AcDbBlockTableRecord
  2
*D38
340
0
  0
BLOCK_RECORD
  5
6AD1
330
1
100
AcDbSymbolTableRecord
100
AcDbBlockTableRecord
  2
*D39
340
0
  0
BLOCK_RECORD
  5
6ADD
330
1
100
AcDbSymbolTableRecord
100
AcDbBlockTableRecord
  2
*D40
340
0
  0
BLOCK_RECORD
  5
6AE9
330
1
100
AcDbSymbolTableRecord
100
AcDbBlockTableRecord
  2
*D41
340
0
  0
BLOCK_RECORD
  5
6AF5
330
1
100
AcDbSymbolTableRecord
100
AcDbBlockTableRecord
  2
*D42
340
0
  0
ENDTAB
  0
ENDSEC
  0
SECTION
  2
BLOCKS
  0
BLOCK
  5
1F
330
1E
100
AcDbEntity
  8
0
100
AcDbBlockBegin
  2
*MODEL_SPACE
 70
     0
 10
0.0
 20
0.0
 30
0.0
  3
*MODEL_SPACE
  1

  0
ENDBLK
  5
20
330
1E
100
AcDbEntity
  8
0
100
AcDbBlockEnd
  0
BLOCK
  5
1B
330
1A
100
AcDbEntity
 67
     1
  8
0
100
AcDbBlockBegin
  2
*PAPER_SPACE
 70
     0
 10
0.0
 20
0.0
 30
0.0
  3
*PAPER_SPACE
  1

  0
ENDBLK
  5
1C
330
1A
100
AcDbEntity
 67
     1
  8
0
100
AcDbBlockEnd
  0
BLOCK
  5
3B6
330
3B2
100
AcDbEntity
  8
0
100
AcDbBlockBegin
  2
_OPEN
 70
     0
 10
0.0
 20
0.0
 30
0.0
  3
_OPEN
  1

  0
LINE
  5
3B3
330
3B2
100
AcDbEntity
  8
30
  6
Continuous
 62
     0
100
AcDbLine
 10
-1.0
 20
0.166667
 30
0.0
 11
0.0
 21
0.0
 31
0.0
1001
ACAD
1000
RTLwPs
1070
   158
  0
LINE
  5
3B4
330
3B2
100
AcDbEntity
  8
30
  6
Continuous
 62
     0
100
AcDbLine
 10
-1.0
 20
-0.166667
 30
0.0
 11
0.0
 21
0.0
 31
0.0
1001
ACAD
1000
RTLwPs
1070
   158
  0
LINE
  5
3B5
330
3B2
100
AcDbEntity
  8
30
  6
Continuous
 62
     0
100
AcDbLine
 10
0.0
 20
0.0
 30
0.0
 11
-1.0
 21
0.0
 31
0.0
1001
ACAD
1000
RTLwPs
1070
   158
  0
ENDBLK
  5
3B7
330
3B2
100
AcDbEntity
  8
0
100
AcDbBlockEnd
  0
BLOCK
  5
3A44
330
3A40
100
AcDbEntity
  8
0
  6
ByBlock
 62
     0
100
AcDbBlockBegin
  2
_OPEN30
 70
     2
 10
0.0
 20
0.0
 30
0.0
  3
_OPEN30
  1

  0
LINE
  5
3A41
330
3A40
100
AcDbEntity
  8
0
  6
ByBlock
 62
     0
100
AcDbLine
 10
-1.0
 20
0.267949
 30
0.0
 11
0.0
 21
0.0
 31
0.0
  0
LINE
  5
3A42
330
3A40
100
AcDbEntity
  8
0
  6
ByBlock
 62
     0
100
AcDbLine
 10
0.0
 20
0.0
 30
0.0
 11
-1.0
 21
-0.267949
 31
0.0
  0
LINE
  5
3A43
330
3A40
100
AcDbEntity
  8
0
  6
ByBlock
 62
     0
100
AcDbLine
 10
0.0
 20
0.0
 30
0.0
 11
-1.0
 21
0.0
 31
0.0
  0
ENDBLK
  5
3A45
330
3A40
100
AcDbEntity
  8
0
  6
ByBlock
 62
     0
100
AcDbBlockEnd
  0
BLOCK
  5
59B9
330
59B0
100
AcDbEntity
  8
0
100
AcDbBlockBegin
  2
*D2
 70
     1
 10
0.0
 20
0.0
 30
0.0
  3
*D2
  1

  0
LINE
  5
59D3
330
59B0
100
AcDbEntity
  8
30
  6
Continuous
 62
     0
370
    -2
100
AcDbLine
 10
210.4283863673141
 20
193.842494835158
 30
0.0
 11
197.428386367314
 21
193.842494835158
 31
0.0
  0
LINE
  5
59D4
330
59B0
100
AcDbEntity
  8
30
  6
Continuous
 62
     0
370
    -2
100
AcDbLine
 10
197.428386367314
 20
193.842494835158
 30
0.0
 11
185.2389291929838
 21
169.0766580769548
 31
0.0
  0
MTEXT
  5
59D5
330
59B0
100
AcDbEntity
  8
30
  6
Continuous
 62
     0
100
AcDbMText
 10
204.4283863673141
 20
196.8424948351579
 30
0.0
 40
4.0
 41
0.0
 71
     5
 72
     1
  1
\A1;\U+22055.5
 73
     1
 44
1.0
  0
INSERT
  5
59D6
330
59B0
100
AcDbEntity
  8
30
  6
Continuous
 62
     0
370
    -2
100
AcDbBlockReference
  2
_OPEN
 10
184.3557334709515
 20
167.2822318966443
 30
0.0
 41
2.0
 42
2.0
 43
2.0
 50
243.7941245285317
  0
LINE
  5
59D7
330
59B0
100
AcDbEntity
  8
30
  6
Continuous
 62
     0
370
    -2
100
AcDbLine
 10
183.0513394457495
 20
164.8148960868408
 30
0.0
 11
183.2313394457497
 21
164.8148960868409
 31
0.0
  0
LINE
  5
59D8
330
59B0
100
AcDbEntity
  8
30
  6
Continuous
 62
     0
370
    -2
100
AcDbLine
 10
183.1413394457495
 20
164.7248960868408
 30
0.0
 11
183.1413394457497
 21
164.9048960868409
 31
0.0
  0
POINT
  5
59D9
330
59B0
100
AcDbEntity
  8
DEFPOINTS
  6
Continuous
 62
     0
100
AcDbPoint
 10
184.3557334709515
 20
167.2822318966443
 30
0.0
  0
POINT
  5
59DA
330
59B0
100
AcDbEntity
  8
DEFPOINTS
  6
Continuous
 62
     0
100
AcDbPoint
 10
181.9269454205476
 20
162.3475602770374
 30
0.0
  0
ENDBLK
  5
59BA
330
59B0
100
AcDbEntity
  8
0
100
AcDbBlockEnd
  0
BLOCK
  5
59C5
330
59BB
100
AcDbEntity
  8
0
100
AcDbBlockBegin
  2
*D3
 70
     1
 10
0.0
 20
0.0
 30
0.0
  3
*D3
  1

  0
LINE
  5
68A2
330
59BB
100
AcDbEntity
  8
30
  6
Continuous
 62
     0
370
    -2
100
AcDbLine
 10
190.6413399457498
 20
156.814895586841
 30
0.0
 11
190.6413399457498
 21
148.721807886383
 31
0.0
  0
LINE
  5
68A3
330
59BB
100
AcDbEntity
  8
30
  6
Continuous
 62
     0
370
    -2
100
AcDbLine
 10
175.6413399457498
 20
156.814895586841
 30
0.0
 11
175.6413399457498
 21
148.721807886383
 31
0.0
  0
LINE
  5
68A4
330
59BB
100
AcDbEntity
  8
30
  6
Continuous
 62
     0
370
    -2
100
AcDbLine
 10
188.6413399457498
 20
149.221807886383
 30
0.0
 11
177.6413399457498
 21
149.221807886383
 31
0.0
  0
MTEXT
  5
68A5
330
59BB
100
AcDbEntity
  8
30
  6
Continuous
 62
     0
100
AcDbMText
 10
183.1413399457498
 20
144.8862884303096
 30
0.0
 40
4.0
 41
0.0
 71
     5
 72
     1
  1
\A1;max15
 73
     1
 44
1.0
  0
INSERT
  5
68A6
330
59BB
100
AcDbEntity
  8
30
  6
Continuous
 62
     0
370
    -2
100
AcDbBlockReference
  2
_OPEN
 10
190.6413399457498
 20
149.221807886383
 30
0.0
 41
2.0
 42
2.0
 43
2.0
  0
INSERT
  5
68A7
330
59BB
100
AcDbEntity
  8
30
  6
Continuous
 62
     0
370
    -2
100
AcDbBlockReference
  2
_OPEN
 10
175.6413399457498
 20
149.221807886383
 30
0.0
 41
2.0
 42
2.0
 43
2.0
 50
180.0
  0
POINT
  5
68A8
330
59BB
100
AcDbEntity
  8
DEFPOINTS
  6
Continuous
 62
     0
100
AcDbPoint
 10
190.6413399457498
 20
157.814895586841
 30
0.0
  0
POINT
  5
68A9
330
59BB
100
AcDbEntity
  8
DEFPOINTS
  6
Continuous
 62
     0
100
AcDbPoint
 10
175.6413399457498
 20
157.814895586841
 30
0.0
  0
POINT
  5
68AA
330
59BB
100
AcDbEntity
  8
DEFPOINTS
  6
Continuous
 62
     0
100
AcDbPoint
 10
175.6413399457498
 20
149.221807886383
 30
0.0
  0
ENDBLK
  5
59C6
330
59BB
100
AcDbEntity
  8
0
100
AcDbBlockEnd
  0
BLOCK
  5
59D1
330
59C7
100
AcDbEntity
  8
0
100
AcDbBlockBegin
  2
*D4
 70
     1
 10
0.0
 20
0.0
 30
0.0
  3
*D4
  1

  0
LINE
  5
59E4
330
59C7
100
AcDbEntity
  8
30
  6
Continuous
 62
     0
370
    -2
100
AcDbLine
 10
191.8913399457498
 20
164.814896586841
 30
0.0
 11
200.2491769457499
 21
164.814896586841
 31
0.0
  0
LINE
  5
59E5
330
59C7
100
AcDbEntity
  8
30
  6
Continuous
 62
     0
370
    -2
100
AcDbLine
 10
191.6413399457498
 20
157.814895586841
 30
0.0
 11
200.2491769457499
 21
157.814895586841
 31
0.0
  0
LINE
  5
59E6
330
59C7
100
AcDbEntity
  8
30
  6
Continuous
 62
     0
370
    -2
100
AcDbLine
 10
199.7491769457498
 20
162.814896586841
 30
0.0
 11
199.7491769457498
 21
159.814895586841
 31
0.0
  0
INSERT
  5
59E7
330
59C7
100
AcDbEntity
  8
30
  6
Continuous
 62
     0
370
    -2
100
AcDbBlockReference
  2
_OPEN
 10
199.7491769457498
 20
164.814896586841
 30
0.0
 41
2.0
 42
2.0
 43
2.0
 50
90.0
  0
INSERT
  5
59E8
330
59C7
100
AcDbEntity
  8
30
  6
Continuous
 62
     0
370
    -2
100
AcDbBlockReference
  2
_OPEN
 10
199.7491769457498
 20
157.814895586841
 30
0.0
 41
2.0
 42
2.0
 43
2.0
 50
270.0
  0
MTEXT
  5
59E9
330
59C7
100
AcDbEntity
  8
30
  6
Continuous
 62
     0
100
AcDbMText
 10
196.7491769457497
 20
161.3148960868409
 30
0.0
 40
4.0
 41
0.0
 71
     5
 72
     1
  1
\A1;7
 11
0.0000000000000001
 21
1.0
 31
0.0
 73
     1
 44
1.0
  0
POINT
  5
59EA
330
59C7
100
AcDbEntity
  8
DEFPOINTS
  6
Continuous
 62
     0
100
AcDbPoint
 10
190.8913399457498
 20
164.814896586841
 30
0.0
  0
POINT
  5
59EB
330
59C7
100
AcDbEntity
  8
DEFPOINTS
  6
Continuous
 62
     0
100
AcDbPoint
 10
190.6413399457498
 20
157.814895586841
 30
0.0
  0
POINT
  5
59EC
330
59C7
100
AcDbEntity
  8
DEFPOINTS
  6
Continuous
 62
     0
100
AcDbPoint
 10
199.7491769457498
 20
157.814895586841
 30
0.0
  0
ENDBLK
  5
59D2
330
59C7
100
AcDbEntity
  8
0
100
AcDbBlockEnd
  0
BLOCK
  5
621B
330
6211
100
AcDbEntity
  8
0
100
AcDbBlockBegin
  2
*D5
 70
     1
 10
0.0
 20
0.0
 30
0.0
  3
*D5
  1

  0
LINE
  5
68AB
330
6211
100
AcDbEntity
  8
30
  6
Continuous
 62
     0
370
    -2
100
AcDbLine
 10
177.4999949999999
 20
-262.999997
 30
0.0
 11
177.4999949999999
 21
-286.598058
 31
0.0
  0
LINE
  5
68AC
330
6211
100
AcDbEntity
  8
30
  6
Continuous
 62
     0
370
    -2
100
AcDbLine
 10
142.500005
 20
-262.999997
 30
0.0
 11
142.500005
 21
-286.598058
 31
0.0
  0
LINE
  5
68AD
330
6211
100
AcDbEntity
  8
30
  6
Continuous
 62
     0
370
    -2
100
AcDbLine
 10
175.499995
 20
-286.0980579999998
 30
0.0
 11
144.500005
 21
-286.0980579999998
 31
0.0
  0
MTEXT
  5
68AE
330
6211
100
AcDbEntity
  8
30
  6
Continuous
 62
     0
100
AcDbMText
 10
159.9426493416235
 20
-288.5730267487866
 30
0.0
 40
4.0
 41
0.0
 71
     5
 72
     1
  1
\A1;more than 74
 73
     1
 44
1.0
  0
INSERT
  5
68AF
330
6211
100
AcDbEntity
  8
30
  6
Continuous
 62
     0
370
    -2
100
AcDbBlockReference
  2
_OPEN
 10
177.4999949999999
 20
-286.0980579999998
 30
0.0
 41
2.0
 42
2.0
 43
2.0
  0
INSERT
  5
68B0
330
6211
100
AcDbEntity
  8
30
  6
Continuous
 62
     0
370
    -2
100
AcDbBlockReference
  2
_OPEN
 10
142.500005
 20
-286.0980579999998
 30
0.0
 41
2.0
 42
2.0
 43
2.0
 50
180.0
  0
POINT
  5
68B1
330
6211
100
AcDbEntity
  8
DEFPOINTS
  6
Continuous
 62
     0
100
AcDbPoint
 10
177.4999949999999
 20
-261.999997
 30
0.0
  0
POINT
  5
68B2
330
6211
100
AcDbEntity
  8
DEFPOINTS
  6
Continuous
 62
     0
100
AcDbPoint
 10
142.500005
 20
-261.999997
 30
0.0
  0
POINT
  5
68B3
330
6211
100
AcDbEntity
  8
DEFPOINTS
  6
Continuous
 62
     0
100
AcDbPoint
 10
142.500005
 20
-286.0980579999998
 30
0.0
  0
ENDBLK
  5
621C
330
6211
100
AcDbEntity
  8
0
100
AcDbBlockEnd
  0
BLOCK
  5
6227
330
621D
100
AcDbEntity
  8
0
100
AcDbBlockBegin
  2
*D6
 70
     1
 10
0.0
 20
0.0
 30
0.0
  3
*D6
  1

  0
LINE
  5
6771
330
621D
100
AcDbEntity
  8
30
  6
Continuous
 62
     0
370
    -2
100
AcDbLine
 10
36.69987900000001
 20
50.00000099999994
 30
0.0
 11
66.204016
 21
50.00000099999994
 31
0.0
  0
LINE
  5
6772
330
621D
100
AcDbEntity
  8
30
  6
Continuous
 62
     0
370
    -2
100
AcDbLine
 10
36.69987800000001
 20
-49.95000200000003
 30
0.0
 11
66.20401599999998
 21
-49.95000200000004
 31
0.0
  0
LINE
  5
6773
330
621D
100
AcDbEntity
  8
30
  6
Continuous
 62
     0
370
    -2
100
AcDbLine
 10
65.70401600000001
 20
48.00000099999993
 30
0.0
 11
65.70401599999998
 21
-47.95000200000004
 31
0.0
  0
INSERT
  5
6774
330
621D
100
AcDbEntity
  8
30
  6
Continuous
 62
     0
370
    -2
100
AcDbBlockReference
  2
_OPEN
 10
65.70401600000001
 20
50.00000099999994
 30
0.0
 41
2.0
 42
2.0
 43
2.0
 50
90.0
  0
INSERT
  5
6775
330
621D
100
AcDbEntity
  8
30
  6
Continuous
 62
     0
370
    -2
100
AcDbBlockReference
  2
_OPEN
 10
65.70401599999998
 20
-49.95000200000004
 30
0.0
 41
2.0
 42
2.0
 43
2.0
 50
270.0
  0
MTEXT
  5
6776
330
621D
100
AcDbEntity
  8
30
  6
Continuous
 62
     0
100
AcDbMText
 10
62.70401599999999
 20
0.2500009999999445
 30
0.0
 40
4.0
 41
0.0
 71
     5
 72
     1
  1
\A1;100
 11
0.0000000000000001
 21
1.0
 31
0.0
 73
     1
 44
1.0
  0
POINT
  5
6777
330
621D
100
AcDbEntity
  8
DEFPOINTS
  6
Continuous
 62
     0
100
AcDbPoint
 10
35.69987899999999
 20
50.00000099999994
 30
0.0
  0
POINT
  5
6778
330
621D
100
AcDbEntity
  8
DEFPOINTS
  6
Continuous
 62
     0
100
AcDbPoint
 10
35.69987800000001
 20
-49.95000200000003
 30
0.0
  0
POINT
  5
6779
330
621D
100
AcDbEntity
  8
DEFPOINTS
  6
Continuous
 62
     0
100
AcDbPoint
 10
65.70401599999998
 20
-49.95000200000004
 30
0.0
  0
ENDBLK
  5
6228
330
621D
100
AcDbEntity
  8
0
100
AcDbBlockEnd
  0
BLOCK
  5
623F
330
6235
100
AcDbEntity
  8
0
100
AcDbBlockBegin
  2
*D7
 70
     1
 10
0.0
 20
0.0
 30
0.0
  3
*D7
  1

  0
LINE
  5
6695
330
6235
100
AcDbEntity
  8
30
  6
Continuous
 62
     0
370
    -2
100
AcDbLine
 10
42.71915799999999
 20
-0.0000000000000003
 30
0.0
 11
57.01275400000003
 21
-0.0000000000000043
 31
0.0
  0
LINE
  5
6696
330
6235
100
AcDbEntity
  8
30
  6
Continuous
 62
     0
370
    -2
100
AcDbLine
 10
32.07499700000003
 20
-42.00000100000004
 30
0.0
 11
57.01275400000002
 21
-42.00000100000006
 31
0.0
  0
LINE
  5
6697
330
6235
100
AcDbEntity
  8
30
  6
Continuous
 62
     0
370
    -2
100
AcDbLine
 10
56.51275400000002
 20
-2.000000000000003
 30
0.0
 11
56.51275400000002
 21
-40.00000100000006
 31
0.0
  0
INSERT
  5
6698
330
6235
100
AcDbEntity
  8
30
  6
Continuous
 62
     0
370
    -2
100
AcDbBlockReference
  2
_OPEN
 10
56.51275400000002
 20
-0.0000000000000042
 30
0.0
 41
2.0
 42
2.0
 43
2.0
 50
90.0
  0
INSERT
  5
6699
330
6235
100
AcDbEntity
  8
30
  6
Continuous
 62
     0
370
    -2
100
AcDbBlockReference
  2
_OPEN
 10
56.51275400000002
 20
-42.00000100000006
 30
0.0
 41
2.0
 42
2.0
 43
2.0
 50
270.0
  0
MTEXT
  5
669A
330
6235
100
AcDbEntity
  8
30
  6
Continuous
 62
     0
100
AcDbMText
 10
53.51275400000003
 20
-21.0
 30
0.0
 40
4.0
 41
0.0
 71
     5
 72
     1
  1
\A1;42
 11
0.0000000000000001
 21
1.0
 31
0.0
 73
     1
 44
1.0
  0
POINT
  5
669B
330
6235
100
AcDbEntity
  8
DEFPOINTS
  6
Continuous
 62
     0
100
AcDbPoint
 10
41.71915799999999
 20
0.0
 30
0.0
  0
POINT
  5
669C
330
6235
100
AcDbEntity
  8
DEFPOINTS
  6
Continuous
 62
     0
100
AcDbPoint
 10
31.07499700000001
 20
-42.00000100000004
 30
0.0
  0
POINT
  5
669D
330
6235
100
AcDbEntity
  8
DEFPOINTS
  6
Continuous
 62
     0
100
AcDbPoint
 10
56.51275400000002
 20
-42.00000100000006
 30
0.0
  0
ENDBLK
  5
6240
330
6235
100
AcDbEntity
  8
0
100
AcDbBlockEnd
  0
BLOCK
  5
624B
330
6241
100
AcDbEntity
  8
0
100
AcDbBlockBegin
  2
*D8
 70
     1
 10
0.0
 20
0.0
 30
0.0
  3
*D8
  1

  0
LINE
  5
6683
330
6241
100
AcDbEntity
  8
30
  6
Continuous
 62
     0
370
    -2
100
AcDbLine
 10
32.07499700000001
 20
40.0
 30
0.0
 11
57.01275400000003
 21
39.99999999999999
 31
0.0
  0
LINE
  5
6684
330
6241
100
AcDbEntity
  8
30
  6
Continuous
 62
     0
370
    -2
100
AcDbLine
 10
42.71915799999999
 20
-0.0000000000000003
 30
0.0
 11
57.01275400000003
 21
-0.0000000000000043
 31
0.0
  0
LINE
  5
6685
330
6241
100
AcDbEntity
  8
30
  6
Continuous
 62
     0
370
    -2
100
AcDbLine
 10
56.51275400000002
 20
37.99999999999999
 30
0.0
 11
56.51275400000002
 21
1.999999999999995
 31
0.0
  0
INSERT
  5
6686
330
6241
100
AcDbEntity
  8
30
  6
Continuous
 62
     0
370
    -2
100
AcDbBlockReference
  2
_OPEN
 10
56.51275400000002
 20
39.99999999999999
 30
0.0
 41
2.0
 42
2.0
 43
2.0
 50
90.0
  0
INSERT
  5
6687
330
6241
100
AcDbEntity
  8
30
  6
Continuous
 62
     0
370
    -2
100
AcDbBlockReference
  2
_OPEN
 10
56.51275400000002
 20
-0.0000000000000042
 30
0.0
 41
2.0
 42
2.0
 43
2.0
 50
270.0
  0
MTEXT
  5
6688
330
6241
100
AcDbEntity
  8
30
  6
Continuous
 62
     0
100
AcDbMText
 10
53.51275400000003
 20
20.0
 30
0.0
 40
4.0
 41
0.0
 71
     5
 72
     1
  1
\A1;40
 11
0.0000000000000001
 21
1.0
 31
0.0
 73
     1
 44
1.0
  0
POINT
  5
6689
330
6241
100
AcDbEntity
  8
DEFPOINTS
  6
Continuous
 62
     0
100
AcDbPoint
 10
31.07499700000003
 20
40.0
 30
0.0
  0
POINT
  5
668A
330
6241
100
AcDbEntity
  8
DEFPOINTS
  6
Continuous
 62
     0
100
AcDbPoint
 10
41.71915799999999
 20
0.0
 30
0.0
  0
POINT
  5
668B
330
6241
100
AcDbEntity
  8
DEFPOINTS
  6
Continuous
 62
     0
100
AcDbPoint
 10
56.51275400000002
 20
-0.0000000000000042
 30
0.0
  0
ENDBLK
  5
624C
330
6241
100
AcDbEntity
  8
0
100
AcDbBlockEnd
  0
BLOCK
  5
6273
330
6269
100
AcDbEntity
  8
0
100
AcDbBlockBegin
  2
*D9
 70
     1
 10
0.0
 20
0.0
 30
0.0
  3
*D9
  1

  0
LINE
  5
677A
330
6269
100
AcDbEntity
  8
30
  6
Continuous
 62
     0
370
    -2
100
AcDbLine
 10
15.70005999999999
 20
99.95000099999996
 30
0.0
 11
66.20401600000002
 21
99.95000099999993
 31
0.0
  0
LINE
  5
677B
330
6269
100
AcDbEntity
  8
30
  6
Continuous
 62
     0
370
    -2
100
AcDbLine
 10
36.69987900000001
 20
50.00000099999994
 30
0.0
 11
66.204016
 21
50.00000099999994
 31
0.0
  0
LINE
  5
677C
330
6269
100
AcDbEntity
  8
30
  6
Continuous
 62
     0
370
    -2
100
AcDbLine
 10
65.70401600000002
 20
97.95000099999993
 30
0.0
 11
65.70401600000001
 21
52.00000099999993
 31
0.0
  0
INSERT
  5
677D
330
6269
100
AcDbEntity
  8
30
  6
Continuous
 62
     0
370
    -2
100
AcDbBlockReference
  2
_OPEN
 10
65.70401600000002
 20
99.95000099999993
 30
0.0
 41
2.0
 42
2.0
 43
2.0
 50
90.0
  0
INSERT
  5
677E
330
6269
100
AcDbEntity
  8
30
  6
Continuous
 62
     0
370
    -2
100
AcDbBlockReference
  2
_OPEN
 10
65.70401600000001
 20
50.00000099999994
 30
0.0
 41
2.0
 42
2.0
 43
2.0
 50
270.0
  0
MTEXT
  5
677F
330
6269
100
AcDbEntity
  8
30
  6
Continuous
 62
     0
100
AcDbMText
 10
62.704016
 20
75.20000099999993
 30
0.0
 40
4.0
 41
0.0
 71
     5
 72
     1
  1
\A1;50
 11
0.0000000000000001
 21
1.0
 31
0.0
 73
     1
 44
1.0
  0
POINT
  5
6780
330
6269
100
AcDbEntity
  8
DEFPOINTS
  6
Continuous
 62
     0
100
AcDbPoint
 10
14.70005999999998
 20
99.95000099999996
 30
0.0
  0
POINT
  5
6781
330
6269
100
AcDbEntity
  8
DEFPOINTS
  6
Continuous
 62
     0
100
AcDbPoint
 10
35.69987899999999
 20
50.00000099999994
 30
0.0
  0
POINT
  5
6782
330
6269
100
AcDbEntity
  8
DEFPOINTS
  6
Continuous
 62
     0
100
AcDbPoint
 10
65.70401600000001
 20
50.00000099999994
 30
0.0
  0
ENDBLK
  5
6274
330
6269
100
AcDbEntity
  8
0
100
AcDbBlockEnd
  0
BLOCK
  5
627F
330
6275
100
AcDbEntity
  8
0
100
AcDbBlockBegin
  2
*D10
 70
     1
 10
0.0
 20
0.0
 30
0.0
  3
*D10
  1

  0
LINE
  5
6843
330
6275
100
AcDbEntity
  8
30
  6
Continuous
 62
     0
370
    -2
100
AcDbLine
 10
-1.136838999999998
 20
-229.000006
 30
0.0
 11
31.37284799999994
 21
-229.000006
 31
0.0
  0
LINE
  5
6844
330
6275
100
AcDbEntity
  8
30
  6
Continuous
 62
     0
370
    -2
100
AcDbLine
 10
11.046146
 20
-270.999994
 30
0.0
 11
31.37284799999994
 21
-270.999994
 31
0.0
  0
LINE
  5
6845
330
6275
100
AcDbEntity
  8
30
  6
Continuous
 62
     0
370
    -2
100
AcDbLine
 10
30.87284799999995
 20
-231.0000059999999
 30
0.0
 11
30.87284799999994
 21
-268.999994
 31
0.0
  0
INSERT
  5
6846
330
6275
100
AcDbEntity
  8
30
  6
Continuous
 62
     0
370
    -2
100
AcDbBlockReference
  2
_OPEN
 10
30.87284799999995
 20
-229.000006
 30
0.0
 41
2.0
 42
2.0
 43
2.0
 50
90.0
  0
INSERT
  5
6847
330
6275
100
AcDbEntity
  8
30
  6
Continuous
 62
     0
370
    -2
100
AcDbBlockReference
  2
_OPEN
 10
30.87284799999994
 20
-270.999994
 30
0.0
 41
2.0
 42
2.0
 43
2.0
 50
270.0
  0
MTEXT
  5
6848
330
6275
100
AcDbEntity
  8
30
  6
Continuous
 62
     0
100
AcDbMText
 10
27.87284799999998
 20
-249.999999
 30
0.0
 40
4.0
 41
0.0
 71
     5
 72
     1
  1
\A1;42
 11
0.0000000000000001
 21
1.0
 31
0.0
 73
     1
 44
1.0
  0
POINT
  5
6849
330
6275
100
AcDbEntity
  8
DEFPOINTS
  6
Continuous
 62
     0
100
AcDbPoint
 10
-2.136838999999997
 20
-229.000006
 30
0.0
  0
POINT
  5
684A
330
6275
100
AcDbEntity
  8
DEFPOINTS
  6
Continuous
 62
     0
100
AcDbPoint
 10
10.046146
 20
-270.999994
 30
0.0
  0
POINT
  5
684B
330
6275
100
AcDbEntity
  8
DEFPOINTS
  6
Continuous
 62
     0
100
AcDbPoint
 10
30.87284799999994
 20
-270.999994
 30
0.0
  0
ENDBLK
  5
6280
330
6275
100
AcDbEntity
  8
0
100
AcDbBlockEnd
  0
BLOCK
  5
628B
330
6281
100
AcDbEntity
  8
0
100
AcDbBlockBegin
  2
*D11
 70
     1
 10
0.0
 20
0.0
 30
0.0
  3
*D11
  1

  0
LINE
  5
684C
330
6281
100
AcDbEntity
  8
30
  6
Continuous
 62
     0
370
    -2
100
AcDbLine
 10
6.249998000000001
 20
-277.2247099999999
 30
0.0
 11
6.249998
 21
-286.598058
 31
0.0
  0
LINE
  5
684D
330
6281
100
AcDbEntity
  8
30
  6
Continuous
 62
     0
370
    -2
100
AcDbLine
 10
-6.249998999999991
 20
-234.2748589999999
 30
0.0
 11
-6.249998999999995
 21
-286.598058
 31
0.0
  0
LINE
  5
684E
330
6281
100
AcDbEntity
  8
30
  6
Continuous
 62
     0
370
    -2
100
AcDbLine
 10
4.249998
 20
-286.0980579999998
 30
0.0
 11
-4.249998999999995
 21
-286.0980579999998
 31
0.0
  0
INSERT
  5
684F
330
6281
100
AcDbEntity
  8
30
  6
Continuous
 62
     0
370
    -2
100
AcDbBlockReference
  2
_OPEN
 10
6.249998
 20
-286.0980579999998
 30
0.0
 41
2.0
 42
2.0
 43
2.0
  0
INSERT
  5
6850
330
6281
100
AcDbEntity
  8
30
  6
Continuous
 62
     0
370
    -2
100
AcDbBlockReference
  2
_OPEN
 10
-6.249998999999995
 20
-286.0980579999998
 30
0.0
 41
2.0
 42
2.0
 43
2.0
 50
180.0
  0
MTEXT
  5
6851
330
6281
100
AcDbEntity
  8
30
  6
Continuous
 62
     0
100
AcDbMText
 10
-0.0000004999999972
 20
-283.0980579999998
 30
0.0
 40
4.0
 41
0.0
 71
     5
 72
     1
  1
\A1;12.5
 73
     1
 44
1.0
  0
POINT
  5
6852
330
6281
100
AcDbEntity
  8
DEFPOINTS
  6
Continuous
 62
     0
100
AcDbPoint
 10
6.249998000000001
 20
-276.2247099999999
 30
0.0
  0
POINT
  5
6853
330
6281
100
AcDbEntity
  8
DEFPOINTS
  6
Continuous
 62
     0
100
AcDbPoint
 10
-6.249998999999991
 20
-233.274859
 30
0.0
  0
POINT
  5
6854
330
6281
100
AcDbEntity
  8
DEFPOINTS
  6
Continuous
 62
     0
100
AcDbPoint
 10
-6.249998999999995
 20
-286.0980579999998
 30
0.0
  0
ENDBLK
  5
628C
330
6281
100
AcDbEntity
  8
0
100
AcDbBlockEnd
  0
BLOCK
  5
6293
330
628D
100
AcDbEntity
  8
0
100
AcDbBlockBegin
  2
*D12
 70
     1
 10
0.0
 20
0.0
 30
0.0
  3
*D12
  1

  0
LINE
  5
68B4
330
628D
100
AcDbEntity
  8
30
  6
Continuous
 62
     0
370
    -2
100
AcDbLine
 10
110.7806935860332
 20
-224.5544202010965
 30
0.0
 11
136.8640269193665
 21
-224.5544202010965
 31
0.0
  0
LINE
  5
68B5
330
628D
100
AcDbEntity
  8
30
  6
Continuous
 62
     0
370
    -2
100
AcDbLine
 10
136.8640269193665
 20
-224.5544202010965
 30
0.0
 11
142.1722780731715
 21
-235.30980991737
 31
0.0
  0
MTEXT
  5
68B6
330
628D
100
AcDbEntity
  8
30
  6
Continuous
 62
     0
100
AcDbMText
 10
123.3223602526999
 20
-222.3044202010965
 30
0.0
 40
2.5
 41
0.0
 71
     5
 72
     1
  1
\A1;less than R1
 73
     1
 44
1.0
  0
INSERT
  5
68B7
330
628D
100
AcDbEntity
  8
30
  6
Continuous
 62
     0
370
    -2
100
AcDbBlockReference
  2
_OPEN
 10
143.0574294750529
 20
-237.1032722101845
 30
0.0
 41
2.0
 42
2.0
 43
2.0
 50
296.2683368278742
  0
LINE
  5
68B8
330
628D
100
AcDbEntity
  8
30
  6
Continuous
 62
     0
370
    -2
100
AcDbLine
 10
143.410005
 20
-238.000003
 30
0.0
 11
143.5900049999999
 21
-238.0000029999999
 31
0.0
  0
LINE
  5
68B9
330
628D
100
AcDbEntity
  8
30
  6
Continuous
 62
     0
370
    -2
100
AcDbLine
 10
143.500005
 20
-238.0900029999998
 30
0.0
 11
143.500005
 21
-237.9100029999999
 31
0.0
  0
POINT
  5
68BA
330
628D
100
AcDbEntity
  8
DEFPOINTS
  6
Continuous
 62
     0
100
AcDbPoint
 10
143.0574294750529
 20
-237.1032722101845
 30
0.0
  0
POINT
  5
68BB
330
628D
100
AcDbEntity
  8
DEFPOINTS
  6
Continuous
 62
     0
100
AcDbPoint
 10
143.500005
 20
-238.0000029999999
 30
0.0
  0
ENDBLK
  5
6294
330
628D
100
AcDbEntity
  8
0
100
AcDbBlockEnd
  0
BLOCK
  5
629F
330
6295
100
AcDbEntity
  8
0
100
AcDbBlockBegin
  2
*D13
 70
     1
 10
0.0
 20
0.0
 30
0.0
  3
*D13
  1

  0
LINE
  5
663B
330
6295
100
AcDbEntity
  8
30
  6
Continuous
 62
     0
370
    -2
100
AcDbLine
 10
-36.00003099999999
 20
-25.00003200000003
 30
0.0
 11
-48.73976599999998
 21
-25.00003200000003
 31
0.0
  0
LINE
  5
663C
330
6295
100
AcDbEntity
  8
30
  6
Continuous
 62
     0
370
    -2
100
AcDbLine
 10
-36.00003099999999
 20
24.99996999999996
 30
0.0
 11
-48.73976599999998
 21
24.99996999999996
 31
0.0
  0
LINE
  5
663D
330
6295
100
AcDbEntity
  8
30
  6
Continuous
 62
     0
370
    -2
100
AcDbLine
 10
-48.23976599999999
 20
-23.00003200000003
 30
0.0
 11
-48.23976599999998
 21
22.99996999999996
 31
0.0
  0
INSERT
  5
663E
330
6295
100
AcDbEntity
  8
30
  6
Continuous
 62
     0
370
    -2
100
AcDbBlockReference
  2
_OPEN
 10
-48.23976599999999
 20
-25.00003200000003
 30
0.0
 41
2.0
 42
2.0
 43
2.0
 50
270.0
  0
INSERT
  5
663F
330
6295
100
AcDbEntity
  8
30
  6
Continuous
 62
     0
370
    -2
100
AcDbBlockReference
  2
_OPEN
 10
-48.23976599999998
 20
24.99996999999996
 30
0.0
 41
2.0
 42
2.0
 43
2.0
 50
90.0
  0
MTEXT
  5
6640
330
6295
100
AcDbEntity
  8
30
  6
Continuous
 62
     0
100
AcDbMText
 10
-51.23976599999998
 20
-0.0000320000000325
 30
0.0
 40
4.0
 41
0.0
 71
     5
 72
     1
  1
\A1;50
 11
0.0000000000000001
 21
1.0
 31
0.0
 73
     1
 44
1.0
  0
POINT
  5
6641
330
6295
100
AcDbEntity
  8
DEFPOINTS
  6
Continuous
 62
     0
100
AcDbPoint
 10
-35.00003099999999
 20
-25.00003200000003
 30
0.0
  0
POINT
  5
6642
330
6295
100
AcDbEntity
  8
DEFPOINTS
  6
Continuous
 62
     0
100
AcDbPoint
 10
-35.00003099999999
 20
24.99996999999996
 30
0.0
  0
POINT
  5
6643
330
6295
100
AcDbEntity
  8
DEFPOINTS
  6
Continuous
 62
     0
100
AcDbPoint
 10
-48.23976599999998
 20
24.99996999999996
 30
0.0
  0
ENDBLK
  5
62A0
330
6295
100
AcDbEntity
  8
0
100
AcDbBlockEnd
  0
BLOCK
  5
62AB
330
62A1
100
AcDbEntity
  8
0
100
AcDbBlockBegin
  2
*D14
 70
     1
 10
0.0
 20
0.0
 30
0.0
  3
*D14
  1

  0
LINE
  5
6632
330
62A1
100
AcDbEntity
  8
30
  6
Continuous
 62
     0
370
    -2
100
AcDbLine
 10
7.600002000000016
 20
-42.01091400000003
 30
0.0
 11
-57.83408699999998
 21
-42.01091400000001
 31
0.0
  0
LINE
  5
6633
330
62A1
100
AcDbEntity
  8
30
  6
Continuous
 62
     0
370
    -2
100
AcDbLine
 10
-16.95001599999998
 20
41.99993999999999
 30
0.0
 11
-57.83408699999998
 21
41.99993999999999
 31
0.0
  0
LINE
  5
6634
330
62A1
100
AcDbEntity
  8
30
  6
Continuous
 62
     0
370
    -2
100
AcDbLine
 10
-57.334087
 20
-40.01091400000002
 30
0.0
 11
-57.33408699999998
 21
39.99993999999999
 31
0.0
  0
INSERT
  5
6635
330
62A1
100
AcDbEntity
  8
30
  6
Continuous
 62
     0
370
    -2
100
AcDbBlockReference
  2
_OPEN
 10
-57.334087
 20
-42.01091400000001
 30
0.0
 41
2.0
 42
2.0
 43
2.0
 50
270.0
  0
INSERT
  5
6636
330
62A1
100
AcDbEntity
  8
30
  6
Continuous
 62
     0
370
    -2
100
AcDbBlockReference
  2
_OPEN
 10
-57.33408699999998
 20
41.99993999999999
 30
0.0
 41
2.0
 42
2.0
 43
2.0
 50
90.0
  0
MTEXT
  5
6637
330
62A1
100
AcDbEntity
  8
30
  6
Continuous
 62
     0
100
AcDbMText
 10
-60.33408699999998
 20
-0.0054860000000755
 30
0.0
 40
4.0
 41
0.0
 71
     5
 72
     1
  1
\A1;84
 11
0.0000000000000001
 21
1.0
 31
0.0
 73
     1
 44
1.0
  0
POINT
  5
6638
330
62A1
100
AcDbEntity
  8
DEFPOINTS
  6
Continuous
 62
     0
100
AcDbPoint
 10
8.600002000000017
 20
-42.01091400000003
 30
0.0
  0
POINT
  5
6639
330
62A1
100
AcDbEntity
  8
DEFPOINTS
  6
Continuous
 62
     0
100
AcDbPoint
 10
-15.95001599999999
 20
41.99993999999997
 30
0.0
  0
POINT
  5
663A
330
62A1
100
AcDbEntity
  8
DEFPOINTS
  6
Continuous
 62
     0
100
AcDbPoint
 10
-57.33408699999998
 20
41.99993999999999
 30
0.0
  0
ENDBLK
  5
62AC
330
62A1
100
AcDbEntity
  8
0
100
AcDbBlockEnd
  0
BLOCK
  5
62CC
330
62C2
100
AcDbEntity
  8
0
100
AcDbBlockBegin
  2
*D15
 70
     1
 10
0.0
 20
0.0
 30
0.0
  3
*D15
  1

  0
LINE
  5
6656
330
62C2
100
AcDbEntity
  8
30
  6
Continuous
 62
     0
370
    -2
100
AcDbLine
 10
24.99998499999999
 20
-49.07501300000006
 30
0.0
 11
24.99998499999999
 21
-61.81171800000004
 31
0.0
  0
LINE
  5
6657
330
62C2
100
AcDbEntity
  8
30
  6
Continuous
 62
     0
370
    -2
100
AcDbLine
 10
-25.00001599999999
 20
-49.07501300000006
 30
0.0
 11
-25.00001599999999
 21
-61.81171800000004
 31
0.0
  0
LINE
  5
6658
330
62C2
100
AcDbEntity
  8
30
  6
Continuous
 62
     0
370
    -2
100
AcDbLine
 10
22.99998499999999
 20
-61.31171800000004
 30
0.0
 11
-23.00001599999998
 21
-61.31171800000004
 31
0.0
  0
INSERT
  5
6659
330
62C2
100
AcDbEntity
  8
30
  6
Continuous
 62
     0
370
    -2
100
AcDbBlockReference
  2
_OPEN
 10
24.99998499999999
 20
-61.31171800000004
 30
0.0
 41
2.0
 42
2.0
 43
2.0
  0
INSERT
  5
665A
330
62C2
100
AcDbEntity
  8
30
  6
Continuous
 62
     0
370
    -2
100
AcDbBlockReference
  2
_OPEN
 10
-25.00001599999999
 20
-61.31171800000004
 30
0.0
 41
2.0
 42
2.0
 43
2.0
 50
180.0
  0
MTEXT
  5
665B
330
62C2
100
AcDbEntity
  8
30
  6
Continuous
 62
     0
100
AcDbMText
 10
-0.0000149999999904
 20
-58.31171800000004
 30
0.0
 40
4.0
 41
0.0
 71
     5
 72
     1
  1
\A1;50
 73
     1
 44
1.0
  0
POINT
  5
665C
330
62C2
100
AcDbEntity
  8
DEFPOINTS
  6
Continuous
 62
     0
100
AcDbPoint
 10
24.99998499999999
 20
-48.07501300000007
 30
0.0
  0
POINT
  5
665D
330
62C2
100
AcDbEntity
  8
DEFPOINTS
  6
Continuous
 62
     0
100
AcDbPoint
 10
-25.00001599999999
 20
-48.07501300000007
 30
0.0
  0
POINT
  5
665E
330
62C2
100
AcDbEntity
  8
DEFPOINTS
  6
Continuous
 62
     0
100
AcDbPoint
 10
-25.00001599999999
 20
-61.31171800000004
 30
0.0
  0
ENDBLK
  5
62CD
330
62C2
100
AcDbEntity
  8
0
100
AcDbBlockEnd
  0
BLOCK
  5
62D8
330
62CE
100
AcDbEntity
  8
0
100
AcDbBlockBegin
  2
*D16
 70
     1
 10
0.0
 20
0.0
 30
0.0
  3
*D16
  1

  0
LINE
  5
664D
330
62CE
100
AcDbEntity
  8
30
  6
Continuous
 62
     0
370
    -2
100
AcDbLine
 10
35.99993900000001
 20
-25.00003100000003
 30
0.0
 11
35.99993900000001
 21
-69.99052100000003
 31
0.0
  0
LINE
  5
664E
330
62CE
100
AcDbEntity
  8
30
  6
Continuous
 62
     0
370
    -2
100
AcDbLine
 10
-36.00003199999999
 20
-25.00003100000003
 30
0.0
 11
-36.00003199999999
 21
-69.99052100000003
 31
0.0
  0
LINE
  5
664F
330
62CE
100
AcDbEntity
  8
30
  6
Continuous
 62
     0
370
    -2
100
AcDbLine
 10
33.99993900000001
 20
-69.49052100000002
 30
0.0
 11
-34.00003199999999
 21
-69.49052100000002
 31
0.0
  0
INSERT
  5
6650
330
62CE
100
AcDbEntity
  8
30
  6
Continuous
 62
     0
370
    -2
100
AcDbBlockReference
  2
_OPEN
 10
35.99993900000001
 20
-69.49052100000002
 30
0.0
 41
2.0
 42
2.0
 43
2.0
  0
INSERT
  5
6651
330
62CE
100
AcDbEntity
  8
30
  6
Continuous
 62
     0
370
    -2
100
AcDbBlockReference
  2
_OPEN
 10
-36.00003199999999
 20
-69.49052100000002
 30
0.0
 41
2.0
 42
2.0
 43
2.0
 50
180.0
  0
MTEXT
  5
6652
330
62CE
100
AcDbEntity
  8
30
  6
Continuous
 62
     0
100
AcDbMText
 10
-0.0000449999999857
 20
-66.49052100000003
 30
0.0
 40
4.0
 41
0.0
 71
     5
 72
     1
  1
\A1;72
 73
     1
 44
1.0
  0
POINT
  5
6653
330
62CE
100
AcDbEntity
  8
DEFPOINTS
  6
Continuous
 62
     0
100
AcDbPoint
 10
35.99993900000001
 20
-24.00003100000003
 30
0.0
  0
POINT
  5
6654
330
62CE
100
AcDbEntity
  8
DEFPOINTS
  6
Continuous
 62
     0
100
AcDbPoint
 10
-36.00003199999999
 20
-24.00003100000003
 30
0.0
  0
POINT
  5
6655
330
62CE
100
AcDbEntity
  8
DEFPOINTS
  6
Continuous
 62
     0
100
AcDbPoint
 10
-36.00003199999999
 20
-69.49052100000002
 30
0.0
  0
ENDBLK
  5
62D9
330
62CE
100
AcDbEntity
  8
0
100
AcDbBlockEnd
  0
BLOCK
  5
62E4
330
62DA
100
AcDbEntity
  8
0
100
AcDbBlockBegin
  2
*D17
 70
     1
 10
0.0
 20
0.0
 30
0.0
  3
*D17
  1

  0
LINE
  5
6644
330
62DA
100
AcDbEntity
  8
30
  6
Continuous
 62
     0
370
    -2
100
AcDbLine
 10
37.49993900000001
 20
-47.25000300000004
 30
0.0
 11
37.49993900000001
 21
-79.20399800000001
 31
0.0
  0
LINE
  5
6645
330
62DA
100
AcDbEntity
  8
30
  6
Continuous
 62
     0
370
    -2
100
AcDbLine
 10
-37.50004699999998
 20
-47.25000300000004
 30
0.0
 11
-37.50004699999998
 21
-79.20399800000001
 31
0.0
  0
LINE
  5
6646
330
62DA
100
AcDbEntity
  8
30
  6
Continuous
 62
     0
370
    -2
100
AcDbLine
 10
35.49993900000001
 20
-78.70399800000001
 30
0.0
 11
-35.50004699999998
 21
-78.70399800000001
 31
0.0
  0
INSERT
  5
6647
330
62DA
100
AcDbEntity
  8
30
  6
Continuous
 62
     0
370
    -2
100
AcDbBlockReference
  2
_OPEN
 10
37.49993900000001
 20
-78.70399800000001
 30
0.0
 41
2.0
 42
2.0
 43
2.0
  0
INSERT
  5
6648
330
62DA
100
AcDbEntity
  8
30
  6
Continuous
 62
     0
370
    -2
100
AcDbBlockReference
  2
_OPEN
 10
-37.50004699999998
 20
-78.70399800000001
 30
0.0
 41
2.0
 42
2.0
 43
2.0
 50
180.0
  0
MTEXT
  5
6649
330
62DA
100
AcDbEntity
  8
30
  6
Continuous
 62
     0
100
AcDbMText
 10
-0.0000529999999939
 20
-75.70399800000001
 30
0.0
 40
4.0
 41
0.0
 71
     5
 72
     1
  1
\A1;75
 73
     1
 44
1.0
  0
POINT
  5
664A
330
62DA
100
AcDbEntity
  8
DEFPOINTS
  6
Continuous
 62
     0
100
AcDbPoint
 10
37.49993900000001
 20
-46.25000300000005
 30
0.0
  0
POINT
  5
664B
330
62DA
100
AcDbEntity
  8
DEFPOINTS
  6
Continuous
 62
     0
100
AcDbPoint
 10
-37.50004699999998
 20
-46.25000300000005
 30
0.0
  0
POINT
  5
664C
330
62DA
100
AcDbEntity
  8
DEFPOINTS
  6
Continuous
 62
     0
100
AcDbPoint
 10
-37.50004699999998
 20
-78.70399800000001
 30
0.0
  0
ENDBLK
  5
62E5
330
62DA
100
AcDbEntity
  8
0
100
AcDbBlockEnd
  0
BLOCK
  5
62FC
330
62F2
100
AcDbEntity
  8
0
100
AcDbBlockBegin
  2
*D18
 70
     1
 10
0.0
 20
0.0
 30
0.0
  3
*D18
  1

  0
LINE
  5
68BC
330
62F2
100
AcDbEntity
  8
30
  6
Continuous
 62
     0
370
    -2
100
AcDbLine
 10
177.499996
 20
-237.0000029999999
 30
0.0
 11
189.1884969999999
 21
-237.0000029999999
 31
0.0
  0
LINE
  5
68BD
330
62F2
100
AcDbEntity
  8
30
  6
Continuous
 62
     0
370
    -2
100
AcDbLine
 10
177.499996
 20
-262.999996
 30
0.0
 11
189.1884969999999
 21
-262.999996
 31
0.0
  0
LINE
  5
68BE
330
62F2
100
AcDbEntity
  8
30
  6
Continuous
 62
     0
370
    -2
100
AcDbLine
 10
188.6884969999999
 20
-239.0000029999999
 30
0.0
 11
188.6884969999999
 21
-260.999996
 31
0.0
  0
MTEXT
  5
68BF
330
62F2
100
AcDbEntity
  8
30
  6
Continuous
 62
     0
100
AcDbMText
 10
191.4032558880984
 20
-246.9417903802593
 30
0.0
 40
4.0
 41
0.0
 71
     5
 72
     1
  1
\A1;more than 26
 11
0.0000000000000001
 21
1.0
 31
0.0
 73
     1
 44
1.0
  0
INSERT
  5
68C0
330
62F2
100
AcDbEntity
  8
30
  6
Continuous
 62
     0
370
    -2
100
AcDbBlockReference
  2
_OPEN
 10
188.6884969999999
 20
-237.0000029999999
 30
0.0
 41
2.0
 42
2.0
 43
2.0
 50
90.0
  0
INSERT
  5
68C1
330
62F2
100
AcDbEntity
  8
30
  6
Continuous
 62
     0
370
    -2
100
AcDbBlockReference
  2
_OPEN
 10
188.6884969999999
 20
-262.999996
 30
0.0
 41
2.0
 42
2.0
 43
2.0
 50
270.0
  0
POINT
  5
68C2
330
62F2
100
AcDbEntity
  8
DEFPOINTS
  6
Continuous
 62
     0
100
AcDbPoint
 10
176.499996
 20
-237.0000029999999
 30
0.0
  0
POINT
  5
68C3
330
62F2
100
AcDbEntity
  8
DEFPOINTS
  6
Continuous
 62
     0
100
AcDbPoint
 10
176.499996
 20
-262.999996
 30
0.0
  0
POINT
  5
68C4
330
62F2
100
AcDbEntity
  8
DEFPOINTS
  6
Continuous
 62
     0
100
AcDbPoint
 10
188.6884969999999
 20
-262.999996
 30
0.0
  0
ENDBLK
  5
62FD
330
62F2
100
AcDbEntity
  8
0
100
AcDbBlockEnd
  0
BLOCK
  5
6342
330
633A
100
AcDbEntity
  8
0
100
AcDbBlockBegin
  2
*D19
 70
     1
 10
0.0
 20
0.0
 30
0.0
  3
*D19
  1

  0
LINE
  5
66A7
330
633A
100
AcDbEntity
  8
30
  6
Continuous
 62
     0
370
    -2
100
AcDbLine
 10
214.1431859999999
 20
98.75006199999996
 30
0.0
 11
214.1431859999999
 21
89.14793799999996
 31
0.0
  0
LINE
  5
66A8
330
633A
100
AcDbEntity
  8
30
  6
Continuous
 62
     0
370
    -2
100
AcDbLine
 10
169.143186
 20
98.75006199999996
 30
0.0
 11
169.143186
 21
89.14793799999996
 31
0.0
  0
LINE
  5
66A9
330
633A
100
AcDbEntity
  8
30
  6
Continuous
 62
     0
370
    -2
100
AcDbLine
 10
212.1431859999999
 20
89.64793799999997
 30
0.0
 11
171.143186
 21
89.64793799999997
 31
0.0
  0
INSERT
  5
66AA
330
633A
100
AcDbEntity
  8
30
  6
Continuous
 62
     0
370
    -2
100
AcDbBlockReference
  2
_OPEN
 10
214.1431859999999
 20
89.64793799999997
 30
0.0
 41
2.0
 42
2.0
 43
2.0
  0
INSERT
  5
66AB
330
633A
100
AcDbEntity
  8
30
  6
Continuous
 62
     0
370
    -2
100
AcDbBlockReference
  2
_OPEN
 10
169.143186
 20
89.64793799999997
 30
0.0
 41
2.0
 42
2.0
 43
2.0
 50
180.0
  0
MTEXT
  5
66AC
330
633A
100
AcDbEntity
  8
30
  6
Continuous
 62
     0
100
AcDbMText
 10
191.643186
 20
92.64793799999997
 30
0.0
 40
4.0
 41
0.0
 71
     5
 72
     1
  1
\A1;45
 73
     1
 44
1.0
  0
POINT
  5
66AD
330
633A
100
AcDbEntity
  8
DEFPOINTS
  6
Continuous
 62
     0
100
AcDbPoint
 10
214.1431859999999
 20
99.75006199999995
 30
0.0
  0
POINT
  5
66AE
330
633A
100
AcDbEntity
  8
DEFPOINTS
  6
Continuous
 62
     0
100
AcDbPoint
 10
169.143186
 20
99.75006199999995
 30
0.0
  0
POINT
  5
66AF
330
633A
100
AcDbEntity
  8
DEFPOINTS
  6
Continuous
 62
     0
100
AcDbPoint
 10
169.143186
 20
89.64793799999997
 30
0.0
  0
ENDBLK
  5
6343
330
633A
100
AcDbEntity
  8
0
100
AcDbBlockEnd
  0
BLOCK
  5
634E
330
6344
100
AcDbEntity
  8
0
100
AcDbBlockBegin
  2
*D20
 70
     1
 10
0.0
 20
0.0
 30
0.0
  3
*D20
  1

  0
LINE
  5
66FB
330
6344
100
AcDbEntity
  8
30
  6
Continuous
 62
     0
370
    -2
100
AcDbLine
 10
216.6431859999999
 20
-44.00005400000003
 30
0.0
 11
216.6431859999999
 21
-61.81171800000004
 31
0.0
  0
LINE
  5
66FC
330
6344
100
AcDbEntity
  8
30
  6
Continuous
 62
     0
370
    -2
100
AcDbLine
 10
156.6432449999998
 20
-37.89997100000002
 30
0.0
 11
156.6432449999998
 21
-61.81171800000004
 31
0.0
  0
LINE
  5
66FD
330
6344
100
AcDbEntity
  8
30
  6
Continuous
 62
     0
370
    -2
100
AcDbLine
 10
214.6431859999999
 20
-61.31171800000004
 30
0.0
 11
158.6432449999998
 21
-61.31171800000004
 31
0.0
  0
INSERT
  5
66FE
330
6344
100
AcDbEntity
  8
30
  6
Continuous
 62
     0
370
    -2
100
AcDbBlockReference
  2
_OPEN
 10
216.6431859999999
 20
-61.31171800000004
 30
0.0
 41
2.0
 42
2.0
 43
2.0
  0
INSERT
  5
66FF
330
6344
100
AcDbEntity
  8
30
  6
Continuous
 62
     0
370
    -2
100
AcDbBlockReference
  2
_OPEN
 10
156.6432449999998
 20
-61.31171800000004
 30
0.0
 41
2.0
 42
2.0
 43
2.0
 50
180.0
  0
MTEXT
  5
6700
330
6344
100
AcDbEntity
  8
30
  6
Continuous
 62
     0
100
AcDbMText
 10
186.643216
 20
-58.31171800000004
 30
0.0
 40
4.0
 41
0.0
 71
     5
 72
     1
  1
\A1;60
 73
     1
 44
1.0
  0
POINT
  5
6701
330
6344
100
AcDbEntity
  8
DEFPOINTS
  6
Continuous
 62
     0
100
AcDbPoint
 10
216.6431859999999
 20
-43.00005400000002
 30
0.0
  0
POINT
  5
6702
330
6344
100
AcDbEntity
  8
DEFPOINTS
  6
Continuous
 62
     0
100
AcDbPoint
 10
156.6432449999998
 20
-36.89997100000002
 30
0.0
  0
POINT
  5
6703
330
6344
100
AcDbEntity
  8
DEFPOINTS
  6
Continuous
 62
     0
100
AcDbPoint
 10
156.6432449999998
 20
-61.31171800000004
 30
0.0
  0
ENDBLK
  5
634F
330
6344
100
AcDbEntity
  8
0
100
AcDbBlockEnd
  0
BLOCK
  5
635A
330
6350
100
AcDbEntity
  8
0
100
AcDbBlockBegin
  2
*D21
 70
     1
 10
0.0
 20
0.0
 30
0.0
  3
*D21
  1

  0
LINE
  5
66B0
330
6350
100
AcDbEntity
  8
30
  6
Continuous
 62
     0
370
    -2
100
AcDbLine
 10
173.6427949999999
 20
46.89999999999996
 30
0.0
 11
173.6427949999999
 21
59.77054899999996
 31
0.0
  0
LINE
  5
66B1
330
6350
100
AcDbEntity
  8
30
  6
Continuous
 62
     0
370
    -2
100
AcDbLine
 10
216.6431859999999
 20
44.00005999999996
 30
0.0
 11
216.6431859999999
 21
59.77054899999996
 31
0.0
  0
LINE
  5
66B2
330
6350
100
AcDbEntity
  8
30
  6
Continuous
 62
     0
370
    -2
100
AcDbLine
 10
175.6427949999999
 20
59.27054899999996
 30
0.0
 11
214.6431859999999
 21
59.27054899999996
 31
0.0
  0
INSERT
  5
66B3
330
6350
100
AcDbEntity
  8
30
  6
Continuous
 62
     0
370
    -2
100
AcDbBlockReference
  2
_OPEN
 10
173.6427949999999
 20
59.27054899999996
 30
0.0
 41
2.0
 42
2.0
 43
2.0
 50
180.0
  0
INSERT
  5
66B4
330
6350
100
AcDbEntity
  8
30
  6
Continuous
 62
     0
370
    -2
100
AcDbBlockReference
  2
_OPEN
 10
216.6431859999999
 20
59.27054899999996
 30
0.0
 41
2.0
 42
2.0
 43
2.0
  0
MTEXT
  5
66B5
330
6350
100
AcDbEntity
  8
30
  6
Continuous
 62
     0
100
AcDbMText
 10
195.1429899999999
 20
62.27054899999996
 30
0.0
 40
4.0
 41
0.0
 71
     5
 72
     1
  1
\A1;43
 73
     1
 44
1.0
  0
POINT
  5
66B6
330
6350
100
AcDbEntity
  8
DEFPOINTS
  6
Continuous
 62
     0
100
AcDbPoint
 10
173.6427949999999
 20
45.89999999999998
 30
0.0
  0
POINT
  5
66B7
330
6350
100
AcDbEntity
  8
DEFPOINTS
  6
Continuous
 62
     0
100
AcDbPoint
 10
216.6431859999999
 20
43.00005999999996
 30
0.0
  0
POINT
  5
66B8
330
6350
100
AcDbEntity
  8
DEFPOINTS
  6
Continuous
 62
     0
100
AcDbPoint
 10
216.6431859999999
 20
59.27054899999996
 30
0.0
  0
ENDBLK
  5
635B
330
6350
100
AcDbEntity
  8
0
100
AcDbBlockEnd
  0
BLOCK
  5
6366
330
635C
100
AcDbEntity
  8
0
100
AcDbBlockBegin
  2
*D22
 70
     1
 10
0.0
 20
0.0
 30
0.0
  3
*D22
  1

  0
LINE
  5
670D
330
635C
100
AcDbEntity
  8
30
  6
Continuous
 62
     0
370
    -2
100
AcDbLine
 10
216.6431859999999
 20
-44.06257100000002
 30
0.0
 11
216.6431859999999
 21
-69.99052100000003
 31
0.0
  0
LINE
  5
670E
330
635C
100
AcDbEntity
  8
30
  6
Continuous
 62
     0
370
    -2
100
AcDbLine
 10
132.643186
 20
8.500002999999933
 30
0.0
 11
132.643186
 21
-69.99052100000003
 31
0.0
  0
LINE
  5
670F
330
635C
100
AcDbEntity
  8
30
  6
Continuous
 62
     0
370
    -2
100
AcDbLine
 10
214.6431859999999
 20
-69.49052100000002
 30
0.0
 11
134.643186
 21
-69.49052100000002
 31
0.0
  0
INSERT
  5
6710
330
635C
100
AcDbEntity
  8
30
  6
Continuous
 62
     0
370
    -2
100
AcDbBlockReference
  2
_OPEN
 10
216.6431859999999
 20
-69.49052100000002
 30
0.0
 41
2.0
 42
2.0
 43
2.0
  0
INSERT
  5
6711
330
635C
100
AcDbEntity
  8
30
  6
Continuous
 62
     0
370
    -2
100
AcDbBlockReference
  2
_OPEN
 10
132.643186
 20
-69.49052100000002
 30
0.0
 41
2.0
 42
2.0
 43
2.0
 50
180.0
  0
MTEXT
  5
6712
330
635C
100
AcDbEntity
  8
30
  6
Continuous
 62
     0
100
AcDbMText
 10
174.643186
 20
-66.49052100000003
 30
0.0
 40
4.0
 41
0.0
 71
     5
 72
     1
  1
\A1;84
 73
     1
 44
1.0
  0
POINT
  5
6713
330
635C
100
AcDbEntity
  8
DEFPOINTS
  6
Continuous
 62
     0
100
AcDbPoint
 10
216.6431859999999
 20
-43.06257100000002
 30
0.0
  0
POINT
  5
6714
330
635C
100
AcDbEntity
  8
DEFPOINTS
  6
Continuous
 62
     0
100
AcDbPoint
 10
132.643186
 20
9.500002999999935
 30
0.0
  0
POINT
  5
6715
330
635C
100
AcDbEntity
  8
DEFPOINTS
  6
Continuous
 62
     0
100
AcDbPoint
 10
132.643186
 20
-69.49052100000002
 30
0.0
  0
ENDBLK
  5
6367
330
635C
100
AcDbEntity
  8
0
100
AcDbBlockEnd
  0
BLOCK
  5
6372
330
6368
100
AcDbEntity
  8
0
100
AcDbBlockBegin
  2
*D23
 70
     1
 10
0.0
 20
0.0
 30
0.0
  3
*D23
  1

  0
LINE
  5
66B9
330
6368
100
AcDbEntity
  8
30
  6
Continuous
 62
     0
370
    -2
100
AcDbLine
 10
165.643215
 20
48.19999999999999
 30
0.0
 11
165.643215
 21
104.7134309999999
 31
0.0
  0
LINE
  5
66BA
330
6368
100
AcDbEntity
  8
30
  6
Continuous
 62
     0
370
    -2
100
AcDbLine
 10
216.6431859999999
 20
44.00006399999995
 30
0.0
 11
216.6431859999999
 21
104.7134309999999
 31
0.0
  0
LINE
  5
66BB
330
6368
100
AcDbEntity
  8
30
  6
Continuous
 62
     0
370
    -2
100
AcDbLine
 10
167.643215
 20
104.2134309999999
 30
0.0
 11
214.6431859999999
 21
104.2134309999999
 31
0.0
  0
INSERT
  5
66BC
330
6368
100
AcDbEntity
  8
30
  6
Continuous
 62
     0
370
    -2
100
AcDbBlockReference
  2
_OPEN
 10
165.643215
 20
104.2134309999999
 30
0.0
 41
2.0
 42
2.0
 43
2.0
 50
180.0
  0
INSERT
  5
66BD
330
6368
100
AcDbEntity
  8
30
  6
Continuous
 62
     0
370
    -2
100
AcDbBlockReference
  2
_OPEN
 10
216.6431859999999
 20
104.2134309999999
 30
0.0
 41
2.0
 42
2.0
 43
2.0
  0
MTEXT
  5
66BE
330
6368
100
AcDbEntity
  8
30
  6
Continuous
 62
     0
100
AcDbMText
 10
191.1431999999999
 20
107.2134309999998
 30
0.0
 40
4.0
 41
0.0
 71
     5
 72
     1
  1
\A1;51
 73
     1
 44
1.0
  0
POINT
  5
66BF
330
6368
100
AcDbEntity
  8
DEFPOINTS
  6
Continuous
 62
     0
100
AcDbPoint
 10
165.643215
 20
47.19999999999997
 30
0.0
  0
POINT
  5
66C0
330
6368
100
AcDbEntity
  8
DEFPOINTS
  6
Continuous
 62
     0
100
AcDbPoint
 10
216.6431859999999
 20
43.00006399999995
 30
0.0
  0
POINT
  5
66C1
330
6368
100
AcDbEntity
  8
DEFPOINTS
  6
Continuous
 62
     0
100
AcDbPoint
 10
216.6431859999999
 20
104.2134309999999
 30
0.0
  0
ENDBLK
  5
6373
330
6368
100
AcDbEntity
  8
0
100
AcDbBlockEnd
  0
BLOCK
  5
637E
330
6374
100
AcDbEntity
  8
0
100
AcDbBlockBegin
  2
*D24
 70
     1
 10
0.0
 20
0.0
 30
0.0
  3
*D24
  1

  0
LINE
  5
6704
330
6374
100
AcDbEntity
  8
30
  6
Continuous
 62
     0
370
    -2
100
AcDbLine
 10
156.643186
 20
-38.50000000000003
 30
0.0
 11
156.643186
 21
-61.81171800000004
 31
0.0
  0
LINE
  5
6705
330
6374
100
AcDbEntity
  8
30
  6
Continuous
 62
     0
370
    -2
100
AcDbLine
 10
148.643186
 20
-26.0
 30
0.0
 11
148.643186
 21
-61.81171800000004
 31
0.0
  0
LINE
  5
6706
330
6374
100
AcDbEntity
  8
30
  6
Continuous
 62
     0
370
    -2
100
AcDbLine
 10
154.643186
 20
-61.31171800000004
 30
0.0
 11
150.643186
 21
-61.31171800000004
 31
0.0
  0
INSERT
  5
6707
330
6374
100
AcDbEntity
  8
30
  6
Continuous
 62
     0
370
    -2
100
AcDbBlockReference
  2
_OPEN
 10
156.643186
 20
-61.31171800000004
 30
0.0
 41
2.0
 42
2.0
 43
2.0
  0
INSERT
  5
6708
330
6374
100
AcDbEntity
  8
30
  6
Continuous
 62
     0
370
    -2
100
AcDbBlockReference
  2
_OPEN
 10
148.643186
 20
-61.31171800000004
 30
0.0
 41
2.0
 42
2.0
 43
2.0
 50
180.0
  0
MTEXT
  5
6709
330
6374
100
AcDbEntity
  8
30
  6
Continuous
 62
     0
100
AcDbMText
 10
152.643186
 20
-58.31171800000004
 30
0.0
 40
4.0
 41
0.0
 71
     5
 72
     1
  1
\A1;8
 73
     1
 44
1.0
  0
POINT
  5
670A
330
6374
100
AcDbEntity
  8
DEFPOINTS
  6
Continuous
 62
     0
100
AcDbPoint
 10
156.643186
 20
-37.50000000000003
 30
0.0
  0
POINT
  5
670B
330
6374
100
AcDbEntity
  8
DEFPOINTS
  6
Continuous
 62
     0
100
AcDbPoint
 10
148.643186
 20
-25.0
 30
0.0
  0
POINT
  5
670C
330
6374
100
AcDbEntity
  8
DEFPOINTS
  6
Continuous
 62
     0
100
AcDbPoint
 10
148.643186
 20
-61.31171800000004
 30
0.0
  0
ENDBLK
  5
637F
330
6374
100
AcDbEntity
  8
0
100
AcDbBlockEnd
  0
BLOCK
  5
638C
330
6380
100
AcDbEntity
  8
0
100
AcDbBlockBegin
  2
*D25
 70
     1
 10
0.0
 20
0.0
 30
0.0
  3
*D25
  1

  0
LINE
  5
66E8
330
6380
100
AcDbEntity
  8
30
  6
Continuous
 62
     0
370
    -2
100
AcDbLine
 10
148.643186
 20
-26.0
 30
0.0
 11
148.643186
 21
-61.81171800000004
 31
0.0
  0
LINE
  5
66E9
330
6380
100
AcDbEntity
  8
30
  6
Continuous
 62
     0
370
    -2
100
AcDbLine
 10
144.643186
 20
-25.0
 30
0.0
 11
144.643186
 21
-61.81171800000004
 31
0.0
  0
LINE
  5
66EA
330
6380
100
AcDbEntity
  8
30
  6
Continuous
 62
     0
370
    -2
100
AcDbLine
 10
150.643186
 20
-61.31171800000004
 30
0.0
 11
152.643186
 21
-61.31171800000004
 31
0.0
  0
LINE
  5
66EB
330
6380
100
AcDbEntity
  8
30
  6
Continuous
 62
     0
370
    -2
100
AcDbLine
 10
142.643186
 20
-61.31171800000004
 30
0.0
 11
133.1551805133333
 21
-61.31171800000004
 31
0.0
  0
INSERT
  5
66EC
330
6380
100
AcDbEntity
  8
30
  6
Continuous
 62
     0
370
    -2
100
AcDbBlockReference
  2
_OPEN
 10
148.643186
 20
-61.31171800000004
 30
0.0
 41
2.0
 42
2.0
 43
2.0
 50
180.0
  0
INSERT
  5
66ED
330
6380
100
AcDbEntity
  8
30
  6
Continuous
 62
     0
370
    -2
100
AcDbBlockReference
  2
_OPEN
 10
144.643186
 20
-61.31171800000004
 30
0.0
 41
2.0
 42
2.0
 43
2.0
  0
MTEXT
  5
66EE
330
6380
100
AcDbEntity
  8
30
  6
Continuous
 62
     0
100
AcDbMText
 10
135.4885138466666
 20
-58.31171800000004
 30
0.0
 40
4.0
 41
0.0
 71
     5
 72
     1
  1
\A1;4
 73
     1
 44
1.0
  0
POINT
  5
66EF
330
6380
100
AcDbEntity
  8
DEFPOINTS
  6
Continuous
 62
     0
100
AcDbPoint
 10
148.643186
 20
-25.0
 30
0.0
  0
POINT
  5
66F0
330
6380
100
AcDbEntity
  8
DEFPOINTS
  6
Continuous
 62
     0
100
AcDbPoint
 10
144.643186
 20
-24.0
 30
0.0
  0
POINT
  5
66F1
330
6380
100
AcDbEntity
  8
DEFPOINTS
  6
Continuous
 62
     0
100
AcDbPoint
 10
144.643186
 20
-61.31171800000004
 30
0.0
  0
ENDBLK
  5
638D
330
6380
100
AcDbEntity
  8
0
100
AcDbBlockEnd
  0
BLOCK
  5
6398
330
638E
100
AcDbEntity
  8
0
100
AcDbBlockBegin
  2
*D26
 70
     1
 10
0.0
 20
0.0
 30
0.0
  3
*D26
  1

  0
LINE
  5
66DF
330
638E
100
AcDbEntity
  8
30
  6
Continuous
 62
     0
370
    -2
100
AcDbLine
 10
156.143184
 20
-38.00000000000002
 30
0.0
 11
124.4045399999998
 21
-38.00000000000002
 31
0.0
  0
LINE
  5
66E0
330
638E
100
AcDbEntity
  8
30
  6
Continuous
 62
     0
370
    -2
100
AcDbLine
 10
156.143184
 20
38.0
 30
0.0
 11
124.40454
 21
38.0
 31
0.0
  0
LINE
  5
66E1
330
638E
100
AcDbEntity
  8
30
  6
Continuous
 62
     0
370
    -2
100
AcDbLine
 10
124.9045399999999
 20
-36.00000000000002
 30
0.0
 11
124.9045399999999
 21
36.0
 31
0.0
  0
INSERT
  5
66E2
330
638E
100
AcDbEntity
  8
30
  6
Continuous
 62
     0
370
    -2
100
AcDbBlockReference
  2
_OPEN
 10
124.9045399999999
 20
-38.00000000000002
 30
0.0
 41
2.0
 42
2.0
 43
2.0
 50
270.0
  0
INSERT
  5
66E3
330
638E
100
AcDbEntity
  8
30
  6
Continuous
 62
     0
370
    -2
100
AcDbBlockReference
  2
_OPEN
 10
124.9045399999999
 20
38.0
 30
0.0
 41
2.0
 42
2.0
 43
2.0
 50
90.0
  0
MTEXT
  5
66E4
330
638E
100
AcDbEntity
  8
30
  6
Continuous
 62
     0
100
AcDbMText
 10
121.9045399999999
 20
0.0000000000000004
 30
0.0
 40
4.0
 41
0.0
 71
     5
 72
     1
  1
\A1;76
 11
0.0000000000000001
 21
1.0
 31
0.0
 73
     1
 44
1.0
  0
POINT
  5
66E5
330
638E
100
AcDbEntity
  8
DEFPOINTS
  6
Continuous
 62
     0
100
AcDbPoint
 10
157.143184
 20
-38.00000000000002
 30
0.0
  0
POINT
  5
66E6
330
638E
100
AcDbEntity
  8
DEFPOINTS
  6
Continuous
 62
     0
100
AcDbPoint
 10
157.143184
 20
38.0
 30
0.0
  0
POINT
  5
66E7
330
638E
100
AcDbEntity
  8
DEFPOINTS
  6
Continuous
 62
     0
100
AcDbPoint
 10
124.9045399999999
 20
38.0
 30
0.0
  0
ENDBLK
  5
6399
330
638E
100
AcDbEntity
  8
0
100
AcDbBlockEnd
  0
BLOCK
  5
63A5
330
639A
100
AcDbEntity
  8
0
100
AcDbBlockBegin
  2
*D27
 70
     1
 10
0.0
 20
0.0
 30
0.0
  3
*D27
  1

  0
LINE
  5
66C2
330
639A
100
AcDbEntity
  8
30
  6
Continuous
 62
     0
370
    -2
100
AcDbLine
 10
216.6431859999999
 20
41.56262799999995
 30
0.0
 11
216.6431859999999
 21
90.14793799999997
 31
0.0
  0
LINE
  5
66C3
330
639A
100
AcDbEntity
  8
30
  6
Continuous
 62
     0
370
    -2
100
AcDbLine
 10
214.1431859999999
 20
96.25006199999996
 30
0.0
 11
214.1431859999999
 21
89.14793799999996
 31
0.0
  0
LINE
  5
66C4
330
639A
100
AcDbEntity
  8
30
  6
Continuous
 62
     0
370
    -2
100
AcDbLine
 10
212.1431859999999
 20
89.64793799999997
 30
0.0
 11
210.1431859999999
 21
89.64793799999997
 31
0.0
  0
LINE
  5
66C5
330
639A
100
AcDbEntity
  8
30
  6
Continuous
 62
     0
370
    -2
100
AcDbLine
 10
218.6431859999999
 20
89.64793799999997
 30
0.0
 11
235.13477802
 21
89.64793799999997
 31
0.0
  0
INSERT
  5
66C6
330
639A
100
AcDbEntity
  8
30
  6
Continuous
 62
     0
370
    -2
100
AcDbBlockReference
  2
_OPEN
 10
214.1431859999999
 20
89.64793799999997
 30
0.0
 41
2.0
 42
2.0
 43
2.0
  0
INSERT
  5
66C7
330
639A
100
AcDbEntity
  8
30
  6
Continuous
 62
     0
370
    -2
100
AcDbBlockReference
  2
_OPEN
 10
216.6431859999999
 20
89.64793799999997
 30
0.0
 41
2.0
 42
2.0
 43
2.0
 50
180.0
  0
MTEXT
  5
66C8
330
639A
100
AcDbEntity
  8
30
  6
Continuous
 62
     0
100
AcDbMText
 10
230.1347780199999
 20
92.64793799999997
 30
0.0
 40
4.0
 41
0.0
 71
     5
 72
     1
  1
\A1;2.5
 73
     1
 44
1.0
  0
POINT
  5
66C9
330
639A
100
AcDbEntity
  8
DEFPOINTS
  6
Continuous
 62
     0
100
AcDbPoint
 10
216.6431859999999
 20
40.56262799999996
 30
0.0
  0
POINT
  5
66CA
330
639A
100
AcDbEntity
  8
DEFPOINTS
  6
Continuous
 62
     0
100
AcDbPoint
 10
214.1431859999999
 20
97.25006199999995
 30
0.0
  0
POINT
  5
66CB
330
639A
100
AcDbEntity
  8
DEFPOINTS
  6
Continuous
 62
     0
100
AcDbPoint
 10
214.1431859999999
 20
89.64793799999997
 30
0.0
  0
ENDBLK
  5
63A6
330
639A
100
AcDbEntity
  8
0
100
AcDbBlockEnd
  0
BLOCK
  5
6997
330
698D
100
AcDbEntity
  8
0
100
AcDbBlockBegin
  2
*D28
 70
     1
 10
0.0
 20
0.0
 30
0.0
  3
*D28
  1

  0
LINE
  5
69CB
330
698D
100
AcDbEntity
  8
30
  6
Continuous
 62
     0
370
    -2
100
AcDbLine
 10
-38.50004299999998
 20
222.0
 30
0.0
 11
-54.33820679239232
 21
222.0
 31
0.0
  0
LINE
  5
69CC
330
698D
100
AcDbEntity
  8
30
  6
Continuous
 62
     0
370
    -2
100
AcDbLine
 10
-7.050003499999981
 20
138.0
 30
0.0
 11
-54.33820679239235
 21
138.0
 31
0.0
  0
LINE
  5
69CD
330
698D
100
AcDbEntity
  8
30
  6
Continuous
 62
     0
370
    -2
100
AcDbLine
 10
-53.83820679239232
 20
220.0
 30
0.0
 11
-53.83820679239235
 21
140.0
 31
0.0
  0
INSERT
  5
69CE
330
698D
100
AcDbEntity
  8
30
  6
Continuous
 62
     0
370
    -2
100
AcDbBlockReference
  2
_OPEN
 10
-53.83820679239232
 20
222.0
 30
0.0
 41
2.0
 42
2.0
 43
2.0
 50
90.0
  0
INSERT
  5
69CF
330
698D
100
AcDbEntity
  8
30
  6
Continuous
 62
     0
370
    -2
100
AcDbBlockReference
  2
_OPEN
 10
-53.83820679239235
 20
138.0
 30
0.0
 41
2.0
 42
2.0
 43
2.0
 50
270.0
  0
MTEXT
  5
69D0
330
698D
100
AcDbEntity
  8
30
  6
Continuous
 62
     0
100
AcDbMText
 10
-56.83820679239236
 20
180.0
 30
0.0
 40
4.0
 41
0.0
 71
     5
 72
     1
  1
\A1;84
 11
0.0000000000000001
 21
1.0
 31
0.0
 73
     1
 44
1.0
  0
POINT
  5
69D1
330
698D
100
AcDbEntity
  8
DEFPOINTS
  6
Continuous
 62
     0
100
AcDbPoint
 10
-37.50004299999997
 20
222.0
 30
0.0
  0
POINT
  5
69D2
330
698D
100
AcDbEntity
  8
DEFPOINTS
  6
Continuous
 62
     0
100
AcDbPoint
 10
-6.050003499999981
 20
138.0
 30
0.0
  0
POINT
  5
69D3
330
698D
100
AcDbEntity
  8
DEFPOINTS
  6
Continuous
 62
     0
100
AcDbPoint
 10
-53.83820679239235
 20
138.0
 30
0.0
  0
ENDBLK
  5
6998
330
698D
100
AcDbEntity
  8
0
100
AcDbBlockEnd
  0
BLOCK
  5
69A3
330
6999
100
AcDbEntity
  8
0
100
AcDbBlockBegin
  2
*D29
 70
     1
 10
0.0
 20
0.0
 30
0.0
  3
*D29
  1

  0
LINE
  5
69D4
330
6999
100
AcDbEntity
  8
30
  6
Continuous
 62
     0
370
    -2
100
AcDbLine
 10
-43.50009700000007
 20
221.9999999999999
 30
0.0
 11
-46.15940379239231
 21
221.9999999999999
 31
0.0
  0
LINE
  5
69D5
330
6999
100
AcDbEntity
  8
30
  6
Continuous
 62
     0
370
    -2
100
AcDbLine
 10
-37.40001400000003
 20
162.0000589999999
 30
0.0
 11
-46.15940379239233
 21
162.0000589999999
 31
0.0
  0
LINE
  5
69D6
330
6999
100
AcDbEntity
  8
30
  6
Continuous
 62
     0
370
    -2
100
AcDbLine
 10
-45.65940379239231
 20
219.9999999999999
 30
0.0
 11
-45.65940379239232
 21
164.0000589999999
 31
0.0
  0
INSERT
  5
69D7
330
6999
100
AcDbEntity
  8
30
  6
Continuous
 62
     0
370
    -2
100
AcDbBlockReference
  2
_OPEN
 10
-45.65940379239231
 20
221.9999999999999
 30
0.0
 41
2.0
 42
2.0
 43
2.0
 50
90.0
  0
INSERT
  5
69D8
330
6999
100
AcDbEntity
  8
30
  6
Continuous
 62
     0
370
    -2
100
AcDbBlockReference
  2
_OPEN
 10
-45.65940379239232
 20
162.0000589999999
 30
0.0
 41
2.0
 42
2.0
 43
2.0
 50
270.0
  0
MTEXT
  5
69D9
330
6999
100
AcDbEntity
  8
30
  6
Continuous
 62
     0
100
AcDbMText
 10
-48.65940379239233
 20
192.00003
 30
0.0
 40
4.0
 41
0.0
 71
     5
 72
     1
  1
\A1;60
 11
0.0000000000000001
 21
1.0
 31
0.0
 73
     1
 44
1.0
  0
POINT
  5
69DA
330
6999
100
AcDbEntity
  8
DEFPOINTS
  6
Continuous
 62
     0
100
AcDbPoint
 10
-42.50009700000007
 20
221.9999999999999
 30
0.0
  0
POINT
  5
69DB
330
6999
100
AcDbEntity
  8
DEFPOINTS
  6
Continuous
 62
     0
100
AcDbPoint
 10
-36.40001400000003
 20
162.0000589999999
 30
0.0
  0
POINT
  5
69DC
330
6999
100
AcDbEntity
  8
DEFPOINTS
  6
Continuous
 62
     0
100
AcDbPoint
 10
-45.65940379239232
 20
162.0000589999999
 30
0.0
  0
ENDBLK
  5
69A4
330
6999
100
AcDbEntity
  8
0
100
AcDbBlockEnd
  0
BLOCK
  5
69AF
330
69A5
100
AcDbEntity
  8
0
100
AcDbBlockBegin
  2
*D30
 70
     1
 10
0.0
 20
0.0
 30
0.0
  3
*D30
  1

  0
LINE
  5
69DD
330
69A5
100
AcDbEntity
  8
30
  6
Continuous
 62
     0
370
    -2
100
AcDbLine
 10
-38.00004299999997
 20
161.9999999999999
 30
0.0
 11
-46.15940379239232
 21
161.9999999999999
 31
0.0
  0
LINE
  5
69DE
330
69A5
100
AcDbEntity
  8
30
  6
Continuous
 62
     0
370
    -2
100
AcDbLine
 10
-38.38185199999996
 20
154.0
 30
0.0
 11
-46.15940379239232
 21
154.0
 31
0.0
  0
LINE
  5
69DF
330
69A5
100
AcDbEntity
  8
30
  6
Continuous
 62
     0
370
    -2
100
AcDbLine
 10
-45.65940379239232
 20
159.9999999999999
 30
0.0
 11
-45.65940379239232
 21
156.0
 31
0.0
  0
INSERT
  5
69E0
330
69A5
100
AcDbEntity
  8
30
  6
Continuous
 62
     0
370
    -2
100
AcDbBlockReference
  2
_OPEN
 10
-45.65940379239232
 20
161.9999999999999
 30
0.0
 41
2.0
 42
2.0
 43
2.0
 50
90.0
  0
INSERT
  5
69E1
330
69A5
100
AcDbEntity
  8
30
  6
Continuous
 62
     0
370
    -2
100
AcDbBlockReference
  2
_OPEN
 10
-45.65940379239232
 20
154.0
 30
0.0
 41
2.0
 42
2.0
 43
2.0
 50
270.0
  0
MTEXT
  5
69E2
330
69A5
100
AcDbEntity
  8
30
  6
Continuous
 62
     0
100
AcDbMText
 10
-48.65940379239233
 20
158.0
 30
0.0
 40
4.0
 41
0.0
 71
     5
 72
     1
  1
\A1;8
 11
0.0000000000000001
 21
1.0
 31
0.0
 73
     1
 44
1.0
  0
POINT
  5
69E3
330
69A5
100
AcDbEntity
  8
DEFPOINTS
  6
Continuous
 62
     0
100
AcDbPoint
 10
-37.00004299999998
 20
161.9999999999999
 30
0.0
  0
POINT
  5
69E4
330
69A5
100
AcDbEntity
  8
DEFPOINTS
  6
Continuous
 62
     0
100
AcDbPoint
 10
-37.38185199999996
 20
154.0
 30
0.0
  0
POINT
  5
69E5
330
69A5
100
AcDbEntity
  8
DEFPOINTS
  6
Continuous
 62
     0
100
AcDbPoint
 10
-45.65940379239232
 20
154.0
 30
0.0
  0
ENDBLK
  5
69B0
330
69A5
100
AcDbEntity
  8
0
100
AcDbBlockEnd
  0
BLOCK
  5
69BD
330
69B1
100
AcDbEntity
  8
0
100
AcDbBlockBegin
  2
*D31
 70
     1
 10
0.0
 20
0.0
 30
0.0
  3
*D31
  1

  0
LINE
  5
6B84
330
69B1
100
AcDbEntity
  8
30
  6
Continuous
 62
     0
370
    -2
100
AcDbLine
 10
-37.00003199999999
 20
154.0
 30
0.0
 11
-46.11813968446947
 21
154.0
 31
0.0
  0
LINE
  5
6B85
330
69B1
100
AcDbEntity
  8
30
  6
Continuous
 62
     0
370
    -2
100
AcDbLine
 10
-27.72248020760748
 20
150.0
 30
0.0
 11
-46.11813968446947
 21
150.0
 31
0.0
  0
LINE
  5
6B86
330
69B1
100
AcDbEntity
  8
30
  6
Continuous
 62
     0
370
    -2
100
AcDbLine
 10
-45.61813968446947
 20
156.0
 30
0.0
 11
-45.61813968446947
 21
158.0
 31
0.0
  0
LINE
  5
6B87
330
69B1
100
AcDbEntity
  8
30
  6
Continuous
 62
     0
370
    -2
100
AcDbLine
 10
-45.61813968446947
 20
148.0
 30
0.0
 11
-45.61813968446947
 21
146.0
 31
0.0
  0
LINE
  5
6B88
330
69B1
100
AcDbEntity
  8
30
  6
Continuous
 62
     0
370
    -2
100
AcDbLine
 10
-45.61813968446947
 20
154.0
 30
0.0
 11
-45.61813968446947
 21
150.0
 31
0.0
  0
INSERT
  5
6B89
330
69B1
100
AcDbEntity
  8
30
  6
Continuous
 62
     0
370
    -2
100
AcDbBlockReference
  2
_OPEN
 10
-45.61813968446947
 20
154.0
 30
0.0
 41
2.0
 42
2.0
 43
2.0
 50
270.0
  0
INSERT
  5
6B8A
330
69B1
100
AcDbEntity
  8
30
  6
Continuous
 62
     0
370
    -2
100
AcDbBlockReference
  2
_OPEN
 10
-45.61813968446947
 20
150.0
 30
0.0
 41
2.0
 42
2.0
 43
2.0
 50
90.0
  0
MTEXT
  5
6B8B
330
69B1
100
AcDbEntity
  8
30
  6
Continuous
 62
     0
100
AcDbMText
 10
-48.61813968446949
 20
152.0
 30
0.0
 40
4.0
 41
0.0
 71
     5
 72
     1
  1
\A1;4
 11
0.0000000000000001
 21
1.0
 31
0.0
 73
     1
 44
1.0
  0
POINT
  5
6B8C
330
69B1
100
AcDbEntity
  8
DEFPOINTS
  6
Continuous
 62
     0
100
AcDbPoint
 10
-36.00003199999999
 20
154.0
 30
0.0
  0
POINT
  5
6B8D
330
69B1
100
AcDbEntity
  8
DEFPOINTS
  6
Continuous
 62
     0
100
AcDbPoint
 10
-26.72248020760749
 20
150.0
 30
0.0
  0
POINT
  5
6B8E
330
69B1
100
AcDbEntity
  8
DEFPOINTS
  6
Continuous
 62
     0
100
AcDbPoint
 10
-45.61813968446947
 20
150.0
 30
0.0
  0
ENDBLK
  5
69BE
330
69B1
100
AcDbEntity
  8
0
100
AcDbBlockEnd
  0
BLOCK
  5
69C9
330
69BF
100
AcDbEntity
  8
0
100
AcDbBlockBegin
  2
*D32
 70
     1
 10
0.0
 20
0.0
 30
0.0
  3
*D32
  1

  0
LINE
  5
69F1
330
69BF
100
AcDbEntity
  8
30
  6
Continuous
 62
     0
370
    -2
100
AcDbLine
 10
38.48174799999999
 20
222.0
 30
0.0
 11
46.29954771902377
 21
222.0
 31
0.0
  0
LINE
  5
69F2
330
69BF
100
AcDbEntity
  8
30
  6
Continuous
 62
     0
370
    -2
100
AcDbLine
 10
30.88185049999999
 20
198.0
 30
0.0
 11
46.29954771902376
 21
198.0
 31
0.0
  0
LINE
  5
69F3
330
69BF
100
AcDbEntity
  8
30
  6
Continuous
 62
     0
370
    -2
100
AcDbLine
 10
45.79954771902377
 20
220.0
 30
0.0
 11
45.79954771902376
 21
200.0
 31
0.0
  0
INSERT
  5
69F4
330
69BF
100
AcDbEntity
  8
30
  6
Continuous
 62
     0
370
    -2
100
AcDbBlockReference
  2
_OPEN
 10
45.79954771902377
 20
222.0
 30
0.0
 41
2.0
 42
2.0
 43
2.0
 50
90.0
  0
INSERT
  5
69F5
330
69BF
100
AcDbEntity
  8
30
  6
Continuous
 62
     0
370
    -2
100
AcDbBlockReference
  2
_OPEN
 10
45.79954771902376
 20
198.0
 30
0.0
 41
2.0
 42
2.0
 43
2.0
 50
270.0
  0
MTEXT
  5
69F6
330
69BF
100
AcDbEntity
  8
30
  6
Continuous
 62
     0
100
AcDbMText
 10
42.79954771902374
 20
210.0
 30
0.0
 40
4.0
 41
0.0
 71
     5
 72
     1
  1
\A1;24
 11
0.0000000000000001
 21
1.0
 31
0.0
 73
     1
 44
1.0
  0
POINT
  5
69F7
330
69BF
100
AcDbEntity
  8
DEFPOINTS
  6
Continuous
 62
     0
100
AcDbPoint
 10
37.48174799999999
 20
222.0
 30
0.0
  0
POINT
  5
69F8
330
69BF
100
AcDbEntity
  8
DEFPOINTS
  6
Continuous
 62
     0
100
AcDbPoint
 10
29.8818505
 20
198.0
 30
0.0
  0
POINT
  5
69F9
330
69BF
100
AcDbEntity
  8
DEFPOINTS
  6
Continuous
 62
     0
100
AcDbPoint
 10
45.79954771902376
 20
198.0
 30
0.0
  0
ENDBLK
  5
69CA
330
69BF
100
AcDbEntity
  8
0
100
AcDbBlockEnd
  0
BLOCK
  5
6A56
330
6A4D
100
AcDbEntity
  8
0
100
AcDbBlockBegin
  2
*D33
 70
     1
 10
0.0
 20
0.0
 30
0.0
  3
*D33
  1

  0
LINE
  5
6A4E
330
6A4D
100
AcDbEntity
  8
30
  6
Continuous
 62
     0
370
    -2
100
AcDbLine
 10
67.23855945793824
 20
-191.6593410417412
 30
0.0
 11
113.705226124605
 21
-191.6593410417412
 31
0.0
  0
LINE
  5
6A4F
330
6A4D
100
AcDbEntity
  8
30
  6
Continuous
 62
     0
370
    -2
100
AcDbLine
 10
113.705226124605
 20
-191.6593410417412
 30
0.0
 11
125.6349257555612
 21
-222.2729926991643
 31
0.0
  0
MTEXT
  5
6A50
330
6A4D
100
AcDbEntity
  8
30
  6
Continuous
 62
     0
100
AcDbMText
 10
89.97189279127155
 20
-188.6593410417413
 30
0.0
 40
4.0
 41
0.0
 71
     5
 72
     1
  1
\A1;lsess than R2
 73
     1
 44
1.0
  0
INSERT
  5
6A51
330
6A4D
100
AcDbEntity
  8
30
  6
Continuous
 62
     0
370
    -2
100
AcDbBlockReference
  2
_OPEN
 10
126.3611077654223
 20
-224.1365000612518
 30
0.0
 41
2.0
 42
2.0
 43
2.0
 50
291.2901470150433
  0
LINE
  5
6A52
330
6A4D
100
AcDbEntity
  8
30
  6
Continuous
 62
     0
370
    -2
100
AcDbLine
 10
126.9972899999999
 20
-226.000008
 30
0.0
 11
127.1772899999999
 21
-226.000008
 31
0.0
  0
LINE
  5
6A53
330
6A4D
100
AcDbEntity
  8
30
  6
Continuous
 62
     0
370
    -2
100
AcDbLine
 10
127.08729
 20
-226.090008
 30
0.0
 11
127.08729
 21
-225.910008
 31
0.0
  0
POINT
  5
6A54
330
6A4D
100
AcDbEntity
  8
DEFPOINTS
  6
Continuous
 62
     0
100
AcDbPoint
 10
126.3611077654223
 20
-224.1365000612518
 30
0.0
  0
POINT
  5
6A55
330
6A4D
100
AcDbEntity
  8
DEFPOINTS
  6
Continuous
 62
     0
100
AcDbPoint
 10
127.08729
 20
-226.000008
 30
0.0
  0
ENDBLK
  5
6A57
330
6A4D
100
AcDbEntity
  8
0
100
AcDbBlockEnd
  0
BLOCK
  5
6A62
330
6A58
100
AcDbEntity
  8
0
100
AcDbBlockBegin
  2
*D34
 70
     1
 10
0.0
 20
0.0
 30
0.0
  3
*D34
  1

  0
LINE
  5
6A59
330
6A58
100
AcDbEntity
  8
30
  6
Continuous
 62
     0
370
    -2
100
AcDbLine
 10
12.49999600000001
 20
-303.4494199999998
 30
0.0
 11
12.499996
 21
-322.6961159999999
 31
0.0
  0
LINE
  5
6A5A
330
6A58
100
AcDbEntity
  8
30
  6
Continuous
 62
     0
370
    -2
100
AcDbLine
 10
-12.49999799999989
 20
-217.5497179999999
 30
0.0
 11
-12.49999799999989
 21
-322.6961159999999
 31
0.0
  0
LINE
  5
6A5B
330
6A58
100
AcDbEntity
  8
30
  6
Continuous
 62
     0
370
    -2
100
AcDbLine
 10
10.499996
 20
-322.1961159999999
 30
0.0
 11
-10.49999799999989
 21
-322.1961159999999
 31
0.0
  0
INSERT
  5
6A5C
330
6A58
100
AcDbEntity
  8
30
  6
Continuous
 62
     0
370
    -2
100
AcDbBlockReference
  2
_OPEN
 10
12.499996
 20
-322.1961159999999
 30
0.0
 41
2.0
 42
2.0
 43
2.0
  0
INSERT
  5
6A5D
330
6A58
100
AcDbEntity
  8
30
  6
Continuous
 62
     0
370
    -2
100
AcDbBlockReference
  2
_OPEN
 10
-12.49999799999989
 20
-322.1961159999999
 30
0.0
 41
2.0
 42
2.0
 43
2.0
 50
180.0
  0
MTEXT
  5
6A5E
330
6A58
100
AcDbEntity
  8
30
  6
Continuous
 62
     0
100
AcDbMText
 10
-0.0000009999999449
 20
-319.1961159999999
 30
0.0
 40
4.0
 41
0.0
 71
     5
 72
     1
  1
\A1;25
 73
     1
 44
1.0
  0
POINT
  5
6A5F
330
6A58
100
AcDbEntity
  8
DEFPOINTS
  6
Continuous
 62
     0
100
AcDbPoint
 10
12.49999600000001
 20
-302.4494199999998
 30
0.0
  0
POINT
  5
6A60
330
6A58
100
AcDbEntity
  8
DEFPOINTS
  6
Continuous
 62
     0
100
AcDbPoint
 10
-12.49999799999989
 20
-216.549718
 30
0.0
  0
POINT
  5
6A61
330
6A58
100
AcDbEntity
  8
DEFPOINTS
  6
Continuous
 62
     0
100
AcDbPoint
 10
-12.49999799999989
 20
-322.1961159999999
 30
0.0
  0
ENDBLK
  5
6A63
330
6A58
100
AcDbEntity
  8
0
100
AcDbBlockEnd
  0
BLOCK
  5
6A6E
330
6A64
100
AcDbEntity
  8
0
100
AcDbBlockBegin
  2
*D35
 70
     1
 10
0.0
 20
0.0
 30
0.0
  3
*D35
  1

  0
LINE
  5
6A65
330
6A64
100
AcDbEntity
  8
30
  6
Continuous
 62
     0
370
    -2
100
AcDbLine
 10
-3.273677999999903
 20
-208.0000119999999
 30
0.0
 11
62.24569600000003
 21
-208.0000119999999
 31
0.0
  0
LINE
  5
6A66
330
6A64
100
AcDbEntity
  8
30
  6
Continuous
 62
     0
370
    -2
100
AcDbLine
 10
21.09229200000004
 20
-291.9999879999999
 30
0.0
 11
62.24569600000002
 21
-291.9999879999999
 31
0.0
  0
LINE
  5
6A67
330
6A64
100
AcDbEntity
  8
30
  6
Continuous
 62
     0
370
    -2
100
AcDbLine
 10
61.74569600000003
 20
-210.0000119999999
 30
0.0
 11
61.74569600000001
 21
-289.9999879999999
 31
0.0
  0
INSERT
  5
6A68
330
6A64
100
AcDbEntity
  8
30
  6
Continuous
 62
     0
370
    -2
100
AcDbBlockReference
  2
_OPEN
 10
61.74569600000003
 20
-208.0000119999999
 30
0.0
 41
2.0
 42
2.0
 43
2.0
 50
90.0
  0
INSERT
  5
6A69
330
6A64
100
AcDbEntity
  8
30
  6
Continuous
 62
     0
370
    -2
100
AcDbBlockReference
  2
_OPEN
 10
61.74569600000001
 20
-291.9999879999999
 30
0.0
 41
2.0
 42
2.0
 43
2.0
 50
270.0
  0
MTEXT
  5
6A6A
330
6A64
100
AcDbEntity
  8
30
  6
Continuous
 62
     0
100
AcDbMText
 10
58.74569600000007
 20
-250.0
 30
0.0
 40
4.0
 41
0.0
 71
     5
 72
     1
  1
\A1;84
 11
0.0000000000000001
 21
1.0
 31
0.0
 73
     1
 44
1.0
  0
POINT
  5
6A6B
330
6A64
100
AcDbEntity
  8
DEFPOINTS
  6
Continuous
 62
     0
100
AcDbPoint
 10
-4.273677999999904
 20
-208.0000119999999
 30
0.0
  0
POINT
  5
6A6C
330
6A64
100
AcDbEntity
  8
DEFPOINTS
  6
Continuous
 62
     0
100
AcDbPoint
 10
20.09229200000004
 20
-291.9999879999999
 30
0.0
  0
POINT
  5
6A6D
330
6A64
100
AcDbEntity
  8
DEFPOINTS
  6
Continuous
 62
     0
100
AcDbPoint
 10
61.74569600000001
 20
-291.9999879999999
 30
0.0
  0
ENDBLK
  5
6A6F
330
6A64
100
AcDbEntity
  8
0
100
AcDbBlockEnd
  0
BLOCK
  5
6A7A
330
6A70
100
AcDbEntity
  8
0
100
AcDbBlockBegin
  2
*D36
 70
     1
 10
0.0
 20
0.0
 30
0.0
  3
*D36
  1

  0
LINE
  5
6A71
330
6A70
100
AcDbEntity
  8
30
  6
Continuous
 62
     0
370
    -2
100
AcDbLine
 10
194.0872719999999
 20
-224.0000079999999
 30
0.0
 11
217.9642739999999
 21
-224.0000079999999
 31
0.0
  0
LINE
  5
6A72
330
6A70
100
AcDbEntity
  8
30
  6
Continuous
 62
     0
370
    -2
100
AcDbLine
 10
194.0872719999999
 20
-275.999994
 30
0.0
 11
217.9642739999999
 21
-275.999994
 31
0.0
  0
LINE
  5
6A73
330
6A70
100
AcDbEntity
  8
30
  6
Continuous
 62
     0
370
    -2
100
AcDbLine
 10
217.4642739999999
 20
-226.0000079999999
 30
0.0
 11
217.4642739999999
 21
-273.999994
 31
0.0
  0
MTEXT
  5
6A74
330
6A70
100
AcDbEntity
  8
30
  6
Continuous
 62
     0
100
AcDbMText
 10
222.1682223234164
 20
-250.0
 30
0.0
 40
4.0
 41
0.0
 71
     5
 72
     1
  1
\A1;more than 52
 11
0.0000000000000001
 21
1.0
 31
0.0
 73
     1
 44
1.0
  0
INSERT
  5
6A75
330
6A70
100
AcDbEntity
  8
30
  6
Continuous
 62
     0
370
    -2
100
AcDbBlockReference
  2
_OPEN
 10
217.4642739999999
 20
-224.0000079999999
 30
0.0
 41
2.0
 42
2.0
 43
2.0
 50
90.0
  0
INSERT
  5
6A76
330
6A70
100
AcDbEntity
  8
30
  6
Continuous
 62
     0
370
    -2
100
AcDbBlockReference
  2
_OPEN
 10
217.4642739999999
 20
-275.999994
 30
0.0
 41
2.0
 42
2.0
 43
2.0
 50
270.0
  0
POINT
  5
6A77
330
6A70
100
AcDbEntity
  8
DEFPOINTS
  6
Continuous
 62
     0
100
AcDbPoint
 10
193.0872719999999
 20
-224.0000079999999
 30
0.0
  0
POINT
  5
6A78
330
6A70
100
AcDbEntity
  8
DEFPOINTS
  6
Continuous
 62
     0
100
AcDbPoint
 10
193.0872719999999
 20
-275.999994
 30
0.0
  0
POINT
  5
6A79
330
6A70
100
AcDbEntity
  8
DEFPOINTS
  6
Continuous
 62
     0
100
AcDbPoint
 10
217.4642739999999
 20
-275.999994
 30
0.0
  0
ENDBLK
  5
6A7B
330
6A70
100
AcDbEntity
  8
0
100
AcDbBlockEnd
  0
BLOCK
  5
6A86
330
6A7C
100
AcDbEntity
  8
0
100
AcDbBlockBegin
  2
*D37
 70
     1
 10
0.0
 20
0.0
 30
0.0
  3
*D37
  1

  0
LINE
  5
6A7D
330
6A7C
100
AcDbEntity
  8
30
  6
Continuous
 62
     0
370
    -2
100
AcDbLine
 10
195.0872699999999
 20
-274.999996
 30
0.0
 11
195.0872699999999
 21
-322.6961159999999
 31
0.0
  0
LINE
  5
6A7E
330
6A7C
100
AcDbEntity
  8
30
  6
Continuous
 62
     0
370
    -2
100
AcDbLine
 10
125.08729
 20
-274.999996
 30
0.0
 11
125.08729
 21
-322.6961159999999
 31
0.0
  0
LINE
  5
6A7F
330
6A7C
100
AcDbEntity
  8
30
  6
Continuous
 62
     0
370
    -2
100
AcDbLine
 10
193.0872699999999
 20
-322.1961159999999
 30
0.0
 11
127.08729
 21
-322.1961159999999
 31
0.0
  0
MTEXT
  5
6A80
330
6A7C
100
AcDbEntity
  8
30
  6
Continuous
 62
     0
100
AcDbMText
 10
160.0
 20
-326.1961159999998
 30
0.0
 40
4.0
 41
0.0
 71
     5
 72
     1
  1
\A1;more than 74
 73
     1
 44
1.0
  0
INSERT
  5
6A81
330
6A7C
100
AcDbEntity
  8
30
  6
Continuous
 62
     0
370
    -2
100
AcDbBlockReference
  2
_OPEN
 10
195.0872699999999
 20
-322.1961159999999
 30
0.0
 41
2.0
 42
2.0
 43
2.0
  0
INSERT
  5
6A82
330
6A7C
100
AcDbEntity
  8
30
  6
Continuous
 62
     0
370
    -2
100
AcDbBlockReference
  2
_OPEN
 10
125.08729
 20
-322.1961159999999
 30
0.0
 41
2.0
 42
2.0
 43
2.0
 50
180.0
  0
POINT
  5
6A83
330
6A7C
100
AcDbEntity
  8
DEFPOINTS
  6
Continuous
 62
     0
100
AcDbPoint
 10
195.0872699999999
 20
-273.999996
 30
0.0
  0
POINT
  5
6A84
330
6A7C
100
AcDbEntity
  8
DEFPOINTS
  6
Continuous
 62
     0
100
AcDbPoint
 10
125.08729
 20
-273.999996
 30
0.0
  0
POINT
  5
6A85
330
6A7C
100
AcDbEntity
  8
DEFPOINTS
  6
Continuous
 62
     0
100
AcDbPoint
 10
125.08729
 20
-322.1961159999999
 30
0.0
  0
ENDBLK
  5
6A87
330
6A7C
100
AcDbEntity
  8
0
100
AcDbBlockEnd
  0
BLOCK
  5
6ACF
330
6AC6
100
AcDbEntity
  8
0
100
AcDbBlockBegin
  2
*D38
 70
     1
 10
0.0
 20
0.0
 30
0.0
  3
*D38
  1

  0
LINE
  5
6B01
330
6AC6
100
AcDbEntity
  8
30
  6
Continuous
 62
     0
370
    -2
100
AcDbLine
 10
67.23855945793828
 20
-191.6593410417412
 30
0.0
 11
113.7052261246052
 21
-191.6593410417412
 31
0.0
  0
LINE
  5
6B02
330
6AC6
100
AcDbEntity
  8
30
  6
Continuous
 62
     0
370
    -2
100
AcDbLine
 10
113.7052261246052
 20
-191.6593410417412
 30
0.0
 11
125.6349257555612
 21
-222.2729926991645
 31
0.0
  0
MTEXT
  5
6B03
330
6AC6
100
AcDbEntity
  8
30
  6
Continuous
 62
     0
100
AcDbMText
 10
89.97189279127161
 20
-188.6593410417413
 30
0.0
 40
4.0
 41
0.0
 71
     5
 72
     1
  1
\A1;lsess than R2
 73
     1
 44
1.0
  0
INSERT
  5
6B04
330
6AC6
100
AcDbEntity
  8
30
  6
Continuous
 62
     0
370
    -2
100
AcDbBlockReference
  2
_OPEN
 10
126.3611077654223
 20
-224.1365000612518
 30
0.0
 41
2.0
 42
2.0
 43
2.0
 50
291.290147015043
  0
LINE
  5
6B05
330
6AC6
100
AcDbEntity
  8
30
  6
Continuous
 62
     0
370
    -2
100
AcDbLine
 10
126.9972899999999
 20
-226.000008
 30
0.0
 11
127.1772899999999
 21
-226.000008
 31
0.0
  0
LINE
  5
6B06
330
6AC6
100
AcDbEntity
  8
30
  6
Continuous
 62
     0
370
    -2
100
AcDbLine
 10
127.08729
 20
-226.090008
 30
0.0
 11
127.08729
 21
-225.910008
 31
0.0
  0
POINT
  5
6B07
330
6AC6
100
AcDbEntity
  8
DEFPOINTS
  6
Continuous
 62
     0
100
AcDbPoint
 10
126.3611077654223
 20
-224.1365000612518
 30
0.0
  0
POINT
  5
6B08
330
6AC6
100
AcDbEntity
  8
DEFPOINTS
  6
Continuous
 62
     0
100
AcDbPoint
 10
127.08729
 20
-226.000008
 30
0.0
  0
ENDBLK
  5
6AD0
330
6AC6
100
AcDbEntity
  8
0
100
AcDbBlockEnd
  0
BLOCK
  5
6ADB
330
6AD1
100
AcDbEntity
  8
0
100
AcDbBlockBegin
  2
*D39
 70
     1
 10
0.0
 20
0.0
 30
0.0
  3
*D39
  1

  0
LINE
  5
6B09
330
6AD1
100
AcDbEntity
  8
30
  6
Continuous
 62
     0
370
    -2
100
AcDbLine
 10
12.49999600000001
 20
-303.4494199999998
 30
0.0
 11
12.499996
 21
-322.6961159999999
 31
0.0
  0
LINE
  5
6B0A
330
6AD1
100
AcDbEntity
  8
30
  6
Continuous
 62
     0
370
    -2
100
AcDbLine
 10
-12.49999799999989
 20
-217.5497179999999
 30
0.0
 11
-12.49999799999989
 21
-322.6961159999999
 31
0.0
  0
LINE
  5
6B0B
330
6AD1
100
AcDbEntity
  8
30
  6
Continuous
 62
     0
370
    -2
100
AcDbLine
 10
10.499996
 20
-322.1961159999999
 30
0.0
 11
-10.49999799999989
 21
-322.1961159999999
 31
0.0
  0
INSERT
  5
6B0C
330
6AD1
100
AcDbEntity
  8
30
  6
Continuous
 62
     0
370
    -2
100
AcDbBlockReference
  2
_OPEN
 10
12.499996
 20
-322.1961159999999
 30
0.0
 41
2.0
 42
2.0
 43
2.0
  0
INSERT
  5
6B0D
330
6AD1
100
AcDbEntity
  8
30
  6
Continuous
 62
     0
370
    -2
100
AcDbBlockReference
  2
_OPEN
 10
-12.49999799999989
 20
-322.1961159999999
 30
0.0
 41
2.0
 42
2.0
 43
2.0
 50
180.0
  0
MTEXT
  5
6B0E
330
6AD1
100
AcDbEntity
  8
30
  6
Continuous
 62
     0
100
AcDbMText
 10
-0.0000009999999449
 20
-319.1961159999999
 30
0.0
 40
4.0
 41
0.0
 71
     5
 72
     1
  1
\A1;25
 73
     1
 44
1.0
  0
POINT
  5
6B0F
330
6AD1
100
AcDbEntity
  8
DEFPOINTS
  6
Continuous
 62
     0
100
AcDbPoint
 10
12.49999600000001
 20
-302.4494199999998
 30
0.0
  0
POINT
  5
6B10
330
6AD1
100
AcDbEntity
  8
DEFPOINTS
  6
Continuous
 62
     0
100
AcDbPoint
 10
-12.49999799999989
 20
-216.549718
 30
0.0
  0
POINT
  5
6B11
330
6AD1
100
AcDbEntity
  8
DEFPOINTS
  6
Continuous
 62
     0
100
AcDbPoint
 10
-12.49999799999989
 20
-322.1961159999999
 30
0.0
  0
ENDBLK
  5
6ADC
330
6AD1
100
AcDbEntity
  8
0
100
AcDbBlockEnd
  0
BLOCK
  5
6AE7
330
6ADD
100
AcDbEntity
  8
0
100
AcDbBlockBegin
  2
*D40
 70
     1
 10
0.0
 20
0.0
 30
0.0
  3
*D40
  1

  0
LINE
  5
6B12
330
6ADD
100
AcDbEntity
  8
30
  6
Continuous
 62
     0
370
    -2
100
AcDbLine
 10
-3.273677999999903
 20
-208.0000119999999
 30
0.0
 11
62.24569600000003
 21
-208.0000119999999
 31
0.0
  0
LINE
  5
6B13
330
6ADD
100
AcDbEntity
  8
30
  6
Continuous
 62
     0
370
    -2
100
AcDbLine
 10
21.09229200000004
 20
-291.9999879999999
 30
0.0
 11
62.24569600000002
 21
-291.9999879999999
 31
0.0
  0
LINE
  5
6B14
330
6ADD
100
AcDbEntity
  8
30
  6
Continuous
 62
     0
370
    -2
100
AcDbLine
 10
61.74569600000003
 20
-210.0000119999999
 30
0.0
 11
61.74569600000001
 21
-289.9999879999999
 31
0.0
  0
INSERT
  5
6B15
330
6ADD
100
AcDbEntity
  8
30
  6
Continuous
 62
     0
370
    -2
100
AcDbBlockReference
  2
_OPEN
 10
61.74569600000003
 20
-208.0000119999999
 30
0.0
 41
2.0
 42
2.0
 43
2.0
 50
90.0
  0
INSERT
  5
6B16
330
6ADD
100
AcDbEntity
  8
30
  6
Continuous
 62
     0
370
    -2
100
AcDbBlockReference
  2
_OPEN
 10
61.74569600000001
 20
-291.9999879999999
 30
0.0
 41
2.0
 42
2.0
 43
2.0
 50
270.0
  0
MTEXT
  5
6B17
330
6ADD
100
AcDbEntity
  8
30
  6
Continuous
 62
     0
100
AcDbMText
 10
58.74569600000007
 20
-250.0
 30
0.0
 40
4.0
 41
0.0
 71
     5
 72
     1
  1
\A1;84
 11
0.0000000000000001
 21
1.0
 31
0.0
 73
     1
 44
1.0
  0
POINT
  5
6B18
330
6ADD
100
AcDbEntity
  8
DEFPOINTS
  6
Continuous
 62
     0
100
AcDbPoint
 10
-4.273677999999904
 20
-208.0000119999999
 30
0.0
  0
POINT
  5
6B19
330
6ADD
100
AcDbEntity
  8
DEFPOINTS
  6
Continuous
 62
     0
100
AcDbPoint
 10
20.09229200000004
 20
-291.9999879999999
 30
0.0
  0
POINT
  5
6B1A
330
6ADD
100
AcDbEntity
  8
DEFPOINTS
  6
Continuous
 62
     0
100
AcDbPoint
 10
61.74569600000001
 20
-291.9999879999999
 30
0.0
  0
ENDBLK
  5
6AE8
330
6ADD
100
AcDbEntity
  8
0
100
AcDbBlockEnd
  0
BLOCK
  5
6AF3
330
6AE9
100
AcDbEntity
  8
0
100
AcDbBlockBegin
  2
*D41
 70
     1
 10
0.0
 20
0.0
 30
0.0
  3
*D41
  1

  0
LINE
  5
6B1B
330
6AE9
100
AcDbEntity
  8
30
  6
Continuous
 62
     0
370
    -2
100
AcDbLine
 10
194.0872719999999
 20
-224.0000079999999
 30
0.0
 11
217.9642739999999
 21
-224.0000079999999
 31
0.0
  0
LINE
  5
6B1C
330
6AE9
100
AcDbEntity
  8
30
  6
Continuous
 62
     0
370
    -2
100
AcDbLine
 10
194.0872719999999
 20
-275.999994
 30
0.0
 11
217.9642739999999
 21
-275.999994
 31
0.0
  0
LINE
  5
6B1D
330
6AE9
100
AcDbEntity
  8
30
  6
Continuous
 62
     0
370
    -2
100
AcDbLine
 10
217.4642739999999
 20
-226.0000079999999
 30
0.0
 11
217.4642739999999
 21
-273.999994
 31
0.0
  0
MTEXT
  5
6B1E
330
6AE9
100
AcDbEntity
  8
30
  6
Continuous
 62
     0
100
AcDbMText
 10
222.1682223234164
 20
-250.0
 30
0.0
 40
4.0
 41
0.0
 71
     5
 72
     1
  1
\A1;more than 52
 11
0.0000000000000001
 21
1.0
 31
0.0
 73
     1
 44
1.0
  0
INSERT
  5
6B1F
330
6AE9
100
AcDbEntity
  8
30
  6
Continuous
 62
     0
370
    -2
100
AcDbBlockReference
  2
_OPEN
 10
217.4642739999999
 20
-224.0000079999999
 30
0.0
 41
2.0
 42
2.0
 43
2.0
 50
90.0
  0
INSERT
  5
6B20
330
6AE9
100
AcDbEntity
  8
30
  6
Continuous
 62
     0
370
    -2
100
AcDbBlockReference
  2
_OPEN
 10
217.4642739999999
 20
-275.999994
 30
0.0
 41
2.0
 42
2.0
 43
2.0
 50
270.0
  0
POINT
  5
6B21
330
6AE9
100
AcDbEntity
  8
DEFPOINTS
  6
Continuous
 62
     0
100
AcDbPoint
 10
193.0872719999999
 20
-224.0000079999999
 30
0.0
  0
POINT
  5
6B22
330
6AE9
100
AcDbEntity
  8
DEFPOINTS
  6
Continuous
 62
     0
100
AcDbPoint
 10
193.0872719999999
 20
-275.999994
 30
0.0
  0
POINT
  5
6B23
330
6AE9
100
AcDbEntity
  8
DEFPOINTS
  6
Continuous
 62
     0
100
AcDbPoint
 10
217.4642739999999
 20
-275.999994
 30
0.0
  0
ENDBLK
  5
6AF4
330
6AE9
100
AcDbEntity
  8
0
100
AcDbBlockEnd
  0
BLOCK
  5
6AFF
330
6AF5
100
AcDbEntity
  8
0
100
AcDbBlockBegin
  2
*D42
 70
     1
 10
0.0
 20
0.0
 30
0.0
  3
*D42
  1

  0
LINE
  5
6B24
330
6AF5
100
AcDbEntity
  8
30
  6
Continuous
 62
     0
370
    -2
100
AcDbLine
 10
195.0872699999999
 20
-274.999996
 30
0.0
 11
195.0872699999999
 21
-322.6961159999999
 31
0.0
  0
LINE
  5
6B25
330
6AF5
100
AcDbEntity
  8
30
  6
Continuous
 62
     0
370
    -2
100
AcDbLine
 10
125.08729
 20
-274.999996
 30
0.0
 11
125.08729
 21
-322.6961159999999
 31
0.0
  0
LINE
  5
6B26
330
6AF5
100
AcDbEntity
  8
30
  6
Continuous
 62
     0
370
    -2
100
AcDbLine
 10
193.0872699999999
 20
-322.1961159999999
 30
0.0
 11
127.08729
 21
-322.1961159999999
 31
0.0
  0
MTEXT
  5
6B27
330
6AF5
100
AcDbEntity
  8
30
  6
Continuous
 62
     0
100
AcDbMText
 10
160.0
 20
-326.1961159999998
 30
0.0
 40
4.0
 41
0.0
 71
     5
 72
     1
  1
\A1;more than 74
 73
     1
 44
1.0
  0
INSERT
  5
6B28
330
6AF5
100
AcDbEntity
  8
30
  6
Continuous
 62
     0
370
    -2
100
AcDbBlockReference
  2
_OPEN
 10
195.0872699999999
 20
-322.1961159999999
 30
0.0
 41
2.0
 42
2.0
 43
2.0
  0
INSERT
  5
6B29
330
6AF5
100
AcDbEntity
  8
30
  6
Continuous
 62
     0
370
    -2
100
AcDbBlockReference
  2
_OPEN
 10
125.08729
 20
-322.1961159999999
 30
0.0
 41
2.0
 42
2.0
 43
2.0
 50
180.0
  0
POINT
  5
6B2A
330
6AF5
100
AcDbEntity
  8
DEFPOINTS
  6
Continuous
 62
     0
100
AcDbPoint
 10
195.0872699999999
 20
-273.999996
 30
0.0
  0
POINT
  5
6B2B
330
6AF5
100
AcDbEntity
  8
DEFPOINTS
  6
Continuous
 62
     0
100
AcDbPoint
 10
125.08729
 20
-273.999996
 30
0.0
  0
POINT
  5
6B2C
330
6AF5
100
AcDbEntity
  8
DEFPOINTS
  6
Continuous
 62
     0
100
AcDbPoint
 10
125.08729
 20
-322.1961159999999
 30
0.0
  0
ENDBLK
  5
6B00
330
6AF5
100
AcDbEntity
  8
0
100
AcDbBlockEnd
  0
ENDSEC
  0
SECTION
  2
ENTITIES
  0
LINE
  5
B4
330
1E
100
AcDbEntity
  8
16
100
AcDbLine
 10
0.0
 20
-68.697891
 30
0.0
 11
0.0
 21
71.25
 31
0.0
  0
LINE
  5
B5
330
1E
100
AcDbEntity
  8
16
100
AcDbLine
 10
48.424128
 20
0.0
 30
0.0
 11
-56.608689
 21
0.0
 31
0.0
  0
MTEXT
  5
BF3
330
1E
100
AcDbEntity
  8
24
  6
Continuous
100
AcDbMText
 10
142.118191
 20
177.5
 30
0.0
 40
3.0
 41
0.0
 71
     1
 72
     1
  1
\A1;
 73
     1
 44
1.0
  0
LINE
  5
1C9B
330
1E
100
AcDbEntity
  8
16
100
AcDbLine
 10
219.189032
 20
0.0
 30
0.0
 11
115.19371
 21
0.0
 31
0.0
  0
LINE
  5
2233
330
1E
100
AcDbEntity
  8
16
100
AcDbLine
 10
160.0
 20
-318.697891
 30
0.0
 11
160.0
 21
-178.75
 31
0.0
  0
LINE
  5
2261
330
1E
100
AcDbEntity
  8
16
100
AcDbLine
 10
0.0
 20
-318.697891
 30
0.0
 11
0.0
 21
-178.75
 31
0.0
  0
MTEXT
  5
51E6
330
1E
100
AcDbEntity
  8
30
  6
Continuous
100
AcDbMText
 10
-33.85666320879073
 20
65.20090782807191
 30
0.0
 40
3.535533
 41
0.0
 71
     4
 72
     1
  1
%%C4.9
  7
MX_NOTE_STANDARD
 73
     1
 44
1.0
  0
LEADER
  5
51E7
330
1E
100
AcDbEntity
  8
30
  6
Continuous
100
AcDbLeader
  3
STANDARD
 71
     0
 74
     0
 76
     3
 10
-12.500016
 20
41.99993999999995
 30
0.0
 10
-20.07567199999998
 20
62.38897499999993
 30
0.0
 10
-35.6474660910914
 20
62.38897499999993
 30
0.0
  0
LINE
  5
588A
330
1E
100
AcDbEntity
  8
24
  6
DASHDOT
100
AcDbLine
 10
20.0
 20
196.0
 30
0.0
 11
30.0
 21
196.0
 31
0.0
  0
LINE
  5
588B
330
1E
100
AcDbEntity
  8
24
  6
DASHDOT
100
AcDbLine
 10
20.5
 20
194.5999999999999
 30
0.0
 11
29.5
 21
194.5999999999999
 31
0.0
  0
LINE
  5
588C
330
1E
100
AcDbEntity
  8
24
  6
DASHDOT
100
AcDbLine
 10
20.0
 20
198.0
 30
0.0
 11
30.0
 21
198.0
 31
0.0
  0
LINE
  5
588D
330
1E
100
AcDbEntity
  8
24
  6
DASHDOT
100
AcDbLine
 10
20.11819200000001
 20
193.5999999999999
 30
0.0
 11
30.11819200000001
 21
193.5999999999999
 31
0.0
  0
ARC
  5
588E
330
1E
100
AcDbEntity
  8
24
  6
DASHDOT
100
AcDbCircle
 10
25.11819200000001
 20
202.2999999999999
 30
0.0
 40
12.0
100
AcDbArc
 50
254.58
 51
285.5199999999999
  0
LINE
  5
58A3
330
1E
100
AcDbEntity
  8
17
  6
DASHDOT
100
AcDbLine
 10
20.0
 20
157.0
 30
0.0
 11
20.0
 21
198.0
 31
0.0
  0
LINE
  5
58A9
330
1E
100
AcDbEntity
  8
24
  6
DASHDOT
100
AcDbLine
 10
20.5
 20
196.0
 30
0.0
 11
20.5
 21
194.5999999999999
 31
0.0
  0
ARC
  5
58AA
330
1E
100
AcDbEntity
  8
24
  6
DASHDOT
100
AcDbCircle
 10
22.33819200000005
 20
192.2799999999999
 30
0.0
 40
1.6
100
AcDbArc
 50
185.25
 51
254.58
  0
LINE
  5
58AB
330
1E
100
AcDbEntity
  8
24
  6
DASHDOT
100
AcDbLine
 10
20.61819200000001
 20
193.5999999999999
 30
0.0
 11
20.74819200000001
 21
192.1399999999998
 31
0.0
  0
LINE
  5
58AC
330
1E
100
AcDbEntity
  8
24
  6
DASHDOT
100
AcDbLine
 10
20.11819200000001
 20
193.5999999999999
 30
0.0
 11
20.11819200000001
 21
194.5999999999999
 31
0.0
  0
LINE
  5
58AE
330
1E
100
AcDbEntity
  8
17
  6
DASHDOT
100
AcDbLine
 10
30.0
 20
157.0
 30
0.0
 11
30.0
 21
198.0
 31
0.0
  0
ARC
  5
58B2
330
1E
100
AcDbEntity
  8
24
  6
DASHDOT
100
AcDbCircle
 10
27.89819199999999
 20
192.2799999999999
 30
0.0
 40
1.6
100
AcDbArc
 50
285.5199999999999
 51
354.8399999999998
  0
LINE
  5
58B3
330
1E
100
AcDbEntity
  8
24
  6
DASHDOT
100
AcDbLine
 10
29.61819200000002
 20
193.5999999999999
 30
0.0
 11
29.48819200000002
 21
192.1399999999998
 31
0.0
  0
LINE
  5
58B4
330
1E
100
AcDbEntity
  8
24
  6
DASHDOT
100
AcDbLine
 10
29.5
 20
194.5999999999999
 30
0.0
 11
29.5
 21
196.0
 31
0.0
  0
LINE
  5
58B5
330
1E
100
AcDbEntity
  8
24
  6
DASHDOT
100
AcDbLine
 10
30.11819200000001
 20
193.5999999999999
 30
0.0
 11
30.11819200000001
 21
194.5999999999999
 31
0.0
  0
TEXT
  5
59A5
330
1E
100
AcDbEntity
  8
19
  6
Continuous
100
AcDbText
 10
165.3782574920217
 20
221.044844108861
 30
0.0
 40
5.0
  1
FC-50HET 3P
  7
STANDARD1
100
AcDbText
  0
DIMENSION
  5
59A6
330
1E
100
AcDbEntity
  8
30
  6
Continuous
100
AcDbDimension
  2
*D4
 10
199.7491769457498
 20
157.814895586841
 30
0.0
 11
199.7491769457498
 21
161.3148960868409
 31
0.0
 70
   160
  1
<>
 71
     5
 42
7.000000999999997
  3
STANDARD
100
AcDbAlignedDimension
 13
190.8913399457498
 23
164.814896586841
 33
0.0
 14
190.6413399457498
 24
157.814895586841
 34
0.0
 50
90.0
100
AcDbRotatedDimension
  0
DIMENSION
  5
59A7
330
1E
100
AcDbEntity
  8
30
  6
Continuous
100
AcDbDimension
  2
*D2
 10
181.9269454205476
 20
162.3475602770374
 30
0.0
 11
204.4283863673141
 21
193.842494835158
 31
0.0
 70
   163
  1
<>
 71
     5
 42
5.499999580648988
  3
STANDARD
100
AcDbDiametricDimension
 15
184.3557334709515
 25
167.2822318966443
 35
0.0
 40
0.0
  0
LINE
  5
59A8
330
1E
100
AcDbEntity
  8
24
100
AcDbLine
 10
175.6413399457498
 20
157.814895586841
 30
0.0
 11
175.6413399457498
 21
187.190979586841
 31
0.0
  0
LINE
  5
59A9
330
1E
100
AcDbEntity
  8
24
100
AcDbLine
 10
190.6413399457498
 20
157.814895586841
 30
0.0
 11
190.6413399457498
 21
187.190979586841
 31
0.0
  0
CIRCLE
  5
59AA
330
1E
100
AcDbEntity
  8
24
100
AcDbCircle
 10
183.1413399457498
 20
164.814896586841
 30
0.0
 40
2.75
  0
LINE
  5
59AB
330
1E
100
AcDbEntity
  8
17
  6
DASHDOT
100
AcDbLine
 10
183.1413399457498
 20
172.5648965868409
 30
0.0
 11
183.1413399457498
 21
157.0648965868409
 31
0.0
  0
DIMENSION
  5
59AC
330
1E
100
AcDbEntity
  8
30
  6
Continuous
100
AcDbDimension
  2
*D3
 10
175.6413399457498
 20
149.221807886383
 30
0.0
 11
183.1413399457498
 21
144.8862884303096
 31
0.0
 70
   160
  1
max<>
 71
     5
 42
15.0
  3
STANDARD
100
AcDbAlignedDimension
 13
190.6413399457498
 23
157.814895586841
 33
0.0
 14
175.6413399457498
 24
157.814895586841
 34
0.0
 50
180.0
100
AcDbRotatedDimension
1001
ACAD
1000
DSTYLE
1002
{
1070
   279
1070
     2
1002
}
  0
MTEXT
  5
59AD
330
1E
100
AcDbEntity
  8
19
  6
Continuous
100
AcDbMText
 10
177.4250468928706
 20
135.8261932220274
 30
0.0
 40
5.0
 41
0.0
 71
     1
 72
     1
  1
\W0.879;\A1;t≦4
  7
STANDARD1
 73
     1
 44
1.0
  0
LINE
  5
59AE
330
1E
100
AcDbEntity
  8
24
100
AcDbLine
 10
175.6413399457498
 20
157.814895586841
 30
0.0
 11
190.6413399457498
 21
157.814895586841
 31
0.0
  0
LINE
  5
59AF
330
1E
100
AcDbEntity
  8
17
  6
DASHDOT
100
AcDbLine
 10
175.3913399457498
 20
164.814896586841
 30
0.0
 11
190.8913399457498
 21
164.814896586841
 31
0.0
  0
DIMENSION
  5
600C
330
1E
100
AcDbEntity
  8
30
  6
Continuous
100
AcDbDimension
  2
*D6
 10
65.70401599999998
 20
-49.95000200000004
 30
0.0
 11
65.70401600000001
 21
0.2500009999999442
 31
0.0
 70
   160
  1
<>
 71
     5
 42
99.950003
  3
STANDARD
100
AcDbAlignedDimension
 13
35.69987899999999
 23
50.00000099999994
 33
0.0
 14
35.69987800000001
 24
-49.95000200000003
 34
0.0
 50
90.0
100
AcDbRotatedDimension
  0
DIMENSION
  5
600E
330
1E
100
AcDbEntity
  8
30
  6
Continuous
100
AcDbDimension
  2
*D7
 10
56.51275400000002
 20
-42.00000100000006
 30
0.0
 11
56.51275400000002
 21
-21.0
 31
0.0
 70
   160
  1
<>
 71
     5
 42
42.00000100000004
  3
STANDARD
100
AcDbAlignedDimension
 13
41.71915799999999
 23
0.0
 33
0.0
 14
31.07499700000001
 24
-42.00000100000004
 34
0.0
 50
90.0
100
AcDbRotatedDimension
  0
DIMENSION
  5
600F
330
1E
100
AcDbEntity
  8
30
  6
Continuous
100
AcDbDimension
  2
*D8
 10
56.51275400000002
 20
-0.0000000000000042
 30
0.0
 11
56.51275400000002
 21
20.0
 31
0.0
 70
   160
  1
<>
 71
     5
 42
40.0
  3
STANDARD
100
AcDbAlignedDimension
 13
31.07499700000001
 23
40.0
 33
0.0
 14
41.71915799999999
 24
0.0
 34
0.0
 50
90.0
100
AcDbRotatedDimension
  0
DIMENSION
  5
6012
330
1E
100
AcDbEntity
  8
30
  6
Continuous
100
AcDbDimension
  2
*D9
 10
65.70401600000001
 20
50.00000099999994
 30
0.0
 11
65.70401600000001
 21
75.20000099999993
 31
0.0
 70
   160
  1
<>
 71
     5
 42
49.95
  3
STANDARD
100
AcDbAlignedDimension
 13
14.70005999999998
 23
99.95000099999996
 33
0.0
 14
35.69987899999999
 24
50.00000099999994
 34
0.0
 50
90.0
100
AcDbRotatedDimension
  0
DIMENSION
  5
6041
330
1E
100
AcDbEntity
  8
30
  6
Continuous
100
AcDbDimension
  2
*D13
 10
-48.23976599999998
 20
24.99996999999996
 30
0.0
 11
-48.23976599999999
 21
-0.0000320000000329
 31
0.0
 70
   160
  1
<>
 71
     5
 42
50.00000199999998
  3
STANDARD
100
AcDbAlignedDimension
 13
-35.00003099999999
 23
-25.00003200000003
 33
0.0
 14
-35.00003099999999
 24
24.99996999999996
 34
0.0
 50
90.0
100
AcDbRotatedDimension
  0
DIMENSION
  5
6042
330
1E
100
AcDbEntity
  8
30
  6
Continuous
100
AcDbDimension
  2
*D14
 10
-57.33408699999998
 20
41.99993999999999
 30
0.0
 11
-57.33408699999999
 21
-0.0054860000000758
 31
0.0
 70
   160
  1
<>
 71
     5
 42
84.01085400000003
  3
STANDARD
100
AcDbAlignedDimension
 13
8.600002000000017
 23
-42.01091400000003
 33
0.0
 14
-15.95001599999999
 24
41.99993999999997
 34
0.0
 50
90.0
100
AcDbRotatedDimension
  0
LINE
  5
6046
330
1E
100
AcDbEntity
  8
18
  6
DIVIDE
100
AcDbLine
 10
12.700061
 20
99.95000099999996
 30
0.0
 11
12.700061
 21
46.25000099999993
 31
0.0
  0
LINE
  5
6047
330
1E
100
AcDbEntity
  8
18
  6
DIVIDE
100
AcDbLine
 10
14.70006099999999
 20
99.95000099999996
 30
0.0
 11
14.70006099999999
 21
46.25000099999993
 31
0.0
  0
LINE
  5
6048
330
1E
100
AcDbEntity
  8
18
  6
DIVIDE
100
AcDbLine
 10
-12.30006199999999
 20
99.95000099999996
 30
0.0
 11
-12.30006199999999
 21
46.25000099999993
 31
0.0
  0
LINE
  5
6049
330
1E
100
AcDbEntity
  8
18
  6
DIVIDE
100
AcDbLine
 10
-10.30006199999998
 20
99.95000099999996
 30
0.0
 11
-10.30006199999998
 21
46.25000099999993
 31
0.0
  0
LINE
  5
604A
330
1E
100
AcDbEntity
  8
10
  6
Continuous
100
AcDbLine
 10
11.89993899999999
 20
46.26020599999998
 30
0.0
 11
11.89993899999999
 21
50.00000099999994
 31
0.0
  0
LINE
  5
604B
330
1E
100
AcDbEntity
  8
10
  6
Continuous
100
AcDbLine
 10
-13.10006199999999
 20
46.26020999999989
 30
0.0
 11
-13.10006199999999
 21
50.00000099999994
 31
0.0
  0
LINE
  5
604C
330
1E
100
AcDbEntity
  8
10
  6
Continuous
100
AcDbLine
 10
-32.500062
 20
50.00000099999994
 30
0.0
 11
-32.500062
 21
33.69999999999999
 31
0.0
  0
LINE
  5
604D
330
1E
100
AcDbEntity
  8
10
  6
Continuous
100
AcDbLine
 10
-35.700001
 20
46.25000099999993
 30
0.0
 11
-35.700001
 21
50.00000099999994
 31
0.0
  0
LINE
  5
604E
330
1E
100
AcDbEntity
  8
10
  6
Continuous
100
AcDbLine
 10
35.69987800000001
 20
46.25000099999993
 30
0.0
 11
35.69987800000001
 21
50.00000099999994
 31
0.0
  0
LINE
  5
604F
330
1E
100
AcDbEntity
  8
10
  6
Continuous
100
AcDbLine
 10
-9.500061999999999
 20
44.66645799999992
 30
0.0
 11
-9.500061999999999
 21
50.00000099999994
 31
0.0
  0
LINE
  5
6050
330
1E
100
AcDbEntity
  8
10
  6
Continuous
100
AcDbLine
 10
15.49993899999999
 20
44.66647799999992
 30
0.0
 11
15.49993899999999
 21
50.00000099999994
 31
0.0
  0
LINE
  5
6051
330
1E
100
AcDbEntity
  8
10
  6
Continuous
100
AcDbLine
 10
-17.500062
 20
33.69999999999999
 30
0.0
 11
-17.500062
 21
50.00000099999994
 31
0.0
  0
LINE
  5
6052
330
1E
100
AcDbEntity
  8
10
  6
Continuous
100
AcDbLine
 10
17.49993899999999
 20
50.00000099999994
 30
0.0
 11
17.49993899999999
 21
33.69999999999999
 31
0.0
  0
LINE
  5
6053
330
1E
100
AcDbEntity
  8
10
  6
Continuous
100
AcDbLine
 10
-7.500061999999998
 20
50.00000099999994
 30
0.0
 11
-7.500061999999998
 21
33.69999999999999
 31
0.0
  0
LINE
  5
6054
330
1E
100
AcDbEntity
  8
10
  6
Continuous
100
AcDbLine
 10
32.49993900000001
 20
50.00000099999994
 30
0.0
 11
32.49993900000001
 21
33.69999999999999
 31
0.0
  0
LINE
  5
6055
330
1E
100
AcDbEntity
  8
10
  6
Continuous
100
AcDbLine
 10
7.499938999999997
 20
33.69999999999999
 30
0.0
 11
7.499938999999997
 21
50.00000099999994
 31
0.0
  0
DIMENSION
  5
6059
330
1E
100
AcDbEntity
  8
30
  6
Continuous
100
AcDbDimension
  2
*D15
 10
-25.00001599999999
 20
-61.31171800000004
 30
0.0
 11
-0.0000149999999906
 21
-61.31171800000004
 31
0.0
 70
   160
  1
<>
 71
     5
 42
50.00000099999998
  3
STANDARD
100
AcDbAlignedDimension
 13
24.99998499999999
 23
-48.07501300000007
 33
0.0
 14
-25.00001599999999
 24
-48.07501300000007
 34
0.0
100
AcDbRotatedDimension
  0
DIMENSION
  5
605A
330
1E
100
AcDbEntity
  8
30
  6
Continuous
100
AcDbDimension
  2
*D16
 10
-36.00003199999999
 20
-69.49052100000002
 30
0.0
 11
-0.0000449999999859
 21
-69.49052100000002
 31
0.0
 70
   160
  1
<>
 71
     5
 42
71.999971
  3
STANDARD
100
AcDbAlignedDimension
 13
35.99993900000001
 23
-24.00003100000003
 33
0.0
 14
-36.00003199999999
 24
-24.00003100000003
 34
0.0
100
AcDbRotatedDimension
  0
DIMENSION
  5
605B
330
1E
100
AcDbEntity
  8
30
  6
Continuous
100
AcDbDimension
  2
*D17
 10
-37.50004699999998
 20
-78.70399800000001
 30
0.0
 11
-0.0000529999999941
 21
-78.70399800000001
 31
0.0
 70
   160
  1
<>
 71
     5
 42
74.99998600000002
  3
STANDARD
100
AcDbAlignedDimension
 13
37.49993900000001
 23
-46.25000300000005
 33
0.0
 14
-37.50004699999998
 24
-46.25000300000005
 34
0.0
100
AcDbRotatedDimension
  0
LINE
  5
605C
330
1E
100
AcDbEntity
  8
10
  6
Continuous
100
AcDbLine
 10
-7.500061999999998
 20
-49.95000200000003
 30
0.0
 11
7.499938999999997
 21
-49.95000200000003
 31
0.0
  0
LINE
  5
605D
330
1E
100
AcDbEntity
  8
10
  6
Continuous
100
AcDbLine
 10
-35.00003199999999
 20
-25.00003200000003
 30
0.0
 11
34.99993900000001
 21
-25.00003200000003
 31
0.0
  0
LINE
  5
605E
330
1E
100
AcDbEntity
  8
10
  6
Continuous
100
AcDbLine
 10
7.499938999999997
 20
-33.70000900000007
 30
0.0
 11
-7.500061999999998
 21
-33.70000900000007
 31
0.0
  0
LINE
  5
605F
330
1E
100
AcDbEntity
  8
10
  6
Continuous
100
AcDbLine
 10
7.499938999999997
 20
33.69999999999999
 30
0.0
 11
-7.500061999999998
 21
33.69999999999999
 31
0.0
  0
LINE
  5
6060
330
1E
100
AcDbEntity
  8
10
  6
Continuous
100
AcDbLine
 10
34.99997000000002
 20
24.99996999999996
 30
0.0
 11
-35.00003199999999
 21
24.99996999999996
 31
0.0
  0
LINE
  5
6061
330
1E
100
AcDbEntity
  8
10
  6
Continuous
100
AcDbLine
 10
5.353098000000017
 20
17.27753199999995
 30
0.0
 11
-5.264327999999991
 21
17.27753199999995
 31
0.0
  0
LINE
  5
6062
330
1E
100
AcDbEntity
  8
10
  6
Continuous
100
AcDbLine
 10
4.300000000000011
 20
21.38531799999991
 30
0.0
 11
-4.300007999999991
 21
21.38531799999991
 31
0.0
  0
LINE
  5
6063
330
1E
100
AcDbEntity
  8
10
  6
Continuous
100
AcDbLine
 10
-6.500007999999994
 20
3.900029999999958
 30
0.0
 11
6.500006999999996
 21
3.900029999999958
 31
0.0
  0
LINE
  5
6064
330
1E
100
AcDbEntity
  8
10
  6
Continuous
100
AcDbLine
 10
-6.500007999999994
 20
0.7500299999999811
 30
0.0
 11
6.500006999999996
 21
0.7500299999999811
 31
0.0
  0
LINE
  5
6065
330
1E
100
AcDbEntity
  8
10
  6
Continuous
100
AcDbLine
 10
-6.050007999999992
 20
9.279080999999962
 30
0.0
 11
6.050000000000012
 21
9.279080999999962
 31
0.0
  0
LINE
  5
6066
330
1E
100
AcDbEntity
  8
10
  6
Continuous
100
AcDbLine
 10
10.0
 20
24.0
 30
0.0
 11
-10.0
 21
24.0
 31
0.0
  0
LINE
  5
6067
330
1E
100
AcDbEntity
  8
10
  6
Continuous
100
AcDbLine
 10
10.0
 20
-24.0
 30
0.0
 11
-10.0
 21
-24.0
 31
0.0
  0
LINE
  5
6069
330
1E
100
AcDbEntity
  8
17
  6
DASHDOT
100
AcDbLine
 10
-6.074997999999991
 20
40.0
 30
0.0
 11
6.074997000000009
 21
40.0
 31
0.0
  0
LINE
  5
606A
330
1E
100
AcDbEntity
  8
10
  6
Continuous
100
AcDbLine
 10
-6.074997999999991
 20
-42.00000100000004
 30
0.0
 11
6.074997000000009
 21
-42.00000100000004
 31
0.0
  0
LINE
  5
606B
330
1E
100
AcDbEntity
  8
10
  6
Continuous
100
AcDbLine
 10
-37.50004699999998
 20
46.25000099999993
 30
0.0
 11
-37.50004699999998
 21
-46.25000200000001
 31
0.0
  0
LINE
  5
606C
330
1E
100
AcDbEntity
  8
10
  6
Continuous
100
AcDbLine
 10
-11.00004699999999
 20
24.64641599999993
 30
0.0
 11
-11.00004699999999
 21
-24.64647800000006
 31
0.0
  0
LINE
  5
606D
330
1E
100
AcDbEntity
  8
10
  6
Continuous
100
AcDbLine
 10
-36.00003199999999
 20
23.99996999999996
 30
0.0
 11
-36.00003199999999
 21
-24.00003200000003
 31
0.0
  0
LINE
  5
606E
330
1E
100
AcDbEntity
  8
10
  6
Continuous
100
AcDbLine
 10
-10.0
 20
24.0
 30
0.0
 11
-10.0
 21
-24.0
 31
0.0
  0
LINE
  5
606F
330
1E
100
AcDbEntity
  8
10
  6
Continuous
100
AcDbLine
 10
-32.500062
 20
-49.95000200000003
 30
0.0
 11
-17.500062
 21
-49.95000200000003
 31
0.0
  0
LINE
  5
6070
330
1E
100
AcDbEntity
  8
10
  6
Continuous
100
AcDbLine
 10
-17.500062
 20
-33.70000900000007
 30
0.0
 11
-32.500062
 21
-33.70000900000007
 31
0.0
  0
LINE
  5
6071
330
1E
100
AcDbEntity
  8
17
  6
DASHDOT
100
AcDbLine
 10
-31.07499799999999
 20
-42.00000100000004
 30
0.0
 11
-18.92500399999997
 21
-42.00000100000004
 31
0.0
  0
LINE
  5
6072
330
1E
100
AcDbEntity
  8
10
  6
Continuous
100
AcDbLine
 10
-32.500062
 20
-49.95000200000003
 30
0.0
 11
-32.500062
 21
-33.70000900000007
 31
0.0
  0
LINE
  5
6073
330
1E
100
AcDbEntity
  8
10
  6
Continuous
100
AcDbLine
 10
-35.700001
 20
-46.25000200000001
 30
0.0
 11
-35.700001
 21
-49.95000200000003
 31
0.0
  0
LINE
  5
6074
330
1E
100
AcDbEntity
  8
10
  6
Continuous
100
AcDbLine
 10
-35.700001
 20
-49.95000200000003
 30
0.0
 11
-32.500062
 21
-49.95000200000003
 31
0.0
  0
LINE
  5
6075
330
1E
100
AcDbEntity
  8
10
  6
Continuous
100
AcDbLine
 10
-32.500062
 20
-37.90003300000003
 30
0.0
 11
-37.50004699999998
 21
-37.90003300000003
 31
0.0
  0
LINE
  5
6076
330
1E
100
AcDbEntity
  8
10
  6
Continuous
100
AcDbLine
 10
-35.69987899999999
 20
-47.20000000000001
 30
0.0
 11
-32.49993999999998
 21
-47.20000000000001
 31
0.0
  0
LINE
  5
6077
330
1E
100
AcDbEntity
  8
10
  6
Continuous
100
AcDbLine
 10
-35.700001
 20
-46.25000200000001
 30
0.0
 11
-37.50004699999998
 21
-46.25000200000001
 31
0.0
  0
ARC
  5
6078
330
1E
100
AcDbEntity
  8
10
  6
Continuous
100
AcDbCircle
 10
-35.00003199999999
 20
-24.00003200000003
 30
0.0
 40
1.0
100
AcDbArc
 50
179.999996999999
 51
270.0
  0
LINE
  5
6079
330
1E
100
AcDbEntity
  8
17
  6
DASHDOT
100
AcDbLine
 10
-25.00001599999999
 20
-35.92498900000004
 30
0.0
 11
-25.00001599999999
 21
-48.07501400000004
 31
0.0
  0
LINE
  5
607A
330
1E
100
AcDbEntity
  8
10
  6
Continuous
100
AcDbLine
 10
-7.500061999999998
 20
-33.70000900000007
 30
0.0
 11
-7.500061999999998
 21
-49.95000200000003
 31
0.0
  0
LINE
  5
607B
330
1E
100
AcDbEntity
  8
10
  6
Continuous
100
AcDbLine
 10
-17.500062
 20
-49.95000200000003
 30
0.0
 11
-17.500062
 21
-33.70000900000007
 31
0.0
  0
LINE
  5
607C
330
1E
100
AcDbEntity
  8
10
  6
Continuous
100
AcDbLine
 10
-11.90007699999998
 20
-46.26023800000006
 30
0.0
 11
-11.90007699999998
 21
-49.95000200000003
 31
0.0
  0
LINE
  5
607D
330
1E
100
AcDbEntity
  8
10
  6
Continuous
100
AcDbLine
 10
-15.50007699999999
 20
-44.66631900000002
 30
0.0
 11
-15.50007699999999
 21
-49.95000200000003
 31
0.0
  0
LINE
  5
607E
330
1E
100
AcDbEntity
  8
10
  6
Continuous
100
AcDbLine
 10
-11.90007699999998
 20
-49.95000200000003
 30
0.0
 11
-7.500061999999998
 21
-49.95000200000003
 31
0.0
  0
LINE
  5
607F
330
1E
100
AcDbEntity
  8
10
  6
Continuous
100
AcDbLine
 10
-17.500062
 20
-49.95000200000003
 30
0.0
 11
-15.50007699999999
 21
-49.95000200000003
 31
0.0
  0
LINE
  5
6080
330
1E
100
AcDbEntity
  8
10
  6
Continuous
100
AcDbLine
 10
-7.500061999999998
 20
-37.90003300000003
 30
0.0
 11
-17.500062
 21
-37.90003300000003
 31
0.0
  0
ARC
  5
6081
330
1E
100
AcDbEntity
  8
10
  6
Continuous
100
AcDbCircle
 10
-12.50001599999998
 20
-41.99994000000006
 30
0.0
 40
3.9
100
AcDbArc
 50
284.476691
 51
217.3004790000006
  0
LINE
  5
6082
330
1E
100
AcDbEntity
  8
10
  6
Continuous
100
AcDbLine
 10
-10.0
 20
-24.0
 30
0.0
 11
-11.0
 21
-24.57735100000007
 31
0.0
  0
LINE
  5
6083
330
1E
100
AcDbEntity
  8
10
  6
Continuous
100
AcDbLine
 10
-15.50007699999999
 20
-46.25000200000001
 30
0.0
 11
-11.90007699999998
 21
-46.25000200000001
 31
0.0
  0
ARC
  5
6084
330
1E
100
AcDbEntity
  8
10
  6
Continuous
100
AcDbCircle
 10
-16.00007699999999
 20
-44.66631900000002
 30
0.0
 40
0.5
100
AcDbArc
 50
0.0
 51
37.30047900000063
  0
ARC
  5
6085
330
1E
100
AcDbEntity
  8
10
  6
Continuous
100
AcDbCircle
 10
-11.40007699999998
 20
-46.26023800000006
 30
0.0
 40
0.5
100
AcDbArc
 50
104.476691
 51
180.0
  0
ARC
  5
6086
330
1E
100
AcDbEntity
  8
10
  6
Continuous
100
AcDbCircle
 10
-10.64649299999999
 20
-24.64647800000006
 30
0.0
 40
0.353553
100
AcDbArc
 50
180.0
 51
270.0
  0
LINE
  5
6087
330
1E
100
AcDbEntity
  8
10
  6
Continuous
100
AcDbLine
 10
-17.500062
 20
33.69999999999999
 30
0.0
 11
-32.500062
 21
33.69999999999999
 31
0.0
  0
LINE
  5
6088
330
1E
100
AcDbEntity
  8
17
  6
DASHDOT
100
AcDbLine
 10
-31.07499799999999
 20
40.0
 30
0.0
 11
-18.92500399999997
 21
40.0
 31
0.0
  0
LINE
  5
608A
330
1E
100
AcDbEntity
  8
10
  6
Continuous
100
AcDbLine
 10
-32.500062
 20
37.89996399999995
 30
0.0
 11
-37.50004699999998
 21
37.89996399999995
 31
0.0
  0
LINE
  5
608B
330
1E
100
AcDbEntity
  8
10
  6
Continuous
100
AcDbLine
 10
-35.69987899999999
 20
47.19999999999997
 30
0.0
 11
-32.49993999999998
 21
47.19999999999997
 31
0.0
  0
ARC
  5
608C
330
1E
100
AcDbEntity
  8
10
  6
Continuous
100
AcDbCircle
 10
-35.00003199999999
 20
23.99996999999996
 30
0.0
 40
1.0
100
AcDbArc
 50
90.0
 51
179.999996999999
  0
LINE
  5
608D
330
1E
100
AcDbEntity
  8
10
  6
Continuous
100
AcDbLine
 10
-35.700001
 20
46.25000099999993
 30
0.0
 11
-37.50004699999998
 21
46.25000099999993
 31
0.0
  0
LINE
  5
608E
330
1E
100
AcDbEntity
  8
17
  6
DASHDOT
100
AcDbLine
 10
-25.00001599999999
 20
47.13567199999993
 30
0.0
 11
-25.00001599999999
 21
33.23142599999994
 31
0.0
  0
LINE
  5
608F
330
1E
100
AcDbEntity
  8
10
  6
Continuous
100
AcDbLine
 10
-6.050007999999992
 20
19.63531799999992
 30
0.0
 11
-6.050007999999992
 21
3.900029999999958
 31
0.0
  0
LINE
  5
6090
330
1E
100
AcDbEntity
  8
10
  6
Continuous
100
AcDbLine
 10
-6.500007999999994
 20
18.25002999999998
 30
0.0
 11
-6.500007999999994
 21
0.7500299999999811
 31
0.0
  0
LINE
  5
6091
330
1E
100
AcDbEntity
  8
10
  6
Continuous
100
AcDbLine
 10
-6.500007999999994
 20
15.10002999999993
 30
0.0
 11
-6.050007999999992
 21
15.10002999999993
 31
0.0
  0
LINE
  5
6092
330
1E
100
AcDbEntity
  8
10
  6
Continuous
100
AcDbLine
 10
-13.10006199999999
 20
46.25000099999993
 30
0.0
 11
-9.500061999999999
 21
46.25000099999993
 31
0.0
  0
LINE
  5
6093
330
1E
100
AcDbEntity
  8
10
  6
Continuous
100
AcDbLine
 10
-7.500061999999998
 20
37.89996399999995
 30
0.0
 11
-17.500062
 21
37.89996399999995
 31
0.0
  0
ARC
  5
6094
330
1E
100
AcDbEntity
  8
10
  6
Continuous
100
AcDbCircle
 10
-12.50001599999998
 20
41.99993999999997
 30
0.0
 40
3.9
100
AcDbArc
 50
104.4781280000003
 51
37.30277299999978
  0
CIRCLE
  5
6095
330
1E
100
AcDbEntity
  8
12
  6
DASHED
100
AcDbCircle
 10
-12.50001599999998
 20
41.99993999999997
 30
0.0
 40
2.45
  0
LINE
  5
6096
330
1E
100
AcDbEntity
  8
10
  6
Continuous
100
AcDbLine
 10
-10.0
 20
24.0
 30
0.0
 11
-11.0
 21
24.57734999999996
 31
0.0
  0
LINE
  5
6097
330
1E
100
AcDbEntity
  8
12
  6
DASHED
100
AcDbLine
 10
-9.050015999999985
 20
41.99993999999997
 30
0.0
 11
-15.95001599999999
 21
41.99993999999997
 31
0.0
  0
ARC
  5
6098
330
1E
100
AcDbEntity
  8
10
  6
Continuous
100
AcDbCircle
 10
-10.64649299999999
 20
24.64641599999993
 30
0.0
 40
0.353553
100
AcDbArc
 50
90.0
 51
180.0
  0
LINE
  5
6099
330
1E
100
AcDbEntity
  8
12
  6
DASHED
100
AcDbLine
 10
-12.50001599999998
 20
45.44993999999997
 30
0.0
 11
-12.50001599999998
 21
38.54993999999992
 31
0.0
  0
ARC
  5
609A
330
1E
100
AcDbEntity
  8
10
  6
Continuous
100
AcDbCircle
 10
-13.60006199999999
 20
46.26020999999989
 30
0.0
 40
0.5
100
AcDbArc
 50
284.4781280000002
 51
0.0000010000014034
  0
ARC
  5
609B
330
1E
100
AcDbEntity
  8
10
  6
Continuous
100
AcDbCircle
 10
-4.300007999999991
 20
19.63531799999992
 30
0.0
 40
1.75
100
AcDbArc
 50
90.0
 51
180.0
  0
LINE
  5
609C
330
1E
100
AcDbEntity
  8
10
  6
Continuous
100
AcDbLine
 10
-6.500007999999994
 20
18.25002999999998
 30
0.0
 11
-6.050007999999992
 21
18.25002999999998
 31
0.0
  0
ARC
  5
609D
330
1E
100
AcDbEntity
  8
10
  6
Continuous
100
AcDbCircle
 10
-9.000061999999998
 20
44.66645799999992
 30
0.0
 40
0.5
100
AcDbArc
 50
180.0000010000013
 51
217.3027729999998
  0
LINE
  5
609E
330
1E
100
AcDbEntity
  8
10
  6
Continuous
100
AcDbLine
 10
35.99993900000001
 20
23.99996999999996
 30
0.0
 11
35.99993900000001
 21
-24.00003200000003
 31
0.0
  0
LINE
  5
609F
330
1E
100
AcDbEntity
  8
10
  6
Continuous
100
AcDbLine
 10
37.49993900000001
 20
46.25000099999993
 30
0.0
 11
37.49993900000001
 21
-46.25000200000001
 31
0.0
  0
LINE
  5
60A0
330
1E
100
AcDbEntity
  8
10
  6
Continuous
100
AcDbLine
 10
10.99993899999999
 20
24.64641599999993
 30
0.0
 11
10.99993899999999
 21
-24.64647800000006
 31
0.0
  0
LINE
  5
60A1
330
1E
100
AcDbEntity
  8
10
  6
Continuous
100
AcDbLine
 10
10.0
 20
24.0
 30
0.0
 11
10.0
 21
-24.0
 31
0.0
  0
LINE
  5
60A8
330
1E
100
AcDbEntity
  8
10
  6
Continuous
100
AcDbLine
 10
17.49993899999999
 20
-49.95000200000003
 30
0.0
 11
33.49993900000001
 21
-49.95000200000003
 31
0.0
  0
LINE
  5
60A9
330
1E
100
AcDbEntity
  8
10
  6
Continuous
100
AcDbLine
 10
32.49993900000001
 20
-33.70000900000007
 30
0.0
 11
17.49993899999999
 21
-33.70000900000007
 31
0.0
  0
LINE
  5
60AA
330
1E
100
AcDbEntity
  8
17
  6
DASHDOT
100
AcDbLine
 10
18.92500300000001
 20
-42.00000100000004
 30
0.0
 11
31.07499700000001
 21
-42.00000100000004
 31
0.0
  0
LINE
  5
60AD
330
1E
100
AcDbEntity
  8
10
  6
Continuous
100
AcDbLine
 10
17.49993899999999
 20
-33.70000900000007
 30
0.0
 11
17.49993899999999
 21
-49.95000200000003
 31
0.0
  0
LINE
  5
60AE
330
1E
100
AcDbEntity
  8
10
  6
Continuous
100
AcDbLine
 10
7.499938999999997
 20
-49.95000200000003
 30
0.0
 11
7.499938999999997
 21
-33.70000900000007
 31
0.0
  0
LINE
  5
60AF
330
1E
100
AcDbEntity
  8
10
  6
Continuous
100
AcDbLine
 10
9.499938999999995
 20
-44.66631900000002
 30
0.0
 11
9.499938999999995
 21
-49.95000200000003
 31
0.0
  0
LINE
  5
60B0
330
1E
100
AcDbEntity
  8
10
  6
Continuous
100
AcDbLine
 10
13.099939
 20
-46.26023800000006
 30
0.0
 11
13.099939
 21
-49.95000200000003
 31
0.0
  0
LINE
  5
60B1
330
1E
100
AcDbEntity
  8
10
  6
Continuous
100
AcDbLine
 10
7.499938999999997
 20
-49.95000200000003
 30
0.0
 11
9.499938999999995
 21
-49.95000200000003
 31
0.0
  0
LINE
  5
60B2
330
1E
100
AcDbEntity
  8
10
  6
Continuous
100
AcDbLine
 10
13.099939
 20
-49.95000200000003
 30
0.0
 11
17.49993899999999
 21
-49.95000200000003
 31
0.0
  0
LINE
  5
60B3
330
1E
100
AcDbEntity
  8
10
  6
Continuous
100
AcDbLine
 10
9.499938999999995
 20
-46.25000200000001
 30
0.0
 11
13.099939
 21
-46.25000200000001
 31
0.0
  0
LINE
  5
60B4
330
1E
100
AcDbEntity
  8
10
  6
Continuous
100
AcDbLine
 10
17.49993899999999
 20
-37.90003300000003
 30
0.0
 11
7.499938999999997
 21
-37.90003300000003
 31
0.0
  0
ARC
  5
60B5
330
1E
100
AcDbEntity
  8
10
  6
Continuous
100
AcDbCircle
 10
12.5
 20
-41.99994000000006
 30
0.0
 40
3.9
100
AcDbArc
 50
284.4766919999996
 51
217.3004790000006
  0
CIRCLE
  5
60B6
330
1E
100
AcDbEntity
  8
12
  6
DASHED
100
AcDbCircle
 10
12.5
 20
-41.99994000000006
 30
0.0
 40
2.45
  0
LINE
  5
60B7
330
1E
100
AcDbEntity
  8
12
  6
DASHED
100
AcDbLine
 10
15.95000000000001
 20
-41.99994000000006
 30
0.0
 11
9.050000000000011
 21
-41.99994000000006
 31
0.0
  0
LINE
  5
60BA
330
1E
100
AcDbEntity
  8
12
  6
DASHED
100
AcDbLine
 10
12.5
 20
-38.54994000000008
 30
0.0
 11
12.5
 21
-45.44994000000005
 31
0.0
  0
ARC
  5
60BB
330
1E
100
AcDbEntity
  8
10
  6
Continuous
100
AcDbCircle
 10
8.999938999999997
 20
-44.66631900000002
 30
0.0
 40
0.5
100
AcDbArc
 50
0.0
 51
37.30047900000063
  0
LINE
  5
60BC
330
1E
100
AcDbEntity
  8
10
  6
Continuous
100
AcDbLine
 10
8.600000000000008
 20
-41.99604700000006
 30
0.0
 11
8.600000000000008
 21
-42.01091400000003
 31
0.0
  0
ARC
  5
60BD
330
1E
100
AcDbEntity
  8
10
  6
Continuous
100
AcDbCircle
 10
10.64638499999998
 20
-24.64647800000006
 30
0.0
 40
0.353553
100
AcDbArc
 50
270.0
 51
0.0
  0
LINE
  5
60BE
330
1E
100
AcDbEntity
  8
10
  6
Continuous
100
AcDbLine
 10
10.0
 20
-24.0
 30
0.0
 11
11.0
 21
-24.57735100000007
 31
0.0
  0
ARC
  5
60BF
330
1E
100
AcDbEntity
  8
10
  6
Continuous
100
AcDbCircle
 10
13.599939
 20
-46.26023800000006
 30
0.0
 40
0.5
100
AcDbArc
 50
104.4766919999996
 51
179.9999910000003
  0
LINE
  5
60C7
330
1E
100
AcDbEntity
  8
10
  6
Continuous
100
AcDbLine
 10
32.49993900000001
 20
-49.95000200000003
 30
0.0
 11
32.49993900000001
 21
-33.70000900000007
 31
0.0
  0
LINE
  5
60C8
330
1E
100
AcDbEntity
  8
10
  6
Continuous
100
AcDbLine
 10
35.69987800000001
 20
-46.25000200000001
 30
0.0
 11
35.69987800000001
 21
-49.95000200000003
 31
0.0
  0
LINE
  5
60C9
330
1E
100
AcDbEntity
  8
10
  6
Continuous
100
AcDbLine
 10
32.49993900000001
 20
-49.95000200000003
 30
0.0
 11
35.69987800000001
 21
-49.95000200000003
 31
0.0
  0
LINE
  5
60CA
330
1E
100
AcDbEntity
  8
10
  6
Continuous
100
AcDbLine
 10
35.69987800000001
 20
-46.25000200000001
 30
0.0
 11
37.49993900000001
 21
-46.25000200000001
 31
0.0
  0
LINE
  5
60CB
330
1E
100
AcDbEntity
  8
10
  6
Continuous
100
AcDbLine
 10
37.49993900000001
 20
-37.90003300000003
 30
0.0
 11
32.49993900000001
 21
-37.90003300000003
 31
0.0
  0
ARC
  5
60CC
330
1E
100
AcDbEntity
  8
10
  6
Continuous
100
AcDbCircle
 10
34.99993900000001
 20
-24.00003200000003
 30
0.0
 40
1.0
100
AcDbArc
 50
270.0
 51
359.9999989999984
  0
LINE
  5
60CD
330
1E
100
AcDbEntity
  8
17
  6
DASHDOT
100
AcDbLine
 10
24.99998499999999
 20
-35.92498900000004
 30
0.0
 11
24.99998499999999
 21
-48.07501400000004
 31
0.0
  0
LINE
  5
60CE
330
1E
100
AcDbEntity
  8
10
  6
Continuous
100
AcDbLine
 10
35.69987800000001
 20
-47.20000000000001
 30
0.0
 11
32.49993900000001
 21
-47.20000000000001
 31
0.0
  0
LINE
  5
60CF
330
1E
100
AcDbEntity
  8
10
  6
Continuous
100
AcDbLine
 10
32.49993900000001
 20
33.69999999999999
 30
0.0
 11
17.49993899999999
 21
33.69999999999999
 31
0.0
  0
LINE
  5
60D0
330
1E
100
AcDbEntity
  8
17
  6
DASHDOT
100
AcDbLine
 10
18.92500300000001
 20
40.0
 30
0.0
 11
31.07499700000001
 21
40.0
 31
0.0
  0
LINE
  5
60D4
330
1E
100
AcDbEntity
  8
10
  6
Continuous
100
AcDbLine
 10
6.050000000000012
 20
19.63531799999992
 30
0.0
 11
6.050000000000012
 21
3.900029999999958
 31
0.0
  0
LINE
  5
60D6
330
1E
100
AcDbEntity
  8
10
  6
Continuous
100
AcDbLine
 10
6.050000000000012
 20
15.10002999999993
 30
0.0
 11
6.500006999999996
 21
15.10002999999993
 31
0.0
  0
LINE
  5
60D7
330
1E
100
AcDbEntity
  8
10
  6
Continuous
100
AcDbLine
 10
11.89993899999999
 20
46.25000099999993
 30
0.0
 11
15.49993899999999
 21
46.25000099999993
 31
0.0
  0
LINE
  5
60D8
330
1E
100
AcDbEntity
  8
10
  6
Continuous
100
AcDbLine
 10
17.49993899999999
 20
37.89996399999995
 30
0.0
 11
7.499938999999997
 21
37.89996399999995
 31
0.0
  0
ARC
  5
60D9
330
1E
100
AcDbEntity
  8
10
  6
Continuous
100
AcDbCircle
 10
12.5
 20
41.99993999999997
 30
0.0
 40
3.9
100
AcDbArc
 50
104.4783329999999
 51
37.30310200000103
  0
ARC
  5
60DC
330
1E
100
AcDbEntity
  8
10
  6
Continuous
100
AcDbCircle
 10
4.300000000000011
 20
19.63531799999992
 30
0.0
 40
1.75
100
AcDbArc
 50
0.0
 51
90.0
  0
LINE
  5
60DD
330
1E
100
AcDbEntity
  8
10
  6
Continuous
100
AcDbLine
 10
6.050000000000012
 20
18.25002999999998
 30
0.0
 11
6.500006999999996
 21
18.25002999999998
 31
0.0
  0
LINE
  5
60DE
330
1E
100
AcDbEntity
  8
10
  6
Continuous
100
AcDbLine
 10
10.0
 20
24.0
 30
0.0
 11
11.0
 21
24.57734999999996
 31
0.0
  0
ARC
  5
60DF
330
1E
100
AcDbEntity
  8
10
  6
Continuous
100
AcDbCircle
 10
10.64638499999998
 20
24.64641599999993
 30
0.0
 40
0.353553
100
AcDbArc
 50
0.0
 51
90.0
  0
ARC
  5
60E0
330
1E
100
AcDbEntity
  8
10
  6
Continuous
100
AcDbCircle
 10
11.399939
 20
46.26020599999998
 30
0.0
 40
0.5
100
AcDbArc
 50
284.4783329999998
 51
0.0
  0
ARC
  5
60E1
330
1E
100
AcDbEntity
  8
10
  6
Continuous
100
AcDbCircle
 10
15.99993899999999
 20
44.66647799999992
 30
0.0
 40
0.5
100
AcDbArc
 50
180.0
 51
217.303102000001
  0
LINE
  5
60E6
330
1E
100
AcDbEntity
  8
10
  6
Continuous
100
AcDbLine
 10
35.59995499999998
 20
-13.49985700000007
 30
0.0
 11
29.79995499999997
 21
-13.49985700000007
 31
0.0
  0
CIRCLE
  5
60E9
330
1E
100
AcDbEntity
  8
10
  6
Continuous
100
AcDbCircle
 10
32.69995499999998
 20
-13.49985700000007
 30
0.0
 40
1.9
  0
LINE
  5
60EC
330
1E
100
AcDbEntity
  8
10
  6
Continuous
100
AcDbLine
 10
32.69995499999998
 20
-10.59985700000003
 30
0.0
 11
32.69995499999998
 21
-16.39985700000005
 31
0.0
  0
LINE
  5
60EF
330
1E
100
AcDbEntity
  8
10
  6
Continuous
100
AcDbLine
 10
35.69987800000001
 20
46.25000099999993
 30
0.0
 11
37.49993900000001
 21
46.25000099999993
 31
0.0
  0
LINE
  5
60F0
330
1E
100
AcDbEntity
  8
10
  6
Continuous
100
AcDbLine
 10
37.49993900000001
 20
37.89996399999995
 30
0.0
 11
32.49993900000001
 21
37.89996399999995
 31
0.0
  0
ARC
  5
60F1
330
1E
100
AcDbEntity
  8
10
  6
Continuous
100
AcDbCircle
 10
34.99997000000002
 20
23.99996999999996
 30
0.0
 40
1.0
100
AcDbArc
 50
0.0
 51
90.0
  0
LINE
  5
60F4
330
1E
100
AcDbEntity
  8
17
  6
DASHDOT
100
AcDbLine
 10
24.99998499999999
 20
47.13567199999993
 30
0.0
 11
24.99998499999999
 21
33.23142599999994
 31
0.0
  0
LINE
  5
60F5
330
1E
100
AcDbEntity
  8
10
  6
Continuous
100
AcDbLine
 10
35.69987800000001
 20
47.19999999999997
 30
0.0
 11
32.49993900000001
 21
47.19999999999997
 31
0.0
  0
LINE
  5
60F6
330
1E
100
AcDbEntity
  8
10
  6
Continuous
100
AcDbLine
 10
-7.500061999999998
 20
50.00000099999994
 30
0.0
 11
7.499938999999997
 21
50.00000099999994
 31
0.0
  0
LINE
  5
60F8
330
1E
100
AcDbEntity
  8
10
  6
Continuous
100
AcDbLine
 10
-32.500062
 20
50.00000099999994
 30
0.0
 11
-17.500062
 21
50.00000099999994
 31
0.0
  0
LINE
  5
60F9
330
1E
100
AcDbEntity
  8
10
  6
Continuous
100
AcDbLine
 10
-35.700001
 20
50.00000099999994
 30
0.0
 11
-32.500062
 21
50.00000099999994
 31
0.0
  0
LINE
  5
60FA
330
1E
100
AcDbEntity
  8
10
  6
Continuous
100
AcDbLine
 10
-17.500062
 20
50.00000099999994
 30
0.0
 11
-13.10006199999999
 21
50.00000099999994
 31
0.0
  0
LINE
  5
60FB
330
1E
100
AcDbEntity
  8
10
  6
Continuous
100
AcDbLine
 10
-9.500061999999999
 20
50.00000099999994
 30
0.0
 11
-7.500061999999998
 21
50.00000099999994
 31
0.0
  0
LINE
  5
60FD
330
1E
100
AcDbEntity
  8
18
  6
DIVIDE
100
AcDbLine
 10
-12.30006199999999
 20
99.95000099999996
 30
0.0
 11
-10.30006199999998
 21
99.95000099999996
 31
0.0
  0
LINE
  5
60FF
330
1E
100
AcDbEntity
  8
10
  6
Continuous
100
AcDbLine
 10
17.49993899999999
 20
50.00000099999994
 30
0.0
 11
32.49993900000001
 21
50.00000099999994
 31
0.0
  0
LINE
  5
6100
330
1E
100
AcDbEntity
  8
10
  6
Continuous
100
AcDbLine
 10
7.499938999999997
 20
50.00000099999994
 30
0.0
 11
11.89993899999999
 21
50.00000099999994
 31
0.0
  0
LINE
  5
6101
330
1E
100
AcDbEntity
  8
10
  6
Continuous
100
AcDbLine
 10
15.49993899999999
 20
50.00000099999994
 30
0.0
 11
17.49993899999999
 21
50.00000099999994
 31
0.0
  0
LINE
  5
6102
330
1E
100
AcDbEntity
  8
18
  6
DIVIDE
100
AcDbLine
 10
14.70006099999999
 20
99.95000099999996
 30
0.0
 11
12.700061
 21
99.95000099999996
 31
0.0
  0
LINE
  5
6103
330
1E
100
AcDbEntity
  8
10
  6
Continuous
100
AcDbLine
 10
32.49993900000001
 20
50.00000099999994
 30
0.0
 11
35.69987800000001
 21
50.00000099999994
 31
0.0
  0
DIMENSION
  5
61C2
330
1E
100
AcDbEntity
  8
30
  6
Continuous
100
AcDbDimension
  2
*D19
 10
169.143186
 20
89.64793799999997
 30
0.0
 11
191.643186
 21
89.64793799999997
 31
0.0
 70
   160
  1
<>
 71
     5
 42
45.0
  3
STANDARD
100
AcDbAlignedDimension
 13
214.1431859999999
 23
99.75006199999995
 33
0.0
 14
169.143186
 24
99.75006199999995
 34
0.0
100
AcDbRotatedDimension
  0
DIMENSION
  5
61C3
330
1E
100
AcDbEntity
  8
30
  6
Continuous
100
AcDbDimension
  2
*D20
 10
156.6432449999998
 20
-61.31171800000004
 30
0.0
 11
186.643216
 21
-61.31171800000004
 31
0.0
 70
   160
  1
<>
 71
     5
 42
59.99994100000002
  3
STANDARD
100
AcDbAlignedDimension
 13
216.6431859999999
 23
-43.00005400000002
 33
0.0
 14
156.6432449999998
 24
-36.89997100000002
 34
0.0
100
AcDbRotatedDimension
  0
DIMENSION
  5
61C4
330
1E
100
AcDbEntity
  8
30
  6
Continuous
100
AcDbDimension
  2
*D21
 10
216.6431859999999
 20
59.27054899999996
 30
0.0
 11
195.1429899999999
 21
59.27054899999996
 31
0.0
 70
   160
  1
<>
 71
     5
 42
43.00039100000002
  3
STANDARD
100
AcDbAlignedDimension
 13
173.6427949999999
 23
45.89999999999998
 33
0.0
 14
216.6431859999999
 24
43.00005999999996
 34
0.0
100
AcDbRotatedDimension
  0
DIMENSION
  5
61C5
330
1E
100
AcDbEntity
  8
30
  6
Continuous
100
AcDbDimension
  2
*D22
 10
132.643186
 20
-69.49052100000002
 30
0.0
 11
174.643186
 21
-69.49052100000002
 31
0.0
 70
   160
  1
<>
 71
     5
 42
84.0
  3
STANDARD
100
AcDbAlignedDimension
 13
216.6431859999999
 23
-43.06257100000002
 33
0.0
 14
132.643186
 24
9.500002999999935
 34
0.0
100
AcDbRotatedDimension
  0
LINE
  5
61C6
330
1E
100
AcDbEntity
  8
30
  6
Continuous
100
AcDbLine
 10
169.143186
 20
99.75006199999995
 30
0.0
 11
214.1431859999999
 21
99.75006199999995
 31
0.0
  0
DIMENSION
  5
61C7
330
1E
100
AcDbEntity
  8
30
  6
Continuous
100
AcDbDimension
  2
*D23
 10
216.6431859999999
 20
104.2134309999999
 30
0.0
 11
191.1431999999999
 21
104.2134309999999
 31
0.0
 70
   160
  1
<>
 71
     5
 42
50.99997100000002
  3
STANDARD
100
AcDbAlignedDimension
 13
165.643215
 23
47.19999999999997
 33
0.0
 14
216.6431859999999
 24
43.00006399999995
 34
0.0
100
AcDbRotatedDimension
  0
LINE
  5
61C8
330
1E
100
AcDbEntity
  8
12
  6
DASHED
100
AcDbLine
 10
173.643186
 20
44.44999999999999
 30
0.0
 11
216.6431859999999
 21
44.44999999999999
 31
0.0
  0
LINE
  5
61C9
330
1E
100
AcDbEntity
  8
12
  6
DASHED
100
AcDbLine
 10
173.643186
 20
39.54999999999995
 30
0.0
 11
216.6431859999999
 21
39.54999999999995
 31
0.0
  0
LINE
  5
61CA
330
1E
100
AcDbEntity
  8
10
  6
Continuous
100
AcDbLine
 10
168.4431859999999
 20
-50.00000000000003
 30
0.0
 11
213.7747669999999
 21
-50.00000000000003
 31
0.0
  0
LINE
  5
61CB
330
1E
100
AcDbEntity
  8
10
  6
Continuous
100
AcDbLine
 10
168.4431859999999
 20
50.0
 30
0.0
 11
213.7747769999999
 21
50.0
 31
0.0
  0
LINE
  5
61CC
330
1E
100
AcDbEntity
  8
10
  6
Continuous
100
AcDbLine
 10
165.643186
 20
-46.25000000000002
 30
0.0
 11
216.1011039999999
 21
-46.25000000000002
 31
0.0
  0
LINE
  5
61CD
330
1E
100
AcDbEntity
  8
10
  6
Continuous
100
AcDbLine
 10
165.643186
 20
46.25
 30
0.0
 11
216.101114
 21
46.25
 31
0.0
  0
LINE
  5
61CF
330
1E
100
AcDbEntity
  8
10
  6
Continuous
100
AcDbLine
 10
165.643186
 20
47.19999999999997
 30
0.0
 11
168.4431859999999
 21
50.0
 31
0.0
  0
DIMENSION
  5
61D1
330
1E
100
AcDbEntity
  8
30
  6
Continuous
100
AcDbDimension
  2
*D24
 10
148.643186
 20
-61.31171800000004
 30
0.0
 11
152.643186
 21
-61.31171800000004
 31
0.0
 70
   160
  1
<>
 71
     5
 42
8.0
  3
STANDARD
100
AcDbAlignedDimension
 13
156.643186
 23
-37.50000000000003
 33
0.0
 14
148.643186
 24
-25.0
 34
0.0
100
AcDbRotatedDimension
  0
DIMENSION
  5
61D2
330
1E
100
AcDbEntity
  8
30
  6
Continuous
100
AcDbDimension
  2
*D25
 10
144.643186
 20
-61.31171800000004
 30
0.0
 11
135.4885138466666
 21
-61.31171800000004
 31
0.0
 70
   160
  1
<>
 71
     5
 42
4.0
  3
STANDARD
100
AcDbAlignedDimension
 13
148.643186
 23
-25.0
 33
0.0
 14
144.643186
 24
-24.0
 34
0.0
100
AcDbRotatedDimension
  0
DIMENSION
  5
61D3
330
1E
100
AcDbEntity
  8
30
  6
Continuous
100
AcDbDimension
  2
*D26
 10
124.9045399999999
 20
38.0
 30
0.0
 11
124.9045399999999
 21
0.0
 31
0.0
 70
   160
  1
<>
 71
     5
 42
76.00000000000003
  3
STANDARD
100
AcDbAlignedDimension
 13
157.143184
 23
-38.00000000000002
 33
0.0
 14
157.143184
 24
38.0
 34
0.0
 50
90.0
100
AcDbRotatedDimension
  0
LINE
  5
61D4
330
1E
100
AcDbEntity
  8
10
  6
Continuous
100
AcDbLine
 10
144.643186
 20
14.50170999999994
 30
0.0
 11
137.1120819999999
 21
17.54445499999997
 31
0.0
  0
LINE
  5
61D5
330
1E
100
AcDbEntity
  8
10
  6
Continuous
100
AcDbLine
 10
137.8678569999999
 20
19.39617899999996
 30
0.0
 11
144.643186
 21
16.65876799999995
 31
0.0
  0
LINE
  5
61D6
330
1E
100
AcDbEntity
  8
10
  6
Continuous
100
AcDbLine
 10
135.39155
 20
16.62179999999995
 30
0.0
 11
144.643186
 21
12.88389599999999
 31
0.0
  0
LINE
  5
61D7
330
1E
100
AcDbEntity
  8
10
  6
Continuous
100
AcDbLine
 10
137.264582
 20
21.25771899999994
 30
0.0
 11
144.643186
 21
18.27656999999993
 31
0.0
  0
ARC
  5
61D9
330
1E
100
AcDbEntity
  8
30
  6
Continuous
100
AcDbCircle
 10
159.6931859999999
 20
9.5
 30
0.0
 40
27.05
100
AcDbArc
 50
163.6663309999986
 51
180.0
  0
CIRCLE
  5
61DF
330
1E
100
AcDbEntity
  8
10
  6
Continuous
100
AcDbCircle
 10
137.4866979999999
 20
18.47166899999996
 30
0.0
 40
1.0
  0
ARC
  5
61E0
330
1E
100
AcDbEntity
  8
10
  6
Continuous
100
AcDbCircle
 10
136.6090209999998
 20
19.63514699999996
 30
0.0
 40
1.75
100
AcDbArc
 50
68.00000000000078
 51
157.9999999999989
  0
LINE
  5
61E1
330
1E
100
AcDbEntity
  8
10
  6
Continuous
100
AcDbLine
 10
134.9864489999999
 20
20.29070899999993
 30
0.0
 11
134.4245389999999
 21
18.8999329999999
 31
0.0
  0
ARC
  5
61E2
330
1E
100
AcDbEntity
  8
10
  6
Continuous
100
AcDbCircle
 10
136.0471109999999
 20
18.24437199999994
 30
0.0
 40
1.75
100
AcDbArc
 50
157.9999999999989
 51
248.0
  0
LINE
  5
61E3
330
1E
100
AcDbEntity
  8
10
  6
Continuous
100
AcDbLine
 10
144.643186
 20
24.0
 30
0.0
 11
144.643186
 21
-24.0
 31
0.0
  0
LINE
  5
61E4
330
1E
100
AcDbEntity
  8
10
  6
Continuous
100
AcDbLine
 10
156.643186
 20
37.5
 30
0.0
 11
156.643186
 21
-37.50000000000003
 31
0.0
  0
LINE
  5
61E5
330
1E
100
AcDbEntity
  8
10
  6
Continuous
100
AcDbLine
 10
148.643186
 20
25.0
 30
0.0
 11
148.643186
 21
-25.0
 31
0.0
  0
LINE
  5
61E6
330
1E
100
AcDbEntity
  8
10
  6
Continuous
100
AcDbLine
 10
145.643186
 20
24.23809499999993
 30
0.0
 11
145.643186
 21
-24.25
 31
0.0
  0
LINE
  5
61E9
330
1E
100
AcDbEntity
  8
10
  6
Continuous
100
AcDbLine
 10
165.643186
 20
-47.20000000000001
 30
0.0
 11
168.4431859999999
 21
-50.00000000000003
 31
0.0
  0
LINE
  5
61EB
330
1E
100
AcDbEntity
  8
10
  6
Continuous
100
AcDbLine
 10
148.643186
 20
-25.0
 30
0.0
 11
156.643186
 21
-25.0
 31
0.0
  0
LINE
  5
61EC
330
1E
100
AcDbEntity
  8
10
  6
Continuous
100
AcDbLine
 10
148.643186
 20
-25.0
 30
0.0
 11
144.643186
 21
-24.0
 31
0.0
  0
LINE
  5
61ED
330
1E
100
AcDbEntity
  8
10
  6
Continuous
100
AcDbLine
 10
165.643186
 20
-38.00000000000002
 30
0.0
 11
157.143186
 21
-38.00000000000002
 31
0.0
  0
ARC
  5
61EE
330
1E
100
AcDbEntity
  8
10
  6
Continuous
100
AcDbCircle
 10
157.143186
 20
-37.50000000000003
 30
0.0
 40
0.5
100
AcDbArc
 50
180.0
 51
270.0
  0
LINE
  5
61EF
330
1E
100
AcDbEntity
  8
10
  6
Continuous
100
AcDbLine
 10
165.643186
 20
-38.00000000000002
 30
0.0
 11
165.643186
 21
-47.20000000000001
 31
0.0
  0
LINE
  5
61F0
330
1E
100
AcDbEntity
  8
10
  6
Continuous
100
AcDbLine
 10
165.643186
 20
45.89999999999998
 30
0.0
 11
173.643186
 21
45.89999999999998
 31
0.0
  0
LINE
  5
61F1
330
1E
100
AcDbEntity
  8
10
  6
Continuous
100
AcDbLine
 10
165.643186
 20
38.09999999999996
 30
0.0
 11
173.643186
 21
38.09999999999996
 31
0.0
  0
LINE
  5
61F3
330
1E
100
AcDbEntity
  8
10
  6
Continuous
100
AcDbLine
 10
156.643186
 20
25.0
 30
0.0
 11
148.643186
 21
25.0
 31
0.0
  0
LINE
  5
61F4
330
1E
100
AcDbEntity
  8
10
  6
Continuous
100
AcDbLine
 10
148.643186
 20
25.0
 30
0.0
 11
144.643186
 21
24.0
 31
0.0
  0
LINE
  5
61F5
330
1E
100
AcDbEntity
  8
10
  6
Continuous
100
AcDbLine
 10
165.643186
 20
38.0
 30
0.0
 11
157.143186
 21
38.0
 31
0.0
  0
ARC
  5
61F6
330
1E
100
AcDbEntity
  8
10
  6
Continuous
100
AcDbCircle
 10
157.143186
 20
37.5
 30
0.0
 40
0.5
100
AcDbArc
 50
90.0
 51
180.0
  0
LINE
  5
61F7
330
1E
100
AcDbEntity
  8
10
  6
Continuous
100
AcDbLine
 10
165.643186
 20
47.19999999999997
 30
0.0
 11
165.643186
 21
38.0
 31
0.0
  0
LINE
  5
61F8
330
1E
100
AcDbEntity
  8
10
  6
Continuous
100
AcDbLine
 10
173.643186
 20
38.09999999999996
 30
0.0
 11
173.643186
 21
45.89999999999998
 31
0.0
  0
LINE
  5
61FA
330
1E
100
AcDbEntity
  8
30
  6
Continuous
100
AcDbLine
 10
169.143186
 20
99.75006199999995
 30
0.0
 11
169.143186
 21
50.0
 31
0.0
  0
DIMENSION
  5
61FB
330
1E
100
AcDbEntity
  8
30
  6
Continuous
100
AcDbDimension
  2
*D27
 10
214.1431859999999
 20
89.64793799999997
 30
0.0
 11
230.1347780199999
 21
89.64793799999997
 31
0.0
 70
   160
  1
<>
 71
     5
 42
2.5
  3
STANDARD
100
AcDbAlignedDimension
 13
216.6431859999999
 23
40.56262799999996
 33
0.0
 14
214.1431859999999
 24
97.25006199999995
 34
0.0
100
AcDbRotatedDimension
  0
ARC
  5
61FC
330
1E
100
AcDbEntity
  8
10
  6
Continuous
100
AcDbCircle
 10
213.7747769999999
 20
48.0
 30
0.0
 40
2.0
100
AcDbArc
 50
9.651861000001275
 51
90.0
  0
LINE
  5
61FD
330
1E
100
AcDbEntity
  8
10
  6
Continuous
100
AcDbLine
 10
212.8931859999999
 20
17.79998699999993
 30
0.0
 11
212.8931859999999
 21
-17.56704900000005
 31
0.0
  0
LINE
  5
61FE
330
1E
100
AcDbEntity
  8
10
  6
Continuous
100
AcDbLine
 10
213.843025
 20
-15.64986900000001
 30
0.0
 11
213.3430249999999
 21
-17.64986900000002
 31
0.0
  0
LINE
  5
61FF
330
1E
100
AcDbEntity
  8
10
  6
Continuous
100
AcDbLine
 10
213.843025
 20
-15.64986900000001
 30
0.0
 11
216.1430249999999
 21
-17.94986900000003
 31
0.0
  0
LINE
  5
6200
330
1E
100
AcDbEntity
  8
10
  6
Continuous
100
AcDbLine
 10
212.8931859999999
 20
-17.56705700000003
 30
0.0
 11
215.1608239999999
 21
-18.17466899999998
 31
0.0
  0
LINE
  5
6201
330
1E
100
AcDbEntity
  8
10
  6
Continuous
100
AcDbLine
 10
213.202244
 20
-17.64986900000002
 30
0.0
 11
213.3430249999999
 21
-17.64986900000002
 31
0.0
  0
ARC
  5
6202
330
1E
100
AcDbEntity
  8
10
  6
Continuous
100
AcDbCircle
 10
213.7747669999999
 20
-48.00000000000003
 30
0.0
 40
2.0
100
AcDbArc
 50
270.0
 51
350.3481370000006
  0
LINE
  5
6203
330
1E
100
AcDbEntity
  8
10
  6
Continuous
100
AcDbLine
 10
216.6431859999999
 20
-20.10652000000003
 30
0.0
 11
216.6431859999999
 21
-43.06257100000002
 31
0.0
  0
LINE
  5
6204
330
1E
100
AcDbEntity
  8
10
  6
Continuous
100
AcDbLine
 10
215.7464559999999
 20
-48.33532300000001
 30
0.0
 11
216.6431859999999
 21
-43.06257100000002
 31
0.0
  0
ARC
  5
6205
330
1E
100
AcDbEntity
  8
10
  6
Continuous
100
AcDbCircle
 10
214.6431859999999
 20
-20.10652000000003
 30
0.0
 40
2.0
100
AcDbArc
 50
0.0
 51
75.00000000000004
  0
LINE
  5
6206
330
1E
100
AcDbEntity
  8
10
  6
Continuous
100
AcDbLine
 10
216.1430249999999
 20
-17.94986900000003
 30
0.0
 11
216.245608
 21
-18.90975600000001
 31
0.0
  0
LINE
  5
6207
330
1E
100
AcDbEntity
  8
10
  6
Continuous
100
AcDbLine
 10
212.8931859999999
 20
17.79998699999993
 30
0.0
 11
214.1431549999999
 21
17.79998699999993
 31
0.0
  0
LINE
  5
6208
330
1E
100
AcDbEntity
  8
10
  6
Continuous
100
AcDbLine
 10
216.6431859999999
 20
43.06262799999996
 30
0.0
 11
216.6431859999999
 21
15.80004799999993
 31
0.0
  0
LINE
  5
6209
330
1E
100
AcDbEntity
  8
10
  6
Continuous
100
AcDbLine
 10
214.434927
 20
16.53027799999994
 30
0.0
 11
215.850145
 21
15.30004799999994
 31
0.0
  0
ARC
  5
620A
330
1E
100
AcDbEntity
  8
10
  6
Continuous
100
AcDbCircle
 10
216.1431549999999
 20
15.80004799999993
 30
0.0
 40
0.5
100
AcDbArc
 50
270.0
 51
0.0
  0
LINE
  5
620B
330
1E
100
AcDbEntity
  8
10
  6
Continuous
100
AcDbLine
 10
215.850145
 20
15.30004799999994
 30
0.0
 11
216.1431549999999
 21
15.30004799999994
 31
0.0
  0
LINE
  5
620C
330
1E
100
AcDbEntity
  8
10
  6
Continuous
100
AcDbLine
 10
214.1431549999999
 20
17.79998699999993
 30
0.0
 11
214.3363019999999
 21
16.70459699999991
 31
0.0
  0
ARC
  5
620D
330
1E
100
AcDbEntity
  8
10
  6
Continuous
100
AcDbCircle
 10
214.631745
 20
16.75669099999993
 30
0.0
 40
0.3
100
AcDbArc
 50
189.9999999999985
 51
228.9999999999995
  0
ARC
  5
620E
330
1E
100
AcDbEntity
  8
10
  6
Continuous
100
AcDbCircle
 10
214.631745
 20
16.75669099999993
 30
0.0
 40
0.3
100
AcDbArc
 50
189.9999999999985
 51
228.9999999999995
  0
LINE
  5
620F
330
1E
100
AcDbEntity
  8
10
  6
Continuous
100
AcDbLine
 10
215.7464669999999
 20
48.33532199999996
 30
0.0
 11
216.6431859999999
 21
43.06262799999996
 31
0.0
  0
LINE
  5
6210
330
1E
100
AcDbEntity
  8
30
  6
Continuous
100
AcDbLine
 10
214.1431859999999
 20
99.75006199999995
 30
0.0
 11
214.1431859999999
 21
49.96577599999993
 31
0.0
  0
ARC
  5
6783
330
1E
100
AcDbEntity
  8
24
  6
DASHDOT
100
AcDbCircle
 10
187.483281
 20
42.89999999999992
 30
0.0
 40
1.6
100
AcDbArc
 50
90.0
 51
162.9665899999991
  0
ARC
  5
6784
330
1E
100
AcDbEntity
  8
24
  6
DASHDOT
100
AcDbCircle
 10
187.483281
 20
37.09999999999995
 30
0.0
 40
1.6
100
AcDbArc
 50
197.0334100000006
 51
270.0
  0
ARC
  5
6785
330
1E
100
AcDbEntity
  8
24
  6
DASHDOT
100
AcDbCircle
 10
196.9490089999999
 20
39.99999999999993
 30
0.0
 40
11.5
100
AcDbArc
 50
163.1999889999988
 51
196.7999850000012
  0
LINE
  5
6786
330
1E
100
AcDbEntity
  8
24
  6
DASHDOT
100
AcDbLine
 10
190.2431859999999
 20
36.79999999999989
 30
0.0
 11
190.9431859999999
 21
33.99999999999994
 31
0.0
  0
LINE
  5
6787
330
1E
100
AcDbEntity
  8
24
  6
DASHDOT
100
AcDbLine
 10
192.643186
 20
36.54289399999999
 30
0.0
 11
192.643186
 21
35.19999999999999
 31
0.0
  0
LINE
  5
6788
330
1E
100
AcDbEntity
  8
24
  6
DASHDOT
100
AcDbLine
 10
192.943186
 20
33.99999999999994
 30
0.0
 11
192.2431859999999
 21
36.79999999999989
 31
0.0
  0
LINE
  5
6789
330
1E
100
AcDbEntity
  8
24
  6
DASHDOT
100
AcDbLine
 10
188.749009
 20
44.49999999999993
 30
0.0
 11
188.749009
 21
35.49999999999993
 31
0.0
  0
LINE
  5
678A
330
1E
100
AcDbEntity
  8
24
  6
DASHDOT
100
AcDbLine
 10
190.2431859999999
 20
33.99999999999994
 30
0.0
 11
190.2431859999999
 21
45.99999999999993
 31
0.0
  0
LINE
  5
678B
330
1E
100
AcDbEntity
  8
24
  6
DASHDOT
100
AcDbLine
 10
190.2431859999999
 20
33.99999999999994
 30
0.0
 11
192.943186
 21
33.99999999999994
 31
0.0
  0
LINE
  5
678C
330
1E
100
AcDbEntity
  8
24
  6
DASHDOT
100
AcDbLine
 10
187.483281
 20
35.49999999999993
 30
0.0
 11
188.749009
 21
35.49999999999993
 31
0.0
  0
LINE
  5
678D
330
1E
100
AcDbEntity
  8
24
  6
DASHDOT
100
AcDbLine
 10
194.443186
 20
41.99999999999993
 30
0.0
 11
201.7490099999999
 21
41.99999999999993
 31
0.0
  0
LINE
  5
678E
330
1E
100
AcDbEntity
  8
24
  6
DASHDOT
100
AcDbLine
 10
201.7490099999999
 20
42.49999999999993
 30
0.0
 11
194.443186
 21
42.49999999999993
 31
0.0
  0
LINE
  5
678F
330
1E
100
AcDbEntity
  8
24
  6
DASHDOT
100
AcDbLine
 10
194.443186
 20
37.99999999999993
 30
0.0
 11
201.7490099999999
 21
37.99999999999993
 31
0.0
  0
LINE
  5
6790
330
1E
100
AcDbEntity
  8
24
  6
DASHDOT
100
AcDbLine
 10
194.443186
 20
37.49999999999993
 30
0.0
 11
201.7490099999999
 21
37.49999999999993
 31
0.0
  0
LINE
  5
6791
330
1E
100
AcDbEntity
  8
24
  6
DASHDOT
100
AcDbLine
 10
192.943186
 20
45.99999999999993
 30
0.0
 11
192.2431859999999
 21
43.19999999999999
 31
0.0
  0
LINE
  5
6792
330
1E
100
AcDbEntity
  8
24
  6
DASHDOT
100
AcDbLine
 10
190.2431859999999
 20
45.99999999999993
 30
0.0
 11
192.943186
 21
45.99999999999993
 31
0.0
  0
LINE
  5
6793
330
1E
100
AcDbEntity
  8
24
  6
DASHDOT
100
AcDbLine
 10
189.0431859999999
 20
44.04999999999989
 30
0.0
 11
189.9431859999999
 21
44.04999999999989
 31
0.0
  0
LINE
  5
6794
330
1E
100
AcDbEntity
  8
24
  6
DASHDOT
100
AcDbLine
 10
189.0431859999999
 20
35.94999999999997
 30
0.0
 11
189.9431859999999
 21
35.94999999999997
 31
0.0
  0
LINE
  5
6795
330
1E
100
AcDbEntity
  8
24
  6
DASHDOT
100
AcDbLine
 10
188.749009
 20
37.99999999999993
 30
0.0
 11
189.340435
 21
37.99999999999993
 31
0.0
  0
SPLINE
  5
6796
330
1E
100
AcDbEntity
  8
24
  6
DASHDOT
100
AcDbSpline
210
0.0
220
0.0
230
1.0
 70
     8
 71
     3
 72
    55
 73
    51
 74
    49
 42
0.0000000001
 43
0.0000000001
 44
0.000001
 12
-0.2169304578160424
 22
0.9761870601845336
 32
0.0
 13
0.0046239517060918
 23
0.9999893094781661
 33
0.0
 40
0.0
 40
0.0
 40
0.0
 40
0.0
 40
0.043756922023857
 40
0.0875135305950684
 40
0.1312755701087702
 40
0.1750376094503856
 40
0.2187938241450676
 40
0.2625500362756934
 40
0.3062892585532965
 40
0.3500284758650085
 40
0.3937398216690427
 40
0.4374511601531232
 40
0.4811242574570639
 40
0.5247973450301144
 40
0.5684224514579311
 40
0.6120475457280437
 40
0.6556157063047236
 40
0.6991838522828262
 40
0.7426877102869804
 40
0.7861915579187988
 40
0.8296272735879751
 40
0.873062977510332
 40
0.9164281475953512
 40
0.9597933047015507
 40
1.003086366766015
 40
1.046379414694073
 40
1.089599731301285
 40
1.132820032890319
 40
1.175967996175485
 40
1.219115943425217
 40
1.262193000575638
 40
1.305270040784826
 40
1.34827875232742
 40
1.391287446239303
 40
1.434231893442809
 40
1.477176333852279
 40
1.520062938375888
 40
1.562949535944073
 40
1.60578557612614
 40
1.648621609266605
 40
1.691414829409637
 40
1.73420804247317
 40
1.776966654796374
 40
1.819725259758273
 40
1.862457945136795
 40
1.905190623241507
 40
1.947906558641956
 40
1.99062248706406
 40
2.033331354958071
 40
2.076039743334722
 40
2.076039743334722
 40
2.076039743334722
 40
2.076039743334722
 10
189.043186368071
 20
35.9500004446234
 30
0.0
 10
189.0400222983619
 20
35.96423875831447
 30
0.0
 10
189.0336833635436
 20
35.9927128806182
 30
0.0
 10
189.0241478055024
 20
36.03541980760206
 30
0.0
 10
189.0146006911968
 20
36.07812589920722
 30
0.0
 10
189.0050538512601
 20
36.1208319177388
 30
0.0
 10
188.9955202212631
 20
36.16353889817676
 30
0.0
 10
188.9860132884694
 20
36.20624404025452
 30
0.0
 10
188.9765449566635
 20
36.24895195772664
 30
0.0
 10
188.9671295712717
 20
36.29165626951226
 30
0.0
 10
188.9577782389079
 20
36.33436514475401
 30
0.0
 10
188.9485059365916
 20
36.37706870160035
 30
0.0
 10
188.9393229233575
 20
36.41977851280241
 30
0.0
 10
188.9302448571561
 20
36.46248137784803
 30
0.0
 10
188.9212813578103
 20
36.50519209941002
 30
0.0
 10
188.912448674046
 20
36.54789436280227
 30
0.0
 10
188.9037558886342
 20
36.59060596193342
 30
0.0
 10
188.895219688057
 20
36.63330793615448
 30
0.0
 10
188.8868487467563
 20
36.67602078131449
 30
0.0
 10
188.8786550466294
 20
36.71872304296261
 30
0.0
 10
188.8706421386169
 20
36.76143649528542
 30
0.0
 10
188.8628220024441
 20
36.8041386790025
 30
0.0
 10
188.8551981806491
 20
36.84685246881765
 30
0.0
 10
188.847782580147
 20
36.88955465475057
 30
0.0
 10
188.8405788561444
 20
36.93226872640666
 30
0.0
 10
188.8335987636048
 20
36.97497100571996
 30
0.0
 10
188.8268461482699
 20
37.0176853057395
 30
0.0
 10
188.8203324152052
 20
37.06038778054661
 30
0.0
 10
188.8140615542837
 20
37.10310222910364
 30
0.0
 10
188.8080446698549
 20
37.14580498959927
 30
0.0
 10
188.8022860839576
 20
37.1885195091523
 30
0.0
 10
188.7967965393399
 20
37.23122266133821
 30
0.0
 10
188.7915807474926
 20
37.27393717241572
 30
0.0
 10
188.7866490244532
 20
37.31664094107531
 30
0.0
 10
188.782006524153
 20
37.35935558111753
 30
0.0
 10
188.7776580998113
 20
37.40206025877592
 30
0.0
 10
188.7736043999013
 20
37.44477455664943
 30
0.0
 10
188.7698497596577
 20
37.48747991490039
 30
0.0
 10
188.7663953000519
 20
37.53019369644322
 30
0.0
 10
188.7632448946703
 20
37.57289977650903
 30
0.0
 10
188.7604000998916
 20
37.61561300137216
 30
0.0
 10
188.7578643821808
 20
37.65831984358188
 30
0.0
 10
188.7556396750274
 20
37.70103246851221
 30
0.0
 10
188.7537292176554
 20
37.74374011406917
 30
0.0
 10
188.7521353752323
 20
37.78645210301336
 30
0.0
 10
188.750861099879
 20
37.82916059888069
 30
0.0
 10
188.7499090454169
 20
37.87187190910654
 30
0.0
 10
188.7492817656387
 20
37.91458130336425
 30
0.0
 10
188.7489828349493
 20
37.95729171599985
 30
0.0
 10
188.7490021561198
 20
37.98576446735612
 30
0.0
 10
188.749067983295
 20
38.00000044462336
 30
0.0
 11
189.043186368071
 21
35.9500004446234
 31
0.0
 11
189.0336780206981
 21
35.99271147355199
 31
0.0
 11
189.024145477705
 21
36.03541711129008
 31
0.0
 11
189.0145998731215
 21
36.07812539649552
 31
0.0
 11
189.0050546994046
 21
36.12083377795686
 31
0.0
 11
188.9955235346547
 21
36.16353932014765
 31
0.0
 11
188.9860174279218
 21
36.20625044462365
 31
0.0
 11
188.9765523811474
 21
36.24895328505437
 31
0.0
 11
188.9671370580088
 21
36.29166711129032
 31
0.0
 11
188.9577897645716
 21
36.3343673453711
 31
0.0
 11
188.9485168128454
 21
36.37708377795711
 31
0.0
 11
188.939338547821
 21
36.41978154151383
 31
0.0
 11
188.9302592293178
 21
36.46250044462385
 31
0.0
 11
188.9213011047159
 21
36.50519590146751
 31
0.0
 11
188.9124666727405
 21
36.54791711129059
 31
0.0
 11
188.9037797863487
 21
36.59061046800696
 31
0.0
 11
188.8952415084275
 21
36.63333377795726
 31
0.0
 11
188.8868760177771
 21
36.67602574739959
 31
0.0
 11
188.8786793710023
 21
36.71875044462381
 31
0.0
 11
188.8706719942541
 21
36.76144170048252
 31
0.0
 11
188.8628489723286
 21
36.80416711129038
 31
0.0
 11
188.8552306406769
 21
36.84685784851085
 31
0.0
 11
188.8478122935789
 21
36.88958377795693
 31
0.0
 11
188.8406139393996
 21
36.93227421034652
 31
0.0
 11
188.8336313159266
 21
36.97500044462356
 31
0.0
 11
188.8268838525751
 21
37.01769081429313
 31
0.0
 11
188.8203678568567
 21
37.06041711129017
 31
0.0
 11
188.8141018756128
 21
37.10310767731078
 31
0.0
 11
188.808083079104
 21
37.14583377795685
 31
0.0
 11
188.8023290362125
 21
37.18852480858247
 31
0.0
 11
188.7968379817153
 21
37.23125044462364
 31
0.0
 11
188.7916263419015
 21
37.27394222761921
 31
0.0
 11
188.7866935637371
 21
37.31666711129042
 31
0.0
 11
188.7820539428929
 21
37.35936019800186
 31
0.0
 11
188.7777041354113
 21
37.40208377795716
 31
0.0
 11
188.7736528093489
 21
37.44477859868112
 31
0.0
 11
188.7698972517575
 21
37.48750044462389
 31
0.0
 11
188.7664446892955
 21
37.53019712140684
 31
0.0
 11
188.7632937789908
 21
37.57291711129051
 31
0.0
 11
188.7604504553984
 21
37.61561576723113
 31
0.0
 11
188.7579145833255
 21
37.65833377795711
 31
0.0
 11
188.7556910003801
 21
37.70103453436894
 31
0.0
 11
188.753780688591
 21
37.74375044462363
 31
0.0
 11
188.7521876700231
 21
37.78645342652783
 31
0.0
 11
188.7509137490735
 21
37.82916711129013
 31
0.0
 11
188.7499622636788
 21
37.87187244773838
 31
0.0
 11
188.7493355766744
 21
37.91458377795679
 31
0.0
 11
188.7490366008935
 21
37.95729159736259
 31
0.0
 11
188.749067983295
 21
38.00000044462336
 31
0.0
  0
SPLINE
  5
6797
330
1E
100
AcDbEntity
  8
24
  6
DASHDOT
100
AcDbSpline
210
0.0
220
0.0
230
1.0
 70
     8
 71
     3
 72
    79
 73
    75
 74
    73
 42
0.0000000001
 43
0.0000000001
 44
0.000001
 12
0.216930457819766
 22
0.9761870601837062
 32
0.0
 13
0.2169304578196485
 23
0.9761870601837323
 33
0.0
 40
0.0
 40
0.0
 40
0.0
 40
0.0
 40
0.1152356051514111
 40
0.2304713228570128
 40
0.3455886675656908
 40
0.4607057863456869
 40
0.5755618983185419
 40
0.6904175998100487
 40
0.8048923384914596
 40
0.9193664704322641
 40
1.033380092391154
 40
1.147393109798337
 40
1.260928734879041
 40
1.374463629316198
 40
1.487555640969558
 40
1.600646799382703
 40
1.713383730785908
 40
1.826119700542906
 40
1.93865329238864
 40
2.05118708972962
 40
2.163714936530614
 40
2.276243025951337
 40
2.388953957463611
 40
2.501665159260614
 40
2.614731325711776
 40
2.72779778110623
 40
2.841356917840332
 40
2.954917317288876
 40
3.06899921632717
 40
3.183082075707265
 40
3.297627855882868
 40
3.41217430917249
 40
3.527067813493159
 40
3.64196172251459
 40
3.757061948391227
 40
3.872162289022313
 40
3.987362235385461
 40
4.102562152992915
 40
4.21776207060068
 40
4.33296201696384
 40
4.448062357594858
 40
4.563162583471489
 40
4.678056492492887
 40
4.792949996813613
 40
4.907496450103171
 40
5.022042230278882
 40
5.136125089658988
 40
5.250206988697214
 40
5.363767388145833
 40
5.477326524879844
 40
5.590392980274294
 40
5.703459146725568
 40
5.816170348522568
 40
5.928881280034823
 40
6.041409369455545
 40
6.153937216256438
 40
6.266471013597466
 40
6.379004605443149
 40
6.491740575200156
 40
6.604477506603369
 40
6.71756866501659
 40
6.830660676669975
 40
6.944195571107149
 40
7.057731196187837
 40
7.171744213594954
 40
7.285757835553795
 40
7.400231967494661
 40
7.514706706176137
 40
7.629562407667627
 40
7.744418519640436
 40
7.859535638420504
 40
7.974652983129145
 40
8.089888700834709
 40
8.205124305986156
 40
8.205124305986156
 40
8.205124305986156
 40
8.205124305986156
 10
189.043186368071
 20
35.9500004446234
 30
0.0
 10
189.0515190722652
 20
35.98749761349715
 30
0.0
 10
189.0682082569911
 20
36.0624866997872
 30
0.0
 10
189.0931418786925
 20
36.17495222053324
 30
0.0
 10
189.1178025877738
 20
36.2874376073848
 30
0.0
 10
189.1420021179919
 20
36.39989391106313
 30
0.0
 10
189.1655785812106
 20
36.51239370128779
 30
0.0
 10
189.188333740261
 20
36.62484444656716
 30
0.0
 10
189.210113383734
 20
36.73735900547296
 30
0.0
 10
189.2307138509657
 20
36.84981070808615
 30
0.0
 10
189.2499839777176
 20
36.96234246170955
 30
0.0
 10
189.2677628467464
 20
37.07480331219896
 30
0.0
 10
189.2839405455035
 20
37.18734505230868
 30
0.0
 10
189.2983609114899
 20
37.29981666048666
 30
0.0
 10
189.3109080237779
 20
37.4123642839148
 30
0.0
 10
189.3214330526333
 20
37.52485270282766
 30
0.0
 10
189.3298115813697
 20
37.63740313208685
 30
0.0
 10
189.3359034209384
 20
37.74991546380057
 30
0.0
 10
189.339575463486
 20
37.86246535569124
 30
0.0
 10
189.3408611395576
 20
37.97499805198919
 30
0.0
 10
189.3397900088546
 20
38.08753097587093
 30
0.0
 10
189.3363976428517
 20
38.20007667321974
 30
0.0
 10
189.3307150214966
 20
38.3125909725773
 30
0.0
 10
189.3227737226826
 20
38.42514798568338
 30
0.0
 10
189.3126111049411
 20
38.53764495489618
 30
0.0
 10
189.3002507382003
 20
38.65020590588468
 30
0.0
 10
189.2857415348597
 20
38.76267543665044
 30
0.0
 10
189.2692752672195
 20
38.87521580643952
 30
0.0
 10
189.2510876423303
 20
38.98766666474948
 30
0.0
 10
189.2313629931477
 20
39.10019062222244
 30
0.0
 10
189.210340638261
 20
39.21263611573063
 30
0.0
 10
189.1882046207504
 20
39.3251424080463
 30
0.0
 10
189.1651909939435
 20
39.43759038444305
 30
0.0
 10
189.1414887476947
 20
39.55008345246547
 30
0.0
 10
189.1173252169833
 20
39.66254863457572
 30
0.0
 10
189.0928049799621
 20
39.7750408974219
 30
0.0
 10
189.0680542359007
 20
39.88751661138561
 30
0.0
 10
189.0431863680715
 20
40.00000044462352
 30
0.0
 10
189.0183185002401
 20
40.112484277861
 30
0.0
 10
188.9935677561787
 20
40.22495999182479
 30
0.0
 10
188.9690475191578
 20
40.33745225467104
 30
0.0
 10
188.9448839884464
 20
40.44991743678124
 30
0.0
 10
188.9211817421974
 20
40.56241050480362
 30
0.0
 10
188.8981681153906
 20
40.67485848120037
 30
0.0
 10
188.8760320978802
 20
40.78736477351611
 30
0.0
 10
188.855009742993
 20
40.89981026702423
 30
0.0
 10
188.8352850938108
 20
41.01233422449728
 30
0.0
 10
188.8170974689216
 20
41.12478508280726
 30
0.0
 10
188.8006312012812
 20
41.23732545259627
 30
0.0
 10
188.7861219979411
 20
41.34979498336207
 30
0.0
 10
188.7737616312003
 20
41.4623559343506
 30
0.0
 10
188.7635990134584
 20
41.57485290356339
 30
0.0
 10
188.7556577146451
 20
41.68740991666957
 30
0.0
 10
188.7499750932897
 20
41.79992421602709
 30
0.0
 10
188.7465827272868
 20
41.91246991337587
 30
0.0
 10
188.7455115965843
 20
42.02500283725759
 30
0.0
 10
188.7467972726553
 20
42.13753553355552
 30
0.0
 10
188.7504693152037
 20
42.25008542544614
 30
0.0
 10
188.7565611547721
 20
42.3625977571599
 30
0.0
 10
188.7649396835086
 20
42.4751481864191
 30
0.0
 10
188.7754647123644
 20
42.58763660533193
 30
0.0
 10
188.788011824652
 20
42.7001842287602
 30
0.0
 10
188.8024321906385
 20
42.81265583693811
 30
0.0
 10
188.8186098893956
 20
42.92519757704787
 30
0.0
 10
188.8363887584242
 20
43.03765842753723
 30
0.0
 10
188.8556588851762
 20
43.15019018116062
 30
0.0
 10
188.8762593524081
 20
43.2626418837738
 30
0.0
 10
188.8980389958809
 20
43.37515644267969
 30
0.0
 10
188.9207941549317
 20
43.48760718795896
 30
0.0
 10
188.9443706181499
 20
43.60010697818372
 30
0.0
 10
188.9685701483685
 20
43.71256328186196
 30
0.0
 10
188.9932308574493
 20
43.82504866871364
 30
0.0
 10
189.0181644791513
 20
43.93751418945947
 30
0.0
 10
189.0348536638768
 20
44.01250327574967
 30
0.0
 10
189.043186368071
 20
44.05000044462343
 30
0.0
 11
189.043186368071
 21
35.9500004446234
 31
0.0
 11
189.068193977653
 21
36.06249001020131
 31
0.0
 11
189.0931073044179
 21
36.17500044462342
 31
0.0
 11
189.1177312012053
 21
36.28745340323126
 31
0.0
 11
189.1419203666535
 21
36.4000004446234
 31
0.0
 11
189.1654499008841
 21
36.51242058855212
 31
0.0
 11
189.18820093457
 21
36.62500044462342
 31
0.0
 11
189.2099265303055
 21
36.73739468698595
 31
0.0
 11
189.2305243879599
 21
36.85000044462339
 31
0.0
 11
189.2497449327342
 21
36.96238228578681
 31
0.0
 11
189.2675246985108
 21
37.0750004446234
 31
0.0
 11
189.2836555979171
 21
37.18738431319678
 31
0.0
 11
189.2980702054901
 21
37.30000044462343
 31
0.0
 11
189.3105766030357
 21
37.41239882033954
 31
0.0
 11
189.32108784006
 21
37.52500044462334
 31
0.0
 11
189.3294335586018
 21
37.6374280501962
 31
0.0
 11
189.3355045333826
 21
37.75000044462336
 31
0.0
 11
189.3391791027747
 21
37.86247403572939
 31
0.0
 11
189.340469338487
 21
37.97500044462339
 31
0.0
 11
189.3394044383765
 21
38.08752326068536
 31
0.0
 11
189.3360197958699
 21
38.2000004446234
 31
0.0
 11
189.3303414779887
 21
38.31256825771885
 31
0.0
 11
189.3224155678946
 21
38.42500044462342
 31
0.0
 11
189.3122505814222
 21
38.53760875991378
 31
0.0
 11
189.2999163169248
 21
38.65000044462334
 31
0.0
 11
189.2854241143327
 21
38.7626310578907
 31
0.0
 11
189.2690202557915
 21
38.87500044462337
 31
0.0
 11
189.2508415919369
 21
38.98762467416229
 31
0.0
 11
189.2311797991986
 21
39.10000044462339
 31
0.0
 11
189.2101645162311
 21
39.21260193033026
 31
0.0
 11
189.1880859123181
 21
39.3250004446234
 31
0.0
 11
189.1650834747571
 21
39.43756778389643
 31
0.0
 11
189.1414295603222
 21
39.55000044462332
 31
0.0
 11
189.1172703506758
 21
39.66253663881143
 31
0.0
 11
189.0927758391821
 21
39.77500044462334
 31
0.0
 11
189.0680368908773
 21
39.88751272065525
 31
0.0
 11
189.0431863680706
 21
40.00000044462336
 31
0.0
 11
189.0183358452638
 21
40.11248816859153
 31
0.0
 11
188.9935968969587
 21
40.22500044462339
 31
0.0
 11
188.9691023854653
 21
40.33746425043529
 31
0.0
 11
188.944943175819
 21
40.4500004446234
 31
0.0
 11
188.9212892613839
 21
40.56243310535022
 31
0.0
 11
188.8982868238229
 21
40.67500044462332
 31
0.0
 11
188.87620821991
 21
40.7873989589164
 31
0.0
 11
188.8551929369423
 21
40.90000044462335
 31
0.0
 11
188.8355311442041
 21
41.01237621508448
 31
0.0
 11
188.8173524803496
 21
41.12500044462335
 31
0.0
 11
188.8009486218084
 21
41.23736983135609
 31
0.0
 11
188.7864564192165
 21
41.35000044462339
 31
0.0
 11
188.7741221547192
 21
41.46239212933295
 31
0.0
 11
188.7639571682466
 21
41.57500044462341
 31
0.0
 11
188.7560312581529
 21
41.687432631528
 31
0.0
 11
188.7503529402716
 21
41.80000044462342
 31
0.0
 11
188.746968297765
 21
41.91247762856146
 31
0.0
 11
188.7459033976546
 21
42.02500044462334
 31
0.0
 11
188.7471936333668
 21
42.13752685351738
 31
0.0
 11
188.7508682027593
 21
42.25000044462336
 31
0.0
 11
188.75693917754
 21
42.36257283905053
 31
0.0
 11
188.7652848960819
 21
42.47500044462339
 31
0.0
 11
188.7757961331065
 21
42.58760206890724
 31
0.0
 11
188.7883025306518
 21
42.7000004446234
 31
0.0
 11
188.8027171382249
 21
42.81261657605006
 31
0.0
 11
188.8188480376312
 21
42.92500044462342
 31
0.0
 11
188.8366278034076
 21
43.03761860345996
 31
0.0
 11
188.8558483481819
 21
43.15000044462334
 31
0.0
 11
188.8764462058366
 21
43.26260620226082
 31
0.0
 11
188.898171801572
 21
43.37500044462342
 31
0.0
 11
188.920922835258
 21
43.48758030069467
 31
0.0
 11
188.9444523694884
 21
43.60000044462339
 31
0.0
 11
188.9686415349368
 21
43.71254748601558
 31
0.0
 11
188.993265431724
 21
43.8250004446234
 31
0.0
 11
189.0181787584893
 21
43.93751087904542
 31
0.0
 11
189.043186368071
 21
44.05000044462343
 31
0.0
  0
LINE
  5
6798
330
1E
100
AcDbEntity
  8
24
  6
DASHDOT
100
AcDbLine
 10
188.749009
 20
44.49999999999993
 30
0.0
 11
187.483281
 21
44.49999999999993
 31
0.0
  0
LINE
  5
6799
330
1E
100
AcDbEntity
  8
24
  6
DASHDOT
100
AcDbLine
 10
192.4967399999999
 20
43.10355399999997
 30
0.0
 11
192.389578
 21
42.99639199999996
 31
0.0
  0
ARC
  5
679A
330
1E
100
AcDbEntity
  8
24
  6
DASHDOT
100
AcDbCircle
 10
192.343186
 20
42.69999999999997
 30
0.0
 40
0.3
100
AcDbArc
 50
0.0
 51
90.0
  0
LINE
  5
679B
330
1E
100
AcDbEntity
  8
24
  6
DASHDOT
100
AcDbLine
 10
192.4967399999999
 20
36.8964469999999
 30
0.0
 11
192.389578
 21
37.00360899999992
 31
0.0
  0
ARC
  5
679C
330
1E
100
AcDbEntity
  8
24
  6
DASHDOT
100
AcDbCircle
 10
192.343186
 20
39.29999999999989
 30
0.0
 40
0.3
100
AcDbArc
 50
0.0
 51
90.0
  0
ARC
  5
679D
330
1E
100
AcDbEntity
  8
24
  6
DASHDOT
100
AcDbCircle
 10
192.343186
 20
37.29999999999989
 30
0.0
 40
0.3
100
AcDbArc
 50
270.0
 51
0.0
  0
ARC
  5
679E
330
1E
100
AcDbEntity
  8
24
  6
DASHDOT
100
AcDbCircle
 10
192.343186
 20
40.69999999999999
 30
0.0
 40
0.3
100
AcDbArc
 50
270.0
 51
0.0
  0
LINE
  5
679F
330
1E
100
AcDbEntity
  8
24
  6
DASHDOT
100
AcDbLine
 10
192.2431859999999
 20
43.19999999999999
 30
0.0
 11
192.2431859999999
 21
42.99999999999993
 31
0.0
  0
LINE
  5
67A0
330
1E
100
AcDbEntity
  8
24
  6
DASHDOT
100
AcDbLine
 10
192.2431859999999
 20
42.99999999999993
 30
0.0
 11
192.343186
 21
42.99999999999993
 31
0.0
  0
LINE
  5
67A1
330
1E
100
AcDbEntity
  8
24
  6
DASHDOT
100
AcDbLine
 10
192.2431859999999
 20
39.59999999999995
 30
0.0
 11
192.2431859999999
 21
40.39999999999992
 31
0.0
  0
LINE
  5
67A2
330
1E
100
AcDbEntity
  8
24
  6
DASHDOT
100
AcDbLine
 10
192.2431859999999
 20
40.39999999999992
 30
0.0
 11
192.343186
 21
40.39999999999992
 31
0.0
  0
LINE
  5
67A3
330
1E
100
AcDbEntity
  8
24
  6
DASHDOT
100
AcDbLine
 10
192.2431859999999
 20
39.59999999999995
 30
0.0
 11
192.343186
 21
39.59999999999995
 31
0.0
  0
LINE
  5
67A4
330
1E
100
AcDbEntity
  8
24
  6
DASHDOT
100
AcDbLine
 10
192.2431859999999
 20
36.99999999999993
 30
0.0
 11
192.343186
 21
36.99999999999993
 31
0.0
  0
LINE
  5
67A5
330
1E
100
AcDbEntity
  8
24
  6
DASHDOT
100
AcDbLine
 10
192.2431859999999
 20
36.79999999999989
 30
0.0
 11
192.2431859999999
 21
36.99999999999993
 31
0.0
  0
LINE
  5
67A6
330
1E
100
AcDbEntity
  8
24
  6
DASHDOT
100
AcDbLine
 10
192.643186
 20
42.69999999999997
 30
0.0
 11
192.643186
 21
40.69999999999999
 31
0.0
  0
LINE
  5
67A7
330
1E
100
AcDbEntity
  8
24
  6
DASHDOT
100
AcDbLine
 10
192.643186
 20
43.45710699999989
 30
0.0
 11
192.643186
 21
44.79999999999989
 31
0.0
  0
ARC
  5
67A8
330
1E
100
AcDbEntity
  8
24
  6
DASHDOT
100
AcDbCircle
 10
192.143186
 20
43.45710699999989
 30
0.0
 40
0.5
100
AcDbArc
 50
315.0
 51
0.0
  0
LINE
  5
67A9
330
1E
100
AcDbEntity
  8
24
  6
DASHDOT
100
AcDbLine
 10
192.643186
 20
37.29999999999989
 30
0.0
 11
192.643186
 21
39.29999999999989
 31
0.0
  0
ARC
  5
67AA
330
1E
100
AcDbEntity
  8
24
  6
DASHDOT
100
AcDbCircle
 10
192.143186
 20
36.54289399999999
 30
0.0
 40
0.5
100
AcDbArc
 50
0.0
 51
44.99999999999984
  0
LINE
  5
67AB
330
1E
100
AcDbEntity
  8
24
  6
DASHDOT
100
AcDbLine
 10
190.2431859999999
 20
43.19999999999999
 30
0.0
 11
190.9431859999999
 21
45.99999999999993
 31
0.0
  0
ARC
  5
67AC
330
1E
100
AcDbEntity
  8
24
  6
DASHDOT
100
AcDbCircle
 10
190.343186
 20
41.2999999999999
 30
0.0
 40
0.3
100
AcDbArc
 50
270.0
 51
0.0
  0
ARC
  5
67AD
330
1E
100
AcDbEntity
  8
24
  6
DASHDOT
100
AcDbCircle
 10
190.343186
 20
42.69999999999997
 30
0.0
 40
0.3
100
AcDbArc
 50
0.0
 51
90.0
  0
LINE
  5
67AE
330
1E
100
AcDbEntity
  8
24
  6
DASHDOT
100
AcDbLine
 10
190.643186
 20
41.2999999999999
 30
0.0
 11
190.643186
 21
42.69999999999997
 31
0.0
  0
SPLINE
  5
67AF
330
1E
100
AcDbEntity
  8
24
  6
DASHDOT
100
AcDbSpline
210
0.0
220
0.0
230
1.0
 70
     8
 71
     3
 72
    55
 73
    51
 74
    49
 42
0.0000000001
 43
0.0000000001
 44
0.000001
 12
0.0034274732673631
 22
0.9999941261962501
 32
0.0
 13
-0.2169304578161108
 23
0.9761870601845183
 33
0.0
 40
0.0
 40
0.0
 40
0.0
 40
0.0
 40
0.0427086049425902
 40
0.0854177080221451
 40
0.1281352723290123
 40
0.1708528366909972
 40
0.213589594901824
 40
0.2563263532964653
 40
0.2990929617672809
 40
0.3418595701321126
 40
0.3846662484938517
 40
0.4274729470214508
 40
0.470328007413464
 40
0.5131830885102556
 40
0.5560931903518634
 40
0.5990033122573357
 40
0.6419737794884695
 40
0.6849442657658469
 40
0.7279791425818031
 40
0.7710140376812606
 40
0.8141161053717402
 40
0.8572181901295104
 40
0.9003890705752827
 40
0.9435599668248462
 40
0.9868002107146068
 40
1.030040469101924
 40
1.073349544004224
 40
1.116658633328788
 40
1.160034714256737
 40
1.203410808311379
 40
1.246851066592732
 40
1.290291336657846
 40
1.33379210576073
 40
1.377292885207329
 40
1.420849610856995
 40
1.46440634647629
 40
1.508013246268118
 40
1.551620154672124
 40
1.595270672544819
 40
1.638921197651827
 40
1.682608233658571
 40
1.726295275366158
 40
1.770011200883284
 40
1.813727130701521
 40
1.857463630821884
 40
1.901200133772457
 40
1.944948554768532
 40
1.98869697712347
 40
2.032448518077329
 40
2.076200740729746
 40
2.076200740729746
 40
2.076200740729746
 40
2.076200740729746
 10
190.2404301442141
 20
42.00000044462342
 30
0.0
 10
190.2404789384146
 20
42.0142365626503
 30
0.0
 10
190.2404619132673
 20
42.0427094824187
 30
0.0
 10
190.2400991083144
 20
42.08542012263015
 30
0.0
 10
190.2393962464133
 20
42.12812954053995
 30
0.0
 10
190.2383544731593
 20
42.17084124511994
 30
0.0
 10
190.2369739566533
 20
42.21354974676464
 30
0.0
 10
190.2352549071125
 20
42.25626232106648
 30
0.0
 10
190.2331979279388
 20
42.29896991562923
 30
0.0
 10
190.2308028926174
 20
42.34168323023975
 30
0.0
 10
190.2280707731031
 20
42.38438968910198
 30
0.0
 10
190.2250083639593
 20
42.42710327109623
 30
0.0
 10
190.2216243510542
 20
42.46980874402936
 30
0.0
 10
190.2179250945702
 20
42.51252264204525
 30
0.0
 10
190.213919726465
 20
42.55522733958278
 30
0.0
 10
190.2096141599339
 20
42.59794145381093
 30
0.0
 10
190.2050179739581
 20
42.64064550148154
 30
0.0
 10
190.2001366388395
 20
42.6833597330686
 30
0.0
 10
190.1949801676517
 20
42.72606323957768
 30
0.0
 10
190.1895537940792
 20
42.76877748511613
 30
0.0
 10
190.1838681146157
 20
42.81148057304359
 30
0.0
 10
190.1779279841351
 20
42.85419475894874
 30
0.0
 10
190.1717443524249
 20
42.89689754138648
 30
0.0
 10
190.1653217486694
 20
42.93961159207824
 30
0.0
 10
190.1586714174621
 20
42.98231417086966
 30
0.0
 10
190.1517976291612
 20
43.02502798890509
 30
0.0
 10
190.1447118583997
 20
43.06773040231547
 30
0.0
 10
190.1374189534304
 20
43.11044384435175
 30
0.0
 10
190.1299312846763
 20
43.15314624295854
 30
0.0
 10
190.122253612971
 20
43.19585930100902
 30
0.0
 10
190.1143983558826
 20
43.2385618005934
 30
0.0
 10
190.1063702737842
 20
43.28127442190193
 30
0.0
 10
190.0981817416562
 20
43.32397710435986
 30
0.0
 10
190.0898376125245
 20
43.36668919880482
 30
0.0
 10
190.0813501369471
 20
43.40939205020738
 30
0.0
 10
190.0727253598964
 20
43.45210346030678
 30
0.0
 10
190.0639762952843
 20
43.49480665067073
 30
0.0
 10
190.0551092875803
 20
43.53751742622621
 30
0.0
 10
190.0461370171119
 20
43.58022106494802
 30
0.0
 10
190.0370662083013
 20
43.62293117969494
 30
0.0
 10
190.0279091254994
 20
43.66563532554532
 30
0.0
 10
190.0186729478772
 20
43.70834473312636
 30
0.0
 10
190.0093694610585
 20
43.75104938132041
 30
0.0
 10
190.0000069444025
 20
43.79375800003344
 30
0.0
 10
189.990597205767
 20
43.836463259518
 30
0.0
 10
189.9811491243556
 20
43.87917114190695
 30
0.0
 10
189.9716738620959
 20
43.92187707073069
 30
0.0
 10
189.9621810874455
 20
43.96458424400533
 30
0.0
 10
189.9526806538342
 20
44.00729101180645
 30
0.0
 10
189.9463500979679
 20
44.03576366008756
 30
0.0
 10
189.943186368071
 20
44.05000044462343
 30
0.0
 11
190.2404301442141
 21
42.00000044462342
 31
0.0
 11
190.2404065706335
 21
42.04270954657028
 31
0.0
 11
190.2400433334449
 21
42.08541711129014
 31
0.0
 11
190.2393406499771
 21
42.12812890414244
 31
0.0
 11
190.2382990767931
 21
42.17083377795687
 31
0.0
 11
190.2369184781793
 21
42.21354824128565
 31
0.0
 11
190.2351999329258
 21
42.2562504446236
 31
0.0
 11
190.233142615323
 21
42.29896755409089
 31
0.0
 11
190.2307484605099
 21
42.34166711129034
 31
0.0
 11
190.2280168619258
 21
42.38438656388074
 31
0.0
 11
190.2249569675394
 21
42.42708377795718
 31
0.0
 11
190.2215730619336
 21
42.46980504862148
 31
0.0
 11
190.2178767593164
 21
42.51250044462387
 31
0.0
 11
190.2138710633177
 21
42.55522318651884
 31
0.0
 11
190.209568890469
 21
42.59791711129054
 31
0.0
 11
190.2049719367821
 21
42.64064099595582
 31
0.0
 11
190.2000944156259
 21
42.68333377795721
 31
0.0
 11
190.1949367827504
 21
42.72605848411529
 31
0.0
 11
190.1895146348056
 21
42.76875044462378
 31
0.0
 11
190.1838274043068
 21
42.8114756661315
 31
0.0
 11
190.1778918295871
 21
42.85416711129032
 31
0.0
 11
190.1717063057971
 21
42.89689257173954
 31
0.0
 11
190.1652885269393
 21
42.93958377795688
 31
0.0
 11
190.1586360210504
 21
42.98230922109411
 31
0.0
 11
190.1517672538311
 21
43.02500044462356
 31
0.0
 11
190.1446792211666
 21
43.06772556961259
 31
0.0
 11
190.1373915611581
 21
43.11041711129024
 31
0.0
 11
190.1299015123093
 21
43.15314162444003
 31
0.0
 11
190.1222290955231
 21
43.19583377795679
 31
0.0
 11
190.1143714291725
 21
43.23855746570183
 31
0.0
 11
190.1063485274546
 21
43.28125044462365
 31
0.0
 11
190.0981576414142
 21
43.32397311548795
 31
0.0
 11
190.0898185274821
 21
43.36666711129037
 31
0.0
 11
190.0813290076195
 21
43.40938849561559
 31
0.0
 11
190.0727091266332
 21
43.4520837779571
 31
0.0
 11
190.0639582801899
 21
43.4948036169464
 31
0.0
 11
190.0550957979303
 21
43.53750044462384
 31
0.0
 11
190.0461220984362
 21
43.58021859799186
 31
0.0
 11
190.0370553748937
 21
43.62291711129052
 31
0.0
 11
190.0278972882088
 21
43.66563346306604
 31
0.0
 11
190.0186646910445
 21
43.70833377795706
 31
0.0
 11
190.0093607863808
 21
43.7510481740245
 31
0.0
 11
190.0000013666238
 21
43.79375044462364
 31
0.0
 11
189.9905917780915
 21
43.83646275220502
 31
0.0
 11
189.9811461687571
 21
43.87916711129007
 31
0.0
 11
189.9716716948574
 21
43.92187728348965
 31
0.0
 11
189.962180651291
 21
43.96458377795676
 31
0.0
 11
189.9526820789571
 21
44.00729179325089
 31
0.0
 11
189.943186368071
 21
44.05000044462343
 31
0.0
  0
LINE
  5
67B0
330
1E
100
AcDbEntity
  8
24
  6
DASHDOT
100
AcDbLine
 10
190.2431859999999
 20
40.99999999999993
 30
0.0
 11
190.343186
 21
40.99999999999993
 31
0.0
  0
LINE
  5
67B1
330
1E
100
AcDbEntity
  8
24
  6
DASHDOT
100
AcDbLine
 10
190.2431859999999
 20
42.99999999999993
 30
0.0
 11
190.343186
 21
42.99999999999993
 31
0.0
  0
LINE
  5
67B2
330
1E
100
AcDbEntity
  8
24
  6
DASHDOT
100
AcDbLine
 10
189.649067
 20
41.99999999999993
 30
0.0
 11
190.2431859999999
 21
41.99999999999993
 31
0.0
  0
ARC
  5
67B3
330
1E
100
AcDbEntity
  8
24
  6
DASHDOT
100
AcDbCircle
 10
190.343186
 20
37.29999999999989
 30
0.0
 40
0.3
100
AcDbArc
 50
270.0
 51
0.0
  0
ARC
  5
67B4
330
1E
100
AcDbEntity
  8
24
  6
DASHDOT
100
AcDbCircle
 10
190.343186
 20
38.69999999999999
 30
0.0
 40
0.3
100
AcDbArc
 50
0.0
 51
90.0
  0
LINE
  5
67B5
330
1E
100
AcDbEntity
  8
24
  6
DASHDOT
100
AcDbLine
 10
190.2431859999999
 20
36.99999999999993
 30
0.0
 11
190.343186
 21
36.99999999999993
 31
0.0
  0
LINE
  5
67B6
330
1E
100
AcDbEntity
  8
24
  6
DASHDOT
100
AcDbLine
 10
190.2431859999999
 20
38.99999999999993
 30
0.0
 11
190.343186
 21
38.99999999999993
 31
0.0
  0
LINE
  5
67B7
330
1E
100
AcDbEntity
  8
24
  6
DASHDOT
100
AcDbLine
 10
190.643186
 20
38.69999999999999
 30
0.0
 11
190.643186
 21
37.29999999999989
 31
0.0
  0
SPLINE
  5
67B8
330
1E
100
AcDbEntity
  8
24
  6
DASHDOT
100
AcDbSpline
210
0.0
220
0.0
230
1.0
 70
     8
 71
     3
 72
    71
 73
    67
 74
    65
 42
0.0000000001
 43
0.0000000001
 44
0.000001
 12
0.2169304578185635
 22
0.9761870601839733
 32
0.0
 13
0.2169304578186914
 23
0.9761870601839451
 33
0.0
 40
0.0
 40
0.0
 40
0.0
 40
0.0
 40
0.1296676152132879
 40
0.2593353661303503
 40
0.38886205870914
 40
0.5183882630553144
 40
0.6475267039588749
 40
0.7766641595440439
 40
0.9052195797373784
 40
1.033773477100901
 40
1.161657696846863
 40
1.289541252873622
 40
1.416833340182301
 40
1.544124711226158
 40
1.670973814695154
 40
1.797822167178477
 40
1.924426044889863
 40
2.051029163199961
 40
2.177632266838573
 40
2.304236174937099
 40
2.431082895359966
 40
2.557930403629496
 40
2.685213919979055
 40
2.812498180487578
 40
2.940360613246113
 40
3.068223728644987
 40
3.19674044094522
 40
3.32525847201063
 40
3.454367662412862
 40
3.58347776258974
 40
3.713024407423685
 40
3.842571583176024
 40
3.972349638440155
 40
4.102127800249458
 40
4.231905962058695
 40
4.361684017322937
 40
4.491231193075097
 40
4.620777837909151
 40
4.749887938085968
 40
4.878997128488263
 40
5.007515159553676
 40
5.136031871853958
 40
5.26389498725265
 40
5.391757420011268
 40
5.519041680519794
 40
5.646325196869373
 40
5.773172705138915
 40
5.900019425561777
 40
6.026623333660289
 40
6.153226437298915
 40
6.279829555609002
 40
6.40643343332039
 40
6.533281785803708
 40
6.660130889272688
 40
6.78742226031653
 40
6.914714347625238
 40
7.042597903651955
 40
7.170482123397892
 40
7.299036020761493
 40
7.427591440954917
 40
7.556728896539936
 40
7.685867337443649
 40
7.815393541789803
 40
7.944920234368655
 40
8.074587985285777
 40
8.204255600499102
 40
8.204255600499102
 40
8.204255600499102
 40
8.204255600499102
 10
189.943186368071
 20
35.9500004446234
 30
0.0
 10
189.9525626531152
 20
35.99219372732211
 30
0.0
 10
189.9714054459252
 20
36.07656025777829
 30
0.0
 10
189.999642463165
 20
36.20306794917787
 30
0.0
 10
190.0275554946209
 20
36.32959951484816
 30
0.0
 10
190.0548219914314
 20
36.45609198717623
 30
0.0
 10
190.081157200006
 20
36.58264983747463
 30
0.0
 10
190.1062220622561
 20
36.70913653488048
 30
0.0
 10
190.1297436082932
 20
36.83572230049259
 30
0.0
 10
190.1513764421159
 20
36.96222239988908
 30
0.0
 10
190.1708478510342
 20
37.08884771256467
 30
0.0
 10
190.1880266420516
 20
37.2153804480626
 30
0.0
 10
190.2028409644007
 20
37.34201342639868
 30
0.0
 10
190.2151744657308
 20
37.46856631222264
 30
0.0
 10
190.2249431651335
 20
37.59519526675332
 30
0.0
 10
190.2320430624099
 20
37.72177310131091
 30
0.0
 10
190.2363790588486
 20
37.8483943323187
 30
0.0
 10
190.2378560457471
 20
37.9750003881462
 30
0.0
 10
190.2363730766243
 20
38.10160636040642
 30
0.0
 10
190.2320373046337
 20
38.22822699085556
 30
0.0
 10
190.224950092235
 20
38.35480435843144
 30
0.0
 10
190.2152127352218
 20
38.48143187430897
 30
0.0
 10
190.2029353790577
 20
38.60798425121823
 30
0.0
 10
190.1882084236002
 20
38.73461485599549
 30
0.0
 10
190.1711539597373
 20
38.86114734086641
 30
0.0
 10
190.1518505488825
 20
38.98777130831575
 30
0.0
 10
190.1304339934685
 20
39.11427568755685
 30
0.0
 10
190.1071357457399
 20
39.24086796516425
 30
0.0
 10
190.0822588948194
 20
39.36736005329494
 30
0.0
 10
190.056033508815
 20
39.49392868621778
 30
0.0
 10
190.0287589686893
 20
39.62042402654975
 30
0.0
 10
190.0006737327664
 20
39.74696938330831
 30
0.0
 10
189.972064547807
 20
39.87347608099284
 30
0.0
 10
189.9431863680709
 20
40.00000044462334
 30
0.0
 10
189.9143081883352
 20
40.12652480825397
 30
0.0
 10
189.8856990033757
 20
40.25303150593841
 30
0.0
 10
189.8576137674529
 20
40.37957686269704
 30
0.0
 10
189.8303392273269
 20
40.50607220302886
 30
0.0
 10
189.8041138413226
 20
40.63264083595177
 30
0.0
 10
189.7792369904019
 20
40.75913292408246
 30
0.0
 10
189.7559387426737
 20
40.88572520168994
 30
0.0
 10
189.7345221872599
 20
41.01222958093104
 30
0.0
 10
189.7152187764044
 20
41.13885354838027
 30
0.0
 10
189.6981643125421
 20
41.26538603325122
 30
0.0
 10
189.6834373570846
 20
41.39201663802853
 30
0.0
 10
189.67116000092
 20
41.51856901493774
 30
0.0
 10
189.661422643907
 20
41.64519653081529
 30
0.0
 10
189.6543354315082
 20
41.77177389839117
 30
0.0
 10
189.6499996595174
 20
41.89839452884029
 30
0.0
 10
189.6485166903949
 20
42.02500050110052
 30
0.0
 10
189.649993677293
 20
42.15160655692801
 30
0.0
 10
189.654329673732
 20
42.27822778793581
 30
0.0
 10
189.661429571008
 20
42.40480562249342
 30
0.0
 10
189.6711982704106
 20
42.53143457702406
 30
0.0
 10
189.6835317717405
 20
42.65798746284807
 30
0.0
 10
189.6983460940901
 20
42.78462044118408
 30
0.0
 10
189.7155248851068
 20
42.91115317668208
 30
0.0
 10
189.7349962940256
 20
43.0377784893576
 30
0.0
 10
189.7566291278482
 20
43.16427858875416
 30
0.0
 10
189.7801506738858
 20
43.29086435436621
 30
0.0
 10
189.8052155361353
 20
43.41735105177215
 30
0.0
 10
189.8315507447103
 20
43.54390890207051
 30
0.0
 10
189.858817241521
 20
43.67040137439857
 30
0.0
 10
189.8867302729769
 20
43.79693294006893
 30
0.0
 10
189.9149672902168
 20
43.92344063146854
 30
0.0
 10
189.9338100830269
 20
44.00780716192471
 30
0.0
 10
189.943186368071
 20
44.05000044462343
 30
0.0
 11
189.943186368071
 21
35.9500004446234
 31
0.0
 11
189.9714036118175
 21
36.07656077911093
 31
0.0
 11
189.9996013517613
 21
36.20312544462342
 31
0.0
 11
190.027455005638
 21
36.32962184637591
 31
0.0
 11
190.0546990409248
 21
36.45625044462338
 31
0.0
 11
190.0809572255478
 21
36.58269112846431
 31
0.0
 11
190.1060085426998
 21
36.70937544462339
 31
0.0
 11
190.1294421057301
 21
36.83577705193431
 31
0.0
 11
190.1510589642245
 21
36.96250044462334
 31
0.0
 11
190.1704768606835
 21
37.08890187407536
 31
0.0
 11
190.1876624083866
 21
37.2156254446234
 31
0.0
 11
190.2024347254624
 21
37.34205746834867
 31
0.0
 11
190.2147629610663
 21
37.46875044462337
 31
0.0
 11
190.2245020341241
 21
37.59522513762959
 31
0.0
 11
190.2315877038939
 21
37.72187544462342
 31
0.0
 11
190.2359040272394
 21
37.84840573200682
 31
0.0
 11
190.2373637184985
 21
37.97500044462339
 31
0.0
 11
190.2358990754049
 21
38.10159508522615
 31
0.0
 11
190.2315839866059
 21
38.22812544462334
 31
0.0
 11
190.2245120288083
 21
38.35477488249484
 31
0.0
 11
190.214805090329
 21
38.4812504446234
 31
0.0
 11
190.2025341869816
 21
38.60794109337024
 31
0.0
 11
190.1878495118761
 21
38.73437544462337
 31
0.0
 11
190.17078992846
 21
38.86109471737808
 31
0.0
 11
190.1515397334556
 21
38.98750044462342
 31
0.0
 11
190.1301334638676
 21
39.11422186513277
 31
0.0
 11
190.1069166451481
 21
39.24062544462339
 31
0.0
 11
190.0820464567939
 21
39.36731663559402
 31
0.0
 11
190.055894768522
 21
39.49375044462334
 31
0.0
 11
190.0286327761964
 21
39.62039608279235
 31
0.0
 11
190.0006070330164
 21
39.7468754446234
 31
0.0
 11
189.9720235417403
 21
39.8734666289884
 31
0.0
 11
189.943186368071
 21
40.00000044462342
 31
0.0
 11
189.9143491944018
 21
40.12653426025832
 31
0.0
 11
189.8857657031258
 21
40.25312544462344
 31
0.0
 11
189.8577399599458
 21
40.37960480645431
 31
0.0
 11
189.83047796762
 21
40.50625044462338
 31
0.0
 11
189.8043262793481
 21
40.63268425365264
 31
0.0
 11
189.7794560909938
 21
40.75937544462334
 31
0.0
 11
189.7562392722745
 21
40.885779024114
 31
0.0
 11
189.7348330026867
 21
41.0125004446234
 31
0.0
 11
189.715582807682
 21
41.13890617186854
 31
0.0
 11
189.6985232242662
 21
41.26562544462337
 31
0.0
 11
189.6838385491605
 21
41.39205979587649
 31
0.0
 11
189.6715676458129
 21
41.51875044462332
 31
0.0
 11
189.6618607073336
 21
41.6452260067519
 31
0.0
 11
189.654788749536
 21
41.77187544462339
 31
0.0
 11
189.650473660737
 21
41.89840580402057
 31
0.0
 11
189.6490090176435
 21
42.02500044462334
 31
0.0
 11
189.6504687089023
 21
42.1515951572399
 31
0.0
 11
189.6547850322479
 21
42.2781254446233
 31
0.0
 11
189.6618707020175
 21
42.40477575161714
 31
0.0
 11
189.6716097750751
 21
42.53125044462335
 31
0.0
 11
189.683938010679
 21
42.65794342089804
 31
0.0
 11
189.698710327755
 21
42.78437544462332
 31
0.0
 11
189.7158958754577
 21
42.91109901517137
 31
0.0
 11
189.7353137719169
 21
43.03750044462332
 31
0.0
 11
189.7569306304115
 21
43.16422383731242
 31
0.0
 11
189.780364193442
 21
43.29062544462339
 31
0.0
 11
189.8054155105938
 21
43.41730976078236
 31
0.0
 11
189.831673695217
 21
43.5437504446234
 31
0.0
 11
189.8589177305039
 21
43.67037904287082
 31
0.0
 11
189.8867713843806
 21
43.79687544462337
 31
0.0
 11
189.9149691243245
 21
43.9234401101359
 31
0.0
 11
189.943186368071
 21
44.05000044462343
 31
0.0
  0
LINE
  5
67B9
330
1E
100
AcDbEntity
  8
24
  6
DASHDOT
100
AcDbLine
 10
194.443186
 20
37.49999999999993
 30
0.0
 11
192.943186
 21
37.49999999999993
 31
0.0
  0
LINE
  5
67BA
330
1E
100
AcDbEntity
  8
24
  6
DASHDOT
100
AcDbLine
 10
194.443186
 20
42.49999999999993
 30
0.0
 11
192.943186
 21
42.49999999999993
 31
0.0
  0
LINE
  5
67BB
330
1E
100
AcDbEntity
  8
24
  6
DASHDOT
100
AcDbLine
 10
201.7490099999999
 20
42.49999999999993
 30
0.0
 11
202.74901
 21
41.49999999999994
 31
0.0
  0
LINE
  5
67BC
330
1E
100
AcDbEntity
  8
24
  6
DASHDOT
100
AcDbLine
 10
201.7490099999999
 20
37.49999999999993
 30
0.0
 11
202.74901
 21
38.49999999999993
 31
0.0
  0
LINE
  5
67BD
330
1E
100
AcDbEntity
  8
24
  6
DASHDOT
100
AcDbLine
 10
201.7490099999999
 20
42.49999999999993
 30
0.0
 11
201.7490099999999
 21
37.49999999999993
 31
0.0
  0
LINE
  5
67BE
330
1E
100
AcDbEntity
  8
24
  6
DASHDOT
100
AcDbLine
 10
202.74901
 20
38.49999999999993
 30
0.0
 11
202.74901
 21
41.49999999999994
 31
0.0
  0
LINE
  5
694A
330
1E
100
AcDbEntity
  8
16
100
AcDbLine
 10
0.0000000000000041
 20
119.9708194754172
 30
0.0
 11
0.0000000000000041
 21
220.159372
 31
0.0
  0
DIMENSION
  5
694B
330
1E
100
AcDbEntity
  8
30
  6
Continuous
100
AcDbDimension
  2
*D28
 10
-53.83820679239235
 20
138.0
 30
0.0
 11
-53.83820679239235
 21
180.0
 31
0.0
 70
   160
  1
<>
 71
     5
 42
84.0
  3
STANDARD
100
AcDbAlignedDimension
 13
-37.50004299999997
 23
222.0
 33
0.0
 14
-6.050003499999981
 24
138.0
 34
0.0
 50
90.0
100
AcDbRotatedDimension
  0
DIMENSION
  5
694C
330
1E
100
AcDbEntity
  8
30
  6
Continuous
100
AcDbDimension
  2
*D29
 10
-45.65940379239232
 20
162.0000589999999
 30
0.0
 11
-45.65940379239235
 21
192.00003
 31
0.0
 70
   160
  1
<>
 71
     5
 42
59.99994100000002
  3
STANDARD
100
AcDbAlignedDimension
 13
-42.50009700000007
 23
221.9999999999999
 33
0.0
 14
-36.40001400000003
 24
162.0000589999999
 34
0.0
 50
90.0
100
AcDbRotatedDimension
  0
DIMENSION
  5
694D
330
1E
100
AcDbEntity
  8
30
  6
Continuous
100
AcDbDimension
  2
*D30
 10
-45.65940379239232
 20
154.0
 30
0.0
 11
-45.65940379239235
 21
158.0
 31
0.0
 70
   160
  1
<>
 71
     5
 42
7.999999999999943
  3
STANDARD
100
AcDbAlignedDimension
 13
-37.00004299999998
 23
161.9999999999999
 33
0.0
 14
-37.38185199999996
 24
154.0
 34
0.0
 50
90.0
100
AcDbRotatedDimension
  0
DIMENSION
  5
694E
330
1E
100
AcDbEntity
  8
30
  6
Continuous
100
AcDbDimension
  2
*D31
 10
-45.61813968446947
 20
150.0
 30
0.0
 11
-45.6181396844695
 21
152.0
 31
0.0
 70
   160
  1
<>
 71
     5
 42
4.0
  3
STANDARD
100
AcDbAlignedDimension
 13
-36.00003199999999
 23
154.0
 33
0.0
 14
-26.72248020760749
 24
150.0
 34
0.0
 50
90.0
100
AcDbRotatedDimension
1001
ACAD
1000
DSTYLE
1002
{
1070
   172
1070
     1
1002
}
  0
DIMENSION
  5
694F
330
1E
100
AcDbEntity
  8
30
  6
Continuous
100
AcDbDimension
  2
*D32
 10
45.79954771902376
 20
198.0
 30
0.0
 11
42.79954771902374
 21
210.0
 31
0.0
 70
    32
 71
     5
 42
24.00000000000003
  3
STANDARD
100
AcDbAlignedDimension
 13
37.48174799999999
 23
222.0
 33
0.0
 14
29.8818505
 24
198.0
 34
0.0
 50
90.0
100
AcDbRotatedDimension
  0
LINE
  5
6950
330
1E
100
AcDbEntity
  8
10
  6
Continuous
100
AcDbLine
 10
37.48174799999999
 20
222.0
 30
0.0
 11
37.48174799999999
 21
162.5
 31
0.0
  0
LINE
  5
6951
330
1E
100
AcDbEntity
  8
10
  6
Continuous
100
AcDbLine
 10
-37.50004299999997
 20
222.0
 30
0.0
 11
-37.50004299999997
 21
162.5
 31
0.0
  0
LINE
  5
6952
330
1E
100
AcDbEntity
  8
10
  6
Continuous
100
AcDbLine
 10
10.381745
 20
150.0
 30
0.0
 11
-10.38185299999999
 21
150.0
 31
0.0
  0
LINE
  5
6953
330
1E
100
AcDbEntity
  8
10
  6
Continuous
100
AcDbLine
 10
10.5362935
 20
151.0
 30
0.0
 11
-10.53640149999998
 21
151.0
 31
0.0
  0
LINE
  5
6954
330
1E
100
AcDbEntity
  8
10
  6
Continuous
100
AcDbLine
 10
35.88174799999999
 20
154.0
 30
0.0
 11
-36.00003199999999
 21
154.0
 31
0.0
  0
LINE
  5
6955
330
1E
100
AcDbEntity
  8
10
  6
Continuous
100
AcDbLine
 10
36.98174799999999
 20
162.0
 30
0.0
 11
-37.00004299999998
 21
162.0
 31
0.0
  0
LINE
  5
695E
330
1E
100
AcDbEntity
  8
10
  6
Continuous
100
AcDbLine
 10
-36.00003199999999
 20
154.0
 30
0.0
 11
-36.00003199999999
 21
162.0
 31
0.0
  0
LINE
  5
695F
330
1E
100
AcDbEntity
  8
10
  6
Continuous
100
AcDbLine
 10
-11.00004699999998
 20
154.0
 30
0.0
 11
-10.38185299999999
 21
150.0
 31
0.0
  0
ARC
  5
6960
330
1E
100
AcDbEntity
  8
10
  6
Continuous
100
AcDbCircle
 10
-37.00004299999998
 20
162.4999999999998
 30
0.0
 40
0.5
100
AcDbArc
 50
180.0
 51
270.0
  0
LINE
  5
6961
330
1E
100
AcDbEntity
  8
10
  6
Continuous
100
AcDbLine
 10
-6.050003499999981
 20
138.0
 30
0.0
 11
-6.050003499999981
 21
150.0
 31
0.0
  0
LINE
  5
6962
330
1E
100
AcDbEntity
  8
10
  6
Continuous
100
AcDbLine
 10
6.050003500000079
 20
138.0
 30
0.0
 11
6.050003500000079
 21
150.0
 31
0.0
  0
LINE
  5
6963
330
1E
100
AcDbEntity
  8
10
  6
Continuous
100
AcDbLine
 10
-6.050003499999981
 20
138.0
 30
0.0
 11
6.050003500000079
 21
138.0
 31
0.0
  0
LINE
  5
6979
330
1E
100
AcDbEntity
  8
10
  6
Continuous
100
AcDbLine
 10
35.99993900000001
 20
162.0
 30
0.0
 11
35.99993900000001
 21
154.0
 31
0.0
  0
LINE
  5
697A
330
1E
100
AcDbEntity
  8
10
  6
Continuous
100
AcDbLine
 10
10.99993899999999
 20
154.0
 30
0.0
 11
10.381745
 21
150.0
 31
0.0
  0
ARC
  5
697B
330
1E
100
AcDbEntity
  8
10
  6
Continuous
100
AcDbCircle
 10
36.98174799999999
 20
162.5
 30
0.0
 40
0.5
100
AcDbArc
 50
270.0
 51
0.0
  0
LINE
  5
698C
330
1E
100
AcDbEntity
  8
10
  6
Continuous
100
AcDbLine
 10
37.48174799999999
 20
222.0
 30
0.0
 11
-37.50004299999997
 21
222.0
 31
0.0
  0
LINE
  5
69FE
330
1E
100
AcDbEntity
  8
17
  6
DASHDOT
100
AcDbLine
 10
5.000000000000009
 20
157.0
 30
0.0
 11
5.000000000000009
 21
198.0
 31
0.0
  0
LINE
  5
69FF
330
1E
100
AcDbEntity
  8
17
  6
DASHDOT
100
AcDbLine
 10
-4.999999999999988
 20
157.0
 30
0.0
 11
-4.999999999999988
 21
198.0
 31
0.0
  0
LINE
  5
6A00
330
1E
100
AcDbEntity
  8
24
  6
DASHDOT
100
AcDbLine
 10
-4.881807999999966
 20
193.5999999999999
 30
0.0
 11
5.118192000000032
 21
193.5999999999999
 31
0.0
  0
ARC
  5
6A01
330
1E
100
AcDbEntity
  8
24
  6
DASHDOT
100
AcDbCircle
 10
0.1181920000000325
 20
202.2999999999999
 30
0.0
 40
12.0
100
AcDbArc
 50
254.58
 51
285.5199999999999
  0
LINE
  5
6A02
330
1E
100
AcDbEntity
  8
24
  6
DASHDOT
100
AcDbLine
 10
-4.999999999999988
 20
198.0
 30
0.0
 11
5.000000000000009
 21
198.0
 31
0.0
  0
LINE
  5
6A03
330
1E
100
AcDbEntity
  8
24
  6
DASHDOT
100
AcDbLine
 10
-4.499999999999988
 20
194.5999999999999
 30
0.0
 11
4.500000000000009
 21
194.5999999999999
 31
0.0
  0
LINE
  5
6A04
330
1E
100
AcDbEntity
  8
24
  6
DASHDOT
100
AcDbLine
 10
-4.999999999999988
 20
196.0
 30
0.0
 11
5.000000000000009
 21
196.0
 31
0.0
  0
LINE
  5
6A05
330
1E
100
AcDbEntity
  8
24
  6
DASHDOT
100
AcDbLine
 10
-4.881807999999966
 20
193.5999999999999
 30
0.0
 11
-4.881807999999966
 21
194.5999999999999
 31
0.0
  0
LINE
  5
6A06
330
1E
100
AcDbEntity
  8
24
  6
DASHDOT
100
AcDbLine
 10
-4.381807999999966
 20
193.5999999999999
 30
0.0
 11
-4.251807999999971
 21
192.1399999999998
 31
0.0
  0
ARC
  5
6A07
330
1E
100
AcDbEntity
  8
24
  6
DASHDOT
100
AcDbCircle
 10
-2.661807999999939
 20
192.2799999999999
 30
0.0
 40
1.6
100
AcDbArc
 50
185.25
 51
254.58
  0
LINE
  5
6A08
330
1E
100
AcDbEntity
  8
24
  6
DASHDOT
100
AcDbLine
 10
-4.499999999999988
 20
196.0
 30
0.0
 11
-4.499999999999988
 21
194.5999999999999
 31
0.0
  0
LINE
  5
6A09
330
1E
100
AcDbEntity
  8
24
  6
DASHDOT
100
AcDbLine
 10
4.500000000000009
 20
194.5999999999999
 30
0.0
 11
4.500000000000009
 21
196.0
 31
0.0
  0
LINE
  5
6A0A
330
1E
100
AcDbEntity
  8
24
  6
DASHDOT
100
AcDbLine
 10
4.618192000000032
 20
193.5999999999999
 30
0.0
 11
4.488192000000037
 21
192.1399999999998
 31
0.0
  0
ARC
  5
6A0B
330
1E
100
AcDbEntity
  8
24
  6
DASHDOT
100
AcDbCircle
 10
2.898192000000004
 20
192.2799999999999
 30
0.0
 40
1.6
100
AcDbArc
 50
285.5199999999999
 51
354.8399999999998
  0
LINE
  5
6A0C
330
1E
100
AcDbEntity
  8
24
  6
DASHDOT
100
AcDbLine
 10
5.118192000000032
 20
193.5999999999999
 30
0.0
 11
5.118192000000032
 21
194.5999999999999
 31
0.0
  0
LINE
  5
6A0D
330
1E
100
AcDbEntity
  8
17
  6
DASHDOT
100
AcDbLine
 10
-20.0
 20
157.0
 30
0.0
 11
-20.0
 21
198.0
 31
0.0
  0
LINE
  5
6A0E
330
1E
100
AcDbEntity
  8
17
  6
DASHDOT
100
AcDbLine
 10
-30.0
 20
157.0
 30
0.0
 11
-30.0
 21
198.0
 31
0.0
  0
LINE
  5
6A0F
330
1E
100
AcDbEntity
  8
24
  6
DASHDOT
100
AcDbLine
 10
-29.88180799999998
 20
193.5999999999999
 30
0.0
 11
-19.88180799999996
 21
193.5999999999999
 31
0.0
  0
ARC
  5
6A10
330
1E
100
AcDbEntity
  8
24
  6
DASHDOT
100
AcDbCircle
 10
-24.88180799999998
 20
202.2999999999999
 30
0.0
 40
12.0
100
AcDbArc
 50
254.58
 51
285.5199999999999
  0
LINE
  5
6A11
330
1E
100
AcDbEntity
  8
24
  6
DASHDOT
100
AcDbLine
 10
-30.0
 20
198.0
 30
0.0
 11
-20.0
 21
198.0
 31
0.0
  0
LINE
  5
6A12
330
1E
100
AcDbEntity
  8
24
  6
DASHDOT
100
AcDbLine
 10
-29.5
 20
194.5999999999999
 30
0.0
 11
-20.5
 21
194.5999999999999
 31
0.0
  0
LINE
  5
6A13
330
1E
100
AcDbEntity
  8
24
  6
DASHDOT
100
AcDbLine
 10
-30.0
 20
196.0
 30
0.0
 11
-20.0
 21
196.0
 31
0.0
  0
LINE
  5
6A14
330
1E
100
AcDbEntity
  8
24
  6
DASHDOT
100
AcDbLine
 10
-29.88180799999998
 20
193.5999999999999
 30
0.0
 11
-29.88180799999998
 21
194.5999999999999
 31
0.0
  0
LINE
  5
6A15
330
1E
100
AcDbEntity
  8
24
  6
DASHDOT
100
AcDbLine
 10
-29.38180799999996
 20
193.5999999999999
 30
0.0
 11
-29.25180799999997
 21
192.1399999999998
 31
0.0
  0
ARC
  5
6A16
330
1E
100
AcDbEntity
  8
24
  6
DASHDOT
100
AcDbCircle
 10
-27.66180799999994
 20
192.2799999999999
 30
0.0
 40
1.6
100
AcDbArc
 50
185.25
 51
254.58
  0
LINE
  5
6A17
330
1E
100
AcDbEntity
  8
24
  6
DASHDOT
100
AcDbLine
 10
-29.5
 20
196.0
 30
0.0
 11
-29.5
 21
194.5999999999999
 31
0.0
  0
LINE
  5
6A18
330
1E
100
AcDbEntity
  8
24
  6
DASHDOT
100
AcDbLine
 10
-20.5
 20
194.5999999999999
 30
0.0
 11
-20.5
 21
196.0
 31
0.0
  0
LINE
  5
6A19
330
1E
100
AcDbEntity
  8
24
  6
DASHDOT
100
AcDbLine
 10
-20.38180799999997
 20
193.5999999999999
 30
0.0
 11
-20.51180799999996
 21
192.1399999999998
 31
0.0
  0
ARC
  5
6A1A
330
1E
100
AcDbEntity
  8
24
  6
DASHDOT
100
AcDbCircle
 10
-22.10180799999999
 20
192.2799999999999
 30
0.0
 40
1.6
100
AcDbArc
 50
285.5199999999999
 51
354.8399999999998
  0
LINE
  5
6A1B
330
1E
100
AcDbEntity
  8
24
  6
DASHDOT
100
AcDbLine
 10
-19.88180799999996
 20
193.5999999999999
 30
0.0
 11
-19.88180799999996
 21
194.5999999999999
 31
0.0
  0
DIMENSION
  5
6AA9
330
1E
100
AcDbEntity
  8
30
  6
Continuous
100
AcDbDimension
  2
*D38
 10
127.08729
 20
-226.000008
 30
0.0
 11
89.97189279127161
 21
-191.6593410417412
 31
0.0
 70
   164
  1
lsess than <>
 71
     5
 42
2.000000618898212
  3
STANDARD
100
AcDbRadialDimension
 15
126.3611077654223
 25
-224.1365000612518
 35
0.0
 40
0.0
  0
DIMENSION
  5
6AAA
330
1E
100
AcDbEntity
  8
30
  6
Continuous
100
AcDbDimension
  2
*D39
 10
-12.49999799999989
 20
-322.1961159999999
 30
0.0
 11
-0.0000009999999451
 21
-322.1961159999999
 31
0.0
 70
   160
  1
<>
 71
     5
 42
24.9999939999999
  3
STANDARD
100
AcDbAlignedDimension
 13
12.49999600000001
 23
-302.4494199999998
 33
0.0
 14
-12.49999799999989
 24
-216.549718
 34
0.0
100
AcDbRotatedDimension
  0
LINE
  5
6AAB
330
1E
100
AcDbEntity
  8
12
  6
CONTINOUS
100
AcDbLine
 10
-16.43772399999994
 20
-208.0000119999999
 30
0.0
 11
-8.386839999999947
 21
-208.0000119999999
 31
0.0
  0
LWPOLYLINE
  5
6AAC
330
1E
100
AcDbEntity
  8
18
  6
DIVIDE
100
AcDbPolyline
 90
        4
 70
     1
 43
0.0
 10
-37.5
 20
-299.75
 10
37.5
 20
-299.75
 10
37.5
 20
-200.2499999999999
 10
-37.5
 20
-200.2499999999999
  0
MTEXT
  5
6AAD
330
1E
100
AcDbEntity
  8
30
  6
Continuous
100
AcDbMText
 10
-26.61234583273869
 20
-181.3301486896761
 30
0.0
 40
3.535533
 41
0.0
 71
     4
 72
     1
  1
\W0.786;\A1;M4 OR %%C5
  7
MX_NOTE_STANDARD
 73
     1
 44
1.0
  0
LEADER
  5
6AAE
330
1E
100
AcDbEntity
  8
30
  6
Continuous
100
AcDbLeader
  3
STANDARD
 74
     0
 76
     3
 10
-13.86880717739892
 20
-202.8113360354833
 30
0.0
 10
-30.30128414419186
 20
-184.2386880354833
 30
0.0
 10
-0.757761261491453
 20
-184.2386880354833
 30
0.0
  0
LINE
  5
6AAF
330
1E
100
AcDbEntity
  8
16
100
AcDbLine
 10
48.424128
 20
-250.0
 30
0.0
 11
-56.608689
 21
-250.0
 31
0.0
  0
CIRCLE
  5
6AB0
330
1E
100
AcDbEntity
  8
12
  6
CONTINOUS
100
AcDbCircle
 10
-12.49999799999989
 20
-208.0000119999999
 30
0.0
 40
1.999999
  0
CIRCLE
  5
6AB1
330
1E
100
AcDbEntity
  8
12
  6
CONTINOUS
100
AcDbCircle
 10
-12.49999799999989
 20
-208.0000119999999
 30
0.0
 40
1.25
  0
LINE
  5
6AB2
330
1E
100
AcDbEntity
  8
12
  6
CONTINOUS
100
AcDbLine
 10
-12.49999799999989
 20
-203.2000109999999
 30
0.0
 11
-12.49999799999989
 21
-212.2748639999999
 31
0.0
  0
DIMENSION
  5
6AB3
330
1E
100
AcDbEntity
  8
30
  6
Continuous
100
AcDbDimension
  2
*D40
 10
61.74569600000001
 20
-291.9999879999999
 30
0.0
 11
61.74569600000006
 21
-250.0
 31
0.0
 70
   160
  1
<>
 71
     5
 42
83.99997600000006
  3
STANDARD
100
AcDbAlignedDimension
 13
-4.273677999999904
 23
-208.0000119999999
 33
0.0
 14
20.09229200000004
 24
-291.9999879999999
 34
0.0
 50
90.0
100
AcDbRotatedDimension
  0
LINE
  5
6AB4
330
1E
100
AcDbEntity
  8
16
100
AcDbLine
 10
0.0
 20
-318.697891
 30
0.0
 11
0.0
 21
-178.75
 31
0.0
  0
LINE
  5
6AB5
330
1E
100
AcDbEntity
  8
12
  6
CONTINOUS
100
AcDbLine
 10
12.49999600000001
 20
-287.399991
 30
0.0
 11
12.49999600000001
 21
-297.2247039999998
 31
0.0
  0
LINE
  5
6AB6
330
1E
100
AcDbEntity
  8
12
  6
CONTINOUS
100
AcDbLine
 10
8.273223000000028
 20
-291.9999879999999
 30
0.0
 11
16.29614500000002
 21
-291.9999879999999
 31
0.0
  0
CIRCLE
  5
6AB7
330
1E
100
AcDbEntity
  8
12
  6
CONTINOUS
100
AcDbCircle
 10
12.49999600000001
 20
-291.9999879999999
 30
0.0
 40
1.999999
  0
CIRCLE
  5
6AB8
330
1E
100
AcDbEntity
  8
12
  6
CONTINOUS
100
AcDbCircle
 10
12.49999600000001
 20
-291.9999879999999
 30
0.0
 40
1.25
  0
DIMENSION
  5
6AB9
330
1E
100
AcDbEntity
  8
30
  6
Continuous
100
AcDbDimension
  2
*D41
 10
217.4642739999999
 20
-275.999994
 30
0.0
 11
222.1682223234164
 21
-250.0
 31
0.0
 70
   160
  1
more than 52
 71
     5
 42
51.99998600000004
 53
90.0
  3
STANDARD
100
AcDbAlignedDimension
 13
193.0872719999999
 23
-224.0000079999999
 33
0.0
 14
193.0872719999999
 24
-275.999994
 34
0.0
 50
90.0
100
AcDbRotatedDimension
1001
ACAD
1000
DSTYLE
1002
{
1070
   279
1070
     2
1002
}
  0
LINE
  5
6ABA
330
1E
100
AcDbEntity
  8
16
100
AcDbLine
 10
208.424128
 20
-250.0
 30
0.0
 11
103.391311
 21
-250.0
 31
0.0
  0
LWPOLYLINE
  5
6ABB
330
1E
100
AcDbEntity
  8
18
  6
DIVIDE
100
AcDbPolyline
 90
        4
 70
     1
 43
0.0
 10
122.5
 20
-299.75
 10
197.5
 20
-299.75
 10
197.5
 20
-200.2499999999999
 10
122.5
 20
-200.2499999999999
  0
ARC
  5
6ABC
330
1E
100
AcDbEntity
  8
11
  6
Continuous
100
AcDbCircle
 10
127.08729
 20
-226.0000079999999
 30
0.0
 40
2.0
100
AcDbArc
 50
90.0
 51
180.0000050000005
  0
ARC
  5
6ABD
330
1E
100
AcDbEntity
  8
11
  6
Continuous
100
AcDbCircle
 10
193.0872719999999
 20
-226.0000079999999
 30
0.0
 40
2.0
100
AcDbArc
 50
359.9977419999994
 51
90.0
  0
LINE
  5
6ABE
330
1E
100
AcDbEntity
  8
16
100
AcDbLine
 10
160.0
 20
-318.697891
 30
0.0
 11
160.0
 21
-178.75
 31
0.0
  0
LINE
  5
6ABF
330
1E
100
AcDbEntity
  8
11
  6
Continuous
100
AcDbLine
 10
127.08729
 20
-275.999994
 30
0.0
 11
193.0872719999999
 21
-275.999994
 31
0.0
  0
DIMENSION
  5
6AC0
330
1E
100
AcDbEntity
  8
30
  6
Continuous
100
AcDbDimension
  2
*D42
 10
125.08729
 20
-322.1961159999999
 30
0.0
 11
160.0
 21
-326.1961159999998
 31
0.0
 70
   160
  1
more than 74
 71
     5
 42
69.99998000000005
  3
STANDARD
100
AcDbAlignedDimension
 13
195.0872699999999
 23
-273.999996
 33
0.0
 14
125.08729
 24
-273.999996
 34
0.0
100
AcDbRotatedDimension
1001
ACAD
1000
DSTYLE
1002
{
1070
   279
1070
     2
1002
}
  0
LINE
  5
6AC1
330
1E
100
AcDbEntity
  8
11
  6
Continuous
100
AcDbLine
 10
125.08729
 20
-273.999994
 30
0.0
 11
125.08729
 21
-226.0000079999999
 31
0.0
  0
ARC
  5
6AC2
330
1E
100
AcDbEntity
  8
11
  6
Continuous
100
AcDbCircle
 10
127.08729
 20
-273.999994
 30
0.0
 40
2.0
100
AcDbArc
 50
180.0010019999992
 51
270.0
  0
LINE
  5
6AC3
330
1E
100
AcDbEntity
  8
11
  6
Continuous
100
AcDbLine
 10
195.0872699999999
 20
-273.999994
 30
0.0
 11
195.0872699999999
 21
-226.0000079999999
 31
0.0
  0
ARC
  5
6AC4
330
1E
100
AcDbEntity
  8
11
  6
Continuous
100
AcDbCircle
 10
193.0872719999999
 20
-273.999994
 30
0.0
 40
2.0
100
AcDbArc
 50
270.0
 51
359.9989989999987
  0
LINE
  5
6AC5
330
1E
100
AcDbEntity
  8
11
  6
Continuous
100
AcDbLine
 10
127.08729
 20
-224.0000079999999
 30
0.0
 11
193.0872719999999
 21
-224.0000079999999
 31
0.0
  0
VIEWPORT
  5
9AC
330
1A
100
AcDbEntity
 67
     1
  8
0
  6
Continuous
100
AcDbViewport
 10
171.999535
 20
144.1384739999999
 30
0.0
 40
488.867686
 41
292.351491
 68
    -1
 69
     1
 12
171.999535
 22
144.1384739999999
 13
0.0
 23
0.0
 14
10.0
 24
10.0
 15
10.0
 25
10.0
 16
0.0
 26
0.0
 36
1.0
 17
0.0
 27
0.0
 37
0.0
 42
50.0
 43
0.0
 44
0.0
 45
292.351491
 50
0.0
 51
0.0
 72
   100
 90
    32800
  1

281
     0
 71
     1
 74
     0
110
0.0
120
0.0
130
0.0
111
1.0
121
0.0
131
0.0
112
0.0
122
1.0
132
0.0
 79
     0
146
0.0
  0
ENDSEC
  0
SECTION
  2
OBJECTS
  0
DICTIONARY
  5
C
330
0
100
AcDbDictionary
281
     1
  3
ACAD_GROUP
350
D
  3
ACAD_LAYOUT
350
19
  3
ACAD_MLINESTYLE
350
16
  3
ACAD_PLOTSETTINGS
350
18
  3
ACAD_PLOTSTYLENAME
350
E
  3
ACADDIM
350
3625
  3
ACDBHEADERROUNDTRIPXREC
350
6BB2
  3
ACDBVARIABLEDICTIONARY
350
3682
  0
DICTIONARY
  5
178
330
1E
100
AcDbDictionary
280
     1
281
     1
  3
ACAD_LAYOUTSELFREF
360
3A0D
  0
DICTIONARY
  5
17A
330
1A
100
AcDbDictionary
280
     1
281
     1
  3
ACAD_LAYOUTSELFREF
360
3A0C
  0
DICTIONARY
  5
D
102
{ACAD_REACTORS
330
C
102
}
330
C
100
AcDbDictionary
281
     1
  0
DICTIONARY
  5
19
102
{ACAD_REACTORS
330
C
102
}
330
C
100
AcDbDictionary
281
     1
  3
MODEL
350
21
  3
ﾚｲｱｳﾄ1
350
1D
  0
DICTIONARY
  5
16
102
{ACAD_REACTORS
330
C
102
}
330
C
100
AcDbDictionary
281
     1
  3
STANDARD
350
17
  0
DICTIONARY
  5
18
102
{ACAD_REACTORS
330
C
102
}
330
C
100
AcDbDictionary
281
     1
  0
ACDBDICTIONARYWDFLT
  5
E
102
{ACAD_REACTORS
330
C
102
}
330
C
100
AcDbDictionary
281
     1
  3
Normal
350
F
100
AcDbDictionaryWithDefault
340
F
  0
XRECORD
  5
3625
102
{ACAD_REACTORS
330
C
102
}
330
C
100
AcDbXrecord
280
     1
 90
   990106
  3

 60
     0
 61
     0
 62
     1
 63
     3
 64
     0
 65
     0
 66
     0
 67
     3
 68
     1
 69
     0
 70
     0
 71
     0
 72
     0
 40
0.0
170
     0
340
0
  0
DICTIONARY
  5
6BB2
102
{ACAD_REACTORS
330
C
102
}
330
C
100
AcDbDictionary
281
     1
  3
CEPSNTYPE
350
6BBC
  3
DIMSTYLEDATA
350
6BC0
  3
FINGERPRINTGUID
350
6BBD
  3
HYPERLINKBASE
350
6BB5
  3
INSUNITS
350
6BBB
  3
LAYOUTDICT
350
6BB7
  3
LWETCUNION
350
6BBA
  3
PLOTSETDICT
350
6BB8
  3
PLOTSTYLNAMDICT
350
6BB9
  3
PSVPSCALE
350
6BBF
  3
PUCSBASE
350
6BC3
  3
PUCSORGBACK
350
6BC9
  3
PUCSORGBOTTOM
350
6BC5
  3
PUCSORGFRONT
350
6BC8
  3
PUCSORGLEFT
350
6BC6
  3
PUCSORGRIGHT
350
6BC7
  3
PUCSORGTOP
350
6BC4
  3
PUCSORTHOREF
350
6BC1
  3
PUCSORTHOVIEW
350
6BC2
  3
STYLESHEET
350
6BB6
  3
TSTACKALIGN
350
6BB3
  3
TSTACKSIZE
350
6BB4
  3
UCSBASE
350
6BCC
  3
UCSORGBACK
350
6BD2
  3
UCSORGBOTTOM
350
6BCE
  3
UCSORGFRONT
350
6BD1
  3
UCSORGLEFT
350
6BCF
  3
UCSORGRIGHT
350
6BD0
  3
UCSORGTOP
350
6BCD
  3
UCSORTHOREF
350
6BCA
  3
UCSORTHOVIEW
350
6BCB
  3
VERSIONGUID
350
6BBE
  0
DICTIONARY
  5
3682
102
{ACAD_REACTORS
330
C
102
}
330
C
100
AcDbDictionary
281
     1
  3
DIMASSOC
350
3A2F
  3
SORTENTS
350
3683
  0
XRECORD
  5
3A0D
102
{ACAD_REACTORS
330
178
102
}
330
178
100
AcDbXrecord
280
     1
340
1E
  0
XRECORD
  5
3A0C
102
{ACAD_REACTORS
330
17A
102
}
330
17A
100
AcDbXrecord
280
     1
340
1A
  0
LAYOUT
  5
21
102
{ACAD_REACTORS
330
19
102
}
330
19
100
AcDbPlotSettings
  1

  2
\\PRINT_SERV\RICOH IPSiO NX730N RPCS
  4
A4
  6
OLE1
 40
5.873749732971191
 41
5.873747825622557
 42
5.873748779296875
 43
5.873748779296875
 44
209.9733276367186
 45
296.9259948730469
 46
28.73
 47
6.379999999999999
 48
0.0
 49
0.0
140
0.0
141
0.0
142
1.0
143
2.0
 70
 11940
 72
     1
 73
     0
 74
     1
  7
monochrome.ctb
 75
     0
147
0.5
148
62.34020037769403
149
318.7382997042058
100
AcDbLayout
  1
Model
 70
     1
 71
     0
 10
0.0
 20
0.0
 11
12.0
 21
9.0
 12
0.0
 22
0.0
 32
0.0
 14
0.0
 24
0.0
 34
0.0
 15
0.0
 25
0.0
 35
0.0
146
0.0
 13
0.0
 23
0.0
 33
0.0
 16
1.0
 26
0.0
 36
0.0
 17
0.0
 27
1.0
 37
0.0
 76
     0
330
1E
  0
LAYOUT
  5
1D
102
{ACAD_REACTORS
330
19
102
}
330
19
100
AcDbPlotSettings
  1

  2
EPSON LP-8300
  4
A4
  6

 40
5.873749732971191
 41
5.873747825622557
 42
5.873748779296875
 43
5.873748779296875
 44
297.0106506347656
 45
209.9733276367186
 46
0.0
 47
0.0
 48
0.0
 49
0.0
140
0.0
141
0.0
142
1.0
143
1.0
 70
   672
 72
     1
 73
     1
 74
     5
  7
MCCB.ctb
 75
     0
147
1.0
148
0.0
149
0.0
100
AcDbLayout
  1
ﾚｲｱｳﾄ1
 70
     1
 71
     1
 10
-5.873749
 20
-5.87375
 11
204.099579
 21
291.1369009999999
 12
0.0
 22
0.0
 32
0.0
 14
4.273573
 24
5.205245999999998
 34
0.0
 15
194.610095
 25
283.0697009999997
 35
0.0
146
0.0
 13
0.0
 23
0.0
 33
0.0
 16
1.0
 26
0.0
 36
0.0
 17
0.0
 27
1.0
 37
0.0
 76
     0
330
1A
331
9AC
  0
MLINESTYLE
  5
17
102
{ACAD_REACTORS
330
16
102
}
330
16
100
AcDbMlineStyle
  2
STANDARD
 70
     0
  3

 62
   256
 51
90.0
 52
90.0
 71
     2
 49
0.5
 62
   256
  6
BYLAYER
 49
-0.5
 62
   256
  6
BYLAYER
  0
ACDBPLACEHOLDER
  5
F
102
{ACAD_REACTORS
330
E
102
}
330
E
  0
XRECORD
  5
6BBC
102
{ACAD_REACTORS
330
6BB2
102
}
330
6BB2
100
AcDbXrecord
280
     1
 90
        0
  0
XRECORD
  5
6BC0
102
{ACAD_REACTORS
330
6BB2
102
}
330
6BB2
100
AcDbXrecord
280
     1
1000
DSTYLE
1002
{
1070
    79
 70
     3
1070
   341
340
3B2
1070
   342
340
3B2
1002
}
  0
XRECORD
  5
6BBD
102
{ACAD_REACTORS
330
6BB2
102
}
330
6BB2
100
AcDbXrecord
280
     1
  1

  0
XRECORD
  5
6BB5
102
{ACAD_REACTORS
330
6BB2
102
}
330
6BB2
100
AcDbXrecord
280
     1
  1

  0
XRECORD
  5
6BBB
102
{ACAD_REACTORS
330
6BB2
102
}
330
6BB2
100
AcDbXrecord
280
     1
 90
        0
  0
XRECORD
  5
6BB7
102
{ACAD_REACTORS
330
6BB2
102
}
330
6BB2
100
AcDbXrecord
280
     1
340
19
  0
XRECORD
  5
6BBA
102
{ACAD_REACTORS
330
6BB2
102
}
330
6BB2
100
AcDbXrecord
280
     1
 90
    10781
  0
XRECORD
  5
6BB8
102
{ACAD_REACTORS
330
6BB2
102
}
330
6BB2
100
AcDbXrecord
280
     1
340
18
  0
XRECORD
  5
6BB9
102
{ACAD_REACTORS
330
6BB2
102
}
330
6BB2
100
AcDbXrecord
280
     1
340
E
  0
XRECORD
  5
6BBF
102
{ACAD_REACTORS
330
6BB2
102
}
330
6BB2
100
AcDbXrecord
280
     1
 40
0.0
  0
XRECORD
  5
6BC3
102
{ACAD_REACTORS
330
6BB2
102
}
330
6BB2
100
AcDbXrecord
280
     1
340
0
  0
XRECORD
  5
6BC9
102
{ACAD_REACTORS
330
6BB2
102
}
330
6BB2
100
AcDbXrecord
280
     1
 10
0.0
 20
0.0
 30
0.0
  0
XRECORD
  5
6BC5
102
{ACAD_REACTORS
330
6BB2
102
}
330
6BB2
100
AcDbXrecord
280
     1
 10
0.0
 20
0.0
 30
0.0
  0
XRECORD
  5
6BC8
102
{ACAD_REACTORS
330
6BB2
102
}
330
6BB2
100
AcDbXrecord
280
     1
 10
0.0
 20
0.0
 30
0.0
  0
XRECORD
  5
6BC6
102
{ACAD_REACTORS
330
6BB2
102
}
330
6BB2
100
AcDbXrecord
280
     1
 10
0.0
 20
0.0
 30
0.0
  0
XRECORD
  5
6BC7
102
{ACAD_REACTORS
330
6BB2
102
}
330
6BB2
100
AcDbXrecord
280
     1
 10
0.0
 20
0.0
 30
0.0
  0
XRECORD
  5
6BC4
102
{ACAD_REACTORS
330
6BB2
102
}
330
6BB2
100
AcDbXrecord
280
     1
 10
0.0
 20
0.0
 30
0.0
  0
XRECORD
  5
6BC1
102
{ACAD_REACTORS
330
6BB2
102
}
330
6BB2
100
AcDbXrecord
280
     1
340
0
  0
XRECORD
  5
6BC2
102
{ACAD_REACTORS
330
6BB2
102
}
330
6BB2
100
AcDbXrecord
280
     1
 70
     0
  0
XRECORD
  5
6BB6
102
{ACAD_REACTORS
330
6BB2
102
}
330
6BB2
100
AcDbXrecord
280
     1
  1
monochrome.ctb
  0
XRECORD
  5
6BB3
102
{ACAD_REACTORS
330
6BB2
102
}
330
6BB2
100
AcDbXrecord
280
     1
 90
        1
  0
XRECORD
  5
6BB4
102
{ACAD_REACTORS
330
6BB2
102
}
330
6BB2
100
AcDbXrecord
280
     1
 90
       70
  0
XRECORD
  5
6BCC
102
{ACAD_REACTORS
330
6BB2
102
}
330
6BB2
100
AcDbXrecord
280
     1
340
0
  0
XRECORD
  5
6BD2
102
{ACAD_REACTORS
330
6BB2
102
}
330
6BB2
100
AcDbXrecord
280
     1
 10
0.0
 20
0.0
 30
0.0
  0
XRECORD
  5
6BCE
102
{ACAD_REACTORS
330
6BB2
102
}
330
6BB2
100
AcDbXrecord
280
     1
 10
0.0
 20
0.0
 30
0.0
  0
XRECORD
  5
6BD1
102
{ACAD_REACTORS
330
6BB2
102
}
330
6BB2
100
AcDbXrecord
280
     1
 10
0.0
 20
0.0
 30
0.0
  0
XRECORD
  5
6BCF
102
{ACAD_REACTORS
330
6BB2
102
}
330
6BB2
100
AcDbXrecord
280
     1
 10
0.0
 20
0.0
 30
0.0
  0
XRECORD
  5
6BD0
102
{ACAD_REACTORS
330
6BB2
102
}
330
6BB2
100
AcDbXrecord
280
     1
 10
0.0
 20
0.0
 30
0.0
  0
XRECORD
  5
6BCD
102
{ACAD_REACTORS
330
6BB2
102
}
330
6BB2
100
AcDbXrecord
280
     1
 10
0.0
 20
0.0
 30
0.0
  0
XRECORD
  5
6BCA
102
{ACAD_REACTORS
330
6BB2
102
}
330
6BB2
100
AcDbXrecord
280
     1
340
0
  0
XRECORD
  5
6BCB
102
{ACAD_REACTORS
330
6BB2
102
}
330
6BB2
100
AcDbXrecord
280
     1
 70
     0
  0
XRECORD
  5
6BBE
102
{ACAD_REACTORS
330
6BB2
102
}
330
6BB2
100
AcDbXrecord
280
     1
  1
{0B9E3B4E-3C8D-458C-87A1-13CB1F1EB6EE}
  0
DICTIONARYVAR
  5
3A2F
102
{ACAD_REACTORS
330
3682
102
}
330
3682
100
DictionaryVariables
280
     0
  1
1
  0
DICTIONARYVAR
  5
3683
102
{ACAD_REACTORS
330
3682
102
}
330
3682
100
DictionaryVariables
280
     0
  1
96
  0
ENDSEC
  0
EOF
