  0
SECTION
  2
HEADER
  9
$ACADVER
  1
AC1015
  9
$ACADMAINTVER
 70
    10
  9
$DWGCODEPAGE
  3
ANSI_932
  9
$INSBASE
 10
0.0
 20
0.0
 30
0.0
  9
$EXTMIN
 10
-87.38180899999999
 20
-331.4999999999999
 30
0.0
  9
$EXTMAX
 10
275.448275
 20
298.859771
 30
0.0
  9
$LIMMIN
 10
-111.6607629999999
 20
-393.684665
  9
$LIMMAX
 10
267.000149
 20
364.8672609999999
  9
$ORTHOMODE
 70
     1
  9
$REGENMODE
 70
     1
  9
$FILLMODE
 70
     1
  9
$QTEXTMODE
 70
     0
  9
$MIRRTEXT
 70
     1
  9
$LTSCALE
 40
5.0
  9
$ATTMODE
 70
     1
  9
$TEXTSIZE
 40
5.0
  9
$TRACEWID
 40
0.05
  9
$TEXTSTYLE
  7
STANDARD1
  9
$CLAYER
  8
30
  9
$CELTYPE
  6
CONTINUOUS
  9
$CECOLOR
 62
   256
  9
$CELTSCALE
 40
1.0
  9
$DISPSILH
 70
     0
  9
$DIMSCALE
 40
1.0
  9
$DIMASZ
 40
2.0
  9
$DIMEXO
 40
1.0
  9
$DIMDLI
 40
0.5
  9
$DIMRND
 40
0.0
  9
$DIMDLE
 40
0.0
  9
$DIMEXE
 40
0.5
  9
$DIMTP
 40
0.0
  9
$DIMTM
 40
0.0
  9
$DIMTXT
 40
4.0
  9
$DIMCEN
 40
0.09
  9
$DIMTSZ
 40
0.0
  9
$DIMTOL
 70
     0
  9
$DIMLIM
 70
     0
  9
$DIMTIH
 70
     0
  9
$DIMTOH
 70
     0
  9
$DIMSE1
 70
     0
  9
$DIMSE2
 70
     0
  9
$DIMTAD
 70
     3
  9
$DIMZIN
 70
    12
  9
$DIMBLK
  1
OPEN
  9
$DIMASO
 70
     1
  9
$DIMSHO
 70
     1
  9
$DIMPOST
  1

  9
$DIMAPOST
  1

  9
$DIMALT
 70
     0
  9
$DIMALTD
 70
     2
  9
$DIMALTF
 40
25.4
  9
$DIMLFAC
 40
1.0
  9
$DIMTOFL
 70
     0
  9
$DIMTVP
 40
0.0
  9
$DIMTIX
 70
     0
  9
$DIMSOXD
 70
     0
  9
$DIMSAH
 70
     0
  9
$DIMBLK1
  1

  9
$DIMBLK2
  1

  9
$DIMSTYLE
  2
STANDARD
  9
$DIMCLRD
 70
     0
  9
$DIMCLRE
 70
     0
  9
$DIMCLRT
 70
     0
  9
$DIMTFAC
 40
1.0
  9
$DIMGAP
 40
1.0
  9
$DIMJUST
 70
     0
  9
$DIMSD1
 70
     0
  9
$DIMSD2
 70
     0
  9
$DIMTOLJ
 70
     1
  9
$DIMTZIN
 70
     0
  9
$DIMALTZ
 70
     0
  9
$DIMALTTZ
 70
     0
  9
$DIMUPT
 70
     0
  9
$DIMDEC
 70
     1
  9
$DIMTDEC
 70
     1
  9
$DIMALTU
 70
     2
  9
$DIMALTTD
 70
     2
  9
$DIMTXSTY
  7
STANDARD
  9
$DIMAUNIT
 70
     0
  9
$DIMADEC
 70
     0
  9
$DIMALTRND
 40
0.0
  9
$DIMAZIN
 70
     3
  9
$DIMDSEP
 70
    46
  9
$DIMATFIT
 70
     3
  9
$DIMFRAC
 70
     0
  9
$DIMLDRBLK
  1
OPEN
  9
$DIMLUNIT
 70
     2
  9
$DIMLWD
 70
    -2
  9
$DIMLWE
 70
    -2
  9
$DIMTMOVE
 70
     0
  9
$LUNITS
 70
     2
  9
$LUPREC
 70
     4
  9
$SKETCHINC
 40
0.1
  9
$FILLETRAD
 40
0.0
  9
$AUNITS
 70
     0
  9
$AUPREC
 70
     0
  9
$MENU
  1
.
  9
$ELEVATION
 40
0.0
  9
$PELEVATION
 40
0.0
  9
$THICKNESS
 40
0.0
  9
$LIMCHECK
 70
     0
  9
$CHAMFERA
 40
0.0
  9
$CHAMFERB
 40
0.0
  9
$CHAMFERC
 40
0.0
  9
$CHAMFERD
 40
0.0
  9
$SKPOLY
 70
     0
  9
$TDCREATE
 40
2452286.555658657
  9
$TDUCREATE
 40
2452286.180658657
  9
$TDUPDATE
 40
2454856.472662939
  9
$TDUUPDATE
 40
2454856.097662939
  9
$TDINDWG
 40
1.0934709491
  9
$TDUSRTIMER
 40
1.0934705903
  9
$USRTIMER
 70
     1
  9
$ANGBASE
 50
0.0
  9
$ANGDIR
 70
     0
  9
$PDMODE
 70
     0
  9
$PDSIZE
 40
0.0
  9
$PLINEWID
 40
0.0
  9
$SPLFRAME
 70
     0
  9
$SPLINETYPE
 70
     6
  9
$SPLINESEGS
 70
     8
  9
$HANDSEED
  5
4728
  9
$SURFTAB1
 70
     6
  9
$SURFTAB2
 70
     6
  9
$SURFTYPE
 70
     6
  9
$SURFU
 70
     6
  9
$SURFV
 70
     6
  9
$UCSBASE
  2

  9
$UCSNAME
  2

  9
$UCSORG
 10
0.0
 20
0.0
 30
0.0
  9
$UCSXDIR
 10
1.0
 20
0.0
 30
0.0
  9
$UCSYDIR
 10
0.0
 20
1.0
 30
0.0
  9
$UCSORTHOREF
  2

  9
$UCSORTHOVIEW
 70
     0
  9
$UCSORGTOP
 10
0.0
 20
0.0
 30
0.0
  9
$UCSORGBOTTOM
 10
0.0
 20
0.0
 30
0.0
  9
$UCSORGLEFT
 10
0.0
 20
0.0
 30
0.0
  9
$UCSORGRIGHT
 10
0.0
 20
0.0
 30
0.0
  9
$UCSORGFRONT
 10
0.0
 20
0.0
 30
0.0
  9
$UCSORGBACK
 10
0.0
 20
0.0
 30
0.0
  9
$PUCSBASE
  2

  9
$PUCSNAME
  2

  9
$PUCSORG
 10
0.0
 20
0.0
 30
0.0
  9
$PUCSXDIR
 10
1.0
 20
0.0
 30
0.0
  9
$PUCSYDIR
 10
0.0
 20
1.0
 30
0.0
  9
$PUCSORTHOREF
  2

  9
$PUCSORTHOVIEW
 70
     0
  9
$PUCSORGTOP
 10
0.0
 20
0.0
 30
0.0
  9
$PUCSORGBOTTOM
 10
0.0
 20
0.0
 30
0.0
  9
$PUCSORGLEFT
 10
0.0
 20
0.0
 30
0.0
  9
$PUCSORGRIGHT
 10
0.0
 20
0.0
 30
0.0
  9
$PUCSORGFRONT
 10
0.0
 20
0.0
 30
0.0
  9
$PUCSORGBACK
 10
0.0
 20
0.0
 30
0.0
  9
$USERI1
 70
     0
  9
$USERI2
 70
     0
  9
$USERI3
 70
     0
  9
$USERI4
 70
     0
  9
$USERI5
 70
     0
  9
$USERR1
 40
0.0
  9
$USERR2
 40
0.0
  9
$USERR3
 40
0.0
  9
$USERR4
 40
0.0
  9
$USERR5
 40
0.0
  9
$WORLDVIEW
 70
     1
  9
$SHADEDGE
 70
     3
  9
$SHADEDIF
 70
    70
  9
$TILEMODE
 70
     1
  9
$MAXACTVP
 70
    48
  9
$PINSBASE
 10
0.0
 20
0.0
 30
0.0
  9
$PLIMCHECK
 70
     0
  9
$PEXTMIN
 10
4.273573
 20
5.205245999999999
 30
0.0
  9
$PEXTMAX
 10
194.610095
 20
283.0697009999999
 30
0.0
  9
$PLIMMIN
 10
-5.873749
 20
-5.87375
  9
$PLIMMAX
 10
204.099579
 20
291.1369009999999
  9
$UNITMODE
 70
     0
  9
$VISRETAIN
 70
     1
  9
$PLINEGEN
 70
     0
  9
$PSLTSCALE
 70
     1
  9
$TREEDEPTH
 70
  3020
  9
$CMLSTYLE
  2
STANDARD
  9
$CMLJUST
 70
     0
  9
$CMLSCALE
 40
1.0
  9
$PROXYGRAPHICS
 70
     1
  9
$MEASUREMENT
 70
     0
  9
$CELWEIGHT
370
    -1
  9
$ENDCAPS
280
     0
  9
$JOINSTYLE
280
     0
  9
$LWDISPLAY
290
     0
  9
$INSUNITS
 70
     0
  9
$HYPERLINKBASE
  1

  9
$STYLESHEET
  1
KIKI.ctb
  9
$XEDIT
290
     1
  9
$CEPSNTYPE
380
     0
  9
$PSTYLEMODE
290
     1
  9
$FINGERPRINTGUID
  2

  9
$VERSIONGUID
  2
{074A5F3B-BFE6-4DE8-AFDD-5FD084C7478D}
  9
$EXTNAMES
290
     1
  9
$PSVPSCALE
 40
0.0
  9
$OLESTARTUP
290
     0
  0
ENDSEC
  0
SECTION
  2
CLASSES
  0
CLASS
  1
ACDBDICTIONARYWDFLT
  2
AcDbDictionaryWithDefault
  3
AutoCAD 2000
 90
        0
280
     0
281
     0
  0
CLASS
  1
ACDBPLACEHOLDER
  2
AcDbPlaceHolder
  3
AutoCAD 2000
 90
        0
280
     0
281
     0
  0
CLASS
  1
LAYOUT
  2
AcDbLayout
  3
AutoCAD 2000
 90
        0
280
     0
281
     0
  0
CLASS
  1
LONG_TRANSACTION
  2
AcDbLongTransaction
  3
AutoCAD 2000
 90
    32768
280
     0
281
     0
  0
CLASS
  1
LWPOLYLINE
  2
AcDbPolyline
  3
AutoCAD 2000
 90
    32768
280
     0
281
     1
  0
CLASS
  1
HATCH
  2
AcDbHatch
  3
AutoCAD 2000
 90
    32768
280
     0
281
     1
  0
CLASS
  1
XRECORD
  2
AcDbXrecord
  3
AutoCAD 2000
 90
    32768
280
     0
281
     0
  0
CLASS
  1
LONG_TRANSACTION
  2
AcDbLongTransaction
  3
AutoCAD 2000
 90
    32768
280
     0
281
     0
  0
CLASS
  1
LWPOLYLINE
  2
AcDbPolyline
  3
AutoCAD 2000
 90
    32768
280
     0
281
     1
  0
CLASS
  1
HATCH
  2
AcDbHatch
  3
AutoCAD 2000
 90
    32768
280
     0
281
     1
  0
CLASS
  1
XRECORD
  2
AcDbXrecord
  3
AutoCAD 2000
 90
    32768
280
     0
281
     0
  0
CLASS
  1
LONG_TRANSACTION
  2
AcDbLongTransaction
  3
AutoCAD 2000
 90
    32768
280
     0
281
     0
  0
CLASS
  1
LWPOLYLINE
  2
AcDbPolyline
  3
AutoCAD 2000
 90
    32768
280
     0
281
     1
  0
CLASS
  1
HATCH
  2
AcDbHatch
  3
AutoCAD 2000
 90
    32768
280
     0
281
     1
  0
CLASS
  1
XRECORD
  2
AcDbXrecord
  3
AutoCAD 2000
 90
    32768
280
     0
281
     0
  0
CLASS
  1
LONG_TRANSACTION
  2
AcDbLongTransaction
  3
AutoCAD 2000
 90
    32768
280
     0
281
     0
  0
CLASS
  1
LWPOLYLINE
  2
AcDbPolyline
  3
AutoCAD 2000
 90
    32768
280
     0
281
     1
  0
CLASS
  1
HATCH
  2
AcDbHatch
  3
AutoCAD 2000
 90
    32768
280
     0
281
     1
  0
CLASS
  1
XRECORD
  2
AcDbXrecord
  3
AutoCAD 2000
 90
    32768
280
     0
281
     0
  0
CLASS
  1
LONG_TRANSACTION
  2
AcDbLongTransaction
  3
AutoCAD 2000
 90
    32768
280
     0
281
     0
  0
CLASS
  1
LWPOLYLINE
  2
AcDbPolyline
  3
AutoCAD 2000
 90
    32768
280
     0
281
     1
  0
CLASS
  1
HATCH
  2
AcDbHatch
  3
AutoCAD 2000
 90
    32768
280
     0
281
     1
  0
CLASS
  1
XRECORD
  2
AcDbXrecord
  3
AutoCAD 2000
 90
    32768
280
     0
281
     0
  0
CLASS
  1
LONG_TRANSACTION
  2
AcDbLongTransaction
  3
AutoCAD 2000
 90
    32768
280
     0
281
     0
  0
CLASS
  1
LWPOLYLINE
  2
AcDbPolyline
  3
AutoCAD 2000
 90
    32768
280
     0
281
     1
  0
CLASS
  1
HATCH
  2
AcDbHatch
  3
AutoCAD 2000
 90
    32768
280
     0
281
     1
  0
CLASS
  1
XRECORD
  2
AcDbXrecord
  3
AutoCAD 2000
 90
    32768
280
     0
281
     0
  0
CLASS
  1
LONG_TRANSACTION
  2
AcDbLongTransaction
  3
AutoCAD 2000
 90
    32768
280
     0
281
     0
  0
CLASS
  1
LWPOLYLINE
  2
AcDbPolyline
  3
AutoCAD 2000
 90
    32768
280
     0
281
     1
  0
CLASS
  1
HATCH
  2
AcDbHatch
  3
AutoCAD 2000
 90
    32768
280
     0
281
     1
  0
CLASS
  1
XRECORD
  2
AcDbXrecord
  3
AutoCAD 2000
 90
    32768
280
     0
281
     0
  0
CLASS
  1
LONG_TRANSACTION
  2
AcDbLongTransaction
  3
AutoCAD 2000
 90
    32768
280
     0
281
     0
  0
CLASS
  1
LWPOLYLINE
  2
AcDbPolyline
  3
AutoCAD 2000
 90
    32768
280
     0
281
     1
  0
CLASS
  1
HATCH
  2
AcDbHatch
  3
AutoCAD 2000
 90
    32768
280
     0
281
     1
  0
CLASS
  1
XRECORD
  2
AcDbXrecord
  3
AutoCAD 2000
 90
    32768
280
     0
281
     0
  0
CLASS
  1
LONG_TRANSACTION
  2
AcDbLongTransaction
  3
AutoCAD 2000
 90
    32768
280
     0
281
     0
  0
CLASS
  1
LWPOLYLINE
  2
AcDbPolyline
  3
AutoCAD 2000
 90
    32768
280
     0
281
     1
  0
CLASS
  1
HATCH
  2
AcDbHatch
  3
AutoCAD 2000
 90
    32768
280
     0
281
     1
  0
CLASS
  1
XRECORD
  2
AcDbXrecord
  3
AutoCAD 2000
 90
    32768
280
     0
281
     0
  0
CLASS
  1
LONG_TRANSACTION
  2
AcDbLongTransaction
  3
AutoCAD 2000
 90
    32768
280
     0
281
     0
  0
CLASS
  1
LWPOLYLINE
  2
AcDbPolyline
  3
AutoCAD 2000
 90
    32768
280
     0
281
     1
  0
CLASS
  1
HATCH
  2
AcDbHatch
  3
AutoCAD 2000
 90
    32768
280
     0
281
     1
  0
CLASS
  1
XRECORD
  2
AcDbXrecord
  3
AutoCAD 2000
 90
    32768
280
     0
281
     0
  0
CLASS
  1
LONG_TRANSACTION
  2
AcDbLongTransaction
  3
AutoCAD 2000
 90
    32768
280
     0
281
     0
  0
CLASS
  1
LWPOLYLINE
  2
AcDbPolyline
  3
AutoCAD 2000
 90
    32768
280
     0
281
     1
  0
CLASS
  1
HATCH
  2
AcDbHatch
  3
AutoCAD 2000
 90
    32768
280
     0
281
     1
  0
CLASS
  1
XRECORD
  2
AcDbXrecord
  3
AutoCAD 2000
 90
    32768
280
     0
281
     0
  0
CLASS
  1
LONG_TRANSACTION
  2
AcDbLongTransaction
  3
AutoCAD 2000
 90
    32768
280
     0
281
     0
  0
CLASS
  1
LWPOLYLINE
  2
AcDbPolyline
  3
AutoCAD 2000
 90
    32768
280
     0
281
     1
  0
CLASS
  1
HATCH
  2
AcDbHatch
  3
AutoCAD 2000
 90
    32768
280
     0
281
     1
  0
CLASS
  1
XRECORD
  2
AcDbXrecord
  3
AutoCAD 2000
 90
    32768
280
     0
281
     0
  0
CLASS
  1
LONG_TRANSACTION
  2
AcDbLongTransaction
  3
AutoCAD 2000
 90
    32768
280
     0
281
     0
  0
CLASS
  1
LWPOLYLINE
  2
AcDbPolyline
  3
AutoCAD 2000
 90
    32768
280
     0
281
     1
  0
CLASS
  1
HATCH
  2
AcDbHatch
  3
AutoCAD 2000
 90
    32768
280
     0
281
     1
  0
CLASS
  1
XRECORD
  2
AcDbXrecord
  3
AutoCAD 2000
 90
    32768
280
     0
281
     0
  0
CLASS
  1
LONG_TRANSACTION
  2
AcDbLongTransaction
  3
AutoCAD 2000
 90
    32768
280
     0
281
     0
  0
CLASS
  1
LWPOLYLINE
  2
AcDbPolyline
  3
AutoCAD 2000
 90
    32768
280
     0
281
     1
  0
CLASS
  1
HATCH
  2
AcDbHatch
  3
AutoCAD 2000
 90
    32768
280
     0
281
     1
  0
CLASS
  1
XRECORD
  2
AcDbXrecord
  3
AutoCAD 2000
 90
    32768
280
     0
281
     0
  0
CLASS
  1
LONG_TRANSACTION
  2
AcDbLongTransaction
  3
AutoCAD 2000
 90
    32768
280
     0
281
     0
  0
CLASS
  1
LWPOLYLINE
  2
AcDbPolyline
  3
AutoCAD 2000
 90
    32768
280
     0
281
     1
  0
CLASS
  1
HATCH
  2
AcDbHatch
  3
AutoCAD 2000
 90
    32768
280
     0
281
     1
  0
CLASS
  1
XRECORD
  2
AcDbXrecord
  3
AutoCAD 2000
 90
    32768
280
     0
281
     0
  0
CLASS
  1
LONG_TRANSACTION
  2
AcDbLongTransaction
  3
AutoCAD 2000
 90
    32768
280
     0
281
     0
  0
CLASS
  1
LWPOLYLINE
  2
AcDbPolyline
  3
AutoCAD 2000
 90
    32768
280
     0
281
     1
  0
CLASS
  1
HATCH
  2
AcDbHatch
  3
AutoCAD 2000
 90
    32768
280
     0
281
     1
  0
CLASS
  1
XRECORD
  2
AcDbXrecord
  3
AutoCAD 2000
 90
    32768
280
     0
281
     0
  0
CLASS
  1
LONG_TRANSACTION
  2
AcDbLongTransaction
  3
AutoCAD 2000
 90
    32768
280
     0
281
     0
  0
CLASS
  1
LWPOLYLINE
  2
AcDbPolyline
  3
AutoCAD 2000
 90
    32768
280
     0
281
     1
  0
CLASS
  1
HATCH
  2
AcDbHatch
  3
AutoCAD 2000
 90
    32768
280
     0
281
     1
  0
CLASS
  1
XRECORD
  2
AcDbXrecord
  3
AutoCAD 2000
 90
    32768
280
     0
281
     0
  0
CLASS
  1
LONG_TRANSACTION
  2
AcDbLongTransaction
  3
AutoCAD 2000
 90
    32768
280
     0
281
     0
  0
CLASS
  1
LWPOLYLINE
  2
AcDbPolyline
  3
AutoCAD 2000
 90
    32768
280
     0
281
     1
  0
CLASS
  1
HATCH
  2
AcDbHatch
  3
AutoCAD 2000
 90
    32768
280
     0
281
     1
  0
CLASS
  1
XRECORD
  2
AcDbXrecord
  3
AutoCAD 2000
 90
    32768
280
     0
281
     0
  0
CLASS
  1
LONG_TRANSACTION
  2
AcDbLongTransaction
  3
AutoCAD 2000
 90
    32768
280
     0
281
     0
  0
CLASS
  1
LWPOLYLINE
  2
AcDbPolyline
  3
AutoCAD 2000
 90
    32768
280
     0
281
     1
  0
CLASS
  1
HATCH
  2
AcDbHatch
  3
AutoCAD 2000
 90
    32768
280
     0
281
     1
  0
CLASS
  1
XRECORD
  2
AcDbXrecord
  3
AutoCAD 2000
 90
    32768
280
     0
281
     0
  0
CLASS
  1
LONG_TRANSACTION
  2
AcDbLongTransaction
  3
AutoCAD 2000
 90
    32768
280
     0
281
     0
  0
CLASS
  1
LWPOLYLINE
  2
AcDbPolyline
  3
AutoCAD 2000
 90
    32768
280
     0
281
     1
  0
CLASS
  1
HATCH
  2
AcDbHatch
  3
AutoCAD 2000
 90
    32768
280
     0
281
     1
  0
CLASS
  1
XRECORD
  2
AcDbXrecord
  3
AutoCAD 2000
 90
    32768
280
     0
281
     0
  0
CLASS
  1
LONG_TRANSACTION
  2
AcDbLongTransaction
  3
AutoCAD 2000
 90
    32768
280
     0
281
     0
  0
CLASS
  1
LWPOLYLINE
  2
AcDbPolyline
  3
AutoCAD 2000
 90
    32768
280
     0
281
     1
  0
CLASS
  1
HATCH
  2
AcDbHatch
  3
AutoCAD 2000
 90
    32768
280
     0
281
     1
  0
CLASS
  1
XRECORD
  2
AcDbXrecord
  3
AutoCAD 2000
 90
    32768
280
     0
281
     0
  0
CLASS
  1
LONG_TRANSACTION
  2
AcDbLongTransaction
  3
AutoCAD 2000
 90
    32768
280
     0
281
     0
  0
CLASS
  1
LWPOLYLINE
  2
AcDbPolyline
  3
AutoCAD 2000
 90
    32768
280
     0
281
     1
  0
CLASS
  1
HATCH
  2
AcDbHatch
  3
AutoCAD 2000
 90
    32768
280
     0
281
     1
  0
CLASS
  1
XRECORD
  2
AcDbXrecord
  3
AutoCAD 2000
 90
    32768
280
     0
281
     0
  0
CLASS
  1
LONG_TRANSACTION
  2
AcDbLongTransaction
  3
AutoCAD 2000
 90
    32768
280
     0
281
     0
  0
CLASS
  1
LWPOLYLINE
  2
AcDbPolyline
  3
AutoCAD 2000
 90
    32768
280
     0
281
     1
  0
CLASS
  1
HATCH
  2
AcDbHatch
  3
AutoCAD 2000
 90
    32768
280
     0
281
     1
  0
CLASS
  1
XRECORD
  2
AcDbXrecord
  3
AutoCAD 2000
 90
    32768
280
     0
281
     0
  0
CLASS
  1
LONG_TRANSACTION
  2
AcDbLongTransaction
  3
AutoCAD 2000
 90
    32768
280
     0
281
     0
  0
CLASS
  1
LWPOLYLINE
  2
AcDbPolyline
  3
AutoCAD 2000
 90
    32768
280
     0
281
     1
  0
CLASS
  1
HATCH
  2
AcDbHatch
  3
AutoCAD 2000
 90
    32768
280
     0
281
     1
  0
CLASS
  1
XRECORD
  2
AcDbXrecord
  3
AutoCAD 2000
 90
    32768
280
     0
281
     0
  0
CLASS
  1
LONG_TRANSACTION
  2
AcDbLongTransaction
  3
AutoCAD 2000
 90
    32768
280
     0
281
     0
  0
CLASS
  1
LWPOLYLINE
  2
AcDbPolyline
  3
AutoCAD 2000
 90
    32768
280
     0
281
     1
  0
CLASS
  1
HATCH
  2
AcDbHatch
  3
AutoCAD 2000
 90
    32768
280
     0
281
     1
  0
CLASS
  1
XRECORD
  2
AcDbXrecord
  3
AutoCAD 2000
 90
    32768
280
     0
281
     0
  0
CLASS
  1
LONG_TRANSACTION
  2
AcDbLongTransaction
  3
AutoCAD 2000
 90
    32768
280
     0
281
     0
  0
CLASS
  1
LWPOLYLINE
  2
AcDbPolyline
  3
AutoCAD 2000
 90
    32768
280
     0
281
     1
  0
CLASS
  1
HATCH
  2
AcDbHatch
  3
AutoCAD 2000
 90
    32768
280
     0
281
     1
  0
CLASS
  1
XRECORD
  2
AcDbXrecord
  3
AutoCAD 2000
 90
    32768
280
     0
281
     0
  0
CLASS
  1
LONG_TRANSACTION
  2
AcDbLongTransaction
  3
AutoCAD 2000
 90
    32768
280
     0
281
     0
  0
CLASS
  1
LWPOLYLINE
  2
AcDbPolyline
  3
AutoCAD 2000
 90
    32768
280
     0
281
     1
  0
CLASS
  1
HATCH
  2
AcDbHatch
  3
AutoCAD 2000
 90
    32768
280
     0
281
     1
  0
CLASS
  1
XRECORD
  2
AcDbXrecord
  3
AutoCAD 2000
 90
    32768
280
     0
281
     0
  0
CLASS
  1
LONG_TRANSACTION
  2
AcDbLongTransaction
  3
AutoCAD 2000
 90
    32768
280
     0
281
     0
  0
CLASS
  1
LWPOLYLINE
  2
AcDbPolyline
  3
AutoCAD 2000
 90
    32768
280
     0
281
     1
  0
CLASS
  1
HATCH
  2
AcDbHatch
  3
AutoCAD 2000
 90
    32768
280
     0
281
     1
  0
CLASS
  1
XRECORD
  2
AcDbXrecord
  3
AutoCAD 2000
 90
    32768
280
     0
281
     0
  0
CLASS
  1
LONG_TRANSACTION
  2
AcDbLongTransaction
  3
AutoCAD 2000
 90
    32768
280
     0
281
     0
  0
CLASS
  1
LWPOLYLINE
  2
AcDbPolyline
  3
AutoCAD 2000
 90
    32768
280
     0
281
     1
  0
CLASS
  1
HATCH
  2
AcDbHatch
  3
AutoCAD 2000
 90
    32768
280
     0
281
     1
  0
CLASS
  1
XRECORD
  2
AcDbXrecord
  3
AutoCAD 2000
 90
    32768
280
     0
281
     0
  0
CLASS
  1
LONG_TRANSACTION
  2
AcDbLongTransaction
  3
AutoCAD 2000
 90
    32768
280
     0
281
     0
  0
CLASS
  1
LWPOLYLINE
  2
AcDbPolyline
  3
AutoCAD 2000
 90
    32768
280
     0
281
     1
  0
CLASS
  1
HATCH
  2
AcDbHatch
  3
AutoCAD 2000
 90
    32768
280
     0
281
     1
  0
CLASS
  1
XRECORD
  2
AcDbXrecord
  3
AutoCAD 2000
 90
    32768
280
     0
281
     0
  0
CLASS
  1
LONG_TRANSACTION
  2
AcDbLongTransaction
  3
AutoCAD 2000
 90
    32768
280
     0
281
     0
  0
CLASS
  1
LWPOLYLINE
  2
AcDbPolyline
  3
AutoCAD 2000
 90
    32768
280
     0
281
     1
  0
CLASS
  1
HATCH
  2
AcDbHatch
  3
AutoCAD 2000
 90
    32768
280
     0
281
     1
  0
CLASS
  1
XRECORD
  2
AcDbXrecord
  3
AutoCAD 2000
 90
    32768
280
     0
281
     0
  0
CLASS
  1
LONG_TRANSACTION
  2
AcDbLongTransaction
  3
AutoCAD 2000
 90
    32768
280
     0
281
     0
  0
CLASS
  1
LWPOLYLINE
  2
AcDbPolyline
  3
AutoCAD 2000
 90
    32768
280
     0
281
     1
  0
CLASS
  1
HATCH
  2
AcDbHatch
  3
AutoCAD 2000
 90
    32768
280
     0
281
     1
  0
CLASS
  1
XRECORD
  2
AcDbXrecord
  3
AutoCAD 2000
 90
    32768
280
     0
281
     0
  0
ENDSEC
  0
SECTION
  2
TABLES
  0
TABLE
  2
VPORT
  5
8
330
0
100
AcDbSymbolTable
 70
     2
  0
VPORT
  5
4727
330
8
100
AcDbSymbolTableRecord
100
AcDbViewportTableRecord
  2
*Active
 70
     0
 10
0.0
 20
0.0
 11
1.0
 21
1.0
 12
160.8828439075393
 22
175.873812790129
 13
0.0
 23
0.0
 14
1.0
 24
1.0
 15
10.0
 25
10.0
 16
0.0
 26
0.0
 36
1.0
 17
0.0
 27
0.0
 37
0.0
 40
167.6888863883841
 41
1.750922509225092
 42
50.0
 43
0.0
 44
0.0
 50
0.0
 51
0.0
 71
     0
 72
   100
 73
     1
 74
     1
 75
     0
 76
     0
 77
     0
 78
     0
281
     0
 65
     1
110
0.0
120
0.0
130
0.0
111
1.0
121
0.0
131
0.0
112
0.0
122
1.0
132
0.0
 79
     0
146
0.0
  0
ENDTAB
  0
TABLE
  2
LTYPE
  5
5
330
0
100
AcDbSymbolTable
 70
     5
  0
LTYPE
  5
13
330
5
100
AcDbSymbolTableRecord
100
AcDbLinetypeTableRecord
  2
BYBLOCK
 70
     0
  3

 72
    65
 73
     0
 40
0.0
  0
LTYPE
  5
14
330
5
100
AcDbSymbolTableRecord
100
AcDbLinetypeTableRecord
  2
BYLAYER
 70
     0
  3

 72
    65
 73
     0
 40
0.0
  0
LTYPE
  5
15
330
5
100
AcDbSymbolTableRecord
100
AcDbLinetypeTableRecord
  2
CONTINUOUS
 70
     0
  3
Solid line
 72
    65
 73
     0
 40
0.0
  0
LTYPE
  5
22
330
5
100
AcDbSymbolTableRecord
100
AcDbLinetypeTableRecord
  2
CONTINOUS
 70
     0
  3
Solid line
 72
    65
 73
     0
 40
0.0
  0
LTYPE
  5
23
330
5
100
AcDbSymbolTableRecord
100
AcDbLinetypeTableRecord
  2
DASHED
 70
     0
  3
__ __ __ __ __ __ __ __ __ __ __ __ __ __ __
 72
    65
 73
     2
 40
0.75
 49
0.5
 74
     0
 49
-0.25
 74
     0
  0
LTYPE
  5
24
330
5
100
AcDbSymbolTableRecord
100
AcDbLinetypeTableRecord
  2
DASHDOT
 70
     0
  3
__ . __ . __ . __ . __ . __ . __ . __ . __ . __
 72
    65
 73
     4
 40
1.0
 49
0.5
 74
     0
 49
-0.25
 74
     0
 49
0.0
 74
     0
 49
-0.25
 74
     0
  0
LTYPE
  5
429E
330
5
100
AcDbSymbolTableRecord
100
AcDbLinetypeTableRecord
  2
DIVIDE
 70
     0
  3
Divide ____ . . ____ . . ____ . . ____ . . ____
 72
    65
 73
     6
 40
1.25
 49
0.5
 74
     0
 49
-0.25
 74
     0
 49
0.0
 74
     0
 49
-0.25
 74
     0
 49
0.0
 74
     0
 49
-0.25
 74
     0
  0
ENDTAB
  0
TABLE
  2
LAYER
  5
2
330
0
100
AcDbSymbolTable
 70
    13
  0
LAYER
  5
10
330
2
100
AcDbSymbolTableRecord
100
AcDbLayerTableRecord
  2
0
 70
     0
 62
     7
  6
CONTINOUS
370
    -3
390
F
  0
LAYER
  5
2F
330
2
100
AcDbSymbolTableRecord
100
AcDbLayerTableRecord
  2
10
 70
     0
 62
     4
  6
CONTINOUS
370
    -3
390
F
  0
LAYER
  5
31
330
2
100
AcDbSymbolTableRecord
100
AcDbLayerTableRecord
  2
12
 70
     0
 62
     3
  6
CONTINOUS
370
    -3
390
F
  0
LAYER
  5
35
330
2
100
AcDbSymbolTableRecord
100
AcDbLayerTableRecord
  2
16
 70
     4
 62
     6
  6
DASHDOT
370
    -3
390
F
  0
LAYER
  5
36
330
2
100
AcDbSymbolTableRecord
100
AcDbLayerTableRecord
  2
17
 70
     0
 62
     2
  6
DASHDOT
370
    -3
390
F
  0
LAYER
  5
38
330
2
100
AcDbSymbolTableRecord
100
AcDbLayerTableRecord
  2
19
 70
     0
 62
     7
  6
CONTINOUS
370
    -3
390
F
  0
LAYER
  5
3C
330
2
100
AcDbSymbolTableRecord
100
AcDbLayerTableRecord
  2
11
 70
     0
 62
     1
  6
CONTINOUS
370
    -3
390
F
  0
LAYER
  5
3D
330
2
100
AcDbSymbolTableRecord
100
AcDbLayerTableRecord
  2
24
 70
     0
 62
     2
  6
CONTINOUS
370
    -3
390
F
  0
LAYER
  5
3A2
330
2
100
AcDbSymbolTableRecord
100
AcDbLayerTableRecord
  2
30
 70
     0
 62
     9
  6
CONTINUOUS
370
    -3
390
F
  0
LAYER
  5
3A4
330
2
100
AcDbSymbolTableRecord
100
AcDbLayerTableRecord
  2
DEFPOINTS
 70
     0
 62
     7
  6
CONTINUOUS
290
     0
370
    -3
390
F
  0
LAYER
  5
3BBA
330
2
100
AcDbSymbolTableRecord
100
AcDbLayerTableRecord
  2
18
 70
     0
 62
     5
  6
DIVIDE
370
    -3
390
F
  0
LAYER
  5
3BBB
330
2
100
AcDbSymbolTableRecord
100
AcDbLayerTableRecord
  2
21
 70
     0
 62
     7
  6
CONTINUOUS
370
    -3
390
F
  0
LAYER
  5
40E3
330
2
100
AcDbSymbolTableRecord
100
AcDbLayerTableRecord
  2
22
 70
     0
 62
     3
  6
CONTINUOUS
370
    -3
390
F
  0
ENDTAB
  0
TABLE
  2
STYLE
  5
3
330
0
100
AcDbSymbolTable
 70
     3
  0
STYLE
  5
11
330
3
100
AcDbSymbolTableRecord
100
AcDbTextStyleTableRecord
  2
STANDARD
 70
     0
 40
0.0
 41
1.0
 50
0.0
 71
     0
 42
2.0
  3
txt.shx
  4
bigfont.shx
  0
STYLE
  5
42
330
3
100
AcDbSymbolTableRecord
100
AcDbTextStyleTableRecord
  2
STANDARD1
 70
     0
 40
0.0
 41
1.0
 50
0.0
 71
     0
 42
5.0
  3
MONOTXT
  4
BIGFONT
  0
STYLE
  5
429D
330
3
100
AcDbSymbolTableRecord
100
AcDbTextStyleTableRecord
  2

 70
     1
 40
0.0
 41
1.0
 50
0.0
 71
     0
 42
5.0
  3
ltypeshp.shx
  4

  0
ENDTAB
  0
TABLE
  2
VIEW
  5
6
330
0
100
AcDbSymbolTable
 70
     4
  0
VIEW
  5
230C
330
6
100
AcDbSymbolTableRecord
100
AcDbViewTableRecord
  2
OLE1
 70
     0
 40
148.912488
 10
429.497628
 20
2.560627
 41
103.145806
 11
0.0
 21
0.0
 31
1.0
 12
0.0
 22
0.0
 32
0.0
 42
50.0
 43
0.0
 44
0.0
 50
0.0
 71
     0
281
     0
 72
     0
  0
VIEW
  5
230E
330
6
100
AcDbSymbolTableRecord
100
AcDbViewTableRecord
  2
OLE2
 70
     0
 40
170.778692
 10
322.66497
 20
-5.978304
 41
102.467215
 11
0.0
 21
0.0
 31
1.0
 12
0.0
 22
0.0
 32
0.0
 42
50.0
 43
0.0
 44
0.0
 50
0.0
 71
     0
281
     0
 72
     0
  0
VIEW
  5
23AA
330
6
100
AcDbSymbolTableRecord
100
AcDbViewTableRecord
  2
OLE3
 70
     0
 40
591.7897389999999
 10
84.79698199999999
 20
-46.09335999999999
 41
388.792096
 11
0.0
 21
0.0
 31
1.0
 12
0.0
 22
0.0
 32
0.0
 42
50.0
 43
0.0
 44
0.0
 50
0.0
 71
     0
281
     0
 72
     0
  0
VIEW
  5
4402
330
6
100
AcDbSymbolTableRecord
100
AcDbViewTableRecord
  2
OLE4
 70
     0
 40
151.7917769999999
 10
15.387669
 20
-193.75255
 41
398.552755
 11
0.0
 21
0.0
 31
1.0
 12
0.0
 22
0.0
 32
0.0
 42
50.0
 43
0.0
 44
0.0
 50
0.0
 71
     0
281
     0
 72
     0
  0
ENDTAB
  0
TABLE
  2
UCS
  5
7
330
0
100
AcDbSymbolTable
 70
     0
  0
ENDTAB
  0
TABLE
  2
APPID
  5
9
330
0
100
AcDbSymbolTable
 70
     2
  0
APPID
  5
12
330
9
100
AcDbSymbolTableRecord
100
AcDbRegAppTableRecord
  2
ACAD
 70
     0
  0
APPID
  5
ECD
330
9
100
AcDbSymbolTableRecord
100
AcDbRegAppTableRecord
  2
CONTENTBLOCKICON
 70
     0
  0
ENDTAB
  0
TABLE
  2
DIMSTYLE
  5
A
330
0
100
AcDbSymbolTable
 70
     1
100
AcDbDimStyleTable
 71
     0
  0
DIMSTYLE
105
175
102
{ACAD_REACTORS
330
277B
330
277A
330
2777
330
2776
330
288F
330
2D21
330
2D25
330
2D20
330
3BF9
330
3BFA
330
3BFB
330
3BFC
330
3C62
330
3C55
330
3C89
330
3EC5
330
409D
330
40AA
330
40F7
330
411B
330
C52
330
3C88
330
4059
330
40DF
330
40E1
330
435D
330
43A2
330
43CA
102
}
330
A
100
AcDbSymbolTableRecord
100
AcDbDimStyleTableRecord
  2
STANDARD
 70
     0
 41
2.0
 42
1.0
 43
0.5
 44
0.5
 73
     0
 74
     0
 77
     3
 78
    12
140
4.0
147
1.0
271
     1
272
     1
340
11
341
3B2
342
3B2
  0
ENDTAB
  0
TABLE
  2
BLOCK_RECORD
  5
1
330
0
100
AcDbSymbolTable
 70
    24
  0
BLOCK_RECORD
  5
1E
102
{ACAD_XDICTIONARY
360
178
102
}
330
1
100
AcDbSymbolTableRecord
100
AcDbBlockTableRecord
  2
*MODEL_SPACE
340
21
  0
BLOCK_RECORD
  5
1A
102
{ACAD_XDICTIONARY
360
17A
102
}
330
1
100
AcDbSymbolTableRecord
100
AcDbBlockTableRecord
  2
*PAPER_SPACE
340
1D
  0
BLOCK_RECORD
  5
3B2
330
1
100
AcDbSymbolTableRecord
100
AcDbBlockTableRecord
  2
_OPEN
340
0
102
{BLKREFS
331
42BD
331
42BE
331
42B4
331
42B5
331
42AB
331
42AC
331
42A2
331
42A3
331
42C6
331
42C7
331
42DF
331
42E0
331
42CE
331
43DA
331
43DB
331
436D
331
436E
331
4388
331
4389
331
46FF
331
4700
331
43C4
331
43C5
331
43B2
331
43B3
331
437F
331
4380
331
439C
331
439D
331
432A
331
432B
331
4333
331
4334
331
4708
331
4709
331
4345
331
4346
331
4357
331
4358
331
4362
331
4363
331
43A7
331
43A8
331
43FB
331
43FC
102
}
  0
BLOCK_RECORD
  5
27A1
330
1
100
AcDbSymbolTableRecord
100
AcDbBlockTableRecord
  2
*D1
340
0
  0
BLOCK_RECORD
  5
27AD
330
1
100
AcDbSymbolTableRecord
100
AcDbBlockTableRecord
  2
*D2
340
0
  0
BLOCK_RECORD
  5
27B9
330
1
100
AcDbSymbolTableRecord
100
AcDbBlockTableRecord
  2
*D3
340
0
  0
BLOCK_RECORD
  5
27C5
330
1
100
AcDbSymbolTableRecord
100
AcDbBlockTableRecord
  2
*D4
340
0
  0
BLOCK_RECORD
  5
2890
330
1
100
AcDbSymbolTableRecord
100
AcDbBlockTableRecord
  2
*D5
340
0
  0
BLOCK_RECORD
  5
2D33
330
1
100
AcDbSymbolTableRecord
100
AcDbBlockTableRecord
  2
*D6
340
0
  0
BLOCK_RECORD
  5
2D3F
330
1
100
AcDbSymbolTableRecord
100
AcDbBlockTableRecord
  2
*D7
340
0
  0
BLOCK_RECORD
  5
2D4A
330
1
100
AcDbSymbolTableRecord
100
AcDbBlockTableRecord
  2
*D8
340
0
  0
BLOCK_RECORD
  5
3BFD
330
1
100
AcDbSymbolTableRecord
100
AcDbBlockTableRecord
  2
*D9
340
0
  0
BLOCK_RECORD
  5
3C09
330
1
100
AcDbSymbolTableRecord
100
AcDbBlockTableRecord
  2
*D10
340
0
  0
BLOCK_RECORD
  5
3C15
330
1
100
AcDbSymbolTableRecord
100
AcDbBlockTableRecord
  2
*D11
340
0
  0
BLOCK_RECORD
  5
3C23
330
1
100
AcDbSymbolTableRecord
100
AcDbBlockTableRecord
  2
*D12
340
0
  0
BLOCK_RECORD
  5
3C56
330
1
100
AcDbSymbolTableRecord
100
AcDbBlockTableRecord
  2
*D13
340
0
  0
BLOCK_RECORD
  5
3C63
330
1
100
AcDbSymbolTableRecord
100
AcDbBlockTableRecord
  2
*D14
340
0
  0
BLOCK_RECORD
  5
3C8A
330
1
100
AcDbSymbolTableRecord
100
AcDbBlockTableRecord
  2
*D15
340
0
  0
BLOCK_RECORD
  5
3F68
330
1
100
AcDbSymbolTableRecord
100
AcDbBlockTableRecord
  2
*D16
340
0
  0
BLOCK_RECORD
  5
409E
330
1
100
AcDbSymbolTableRecord
100
AcDbBlockTableRecord
  2
*D17
340
0
  0
BLOCK_RECORD
  5
40AB
330
1
100
AcDbSymbolTableRecord
100
AcDbBlockTableRecord
  2
*D18
340
0
  0
BLOCK_RECORD
  5
40F8
330
1
100
AcDbSymbolTableRecord
100
AcDbBlockTableRecord
  2
*D19
340
0
  0
BLOCK_RECORD
  5
411C
330
1
100
AcDbSymbolTableRecord
100
AcDbBlockTableRecord
  2
*D20
340
0
  0
BLOCK_RECORD
  5
435E
330
1
100
AcDbSymbolTableRecord
100
AcDbBlockTableRecord
  2
*D21
340
0
  0
BLOCK_RECORD
  5
43A3
330
1
100
AcDbSymbolTableRecord
100
AcDbBlockTableRecord
  2
*D22
340
0
  0
BLOCK_RECORD
  5
43CB
330
1
100
AcDbSymbolTableRecord
100
AcDbBlockTableRecord
  2
*D23
340
0
  0
ENDTAB
  0
ENDSEC
  0
SECTION
  2
BLOCKS
  0
BLOCK
  5
1F
330
1E
100
AcDbEntity
  8
0
100
AcDbBlockBegin
  2
*MODEL_SPACE
 70
     0
 10
0.0
 20
0.0
 30
0.0
  3
*MODEL_SPACE
  1

  0
ENDBLK
  5
20
330
1E
100
AcDbEntity
  8
0
100
AcDbBlockEnd
  0
BLOCK
  5
1B
330
1A
100
AcDbEntity
 67
     1
  8
0
100
AcDbBlockBegin
  2
*PAPER_SPACE
 70
     0
 10
0.0
 20
0.0
 30
0.0
  3
*PAPER_SPACE
  1

  0
ENDBLK
  5
1C
330
1A
100
AcDbEntity
 67
     1
  8
0
100
AcDbBlockEnd
  0
BLOCK
  5
3B6
330
3B2
100
AcDbEntity
  8
0
100
AcDbBlockBegin
  2
_OPEN
 70
     0
 10
0.0
 20
0.0
 30
0.0
  3
_OPEN
  1

  0
LINE
  5
3B3
330
3B2
100
AcDbEntity
  8
30
  6
Continuous
 62
     0
100
AcDbLine
 10
-1.0
 20
0.166667
 30
0.0
 11
0.0
 21
0.0
 31
0.0
1001
ACAD
1000
RTLwPs
1070
   158
  0
LINE
  5
3B4
330
3B2
100
AcDbEntity
  8
30
  6
Continuous
 62
     0
100
AcDbLine
 10
-1.0
 20
-0.166667
 30
0.0
 11
0.0
 21
0.0
 31
0.0
1001
ACAD
1000
RTLwPs
1070
   158
  0
LINE
  5
3B5
330
3B2
100
AcDbEntity
  8
30
  6
Continuous
 62
     0
100
AcDbLine
 10
0.0
 20
0.0
 30
0.0
 11
-1.0
 21
0.0
 31
0.0
1001
ACAD
1000
RTLwPs
1070
   158
  0
ENDBLK
  5
3B7
330
3B2
100
AcDbEntity
  8
0
100
AcDbBlockEnd
  0
BLOCK
  5
27AB
330
27A1
100
AcDbEntity
  8
0
 62
     2
100
AcDbBlockBegin
  2
*D1
 70
     1
 10
0.0
 20
0.0
 30
0.0
  3
*D1
  1

  0
LINE
  5
42BA
330
27A1
100
AcDbEntity
  8
30
  6
Continuous
 62
     0
100
AcDbLine
 10
-25.0
 20
-55.5
 30
0.0
 11
-25.0
 21
-79.574989
 31
0.0
1001
ACAD
1000
RTLwPs
1070
   158
  0
LINE
  5
42BB
330
27A1
100
AcDbEntity
  8
30
  6
Continuous
 62
     0
100
AcDbLine
 10
0.0
 20
-65.0
 30
0.0
 11
0.0
 21
-79.574989
 31
0.0
1001
ACAD
1000
RTLwPs
1070
   158
  0
LINE
  5
42BC
330
27A1
100
AcDbEntity
  8
30
  6
Continuous
 62
     0
100
AcDbLine
 10
-23.0
 20
-79.074989
 30
0.0
 11
-2.0
 21
-79.074989
 31
0.0
1001
ACAD
1000
RTLwPs
1070
   158
  0
INSERT
  5
42BD
330
27A1
100
AcDbEntity
  8
30
  6
Continuous
 62
     0
100
AcDbBlockReference
  2
_OPEN
 10
-25.0
 20
-79.074989
 30
0.0
 41
2.0
 42
2.0
 43
2.0
 50
180.0
1001
ACAD
1000
RTLwPs
1070
   158
  0
INSERT
  5
42BE
330
27A1
100
AcDbEntity
  8
30
  6
Continuous
 62
     0
100
AcDbBlockReference
  2
_OPEN
 10
0.0
 20
-79.074989
 30
0.0
 41
2.0
 42
2.0
 43
2.0
1001
ACAD
1000
RTLwPs
1070
   158
  0
MTEXT
  5
42BF
330
27A1
100
AcDbEntity
  8
30
  6
Continuous
 62
     0
100
AcDbMText
 10
-11.01462099999999
 20
-76.074989
 30
0.0
 40
4.0
 41
0.0
 71
     5
 72
     1
  1
\A1;25
 73
     1
 44
1.0
1001
ACAD
1000
MTEXTBEGIN
1070
    73
1070
     1
1070
    44
1040
1.0
1070
    74
1070
     0
1000
MTEXTEND
1000
MTEXTBEGIN
1070
    73
1070
     1
1070
    44
1040
1.0
1070
    74
1070
     0
1000
MTEXTEND
1000
MTEXTBEGIN
1070
    73
1070
     1
1070
    44
1040
1.0
1070
    74
1070
     0
1000
MTEXTEND
1000
MTEXTBEGIN
1070
    73
1070
     1
1070
    44
1040
1.0
1070
    74
1070
     0
1000
MTEXTEND
1000
MTEXTBEGIN
1070
    73
1070
     1
1070
    44
1040
1.0
1070
    74
1070
     0
1000
MTEXTEND
1000
MTEXTBEGIN
1070
    73
1070
     1
1070
    44
1040
1.0
1070
    74
1070
     0
1000
MTEXTEND
  0
POINT
  5
42C0
330
27A1
100
AcDbEntity
  8
DEFPOINTS
  6
Continuous
 62
     0
100
AcDbPoint
 10
-25.0
 20
-54.5
 30
0.0
  0
POINT
  5
42C1
330
27A1
100
AcDbEntity
  8
DEFPOINTS
  6
Continuous
 62
     0
100
AcDbPoint
 10
0.0
 20
-64.0
 30
0.0
  0
POINT
  5
42C2
330
27A1
100
AcDbEntity
  8
DEFPOINTS
  6
Continuous
 62
     0
100
AcDbPoint
 10
0.0
 20
-79.074989
 30
0.0
  0
ENDBLK
  5
27AC
330
27A1
100
AcDbEntity
  8
0
 62
     2
100
AcDbBlockEnd
  0
BLOCK
  5
27B7
330
27AD
100
AcDbEntity
  8
0
 62
     2
100
AcDbBlockBegin
  2
*D2
 70
     1
 10
0.0
 20
0.0
 30
0.0
  3
*D2
  1

  0
LINE
  5
42B1
330
27AD
100
AcDbEntity
  8
30
  6
Continuous
 62
     0
100
AcDbLine
 10
-37.5
 20
-62.7
 30
0.0
 11
-37.5
 21
-89.77481800000001
 31
0.0
1001
ACAD
1000
RTLwPs
1070
   158
  0
LINE
  5
42B2
330
27AD
100
AcDbEntity
  8
30
  6
Continuous
 62
     0
100
AcDbLine
 10
37.5
 20
-62.7
 30
0.0
 11
37.5
 21
-89.77481800000001
 31
0.0
1001
ACAD
1000
RTLwPs
1070
   158
  0
LINE
  5
42B3
330
27AD
100
AcDbEntity
  8
30
  6
Continuous
 62
     0
100
AcDbLine
 10
-35.5
 20
-89.274818
 30
0.0
 11
35.5
 21
-89.274818
 31
0.0
1001
ACAD
1000
RTLwPs
1070
   158
  0
INSERT
  5
42B4
330
27AD
100
AcDbEntity
  8
30
  6
Continuous
 62
     0
100
AcDbBlockReference
  2
_OPEN
 10
-37.5
 20
-89.274818
 30
0.0
 41
2.0
 42
2.0
 43
2.0
 50
180.0
1001
ACAD
1000
RTLwPs
1070
   158
  0
INSERT
  5
42B5
330
27AD
100
AcDbEntity
  8
30
  6
Continuous
 62
     0
100
AcDbBlockReference
  2
_OPEN
 10
37.5
 20
-89.274818
 30
0.0
 41
2.0
 42
2.0
 43
2.0
1001
ACAD
1000
RTLwPs
1070
   158
  0
MTEXT
  5
42B6
330
27AD
100
AcDbEntity
  8
30
  6
Continuous
 62
     0
100
AcDbMText
 10
-1.816216
 20
-86.27481800000001
 30
0.0
 40
4.0
 41
0.0
 71
     5
 72
     1
  1
\A1;75
 73
     1
 44
1.0
1001
ACAD
1000
MTEXTBEGIN
1070
    73
1070
     1
1070
    44
1040
1.0
1070
    74
1070
     0
1000
MTEXTEND
1000
MTEXTBEGIN
1070
    73
1070
     1
1070
    44
1040
1.0
1070
    74
1070
     0
1000
MTEXTEND
1000
MTEXTBEGIN
1070
    73
1070
     1
1070
    44
1040
1.0
1070
    74
1070
     0
1000
MTEXTEND
1000
MTEXTBEGIN
1070
    73
1070
     1
1070
    44
1040
1.0
1070
    74
1070
     0
1000
MTEXTEND
1000
MTEXTBEGIN
1070
    73
1070
     1
1070
    44
1040
1.0
1070
    74
1070
     0
1000
MTEXTEND
1000
MTEXTBEGIN
1070
    73
1070
     1
1070
    44
1040
1.0
1070
    74
1070
     0
1000
MTEXTEND
  0
POINT
  5
42B7
330
27AD
100
AcDbEntity
  8
DEFPOINTS
  6
Continuous
 62
     0
100
AcDbPoint
 10
-37.5
 20
-61.7
 30
0.0
  0
POINT
  5
42B8
330
27AD
100
AcDbEntity
  8
DEFPOINTS
  6
Continuous
 62
     0
100
AcDbPoint
 10
37.5
 20
-61.7
 30
0.0
  0
POINT
  5
42B9
330
27AD
100
AcDbEntity
  8
DEFPOINTS
  6
Continuous
 62
     0
100
AcDbPoint
 10
37.5
 20
-89.274818
 30
0.0
  0
ENDBLK
  5
27B8
330
27AD
100
AcDbEntity
  8
0
 62
     2
100
AcDbBlockEnd
  0
BLOCK
  5
27C3
330
27B9
100
AcDbEntity
  8
0
 62
     2
100
AcDbBlockBegin
  2
*D3
 70
     1
 10
0.0
 20
0.0
 30
0.0
  3
*D3
  1

  0
LINE
  5
42A8
330
27B9
100
AcDbEntity
  8
30
  6
Continuous
 62
     0
100
AcDbLine
 10
-38.5
 20
65.0
 30
0.0
 11
-70.14702199999999
 21
65.0
 31
0.0
1001
ACAD
1000
RTLwPs
1070
   158
  0
LINE
  5
42A9
330
27B9
100
AcDbEntity
  8
30
  6
Continuous
 62
     0
100
AcDbLine
 10
-38.5
 20
-65.0
 30
0.0
 11
-70.14702199999999
 21
-65.0
 31
0.0
1001
ACAD
1000
RTLwPs
1070
   158
  0
LINE
  5
42AA
330
27B9
100
AcDbEntity
  8
30
  6
Continuous
 62
     0
100
AcDbLine
 10
-69.64702199999999
 20
63.0
 30
0.0
 11
-69.64702199999999
 21
-63.0
 31
0.0
1001
ACAD
1000
RTLwPs
1070
   158
  0
INSERT
  5
42AB
330
27B9
100
AcDbEntity
  8
30
  6
Continuous
 62
     0
100
AcDbBlockReference
  2
_OPEN
 10
-69.64702199999999
 20
65.0
 30
0.0
 41
2.0
 42
2.0
 43
2.0
 50
90.0
1001
ACAD
1000
RTLwPs
1070
   158
  0
INSERT
  5
42AC
330
27B9
100
AcDbEntity
  8
30
  6
Continuous
 62
     0
100
AcDbBlockReference
  2
_OPEN
 10
-69.64702199999999
 20
-65.0
 30
0.0
 41
2.0
 42
2.0
 43
2.0
 50
270.0
1001
ACAD
1000
RTLwPs
1070
   158
  0
MTEXT
  5
42AD
330
27B9
100
AcDbEntity
  8
30
  6
Continuous
 62
     0
100
AcDbMText
 10
-72.64702199999999
 20
-1.525147999999999
 30
0.0
 40
4.0
 41
0.0
 71
     5
 72
     1
  1
\A1;130
 11
0.0
 21
1.0
 31
0.0
 73
     1
 44
1.0
1001
ACAD
1000
MTEXTBEGIN
1070
    73
1070
     1
1070
    44
1040
1.0
1070
    74
1070
     0
1000
MTEXTEND
1000
MTEXTBEGIN
1070
    73
1070
     1
1070
    44
1040
1.0
1070
    74
1070
     0
1000
MTEXTEND
1000
MTEXTBEGIN
1070
    73
1070
     1
1070
    44
1040
1.0
1070
    74
1070
     0
1000
MTEXTEND
1000
MTEXTBEGIN
1070
    73
1070
     1
1070
    44
1040
1.0
1070
    74
1070
     0
1000
MTEXTEND
1000
MTEXTBEGIN
1070
    73
1070
     1
1070
    44
1040
1.0
1070
    74
1070
     0
1000
MTEXTEND
1000
MTEXTBEGIN
1070
    73
1070
     1
1070
    44
1040
1.0
1070
    74
1070
     0
1000
MTEXTEND
  0
POINT
  5
42AE
330
27B9
100
AcDbEntity
  8
DEFPOINTS
  6
Continuous
 62
     0
100
AcDbPoint
 10
-37.5
 20
65.0
 30
0.0
  0
POINT
  5
42AF
330
27B9
100
AcDbEntity
  8
DEFPOINTS
  6
Continuous
 62
     0
100
AcDbPoint
 10
-37.5
 20
-65.0
 30
0.0
  0
POINT
  5
42B0
330
27B9
100
AcDbEntity
  8
DEFPOINTS
  6
Continuous
 62
     0
100
AcDbPoint
 10
-69.64702199999999
 20
-65.0
 30
0.0
  0
ENDBLK
  5
27C4
330
27B9
100
AcDbEntity
  8
0
 62
     2
100
AcDbBlockEnd
  0
BLOCK
  5
27CF
330
27C5
100
AcDbEntity
  8
0
 62
     2
100
AcDbBlockBegin
  2
*D4
 70
     1
 10
0.0
 20
0.0
 30
0.0
  3
*D4
  1

  0
LINE
  5
429F
330
27C5
100
AcDbEntity
  8
30
  6
Continuous
 62
     0
100
AcDbLine
 10
-38.5
 20
55.0
 30
0.0
 11
-61.236431
 21
55.0
 31
0.0
1001
ACAD
1000
RTLwPs
1070
   158
  0
LINE
  5
42A0
330
27C5
100
AcDbEntity
  8
30
  6
Continuous
 62
     0
100
AcDbLine
 10
-38.5
 20
-55.0
 30
0.0
 11
-61.236431
 21
-55.0
 31
0.0
1001
ACAD
1000
RTLwPs
1070
   158
  0
LINE
  5
42A1
330
27C5
100
AcDbEntity
  8
30
  6
Continuous
 62
     0
100
AcDbLine
 10
-60.736431
 20
53.0
 30
0.0
 11
-60.736431
 21
-53.0
 31
0.0
1001
ACAD
1000
RTLwPs
1070
   158
  0
INSERT
  5
42A2
330
27C5
100
AcDbEntity
  8
30
  6
Continuous
 62
     0
100
AcDbBlockReference
  2
_OPEN
 10
-60.736431
 20
55.0
 30
0.0
 41
2.0
 42
2.0
 43
2.0
 50
90.0
1001
ACAD
1000
RTLwPs
1070
   158
  0
INSERT
  5
42A3
330
27C5
100
AcDbEntity
  8
30
  6
Continuous
 62
     0
100
AcDbBlockReference
  2
_OPEN
 10
-60.736431
 20
-55.0
 30
0.0
 41
2.0
 42
2.0
 43
2.0
 50
270.0
1001
ACAD
1000
RTLwPs
1070
   158
  0
MTEXT
  5
42A4
330
27C5
100
AcDbEntity
  8
30
  6
Continuous
 62
     0
100
AcDbMText
 10
-63.736431
 20
-1.277468999999999
 30
0.0
 40
4.0
 41
0.0
 71
     5
 72
     1
  1
\A1;110
 11
0.0
 21
1.0
 31
0.0
 73
     1
 44
1.0
1001
ACAD
1000
MTEXTBEGIN
1070
    73
1070
     1
1070
    44
1040
1.0
1070
    74
1070
     0
1000
MTEXTEND
1000
MTEXTBEGIN
1070
    73
1070
     1
1070
    44
1040
1.0
1070
    74
1070
     0
1000
MTEXTEND
1000
MTEXTBEGIN
1070
    73
1070
     1
1070
    44
1040
1.0
1070
    74
1070
     0
1000
MTEXTEND
1000
MTEXTBEGIN
1070
    73
1070
     1
1070
    44
1040
1.0
1070
    74
1070
     0
1000
MTEXTEND
1000
MTEXTBEGIN
1070
    73
1070
     1
1070
    44
1040
1.0
1070
    74
1070
     0
1000
MTEXTEND
1000
MTEXTBEGIN
1070
    73
1070
     1
1070
    44
1040
1.0
1070
    74
1070
     0
1000
MTEXTEND
  0
POINT
  5
42A5
330
27C5
100
AcDbEntity
  8
DEFPOINTS
  6
Continuous
 62
     0
100
AcDbPoint
 10
-37.5
 20
55.0
 30
0.0
  0
POINT
  5
42A6
330
27C5
100
AcDbEntity
  8
DEFPOINTS
  6
Continuous
 62
     0
100
AcDbPoint
 10
-37.5
 20
-55.0
 30
0.0
  0
POINT
  5
42A7
330
27C5
100
AcDbEntity
  8
DEFPOINTS
  6
Continuous
 62
     0
100
AcDbPoint
 10
-60.736431
 20
-55.0
 30
0.0
  0
ENDBLK
  5
27D0
330
27C5
100
AcDbEntity
  8
0
 62
     2
100
AcDbBlockEnd
  0
BLOCK
  5
289A
330
2890
100
AcDbEntity
  8
0
 62
     2
100
AcDbBlockBegin
  2
*D5
 70
     1
 10
0.0
 20
0.0
 30
0.0
  3
*D5
  1

  0
LINE
  5
42C3
330
2890
100
AcDbEntity
  8
30
  6
Continuous
 62
     0
100
AcDbLine
 10
0.0
 20
-65.0
 30
0.0
 11
0.0
 21
-79.574989
 31
0.0
1001
ACAD
1000
RTLwPs
1070
   158
  0
LINE
  5
42C4
330
2890
100
AcDbEntity
  8
30
  6
Continuous
 62
     0
100
AcDbLine
 10
25.0
 20
-55.5
 30
0.0
 11
25.0
 21
-79.574989
 31
0.0
1001
ACAD
1000
RTLwPs
1070
   158
  0
LINE
  5
42C5
330
2890
100
AcDbEntity
  8
30
  6
Continuous
 62
     0
100
AcDbLine
 10
2.0
 20
-79.074989
 30
0.0
 11
23.0
 21
-79.074989
 31
0.0
1001
ACAD
1000
RTLwPs
1070
   158
  0
INSERT
  5
42C6
330
2890
100
AcDbEntity
  8
30
  6
Continuous
 62
     0
100
AcDbBlockReference
  2
_OPEN
 10
0.0
 20
-79.074989
 30
0.0
 41
2.0
 42
2.0
 43
2.0
 50
180.0
1001
ACAD
1000
RTLwPs
1070
   158
  0
INSERT
  5
42C7
330
2890
100
AcDbEntity
  8
30
  6
Continuous
 62
     0
100
AcDbBlockReference
  2
_OPEN
 10
25.0
 20
-79.074989
 30
0.0
 41
2.0
 42
2.0
 43
2.0
1001
ACAD
1000
RTLwPs
1070
   158
  0
MTEXT
  5
42C8
330
2890
100
AcDbEntity
  8
30
  6
Continuous
 62
     0
100
AcDbMText
 10
13.985379
 20
-76.074989
 30
0.0
 40
4.0
 41
0.0
 71
     5
 72
     1
  1
\A1;25
 73
     1
 44
1.0
1001
ACAD
1000
MTEXTBEGIN
1070
    73
1070
     1
1070
    44
1040
1.0
1070
    74
1070
     0
1000
MTEXTEND
1000
MTEXTBEGIN
1070
    73
1070
     1
1070
    44
1040
1.0
1070
    74
1070
     0
1000
MTEXTEND
1000
MTEXTBEGIN
1070
    73
1070
     1
1070
    44
1040
1.0
1070
    74
1070
     0
1000
MTEXTEND
1000
MTEXTBEGIN
1070
    73
1070
     1
1070
    44
1040
1.0
1070
    74
1070
     0
1000
MTEXTEND
1000
MTEXTBEGIN
1070
    73
1070
     1
1070
    44
1040
1.0
1070
    74
1070
     0
1000
MTEXTEND
1000
MTEXTBEGIN
1070
    73
1070
     1
1070
    44
1040
1.0
1070
    74
1070
     0
1000
MTEXTEND
  0
POINT
  5
42C9
330
2890
100
AcDbEntity
  8
DEFPOINTS
  6
Continuous
 62
     0
100
AcDbPoint
 10
0.0
 20
-64.0
 30
0.0
  0
POINT
  5
42CA
330
2890
100
AcDbEntity
  8
DEFPOINTS
  6
Continuous
 62
     0
100
AcDbPoint
 10
25.0
 20
-54.5
 30
0.0
  0
POINT
  5
42CB
330
2890
100
AcDbEntity
  8
DEFPOINTS
  6
Continuous
 62
     0
100
AcDbPoint
 10
25.0
 20
-79.074989
 30
0.0
  0
ENDBLK
  5
289B
330
2890
100
AcDbEntity
  8
0
 62
     2
100
AcDbBlockEnd
  0
BLOCK
  5
2D3D
330
2D33
100
AcDbEntity
  8
0
 62
     2
100
AcDbBlockBegin
  2
*D6
 70
     1
 10
0.0
 20
0.0
 30
0.0
  3
*D6
  1

  0
LINE
  5
42DC
330
2D33
100
AcDbEntity
  8
30
  6
Continuous
 62
     0
100
AcDbLine
 10
148.0
 20
-281.853581
 30
0.0
 11
148.0
 21
-331.4999999999999
 31
0.0
1001
ACAD
1000
RTLwPs
1070
   158
  0
LINE
  5
42DD
330
2D33
100
AcDbEntity
  8
30
  6
Continuous
 62
     0
100
AcDbLine
 10
172.0
 20
-282.383373
 30
0.0
 11
172.0
 21
-331.4999999999999
 31
0.0
1001
ACAD
1000
RTLwPs
1070
   158
  0
LINE
  5
42DE
330
2D33
100
AcDbEntity
  8
30
  6
Continuous
 62
     0
100
AcDbLine
 10
150.0
 20
-331.0
 30
0.0
 11
170.0
 21
-331.0
 31
0.0
1001
ACAD
1000
RTLwPs
1070
   158
  0
INSERT
  5
42DF
330
2D33
100
AcDbEntity
  8
30
  6
Continuous
 62
     0
100
AcDbBlockReference
  2
_OPEN
 10
148.0
 20
-331.0
 30
0.0
 41
2.0
 42
2.0
 43
2.0
 50
180.0
1001
ACAD
1000
RTLwPs
1070
   158
  0
INSERT
  5
42E0
330
2D33
100
AcDbEntity
  8
30
  6
Continuous
 62
     0
100
AcDbBlockReference
  2
_OPEN
 10
172.0
 20
-331.0
 30
0.0
 41
2.0
 42
2.0
 43
2.0
1001
ACAD
1000
RTLwPs
1070
   158
  0
MTEXT
  5
42E1
330
2D33
100
AcDbEntity
  8
30
  6
Continuous
 62
     0
100
AcDbMText
 10
158.231579
 20
-328.0
 30
0.0
 40
4.0
 41
0.0
 71
     5
 72
     1
  1
\A1;24
 73
     1
 44
1.0
1001
ACAD
1000
MTEXTBEGIN
1070
    73
1070
     1
1070
    44
1040
1.0
1070
    74
1070
     0
1000
MTEXTEND
1000
MTEXTBEGIN
1070
    73
1070
     1
1070
    44
1040
1.0
1070
    74
1070
     0
1000
MTEXTEND
1000
MTEXTBEGIN
1070
    73
1070
     1
1070
    44
1040
1.0
1070
    74
1070
     0
1000
MTEXTEND
1000
MTEXTBEGIN
1070
    73
1070
     1
1070
    44
1040
1.0
1070
    74
1070
     0
1000
MTEXTEND
1000
MTEXTBEGIN
1070
    73
1070
     1
1070
    44
1040
1.0
1070
    74
1070
     0
1000
MTEXTEND
1000
MTEXTBEGIN
1070
    73
1070
     1
1070
    44
1040
1.0
1070
    74
1070
     0
1000
MTEXTEND
  0
POINT
  5
42E2
330
2D33
100
AcDbEntity
  8
DEFPOINTS
  6
Continuous
 62
     0
100
AcDbPoint
 10
148.0
 20
-280.853581
 30
0.0
  0
POINT
  5
42E3
330
2D33
100
AcDbEntity
  8
DEFPOINTS
  6
Continuous
 62
     0
100
AcDbPoint
 10
172.0
 20
-281.383373
 30
0.0
  0
POINT
  5
42E4
330
2D33
100
AcDbEntity
  8
DEFPOINTS
  6
Continuous
 62
     0
100
AcDbPoint
 10
172.0
 20
-331.0
 30
0.0
  0
ENDBLK
  5
2D3E
330
2D33
100
AcDbEntity
  8
0
 62
     2
100
AcDbBlockEnd
  0
BLOCK
  5
2D48
330
2D3F
100
AcDbEntity
  8
0
 62
     2
100
AcDbBlockBegin
  2
*D7
 70
     1
 10
0.0
 20
0.0
 30
0.0
  3
*D7
  1

  0
LINE
  5
42CC
330
2D3F
100
AcDbEntity
  8
30
  6
Continuous
 62
     0
100
AcDbLine
 10
129.286861
 20
-294.711439
 30
0.0
 11
146.8785719999999
 21
-277.121245
 31
0.0
1001
ACAD
1000
RTLwPs
1070
   158
  0
MTEXT
  5
42CD
330
2D3F
100
AcDbEntity
  8
30
  6
Continuous
 62
     0
100
AcDbMText
 10
130.607033
 20
-289.148923
 30
0.0
 40
4.0
 41
0.0
 71
     5
 72
     1
  1
\A1;R 1
 11
0.7071372805408612
 21
0.7070762805166608
 31
0.0
 73
     1
 44
1.0
1001
ACAD
1000
MTEXTBEGIN
1070
    73
1070
     1
1070
    44
1040
1.0
1070
    74
1070
     0
1000
MTEXTEND
1000
MTEXTBEGIN
1070
    73
1070
     1
1070
    44
1040
1.0
1070
    74
1070
     0
1000
MTEXTEND
1000
MTEXTBEGIN
1070
    73
1070
     1
1070
    44
1040
1.0
1070
    74
1070
     0
1000
MTEXTEND
1000
MTEXTBEGIN
1070
    73
1070
     1
1070
    44
1040
1.0
1070
    74
1070
     0
1000
MTEXTEND
1000
MTEXTBEGIN
1070
    73
1070
     1
1070
    44
1040
1.0
1070
    74
1070
     0
1000
MTEXTEND
1000
MTEXTBEGIN
1070
    73
1070
     1
1070
    44
1040
1.0
1070
    74
1070
     0
1000
MTEXTEND
  0
INSERT
  5
42CE
330
2D3F
100
AcDbEntity
  8
30
  6
Continuous
 62
     0
100
AcDbBlockReference
  2
_OPEN
 10
148.292847
 20
-275.7070919999999
 30
0.0
 41
2.0
 42
2.0
 43
2.0
 50
44.99752899999999
1001
ACAD
1000
RTLwPs
1070
   158
  0
LINE
  5
42CF
330
2D3F
100
AcDbEntity
  8
30
  6
Continuous
 62
     0
100
AcDbLine
 10
148.91
 20
-275.0
 30
0.0
 11
149.09
 21
-275.0
 31
0.0
1001
ACAD
1000
RTLwPs
1070
   158
  0
LINE
  5
42D0
330
2D3F
100
AcDbEntity
  8
30
  6
Continuous
 62
     0
100
AcDbLine
 10
149.0
 20
-275.0899999999999
 30
0.0
 11
149.0
 21
-274.91
 31
0.0
1001
ACAD
1000
RTLwPs
1070
   158
  0
POINT
  5
42D1
330
2D3F
100
AcDbEntity
  8
DEFPOINTS
  6
Continuous
 62
     0
100
AcDbPoint
 10
148.292847
 20
-275.7070919999999
 30
0.0
  0
POINT
  5
42D2
330
2D3F
100
AcDbEntity
  8
DEFPOINTS
  6
Continuous
 62
     0
100
AcDbPoint
 10
149.0
 20
-275.0
 30
0.0
  0
ENDBLK
  5
2D49
330
2D3F
100
AcDbEntity
  8
0
 62
     2
100
AcDbBlockEnd
  0
BLOCK
  5
2D54
330
2D4A
100
AcDbEntity
  8
0
 62
     2
100
AcDbBlockBegin
  2
*D8
 70
     1
 10
0.0
 20
0.0
 30
0.0
  3
*D8
  1

  0
LINE
  5
43D7
330
2D4A
100
AcDbEntity
  8
30
  6
Continuous
 62
     0
100
AcDbLine
 10
141.153601
 20
-224.0
 30
0.0
 11
99.57374300000001
 21
-224.0
 31
0.0
1001
ACAD
1000
RTLwPs
1070
   158
  0
LINE
  5
43D8
330
2D4A
100
AcDbEntity
  8
30
  6
Continuous
 62
     0
100
AcDbLine
 10
138.7740949999999
 20
-276.0
 30
0.0
 11
99.57374300000001
 21
-276.0
 31
0.0
1001
ACAD
1000
RTLwPs
1070
   158
  0
LINE
  5
43D9
330
2D4A
100
AcDbEntity
  8
30
  6
Continuous
 62
     0
100
AcDbLine
 10
100.073743
 20
-226.0
 30
0.0
 11
100.073743
 21
-274.0
 31
0.0
1001
ACAD
1000
RTLwPs
1070
   158
  0
INSERT
  5
43DA
330
2D4A
100
AcDbEntity
  8
30
  6
Continuous
 62
     0
100
AcDbBlockReference
  2
_OPEN
 10
100.073743
 20
-224.0
 30
0.0
 41
2.0
 42
2.0
 43
2.0
 50
90.0
1001
ACAD
1000
RTLwPs
1070
   158
  0
INSERT
  5
43DB
330
2D4A
100
AcDbEntity
  8
30
  6
Continuous
 62
     0
100
AcDbBlockReference
  2
_OPEN
 10
100.073743
 20
-276.0
 30
0.0
 41
2.0
 42
2.0
 43
2.0
 50
270.0
1001
ACAD
1000
RTLwPs
1070
   158
  0
MTEXT
  5
43DC
330
2D4A
100
AcDbEntity
  8
30
  6
Continuous
 62
     0
100
AcDbMText
 10
97.07374300000001
 20
-253.641898
 30
0.0
 40
4.0
 41
0.0
 71
     5
 72
     1
  1
\A1;52
 11
0.0
 21
1.0
 31
0.0
 73
     1
 44
1.0
1001
ACAD
1000
MTEXTBEGIN
1070
    73
1070
     1
1070
    44
1040
1.0
1070
    74
1070
     0
1000
MTEXTEND
1000
MTEXTBEGIN
1070
    73
1070
     1
1070
    44
1040
1.0
1070
    74
1070
     0
1000
MTEXTEND
1000
MTEXTBEGIN
1070
    73
1070
     1
1070
    44
1040
1.0
1070
    74
1070
     0
1000
MTEXTEND
1000
MTEXTBEGIN
1070
    73
1070
     1
1070
    44
1040
1.0
1070
    74
1070
     0
1000
MTEXTEND
1000
MTEXTBEGIN
1070
    73
1070
     1
1070
    44
1040
1.0
1070
    74
1070
     0
1000
MTEXTEND
1000
MTEXTBEGIN
1070
    73
1070
     1
1070
    44
1040
1.0
1070
    74
1070
     0
1000
MTEXTEND
  0
POINT
  5
43DD
330
2D4A
100
AcDbEntity
  8
DEFPOINTS
  6
Continuous
 62
     0
100
AcDbPoint
 10
142.153601
 20
-224.0
 30
0.0
  0
POINT
  5
43DE
330
2D4A
100
AcDbEntity
  8
DEFPOINTS
  6
Continuous
 62
     0
100
AcDbPoint
 10
139.7740949999999
 20
-276.0
 30
0.0
  0
POINT
  5
43DF
330
2D4A
100
AcDbEntity
  8
DEFPOINTS
  6
Continuous
 62
     0
100
AcDbPoint
 10
100.073743
 20
-276.0
 30
0.0
  0
ENDBLK
  5
2D55
330
2D4A
100
AcDbEntity
  8
0
 62
     2
100
AcDbBlockEnd
  0
BLOCK
  5
3C07
330
3BFD
100
AcDbEntity
  8
0
 62
     2
100
AcDbBlockBegin
  2
*D9
 70
     1
 10
0.0
 20
0.0
 30
0.0
  3
*D9
  1

  0
LINE
  5
436A
330
3BFD
100
AcDbEntity
  8
30
  6
Continuous
 62
     0
100
AcDbLine
 10
184.393649
 20
-101.4043489999999
 30
0.0
 11
184.393649
 21
-110.5845449999999
 31
0.0
1001
ACAD
1000
RTLwPs
1070
   158
  0
LINE
  5
436B
330
3BFD
100
AcDbEntity
  8
30
  6
Continuous
 62
     0
100
AcDbLine
 10
97.393771
 20
10.831055
 30
0.0
 11
97.393771
 21
-110.5845449999999
 31
0.0
1001
ACAD
1000
RTLwPs
1070
   158
  0
LINE
  5
436C
330
3BFD
100
AcDbEntity
  8
30
  6
Continuous
 62
     0
100
AcDbLine
 10
182.393649
 20
-110.084545
 30
0.0
 11
99.39377100000001
 21
-110.084545
 31
0.0
1001
ACAD
1000
RTLwPs
1070
   158
  0
INSERT
  5
436D
330
3BFD
100
AcDbEntity
  8
30
  6
Continuous
 62
     0
100
AcDbBlockReference
  2
_OPEN
 10
184.393649
 20
-110.084545
 30
0.0
 41
2.0
 42
2.0
 43
2.0
1001
ACAD
1000
RTLwPs
1070
   158
  0
INSERT
  5
436E
330
3BFD
100
AcDbEntity
  8
30
  6
Continuous
 62
     0
100
AcDbBlockReference
  2
_OPEN
 10
97.393771
 20
-110.084545
 30
0.0
 41
2.0
 42
2.0
 43
2.0
 50
180.0
1001
ACAD
1000
RTLwPs
1070
   158
  0
MTEXT
  5
436F
330
3BFD
100
AcDbEntity
  8
30
  6
Continuous
 62
     0
100
AcDbMText
 10
140.8937099999999
 20
-107.0845449999999
 30
0.0
 40
4.0
 41
0.0
 71
     5
 72
     1
  1
\A1;87
 73
     1
 44
1.0
1001
ACAD
1000
MTEXTBEGIN
1070
    73
1070
     1
1070
    44
1040
1.0
1070
    74
1070
     0
1000
MTEXTEND
1000
MTEXTBEGIN
1070
    73
1070
     1
1070
    44
1040
1.0
1070
    74
1070
     0
1000
MTEXTEND
1000
MTEXTBEGIN
1070
    73
1070
     1
1070
    44
1040
1.0
1070
    74
1070
     0
1000
MTEXTEND
1000
MTEXTBEGIN
1070
    73
1070
     1
1070
    44
1040
1.0
1070
    74
1070
     0
1000
MTEXTEND
1000
MTEXTBEGIN
1070
    73
1070
     1
1070
    44
1040
1.0
1070
    74
1070
     0
1000
MTEXTEND
1000
MTEXTBEGIN
1070
    73
1070
     1
1070
    44
1040
1.0
1070
    74
1070
     0
1000
MTEXTEND
  0
POINT
  5
4370
330
3BFD
100
AcDbEntity
  8
DEFPOINTS
  6
Continuous
 62
     0
100
AcDbPoint
 10
184.393649
 20
-100.4043489999999
 30
0.0
  0
POINT
  5
4371
330
3BFD
100
AcDbEntity
  8
DEFPOINTS
  6
Continuous
 62
     0
100
AcDbPoint
 10
97.393771
 20
11.831055
 30
0.0
  0
POINT
  5
4372
330
3BFD
100
AcDbEntity
  8
DEFPOINTS
  6
Continuous
 62
     0
100
AcDbPoint
 10
97.393771
 20
-110.084545
 30
0.0
  0
ENDBLK
  5
3C08
330
3BFD
100
AcDbEntity
  8
0
 62
     2
100
AcDbBlockEnd
  0
BLOCK
  5
3C13
330
3C09
100
AcDbEntity
  8
0
 62
     2
100
AcDbBlockBegin
  2
*D10
 70
     1
 10
0.0
 20
0.0
 30
0.0
  3
*D10
  1

  0
LINE
  5
4385
330
3C09
100
AcDbEntity
  8
30
  6
Continuous
 62
     0
100
AcDbLine
 10
184.393649
 20
-66.5
 30
0.0
 11
184.393649
 21
-100.904349
 31
0.0
1001
ACAD
1000
RTLwPs
1070
   158
  0
LINE
  5
4386
330
3C09
100
AcDbEntity
  8
30
  6
Continuous
 62
     0
100
AcDbLine
 10
116.3936489999999
 20
-43.5
 30
0.0
 11
116.3936489999999
 21
-100.904349
 31
0.0
1001
ACAD
1000
RTLwPs
1070
   158
  0
LINE
  5
4387
330
3C09
100
AcDbEntity
  8
30
  6
Continuous
 62
     0
100
AcDbLine
 10
182.393649
 20
-100.4043489999999
 30
0.0
 11
118.3936489999999
 21
-100.4043489999999
 31
0.0
1001
ACAD
1000
RTLwPs
1070
   158
  0
INSERT
  5
4388
330
3C09
100
AcDbEntity
  8
30
  6
Continuous
 62
     0
100
AcDbBlockReference
  2
_OPEN
 10
184.393649
 20
-100.4043489999999
 30
0.0
 41
2.0
 42
2.0
 43
2.0
1001
ACAD
1000
RTLwPs
1070
   158
  0
INSERT
  5
4389
330
3C09
100
AcDbEntity
  8
30
  6
Continuous
 62
     0
100
AcDbBlockReference
  2
_OPEN
 10
116.3936489999999
 20
-100.4043489999999
 30
0.0
 41
2.0
 42
2.0
 43
2.0
 50
180.0
1001
ACAD
1000
RTLwPs
1070
   158
  0
MTEXT
  5
438A
330
3C09
100
AcDbEntity
  8
30
  6
Continuous
 62
     0
100
AcDbMText
 10
150.393649
 20
-97.404349
 30
0.0
 40
4.0
 41
0.0
 71
     5
 72
     1
  1
\A1;68
 73
     1
 44
1.0
1001
ACAD
1000
MTEXTBEGIN
1070
    73
1070
     1
1070
    44
1040
1.0
1070
    74
1070
     0
1000
MTEXTEND
1000
MTEXTBEGIN
1070
    73
1070
     1
1070
    44
1040
1.0
1070
    74
1070
     0
1000
MTEXTEND
1000
MTEXTBEGIN
1070
    73
1070
     1
1070
    44
1040
1.0
1070
    74
1070
     0
1000
MTEXTEND
1000
MTEXTBEGIN
1070
    73
1070
     1
1070
    44
1040
1.0
1070
    74
1070
     0
1000
MTEXTEND
1000
MTEXTBEGIN
1070
    73
1070
     1
1070
    44
1040
1.0
1070
    74
1070
     0
1000
MTEXTEND
1000
MTEXTBEGIN
1070
    73
1070
     1
1070
    44
1040
1.0
1070
    74
1070
     0
1000
MTEXTEND
  0
POINT
  5
438B
330
3C09
100
AcDbEntity
  8
DEFPOINTS
  6
Continuous
 62
     0
100
AcDbPoint
 10
184.393649
 20
-65.5
 30
0.0
  0
POINT
  5
438C
330
3C09
100
AcDbEntity
  8
DEFPOINTS
  6
Continuous
 62
     0
100
AcDbPoint
 10
116.3936489999999
 20
-42.5
 30
0.0
  0
POINT
  5
438D
330
3C09
100
AcDbEntity
  8
DEFPOINTS
  6
Continuous
 62
     0
100
AcDbPoint
 10
116.3936489999999
 20
-100.4043489999999
 30
0.0
  0
ENDBLK
  5
3C14
330
3C09
100
AcDbEntity
  8
0
 62
     2
100
AcDbBlockEnd
  0
BLOCK
  5
3C21
330
3C15
100
AcDbEntity
  8
0
 62
     2
100
AcDbBlockBegin
  2
*D11
 70
     1
 10
0.0
 20
0.0
 30
0.0
  3
*D11
  1

  0
LINE
  5
46FA
330
3C15
100
AcDbEntity
  8
30
  6
Continuous
 62
     0
100
AcDbLine
 10
116.3936489999999
 20
-43.0
 30
0.0
 11
116.3936489999999
 21
-100.904349
 31
0.0
  0
LINE
  5
46FB
330
3C15
100
AcDbEntity
  8
30
  6
Continuous
 62
     0
100
AcDbLine
 10
111.39371
 20
-26.0
 30
0.0
 11
111.39371
 21
-100.904349
 31
0.0
  0
LINE
  5
46FC
330
3C15
100
AcDbEntity
  8
30
  6
Continuous
 62
     0
100
AcDbLine
 10
117.8936489999999
 20
-100.4043489999999
 30
0.0
 11
119.393649
 21
-100.4043489999999
 31
0.0
  0
LINE
  5
46FD
330
3C15
100
AcDbEntity
  8
30
  6
Continuous
 62
     0
100
AcDbLine
 10
109.89371
 20
-100.4043489999999
 30
0.0
 11
108.39371
 21
-100.4043489999999
 31
0.0
  0
LINE
  5
46FE
330
3C15
100
AcDbEntity
  8
30
  6
Continuous
 62
     0
100
AcDbLine
 10
116.3936489999999
 20
-100.4043489999999
 30
0.0
 11
111.39371
 21
-100.4043489999999
 31
0.0
  0
INSERT
  5
46FF
330
3C15
100
AcDbEntity
  8
30
  6
Continuous
 62
     0
100
AcDbBlockReference
  2
_OPEN
 10
116.3936489999999
 20
-100.4043489999999
 30
0.0
 41
1.5
 42
1.5
 43
1.5
 50
180.0
  0
INSERT
  5
4700
330
3C15
100
AcDbEntity
  8
30
  6
Continuous
 62
     0
100
AcDbBlockReference
  2
_OPEN
 10
111.39371
 20
-100.4043489999999
 30
0.0
 41
1.5
 42
1.5
 43
1.5
  0
MTEXT
  5
4701
330
3C15
100
AcDbEntity
  8
30
  6
Continuous
 62
     0
100
AcDbMText
 10
113.893679
 20
-97.404349
 30
0.0
 40
4.0
 41
0.0
 71
     5
 72
     1
  1
\A1;5
 73
     1
 44
1.0
  0
POINT
  5
4702
330
3C15
100
AcDbEntity
  8
DEFPOINTS
  6
Continuous
 62
     0
100
AcDbPoint
 10
116.3936489999999
 20
-42.0
 30
0.0
  0
POINT
  5
4703
330
3C15
100
AcDbEntity
  8
DEFPOINTS
  6
Continuous
 62
     0
100
AcDbPoint
 10
111.39371
 20
-25.0
 30
0.0
  0
POINT
  5
4704
330
3C15
100
AcDbEntity
  8
DEFPOINTS
  6
Continuous
 62
     0
100
AcDbPoint
 10
111.39371
 20
-100.4043489999999
 30
0.0
  0
ENDBLK
  5
3C22
330
3C15
100
AcDbEntity
  8
0
 62
     2
100
AcDbBlockEnd
  0
BLOCK
  5
3C2D
330
3C23
100
AcDbEntity
  8
0
 62
     2
100
AcDbBlockBegin
  2
*D12
 70
     1
 10
0.0
 20
0.0
 30
0.0
  3
*D12
  1

  0
LINE
  5
43C1
330
3C23
100
AcDbEntity
  8
30
  6
Continuous
 62
     0
100
AcDbLine
 10
123.393649
 20
-66.5
 30
0.0
 11
123.393649
 21
-80.62716400000001
 31
0.0
1001
ACAD
1000
RTLwPs
1070
   158
  0
LINE
  5
43C2
330
3C23
100
AcDbEntity
  8
30
  6
Continuous
 62
     0
100
AcDbLine
 10
184.393649
 20
-66.5
 30
0.0
 11
184.393649
 21
-80.62716400000001
 31
0.0
1001
ACAD
1000
RTLwPs
1070
   158
  0
LINE
  5
43C3
330
3C23
100
AcDbEntity
  8
30
  6
Continuous
 62
     0
100
AcDbLine
 10
125.393649
 20
-80.127164
 30
0.0
 11
182.393649
 21
-80.127164
 31
0.0
1001
ACAD
1000
RTLwPs
1070
   158
  0
INSERT
  5
43C4
330
3C23
100
AcDbEntity
  8
30
  6
Continuous
 62
     0
100
AcDbBlockReference
  2
_OPEN
 10
123.393649
 20
-80.127164
 30
0.0
 41
2.0
 42
2.0
 43
2.0
 50
180.0
1001
ACAD
1000
RTLwPs
1070
   158
  0
INSERT
  5
43C5
330
3C23
100
AcDbEntity
  8
30
  6
Continuous
 62
     0
100
AcDbBlockReference
  2
_OPEN
 10
184.393649
 20
-80.127164
 30
0.0
 41
2.0
 42
2.0
 43
2.0
1001
ACAD
1000
RTLwPs
1070
   158
  0
MTEXT
  5
43C6
330
3C23
100
AcDbEntity
  8
30
  6
Continuous
 62
     0
100
AcDbMText
 10
153.893649
 20
-77.12716400000001
 30
0.0
 40
4.0
 41
0.0
 71
     5
 72
     1
  1
\A1;61
 73
     1
 44
1.0
1001
ACAD
1000
MTEXTBEGIN
1070
    73
1070
     1
1070
    44
1040
1.0
1070
    74
1070
     0
1000
MTEXTEND
1000
MTEXTBEGIN
1070
    73
1070
     1
1070
    44
1040
1.0
1070
    74
1070
     0
1000
MTEXTEND
1000
MTEXTBEGIN
1070
    73
1070
     1
1070
    44
1040
1.0
1070
    74
1070
     0
1000
MTEXTEND
1000
MTEXTBEGIN
1070
    73
1070
     1
1070
    44
1040
1.0
1070
    74
1070
     0
1000
MTEXTEND
1000
MTEXTBEGIN
1070
    73
1070
     1
1070
    44
1040
1.0
1070
    74
1070
     0
1000
MTEXTEND
1000
MTEXTBEGIN
1070
    73
1070
     1
1070
    44
1040
1.0
1070
    74
1070
     0
1000
MTEXTEND
  0
POINT
  5
43C7
330
3C23
100
AcDbEntity
  8
DEFPOINTS
  6
Continuous
 62
     0
100
AcDbPoint
 10
123.393649
 20
-65.5
 30
0.0
  0
POINT
  5
43C8
330
3C23
100
AcDbEntity
  8
DEFPOINTS
  6
Continuous
 62
     0
100
AcDbPoint
 10
184.393649
 20
-65.5
 30
0.0
  0
POINT
  5
43C9
330
3C23
100
AcDbEntity
  8
DEFPOINTS
  6
Continuous
 62
     0
100
AcDbPoint
 10
184.393649
 20
-80.127164
 30
0.0
  0
ENDBLK
  5
3C2E
330
3C23
100
AcDbEntity
  8
0
 62
     2
100
AcDbBlockEnd
  0
BLOCK
  5
3C60
330
3C56
100
AcDbEntity
  8
0
 62
     2
100
AcDbBlockBegin
  2
*D13
 70
     1
 10
0.0
 20
0.0
 30
0.0
  3
*D13
  1

  0
LINE
  5
43AF
330
3C56
100
AcDbEntity
  8
30
  6
Continuous
 62
     0
100
AcDbLine
 10
184.393649
 20
-66.0
 30
0.0
 11
184.393649
 21
-80.62716400000001
 31
0.0
1001
ACAD
1000
RTLwPs
1070
   158
  0
LINE
  5
43B0
330
3C56
100
AcDbEntity
  8
30
  6
Continuous
 62
     0
100
AcDbLine
 10
216.493625
 20
-63.5
 30
0.0
 11
216.493625
 21
-80.62716400000001
 31
0.0
1001
ACAD
1000
RTLwPs
1070
   158
  0
LINE
  5
43B1
330
3C56
100
AcDbEntity
  8
30
  6
Continuous
 62
     0
100
AcDbLine
 10
186.393649
 20
-80.127164
 30
0.0
 11
214.493625
 21
-80.127164
 31
0.0
1001
ACAD
1000
RTLwPs
1070
   158
  0
INSERT
  5
43B2
330
3C56
100
AcDbEntity
  8
30
  6
Continuous
 62
     0
100
AcDbBlockReference
  2
_OPEN
 10
184.393649
 20
-80.127164
 30
0.0
 41
2.0
 42
2.0
 43
2.0
 50
180.0
1001
ACAD
1000
RTLwPs
1070
   158
  0
INSERT
  5
43B3
330
3C56
100
AcDbEntity
  8
30
  6
Continuous
 62
     0
100
AcDbBlockReference
  2
_OPEN
 10
216.493625
 20
-80.127164
 30
0.0
 41
2.0
 42
2.0
 43
2.0
1001
ACAD
1000
RTLwPs
1070
   158
  0
MTEXT
  5
43B4
330
3C56
100
AcDbEntity
  8
30
  6
Continuous
 62
     0
100
AcDbMText
 10
200.443637
 20
-77.12716400000001
 30
0.0
 40
4.0
 41
0.0
 71
     5
 72
     1
  1
\A1;32.1
 73
     1
 44
1.0
1001
ACAD
1000
MTEXTBEGIN
1070
    73
1070
     1
1070
    44
1040
1.0
1070
    74
1070
     0
1000
MTEXTEND
1000
MTEXTBEGIN
1070
    73
1070
     1
1070
    44
1040
1.0
1070
    74
1070
     0
1000
MTEXTEND
1000
MTEXTBEGIN
1070
    73
1070
     1
1070
    44
1040
1.0
1070
    74
1070
     0
1000
MTEXTEND
1000
MTEXTBEGIN
1070
    73
1070
     1
1070
    44
1040
1.0
1070
    74
1070
     0
1000
MTEXTEND
1000
MTEXTBEGIN
1070
    73
1070
     1
1070
    44
1040
1.0
1070
    74
1070
     0
1000
MTEXTEND
1000
MTEXTBEGIN
1070
    73
1070
     1
1070
    44
1040
1.0
1070
    74
1070
     0
1000
MTEXTEND
  0
POINT
  5
43B5
330
3C56
100
AcDbEntity
  8
DEFPOINTS
  6
Continuous
 62
     0
100
AcDbPoint
 10
184.393649
 20
-65.0
 30
0.0
  0
POINT
  5
43B6
330
3C56
100
AcDbEntity
  8
DEFPOINTS
  6
Continuous
 62
     0
100
AcDbPoint
 10
216.493625
 20
-62.5
 30
0.0
  0
POINT
  5
43B7
330
3C56
100
AcDbEntity
  8
DEFPOINTS
  6
Continuous
 62
     0
100
AcDbPoint
 10
216.493625
 20
-80.127164
 30
0.0
  0
ENDBLK
  5
3C61
330
3C56
100
AcDbEntity
  8
0
 62
     2
100
AcDbBlockEnd
  0
BLOCK
  5
3C6D
330
3C63
100
AcDbEntity
  8
0
 62
     2
100
AcDbBlockBegin
  2
*D14
 70
     1
 10
0.0
 20
0.0
 30
0.0
  3
*D14
  1

  0
LINE
  5
437C
330
3C63
100
AcDbEntity
  8
30
  6
Continuous
 62
     0
100
AcDbLine
 10
184.393649
 20
-99.40434899999999
 30
0.0
 11
184.393649
 21
-99.904349
 31
0.0
1001
ACAD
1000
RTLwPs
1070
   158
  0
LINE
  5
437D
330
3C63
100
AcDbEntity
  8
30
  6
Continuous
 62
     0
100
AcDbLine
 10
251.493625
 20
-63.5
 30
0.0
 11
251.493625
 21
-100.904349
 31
0.0
1001
ACAD
1000
RTLwPs
1070
   158
  0
LINE
  5
437E
330
3C63
100
AcDbEntity
  8
30
  6
Continuous
 62
     0
100
AcDbLine
 10
186.393649
 20
-100.4043489999999
 30
0.0
 11
249.493625
 21
-100.4043489999999
 31
0.0
1001
ACAD
1000
RTLwPs
1070
   158
  0
INSERT
  5
437F
330
3C63
100
AcDbEntity
  8
30
  6
Continuous
 62
     0
100
AcDbBlockReference
  2
_OPEN
 10
184.393649
 20
-100.4043489999999
 30
0.0
 41
2.0
 42
2.0
 43
2.0
 50
180.0
1001
ACAD
1000
RTLwPs
1070
   158
  0
INSERT
  5
4380
330
3C63
100
AcDbEntity
  8
30
  6
Continuous
 62
     0
100
AcDbBlockReference
  2
_OPEN
 10
251.493625
 20
-100.4043489999999
 30
0.0
 41
2.0
 42
2.0
 43
2.0
1001
ACAD
1000
RTLwPs
1070
   158
  0
MTEXT
  5
4381
330
3C63
100
AcDbEntity
  8
30
  6
Continuous
 62
     0
100
AcDbMText
 10
217.943637
 20
-97.404349
 30
0.0
 40
4.0
 41
0.0
 71
     5
 72
     1
  1
\A1;67.1
 73
     1
 44
1.0
1001
ACAD
1000
MTEXTBEGIN
1070
    73
1070
     1
1070
    44
1040
1.0
1070
    74
1070
     0
1000
MTEXTEND
1000
MTEXTBEGIN
1070
    73
1070
     1
1070
    44
1040
1.0
1070
    74
1070
     0
1000
MTEXTEND
1000
MTEXTBEGIN
1070
    73
1070
     1
1070
    44
1040
1.0
1070
    74
1070
     0
1000
MTEXTEND
1000
MTEXTBEGIN
1070
    73
1070
     1
1070
    44
1040
1.0
1070
    74
1070
     0
1000
MTEXTEND
1000
MTEXTBEGIN
1070
    73
1070
     1
1070
    44
1040
1.0
1070
    74
1070
     0
1000
MTEXTEND
1000
MTEXTBEGIN
1070
    73
1070
     1
1070
    44
1040
1.0
1070
    74
1070
     0
1000
MTEXTEND
  0
POINT
  5
4382
330
3C63
100
AcDbEntity
  8
DEFPOINTS
  6
Continuous
 62
     0
100
AcDbPoint
 10
184.393649
 20
-100.4043489999999
 30
0.0
  0
POINT
  5
4383
330
3C63
100
AcDbEntity
  8
DEFPOINTS
  6
Continuous
 62
     0
100
AcDbPoint
 10
251.493625
 20
-62.5
 30
0.0
  0
POINT
  5
4384
330
3C63
100
AcDbEntity
  8
DEFPOINTS
  6
Continuous
 62
     0
100
AcDbPoint
 10
251.493625
 20
-100.4043489999999
 30
0.0
  0
ENDBLK
  5
3C6E
330
3C63
100
AcDbEntity
  8
0
 62
     2
100
AcDbBlockEnd
  0
BLOCK
  5
3C94
330
3C8A
100
AcDbEntity
  8
0
 62
     2
100
AcDbBlockBegin
  2
*D15
 70
     1
 10
0.0
 20
0.0
 30
0.0
  3
*D15
  1

  0
LINE
  5
4399
330
3C8A
100
AcDbEntity
  8
30
  6
Continuous
 62
     0
100
AcDbLine
 10
271.493625
 20
-60.0
 30
0.0
 11
271.493625
 21
-110.5845449999999
 31
0.0
1001
ACAD
1000
RTLwPs
1070
   158
  0
LINE
  5
439A
330
3C8A
100
AcDbEntity
  8
30
  6
Continuous
 62
     0
100
AcDbLine
 10
184.393649
 20
-109.0845449999999
 30
0.0
 11
184.393649
 21
-109.5845449999999
 31
0.0
1001
ACAD
1000
RTLwPs
1070
   158
  0
LINE
  5
439B
330
3C8A
100
AcDbEntity
  8
30
  6
Continuous
 62
     0
100
AcDbLine
 10
269.493625
 20
-110.084545
 30
0.0
 11
186.393649
 21
-110.084545
 31
0.0
1001
ACAD
1000
RTLwPs
1070
   158
  0
INSERT
  5
439C
330
3C8A
100
AcDbEntity
  8
30
  6
Continuous
 62
     0
100
AcDbBlockReference
  2
_OPEN
 10
271.493625
 20
-110.084545
 30
0.0
 41
2.0
 42
2.0
 43
2.0
1001
ACAD
1000
RTLwPs
1070
   158
  0
INSERT
  5
439D
330
3C8A
100
AcDbEntity
  8
30
  6
Continuous
 62
     0
100
AcDbBlockReference
  2
_OPEN
 10
184.393649
 20
-110.084545
 30
0.0
 41
2.0
 42
2.0
 43
2.0
 50
180.0
1001
ACAD
1000
RTLwPs
1070
   158
  0
MTEXT
  5
439E
330
3C8A
100
AcDbEntity
  8
30
  6
Continuous
 62
     0
100
AcDbMText
 10
227.943637
 20
-107.0845449999999
 30
0.0
 40
4.0
 41
0.0
 71
     5
 72
     1
  1
\A1;87.1
 73
     1
 44
1.0
1001
ACAD
1000
MTEXTBEGIN
1070
    73
1070
     1
1070
    44
1040
1.0
1070
    74
1070
     0
1000
MTEXTEND
1000
MTEXTBEGIN
1070
    73
1070
     1
1070
    44
1040
1.0
1070
    74
1070
     0
1000
MTEXTEND
1000
MTEXTBEGIN
1070
    73
1070
     1
1070
    44
1040
1.0
1070
    74
1070
     0
1000
MTEXTEND
1000
MTEXTBEGIN
1070
    73
1070
     1
1070
    44
1040
1.0
1070
    74
1070
     0
1000
MTEXTEND
1000
MTEXTBEGIN
1070
    73
1070
     1
1070
    44
1040
1.0
1070
    74
1070
     0
1000
MTEXTEND
1000
MTEXTBEGIN
1070
    73
1070
     1
1070
    44
1040
1.0
1070
    74
1070
     0
1000
MTEXTEND
  0
POINT
  5
439F
330
3C8A
100
AcDbEntity
  8
DEFPOINTS
  6
Continuous
 62
     0
100
AcDbPoint
 10
271.493625
 20
-59.0
 30
0.0
  0
POINT
  5
43A0
330
3C8A
100
AcDbEntity
  8
DEFPOINTS
  6
Continuous
 62
     0
100
AcDbPoint
 10
184.393649
 20
-110.084545
 30
0.0
  0
POINT
  5
43A1
330
3C8A
100
AcDbEntity
  8
DEFPOINTS
  6
Continuous
 62
     0
100
AcDbPoint
 10
184.393649
 20
-110.084545
 30
0.0
  0
ENDBLK
  5
3C95
330
3C8A
100
AcDbEntity
  8
0
 62
     2
100
AcDbBlockEnd
  0
BLOCK
  5
3F73
330
3F68
100
AcDbEntity
  8
0
 62
     2
100
AcDbBlockBegin
  2
*D16
 70
     1
 10
0.0
 20
0.0
 30
0.0
  3
*D16
  1

  0
LINE
  5
4326
330
3F68
100
AcDbEntity
  8
30
 62
     0
100
AcDbLine
 10
-38.381809
 20
198.0
 30
0.0
 11
-49.415508
 21
198.0
 31
0.0
1001
ACAD
1000
RTLwPs
1070
   158
  0
LINE
  5
4327
330
3F68
100
AcDbEntity
  8
30
 62
     0
100
AcDbLine
 10
-8.296189
 20
204.4999999999999
 30
0.0
 11
-49.415508
 21
204.4999999999999
 31
0.0
1001
ACAD
1000
RTLwPs
1070
   158
  0
LINE
  5
4328
330
3F68
100
AcDbEntity
  8
30
 62
     0
100
AcDbLine
 10
-48.915508
 20
202.4999999999999
 30
0.0
 11
-48.915508
 21
200.0
 31
0.0
1001
ACAD
1000
RTLwPs
1070
   158
  0
LINE
  5
4329
330
3F68
100
AcDbEntity
  8
30
 62
     0
100
AcDbLine
 10
-48.915508
 20
198.0
 30
0.0
 11
-48.915508
 21
181.83875
 31
0.0
1001
ACAD
1000
RTLwPs
1070
   158
  0
INSERT
  5
432A
330
3F68
100
AcDbEntity
  8
30
 62
     0
100
AcDbBlockReference
  2
_OPEN
 10
-48.915508
 20
204.4999999999999
 30
0.0
 41
2.0
 42
2.0
 43
2.0
 50
90.0
1001
ACAD
1000
RTLwPs
1070
   158
  0
INSERT
  5
432B
330
3F68
100
AcDbEntity
  8
30
 62
     0
100
AcDbBlockReference
  2
_OPEN
 10
-48.915508
 20
198.0
 30
0.0
 41
2.0
 42
2.0
 43
2.0
 50
270.0
1001
ACAD
1000
RTLwPs
1070
   158
  0
MTEXT
  5
432C
330
3F68
100
AcDbEntity
  8
30
 62
     0
100
AcDbMText
 10
-51.915508
 20
186.83875
 30
0.0
 40
4.0
 41
0.0
 71
     5
 72
     1
  1
\A1;6.5
 11
0.0
 21
1.0
 31
0.0
 73
     1
 44
1.0
1001
ACAD
1000
MTEXTBEGIN
1070
    73
1070
     1
1070
    44
1040
1.0
1070
    74
1070
     0
1000
MTEXTEND
1000
MTEXTBEGIN
1070
    73
1070
     1
1070
    44
1040
1.0
1070
    74
1070
     0
1000
MTEXTEND
1000
MTEXTBEGIN
1070
    73
1070
     1
1070
    44
1040
1.0
1070
    74
1070
     0
1000
MTEXTEND
1000
MTEXTBEGIN
1070
    73
1070
     1
1070
    44
1040
1.0
1070
    74
1070
     0
1000
MTEXTEND
1000
MTEXTBEGIN
1070
    73
1070
     1
1070
    44
1040
1.0
1070
    74
1070
     0
1000
MTEXTEND
1000
MTEXTBEGIN
1070
    73
1070
     1
1070
    44
1040
1.0
1070
    74
1070
     0
1000
MTEXTEND
  0
POINT
  5
432D
330
3F68
100
AcDbEntity
  8
DEFPOINTS
 62
     0
100
AcDbPoint
 10
-37.381809
 20
198.0
 30
0.0
  0
POINT
  5
432E
330
3F68
100
AcDbEntity
  8
DEFPOINTS
 62
     0
100
AcDbPoint
 10
-7.296189
 20
204.4999999999999
 30
0.0
  0
POINT
  5
432F
330
3F68
100
AcDbEntity
  8
DEFPOINTS
 62
     0
100
AcDbPoint
 10
-48.915508
 20
204.4999999999999
 30
0.0
  0
ENDBLK
  5
3F74
330
3F68
100
AcDbEntity
  8
0
 62
     2
100
AcDbBlockEnd
  0
BLOCK
  5
40A8
330
409E
100
AcDbEntity
  8
0
100
AcDbBlockBegin
  2
*D17
 70
     1
 10
0.0
 20
0.0
 30
0.0
  3
*D17
  1

  0
LINE
  5
4330
330
409E
100
AcDbEntity
  8
30
  6
Continuous
 62
     0
100
AcDbLine
 10
-24.881809
 20
251.0999759999999
 30
0.0
 11
-24.881809
 21
294.359771
 31
0.0
1001
ACAD
1000
RTLwPs
1070
   158
  0
LINE
  5
4331
330
409E
100
AcDbEntity
  8
30
  6
Continuous
 62
     0
100
AcDbLine
 10
0.118191
 20
286.0999759999999
 30
0.0
 11
0.118191
 21
294.359771
 31
0.0
1001
ACAD
1000
RTLwPs
1070
   158
  0
LINE
  5
4332
330
409E
100
AcDbEntity
  8
30
  6
Continuous
 62
     0
100
AcDbLine
 10
-22.88180899999999
 20
293.859771
 30
0.0
 11
-1.881809
 21
293.859771
 31
0.0
1001
ACAD
1000
RTLwPs
1070
   158
  0
INSERT
  5
4333
330
409E
100
AcDbEntity
  8
30
  6
Continuous
 62
     0
100
AcDbBlockReference
  2
_OPEN
 10
-24.881809
 20
293.859771
 30
0.0
 41
2.0
 42
2.0
 43
2.0
 50
180.0
1001
ACAD
1000
RTLwPs
1070
   158
  0
INSERT
  5
4334
330
409E
100
AcDbEntity
  8
30
  6
Continuous
 62
     0
100
AcDbBlockReference
  2
_OPEN
 10
0.118191
 20
293.859771
 30
0.0
 41
2.0
 42
2.0
 43
2.0
1001
ACAD
1000
RTLwPs
1070
   158
  0
MTEXT
  5
4335
330
409E
100
AcDbEntity
  8
30
  6
Continuous
 62
     0
100
AcDbMText
 10
-12.381809
 20
296.859771
 30
0.0
 40
4.0
 41
0.0
 71
     5
 72
     1
  1
\A1;25
 73
     1
 44
1.0
1001
ACAD
1000
MTEXTBEGIN
1070
    73
1070
     1
1070
    44
1040
1.0
1070
    74
1070
     0
1000
MTEXTEND
1000
MTEXTBEGIN
1070
    73
1070
     1
1070
    44
1040
1.0
1070
    74
1070
     0
1000
MTEXTEND
1000
MTEXTBEGIN
1070
    73
1070
     1
1070
    44
1040
1.0
1070
    74
1070
     0
1000
MTEXTEND
1000
MTEXTBEGIN
1070
    73
1070
     1
1070
    44
1040
1.0
1070
    74
1070
     0
1000
MTEXTEND
1000
MTEXTBEGIN
1070
    73
1070
     1
1070
    44
1040
1.0
1070
    74
1070
     0
1000
MTEXTEND
1000
MTEXTBEGIN
1070
    73
1070
     1
1070
    44
1040
1.0
1070
    74
1070
     0
1000
MTEXTEND
  0
POINT
  5
4336
330
409E
100
AcDbEntity
  8
DEFPOINTS
  6
Continuous
 62
     0
100
AcDbPoint
 10
-24.881809
 20
250.0999759999999
 30
0.0
  0
POINT
  5
4337
330
409E
100
AcDbEntity
  8
DEFPOINTS
  6
Continuous
 62
     0
100
AcDbPoint
 10
0.118191
 20
285.0999759999999
 30
0.0
  0
POINT
  5
4338
330
409E
100
AcDbEntity
  8
DEFPOINTS
  6
Continuous
 62
     0
100
AcDbPoint
 10
0.118191
 20
293.859771
 30
0.0
  0
ENDBLK
  5
40A9
330
409E
100
AcDbEntity
  8
0
100
AcDbBlockEnd
  0
BLOCK
  5
40B5
330
40AB
100
AcDbEntity
  8
0
100
AcDbBlockBegin
  2
*D18
 70
     1
 10
0.0
 20
0.0
 30
0.0
  3
*D18
  1

  0
LINE
  5
4705
330
40AB
100
AcDbEntity
  8
30
  6
Continuous
 62
     0
100
AcDbLine
 10
0.118191
 20
286.0999759999999
 30
0.0
 11
0.118191
 21
294.359771
 31
0.0
  0
LINE
  5
4706
330
40AB
100
AcDbEntity
  8
30
  6
Continuous
 62
     0
100
AcDbLine
 10
25.118191
 20
251.0999759999999
 30
0.0
 11
25.118191
 21
294.359771
 31
0.0
  0
LINE
  5
4707
330
40AB
100
AcDbEntity
  8
30
  6
Continuous
 62
     0
100
AcDbLine
 10
2.118190999999999
 20
293.859771
 30
0.0
 11
23.118191
 21
293.859771
 31
0.0
  0
INSERT
  5
4708
330
40AB
100
AcDbEntity
  8
30
  6
Continuous
 62
     0
100
AcDbBlockReference
  2
_OPEN
 10
0.118191
 20
293.859771
 30
0.0
 41
2.0
 42
2.0
 43
2.0
 50
180.0
  0
INSERT
  5
4709
330
40AB
100
AcDbEntity
  8
30
  6
Continuous
 62
     0
100
AcDbBlockReference
  2
_OPEN
 10
25.118191
 20
293.859771
 30
0.0
 41
2.0
 42
2.0
 43
2.0
  0
MTEXT
  5
470A
330
40AB
100
AcDbEntity
  8
30
  6
Continuous
 62
     0
100
AcDbMText
 10
12.618191
 20
296.859771
 30
0.0
 40
4.0
 41
0.0
 71
     5
 72
     1
  1
\A1;25
 73
     1
 44
1.0
  0
POINT
  5
470B
330
40AB
100
AcDbEntity
  8
DEFPOINTS
  6
Continuous
 62
     0
100
AcDbPoint
 10
0.118191
 20
285.0999759999999
 30
0.0
  0
POINT
  5
470C
330
40AB
100
AcDbEntity
  8
DEFPOINTS
  6
Continuous
 62
     0
100
AcDbPoint
 10
25.118191
 20
250.0999759999999
 30
0.0
  0
POINT
  5
470D
330
40AB
100
AcDbEntity
  8
DEFPOINTS
  6
Continuous
 62
     0
100
AcDbPoint
 10
25.118191
 20
293.859771
 30
0.0
  0
ENDBLK
  5
40B6
330
40AB
100
AcDbEntity
  8
0
100
AcDbBlockEnd
  0
BLOCK
  5
4102
330
40F8
100
AcDbEntity
  8
0
100
AcDbBlockBegin
  2
*D19
 70
     1
 10
0.0
 20
0.0
 30
0.0
  3
*D19
  1

  0
LINE
  5
4342
330
40F8
100
AcDbEntity
  8
30
  6
Continuous
 62
     0
100
AcDbLine
 10
-12.5
 20
-198.75
 30
0.0
 11
-12.5
 21
-330.5
 31
0.0
1001
ACAD
1000
RTLwPs
1070
   158
  0
LINE
  5
4343
330
40F8
100
AcDbEntity
  8
30
  6
Continuous
 62
     0
100
AcDbLine
 10
12.5
 20
-309.75
 30
0.0
 11
12.5
 21
-330.5
 31
0.0
1001
ACAD
1000
RTLwPs
1070
   158
  0
LINE
  5
4344
330
40F8
100
AcDbEntity
  8
30
  6
Continuous
 62
     0
100
AcDbLine
 10
-10.5
 20
-330.0
 30
0.0
 11
10.5
 21
-330.0
 31
0.0
1001
ACAD
1000
RTLwPs
1070
   158
  0
INSERT
  5
4345
330
40F8
100
AcDbEntity
  8
30
  6
Continuous
 62
     0
100
AcDbBlockReference
  2
_OPEN
 10
-12.5
 20
-330.0
 30
0.0
 41
2.0
 42
2.0
 43
2.0
 50
180.0
1001
ACAD
1000
RTLwPs
1070
   158
  0
INSERT
  5
4346
330
40F8
100
AcDbEntity
  8
30
  6
Continuous
 62
     0
100
AcDbBlockReference
  2
_OPEN
 10
12.5
 20
-330.0
 30
0.0
 41
2.0
 42
2.0
 43
2.0
1001
ACAD
1000
RTLwPs
1070
   158
  0
MTEXT
  5
4347
330
40F8
100
AcDbEntity
  8
30
  6
Continuous
 62
     0
100
AcDbMText
 10
0.0
 20
-327.0
 30
0.0
 40
4.0
 41
0.0
 71
     5
 72
     1
  1
\A1;25
 73
     1
 44
1.0
1001
ACAD
1000
MTEXTBEGIN
1070
    73
1070
     1
1070
    44
1040
1.0
1070
    74
1070
     0
1000
MTEXTEND
1000
MTEXTBEGIN
1070
    73
1070
     1
1070
    44
1040
1.0
1070
    74
1070
     0
1000
MTEXTEND
1000
MTEXTBEGIN
1070
    73
1070
     1
1070
    44
1040
1.0
1070
    74
1070
     0
1000
MTEXTEND
1000
MTEXTBEGIN
1070
    73
1070
     1
1070
    44
1040
1.0
1070
    74
1070
     0
1000
MTEXTEND
1000
MTEXTBEGIN
1070
    73
1070
     1
1070
    44
1040
1.0
1070
    74
1070
     0
1000
MTEXTEND
1000
MTEXTBEGIN
1070
    73
1070
     1
1070
    44
1040
1.0
1070
    74
1070
     0
1000
MTEXTEND
  0
POINT
  5
4348
330
40F8
100
AcDbEntity
  8
DEFPOINTS
  6
Continuous
 62
     0
100
AcDbPoint
 10
-12.5
 20
-197.75
 30
0.0
  0
POINT
  5
4349
330
40F8
100
AcDbEntity
  8
DEFPOINTS
  6
Continuous
 62
     0
100
AcDbPoint
 10
12.5
 20
-308.7499999999999
 30
0.0
  0
POINT
  5
434A
330
40F8
100
AcDbEntity
  8
DEFPOINTS
  6
Continuous
 62
     0
100
AcDbPoint
 10
12.5
 20
-330.0
 30
0.0
  0
ENDBLK
  5
4103
330
40F8
100
AcDbEntity
  8
0
100
AcDbBlockEnd
  0
BLOCK
  5
4126
330
411C
100
AcDbEntity
  8
0
100
AcDbBlockBegin
  2
*D20
 70
     1
 10
0.0
 20
0.0
 30
0.0
  3
*D20
  1

  0
LINE
  5
4354
330
411C
100
AcDbEntity
  8
30
  6
Continuous
 62
     0
100
AcDbLine
 10
-10.5
 20
-194.5
 30
0.0
 11
-60.805724
 21
-194.5
 31
0.0
1001
ACAD
1000
RTLwPs
1070
   158
  0
LINE
  5
4355
330
411C
100
AcDbEntity
  8
30
  6
Continuous
 62
     0
100
AcDbLine
 10
11.5
 20
-305.5
 30
0.0
 11
-60.805724
 21
-305.5
 31
0.0
1001
ACAD
1000
RTLwPs
1070
   158
  0
LINE
  5
4356
330
411C
100
AcDbEntity
  8
30
  6
Continuous
 62
     0
100
AcDbLine
 10
-60.305724
 20
-196.5
 30
0.0
 11
-60.305724
 21
-303.5
 31
0.0
1001
ACAD
1000
RTLwPs
1070
   158
  0
INSERT
  5
4357
330
411C
100
AcDbEntity
  8
30
  6
Continuous
 62
     0
100
AcDbBlockReference
  2
_OPEN
 10
-60.305724
 20
-194.5
 30
0.0
 41
2.0
 42
2.0
 43
2.0
 50
90.0
1001
ACAD
1000
RTLwPs
1070
   158
  0
INSERT
  5
4358
330
411C
100
AcDbEntity
  8
30
  6
Continuous
 62
     0
100
AcDbBlockReference
  2
_OPEN
 10
-60.305724
 20
-305.5
 30
0.0
 41
2.0
 42
2.0
 43
2.0
 50
270.0
1001
ACAD
1000
RTLwPs
1070
   158
  0
MTEXT
  5
4359
330
411C
100
AcDbEntity
  8
30
  6
Continuous
 62
     0
100
AcDbMText
 10
-63.305724
 20
-250.0
 30
0.0
 40
4.0
 41
0.0
 71
     5
 72
     1
  1
\A1;111
 11
0.0
 21
1.0
 31
0.0
 73
     1
 44
1.0
1001
ACAD
1000
MTEXTBEGIN
1070
    73
1070
     1
1070
    44
1040
1.0
1070
    74
1070
     0
1000
MTEXTEND
1000
MTEXTBEGIN
1070
    73
1070
     1
1070
    44
1040
1.0
1070
    74
1070
     0
1000
MTEXTEND
1000
MTEXTBEGIN
1070
    73
1070
     1
1070
    44
1040
1.0
1070
    74
1070
     0
1000
MTEXTEND
1000
MTEXTBEGIN
1070
    73
1070
     1
1070
    44
1040
1.0
1070
    74
1070
     0
1000
MTEXTEND
1000
MTEXTBEGIN
1070
    73
1070
     1
1070
    44
1040
1.0
1070
    74
1070
     0
1000
MTEXTEND
1000
MTEXTBEGIN
1070
    73
1070
     1
1070
    44
1040
1.0
1070
    74
1070
     0
1000
MTEXTEND
  0
POINT
  5
435A
330
411C
100
AcDbEntity
  8
DEFPOINTS
  6
Continuous
 62
     0
100
AcDbPoint
 10
-9.5
 20
-194.5
 30
0.0
  0
POINT
  5
435B
330
411C
100
AcDbEntity
  8
DEFPOINTS
  6
Continuous
 62
     0
100
AcDbPoint
 10
12.5
 20
-305.5
 30
0.0
  0
POINT
  5
435C
330
411C
100
AcDbEntity
  8
DEFPOINTS
  6
Continuous
 62
     0
100
AcDbPoint
 10
-60.305724
 20
-305.5
 30
0.0
  0
ENDBLK
  5
4127
330
411C
100
AcDbEntity
  8
0
100
AcDbBlockEnd
  0
BLOCK
  5
4368
330
435E
100
AcDbEntity
  8
0
100
AcDbBlockBegin
  2
*D21
 70
     1
 10
0.0
 20
0.0
 30
0.0
  3
*D21
  1

  0
LINE
  5
435F
330
435E
100
AcDbEntity
  8
30
  6
Continuous
 62
     0
100
AcDbLine
 10
-38.5
 20
32.0
 30
0.0
 11
-47.998585
 21
32.0
 31
0.0
1001
ACAD
1000
RTLwPs
1070
   158
  0
LINE
  5
4360
330
435E
100
AcDbEntity
  8
30
  6
Continuous
 62
     0
100
AcDbLine
 10
-38.5
 20
-32.0
 30
0.0
 11
-47.998585
 21
-32.0
 31
0.0
1001
ACAD
1000
RTLwPs
1070
   158
  0
LINE
  5
4361
330
435E
100
AcDbEntity
  8
30
  6
Continuous
 62
     0
100
AcDbLine
 10
-47.498585
 20
30.0
 30
0.0
 11
-47.498585
 21
-30.0
 31
0.0
1001
ACAD
1000
RTLwPs
1070
   158
  0
INSERT
  5
4362
330
435E
100
AcDbEntity
  8
30
  6
Continuous
 62
     0
100
AcDbBlockReference
  2
_OPEN
 10
-47.498585
 20
32.0
 30
0.0
 41
2.0
 42
2.0
 43
2.0
 50
90.0
1001
ACAD
1000
RTLwPs
1070
   158
  0
INSERT
  5
4363
330
435E
100
AcDbEntity
  8
30
  6
Continuous
 62
     0
100
AcDbBlockReference
  2
_OPEN
 10
-47.498585
 20
-32.0
 30
0.0
 41
2.0
 42
2.0
 43
2.0
 50
270.0
1001
ACAD
1000
RTLwPs
1070
   158
  0
MTEXT
  5
4364
330
435E
100
AcDbEntity
  8
30
  6
Continuous
 62
     0
100
AcDbMText
 10
-50.498585
 20
0.0
 30
0.0
 40
4.0
 41
0.0
 71
     5
 72
     1
  1
\A1;64
 11
0.0
 21
1.0
 31
0.0
 73
     1
 44
1.0
1001
ACAD
1000
MTEXTBEGIN
1070
    73
1070
     1
1070
    44
1040
1.0
1070
    74
1070
     0
1000
MTEXTEND
1000
MTEXTBEGIN
1070
    73
1070
     1
1070
    44
1040
1.0
1070
    74
1070
     0
1000
MTEXTEND
1000
MTEXTBEGIN
1070
    73
1070
     1
1070
    44
1040
1.0
1070
    74
1070
     0
1000
MTEXTEND
1000
MTEXTBEGIN
1070
    73
1070
     1
1070
    44
1040
1.0
1070
    74
1070
     0
1000
MTEXTEND
1000
MTEXTBEGIN
1070
    73
1070
     1
1070
    44
1040
1.0
1070
    74
1070
     0
1000
MTEXTEND
1000
MTEXTBEGIN
1070
    73
1070
     1
1070
    44
1040
1.0
1070
    74
1070
     0
1000
MTEXTEND
  0
POINT
  5
4365
330
435E
100
AcDbEntity
  8
DEFPOINTS
  6
Continuous
 62
     0
100
AcDbPoint
 10
-37.5
 20
32.0
 30
0.0
  0
POINT
  5
4366
330
435E
100
AcDbEntity
  8
DEFPOINTS
  6
Continuous
 62
     0
100
AcDbPoint
 10
-37.5
 20
-32.0
 30
0.0
  0
POINT
  5
4367
330
435E
100
AcDbEntity
  8
DEFPOINTS
  6
Continuous
 62
     0
100
AcDbPoint
 10
-47.498585
 20
-32.0
 30
0.0
  0
ENDBLK
  5
4369
330
435E
100
AcDbEntity
  8
0
100
AcDbBlockEnd
  0
BLOCK
  5
43AD
330
43A3
100
AcDbEntity
  8
0
100
AcDbBlockBegin
  2
*D22
 70
     1
 10
0.0
 20
0.0
 30
0.0
  3
*D22
  1

  0
LINE
  5
43A4
330
43A3
100
AcDbEntity
  8
30
  6
Continuous
 62
     0
100
AcDbLine
 10
236.4936249999999
 20
-60.0
 30
0.0
 11
236.4936249999999
 21
-90.19589000000001
 31
0.0
1001
ACAD
1000
RTLwPs
1070
   158
  0
LINE
  5
43A5
330
43A3
100
AcDbEntity
  8
30
  6
Continuous
 62
     0
100
AcDbLine
 10
184.393649
 20
-80.690217
 30
0.0
 11
184.393649
 21
-90.19589000000001
 31
0.0
1001
ACAD
1000
RTLwPs
1070
   158
  0
LINE
  5
43A6
330
43A3
100
AcDbEntity
  8
30
  6
Continuous
 62
     0
100
AcDbLine
 10
234.4936249999999
 20
-89.69589
 30
0.0
 11
186.393649
 21
-89.69589
 31
0.0
1001
ACAD
1000
RTLwPs
1070
   158
  0
INSERT
  5
43A7
330
43A3
100
AcDbEntity
  8
30
  6
Continuous
 62
     0
100
AcDbBlockReference
  2
_OPEN
 10
236.4936249999999
 20
-89.69589
 30
0.0
 41
2.0
 42
2.0
 43
2.0
1001
ACAD
1000
RTLwPs
1070
   158
  0
INSERT
  5
43A8
330
43A3
100
AcDbEntity
  8
30
  6
Continuous
 62
     0
100
AcDbBlockReference
  2
_OPEN
 10
184.393649
 20
-89.69589
 30
0.0
 41
2.0
 42
2.0
 43
2.0
 50
180.0
1001
ACAD
1000
RTLwPs
1070
   158
  0
MTEXT
  5
43A9
330
43A3
100
AcDbEntity
  8
30
  6
Continuous
 62
     0
100
AcDbMText
 10
210.443637
 20
-86.69589
 30
0.0
 40
4.0
 41
0.0
 71
     5
 72
     1
  1
\A1;52.1
 73
     1
 44
1.0
1001
ACAD
1000
MTEXTBEGIN
1070
    73
1070
     1
1070
    44
1040
1.0
1070
    74
1070
     0
1000
MTEXTEND
1000
MTEXTBEGIN
1070
    73
1070
     1
1070
    44
1040
1.0
1070
    74
1070
     0
1000
MTEXTEND
1000
MTEXTBEGIN
1070
    73
1070
     1
1070
    44
1040
1.0
1070
    74
1070
     0
1000
MTEXTEND
1000
MTEXTBEGIN
1070
    73
1070
     1
1070
    44
1040
1.0
1070
    74
1070
     0
1000
MTEXTEND
1000
MTEXTBEGIN
1070
    73
1070
     1
1070
    44
1040
1.0
1070
    74
1070
     0
1000
MTEXTEND
1000
MTEXTBEGIN
1070
    73
1070
     1
1070
    44
1040
1.0
1070
    74
1070
     0
1000
MTEXTEND
  0
POINT
  5
43AA
330
43A3
100
AcDbEntity
  8
DEFPOINTS
  6
Continuous
 62
     0
100
AcDbPoint
 10
236.4936249999999
 20
-59.0
 30
0.0
  0
POINT
  5
43AB
330
43A3
100
AcDbEntity
  8
DEFPOINTS
  6
Continuous
 62
     0
100
AcDbPoint
 10
184.393649
 20
-79.690217
 30
0.0
  0
POINT
  5
43AC
330
43A3
100
AcDbEntity
  8
DEFPOINTS
  6
Continuous
 62
     0
100
AcDbPoint
 10
184.393649
 20
-89.69589
 30
0.0
  0
ENDBLK
  5
43AE
330
43A3
100
AcDbEntity
  8
0
100
AcDbBlockEnd
  0
BLOCK
  5
43D5
330
43CB
100
AcDbEntity
  8
0
100
AcDbBlockBegin
  2
*D23
 70
     1
 10
0.0
 20
0.0
 30
0.0
  3
*D23
  1

  0
LINE
  5
43F8
330
43CB
100
AcDbEntity
  8
30
  6
Continuous
 62
     0
100
AcDbLine
 10
47.26759099999999
 20
-195.0
 30
0.0
 11
60.836812
 21
-195.0
 31
0.0
1001
ACAD
1000
RTLwPs
1070
   158
  0
LINE
  5
43F9
330
43CB
100
AcDbEntity
  8
30
  6
Continuous
 62
     0
100
AcDbLine
 10
26.0
 20
-305.0
 30
0.0
 11
60.836812
 21
-305.0
 31
0.0
1001
ACAD
1000
RTLwPs
1070
   158
  0
LINE
  5
43FA
330
43CB
100
AcDbEntity
  8
30
  6
Continuous
 62
     0
100
AcDbLine
 10
60.336812
 20
-197.0
 30
0.0
 11
60.336812
 21
-303.0
 31
0.0
1001
ACAD
1000
RTLwPs
1070
   158
  0
INSERT
  5
43FB
330
43CB
100
AcDbEntity
  8
30
  6
Continuous
 62
     0
100
AcDbBlockReference
  2
_OPEN
 10
60.336812
 20
-195.0
 30
0.0
 41
2.0
 42
2.0
 43
2.0
 50
90.0
1001
ACAD
1000
RTLwPs
1070
   158
  0
INSERT
  5
43FC
330
43CB
100
AcDbEntity
  8
30
  6
Continuous
 62
     0
100
AcDbBlockReference
  2
_OPEN
 10
60.336812
 20
-305.0
 30
0.0
 41
2.0
 42
2.0
 43
2.0
 50
270.0
1001
ACAD
1000
RTLwPs
1070
   158
  0
MTEXT
  5
43FD
330
43CB
100
AcDbEntity
  8
30
  6
Continuous
 62
     0
100
AcDbMText
 10
57.336812
 20
-250.0
 30
0.0
 40
4.0
 41
0.0
 71
     5
 72
     1
  1
\A1;110
 11
0.0
 21
1.0
 31
0.0
 73
     1
 44
1.0
1001
ACAD
1000
MTEXTBEGIN
1070
    73
1070
     1
1070
    44
1040
1.0
1070
    74
1070
     0
1000
MTEXTEND
1000
MTEXTBEGIN
1070
    73
1070
     1
1070
    44
1040
1.0
1070
    74
1070
     0
1000
MTEXTEND
1000
MTEXTBEGIN
1070
    73
1070
     1
1070
    44
1040
1.0
1070
    74
1070
     0
1000
MTEXTEND
1000
MTEXTBEGIN
1070
    73
1070
     1
1070
    44
1040
1.0
1070
    74
1070
     0
1000
MTEXTEND
1000
MTEXTBEGIN
1070
    73
1070
     1
1070
    44
1040
1.0
1070
    74
1070
     0
1000
MTEXTEND
1000
MTEXTBEGIN
1070
    73
1070
     1
1070
    44
1040
1.0
1070
    74
1070
     0
1000
MTEXTEND
  0
POINT
  5
43FE
330
43CB
100
AcDbEntity
  8
DEFPOINTS
  6
Continuous
 62
     0
100
AcDbPoint
 10
46.267591
 20
-195.0
 30
0.0
  0
POINT
  5
43FF
330
43CB
100
AcDbEntity
  8
DEFPOINTS
  6
Continuous
 62
     0
100
AcDbPoint
 10
25.0
 20
-305.0
 30
0.0
  0
POINT
  5
4400
330
43CB
100
AcDbEntity
  8
DEFPOINTS
  6
Continuous
 62
     0
100
AcDbPoint
 10
60.336812
 20
-305.0
 30
0.0
  0
ENDBLK
  5
43D6
330
43CB
100
AcDbEntity
  8
0
100
AcDbBlockEnd
  0
ENDSEC
  0
SECTION
  2
ENTITIES
  0
LINE
  5
B4
330
1E
100
AcDbEntity
  8
16
100
AcDbLine
 10
0.0
 20
-68.697891
 30
0.0
 11
0.0
 21
71.25
 31
0.0
  0
LINE
  5
B5
330
1E
100
AcDbEntity
  8
16
100
AcDbLine
 10
48.424128
 20
0.0
 30
0.0
 11
-56.608689
 21
0.0
 31
0.0
  0
MTEXT
  5
BF3
330
1E
100
AcDbEntity
  8
24
  6
Continuous
100
AcDbMText
 10
142.118191
 20
177.5
 30
0.0
 40
3.0
 41
0.0
 71
     1
 72
     1
  1
\A1;
 73
     1
 44
1.0
1001
ACAD
1000
MTEXTBEGIN
1070
    73
1070
     1
1070
    44
1040
1.0
1070
    74
1070
     0
1000
MTEXTEND
1000
MTEXTBEGIN
1070
    73
1070
     1
1070
    44
1040
1.0
1070
    74
1070
     0
1000
MTEXTEND
1000
MTEXTBEGIN
1070
    73
1070
     1
1070
    44
1040
1.0
1070
    74
1070
     0
1000
MTEXTEND
1000
MTEXTBEGIN
1070
    73
1070
     1
1070
    44
1040
1.0
1070
    74
1070
     0
1000
MTEXTEND
1000
MTEXTBEGIN
1070
    73
1070
     1
1070
    44
1040
1.0
1070
    74
1070
     0
1000
MTEXTEND
1000
MTEXTBEGIN
1070
    73
1070
     1
1070
    44
1040
1.0
1070
    74
1070
     0
1000
MTEXTEND
1000
MTEXTBEGIN
1070
    73
1070
     1
1070
    44
1040
1.0
1070
    74
1070
     0
1000
MTEXTEND
1000
MTEXTBEGIN
1070
    73
1070
     1
1070
    44
1040
1.0
1070
    74
1070
     0
1000
MTEXTEND
1000
MTEXTBEGIN
1070
    73
1070
     1
1070
    44
1040
1.0
1070
    74
1070
     0
1000
MTEXTEND
1000
MTEXTBEGIN
1070
    73
1070
     1
1070
    44
1040
1.0
1070
    74
1070
     0
1000
MTEXTEND
1000
MTEXTBEGIN
1070
    73
1070
     1
1070
    44
1040
1.0
1070
    74
1070
     0
1000
MTEXTEND
1000
MTEXTBEGIN
1070
    73
1070
     1
1070
    44
1040
1.0
1070
    74
1070
     0
1000
MTEXTEND
1000
MTEXTBEGIN
1070
    73
1070
     1
1070
    44
1040
1.0
1070
    74
1070
     0
1000
MTEXTEND
1000
MTEXTBEGIN
1070
    73
1070
     1
1070
    44
1040
1.0
1070
    74
1070
     0
1000
MTEXTEND
1000
MTEXTBEGIN
1070
    73
1070
     1
1070
    44
1040
1.0
1070
    74
1070
     0
1000
MTEXTEND
1000
MTEXTBEGIN
1070
    73
1070
     1
1070
    44
1040
1.0
1070
    74
1070
     0
1000
MTEXTEND
1000
MTEXTBEGIN
1070
    73
1070
     1
1070
    44
1040
1.0
1070
    74
1070
     0
1000
MTEXTEND
1000
MTEXTBEGIN
1070
    73
1070
     1
1070
    44
1040
1.0
1070
    74
1070
     0
1000
MTEXTEND
1000
MTEXTBEGIN
1070
    73
1070
     1
1070
    44
1040
1.0
1070
    74
1070
     0
1000
MTEXTEND
1000
MTEXTBEGIN
1070
    73
1070
     1
1070
    44
1040
1.0
1070
    74
1070
     0
1000
MTEXTEND
1000
MTEXTBEGIN
1070
    73
1070
     1
1070
    44
1040
1.0
1070
    74
1070
     0
1000
MTEXTEND
1000
MTEXTBEGIN
1070
    73
1070
     1
1070
    44
1040
1.0
1070
    74
1070
     0
1000
MTEXTEND
  0
LEADER
  5
C52
330
1E
100
AcDbEntity
  8
30
  6
Continuous
100
AcDbLeader
  3
STANDARD
 76
     3
 10
263.5936
 20
-45.369603
 30
0.0
 10
275.448275
 20
-24.37037699999999
 30
0.0
 10
259.1034969999999
 20
-24.370378
 30
0.0
211
-1.0
221
0.0
231
0.0
210
0.0
220
0.0
230
-1.0
1001
ACAD
1000
DSTYLE
1002
{
1070
     5
1000
OPEN
1070
   342
1005
3B2
1002
}
  0
TEXT
  5
C53
330
1E
100
AcDbEntity
  8
30
  6
Continuous
100
AcDbText
 10
260.6527339999999
 20
-21.94928699999999
 30
0.0
 40
4.0
  1
M8
100
AcDbText
  0
LINE
  5
1C9A
330
1E
100
AcDbEntity
  8
16
100
AcDbLine
 10
0.118191
 20
82.65937199999999
 30
0.0
 11
0.118191
 21
225.159372
 31
0.0
  0
LINE
  5
1C9B
330
1E
100
AcDbEntity
  8
16
100
AcDbLine
 10
224.1890319999999
 20
0.0
 30
0.0
 11
116.39371
 21
0.0
 31
0.0
  0
LINE
  5
2233
330
1E
100
AcDbEntity
  8
16
100
AcDbLine
 10
160.0
 20
-318.697891
 30
0.0
 11
160.0
 21
-178.75
 31
0.0
  0
LINE
  5
2234
330
1E
100
AcDbEntity
  8
16
100
AcDbLine
 10
208.424128
 20
-250.0
 30
0.0
 11
103.391311
 21
-250.0
 31
0.0
  0
LINE
  5
2260
330
1E
100
AcDbEntity
  8
16
100
AcDbLine
 10
48.424128
 20
-250.0
 30
0.0
 11
-56.608689
 21
-250.0
 31
0.0
  0
LINE
  5
2261
330
1E
100
AcDbEntity
  8
16
100
AcDbLine
 10
0.0
 20
-318.697891
 30
0.0
 11
0.0
 21
-178.75
 31
0.0
  0
TEXT
  5
24CC
330
1E
100
AcDbEntity
  8
19
  6
Continuous
100
AcDbText
 10
130.635132
 20
202.687034
 30
0.0
 40
5.0
  1
XE100CB 3P RC
  7
STANDARD1
100
AcDbText
  0
DIMENSION
  5
2776
330
1E
100
AcDbEntity
  8
30
  6
Continuous
100
AcDbDimension
  2
*D1
 10
0.0
 20
-79.074989
 30
0.0
 11
-11.01462099999999
 21
-79.074989
 31
0.0
 70
   160
 71
     5
 42
-1.0
  3
STANDARD
100
AcDbAlignedDimension
 13
-25.0
 23
-54.5
 33
0.0
 14
0.0
 24
-64.0
 34
0.0
 50
180.0
100
AcDbRotatedDimension
  0
DIMENSION
  5
2777
330
1E
100
AcDbEntity
  8
30
  6
Continuous
100
AcDbDimension
  2
*D2
 10
37.5
 20
-89.274818
 30
0.0
 11
-1.816216
 21
-89.274818
 31
0.0
 70
   160
 71
     5
 42
-1.0
  3
STANDARD
100
AcDbAlignedDimension
 13
-37.5
 23
-61.7
 33
0.0
 14
37.5
 24
-61.7
 34
0.0
 50
180.0
100
AcDbRotatedDimension
  0
DIMENSION
  5
277A
330
1E
100
AcDbEntity
  8
30
  6
Continuous
100
AcDbDimension
  2
*D3
 10
-69.64702199999999
 20
-65.0
 30
0.0
 11
-69.64702199999999
 21
-1.525147999999999
 31
0.0
 70
   160
 71
     5
 42
-1.0
  3
STANDARD
100
AcDbAlignedDimension
 13
-37.5
 23
65.0
 33
0.0
 14
-37.5
 24
-65.0
 34
0.0
 50
90.0
100
AcDbRotatedDimension
  0
DIMENSION
  5
277B
330
1E
100
AcDbEntity
  8
30
  6
Continuous
100
AcDbDimension
  2
*D4
 10
-60.736431
 20
-55.0
 30
0.0
 11
-60.736431
 21
-1.277468999999999
 31
0.0
 70
   160
 71
     5
 42
-1.0
  3
STANDARD
100
AcDbAlignedDimension
 13
-37.5
 23
55.0
 33
0.0
 14
-37.5
 24
-55.0
 34
0.0
 50
90.0
100
AcDbRotatedDimension
  0
DIMENSION
  5
288F
330
1E
100
AcDbEntity
  8
30
  6
Continuous
100
AcDbDimension
  2
*D5
 10
25.0
 20
-79.074989
 30
0.0
 11
13.985379
 21
-79.074989
 31
0.0
 70
   160
 71
     5
 42
-1.0
  3
STANDARD
100
AcDbAlignedDimension
 13
0.0
 23
-64.0
 33
0.0
 14
25.0
 24
-54.5
 34
0.0
 50
180.0
100
AcDbRotatedDimension
  0
LWPOLYLINE
  5
2D1C
330
1E
100
AcDbEntity
  8
18
  6
DIVIDE
 48
2.0
100
AcDbPolyline
 90
        2
 70
     0
 43
0.001
 10
197.5
 20
-315.0
 10
197.5
 20
-185.0
  0
LWPOLYLINE
  5
2D1E
330
1E
100
AcDbEntity
  8
18
  6
DIVIDE
 48
2.0
100
AcDbPolyline
 90
        2
 70
     0
 43
0.001
 10
122.499878
 20
-315.0
 10
122.499878
 20
-185.0
  0
DIMENSION
  5
2D20
330
1E
100
AcDbEntity
  8
30
  6
Continuous
100
AcDbDimension
  2
*D6
 10
172.0
 20
-331.0
 30
0.0
 11
158.231579
 21
-331.0
 31
0.0
 70
   160
 71
     5
 42
-1.0
  3
STANDARD
100
AcDbAlignedDimension
 13
148.0
 23
-280.853581
 33
0.0
 14
172.0
 24
-281.383373
 34
0.0
 50
180.0
100
AcDbRotatedDimension
  0
DIMENSION
  5
2D21
330
1E
100
AcDbEntity
  8
30
  6
Continuous
100
AcDbDimension
  2
*D7
 10
149.0
 20
-275.0
 30
0.0
 11
132.728262
 21
-291.2703339999999
 31
0.0
 70
   164
  1
R 1
 71
     5
 42
-1.0
  3
STANDARD
100
AcDbRadialDimension
 15
148.292847
 25
-275.7070919999999
 35
0.0
 40
0.0
  0
LWPOLYLINE
  5
2D22
330
1E
100
AcDbEntity
  8
18
  6
DIVIDE
 48
2.0
100
AcDbPolyline
 90
        2
 70
     0
 43
0.001
 10
122.499878
 20
-315.0
 10
197.5
 20
-315.0
  0
DIMENSION
  5
2D25
330
1E
100
AcDbEntity
  8
30
  6
Continuous
100
AcDbDimension
  2
*D8
 10
100.073743
 20
-276.0
 30
0.0
 11
100.073743
 21
-253.641898
 31
0.0
 70
   160
 71
     5
 42
-1.0
  3
STANDARD
100
AcDbAlignedDimension
 13
142.153601
 23
-224.0
 33
0.0
 14
139.7740949999999
 24
-276.0
 34
0.0
 50
90.0
100
AcDbRotatedDimension
  0
LWPOLYLINE
  5
2D26
330
1E
100
AcDbEntity
  8
11
  6
CONTINOUS
100
AcDbPolyline
 90
        2
 70
     0
 43
0.001
 10
172.0
 20
-225.0
 10
172.0
 20
-275.0
  0
LWPOLYLINE
  5
2D27
330
1E
100
AcDbEntity
  8
11
  6
CONTINOUS
100
AcDbPolyline
 90
        2
 70
     0
 43
0.001
 10
148.0
 20
-225.0
 10
148.0
 20
-275.0
  0
LWPOLYLINE
  5
2D28
330
1E
100
AcDbEntity
  8
11
  6
CONTINOUS
100
AcDbPolyline
 90
        2
 70
     0
 43
0.001
 10
171.0
 20
-276.0
 10
149.0
 20
-276.0
  0
LWPOLYLINE
  5
2D29
330
1E
100
AcDbEntity
  8
11
  6
CONTINOUS
100
AcDbPolyline
 90
        2
 70
     0
 43
0.001
 10
148.0
 20
-275.0
 42
0.4142140000000001
 10
149.0
 20
-276.0
 42
0.4142140000000001
  0
LWPOLYLINE
  5
2D2A
330
1E
100
AcDbEntity
  8
11
  6
CONTINOUS
100
AcDbPolyline
 90
        2
 70
     0
 43
0.001
 10
171.0
 20
-276.0
 42
0.4142140000000001
 10
172.0
 20
-275.0
 42
0.4142140000000001
  0
LWPOLYLINE
  5
2D2B
330
1E
100
AcDbEntity
  8
11
  6
CONTINOUS
100
AcDbPolyline
 90
        2
 70
     0
 43
0.001
 10
171.0
 20
-224.0
 10
149.0
 20
-224.0
  0
LWPOLYLINE
  5
2D2C
330
1E
100
AcDbEntity
  8
11
  6
CONTINOUS
100
AcDbPolyline
 90
        2
 70
     0
 43
0.001
 10
149.0
 20
-224.0
 42
0.4142140000000001
 10
148.0
 20
-225.0
 42
0.4142140000000001
  0
LWPOLYLINE
  5
2D2D
330
1E
100
AcDbEntity
  8
11
  6
CONTINOUS
100
AcDbPolyline
 90
        2
 70
     0
 43
0.001
 10
172.0
 20
-225.0
 42
0.414213
 10
171.0
 20
-224.0
 42
0.414213
  0
LWPOLYLINE
  5
2D2F
330
1E
100
AcDbEntity
  8
18
  6
DIVIDE
 48
2.0
100
AcDbPolyline
 90
        2
 70
     0
 43
0.001
 10
122.499878
 20
-185.0
 10
197.5
 20
-185.0
  0
LINE
  5
3136
330
1E
100
AcDbEntity
  8
10
  6
CONTINOUS
100
AcDbLine
 10
-37.5
 20
65.0
 30
0.0
 11
37.5
 21
65.0
 31
0.0
  0
LINE
  5
3139
330
1E
100
AcDbEntity
  8
10
  6
CONTINOUS
100
AcDbLine
 10
-37.5
 20
-65.0
 30
0.0
 11
37.5
 21
-65.0
 31
0.0
  0
LINE
  5
313A
330
1E
100
AcDbEntity
  8
10
  6
CONTINOUS
100
AcDbLine
 10
-37.5
 20
32.0
 30
0.0
 11
37.5
 21
32.0
 31
0.0
  0
LINE
  5
313B
330
1E
100
AcDbEntity
  8
10
  6
CONTINOUS
100
AcDbLine
 10
-37.5
 20
-32.0
 30
0.0
 11
37.5
 21
-32.0
 31
0.0
  0
LINE
  5
313D
330
1E
100
AcDbEntity
  8
10
  6
CONTINOUS
100
AcDbLine
 10
-37.5
 20
-65.0
 30
0.0
 11
-37.5
 21
65.0
 31
0.0
  0
CIRCLE
  5
313E
330
1E
100
AcDbEntity
  8
24
  6
CONTINOUS
100
AcDbCircle
 10
-25.0
 20
-55.0
 30
0.0
 40
5.4
  0
CIRCLE
  5
313F
330
1E
100
AcDbEntity
  8
24
  6
CONTINOUS
100
AcDbCircle
 10
25.0
 20
55.0
 30
0.0
 40
5.4
210
0.0
220
0.0
230
-1.0
  0
LINE
  5
3140
330
1E
100
AcDbEntity
  8
17
  6
CONTINOUS
100
AcDbLine
 10
-25.0
 20
45.0
 30
0.0
 11
-25.0
 21
70.0
 31
0.0
  0
LINE
  5
3143
330
1E
100
AcDbEntity
  8
10
  6
CONTINOUS
100
AcDbLine
 10
37.5
 20
-65.0
 30
0.0
 11
37.5
 21
65.0
 31
0.0
  0
LINE
  5
3144
330
1E
100
AcDbEntity
  8
10
  6
CONTINOUS
100
AcDbLine
 10
-11.0
 20
25.0
 30
0.0
 11
-11.0
 21
-25.0
 31
0.0
  0
LINE
  5
3145
330
1E
100
AcDbEntity
  8
10
  6
CONTINOUS
100
AcDbLine
 10
11.0
 20
25.0
 30
0.0
 11
11.0
 21
-25.0
 31
0.0
  0
LINE
  5
3146
330
1E
100
AcDbEntity
  8
10
  6
CONTINOUS
100
AcDbLine
 10
6.25
 20
-15.5
 30
0.0
 11
6.25
 21
-23.0
 31
0.0
  0
LINE
  5
3147
330
1E
100
AcDbEntity
  8
10
  6
CONTINOUS
100
AcDbLine
 10
-6.25
 20
-15.5
 30
0.0
 11
-6.25
 21
-23.0
 31
0.0
  0
CIRCLE
  5
3148
330
1E
100
AcDbEntity
  8
24
  6
CONTINOUS
100
AcDbCircle
 10
25.0
 20
-55.0
 30
0.0
 40
5.4
  0
CIRCLE
  5
314A
330
1E
100
AcDbEntity
  8
24
  6
CONTINOUS
100
AcDbCircle
 10
0.0
 20
-55.0
 30
0.0
 40
5.4
  0
LINE
  5
314C
330
1E
100
AcDbEntity
  8
10
  6
CONTINOUS
100
AcDbLine
 10
11.0
 20
-25.0
 30
0.0
 11
-11.0
 21
-25.0
 31
0.0
  0
LINE
  5
314D
330
1E
100
AcDbEntity
  8
10
  6
CONTINOUS
100
AcDbLine
 10
6.25
 20
-23.0
 30
0.0
 11
-6.25
 21
-23.0
 31
0.0
  0
LINE
  5
3150
330
1E
100
AcDbEntity
  8
10
  6
CONTINOUS
100
AcDbLine
 10
11.0
 20
25.0
 30
0.0
 11
-11.0
 21
25.0
 31
0.0
  0
LINE
  5
3151
330
1E
100
AcDbEntity
  8
10
  6
CONTINOUS
100
AcDbLine
 10
-6.25
 20
24.0
 30
0.0
 11
-6.25
 21
-11.399903
 31
0.0
  0
LINE
  5
3152
330
1E
100
AcDbEntity
  8
10
  6
CONTINOUS
100
AcDbLine
 10
6.25
 20
24.0
 30
0.0
 11
-6.25
 21
24.0
 31
0.0
  0
LINE
  5
3153
330
1E
100
AcDbEntity
  8
10
  6
CONTINOUS
100
AcDbLine
 10
6.25
 20
24.0
 30
0.0
 11
6.25
 21
-11.399903
 31
0.0
  0
LINE
  5
3154
330
1E
100
AcDbEntity
  8
10
  6
CONTINOUS
100
AcDbLine
 10
6.25
 20
-11.399903
 30
0.0
 11
-6.25
 21
-11.399903
 31
0.0
  0
LINE
  5
3155
330
1E
100
AcDbEntity
  8
10
  6
CONTINOUS
100
AcDbLine
 10
6.25
 20
19.5
 30
0.0
 11
-6.25
 21
19.5
 31
0.0
  0
LINE
  5
3156
330
1E
100
AcDbEntity
  8
10
  6
CONTINOUS
100
AcDbLine
 10
6.25
 20
-15.5
 30
0.0
 11
-6.25
 21
-15.5
 31
0.0
  0
CIRCLE
  5
3157
330
1E
100
AcDbEntity
  8
24
  6
CONTINOUS
100
AcDbCircle
 10
-25.0
 20
55.0
 30
0.0
 40
5.4
210
0.0
220
0.0
230
-1.0
  0
CIRCLE
  5
315A
330
1E
100
AcDbEntity
  8
24
  6
CONTINOUS
100
AcDbCircle
 10
0.0
 20
55.0
 30
0.0
 40
5.4
210
0.0
220
0.0
230
-1.0
  0
LINE
  5
3249
330
1E
100
AcDbEntity
  8
17
  6
CONTINOUS
100
AcDbLine
 10
0.0
 20
45.0
 30
0.0
 11
0.0
 21
70.0
 31
0.0
  0
LINE
  5
354A
330
1E
100
AcDbEntity
  8
17
  6
Continuous
 62
     2
100
AcDbLine
 10
-33.98875
 20
55.0
 30
0.0
 11
32.470983
 21
55.0
 31
0.0
  0
LINE
  5
354B
330
1E
100
AcDbEntity
  8
17
  6
Continuous
 62
     2
100
AcDbLine
 10
-33.98875
 20
-55.0
 30
0.0
 11
32.470983
 21
-55.0
 31
0.0
  0
LINE
  5
354C
330
1E
100
AcDbEntity
  8
17
  6
CONTINOUS
100
AcDbLine
 10
25.0
 20
45.0
 30
0.0
 11
25.0
 21
70.0
 31
0.0
  0
LINE
  5
354D
330
1E
100
AcDbEntity
  8
17
  6
CONTINOUS
100
AcDbLine
 10
25.0
 20
-65.0
 30
0.0
 11
25.0
 21
-40.0
 31
0.0
  0
LINE
  5
354E
330
1E
100
AcDbEntity
  8
17
  6
CONTINOUS
100
AcDbLine
 10
-25.0
 20
-65.5
 30
0.0
 11
-25.0
 21
-40.49999999999999
 31
0.0
  0
LINE
  5
354F
330
1E
100
AcDbEntity
  8
17
  6
CONTINOUS
100
AcDbLine
 10
0.0
 20
-65.0
 30
0.0
 11
0.0
 21
-40.0
 31
0.0
  0
TEXT
  5
3821
330
1E
100
AcDbEntity
  8
19
  6
Continuous
100
AcDbText
 10
130.635132
 20
193.979386
 30
0.0
 40
5.0
  1
(60-100A)
  7
STANDARD1
100
AcDbText
  0
LINE
  5
3A6B
330
1E
100
AcDbEntity
  8
21
100
AcDbLine
 10
184.393649
 20
-47.5
 30
0.0
 11
210.493625
 21
-47.5
 31
0.0
  0
LINE
  5
3A6C
330
1E
100
AcDbEntity
  8
21
100
AcDbLine
 10
184.393649
 20
-62.5
 30
0.0
 11
210.493625
 21
-62.5
 31
0.0
  0
LINE
  5
3A6D
330
1E
100
AcDbEntity
  8
21
100
AcDbLine
 10
184.393649
 20
47.5
 30
0.0
 11
210.493625
 21
47.5
 31
0.0
  0
LINE
  5
3A6E
330
1E
100
AcDbEntity
  8
21
100
AcDbLine
 10
184.393649
 20
62.5
 30
0.0
 11
210.493625
 21
62.5
 31
0.0
  0
LINE
  5
3A73
330
1E
100
AcDbEntity
  8
18
100
AcDbLine
 10
186.693698
 20
115.0
 30
0.0
 11
186.693698
 21
-125.278735
 31
0.0
  0
LINE
  5
3A74
330
1E
100
AcDbEntity
  8
10
  6
CONTINOUS
100
AcDbLine
 10
123.39371
 20
-51.0
 30
0.0
 11
123.39371
 21
-65.0
 31
0.0
  0
LINE
  5
3A75
330
1E
100
AcDbEntity
  8
10
  6
CONTINOUS
100
AcDbLine
 10
184.393649
 20
-65.0
 30
0.0
 11
123.39371
 21
-65.0
 31
0.0
  0
LINE
  5
3A76
330
1E
100
AcDbEntity
  8
18
100
AcDbLine
 10
184.393649
 20
-65.0
 30
0.0
 11
184.393649
 21
-125.278735
 31
0.0
  0
LINE
  5
3A77
330
1E
100
AcDbEntity
  8
18
100
AcDbLine
 10
186.693698
 20
-125.278735
 30
0.0
 11
184.393649
 21
-125.278735
 31
0.0
  0
LINE
  5
3A78
330
1E
100
AcDbEntity
  8
21
100
AcDbLine
 10
184.393649
 20
-65.0
 30
0.0
 11
184.393649
 21
-62.5
 31
0.0
  0
LINE
  5
3A7B
330
1E
100
AcDbEntity
  8
10
  6
CONTINOUS
100
AcDbLine
 10
123.39371
 20
65.0
 30
0.0
 11
123.39371
 21
51.0
 31
0.0
  0
LINE
  5
3A7C
330
1E
100
AcDbEntity
  8
10
  6
CONTINOUS
100
AcDbLine
 10
116.39371
 20
25.0
 30
0.0
 11
116.39371
 21
-25.0
 31
0.0
  0
LINE
  5
3A7D
330
1E
100
AcDbEntity
  8
10
  6
CONTINOUS
100
AcDbLine
 10
111.39371
 20
25.0
 30
0.0
 11
111.39371
 21
-25.0
 31
0.0
  0
LINE
  5
3A7E
330
1E
100
AcDbEntity
  8
10
  6
CONTINOUS
100
AcDbLine
 10
116.39371
 20
-25.0
 30
0.0
 11
116.39371
 21
-32.0
 31
0.0
  0
LINE
  5
3A7F
330
1E
100
AcDbEntity
  8
10
  6
CONTINOUS
100
AcDbLine
 10
116.39371
 20
-25.0
 30
0.0
 11
111.39371
 21
-25.0
 31
0.0
  0
LINE
  5
3A80
330
1E
100
AcDbEntity
  8
10
  6
CONTINOUS
100
AcDbLine
 10
118.39371
 20
-32.0
 30
0.0
 11
118.39371
 21
-51.0
 31
0.0
  0
LINE
  5
3A81
330
1E
100
AcDbEntity
  8
10
  6
CONTINOUS
100
AcDbLine
 10
118.39371
 20
-32.0
 30
0.0
 11
116.39371
 21
-32.0
 31
0.0
  0
LINE
  5
3A82
330
1E
100
AcDbEntity
  8
10
  6
CONTINOUS
100
AcDbLine
 10
123.39371
 20
-51.0
 30
0.0
 11
118.39371
 21
-51.0
 31
0.0
  0
LINE
  5
3A84
330
1E
100
AcDbEntity
  8
10
  6
CONTINOUS
100
AcDbLine
 10
100.666659
 20
18.805664
 30
0.0
 11
111.39371
 21
15.863037
 31
0.0
  0
LINE
  5
3A85
330
1E
100
AcDbEntity
  8
10
  6
CONTINOUS
100
AcDbLine
 10
98.85721099999999
 20
12.88745099999999
 30
0.0
 11
111.39371
 21
8.654052
 31
0.0
  0
LINE
  5
3A86
330
1E
100
AcDbEntity
  8
10
  6
CONTINOUS
100
AcDbLine
 10
100.666659
 20
18.805664
 30
0.0
 11
98.85721099999999
 21
12.88745099999999
 31
0.0
  0
LINE
  5
3A87
330
1E
100
AcDbEntity
  8
10
  6
CONTINOUS
100
AcDbLine
 10
116.39371
 20
25.0
 30
0.0
 11
111.39371
 21
25.0
 31
0.0
  0
LINE
  5
3A88
330
1E
100
AcDbEntity
  8
10
  6
CONTINOUS
100
AcDbLine
 10
118.39371
 20
32.0
 30
0.0
 11
116.39371
 21
32.0
 31
0.0
  0
LINE
  5
3A89
330
1E
100
AcDbEntity
  8
10
  6
CONTINOUS
100
AcDbLine
 10
123.39371
 20
51.0
 30
0.0
 11
118.39371
 21
51.0
 31
0.0
  0
LINE
  5
3A8A
330
1E
100
AcDbEntity
  8
10
  6
CONTINOUS
100
AcDbLine
 10
116.39371
 20
32.0
 30
0.0
 11
116.39371
 21
25.0
 31
0.0
  0
LINE
  5
3A8B
330
1E
100
AcDbEntity
  8
10
  6
CONTINOUS
100
AcDbLine
 10
118.39371
 20
51.0
 30
0.0
 11
118.39371
 21
32.0
 31
0.0
  0
LINE
  5
3A8C
330
1E
100
AcDbEntity
  8
10
  6
CONTINOUS
100
AcDbLine
 10
184.393649
 20
65.0
 30
0.0
 11
184.393649
 21
-65.0
 31
0.0
  0
LINE
  5
3A8D
330
1E
100
AcDbEntity
  8
10
  6
CONTINOUS
100
AcDbLine
 10
184.393649
 20
65.0
 30
0.0
 11
123.39371
 21
65.0
 31
0.0
  0
LINE
  5
3A8E
330
1E
100
AcDbEntity
  8
18
100
AcDbLine
 10
184.393649
 20
115.0
 30
0.0
 11
184.393649
 21
65.0
 31
0.0
  0
LINE
  5
3A8F
330
1E
100
AcDbEntity
  8
21
100
AcDbLine
 10
184.393649
 20
65.0
 30
0.0
 11
184.393649
 21
62.5
 31
0.0
  0
LINE
  5
3A91
330
1E
100
AcDbEntity
  8
18
100
AcDbLine
 10
253.493625
 20
-40.030518
 30
0.0
 11
253.493625
 21
-70.312989
 31
0.0
  0
LINE
  5
3A92
330
1E
100
AcDbEntity
  8
21
100
AcDbLine
 10
263.5936
 20
-62.50549399999999
 30
0.0
 11
263.5936
 21
-47.49450699999999
 31
0.0
  0
LINE
  5
3A93
330
1E
100
AcDbEntity
  8
18
100
AcDbLine
 10
251.493625
 20
-40.030518
 30
0.0
 11
251.493625
 21
-70.312989
 31
0.0
  0
LINE
  5
3A94
330
1E
100
AcDbEntity
  8
21
100
AcDbLine
 10
255.0936
 20
-64.0
 30
0.0
 11
255.0936
 21
-46.0
 31
0.0
  0
LINE
  5
3A95
330
1E
100
AcDbEntity
  8
21
100
AcDbLine
 10
246.493625
 20
-62.5
 30
0.0
 11
246.493625
 21
-47.5
 31
0.0
  0
LINE
  5
3A96
330
1E
100
AcDbEntity
  8
21
100
AcDbLine
 10
245.493625
 20
-62.5
 30
0.0
 11
245.493625
 21
-47.5
 31
0.0
  0
LINE
  5
3A98
330
1E
100
AcDbEntity
  8
18
100
AcDbLine
 10
218.493625
 20
-40.030518
 30
0.0
 11
218.493625
 21
-70.312989
 31
0.0
  0
LINE
  5
3A99
330
1E
100
AcDbEntity
  8
18
100
AcDbLine
 10
216.493625
 20
-40.030518
 30
0.0
 11
216.493625
 21
-70.312989
 31
0.0
  0
LINE
  5
3A9A
330
1E
100
AcDbEntity
  8
21
100
AcDbLine
 10
228.5935999999999
 20
-62.50549399999999
 30
0.0
 11
228.5935999999999
 21
-47.49450699999999
 31
0.0
  0
LINE
  5
3A9B
330
1E
100
AcDbEntity
  8
21
100
AcDbLine
 10
211.4936249999999
 20
-62.5
 30
0.0
 11
211.4936249999999
 21
-47.5
 31
0.0
  0
LINE
  5
3A9C
330
1E
100
AcDbEntity
  8
21
100
AcDbLine
 10
220.0936
 20
-64.0
 30
0.0
 11
220.0936
 21
-46.0
 31
0.0
  0
LINE
  5
3A9D
330
1E
100
AcDbEntity
  8
21
100
AcDbLine
 10
236.4936249999999
 20
-59.0
 30
0.0
 11
236.4936249999999
 21
-51.0
 31
0.0
  0
LINE
  5
3A9E
330
1E
100
AcDbEntity
  8
21
100
AcDbLine
 10
210.493625
 20
-62.5
 30
0.0
 11
210.493625
 21
-47.5
 31
0.0
  0
LINE
  5
3AA0
330
1E
100
AcDbEntity
  8
21
100
AcDbLine
 10
251.493625
 20
-59.0
 30
0.0
 11
246.493625
 21
-59.0
 31
0.0
  0
LINE
  5
3AA1
330
1E
100
AcDbEntity
  8
21
100
AcDbLine
 10
251.493625
 20
-62.5
 30
0.0
 11
246.493625
 21
-62.5
 31
0.0
  0
LINE
  5
3AA2
330
1E
100
AcDbEntity
  8
21
100
AcDbLine
 10
245.493625
 20
-62.5
 30
0.0
 11
233.6045869999999
 21
-62.5
 31
0.0
  0
LINE
  5
3AA3
330
1E
100
AcDbEntity
  8
21
100
AcDbLine
 10
245.493625
 20
-60.0
 30
0.0
 11
246.493625
 21
-60.0
 31
0.0
  0
LINE
  5
3AA4
330
1E
100
AcDbEntity
  8
21
100
AcDbLine
 10
220.0936
 20
-58.75280799999999
 30
0.0
 11
228.5935999999999
 21
-58.75280799999999
 31
0.0
  0
LINE
  5
3AA5
330
1E
100
AcDbEntity
  8
21
100
AcDbLine
 10
220.0936
 20
-62.50549399999999
 30
0.0
 11
228.5935999999999
 21
-62.50549399999999
 31
0.0
  0
LINE
  5
3AA6
330
1E
100
AcDbEntity
  8
21
100
AcDbLine
 10
216.493625
 20
-59.0
 30
0.0
 11
211.4936249999999
 21
-59.0
 31
0.0
  0
LINE
  5
3AA7
330
1E
100
AcDbEntity
  8
21
100
AcDbLine
 10
236.4936249999999
 20
-59.0
 30
0.0
 11
228.5935999999999
 21
-59.0
 31
0.0
  0
LINE
  5
3AA8
330
1E
100
AcDbEntity
  8
21
100
AcDbLine
 10
216.493625
 20
-62.5
 30
0.0
 11
211.4936249999999
 21
-62.5
 31
0.0
  0
LINE
  5
3AA9
330
1E
100
AcDbEntity
  8
21
100
AcDbLine
 10
218.493625
 20
-64.0
 30
0.0
 11
220.0936
 21
-64.0
 31
0.0
  0
LINE
  5
3AAA
330
1E
100
AcDbEntity
  8
21
100
AcDbLine
 10
210.493625
 20
-60.0
 30
0.0
 11
211.4936249999999
 21
-60.0
 31
0.0
  0
LINE
  5
3AAB
330
1E
100
AcDbEntity
  8
21
100
AcDbLine
 10
255.0936
 20
-58.75280799999999
 30
0.0
 11
263.5936
 21
-58.75280799999999
 31
0.0
  0
LINE
  5
3AAC
330
1E
100
AcDbEntity
  8
21
100
AcDbLine
 10
255.0936
 20
-62.50549399999999
 30
0.0
 11
263.5936
 21
-62.50549399999999
 31
0.0
  0
LINE
  5
3AAD
330
1E
100
AcDbEntity
  8
21
100
AcDbLine
 10
253.493625
 20
-64.0
 30
0.0
 11
255.0936
 21
-64.0
 31
0.0
  0
LINE
  5
3AAE
330
1E
100
AcDbEntity
  8
21
100
AcDbLine
 10
271.493625
 20
-59.0
 30
0.0
 11
263.5936
 21
-59.0
 31
0.0
  0
LINE
  5
3AB0
330
1E
100
AcDbEntity
  8
21
100
AcDbLine
 10
245.493625
 20
62.5
 30
0.0
 11
245.493625
 21
47.5
 31
0.0
  0
LINE
  5
3AB1
330
1E
100
AcDbEntity
  8
21
100
AcDbLine
 10
246.493625
 20
62.5
 30
0.0
 11
246.493625
 21
47.5
 31
0.0
  0
LINE
  5
3AB2
330
1E
100
AcDbEntity
  8
21
100
AcDbLine
 10
255.0936
 20
64.0
 30
0.0
 11
255.0936
 21
46.0
 31
0.0
  0
LINE
  5
3AB3
330
1E
100
AcDbEntity
  8
18
100
AcDbLine
 10
251.493625
 20
40.03051699999999
 30
0.0
 11
251.493625
 21
70.312988
 31
0.0
  0
LINE
  5
3AB4
330
1E
100
AcDbEntity
  8
21
100
AcDbLine
 10
263.5936
 20
62.50549300000001
 30
0.0
 11
263.5936
 21
47.494506
 31
0.0
  0
LINE
  5
3AB5
330
1E
100
AcDbEntity
  8
18
100
AcDbLine
 10
253.493625
 20
40.03051699999999
 30
0.0
 11
253.493625
 21
70.312988
 31
0.0
  0
LINE
  5
3AB6
330
1E
100
AcDbEntity
  8
18
100
AcDbLine
 10
216.493625
 20
40.03051699999999
 30
0.0
 11
216.493625
 21
70.312988
 31
0.0
  0
LINE
  5
3AB7
330
1E
100
AcDbEntity
  8
18
100
AcDbLine
 10
218.493625
 20
40.03051699999999
 30
0.0
 11
218.493625
 21
70.312988
 31
0.0
  0
LINE
  5
3AB8
330
1E
100
AcDbEntity
  8
21
100
AcDbLine
 10
211.4936249999999
 20
62.5
 30
0.0
 11
211.4936249999999
 21
47.5
 31
0.0
  0
LINE
  5
3AB9
330
1E
100
AcDbEntity
  8
21
100
AcDbLine
 10
228.5935999999999
 20
62.50549300000001
 30
0.0
 11
228.5935999999999
 21
47.494506
 31
0.0
  0
LINE
  5
3ABA
330
1E
100
AcDbEntity
  8
21
100
AcDbLine
 10
220.0936
 20
64.0
 30
0.0
 11
220.0936
 21
46.0
 31
0.0
  0
LINE
  5
3ABB
330
1E
100
AcDbEntity
  8
21
100
AcDbLine
 10
236.4936249999999
 20
59.0
 30
0.0
 11
236.4936249999999
 21
51.0
 31
0.0
  0
LINE
  5
3ABC
330
1E
100
AcDbEntity
  8
21
100
AcDbLine
 10
210.493625
 20
62.5
 30
0.0
 11
210.493625
 21
47.5
 31
0.0
  0
LINE
  5
3ABD
330
1E
100
AcDbEntity
  8
21
100
AcDbLine
 10
251.493625
 20
-51.0
 30
0.0
 11
246.493625
 21
-51.0
 31
0.0
  0
LINE
  5
3ABE
330
1E
100
AcDbEntity
  8
21
100
AcDbLine
 10
251.493625
 20
-47.5
 30
0.0
 11
246.493625
 21
-47.5
 31
0.0
  0
LINE
  5
3ABF
330
1E
100
AcDbEntity
  8
18
100
AcDbLine
 10
216.493625
 20
-40.030518
 30
0.0
 11
218.493625
 21
-40.030518
 31
0.0
  0
LINE
  5
3AC0
330
1E
100
AcDbEntity
  8
21
100
AcDbLine
 10
233.6045869999999
 20
-47.5
 30
0.0
 11
245.493625
 21
-47.5
 31
0.0
  0
LINE
  5
3AC1
330
1E
100
AcDbEntity
  8
21
100
AcDbLine
 10
245.493625
 20
-50.0
 30
0.0
 11
246.493625
 21
-50.0
 31
0.0
  0
LINE
  5
3AC2
330
1E
100
AcDbEntity
  8
21
100
AcDbLine
 10
216.493625
 20
-51.0
 30
0.0
 11
211.4936249999999
 21
-51.0
 31
0.0
  0
LINE
  5
3AC3
330
1E
100
AcDbEntity
  8
21
100
AcDbLine
 10
220.0936
 20
-51.24719299999999
 30
0.0
 11
228.5935999999999
 21
-51.24719299999999
 31
0.0
  0
LINE
  5
3AC4
330
1E
100
AcDbEntity
  8
21
100
AcDbLine
 10
228.5935999999999
 20
-47.49450699999999
 30
0.0
 11
220.0936
 21
-47.49450699999999
 31
0.0
  0
LINE
  5
3AC5
330
1E
100
AcDbEntity
  8
21
100
AcDbLine
 10
236.4936249999999
 20
-51.0
 30
0.0
 11
228.5935999999999
 21
-51.0
 31
0.0
  0
LINE
  5
3AC6
330
1E
100
AcDbEntity
  8
21
100
AcDbLine
 10
216.493625
 20
-47.5
 30
0.0
 11
211.4936249999999
 21
-47.5
 31
0.0
  0
LINE
  5
3AC7
330
1E
100
AcDbEntity
  8
21
100
AcDbLine
 10
218.493625
 20
-46.0
 30
0.0
 11
220.0936
 21
-46.0
 31
0.0
  0
LINE
  5
3AC8
330
1E
100
AcDbEntity
  8
21
100
AcDbLine
 10
210.493625
 20
-50.0
 30
0.0
 11
211.4936249999999
 21
-50.0
 31
0.0
  0
LINE
  5
3AC9
330
1E
100
AcDbEntity
  8
18
100
AcDbLine
 10
251.493625
 20
-40.030518
 30
0.0
 11
253.493625
 21
-40.030518
 31
0.0
  0
LINE
  5
3ACA
330
1E
100
AcDbEntity
  8
21
100
AcDbLine
 10
255.0936
 20
-51.24719299999999
 30
0.0
 11
263.5936
 21
-51.24719299999999
 31
0.0
  0
LINE
  5
3ACB
330
1E
100
AcDbEntity
  8
21
100
AcDbLine
 10
263.5936
 20
-47.49450699999999
 30
0.0
 11
255.0936
 21
-47.49450699999999
 31
0.0
  0
LINE
  5
3ACC
330
1E
100
AcDbEntity
  8
21
100
AcDbLine
 10
253.493625
 20
-46.0
 30
0.0
 11
255.0936
 21
-46.0
 31
0.0
  0
LINE
  5
3ACD
330
1E
100
AcDbEntity
  8
21
100
AcDbLine
 10
271.493625
 20
-51.0
 30
0.0
 11
263.5936
 21
-51.0
 31
0.0
  0
LINE
  5
3ACE
330
1E
100
AcDbEntity
  8
21
100
AcDbLine
 10
251.493625
 20
47.5
 30
0.0
 11
246.493625
 21
47.5
 31
0.0
  0
LINE
  5
3ACF
330
1E
100
AcDbEntity
  8
21
100
AcDbLine
 10
251.493625
 20
51.0
 30
0.0
 11
246.493625
 21
51.0
 31
0.0
  0
LINE
  5
3AD0
330
1E
100
AcDbEntity
  8
18
100
AcDbLine
 10
216.493625
 20
40.03051699999999
 30
0.0
 11
218.493625
 21
40.03051699999999
 31
0.0
  0
LINE
  5
3AD1
330
1E
100
AcDbEntity
  8
21
100
AcDbLine
 10
245.493625
 20
50.0
 30
0.0
 11
246.493625
 21
50.0
 31
0.0
  0
LINE
  5
3AD2
330
1E
100
AcDbEntity
  8
21
100
AcDbLine
 10
233.6045869999999
 20
47.5
 30
0.0
 11
245.493625
 21
47.5
 31
0.0
  0
LINE
  5
3AD3
330
1E
100
AcDbEntity
  8
21
100
AcDbLine
 10
216.493625
 20
51.0
 30
0.0
 11
211.4936249999999
 21
51.0
 31
0.0
  0
LINE
  5
3AD4
330
1E
100
AcDbEntity
  8
21
100
AcDbLine
 10
216.493625
 20
47.5
 30
0.0
 11
211.4936249999999
 21
47.5
 31
0.0
  0
LINE
  5
3AD5
330
1E
100
AcDbEntity
  8
21
100
AcDbLine
 10
220.0936
 20
51.247192
 30
0.0
 11
228.5935999999999
 21
51.247192
 31
0.0
  0
LINE
  5
3AD6
330
1E
100
AcDbEntity
  8
21
100
AcDbLine
 10
228.5935999999999
 20
47.494506
 30
0.0
 11
220.0936
 21
47.494506
 31
0.0
  0
LINE
  5
3AD7
330
1E
100
AcDbEntity
  8
21
100
AcDbLine
 10
218.493625
 20
46.0
 30
0.0
 11
220.0936
 21
46.0
 31
0.0
  0
LINE
  5
3AD8
330
1E
100
AcDbEntity
  8
21
100
AcDbLine
 10
210.493625
 20
50.0
 30
0.0
 11
211.4936249999999
 21
50.0
 31
0.0
  0
LINE
  5
3AD9
330
1E
100
AcDbEntity
  8
21
100
AcDbLine
 10
236.4936249999999
 20
51.0
 30
0.0
 11
228.5935999999999
 21
51.0
 31
0.0
  0
LINE
  5
3ADA
330
1E
100
AcDbEntity
  8
18
100
AcDbLine
 10
251.493625
 20
40.03051699999999
 30
0.0
 11
253.493625
 21
40.03051699999999
 31
0.0
  0
LINE
  5
3ADB
330
1E
100
AcDbEntity
  8
21
100
AcDbLine
 10
271.493625
 20
51.0
 30
0.0
 11
263.5936
 21
51.0
 31
0.0
  0
LINE
  5
3ADC
330
1E
100
AcDbEntity
  8
21
100
AcDbLine
 10
253.493625
 20
46.0
 30
0.0
 11
255.0936
 21
46.0
 31
0.0
  0
LINE
  5
3ADD
330
1E
100
AcDbEntity
  8
21
100
AcDbLine
 10
263.5936
 20
47.494506
 30
0.0
 11
255.0936
 21
47.494506
 31
0.0
  0
LINE
  5
3ADE
330
1E
100
AcDbEntity
  8
21
100
AcDbLine
 10
255.0936
 20
51.247192
 30
0.0
 11
263.5936
 21
51.247192
 31
0.0
  0
LINE
  5
3ADF
330
1E
100
AcDbEntity
  8
21
100
AcDbLine
 10
251.493625
 20
62.5
 30
0.0
 11
246.493625
 21
62.5
 31
0.0
  0
LINE
  5
3AE0
330
1E
100
AcDbEntity
  8
21
100
AcDbLine
 10
251.493625
 20
59.0
 30
0.0
 11
246.493625
 21
59.0
 31
0.0
  0
LINE
  5
3AE1
330
1E
100
AcDbEntity
  8
21
100
AcDbLine
 10
245.493625
 20
60.0
 30
0.0
 11
246.493625
 21
60.0
 31
0.0
  0
LINE
  5
3AE2
330
1E
100
AcDbEntity
  8
21
100
AcDbLine
 10
245.493625
 20
62.5
 30
0.0
 11
233.6045869999999
 21
62.5
 31
0.0
  0
LINE
  5
3AE3
330
1E
100
AcDbEntity
  8
21
100
AcDbLine
 10
216.493625
 20
59.0
 30
0.0
 11
211.4936249999999
 21
59.0
 31
0.0
  0
LINE
  5
3AE4
330
1E
100
AcDbEntity
  8
21
100
AcDbLine
 10
216.493625
 20
62.5
 30
0.0
 11
211.4936249999999
 21
62.5
 31
0.0
  0
LINE
  5
3AE5
330
1E
100
AcDbEntity
  8
21
100
AcDbLine
 10
220.0936
 20
58.752807
 30
0.0
 11
228.5935999999999
 21
58.752807
 31
0.0
  0
LINE
  5
3AE6
330
1E
100
AcDbEntity
  8
21
100
AcDbLine
 10
220.0936
 20
62.50549300000001
 30
0.0
 11
228.5935999999999
 21
62.50549300000001
 31
0.0
  0
LINE
  5
3AE7
330
1E
100
AcDbEntity
  8
21
100
AcDbLine
 10
218.493625
 20
64.0
 30
0.0
 11
220.0936
 21
64.0
 31
0.0
  0
LINE
  5
3AE8
330
1E
100
AcDbEntity
  8
21
100
AcDbLine
 10
210.493625
 20
60.0
 30
0.0
 11
211.4936249999999
 21
60.0
 31
0.0
  0
LINE
  5
3AE9
330
1E
100
AcDbEntity
  8
21
100
AcDbLine
 10
236.4936249999999
 20
59.0
 30
0.0
 11
228.5935999999999
 21
59.0
 31
0.0
  0
LINE
  5
3AEA
330
1E
100
AcDbEntity
  8
21
100
AcDbLine
 10
271.493625
 20
59.0
 30
0.0
 11
263.5936
 21
59.0
 31
0.0
  0
LINE
  5
3AEB
330
1E
100
AcDbEntity
  8
21
100
AcDbLine
 10
253.493625
 20
64.0
 30
0.0
 11
255.0936
 21
64.0
 31
0.0
  0
LINE
  5
3AEC
330
1E
100
AcDbEntity
  8
21
100
AcDbLine
 10
255.0936
 20
62.50549300000001
 30
0.0
 11
263.5936
 21
62.50549300000001
 31
0.0
  0
LINE
  5
3AED
330
1E
100
AcDbEntity
  8
21
100
AcDbLine
 10
255.0936
 20
58.752807
 30
0.0
 11
263.5936
 21
58.752807
 31
0.0
  0
LINE
  5
3BBC
330
1E
100
AcDbEntity
  8
21
100
AcDbLine
 10
271.493625
 20
59.0
 30
0.0
 11
271.493625
 21
51.0
 31
0.0
  0
LINE
  5
3BBD
330
1E
100
AcDbEntity
  8
21
100
AcDbLine
 10
271.493625
 20
-59.0
 30
0.0
 11
271.493625
 21
-51.0
 31
0.0
  0
DIMENSION
  5
3BF9
330
1E
100
AcDbEntity
  8
30
  6
Continuous
100
AcDbDimension
  2
*D9
 10
97.393771
 20
-110.084545
 30
0.0
 11
140.8937099999999
 21
-107.0845449999999
 31
0.0
 70
    32
 71
     5
 42
-1.0
  3
STANDARD
100
AcDbAlignedDimension
 13
184.393649
 23
-100.4043489999999
 33
0.0
 14
97.393771
 24
11.831055
 34
0.0
100
AcDbRotatedDimension
  0
DIMENSION
  5
3BFA
330
1E
100
AcDbEntity
  8
30
  6
Continuous
100
AcDbDimension
  2
*D10
 10
116.3936489999999
 20
-100.4043489999999
 30
0.0
 11
150.393649
 21
-97.404349
 31
0.0
 70
    32
 71
     5
 42
-1.0
  3
STANDARD
100
AcDbAlignedDimension
 13
184.393649
 23
-65.5
 33
0.0
 14
116.3936489999999
 24
-42.5
 34
0.0
100
AcDbRotatedDimension
  0
DIMENSION
  5
3BFB
330
1E
100
AcDbEntity
  8
30
  6
Continuous
100
AcDbDimension
  2
*D11
 10
111.39371
 20
-100.4043489999999
 30
0.0
 11
113.893679
 21
-97.404349
 31
0.0
 70
    32
 71
     5
 42
-1.0
  3
STANDARD
100
AcDbAlignedDimension
 13
116.3936489999999
 23
-42.0
 33
0.0
 14
111.39371
 24
-25.0
 34
0.0
100
AcDbRotatedDimension
1001
ACAD
1000
DSTYLE
1002
{
1070
   287
1070
     4
1070
   287
1070
     4
1070
   287
1070
     4
1070
   287
1070
     4
1070
   287
1070
     4
1070
   287
1070
     4
1070
   287
1070
     4
1070
   287
1070
     4
1070
   287
1070
     4
1070
   287
1070
     4
1070
   287
1070
     4
1070
   287
1070
     4
1070
   287
1070
     4
1070
   287
1070
     4
1070
   287
1070
     4
1070
   287
1070
     4
1070
   287
1070
     4
1070
   287
1070
     4
1070
   287
1070
     4
1070
   287
1070
     4
1070
   287
1070
     4
1070
   287
1070
     4
1070
   287
1070
     4
1070
   287
1070
     4
1070
   287
1070
     4
1070
   287
1070
     4
1070
   287
1070
     4
1070
   287
1070
     4
1070
   287
1070
     4
1070
   172
1070
     1
1070
   174
1070
     1
1070
    41
1040
1.5
1070
   279
1070
     1
1002
}
  0
DIMENSION
  5
3BFC
330
1E
100
AcDbEntity
  8
30
  6
Continuous
100
AcDbDimension
  2
*D12
 10
184.393649
 20
-80.127164
 30
0.0
 11
153.893649
 21
-77.12716400000001
 31
0.0
 70
    32
 71
     5
 42
-1.0
  3
STANDARD
100
AcDbAlignedDimension
 13
123.393649
 23
-65.5
 33
0.0
 14
184.393649
 24
-65.5
 34
0.0
100
AcDbRotatedDimension
  0
DIMENSION
  5
3C55
330
1E
100
AcDbEntity
  8
30
  6
Continuous
100
AcDbDimension
  2
*D13
 10
216.493625
 20
-80.127164
 30
0.0
 11
200.443637
 21
-77.12716400000001
 31
0.0
 70
    32
 71
     5
 42
-1.0
  3
STANDARD
100
AcDbAlignedDimension
 13
184.393649
 23
-65.0
 33
0.0
 14
216.493625
 24
-62.5
 34
0.0
100
AcDbRotatedDimension
  0
DIMENSION
  5
3C62
330
1E
100
AcDbEntity
  8
30
  6
Continuous
100
AcDbDimension
  2
*D14
 10
251.493625
 20
-100.4043489999999
 30
0.0
 11
217.943637
 21
-97.404349
 31
0.0
 70
    32
 71
     5
 42
-1.0
  3
STANDARD
100
AcDbAlignedDimension
 13
184.393649
 23
-100.4043489999999
 33
0.0
 14
251.493625
 24
-62.5
 34
0.0
100
AcDbRotatedDimension
  0
TEXT
  5
3C87
330
1E
100
AcDbEntity
  8
30
  6
Continuous
100
AcDbText
 10
199.991133
 20
-35.408807
 30
0.0
 40
4.0
  1
%%c15
  7
STANDARD1
100
AcDbText
  0
LEADER
  5
3C88
330
1E
100
AcDbEntity
  8
30
  6
Continuous
100
AcDbLeader
  3
STANDARD
 74
     0
 40
3.0
 76
     3
 10
190.915878
 20
-46.17868499999999
 30
0.0
 10
198.453737
 20
-35.84801599999999
 30
0.0
 10
211.362686
 20
-35.84801599999999
 30
0.0
213
-16.67827859656243
223
-1.5
233
0.0
1001
ACAD
1000
DSTYLE
1002
{
1070
     5
1000
OPEN
1070
   342
1005
3B2
1002
}
  0
DIMENSION
  5
3C89
330
1E
100
AcDbEntity
  8
30
  6
Continuous
100
AcDbDimension
  2
*D15
 10
184.393649
 20
-110.084545
 30
0.0
 11
227.943637
 21
-107.0845449999999
 31
0.0
 70
    32
 71
     5
 42
-1.0
  3
STANDARD
100
AcDbAlignedDimension
 13
271.493625
 23
-59.0
 33
0.0
 14
184.393649
 24
-110.084545
 34
0.0
100
AcDbRotatedDimension
  0
CIRCLE
  5
3D2C
330
1E
100
AcDbEntity
  8
22
  6
Continuous
100
AcDbCircle
 10
25.0
 20
-305.0
 30
0.0
 40
8.5
  0
CIRCLE
  5
3D2D
330
1E
100
AcDbEntity
  8
22
  6
Continuous
100
AcDbCircle
 10
-25.0
 20
-305.0
 30
0.0
 40
8.5
  0
CIRCLE
  5
3D2E
330
1E
100
AcDbEntity
  8
12
  6
DASHDOT
100
AcDbCircle
 10
12.5
 20
-305.5
 30
0.0
 40
1.620999999999999
  0
CIRCLE
  5
3D2F
330
1E
100
AcDbEntity
  8
12
  6
DASHDOT
100
AcDbCircle
 10
12.5
 20
-305.5
 30
0.0
 40
2.0
  0
CIRCLE
  5
3D30
330
1E
100
AcDbEntity
  8
22
  6
Continuous
100
AcDbCircle
 10
0.0
 20
-305.0
 30
0.0
 40
8.5
  0
LINE
  5
3D36
330
1E
100
AcDbEntity
  8
18
  6
DIVIDE
 48
2.0
100
AcDbLine
 10
37.5
 20
-315.0
 30
0.0
 11
37.5
 21
-185.0
 31
0.0
  0
LINE
  5
3D37
330
1E
100
AcDbEntity
  8
18
  6
DIVIDE
 48
2.0
100
AcDbLine
 10
-37.5
 20
-315.0
 30
0.0
 11
-37.5
 21
-185.0
 31
0.0
  0
LINE
  5
3D3A
330
1E
100
AcDbEntity
  8
12
  6
DASHDOT
100
AcDbLine
 10
15.5
 20
-305.5
 30
0.0
 11
9.5
 21
-305.5
 31
0.0
  0
LINE
  5
3D3B
330
1E
100
AcDbEntity
  8
18
  6
DIVIDE
 48
2.0
100
AcDbLine
 10
-37.5
 20
-315.0
 30
0.0
 11
37.5
 21
-315.0
 31
0.0
  0
CIRCLE
  5
3D3D
330
1E
100
AcDbEntity
  8
22
  6
Continuous
100
AcDbCircle
 10
25.0
 20
-195.0
 30
0.0
 40
8.5
  0
CIRCLE
  5
3D3E
330
1E
100
AcDbEntity
  8
22
  6
Continuous
100
AcDbCircle
 10
-25.0
 20
-195.0
 30
0.0
 40
8.5
  0
CIRCLE
  5
3D3F
330
1E
100
AcDbEntity
  8
22
  6
Continuous
100
AcDbCircle
 10
0.0
 20
-195.0
 30
0.0
 40
8.5
  0
LINE
  5
3D43
330
1E
100
AcDbEntity
  8
18
  6
DIVIDE
 48
2.0
100
AcDbLine
 10
-37.5
 20
-185.0
 30
0.0
 11
37.5
 21
-185.0
 31
0.0
  0
CIRCLE
  5
3D44
330
1E
100
AcDbEntity
  8
12
  6
CONTINOUS
100
AcDbCircle
 10
-12.5
 20
-194.5
 30
0.0
 40
1.620999999999999
  0
CIRCLE
  5
3D45
330
1E
100
AcDbEntity
  8
12
  6
CONTINOUS
100
AcDbCircle
 10
-12.5
 20
-194.5
 30
0.0
 40
2.0
  0
LINE
  5
3D46
330
1E
100
AcDbEntity
  8
12
  6
CONTINOUS
100
AcDbLine
 10
-15.5
 20
-194.5
 30
0.0
 11
-9.5
 21
-194.5
 31
0.0
  0
LINE
  5
3EAB
330
1E
100
AcDbEntity
  8
10
  6
CONTINOUS
100
AcDbLine
 10
-37.381809
 20
130.0
 30
0.0
 11
-37.381809
 21
198.0
 31
0.0
  0
LINE
  5
3EAE
330
1E
100
AcDbEntity
  8
10
  6
CONTINOUS
100
AcDbLine
 10
37.61819099999999
 20
130.0
 30
0.0
 11
37.61819099999999
 21
198.0
 31
0.0
  0
LINE
  5
3EB1
330
1E
100
AcDbEntity
  8
10
  6
CONTINOUS
100
AcDbLine
 10
-37.381809
 20
130.0
 30
0.0
 11
37.61819099999999
 21
130.0
 31
0.0
  0
LINE
  5
3EB2
330
1E
100
AcDbEntity
  8
10
  6
CONTINOUS
100
AcDbLine
 10
5.118191
 20
111.0
 30
0.0
 11
5.618191
 21
125.0
 31
0.0
  0
LINE
  5
3EB3
330
1E
100
AcDbEntity
  8
10
  6
CONTINOUS
100
AcDbLine
 10
-4.881808999999999
 20
111.0
 30
0.0
 11
-5.381808999999999
 21
125.0
 31
0.0
  0
LINE
  5
3EB4
330
1E
100
AcDbEntity
  8
10
  6
CONTINOUS
100
AcDbLine
 10
-10.881809
 20
125.0
 30
0.0
 11
11.11819099999999
 21
125.0
 31
0.0
  0
LINE
  5
3EB5
330
1E
100
AcDbEntity
  8
10
  6
CONTINOUS
100
AcDbLine
 10
-10.881809
 20
125.0
 30
0.0
 11
-10.881809
 21
130.0
 31
0.0
  0
LINE
  5
3EB6
330
1E
100
AcDbEntity
  8
10
  6
CONTINOUS
100
AcDbLine
 10
11.11819099999999
 20
125.0
 30
0.0
 11
11.11819099999999
 21
130.0
 31
0.0
  0
LINE
  5
3EB7
330
1E
100
AcDbEntity
  8
10
  6
CONTINOUS
100
AcDbLine
 10
-4.881808999999999
 20
111.0
 30
0.0
 11
5.118191
 21
111.0
 31
0.0
  0
LINE
  5
3EB9
330
1E
100
AcDbEntity
  8
18
100
AcDbLine
 10
10.148709
 20
230.0999759999999
 30
0.0
 11
40.431179
 21
230.0999759999999
 31
0.0
  0
LINE
  5
3EBA
330
1E
100
AcDbEntity
  8
12
100
AcDbLine
 10
7.618191
 20
198.0
 30
0.0
 11
17.618191
 21
198.0
 31
0.0
  0
LINE
  5
3EBB
330
1E
100
AcDbEntity
  8
18
100
AcDbLine
 10
-14.85129099999999
 20
267.0999759999999
 30
0.0
 11
15.431179
 21
267.0999759999999
 31
0.0
  0
LINE
  5
3EBC
330
1E
100
AcDbEntity
  8
18
100
AcDbLine
 10
-14.85129099999999
 20
265.0999759999999
 30
0.0
 11
15.431179
 21
265.0999759999999
 31
0.0
  0
LINE
  5
3EBD
330
1E
100
AcDbEntity
  8
18
100
AcDbLine
 10
10.148709
 20
232.0999759999999
 30
0.0
 11
40.431179
 21
232.0999759999999
 31
0.0
  0
LINE
  5
3EBE
330
1E
100
AcDbEntity
  8
18
100
AcDbLine
 10
87.61819100000002
 20
200.300049
 30
0.0
 11
-87.38180899999999
 21
200.300049
 31
0.0
  0
LINE
  5
3EBF
330
1E
100
AcDbEntity
  8
12
100
AcDbLine
 10
10.59743899999999
 20
204.4999999999999
 30
0.0
 11
14.63894299999999
 21
204.4999999999999
 31
0.0
  0
LINE
  5
3EC2
330
1E
100
AcDbEntity
  8
21
100
AcDbLine
 10
-7.381808999999999
 20
198.0
 30
0.0
 11
-7.381808999999999
 21
259.0999759999999
 31
0.0
  0
LINE
  5
3EC3
330
1E
100
AcDbEntity
  8
21
100
AcDbLine
 10
7.618191
 20
259.0999759999999
 30
0.0
 11
7.618191
 21
198.0
 31
0.0
  0
DIMENSION
  5
3EC5
330
1E
100
AcDbEntity
  8
30
100
AcDbDimension
  2
*D16
 10
-48.915508
 20
204.4999999999999
 30
0.0
 11
-48.915508
 21
186.83875
 31
0.0
 70
   160
  1
6.5
 71
     5
 42
-1.0
  3
STANDARD
100
AcDbAlignedDimension
 13
-37.381809
 23
198.0
 33
0.0
 14
-7.296189
 24
204.4999999999999
 34
0.0
 50
90.0
100
AcDbRotatedDimension
  0
LINE
  5
3EC6
330
1E
100
AcDbEntity
  8
18
100
AcDbLine
 10
-87.38180899999999
 20
198.0
 30
0.0
 11
-37.381809
 21
198.0
 31
0.0
  0
LINE
  5
3EC7
330
1E
100
AcDbEntity
  8
18
100
AcDbLine
 10
-87.38180899999999
 20
200.300049
 30
0.0
 11
-87.38180899999999
 21
198.0
 31
0.0
  0
LINE
  5
3EC8
330
1E
100
AcDbEntity
  8
21
100
AcDbLine
 10
-32.381809
 20
198.0
 30
0.0
 11
-32.381809
 21
224.0999759999999
 31
0.0
  0
LINE
  5
3EC9
330
1E
100
AcDbEntity
  8
21
100
AcDbLine
 10
-17.381809
 20
198.0
 30
0.0
 11
-17.381809
 21
224.0999759999999
 31
0.0
  0
LINE
  5
3ECA
330
1E
100
AcDbEntity
  8
12
100
AcDbLine
 10
-14.402561
 20
198.0
 30
0.0
 11
-14.402561
 21
204.4999999999999
 31
0.0
  0
LINE
  5
3ECB
330
1E
100
AcDbEntity
  8
12
100
AcDbLine
 10
-10.361057
 20
198.0
 30
0.0
 11
-10.361057
 21
204.4999999999999
 31
0.0
  0
LINE
  5
3ECE
330
1E
100
AcDbEntity
  8
12
100
AcDbLine
 10
10.59743899999999
 20
198.0
 30
0.0
 11
10.59743899999999
 21
204.4999999999999
 31
0.0
  0
LINE
  5
3ED0
330
1E
100
AcDbEntity
  8
21
100
AcDbLine
 10
-17.381809
 20
198.0
 30
0.0
 11
-32.381809
 21
198.0
 31
0.0
  0
LINE
  5
3ED1
330
1E
100
AcDbEntity
  8
21
100
AcDbLine
 10
-37.381809
 20
198.0
 30
0.0
 11
-32.381809
 21
198.0
 31
0.0
  0
LINE
  5
3ED2
330
1E
100
AcDbEntity
  8
10
  6
CONTINOUS
100
AcDbLine
 10
-37.381809
 20
198.0
 30
0.0
 11
37.61819099999999
 21
198.0
 31
0.0
  0
LINE
  5
3ED3
330
1E
100
AcDbEntity
  8
12
100
AcDbLine
 10
-17.381809
 20
198.0
 30
0.0
 11
-7.381808999999999
 21
198.0
 31
0.0
  0
LINE
  5
3ED4
330
1E
100
AcDbEntity
  8
18
100
AcDbLine
 10
-9.912326
 20
230.0999759999999
 30
0.0
 11
-40.19479699999999
 21
230.0999759999999
 31
0.0
  0
LINE
  5
3ED5
330
1E
100
AcDbEntity
  8
21
100
AcDbLine
 10
-33.881809
 20
233.6999519999999
 30
0.0
 11
-15.881809
 21
233.6999519999999
 31
0.0
  0
LINE
  5
3ED6
330
1E
100
AcDbEntity
  8
18
100
AcDbLine
 10
-9.912326
 20
232.0999759999999
 30
0.0
 11
-40.19479699999999
 21
232.0999759999999
 31
0.0
  0
LINE
  5
3ED7
330
1E
100
AcDbEntity
  8
21
100
AcDbLine
 10
-32.381809
 20
224.0999759999999
 30
0.0
 11
-17.381809
 21
224.0999759999999
 31
0.0
  0
LINE
  5
3ED8
330
1E
100
AcDbEntity
  8
21
100
AcDbLine
 10
-28.881809
 20
250.0999759999999
 30
0.0
 11
-20.881809
 21
250.0999759999999
 31
0.0
  0
LINE
  5
3ED9
330
1E
100
AcDbEntity
  8
21
100
AcDbLine
 10
-32.381809
 20
225.0999759999999
 30
0.0
 11
-17.381809
 21
225.0999759999999
 31
0.0
  0
LINE
  5
3EDA
330
1E
100
AcDbEntity
  8
21
100
AcDbLine
 10
-32.387302
 20
242.1999519999999
 30
0.0
 11
-17.376316
 21
242.1999519999999
 31
0.0
  0
LINE
  5
3EDB
330
1E
100
AcDbEntity
  8
21
100
AcDbLine
 10
-29.881809
 20
224.0999759999999
 30
0.0
 11
-29.881809
 21
225.0999759999999
 31
0.0
  0
LINE
  5
3EDC
330
1E
100
AcDbEntity
  8
21
100
AcDbLine
 10
-33.881809
 20
232.0999759999999
 30
0.0
 11
-33.881809
 21
233.6999519999999
 31
0.0
  0
LINE
  5
3EDD
330
1E
100
AcDbEntity
  8
21
100
AcDbLine
 10
-32.381809
 20
230.0999759999999
 30
0.0
 11
-32.381809
 21
225.0999759999999
 31
0.0
  0
LINE
  5
3EDE
330
1E
100
AcDbEntity
  8
21
100
AcDbLine
 10
-28.881809
 20
250.0999759999999
 30
0.0
 11
-28.881809
 21
242.1999519999999
 31
0.0
  0
LINE
  5
3EDF
330
1E
100
AcDbEntity
  8
21
100
AcDbLine
 10
-28.881809
 20
230.0999759999999
 30
0.0
 11
-28.881809
 21
225.0999759999999
 31
0.0
  0
LINE
  5
3EE0
330
1E
100
AcDbEntity
  8
21
100
AcDbLine
 10
-32.387302
 20
233.6999519999999
 30
0.0
 11
-32.387302
 21
242.1999519999999
 31
0.0
  0
LINE
  5
3EE1
330
1E
100
AcDbEntity
  8
21
100
AcDbLine
 10
-28.63461599999999
 20
233.6999519999999
 30
0.0
 11
-28.63461599999999
 21
242.1999519999999
 31
0.0
  0
LINE
  5
3EE2
330
1E
100
AcDbEntity
  8
18
100
AcDbLine
 10
-9.912326
 20
230.0999759999999
 30
0.0
 11
-9.912326
 21
232.0999759999999
 31
0.0
  0
LINE
  5
3EE3
330
1E
100
AcDbEntity
  8
21
100
AcDbLine
 10
-15.881809
 20
232.0999759999999
 30
0.0
 11
-15.881809
 21
233.6999519999999
 31
0.0
  0
LINE
  5
3EE4
330
1E
100
AcDbEntity
  8
21
100
AcDbLine
 10
-19.881809
 20
224.0999759999999
 30
0.0
 11
-19.881809
 21
225.0999759999999
 31
0.0
  0
LINE
  5
3EE5
330
1E
100
AcDbEntity
  8
21
100
AcDbLine
 10
-17.381809
 20
230.0999759999999
 30
0.0
 11
-17.381809
 21
225.0999759999999
 31
0.0
  0
LINE
  5
3EE6
330
1E
100
AcDbEntity
  8
21
100
AcDbLine
 10
-20.881809
 20
250.0999759999999
 30
0.0
 11
-20.881809
 21
242.1999519999999
 31
0.0
  0
LINE
  5
3EE7
330
1E
100
AcDbEntity
  8
21
100
AcDbLine
 10
-17.376316
 20
242.1999519999999
 30
0.0
 11
-17.376316
 21
233.6999519999999
 31
0.0
  0
LINE
  5
3EE8
330
1E
100
AcDbEntity
  8
21
100
AcDbLine
 10
-21.129001
 20
233.6999519999999
 30
0.0
 11
-21.129001
 21
242.1999519999999
 31
0.0
  0
LINE
  5
3EE9
330
1E
100
AcDbEntity
  8
21
100
AcDbLine
 10
-20.881809
 20
230.0999759999999
 30
0.0
 11
-20.881809
 21
225.0999759999999
 31
0.0
  0
LINE
  5
3EEA
330
1E
100
AcDbEntity
  8
18
100
AcDbLine
 10
10.148709
 20
230.0999759999999
 30
0.0
 11
10.148709
 21
232.0999759999999
 31
0.0
  0
LINE
  5
3EEB
330
1E
100
AcDbEntity
  8
12
100
AcDbLine
 10
-14.402561
 20
204.4999999999999
 30
0.0
 11
-10.361057
 21
204.4999999999999
 31
0.0
  0
LINE
  5
3EED
330
1E
100
AcDbEntity
  8
18
100
AcDbLine
 10
-14.85129099999999
 20
265.0999759999999
 30
0.0
 11
-14.85129099999999
 21
267.0999759999999
 31
0.0
  0
LINE
  5
3EEE
330
1E
100
AcDbEntity
  8
21
100
AcDbLine
 10
-3.634616
 20
268.699952
 30
0.0
 11
-3.634616
 21
277.199952
 31
0.0
  0
LINE
  5
3EEF
330
1E
100
AcDbEntity
  8
21
100
AcDbLine
 10
3.870998999999999
 20
268.699952
 30
0.0
 11
3.870998999999999
 21
277.199952
 31
0.0
  0
LINE
  5
3EF0
330
1E
100
AcDbEntity
  8
21
100
AcDbLine
 10
7.623683999999999
 20
277.199952
 30
0.0
 11
-7.387302
 21
277.199952
 31
0.0
  0
LINE
  5
3EF1
330
1E
100
AcDbEntity
  8
21
100
AcDbLine
 10
-7.387302
 20
277.199952
 30
0.0
 11
-7.387302
 21
268.699952
 31
0.0
  0
LINE
  5
3EF2
330
1E
100
AcDbEntity
  8
21
100
AcDbLine
 10
7.623683999999999
 20
268.699952
 30
0.0
 11
7.623683999999999
 21
277.199952
 31
0.0
  0
LINE
  5
3EF3
330
1E
100
AcDbEntity
  8
21
100
AcDbLine
 10
9.118190999999999
 20
268.699952
 30
0.0
 11
-8.881809
 21
268.699952
 31
0.0
  0
LINE
  5
3EF4
330
1E
100
AcDbEntity
  8
21
100
AcDbLine
 10
-8.881809
 20
267.0999759999999
 30
0.0
 11
-8.881809
 21
268.699952
 31
0.0
  0
LINE
  5
3EF5
330
1E
100
AcDbEntity
  8
21
100
AcDbLine
 10
9.118190999999999
 20
267.0999759999999
 30
0.0
 11
9.118190999999999
 21
268.699952
 31
0.0
  0
LINE
  5
3EF6
330
1E
100
AcDbEntity
  8
21
100
AcDbLine
 10
-3.881808999999999
 20
265.0999759999999
 30
0.0
 11
-3.881808999999999
 21
260.0999759999999
 31
0.0
  0
LINE
  5
3EF7
330
1E
100
AcDbEntity
  8
21
100
AcDbLine
 10
4.118191
 20
265.0999759999999
 30
0.0
 11
4.118191
 21
260.0999759999999
 31
0.0
  0
LINE
  5
3EF8
330
1E
100
AcDbEntity
  8
21
100
AcDbLine
 10
7.618191
 20
260.0999759999999
 30
0.0
 11
-7.381808999999999
 21
260.0999759999999
 31
0.0
  0
LINE
  5
3EF9
330
1E
100
AcDbEntity
  8
21
100
AcDbLine
 10
7.618191
 20
265.0999759999999
 30
0.0
 11
7.618191
 21
260.0999759999999
 31
0.0
  0
LINE
  5
3EFA
330
1E
100
AcDbEntity
  8
21
100
AcDbLine
 10
-7.381808999999999
 20
265.0999759999999
 30
0.0
 11
-7.381808999999999
 21
260.0999759999999
 31
0.0
  0
LINE
  5
3EFB
330
1E
100
AcDbEntity
  8
21
100
AcDbLine
 10
7.618191
 20
259.0999759999999
 30
0.0
 11
-7.381808999999999
 21
259.0999759999999
 31
0.0
  0
LINE
  5
3EFC
330
1E
100
AcDbEntity
  8
21
100
AcDbLine
 10
4.118191
 20
285.0999759999999
 30
0.0
 11
-3.881808999999999
 21
285.0999759999999
 31
0.0
  0
LINE
  5
3EFD
330
1E
100
AcDbEntity
  8
21
100
AcDbLine
 10
4.118191
 20
285.0999759999999
 30
0.0
 11
4.118191
 21
277.199952
 31
0.0
  0
LINE
  5
3EFE
330
1E
100
AcDbEntity
  8
21
100
AcDbLine
 10
-3.881808999999999
 20
285.0999759999999
 30
0.0
 11
-3.881808999999999
 21
277.199952
 31
0.0
  0
LINE
  5
3EFF
330
1E
100
AcDbEntity
  8
21
100
AcDbLine
 10
5.118191
 20
259.0999759999999
 30
0.0
 11
5.118191
 21
260.0999759999999
 31
0.0
  0
LINE
  5
3F00
330
1E
100
AcDbEntity
  8
21
100
AcDbLine
 10
-4.881808999999999
 20
259.0999759999999
 30
0.0
 11
-4.881808999999999
 21
260.0999759999999
 31
0.0
  0
LINE
  5
3F05
330
1E
100
AcDbEntity
  8
21
100
AcDbLine
 10
17.618191
 20
198.0
 30
0.0
 11
17.618191
 21
224.0999759999999
 31
0.0
  0
LINE
  5
3F06
330
1E
100
AcDbEntity
  8
21
100
AcDbLine
 10
32.61819099999999
 20
198.0
 30
0.0
 11
32.61819099999999
 21
224.0999759999999
 31
0.0
  0
LINE
  5
3F08
330
1E
100
AcDbEntity
  8
12
100
AcDbLine
 10
14.63894299999999
 20
198.0
 30
0.0
 11
14.63894299999999
 21
204.4999999999999
 31
0.0
  0
LINE
  5
3F0A
330
1E
100
AcDbEntity
  8
18
100
AcDbLine
 10
37.61819099999999
 20
198.0
 30
0.0
 11
87.61819100000002
 21
198.0
 31
0.0
  0
LINE
  5
3F0B
330
1E
100
AcDbEntity
  8
21
100
AcDbLine
 10
32.61819099999999
 20
198.0
 30
0.0
 11
37.61819099999999
 21
198.0
 31
0.0
  0
LINE
  5
3F0C
330
1E
100
AcDbEntity
  8
21
100
AcDbLine
 10
17.618191
 20
198.0
 30
0.0
 11
32.61819099999999
 21
198.0
 31
0.0
  0
LINE
  5
3F0D
330
1E
100
AcDbEntity
  8
21
100
AcDbLine
 10
21.11819099999999
 20
230.0999759999999
 30
0.0
 11
21.11819099999999
 21
225.0999759999999
 31
0.0
  0
LINE
  5
3F0E
330
1E
100
AcDbEntity
  8
21
100
AcDbLine
 10
28.87099899999999
 20
233.6999519999999
 30
0.0
 11
28.87099899999999
 21
242.1999519999999
 31
0.0
  0
LINE
  5
3F0F
330
1E
100
AcDbEntity
  8
21
100
AcDbLine
 10
21.365384
 20
233.6999519999999
 30
0.0
 11
21.365384
 21
242.1999519999999
 31
0.0
  0
LINE
  5
3F10
330
1E
100
AcDbEntity
  8
21
100
AcDbLine
 10
17.612698
 20
242.1999519999999
 30
0.0
 11
17.612698
 21
233.6999519999999
 31
0.0
  0
LINE
  5
3F11
330
1E
100
AcDbEntity
  8
21
100
AcDbLine
 10
32.623684
 20
242.1999519999999
 30
0.0
 11
17.612698
 21
242.1999519999999
 31
0.0
  0
LINE
  5
3F12
330
1E
100
AcDbEntity
  8
21
100
AcDbLine
 10
32.623684
 20
233.6999519999999
 30
0.0
 11
32.623684
 21
242.1999519999999
 31
0.0
  0
LINE
  5
3F13
330
1E
100
AcDbEntity
  8
21
100
AcDbLine
 10
21.11819099999999
 20
250.0999759999999
 30
0.0
 11
21.11819099999999
 21
242.1999519999999
 31
0.0
  0
LINE
  5
3F14
330
1E
100
AcDbEntity
  8
21
100
AcDbLine
 10
29.11819099999999
 20
230.0999759999999
 30
0.0
 11
29.11819099999999
 21
225.0999759999999
 31
0.0
  0
LINE
  5
3F15
330
1E
100
AcDbEntity
  8
21
100
AcDbLine
 10
29.11819099999999
 20
250.0999759999999
 30
0.0
 11
29.11819099999999
 21
242.1999519999999
 31
0.0
  0
LINE
  5
3F16
330
1E
100
AcDbEntity
  8
21
100
AcDbLine
 10
32.61819099999999
 20
225.0999759999999
 30
0.0
 11
17.618191
 21
225.0999759999999
 31
0.0
  0
LINE
  5
3F17
330
1E
100
AcDbEntity
  8
21
100
AcDbLine
 10
17.618191
 20
230.0999759999999
 30
0.0
 11
17.618191
 21
225.0999759999999
 31
0.0
  0
LINE
  5
3F18
330
1E
100
AcDbEntity
  8
21
100
AcDbLine
 10
32.61819099999999
 20
230.0999759999999
 30
0.0
 11
32.61819099999999
 21
225.0999759999999
 31
0.0
  0
LINE
  5
3F19
330
1E
100
AcDbEntity
  8
21
100
AcDbLine
 10
34.11819099999999
 20
233.6999519999999
 30
0.0
 11
16.11819099999999
 21
233.6999519999999
 31
0.0
  0
LINE
  5
3F1A
330
1E
100
AcDbEntity
  8
21
100
AcDbLine
 10
16.11819099999999
 20
232.0999759999999
 30
0.0
 11
16.11819099999999
 21
233.6999519999999
 31
0.0
  0
LINE
  5
3F1B
330
1E
100
AcDbEntity
  8
21
100
AcDbLine
 10
34.11819099999999
 20
232.0999759999999
 30
0.0
 11
34.11819099999999
 21
233.6999519999999
 31
0.0
  0
LINE
  5
3F1C
330
1E
100
AcDbEntity
  8
21
100
AcDbLine
 10
30.11819099999999
 20
224.0999759999999
 30
0.0
 11
30.11819099999999
 21
225.0999759999999
 31
0.0
  0
LINE
  5
3F1D
330
1E
100
AcDbEntity
  8
21
100
AcDbLine
 10
20.11819099999999
 20
224.0999759999999
 30
0.0
 11
20.11819099999999
 21
225.0999759999999
 31
0.0
  0
LINE
  5
3F1E
330
1E
100
AcDbEntity
  8
21
100
AcDbLine
 10
29.11819099999999
 20
250.0999759999999
 30
0.0
 11
21.11819099999999
 21
250.0999759999999
 31
0.0
  0
LINE
  5
3F1F
330
1E
100
AcDbEntity
  8
21
100
AcDbLine
 10
32.61819099999999
 20
224.0999759999999
 30
0.0
 11
17.618191
 21
224.0999759999999
 31
0.0
  0
LEADER
  5
4059
330
1E
100
AcDbEntity
  8
30
  6
Continuous
100
AcDbLeader
  3
STANDARD
 76
     3
 10
-14.402561
 20
203.7639159999999
 30
0.0
 10
-30.434993
 20
210.64959
 30
0.0
 10
-56.684598
 20
210.703683
 30
0.0
211
-1.0
221
0.0
231
0.0
210
0.0
220
0.0
230
-1.0
1001
ACAD
1000
DSTYLE
1002
{
1070
     5
1000
OPEN
1070
   342
1005
3B2
1002
}
  0
TEXT
  5
405A
330
1E
100
AcDbEntity
  8
30
  6
Continuous
100
AcDbText
 10
-55.28279699999999
 20
212.5281069999999
 30
0.0
 40
4.0
  1
M4x0.7
100
AcDbText
  0
DIMENSION
  5
409D
330
1E
100
AcDbEntity
  8
30
  6
Continuous
100
AcDbDimension
  2
*D17
 10
0.118191
 20
293.859771
 30
0.0
 11
-12.381809
 21
296.859771
 31
0.0
 70
    32
 71
     5
 42
-1.0
  3
STANDARD
100
AcDbAlignedDimension
 13
-24.881809
 23
250.0999759999999
 33
0.0
 14
0.118191
 24
285.0999759999999
 34
0.0
100
AcDbRotatedDimension
  0
DIMENSION
  5
40AA
330
1E
100
AcDbEntity
  8
30
  6
Continuous
100
AcDbDimension
  2
*D18
 10
25.118191
 20
293.859771
 30
0.0
 11
12.618191
 21
296.859771
 31
0.0
 70
    32
 71
     5
 42
-1.0
  3
STANDARD
100
AcDbAlignedDimension
 13
0.118191
 23
285.0999759999999
 33
0.0
 14
25.118191
 24
250.0999759999999
 34
0.0
100
AcDbRotatedDimension
1001
ACAD
1000
DSTYLE
1002
{
1070
   287
1070
     4
1070
   287
1070
     4
1070
   287
1070
     4
1070
   287
1070
     4
1070
   287
1070
     4
1070
   287
1070
     4
1070
   287
1070
     4
1070
   287
1070
     4
1070
   279
1070
     1
1002
}
  0
LEADER
  5
40DF
330
1E
100
AcDbEntity
  8
30
  6
Continuous
100
AcDbLeader
  3
STANDARD
 76
     3
 10
-23.70247399999999
 20
-298.8034399999999
 30
0.0
 10
-20.41127
 20
-288.226397
 30
0.0
 10
-11.20416
 20
-288.223962
 30
0.0
1001
ACAD
1000
DSTYLE
1002
{
1070
     5
1000
OPEN
1070
   342
1005
3B2
1002
}
  0
TEXT
  5
40E0
330
1E
100
AcDbEntity
  8
30
  6
Continuous
100
AcDbText
 10
-19.771587
 20
-287.4456269999999
 30
0.0
 40
4.0
  1
%%C17
100
AcDbText
  0
LEADER
  5
40E1
330
1E
100
AcDbEntity
  8
30
  6
Continuous
100
AcDbLeader
  3
STANDARD
 76
     3
 10
14.17721199999999
 20
-301.5835099999999
 30
0.0
 10
17.468416
 20
-291.006468
 30
0.0
 10
46.136945
 20
-291.004033
 30
0.0
1001
ACAD
1000
DSTYLE
1002
{
1070
     5
1000
OPEN
1070
   342
1005
3B2
1002
}
  0
TEXT
  5
40E2
330
1E
100
AcDbEntity
  8
30
  6
Continuous
100
AcDbText
 10
20.34144299999999
 20
-289.482452
 30
0.0
 40
4.0
  1
M4x0.7
100
AcDbText
  0
LINE
  5
40E4
330
1E
100
AcDbEntity
  8
12
  6
DASHDOT
100
AcDbLine
 10
12.5
 20
-302.2499999999999
 30
0.0
 11
12.5
 21
-308.7499999999999
 31
0.0
  0
DIMENSION
  5
40F7
330
1E
100
AcDbEntity
  8
30
  6
Continuous
100
AcDbDimension
  2
*D19
 10
12.5
 20
-330.0
 30
0.0
 11
0.0
 21
-327.0
 31
0.0
 70
    32
 71
     5
 42
-1.0
  3
STANDARD
100
AcDbAlignedDimension
 13
-12.5
 23
-197.75
 33
0.0
 14
12.5
 24
-308.7499999999999
 34
0.0
100
AcDbRotatedDimension
  0
LINE
  5
410D
330
1E
100
AcDbEntity
  8
12
  6
DASHDOT
100
AcDbLine
 10
-12.5
 20
-191.25
 30
0.0
 11
-12.5
 21
-197.75
 31
0.0
  0
DIMENSION
  5
411B
330
1E
100
AcDbEntity
  8
30
  6
Continuous
100
AcDbDimension
  2
*D20
 10
-60.305724
 20
-305.5
 30
0.0
 11
-63.305724
 21
-250.0
 31
0.0
 70
    32
 71
     5
 42
-1.0
  3
STANDARD
100
AcDbAlignedDimension
 13
-9.5
 23
-194.5
 33
0.0
 14
12.5
 24
-305.5
 34
0.0
 50
90.0
100
AcDbRotatedDimension
  0
DIMENSION
  5
435D
330
1E
100
AcDbEntity
  8
30
  6
Continuous
100
AcDbDimension
  2
*D21
 10
-47.498585
 20
-32.0
 30
0.0
 11
-50.498585
 21
0.0
 31
0.0
 70
    32
 71
     5
 42
-1.0
  3
STANDARD
100
AcDbAlignedDimension
 13
-37.5
 23
32.0
 33
0.0
 14
-37.5
 24
-32.0
 34
0.0
 50
90.0
100
AcDbRotatedDimension
  0
DIMENSION
  5
43A2
330
1E
100
AcDbEntity
  8
30
  6
Continuous
100
AcDbDimension
  2
*D22
 10
184.393649
 20
-89.69589
 30
0.0
 11
210.443637
 21
-86.69589
 31
0.0
 70
    32
 71
     5
 42
-1.0
  3
STANDARD
100
AcDbAlignedDimension
 13
236.4936249999999
 23
-59.0
 33
0.0
 14
184.393649
 24
-79.690217
 34
0.0
100
AcDbRotatedDimension
  0
DIMENSION
  5
43CA
330
1E
100
AcDbEntity
  8
30
  6
Continuous
100
AcDbDimension
  2
*D23
 10
60.336812
 20
-305.0
 30
0.0
 11
57.336812
 21
-250.0
 31
0.0
 70
    32
 71
     5
 42
-1.0
  3
STANDARD
100
AcDbAlignedDimension
 13
46.267591
 23
-195.0
 33
0.0
 14
25.0
 24
-305.0
 34
0.0
 50
90.0
100
AcDbRotatedDimension
  0
LINE
  5
43E6
330
1E
100
AcDbEntity
  8
22
  6
DASHDOT
100
AcDbLine
 10
-35.735032
 20
-195.0
 30
0.0
 11
36.339602
 21
-195.0
 31
0.0
  0
LINE
  5
43EE
330
1E
100
AcDbEntity
  8
22
  6
DASHDOT
100
AcDbLine
 10
25.0
 20
-205.0
 30
0.0
 11
25.0
 21
-183.4756159999999
 31
0.0
  0
LINE
  5
4401
330
1E
100
AcDbEntity
  8
22
  6
DASHDOT
100
AcDbLine
 10
-25.0
 20
-205.0
 30
0.0
 11
-25.0
 21
-183.4756159999999
 31
0.0
  0
LINE
  5
440C
330
1E
100
AcDbEntity
  8
22
  6
DASHDOT
100
AcDbLine
 10
25.0
 20
-315.5
 30
0.0
 11
25.0
 21
-293.9756159999999
 31
0.0
  0
LINE
  5
440D
330
1E
100
AcDbEntity
  8
22
  6
DASHDOT
100
AcDbLine
 10
-35.735032
 20
-305.0
 30
0.0
 11
36.339602
 21
-305.0
 31
0.0
  0
LINE
  5
440E
330
1E
100
AcDbEntity
  8
22
  6
DASHDOT
100
AcDbLine
 10
-25.0
 20
-315.5
 30
0.0
 11
-25.0
 21
-293.9756159999999
 31
0.0
  0
TEXT
  5
453B
330
1E
100
AcDbEntity
  8
19
  6
Continuous
100
AcDbText
 10
130.635132
 20
215.908429
 30
0.0
 40
5.0
  1
(60-100A)
  7
STANDARD1
100
AcDbText
  0
TEXT
  5
453C
330
1E
100
AcDbEntity
  8
19
  6
Continuous
100
AcDbText
 10
130.635132
 20
224.6160779999999
 30
0.0
 40
5.0
  1
XE100NS 3P RC
  7
STANDARD1
100
AcDbText
  0
TEXT
  5
465E
330
1E
100
AcDbEntity
  8
19
  6
Continuous
100
AcDbText
 10
130.635132
 20
184.374937
 30
0.0
 40
5.0
  1
XM100CS 3P RC
  7
STANDARD1
100
AcDbText
  0
VIEWPORT
  5
9AC
330
1A
100
AcDbEntity
 67
     1
  8
0
  6
Continuous
100
AcDbViewport
 10
171.999535
 20
144.1384739999999
 30
0.0
 40
488.867686
 41
292.351491
 68
    -1
 69
     1
 12
171.999535
 22
144.1384739999999
 13
0.0
 23
0.0
 14
10.0
 24
10.0
 15
10.0
 25
10.0
 16
0.0
 26
0.0
 36
1.0
 17
0.0
 27
0.0
 37
0.0
 42
50.0
 43
0.0
 44
0.0
 45
292.351491
 50
0.0
 51
0.0
 72
   100
 90
    32800
  1

281
     0
 71
     1
 74
     0
110
0.0
120
0.0
130
0.0
111
1.0
121
0.0
131
0.0
112
0.0
122
1.0
132
0.0
 79
     0
146
0.0
  0
ENDSEC
  0
SECTION
  2
OBJECTS
  0
DICTIONARY
  5
C
330
0
100
AcDbDictionary
281
     1
  3
ACAD_GROUP
350
D
  3
ACAD_LAYOUT
350
19
  3
ACAD_MLINESTYLE
350
16
  3
ACAD_PLOTSETTINGS
350
18
  3
ACAD_PLOTSTYLENAME
350
E
  0
DICTIONARY
  5
178
330
1E
100
AcDbDictionary
280
     1
281
     1
  3
ACAD_LAYOUTSELFREF
360
46F1
  0
DICTIONARY
  5
17A
330
1A
100
AcDbDictionary
280
     1
281
     1
  3
ACAD_LAYOUTSELFREF
360
46F0
  0
DICTIONARY
  5
D
102
{ACAD_REACTORS
330
C
102
}
330
C
100
AcDbDictionary
281
     1
  0
DICTIONARY
  5
19
102
{ACAD_REACTORS
330
C
102
}
330
C
100
AcDbDictionary
281
     1
  3
MODEL
350
21
  3
ﾚｲｱｳﾄ1
350
1D
  0
DICTIONARY
  5
16
102
{ACAD_REACTORS
330
C
102
}
330
C
100
AcDbDictionary
281
     1
  3
STANDARD
350
17
  0
DICTIONARY
  5
18
102
{ACAD_REACTORS
330
C
102
}
330
C
100
AcDbDictionary
281
     1
  0
ACDBDICTIONARYWDFLT
  5
E
102
{ACAD_REACTORS
330
C
102
}
330
C
100
AcDbDictionary
281
     1
  3
Normal
350
F
100
AcDbDictionaryWithDefault
340
F
  0
XRECORD
  5
46F1
102
{ACAD_REACTORS
330
178
102
}
330
178
100
AcDbXrecord
280
     1
340
1E
  0
XRECORD
  5
46F0
102
{ACAD_REACTORS
330
17A
102
}
330
17A
100
AcDbXrecord
280
     1
340
1A
  0
LAYOUT
  5
21
102
{ACAD_REACTORS
330
19
102
}
330
19
100
AcDbPlotSettings
  1

  2
EPSON LP-8300
  4
A4
  6
OLE1
 40
5.873749732971191
 41
5.873747825622558
 42
5.873748779296875
 43
5.873748779296875
 44
209.9733276367187
 45
297.0106506347656
 46
17.01999999999999
 47
0.0
 48
0.0
 49
0.0
140
0.0
141
0.0
142
1.0
143
2.210126235963727
 70
 11956
 72
     1
 73
     0
 74
     1
  7
KIKI.ctb
 75
     0
147
0.4524628429488551
148
87.39482468523556
149
331.5522972732728
100
AcDbLayout
  1
Model
 70
     1
 71
     0
 10
0.0
 20
0.0
 11
12.0
 21
9.0
 12
0.0
 22
0.0
 32
0.0
 14
0.0
 24
0.0
 34
0.0
 15
0.0
 25
0.0
 35
0.0
146
0.0
 13
0.0
 23
0.0
 33
0.0
 16
1.0
 26
0.0
 36
0.0
 17
0.0
 27
1.0
 37
0.0
 76
     0
330
1E
  0
LAYOUT
  5
1D
102
{ACAD_REACTORS
330
19
102
}
330
19
100
AcDbPlotSettings
  1

  2
EPSON LP-8300
  4
A4
  6

 40
5.873749732971191
 41
5.873747825622558
 42
5.873748779296875
 43
5.873748779296875
 44
297.0106506347656
 45
209.9733276367187
 46
0.0
 47
0.0
 48
0.0
 49
0.0
140
0.0
141
0.0
142
1.0
143
1.0
 70
   672
 72
     1
 73
     1
 74
     5
  7
MCCB.ctb
 75
     0
147
1.0
148
0.0
149
0.0
100
AcDbLayout
  1
ﾚｲｱｳﾄ1
 70
     1
 71
     1
 10
-5.873749
 20
-5.87375
 11
204.099579
 21
291.1369009999999
 12
0.0
 22
0.0
 32
0.0
 14
4.273573
 24
5.205245999999999
 34
0.0
 15
194.610095
 25
283.0697009999999
 35
0.0
146
0.0
 13
0.0
 23
0.0
 33
0.0
 16
1.0
 26
0.0
 36
0.0
 17
0.0
 27
1.0
 37
0.0
 76
     0
330
1A
331
9AC
  0
MLINESTYLE
  5
17
102
{ACAD_REACTORS
330
16
102
}
330
16
100
AcDbMlineStyle
  2
STANDARD
 70
     0
  3

 62
   256
 51
90.0
 52
90.0
 71
     2
 49
0.5
 62
   256
  6
BYLAYER
 49
-0.5
 62
   256
  6
BYLAYER
  0
ACDBPLACEHOLDER
  5
F
102
{ACAD_REACTORS
330
E
102
}
330
E
  0
ENDSEC
  0
EOF
