  0
SECTION
  2
HEADER
  9
$ACADVER
  1
AC1027
  9
$ACADMAINTVER
 70
    55
  9
$DWGCODEPAGE
  3
ANSI_932
  9
$LASTSAVEDBY
  1
marketing
  9
$REQUIREDVERSIONS
160
                 0
  9
$INSBASE
 10
0.0
 20
0.0
 30
0.0
  9
$EXTMIN
 10
-83.96411608460175
 20
-359.8937837713706
 30
-0.0000000349181948
  9
$EXTMAX
 10
298.1391641800669
 20
280.2548651933869
 30
0.0000000814935747
  9
$LIMMIN
 10
-296.316999476111
 20
-370.7034300441653
  9
$LIMMAX
 10
623.3128432133979
 20
328.6261559379898
  9
$ORTHOMODE
 70
     0
  9
$REGENMODE
 70
     1
  9
$FILLMODE
 70
     1
  9
$QTEXTMODE
 70
     0
  9
$MIRRTEXT
 70
     1
  9
$LTSCALE
 40
10.0
  9
$ATTMODE
 70
     1
  9
$TEXTSIZE
 40
5.0
  9
$TRACEWID
 40
0.05
  9
$TEXTSTYLE
  7
STANDARD1
  9
$CLAYER
  8
30
  9
$CELTYPE
  6
CONTINUOUS
  9
$CECOLOR
 62
   256
  9
$CELTSCALE
 40
1.0
  9
$DISPSILH
 70
     0
  9
$DIMSCALE
 40
1.0
  9
$DIMASZ
 40
2.0
  9
$DIMEXO
 40
1.0
  9
$DIMDLI
 40
0.5
  9
$DIMRND
 40
0.0
  9
$DIMDLE
 40
0.0
  9
$DIMEXE
 40
0.5
  9
$DIMTP
 40
0.0
  9
$DIMTM
 40
0.0
  9
$DIMTXT
 40
4.0
  9
$DIMCEN
 40
0.09
  9
$DIMTSZ
 40
0.0
  9
$DIMTOL
 70
     0
  9
$DIMLIM
 70
     0
  9
$DIMTIH
 70
     0
  9
$DIMTOH
 70
     1
  9
$DIMSE1
 70
     0
  9
$DIMSE2
 70
     0
  9
$DIMTAD
 70
     3
  9
$DIMZIN
 70
    12
  9
$DIMBLK
  1
OPEN
  9
$DIMASO
 70
     1
  9
$DIMSHO
 70
     1
  9
$DIMPOST
  1

  9
$DIMAPOST
  1

  9
$DIMALT
 70
     0
  9
$DIMALTD
 70
     2
  9
$DIMALTF
 40
25.4
  9
$DIMLFAC
 40
1.0
  9
$DIMTOFL
 70
     0
  9
$DIMTVP
 40
0.0
  9
$DIMTIX
 70
     0
  9
$DIMSOXD
 70
     0
  9
$DIMSAH
 70
     0
  9
$DIMBLK1
  1

  9
$DIMBLK2
  1

  9
$DIMSTYLE
  2
STANDARD
  9
$DIMCLRD
 70
     0
  9
$DIMCLRE
 70
     0
  9
$DIMCLRT
 70
     0
  9
$DIMTFAC
 40
1.0
  9
$DIMGAP
 40
1.0
  9
$DIMJUST
 70
     0
  9
$DIMSD1
 70
     0
  9
$DIMSD2
 70
     0
  9
$DIMTOLJ
 70
     1
  9
$DIMTZIN
 70
     0
  9
$DIMALTZ
 70
     0
  9
$DIMALTTZ
 70
     0
  9
$DIMUPT
 70
     0
  9
$DIMDEC
 70
     1
  9
$DIMTDEC
 70
     1
  9
$DIMALTU
 70
     2
  9
$DIMALTTD
 70
     2
  9
$DIMTXSTY
  7
STANDARD
  9
$DIMAUNIT
 70
     0
  9
$DIMADEC
 70
     0
  9
$DIMALTRND
 40
0.0
  9
$DIMAZIN
 70
     3
  9
$DIMDSEP
 70
    46
  9
$DIMATFIT
 70
     3
  9
$DIMFRAC
 70
     0
  9
$DIMLDRBLK
  1
OPEN
  9
$DIMLUNIT
 70
     2
  9
$DIMLWD
 70
    -2
  9
$DIMLWE
 70
    -2
  9
$DIMTMOVE
 70
     0
  9
$DIMFXL
 40
1.0
  9
$DIMFXLON
 70
     0
  9
$DIMJOGANG
 40
0.7853981633974483
  9
$DIMTFILL
 70
     0
  9
$DIMTFILLCLR
 70
     0
  9
$DIMARCSYM
 70
     0
  9
$DIMLTYPE
  6

  9
$DIMLTEX1
  6

  9
$DIMLTEX2
  6

  9
$DIMTXTDIRECTION
 70
     0
  9
$LUNITS
 70
     2
  9
$LUPREC
 70
     4
  9
$SKETCHINC
 40
0.1
  9
$FILLETRAD
 40
0.0
  9
$AUNITS
 70
     0
  9
$AUPREC
 70
     0
  9
$MENU
  1
.
  9
$ELEVATION
 40
0.0
  9
$PELEVATION
 40
0.0
  9
$THICKNESS
 40
0.0
  9
$LIMCHECK
 70
     0
  9
$CHAMFERA
 40
0.0
  9
$CHAMFERB
 40
0.0
  9
$CHAMFERC
 40
0.0
  9
$CHAMFERD
 40
0.0
  9
$SKPOLY
 70
     0
  9
$TDCREATE
 40
2452286.555658658
  9
$TDUCREATE
 40
2452286.180658658
  9
$TDUPDATE
 40
2459278.603689849
  9
$TDUUPDATE
 40
2459278.228689850
  9
$TDINDWG
 40
1.2358404861
  9
$TDUSRTIMER
 40
1.2358389931
  9
$USRTIMER
 70
     1
  9
$ANGBASE
 50
0.0
  9
$ANGDIR
 70
     0
  9
$PDMODE
 70
     0
  9
$PDSIZE
 40
0.0
  9
$PLINEWID
 40
0.0
  9
$SPLFRAME
 70
     0
  9
$SPLINETYPE
 70
     6
  9
$SPLINESEGS
 70
     8
  9
$HANDSEED
  5
68C5
  9
$SURFTAB1
 70
     6
  9
$SURFTAB2
 70
     6
  9
$SURFTYPE
 70
     6
  9
$SURFU
 70
     6
  9
$SURFV
 70
     6
  9
$UCSBASE
  2

  9
$UCSNAME
  2

  9
$UCSORG
 10
0.0
 20
0.0
 30
0.0
  9
$UCSXDIR
 10
1.0
 20
0.0
 30
0.0
  9
$UCSYDIR
 10
0.0
 20
1.0
 30
0.0
  9
$UCSORTHOREF
  2

  9
$UCSORTHOVIEW
 70
     0
  9
$UCSORGTOP
 10
0.0
 20
0.0
 30
0.0
  9
$UCSORGBOTTOM
 10
0.0
 20
0.0
 30
0.0
  9
$UCSORGLEFT
 10
0.0
 20
0.0
 30
0.0
  9
$UCSORGRIGHT
 10
0.0
 20
0.0
 30
0.0
  9
$UCSORGFRONT
 10
0.0
 20
0.0
 30
0.0
  9
$UCSORGBACK
 10
0.0
 20
0.0
 30
0.0
  9
$PUCSBASE
  2

  9
$PUCSNAME
  2

  9
$PUCSORG
 10
0.0
 20
0.0
 30
0.0
  9
$PUCSXDIR
 10
1.0
 20
0.0
 30
0.0
  9
$PUCSYDIR
 10
0.0
 20
1.0
 30
0.0
  9
$PUCSORTHOREF
  2

  9
$PUCSORTHOVIEW
 70
     0
  9
$PUCSORGTOP
 10
0.0
 20
0.0
 30
0.0
  9
$PUCSORGBOTTOM
 10
0.0
 20
0.0
 30
0.0
  9
$PUCSORGLEFT
 10
0.0
 20
0.0
 30
0.0
  9
$PUCSORGRIGHT
 10
0.0
 20
0.0
 30
0.0
  9
$PUCSORGFRONT
 10
0.0
 20
0.0
 30
0.0
  9
$PUCSORGBACK
 10
0.0
 20
0.0
 30
0.0
  9
$USERI1
 70
     0
  9
$USERI2
 70
     0
  9
$USERI3
 70
     0
  9
$USERI4
 70
     0
  9
$USERI5
 70
     0
  9
$USERR1
 40
0.0
  9
$USERR2
 40
0.0
  9
$USERR3
 40
0.0
  9
$USERR4
 40
0.0
  9
$USERR5
 40
0.0
  9
$WORLDVIEW
 70
     1
  9
$SHADEDGE
 70
     3
  9
$SHADEDIF
 70
    70
  9
$TILEMODE
 70
     1
  9
$MAXACTVP
 70
    48
  9
$PINSBASE
 10
0.0
 20
0.0
 30
0.0
  9
$PLIMCHECK
 70
     0
  9
$PEXTMIN
 10
4.273573
 20
5.205245999999998
 30
0.0
  9
$PEXTMAX
 10
194.610095
 20
283.0697009999996
 30
0.0
  9
$PLIMMIN
 10
-5.873749
 20
-5.87375
  9
$PLIMMAX
 10
204.099579
 20
291.1369009999999
  9
$UNITMODE
 70
     0
  9
$VISRETAIN
 70
     1
  9
$PLINEGEN
 70
     0
  9
$PSLTSCALE
 70
     1
  9
$TREEDEPTH
 70
  3020
  9
$CMLSTYLE
  2
STANDARD
  9
$CMLJUST
 70
     0
  9
$CMLSCALE
 40
1.0
  9
$PROXYGRAPHICS
 70
     1
  9
$MEASUREMENT
 70
     0
  9
$CELWEIGHT
370
    -1
  9
$ENDCAPS
280
     0
  9
$JOINSTYLE
280
     0
  9
$LWDISPLAY
290
     0
  9
$INSUNITS
 70
     0
  9
$HYPERLINKBASE
  1

  9
$STYLESHEET
  1
MONOCHROME.CTB
  9
$XEDIT
290
     1
  9
$CEPSNTYPE
380
     0
  9
$PSTYLEMODE
290
     1
  9
$FINGERPRINTGUID
  2

  9
$VERSIONGUID
  2
{041931B5-FB3C-4C79-ABF5-31021CA1C1D2}
  9
$EXTNAMES
290
     1
  9
$PSVPSCALE
 40
0.0
  9
$OLESTARTUP
290
     0
  9
$SORTENTS
280
   127
  9
$INDEXCTL
280
     0
  9
$HIDETEXT
280
     0
  9
$XCLIPFRAME
280
     2
  9
$HALOGAP
280
     0
  9
$OBSCOLOR
 70
   257
  9
$OBSLTYPE
280
     0
  9
$INTERSECTIONDISPLAY
280
     0
  9
$INTERSECTIONCOLOR
 70
   257
  9
$DIMASSOC
280
     1
  9
$PROJECTNAME
  1

  9
$CAMERADISPLAY
290
     0
  9
$LENSLENGTH
 40
50.0
  9
$CAMERAHEIGHT
 40
0.0
  9
$STEPSPERSEC
 40
2.0
  9
$STEPSIZE
 40
6.0
  9
$3DDWFPREC
 40
2.0
  9
$PSOLWIDTH
 40
0.25
  9
$PSOLHEIGHT
 40
4.0
  9
$LOFTANG1
 40
1.570796326794896
  9
$LOFTANG2
 40
1.570796326794896
  9
$LOFTMAG1
 40
0.0
  9
$LOFTMAG2
 40
0.0
  9
$LOFTPARAM
 70
     7
  9
$LOFTNORMALS
280
     1
  9
$LATITUDE
 40
37.795
  9
$LONGITUDE
 40
-122.394
  9
$NORTHDIRECTION
 40
0.0
  9
$TIMEZONE
 70
 -8000
  9
$LIGHTGLYPHDISPLAY
280
     1
  9
$TILEMODELIGHTSYNCH
280
     1
  9
$CMATERIAL
347
6665
  9
$SOLIDHIST
280
     0
  9
$SHOWHIST
280
     1
  9
$DWFFRAME
280
     2
  9
$DGNFRAME
280
     0
  9
$REALWORLDSCALE
290
     1
  9
$INTERFERECOLOR
 62
     1
  9
$INTERFEREOBJVS
345
6687
  9
$INTERFEREVPVS
346
6684
  9
$CSHADOW
280
     0
  9
$SHADOWPLANELOCATION
 40
0.0
  0
ENDSEC
  0
SECTION
  2
CLASSES
  0
CLASS
  1
ACDBDICTIONARYWDFLT
  2
AcDbDictionaryWithDefault
  3
ObjectDBX Classes
 90
        0
 91
        1
280
     0
281
     0
  0
CLASS
  1
DICTIONARYVAR
  2
AcDbDictionaryVar
  3
ObjectDBX Classes
 90
        0
 91
       13
280
     0
281
     0
  0
CLASS
  1
MATERIAL
  2
AcDbMaterial
  3
ObjectDBX Classes
 90
     1153
 91
        3
280
     0
281
     0
  0
CLASS
  1
VISUALSTYLE
  2
AcDbVisualStyle
  3
ObjectDBX Classes
 90
     4095
 91
       24
280
     0
281
     0
  0
CLASS
  1
TABLESTYLE
  2
AcDbTableStyle
  3
ObjectDBX Classes
 90
     4095
 91
        1
280
     0
281
     0
  0
CLASS
  1
SCALE
  2
AcDbScale
  3
ObjectDBX Classes
 90
     1153
 91
       17
280
     0
281
     0
  0
CLASS
  1
MLEADERSTYLE
  2
AcDbMLeaderStyle
  3
ACDB_MLEADERSTYLE_CLASS
 90
     4095
 91
        1
280
     0
281
     0
  0
CLASS
  1
ACDBSECTIONVIEWSTYLE
  2
AcDbSectionViewStyle
  3
ObjectDBX Classes
 90
     1025
 91
        1
280
     0
281
     0
  0
CLASS
  1
ACDBDETAILVIEWSTYLE
  2
AcDbDetailViewStyle
  3
ObjectDBX Classes
 90
     1025
 91
        1
280
     0
281
     0
  0
CLASS
  1
CELLSTYLEMAP
  2
AcDbCellStyleMap
  3
ObjectDBX Classes
 90
     1152
 91
        2
280
     0
281
     0
  0
ENDSEC
  0
SECTION
  2
TABLES
  0
TABLE
  2
VPORT
  5
8
330
0
100
AcDbSymbolTable
 70
     1
  0
VPORT
  5
665C
330
8
100
AcDbSymbolTableRecord
100
AcDbViewportTableRecord
  2
*Active
 70
     0
 10
0.0
 20
0.0
 11
1.0
 21
1.0
 12
107.0875240477326
 22
-39.81945928899188
 13
0.0
 23
0.0
 14
1.0
 24
1.0
 15
10.0
 25
10.0
 16
0.0
 26
0.0
 36
1.0
 17
0.0
 27
0.0
 37
0.0
 40
644.7762295596834
 41
2.289505428226779
 42
50.0
 43
0.0
 44
0.0
 50
0.0
 51
0.0
 71
     0
 72
   100
 73
     1
 74
     1
 75
     0
 76
     0
 77
     0
 78
     0
281
     0
 65
     1
110
0.0
120
0.0
130
0.0
111
1.0
121
0.0
131
0.0
112
0.0
122
1.0
132
0.0
 79
     0
146
0.0
348
6683
 60
     3
 61
     5
292
     1
282
     1
141
0.0
142
0.0
 63
   250
421
  3355443
1001
ACAD_NAV_VCDISPLAY
1070
     3
  0
ENDTAB
  0
TABLE
  2
LTYPE
  5
5
330
0
100
AcDbSymbolTable
 70
     6
  0
LTYPE
  5
13
330
5
100
AcDbSymbolTableRecord
100
AcDbLinetypeTableRecord
  2
BYBLOCK
 70
     0
  3

 72
    65
 73
     0
 40
0.0
  0
LTYPE
  5
14
330
5
100
AcDbSymbolTableRecord
100
AcDbLinetypeTableRecord
  2
BYLAYER
 70
     0
  3

 72
    65
 73
     0
 40
0.0
  0
LTYPE
  5
15
330
5
100
AcDbSymbolTableRecord
100
AcDbLinetypeTableRecord
  2
CONTINUOUS
 70
     0
  3
Solid line
 72
    65
 73
     0
 40
0.0
  0
LTYPE
  5
22
330
5
100
AcDbSymbolTableRecord
100
AcDbLinetypeTableRecord
  2
CONTINOUS
 70
     0
  3
Solid line
 72
    65
 73
     0
 40
0.0
  0
LTYPE
  5
23
330
5
100
AcDbSymbolTableRecord
100
AcDbLinetypeTableRecord
  2
DASHED
 70
     0
  3
__ __ __ __ __ __ __ __ __ __ __ __ __ __ __
 72
    65
 73
     2
 40
0.75
 49
0.5
 74
     0
 49
-0.25
 74
     0
  0
LTYPE
  5
24
330
5
100
AcDbSymbolTableRecord
100
AcDbLinetypeTableRecord
  2
DASHDOT
 70
     0
  3
__ . __ . __ . __ . __ . __ . __ . __ . __ . __
 72
    65
 73
     4
 40
1.0
 49
0.5
 74
     0
 49
-0.25
 74
     0
 49
0.0
 74
     0
 49
-0.25
 74
     0
  0
LTYPE
  5
4C47
330
5
100
AcDbSymbolTableRecord
100
AcDbLinetypeTableRecord
  2
DIVIDE
 70
     0
  3
Divide ____ . . ____ . . ____ . . ____ . . ____
 72
    65
 73
     6
 40
1.25
 49
0.5
 74
     0
 49
-0.25
 74
     0
 49
0.0
 74
     0
 49
-0.25
 74
     0
 49
0.0
 74
     0
 49
-0.25
 74
     0
  0
ENDTAB
  0
TABLE
  2
LAYER
  5
2
330
0
100
AcDbSymbolTable
 70
    13
  0
LAYER
  5
10
102
{ACAD_XDICTIONARY
360
6846
102
}
330
2
100
AcDbSymbolTableRecord
100
AcDbLayerTableRecord
  2
0
 70
     0
 62
     7
  6
CONTINOUS
370
    -3
390
F
347
6675
348
0
  0
LAYER
  5
2F
102
{ACAD_XDICTIONARY
360
6848
102
}
330
2
100
AcDbSymbolTableRecord
100
AcDbLayerTableRecord
  2
10
 70
     0
 62
     4
  6
CONTINOUS
370
    -3
390
F
347
6675
348
0
  0
LAYER
  5
31
102
{ACAD_XDICTIONARY
360
684A
102
}
330
2
100
AcDbSymbolTableRecord
100
AcDbLayerTableRecord
  2
12
 70
     0
 62
     3
  6
CONTINOUS
370
    -3
390
F
347
6675
348
0
  0
LAYER
  5
35
102
{ACAD_XDICTIONARY
360
684C
102
}
330
2
100
AcDbSymbolTableRecord
100
AcDbLayerTableRecord
  2
16
 70
     0
 62
     6
  6
DASHDOT
370
    -3
390
F
347
6675
348
0
  0
LAYER
  5
38
102
{ACAD_XDICTIONARY
360
684E
102
}
330
2
100
AcDbSymbolTableRecord
100
AcDbLayerTableRecord
  2
19
 70
     0
 62
     7
  6
CONTINOUS
370
    -3
390
F
347
6675
348
0
  0
LAYER
  5
3C
102
{ACAD_XDICTIONARY
360
6850
102
}
330
2
100
AcDbSymbolTableRecord
100
AcDbLayerTableRecord
  2
11
 70
     0
 62
     1
  6
CONTINOUS
370
    -3
390
F
347
6675
348
0
  0
LAYER
  5
3D
102
{ACAD_XDICTIONARY
360
6852
102
}
330
2
100
AcDbSymbolTableRecord
100
AcDbLayerTableRecord
  2
24
 70
     0
 62
     2
  6
CONTINOUS
370
    -3
390
F
347
6675
348
0
  0
LAYER
  5
3A2
102
{ACAD_XDICTIONARY
360
6854
102
}
330
2
100
AcDbSymbolTableRecord
100
AcDbLayerTableRecord
  2
30
 70
     0
 62
     9
  6
CONTINUOUS
370
    -3
390
F
347
6675
348
0
  0
LAYER
  5
3A4
330
2
100
AcDbSymbolTableRecord
100
AcDbLayerTableRecord
  2
DEFPOINTS
 70
     0
 62
     7
  6
CONTINUOUS
290
     0
370
    -3
390
F
347
6675
348
0
  0
LAYER
  5
3BBA
102
{ACAD_XDICTIONARY
360
6856
102
}
330
2
100
AcDbSymbolTableRecord
100
AcDbLayerTableRecord
  2
18
 70
     0
 62
     5
  6
DIVIDE
370
    -3
390
F
347
6675
348
0
  0
LAYER
  5
5116
102
{ACAD_XDICTIONARY
360
6858
102
}
330
2
100
AcDbSymbolTableRecord
100
AcDbLayerTableRecord
  2
1
 70
     0
 62
     7
  6
CONTINUOUS
370
    -3
390
F
347
6675
348
0
  0
LAYER
  5
5117
102
{ACAD_XDICTIONARY
360
685A
102
}
330
2
100
AcDbSymbolTableRecord
100
AcDbLayerTableRecord
  2
TOP
 70
     0
 62
     7
  6
CONTINUOUS
370
    -3
390
F
347
6675
348
0
  0
LAYER
  5
5C47
102
{ACAD_XDICTIONARY
360
685C
102
}
330
2
100
AcDbSymbolTableRecord
100
AcDbLayerTableRecord
  2
17
 70
     0
 62
     2
  6
DASHDOT
370
    -3
390
F
347
6675
348
0
  0
ENDTAB
  0
TABLE
  2
STYLE
  5
3
330
0
100
AcDbSymbolTable
 70
     3
  0
STYLE
  5
11
330
3
100
AcDbSymbolTableRecord
100
AcDbTextStyleTableRecord
  2
STANDARD
 70
     0
 40
0.0
 41
1.0
 50
0.0
 71
     0
 42
2.0
  3
txt.shx
  4
bigfont.shx
  0
STYLE
  5
42
330
3
100
AcDbSymbolTableRecord
100
AcDbTextStyleTableRecord
  2
STANDARD1
 70
     0
 40
0.0
 41
1.0
 50
0.0
 71
     0
 42
5.0
  3
MONOTXT
  4
BIGFONT
  0
STYLE
  5
5016
330
3
100
AcDbSymbolTableRecord
100
AcDbTextStyleTableRecord
  2
UGMTXT
 70
     0
 40
0.0
 41
1.0
 50
0.0
 71
     0
 42
0.2
  3
ugmtxt
  4
bigfont
  0
ENDTAB
  0
TABLE
  2
VIEW
  5
6
330
0
100
AcDbSymbolTable
 70
     3
  0
VIEW
  5
230C
330
6
100
AcDbSymbolTableRecord
100
AcDbViewTableRecord
  2
OLE1
 70
     0
 40
148.912488
 10
429.497628
 20
2.560627
 41
103.145806
 11
0.0
 21
0.0
 31
1.0
 12
0.0
 22
0.0
 32
0.0
 42
50.0
 43
0.0
 44
0.0
 50
0.0
 71
     0
281
     0
 72
     0
 73
     0
348
6683
  0
VIEW
  5
230E
330
6
100
AcDbSymbolTableRecord
100
AcDbViewTableRecord
  2
OLE2
 70
     0
 40
170.778692
 10
322.66497
 20
-5.978304
 41
102.467215
 11
0.0
 21
0.0
 31
1.0
 12
0.0
 22
0.0
 32
0.0
 42
50.0
 43
0.0
 44
0.0
 50
0.0
 71
     0
281
     0
 72
     0
 73
     0
348
6683
  0
VIEW
  5
23AA
330
6
100
AcDbSymbolTableRecord
100
AcDbViewTableRecord
  2
OLE3
 70
     0
 40
591.7897389999998
 10
84.79698199999999
 20
-46.09335999999998
 41
388.792096
 11
0.0
 21
0.0
 31
1.0
 12
0.0
 22
0.0
 32
0.0
 42
50.0
 43
0.0
 44
0.0
 50
0.0
 71
     0
281
     0
 72
     0
 73
     0
348
6683
  0
ENDTAB
  0
TABLE
  2
UCS
  5
7
330
0
100
AcDbSymbolTable
 70
     0
  0
ENDTAB
  0
TABLE
  2
APPID
  5
9
330
0
100
AcDbSymbolTable
 70
     6
  0
APPID
  5
12
330
9
100
AcDbSymbolTableRecord
100
AcDbRegAppTableRecord
  2
ACAD
 70
     0
  0
APPID
  5
ECD
330
9
100
AcDbSymbolTableRecord
100
AcDbRegAppTableRecord
  2
CONTENTBLOCKICON
 70
     0
  0
APPID
  5
66B3
330
9
100
AcDbSymbolTableRecord
100
AcDbRegAppTableRecord
  2
ACAD_NAV_VCDISPLAY
 70
     0
  0
APPID
  5
6716
330
9
100
AcDbSymbolTableRecord
100
AcDbRegAppTableRecord
  2
ACAD_PSEXT
 70
     0
  0
APPID
  5
683D
330
9
100
AcDbSymbolTableRecord
100
AcDbRegAppTableRecord
  2
ACAD_EXEMPT_FROM_CAD_STANDARDS
 70
     0
  0
APPID
  5
68AD
330
9
100
AcDbSymbolTableRecord
100
AcDbRegAppTableRecord
  2
ACAD_MLEADERVER
 70
     0
  0
ENDTAB
  0
TABLE
  2
DIMSTYLE
  5
A
330
0
100
AcDbSymbolTable
 70
     1
100
AcDbDimStyleTable
 71
     1
340
175
  0
DIMSTYLE
105
175
102
{ACAD_REACTORS
330
59D1
330
59D0
330
59B9
330
59D2
330
59C6
330
59BE
330
59FD
330
59F0
330
5C77
330
59BB
330
59BA
330
5E29
330
5E42
330
5E41
330
5E2A
330
5EF0
330
6116
330
614A
330
6157
330
6398
330
6472
330
647E
330
646C
330
678B
330
679B
330
679C
330
679D
330
679E
330
6789
330
678A
102
}
330
A
100
AcDbSymbolTableRecord
100
AcDbDimStyleTableRecord
  2
STANDARD
 70
     0
 41
2.0
 42
1.0
 43
0.5
 44
0.5
 73
     0
 77
     3
 78
    12
140
4.0
147
1.0
271
     1
272
     1
340
11
341
3B2
342
3B2
  0
ENDTAB
  0
TABLE
  2
BLOCK_RECORD
  5
1
330
0
100
AcDbSymbolTable
 70
    43
  0
BLOCK_RECORD
  5
1E
102
{ACAD_XDICTIONARY
360
178
102
}
330
1
100
AcDbSymbolTableRecord
100
AcDbBlockTableRecord
  2
*MODEL_SPACE
340
6656
 70
     0
280
     1
281
     0
  0
BLOCK_RECORD
  5
1A
102
{ACAD_XDICTIONARY
360
17A
102
}
330
1
100
AcDbSymbolTableRecord
100
AcDbBlockTableRecord
  2
*PAPER_SPACE
340
6657
 70
     0
280
     1
281
     0
  0
BLOCK_RECORD
  5
3B2
330
1
100
AcDbSymbolTableRecord
100
AcDbBlockTableRecord
  2
_OPEN
340
0
102
{BLKREFS
331
680A
331
680B
331
6813
331
6814
331
681C
331
681D
331
6825
331
6826
331
682E
331
682F
331
6837
331
64D1
331
64D9
331
64DA
331
66D3
331
66D4
331
66DF
331
66E0
331
66EB
331
66EC
331
66F7
331
66F8
331
64FD
331
64FE
331
6518
331
6519
331
653D
331
653E
331
6506
331
6507
331
650F
331
6510
331
6534
331
6535
331
6546
331
6547
331
6551
331
6552
331
6319
331
631A
331
6310
331
6311
331
6307
331
6801
331
6802
331
6308
331
62FE
331
62FF
331
6597
331
6598
331
6389
331
638A
331
6380
331
6381
331
6392
331
6393
331
658E
331
658F
331
62AE
331
62AF
331
62A5
331
62A6
331
652B
331
652C
331
64EB
331
64EC
331
64F4
331
64F5
331
6522
331
6523
331
6710
331
6838
331
670F
331
66C7
331
66C8
331
6703
331
6704
102
}
 70
     0
280
     1
281
     0
  0
BLOCK_RECORD
  5
58CA
330
1
100
AcDbSymbolTableRecord
100
AcDbBlockTableRecord
  2
*U1
340
0
102
{BLKREFS
331
59F3
102
}
 70
     0
280
     1
281
     0
  0
BLOCK_RECORD
  5
58CE
330
1
100
AcDbSymbolTableRecord
100
AcDbBlockTableRecord
  2
*U2
340
0
102
{BLKREFS
331
59F2
102
}
 70
     0
280
     1
281
     0
  0
BLOCK_RECORD
  5
58DE
330
1
100
AcDbSymbolTableRecord
100
AcDbBlockTableRecord
  2
*U3
340
0
102
{BLKREFS
331
59F1
102
}
 70
     0
280
     1
281
     0
  0
BLOCK_RECORD
  5
5A00
330
1
100
AcDbSymbolTableRecord
100
AcDbBlockTableRecord
  2
*D4
340
0
 70
     0
280
     1
281
     0
  0
BLOCK_RECORD
  5
5A0C
330
1
100
AcDbSymbolTableRecord
100
AcDbBlockTableRecord
  2
*D5
340
0
 70
     0
280
     1
281
     0
  0
BLOCK_RECORD
  5
5A19
330
1
100
AcDbSymbolTableRecord
100
AcDbBlockTableRecord
  2
*D6
340
0
 70
     0
280
     1
281
     0
  0
BLOCK_RECORD
  5
5A25
330
1
100
AcDbSymbolTableRecord
100
AcDbBlockTableRecord
  2
*D7
340
0
 70
     0
280
     1
281
     0
  0
BLOCK_RECORD
  5
5A31
330
1
100
AcDbSymbolTableRecord
100
AcDbBlockTableRecord
  2
*D8
340
0
 70
     0
280
     1
281
     0
  0
BLOCK_RECORD
  5
5A3D
330
1
100
AcDbSymbolTableRecord
100
AcDbBlockTableRecord
  2
*D9
340
0
 70
     0
280
     1
281
     0
  0
BLOCK_RECORD
  5
5A49
330
1
100
AcDbSymbolTableRecord
100
AcDbBlockTableRecord
  2
*D10
340
0
 70
     0
280
     1
281
     0
  0
BLOCK_RECORD
  5
5A55
330
1
100
AcDbSymbolTableRecord
100
AcDbBlockTableRecord
  2
*D11
340
0
 70
     0
280
     1
281
     0
  0
BLOCK_RECORD
  5
5A61
330
1
100
AcDbSymbolTableRecord
100
AcDbBlockTableRecord
  2
*D12
340
0
 70
     0
280
     1
281
     0
  0
BLOCK_RECORD
  5
5A6D
330
1
100
AcDbSymbolTableRecord
100
AcDbBlockTableRecord
  2
*D13
340
0
 70
     0
280
     1
281
     0
  0
BLOCK_RECORD
  5
5E7C
330
1
100
AcDbSymbolTableRecord
100
AcDbBlockTableRecord
  2
*D14
340
0
 70
     0
280
     1
281
     0
  0
BLOCK_RECORD
  5
5E88
330
1
100
AcDbSymbolTableRecord
100
AcDbBlockTableRecord
  2
*D15
340
0
 70
     0
280
     1
281
     0
  0
BLOCK_RECORD
  5
5E94
330
1
100
AcDbSymbolTableRecord
100
AcDbBlockTableRecord
  2
*D16
340
0
 70
     0
280
     1
281
     0
  0
BLOCK_RECORD
  5
5EA0
330
1
100
AcDbSymbolTableRecord
100
AcDbBlockTableRecord
  2
*D17
340
0
 70
     0
280
     1
281
     0
  0
BLOCK_RECORD
  5
5EF9
330
1
100
AcDbSymbolTableRecord
100
AcDbBlockTableRecord
  2
*D18
340
0
 70
     0
280
     1
281
     0
  0
BLOCK_RECORD
  5
5F6C
330
1
100
AcDbSymbolTableRecord
100
AcDbBlockTableRecord
  2
*D19
340
0
 70
     0
280
     1
281
     0
  0
BLOCK_RECORD
  5
5F79
330
1
100
AcDbSymbolTableRecord
100
AcDbBlockTableRecord
  2
*D20
340
0
 70
     0
280
     1
281
     0
  0
BLOCK_RECORD
  5
60FB
330
1
100
AcDbSymbolTableRecord
100
AcDbBlockTableRecord
  2
*D21
340
0
 70
     0
280
     1
281
     0
  0
BLOCK_RECORD
  5
6117
330
1
100
AcDbSymbolTableRecord
100
AcDbBlockTableRecord
  2
*D22
340
0
 70
     0
280
     1
281
     0
  0
BLOCK_RECORD
  5
614B
330
1
100
AcDbSymbolTableRecord
100
AcDbBlockTableRecord
  2
*D23
340
0
 70
     0
280
     1
281
     0
  0
BLOCK_RECORD
  5
6158
330
1
100
AcDbSymbolTableRecord
100
AcDbBlockTableRecord
  2
*D24
340
0
 70
     0
280
     1
281
     0
  0
BLOCK_RECORD
  5
6399
330
1
100
AcDbSymbolTableRecord
100
AcDbBlockTableRecord
  2
*D25
340
0
 70
     0
280
     1
281
     0
  0
BLOCK_RECORD
  5
648D
330
1
100
AcDbSymbolTableRecord
100
AcDbBlockTableRecord
  2
*D26
340
0
 70
     0
280
     1
281
     0
  0
BLOCK_RECORD
  5
6499
330
1
100
AcDbSymbolTableRecord
100
AcDbBlockTableRecord
  2
*D27
340
0
 70
     0
280
     1
281
     0
  0
BLOCK_RECORD
  5
64A4
330
1
100
AcDbSymbolTableRecord
100
AcDbBlockTableRecord
  2
*D28
340
0
 70
     0
280
     1
281
     0
  0
BLOCK_RECORD
  5
66C2
330
1
100
AcDbSymbolTableRecord
100
AcDbBlockTableRecord
  2
*D29
340
0
 70
     0
280
     1
281
     0
  0
BLOCK_RECORD
  5
66CE
330
1
100
AcDbSymbolTableRecord
100
AcDbBlockTableRecord
  2
*D30
340
0
 70
     0
280
     1
281
     0
  0
BLOCK_RECORD
  5
66DA
330
1
100
AcDbSymbolTableRecord
100
AcDbBlockTableRecord
  2
*D31
340
0
 70
     0
280
     1
281
     0
  0
BLOCK_RECORD
  5
66E6
330
1
100
AcDbSymbolTableRecord
100
AcDbBlockTableRecord
  2
*D32
340
0
 70
     0
280
     1
281
     0
  0
BLOCK_RECORD
  5
66F2
330
1
100
AcDbSymbolTableRecord
100
AcDbBlockTableRecord
  2
*D33
340
0
 70
     0
280
     1
281
     0
  0
BLOCK_RECORD
  5
66FE
330
1
100
AcDbSymbolTableRecord
100
AcDbBlockTableRecord
  2
*D34
340
0
 70
     0
280
     1
281
     0
  0
BLOCK_RECORD
  5
670A
330
1
100
AcDbSymbolTableRecord
100
AcDbBlockTableRecord
  2
*D35
340
0
 70
     0
280
     1
281
     0
  0
BLOCK_RECORD
  5
67AA
330
1
100
AcDbSymbolTableRecord
100
AcDbBlockTableRecord
  2
*D36
340
0
 70
     0
280
     1
281
     0
  0
BLOCK_RECORD
  5
67B6
330
1
100
AcDbSymbolTableRecord
100
AcDbBlockTableRecord
  2
*D37
340
0
 70
     0
280
     1
281
     0
  0
BLOCK_RECORD
  5
67C2
330
1
100
AcDbSymbolTableRecord
100
AcDbBlockTableRecord
  2
*D38
340
0
 70
     0
280
     1
281
     0
  0
BLOCK_RECORD
  5
67CE
330
1
100
AcDbSymbolTableRecord
100
AcDbBlockTableRecord
  2
*D39
340
0
 70
     0
280
     1
281
     0
  0
BLOCK_RECORD
  5
67DA
330
1
100
AcDbSymbolTableRecord
100
AcDbBlockTableRecord
  2
*D40
340
0
 70
     0
280
     1
281
     0
  0
BLOCK_RECORD
  5
67E6
330
1
100
AcDbSymbolTableRecord
100
AcDbBlockTableRecord
  2
*D41
340
0
 70
     0
280
     1
281
     0
  0
BLOCK_RECORD
  5
67F2
330
1
100
AcDbSymbolTableRecord
100
AcDbBlockTableRecord
  2
*D42
340
0
 70
     0
280
     1
281
     0
  0
ENDTAB
  0
ENDSEC
  0
SECTION
  2
BLOCKS
  0
BLOCK
  5
1F
330
1E
100
AcDbEntity
  8
0
100
AcDbBlockBegin
  2
*MODEL_SPACE
 70
     0
 10
0.0
 20
0.0
 30
0.0
  3
*MODEL_SPACE
  1

  0
ENDBLK
  5
20
330
1E
100
AcDbEntity
  8
0
100
AcDbBlockEnd
  0
BLOCK
  5
1B
330
1A
100
AcDbEntity
 67
     1
  8
0
100
AcDbBlockBegin
  2
*PAPER_SPACE
 70
     0
 10
0.0
 20
0.0
 30
0.0
  3
*PAPER_SPACE
  1

  0
ENDBLK
  5
1C
330
1A
100
AcDbEntity
 67
     1
  8
0
100
AcDbBlockEnd
  0
BLOCK
  5
3B6
330
3B2
100
AcDbEntity
  8
0
100
AcDbBlockBegin
  2
_OPEN
 70
     0
 10
0.0
 20
0.0
 30
0.0
  3
_OPEN
  1

  0
LINE
  5
3B3
330
3B2
100
AcDbEntity
  8
30
  6
Continuous
 62
     0
100
AcDbLine
 10
-1.0
 20
0.166667
 30
0.0
 11
0.0
 21
0.0
 31
0.0
  0
LINE
  5
3B4
330
3B2
100
AcDbEntity
  8
30
  6
Continuous
 62
     0
100
AcDbLine
 10
-1.0
 20
-0.166667
 30
0.0
 11
0.0
 21
0.0
 31
0.0
  0
LINE
  5
3B5
330
3B2
100
AcDbEntity
  8
30
  6
Continuous
 62
     0
100
AcDbLine
 10
0.0
 20
0.0
 30
0.0
 11
-1.0
 21
0.0
 31
0.0
  0
ENDBLK
  5
3B7
330
3B2
100
AcDbEntity
  8
0
100
AcDbBlockEnd
  0
BLOCK
  5
58CC
330
58CA
100
AcDbEntity
  8
TOP
  6
Continuous
 62
     4
100
AcDbBlockBegin
  2
*U1
 70
     1
 10
0.0
 20
0.0
 30
0.0
  3
*U1
  1

  0
TEXT
  5
58CB
330
58CA
100
AcDbEntity
  8
TOP
  6
ByBlock
 62
     0
100
AcDbText
 10
249.4949984839538
 20
103.4999999999999
 30
0.0
 40
2.500000003799998
  1
17
 41
0.78325
  7
UGMTXT
100
AcDbText
  0
ENDBLK
  5
58CD
330
58CA
100
AcDbEntity
  8
0
100
AcDbBlockEnd
  0
BLOCK
  5
58D0
330
58CE
100
AcDbEntity
  8
TOP
  6
Continuous
 62
     4
100
AcDbBlockBegin
  2
*U2
 70
     1
 10
0.0
 20
0.0
 30
0.0
  3
*U2
  1

  0
TEXT
  5
58CF
330
58CE
100
AcDbEntity
  8
TOP
  6
ByBlock
 62
     0
100
AcDbText
 10
252.6153110179847
 20
103.4999999999999
 30
0.0
 40
2.500000003799998
  1
(max.)
 41
0.7263970588235275
  7
UGMTXT
100
AcDbText
  0
ENDBLK
  5
58D1
330
58CE
100
AcDbEntity
  8
0
100
AcDbBlockEnd
  0
BLOCK
  5
58E0
330
58DE
100
AcDbEntity
  8
TOP
  6
Continuous
 62
     4
100
AcDbBlockBegin
  2
*U3
 70
     1
 10
0.0
 20
0.0
 30
0.0
  3
*U3
  1

  0
TEXT
  5
58DF
330
58DE
100
AcDbEntity
  8
TOP
  6
ByBlock
 62
     0
100
AcDbText
 10
250.6153110179847
 20
99.29999999999997
 30
0.0
 40
2.500000003799998
  1
max.t5
 41
0.7263970588235275
  7
UGMTXT
100
AcDbText
  0
ENDBLK
  5
58E1
330
58DE
100
AcDbEntity
  8
0
100
AcDbBlockEnd
  0
BLOCK
  5
5A0A
330
5A00
100
AcDbEntity
  8
0
100
AcDbBlockBegin
  2
*D4
 70
     1
 10
0.0
 20
0.0
 30
0.0
  3
*D4
  1

  0
LINE
  5
64F1
330
5A00
100
AcDbEntity
  8
30
  6
Continuous
 62
     0
440
 16777216
100
AcDbLine
 10
125.9923778520064
 20
-0.9897074468965454
 30
0.0
 11
125.9923778520064
 21
-136.7757960792594
 31
0.0
  0
LINE
  5
64F2
330
5A00
100
AcDbEntity
  8
30
  6
Continuous
 62
     0
440
 16777216
100
AcDbLine
 10
217.9923778520064
 20
-78.48970744689656
 30
0.0
 11
217.9923778520064
 21
-136.7757960792594
 31
0.0
  0
LINE
  5
64F3
330
5A00
100
AcDbEntity
  8
30
  6
Continuous
 62
     0
440
 16777216
100
AcDbLine
 10
127.9923778520065
 20
-136.2757960792595
 30
0.0
 11
215.9923778520064
 21
-136.2757960792595
 31
0.0
  0
INSERT
  5
64F4
330
5A00
100
AcDbEntity
  8
30
  6
Continuous
 62
     0
440
 16777216
100
AcDbBlockReference
  2
_OPEN
 10
125.9923778520064
 20
-136.2757960792595
 30
0.0
 41
2.0
 42
2.0
 43
2.0
 50
180.0
  0
INSERT
  5
64F5
330
5A00
100
AcDbEntity
  8
30
  6
Continuous
 62
     0
440
 16777216
100
AcDbBlockReference
  2
_OPEN
 10
217.9923778520064
 20
-136.2757960792595
 30
0.0
 41
2.0
 42
2.0
 43
2.0
  0
MTEXT
  5
64F6
330
5A00
100
AcDbEntity
  8
30
  6
Continuous
 62
     0
440
 16777216
100
AcDbMText
 10
171.9923778520064
 20
-133.2757960792595
 30
0.0
 40
4.0
 41
0.0
 46
0.0
 71
     5
 72
     1
  1
\A1;92
 73
     1
 44
1.0
1001
ACAD
1000
MTEXTBEGIN
1070
    73
1070
     1
1070
    44
1040
1.0
1070
    74
1070
     0
1000
MTEXTEND
  0
POINT
  5
64F7
330
5A00
100
AcDbEntity
  8
DEFPOINTS
  6
Continuous
 62
     0
440
 16777216
100
AcDbPoint
 10
125.9923778520064
 20
0.0102925531034544
 30
0.0
  0
POINT
  5
64F8
330
5A00
100
AcDbEntity
  8
DEFPOINTS
  6
Continuous
 62
     0
440
 16777216
100
AcDbPoint
 10
217.9923778520064
 20
-77.48970744689656
 30
0.0
  0
POINT
  5
64F9
330
5A00
100
AcDbEntity
  8
DEFPOINTS
  6
Continuous
 62
     0
440
 16777216
100
AcDbPoint
 10
217.9923778520064
 20
-136.2757960792595
 30
0.0
  0
ENDBLK
  5
5A0B
330
5A00
100
AcDbEntity
  8
0
100
AcDbBlockEnd
  0
BLOCK
  5
5A17
330
5A0C
100
AcDbEntity
  8
0
100
AcDbBlockBegin
  2
*D5
 70
     1
 10
0.0
 20
0.0
 30
0.0
  3
*D5
  1

  0
LINE
  5
651E
330
5A0C
100
AcDbEntity
  8
30
  6
Continuous
 62
     0
440
 16777216
100
AcDbLine
 10
141.9923778520064
 20
-25.98970744689655
 30
0.0
 11
141.9923778520064
 21
-122.3996550098397
 31
0.0
  0
LINE
  5
651F
330
5A0C
100
AcDbEntity
  8
30
  6
Continuous
 62
     0
440
 16777216
100
AcDbLine
 10
145.9923778520064
 20
-25.98970744689655
 30
0.0
 11
145.9923778520064
 21
-122.3996550098397
 31
0.0
  0
LINE
  5
6520
330
5A0C
100
AcDbEntity
  8
30
  6
Continuous
 62
     0
440
 16777216
100
AcDbLine
 10
139.9923778520063
 20
-121.8996550098397
 30
0.0
 11
137.9923778520063
 21
-121.8996550098397
 31
0.0
  0
LINE
  5
6521
330
5A0C
100
AcDbEntity
  8
30
  6
Continuous
 62
     0
440
 16777216
100
AcDbLine
 10
147.9923778520064
 20
-121.8996550098397
 30
0.0
 11
154.659044518673
 21
-121.8996550098397
 31
0.0
  0
INSERT
  5
6522
330
5A0C
100
AcDbEntity
  8
30
  6
Continuous
 62
     0
440
 16777216
100
AcDbBlockReference
  2
_OPEN
 10
141.9923778520064
 20
-121.8996550098397
 30
0.0
 41
2.0
 42
2.0
 43
2.0
  0
INSERT
  5
6523
330
5A0C
100
AcDbEntity
  8
30
  6
Continuous
 62
     0
440
 16777216
100
AcDbBlockReference
  2
_OPEN
 10
145.9923778520064
 20
-121.8996550098397
 30
0.0
 41
2.0
 42
2.0
 43
2.0
 50
180.0
  0
MTEXT
  5
6524
330
5A0C
100
AcDbEntity
  8
30
  6
Continuous
 62
     0
440
 16777216
100
AcDbMText
 10
152.3257111853398
 20
-118.8996550098394
 30
0.0
 40
4.0
 41
0.0
 46
0.0
 71
     5
 72
     1
  1
\A1;4
 73
     1
 44
1.0
1001
ACAD
1000
MTEXTBEGIN
1070
    73
1070
     1
1070
    44
1040
1.0
1070
    74
1070
     0
1000
MTEXTEND
  0
POINT
  5
6525
330
5A0C
100
AcDbEntity
  8
DEFPOINTS
  6
Continuous
 62
     0
440
 16777216
100
AcDbPoint
 10
141.9923778520064
 20
-24.98970744689656
 30
0.0
  0
POINT
  5
6526
330
5A0C
100
AcDbEntity
  8
DEFPOINTS
  6
Continuous
 62
     0
440
 16777216
100
AcDbPoint
 10
145.9923778520064
 20
-24.98970744689656
 30
0.0
  0
POINT
  5
6527
330
5A0C
100
AcDbEntity
  8
DEFPOINTS
  6
Continuous
 62
     0
440
 16777216
100
AcDbPoint
 10
145.9923778520064
 20
-121.8996550098397
 30
0.0
  0
ENDBLK
  5
5A18
330
5A0C
100
AcDbEntity
  8
0
100
AcDbBlockEnd
  0
BLOCK
  5
5A23
330
5A19
100
AcDbEntity
  8
0
100
AcDbBlockBegin
  2
*D6
 70
     1
 10
0.0
 20
0.0
 30
0.0
  3
*D6
  1

  0
LINE
  5
64FA
330
5A19
100
AcDbEntity
  8
30
  6
Continuous
 62
     0
440
 16777216
100
AcDbLine
 10
145.9923778520064
 20
-25.98970744689655
 30
0.0
 11
145.9923778520064
 21
-122.3996550098397
 31
0.0
  0
LINE
  5
64FB
330
5A19
100
AcDbEntity
  8
30
  6
Continuous
 62
     0
440
 16777216
100
AcDbLine
 10
217.9923778520064
 20
-78.48970744689656
 30
0.0
 11
217.9923778520064
 21
-122.3996550098397
 31
0.0
  0
LINE
  5
64FC
330
5A19
100
AcDbEntity
  8
30
  6
Continuous
 62
     0
440
 16777216
100
AcDbLine
 10
147.9923778520064
 20
-121.8996550098397
 30
0.0
 11
215.9923778520064
 21
-121.8996550098397
 31
0.0
  0
INSERT
  5
64FD
330
5A19
100
AcDbEntity
  8
30
  6
Continuous
 62
     0
440
 16777216
100
AcDbBlockReference
  2
_OPEN
 10
145.9923778520064
 20
-121.8996550098397
 30
0.0
 41
2.0
 42
2.0
 43
2.0
 50
180.0
  0
INSERT
  5
64FE
330
5A19
100
AcDbEntity
  8
30
  6
Continuous
 62
     0
440
 16777216
100
AcDbBlockReference
  2
_OPEN
 10
217.9923778520064
 20
-121.8996550098397
 30
0.0
 41
2.0
 42
2.0
 43
2.0
  0
MTEXT
  5
64FF
330
5A19
100
AcDbEntity
  8
30
  6
Continuous
 62
     0
440
 16777216
100
AcDbMText
 10
181.9923778520064
 20
-118.8996550098394
 30
0.0
 40
4.0
 41
0.0
 46
0.0
 71
     5
 72
     1
  1
\A1;72
 73
     1
 44
1.0
1001
ACAD
1000
MTEXTBEGIN
1070
    73
1070
     1
1070
    44
1040
1.0
1070
    74
1070
     0
1000
MTEXTEND
  0
POINT
  5
6500
330
5A19
100
AcDbEntity
  8
DEFPOINTS
  6
Continuous
 62
     0
440
 16777216
100
AcDbPoint
 10
145.9923778520064
 20
-24.98970744689656
 30
0.0
  0
POINT
  5
6501
330
5A19
100
AcDbEntity
  8
DEFPOINTS
  6
Continuous
 62
     0
440
 16777216
100
AcDbPoint
 10
217.9923778520064
 20
-77.48970744689656
 30
0.0
  0
POINT
  5
6502
330
5A19
100
AcDbEntity
  8
DEFPOINTS
  6
Continuous
 62
     0
440
 16777216
100
AcDbPoint
 10
217.9923778520064
 20
-121.8996550098397
 30
0.0
  0
ENDBLK
  5
5A24
330
5A19
100
AcDbEntity
  8
0
100
AcDbBlockEnd
  0
BLOCK
  5
5A2F
330
5A25
100
AcDbEntity
  8
0
100
AcDbBlockBegin
  2
*D7
 70
     1
 10
0.0
 20
0.0
 30
0.0
  3
*D7
  1

  0
LINE
  5
6515
330
5A25
100
AcDbEntity
  8
30
  6
Continuous
 62
     0
440
 16777216
100
AcDbLine
 10
140.9923778520064
 20
-24.98970744689656
 30
0.0
 11
112.8096155908131
 21
-24.98970744689652
 31
0.0
  0
LINE
  5
6516
330
5A25
100
AcDbEntity
  8
30
  6
Continuous
 62
     0
440
 16777216
100
AcDbLine
 10
140.9923778520064
 20
25.01029255310343
 30
0.0
 11
112.8096155908131
 21
25.01029255310343
 31
0.0
  0
LINE
  5
6517
330
5A25
100
AcDbEntity
  8
30
  6
Continuous
 62
     0
440
 16777216
100
AcDbLine
 10
113.3096155908132
 20
-22.98970744689654
 30
0.0
 11
113.3096155908132
 21
23.01029255310342
 31
0.0
  0
INSERT
  5
6518
330
5A25
100
AcDbEntity
  8
30
  6
Continuous
 62
     0
440
 16777216
100
AcDbBlockReference
  2
_OPEN
 10
113.3096155908132
 20
-24.98970744689652
 30
0.0
 41
2.0
 42
2.0
 43
2.0
 50
270.0
  0
INSERT
  5
6519
330
5A25
100
AcDbEntity
  8
30
  6
Continuous
 62
     0
440
 16777216
100
AcDbBlockReference
  2
_OPEN
 10
113.3096155908132
 20
25.01029255310343
 30
0.0
 41
2.0
 42
2.0
 43
2.0
 50
90.0
  0
MTEXT
  5
651A
330
5A25
100
AcDbEntity
  8
30
  6
Continuous
 62
     0
440
 16777216
100
AcDbMText
 10
110.3096155908132
 20
0.010292553103462
 30
0.0
 40
4.0
 41
0.0
 46
0.0
 71
     5
 72
     1
  1
\A1;50
 11
0.0000000000000001
 21
1.0
 31
0.0
 73
     1
 44
1.0
1001
ACAD
1000
MTEXTBEGIN
1070
    73
1070
     1
1070
    44
1040
1.0
1070
    74
1070
     0
1000
MTEXTEND
  0
POINT
  5
651B
330
5A25
100
AcDbEntity
  8
DEFPOINTS
  6
Continuous
 62
     0
440
 16777216
100
AcDbPoint
 10
141.9923778520064
 20
-24.98970744689656
 30
0.0
  0
POINT
  5
651C
330
5A25
100
AcDbEntity
  8
DEFPOINTS
  6
Continuous
 62
     0
440
 16777216
100
AcDbPoint
 10
141.9923778520064
 20
25.01029255310343
 30
0.0
  0
POINT
  5
651D
330
5A25
100
AcDbEntity
  8
DEFPOINTS
  6
Continuous
 62
     0
440
 16777216
100
AcDbPoint
 10
113.3096155908132
 20
25.01029255310343
 30
0.0
  0
ENDBLK
  5
5A30
330
5A25
100
AcDbEntity
  8
0
100
AcDbBlockEnd
  0
BLOCK
  5
5A3B
330
5A31
100
AcDbEntity
  8
0
100
AcDbBlockBegin
  2
*D8
 70
     1
 10
0.0
 20
0.0
 30
0.0
  3
*D8
  1

  0
LINE
  5
653A
330
5A31
100
AcDbEntity
  8
30
  6
Continuous
 62
     0
440
 16777216
100
AcDbLine
 10
193.9923778520064
 20
78.51029255310347
 30
0.0
 11
193.9923778520064
 21
108.7608744091518
 31
0.0
  0
LINE
  5
653B
330
5A31
100
AcDbEntity
  8
30
  6
Continuous
 62
     0
440
 16777216
100
AcDbLine
 10
217.9923778520064
 20
78.51029255310354
 30
0.0
 11
217.9923778520064
 21
108.7608744091518
 31
0.0
  0
LINE
  5
653C
330
5A31
100
AcDbEntity
  8
30
  6
Continuous
 62
     0
440
 16777216
100
AcDbLine
 10
195.9923778520064
 20
108.2608744091517
 30
0.0
 11
215.9923778520064
 21
108.2608744091517
 31
0.0
  0
INSERT
  5
653D
330
5A31
100
AcDbEntity
  8
30
  6
Continuous
 62
     0
440
 16777216
100
AcDbBlockReference
  2
_OPEN
 10
193.9923778520064
 20
108.2608744091517
 30
0.0
 41
2.0
 42
2.0
 43
2.0
 50
180.0
  0
INSERT
  5
653E
330
5A31
100
AcDbEntity
  8
30
  6
Continuous
 62
     0
440
 16777216
100
AcDbBlockReference
  2
_OPEN
 10
217.9923778520064
 20
108.2608744091517
 30
0.0
 41
2.0
 42
2.0
 43
2.0
  0
MTEXT
  5
653F
330
5A31
100
AcDbEntity
  8
30
  6
Continuous
 62
     0
440
 16777216
100
AcDbMText
 10
205.9923778520064
 20
111.2608744091517
 30
0.0
 40
4.0
 41
0.0
 46
0.0
 71
     5
 72
     1
  1
\A1;24
 73
     1
 44
1.0
1001
ACAD
1000
MTEXTBEGIN
1070
    73
1070
     1
1070
    44
1040
1.0
1070
    74
1070
     0
1000
MTEXTEND
  0
POINT
  5
6540
330
5A31
100
AcDbEntity
  8
DEFPOINTS
  6
Continuous
 62
     0
440
 16777216
100
AcDbPoint
 10
193.9923778520064
 20
77.51029255310347
 30
0.0
  0
POINT
  5
6541
330
5A31
100
AcDbEntity
  8
DEFPOINTS
  6
Continuous
 62
     0
440
 16777216
100
AcDbPoint
 10
217.9923778520064
 20
77.51029255310354
 30
0.0
  0
POINT
  5
6542
330
5A31
100
AcDbEntity
  8
DEFPOINTS
  6
Continuous
 62
     0
440
 16777216
100
AcDbPoint
 10
217.9923778520064
 20
108.2608744091517
 30
0.0
  0
ENDBLK
  5
5A3C
330
5A31
100
AcDbEntity
  8
0
100
AcDbBlockEnd
  0
BLOCK
  5
5A47
330
5A3D
100
AcDbEntity
  8
0
100
AcDbBlockBegin
  2
*D9
 70
     1
 10
0.0
 20
0.0
 30
0.0
  3
*D9
  1

  0
LINE
  5
6503
330
5A3D
100
AcDbEntity
  8
30
  6
Continuous
 62
     0
440
 16777216
100
AcDbLine
 10
149.9923778520065
 20
-51.98970744689663
 30
0.0
 11
149.9923778520065
 21
-109.9248887595565
 31
0.0
  0
LINE
  5
6504
330
5A3D
100
AcDbEntity
  8
30
  6
Continuous
 62
     0
440
 16777216
100
AcDbLine
 10
217.9923778520064
 20
-78.48970744689656
 30
0.0
 11
217.9923778520064
 21
-109.9248887595565
 31
0.0
  0
LINE
  5
6505
330
5A3D
100
AcDbEntity
  8
30
  6
Continuous
 62
     0
440
 16777216
100
AcDbLine
 10
151.9923778520064
 20
-109.4248887595564
 30
0.0
 11
215.9923778520064
 21
-109.4248887595564
 31
0.0
  0
INSERT
  5
6506
330
5A3D
100
AcDbEntity
  8
30
  6
Continuous
 62
     0
440
 16777216
100
AcDbBlockReference
  2
_OPEN
 10
149.9923778520065
 20
-109.4248887595564
 30
0.0
 41
2.0
 42
2.0
 43
2.0
 50
180.0
  0
INSERT
  5
6507
330
5A3D
100
AcDbEntity
  8
30
  6
Continuous
 62
     0
440
 16777216
100
AcDbBlockReference
  2
_OPEN
 10
217.9923778520064
 20
-109.4248887595564
 30
0.0
 41
2.0
 42
2.0
 43
2.0
  0
MTEXT
  5
6508
330
5A3D
100
AcDbEntity
  8
30
  6
Continuous
 62
     0
440
 16777216
100
AcDbMText
 10
183.9923778520064
 20
-106.4248887595564
 30
0.0
 40
4.0
 41
0.0
 46
0.0
 71
     5
 72
     1
  1
\A1;68
 73
     1
 44
1.0
1001
ACAD
1000
MTEXTBEGIN
1070
    73
1070
     1
1070
    44
1040
1.0
1070
    74
1070
     0
1000
MTEXTEND
  0
POINT
  5
6509
330
5A3D
100
AcDbEntity
  8
DEFPOINTS
  6
Continuous
 62
     0
440
 16777216
100
AcDbPoint
 10
149.9923778520065
 20
-50.98970744689665
 30
0.0
  0
POINT
  5
650A
330
5A3D
100
AcDbEntity
  8
DEFPOINTS
  6
Continuous
 62
     0
440
 16777216
100
AcDbPoint
 10
217.9923778520064
 20
-77.48970744689656
 30
0.0
  0
POINT
  5
650B
330
5A3D
100
AcDbEntity
  8
DEFPOINTS
  6
Continuous
 62
     0
440
 16777216
100
AcDbPoint
 10
217.9923778520064
 20
-109.4248887595564
 30
0.0
  0
ENDBLK
  5
5A48
330
5A3D
100
AcDbEntity
  8
0
100
AcDbBlockEnd
  0
BLOCK
  5
5A53
330
5A49
100
AcDbEntity
  8
0
100
AcDbBlockBegin
  2
*D10
 70
     1
 10
0.0
 20
0.0
 30
0.0
  3
*D10
  1

  0
LINE
  5
650C
330
5A49
100
AcDbEntity
  8
30
  6
Continuous
 62
     0
440
 16777216
100
AcDbLine
 10
156.9923778520063
 20
-78.48970744689656
 30
0.0
 11
156.9923778520063
 21
-98.33544422304399
 31
0.0
  0
LINE
  5
650D
330
5A49
100
AcDbEntity
  8
30
  6
Continuous
 62
     0
440
 16777216
100
AcDbLine
 10
217.9923778520064
 20
-78.48970744689656
 30
0.0
 11
217.9923778520064
 21
-98.33544422304399
 31
0.0
  0
LINE
  5
650E
330
5A49
100
AcDbEntity
  8
30
  6
Continuous
 62
     0
440
 16777216
100
AcDbLine
 10
158.9923778520063
 20
-97.83544422304402
 30
0.0
 11
215.9923778520064
 21
-97.83544422304402
 31
0.0
  0
INSERT
  5
650F
330
5A49
100
AcDbEntity
  8
30
  6
Continuous
 62
     0
440
 16777216
100
AcDbBlockReference
  2
_OPEN
 10
156.9923778520063
 20
-97.83544422304402
 30
0.0
 41
2.0
 42
2.0
 43
2.0
 50
180.0
  0
INSERT
  5
6510
330
5A49
100
AcDbEntity
  8
30
  6
Continuous
 62
     0
440
 16777216
100
AcDbBlockReference
  2
_OPEN
 10
217.9923778520064
 20
-97.83544422304402
 30
0.0
 41
2.0
 42
2.0
 43
2.0
  0
MTEXT
  5
6511
330
5A49
100
AcDbEntity
  8
30
  6
Continuous
 62
     0
440
 16777216
100
AcDbMText
 10
187.4923778520065
 20
-94.83544422304399
 30
0.0
 40
4.0
 41
0.0
 46
0.0
 71
     5
 72
     1
  1
\A1;61
 73
     1
 44
1.0
1001
ACAD
1000
MTEXTBEGIN
1070
    73
1070
     1
1070
    44
1040
1.0
1070
    74
1070
     0
1000
MTEXTEND
  0
POINT
  5
6512
330
5A49
100
AcDbEntity
  8
DEFPOINTS
  6
Continuous
 62
     0
440
 16777216
100
AcDbPoint
 10
156.9923778520063
 20
-77.48970744689656
 30
0.0
  0
POINT
  5
6513
330
5A49
100
AcDbEntity
  8
DEFPOINTS
  6
Continuous
 62
     0
440
 16777216
100
AcDbPoint
 10
217.9923778520064
 20
-77.48970744689656
 30
0.0
  0
POINT
  5
6514
330
5A49
100
AcDbEntity
  8
DEFPOINTS
  6
Continuous
 62
     0
440
 16777216
100
AcDbPoint
 10
217.9923778520064
 20
-97.83544422304402
 30
0.0
  0
ENDBLK
  5
5A54
330
5A49
100
AcDbEntity
  8
0
100
AcDbBlockEnd
  0
BLOCK
  5
5A5F
330
5A55
100
AcDbEntity
  8
0
100
AcDbBlockBegin
  2
*D11
 70
     1
 10
0.0
 20
0.0
 30
0.0
  3
*D11
  1

  0
LINE
  5
6531
330
5A55
100
AcDbEntity
  8
30
  6
Continuous
 62
     0
440
 16777216
100
AcDbLine
 10
172.9923778520064
 20
-71.23970744689656
 30
0.0
 11
172.9923778520064
 21
-88.0739814398534
 31
0.0
  0
LINE
  5
6532
330
5A55
100
AcDbEntity
  8
30
  6
Continuous
 62
     0
440
 16777216
100
AcDbLine
 10
217.9923778520064
 20
-78.48970744689656
 30
0.0
 11
217.9923778520064
 21
-88.0739814398534
 31
0.0
  0
LINE
  5
6533
330
5A55
100
AcDbEntity
  8
30
  6
Continuous
 62
     0
440
 16777216
100
AcDbLine
 10
174.9923778520065
 20
-87.57398143985339
 30
0.0
 11
215.9923778520064
 21
-87.57398143985339
 31
0.0
  0
INSERT
  5
6534
330
5A55
100
AcDbEntity
  8
30
  6
Continuous
 62
     0
440
 16777216
100
AcDbBlockReference
  2
_OPEN
 10
172.9923778520064
 20
-87.57398143985339
 30
0.0
 41
2.0
 42
2.0
 43
2.0
 50
180.0
  0
INSERT
  5
6535
330
5A55
100
AcDbEntity
  8
30
  6
Continuous
 62
     0
440
 16777216
100
AcDbBlockReference
  2
_OPEN
 10
217.9923778520064
 20
-87.57398143985339
 30
0.0
 41
2.0
 42
2.0
 43
2.0
  0
MTEXT
  5
6536
330
5A55
100
AcDbEntity
  8
30
  6
Continuous
 62
     0
440
 16777216
100
AcDbMText
 10
195.4923778520064
 20
-84.57398143985342
 30
0.0
 40
4.0
 41
0.0
 46
0.0
 71
     5
 72
     1
  1
\A1;45
 73
     1
 44
1.0
1001
ACAD
1000
MTEXTBEGIN
1070
    73
1070
     1
1070
    44
1040
1.0
1070
    74
1070
     0
1000
MTEXTEND
  0
POINT
  5
6537
330
5A55
100
AcDbEntity
  8
DEFPOINTS
  6
Continuous
 62
     0
440
 16777216
100
AcDbPoint
 10
172.9923778520064
 20
-70.23970744689655
 30
0.0
  0
POINT
  5
6538
330
5A55
100
AcDbEntity
  8
DEFPOINTS
  6
Continuous
 62
     0
440
 16777216
100
AcDbPoint
 10
217.9923778520064
 20
-77.48970744689656
 30
0.0
  0
POINT
  5
6539
330
5A55
100
AcDbEntity
  8
DEFPOINTS
  6
Continuous
 62
     0
440
 16777216
100
AcDbPoint
 10
217.9923778520064
 20
-87.57398143985339
 30
0.0
  0
ENDBLK
  5
5A60
330
5A55
100
AcDbEntity
  8
0
100
AcDbBlockEnd
  0
BLOCK
  5
5A6B
330
5A61
100
AcDbEntity
  8
0
100
AcDbBlockBegin
  2
*D12
 70
     1
 10
0.0
 20
0.0
 30
0.0
  3
*D12
  1

  0
LINE
  5
6543
330
5A61
100
AcDbEntity
  8
30
  6
Continuous
 62
     0
440
 16777216
100
AcDbLine
 10
257.4923778520064
 20
42.01029255310347
 30
0.0
 11
257.4923778520064
 21
27.1098009537836
 31
0.0
  0
LINE
  5
6544
330
5A61
100
AcDbEntity
  8
30
  6
Continuous
 62
     0
440
 16777216
100
AcDbLine
 10
274.4923778520064
 20
42.01029255310347
 30
0.0
 11
274.4923778520064
 21
27.1098009537836
 31
0.0
  0
LINE
  5
6545
330
5A61
100
AcDbEntity
  8
30
  6
Continuous
 62
     0
440
 16777216
100
AcDbLine
 10
259.4923778520064
 20
27.6098009537836
 30
0.0
 11
272.4923778520064
 21
27.6098009537836
 31
0.0
  0
INSERT
  5
6546
330
5A61
100
AcDbEntity
  8
30
  6
Continuous
 62
     0
440
 16777216
100
AcDbBlockReference
  2
_OPEN
 10
257.4923778520064
 20
27.6098009537836
 30
0.0
 41
2.0
 42
2.0
 43
2.0
 50
180.0
  0
INSERT
  5
6547
330
5A61
100
AcDbEntity
  8
30
  6
Continuous
 62
     0
440
 16777216
100
AcDbBlockReference
  2
_OPEN
 10
274.4923778520064
 20
27.6098009537836
 30
0.0
 41
2.0
 42
2.0
 43
2.0
  0
MTEXT
  5
6548
330
5A61
100
AcDbEntity
  8
30
  6
Continuous
 62
     0
440
 16777216
100
AcDbMText
 10
265.9923778520066
 20
30.6098009537836
 30
0.0
 40
4.0
 41
0.0
 46
0.0
 71
     5
 72
     1
  1
\A1;17
 73
     1
 44
1.0
1001
ACAD
1000
MTEXTBEGIN
1070
    73
1070
     1
1070
    44
1040
1.0
1070
    74
1070
     0
1000
MTEXTEND
  0
POINT
  5
6549
330
5A61
100
AcDbEntity
  8
DEFPOINTS
  6
Continuous
 62
     0
440
 16777216
100
AcDbPoint
 10
257.4923778520064
 20
43.01029255310345
 30
0.0
  0
POINT
  5
654A
330
5A61
100
AcDbEntity
  8
DEFPOINTS
  6
Continuous
 62
     0
440
 16777216
100
AcDbPoint
 10
274.4923778520064
 20
43.01029255310345
 30
0.0
  0
POINT
  5
654B
330
5A61
100
AcDbEntity
  8
DEFPOINTS
  6
Continuous
 62
     0
440
 16777216
100
AcDbPoint
 10
274.4923778520064
 20
27.6098009537836
 30
0.0
  0
ENDBLK
  5
5A6C
330
5A61
100
AcDbEntity
  8
0
100
AcDbBlockEnd
  0
BLOCK
  5
5A79
330
5A6D
100
AcDbEntity
  8
0
100
AcDbBlockBegin
  2
*D13
 70
     1
 10
0.0
 20
0.0
 30
0.0
  3
*D13
  1

  0
LINE
  5
654C
330
5A6D
100
AcDbEntity
  8
30
  6
Continuous
 62
     0
440
 16777216
100
AcDbLine
 10
275.4923778520065
 20
43.01029255310345
 30
0.0
 11
289.5791003447947
 21
43.01029255310345
 31
0.0
  0
LINE
  5
654D
330
5A6D
100
AcDbEntity
  8
30
  6
Continuous
 62
     0
440
 16777216
100
AcDbLine
 10
269.4923778685065
 20
51.51029255310342
 30
0.0
 11
289.5791003447947
 21
51.51029255310342
 31
0.0
  0
LINE
  5
654E
330
5A6D
100
AcDbEntity
  8
30
  6
Continuous
 62
     0
440
 16777216
100
AcDbLine
 10
289.0791003447947
 20
45.01029255310347
 30
0.0
 11
289.0791003447947
 21
49.51029255310341
 31
0.0
  0
LINE
  5
654F
330
5A6D
100
AcDbEntity
  8
30
  6
Continuous
 62
     0
440
 16777216
100
AcDbLine
 10
289.0791003447947
 20
51.51029255310342
 30
0.0
 11
289.0791003447947
 21
53.51029255310342
 31
0.0
  0
LINE
  5
6550
330
5A6D
100
AcDbEntity
  8
30
  6
Continuous
 62
     0
440
 16777216
100
AcDbLine
 10
289.0791003447947
 20
53.51029255310342
 30
0.0
 11
298.0791003447947
 21
53.51029255310342
 31
0.0
  0
INSERT
  5
6551
330
5A6D
100
AcDbEntity
  8
30
  6
Continuous
 62
     0
440
 16777216
100
AcDbBlockReference
  2
_OPEN
 10
289.0791003447947
 20
43.01029255310345
 30
0.0
 41
2.0
 42
2.0
 43
2.0
 50
270.0
  0
INSERT
  5
6552
330
5A6D
100
AcDbEntity
  8
30
  6
Continuous
 62
     0
440
 16777216
100
AcDbBlockReference
  2
_OPEN
 10
289.0791003447947
 20
51.51029255310342
 30
0.0
 41
2.0
 42
2.0
 43
2.0
 50
90.0
  0
MTEXT
  5
6553
330
5A6D
100
AcDbEntity
  8
30
  6
Continuous
 62
     0
440
 16777216
100
AcDbMText
 10
294.0791003447947
 20
56.51029255310345
 30
0.0
 40
4.0
 41
0.0
 46
0.0
 71
     5
 72
     1
  1
\A1;8.5
 73
     1
 44
1.0
1001
ACAD
1000
MTEXTBEGIN
1070
    73
1070
     1
1070
    44
1040
1.0
1070
    74
1070
     0
1000
MTEXTEND
  0
POINT
  5
6554
330
5A6D
100
AcDbEntity
  8
DEFPOINTS
  6
Continuous
 62
     0
440
 16777216
100
AcDbPoint
 10
274.4923778520064
 20
43.01029255310345
 30
0.0
  0
POINT
  5
6555
330
5A6D
100
AcDbEntity
  8
DEFPOINTS
  6
Continuous
 62
     0
440
 16777216
100
AcDbPoint
 10
268.4923778685063
 20
51.51029255310342
 30
0.0
  0
POINT
  5
6556
330
5A6D
100
AcDbEntity
  8
DEFPOINTS
  6
Continuous
 62
     0
440
 16777216
100
AcDbPoint
 10
289.0791003447947
 20
51.51029255310342
 30
0.0
  0
ENDBLK
  5
5A7A
330
5A6D
100
AcDbEntity
  8
0
100
AcDbBlockEnd
  0
BLOCK
  5
5E86
330
5E7C
100
AcDbEntity
  8
0
100
AcDbBlockBegin
  2
*D14
 70
     1
 10
0.0
 20
0.0
 30
0.0
  3
*D14
  1

  0
LINE
  5
6316
330
5E7C
100
AcDbEntity
  8
30
  6
Continuous
 62
     0
440
 16777216
100
AcDbLine
 10
-41.99999999999996
 20
25.99999999999996
 30
0.0
 11
-41.99999999999996
 21
33.09950840068014
 31
0.0
  0
LINE
  5
6317
330
5E7C
100
AcDbEntity
  8
30
  6
Continuous
 62
     0
440
 16777216
100
AcDbLine
 10
42.00000000000001
 20
25.99999999999996
 30
0.0
 11
42.00000000000001
 21
33.09950840068014
 31
0.0
  0
LINE
  5
6318
330
5E7C
100
AcDbEntity
  8
30
  6
Continuous
 62
     0
440
 16777216
100
AcDbLine
 10
-39.99999999999996
 20
32.59950840068015
 30
0.0
 11
40.0
 21
32.59950840068015
 31
0.0
  0
INSERT
  5
6319
330
5E7C
100
AcDbEntity
  8
30
  6
Continuous
 62
     0
440
 16777216
100
AcDbBlockReference
  2
_OPEN
 10
-41.99999999999996
 20
32.59950840068015
 30
0.0
 41
2.0
 42
2.0
 43
2.0
 50
180.0
  0
INSERT
  5
631A
330
5E7C
100
AcDbEntity
  8
30
  6
Continuous
 62
     0
440
 16777216
100
AcDbBlockReference
  2
_OPEN
 10
42.00000000000001
 20
32.59950840068015
 30
0.0
 41
2.0
 42
2.0
 43
2.0
  0
MTEXT
  5
631B
330
5E7C
100
AcDbEntity
  8
30
  6
Continuous
 62
     0
440
 16777216
100
AcDbMText
 10
0.0000000000000215
 20
35.59950840068014
 30
0.0
 40
4.0
 41
0.0
 46
0.0
 71
     5
 72
     1
  1
\A1;84
 73
     1
 44
1.0
1001
ACAD
1000
MTEXTBEGIN
1070
    73
1070
     1
1070
    44
1040
1.0
1070
    74
1070
     0
1000
MTEXTEND
  0
POINT
  5
631C
330
5E7C
100
AcDbEntity
  8
DEFPOINTS
  6
Continuous
 62
     0
440
 16777216
100
AcDbPoint
 10
-41.99999999999996
 20
24.99999999999996
 30
0.0
  0
POINT
  5
631D
330
5E7C
100
AcDbEntity
  8
DEFPOINTS
  6
Continuous
 62
     0
440
 16777216
100
AcDbPoint
 10
42.00000000000001
 20
24.99999999999996
 30
0.0
  0
POINT
  5
631E
330
5E7C
100
AcDbEntity
  8
DEFPOINTS
  6
Continuous
 62
     0
440
 16777216
100
AcDbPoint
 10
42.00000000000001
 20
32.59950840068015
 30
0.0
  0
ENDBLK
  5
5E87
330
5E7C
100
AcDbEntity
  8
0
100
AcDbBlockEnd
  0
BLOCK
  5
5E92
330
5E88
100
AcDbEntity
  8
0
100
AcDbBlockBegin
  2
*D15
 70
     1
 10
0.0
 20
0.0
 30
0.0
  3
*D15
  1

  0
LINE
  5
630D
330
5E88
100
AcDbEntity
  8
30
  6
Continuous
 62
     0
440
 16777216
100
AcDbLine
 10
-44.99999999999997
 20
-78.50000000000003
 30
0.0
 11
-44.99999999999997
 21
-122.2494181439514
 31
0.0
  0
LINE
  5
630E
330
5E88
100
AcDbEntity
  8
30
  6
Continuous
 62
     0
440
 16777216
100
AcDbLine
 10
75.00000000000003
 20
-78.50000000000003
 30
0.0
 11
75.00000000000003
 21
-122.2494181439514
 31
0.0
  0
LINE
  5
630F
330
5E88
100
AcDbEntity
  8
30
  6
Continuous
 62
     0
440
 16777216
100
AcDbLine
 10
-42.99999999999997
 20
-121.7494181439514
 30
0.0
 11
73.00000000000003
 21
-121.7494181439514
 31
0.0
  0
INSERT
  5
6310
330
5E88
100
AcDbEntity
  8
30
  6
Continuous
 62
     0
440
 16777216
100
AcDbBlockReference
  2
_OPEN
 10
-44.99999999999997
 20
-121.7494181439514
 30
0.0
 41
2.0
 42
2.0
 43
2.0
 50
180.0
  0
INSERT
  5
6311
330
5E88
100
AcDbEntity
  8
30
  6
Continuous
 62
     0
440
 16777216
100
AcDbBlockReference
  2
_OPEN
 10
75.00000000000003
 20
-121.7494181439514
 30
0.0
 41
2.0
 42
2.0
 43
2.0
  0
MTEXT
  5
6312
330
5E88
100
AcDbEntity
  8
30
  6
Continuous
 62
     0
440
 16777216
100
AcDbMText
 10
15.0
 20
-118.7494181439514
 30
0.0
 40
4.0
 41
0.0
 46
0.0
 71
     5
 72
     1
  1
\A1;120
 73
     1
 44
1.0
1001
ACAD
1000
MTEXTBEGIN
1070
    73
1070
     1
1070
    44
1040
1.0
1070
    74
1070
     0
1000
MTEXTEND
  0
POINT
  5
6313
330
5E88
100
AcDbEntity
  8
DEFPOINTS
  6
Continuous
 62
     0
440
 16777216
100
AcDbPoint
 10
-44.99999999999997
 20
-77.50000000000003
 30
0.0
  0
POINT
  5
6314
330
5E88
100
AcDbEntity
  8
DEFPOINTS
  6
Continuous
 62
     0
440
 16777216
100
AcDbPoint
 10
75.00000000000003
 20
-77.50000000000003
 30
0.0
  0
POINT
  5
6315
330
5E88
100
AcDbEntity
  8
DEFPOINTS
  6
Continuous
 62
     0
440
 16777216
100
AcDbPoint
 10
75.00000000000003
 20
-121.7494181439514
 30
0.0
  0
ENDBLK
  5
5E93
330
5E88
100
AcDbEntity
  8
0
100
AcDbBlockEnd
  0
BLOCK
  5
5E9E
330
5E94
100
AcDbEntity
  8
0
100
AcDbBlockBegin
  2
*D16
 70
     1
 10
0.0
 20
0.0
 30
0.0
  3
*D16
  1

  0
LINE
  5
6304
330
5E94
100
AcDbEntity
  8
30
  6
Continuous
 62
     0
440
 16777216
100
AcDbLine
 10
-29.99999999999995
 20
-70.50000001650004
 30
0.0
 11
-29.99999999999995
 21
-102.2494181439514
 31
0.0
  0
LINE
  5
6305
330
5E94
100
AcDbEntity
  8
30
  6
Continuous
 62
     0
440
 16777216
100
AcDbLine
 10
30.00000000000003
 20
-70.50000001650004
 30
0.0
 11
30.00000000000001
 21
-102.2494181439514
 31
0.0
  0
LINE
  5
6306
330
5E94
100
AcDbEntity
  8
30
  6
Continuous
 62
     0
440
 16777216
100
AcDbLine
 10
-27.99999999999994
 20
-101.7494181439513
 30
0.0
 11
28.00000000000002
 21
-101.7494181439513
 31
0.0
  0
INSERT
  5
6307
330
5E94
100
AcDbEntity
  8
30
  6
Continuous
 62
     0
440
 16777216
100
AcDbBlockReference
  2
_OPEN
 10
-29.99999999999995
 20
-101.7494181439513
 30
0.0
 41
2.0
 42
2.0
 43
2.0
 50
180.0
  0
INSERT
  5
6308
330
5E94
100
AcDbEntity
  8
30
  6
Continuous
 62
     0
440
 16777216
100
AcDbBlockReference
  2
_OPEN
 10
30.00000000000001
 20
-101.7494181439513
 30
0.0
 41
2.0
 42
2.0
 43
2.0
  0
MTEXT
  5
6309
330
5E94
100
AcDbEntity
  8
30
  6
Continuous
 62
     0
440
 16777216
100
AcDbMText
 10
0.000000000000041
 20
-98.7494181439515
 30
0.0
 40
4.0
 41
0.0
 46
0.0
 71
     5
 72
     1
  1
\A1;60
 73
     1
 44
1.0
1001
ACAD
1000
MTEXTBEGIN
1070
    73
1070
     1
1070
    44
1040
1.0
1070
    74
1070
     0
1000
MTEXTEND
  0
POINT
  5
630A
330
5E94
100
AcDbEntity
  8
DEFPOINTS
  6
Continuous
 62
     0
440
 16777216
100
AcDbPoint
 10
-29.99999999999995
 20
-69.50000001650003
 30
0.0
  0
POINT
  5
630B
330
5E94
100
AcDbEntity
  8
DEFPOINTS
  6
Continuous
 62
     0
440
 16777216
100
AcDbPoint
 10
30.00000000000003
 20
-69.50000001650003
 30
0.0
  0
POINT
  5
630C
330
5E94
100
AcDbEntity
  8
DEFPOINTS
  6
Continuous
 62
     0
440
 16777216
100
AcDbPoint
 10
30.00000000000001
 20
-101.7494181439513
 30
0.0
  0
ENDBLK
  5
5E9F
330
5E94
100
AcDbEntity
  8
0
100
AcDbBlockEnd
  0
BLOCK
  5
5EAA
330
5EA0
100
AcDbEntity
  8
0
100
AcDbBlockBegin
  2
*D17
 70
     1
 10
0.0
 20
0.0
 30
0.0
  3
*D17
  1

  0
LINE
  5
62FB
330
5EA0
100
AcDbEntity
  8
30
  6
Continuous
 62
     0
440
 16777216
100
AcDbLine
 10
-10.99999999999999
 20
-25.99999999999999
 30
0.0
 11
-11.0
 21
-42.2494181439515
 31
0.0
  0
LINE
  5
62FC
330
5EA0
100
AcDbEntity
  8
30
  6
Continuous
 62
     0
440
 16777216
100
AcDbLine
 10
11.00000000000003
 20
-25.99999999999999
 30
0.0
 11
11.00000000000003
 21
-42.2494181439515
 31
0.0
  0
LINE
  5
62FD
330
5EA0
100
AcDbEntity
  8
30
  6
Continuous
 62
     0
440
 16777216
100
AcDbLine
 10
-9.0
 20
-41.74941814395149
 30
0.0
 11
9.000000000000056
 21
-41.74941814395149
 31
0.0
  0
INSERT
  5
62FE
330
5EA0
100
AcDbEntity
  8
30
  6
Continuous
 62
     0
440
 16777216
100
AcDbBlockReference
  2
_OPEN
 10
-11.0
 20
-41.74941814395149
 30
0.0
 41
2.0
 42
2.0
 43
2.0
 50
180.0
  0
INSERT
  5
62FF
330
5EA0
100
AcDbEntity
  8
30
  6
Continuous
 62
     0
440
 16777216
100
AcDbBlockReference
  2
_OPEN
 10
11.00000000000003
 20
-41.74941814395149
 30
0.0
 41
2.0
 42
2.0
 43
2.0
  0
MTEXT
  5
6300
330
5EA0
100
AcDbEntity
  8
30
  6
Continuous
 62
     0
440
 16777216
100
AcDbMText
 10
0.0000000000000286
 20
-38.74941814395151
 30
0.0
 40
4.0
 41
0.0
 46
0.0
 71
     5
 72
     1
  1
\A1;22
 73
     1
 44
1.0
1001
ACAD
1000
MTEXTBEGIN
1070
    73
1070
     1
1070
    44
1040
1.0
1070
    74
1070
     0
1000
MTEXTEND
  0
POINT
  5
6301
330
5EA0
100
AcDbEntity
  8
DEFPOINTS
  6
Continuous
 62
     0
440
 16777216
100
AcDbPoint
 10
-10.99999999999999
 20
-25.0
 30
0.0
  0
POINT
  5
6302
330
5EA0
100
AcDbEntity
  8
DEFPOINTS
  6
Continuous
 62
     0
440
 16777216
100
AcDbPoint
 10
11.00000000000003
 20
-25.0
 30
0.0
  0
POINT
  5
6303
330
5EA0
100
AcDbEntity
  8
DEFPOINTS
  6
Continuous
 62
     0
440
 16777216
100
AcDbPoint
 10
11.00000000000003
 20
-41.74941814395149
 30
0.0
  0
ENDBLK
  5
5EAB
330
5EA0
100
AcDbEntity
  8
0
100
AcDbBlockEnd
  0
BLOCK
  5
5F03
330
5EF9
100
AcDbEntity
  8
0
100
AcDbBlockBegin
  2
*D18
 70
     1
 10
0.0
 20
0.0
 30
0.0
  3
*D18
  1

  0
LINE
  5
6594
330
5EF9
100
AcDbEntity
  8
30
  6
Continuous
 62
     0
440
 16777216
100
AcDbLine
 10
-15.38009453517117
 20
-325.1631237443548
 30
0.0
 11
-15.38009453517118
 21
-354.9125418883062
 31
0.0
  0
LINE
  5
6595
330
5EF9
100
AcDbEntity
  8
30
  6
Continuous
 62
     0
440
 16777216
100
AcDbLine
 10
14.61990546482881
 20
-322.163123760855
 30
0.0
 11
14.61990546482881
 21
-354.9125418883062
 31
0.0
  0
LINE
  5
6596
330
5EF9
100
AcDbEntity
  8
30
  6
Continuous
 62
     0
440
 16777216
100
AcDbLine
 10
-13.38009453517118
 20
-354.4125418883063
 30
0.0
 11
12.61990546482881
 21
-354.4125418883063
 31
0.0
  0
INSERT
  5
6597
330
5EF9
100
AcDbEntity
  8
30
  6
Continuous
 62
     0
440
 16777216
100
AcDbBlockReference
  2
_OPEN
 10
-15.38009453517118
 20
-354.4125418883063
 30
0.0
 41
2.0
 42
2.0
 43
2.0
 50
180.0
  0
INSERT
  5
6598
330
5EF9
100
AcDbEntity
  8
30
  6
Continuous
 62
     0
440
 16777216
100
AcDbBlockReference
  2
_OPEN
 10
14.61990546482881
 20
-354.4125418883063
 30
0.0
 41
2.0
 42
2.0
 43
2.0
  0
MTEXT
  5
6599
330
5EF9
100
AcDbEntity
  8
30
  6
Continuous
 62
     0
440
 16777216
100
AcDbMText
 10
-0.3800945351711904
 20
-351.4125418883062
 30
0.0
 40
4.0
 41
0.0
 46
0.0
 71
     5
 72
     1
  1
\A1;30
 73
     1
 44
1.0
1001
ACAD
1000
MTEXTBEGIN
1070
    73
1070
     1
1070
    44
1040
1.0
1070
    74
1070
     0
1000
MTEXTEND
  0
POINT
  5
659A
330
5EF9
100
AcDbEntity
  8
DEFPOINTS
  6
Continuous
 62
     0
440
 16777216
100
AcDbPoint
 10
-15.38009453517117
 20
-324.1631237443548
 30
0.0
  0
POINT
  5
659B
330
5EF9
100
AcDbEntity
  8
DEFPOINTS
  6
Continuous
 62
     0
440
 16777216
100
AcDbPoint
 10
14.61990546482881
 20
-321.163123760855
 30
0.0
  0
POINT
  5
659C
330
5EF9
100
AcDbEntity
  8
DEFPOINTS
  6
Continuous
 62
     0
440
 16777216
100
AcDbPoint
 10
14.61990546482881
 20
-354.4125418883063
 30
0.0
  0
ENDBLK
  5
5F04
330
5EF9
100
AcDbEntity
  8
0
100
AcDbBlockEnd
  0
BLOCK
  5
5F76
330
5F6C
100
AcDbEntity
  8
0
100
AcDbBlockBegin
  2
*D19
 70
     1
 10
0.0
 20
0.0
 30
0.0
  3
*D19
  1

  0
LINE
  5
6386
330
5F6C
100
AcDbEntity
  8
30
  6
Continuous
 62
     0
100
AcDbLine
 10
-29.99999999999998
 20
217.1349134126129
 30
0.0
 11
-29.99999999999998
 21
257.4821974718419
 31
0.0
  0
LINE
  5
6387
330
5F6C
100
AcDbEntity
  8
30
  6
Continuous
 62
     0
100
AcDbLine
 10
0.0000000000000005
 20
217.1349134126129
 30
0.0
 11
0.000000000000003
 21
257.4821974718419
 31
0.0
  0
LINE
  5
6388
330
5F6C
100
AcDbEntity
  8
30
  6
Continuous
 62
     0
100
AcDbLine
 10
-27.99999999999998
 20
256.9821974718418
 30
0.0
 11
-1.999999999999995
 21
256.9821974718418
 31
0.0
  0
INSERT
  5
6389
330
5F6C
100
AcDbEntity
  8
30
  6
Continuous
 62
     0
100
AcDbBlockReference
  2
_OPEN
 10
-29.99999999999998
 20
256.9821974718418
 30
0.0
 41
2.0
 42
2.0
 43
2.0
 50
180.0
  0
INSERT
  5
638A
330
5F6C
100
AcDbEntity
  8
30
  6
Continuous
 62
     0
100
AcDbBlockReference
  2
_OPEN
 10
0.0000000000000029
 20
256.9821974718418
 30
0.0
 41
2.0
 42
2.0
 43
2.0
  0
MTEXT
  5
638B
330
5F6C
100
AcDbEntity
  8
30
  6
Continuous
 62
     0
100
AcDbMText
 10
-14.99999999999999
 20
259.9821974718419
 30
0.0
 40
4.0
 41
0.0
 46
0.0
 71
     5
 72
     1
  1
\A1;30
 73
     1
 44
1.0
1001
ACAD
1000
MTEXTBEGIN
1070
    73
1070
     1
1070
    44
1040
1.0
1070
    74
1070
     0
1000
MTEXTEND
  0
POINT
  5
638C
330
5F6C
100
AcDbEntity
  8
DEFPOINTS
  6
Continuous
 62
     0
100
AcDbPoint
 10
-29.99999999999998
 20
216.1349134126129
 30
0.0
  0
POINT
  5
638D
330
5F6C
100
AcDbEntity
  8
DEFPOINTS
  6
Continuous
 62
     0
100
AcDbPoint
 10
0.0000000000000004
 20
216.1349134126129
 30
0.0
  0
POINT
  5
638E
330
5F6C
100
AcDbEntity
  8
DEFPOINTS
  6
Continuous
 62
     0
100
AcDbPoint
 10
0.0000000000000029
 20
256.9821974718418
 30
0.0
  0
ENDBLK
  5
5F77
330
5F6C
100
AcDbEntity
  8
0
100
AcDbBlockEnd
  0
BLOCK
  5
5F83
330
5F79
100
AcDbEntity
  8
0
100
AcDbBlockBegin
  2
*D20
 70
     1
 10
0.0
 20
0.0
 30
0.0
  3
*D20
  1

  0
LINE
  5
637D
330
5F79
100
AcDbEntity
  8
30
  6
Continuous
 62
     0
100
AcDbLine
 10
0.0000000000000005
 20
218.1349134126129
 30
0.0
 11
0.0000000000000029
 21
257.4821974718419
 31
0.0
  0
LINE
  5
637E
330
5F79
100
AcDbEntity
  8
30
  6
Continuous
 62
     0
100
AcDbLine
 10
30.0
 20
217.1349134126129
 30
0.0
 11
30.0
 21
257.4821974718419
 31
0.0
  0
LINE
  5
637F
330
5F79
100
AcDbEntity
  8
30
  6
Continuous
 62
     0
100
AcDbLine
 10
2.000000000000002
 20
256.9821974718418
 30
0.0
 11
28.0
 21
256.9821974718418
 31
0.0
  0
INSERT
  5
6380
330
5F79
100
AcDbEntity
  8
30
  6
Continuous
 62
     0
100
AcDbBlockReference
  2
_OPEN
 10
0.0000000000000029
 20
256.9821974718418
 30
0.0
 41
2.0
 42
2.0
 43
2.0
 50
180.0
  0
INSERT
  5
6381
330
5F79
100
AcDbEntity
  8
30
  6
Continuous
 62
     0
100
AcDbBlockReference
  2
_OPEN
 10
30.0
 20
256.9821974718418
 30
0.0
 41
2.0
 42
2.0
 43
2.0
  0
MTEXT
  5
6382
330
5F79
100
AcDbEntity
  8
30
  6
Continuous
 62
     0
100
AcDbMText
 10
15.0
 20
259.9821974718419
 30
0.0
 40
4.0
 41
0.0
 46
0.0
 71
     5
 72
     1
  1
\A1;30
 73
     1
 44
1.0
1001
ACAD
1000
MTEXTBEGIN
1070
    73
1070
     1
1070
    44
1040
1.0
1070
    74
1070
     0
1000
MTEXTEND
  0
POINT
  5
6383
330
5F79
100
AcDbEntity
  8
DEFPOINTS
  6
Continuous
 62
     0
100
AcDbPoint
 10
0.0000000000000004
 20
217.1349134126129
 30
0.0
  0
POINT
  5
6384
330
5F79
100
AcDbEntity
  8
DEFPOINTS
  6
Continuous
 62
     0
100
AcDbPoint
 10
30.0
 20
216.1349134126129
 30
0.0
  0
POINT
  5
6385
330
5F79
100
AcDbEntity
  8
DEFPOINTS
  6
Continuous
 62
     0
100
AcDbPoint
 10
30.0
 20
256.9821974718418
 30
0.0
  0
ENDBLK
  5
5F84
330
5F79
100
AcDbEntity
  8
0
100
AcDbBlockEnd
  0
BLOCK
  5
6105
330
60FB
100
AcDbEntity
  8
0
100
AcDbBlockBegin
  2
*D21
 70
     1
 10
0.0
 20
0.0
 30
0.0
  3
*D21
  1

  0
LINE
  5
638F
330
60FB
100
AcDbEntity
  8
30
  6
Continuous
 62
     0
100
AcDbLine
 10
30.0
 20
218.1349134126129
 30
0.0
 11
30.0
 21
257.4821974718419
 31
0.0
  0
LINE
  5
6390
330
60FB
100
AcDbEntity
  8
30
  6
Continuous
 62
     0
100
AcDbLine
 10
60.0
 20
217.1349134126129
 30
0.0
 11
60.0
 21
257.4821974718419
 31
0.0
  0
LINE
  5
6391
330
60FB
100
AcDbEntity
  8
30
  6
Continuous
 62
     0
100
AcDbLine
 10
32.0
 20
256.9821974718418
 30
0.0
 11
58.0
 21
256.9821974718418
 31
0.0
  0
INSERT
  5
6392
330
60FB
100
AcDbEntity
  8
30
  6
Continuous
 62
     0
100
AcDbBlockReference
  2
_OPEN
 10
30.0
 20
256.9821974718418
 30
0.0
 41
2.0
 42
2.0
 43
2.0
 50
180.0
  0
INSERT
  5
6393
330
60FB
100
AcDbEntity
  8
30
  6
Continuous
 62
     0
100
AcDbBlockReference
  2
_OPEN
 10
60.0
 20
256.9821974718418
 30
0.0
 41
2.0
 42
2.0
 43
2.0
  0
MTEXT
  5
6394
330
60FB
100
AcDbEntity
  8
30
  6
Continuous
 62
     0
100
AcDbMText
 10
45.0
 20
259.9821974718419
 30
0.0
 40
4.0
 41
0.0
 46
0.0
 71
     5
 72
     1
  1
\A1;30
 73
     1
 44
1.0
1001
ACAD
1000
MTEXTBEGIN
1070
    73
1070
     1
1070
    44
1040
1.0
1070
    74
1070
     0
1000
MTEXTEND
  0
POINT
  5
6395
330
60FB
100
AcDbEntity
  8
DEFPOINTS
  6
Continuous
 62
     0
100
AcDbPoint
 10
30.0
 20
217.1349134126129
 30
0.0
  0
POINT
  5
6396
330
60FB
100
AcDbEntity
  8
DEFPOINTS
  6
Continuous
 62
     0
100
AcDbPoint
 10
60.0
 20
216.1349134126129
 30
0.0
  0
POINT
  5
6397
330
60FB
100
AcDbEntity
  8
DEFPOINTS
  6
Continuous
 62
     0
100
AcDbPoint
 10
60.0
 20
256.9821974718418
 30
0.0
  0
ENDBLK
  5
6106
330
60FB
100
AcDbEntity
  8
0
100
AcDbBlockEnd
  0
BLOCK
  5
6121
330
6117
100
AcDbEntity
  8
0
100
AcDbBlockBegin
  2
*D22
 70
     1
 10
0.0
 20
0.0
 30
0.0
  3
*D22
  1

  0
LINE
  5
658B
330
6117
100
AcDbEntity
  8
30
  6
Continuous
 62
     0
440
 16777216
100
AcDbLine
 10
21.11990546482878
 20
-186.663123744355
 30
0.0
 11
97.35839195347299
 21
-186.663123744355
 31
0.0
  0
LINE
  5
658C
330
6117
100
AcDbEntity
  8
30
  6
Continuous
 62
     0
440
 16777216
100
AcDbLine
 10
21.1199054648288
 20
-318.6631237443549
 30
0.0
 11
97.35839195347296
 21
-318.6631237443549
 31
0.0
  0
LINE
  5
658D
330
6117
100
AcDbEntity
  8
30
  6
Continuous
 62
     0
440
 16777216
100
AcDbLine
 10
96.85839195347298
 20
-188.663123744355
 30
0.0
 11
96.85839195347298
 21
-316.6631237443549
 31
0.0
  0
INSERT
  5
658E
330
6117
100
AcDbEntity
  8
30
  6
Continuous
 62
     0
440
 16777216
100
AcDbBlockReference
  2
_OPEN
 10
96.85839195347298
 20
-186.663123744355
 30
0.0
 41
2.0
 42
2.0
 43
2.0
 50
90.0
  0
INSERT
  5
658F
330
6117
100
AcDbEntity
  8
30
  6
Continuous
 62
     0
440
 16777216
100
AcDbBlockReference
  2
_OPEN
 10
96.85839195347298
 20
-318.6631237443549
 30
0.0
 41
2.0
 42
2.0
 43
2.0
 50
270.0
  0
MTEXT
  5
6590
330
6117
100
AcDbEntity
  8
30
  6
Continuous
 62
     0
440
 16777216
100
AcDbMText
 10
93.85839195347307
 20
-252.6631237443548
 30
0.0
 40
4.0
 41
0.0
 46
0.0
 71
     5
 72
     1
  1
\A1;132
 11
0.0000000000000001
 21
1.0
 31
0.0
 73
     1
 44
1.0
1001
ACAD
1000
MTEXTBEGIN
1070
    73
1070
     1
1070
    44
1040
1.0
1070
    74
1070
     0
1000
MTEXTEND
  0
POINT
  5
6591
330
6117
100
AcDbEntity
  8
DEFPOINTS
  6
Continuous
 62
     0
440
 16777216
100
AcDbPoint
 10
20.11990546482878
 20
-186.663123744355
 30
0.0
  0
POINT
  5
6592
330
6117
100
AcDbEntity
  8
DEFPOINTS
  6
Continuous
 62
     0
440
 16777216
100
AcDbPoint
 10
20.1199054648288
 20
-318.6631237443549
 30
0.0
  0
POINT
  5
6593
330
6117
100
AcDbEntity
  8
DEFPOINTS
  6
Continuous
 62
     0
440
 16777216
100
AcDbPoint
 10
96.85839195347298
 20
-318.6631237443549
 30
0.0
  0
ENDBLK
  5
6122
330
6117
100
AcDbEntity
  8
0
100
AcDbBlockEnd
  0
BLOCK
  5
6155
330
614B
100
AcDbEntity
  8
0
100
AcDbBlockBegin
  2
*D23
 70
     1
 10
0.0
 20
0.0
 30
0.0
  3
*D23
  1

  0
LINE
  5
62AB
330
614B
100
AcDbEntity
  8
30
  6
Continuous
 62
     0
440
 16777216
100
AcDbLine
 10
-17.5
 20
124.4999999999996
 30
0.0
 11
-63.92066478230082
 21
124.4999999999996
 31
0.0
  0
LINE
  5
62AC
330
614B
100
AcDbEntity
  8
30
  6
Continuous
 62
     0
440
 16777216
100
AcDbLine
 10
-45.99999999999996
 20
77.49999999999997
 30
0.0
 11
-63.92066478230082
 21
77.49999999999997
 31
0.0
  0
LINE
  5
62AD
330
614B
100
AcDbEntity
  8
30
  6
Continuous
 62
     0
440
 16777216
100
AcDbLine
 10
-63.4206647823008
 20
122.4999999999996
 30
0.0
 11
-63.42066478230082
 21
79.49999999999997
 31
0.0
  0
INSERT
  5
62AE
330
614B
100
AcDbEntity
  8
30
  6
Continuous
 62
     0
440
 16777216
100
AcDbBlockReference
  2
_OPEN
 10
-63.4206647823008
 20
124.4999999999996
 30
0.0
 41
2.0
 42
2.0
 43
2.0
 50
90.0
  0
INSERT
  5
62AF
330
614B
100
AcDbEntity
  8
30
  6
Continuous
 62
     0
440
 16777216
100
AcDbBlockReference
  2
_OPEN
 10
-63.42066478230082
 20
77.49999999999997
 30
0.0
 41
2.0
 42
2.0
 43
2.0
 50
270.0
  0
MTEXT
  5
62B0
330
614B
100
AcDbEntity
  8
30
  6
Continuous
 62
     0
440
 16777216
100
AcDbMText
 10
-66.42066478230082
 20
100.9999999999997
 30
0.0
 40
4.0
 41
0.0
 46
0.0
 71
     5
 72
     1
  1
\A1;47
 11
0.0000000000000001
 21
1.0
 31
0.0
 73
     1
 44
1.0
1001
ACAD
1000
MTEXTBEGIN
1070
    73
1070
     1
1070
    44
1040
1.0
1070
    74
1070
     0
1000
MTEXTEND
  0
POINT
  5
62B1
330
614B
100
AcDbEntity
  8
DEFPOINTS
  6
Continuous
 62
     0
440
 16777216
100
AcDbPoint
 10
-16.5
 20
124.4999999999996
 30
0.0
  0
POINT
  5
62B2
330
614B
100
AcDbEntity
  8
DEFPOINTS
  6
Continuous
 62
     0
440
 16777216
100
AcDbPoint
 10
-44.99999999999997
 20
77.49999999999997
 30
0.0
  0
POINT
  5
62B3
330
614B
100
AcDbEntity
  8
DEFPOINTS
  6
Continuous
 62
     0
440
 16777216
100
AcDbPoint
 10
-63.42066478230082
 20
77.49999999999997
 30
0.0
  0
ENDBLK
  5
6156
330
614B
100
AcDbEntity
  8
0
100
AcDbBlockEnd
  0
BLOCK
  5
6162
330
6158
100
AcDbEntity
  8
0
100
AcDbBlockBegin
  2
*D24
 70
     1
 10
0.0
 20
0.0
 30
0.0
  3
*D24
  1

  0
LINE
  5
62A2
330
6158
100
AcDbEntity
  8
30
  6
Continuous
 62
     0
440
 16777216
100
AcDbLine
 10
-45.99999999999996
 20
77.49999999999997
 30
0.0
 11
-64.42066478230081
 21
77.49999999999997
 31
0.0
  0
LINE
  5
62A3
330
6158
100
AcDbEntity
  8
30
  6
Continuous
 62
     0
440
 16777216
100
AcDbLine
 10
-45.99999999999996
 20
-77.50000000000003
 30
0.0
 11
-64.42066478230085
 21
-77.50000000000003
 31
0.0
  0
LINE
  5
62A4
330
6158
100
AcDbEntity
  8
30
  6
Continuous
 62
     0
440
 16777216
100
AcDbLine
 10
-63.92066478230082
 20
75.49999999999997
 30
0.0
 11
-63.92066478230084
 21
-75.50000000000003
 31
0.0
  0
INSERT
  5
62A5
330
6158
100
AcDbEntity
  8
30
  6
Continuous
 62
     0
440
 16777216
100
AcDbBlockReference
  2
_OPEN
 10
-63.92066478230082
 20
77.49999999999997
 30
0.0
 41
2.0
 42
2.0
 43
2.0
 50
90.0
  0
INSERT
  5
62A6
330
6158
100
AcDbEntity
  8
30
  6
Continuous
 62
     0
440
 16777216
100
AcDbBlockReference
  2
_OPEN
 10
-63.92066478230084
 20
-77.50000000000003
 30
0.0
 41
2.0
 42
2.0
 43
2.0
 50
270.0
  0
MTEXT
  5
62A7
330
6158
100
AcDbEntity
  8
30
  6
Continuous
 62
     0
440
 16777216
100
AcDbMText
 10
-66.92066478230081
 20
-0.0000000000000384
 30
0.0
 40
4.0
 41
0.0
 46
0.0
 71
     5
 72
     1
  1
\A1;155
 11
0.0000000000000001
 21
1.0
 31
0.0
 73
     1
 44
1.0
1001
ACAD
1000
MTEXTBEGIN
1070
    73
1070
     1
1070
    44
1040
1.0
1070
    74
1070
     0
1000
MTEXTEND
  0
POINT
  5
62A8
330
6158
100
AcDbEntity
  8
DEFPOINTS
  6
Continuous
 62
     0
440
 16777216
100
AcDbPoint
 10
-44.99999999999997
 20
77.49999999999997
 30
0.0
  0
POINT
  5
62A9
330
6158
100
AcDbEntity
  8
DEFPOINTS
  6
Continuous
 62
     0
440
 16777216
100
AcDbPoint
 10
-44.99999999999997
 20
-77.50000000000003
 30
0.0
  0
POINT
  5
62AA
330
6158
100
AcDbEntity
  8
DEFPOINTS
  6
Continuous
 62
     0
440
 16777216
100
AcDbPoint
 10
-63.92066478230084
 20
-77.50000000000003
 30
0.0
  0
ENDBLK
  5
6163
330
6158
100
AcDbEntity
  8
0
100
AcDbBlockEnd
  0
BLOCK
  5
63A3
330
6399
100
AcDbEntity
  8
0
100
AcDbBlockBegin
  2
*D25
 70
     1
 10
0.0
 20
0.0
 30
0.0
  3
*D25
  1

  0
LINE
  5
6528
330
6399
100
AcDbEntity
  8
30
  6
Continuous
 62
     0
440
 16777216
100
AcDbLine
 10
225.9923778520064
 20
-69.23970744689659
 30
0.0
 11
225.9923778520064
 21
-88.2406484398534
 31
0.0
  0
LINE
  5
6529
330
6399
100
AcDbEntity
  8
30
  6
Continuous
 62
     0
440
 16777216
100
AcDbLine
 10
217.9923778520064
 20
-78.48970744689656
 30
0.0
 11
217.9923778520064
 21
-88.2406484398534
 31
0.0
  0
LINE
  5
652A
330
6399
100
AcDbEntity
  8
30
  6
Continuous
 62
     0
440
 16777216
100
AcDbLine
 10
223.9923778520064
 20
-87.74064843985341
 30
0.0
 11
219.9923778520064
 21
-87.74064843985341
 31
0.0
  0
INSERT
  5
652B
330
6399
100
AcDbEntity
  8
30
  6
Continuous
 62
     0
440
 16777216
100
AcDbBlockReference
  2
_OPEN
 10
225.9923778520064
 20
-87.74064843985341
 30
0.0
 41
2.0
 42
2.0
 43
2.0
  0
INSERT
  5
652C
330
6399
100
AcDbEntity
  8
30
  6
Continuous
 62
     0
440
 16777216
100
AcDbBlockReference
  2
_OPEN
 10
217.9923778520064
 20
-87.74064843985341
 30
0.0
 41
2.0
 42
2.0
 43
2.0
 50
180.0
  0
MTEXT
  5
652D
330
6399
100
AcDbEntity
  8
30
  6
Continuous
 62
     0
440
 16777216
100
AcDbMText
 10
221.9923778520064
 20
-84.74064843985342
 30
0.0
 40
4.0
 41
0.0
 46
0.0
 71
     5
 72
     1
  1
\A1;8
 73
     1
 44
1.0
1001
ACAD
1000
MTEXTBEGIN
1070
    73
1070
     1
1070
    44
1040
1.0
1070
    74
1070
     0
1000
MTEXTEND
  0
POINT
  5
652E
330
6399
100
AcDbEntity
  8
DEFPOINTS
  6
Continuous
 62
     0
440
 16777216
100
AcDbPoint
 10
225.9923778520064
 20
-68.23970744689657
 30
0.0
  0
POINT
  5
652F
330
6399
100
AcDbEntity
  8
DEFPOINTS
  6
Continuous
 62
     0
440
 16777216
100
AcDbPoint
 10
217.9923778520064
 20
-77.48970744689656
 30
0.0
  0
POINT
  5
6530
330
6399
100
AcDbEntity
  8
DEFPOINTS
  6
Continuous
 62
     0
440
 16777216
100
AcDbPoint
 10
217.9923778520064
 20
-87.74064843985341
 30
0.0
  0
ENDBLK
  5
63A4
330
6399
100
AcDbEntity
  8
0
100
AcDbBlockEnd
  0
BLOCK
  5
6497
330
648D
100
AcDbEntity
  8
0
100
AcDbBlockBegin
  2
*D26
 70
     1
 10
0.0
 20
0.0
 30
0.0
  3
*D26
  1

  0
LINE
  5
64E8
330
648D
100
AcDbEntity
  8
30
  6
Continuous
 62
     0
440
 16777216
100
AcDbLine
 10
166.6199054648288
 20
-278.6631237443549
 30
0.0
 11
166.6199054648288
 21
-359.8804450066014
 31
0.0
  0
LINE
  5
64E9
330
648D
100
AcDbEntity
  8
30
  6
Continuous
 62
     0
440
 16777216
100
AcDbLine
 10
252.6199054648289
 20
-278.6631237443549
 30
0.0
 11
252.6199054648289
 21
-359.8804450066014
 31
0.0
  0
LINE
  5
64EA
330
648D
100
AcDbEntity
  8
30
  6
Continuous
 62
     0
440
 16777216
100
AcDbLine
 10
168.6199054648288
 20
-359.3804450066013
 30
0.0
 11
250.6199054648289
 21
-359.3804450066013
 31
0.0
  0
INSERT
  5
64EB
330
648D
100
AcDbEntity
  8
30
  6
Continuous
 62
     0
440
 16777216
100
AcDbBlockReference
  2
_OPEN
 10
166.6199054648288
 20
-359.3804450066013
 30
0.0
 41
2.0
 42
2.0
 43
2.0
 50
180.0
  0
INSERT
  5
64EC
330
648D
100
AcDbEntity
  8
30
  6
Continuous
 62
     0
440
 16777216
100
AcDbBlockReference
  2
_OPEN
 10
252.6199054648289
 20
-359.3804450066013
 30
0.0
 41
2.0
 42
2.0
 43
2.0
  0
MTEXT
  5
64ED
330
648D
100
AcDbEntity
  8
30
  6
Continuous
 62
     0
440
 16777216
100
AcDbMText
 10
209.6199054648289
 20
-356.3804450066013
 30
0.0
 40
4.0
 41
0.0
 46
0.0
 71
     5
 72
     1
  1
\A1;86
 73
     1
 44
1.0
1001
ACAD
1000
MTEXTBEGIN
1070
    73
1070
     1
1070
    44
1040
1.0
1070
    74
1070
     0
1000
MTEXTEND
  0
POINT
  5
64EE
330
648D
100
AcDbEntity
  8
DEFPOINTS
  6
Continuous
 62
     0
440
 16777216
100
AcDbPoint
 10
166.6199054648288
 20
-277.6631237443548
 30
0.0
  0
POINT
  5
64EF
330
648D
100
AcDbEntity
  8
DEFPOINTS
  6
Continuous
 62
     0
440
 16777216
100
AcDbPoint
 10
252.6199054648289
 20
-277.6631237443548
 30
0.0
  0
POINT
  5
64F0
330
648D
100
AcDbEntity
  8
DEFPOINTS
  6
Continuous
 62
     0
440
 16777216
100
AcDbPoint
 10
252.6199054648289
 20
-359.3804450066013
 30
0.0
  0
ENDBLK
  5
6498
330
648D
100
AcDbEntity
  8
0
100
AcDbBlockEnd
  0
BLOCK
  5
64A2
330
6499
100
AcDbEntity
  8
0
100
AcDbBlockBegin
  2
*D27
 70
     1
 10
0.0
 20
0.0
 30
0.0
  3
*D27
  1

  0
LINE
  5
64CE
330
6499
100
AcDbEntity
  8
30
  6
Continuous
 62
     0
440
 16777216
100
AcDbLine
 10
261.9196053755326
 20
-224.6187952184035
 30
0.0
 11
255.5862720421993
 21
-224.6187952184035
 31
0.0
  0
LINE
  5
64CF
330
6499
100
AcDbEntity
  8
30
  6
Continuous
 62
     0
440
 16777216
100
AcDbLine
 10
255.5862720421993
 20
-224.6187952184035
 30
0.0
 11
253.9997254112511
 21
-225.8365266287838
 31
0.0
  0
MTEXT
  5
64D0
330
6499
100
AcDbEntity
  8
30
  6
Continuous
 62
     0
440
 16777216
100
AcDbMText
 10
259.252938708866
 20
-221.6187952184035
 30
0.0
 40
4.0
 41
0.0
 46
0.0
 71
     5
 72
     1
  1
\A1;R1
 73
     1
 44
1.0
1001
ACAD
1000
MTEXTBEGIN
1070
    73
1070
     1
1070
    44
1040
1.0
1070
    74
1070
     0
1000
MTEXTEND
  0
INSERT
  5
64D1
330
6499
100
AcDbEntity
  8
30
  6
Continuous
 62
     0
440
 16777216
100
AcDbBlockReference
  2
_OPEN
 10
252.413178780303
 20
-227.0542580391643
 30
0.0
 41
2.0
 42
2.0
 43
2.0
 50
217.5075311795308
  0
LINE
  5
64D2
330
6499
100
AcDbEntity
  8
30
  6
Continuous
 62
     0
440
 16777216
100
AcDbLine
 10
251.529905464829
 20
-227.6631237443548
 30
0.0
 11
251.7099054648289
 21
-227.6631237443548
 31
0.0
  0
LINE
  5
64D3
330
6499
100
AcDbEntity
  8
30
  6
Continuous
 62
     0
440
 16777216
100
AcDbLine
 10
251.6199054648291
 20
-227.7531237443545
 30
0.0
 11
251.6199054648291
 21
-227.5731237443547
 31
0.0
  0
POINT
  5
64D4
330
6499
100
AcDbEntity
  8
DEFPOINTS
  6
Continuous
 62
     0
440
 16777216
100
AcDbPoint
 10
252.413178780303
 20
-227.0542580391643
 30
0.0
  0
POINT
  5
64D5
330
6499
100
AcDbEntity
  8
DEFPOINTS
  6
Continuous
 62
     0
440
 16777216
100
AcDbPoint
 10
251.6199054648291
 20
-227.6631237443548
 30
0.0
  0
ENDBLK
  5
64A3
330
6499
100
AcDbEntity
  8
0
100
AcDbBlockEnd
  0
BLOCK
  5
64AE
330
64A4
100
AcDbEntity
  8
0
100
AcDbBlockBegin
  2
*D28
 70
     1
 10
0.0
 20
0.0
 30
0.0
  3
*D28
  1

  0
LINE
  5
64D6
330
64A4
100
AcDbEntity
  8
30
  6
Continuous
 62
     0
440
 16777216
100
AcDbLine
 10
252.6199054648288
 20
-226.6631237443549
 30
0.0
 11
273.180795841907
 21
-226.6631237443549
 31
0.0
  0
LINE
  5
64D7
330
64A4
100
AcDbEntity
  8
30
  6
Continuous
 62
     0
440
 16777216
100
AcDbLine
 10
252.6199054648288
 20
-278.6631237443549
 30
0.0
 11
273.180795841907
 21
-278.6631237443549
 31
0.0
  0
LINE
  5
64D8
330
64A4
100
AcDbEntity
  8
30
  6
Continuous
 62
     0
440
 16777216
100
AcDbLine
 10
272.680795841907
 20
-228.663123744355
 30
0.0
 11
272.680795841907
 21
-276.6631237443549
 31
0.0
  0
INSERT
  5
64D9
330
64A4
100
AcDbEntity
  8
30
  6
Continuous
 62
     0
440
 16777216
100
AcDbBlockReference
  2
_OPEN
 10
272.680795841907
 20
-226.6631237443549
 30
0.0
 41
2.0
 42
2.0
 43
2.0
 50
90.0
  0
INSERT
  5
64DA
330
64A4
100
AcDbEntity
  8
30
  6
Continuous
 62
     0
440
 16777216
100
AcDbBlockReference
  2
_OPEN
 10
272.680795841907
 20
-278.6631237443549
 30
0.0
 41
2.0
 42
2.0
 43
2.0
 50
270.0
  0
MTEXT
  5
64DB
330
64A4
100
AcDbEntity
  8
30
  6
Continuous
 62
     0
440
 16777216
100
AcDbMText
 10
269.680795841907
 20
-252.6631237443548
 30
0.0
 40
4.0
 41
0.0
 46
0.0
 71
     5
 72
     1
  1
\A1;52
 11
0.0000000000000001
 21
1.0
 31
0.0
 73
     1
 44
1.0
1001
ACAD
1000
MTEXTBEGIN
1070
    73
1070
     1
1070
    44
1040
1.0
1070
    74
1070
     0
1000
MTEXTEND
  0
POINT
  5
64DC
330
64A4
100
AcDbEntity
  8
DEFPOINTS
  6
Continuous
 62
     0
440
 16777216
100
AcDbPoint
 10
251.6199054648287
 20
-226.6631237443549
 30
0.0
  0
POINT
  5
64DD
330
64A4
100
AcDbEntity
  8
DEFPOINTS
  6
Continuous
 62
     0
440
 16777216
100
AcDbPoint
 10
251.6199054648287
 20
-278.6631237443549
 30
0.0
  0
POINT
  5
64DE
330
64A4
100
AcDbEntity
  8
DEFPOINTS
  6
Continuous
 62
     0
440
 16777216
100
AcDbPoint
 10
272.680795841907
 20
-278.6631237443549
 30
0.0
  0
ENDBLK
  5
64AF
330
64A4
100
AcDbEntity
  8
0
100
AcDbBlockEnd
  0
BLOCK
  5
66C3
330
66C2
100
AcDbEntity
  8
0
100
AcDbBlockBegin
  2
*D29
 70
     1
 10
0.0
 20
0.0
 30
0.0
  3
*D29
  1

  0
LINE
  5
66C4
330
66C2
100
AcDbEntity
  8
30
  6
Continuous
 62
     0
370
    -2
100
AcDbLine
 10
-29.99999999999998
 20
217.1349134126129
 30
0.0
 11
-29.99999999999998
 21
257.4821974718418
 31
0.0
  0
LINE
  5
66C5
330
66C2
100
AcDbEntity
  8
30
  6
Continuous
 62
     0
370
    -2
100
AcDbLine
 10
0.0000000000000005
 20
217.1349134126129
 30
0.0
 11
0.0000000000000029
 21
257.4821974718418
 31
0.0
  0
LINE
  5
66C6
330
66C2
100
AcDbEntity
  8
30
  6
Continuous
 62
     0
370
    -2
100
AcDbLine
 10
-27.99999999999998
 20
256.9821974718418
 30
0.0
 11
-1.999999999999996
 21
256.9821974718418
 31
0.0
  0
INSERT
  5
66C7
330
66C2
100
AcDbEntity
  8
30
  6
Continuous
 62
     0
370
    -2
100
AcDbBlockReference
  2
_OPEN
 10
-29.99999999999998
 20
256.9821974718418
 30
0.0
 41
2.0
 42
2.0
 43
2.0
 50
180.0
  0
INSERT
  5
66C8
330
66C2
100
AcDbEntity
  8
30
  6
Continuous
 62
     0
370
    -2
100
AcDbBlockReference
  2
_OPEN
 10
0.0000000000000029
 20
256.9821974718418
 30
0.0
 41
2.0
 42
2.0
 43
2.0
  0
MTEXT
  5
66C9
330
66C2
100
AcDbEntity
  8
30
  6
Continuous
 62
     0
100
AcDbMText
 10
-14.99999999999999
 20
259.9821974718418
 30
0.0
 40
4.0
 41
0.0
 46
0.0
 71
     5
 72
     1
  1
\A1;30
 73
     1
 44
1.0
1001
ACAD
1000
MTEXTBEGIN
1070
    73
1070
     1
1070
    44
1040
1.0
1070
    74
1070
     0
1000
MTEXTEND
  0
POINT
  5
66CA
330
66C2
100
AcDbEntity
  8
DEFPOINTS
  6
Continuous
 62
     0
100
AcDbPoint
 10
-29.99999999999998
 20
216.1349134126129
 30
0.0
  0
POINT
  5
66CB
330
66C2
100
AcDbEntity
  8
DEFPOINTS
  6
Continuous
 62
     0
100
AcDbPoint
 10
0.0000000000000004
 20
216.1349134126129
 30
0.0
  0
POINT
  5
66CC
330
66C2
100
AcDbEntity
  8
DEFPOINTS
  6
Continuous
 62
     0
100
AcDbPoint
 10
0.0000000000000029
 20
256.9821974718418
 30
0.0
  0
ENDBLK
  5
66CD
330
66C2
100
AcDbEntity
  8
0
100
AcDbBlockEnd
  0
BLOCK
  5
66CF
330
66CE
100
AcDbEntity
  8
0
100
AcDbBlockBegin
  2
*D30
 70
     1
 10
0.0
 20
0.0
 30
0.0
  3
*D30
  1

  0
LINE
  5
66D0
330
66CE
100
AcDbEntity
  8
30
  6
Continuous
 62
     0
370
    -2
100
AcDbLine
 10
0.0000000000000005
 20
218.1349134126129
 30
0.0
 11
0.0000000000000029
 21
257.4821974718418
 31
0.0
  0
LINE
  5
66D1
330
66CE
100
AcDbEntity
  8
30
  6
Continuous
 62
     0
370
    -2
100
AcDbLine
 10
30.0
 20
217.1349134126129
 30
0.0
 11
30.0
 21
257.4821974718418
 31
0.0
  0
LINE
  5
66D2
330
66CE
100
AcDbEntity
  8
30
  6
Continuous
 62
     0
370
    -2
100
AcDbLine
 10
2.000000000000002
 20
256.9821974718418
 30
0.0
 11
28.00000000000001
 21
256.9821974718418
 31
0.0
  0
INSERT
  5
66D3
330
66CE
100
AcDbEntity
  8
30
  6
Continuous
 62
     0
370
    -2
100
AcDbBlockReference
  2
_OPEN
 10
0.0000000000000028
 20
256.9821974718418
 30
0.0
 41
2.0
 42
2.0
 43
2.0
 50
180.0
  0
INSERT
  5
66D4
330
66CE
100
AcDbEntity
  8
30
  6
Continuous
 62
     0
370
    -2
100
AcDbBlockReference
  2
_OPEN
 10
30.0
 20
256.9821974718418
 30
0.0
 41
2.0
 42
2.0
 43
2.0
  0
MTEXT
  5
66D5
330
66CE
100
AcDbEntity
  8
30
  6
Continuous
 62
     0
100
AcDbMText
 10
15.0
 20
259.9821974718418
 30
0.0
 40
4.0
 41
0.0
 46
0.0
 71
     5
 72
     1
  1
\A1;30
 73
     1
 44
1.0
1001
ACAD
1000
MTEXTBEGIN
1070
    73
1070
     1
1070
    44
1040
1.0
1070
    74
1070
     0
1000
MTEXTEND
  0
POINT
  5
66D6
330
66CE
100
AcDbEntity
  8
DEFPOINTS
  6
Continuous
 62
     0
100
AcDbPoint
 10
0.0000000000000004
 20
217.1349134126129
 30
0.0
  0
POINT
  5
66D7
330
66CE
100
AcDbEntity
  8
DEFPOINTS
  6
Continuous
 62
     0
100
AcDbPoint
 10
30.0
 20
216.1349134126129
 30
0.0
  0
POINT
  5
66D8
330
66CE
100
AcDbEntity
  8
DEFPOINTS
  6
Continuous
 62
     0
100
AcDbPoint
 10
30.0
 20
256.9821974718418
 30
0.0
  0
ENDBLK
  5
66D9
330
66CE
100
AcDbEntity
  8
0
100
AcDbBlockEnd
  0
BLOCK
  5
66DB
330
66DA
100
AcDbEntity
  8
0
100
AcDbBlockBegin
  2
*D31
 70
     1
 10
0.0
 20
0.0
 30
0.0
  3
*D31
  1

  0
LINE
  5
66DC
330
66DA
100
AcDbEntity
  8
30
  6
Continuous
 62
     0
370
    -2
100
AcDbLine
 10
30.0
 20
218.1349134126129
 30
0.0
 11
30.0
 21
257.4821974718418
 31
0.0
  0
LINE
  5
66DD
330
66DA
100
AcDbEntity
  8
30
  6
Continuous
 62
     0
370
    -2
100
AcDbLine
 10
60.0
 20
217.1349134126129
 30
0.0
 11
60.0
 21
257.4821974718418
 31
0.0
  0
LINE
  5
66DE
330
66DA
100
AcDbEntity
  8
30
  6
Continuous
 62
     0
370
    -2
100
AcDbLine
 10
32.0
 20
256.9821974718418
 30
0.0
 11
58.0
 21
256.9821974718418
 31
0.0
  0
INSERT
  5
66DF
330
66DA
100
AcDbEntity
  8
30
  6
Continuous
 62
     0
370
    -2
100
AcDbBlockReference
  2
_OPEN
 10
30.0
 20
256.9821974718418
 30
0.0
 41
2.0
 42
2.0
 43
2.0
 50
180.0
  0
INSERT
  5
66E0
330
66DA
100
AcDbEntity
  8
30
  6
Continuous
 62
     0
370
    -2
100
AcDbBlockReference
  2
_OPEN
 10
60.0
 20
256.9821974718418
 30
0.0
 41
2.0
 42
2.0
 43
2.0
  0
MTEXT
  5
66E1
330
66DA
100
AcDbEntity
  8
30
  6
Continuous
 62
     0
100
AcDbMText
 10
45.0
 20
259.9821974718418
 30
0.0
 40
4.0
 41
0.0
 46
0.0
 71
     5
 72
     1
  1
\A1;30
 73
     1
 44
1.0
1001
ACAD
1000
MTEXTBEGIN
1070
    73
1070
     1
1070
    44
1040
1.0
1070
    74
1070
     0
1000
MTEXTEND
  0
POINT
  5
66E2
330
66DA
100
AcDbEntity
  8
DEFPOINTS
  6
Continuous
 62
     0
100
AcDbPoint
 10
30.0
 20
217.1349134126129
 30
0.0
  0
POINT
  5
66E3
330
66DA
100
AcDbEntity
  8
DEFPOINTS
  6
Continuous
 62
     0
100
AcDbPoint
 10
60.0
 20
216.1349134126129
 30
0.0
  0
POINT
  5
66E4
330
66DA
100
AcDbEntity
  8
DEFPOINTS
  6
Continuous
 62
     0
100
AcDbPoint
 10
60.0
 20
256.9821974718418
 30
0.0
  0
ENDBLK
  5
66E5
330
66DA
100
AcDbEntity
  8
0
100
AcDbBlockEnd
  0
BLOCK
  5
66E7
330
66E6
100
AcDbEntity
  8
0
100
AcDbBlockBegin
  2
*D32
 70
     1
 10
0.0
 20
0.0
 30
0.0
  3
*D32
  1

  0
LINE
  5
66E8
330
66E6
100
AcDbEntity
  8
30
  6
Continuous
 62
     0
370
    -2
100
AcDbLine
 10
75.99999999999997
 20
235.1349134126127
 30
0.0
 11
83.03557793199617
 21
235.1349134126127
 31
0.0
  0
LINE
  5
66E9
330
66E6
100
AcDbEntity
  8
30
  6
Continuous
 62
     0
370
    -2
100
AcDbLine
 10
75.99999999999998
 20
174.1349134126129
 30
0.0
 11
83.03557793199615
 21
174.1349134126129
 31
0.0
  0
LINE
  5
66EA
330
66E6
100
AcDbEntity
  8
30
  6
Continuous
 62
     0
370
    -2
100
AcDbLine
 10
82.53557793199616
 20
233.1349134126127
 30
0.0
 11
82.53557793199616
 21
176.1349134126129
 31
0.0
  0
INSERT
  5
66EB
330
66E6
100
AcDbEntity
  8
30
  6
Continuous
 62
     0
370
    -2
100
AcDbBlockReference
  2
_OPEN
 10
82.53557793199616
 20
235.1349134126127
 30
0.0
 41
2.0
 42
2.0
 43
2.0
 50
90.0
  0
INSERT
  5
66EC
330
66E6
100
AcDbEntity
  8
30
  6
Continuous
 62
     0
370
    -2
100
AcDbBlockReference
  2
_OPEN
 10
82.53557793199616
 20
174.1349134126129
 30
0.0
 41
2.0
 42
2.0
 43
2.0
 50
270.0
  0
MTEXT
  5
66ED
330
66E6
100
AcDbEntity
  8
30
  6
Continuous
 62
     0
100
AcDbMText
 10
79.53557793199613
 20
204.6349134126128
 30
0.0
 40
4.0
 41
0.0
 46
0.0
 71
     5
 72
     1
  1
\A1;61
 11
0.0000000000000001
 21
1.0
 31
0.0
 73
     1
 44
1.0
1001
ACAD
1000
MTEXTBEGIN
1070
    73
1070
     1
1070
    44
1040
1.0
1070
    74
1070
     0
1000
MTEXTEND
  0
POINT
  5
66EE
330
66E6
100
AcDbEntity
  8
DEFPOINTS
  6
Continuous
 62
     0
100
AcDbPoint
 10
74.99999999999997
 20
235.1349134126127
 30
0.0
  0
POINT
  5
66EF
330
66E6
100
AcDbEntity
  8
DEFPOINTS
  6
Continuous
 62
     0
100
AcDbPoint
 10
74.99999999999999
 20
174.1349134126129
 30
0.0
  0
POINT
  5
66F0
330
66E6
100
AcDbEntity
  8
DEFPOINTS
  6
Continuous
 62
     0
100
AcDbPoint
 10
82.53557793199616
 20
174.1349134126129
 30
0.0
  0
ENDBLK
  5
66F1
330
66E6
100
AcDbEntity
  8
0
100
AcDbBlockEnd
  0
BLOCK
  5
66F3
330
66F2
100
AcDbEntity
  8
0
100
AcDbBlockBegin
  2
*D33
 70
     1
 10
0.0
 20
0.0
 30
0.0
  3
*D33
  1

  0
LINE
  5
66F4
330
66F2
100
AcDbEntity
  8
30
  6
Continuous
 62
     0
370
    -2
100
AcDbLine
 10
75.99999999999998
 20
235.1349134126127
 30
0.0
 11
90.34192661915678
 21
235.1349134126127
 31
0.0
  0
LINE
  5
66F5
330
66F2
100
AcDbEntity
  8
30
  6
Continuous
 62
     0
370
    -2
100
AcDbLine
 10
75.99999999999998
 20
167.1349134126128
 30
0.0
 11
90.34192661915676
 21
167.1349134126128
 31
0.0
  0
LINE
  5
66F6
330
66F2
100
AcDbEntity
  8
30
  6
Continuous
 62
     0
370
    -2
100
AcDbLine
 10
89.84192661915678
 20
233.1349134126127
 30
0.0
 11
89.84192661915676
 21
169.1349134126128
 31
0.0
  0
INSERT
  5
66F7
330
66F2
100
AcDbEntity
  8
30
  6
Continuous
 62
     0
370
    -2
100
AcDbBlockReference
  2
_OPEN
 10
89.84192661915678
 20
235.1349134126127
 30
0.0
 41
2.0
 42
2.0
 43
2.0
 50
90.0
  0
INSERT
  5
66F8
330
66F2
100
AcDbEntity
  8
30
  6
Continuous
 62
     0
370
    -2
100
AcDbBlockReference
  2
_OPEN
 10
89.84192661915676
 20
167.1349134126128
 30
0.0
 41
2.0
 42
2.0
 43
2.0
 50
270.0
  0
MTEXT
  5
66F9
330
66F2
100
AcDbEntity
  8
30
  6
Continuous
 62
     0
100
AcDbMText
 10
86.84192661915673
 20
201.1349134126128
 30
0.0
 40
4.0
 41
0.0
 46
0.0
 71
     5
 72
     1
  1
\A1;68
 11
0.0000000000000001
 21
1.0
 31
0.0
 73
     1
 44
1.0
1001
ACAD
1000
MTEXTBEGIN
1070
    73
1070
     1
1070
    44
1040
1.0
1070
    74
1070
     0
1000
MTEXTEND
  0
POINT
  5
66FA
330
66F2
100
AcDbEntity
  8
DEFPOINTS
  6
Continuous
 62
     0
100
AcDbPoint
 10
74.99999999999999
 20
235.1349134126127
 30
0.0
  0
POINT
  5
66FB
330
66F2
100
AcDbEntity
  8
DEFPOINTS
  6
Continuous
 62
     0
100
AcDbPoint
 10
74.99999999999999
 20
167.1349134126128
 30
0.0
  0
POINT
  5
66FC
330
66F2
100
AcDbEntity
  8
DEFPOINTS
  6
Continuous
 62
     0
100
AcDbPoint
 10
89.84192661915676
 20
167.1349134126128
 30
0.0
  0
ENDBLK
  5
66FD
330
66F2
100
AcDbEntity
  8
0
100
AcDbBlockEnd
  0
BLOCK
  5
66FF
330
66FE
100
AcDbEntity
  8
0
100
AcDbBlockBegin
  2
*D34
 70
     1
 10
0.0
 20
0.0
 30
0.0
  3
*D34
  1

  0
LINE
  5
6700
330
66FE
100
AcDbEntity
  8
30
  6
Continuous
 62
     0
370
    -2
100
AcDbLine
 10
75.99999999999998
 20
235.1349134126127
 30
0.0
 11
97.6482753063178
 21
235.1349134126127
 31
0.0
  0
LINE
  5
6701
330
66FE
100
AcDbEntity
  8
30
  6
Continuous
 62
     0
370
    -2
100
AcDbLine
 10
43.49999999999995
 20
163.1349134126129
 30
0.0
 11
97.6482753063178
 21
163.1349134126129
 31
0.0
  0
LINE
  5
6702
330
66FE
100
AcDbEntity
  8
30
  6
Continuous
 62
     0
370
    -2
100
AcDbLine
 10
97.14827530631779
 20
233.1349134126127
 30
0.0
 11
97.14827530631779
 21
165.1349134126129
 31
0.0
  0
INSERT
  5
6703
330
66FE
100
AcDbEntity
  8
30
  6
Continuous
 62
     0
370
    -2
100
AcDbBlockReference
  2
_OPEN
 10
97.14827530631779
 20
235.1349134126127
 30
0.0
 41
2.0
 42
2.0
 43
2.0
 50
90.0
  0
INSERT
  5
6704
330
66FE
100
AcDbEntity
  8
30
  6
Continuous
 62
     0
370
    -2
100
AcDbBlockReference
  2
_OPEN
 10
97.14827530631779
 20
163.1349134126129
 30
0.0
 41
2.0
 42
2.0
 43
2.0
 50
270.0
  0
MTEXT
  5
6705
330
66FE
100
AcDbEntity
  8
30
  6
Continuous
 62
     0
100
AcDbMText
 10
94.14827530631777
 20
199.1349134126128
 30
0.0
 40
4.0
 41
0.0
 46
0.0
 71
     5
 72
     1
  1
\A1;72
 11
0.0000000000000001
 21
1.0
 31
0.0
 73
     1
 44
1.0
1001
ACAD
1000
MTEXTBEGIN
1070
    73
1070
     1
1070
    44
1040
1.0
1070
    74
1070
     0
1000
MTEXTEND
  0
POINT
  5
6706
330
66FE
100
AcDbEntity
  8
DEFPOINTS
  6
Continuous
 62
     0
100
AcDbPoint
 10
74.99999999999999
 20
235.1349134126127
 30
0.0
  0
POINT
  5
6707
330
66FE
100
AcDbEntity
  8
DEFPOINTS
  6
Continuous
 62
     0
100
AcDbPoint
 10
42.49999999999995
 20
163.1349134126129
 30
0.0
  0
POINT
  5
6708
330
66FE
100
AcDbEntity
  8
DEFPOINTS
  6
Continuous
 62
     0
100
AcDbPoint
 10
97.14827530631779
 20
163.1349134126129
 30
0.0
  0
ENDBLK
  5
6709
330
66FE
100
AcDbEntity
  8
0
100
AcDbBlockEnd
  0
BLOCK
  5
670B
330
670A
100
AcDbEntity
  8
0
100
AcDbBlockBegin
  2
*D35
 70
     1
 10
0.0
 20
0.0
 30
0.0
  3
*D35
  1

  0
LINE
  5
670C
330
670A
100
AcDbEntity
  8
30
  6
Continuous
 62
     0
370
    -2
100
AcDbLine
 10
75.99999999999997
 20
235.1349134126127
 30
0.0
 11
104.9546239934789
 21
235.1349134126127
 31
0.0
  0
LINE
  5
670D
330
670A
100
AcDbEntity
  8
30
  6
Continuous
 62
     0
370
    -2
100
AcDbLine
 10
11.99999999999996
 20
159.1349134126129
 30
0.0
 11
104.9546239934789
 21
159.1349134126129
 31
0.0
  0
LINE
  5
670E
330
670A
100
AcDbEntity
  8
30
  6
Continuous
 62
     0
370
    -2
100
AcDbLine
 10
104.4546239934789
 20
233.1349134126127
 30
0.0
 11
104.4546239934789
 21
161.1349134126129
 31
0.0
  0
INSERT
  5
670F
330
670A
100
AcDbEntity
  8
30
  6
Continuous
 62
     0
370
    -2
100
AcDbBlockReference
  2
_OPEN
 10
104.4546239934789
 20
235.1349134126127
 30
0.0
 41
2.0
 42
2.0
 43
2.0
 50
90.0
  0
INSERT
  5
6710
330
670A
100
AcDbEntity
  8
30
  6
Continuous
 62
     0
370
    -2
100
AcDbBlockReference
  2
_OPEN
 10
104.4546239934789
 20
159.1349134126129
 30
0.0
 41
2.0
 42
2.0
 43
2.0
 50
270.0
  0
MTEXT
  5
6711
330
670A
100
AcDbEntity
  8
30
  6
Continuous
 62
     0
100
AcDbMText
 10
101.4546239934789
 20
197.1349134126128
 30
0.0
 40
4.0
 41
0.0
 46
0.0
 71
     5
 72
     1
  1
\A1;76
 11
0.0000000000000001
 21
1.0
 31
0.0
 73
     1
 44
1.0
1001
ACAD
1000
MTEXTBEGIN
1070
    73
1070
     1
1070
    44
1040
1.0
1070
    74
1070
     0
1000
MTEXTEND
  0
POINT
  5
6712
330
670A
100
AcDbEntity
  8
DEFPOINTS
  6
Continuous
 62
     0
100
AcDbPoint
 10
74.99999999999997
 20
235.1349134126127
 30
0.0
  0
POINT
  5
6713
330
670A
100
AcDbEntity
  8
DEFPOINTS
  6
Continuous
 62
     0
100
AcDbPoint
 10
10.99999999999996
 20
159.1349134126129
 30
0.0
  0
POINT
  5
6714
330
670A
100
AcDbEntity
  8
DEFPOINTS
  6
Continuous
 62
     0
100
AcDbPoint
 10
104.4546239934789
 20
159.1349134126129
 30
0.0
  0
ENDBLK
  5
6715
330
670A
100
AcDbEntity
  8
0
100
AcDbBlockEnd
  0
BLOCK
  5
67AB
330
67AA
100
AcDbEntity
  8
0
100
AcDbBlockBegin
  2
*D36
 70
     1
 10
0.0
 20
0.0
 30
0.0
  3
*D36
  1

  0
LINE
  5
67FE
330
67AA
100
AcDbEntity
  8
30
  6
Continuous
 62
     0
440
 16777216
370
    -2
100
AcDbLine
 10
30.0
 20
218.1349134126129
 30
0.0
 11
30.0
 21
257.4821974718418
 31
0.0
  0
LINE
  5
67FF
330
67AA
100
AcDbEntity
  8
30
  6
Continuous
 62
     0
440
 16777216
370
    -2
100
AcDbLine
 10
60.0
 20
217.1349134126129
 30
0.0
 11
60.0
 21
257.4821974718418
 31
0.0
  0
LINE
  5
6800
330
67AA
100
AcDbEntity
  8
30
  6
Continuous
 62
     0
440
 16777216
370
    -2
100
AcDbLine
 10
32.0
 20
256.9821974718418
 30
0.0
 11
58.0
 21
256.9821974718418
 31
0.0
  0
INSERT
  5
6801
330
67AA
100
AcDbEntity
  8
30
  6
Continuous
 62
     0
440
 16777216
370
    -2
100
AcDbBlockReference
  2
_OPEN
 10
30.0
 20
256.9821974718418
 30
0.0
 41
2.0
 42
2.0
 43
2.0
 50
180.0
  0
INSERT
  5
6802
330
67AA
100
AcDbEntity
  8
30
  6
Continuous
 62
     0
440
 16777216
370
    -2
100
AcDbBlockReference
  2
_OPEN
 10
60.0
 20
256.9821974718418
 30
0.0
 41
2.0
 42
2.0
 43
2.0
  0
MTEXT
  5
6803
330
67AA
100
AcDbEntity
  8
30
  6
Continuous
 62
     0
440
 16777216
100
AcDbMText
 10
45.0
 20
259.9821974718418
 30
0.0
 40
4.0
 41
0.0
 46
0.0
 71
     5
 72
     1
  1
\A1;30
 73
     1
 44
1.0
1001
ACAD
1000
MTEXTBEGIN
1070
    73
1070
     1
1070
    44
1040
1.0
1070
    74
1070
     0
1000
MTEXTEND
  0
POINT
  5
6804
330
67AA
100
AcDbEntity
  8
DEFPOINTS
  6
Continuous
 62
     0
440
 16777216
100
AcDbPoint
 10
30.0
 20
217.1349134126129
 30
0.0
  0
POINT
  5
6805
330
67AA
100
AcDbEntity
  8
DEFPOINTS
  6
Continuous
 62
     0
440
 16777216
100
AcDbPoint
 10
60.0
 20
216.1349134126129
 30
0.0
  0
POINT
  5
6806
330
67AA
100
AcDbEntity
  8
DEFPOINTS
  6
Continuous
 62
     0
440
 16777216
100
AcDbPoint
 10
60.0
 20
256.9821974718418
 30
0.0
  0
ENDBLK
  5
67AC
330
67AA
100
AcDbEntity
  8
0
100
AcDbBlockEnd
  0
BLOCK
  5
67B7
330
67B6
100
AcDbEntity
  8
0
100
AcDbBlockBegin
  2
*D37
 70
     1
 10
0.0
 20
0.0
 30
0.0
  3
*D37
  1

  0
LINE
  5
6807
330
67B6
100
AcDbEntity
  8
30
  6
Continuous
 62
     0
440
 16777216
370
    -2
100
AcDbLine
 10
75.99999999999997
 20
235.1349134126127
 30
0.0
 11
83.03557793199617
 21
235.1349134126127
 31
0.0
  0
LINE
  5
6808
330
67B6
100
AcDbEntity
  8
30
  6
Continuous
 62
     0
440
 16777216
370
    -2
100
AcDbLine
 10
75.99999999999998
 20
174.1349134126129
 30
0.0
 11
83.03557793199615
 21
174.1349134126129
 31
0.0
  0
LINE
  5
6809
330
67B6
100
AcDbEntity
  8
30
  6
Continuous
 62
     0
440
 16777216
370
    -2
100
AcDbLine
 10
82.53557793199616
 20
233.1349134126127
 30
0.0
 11
82.53557793199616
 21
176.1349134126129
 31
0.0
  0
INSERT
  5
680A
330
67B6
100
AcDbEntity
  8
30
  6
Continuous
 62
     0
440
 16777216
370
    -2
100
AcDbBlockReference
  2
_OPEN
 10
82.53557793199616
 20
235.1349134126127
 30
0.0
 41
2.0
 42
2.0
 43
2.0
 50
90.0
  0
INSERT
  5
680B
330
67B6
100
AcDbEntity
  8
30
  6
Continuous
 62
     0
440
 16777216
370
    -2
100
AcDbBlockReference
  2
_OPEN
 10
82.53557793199616
 20
174.1349134126129
 30
0.0
 41
2.0
 42
2.0
 43
2.0
 50
270.0
  0
MTEXT
  5
680C
330
67B6
100
AcDbEntity
  8
30
  6
Continuous
 62
     0
440
 16777216
100
AcDbMText
 10
79.53557793199613
 20
204.6349134126128
 30
0.0
 40
4.0
 41
0.0
 46
0.0
 71
     5
 72
     1
  1
\A1;61
 11
0.0000000000000001
 21
1.0
 31
0.0
 73
     1
 44
1.0
1001
ACAD
1000
MTEXTBEGIN
1070
    73
1070
     1
1070
    44
1040
1.0
1070
    74
1070
     0
1000
MTEXTEND
  0
POINT
  5
680D
330
67B6
100
AcDbEntity
  8
DEFPOINTS
  6
Continuous
 62
     0
440
 16777216
100
AcDbPoint
 10
74.99999999999997
 20
235.1349134126127
 30
0.0
  0
POINT
  5
680E
330
67B6
100
AcDbEntity
  8
DEFPOINTS
  6
Continuous
 62
     0
440
 16777216
100
AcDbPoint
 10
74.99999999999999
 20
174.1349134126129
 30
0.0
  0
POINT
  5
680F
330
67B6
100
AcDbEntity
  8
DEFPOINTS
  6
Continuous
 62
     0
440
 16777216
100
AcDbPoint
 10
82.53557793199616
 20
174.1349134126129
 30
0.0
  0
ENDBLK
  5
67B8
330
67B6
100
AcDbEntity
  8
0
100
AcDbBlockEnd
  0
BLOCK
  5
67C3
330
67C2
100
AcDbEntity
  8
0
100
AcDbBlockBegin
  2
*D38
 70
     1
 10
0.0
 20
0.0
 30
0.0
  3
*D38
  1

  0
LINE
  5
6810
330
67C2
100
AcDbEntity
  8
30
  6
Continuous
 62
     0
440
 16777216
370
    -2
100
AcDbLine
 10
75.99999999999998
 20
235.1349134126127
 30
0.0
 11
90.34192661915678
 21
235.1349134126127
 31
0.0
  0
LINE
  5
6811
330
67C2
100
AcDbEntity
  8
30
  6
Continuous
 62
     0
440
 16777216
370
    -2
100
AcDbLine
 10
75.99999999999998
 20
167.1349134126128
 30
0.0
 11
90.34192661915676
 21
167.1349134126128
 31
0.0
  0
LINE
  5
6812
330
67C2
100
AcDbEntity
  8
30
  6
Continuous
 62
     0
440
 16777216
370
    -2
100
AcDbLine
 10
89.84192661915678
 20
233.1349134126127
 30
0.0
 11
89.84192661915676
 21
169.1349134126128
 31
0.0
  0
INSERT
  5
6813
330
67C2
100
AcDbEntity
  8
30
  6
Continuous
 62
     0
440
 16777216
370
    -2
100
AcDbBlockReference
  2
_OPEN
 10
89.84192661915678
 20
235.1349134126127
 30
0.0
 41
2.0
 42
2.0
 43
2.0
 50
90.0
  0
INSERT
  5
6814
330
67C2
100
AcDbEntity
  8
30
  6
Continuous
 62
     0
440
 16777216
370
    -2
100
AcDbBlockReference
  2
_OPEN
 10
89.84192661915676
 20
167.1349134126128
 30
0.0
 41
2.0
 42
2.0
 43
2.0
 50
270.0
  0
MTEXT
  5
6815
330
67C2
100
AcDbEntity
  8
30
  6
Continuous
 62
     0
440
 16777216
100
AcDbMText
 10
86.84192661915673
 20
201.1349134126128
 30
0.0
 40
4.0
 41
0.0
 46
0.0
 71
     5
 72
     1
  1
\A1;68
 11
0.0000000000000001
 21
1.0
 31
0.0
 73
     1
 44
1.0
1001
ACAD
1000
MTEXTBEGIN
1070
    73
1070
     1
1070
    44
1040
1.0
1070
    74
1070
     0
1000
MTEXTEND
  0
POINT
  5
6816
330
67C2
100
AcDbEntity
  8
DEFPOINTS
  6
Continuous
 62
     0
440
 16777216
100
AcDbPoint
 10
74.99999999999999
 20
235.1349134126127
 30
0.0
  0
POINT
  5
6817
330
67C2
100
AcDbEntity
  8
DEFPOINTS
  6
Continuous
 62
     0
440
 16777216
100
AcDbPoint
 10
74.99999999999999
 20
167.1349134126128
 30
0.0
  0
POINT
  5
6818
330
67C2
100
AcDbEntity
  8
DEFPOINTS
  6
Continuous
 62
     0
440
 16777216
100
AcDbPoint
 10
89.84192661915676
 20
167.1349134126128
 30
0.0
  0
ENDBLK
  5
67C4
330
67C2
100
AcDbEntity
  8
0
100
AcDbBlockEnd
  0
BLOCK
  5
67CF
330
67CE
100
AcDbEntity
  8
0
100
AcDbBlockBegin
  2
*D39
 70
     1
 10
0.0
 20
0.0
 30
0.0
  3
*D39
  1

  0
LINE
  5
6819
330
67CE
100
AcDbEntity
  8
30
  6
Continuous
 62
     0
440
 16777216
370
    -2
100
AcDbLine
 10
75.99999999999998
 20
235.1349134126127
 30
0.0
 11
97.6482753063178
 21
235.1349134126127
 31
0.0
  0
LINE
  5
681A
330
67CE
100
AcDbEntity
  8
30
  6
Continuous
 62
     0
440
 16777216
370
    -2
100
AcDbLine
 10
43.49999999999995
 20
163.1349134126129
 30
0.0
 11
97.6482753063178
 21
163.1349134126129
 31
0.0
  0
LINE
  5
681B
330
67CE
100
AcDbEntity
  8
30
  6
Continuous
 62
     0
440
 16777216
370
    -2
100
AcDbLine
 10
97.14827530631779
 20
233.1349134126127
 30
0.0
 11
97.14827530631779
 21
165.1349134126129
 31
0.0
  0
INSERT
  5
681C
330
67CE
100
AcDbEntity
  8
30
  6
Continuous
 62
     0
440
 16777216
370
    -2
100
AcDbBlockReference
  2
_OPEN
 10
97.14827530631779
 20
235.1349134126127
 30
0.0
 41
2.0
 42
2.0
 43
2.0
 50
90.0
  0
INSERT
  5
681D
330
67CE
100
AcDbEntity
  8
30
  6
Continuous
 62
     0
440
 16777216
370
    -2
100
AcDbBlockReference
  2
_OPEN
 10
97.14827530631779
 20
163.1349134126129
 30
0.0
 41
2.0
 42
2.0
 43
2.0
 50
270.0
  0
MTEXT
  5
681E
330
67CE
100
AcDbEntity
  8
30
  6
Continuous
 62
     0
440
 16777216
100
AcDbMText
 10
94.14827530631777
 20
199.1349134126128
 30
0.0
 40
4.0
 41
0.0
 46
0.0
 71
     5
 72
     1
  1
\A1;72
 11
0.0000000000000001
 21
1.0
 31
0.0
 73
     1
 44
1.0
1001
ACAD
1000
MTEXTBEGIN
1070
    73
1070
     1
1070
    44
1040
1.0
1070
    74
1070
     0
1000
MTEXTEND
  0
POINT
  5
681F
330
67CE
100
AcDbEntity
  8
DEFPOINTS
  6
Continuous
 62
     0
440
 16777216
100
AcDbPoint
 10
74.99999999999999
 20
235.1349134126127
 30
0.0
  0
POINT
  5
6820
330
67CE
100
AcDbEntity
  8
DEFPOINTS
  6
Continuous
 62
     0
440
 16777216
100
AcDbPoint
 10
42.49999999999995
 20
163.1349134126129
 30
0.0
  0
POINT
  5
6821
330
67CE
100
AcDbEntity
  8
DEFPOINTS
  6
Continuous
 62
     0
440
 16777216
100
AcDbPoint
 10
97.14827530631779
 20
163.1349134126129
 30
0.0
  0
ENDBLK
  5
67D0
330
67CE
100
AcDbEntity
  8
0
100
AcDbBlockEnd
  0
BLOCK
  5
67DB
330
67DA
100
AcDbEntity
  8
0
100
AcDbBlockBegin
  2
*D40
 70
     1
 10
0.0
 20
0.0
 30
0.0
  3
*D40
  1

  0
LINE
  5
6822
330
67DA
100
AcDbEntity
  8
30
  6
Continuous
 62
     0
440
 16777216
370
    -2
100
AcDbLine
 10
75.99999999999997
 20
235.1349134126127
 30
0.0
 11
104.9546239934789
 21
235.1349134126127
 31
0.0
  0
LINE
  5
6823
330
67DA
100
AcDbEntity
  8
30
  6
Continuous
 62
     0
440
 16777216
370
    -2
100
AcDbLine
 10
11.99999999999996
 20
159.1349134126129
 30
0.0
 11
104.9546239934789
 21
159.1349134126129
 31
0.0
  0
LINE
  5
6824
330
67DA
100
AcDbEntity
  8
30
  6
Continuous
 62
     0
440
 16777216
370
    -2
100
AcDbLine
 10
104.4546239934789
 20
233.1349134126127
 30
0.0
 11
104.4546239934789
 21
161.1349134126129
 31
0.0
  0
INSERT
  5
6825
330
67DA
100
AcDbEntity
  8
30
  6
Continuous
 62
     0
440
 16777216
370
    -2
100
AcDbBlockReference
  2
_OPEN
 10
104.4546239934789
 20
235.1349134126127
 30
0.0
 41
2.0
 42
2.0
 43
2.0
 50
90.0
  0
INSERT
  5
6826
330
67DA
100
AcDbEntity
  8
30
  6
Continuous
 62
     0
440
 16777216
370
    -2
100
AcDbBlockReference
  2
_OPEN
 10
104.4546239934789
 20
159.1349134126129
 30
0.0
 41
2.0
 42
2.0
 43
2.0
 50
270.0
  0
MTEXT
  5
6827
330
67DA
100
AcDbEntity
  8
30
  6
Continuous
 62
     0
440
 16777216
100
AcDbMText
 10
101.4546239934789
 20
197.1349134126128
 30
0.0
 40
4.0
 41
0.0
 46
0.0
 71
     5
 72
     1
  1
\A1;76
 11
0.0000000000000001
 21
1.0
 31
0.0
 73
     1
 44
1.0
1001
ACAD
1000
MTEXTBEGIN
1070
    73
1070
     1
1070
    44
1040
1.0
1070
    74
1070
     0
1000
MTEXTEND
  0
POINT
  5
6828
330
67DA
100
AcDbEntity
  8
DEFPOINTS
  6
Continuous
 62
     0
440
 16777216
100
AcDbPoint
 10
74.99999999999997
 20
235.1349134126127
 30
0.0
  0
POINT
  5
6829
330
67DA
100
AcDbEntity
  8
DEFPOINTS
  6
Continuous
 62
     0
440
 16777216
100
AcDbPoint
 10
10.99999999999996
 20
159.1349134126129
 30
0.0
  0
POINT
  5
682A
330
67DA
100
AcDbEntity
  8
DEFPOINTS
  6
Continuous
 62
     0
440
 16777216
100
AcDbPoint
 10
104.4546239934789
 20
159.1349134126129
 30
0.0
  0
ENDBLK
  5
67DC
330
67DA
100
AcDbEntity
  8
0
100
AcDbBlockEnd
  0
BLOCK
  5
67E7
330
67E6
100
AcDbEntity
  8
0
100
AcDbBlockBegin
  2
*D41
 70
     1
 10
0.0
 20
0.0
 30
0.0
  3
*D41
  1

  0
LINE
  5
682B
330
67E6
100
AcDbEntity
  8
30
  6
Continuous
 62
     0
440
 16777216
370
    -2
100
AcDbLine
 10
-29.99999999999998
 20
217.1349134126129
 30
0.0
 11
-29.99999999999998
 21
257.4821974718418
 31
0.0
  0
LINE
  5
682C
330
67E6
100
AcDbEntity
  8
30
  6
Continuous
 62
     0
440
 16777216
370
    -2
100
AcDbLine
 10
0.0000000000000005
 20
217.1349134126129
 30
0.0
 11
0.0000000000000029
 21
257.4821974718418
 31
0.0
  0
LINE
  5
682D
330
67E6
100
AcDbEntity
  8
30
  6
Continuous
 62
     0
440
 16777216
370
    -2
100
AcDbLine
 10
-27.99999999999998
 20
256.9821974718418
 30
0.0
 11
-1.999999999999996
 21
256.9821974718418
 31
0.0
  0
INSERT
  5
682E
330
67E6
100
AcDbEntity
  8
30
  6
Continuous
 62
     0
440
 16777216
370
    -2
100
AcDbBlockReference
  2
_OPEN
 10
-29.99999999999998
 20
256.9821974718418
 30
0.0
 41
2.0
 42
2.0
 43
2.0
 50
180.0
  0
INSERT
  5
682F
330
67E6
100
AcDbEntity
  8
30
  6
Continuous
 62
     0
440
 16777216
370
    -2
100
AcDbBlockReference
  2
_OPEN
 10
0.0000000000000029
 20
256.9821974718418
 30
0.0
 41
2.0
 42
2.0
 43
2.0
  0
MTEXT
  5
6830
330
67E6
100
AcDbEntity
  8
30
  6
Continuous
 62
     0
440
 16777216
100
AcDbMText
 10
-14.99999999999999
 20
259.9821974718418
 30
0.0
 40
4.0
 41
0.0
 46
0.0
 71
     5
 72
     1
  1
\A1;30
 73
     1
 44
1.0
1001
ACAD
1000
MTEXTBEGIN
1070
    73
1070
     1
1070
    44
1040
1.0
1070
    74
1070
     0
1000
MTEXTEND
  0
POINT
  5
6831
330
67E6
100
AcDbEntity
  8
DEFPOINTS
  6
Continuous
 62
     0
440
 16777216
100
AcDbPoint
 10
-29.99999999999998
 20
216.1349134126129
 30
0.0
  0
POINT
  5
6832
330
67E6
100
AcDbEntity
  8
DEFPOINTS
  6
Continuous
 62
     0
440
 16777216
100
AcDbPoint
 10
0.0000000000000004
 20
216.1349134126129
 30
0.0
  0
POINT
  5
6833
330
67E6
100
AcDbEntity
  8
DEFPOINTS
  6
Continuous
 62
     0
440
 16777216
100
AcDbPoint
 10
0.0000000000000029
 20
256.9821974718418
 30
0.0
  0
ENDBLK
  5
67E8
330
67E6
100
AcDbEntity
  8
0
100
AcDbBlockEnd
  0
BLOCK
  5
67F3
330
67F2
100
AcDbEntity
  8
0
100
AcDbBlockBegin
  2
*D42
 70
     1
 10
0.0
 20
0.0
 30
0.0
  3
*D42
  1

  0
LINE
  5
6834
330
67F2
100
AcDbEntity
  8
30
  6
Continuous
 62
     0
440
 16777216
370
    -2
100
AcDbLine
 10
0.0000000000000005
 20
218.1349134126129
 30
0.0
 11
0.0000000000000029
 21
257.4821974718418
 31
0.0
  0
LINE
  5
6835
330
67F2
100
AcDbEntity
  8
30
  6
Continuous
 62
     0
440
 16777216
370
    -2
100
AcDbLine
 10
30.0
 20
217.1349134126129
 30
0.0
 11
30.0
 21
257.4821974718418
 31
0.0
  0
LINE
  5
6836
330
67F2
100
AcDbEntity
  8
30
  6
Continuous
 62
     0
440
 16777216
370
    -2
100
AcDbLine
 10
2.000000000000002
 20
256.9821974718418
 30
0.0
 11
28.00000000000001
 21
256.9821974718418
 31
0.0
  0
INSERT
  5
6837
330
67F2
100
AcDbEntity
  8
30
  6
Continuous
 62
     0
440
 16777216
370
    -2
100
AcDbBlockReference
  2
_OPEN
 10
0.0000000000000028
 20
256.9821974718418
 30
0.0
 41
2.0
 42
2.0
 43
2.0
 50
180.0
  0
INSERT
  5
6838
330
67F2
100
AcDbEntity
  8
30
  6
Continuous
 62
     0
440
 16777216
370
    -2
100
AcDbBlockReference
  2
_OPEN
 10
30.0
 20
256.9821974718418
 30
0.0
 41
2.0
 42
2.0
 43
2.0
  0
MTEXT
  5
6839
330
67F2
100
AcDbEntity
  8
30
  6
Continuous
 62
     0
440
 16777216
100
AcDbMText
 10
15.0
 20
259.9821974718418
 30
0.0
 40
4.0
 41
0.0
 46
0.0
 71
     5
 72
     1
  1
\A1;30
 73
     1
 44
1.0
1001
ACAD
1000
MTEXTBEGIN
1070
    73
1070
     1
1070
    44
1040
1.0
1070
    74
1070
     0
1000
MTEXTEND
  0
POINT
  5
683A
330
67F2
100
AcDbEntity
  8
DEFPOINTS
  6
Continuous
 62
     0
440
 16777216
100
AcDbPoint
 10
0.0000000000000004
 20
217.1349134126129
 30
0.0
  0
POINT
  5
683B
330
67F2
100
AcDbEntity
  8
DEFPOINTS
  6
Continuous
 62
     0
440
 16777216
100
AcDbPoint
 10
30.0
 20
216.1349134126129
 30
0.0
  0
POINT
  5
683C
330
67F2
100
AcDbEntity
  8
DEFPOINTS
  6
Continuous
 62
     0
440
 16777216
100
AcDbPoint
 10
30.0
 20
256.9821974718418
 30
0.0
  0
ENDBLK
  5
67F4
330
67F2
100
AcDbEntity
  8
0
100
AcDbBlockEnd
  0
ENDSEC
  0
SECTION
  2
ENTITIES
  0
LINE
  5
B4
330
1E
100
AcDbEntity
  8
16
100
AcDbLine
 10
0.0
 20
-101.8246001220914
 30
0.0
 11
0.0
 21
105.6073578546832
 31
0.0
  0
LINE
  5
B5
330
1E
100
AcDbEntity
  8
16
100
AcDbLine
 10
71.77465564206305
 20
-0.0000000000000018
 30
0.0
 11
-83.90588178115756
 21
-0.0000000000000018
 31
0.0
  0
MTEXT
  5
BF3
330
1E
100
AcDbEntity
  8
24
  6
Continuous
100
AcDbMText
 10
140.9820964648285
 20
176.3476821548369
 30
0.0
 40
3.0
 41
0.0
 46
0.0
 71
     1
 72
     1
  1
\A1;
 73
     1
 44
1.0
1001
ACAD
1000
MTEXTBEGIN
1070
    73
1070
     1
1070
    44
1040
1.0
1070
    74
1070
     0
1000
MTEXTEND
  0
LINE
  5
1C9B
330
1E
100
AcDbEntity
  8
16
100
AcDbLine
 10
252.2605240987882
 20
0.0102925531034544
 30
0.0
 11
120.0952764866181
 21
0.0102925531034544
 31
0.0
  0
LINE
  5
2260
330
1E
100
AcDbEntity
  8
16
100
AcDbLine
 10
87.32666213088251
 20
-253.4106968373281
 30
0.0
 11
-80.93000773675209
 21
-252.6631237443548
 31
0.0
  0
LINE
  5
2261
330
1E
100
AcDbEntity
  8
16
100
AcDbLine
 10
-0.3800945351711884
 20
-350.4150635072006
 30
0.0
 11
-0.3800945351711884
 21
-151.2797245348689
 31
0.0
  0
LINE
  5
4C5A
330
1E
100
AcDbEntity
  8
16
100
AcDbLine
 10
88.49441808474184
 20
-0.0000000000000018
 30
0.0
 11
-83.90588178115756
 21
-0.0000000000000018
 31
0.0
  0
DIMENSION
  5
59B9
330
1E
100
AcDbEntity
  8
30
  6
Continuous
100
AcDbDimension
280
     0
  2
*D4
 10
217.9923778520064
 20
-136.2757960792595
 30
0.0
 11
171.9923778520064
 21
-133.2757960792595
 31
0.0
 70
    32
 71
     5
 42
-1.0
 73
     0
 74
     0
 75
     0
  3
STANDARD
100
AcDbAlignedDimension
 13
125.9923778520064
 23
0.0102925531034544
 33
0.0
 14
217.9923778520064
 24
-77.48970744689656
 34
0.0
 50
180.0
100
AcDbRotatedDimension
1001
ACAD
1000
DSTYLE
1002
{
1070
    79
1070
     3
1002
}
  0
DIMENSION
  5
59BA
330
1E
100
AcDbEntity
  8
30
  6
Continuous
100
AcDbDimension
280
     0
  2
*D5
 10
145.9923778520064
 20
-121.8996550098397
 30
0.0
 11
152.3257111853398
 21
-118.8996550098394
 31
0.0
 70
    32
 71
     5
 42
-1.0
 73
     0
 74
     0
 75
     0
  3
STANDARD
100
AcDbAlignedDimension
 13
141.9923778520064
 23
-24.98970744689656
 33
0.0
 14
145.9923778520064
 24
-24.98970744689656
 34
0.0
 50
180.0
100
AcDbRotatedDimension
1001
ACAD
1000
DSTYLE
1002
{
1070
    79
1070
     3
1002
}
  0
DIMENSION
  5
59BB
330
1E
100
AcDbEntity
  8
30
  6
Continuous
100
AcDbDimension
280
     0
  2
*D6
 10
217.9923778520064
 20
-121.8996550098397
 30
0.0
 11
181.9923778520064
 21
-118.8996550098394
 31
0.0
 70
    32
 71
     5
 42
-1.0
 73
     0
 74
     0
 75
     0
  3
STANDARD
100
AcDbAlignedDimension
 13
145.9923778520064
 23
-24.98970744689656
 33
0.0
 14
217.9923778520064
 24
-77.48970744689656
 34
0.0
 50
180.0
100
AcDbRotatedDimension
1001
ACAD
1000
DSTYLE
1002
{
1070
    79
1070
     3
1002
}
  0
DIMENSION
  5
59BE
330
1E
100
AcDbEntity
  8
30
  6
Continuous
100
AcDbDimension
280
     0
  2
*D7
 10
113.3096155908132
 20
25.01029255310343
 30
0.0
 11
110.3096155908132
 21
0.010292553103462
 31
0.0
 70
    32
 71
     5
 42
-1.0
 73
     0
 74
     0
 75
     0
  3
STANDARD
100
AcDbAlignedDimension
 13
141.9923778520064
 23
-24.98970744689656
 33
0.0
 14
141.9923778520064
 24
25.01029255310343
 34
0.0
 50
90.0
100
AcDbRotatedDimension
1001
ACAD
1000
DSTYLE
1002
{
1070
    79
1070
     3
1002
}
  0
LINE
  5
59BF
330
1E
100
AcDbEntity
  8
10
  6
CONTINOUS
100
AcDbLine
 10
141.9923778520064
 20
14.1757293925334
 30
0.0
 11
133.4385826705174
 21
20.16516125891396
 31
0.0
  0
LINE
  5
59C0
330
1E
100
AcDbEntity
  8
10
  6
CONTINOUS
100
AcDbLine
 10
141.9923778520064
 20
6.851081859964692
 30
0.0
 11
129.9971240524111
 21
15.25024899318005
 31
0.0
  0
ARC
  5
59C2
330
1E
100
AcDbEntity
  8
30
  6
Continuous
100
AcDbCircle
 10
156.9923778520064
 20
0.0102925531034544
 30
0.0
 40
31.0
100
AcDbArc
 50
150.5534441956585
 51
180.0
  0
LINE
  5
59C5
330
1E
100
AcDbEntity
  8
10
  6
CONTINOUS
100
AcDbLine
 10
129.9971240524111
 20
15.25024899318005
 30
0.0
 11
133.4385826705174
 21
20.16516125891396
 31
0.0
  0
DIMENSION
  5
59C6
330
1E
100
AcDbEntity
  8
30
  6
Continuous
100
AcDbDimension
280
     0
  2
*D8
 10
217.9923778520064
 20
108.2608744091517
 30
0.0
 11
205.9923778520064
 21
111.2608744091517
 31
0.0
 70
    32
 71
     5
 42
-1.0
 73
     0
 74
     0
 75
     0
  3
STANDARD
100
AcDbAlignedDimension
 13
193.9923778520064
 23
77.51029255310347
 33
0.0
 14
217.9923778520064
 24
77.51029255310354
 34
0.0
100
AcDbRotatedDimension
1001
ACAD
1000
DSTYLE
1002
{
1070
    79
1070
     3
1002
}
  0
LINE
  5
59C7
330
1E
100
AcDbEntity
  8
10
  6
CONTINOUS
100
AcDbLine
 10
149.9923778520065
 20
51.01029255310336
 30
0.0
 11
149.9923778520065
 21
-50.98970744689665
 31
0.0
  0
LINE
  5
59C8
330
1E
100
AcDbEntity
  8
10
  6
CONTINOUS
100
AcDbLine
 10
145.9923778520064
 20
25.01029255310344
 30
0.0
 11
145.9923778520064
 21
-24.98970744689656
 31
0.0
  0
LINE
  5
59C9
330
1E
100
AcDbEntity
  8
10
  6
CONTINOUS
100
AcDbLine
 10
217.9923778520064
 20
77.51029255310354
 30
0.0
 11
217.9923778520064
 21
-77.48970744689656
 31
0.0
  0
LINE
  5
59CA
330
1E
100
AcDbEntity
  8
10
  6
CONTINOUS
100
AcDbLine
 10
141.9923778520064
 20
25.01029255310344
 30
0.0
 11
141.9923778520064
 21
-24.98970744689656
 31
0.0
  0
LINE
  5
59CD
330
1E
100
AcDbEntity
  8
12
  6
DASHED
100
AcDbLine
 10
217.9923778520064
 20
-63.73970744689657
 30
0.0
 11
225.9923778520064
 21
-63.73970744689657
 31
0.0
  0
LINE
  5
59CE
330
1E
100
AcDbEntity
  8
12
  6
DASHED
100
AcDbLine
 10
146.9923778520069
 20
-65.9897074468966
 30
0.0
 11
235.9923778520065
 21
-65.9897074468966
 31
0.0
  0
LINE
  5
59CF
330
1E
100
AcDbEntity
  8
12
  6
DASHED
100
AcDbLine
 10
217.9923778520064
 20
-68.23970744689657
 30
0.0
 11
225.9923778520064
 21
-68.23970744689657
 31
0.0
  0
DIMENSION
  5
59D0
330
1E
100
AcDbEntity
  8
30
  6
Continuous
100
AcDbDimension
280
     0
  2
*D9
 10
217.9923778520064
 20
-109.4248887595564
 30
0.0
 11
183.9923778520064
 21
-106.4248887595564
 31
0.0
 70
    32
 71
     5
 42
-1.0
 73
     0
 74
     0
 75
     0
  3
STANDARD
100
AcDbAlignedDimension
 13
149.9923778520065
 23
-50.98970744689665
 33
0.0
 14
217.9923778520064
 24
-77.48970744689656
 34
0.0
 50
180.0
100
AcDbRotatedDimension
1001
ACAD
1000
DSTYLE
1002
{
1070
    79
1070
     3
1002
}
  0
DIMENSION
  5
59D1
330
1E
100
AcDbEntity
  8
30
  6
Continuous
100
AcDbDimension
280
     0
  2
*D10
 10
217.9923778520064
 20
-97.83544422304402
 30
0.0
 11
187.4923778520065
 21
-94.83544422304399
 31
0.0
 70
    32
 71
     5
 42
-1.0
 73
     0
 74
     0
 75
     0
  3
STANDARD
100
AcDbAlignedDimension
 13
156.9923778520063
 23
-77.48970744689656
 33
0.0
 14
217.9923778520064
 24
-77.48970744689656
 34
0.0
 50
180.0
100
AcDbRotatedDimension
1001
ACAD
1000
DSTYLE
1002
{
1070
    79
1070
     3
1002
}
  0
DIMENSION
  5
59D2
330
1E
100
AcDbEntity
  8
30
  6
Continuous
100
AcDbDimension
280
     0
  2
*D11
 10
217.9923778520064
 20
-87.57398143985339
 30
0.0
 11
195.4923778520064
 21
-84.57398143985342
 31
0.0
 70
    32
 71
     5
 42
-1.0
 73
     0
 74
     0
 75
     0
  3
STANDARD
100
AcDbAlignedDimension
 13
172.9923778520064
 23
-70.23970744689655
 33
0.0
 14
217.9923778520064
 24
-77.48970744689656
 34
0.0
 50
180.0
100
AcDbRotatedDimension
1001
ACAD
1000
DSTYLE
1002
{
1070
    79
1070
     3
1002
}
  0
LINE
  5
59D3
330
1E
100
AcDbEntity
  8
12
  6
DASHED
100
AcDbLine
 10
172.9923778520064
 20
-68.23970744689657
 30
0.0
 11
217.9923778520064
 21
-68.23970744689657
 31
0.0
  0
LINE
  5
59D4
330
1E
100
AcDbEntity
  8
12
  6
DASHED
100
AcDbLine
 10
172.9923778520064
 20
-63.73970744689657
 30
0.0
 11
217.9923778520064
 21
-63.73970744689657
 31
0.0
  0
LINE
  5
59D5
330
1E
100
AcDbEntity
  8
10
  6
CONTINOUS
100
AcDbLine
 10
156.9923778520064
 20
-77.48970744689656
 30
0.0
 11
217.9923778520064
 21
-77.48970744689656
 31
0.0
  0
LINE
  5
59D6
330
1E
100
AcDbEntity
  8
10
  6
CONTINOUS
100
AcDbLine
 10
156.9923778520064
 20
-50.98970744689649
 30
0.0
 11
156.9923778520064
 21
-77.48970744689656
 31
0.0
  0
LINE
  5
59D7
330
1E
100
AcDbEntity
  8
12
  6
DASHED
100
AcDbLine
 10
156.9923778520064
 20
-70.23970744689655
 30
0.0
 11
172.9923778520064
 21
-70.23970744689655
 31
0.0
  0
LINE
  5
59D8
330
1E
100
AcDbEntity
  8
12
  6
DASHED
100
AcDbLine
 10
156.9923778520064
 20
-61.73970744689651
 30
0.0
 11
172.9923778520064
 21
-61.73970744689651
 31
0.0
  0
LINE
  5
59D9
330
1E
100
AcDbEntity
  8
12
  6
DASHED
100
AcDbLine
 10
172.9923778520064
 20
-61.73970744689651
 30
0.0
 11
172.9923778520064
 21
-70.23970744689655
 31
0.0
  0
LINE
  5
59DA
330
1E
100
AcDbEntity
  8
12
  6
DASHED
100
AcDbLine
 10
166.9923778520064
 20
-61.73970744689651
 30
0.0
 11
166.9923778520064
 21
-70.23970744689655
 31
0.0
  0
LINE
  5
59DB
330
1E
100
AcDbEntity
  8
12
  6
DASHED
100
AcDbLine
 10
172.9923778520064
 20
-68.23970744689654
 30
0.0
 11
172.9923778520064
 21
-70.23970744689655
 31
0.0
  0
LINE
  5
59DC
330
1E
100
AcDbEntity
  8
12
  6
DASHED
100
AcDbLine
 10
172.9923778520064
 20
-61.73970744689651
 30
0.0
 11
172.9923778520064
 21
-63.73970744689657
 31
0.0
  0
LINE
  5
59DD
330
1E
100
AcDbEntity
  8
10
  6
CONTINOUS
100
AcDbLine
 10
149.9923778520065
 20
-50.98970744689665
 30
0.0
 11
156.9923778520064
 21
-50.98970744689665
 31
0.0
  0
LINE
  5
59DE
330
1E
100
AcDbEntity
  8
10
  6
CONTINOUS
100
AcDbLine
 10
141.9923778520064
 20
-24.98970744689656
 30
0.0
 11
149.9923778520065
 21
-24.98970744689656
 31
0.0
  0
LINE
  5
59DF
330
1E
100
AcDbEntity
  8
12
  6
DASHED
100
AcDbLine
 10
225.9923778520064
 20
-63.73970744689654
 30
0.0
 11
225.9923778520064
 21
-68.23970744689654
 31
0.0
  0
LINE
  5
59E0
330
1E
100
AcDbEntity
  8
10
  6
CONTINOUS
100
AcDbLine
 10
141.9923778520064
 20
25.01029255310344
 30
0.0
 11
149.9923778520065
 21
25.01029255310344
 31
0.0
  0
LINE
  5
59E1
330
1E
100
AcDbEntity
  8
10
  6
CONTINOUS
100
AcDbLine
 10
156.9923778520064
 20
77.51029255310347
 30
0.0
 11
217.9923778520064
 21
77.51029255310354
 31
0.0
  0
LINE
  5
59E2
330
1E
100
AcDbEntity
  8
10
  6
CONTINOUS
100
AcDbLine
 10
156.9923778520064
 20
77.51029255310347
 30
0.0
 11
156.9923778520064
 21
51.01029255310343
 31
0.0
  0
LINE
  5
59E3
330
1E
100
AcDbEntity
  8
10
  6
CONTINOUS
100
AcDbLine
 10
149.9923778520065
 20
51.01029255310343
 30
0.0
 11
156.9923778520064
 21
51.01029255310343
 31
0.0
  0
LINE
  5
59E4
330
1E
100
AcDbEntity
  8
24
  6
CONTINOUS
100
AcDbLine
 10
195.9923778520064
 20
77.51029255310347
 30
0.0
 11
195.9923778520064
 21
56.51029255310335
 31
0.0
  0
LINE
  5
59E5
330
1E
100
AcDbEntity
  8
24
  6
CONTINOUS
100
AcDbLine
 10
186.7923778520065
 20
72.01029255310341
 30
0.0
 11
186.7923778520065
 21
62.01029255310341
 31
0.0
  0
LINE
  5
59E6
330
1E
100
AcDbEntity
  8
24
  6
CONTINOUS
100
AcDbLine
 10
191.9923778520064
 20
74.71029255310341
 30
0.0
 11
191.9923778520064
 21
59.31029255310344
 31
0.0
  0
LINE
  5
59E7
330
1E
100
AcDbEntity
  8
24
  6
CONTINOUS
100
AcDbLine
 10
193.9923778520064
 20
77.51029255310347
 30
0.0
 11
193.9923778520064
 21
56.51029255310335
 31
0.0
  0
LINE
  5
59E8
330
1E
100
AcDbEntity
  8
24
  6
CONTINOUS
100
AcDbLine
 10
188.7923778520066
 20
60.01029255310342
 30
0.0
 11
191.9923778520064
 21
60.01029255310342
 31
0.0
  0
LINE
  5
59E9
330
1E
100
AcDbEntity
  8
24
  6
CONTINOUS
100
AcDbLine
 10
181.7923778520063
 20
67.01029255310341
 30
0.0
 11
198.9923778520065
 21
67.01029255310341
 31
0.0
  0
ARC
  5
59EA
330
1E
100
AcDbEntity
  8
24
  6
CONTINOUS
100
AcDbCircle
 10
188.7923778520066
 20
62.01029255310341
 30
0.0
 40
2.0
100
AcDbArc
 50
180.0
 51
270.0
  0
LINE
  5
59EB
330
1E
100
AcDbEntity
  8
24
  6
CONTINOUS
100
AcDbLine
 10
193.9923778520064
 20
56.51029255310335
 30
0.0
 11
195.9923778520064
 21
56.51029255310335
 31
0.0
  0
LINE
  5
59EC
330
1E
100
AcDbEntity
  8
24
  6
CONTINOUS
100
AcDbLine
 10
191.9923778520064
 20
59.31029255310344
 30
0.0
 11
193.9923778520064
 21
59.31029255310344
 31
0.0
  0
LINE
  5
59ED
330
1E
100
AcDbEntity
  8
24
  6
CONTINOUS
100
AcDbLine
 10
188.7923778520066
 20
74.01029255310341
 30
0.0
 11
191.9923778520064
 21
74.01029255310341
 31
0.0
  0
ARC
  5
59EE
330
1E
100
AcDbEntity
  8
24
  6
CONTINOUS
100
AcDbCircle
 10
188.7923778520066
 20
72.01029255310341
 30
0.0
 40
2.0
100
AcDbArc
 50
90.0
 51
180.0
  0
LINE
  5
59EF
330
1E
100
AcDbEntity
  8
24
  6
CONTINOUS
100
AcDbLine
 10
191.9923778520064
 20
74.71029255310341
 30
0.0
 11
193.9923778520064
 21
74.71029255310341
 31
0.0
  0
DIMENSION
  5
59F0
330
1E
100
AcDbEntity
  8
30
  6
Continuous
100
AcDbDimension
280
     0
  2
*D12
 10
274.4923778520064
 20
27.6098009537836
 30
0.0
 11
265.9923778520066
 21
30.6098009537836
 31
0.0
 70
    32
 71
     5
 42
-1.0
 73
     0
 74
     0
 75
     0
  3
STANDARD
100
AcDbAlignedDimension
 13
257.4923778520064
 23
43.01029255310345
 33
0.0
 14
274.4923778520064
 24
43.01029255310345
 34
0.0
 50
180.0
100
AcDbRotatedDimension
1001
ACAD
1000
DSTYLE
1002
{
1070
    79
1070
     3
1002
}
  0
INSERT
  5
59F1
330
1E
100
AcDbEntity
  8
30
  6
Continuous
100
AcDbBlockReference
  2
*U3
 10
-371.545899659955
 20
-244.2651990414663
 30
0.0
 41
2.5
 42
2.5
 43
2.5
  0
INSERT
  5
59F2
330
1E
100
AcDbEntity
  8
30
  6
Continuous
100
AcDbBlockReference
  2
*U2
 10
-371.545899659955
 20
-244.2651990414663
 30
0.0
 41
2.5
 42
2.5
 43
2.5
  0
INSERT
  5
59F3
330
1E
100
AcDbEntity
  8
30
  6
Continuous
100
AcDbBlockReference
  2
*U1
 10
-371.545899659955
 20
-244.2651990414663
 30
0.0
 41
2.5
 42
2.5
 43
2.5
  0
ARC
  5
59F4
330
1E
100
AcDbEntity
  8
24
  6
Continuous
100
AcDbCircle
 10
261.6173778520066
 20
68.65577761767593
 30
0.0
 40
8.0
100
AcDbArc
 50
58.9607599896022
 51
121.0392400103977
  0
CIRCLE
  5
59F5
330
1E
100
AcDbEntity
  8
17
  6
DASHDOT
100
AcDbCircle
 10
265.9923778520066
 20
51.51029255310342
 30
0.0
 40
4.5
  0
LINE
  5
59F6
330
1E
100
AcDbEntity
  8
24
  6
Continuous
100
AcDbLine
 10
265.3169338818679
 20
75.74896344506797
 30
0.0
 11
269.7878198205435
 21
73.41710672571124
 31
0.0
  0
LINE
  5
59F7
330
1E
100
AcDbEntity
  8
17
  6
DASHDOT
100
AcDbLine
 10
259.7423778520066
 20
51.51029255310342
 30
0.0
 11
272.2423778520066
 21
51.51029255310342
 31
0.0
  0
LINE
  5
59F8
330
1E
100
AcDbEntity
  8
24
  6
Continuous
100
AcDbLine
 10
257.4923778520064
 20
43.01029255310345
 30
0.0
 11
274.4923778520064
 21
43.01029255310345
 31
0.0
  0
LINE
  5
59FA
330
1E
100
AcDbEntity
  8
24
  6
Continuous
100
AcDbLine
 10
257.4923778520064
 20
75.51029255310348
 30
0.0
 11
257.4923778520064
 21
43.01029255310345
 31
0.0
  0
LINE
  5
59FC
330
1E
100
AcDbEntity
  8
24
  6
Continuous
100
AcDbLine
 10
274.4923778520064
 20
72.57367041413417
 30
0.0
 11
274.4923778520064
 21
43.01029255310345
 31
0.0
  0
DIMENSION
  5
59FD
330
1E
100
AcDbEntity
  8
30
  6
Continuous
100
AcDbDimension
280
     0
  2
*D13
 10
289.0791003447947
 20
51.51029255310342
 30
0.0
 11
294.0791003447947
 21
56.51029255310345
 31
0.0
 70
    32
 71
     5
 42
-1.0
 73
     0
 74
     0
 75
     0
  3
STANDARD
100
AcDbAlignedDimension
 13
274.4923778520064
 23
43.01029255310345
 33
0.0
 14
268.4923778685063
 24
51.51029255310342
 34
0.0
 50
270.0
100
AcDbRotatedDimension
1001
ACAD
1000
DSTYLE
1002
{
1070
    79
1070
     3
1002
}
  0
LINE
  5
59FE
330
1E
100
AcDbEntity
  8
17
  6
DASHDOT
100
AcDbLine
 10
265.9923778520066
 20
57.76029255310342
 30
0.0
 11
265.9923778520068
 21
45.26029255310342
 31
0.0
  0
ARC
  5
59FF
330
1E
100
AcDbEntity
  8
24
  6
Continuous
100
AcDbCircle
 10
273.487375850405
 20
80.51029255310348
 30
0.0
 40
8.0
100
AcDbArc
 50
242.4550403035893
 51
277.2168646146247
  0
TEXT
  5
5C38
330
1E
100
AcDbEntity
  8
30
  6
Continuous
100
AcDbText
 10
168.6064450230434
 20
95.05011022994844
 30
0.0
 40
5.0
  1
M8
  7
STANDARD1
100
AcDbText
  0
TEXT
  5
5C39
330
1E
100
AcDbEntity
  8
30
  6
Continuous
100
AcDbText
 10
240.5305604766125
 20
76.12678862702907
 30
0.0
 40
5.0
  1
%%c9
  7
STANDARD1
100
AcDbText
  0
LEADER
  5
5C77
330
1E
100
AcDbEntity
  8
30
  6
Continuous
100
AcDbLeader
  3
STANDARD
 76
     3
 10
188.9205243462294
 20
74.67885470276758
 30
0.0
 10
179.5845267176718
 20
93.78586083856806
 30
0.0
 10
163.3297648581359
 20
89.99793930010117
 30
0.0
213
0.0
223
2.0
233
0.0
1001
ACAD
1000
DSTYLE
1002
{
1070
     5
1000
OPEN
1070
    79
1070
     3
1070
   342
1005
3B2
1002
}
  0
MTEXT
  5
5C78
330
1E
100
AcDbEntity
  8
30
  6
Continuous
100
AcDbMText
 10
162.3297648581359
 20
88.99793930010117
 30
0.0
 40
4.0
 41
0.0
 46
0.0
 71
     9
 72
     1
  1

 73
     1
 44
1.0
1001
ACAD
1000
MTEXTBEGIN
1070
    73
1070
     1
1070
    44
1040
1.0
1070
    74
1070
     0
1000
MTEXTEND
  0
LEADER
  5
5C79
330
1E
100
AcDbEntity
  8
30
  6
Continuous
100
AcDbLeader
  3
STANDARD
 76
     3
 10
261.8302485034083
 20
55.12750014792604
 30
0.0
 10
252.4942508748509
 20
74.23450628372655
 30
0.0
 10
237.9441190148376
 20
74.20275950500036
 30
0.0
213
0.0
223
2.0
233
0.0
1001
ACAD
1000
DSTYLE
1002
{
1070
     5
1000
OPEN
1070
    77
1070
     0
1070
    79
1070
     3
1070
   147
1040
1.0
1070
   342
1005
3B2
1002
}
  0
DIMENSION
  5
5E29
330
1E
100
AcDbEntity
  8
30
  6
Continuous
100
AcDbDimension
280
     0
  2
*D14
 10
42.00000000000001
 20
32.59950840068015
 30
0.0
 11
0.0000000000000215
 21
35.59950840068014
 31
0.0
 70
    32
 71
     5
 42
-1.0
 73
     0
 74
     0
 75
     0
  3
STANDARD
100
AcDbAlignedDimension
 13
-41.99999999999996
 23
24.99999999999996
 33
0.0
 14
42.00000000000001
 24
24.99999999999996
 34
0.0
100
AcDbRotatedDimension
1001
ACAD
1000
DSTYLE
1002
{
1070
    79
1070
     3
1002
}
  0
DIMENSION
  5
5E2A
330
1E
100
AcDbEntity
  8
30
  6
Continuous
100
AcDbDimension
280
     0
  2
*D15
 10
75.00000000000003
 20
-121.7494181439514
 30
0.0
 11
15.0
 21
-118.7494181439514
 31
0.0
 70
    32
 71
     5
 42
-1.0
 73
     0
 74
     0
 75
     0
  3
STANDARD
100
AcDbAlignedDimension
 13
-44.99999999999997
 23
-77.50000000000003
 33
0.0
 14
75.00000000000003
 24
-77.50000000000003
 34
0.0
 50
180.0
100
AcDbRotatedDimension
1001
ACAD
1000
DSTYLE
1002
{
1070
    79
1070
     3
1002
}
  0
ARC
  5
5E2B
330
1E
100
AcDbEntity
  8
10
  6
CONTINOUS
100
AcDbCircle
 10
-33.74999999999992
 20
-66.00000000000004
 30
0.0
 40
5.0
100
AcDbArc
 50
90.0
 51
180.0
  0
ARC
  5
5E2C
330
1E
100
AcDbEntity
  8
10
  6
CONTINOUS
100
AcDbCircle
 10
33.74999999999992
 20
65.99999999999997
 30
0.0
 40
5.0
210
0.0
220
0.0
230
-1.0
100
AcDbArc
 50
270.0
 51
0.0
  0
LINE
  5
5E2D
330
1E
100
AcDbEntity
  8
10
  6
CONTINOUS
100
AcDbLine
 10
-41.99999999999996
 20
-25.0
 30
0.0
 11
42.00000000000001
 21
-25.0
 31
0.0
  0
LINE
  5
5E2E
330
1E
100
AcDbEntity
  8
10
  6
CONTINOUS
100
AcDbLine
 10
-44.99999999999997
 20
-51.00000000000008
 30
0.0
 11
75.00000000000003
 21
-51.00000000000008
 31
0.0
  0
LINE
  5
5E2F
330
1E
100
AcDbEntity
  8
10
  6
CONTINOUS
100
AcDbLine
 10
-44.99999999999997
 20
50.99999999999996
 30
0.0
 11
75.00000000000003
 21
50.99999999999996
 31
0.0
  0
LINE
  5
5E30
330
1E
100
AcDbEntity
  8
10
  6
CONTINOUS
100
AcDbLine
 10
75.00000000000003
 20
77.49999999999997
 30
0.0
 11
-44.99999999999997
 21
77.49999999999997
 31
0.0
  0
LINE
  5
5E31
330
1E
100
AcDbEntity
  8
10
  6
CONTINOUS
100
AcDbLine
 10
-44.99999999999997
 20
-77.50000000000003
 30
0.0
 11
75.00000000000003
 21
-77.50000000000003
 31
0.0
  0
LINE
  5
5E32
330
1E
100
AcDbEntity
  8
10
  6
CONTINOUS
100
AcDbLine
 10
-41.99999999999996
 20
25.0
 30
0.0
 11
42.00000000000001
 21
25.0
 31
0.0
  0
LINE
  5
5E33
330
1E
100
AcDbEntity
  8
10
  6
CONTINOUS
100
AcDbLine
 10
-41.99999999999996
 20
25.0
 30
0.0
 11
-41.99999999999996
 21
-25.0
 31
0.0
  0
LINE
  5
5E34
330
1E
100
AcDbEntity
  8
10
  6
CONTINOUS
100
AcDbLine
 10
-44.99999999999997
 20
77.49999999999997
 30
0.0
 11
-44.99999999999997
 21
-77.50000000000003
 31
0.0
  0
LINE
  5
5E35
330
1E
100
AcDbEntity
  8
10
  6
CONTINOUS
100
AcDbLine
 10
-38.74999999999996
 20
-66.00000000000004
 30
0.0
 11
-38.74999999999996
 21
-77.50000000000003
 31
0.0
  0
LINE
  5
5E36
330
1E
100
AcDbEntity
  8
10
  6
CONTINOUS
100
AcDbLine
 10
-38.74999999999996
 20
65.99999999999997
 30
0.0
 11
-38.74999999999996
 21
77.49999999999997
 31
0.0
  0
LINE
  5
5E38
330
1E
100
AcDbEntity
  8
18
100
AcDbLine
 10
13.50000000000003
 20
124.4999999999996
 30
0.0
 11
13.50000000000003
 21
77.49999999999973
 31
0.0
  0
LINE
  5
5E39
330
1E
100
AcDbEntity
  8
18
100
AcDbLine
 10
16.5
 20
124.4999999999996
 30
0.0
 11
16.5
 21
77.49999999999973
 31
0.0
  0
LINE
  5
5E3A
330
1E
100
AcDbEntity
  8
18
100
AcDbLine
 10
-13.49999999999999
 20
124.4999999999996
 30
0.0
 11
-13.49999999999999
 21
77.49999999999973
 31
0.0
  0
LINE
  5
5E3B
330
1E
100
AcDbEntity
  8
18
100
AcDbLine
 10
-16.5
 20
124.4999999999996
 30
0.0
 11
-16.5
 21
77.49999999999973
 31
0.0
  0
LINE
  5
5E3C
330
1E
100
AcDbEntity
  8
10
  6
CONTINOUS
100
AcDbLine
 10
42.00000000000001
 20
25.0
 30
0.0
 11
42.00000000000001
 21
-25.0
 31
0.0
  0
LINE
  5
5E3E
330
1E
100
AcDbEntity
  8
10
  6
CONTINOUS
100
AcDbLine
 10
11.00000000000003
 20
25.0
 30
0.0
 11
11.00000000000003
 21
-25.0
 31
0.0
  0
LINE
  5
5E3F
330
1E
100
AcDbEntity
  8
10
  6
CONTINOUS
100
AcDbLine
 10
-10.99999999999999
 20
25.0
 30
0.0
 11
-10.99999999999999
 21
-25.0
 31
0.0
  0
LINE
  5
5E40
330
1E
100
AcDbEntity
  8
10
  6
CONTINOUS
100
AcDbLine
 10
75.00000000000003
 20
-77.50000000000003
 30
0.0
 11
75.00000000000003
 21
77.49999999999997
 31
0.0
  0
DIMENSION
  5
5E41
330
1E
100
AcDbEntity
  8
30
  6
Continuous
100
AcDbDimension
280
     0
  2
*D16
 10
30.00000000000001
 20
-101.7494181439513
 30
0.0
 11
0.000000000000041
 21
-98.7494181439515
 31
0.0
 70
    32
 71
     5
 42
-1.0
 73
     0
 74
     0
 75
     0
  3
STANDARD
100
AcDbAlignedDimension
 13
-29.99999999999995
 23
-69.50000001650003
 33
0.0
 14
30.00000000000003
 24
-69.50000001650003
 34
0.0
 50
180.0
100
AcDbRotatedDimension
1001
ACAD
1000
DSTYLE
1002
{
1070
    79
1070
     3
1002
}
  0
DIMENSION
  5
5E42
330
1E
100
AcDbEntity
  8
30
  6
Continuous
100
AcDbDimension
280
     0
  2
*D17
 10
11.00000000000003
 20
-41.74941814395149
 30
0.0
 11
0.0000000000000286
 21
-38.74941814395151
 31
0.0
 70
    32
 71
     5
 42
-1.0
 73
     0
 74
     0
 75
     0
  3
STANDARD
100
AcDbAlignedDimension
 13
-10.99999999999999
 23
-25.0
 33
0.0
 14
11.00000000000003
 24
-25.0
 34
0.0
 50
180.0
100
AcDbRotatedDimension
1001
ACAD
1000
DSTYLE
1002
{
1070
    79
1070
     3
1002
}
  0
ARC
  5
5E43
330
1E
100
AcDbEntity
  8
10
  6
CONTINOUS
100
AcDbCircle
 10
-3.75
 20
-66.00000000000004
 30
0.0
 40
5.0
210
0.0
220
0.0
230
-1.0
100
AcDbArc
 50
90.0
 51
180.0
  0
CIRCLE
  5
5E44
330
1E
100
AcDbEntity
  8
24
  6
CONTINOUS
100
AcDbCircle
 10
0.0
 20
-67.00000000000001
 30
0.0
 40
5.0
  0
LINE
  5
5E45
330
1E
100
AcDbEntity
  8
24
  6
CONTINOUS
100
AcDbLine
 10
-6.999999999999997
 20
-67.00000000000001
 30
0.0
 11
7.000000000000026
 21
-67.00000000000001
 31
0.0
  0
CIRCLE
  5
5E46
330
1E
100
AcDbEntity
  8
24
  6
CONTINOUS
100
AcDbCircle
 10
-29.99999999999995
 20
-67.00000000000009
 30
0.0
 40
5.0
  0
LINE
  5
5E47
330
1E
100
AcDbEntity
  8
10
  6
CONTINOUS
100
AcDbLine
 10
-21.24999999999999
 20
-66.00000000000004
 30
0.0
 11
-21.24999999999999
 21
-77.50000000000003
 31
0.0
  0
LINE
  5
5E48
330
1E
100
AcDbEntity
  8
24
  6
CONTINOUS
100
AcDbLine
 10
-29.99999999999995
 20
-74.00000000000003
 30
0.0
 11
-29.99999999999995
 21
-60.00000000000003
 31
0.0
  0
LINE
  5
5E49
330
1E
100
AcDbEntity
  8
10
  6
CONTINOUS
100
AcDbLine
 10
-33.74999999999992
 20
-61.00000000000008
 30
0.0
 11
-26.24999999999999
 21
-61.00000000000008
 31
0.0
  0
LINE
  5
5E4A
330
1E
100
AcDbEntity
  8
24
  6
CONTINOUS
100
AcDbLine
 10
-22.99999999999996
 20
-67.00000000000001
 30
0.0
 11
-36.99999999999997
 21
-67.00000000000001
 31
0.0
  0
ARC
  5
5E4B
330
1E
100
AcDbEntity
  8
10
  6
CONTINOUS
100
AcDbCircle
 10
-26.24999999999999
 20
-66.00000000000004
 30
0.0
 40
5.0
100
AcDbArc
 50
0.0
 51
90.0
  0
LINE
  5
5E4C
330
1E
100
AcDbEntity
  8
10
  6
CONTINOUS
100
AcDbLine
 10
-8.749999999999998
 20
-66.00000000000004
 30
0.0
 11
-8.749999999999998
 21
-77.50000000000003
 31
0.0
  0
ARC
  5
5E4D
330
1E
100
AcDbEntity
  8
10
  6
CONTINOUS
100
AcDbCircle
 10
3.749999999999998
 20
-66.00000000000004
 30
0.0
 40
5.0
210
0.0
220
0.0
230
-1.0
100
AcDbArc
 50
0.0
 51
90.0
  0
LINE
  5
5E4E
330
1E
100
AcDbEntity
  8
10
  6
CONTINOUS
100
AcDbLine
 10
3.75
 20
-61.00000000000008
 30
0.0
 11
-3.749999999999998
 21
-61.00000000000008
 31
0.0
  0
ARC
  5
5E4F
330
1E
100
AcDbEntity
  8
10
  6
CONTINOUS
100
AcDbCircle
 10
-26.25000000000003
 20
-66.00000000000004
 30
0.0
 40
5.0
210
0.0
220
0.0
230
-1.0
100
AcDbArc
 50
0.0
 51
90.0
  0
CIRCLE
  5
5E50
330
1E
100
AcDbEntity
  8
24
  6
CONTINOUS
100
AcDbCircle
 10
30.00000000000003
 20
-67.00000000000001
 30
0.0
 40
5.0
  0
LINE
  5
5E51
330
1E
100
AcDbEntity
  8
24
  6
CONTINOUS
100
AcDbLine
 10
23.00000000000002
 20
-67.00000000000001
 30
0.0
 11
37.00000000000001
 21
-67.00000000000001
 31
0.0
  0
CIRCLE
  5
5E52
330
1E
100
AcDbEntity
  8
12
  6
DASHED
100
AcDbCircle
 10
15.00000000000005
 20
-66.00000000000004
 30
0.0
 40
4.0
  0
LINE
  5
5E53
330
1E
100
AcDbEntity
  8
12
  6
DASHED
100
AcDbLine
 10
15.00000000000005
 20
-71.50000000000003
 30
0.0
 11
15.00000000000005
 21
-60.49999999999998
 31
0.0
  0
LINE
  5
5E54
330
1E
100
AcDbEntity
  8
10
  6
CONTINOUS
100
AcDbLine
 10
21.25000000000003
 20
-66.00000000000004
 30
0.0
 11
21.25000000000003
 21
-77.50000000000003
 31
0.0
  0
LINE
  5
5E55
330
1E
100
AcDbEntity
  8
10
  6
CONTINOUS
100
AcDbLine
 10
8.750000000000023
 20
-66.00000000000004
 30
0.0
 11
8.750000000000023
 21
-77.50000000000003
 31
0.0
  0
LINE
  5
5E56
330
1E
100
AcDbEntity
  8
12
  6
DASHED
100
AcDbLine
 10
9.500000000000078
 20
-66.00000000000004
 30
0.0
 11
20.50000000000014
 21
-66.00000000000004
 31
0.0
  0
LINE
  5
5E57
330
1E
100
AcDbEntity
  8
24
  6
CONTINOUS
100
AcDbLine
 10
30.00000000000003
 20
-74.00000000000003
 30
0.0
 11
30.00000000000003
 21
-60.00000000000003
 31
0.0
  0
LINE
  5
5E58
330
1E
100
AcDbEntity
  8
10
  6
CONTINOUS
100
AcDbLine
 10
38.75000000000003
 20
-66.00000000000004
 30
0.0
 11
38.75000000000003
 21
-77.50000000000003
 31
0.0
  0
ARC
  5
5E59
330
1E
100
AcDbEntity
  8
10
  6
CONTINOUS
100
AcDbCircle
 10
-33.75000000000003
 20
-66.00000000000004
 30
0.0
 40
5.0
210
0.0
220
0.0
230
-1.0
100
AcDbArc
 50
90.0
 51
180.0
  0
LINE
  5
5E5A
330
1E
100
AcDbEntity
  8
10
  6
CONTINOUS
100
AcDbLine
 10
33.75000000000003
 20
-61.00000000000008
 30
0.0
 11
26.25000000000003
 21
-61.00000000000008
 31
0.0
  0
LINE
  5
5E5B
330
1E
100
AcDbEntity
  8
10
  6
CONTINOUS
100
AcDbLine
 10
7.000000000000026
 20
20.15486870581028
 30
0.0
 11
-7.000000000000909
 21
20.15486870581028
 31
0.0
  0
LINE
  5
5E5C
330
1E
100
AcDbEntity
  8
10
  6
CONTINOUS
100
AcDbLine
 10
7.000000000000026
 20
15.23995644007658
 30
0.0
 11
-6.999999999999997
 21
15.23995644007658
 31
0.0
  0
LINE
  5
5E5D
330
1E
100
AcDbEntity
  8
10
  6
CONTINOUS
100
AcDbLine
 10
7.000000000000026
 20
6.840789306861436
 30
0.0
 11
-6.99999999999903
 21
6.840789306861521
 31
0.0
  0
LINE
  5
5E5E
330
1E
100
AcDbEntity
  8
10
  6
CONTINOUS
100
AcDbLine
 10
-6.999999999999997
 20
-18.50000000000001
 30
0.0
 11
7.000000000000026
 21
-18.50000000000001
 31
0.0
  0
LINE
  5
5E5F
330
1E
100
AcDbEntity
  8
10
  6
CONTINOUS
100
AcDbLine
 10
-6.999999999999997
 20
-18.50000000000001
 30
0.0
 11
-6.999999999999857
 21
20.15486870581028
 31
0.0
  0
LINE
  5
5E60
330
1E
100
AcDbEntity
  8
10
  6
CONTINOUS
100
AcDbLine
 10
7.000000000000026
 20
-18.50000000000001
 30
0.0
 11
7.000000000000082
 21
20.15486870581028
 31
0.0
  0
ARC
  5
5E62
330
1E
100
AcDbEntity
  8
10
  6
CONTINOUS
100
AcDbCircle
 10
3.75
 20
65.99999999999997
 30
0.0
 40
5.0
100
AcDbArc
 50
270.0
 51
0.0
  0
CIRCLE
  5
5E63
330
1E
100
AcDbEntity
  8
24
  6
CONTINOUS
100
AcDbCircle
 10
0.0
 20
66.99999999999997
 30
0.0
 40
5.0
  0
LINE
  5
5E64
330
1E
100
AcDbEntity
  8
24
  6
CONTINOUS
100
AcDbLine
 10
-6.999999999999997
 20
66.99999999999997
 30
0.0
 11
7.000000000000026
 21
66.99999999999997
 31
0.0
  0
CIRCLE
  5
5E65
330
1E
100
AcDbEntity
  8
24
  6
CONTINOUS
100
AcDbCircle
 10
-29.99999999999995
 20
66.99999999999997
 30
0.0
 40
5.0
  0
LINE
  5
5E66
330
1E
100
AcDbEntity
  8
10
  6
CONTINOUS
100
AcDbLine
 10
-21.24999999999999
 20
65.99999999999997
 30
0.0
 11
-21.24999999999999
 21
77.49999999999997
 31
0.0
  0
LINE
  5
5E67
330
1E
100
AcDbEntity
  8
24
  6
CONTINOUS
100
AcDbLine
 10
-29.99999999999995
 20
73.99999999999997
 30
0.0
 11
-29.99999999999995
 21
59.99999999999996
 31
0.0
  0
LINE
  5
5E68
330
1E
100
AcDbEntity
  8
10
  6
CONTINOUS
100
AcDbLine
 10
-8.749999999999998
 20
65.99999999999997
 30
0.0
 11
-8.749999999999998
 21
77.49999999999997
 31
0.0
  0
CIRCLE
  5
5E69
330
1E
100
AcDbEntity
  8
12
  6
DASHED
100
AcDbCircle
 10
-14.99999999999999
 20
65.99999999999974
 30
0.0
 40
4.0
  0
LINE
  5
5E6A
330
1E
100
AcDbEntity
  8
12
  6
DASHED
100
AcDbLine
 10
-20.49999999999996
 20
65.99999999999974
 30
0.0
 11
-9.5
 21
65.99999999999974
 31
0.0
  0
LINE
  5
5E6B
330
1E
100
AcDbEntity
  8
10
  6
CONTINOUS
100
AcDbLine
 10
-33.74999999999992
 20
60.99999999999996
 30
0.0
 11
-26.24999999999999
 21
60.99999999999996
 31
0.0
  0
LINE
  5
5E6C
330
1E
100
AcDbEntity
  8
24
  6
CONTINOUS
100
AcDbLine
 10
-22.99999999999996
 20
66.99999999999997
 30
0.0
 11
-36.99999999999997
 21
66.99999999999997
 31
0.0
  0
ARC
  5
5E6D
330
1E
100
AcDbEntity
  8
10
  6
CONTINOUS
100
AcDbCircle
 10
26.24999999999999
 20
65.99999999999997
 30
0.0
 40
5.0
210
0.0
220
0.0
230
-1.0
100
AcDbArc
 50
180.0
 51
270.0
  0
ARC
  5
5E6E
330
1E
100
AcDbEntity
  8
10
  6
CONTINOUS
100
AcDbCircle
 10
-3.749999999999998
 20
65.99999999999997
 30
0.0
 40
5.0
100
AcDbArc
 50
180.0
 51
270.0
  0
LINE
  5
5E6F
330
1E
100
AcDbEntity
  8
12
  6
DASHED
100
AcDbLine
 10
-14.99999999999999
 20
60.49999999999974
 30
0.0
 11
-14.99999999999999
 21
71.49999999999973
 31
0.0
  0
LINE
  5
5E70
330
1E
100
AcDbEntity
  8
10
  6
CONTINOUS
100
AcDbLine
 10
3.75
 20
60.99999999999996
 30
0.0
 11
-3.749999999999998
 21
60.99999999999996
 31
0.0
  0
CIRCLE
  5
5E71
330
1E
100
AcDbEntity
  8
24
  6
CONTINOUS
100
AcDbCircle
 10
30.00000000000003
 20
66.99999999999997
 30
0.0
 40
5.0
  0
LINE
  5
5E72
330
1E
100
AcDbEntity
  8
10
  6
CONTINOUS
100
AcDbLine
 10
38.75000000000003
 20
65.99999999999997
 30
0.0
 11
38.75000000000003
 21
77.49999999999997
 31
0.0
  0
LINE
  5
5E73
330
1E
100
AcDbEntity
  8
10
  6
CONTINOUS
100
AcDbLine
 10
21.25000000000003
 20
65.99999999999997
 30
0.0
 11
21.25000000000003
 21
77.49999999999997
 31
0.0
  0
LINE
  5
5E74
330
1E
100
AcDbEntity
  8
24
  6
CONTINOUS
100
AcDbLine
 10
30.00000000000003
 20
73.99999999999997
 30
0.0
 11
30.00000000000003
 21
59.99999999999996
 31
0.0
  0
LINE
  5
5E75
330
1E
100
AcDbEntity
  8
10
  6
CONTINOUS
100
AcDbLine
 10
8.750000000000023
 20
65.99999999999997
 30
0.0
 11
8.750000000000023
 21
77.49999999999997
 31
0.0
  0
ARC
  5
5E76
330
1E
100
AcDbEntity
  8
10
  6
CONTINOUS
100
AcDbCircle
 10
26.25000000000003
 20
65.99999999999997
 30
0.0
 40
5.0
100
AcDbArc
 50
180.0
 51
270.0
  0
LINE
  5
5E77
330
1E
100
AcDbEntity
  8
24
  6
CONTINOUS
100
AcDbLine
 10
23.00000000000002
 20
66.99999999999997
 30
0.0
 11
37.00000000000001
 21
66.99999999999997
 31
0.0
  0
ARC
  5
5E78
330
1E
100
AcDbEntity
  8
10
  6
CONTINOUS
100
AcDbCircle
 10
33.75000000000003
 20
65.99999999999997
 30
0.0
 40
5.0
100
AcDbArc
 50
270.0
 51
0.0
  0
LINE
  5
5E79
330
1E
100
AcDbEntity
  8
10
  6
CONTINOUS
100
AcDbLine
 10
33.75000000000003
 20
60.99999999999996
 30
0.0
 11
26.25000000000003
 21
60.99999999999996
 31
0.0
  0
LINE
  5
5E7A
330
1E
100
AcDbEntity
  8
18
100
AcDbLine
 10
-13.49999999999999
 20
124.4999999999996
 30
0.0
 11
-16.5
 21
124.4999999999996
 31
0.0
  0
LINE
  5
5E7B
330
1E
100
AcDbEntity
  8
18
100
AcDbLine
 10
13.50000000000003
 20
124.4999999999996
 30
0.0
 11
16.5
 21
124.4999999999996
 31
0.0
  0
LINE
  5
5EEE
330
1E
100
AcDbEntity
  8
18
  6
DIVIDE
100
AcDbLine
 10
74.61990546482879
 20
-175.1631237443548
 30
0.0
 11
-45.38009453517117
 21
-175.1631237443548
 31
0.0
  0
LINE
  5
5EEF
330
1E
100
AcDbEntity
  8
18
  6
DIVIDE
100
AcDbLine
 10
-45.38009453517117
 20
-330.1631237443548
 30
0.0
 11
74.61990546482879
 21
-330.1631237443548
 31
0.0
  0
DIMENSION
  5
5EF0
330
1E
100
AcDbEntity
  8
30
  6
Continuous
100
AcDbDimension
280
     0
  2
*D18
 10
14.61990546482881
 20
-354.4125418883063
 30
0.0
 11
-0.3800945351711904
 21
-351.4125418883062
 31
0.0
 70
    32
 71
     5
 42
-1.0
 73
     0
 74
     0
 75
     0
  3
STANDARD
100
AcDbAlignedDimension
 13
-15.38009453517117
 23
-324.1631237443548
 33
0.0
 14
14.61990546482881
 24
-321.163123760855
 34
0.0
 50
180.0
100
AcDbRotatedDimension
1001
ACAD
1000
DSTYLE
1002
{
1070
    79
1070
     3
1002
}
  0
LINE
  5
5EF1
330
1E
100
AcDbEntity
  8
18
  6
DIVIDE
100
AcDbLine
 10
-45.38009453517117
 20
-175.1631237443548
 30
0.0
 11
-45.38009453517117
 21
-330.1631237443548
 31
0.0
  0
LINE
  5
5EF2
330
1E
100
AcDbEntity
  8
12
  6
Continuous
 62
     3
100
AcDbLine
 10
9.119905464828807
 20
-318.6631237443549
 30
0.0
 11
20.1199054648288
 21
-318.6631237443549
 31
0.0
  0
LINE
  5
5EF3
330
1E
100
AcDbEntity
  8
12
  6
Continuous
 62
     3
100
AcDbLine
 10
14.61990546482881
 20
-324.1631237443548
 30
0.0
 11
14.61990546482881
 21
-313.1631237443548
 31
0.0
  0
CIRCLE
  5
5EF4
330
1E
100
AcDbEntity
  8
12
  6
Continuous
 62
     3
100
AcDbCircle
 10
14.61990546482881
 20
-318.6631237443549
 30
0.0
 40
2.0
  0
CIRCLE
  5
5EF5
330
1E
100
AcDbEntity
  8
12
  6
Continuous
 62
     3
100
AcDbCircle
 10
-15.38009453517117
 20
-186.663123744355
 30
0.0
 40
2.0
  0
LINE
  5
5EF6
330
1E
100
AcDbEntity
  8
12
  6
Continuous
 62
     3
100
AcDbLine
 10
-20.88009453517118
 20
-186.663123744355
 30
0.0
 11
-9.880094535171187
 21
-186.663123744355
 31
0.0
  0
LINE
  5
5EF7
330
1E
100
AcDbEntity
  8
12
  6
Continuous
 62
     3
100
AcDbLine
 10
-15.38009453517117
 20
-192.1631237443549
 30
0.0
 11
-15.38009453517117
 21
-181.1631237443551
 31
0.0
  0
LINE
  5
5EF8
330
1E
100
AcDbEntity
  8
18
  6
DIVIDE
100
AcDbLine
 10
74.61990546482879
 20
-330.1631237443548
 30
0.0
 11
74.61990546482879
 21
-175.1631237443548
 31
0.0
  0
LEADER
  5
6067
330
1E
100
AcDbEntity
  8
30
  6
Continuous
100
AcDbLeader
  3
STANDARD
 73
     0
 40
4.0
 76
     3
 10
-15.38009453517117
 20
-186.663123744355
 30
0.0
 10
-24.52312241480977
 20
-163.03149535289
 30
0.0
 10
-49.76364900581256
 20
-162.9957809278801
 30
0.0
340
6068
213
-16.64037072048986
223
1.912916487680377
233
0.0
1001
ACAD
1000
DSTYLE
1002
{
1070
     5
1000
OPEN
1070
    77
1070
     0
1070
    79
1070
     3
1070
   147
1040
1.0
1070
   342
1005
3B2
1002
}
  0
MTEXT
  5
6068
102
{ACAD_REACTORS
330
6067
102
}
330
1E
100
AcDbEntity
  8
30
  6
Continuous
100
AcDbMText
 10
-34.12327828532269
 20
-164.9086974155603
 30
0.0
 40
4.0
 41
0.0
 46
0.0
 71
     9
 72
     1
  1

 73
     1
 44
1.0
1001
ACAD
1000
MTEXTBEGIN
1070
    73
1070
     1
1070
    44
1040
1.0
1070
    74
1070
     0
1000
MTEXTEND
  0
MTEXT
  5
606B
330
1E
100
AcDbEntity
  8
30
  6
Continuous
100
AcDbMText
 10
-36.55182671697476
 20
-159.8201476728555
 30
0.0
 40
4.0
 41
0.0
 46
0.0
 71
     5
 72
     1
  1
M4×0.7
 73
     1
 44
1.0
1001
ACAD
1000
MTEXTBEGIN
1070
    73
1070
     1
1070
    44
1040
1.0
1070
    74
1070
     0
1000
MTEXTEND
  0
LINE
  5
60DC
330
1E
100
AcDbEntity
  8
24
  6
CONTINOUS
100
AcDbLine
 10
60.00000000000007
 20
-74.00000000000003
 30
0.0
 11
60.00000000000007
 21
-60.00000000000003
 31
0.0
  0
CIRCLE
  5
60DD
330
1E
100
AcDbEntity
  8
24
  6
CONTINOUS
100
AcDbCircle
 10
60.00000000000007
 20
-67.00000000000009
 30
0.0
 40
5.0
  0
ARC
  5
60DE
330
1E
100
AcDbEntity
  8
10
  6
CONTINOUS
100
AcDbCircle
 10
63.75
 20
-66.00000000000004
 30
0.0
 40
5.0
100
AcDbArc
 50
0.0
 51
90.0
  0
ARC
  5
60DF
330
1E
100
AcDbEntity
  8
10
  6
CONTINOUS
100
AcDbCircle
 10
56.25000000000007
 20
-66.00000000000004
 30
0.0
 40
5.0
100
AcDbArc
 50
90.0
 51
180.0
  0
LINE
  5
60E0
330
1E
100
AcDbEntity
  8
24
  6
CONTINOUS
100
AcDbLine
 10
67.00000000000001
 20
-67.00000000000001
 30
0.0
 11
53.00000000000003
 21
-67.00000000000001
 31
0.0
  0
LINE
  5
60E1
330
1E
100
AcDbEntity
  8
10
  6
CONTINOUS
100
AcDbLine
 10
51.25000000000003
 20
-66.00000000000004
 30
0.0
 11
51.25000000000003
 21
-77.50000000000003
 31
0.0
  0
LINE
  5
60E2
330
1E
100
AcDbEntity
  8
10
  6
CONTINOUS
100
AcDbLine
 10
68.75
 20
-66.00000000000004
 30
0.0
 11
68.75
 21
-77.50000000000003
 31
0.0
  0
LINE
  5
60E3
330
1E
100
AcDbEntity
  8
10
  6
CONTINOUS
100
AcDbLine
 10
56.25000000000007
 20
-61.00000000000008
 30
0.0
 11
63.75
 21
-61.00000000000008
 31
0.0
  0
LINE
  5
60E4
330
1E
100
AcDbEntity
  8
24
  6
CONTINOUS
100
AcDbLine
 10
67.00000000000001
 20
66.99999999999997
 30
0.0
 11
53.00000000000003
 21
66.99999999999997
 31
0.0
  0
ARC
  5
60E5
330
1E
100
AcDbEntity
  8
10
  6
CONTINOUS
100
AcDbCircle
 10
-56.25000000000007
 20
65.99999999999997
 30
0.0
 40
5.0
210
0.0
220
0.0
230
-1.0
100
AcDbArc
 50
270.0
 51
0.0
  0
LINE
  5
60E6
330
1E
100
AcDbEntity
  8
10
  6
CONTINOUS
100
AcDbLine
 10
51.25000000000003
 20
65.99999999999997
 30
0.0
 11
51.25000000000003
 21
77.49999999999997
 31
0.0
  0
LINE
  5
60E7
330
1E
100
AcDbEntity
  8
24
  6
CONTINOUS
100
AcDbLine
 10
60.00000000000007
 20
73.99999999999997
 30
0.0
 11
60.00000000000007
 21
59.99999999999996
 31
0.0
  0
CIRCLE
  5
60E8
330
1E
100
AcDbEntity
  8
24
  6
CONTINOUS
100
AcDbCircle
 10
60.00000000000007
 20
66.99999999999997
 30
0.0
 40
5.0
  0
ARC
  5
60E9
330
1E
100
AcDbEntity
  8
10
  6
CONTINOUS
100
AcDbCircle
 10
-63.75
 20
65.99999999999997
 30
0.0
 40
5.0
210
0.0
220
0.0
230
-1.0
100
AcDbArc
 50
180.0
 51
270.0
  0
LINE
  5
60EA
330
1E
100
AcDbEntity
  8
10
  6
CONTINOUS
100
AcDbLine
 10
56.25000000000007
 20
60.99999999999996
 30
0.0
 11
63.75
 21
60.99999999999996
 31
0.0
  0
LINE
  5
60EB
330
1E
100
AcDbEntity
  8
10
  6
CONTINOUS
100
AcDbLine
 10
68.75
 20
65.99999999999997
 30
0.0
 11
68.75
 21
77.49999999999997
 31
0.0
  0
LINE
  5
60EC
330
1E
100
AcDbEntity
  8
18
100
AcDbLine
 10
46.5
 20
124.4999999999996
 30
0.0
 11
46.5
 21
77.49999999999973
 31
0.0
  0
LINE
  5
60ED
330
1E
100
AcDbEntity
  8
18
100
AcDbLine
 10
43.50000000000006
 20
124.4999999999996
 30
0.0
 11
43.50000000000006
 21
77.49999999999973
 31
0.0
  0
LINE
  5
60EE
330
1E
100
AcDbEntity
  8
18
100
AcDbLine
 10
43.50000000000006
 20
124.4999999999996
 30
0.0
 11
46.5
 21
124.4999999999996
 31
0.0
  0
DIMENSION
  5
6116
330
1E
100
AcDbEntity
  8
30
  6
Continuous
100
AcDbDimension
280
     0
  2
*D22
 10
96.85839195347298
 20
-318.6631237443549
 30
0.0
 11
93.85839195347307
 21
-252.6631237443548
 31
0.0
 70
    32
 71
     5
 42
-1.0
 73
     0
 74
     0
 75
     0
  3
STANDARD
100
AcDbAlignedDimension
 13
20.11990546482878
 23
-186.663123744355
 33
0.0
 14
20.1199054648288
 24
-318.6631237443549
 34
0.0
 50
90.0
100
AcDbRotatedDimension
1001
ACAD
1000
DSTYLE
1002
{
1070
    79
1070
     3
1002
}
  0
DIMENSION
  5
614A
330
1E
100
AcDbEntity
  8
30
  6
Continuous
100
AcDbDimension
280
     0
  2
*D23
 10
-63.42066478230082
 20
77.49999999999997
 30
0.0
 11
-66.42066478230082
 21
100.9999999999997
 31
0.0
 70
    32
 71
     5
 42
-1.0
 73
     0
 74
     0
 75
     0
  3
STANDARD
100
AcDbAlignedDimension
 13
-16.5
 23
124.4999999999996
 33
0.0
 14
-44.99999999999997
 24
77.49999999999997
 34
0.0
 50
90.0
100
AcDbRotatedDimension
1001
ACAD
1000
DSTYLE
1002
{
1070
    79
1070
     3
1002
}
  0
DIMENSION
  5
6157
330
1E
100
AcDbEntity
  8
30
  6
Continuous
100
AcDbDimension
280
     0
  2
*D24
 10
-63.92066478230084
 20
-77.50000000000003
 30
0.0
 11
-66.92066478230081
 21
-0.0000000000000384
 31
0.0
 70
    32
 71
     5
 42
-1.0
 73
     0
 74
     0
 75
     0
  3
STANDARD
100
AcDbAlignedDimension
 13
-44.99999999999997
 23
77.49999999999997
 33
0.0
 14
-44.99999999999997
 24
-77.50000000000003
 34
0.0
 50
90.0
100
AcDbRotatedDimension
1001
ACAD
1000
DSTYLE
1002
{
1070
    79
1070
     3
1002
}
  0
DIMENSION
  5
6398
330
1E
100
AcDbEntity
  8
30
  6
Continuous
100
AcDbDimension
280
     0
  2
*D25
 10
217.9923778520064
 20
-87.74064843985341
 30
0.0
 11
221.9923778520064
 21
-84.74064843985342
 31
0.0
 70
    32
 71
     5
 42
-1.0
 73
     0
 74
     0
 75
     0
  3
STANDARD
100
AcDbAlignedDimension
 13
225.9923778520064
 23
-68.23970744689657
 33
0.0
 14
217.9923778520064
 24
-77.48970744689656
 34
0.0
100
AcDbRotatedDimension
1001
ACAD
1000
DSTYLE
1002
{
1070
    79
1070
     3
1002
}
  0
LINE
  5
6466
330
1E
100
AcDbEntity
  8
16
100
AcDbLine
 10
209.6199054648288
 20
-350.4150635072006
 30
0.0
 11
209.6199054648288
 21
-151.2797245348689
 31
0.0
  0
LINE
  5
6468
330
1E
100
AcDbEntity
  8
18
  6
DIVIDE
100
AcDbLine
 10
164.6199054648288
 20
-175.1631237443548
 30
0.0
 11
164.6199054648288
 21
-330.1631237443548
 31
0.0
  0
LINE
  5
6469
330
1E
100
AcDbEntity
  8
18
  6
DIVIDE
100
AcDbLine
 10
284.6199054648287
 20
-330.1631237443548
 30
0.0
 11
284.6199054648287
 21
-175.1631237443548
 31
0.0
  0
LINE
  5
646A
330
1E
100
AcDbEntity
  8
11
 48
2.0
100
AcDbLine
 10
166.6199054648288
 20
-227.6631237443548
 30
0.0
 11
166.6199054648288
 21
-277.6631237443548
 31
0.0
  0
LINE
  5
646B
330
1E
100
AcDbEntity
  8
11
 48
2.0
100
AcDbLine
 10
252.6199054648289
 20
-227.6631237443548
 30
0.0
 11
252.6199054648289
 21
-277.6631237443548
 31
0.0
  0
DIMENSION
  5
646C
330
1E
100
AcDbEntity
  8
30
  6
Continuous
100
AcDbDimension
280
     0
  2
*D28
 10
272.680795841907
 20
-278.6631237443549
 30
0.0
 11
269.680795841907
 21
-252.6631237443548
 31
0.0
 70
    32
 71
     5
 42
-1.0
 73
     0
 74
     0
 75
     0
  3
STANDARD
100
AcDbAlignedDimension
 13
251.6199054648287
 23
-226.6631237443549
 33
0.0
 14
251.6199054648287
 24
-278.6631237443549
 34
0.0
 50
90.0
100
AcDbRotatedDimension
1001
ACAD
1000
DSTYLE
1002
{
1070
    79
1070
     3
1002
}
  0
LINE
  5
646E
330
1E
100
AcDbEntity
  8
16
100
AcDbLine
 10
297.3266621308825
 20
-253.4106968373281
 30
0.0
 11
129.0699922632479
 21
-252.6631237443548
 31
0.0
  0
LINE
  5
646F
330
1E
100
AcDbEntity
  8
18
  6
DIVIDE
100
AcDbLine
 10
164.6199054648288
 20
-330.1631237443548
 30
0.0
 11
284.6199054648287
 21
-330.1631237443548
 31
0.0
  0
LINE
  5
6471
330
1E
100
AcDbEntity
  8
11
 48
2.0
100
AcDbLine
 10
167.6199054648288
 20
-278.6631237443549
 30
0.0
 11
251.6199054648287
 21
-278.6631237443549
 31
0.0
  0
DIMENSION
  5
6472
330
1E
100
AcDbEntity
  8
30
  6
Continuous
100
AcDbDimension
280
     0
  2
*D26
 10
252.6199054648289
 20
-359.3804450066013
 30
0.0
 11
209.6199054648289
 21
-356.3804450066013
 31
0.0
 70
    32
 71
     5
 42
-1.0
 73
     0
 74
     0
 75
     0
  3
STANDARD
100
AcDbAlignedDimension
 13
166.6199054648288
 23
-277.6631237443548
 33
0.0
 14
252.6199054648289
 24
-277.6631237443548
 34
0.0
100
AcDbRotatedDimension
1001
ACAD
1000
DSTYLE
1002
{
1070
    79
1070
     3
1002
}
  0
ARC
  5
6475
330
1E
100
AcDbEntity
  8
11
 48
2.0
100
AcDbCircle
 10
167.6199054648288
 20
-277.6631237443548
 30
0.0
 40
1.0
100
AcDbArc
 50
180.0
 51
270.0
  0
ARC
  5
6476
330
1E
100
AcDbEntity
  8
11
 48
2.0
100
AcDbCircle
 10
251.6199054648287
 20
-277.6631237443548
 30
0.0
 40
1.0
100
AcDbArc
 50
270.0
 51
0.0
  0
LINE
  5
6477
330
1E
100
AcDbEntity
  8
18
  6
DIVIDE
100
AcDbLine
 10
284.6199054648287
 20
-175.1631237443548
 30
0.0
 11
164.6199054648288
 21
-175.1631237443548
 31
0.0
  0
LINE
  5
6478
330
1E
100
AcDbEntity
  8
11
 48
2.0
100
AcDbLine
 10
167.6199054648288
 20
-226.6631237443549
 30
0.0
 11
251.6199054648287
 21
-226.6631237443549
 31
0.0
  0
ARC
  5
647D
330
1E
100
AcDbEntity
  8
11
 48
2.0
100
AcDbCircle
 10
167.6199054648288
 20
-227.6631237443548
 30
0.0
 40
1.0
100
AcDbArc
 50
90.0
 51
180.0
  0
DIMENSION
  5
647E
330
1E
100
AcDbEntity
  8
30
  6
Continuous
100
AcDbDimension
280
     0
  2
*D27
 10
251.6199054648291
 20
-227.6631237443548
 30
0.0
 11
259.252938708866
 21
-221.6187952184035
 31
0.0
 70
    36
 71
     5
 42
-1.0
 73
     0
 74
     0
 75
     0
  3
STANDARD
100
AcDbRadialDimension
 15
252.413178780303
 25
-227.0542580391643
 35
0.0
 40
0.0
1001
ACAD
1000
DSTYLE
1002
{
1070
   288
1070
     1
1002
}
  0
ARC
  5
647F
330
1E
100
AcDbEntity
  8
11
 48
2.0
100
AcDbCircle
 10
251.6199054648287
 20
-227.6631237443548
 30
0.0
 40
1.0
100
AcDbArc
 50
0.0
 51
90.0
  0
LINE
  5
6585
330
1E
100
AcDbEntity
  8
12
  6
Continuous
 62
     3
100
AcDbLine
 10
14.6199054648288
 20
-192.1631237443549
 30
0.0
 11
14.6199054648288
 21
-181.1631237443551
 31
0.0
  0
CIRCLE
  5
6586
330
1E
100
AcDbEntity
  8
12
  6
Continuous
 62
     3
100
AcDbCircle
 10
14.6199054648288
 20
-186.663123744355
 30
0.0
 40
2.0
  0
LINE
  5
6587
330
1E
100
AcDbEntity
  8
12
  6
Continuous
 62
     3
100
AcDbLine
 10
20.1199054648288
 20
-186.663123744355
 30
0.0
 11
9.119905464828812
 21
-186.663123744355
 31
0.0
  0
LINE
  5
6588
330
1E
100
AcDbEntity
  8
12
  6
Continuous
 62
     3
100
AcDbLine
 10
-9.880094535171183
 20
-318.6631237443549
 30
0.0
 11
-20.88009453517118
 21
-318.6631237443549
 31
0.0
  0
LINE
  5
6589
330
1E
100
AcDbEntity
  8
12
  6
Continuous
 62
     3
100
AcDbLine
 10
-15.38009453517117
 20
-324.1631237443548
 30
0.0
 11
-15.38009453517117
 21
-313.1631237443548
 31
0.0
  0
CIRCLE
  5
658A
330
1E
100
AcDbEntity
  8
12
  6
Continuous
 62
     3
100
AcDbCircle
 10
-15.38009453517117
 20
-318.6631237443549
 30
0.0
 40
2.0
  0
LINE
  5
65CD
330
1E
100
AcDbEntity
  8
10
  6
CONTINOUS
100
AcDbLine
 10
30.69999999999999
 20
-12.49999999999998
 30
0.0
 11
30.69999999999999
 21
-15.49999999999998
 31
0.0
  0
LINE
  5
65CE
330
1E
100
AcDbEntity
  8
10
  6
CONTINOUS
100
AcDbLine
 10
22.69999999999999
 20
-12.49999999999998
 30
0.0
 11
22.69999999999999
 21
-15.49999999999998
 31
0.0
  0
LINE
  5
65CF
330
1E
100
AcDbEntity
  8
10
  6
CONTINOUS
100
AcDbLine
 10
22.69999999999999
 20
-15.49999999999998
 30
0.0
 11
30.69999999999999
 21
-15.49999999999998
 31
0.0
  0
CIRCLE
  5
65D0
330
1E
100
AcDbEntity
  8
10
  6
CONTINOUS
100
AcDbCircle
 10
26.19999999999999
 20
-1.899999999999988
 30
0.0
 40
2.6
  0
CIRCLE
  5
65D1
330
1E
100
AcDbEntity
  8
10
  6
CONTINOUS
100
AcDbCircle
 10
26.19999999999999
 20
-1.899999999999988
 30
0.0
 40
3.6
  0
LINE
  5
65D2
330
1E
100
AcDbEntity
  8
10
  6
CONTINOUS
100
AcDbLine
 10
22.69999999999999
 20
-12.49999999999998
 30
0.0
 11
30.69999999999999
 21
-12.49999999999998
 31
0.0
  0
LINE
  5
65D3
330
1E
100
AcDbEntity
  8
10
  6
CONTINOUS
100
AcDbLine
 10
22.69999999999999
 20
-10.49999999999998
 30
0.0
 11
30.69999999999999
 21
-10.49999999999998
 31
0.0
  0
LINE
  5
65D4
330
1E
100
AcDbEntity
  8
10
  6
CONTINOUS
100
AcDbLine
 10
22.69999999999999
 20
-7.499999999999985
 30
0.0
 11
30.69999999999999
 21
-7.499999999999985
 31
0.0
  0
CIRCLE
  5
65D5
330
1E
100
AcDbEntity
  8
10
  6
CONTINOUS
100
AcDbCircle
 10
26.19999999999999
 20
5.800000000000027
 30
0.0
 40
2.6
  0
CIRCLE
  5
65D6
330
1E
100
AcDbEntity
  8
10
  6
CONTINOUS
100
AcDbCircle
 10
26.19999999999999
 20
5.800000000000027
 30
0.0
 40
3.6
  0
LINE
  5
65D7
330
1E
100
AcDbEntity
  8
10
  6
CONTINOUS
100
AcDbLine
 10
22.69999999999999
 20
-7.499999999999985
 30
0.0
 11
22.69999999999999
 21
-10.49999999999998
 31
0.0
  0
CIRCLE
  5
65D8
330
1E
100
AcDbEntity
  8
10
  6
CONTINOUS
100
AcDbCircle
 10
26.19999999999999
 20
12.30000000000001
 30
0.0
 40
1.5
  0
LINE
  5
65D9
330
1E
100
AcDbEntity
  8
10
  6
CONTINOUS
100
AcDbLine
 10
30.69999999999999
 20
-7.499999999999985
 30
0.0
 11
30.69999999999999
 21
-10.49999999999998
 31
0.0
  0
LINE
  5
65DA
330
1E
100
AcDbEntity
  8
18
100
AcDbLine
 10
42.00000000000001
 20
0.0000000000000142
 30
0.0
 11
42.00000000000001
 21
-32.74218373195511
 31
0.0
  0
LINE
  5
65DB
330
1E
100
AcDbEntity
  8
18
100
AcDbLine
 10
48.0
 20
-2.999999999999896
 30
0.0
 11
48.0
 21
-32.89535275960138
 31
0.0
  0
LINE
  5
65DC
330
1E
100
AcDbEntity
  8
18
100
AcDbLine
 10
46.0
 20
-2.999999999999896
 30
0.0
 11
46.0
 21
-33.29228449266937
 31
0.0
  0
LINE
  5
65DD
330
1E
100
AcDbEntity
  8
18
100
AcDbLine
 10
44.00000000000001
 20
-2.999999999999896
 30
0.0
 11
44.00000000000001
 21
-32.37771519437668
 31
0.0
  0
ARC
  5
65DE
330
1E
100
AcDbEntity
  8
18
100
AcDbCircle
 10
42.00000000000001
 20
-2.999999999999984
 30
0.0
 40
6.0
100
AcDbArc
 50
0.0000000002214684
 51
90.0
  0
ARC
  5
65DF
330
1E
100
AcDbEntity
  8
18
100
AcDbCircle
 10
42.00000000000001
 20
-2.999999999999984
 30
0.0
 40
4.0
100
AcDbArc
 50
0.0000000003322026
 51
90.0
  0
ARC
  5
65E0
330
1E
100
AcDbEntity
  8
18
100
AcDbCircle
 10
42.00000000000001
 20
-2.999999999999984
 30
0.0
 40
2.0
100
AcDbArc
 50
0.0000000006644052
 51
90.0
  0
LINE
  5
65E1
330
1E
100
AcDbEntity
  8
18
100
AcDbLine
 10
48.0
 20
-36.89535275960146
 30
0.0
 11
48.0
 21
-85.49999999999995
 31
0.0
  0
LINE
  5
65E2
330
1E
100
AcDbEntity
  8
18
100
AcDbLine
 10
46.0
 20
-37.29228449266936
 30
0.0
 11
46.0
 21
-85.4999999999999
 31
0.0
  0
LINE
  5
65E3
330
1E
100
AcDbEntity
  8
18
100
AcDbLine
 10
44.00000000000001
 20
-36.3777151943767
 30
0.0
 11
44.00000000000001
 21
-85.4999999999999
 31
0.0
  0
LINE
  5
65E4
330
1E
100
AcDbEntity
  8
18
100
AcDbLine
 10
42.00000000000001
 20
-36.7421837319551
 30
0.0
 11
42.00000000000001
 21
-85.49999999999995
 31
0.0
  0
LINE
  5
65E5
330
1E
100
AcDbEntity
  8
18
100
AcDbLine
 10
42.00000000000001
 20
-100.4999999999997
 30
0.0
 11
42.00000000000001
 21
-132.9999999999998
 31
0.0
  0
LINE
  5
65E6
330
1E
100
AcDbEntity
  8
18
100
AcDbLine
 10
44.00000000000001
 20
-100.4999999999997
 30
0.0
 11
44.00000000000001
 21
-132.9999999999998
 31
0.0
  0
LINE
  5
65E7
330
1E
100
AcDbEntity
  8
18
100
AcDbLine
 10
46.0
 20
-100.4999999999997
 30
0.0
 11
46.0
 21
-132.9999999999998
 31
0.0
  0
LINE
  5
65E8
330
1E
100
AcDbEntity
  8
18
100
AcDbLine
 10
48.0
 20
-100.4999999999997
 30
0.0
 11
48.0
 21
-132.9999999999998
 31
0.0
  0
LINE
  5
65E9
330
1E
100
AcDbEntity
  8
18
100
AcDbLine
 10
42.00000000000001
 20
-132.9999999999998
 30
0.0
 11
44.00000000000001
 21
-132.9999999999998
 31
0.0
  0
LINE
  5
65EA
330
1E
100
AcDbEntity
  8
18
100
AcDbLine
 10
42.5
 20
-132.9999999999998
 30
0.0
 11
42.5
 21
-137.9999999999998
 31
0.0
  0
LINE
  5
65EB
330
1E
100
AcDbEntity
  8
18
100
AcDbLine
 10
43.5
 20
-132.9999999999998
 30
0.0
 11
43.5
 21
-137.9999999999998
 31
0.0
  0
LINE
  5
65EC
330
1E
100
AcDbEntity
  8
18
100
AcDbLine
 10
42.5
 20
-137.9999999999998
 30
0.0
 11
43.5
 21
-137.9999999999998
 31
0.0
  0
LINE
  5
65ED
330
1E
100
AcDbEntity
  8
18
100
AcDbLine
 10
47.5
 20
-132.9999999999998
 30
0.0
 11
47.5
 21
-137.9999999999998
 31
0.0
  0
LINE
  5
65EE
330
1E
100
AcDbEntity
  8
18
100
AcDbLine
 10
44.50000000000001
 20
-132.9999999999998
 30
0.0
 11
44.50000000000001
 21
-137.9999999999998
 31
0.0
  0
LINE
  5
65EF
330
1E
100
AcDbEntity
  8
18
100
AcDbLine
 10
45.49999999999999
 20
-132.9999999999998
 30
0.0
 11
45.49999999999999
 21
-137.9999999999998
 31
0.0
  0
LINE
  5
65F0
330
1E
100
AcDbEntity
  8
18
100
AcDbLine
 10
46.50000000000001
 20
-132.9999999999998
 30
0.0
 11
46.50000000000001
 21
-137.9999999999998
 31
0.0
  0
LINE
  5
65F1
330
1E
100
AcDbEntity
  8
18
100
AcDbLine
 10
44.50000000000001
 20
-137.9999999999998
 30
0.0
 11
45.49999999999999
 21
-137.9999999999998
 31
0.0
  0
LINE
  5
65F2
330
1E
100
AcDbEntity
  8
18
100
AcDbLine
 10
44.00000000000001
 20
-132.9999999999998
 30
0.0
 11
46.0
 21
-132.9999999999998
 31
0.0
  0
LINE
  5
65F3
330
1E
100
AcDbEntity
  8
18
100
AcDbLine
 10
46.50000000000001
 20
-137.9999999999998
 30
0.0
 11
47.5
 21
-137.9999999999998
 31
0.0
  0
LINE
  5
65F4
330
1E
100
AcDbEntity
  8
18
100
AcDbLine
 10
46.0
 20
-132.9999999999998
 30
0.0
 11
48.0
 21
-132.9999999999998
 31
0.0
  0
LINE
  5
65F5
330
1E
100
AcDbEntity
  8
18
100
AcDbLine
 10
41.50000000000001
 20
-85.49999999999995
 30
0.0
 11
41.50000000000001
 21
-100.4999999999997
 31
0.0
  0
LINE
  5
65F6
330
1E
100
AcDbEntity
  8
18
100
AcDbLine
 10
48.50000000000001
 20
-85.49999999999995
 30
0.0
 11
48.50000000000001
 21
-100.4999999999997
 31
0.0
  0
LINE
  5
65F7
330
1E
100
AcDbEntity
  8
18
100
AcDbLine
 10
41.50000000000006
 20
-100.4999999999997
 30
0.0
 11
48.50000000000001
 21
-100.4999999999997
 31
0.0
  0
LINE
  5
65F8
330
1E
100
AcDbEntity
  8
18
100
AcDbLine
 10
41.50000000000006
 20
-85.49999999999995
 30
0.0
 11
48.50000000000001
 21
-85.49999999999995
 31
0.0
  0
LINE
  5
65F9
330
1E
100
AcDbEntity
  8
12
  6
DASHED
100
AcDbLine
 10
20.49999999999996
 20
65.99999999999974
 30
0.0
 11
9.5
 21
65.99999999999974
 31
0.0
  0
CIRCLE
  5
65FA
330
1E
100
AcDbEntity
  8
12
  6
DASHED
100
AcDbCircle
 10
14.99999999999999
 20
65.99999999999974
 30
0.0
 40
4.0
  0
LINE
  5
65FB
330
1E
100
AcDbEntity
  8
12
  6
DASHED
100
AcDbLine
 10
14.99999999999999
 20
60.49999999999974
 30
0.0
 11
14.99999999999999
 21
71.49999999999973
 31
0.0
  0
LINE
  5
65FC
330
1E
100
AcDbEntity
  8
12
  6
DASHED
100
AcDbLine
 10
-9.500000000000078
 20
-66.00000000000004
 30
0.0
 11
-20.50000000000014
 21
-66.00000000000004
 31
0.0
  0
LINE
  5
65FD
330
1E
100
AcDbEntity
  8
12
  6
DASHED
100
AcDbLine
 10
-15.00000000000005
 20
-71.50000000000003
 30
0.0
 11
-15.00000000000005
 21
-60.49999999999998
 31
0.0
  0
CIRCLE
  5
65FE
330
1E
100
AcDbEntity
  8
12
  6
DASHED
100
AcDbCircle
 10
-15.00000000000005
 20
-66.00000000000004
 30
0.0
 40
4.0
  0
MTEXT
  5
6659
330
1E
100
AcDbEntity
  8
30
  6
Continuous
100
AcDbMText
 10
137.1590311180116
 20
227.8333772759876
 30
0.0
 40
5.0
 41
88.8353
 46
0.0
 71
     1
 72
     5
  1
ZAS50-GF 4P FC\PZAS100-GF 4P FC\PZAS125-GF 4P FC
  7
STANDARD1
 73
     1
 44
1.0
1001
ACAD
1000
MTEXTBEGIN
1070
    73
1070
     1
1070
    44
1040
1.0
1070
    74
1070
     0
1000
MTEXTEND
  0
LINE
  5
6763
330
1E
100
AcDbEntity
  8
16
100
AcDbLine
 10
0.000000000000004
 20
137.7384784421552
 30
0.0
 11
0.000000000000004
 21
280.2384784421551
 31
0.0
  0
LINE
  5
6764
330
1E
100
AcDbEntity
  8
10
  6
CONTINOUS
100
AcDbLine
 10
74.99999999999999
 20
167.1349134126128
 30
0.0
 11
74.99999999999999
 21
235.1349134126127
 31
0.0
  0
LINE
  5
6765
330
1E
100
AcDbEntity
  8
10
  6
CONTINOUS
100
AcDbLine
 10
-11.01790353517128
 20
159.1349134126129
 30
0.0
 11
10.99999999999996
 21
159.1349134126129
 31
0.0
  0
LINE
  5
6766
330
1E
100
AcDbEntity
  8
10
  6
CONTINOUS
100
AcDbLine
 10
10.99999999999996
 20
159.1349134126129
 30
0.0
 11
10.99999999999996
 21
163.1349134126129
 31
0.0
  0
LINE
  5
6767
330
1E
100
AcDbEntity
  8
10
  6
CONTINOUS
100
AcDbLine
 10
-11.01790353517128
 20
159.1349134126129
 30
0.0
 11
-11.01790353517128
 21
163.1349134126129
 31
0.0
  0
LINE
  5
6768
330
1E
100
AcDbEntity
  8
24
  6
CONTINOUS
100
AcDbLine
 10
30.0
 20
198.9349134126126
 30
0.0
 11
30.0
 21
216.1349134126129
 31
0.0
  0
LINE
  5
6769
330
1E
100
AcDbEntity
  8
24
  6
CONTINOUS
100
AcDbLine
 10
19.5
 20
211.1349134126129
 30
0.0
 11
40.5000000000001
 21
211.1349134126129
 31
0.0
  0
LINE
  5
676A
330
1E
100
AcDbEntity
  8
24
  6
CONTINOUS
100
AcDbLine
 10
22.30000000000007
 20
205.9349134126128
 30
0.0
 11
37.70000000000004
 21
205.9349134126128
 31
0.0
  0
LINE
  5
676B
330
1E
100
AcDbEntity
  8
24
  6
CONTINOUS
100
AcDbLine
 10
25.0
 20
200.7349134126128
 30
0.0
 11
35.0
 21
200.7349134126128
 31
0.0
  0
LINE
  5
676C
330
1E
100
AcDbEntity
  8
24
  6
CONTINOUS
100
AcDbLine
 10
19.5
 20
213.1349134126129
 30
0.0
 11
40.5000000000001
 21
213.1349134126129
 31
0.0
  0
LINE
  5
676D
330
1E
100
AcDbEntity
  8
24
  6
CONTINOUS
100
AcDbLine
 10
37.70000000000004
 20
205.9349134126128
 30
0.0
 11
37.70000000000004
 21
207.9349134126129
 31
0.0
  0
ARC
  5
676E
330
1E
100
AcDbEntity
  8
24
  6
CONTINOUS
100
AcDbCircle
 10
35.00000000000003
 20
202.7349134126128
 30
0.0
 40
2.0
100
AcDbArc
 50
270.0
 51
0.0
  0
LINE
  5
676F
330
1E
100
AcDbEntity
  8
24
  6
CONTINOUS
100
AcDbLine
 10
37.0
 20
202.7349134126128
 30
0.0
 11
37.0
 21
205.9349134126128
 31
0.0
  0
LINE
  5
6770
330
1E
100
AcDbEntity
  8
24
  6
CONTINOUS
100
AcDbLine
 10
22.30000000000007
 20
205.9349134126128
 30
0.0
 11
22.30000000000007
 21
207.9349134126129
 31
0.0
  0
ARC
  5
6771
330
1E
100
AcDbEntity
  8
24
  6
CONTINOUS
100
AcDbCircle
 10
25.00000000000003
 20
202.7349134126128
 30
0.0
 40
2.0
100
AcDbArc
 50
180.0
 51
270.0
  0
LINE
  5
6772
330
1E
100
AcDbEntity
  8
24
  6
CONTINOUS
100
AcDbLine
 10
23.0
 20
202.7349134126128
 30
0.0
 11
23.0
 21
205.9349134126128
 31
0.0
  0
LINE
  5
6773
330
1E
100
AcDbEntity
  8
24
  6
CONTINOUS
100
AcDbLine
 10
-10.49999999999999
 20
213.1349134126129
 30
0.0
 11
10.50000000000011
 21
213.1349134126129
 31
0.0
  0
LINE
  5
6774
330
1E
100
AcDbEntity
  8
24
  6
CONTINOUS
100
AcDbLine
 10
-7.699999999999931
 20
205.9349134126128
 30
0.0
 11
7.700000000000045
 21
205.9349134126128
 31
0.0
  0
LINE
  5
6775
330
1E
100
AcDbEntity
  8
24
  6
CONTINOUS
100
AcDbLine
 10
-10.49999999999999
 20
211.1349134126129
 30
0.0
 11
10.50000000000011
 21
211.1349134126129
 31
0.0
  0
ARC
  5
6776
330
1E
100
AcDbEntity
  8
24
  6
CONTINOUS
100
AcDbCircle
 10
5.000000000000028
 20
202.7349134126128
 30
0.0
 40
2.0
100
AcDbArc
 50
270.0
 51
0.0
  0
LINE
  5
6777
330
1E
100
AcDbEntity
  8
24
  6
CONTINOUS
100
AcDbLine
 10
-7.0
 20
202.7349134126128
 30
0.0
 11
-7.0
 21
205.9349134126128
 31
0.0
  0
LINE
  5
6778
330
1E
100
AcDbEntity
  8
24
  6
CONTINOUS
100
AcDbLine
 10
0.0000000000000004
 20
198.9349134126126
 30
0.0
 11
0.0000000000000004
 21
216.1349134126129
 31
0.0
  0
LINE
  5
6779
330
1E
100
AcDbEntity
  8
24
  6
CONTINOUS
100
AcDbLine
 10
-5.0
 20
200.7349134126128
 30
0.0
 11
5.0
 21
200.7349134126128
 31
0.0
  0
ARC
  5
677A
330
1E
100
AcDbEntity
  8
24
  6
CONTINOUS
100
AcDbCircle
 10
-4.999999999999971
 20
202.7349134126128
 30
0.0
 40
2.0
100
AcDbArc
 50
180.0
 51
270.0
  0
LINE
  5
677B
330
1E
100
AcDbEntity
  8
24
  6
CONTINOUS
100
AcDbLine
 10
-7.699999999999931
 20
205.9349134126128
 30
0.0
 11
-7.699999999999931
 21
207.9349134126129
 31
0.0
  0
LINE
  5
677C
330
1E
100
AcDbEntity
  8
24
  6
CONTINOUS
100
AcDbLine
 10
7.0
 20
202.7349134126128
 30
0.0
 11
7.0
 21
205.9349134126128
 31
0.0
  0
LINE
  5
677D
330
1E
100
AcDbEntity
  8
24
  6
CONTINOUS
100
AcDbLine
 10
7.700000000000045
 20
205.9349134126128
 30
0.0
 11
7.700000000000045
 21
207.9349134126129
 31
0.0
  0
LINE
  5
677E
330
1E
100
AcDbEntity
  8
24
  6
CONTINOUS
100
AcDbLine
 10
-34.99999999999996
 20
200.7349134126128
 30
0.0
 11
-24.99999999999998
 21
200.7349134126128
 31
0.0
  0
LINE
  5
677F
330
1E
100
AcDbEntity
  8
24
  6
CONTINOUS
100
AcDbLine
 10
-40.49999999999998
 20
211.1349134126129
 30
0.0
 11
-19.49999999999987
 21
211.1349134126129
 31
0.0
  0
LINE
  5
6780
330
1E
100
AcDbEntity
  8
24
  6
CONTINOUS
100
AcDbLine
 10
-37.69999999999993
 20
205.9349134126128
 30
0.0
 11
-22.29999999999995
 21
205.9349134126128
 31
0.0
  0
LINE
  5
6781
330
1E
100
AcDbEntity
  8
24
  6
CONTINOUS
100
AcDbLine
 10
-40.49999999999998
 20
213.1349134126129
 30
0.0
 11
-19.49999999999987
 21
213.1349134126129
 31
0.0
  0
LINE
  5
6782
330
1E
100
AcDbEntity
  8
24
  6
CONTINOUS
100
AcDbLine
 10
-29.99999999999998
 20
198.9349134126126
 30
0.0
 11
-29.99999999999998
 21
216.1349134126129
 31
0.0
  0
LINE
  5
6783
330
1E
100
AcDbEntity
  8
24
  6
CONTINOUS
100
AcDbLine
 10
-36.99999999999997
 20
202.7349134126128
 30
0.0
 11
-36.99999999999997
 21
205.9349134126128
 31
0.0
  0
ARC
  5
6784
330
1E
100
AcDbEntity
  8
24
  6
CONTINOUS
100
AcDbCircle
 10
-34.99999999999996
 20
202.7349134126128
 30
0.0
 40
2.0
100
AcDbArc
 50
180.0
 51
270.0
  0
LINE
  5
6785
330
1E
100
AcDbEntity
  8
24
  6
CONTINOUS
100
AcDbLine
 10
-37.69999999999993
 20
205.9349134126128
 30
0.0
 11
-37.69999999999993
 21
207.9349134126129
 31
0.0
  0
LINE
  5
6786
330
1E
100
AcDbEntity
  8
24
  6
CONTINOUS
100
AcDbLine
 10
-22.99999999999998
 20
202.7349134126128
 30
0.0
 11
-22.99999999999998
 21
205.9349134126128
 31
0.0
  0
ARC
  5
6787
330
1E
100
AcDbEntity
  8
24
  6
CONTINOUS
100
AcDbCircle
 10
-24.99999999999996
 20
202.7349134126128
 30
0.0
 40
2.0
100
AcDbArc
 50
270.0
 51
0.0
  0
LINE
  5
6788
330
1E
100
AcDbEntity
  8
24
  6
CONTINOUS
100
AcDbLine
 10
-22.29999999999995
 20
205.9349134126128
 30
0.0
 11
-22.29999999999995
 21
207.9349134126129
 31
0.0
  0
DIMENSION
  5
6789
330
1E
100
AcDbEntity
  8
30
  6
Continuous
100
AcDbDimension
280
     0
  2
*D41
 10
0.0000000000000029
 20
256.9821974718418
 30
0.0
 11
-14.99999999999999
 21
259.9821974718418
 31
0.0
 70
    32
 71
     5
 42
29.99999999999998
 73
     0
 74
     0
 75
     0
  3
STANDARD
100
AcDbAlignedDimension
 13
-29.99999999999998
 23
216.1349134126129
 33
0.0
 14
0.0000000000000004
 24
216.1349134126129
 34
0.0
100
AcDbRotatedDimension
1001
ACAD
1000
DSTYLE
1002
{
1070
    79
1070
     3
1002
}
  0
DIMENSION
  5
678A
330
1E
100
AcDbEntity
  8
30
  6
Continuous
100
AcDbDimension
280
     0
  2
*D42
 10
30.0
 20
256.9821974718418
 30
0.0
 11
15.0
 21
259.9821974718418
 31
0.0
 70
    32
 71
     5
 42
30.0
 73
     0
 74
     0
 75
     0
  3
STANDARD
100
AcDbAlignedDimension
 13
0.0000000000000004
 23
217.1349134126129
 33
0.0
 14
30.0
 24
216.1349134126129
 34
0.0
100
AcDbRotatedDimension
1001
ACAD
1000
DSTYLE
1002
{
1070
    79
1070
     3
1002
}
  0
DIMENSION
  5
678B
330
1E
100
AcDbEntity
  8
30
  6
Continuous
100
AcDbDimension
280
     0
  2
*D36
 10
60.0
 20
256.9821974718418
 30
0.0
 11
45.0
 21
259.9821974718418
 31
0.0
 70
    32
 71
     5
 42
30.0
 73
     0
 74
     0
 75
     0
  3
STANDARD
100
AcDbAlignedDimension
 13
30.0
 23
217.1349134126129
 33
0.0
 14
60.0
 24
216.1349134126129
 34
0.0
100
AcDbRotatedDimension
1001
ACAD
1000
DSTYLE
1002
{
1070
    79
1070
     3
1002
}
  0
LINE
  5
678C
330
1E
100
AcDbEntity
  8
24
  6
CONTINOUS
100
AcDbLine
 10
49.50000000000001
 20
211.1349134126129
 30
0.0
 11
70.5000000000001
 21
211.1349134126129
 31
0.0
  0
LINE
  5
678D
330
1E
100
AcDbEntity
  8
24
  6
CONTINOUS
100
AcDbLine
 10
49.50000000000001
 20
213.1349134126129
 30
0.0
 11
70.5000000000001
 21
213.1349134126129
 31
0.0
  0
LINE
  5
678E
330
1E
100
AcDbEntity
  8
24
  6
CONTINOUS
100
AcDbLine
 10
52.30000000000007
 20
205.9349134126128
 30
0.0
 11
67.70000000000003
 21
205.9349134126128
 31
0.0
  0
LINE
  5
678F
330
1E
100
AcDbEntity
  8
24
  6
CONTINOUS
100
AcDbLine
 10
67.0
 20
202.7349134126128
 30
0.0
 11
67.0
 21
205.9349134126128
 31
0.0
  0
LINE
  5
6790
330
1E
100
AcDbEntity
  8
24
  6
CONTINOUS
100
AcDbLine
 10
60.0
 20
198.9349134126126
 30
0.0
 11
60.0
 21
216.1349134126129
 31
0.0
  0
LINE
  5
6791
330
1E
100
AcDbEntity
  8
24
  6
CONTINOUS
100
AcDbLine
 10
53.0
 20
202.7349134126128
 30
0.0
 11
53.0
 21
205.9349134126128
 31
0.0
  0
LINE
  5
6792
330
1E
100
AcDbEntity
  8
24
  6
CONTINOUS
100
AcDbLine
 10
55.0
 20
200.7349134126128
 30
0.0
 11
65.0
 21
200.7349134126128
 31
0.0
  0
ARC
  5
6793
330
1E
100
AcDbEntity
  8
24
  6
CONTINOUS
100
AcDbCircle
 10
55.00000000000003
 20
202.7349134126128
 30
0.0
 40
2.0
100
AcDbArc
 50
180.0
 51
270.0
  0
ARC
  5
6794
330
1E
100
AcDbEntity
  8
24
  6
CONTINOUS
100
AcDbCircle
 10
65.00000000000003
 20
202.7349134126128
 30
0.0
 40
2.0
100
AcDbArc
 50
270.0
 51
0.0
  0
LINE
  5
6795
330
1E
100
AcDbEntity
  8
24
  6
CONTINOUS
100
AcDbLine
 10
52.30000000000007
 20
205.9349134126128
 30
0.0
 11
52.30000000000007
 21
207.9349134126129
 31
0.0
  0
LINE
  5
6796
330
1E
100
AcDbEntity
  8
24
  6
CONTINOUS
100
AcDbLine
 10
67.70000000000003
 20
205.9349134126128
 30
0.0
 11
67.70000000000003
 21
207.9349134126129
 31
0.0
  0
LWPOLYLINE
  5
6797
330
1E
100
AcDbEntity
  8
24
  6
CONTINOUS
100
AcDbPolyline
 90
        4
 70
     1
 43
0.0
 10
-37.99999999999998
 20
207.9349134126129
 10
-21.99999999999998
 20
207.9349134126129
 10
-21.99999999999998
 20
211.1349134126129
 10
-37.99999999999998
 20
211.1349134126129
  0
LWPOLYLINE
  5
6798
330
1E
100
AcDbEntity
  8
24
  6
CONTINOUS
100
AcDbPolyline
 90
        4
 70
     1
 43
0.0
 10
-8.0
 20
207.9349134126129
 10
8.0
 20
207.9349134126129
 10
8.0
 20
211.1349134126129
 10
-8.0
 20
211.1349134126129
  0
LWPOLYLINE
  5
6799
330
1E
100
AcDbEntity
  8
24
  6
CONTINOUS
100
AcDbPolyline
 90
        4
 70
     1
 43
0.0
 10
22.0
 20
207.9349134126129
 10
38.0
 20
207.9349134126129
 10
38.0
 20
211.1349134126129
 10
22.0
 20
211.1349134126129
  0
LWPOLYLINE
  5
679A
330
1E
100
AcDbEntity
  8
24
  6
CONTINOUS
100
AcDbPolyline
 90
        4
 70
     1
 43
0.0
 10
52.0
 20
207.9349134126129
 10
68.0
 20
207.9349134126129
 10
68.0
 20
211.1349134126129
 10
52.0
 20
211.1349134126129
  0
DIMENSION
  5
679B
330
1E
100
AcDbEntity
  8
30
  6
Continuous
100
AcDbDimension
280
     0
  2
*D37
 10
82.53557793199616
 20
174.1349134126129
 30
0.0
 11
79.53557793199613
 21
204.6349134126128
 31
0.0
 70
    32
 71
     5
 42
60.99999999999977
 73
     0
 74
     0
 75
     0
  3
STANDARD
100
AcDbAlignedDimension
 13
74.99999999999997
 23
235.1349134126127
 33
0.0
 14
74.99999999999999
 24
174.1349134126129
 34
0.0
 50
90.0
100
AcDbRotatedDimension
1001
ACAD
1000
DSTYLE
1002
{
1070
    79
1070
     3
1002
}
  0
DIMENSION
  5
679C
330
1E
100
AcDbEntity
  8
30
  6
Continuous
100
AcDbDimension
280
     0
  2
*D38
 10
89.84192661915676
 20
167.1349134126128
 30
0.0
 11
86.84192661915673
 21
201.1349134126128
 31
0.0
 70
    32
 71
     5
 42
67.99999999999986
 73
     0
 74
     0
 75
     0
  3
STANDARD
100
AcDbAlignedDimension
 13
74.99999999999999
 23
235.1349134126127
 33
0.0
 14
74.99999999999999
 24
167.1349134126128
 34
0.0
 50
90.0
100
AcDbRotatedDimension
1001
ACAD
1000
DSTYLE
1002
{
1070
    79
1070
     3
1002
}
  0
DIMENSION
  5
679D
330
1E
100
AcDbEntity
  8
30
  6
Continuous
100
AcDbDimension
280
     0
  2
*D39
 10
97.14827530631779
 20
163.1349134126129
 30
0.0
 11
94.14827530631777
 21
199.1349134126128
 31
0.0
 70
    32
 71
     5
 42
71.9999999999998
 73
     0
 74
     0
 75
     0
  3
STANDARD
100
AcDbAlignedDimension
 13
74.99999999999999
 23
235.1349134126127
 33
0.0
 14
42.49999999999995
 24
163.1349134126129
 34
0.0
 50
90.0
100
AcDbRotatedDimension
1001
ACAD
1000
DSTYLE
1002
{
1070
    79
1070
     3
1002
}
  0
DIMENSION
  5
679E
330
1E
100
AcDbEntity
  8
30
  6
Continuous
100
AcDbDimension
280
     0
  2
*D40
 10
104.4546239934789
 20
159.1349134126129
 30
0.0
 11
101.4546239934789
 21
197.1349134126128
 31
0.0
 70
    32
 71
     5
 42
75.9999999999998
 73
     0
 74
     0
 75
     0
  3
STANDARD
100
AcDbAlignedDimension
 13
74.99999999999997
 23
235.1349134126127
 33
0.0
 14
10.99999999999996
 24
159.1349134126129
 34
0.0
 50
90.0
100
AcDbRotatedDimension
1001
ACAD
1000
DSTYLE
1002
{
1070
    79
1070
     3
1002
}
  0
LINE
  5
679F
330
1E
100
AcDbEntity
  8
10
  6
CONTINOUS
100
AcDbLine
 10
-6.999999999999986
 20
159.1349134126129
 30
0.0
 11
-6.999999999999986
 21
147.1349134126129
 31
0.0
  0
LINE
  5
67A0
330
1E
100
AcDbEntity
  8
10
  6
CONTINOUS
100
AcDbLine
 10
-6.999999999999986
 20
147.1349134126129
 30
0.0
 11
7.000000000000013
 21
147.1349134126129
 31
0.0
  0
LINE
  5
67A1
330
1E
100
AcDbEntity
  8
10
  6
CONTINOUS
100
AcDbLine
 10
7.000000000000013
 20
147.1349134126129
 30
0.0
 11
7.000000000000013
 21
159.1349134126129
 31
0.0
  0
LINE
  5
67A2
330
1E
100
AcDbEntity
  8
10
  6
CONTINOUS
100
AcDbLine
 10
42.00000000000001
 20
167.1349134126128
 30
0.0
 11
42.00000000000001
 21
163.1349134126128
 31
0.0
  0
LINE
  5
67A3
330
1E
100
AcDbEntity
  8
10
  6
CONTINOUS
100
AcDbLine
 10
42.00000000000001
 20
163.1349134126128
 30
0.0
 11
-41.99999999999999
 21
163.1349134126128
 31
0.0
  0
LINE
  5
67A4
330
1E
100
AcDbEntity
  8
10
  6
CONTINOUS
100
AcDbLine
 10
74.99999999999999
 20
167.1349134126128
 30
0.0
 11
-45.0
 21
167.1349134126128
 31
0.0
  0
LINE
  5
67A5
330
1E
100
AcDbEntity
  8
10
  6
CONTINOUS
100
AcDbLine
 10
74.99999999999997
 20
174.1349134126129
 30
0.0
 11
74.99999999999997
 21
167.1349134126129
 31
0.0
  0
LINE
  5
67A6
330
1E
100
AcDbEntity
  8
10
  6
CONTINOUS
100
AcDbLine
 10
74.99999999999997
 20
174.1349134126129
 30
0.0
 11
-45.00000000000002
 21
174.1349134126129
 31
0.0
  0
LINE
  5
67A7
330
1E
100
AcDbEntity
  8
10
  6
CONTINOUS
100
AcDbLine
 10
74.99999999999999
 20
235.1349134126127
 30
0.0
 11
-45.0
 21
235.1349134126127
 31
0.0
  0
LINE
  5
67A8
330
1E
100
AcDbEntity
  8
10
  6
CONTINOUS
100
AcDbLine
 10
-45.0
 20
235.1349134126127
 30
0.0
 11
-45.0
 21
167.1349134126127
 31
0.0
  0
LINE
  5
67A9
330
1E
100
AcDbEntity
  8
10
  6
CONTINOUS
100
AcDbLine
 10
-41.99999999999999
 20
163.1349134126128
 30
0.0
 11
-41.99999999999999
 21
167.1349134126128
 31
0.0
  0
VIEWPORT
  5
9AC
330
1A
100
AcDbEntity
 67
     1
  8
0
  6
Continuous
100
AcDbViewport
 10
171.999535
 20
144.1384739999999
 30
0.0
 40
488.867686
 41
292.351491
 68
    -1
 69
     1
 12
171.999535
 22
144.1384739999999
 13
0.0
 23
0.0
 14
10.0
 24
10.0
 15
10.0
 25
10.0
 16
0.0
 26
0.0
 36
1.0
 17
0.0
 27
0.0
 37
0.0
 42
50.0
 43
0.0
 44
0.0
 45
292.351491
 50
0.0
 51
0.0
 72
   100
 90
    32800
  1

281
     0
 71
     1
 74
     0
110
0.0
120
0.0
130
0.0
111
1.0
121
0.0
131
0.0
112
0.0
122
1.0
132
0.0
 79
     0
146
0.0
170
     0
 61
     5
348
6683
292
     1
282
     1
141
0.0
142
0.0
 63
   250
421
  3355443
  0
ENDSEC
  0
SECTION
  2
OBJECTS
  0
DICTIONARY
  5
C
330
0
100
AcDbDictionary
281
     1
  3
ACAD_CIP_PREVIOUS_PRODUCT_INFO
350
66B2
  3
ACAD_COLOR
350
6696
  3
ACAD_DETAILVIEWSTYLE
350
66AF
  3
ACAD_GROUP
350
D
  3
ACAD_LAYOUT
350
19
  3
ACAD_MATERIAL
350
6664
  3
ACAD_MLEADERSTYLE
350
66AB
  3
ACAD_MLINESTYLE
350
16
  3
ACAD_PLOTSETTINGS
350
18
  3
ACAD_PLOTSTYLENAME
350
E
  3
ACAD_SCALELIST
350
6699
  3
ACAD_SECTIONVIEWSTYLE
350
66AD
  3
ACAD_TABLESTYLE
350
6697
  3
ACAD_VISUALSTYLE
350
667D
  3
ACADDIM
350
5C76
  3
ACDB_RECOMPOSE_DATA
350
68C4
  3
ACDBVARIABLEDICTIONARY
350
5697
  0
DICTIONARY
  5
6846
330
10
100
AcDbDictionary
280
     1
281
     1
  3
ADSK_XREC_LAYER_RECONCILED
360
6847
  0
DICTIONARY
  5
6848
330
2F
100
AcDbDictionary
280
     1
281
     1
  3
ADSK_XREC_LAYER_RECONCILED
360
6849
  0
DICTIONARY
  5
684A
330
31
100
AcDbDictionary
280
     1
281
     1
  3
ADSK_XREC_LAYER_RECONCILED
360
684B
  0
DICTIONARY
  5
684C
330
35
100
AcDbDictionary
280
     1
281
     1
  3
ADSK_XREC_LAYER_RECONCILED
360
684D
  0
DICTIONARY
  5
684E
330
38
100
AcDbDictionary
280
     1
281
     1
  3
ADSK_XREC_LAYER_RECONCILED
360
684F
  0
DICTIONARY
  5
6850
330
3C
100
AcDbDictionary
280
     1
281
     1
  3
ADSK_XREC_LAYER_RECONCILED
360
6851
  0
DICTIONARY
  5
6852
330
3D
100
AcDbDictionary
280
     1
281
     1
  3
ADSK_XREC_LAYER_RECONCILED
360
6853
  0
DICTIONARY
  5
6854
330
3A2
100
AcDbDictionary
280
     1
281
     1
  3
ADSK_XREC_LAYER_RECONCILED
360
6855
  0
DICTIONARY
  5
6856
330
3BBA
100
AcDbDictionary
280
     1
281
     1
  3
ADSK_XREC_LAYER_RECONCILED
360
6857
  0
DICTIONARY
  5
6858
330
5116
100
AcDbDictionary
280
     1
281
     1
  3
ADSK_XREC_LAYER_RECONCILED
360
6859
  0
DICTIONARY
  5
685A
330
5117
100
AcDbDictionary
280
     1
281
     1
  3
ADSK_XREC_LAYER_RECONCILED
360
685B
  0
DICTIONARY
  5
685C
330
5C47
100
AcDbDictionary
280
     1
281
     1
  3
ADSK_XREC_LAYER_RECONCILED
360
685D
  0
DICTIONARY
  5
178
330
1E
100
AcDbDictionary
280
     1
281
     1
  3
ACAD_LAYOUTSELFREF
360
664E
  0
DICTIONARY
  5
17A
330
1A
100
AcDbDictionary
280
     1
281
     1
  3
ACAD_LAYOUTSELFREF
360
664D
  0
XRECORD
  5
66B2
102
{ACAD_REACTORS
330
C
102
}
330
C
100
AcDbXrecord
280
     1
300
ACDLT
300
2014
300
ACDLT_F_S
  0
DICTIONARY
  5
6696
102
{ACAD_REACTORS
330
C
102
}
330
C
100
AcDbDictionary
281
     1
  0
DICTIONARY
  5
66AF
102
{ACAD_REACTORS
330
C
102
}
330
C
100
AcDbDictionary
281
     1
  3
Imperial24
350
66B0
  0
DICTIONARY
  5
D
102
{ACAD_REACTORS
330
C
102
}
330
C
100
AcDbDictionary
281
     1
  0
DICTIONARY
  5
19
102
{ACAD_REACTORS
330
C
102
}
330
C
100
AcDbDictionary
281
     1
  3
Model
350
6656
  3
ﾚｲｱｳﾄ1
350
6657
  0
DICTIONARY
  5
6664
102
{ACAD_REACTORS
330
C
102
}
330
C
100
AcDbDictionary
281
     1
  3
ByBlock
350
666D
  3
ByLayer
350
6665
  3
Global
350
6675
  0
DICTIONARY
  5
66AB
102
{ACAD_REACTORS
330
C
102
}
330
C
100
AcDbDictionary
281
     1
  3
Standard
350
66AC
  0
DICTIONARY
  5
16
102
{ACAD_REACTORS
330
C
102
}
330
C
100
AcDbDictionary
281
     1
  3
STANDARD
350
17
  0
DICTIONARY
  5
18
102
{ACAD_REACTORS
330
C
102
}
330
C
100
AcDbDictionary
281
     1
  0
ACDBDICTIONARYWDFLT
  5
E
102
{ACAD_REACTORS
330
C
102
}
330
C
100
AcDbDictionary
281
     1
  3
Normal
350
F
100
AcDbDictionaryWithDefault
340
F
  0
DICTIONARY
  5
6699
102
{ACAD_REACTORS
330
C
102
}
330
C
100
AcDbDictionary
281
     1
  3
A0
350
669A
  3
A1
350
669B
  3
A2
350
669C
  3
A3
350
669D
  3
A4
350
669E
  3
A5
350
669F
  3
A6
350
66A0
  3
A7
350
66A1
  3
A8
350
66A2
  3
A9
350
66A3
  3
B0
350
66A4
  3
B1
350
66A5
  3
B2
350
66A6
  3
B3
350
66A7
  3
B4
350
66A8
  3
B5
350
66A9
  3
B6
350
66AA
  0
DICTIONARY
  5
66AD
102
{ACAD_REACTORS
330
C
102
}
330
C
100
AcDbDictionary
281
     1
  3
Imperial24
350
66AE
  0
DICTIONARY
  5
6697
102
{ACAD_REACTORS
330
C
102
}
330
C
100
AcDbDictionary
281
     1
  3
Standard
350
6698
  0
DICTIONARY
  5
667D
102
{ACAD_REACTORS
330
C
102
}
330
C
100
AcDbDictionary
281
     1
  3
2dWireframe
350
6683
  3
Basic
350
6682
  3
Brighten
350
6689
  3
ColorChange
350
668D
  3
Conceptual
350
6686
  3
Dim
350
6688
  3
EdgeColorOff
350
6695
  3
Facepattern
350
668C
  3
Flat
350
667E
  3
FlatWithEdges
350
667F
  3
Gouraud
350
6680
  3
GouraudWithEdges
350
6681
  3
Hidden
350
6685
  3
JitterOff
350
6693
  3
Linepattern
350
668B
  3
OverhangOff
350
6694
  3
Realistic
350
6687
  3
Shaded
350
6692
  3
Shaded with edges
350
6691
  3
Shades of Gray
350
668E
  3
Sketchy
350
668F
  3
Thicken
350
668A
  3
Wireframe
350
6684
  3
X-Ray
350
6690
  0
XRECORD
  5
5C76
102
{ACAD_REACTORS
330
C
102
}
330
C
100
AcDbXrecord
280
     1
 90
   990106
  3

 60
     0
 61
     0
 62
     1
 63
     3
 64
     0
 65
     0
 66
     0
 67
     3
 68
     1
 69
     0
 70
     0
 71
     0
 72
     0
 40
0.0
170
     0
340
6068
  0
XRECORD
  5
68C4
102
{ACAD_REACTORS
330
C
102
}
330
C
100
AcDbXrecord
280
     1
 90
        1
330
6698
330
66AE
330
66B0
  0
DICTIONARY
  5
5697
102
{ACAD_REACTORS
330
C
102
}
330
C
100
AcDbDictionary
281
     1
  3
CANNOSCALE
350
686B
  3
CMLEADERSTYLE
350
6868
  3
CTABLESTYLE
350
6867
  3
CVIEWDETAILSTYLE
350
6869
  3
CVIEWSECTIONSTYLE
350
686A
  3
DIMASSOC
350
5698
  3
INDEXCTL
350
686D
  3
LAYEREVAL
350
68BD
  3
LAYERNOTIFY
350
68BE
  3
LIGHTINGUNITS
350
68BC
  3
MSLTSCALE
350
68BB
  3
SORTENTS
350
686C
  0
XRECORD
  5
6847
102
{ACAD_REACTORS
330
6846
102
}
330
6846
100
AcDbXrecord
280
     1
290
     1
  0
XRECORD
  5
6849
102
{ACAD_REACTORS
330
6848
102
}
330
6848
100
AcDbXrecord
280
     1
290
     1
  0
XRECORD
  5
684B
102
{ACAD_REACTORS
330
684A
102
}
330
684A
100
AcDbXrecord
280
     1
290
     1
  0
XRECORD
  5
684D
102
{ACAD_REACTORS
330
684C
102
}
330
684C
100
AcDbXrecord
280
     1
290
     1
  0
XRECORD
  5
684F
102
{ACAD_REACTORS
330
684E
102
}
330
684E
100
AcDbXrecord
280
     1
290
     1
  0
XRECORD
  5
6851
102
{ACAD_REACTORS
330
6850
102
}
330
6850
100
AcDbXrecord
280
     1
290
     1
  0
XRECORD
  5
6853
102
{ACAD_REACTORS
330
6852
102
}
330
6852
100
AcDbXrecord
280
     1
290
     1
  0
XRECORD
  5
6855
102
{ACAD_REACTORS
330
6854
102
}
330
6854
100
AcDbXrecord
280
     1
290
     1
  0
XRECORD
  5
6857
102
{ACAD_REACTORS
330
6856
102
}
330
6856
100
AcDbXrecord
280
     1
290
     1
  0
XRECORD
  5
6859
102
{ACAD_REACTORS
330
6858
102
}
330
6858
100
AcDbXrecord
280
     1
290
     1
  0
XRECORD
  5
685B
102
{ACAD_REACTORS
330
685A
102
}
330
685A
100
AcDbXrecord
280
     1
290
     1
  0
XRECORD
  5
685D
102
{ACAD_REACTORS
330
685C
102
}
330
685C
100
AcDbXrecord
280
     1
290
     1
  0
XRECORD
  5
664E
102
{ACAD_REACTORS
330
178
102
}
330
178
100
AcDbXrecord
280
     1
340
1E
  0
XRECORD
  5
664D
102
{ACAD_REACTORS
330
17A
102
}
330
17A
100
AcDbXrecord
280
     1
340
1A
  0
ACDBDETAILVIEWSTYLE
  5
66B0
102
{ACAD_XDICTIONARY
360
68C2
102
}
102
{ACAD_REACTORS
330
66AF
102
}
330
66AF
100
AcDbModelDocViewStyle
 70
     0
  3
Imperial24
290
     0
100
AcDbDetailViewStyle
 70
     0
 71
     0
 90
        3
 71
     1
340
11
 62
   256
 40
0.24
340
0
 62
   256
 40
0.24
300

 40
0.36
280
     3
 71
     2
340
15
 90
       25
 62
   256
 71
     3
340
11
 62
   256
 40
0.24
 90
        1
 40
0.75
 90
        1
300
%<\AcVar ViewType \f "%tc1">% %<\AcVar ViewDetailId>%\PSCALE %<\AcVar ViewScale \f "%sn">%
 71
     4
340
15
 90
       25
 62
   256
340
15
 90
       25
 62
   256
280
     0
  0
LAYOUT
  5
6656
102
{ACAD_REACTORS
330
19
102
}
330
19
100
AcDbPlotSettings
  1

  2
none_device
  4
Letter_(8.50_x_11.00_Inches)
  6

 40
6.349999904632567
 41
6.349999904632567
 42
6.350006103515625
 43
6.350006103515625
 44
215.8999938964844
 45
279.3999938964844
 46
0.0
 47
0.0
 48
0.0
 49
0.0
140
0.0
141
0.0
142
1.0
143
73.95098118030945
 70
 11952
 72
     0
 73
     1
 74
     0
  7
monochrome.ctb
 75
     0
147
0.0135224710211995
 76
     0
 77
     2
 78
   300
148
4359.456286450952
149
1030.15419034517
100
AcDbLayout
  1
Model
 70
     1
 71
     0
 10
0.0
 20
0.0
 11
12.0
 21
9.0
 12
0.0
 22
0.0
 32
0.0
 14
0.0
 24
0.0
 34
0.0
 15
0.0
 25
0.0
 35
0.0
146
0.0
 13
0.0
 23
0.0
 33
0.0
 16
1.0
 26
0.0
 36
0.0
 17
0.0
 27
1.0
 37
0.0
 76
     0
330
1E
331
665C
1001
ACAD_PSEXT
1000
なし
1000
なし
1000
適切ではありません
1000
新しいプロッタ環境設定名を選択しない限り、レイアウトは印刷されません。
1070
     0
  0
LAYOUT
  5
6657
102
{ACAD_REACTORS
330
19
102
}
330
19
100
AcDbPlotSettings
  1

  2
Canon LBP3800 LIPSLX
  4

  6

 40
0.0
 41
0.0
 42
0.0
 43
0.0
 44
0.0
 45
0.0
 46
0.0
 47
0.0
 48
0.0
 49
0.0
140
0.0
141
0.0
142
1.0
143
1.0
 70
   688
 72
     0
 73
     0
 74
     5
  7
monochrome.ctb
 75
    16
147
1.0
 76
     0
 77
     2
 78
   300
148
0.0
149
0.0
100
AcDbLayout
  1
ﾚｲｱｳﾄ1
 70
     1
 71
     1
 10
-5.873749
 20
-5.87375
 11
204.099579
 21
291.1369009999999
 12
0.0
 22
0.0
 32
0.0
 14
4.273573
 24
5.205245999999998
 34
0.0
 15
194.610095
 25
283.0697009999996
 35
0.0
146
0.0
 13
0.0
 23
0.0
 33
0.0
 16
1.0
 26
0.0
 36
0.0
 17
0.0
 27
1.0
 37
0.0
 76
     0
330
1A
  0
MATERIAL
  5
666D
102
{ACAD_XDICTIONARY
360
666E
102
}
102
{ACAD_REACTORS
330
6664
102
}
330
6664
100
AcDbMaterial
  1
ByBlock
 72
     0
 43
0.0208333333333333
 43
0.0
 43
0.0
 43
0.0
 43
0.0
 43
0.0208333333333333
 43
0.0
 43
0.0
 43
0.0
 43
0.0
 43
1.0
 43
0.0
 43
0.0
 43
0.0
 43
0.0
 43
1.0
 77
     0
 47
0.0208333333333333
 47
0.0
 47
0.0
 47
0.0
 47
0.0
 47
0.0208333333333333
 47
0.0
 47
0.0
 47
0.0
 47
0.0
 47
1.0
 47
0.0
 47
0.0
 47
0.0
 47
0.0
 47
1.0
171
     0
 49
0.0208333333333333
 49
0.0
 49
0.0
 49
0.0
 49
0.0
 49
0.0208333333333333
 49
0.0
 49
0.0
 49
0.0
 49
0.0
 49
1.0
 49
0.0
 49
0.0
 49
0.0
 49
0.0
 49
1.0
175
     0
142
0.0208333333333333
142
0.0
142
0.0
142
0.0
142
0.0
142
0.0208333333333333
142
0.0
142
0.0
142
0.0
142
0.0
142
1.0
142
0.0
142
0.0
142
0.0
142
0.0
142
1.0
179
     0
144
0.0208333333333333
144
0.0
144
0.0
144
0.0
144
0.0
144
0.0208333333333333
144
0.0
144
0.0
144
0.0
144
0.0
144
1.0
144
0.0
144
0.0
144
0.0
144
0.0
144
1.0
147
0.0208333333333333
147
0.0
147
0.0
147
0.0
147
0.0
147
0.0208333333333333
147
0.0
147
0.0
147
0.0
147
0.0
147
1.0
147
0.0
147
0.0
147
0.0
147
0.0
147
1.0
  0
MATERIAL
  5
6665
102
{ACAD_XDICTIONARY
360
6666
102
}
102
{ACAD_REACTORS
330
6664
102
}
330
6664
100
AcDbMaterial
  1
ByLayer
 72
     0
 43
0.0208333333333333
 43
0.0
 43
0.0
 43
0.0
 43
0.0
 43
0.0208333333333333
 43
0.0
 43
0.0
 43
0.0
 43
0.0
 43
1.0
 43
0.0
 43
0.0
 43
0.0
 43
0.0
 43
1.0
 77
     0
 47
0.0208333333333333
 47
0.0
 47
0.0
 47
0.0
 47
0.0
 47
0.0208333333333333
 47
0.0
 47
0.0
 47
0.0
 47
0.0
 47
1.0
 47
0.0
 47
0.0
 47
0.0
 47
0.0
 47
1.0
171
     0
 49
0.0208333333333333
 49
0.0
 49
0.0
 49
0.0
 49
0.0
 49
0.0208333333333333
 49
0.0
 49
0.0
 49
0.0
 49
0.0
 49
1.0
 49
0.0
 49
0.0
 49
0.0
 49
0.0
 49
1.0
175
     0
142
0.0208333333333333
142
0.0
142
0.0
142
0.0
142
0.0
142
0.0208333333333333
142
0.0
142
0.0
142
0.0
142
0.0
142
1.0
142
0.0
142
0.0
142
0.0
142
0.0
142
1.0
179
     0
144
0.0208333333333333
144
0.0
144
0.0
144
0.0
144
0.0
144
0.0208333333333333
144
0.0
144
0.0
144
0.0
144
0.0
144
1.0
144
0.0
144
0.0
144
0.0
144
0.0
144
1.0
147
0.0208333333333333
147
0.0
147
0.0
147
0.0
147
0.0
147
0.0208333333333333
147
0.0
147
0.0
147
0.0
147
0.0
147
1.0
147
0.0
147
0.0
147
0.0
147
0.0
147
1.0
  0
MATERIAL
  5
6675
102
{ACAD_XDICTIONARY
360
6676
102
}
102
{ACAD_REACTORS
330
6664
102
}
330
6664
100
AcDbMaterial
  1
Global
 72
     0
 43
0.0208333333333333
 43
0.0
 43
0.0
 43
0.0
 43
0.0
 43
0.0208333333333333
 43
0.0
 43
0.0
 43
0.0
 43
0.0
 43
1.0
 43
0.0
 43
0.0
 43
0.0
 43
0.0
 43
1.0
 77
     0
 47
0.0208333333333333
 47
0.0
 47
0.0
 47
0.0
 47
0.0
 47
0.0208333333333333
 47
0.0
 47
0.0
 47
0.0
 47
0.0
 47
1.0
 47
0.0
 47
0.0
 47
0.0
 47
0.0
 47
1.0
171
     0
 49
0.0208333333333333
 49
0.0
 49
0.0
 49
0.0
 49
0.0
 49
0.0208333333333333
 49
0.0
 49
0.0
 49
0.0
 49
0.0
 49
1.0
 49
0.0
 49
0.0
 49
0.0
 49
0.0
 49
1.0
175
     0
142
0.0208333333333333
142
0.0
142
0.0
142
0.0
142
0.0
142
0.0208333333333333
142
0.0
142
0.0
142
0.0
142
0.0
142
1.0
142
0.0
142
0.0
142
0.0
142
0.0
142
1.0
179
     0
144
0.0208333333333333
144
0.0
144
0.0
144
0.0
144
0.0
144
0.0208333333333333
144
0.0
144
0.0
144
0.0
144
0.0
144
1.0
144
0.0
144
0.0
144
0.0
144
0.0
144
1.0
147
0.0208333333333333
147
0.0
147
0.0
147
0.0
147
0.0
147
0.0208333333333333
147
0.0
147
0.0
147
0.0
147
0.0
147
1.0
147
0.0
147
0.0
147
0.0
147
0.0
147
1.0
  0
MLEADERSTYLE
  5
66AC
102
{ACAD_REACTORS
330
66AB
102
}
330
66AB
100
AcDbMLeaderStyle
179
     2
170
     2
171
     1
172
     0
 90
        2
 40
0.0
 41
0.0
173
     1
 91
-1056964608
340
13
 92
       -2
290
     1
 42
0.09
291
     1
 43
0.36
  3
Standard
 44
0.18
300

342
11
174
     1
178
     6
175
     1
176
     0
 93
-1056964608
 45
0.18
292
     0
297
     0
 46
0.18
 94
-1056964608
 47
1.0
 49
1.0
140
1.0
293
     1
141
0.0
294
     1
177
     0
142
1.0
295
     0
296
     0
143
0.125
271
     0
272
     9
273
     9
298
     0
1001
ACAD_MLEADERVER
1070
     2
  0
MLINESTYLE
  5
17
102
{ACAD_REACTORS
330
16
102
}
330
16
100
AcDbMlineStyle
  2
STANDARD
 70
     0
  3

 62
   256
 51
90.0
 52
90.0
 71
     2
 49
0.5
 62
   256
  6
BYLAYER
 49
-0.5
 62
   256
  6
BYLAYER
  0
ACDBPLACEHOLDER
  5
F
102
{ACAD_REACTORS
330
E
102
}
330
E
  0
SCALE
  5
669A
102
{ACAD_REACTORS
330
6699
102
}
330
6699
100
AcDbScale
 70
     0
300
1:1
140
1.0
141
1.0
290
     1
  0
SCALE
  5
669B
102
{ACAD_REACTORS
330
6699
102
}
330
6699
100
AcDbScale
 70
     0
300
1/128" = 1'-0"
140
0.0078125
141
12.0
290
     0
  0
SCALE
  5
669C
102
{ACAD_REACTORS
330
6699
102
}
330
6699
100
AcDbScale
 70
     0
300
1/64" = 1'-0"
140
0.015625
141
12.0
290
     0
  0
SCALE
  5
669D
102
{ACAD_REACTORS
330
6699
102
}
330
6699
100
AcDbScale
 70
     0
300
1/32" = 1'-0"
140
0.03125
141
12.0
290
     0
  0
SCALE
  5
669E
102
{ACAD_REACTORS
330
6699
102
}
330
6699
100
AcDbScale
 70
     0
300
1/16" = 1'-0"
140
0.0625
141
12.0
290
     0
  0
SCALE
  5
669F
102
{ACAD_REACTORS
330
6699
102
}
330
6699
100
AcDbScale
 70
     0
300
3/32" = 1'-0"
140
0.09375
141
12.0
290
     0
  0
SCALE
  5
66A0
102
{ACAD_REACTORS
330
6699
102
}
330
6699
100
AcDbScale
 70
     0
300
1/8" = 1'-0"
140
0.125
141
12.0
290
     0
  0
SCALE
  5
66A1
102
{ACAD_REACTORS
330
6699
102
}
330
6699
100
AcDbScale
 70
     0
300
3/16" = 1'-0"
140
0.1875
141
12.0
290
     0
  0
SCALE
  5
66A2
102
{ACAD_REACTORS
330
6699
102
}
330
6699
100
AcDbScale
 70
     0
300
1/4" = 1'-0"
140
0.25
141
12.0
290
     0
  0
SCALE
  5
66A3
102
{ACAD_REACTORS
330
6699
102
}
330
6699
100
AcDbScale
 70
     0
300
3/8" = 1'-0"
140
0.375
141
12.0
290
     0
  0
SCALE
  5
66A4
102
{ACAD_REACTORS
330
6699
102
}
330
6699
100
AcDbScale
 70
     0
300
1/2" = 1'-0"
140
0.5
141
12.0
290
     0
  0
SCALE
  5
66A5
102
{ACAD_REACTORS
330
6699
102
}
330
6699
100
AcDbScale
 70
     0
300
3/4" = 1'-0"
140
0.75
141
12.0
290
     0
  0
SCALE
  5
66A6
102
{ACAD_REACTORS
330
6699
102
}
330
6699
100
AcDbScale
 70
     0
300
1" = 1'-0"
140
1.0
141
12.0
290
     0
  0
SCALE
  5
66A7
102
{ACAD_REACTORS
330
6699
102
}
330
6699
100
AcDbScale
 70
     0
300
1-1/2" = 1'-0"
140
1.5
141
12.0
290
     0
  0
SCALE
  5
66A8
102
{ACAD_REACTORS
330
6699
102
}
330
6699
100
AcDbScale
 70
     0
300
3" = 1'-0"
140
3.0
141
12.0
290
     0
  0
SCALE
  5
66A9
102
{ACAD_REACTORS
330
6699
102
}
330
6699
100
AcDbScale
 70
     0
300
6" = 1'-0"
140
6.0
141
12.0
290
     0
  0
SCALE
  5
66AA
102
{ACAD_REACTORS
330
6699
102
}
330
6699
100
AcDbScale
 70
     0
300
1'-0" = 1'-0"
140
12.0
141
12.0
290
     0
  0
ACDBSECTIONVIEWSTYLE
  5
66AE
102
{ACAD_XDICTIONARY
360
68C0
102
}
102
{ACAD_REACTORS
330
66AD
102
}
330
66AD
100
AcDbModelDocViewStyle
 70
     0
  3
Imperial24
290
     0
100
AcDbSectionViewStyle
 70
     0
 71
     0
 90
       78
 71
     1
340
11
 62
   256
 40
0.24
340
0
340
0
 62
   256
 40
0.24
300
I, O, Q, S, X, Z
 40
0.48
 90
        3
 40
0.18
 90
        1
 71
     2
340
15
 90
       25
 62
   256
340
15
 90
       50
 62
   256
 40
0.24
 40
0.0
 40
0.24
 71
     3
340
11
 62
   256
 40
0.24
 90
        1
 40
0.75
 90
        1
300
%<\AcVar ViewType \f "%tc1">% %<\AcVar ViewSectionStartId>%-%<\AcVar ViewSectionEndId>%\PSCALE %<\AcVar ViewScale \f "%sn">%
 71
     4
 62
   256
 62
   257
300
ANSI31
 40
1.0
 90
        0
290
     0
290
     0
 90
        6
 40
0.0
 40
1.570796326794896
 40
0.2617993877991494
 40
1.308996938995747
 40
-0.2617993877991494
 40
1.832595714594045
  0
TABLESTYLE
  5
6698
102
{ACAD_XDICTIONARY
360
686F
102
}
102
{ACAD_REACTORS
330
6697
102
}
330
6697
100
AcDbTableStyle
280
     0
  3
Standard
 70
     0
 71
     0
 40
0.06
 41
0.06
280
     0
281
     0
  7
STANDARD
140
0.18
170
     2
 62
     0
 63
     7
283
     0
 90
      512
 91
        0
  1

274
    -2
284
     1
 64
     0
275
    -2
285
     1
 65
     0
276
    -2
286
     1
 66
     0
277
    -2
287
     1
 67
     0
278
    -2
288
     1
 68
     0
279
    -2
289
     1
 69
     0
  7
STANDARD
140
0.25
170
     5
 62
     0
 63
     7
283
     0
 90
      512
 91
        0
  1

274
    -2
284
     1
 64
     0
275
    -2
285
     1
 65
     0
276
    -2
286
     1
 66
     0
277
    -2
287
     1
 67
     0
278
    -2
288
     1
 68
     0
279
    -2
289
     1
 69
     0
  7
STANDARD
140
0.18
170
     5
 62
     0
 63
     7
283
     0
 90
      512
 91
        0
  1

274
    -2
284
     1
 64
     0
275
    -2
285
     1
 65
     0
276
    -2
286
     1
 66
     0
277
    -2
287
     1
 67
     0
278
    -2
288
     1
 68
     0
279
    -2
289
     1
 69
     0
  0
VISUALSTYLE
  5
6683
102
{ACAD_REACTORS
330
667D
102
}
330
667D
100
AcDbVisualStyle
  2

 70
     4
177
     3
291
     0
 70
    58
 90
        0
176
     1
 90
        2
176
     1
 90
        0
176
     1
 90
        0
176
     1
 40
0.6
176
     1
 40
30.0
176
     1
 62
     7
176
     1
 90
        1
176
     1
 90
        4
176
     1
 62
     7
176
     1
 62
   257
176
     1
 90
        1
176
     1
 90
        1
176
     1
 40
1.0
176
     1
 90
        0
176
     1
 62
   257
176
     1
 40
1.0
176
     1
 90
        1
176
     1
 90
        6
176
     1
 90
        2
176
     1
 62
     7
176
     1
 90
        5
176
     1
 90
        0
176
     1
 90
        0
176
     1
290
     0
176
     1
 90
        1
176
     1
 40
0.0
176
     1
 90
        0
176
     1
290
     1
176
     1
290
     1
176
     1
290
     0
176
     1
290
     0
176
     1
290
     0
176
     1
290
     0
176
     1
290
     0
176
     1
290
     0
176
     1
290
     0
176
     1
 90
       50
176
     1
 40
0.0
176
     1
 40
1.0
176
     1
 90
        0
176
     1
 62
    18
420
        0
176
     1
 90
       50
176
     1
 90
        3
176
     1
 62
     5
420
      255
176
     1
290
     0
176
     1
 90
       50
176
     1
 90
       50
176
     1
 90
       50
176
     1
290
     0
176
     1
 90
       50
176
     1
 62
   256
176
     0
 40
1.0
176
     0
 90
        2
176
     1
  1
strokes_ogs.tif
176
     1
290
     0
176
     1
 40
1.0
176
     1
 40
1.0
176
     1
1001
ACAD
1000
AcDbSavedByObjectVersion
1070
     0
  0
VISUALSTYLE
  5
6682
102
{ACAD_REACTORS
330
667D
102
}
330
667D
100
AcDbVisualStyle
  2

 70
     7
177
     3
291
     1
 70
    58
 90
        1
176
     1
 90
        0
176
     1
 90
        1
176
     1
 90
        0
176
     1
 40
0.6
176
     1
 40
30.0
176
     1
 62
     7
176
     1
 90
        0
176
     1
 90
        4
176
     1
 62
     7
176
     1
 62
   257
176
     1
 90
        1
176
     1
 90
        1
176
     1
 40
1.0
176
     1
 90
        8
176
     1
 62
     7
176
     1
 40
1.0
176
     1
 90
        1
176
     1
 90
        6
176
     1
 90
        2
176
     1
 62
     7
176
     1
 90
        5
176
     1
 90
        0
176
     1
 90
        0
176
     1
290
     0
176
     1
 90
        1
176
     1
 40
0.0
176
     1
 90
        0
176
     1
290
     0
176
     1
290
     1
176
     1
290
     1
176
     1
290
     0
176
     1
290
     0
176
     1
290
     0
176
     1
290
     0
176
     1
290
     0
176
     1
290
     0
176
     1
 90
       50
176
     1
 40
0.0
176
     1
 40
1.0
176
     1
 90
        0
176
     1
 62
    18
420
        0
176
     1
 90
       50
176
     1
 90
        3
176
     1
 62
     5
420
      255
176
     1
290
     0
176
     1
 90
       50
176
     1
 90
       50
176
     1
 90
       50
176
     1
290
     0
176
     1
 90
       50
176
     1
 62
   256
176
     0
 40
1.0
176
     0
 90
        2
176
     1
  1
strokes_ogs.tif
176
     1
290
     0
176
     1
 40
1.0
176
     1
 40
1.0
176
     1
1001
ACAD
1000
AcDbSavedByObjectVersion
1070
     0
  0
VISUALSTYLE
  5
6689
102
{ACAD_REACTORS
330
667D
102
}
330
667D
100
AcDbVisualStyle
  2

 70
    12
177
     3
291
     1
 70
    58
 90
        2
176
     1
 90
        2
176
     1
 90
        0
176
     1
 90
        0
176
     1
 40
0.6
176
     1
 40
30.0
176
     1
 62
     7
176
     1
 90
        1
176
     1
 90
        4
176
     1
 62
     7
176
     1
 62
   257
176
     1
 90
        1
176
     1
 90
        1
176
     1
 40
1.0
176
     1
 90
        8
176
     1
 62
     7
176
     1
 40
1.0
176
     1
 90
        1
176
     1
 90
        6
176
     1
 90
        2
176
     1
 62
     7
176
     1
 90
        5
176
     1
 90
        0
176
     1
 90
        0
176
     1
290
     0
176
     1
 90
        1
176
     1
 40
50.0
176
     1
 90
        0
176
     1
290
     0
176
     1
290
     1
176
     1
290
     1
176
     1
290
     0
176
     1
290
     0
176
     1
290
     0
176
     1
290
     0
176
     1
290
     0
176
     1
290
     0
176
     1
 90
       50
176
     1
 40
0.0
176
     1
 40
1.0
176
     1
 90
        0
176
     1
 62
    18
420
        0
176
     1
 90
       50
176
     1
 90
        3
176
     1
 62
     5
420
      255
176
     1
290
     0
176
     1
 90
       50
176
     1
 90
       50
176
     1
 90
       50
176
     1
290
     0
176
     1
 90
       50
176
     1
 62
   256
176
     0
 40
1.0
176
     0
 90
        2
176
     1
  1
strokes_ogs.tif
176
     1
290
     0
176
     1
 40
1.0
176
     1
 40
1.0
176
     1
1001
ACAD
1000
AcDbSavedByObjectVersion
1070
     0
  0
VISUALSTYLE
  5
668D
102
{ACAD_REACTORS
330
667D
102
}
330
667D
100
AcDbVisualStyle
  2

 70
    16
177
     3
291
     1
 70
    58
 90
        2
176
     1
 90
        2
176
     1
 90
        3
176
     1
 90
        0
176
     1
 40
0.6
176
     1
 40
30.0
176
     1
 62
     8
176
     1
 90
        1
176
     1
 90
        4
176
     1
 62
     7
176
     1
 62
   257
176
     1
 90
        1
176
     1
 90
        1
176
     1
 40
1.0
176
     1
 90
        8
176
     1
 62
     8
176
     1
 40
1.0
176
     1
 90
        1
176
     1
 90
        6
176
     1
 90
        2
176
     1
 62
     7
176
     1
 90
        5
176
     1
 90
        0
176
     1
 90
        0
176
     1
290
     0
176
     1
 90
        1
176
     1
 40
0.0
176
     1
 90
        0
176
     1
290
     0
176
     1
290
     1
176
     1
290
     1
176
     1
290
     0
176
     1
290
     0
176
     1
290
     0
176
     1
290
     0
176
     1
290
     0
176
     1
290
     0
176
     1
 90
       50
176
     1
 40
0.0
176
     1
 40
1.0
176
     1
 90
        0
176
     1
 62
    18
420
        0
176
     1
 90
       50
176
     1
 90
        3
176
     1
 62
     5
420
      255
176
     1
290
     0
176
     1
 90
       50
176
     1
 90
       50
176
     1
 90
       50
176
     1
290
     0
176
     1
 90
       50
176
     1
 62
   256
176
     0
 40
1.0
176
     0
 90
        2
176
     1
  1
strokes_ogs.tif
176
     1
290
     0
176
     1
 40
1.0
176
     1
 40
1.0
176
     1
1001
ACAD
1000
AcDbSavedByObjectVersion
1070
     0
  0
VISUALSTYLE
  5
6686
102
{ACAD_REACTORS
330
667D
102
}
330
667D
100
AcDbVisualStyle
  2

 70
     9
177
     3
291
     0
 70
    58
 90
        3
176
     1
 90
        2
176
     1
 90
        0
176
     1
 90
        0
176
     1
 40
0.6
176
     1
 40
30.0
176
     1
 62
     7
176
     1
 90
        2
176
     1
 90
        2
176
     1
 62
     7
176
     1
 62
   257
176
     1
 90
        1
176
     1
 90
        1
176
     1
 40
179.0
176
     1
 90
        8
176
     1
 62
     7
176
     1
 40
1.0
176
     1
 90
        1
176
     1
 90
        6
176
     1
 90
        2
176
     1
 62
     7
176
     1
 90
        3
176
     1
 90
        0
176
     1
 90
        0
176
     1
290
     0
176
     1
 90
        1
176
     1
 40
0.0
176
     1
 90
        0
176
     1
290
     0
176
     1
290
     1
176
     1
290
     1
176
     1
290
     0
176
     1
290
     0
176
     1
290
     0
176
     1
290
     0
176
     1
290
     0
176
     1
290
     0
176
     1
 90
       50
176
     1
 40
0.0
176
     1
 40
1.0
176
     1
 90
        0
176
     1
 62
    18
420
        0
176
     1
 90
       50
176
     1
 90
        3
176
     1
 62
     5
420
      255
176
     1
290
     0
176
     1
 90
       50
176
     1
 90
       50
176
     1
 90
       50
176
     1
290
     0
176
     1
 90
       50
176
     1
 62
   256
176
     0
 40
1.0
176
     0
 90
        2
176
     1
  1
strokes_ogs.tif
176
     1
290
     0
176
     1
 40
1.0
176
     1
 40
1.0
176
     1
1001
ACAD
1000
AcDbSavedByObjectVersion
1070
     0
  0
VISUALSTYLE
  5
6688
102
{ACAD_REACTORS
330
667D
102
}
330
667D
100
AcDbVisualStyle
  2

 70
    11
177
     3
291
     1
 70
    58
 90
        2
176
     1
 90
        2
176
     1
 90
        0
176
     1
 90
        0
176
     1
 40
0.6
176
     1
 40
30.0
176
     1
 62
     7
176
     1
 90
        1
176
     1
 90
        4
176
     1
 62
     7
176
     1
 62
   257
176
     1
 90
        1
176
     1
 90
        1
176
     1
 40
1.0
176
     1
 90
        8
176
     1
 62
     7
176
     1
 40
1.0
176
     1
 90
        1
176
     1
 90
        6
176
     1
 90
        2
176
     1
 62
     7
176
     1
 90
        5
176
     1
 90
        0
176
     1
 90
        0
176
     1
290
     0
176
     1
 90
        1
176
     1
 40
-50.0
176
     1
 90
        0
176
     1
290
     0
176
     1
290
     1
176
     1
290
     1
176
     1
290
     0
176
     1
290
     0
176
     1
290
     0
176
     1
290
     0
176
     1
290
     0
176
     1
290
     0
176
     1
 90
       50
176
     1
 40
0.0
176
     1
 40
1.0
176
     1
 90
        0
176
     1
 62
    18
420
        0
176
     1
 90
       50
176
     1
 90
        3
176
     1
 62
     5
420
      255
176
     1
290
     0
176
     1
 90
       50
176
     1
 90
       50
176
     1
 90
       50
176
     1
290
     0
176
     1
 90
       50
176
     1
 62
   256
176
     0
 40
1.0
176
     0
 90
        2
176
     1
  1
strokes_ogs.tif
176
     1
290
     0
176
     1
 40
1.0
176
     1
 40
1.0
176
     1
1001
ACAD
1000
AcDbSavedByObjectVersion
1070
     0
  0
VISUALSTYLE
  5
6695
102
{ACAD_REACTORS
330
667D
102
}
330
667D
100
AcDbVisualStyle
  2

 70
    22
177
     3
291
     1
 70
    58
 90
        2
176
     0
 90
        2
176
     0
 90
        0
176
     0
 90
        0
176
     0
 40
0.6
176
     0
 40
30.0
176
     0
 62
     7
176
     0
 90
        1
176
     0
 90
        4
176
     0
 62
     7
176
     0
 62
   257
176
     0
 90
        1
176
     0
 90
        1
176
     0
 40
1.0
176
     0
 90
        8
176
     2
 62
     7
176
     0
 40
1.0
176
     0
 90
        1
176
     0
 90
        6
176
     0
 90
        2
176
     0
 62
     7
176
     0
 90
        5
176
     0
 90
        0
176
     0
 90
        0
176
     0
290
     0
176
     0
 90
        1
176
     0
 40
0.0
176
     0
 90
        0
176
     0
290
     0
176
     1
290
     1
176
     1
290
     1
176
     1
290
     0
176
     1
290
     0
176
     1
290
     0
176
     1
290
     0
176
     1
290
     0
176
     1
290
     0
176
     1
 90
       50
176
     0
 40
0.0
176
     0
 40
1.0
176
     0
 90
        0
176
     0
 62
    18
420
        0
176
     0
 90
       50
176
     0
 90
        3
176
     0
 62
     5
420
      255
176
     0
290
     0
176
     1
 90
       50
176
     0
 90
       50
176
     0
 90
       50
176
     0
290
     0
176
     1
 90
       50
176
     0
 62
   256
176
     0
 40
1.0
176
     0
 90
        2
176
     0
  1
strokes_ogs.tif
176
     0
290
     0
176
     1
 40
1.0
176
     0
 40
1.0
176
     0
1001
ACAD
1000
AcDbSavedByObjectVersion
1070
     0
  0
VISUALSTYLE
  5
668C
102
{ACAD_REACTORS
330
667D
102
}
330
667D
100
AcDbVisualStyle
  2

 70
    15
177
     3
291
     1
 70
    58
 90
        2
176
     1
 90
        2
176
     1
 90
        0
176
     1
 90
        0
176
     1
 40
0.6
176
     1
 40
30.0
176
     1
 62
     7
176
     1
 90
        1
176
     1
 90
        4
176
     1
 62
     7
176
     1
 62
   257
176
     1
 90
        1
176
     1
 90
        1
176
     1
 40
1.0
176
     1
 90
        8
176
     1
 62
     7
176
     1
 40
1.0
176
     1
 90
        1
176
     1
 90
        6
176
     1
 90
        2
176
     1
 62
     7
176
     1
 90
        5
176
     1
 90
        0
176
     1
 90
        0
176
     1
290
     0
176
     1
 90
        1
176
     1
 40
0.0
176
     1
 90
        0
176
     1
290
     0
176
     1
290
     1
176
     1
290
     1
176
     1
290
     0
176
     1
290
     0
176
     1
290
     0
176
     1
290
     0
176
     1
290
     0
176
     1
290
     0
176
     1
 90
       50
176
     1
 40
0.0
176
     1
 40
1.0
176
     1
 90
        0
176
     1
 62
    18
420
        0
176
     1
 90
       50
176
     1
 90
        3
176
     1
 62
     5
420
      255
176
     1
290
     0
176
     1
 90
       50
176
     1
 90
       50
176
     1
 90
       50
176
     1
290
     0
176
     1
 90
       50
176
     1
 62
   256
176
     0
 40
1.0
176
     0
 90
        2
176
     1
  1
strokes_ogs.tif
176
     1
290
     0
176
     1
 40
1.0
176
     1
 40
1.0
176
     1
1001
ACAD
1000
AcDbSavedByObjectVersion
1070
     0
  0
VISUALSTYLE
  5
667E
102
{ACAD_REACTORS
330
667D
102
}
330
667D
100
AcDbVisualStyle
  2

 70
     0
177
     3
291
     1
 70
    58
 90
        2
176
     1
 90
        1
176
     1
 90
        1
176
     1
 90
        2
176
     1
 40
0.6
176
     1
 40
30.0
176
     1
 62
     7
176
     1
 90
        0
176
     1
 90
        0
176
     1
 62
     7
176
     1
 62
   257
176
     1
 90
        1
176
     1
 90
        1
176
     1
 40
1.0
176
     1
 90
        8
176
     1
 62
     7
176
     1
 40
1.0
176
     1
 90
        1
176
     1
 90
        6
176
     1
 90
        2
176
     1
 62
     7
176
     1
 90
        5
176
     1
 90
        0
176
     1
 90
        0
176
     1
290
     0
176
     1
 90
       13
176
     1
 40
0.0
176
     1
 90
        0
176
     1
290
     0
176
     1
290
     1
176
     1
290
     1
176
     1
290
     0
176
     1
290
     0
176
     1
290
     0
176
     1
290
     0
176
     1
290
     0
176
     1
290
     0
176
     1
 90
       50
176
     1
 40
0.0
176
     1
 40
1.0
176
     1
 90
        0
176
     1
 62
    18
420
        0
176
     1
 90
       50
176
     1
 90
        3
176
     1
 62
     5
420
      255
176
     1
290
     0
176
     1
 90
       50
176
     1
 90
       50
176
     1
 90
       50
176
     1
290
     0
176
     1
 90
       50
176
     1
 62
   256
176
     0
 40
1.0
176
     0
 90
        2
176
     1
  1
strokes_ogs.tif
176
     1
290
     0
176
     1
 40
1.0
176
     1
 40
1.0
176
     1
1001
ACAD
1000
AcDbSavedByObjectVersion
1070
     0
  0
VISUALSTYLE
  5
667F
102
{ACAD_REACTORS
330
667D
102
}
330
667D
100
AcDbVisualStyle
  2

 70
     1
177
     3
291
     1
 70
    58
 90
        2
176
     1
 90
        1
176
     1
 90
        1
176
     1
 90
        2
176
     1
 40
0.6
176
     1
 40
30.0
176
     1
 62
     7
176
     1
 90
        1
176
     1
 90
        0
176
     1
 62
     7
176
     1
 62
   257
176
     1
 90
        1
176
     1
 90
        1
176
     1
 40
1.0
176
     1
 90
        0
176
     1
 62
   257
176
     1
 40
1.0
176
     1
 90
        1
176
     1
 90
        6
176
     1
 90
        2
176
     1
 62
     7
176
     1
 90
        5
176
     1
 90
        0
176
     1
 90
        0
176
     1
290
     0
176
     1
 90
       13
176
     1
 40
0.0
176
     1
 90
        0
176
     1
290
     0
176
     1
290
     1
176
     1
290
     1
176
     1
290
     0
176
     1
290
     0
176
     1
290
     0
176
     1
290
     0
176
     1
290
     0
176
     1
290
     0
176
     1
 90
       50
176
     1
 40
0.0
176
     1
 40
1.0
176
     1
 90
        0
176
     1
 62
    18
420
        0
176
     1
 90
       50
176
     1
 90
        3
176
     1
 62
     5
420
      255
176
     1
290
     0
176
     1
 90
       50
176
     1
 90
       50
176
     1
 90
       50
176
     1
290
     0
176
     1
 90
       50
176
     1
 62
   256
176
     0
 40
1.0
176
     0
 90
        2
176
     1
  1
strokes_ogs.tif
176
     1
290
     0
176
     1
 40
1.0
176
     1
 40
1.0
176
     1
1001
ACAD
1000
AcDbSavedByObjectVersion
1070
     0
  0
VISUALSTYLE
  5
6680
102
{ACAD_REACTORS
330
667D
102
}
330
667D
100
AcDbVisualStyle
  2

 70
     2
177
     3
291
     1
 70
    58
 90
        2
176
     1
 90
        2
176
     1
 90
        1
176
     1
 90
        2
176
     1
 40
0.6
176
     1
 40
30.0
176
     1
 62
     7
176
     1
 90
        0
176
     1
 90
        0
176
     1
 62
     7
176
     1
 62
   257
176
     1
 90
        1
176
     1
 90
        1
176
     1
 40
1.0
176
     1
 90
        0
176
     1
 62
     7
176
     1
 40
1.0
176
     1
 90
        1
176
     1
 90
        6
176
     1
 90
        2
176
     1
 62
     7
176
     1
 90
        5
176
     1
 90
        0
176
     1
 90
        0
176
     1
290
     0
176
     1
 90
       13
176
     1
 40
0.0
176
     1
 90
        0
176
     1
290
     0
176
     1
290
     1
176
     1
290
     1
176
     1
290
     0
176
     1
290
     0
176
     1
290
     0
176
     1
290
     0
176
     1
290
     0
176
     1
290
     0
176
     1
 90
       50
176
     1
 40
0.0
176
     1
 40
1.0
176
     1
 90
        0
176
     1
 62
    18
420
        0
176
     1
 90
       50
176
     1
 90
        3
176
     1
 62
     5
420
      255
176
     1
290
     0
176
     1
 90
       50
176
     1
 90
       50
176
     1
 90
       50
176
     1
290
     0
176
     1
 90
       50
176
     1
 62
   256
176
     0
 40
1.0
176
     0
 90
        2
176
     1
  1
strokes_ogs.tif
176
     1
290
     0
176
     1
 40
1.0
176
     1
 40
1.0
176
     1
1001
ACAD
1000
AcDbSavedByObjectVersion
1070
     0
  0
VISUALSTYLE
  5
6681
102
{ACAD_REACTORS
330
667D
102
}
330
667D
100
AcDbVisualStyle
  2

 70
     3
177
     3
291
     1
 70
    58
 90
        2
176
     1
 90
        2
176
     1
 90
        1
176
     1
 90
        2
176
     1
 40
0.6
176
     1
 40
30.0
176
     1
 62
     7
176
     1
 90
        1
176
     1
 90
        0
176
     1
 62
     7
176
     1
 62
   257
176
     1
 90
        1
176
     1
 90
        1
176
     1
 40
1.0
176
     1
 90
        0
176
     1
 62
   257
176
     1
 40
1.0
176
     1
 90
        1
176
     1
 90
        6
176
     1
 90
        2
176
     1
 62
     7
176
     1
 90
        5
176
     1
 90
        0
176
     1
 90
        0
176
     1
290
     0
176
     1
 90
       13
176
     1
 40
0.0
176
     1
 90
        0
176
     1
290
     0
176
     1
290
     1
176
     1
290
     1
176
     1
290
     0
176
     1
290
     0
176
     1
290
     0
176
     1
290
     0
176
     1
290
     0
176
     1
290
     0
176
     1
 90
       50
176
     1
 40
0.0
176
     1
 40
1.0
176
     1
 90
        0
176
     1
 62
    18
420
        0
176
     1
 90
       50
176
     1
 90
        3
176
     1
 62
     5
420
      255
176
     1
290
     0
176
     1
 90
       50
176
     1
 90
       50
176
     1
 90
       50
176
     1
290
     0
176
     1
 90
       50
176
     1
 62
   256
176
     0
 40
1.0
176
     0
 90
        2
176
     1
  1
strokes_ogs.tif
176
     1
290
     0
176
     1
 40
1.0
176
     1
 40
1.0
176
     1
1001
ACAD
1000
AcDbSavedByObjectVersion
1070
     0
  0
VISUALSTYLE
  5
6685
102
{ACAD_REACTORS
330
667D
102
}
330
667D
100
AcDbVisualStyle
  2

 70
     6
177
     3
291
     0
 70
    58
 90
        1
176
     1
 90
        2
176
     1
 90
        2
176
     1
 90
        0
176
     1
 40
0.6
176
     1
 40
30.0
176
     1
 62
     7
176
     1
 90
        2
176
     1
 90
        2
176
     1
 62
     7
176
     1
 62
   257
176
     1
 90
        2
176
     1
 90
        1
176
     1
 40
40.0
176
     1
 90
        0
176
     1
 62
   257
176
     1
 40
1.0
176
     1
 90
        1
176
     1
 90
        6
176
     1
 90
        2
176
     1
 62
     7
176
     1
 90
        3
176
     1
 90
        0
176
     1
 90
        0
176
     1
290
     0
176
     1
 90
        1
176
     1
 40
0.0
176
     1
 90
        0
176
     1
290
     0
176
     1
290
     1
176
     1
290
     1
176
     1
290
     0
176
     1
290
     0
176
     1
290
     0
176
     1
290
     0
176
     1
290
     0
176
     1
290
     0
176
     1
 90
       50
176
     1
 40
0.0
176
     1
 40
1.0
176
     1
 90
        0
176
     1
 62
    18
420
        0
176
     1
 90
       50
176
     1
 90
        3
176
     1
 62
     5
420
      255
176
     1
290
     0
176
     1
 90
       50
176
     1
 90
       50
176
     1
 90
       50
176
     1
290
     0
176
     1
 90
       50
176
     1
 62
   256
176
     0
 40
1.0
176
     0
 90
        2
176
     1
  1
strokes_ogs.tif
176
     1
290
     0
176
     1
 40
1.0
176
     1
 40
1.0
176
     1
1001
ACAD
1000
AcDbSavedByObjectVersion
1070
     0
  0
VISUALSTYLE
  5
6693
102
{ACAD_REACTORS
330
667D
102
}
330
667D
100
AcDbVisualStyle
  2

 70
    20
177
     3
291
     1
 70
    58
 90
        2
176
     0
 90
        2
176
     0
 90
        0
176
     0
 90
        0
176
     0
 40
0.6
176
     0
 40
30.0
176
     0
 62
     7
176
     0
 90
        1
176
     0
 90
        4
176
     0
 62
     7
176
     0
 62
   257
176
     0
 90
        1
176
     0
 90
        1
176
     0
 40
1.0
176
     0
 90
       10
176
     2
 62
     7
176
     0
 40
1.0
176
     0
 90
        1
176
     0
 90
        6
176
     0
 90
        2
176
     0
 62
     7
176
     0
 90
        5
176
     0
 90
        0
176
     0
 90
        0
176
     0
290
     0
176
     0
 90
        1
176
     0
 40
0.0
176
     0
 90
        0
176
     0
290
     0
176
     1
290
     1
176
     1
290
     1
176
     1
290
     0
176
     1
290
     0
176
     1
290
     0
176
     1
290
     0
176
     1
290
     0
176
     1
290
     0
176
     1
 90
       50
176
     0
 40
0.0
176
     0
 40
1.0
176
     0
 90
        0
176
     0
 62
    18
420
        0
176
     0
 90
       50
176
     0
 90
        3
176
     0
 62
     5
420
      255
176
     0
290
     0
176
     1
 90
       50
176
     0
 90
       50
176
     0
 90
       50
176
     0
290
     0
176
     1
 90
       50
176
     0
 62
   256
176
     0
 40
1.0
176
     0
 90
        2
176
     0
  1
strokes_ogs.tif
176
     0
290
     0
176
     1
 40
1.0
176
     0
 40
1.0
176
     0
1001
ACAD
1000
AcDbSavedByObjectVersion
1070
     0
  0
VISUALSTYLE
  5
668B
102
{ACAD_REACTORS
330
667D
102
}
330
667D
100
AcDbVisualStyle
  2

 70
    14
177
     3
291
     1
 70
    58
 90
        2
176
     1
 90
        2
176
     1
 90
        0
176
     1
 90
        0
176
     1
 40
0.6
176
     1
 40
30.0
176
     1
 62
     7
176
     1
 90
        1
176
     1
 90
        4
176
     1
 62
     7
176
     1
 62
   257
176
     1
 90
        7
176
     1
 90
        7
176
     1
 40
1.0
176
     1
 90
        8
176
     1
 62
     7
176
     1
 40
1.0
176
     1
 90
        1
176
     1
 90
        6
176
     1
 90
        2
176
     1
 62
     7
176
     1
 90
        5
176
     1
 90
        0
176
     1
 90
        0
176
     1
290
     0
176
     1
 90
        1
176
     1
 40
0.0
176
     1
 90
        0
176
     1
290
     0
176
     1
290
     1
176
     1
290
     1
176
     1
290
     0
176
     1
290
     0
176
     1
290
     0
176
     1
290
     0
176
     1
290
     0
176
     1
290
     0
176
     1
 90
       50
176
     1
 40
0.0
176
     1
 40
1.0
176
     1
 90
        0
176
     1
 62
    18
420
        0
176
     1
 90
       50
176
     1
 90
        3
176
     1
 62
     5
420
      255
176
     1
290
     0
176
     1
 90
       50
176
     1
 90
       50
176
     1
 90
       50
176
     1
290
     0
176
     1
 90
       50
176
     1
 62
   256
176
     0
 40
1.0
176
     0
 90
        2
176
     1
  1
strokes_ogs.tif
176
     1
290
     0
176
     1
 40
1.0
176
     1
 40
1.0
176
     1
1001
ACAD
1000
AcDbSavedByObjectVersion
1070
     0
  0
VISUALSTYLE
  5
6694
102
{ACAD_REACTORS
330
667D
102
}
330
667D
100
AcDbVisualStyle
  2

 70
    21
177
     3
291
     1
 70
    58
 90
        2
176
     0
 90
        2
176
     0
 90
        0
176
     0
 90
        0
176
     0
 40
0.6
176
     0
 40
30.0
176
     0
 62
     7
176
     0
 90
        1
176
     0
 90
        4
176
     0
 62
     7
176
     0
 62
   257
176
     0
 90
        1
176
     0
 90
        1
176
     0
 40
1.0
176
     0
 90
        9
176
     2
 62
     7
176
     0
 40
1.0
176
     0
 90
        1
176
     0
 90
        6
176
     0
 90
        2
176
     0
 62
     7
176
     0
 90
        5
176
     0
 90
        0
176
     0
 90
        0
176
     0
290
     0
176
     0
 90
        1
176
     0
 40
0.0
176
     0
 90
        0
176
     0
290
     0
176
     1
290
     1
176
     1
290
     1
176
     1
290
     0
176
     1
290
     0
176
     1
290
     0
176
     1
290
     0
176
     1
290
     0
176
     1
290
     0
176
     1
 90
       50
176
     0
 40
0.0
176
     0
 40
1.0
176
     0
 90
        0
176
     0
 62
    18
420
        0
176
     0
 90
       50
176
     0
 90
        3
176
     0
 62
     5
420
      255
176
     0
290
     0
176
     1
 90
       50
176
     0
 90
       50
176
     0
 90
       50
176
     0
290
     0
176
     1
 90
       50
176
     0
 62
   256
176
     0
 40
1.0
176
     0
 90
        2
176
     0
  1
strokes_ogs.tif
176
     0
290
     0
176
     1
 40
1.0
176
     0
 40
1.0
176
     0
1001
ACAD
1000
AcDbSavedByObjectVersion
1070
     0
  0
VISUALSTYLE
  5
6687
102
{ACAD_REACTORS
330
667D
102
}
330
667D
100
AcDbVisualStyle
  2

 70
     8
177
     3
291
     0
 70
    58
 90
        2
176
     1
 90
        3
176
     1
 90
        0
176
     1
 90
        2
176
     1
 40
0.6
176
     1
 40
30.0
176
     1
 62
     7
176
     1
 90
        0
176
     1
 90
        0
176
     1
 62
     7
176
     1
 62
   257
176
     1
 90
        1
176
     1
 90
        1
176
     1
 40
1.0
176
     1
 90
        8
176
     1
 62
   257
176
     1
 40
1.0
176
     1
 90
        1
176
     1
 90
        6
176
     1
 90
        2
176
     1
 62
     7
176
     1
 90
        3
176
     1
 90
        0
176
     1
 90
        0
176
     1
290
     0
176
     1
 90
       13
176
     1
 40
0.0
176
     1
 90
        0
176
     1
290
     0
176
     1
290
     1
176
     1
290
     1
176
     1
290
     0
176
     1
290
     0
176
     1
290
     0
176
     1
290
     0
176
     1
290
     0
176
     1
290
     0
176
     1
 90
       50
176
     1
 40
0.0
176
     1
 40
1.0
176
     1
 90
        0
176
     1
 62
    18
420
        0
176
     1
 90
       50
176
     1
 90
        3
176
     1
 62
     5
420
      255
176
     1
290
     0
176
     1
 90
       50
176
     1
 90
       50
176
     1
 90
       50
176
     1
290
     0
176
     1
 90
       50
176
     1
 62
   256
176
     0
 40
1.0
176
     0
 90
        2
176
     1
  1
strokes_ogs.tif
176
     1
290
     0
176
     1
 40
1.0
176
     1
 40
1.0
176
     1
1001
ACAD
1000
AcDbSavedByObjectVersion
1070
     0
  0
VISUALSTYLE
  5
6692
102
{ACAD_REACTORS
330
667D
102
}
330
667D
100
AcDbVisualStyle
  2

 70
    27
177
     3
291
     0
 70
    58
 90
        2
176
     1
 90
        2
176
     1
 90
        1
176
     1
 90
        2
176
     1
 40
0.6
176
     1
 40
30.0
176
     1
 62
     7
176
     1
 90
        0
176
     1
 90
        4
176
     1
 62
     7
176
     1
 62
   257
176
     1
 90
        1
176
     1
 90
        1
176
     1
 40
1.0
176
     1
 90
        8
176
     1
 62
   257
176
     1
 40
1.0
176
     1
 90
        1
176
     1
 90
        6
176
     1
 90
        2
176
     1
 62
     8
176
     1
 90
        3
176
     1
 90
        0
176
     1
 90
        0
176
     1
290
     0
176
     1
 90
        5
176
     1
 40
0.0
176
     1
 90
        0
176
     1
290
     0
176
     1
290
     1
176
     1
290
     1
176
     1
290
     0
176
     1
290
     0
176
     1
290
     0
176
     1
290
     0
176
     1
290
     0
176
     1
290
     0
176
     1
 90
       50
176
     1
 40
0.0
176
     1
 40
1.0
176
     1
 90
        0
176
     1
 62
    18
420
        0
176
     1
 90
       50
176
     1
 90
        3
176
     1
 62
     5
420
      255
176
     1
290
     0
176
     1
 90
       50
176
     1
 90
       50
176
     1
 90
       50
176
     1
290
     0
176
     1
 90
       50
176
     1
 62
   256
176
     0
 40
1.0
176
     0
 90
        2
176
     1
  1
strokes_ogs.tif
176
     1
290
     0
176
     1
 40
1.0
176
     1
 40
1.0
176
     1
1001
ACAD
1000
AcDbSavedByObjectVersion
1070
     0
  0
VISUALSTYLE
  5
6691
102
{ACAD_REACTORS
330
667D
102
}
330
667D
100
AcDbVisualStyle
  2

 70
    26
177
     3
291
     0
 70
    58
 90
        2
176
     1
 90
        2
176
     1
 90
        1
176
     1
 90
        2
176
     1
 40
0.6
176
     1
 40
30.0
176
     1
 62
     7
176
     1
 90
        1
176
     1
 90
       10
176
     1
 62
     7
176
     1
 62
   257
176
     1
 90
        2
176
     1
 90
        1
176
     1
 40
1.0
176
     1
 90
        8
176
     1
 62
   257
176
     1
 40
1.0
176
     1
 90
        1
176
     1
 90
        6
176
     1
 90
        2
176
     1
 62
     7
176
     1
 90
        3
176
     1
 90
        0
176
     1
 90
        0
176
     1
290
     0
176
     1
 90
        5
176
     1
 40
0.0
176
     1
 90
        0
176
     1
290
     0
176
     1
290
     1
176
     1
290
     1
176
     1
290
     0
176
     1
290
     0
176
     1
290
     0
176
     1
290
     0
176
     1
290
     0
176
     1
290
     0
176
     1
 90
       50
176
     1
 40
0.0
176
     1
 40
1.0
176
     1
 90
        0
176
     1
 62
    18
420
        0
176
     1
 90
       50
176
     1
 90
        3
176
     1
 62
     5
420
      255
176
     1
290
     0
176
     1
 90
       50
176
     1
 90
       50
176
     1
 90
       50
176
     1
290
     0
176
     1
 90
       50
176
     1
 62
   256
176
     0
 40
1.0
176
     0
 90
        2
176
     1
  1
strokes_ogs.tif
176
     1
290
     0
176
     1
 40
1.0
176
     1
 40
1.0
176
     1
1001
ACAD
1000
AcDbSavedByObjectVersion
1070
     0
  0
VISUALSTYLE
  5
668E
102
{ACAD_REACTORS
330
667D
102
}
330
667D
100
AcDbVisualStyle
  2

 70
    23
177
     3
291
     0
 70
    58
 90
        2
176
     1
 90
        2
176
     1
 90
        3
176
     1
 90
        0
176
     1
 40
0.6
176
     1
 40
30.0
176
     1
 62
     7
176
     1
 90
        2
176
     1
 90
        2
176
     1
 62
     7
176
     1
 62
     7
176
     1
 90
        1
176
     1
 90
        1
176
     1
 40
40.0
176
     1
 90
        8
176
     1
 62
     7
176
     1
 40
1.0
176
     1
 90
        1
176
     1
 90
        6
176
     1
 90
        2
176
     1
 62
     7
176
     1
 90
        3
176
     1
 90
        0
176
     1
 90
        0
176
     1
290
     0
176
     1
 90
        1
176
     1
 40
0.0
176
     1
 90
        0
176
     1
290
     0
176
     1
290
     1
176
     1
290
     1
176
     1
290
     0
176
     1
290
     0
176
     1
290
     0
176
     1
290
     0
176
     1
290
     0
176
     1
290
     0
176
     1
 90
       50
176
     1
 40
0.0
176
     1
 40
1.0
176
     1
 90
        0
176
     1
 62
    18
420
        0
176
     1
 90
       50
176
     1
 90
        3
176
     1
 62
     5
420
      255
176
     1
290
     0
176
     1
 90
       50
176
     1
 90
       50
176
     1
 90
       50
176
     1
290
     0
176
     1
 90
       50
176
     1
 62
   256
176
     0
 40
1.0
176
     0
 90
        2
176
     1
  1
strokes_ogs.tif
176
     1
290
     0
176
     1
 40
1.0
176
     1
 40
1.0
176
     1
1001
ACAD
1000
AcDbSavedByObjectVersion
1070
     0
  0
VISUALSTYLE
  5
668F
102
{ACAD_REACTORS
330
667D
102
}
330
667D
100
AcDbVisualStyle
  2

 70
    24
177
     3
291
     0
 70
    58
 90
        1
176
     1
 90
        2
176
     1
 90
        2
176
     1
 90
        0
176
     1
 40
0.6
176
     1
 40
30.0
176
     1
 62
     7
176
     1
 90
        2
176
     1
 90
        2
176
     1
 62
     7
176
     1
 62
     7
176
     1
 90
        1
176
     1
 90
        1
176
     1
 40
40.0
176
     1
 90
       11
176
     1
 62
     7
176
     1
 40
1.0
176
     1
 90
        1
176
     1
 90
        6
176
     1
 90
        2
176
     1
 62
     7
176
     1
 90
        6
176
     1
 90
        0
176
     1
 90
        0
176
     1
290
     0
176
     1
 90
        1
176
     1
 40
0.0
176
     1
 90
        0
176
     1
290
     0
176
     1
290
     1
176
     1
290
     1
176
     1
290
     0
176
     1
290
     0
176
     1
290
     0
176
     1
290
     0
176
     1
290
     0
176
     1
290
     0
176
     1
 90
       50
176
     1
 40
0.0
176
     1
 40
1.0
176
     1
 90
        0
176
     1
 62
    18
420
        0
176
     1
 90
       50
176
     1
 90
        3
176
     1
 62
     5
420
      255
176
     1
290
     0
176
     1
 90
       50
176
     1
 90
       50
176
     1
 90
       50
176
     1
290
     0
176
     1
 90
       50
176
     1
 62
   256
176
     0
 40
1.0
176
     0
 90
        2
176
     1
  1
strokes_ogs.tif
176
     1
290
     0
176
     1
 40
1.0
176
     1
 40
1.0
176
     1
1001
ACAD
1000
AcDbSavedByObjectVersion
1070
     0
  0
VISUALSTYLE
  5
668A
102
{ACAD_REACTORS
330
667D
102
}
330
667D
100
AcDbVisualStyle
  2

 70
    13
177
     3
291
     1
 70
    58
 90
        2
176
     1
 90
        2
176
     1
 90
        0
176
     1
 90
        0
176
     1
 40
0.6
176
     1
 40
30.0
176
     1
 62
     7
176
     1
 90
        1
176
     1
 90
        4
176
     1
 62
     7
176
     1
 62
   257
176
     1
 90
        1
176
     1
 90
        1
176
     1
 40
1.0
176
     1
 90
       12
176
     1
 62
     7
176
     1
 40
1.0
176
     1
 90
        1
176
     1
 90
        6
176
     1
 90
        2
176
     1
 62
     7
176
     1
 90
        5
176
     1
 90
        0
176
     1
 90
        0
176
     1
290
     0
176
     1
 90
        1
176
     1
 40
0.0
176
     1
 90
        0
176
     1
290
     0
176
     1
290
     1
176
     1
290
     1
176
     1
290
     0
176
     1
290
     0
176
     1
290
     0
176
     1
290
     0
176
     1
290
     0
176
     1
290
     0
176
     1
 90
       50
176
     1
 40
0.0
176
     1
 40
1.0
176
     1
 90
        0
176
     1
 62
    18
420
        0
176
     1
 90
       50
176
     1
 90
        3
176
     1
 62
     5
420
      255
176
     1
290
     0
176
     1
 90
       50
176
     1
 90
       50
176
     1
 90
       50
176
     1
290
     0
176
     1
 90
       50
176
     1
 62
   256
176
     0
 40
1.0
176
     0
 90
        2
176
     1
  1
strokes_ogs.tif
176
     1
290
     0
176
     1
 40
1.0
176
     1
 40
1.0
176
     1
1001
ACAD
1000
AcDbSavedByObjectVersion
1070
     0
  0
VISUALSTYLE
  5
6684
102
{ACAD_REACTORS
330
667D
102
}
330
667D
100
AcDbVisualStyle
  2

 70
     5
177
     3
291
     0
 70
    58
 90
        0
176
     1
 90
        2
176
     1
 90
        0
176
     1
 90
        0
176
     1
 40
0.6
176
     1
 40
30.0
176
     1
 62
     7
176
     1
 90
        1
176
     1
 90
        4
176
     1
 62
     7
176
     1
 62
   257
176
     1
 90
        1
176
     1
 90
        1
176
     1
 40
1.0
176
     1
 90
        0
176
     1
 62
   257
176
     1
 40
1.0
176
     1
 90
        1
176
     1
 90
        6
176
     1
 90
        2
176
     1
 62
     7
176
     1
 90
        3
176
     1
 90
        0
176
     1
 90
        0
176
     1
290
     0
176
     1
 90
        1
176
     1
 40
0.0
176
     1
 90
        0
176
     1
290
     0
176
     1
290
     1
176
     1
290
     1
176
     1
290
     0
176
     1
290
     0
176
     1
290
     0
176
     1
290
     0
176
     1
290
     0
176
     1
290
     0
176
     1
 90
       50
176
     1
 40
0.0
176
     1
 40
1.0
176
     1
 90
        0
176
     1
 62
    18
420
        0
176
     1
 90
       50
176
     1
 90
        3
176
     1
 62
     5
420
      255
176
     1
290
     0
176
     1
 90
       50
176
     1
 90
       50
176
     1
 90
       50
176
     1
290
     0
176
     1
 90
       50
176
     1
 62
   256
176
     0
 40
1.0
176
     0
 90
        2
176
     1
  1
strokes_ogs.tif
176
     1
290
     0
176
     1
 40
1.0
176
     1
 40
1.0
176
     1
1001
ACAD
1000
AcDbSavedByObjectVersion
1070
     0
  0
VISUALSTYLE
  5
6690
102
{ACAD_REACTORS
330
667D
102
}
330
667D
100
AcDbVisualStyle
  2

 70
    25
177
     3
291
     0
 70
    58
 90
        2
176
     1
 90
        2
176
     1
 90
        1
176
     1
 90
        1
176
     1
 40
0.5
176
     1
 40
30.0
176
     1
 62
     7
176
     1
 90
        1
176
     1
 90
        0
176
     1
 62
     7
176
     1
 62
   257
176
     1
 90
        1
176
     1
 90
        1
176
     1
 40
1.0
176
     1
 90
        8
176
     1
 62
     7
176
     1
 40
1.0
176
     1
 90
        1
176
     1
 90
        6
176
     1
 90
        2
176
     1
 62
     7
176
     1
 90
        3
176
     1
 90
        0
176
     1
 90
        0
176
     1
290
     0
176
     1
 90
       13
176
     1
 40
0.0
176
     1
 90
        0
176
     1
290
     0
176
     1
290
     1
176
     1
290
     1
176
     1
290
     0
176
     1
290
     0
176
     1
290
     0
176
     1
290
     0
176
     1
290
     0
176
     1
290
     0
176
     1
 90
       50
176
     1
 40
0.0
176
     1
 40
1.0
176
     1
 90
        0
176
     1
 62
    18
420
        0
176
     1
 90
       50
176
     1
 90
        3
176
     1
 62
     5
420
      255
176
     1
290
     0
176
     1
 90
       50
176
     1
 90
       50
176
     1
 90
       50
176
     1
290
     0
176
     1
 90
       50
176
     1
 62
   256
176
     0
 40
1.0
176
     0
 90
        2
176
     1
  1
strokes_ogs.tif
176
     1
290
     0
176
     1
 40
1.0
176
     1
 40
1.0
176
     1
1001
ACAD
1000
AcDbSavedByObjectVersion
1070
     0
  0
DICTIONARYVAR
  5
686B
102
{ACAD_REACTORS
330
5697
102
}
330
5697
100
DictionaryVariables
280
     0
  1
1:1
  0
DICTIONARYVAR
  5
6868
102
{ACAD_REACTORS
330
5697
102
}
330
5697
100
DictionaryVariables
280
     0
  1
STANDARD
  0
DICTIONARYVAR
  5
6867
102
{ACAD_REACTORS
330
5697
102
}
330
5697
100
DictionaryVariables
280
     0
  1
STANDARD
  0
DICTIONARYVAR
  5
6869
102
{ACAD_REACTORS
330
5697
102
}
330
5697
100
DictionaryVariables
280
     0
  1
Imperial24
  0
DICTIONARYVAR
  5
686A
102
{ACAD_REACTORS
330
5697
102
}
330
5697
100
DictionaryVariables
280
     0
  1
Imperial24
  0
DICTIONARYVAR
  5
5698
102
{ACAD_REACTORS
330
5697
102
}
330
5697
100
DictionaryVariables
280
     0
  1
1
  0
DICTIONARYVAR
  5
686D
102
{ACAD_REACTORS
330
5697
102
}
330
5697
100
DictionaryVariables
280
     0
  1
0
  0
DICTIONARYVAR
  5
68BD
102
{ACAD_REACTORS
330
5697
102
}
330
5697
100
DictionaryVariables
280
     0
  1
1
  0
DICTIONARYVAR
  5
68BE
102
{ACAD_REACTORS
330
5697
102
}
330
5697
100
DictionaryVariables
280
     0
  1
15
  0
DICTIONARYVAR
  5
68BC
102
{ACAD_REACTORS
330
5697
102
}
330
5697
100
DictionaryVariables
280
     0
  1
0
  0
DICTIONARYVAR
  5
68BB
102
{ACAD_REACTORS
330
5697
102
}
330
5697
100
DictionaryVariables
280
     0
  1
0
  0
DICTIONARYVAR
  5
686C
102
{ACAD_REACTORS
330
5697
102
}
330
5697
100
DictionaryVariables
280
     0
  1
127
  0
DICTIONARY
  5
68C2
330
66B0
100
AcDbDictionary
280
     1
281
     1
  3
ACAD_XREC_ROUNDTRIP
360
68C3
  0
DICTIONARY
  5
666E
330
666D
100
AcDbDictionary
280
     1
281
     1
  3
ACAD_XREC_ROUNDTRIP
360
687A
  3
BUMPTILE
360
6670
  3
DIFFUSETILE
360
666F
  3
OPACITYTILE
360
6673
  3
REFLECTIONTILE
360
6672
  3
REFRACTIONTILE
360
6674
  3
SPECULARTILE
360
6671
  0
DICTIONARY
  5
6666
330
6665
100
AcDbDictionary
280
     1
281
     1
  3
ACAD_XREC_ROUNDTRIP
360
6879
  3
BUMPTILE
360
6668
  3
DIFFUSETILE
360
6667
  3
OPACITYTILE
360
666B
  3
REFLECTIONTILE
360
666A
  3
REFRACTIONTILE
360
666C
  3
SPECULARTILE
360
6669
  0
DICTIONARY
  5
6676
330
6675
100
AcDbDictionary
280
     1
281
     1
  3
ACAD_XREC_ROUNDTRIP
360
687B
  3
BUMPTILE
360
6678
  3
DIFFUSETILE
360
6677
  3
FBXASSET
360
6866
  3
OPACITYTILE
360
667B
  3
REFLECTIONTILE
360
667A
  3
REFRACTIONTILE
360
667C
  3
SPECULARTILE
360
6679
  0
DICTIONARY
  5
68C0
330
66AE
100
AcDbDictionary
280
     1
281
     1
  3
ACAD_XREC_ROUNDTRIP
360
68C1
  0
DICTIONARY
  5
686F
330
6698
100
AcDbDictionary
280
     1
281
     1
  3
ACAD_ROUNDTRIP_2008_TABLESTYLE_CELLSTYLEMAP
360
68BF
  0
XRECORD
  5
68C3
102
{ACAD_REACTORS
330
68C2
102
}
330
68C2
100
AcDbXrecord
280
     1
102
DISPLAYNAME
  1
Imperial24
102
FLAGS
 90
        0
  0
XRECORD
  5
687A
102
{ACAD_REACTORS
330
666E
102
}
330
666E
100
AcDbXrecord
280
     1
102
MATERIAL
148
0.0
149
0.0
149
0.0
 93
        0
 94
      127
282
     0
 72
     0
 77
     0
171
     0
175
     0
179
     0
273
     0
  0
XRECORD
  5
6670
102
{ACAD_REACTORS
330
666E
102
}
330
666E
100
AcDbXrecord
280
     1
270
     1
271
     1
  0
XRECORD
  5
666F
102
{ACAD_REACTORS
330
666E
102
}
330
666E
100
AcDbXrecord
280
     1
270
     1
271
     1
  0
XRECORD
  5
6673
102
{ACAD_REACTORS
330
666E
102
}
330
666E
100
AcDbXrecord
280
     1
270
     1
271
     1
  0
XRECORD
  5
6672
102
{ACAD_REACTORS
330
666E
102
}
330
666E
100
AcDbXrecord
280
     1
270
     1
271
     1
  0
XRECORD
  5
6674
102
{ACAD_REACTORS
330
666E
102
}
330
666E
100
AcDbXrecord
280
     1
270
     1
271
     1
  0
XRECORD
  5
6671
102
{ACAD_REACTORS
330
666E
102
}
330
666E
100
AcDbXrecord
280
     1
270
     1
271
     1
  0
XRECORD
  5
6879
102
{ACAD_REACTORS
330
6666
102
}
330
6666
100
AcDbXrecord
280
     1
102
MATERIAL
148
0.0
149
0.0
149
0.0
 93
        0
 94
      127
282
     0
 72
     0
 77
     0
171
     0
175
     0
179
     0
273
     0
  0
XRECORD
  5
6668
102
{ACAD_REACTORS
330
6666
102
}
330
6666
100
AcDbXrecord
280
     1
270
     1
271
     1
  0
XRECORD
  5
6667
102
{ACAD_REACTORS
330
6666
102
}
330
6666
100
AcDbXrecord
280
     1
270
     1
271
     1
  0
XRECORD
  5
666B
102
{ACAD_REACTORS
330
6666
102
}
330
6666
100
AcDbXrecord
280
     1
270
     1
271
     1
  0
XRECORD
  5
666A
102
{ACAD_REACTORS
330
6666
102
}
330
6666
100
AcDbXrecord
280
     1
270
     1
271
     1
  0
XRECORD
  5
666C
102
{ACAD_REACTORS
330
6666
102
}
330
6666
100
AcDbXrecord
280
     1
270
     1
271
     1
  0
XRECORD
  5
6669
102
{ACAD_REACTORS
330
6666
102
}
330
6666
100
AcDbXrecord
280
     1
270
     1
271
     1
  0
XRECORD
  5
687B
102
{ACAD_REACTORS
330
6676
102
}
330
6676
100
AcDbXrecord
280
     1
102
MATERIAL
148
0.0
149
0.0
149
0.0
 93
        0
 94
      127
282
     0
 72
     0
 77
     0
171
     0
175
     0
179
     0
273
     0
  0
XRECORD
  5
6678
102
{ACAD_REACTORS
330
6676
102
}
330
6676
100
AcDbXrecord
280
     1
270
     1
271
     1
  0
XRECORD
  5
6677
102
{ACAD_REACTORS
330
6676
102
}
330
6676
100
AcDbXrecord
280
     1
270
     1
271
     1
  0
XRECORD
  5
6866
102
{ACAD_REACTORS
330
6676
102
}
330
6676
100
AcDbXrecord
280
     1
 70
     1
 90
1959938040
 71
     1
  1
AF9624D2-B641-4A88-BB90-3F49C0D090CE
311
504B030414000608080033806A486829FA46DA000000200100004F00000041313142384543302D323137372D343434362D383033332D4545463039424634333243452F4173736574446174612F446566696E6974696F6E4974657261746F7250726F706572746965732E62696E454E3D4FC33010350C200606FE41D5DDF8A3
311
5168A2B6A8691B26586062A9AEEE3544729CCA76244646FE359C45514F7AF7EEF3DD7D33C67E4E4621BB207C91BF257E4287BE35AFE6033B6057A962FB1DD8EB73EF92C294AEF100838D69EBB90D06AD0587FD10EECEA3A30E22C981BD4F4B3784FF42480ACDDFB174FF85905E4A0CFB63F90821609C8BC3EE536C96955E3F
311
D4152F54BDE459AE159FE6AB0DCFA6F54A1652699555C263E8076F30082DE4F6A4BC3DBA06E763E391FED88F175AAA9CCB0957F24DE5A554E5A4789F89D876B89885E85BD78C1C74BF504B030414000608080033806A48B4106F7808010000300200004500000041313142384543302D323137372D343434362D383033332D
311
4545463039424634333243452F4173736574446174612F496E7374616E636550726F706572746965732E62696EEB606060F80F0540260323103700495E20ED9E9A975A94991C9C9C919A9BA802147074B33433327131D275323331D43571B4B0D07572B234D0357633B174367031B0347076654768046931363471713532B5
311
D435353131D635313332D475727372D13534373670367376B67474B5042A03DBCBA019D37FE8ABC6157B20CD04146B0062181F4C03F940F0C11EA29A8141C08141002C0426541C106CAC2CA046088033B02A030AC2157C6006F21A8018AAF50194E6010A610250382264E08660284CD9E98021862280A91564B406929A0FF6
311
2C401E28B6F88038B83CB1243943D7A928312F25350524F37F5528904401A1AB4086C0C5B51BAEC2B810E6FFAB57E1220C48B228860000504B030414000608080033806A4828BB58AF800100009E0500003D00000041313142384543302D323137372D343434362D383033332D4545463039424634333243452F536368656D
311
61732F436F6D6D6F6E536368656D612E786D6CBD544D4FC23018BEFB2B96DE15493C78601010A34B880709DEDFB52FD0D8B54BD70DF6EFED3AC0B12E6442E2716BFB3CEFF3D18E26FB440405EA8C2B1992E1C323095052C5B8DC842437EBFB673219DF8DA659866649B798C078B48AE6410122242F2A4994AC7F93815DF85C
311
049C8564CA0A901499DD886B2EB9B1E02448F358701A9235880C49A0119892A20C89D1B9FD768815CAD268CB5E0355B40B1E47F3E37A2020464BED06AA57CE8FCC20C3C3446D46761A2632A8C1283D07031EFF2AE7CCB1BFEEE916E406DFAC8E36FFD99A9D60A6944090EEDC3B670C7DC13DE86B6B2C5C240D6E503BB85ACD
311
579D513F1B9F9A69DC9CC22AFA80C426D40AF0B21EA168559156B6276F0F726A6BFF04DCD513A87A62CAD41FB24FCB2858B3952E3D852084DA25B9303C15687973CC8E8AAE11DF2836C38C6A9E765E8C1BA1BFB1DC29CDFE518C8B5A7655A4ED7E77291ABEB80DBD82EC866ADE1B8D05AF9E35CF09D7A061F38A986D9EC412
311
B8F0F65E5D81534D9B231D1E5A8FE577A241F3A5FD01504B030414000608080033806A482CCEBD668A040000E01200003E00000041313142384543302D323137372D343434362D383033332D4545463039424634333243452F536368656D61732F47656E65726963536368656D612E786D6CD5586D6FDB380CFE7EBF42F0F7
311
A649B70E1B90744856B4970F450FCD7A5F05459613EDE4174872DADCAF3F522F8ED3B88D2F1D06AC4050DBA2493EE4438AF2F8EB73AEC8466823CB62928C06C384888297A92C5693A4B6D9D9E7E4EBD51FE3A931C22EF85AE4EC6AFC38BF261BA626C9AD288496DC3F4FCEAFC63366845F7A10452AF41DB320C0D44EC26EAB
311
20918735565582695670811A6A49643A49A6E9069FA4604A64B29016DC4B48552F95E4932463CA888468C1D2B250DB4962750DF7CE273069CE8363F1FF4EDB00E0A21999574AE4A2B00C353B93F3BD4777B8A61ED8F604ABFEDD79CE56A2B7BDFBDBC50996E0ADDE16FED26223C5D30956C29BDF4A55EA686E5E58B112DA45
311
CE67F76F4FA27EFA3FB672FD7372FC388FAECDCA5209E693CAD167BADCD272F943701B3812F8A3D852008B1D2E32DB927B2F833C6EA95879925356D254582695095A3CE982924720BE5774A3CB9CDCDB350427D2DF20DA1B5532EBE2D5D6288D75D4F7E4FD9890A0EF8E3D93EBB8F8BA4758158EF6FB90A6F9520281C93DE7
311
AAC6D24607DA296BB96018123F821A7D6A5C5884050C475DA4865442732C8B95684A50165CBB3A32F25F783A4A480ED59AD7F924B968AEA50131F46303223E6A397B0E52976030DC1DCA81D7E7C1EDEEA42C19FF27635C505E2BD5198A599020DF50A2330FCB3AAF28CB0124108429553EF1B228802E2265D8F7CC2401042B
311
155BCC7070F1E5C55F13B4A9577362CCCE46C32174E010C3C378C44841A4BDA00FE3A12006CE11EE6AEC59894D3526DDE1CD59D503ECC324017F8061B7F162162FA62EDD81AE3308617770796DCBDAD2B2625C5AE8A63DE20B2C8AA5E95E76E5730823955956E33E705425A2187C185D36489A1B44D3DCEC2172F6BA2105C3
311
546287A7194B2331768EBBE64F6E70A9930ABE0ADEA89E9E2C38523B810287AD67A54A039C1606EAFE68F8304610BB9093DBDDABC0B2AE4E290DCDA15376D7E39F72B556F0B32EAB5D3D498B4C41ABADEC3A1434C422D87E8025A84BDCB2B1417ED750FAE4DA8976863974C577C7F902D3F156AD354DEA3540DE6BEAE2BEA5
311
2F7A2EB4CA43802ECE5BF2CE2EDC9347179FFB023CE412E60BE16DA0BE29B374988A553F561DC04615DD35F7D2C8979F60E5955CE93DF29DED8AFA1EE6642D53418086C03C47C377910F75F7E8F5EF665F70B60FFB22AEDF897D119E8423C773E819A3C1E55E550599EE6EDCA34D0C86FD72057DF2CD46F16A470682471C16
311
4E4346D5306BF12D7D12D82CFF673D41636C347443FEB51B50D72EA171A8E4A58623A4A16E0FA2B8B10A0D23268D87C33896EE8FB73305A74BF224EDBADFA0BD674AB354D63DB7BD5D83426761C077DE767728235446A552754EB93B755891C3C4CC6CADE37CF0E912A7BB38DBA010F9DE1282EDF470CA69A9CDA482E334C4
311
A6EA4107987980B17E72F31730EBF88BBD39E7C629F56797A3C0009C2C5AE7951D9A05A02773440F02EEB4DE396A3B6A570C72CCFBCD823B0B8ED3F1D5CEDDFED772FA70236C83FB7D86C385D570B87107535572A60A96035F8F7C6A7192F13007246BBE0521855E6AC46F3E27689CEE7D186A6FD679D98CDCAD13333E04EB
311
E7ED6F55FF01504B030414000608080033806A486180134D5F0100006B0300004500000041313142384543302D323137372D343434362D383033332D4545463039424634333243452F536368656D61732F52656E6465724D6174657269616C536368656D612E786D6CA5934D6FC2300C86EFFB1551EEE343DBA41D1A103009
311
551ADAD40EAE28A4A68D9426284961FCFBE5A340113B2071746D3F765EBF4DC6BFB5407BD0862B49F0B037C0082453059725C18DDD3EBFE3F1E829991803366715D474942CD30FB4A782E00C64017A412D684E454CE3FE28995203B162A6EA5AC94B66997D225E109CD63B0135484BAD1B3C07E9080CA35DB3119C11BCA5C2
311
00461A68A1A438126C75E3E230D40FF81FB3F03C91D1E3A3A0AF79FE28E25BC39EC3E17E4C2A2D94A0833A51AF55BCCA7D88572FCBAC529C4140B020FC3AAFA886621DCED7EAD7664CC86024E806DC297DA1BB393E4156543457A4537DB8817349A70F8ACBF09B3EEE2CB2F33E91B65D60786E4E3B39B77E3FEEEF56504245
311
25DA657FB8B46BE6BF064646F0A0F7327C0BC1BC1B4CBBC1C419FA3CCB23500007872A2580CAAE5461865565294E4EDB4617B62FF579DF9A5B2F54E834076A597573A020912FED777F9B3F504B030414000608080033806A48E83A5A5B51000000570000004700000041313142384543302D323137372D343434362D383033
311
332D4545463039424634333243452F4173736574446174612F41737365745461626C654F66436F6E74656E74732E62696E536160607074B33433327131D275323331D43571B4B0D07572B234D0357633B174367031B03470761502AACB4D2C492DCA4CCC492C28484D2C4ACC4B4E050A82012F90744FCD03CA26072767A4E6
311
260200504B030414000608080033806A48F865834058000000680000004500000041313142384543302D323137372D343434362D383033332D4545463039424634333243452F4173736574446174612F53747265616D56657273696F6E5461626C652E696E66558CBD0A80300C06F73E4B117FB66E451741D041DC5BF98480
311
A492E4FDD18EAEC7DD4555D89EF28DF51A0B1BD8340C4DE7DD848B988C0ACF0649566493F2408C508DDEBB99D5129FF8F1AF8CF5B9503E20FAE5A16B5AF702504B030414000608080033806A481E888E39340100009A0400003600000041313142384543302D323137372D343434362D383033332D45454630394246343332
311
43452F4173736574446174612F636E782E786D6CCD94314FC3301085FF4AE43D7642A50A2AC71582A51348540C6C57E752AC3A76645F10FC7BEC2403A888A943D7F3BBF3F327BF93DBCFDE161F18A2F1AE6135AF58814EFBD6B863C346EACA5B566C950CDED30F192B1CF4D8B05C664A1E831F87A5D46207A3CD556BDC6929
311
DEC788B48783C5A7EEC13B42479115DA428C0D8BFA1D7BE030926F319E780B04BCE601A31F83C634894C8FCB241D10085BA66EAA7A5D56ABB2AEF6F57A53D59BD5DD9B1459A9E4C17BBBE84DBA2CF8A1D0F3AD4C5552E46325C760164D7E0B537F79E407E3A4484A252385C464E9A0AF2175C03058A381123AE13521954984
311
D04B318B951499C12F128FD8196772CB2E1903F2E139D9C34006AF8EC87F5E2F4F66E72281D378BD3CCE1D5E9EC2CBF4835EE7404E89B9B69C9C3BE4C67517488998D6480A4DDE2AEA1B504B030414000608080033806A4808070BEC080100004F0300003400000041313142384543302D323137372D343434362D38303333
311
2D4545463039424634333243452F536368656D61732F636E782E786D6CCD93314F04211085FF0AA15FD8F5928B5E58AEB0B0B2512B3B84B9931C309B8135FAEF85758BBBC44E8BEBE0F185BCF718D4FE3306F601943DA6910FA2E70C9245E7D371E4733974B79CEDB522C4728671964C849137996B75249CA7557270307368
311
6AF0E9B48AF71823A667FB0ED1706683C979E479D90A331774904FC29962C4200832CE64A1DE507C84F5064B600A38AE6FFA61DBF59B6EE85F86EDAE1F769BBB57251BA9D51B6258799F0A104ECC625DA46AA757B21D6B35935F999681EB736FA2B6A16425B4CA856A072B59BEA64A9A690ADE9A52AB920BF8C368255BD48B
311
C00F9080BCBDCEC417E6FE2DF2132407F4585F89BC09D799FC378F7F2B402EB35F47A07D05FD0D504B030414000608080033806A48410A3D5871000000A40000002C00000041313142384543302D323137372D343434362D383033332D4545463039424634333243452F636E782E786D6C55CC4D0E82301086E1AB34B31774
311
E7A22D31F1069E60020334B633A63FC6E34B0909B07DDE2F9FEE7EC1AB2FC5E4840DDC9A2B28E25E06C7938192C7CB1D54677514C9871928C640062A83D55394F2D968A0118BAFEA1DBF377CA444F98919176EAB9FEAAB9F2960DA5BBB1E2ED3FA6FFF504B030414000608080033806A486C78CC067E000000A30000000700
311
0000636E782E786D6C4D8CD10AC22018465F45FE7B4BA7340375B4E1DE63343724A761337AFC3476D1D50787EF1CD97D368FDE36BD5C0C0AE88900B2E11E67175605795FB000D4699962DCFF6E80C2B459051583966B8AF979A0D92E53F6957A171E07BC51DA0B3310DCD0B6C59CF30B1684316CCC48AEFDC8593398629CAB
311
52E6D72B5BF3FA0B504B030414000608080033806A4816E99B5DA600000035010000130000005B436F6E74656E745F54797065735D2E786D6C9590410E82301045AFD2740F4517C6180A0BF5065E60AC53688469D30E066F6F91AD9AB89CF9FFFD3F99BA9DC7413C3026E749CB4D59498164FCCD51A7E5C4B6D84BD136F5E5
311
193089ECA5A465CF1C0E4A25D3E308A9F401292BD6C711388FB15301CC1D3A54DBAADA29E38991B8E0254336F5092D4C038BF39CD76B6FC6A538AEBEA54A4B08617006389FA516557DE4AE8E7E70DE30729138228C5F021CD93F02D4FB0DCD0B504B030414000608080033806A483DEE336E64000000790000001B00000061
311
75746F6465736B2D64657369676E2D7061636B6167652E786D6C35CBC10E83200C00D05F21DCA56CA76D41FC96062B120735B69A7DBE268BB7777961F8D5AF396893C2ADB70FE7ADA196782C2DF776D7A97B5933C430F15651E5469C55D70F80A4992A3ADC954792C525AE70A1E4D6AD9816CC044FEFDF01FE3FDE90780250
311
4B030414000608080033806A48FFE7B7AEF8000000960100003700000041313142384543302D323137372D343434362D383033332D4545463039424634333243452F4173736574446174612F636F72652E786D6C8550CB6EC32010FC156BEFD83C123789309195B65FD0536F08888B1283C5A3EAE71762576A4F3DED6A7666
311
7677F8F96BBE379F2644EBDD00A4C5D018A7BCB66E1A20A72B3A4073163C789F7ED1A0717236035418049F82CFCB0629EF927115755E9B0D94319A048DBA976680A83ECC2C5B995361C45BBB487593936949BBF204CFD9EA4D6A7571B3576B02889E62F63462822E23BBA0DD7147D181EC7B4419652FAF7BD21F09E55D150B
311
9EECFCB35D052393D12028263DC20C11FC46FA132627767CE75D650A1E53283F6F4BEB7720C67AF5B34C9277EBF48F6B5EF4FFAED9BAC4E8E6BA2A2208528E7C0C04EF6A4AA53C222CB5262ABE01504B030414000608080033806A48B38929F4F6000000940100003500000041313142384543302D323137372D343434362D
311
383033332D4545463039424634333243452F536368656D61732F636F72652E786D6C8550CB6EC32010FC156BEFD83C123789305114B53FD09E7A43405C94182C1E553FBF60BB527BEA6957B333B3BBC3CF5FD3A3F934215AEF06202D86C638E5B575E30039DDD0019AB3E0C1FBF48B068D939319A0C220F8187C9E37487997
311
8CABA8F3DA6CA08CD12468D4A3340344F56126D9CA9C0A23DEDB59AABB1C4D4BDA952778CE566F52AB8B9BBD591340F414B3A70B26E87A6157B43BEE283A907D8F28A3ECF9654FFA23A1BCAB62C1939D7EB6AB6064321A04C5A447982182DF487FC2E4C48EEFBCAB4CC1630AE5E76D69FD0EC4EB7267E4DD3AFBE39967FDBF
311
67B62E31BA79AE8A088294139781E05DCDA89425C0526B9EE21B504B030414000608080033806A489039353E01010000D70100002D00000041313142384543302D323137372D343434362D383033332D4545463039424634333243452F636F72652E786D6C9591C172832010865FC5D93B0A6A8DC9209926639EA0A7DEA86C
311
2C93088E40A78F5FA876DADEDA13CCCFF7EFF2EFF2E3FB74CFDE7071DA9A0E584E21433358A5CDD841F057D24276147CB1D6FFC0203372C20E920C828F8B0DF3260DD67834493556E1264AE7D04336DCE3A50337BCE22473197C24DC2D9FE5709323E62C5F39C1BD9EBEACC382D2A3025152D6105A11469F5873A0EC50ED9F
311
799148C18336BE2AB76638BDA0CAECEC6324100FBC585F2315B4DA18ADE21FF555E302E291B153DB9F2929D96E47EABA6E484BAB8AF4FD85EE4F97BA2ACF7D2C12CD823BBFC4C96C45D20CFE6A5F8DBF928559FD33D9EA7020D877A8228D59F0E27307F14C2B111F504B030414000608080033806A489C877E8606010000B2
311
01000008000000636F72652E786D6C8D50CB6EC32010FC15B4776C1E891B4798288ADA2FE8A9376A888B628305386AFFBE10BB527BEB69D1CCECCE30E2F4398DE86E42B4DE75402B02C8B8DE6BEB860E9674C50740272982F7E9970C905393E9A0C020C510FC326F50EF5D32AEA0CE6BB3812A469300F5637E7410FB0F33A9
311
4A2D292BE2AD9A557F5383A968B5EAA44876FA59ED8351C968908CD006138E2979A5CD91D0236FDF445D94522C8BD59B95D5D9DD5EAD09201B46F8D399507C39F30BDEB53B860F74DF60C6197F7ED9D3A6A54CD465598A9842FEF37624E74C28AA7BF115F54A49F1EEFDB80972288DBC1BBF40125117E24FE865D6FF086D5D
311
E26C3BB86E449034077A10D9B83498C7A3DE3C4BDBF21B504B0102140014000608080033806A486829FA46DA000000200100004F000000000000000000000000000000000041313142384543302D323137372D343434362D383033332D4545463039424634333243452F4173736574446174612F446566696E6974696F6E49
311
74657261746F7250726F706572746965732E62696E504B0102140014000608080033806A48B4106F78080100003002000045000000000000000000000000004701000041313142384543302D323137372D343434362D383033332D4545463039424634333243452F4173736574446174612F496E7374616E636550726F7065
311
72746965732E62696E504B0102140014000608080033806A4828BB58AF800100009E0500003D00000000000000000000000000B202000041313142384543302D323137372D343434362D383033332D4545463039424634333243452F536368656D61732F436F6D6D6F6E536368656D612E786D6C504B010214001400060808
311
0033806A482CCEBD668A040000E01200003E000000000000000000000000008D04000041313142384543302D323137372D343434362D383033332D4545463039424634333243452F536368656D61732F47656E65726963536368656D612E786D6C504B0102140014000608080033806A486180134D5F0100006B0300004500
311
0000000000000000000000007309000041313142384543302D323137372D343434362D383033332D4545463039424634333243452F536368656D61732F52656E6465724D6174657269616C536368656D612E786D6C504B0102140014000608080033806A48E83A5A5B51000000570000004700000000000000000000000000
311
350B000041313142384543302D323137372D343434362D383033332D4545463039424634333243452F4173736574446174612F41737365745461626C654F66436F6E74656E74732E62696E504B0102140014000608080033806A48F865834058000000680000004500000000000000000000000000EB0B0000413131423845
311
43302D323137372D343434362D383033332D4545463039424634333243452F4173736574446174612F53747265616D56657273696F6E5461626C652E696E66504B0102140014000608080033806A481E888E39340100009A0400003600000000000000000000000000A60C000041313142384543302D323137372D34343436
311
2D383033332D4545463039424634333243452F4173736574446174612F636E782E786D6C504B0102140014000608080033806A4808070BEC080100004F03000034000000000000000000000000002E0E000041313142384543302D323137372D343434362D383033332D4545463039424634333243452F536368656D61732F
311
636E782E786D6C504B0102140014000608080033806A48410A3D5871000000A40000002C00000000000000000000000000880F000041313142384543302D323137372D343434362D383033332D4545463039424634333243452F636E782E786D6C504B0102140014000608080033806A486C78CC067E000000A30000000700
311
00000000000000000000000043100000636E782E786D6C504B0102140014000608080033806A4816E99B5DA6000000350100001300000000000000000000000000E61000005B436F6E74656E745F54797065735D2E786D6C504B0102140014000608080033806A483DEE336E64000000790000001B00000000000000000000
311
000000BD1100006175746F6465736B2D64657369676E2D7061636B6167652E786D6C504B0102140014000608080033806A48FFE7B7AEF80000009601000037000000000000000000000000005A12000041313142384543302D323137372D343434362D383033332D4545463039424634333243452F4173736574446174612F
311
636F72652E786D6C504B0102140014000608080033806A48B38929F4F6000000940100003500000000000000000000000000A713000041313142384543302D323137372D343434362D383033332D4545463039424634333243452F536368656D61732F636F72652E786D6C504B0102140014000608080033806A489039353E
311
01010000D70100002D00000000000000000000000000F014000041313142384543302D323137372D343434362D383033332D4545463039424634333243452F636F72652E786D6C504B0102140014000608080033806A489C877E8606010000B201000008000000000000000000000000003C160000636F72652E786D6C504B
311
050600000000110011005A060000681700000000
310
504B030414000608080033806A48000000000000000000000000370000006662782F33314636303134412D443130422D343341412D424238342D3630323632333830434144312F617474726962757465732E62696E504B030414000608080033806A48000000000000000000000000350000006662782F3331463630313441
310
2D443130422D343341412D424238342D3630323632333830434144312F76657274696365732E62696E504B030414000608080033806A48F270F1330600000004000000360000006662782F33314636303134412D443130422D343341412D424238342D3630323632333830434144312F747269616E676C65732E62696E6366
310
60600000504B030414000608080033806A4851464CB48900000043010000360000006662782F33314636303134412D443130422D343341412D424238342D3630323632333830434144312F6469726563746F72792E786D6C9D8F310EC2300C45AF127987122606C71DD918B841D4B851A43646695A717C52A85029031293A5
310
A76FBF6FACEF7DA7264E43906840EF0FA03836E242F406C6DCEE4EA06AC22492573150D1F66C60C640E8938CB705396EEDD86DE9B5042FE27813D640EA63BB001C722AF6E55CB61E4863F58284D5D3F53DD715CE1C3985E63FD7F1B7EBDD617E9F1E504B030414000608080033806A489DD9024D300700001A1C0000340000
310
006662782F33314636303134412D443130422D343341412D424238342D3630323632333830434144312F6F626A656374732E786D6CDD59598FE23810FE2B56F6991C5C03239A1147D342AB39346856FB1699C4D0DE760E39491FFBEBB7ECD8214E0748CF218D96969AE038E5AAAFEECAECC373C4D023E1194DE21BCBB35D0B
310
913848421A1F6FAC223FF42616FA3047339E24796D9F85621C911B4B2C5BF3D9912745AA964272C0056BAE6E967FA32C2031B150C07096DD5859704F226CE3224F42923DD821CEB17D3C3CDB9E5D6E34C91E394EEF1B47A59893380756613D062A8A03CFFC092239F399233618DB06DDB6F52F6C73A4E026A334CE721C07AF
310
B86A1CD73FC355E3B881375CDFF647D3DE68381CF486E3BED75B6E96EB9EF76EE0AEC6ABD574713BB5D07CB64F125629202571085A7CB1E6DECC11772AF1150A6D7C07491C9340A1D9B621248A2E2559131303584F8A565348296B6D61D051F833DB3A8162B064A0AD85D3DF75EB4DF6FF000859172BE51911569EE51C74AD
310
B02FFDC19D39E5AAA1179AA108E78453CC10A37B8E392808B6960A32C8086F11A490C04C6A51D3ABF30A867DDD97DAB83C148C09FFB5E6D2D37CF04792679233FA2FE127EEEBA7014F206D41E37CA284CD5F5220319D3972B1BC37E8AB9B2590E8C0F011AC05C4149B06FD065E2B110BB66B6BFEE766FFBC13F1A1FDF09427
310
29E1B9B03CE9CCCAEFB4066BA605C6D70194125753772754BE02F49F00F98A173403CD71FA3C7C1E6AD9398EB343C223D00E7251CF857F2E1297AFAE664EF5F01C2123569EC314DCF627616A88619C5D83743E7B04A34FF84009B70B30039BFE4863E1E760288825B004F1FEB07FB6E65B08A6B0084F6106D2C3DFCC119708
310
BE4A3A106F1A1A6A0BBF1D14A51DA6E967275DDD81CD701A54AA32643C87EFE8A7E0BB58EFFEDC15FC8003F25139F69A1C684C7348A6ED0C19A01B2EFF6DFB497AE41D4BF6989D9E36360570CC311171A3452D3BA51624F5029C88345C6A46AE7CA4E0ED8CE1982445A6D6DBE25490B084FBFB17BF74E1D6B3FED236501EA6
310
0CA0359641720F384D0526D65C69AB0A84764D50B030CC95051E4BADFAFB224A7D1C25452C42ED6B536CF201714658225095D4B4616BAFD564437A38141904AF56922B0348E5CF9A7069E14388636DFC7272E018926812FB147230384BEB09C60115789779CE083BF894B122F20F94411EF1239C9EA1DF51827AE67A202F4F
310
090F5B099A96A57D52DB90005C01AB41D2D9AA8CF94AA79C3C525166CA7CA6B381B143D5A1D67C78265D884CD102A8364669E68BCD74DC1FAEFBBDE578E8F5868BC9A4B75C4EDDDE60339CAEDCB53B7557B74D3E75B4AAE73B50A528730CFFCBEF8B681F63CAE086101B87E9FB0F327BDE38101A9DDBC5B2BF7EB759F6A6DE
310
6651566B93F1EAB6379C6C5670B0D7F7864B87932C29784032A7EFB8BE36C9343E9EE34A73F73A864259733DD9697D3585F91FC7D0664E3094F8BB06D12A76B514845D83A878B4194271F02052941F40D5D7EA3E8D20DAE4A32DCEBD312EBBF6C0951FCF9BF6DD697F321D57C67E3150CB737E38CEB5491040DF59E47E92E2
310
80E6ED09B5814BC738FDA6DC620FBC110274AAFFD52197F38C3AC4A7113E12FF804597D01218AF49D09AC38E2CC9321A934C7679AFAABF064DD78662CACCB92D4648333F2239FE1EFB936D43C3A62136331FFAD15C4C04AE56059541AB0EE41C45D1FD42E296F2BFF8198E525676BAD730F0FA1A02DDE3B4599C605A1CF108
310
F6E6E3DC7743220717D7A857ECEBFAA0556B4DEAD3EF267F061E5DD7FC4278F411DD4B277BE44DC5670241653CF206EFB422AE61A58FCA451FC70AE83C8317FF89D0E37DA742B39B4E6A255B5954E724823616E705EFE4AFE391FBEA2015171A0E513BE98DC5A1ECDF740707E8C906EE5C795B3B06EA501AC39CAB9320AFA4
310
683561A90B39D313A3AB37F8F54565D7A9FE70BCFCE51573DDF92239FCB98E0354CB650056D1C7A8A95BAB6EA31ECA9E701E4020DDC9EFDE123C2224E1A93133C8B595E8BA3EBD563D6F45408D60628B459CFD282ED8570CAA86EE3973EECAA2CD29D7B722B1D9309C3EF161306DD2FA7CB76B508195CE4F7F111891A70605
310
B5BA12DDF00552DFB6A79EBF414149F46D7BE1F1DFA2A3D00AAC8DD1601A9C258CC2509E84E84812C8DE3076E8D06DF08864322B83F1AA20A5DF087478FAB19CA9E678CFF4D3C13D86C13453BD5811C0501432E68DA5D6D11F3006159348399CB21FA00D5331CC4205A73716586C4EA1DBB2F730CE92C34349BD31AE04C7C6
310
F151E4FBF2A9EAF7E931810E44A5935CD59E2EB828C90C6782C23695EF09A0EA2B6FCC67DF2FBA6607E11C2EF7455E09735A3849A340D02F044AE160EAF7A0E07D8682E2B25C9E2DF71890749ACC5FB483926A2FC7FC28C7EB35BC17EB2F8E988C6F3FA3941547A1CE4BDDAF41A927BA6E569453A81918861233C5A2865CBD
310
77BEF0045E31456843C1089C55124549AC7E2CD42B2AB4BB87174EA1A3877DD0C0BBDEC891FDBF1AE8FB7B9C111B87D9032C8052391553D1125C43F5551CADA95EEB4268011E33F66FD7485545B5D9483DE00A60E4341F810B89B738C261EA1B6AA347F002E04ADE3C5DE88599C361FC3DFF0F504B03041400060808003380
310
6A4878BFBF6C3E01000046050000300000006662782F33314636303134412D443130422D343341412D424238342D3630323632333830434144312F636E782E786D6CCD94CF4A033110C65F65C97DFFC442D1924DC1834FE041BC65B3D335369B599259B16F6F52D3AA48C543A1BD85C937F0FD663E46ACDF475BBC810F065D
310
CB78D5B0029CC6DEB8A165336DCA5B56ACA5F088F44DC60AA74668592A3329068FF3944B3D6CD46C53D51AB7CD4545E44D3713045668AB426859D02F30AA4ACD843D846DD52B5215AF3C049CBD86D84F6684DCAF3D28829EC99B862FCB6651F2E6912F570D5F2DEE9E459D9452748836EB8D23F038151AE3C345338DA8D3B7
310
14B33759930898FC725675C6893AFE4B11A25B37641DEDA6A49B266BB4A238A61A35019551046A14F5A7588A3AF1FEA07EB87F3A38287AE34113FADD8506C04F0DE068AC8A49F81FFF5EF8373676AF11F752DB3E099B6D9D0DF590D610E3FA7BFF3145CA0DF6FA427F3476FECCC75342465F1FF2C1D79988EBFDC98B4B4F17
310
507E00504B030414000608080033806A48F97A500E7D000000A30000000B0000006662782F636E782E786D6C4D8C410AC3201405AF227F6FAB51C485266843EF111A13A446838DA5C7AF962CBA7A30BC19357CB680DE2EBF7C8A1AE8850072F191661F570DE558B00434F42AA774FCDD00C569731A1A865EAD3995FD44B35B
310
A6121A0D3E3E4FC8E85D10CA0D1E29B1983363B0B59263413AD131496E66A4D5B836A5CEAF57B7E5FB2F504B030414000608080033806A48A6D797065F0000008200000007000000636E782E786D6C4DCB3B0E80201045D1AD90E9FD7516806B51190811670C8A61F982B1B0BAC9C97B72CA7B1037C6D3332918DA1E04D2CA
310
C69353902EDB8C20262D23F3F59B81A079470595414B17391D1F19B4730A5583A7ED43BBE4025D9592775E5ADFFA01504B030414000608080033806A484FEB6A7CA0000000F4000000130000005B436F6E74656E745F54797065735D2E786D6C7D8F4B0EC2300C44AF1279DFA6B0400835ED02B8011730C16D239A8F121795
310
DB93D02D6269CFBC19BBED573B8B17C564BC53B0AB1B10E4B47F18372A5878A88E20FAAEBDBD032591BD2E299898C349CAA427B2986A1FC86565F0D122E7318E32A07EE24872DF3407A9BD63725C71C980AEBDD080CBCCE2BAE6F5D69B7110E7CD57AA146008B3D1C8F92C5954F993BB1BF787F39A89ABC491D09600F9FDA2
310
FB00504B030414000608080033806A483DEE336E64000000790000001B0000006175746F6465736B2D64657369676E2D7061636B6167652E786D6C35CBC10E83200C00D05F21DCA56CA76D41FC96062B120735B69A7DBE268BB7777961F8D5AF396893C2ADB70FE7ADA196782C2DF776D7A97B5933C430F15651E5469C55D7
310
0F80A4992A3ADC954792C525AE70A1E4D6AD9816CC044FEFDF01FE3FDE907802504B030414000608080033806A48D0389B11F9000000960100003B0000006662782F33314636303134412D443130422D343341412D424238342D3630323632333830434144312F7265736F75726365732F636F72652E786D6C8550CB6EC320
310
10FC156BEFD82638B48E3051D32A5FD0536F086F1C94182C1E553FBF10BB527BEA6957B333B3BB238E5FF3BDFA441F8CB303D0BA850AAD76A3B1D300295EC833544729BC73F1170D2AAB661CA0C020C5E45D5A36483B1BD116D4BA1137508580112A7DCFCD00415F7156B54A3133C2AD5E94BEA9096B5AAF3C295232E32635
310
63763317831EE4B93BED5FBBA71361BC7B211D7FEBC9E9DC71D2D37DCF39EB7A465BD114B114D1CC3FDBB547157104B96B29272D23B47DA7FCD0D203EB3F4453985284E8F3CFDBD2F21D488FC125AF3188669DFE714DCBF8BF6B3236B2DDE6BA2A02489A8F7C0CA4684A4AB93C22CCB5242ABF01504B030414000608080033
310
806A48AD7C16A1F0000000B1010000310000006662782F33314636303134412D443130422D343341412D424238342D3630323632333830434144312F636F72652E786D6C8D50CB6EC32010FC156BEFD8602CCB8D3091DDA85FD0536F08888B1283C5A3EAE71762576A6F392D9A9D6166879DBFD77BF5A57D30CE8E406A0C95
310
B6D22963971152BCA201AA3367DEB9F887069515AB1EA1C0C0D9E25DDA0E483A1BB52DA8754A1FA0084147A8E43D3F4608F253AFA216296646B8D59B9037B1E89AD43B8FB368D65FA9F45A44AD80B798F4085344F03BE94F989CE8CB076B0A93B3948C3AAC8CCAEEE66AB4074EC95B8F4937A10BC133EAE834A1791E3AD4E3
310
B66FE9805FA70B614D117316A2CF371F9F94EB9E95EFC27F99D3A69EC86C6CA4ED61B82B02F092E7B1E0AC2905E6F16837CF5236FF01504B030414000608080033806A484A01695554010000DD0200000C0000006662782F636F72652E786D6C8D52CB6E833010FC15E4BB0107424B641C35ADF2053DF5E618875A011B191B
310
E5F3BBE6219A431F4232D6ECEECCCEC8F478EFDA68947650465788C4298AA416A656BAA9907757FC8CA223A3D618F7AD0D459A77B24201468C36D6F87E8184D14EEA806A53CB05E4C3201D8A440B970A0DE253763CE6DE41C7708B7B2E6EBC913189E73E46BD57F532AA6A605357252D62E7FCB47FCD9F4E382BF2179C176F
310
253E9DF30297645F1645969719496912861975AA5BD58595DCC91AB15D4A0A9C6698A4EFA438A4E490951F34099D8C0ECE82E74534B843EC7AB9D364C61FF87C5FFFCDE79576D96EE19B2706C408AC3715184D423EF09BC27BCC1084213FC72FED6AE106D028853336874A6DFC561A79EB2550A7D1F4D164AE02F344F013CF
310
EE179EDF392028AE1B588D3BB85EBC0BEA8F3BF5D2E2D1DD236D6CC7DB6DB979C5EDDC841E2CADE3C2B4C6FE677AB5BA86998487C9BE00504B030414000608080033806A485CCF1A6305010000B201000008000000636F72652E786D6C8D50DD4EC320147E1572EE69CB606817CA62357B02AFBCC3C22A590B4DA18BBEBDB0
310
61A2775E1DF29DEF8F238E9FF384AE660DD6BB0E48D500326EF0DABAB1832D9EF123A0A314ABF7F1170D9053B3E920C320C5B8FA6D29D0E05D342EA3CE6B53401582898086293D3A08C3879955A5B69818E1522D6AB8A8D154A4BAF3A48876FE910EAB51D16890BB8670DC504C9A57C20F0D39D0F64DD49929C5B6595DA2AC
310
4EE9F66CCD0AF2C4FAFD337BE831E5EC0933FED2E2FEC4386EC9BEE59CB2969246D4592C45886BFA7331493D230AEA9A73457D5F49F1EEFD5408A99446DE4D5F2093435EFC29BD2DFA1FA5AD8B74570CEF8A0092A442B7450ACE174CE376DE34F3B5E537504B0102140014000608080033806A480000000000000000000000
310
003700000000000000000000000000000000006662782F33314636303134412D443130422D343341412D424238342D3630323632333830434144312F617474726962757465732E62696E504B0102140014000608080033806A480000000000000000000000003500000000000000000000000000550000006662782F333146
310
36303134412D443130422D343341412D424238342D3630323632333830434144312F76657274696365732E62696E504B0102140014000608080033806A48F270F13306000000040000003600000000000000000000000000A80000006662782F33314636303134412D443130422D343341412D424238342D36303236323338
310
30434144312F747269616E676C65732E62696E504B0102140014000608080033806A4851464CB489000000430100003600000000000000000000000000020100006662782F33314636303134412D443130422D343341412D424238342D3630323632333830434144312F6469726563746F72792E786D6C504B010214001400
310
0608080033806A489DD9024D300700001A1C00003400000000000000000000000000DF0100006662782F33314636303134412D443130422D343341412D424238342D3630323632333830434144312F6F626A656374732E786D6C504B0102140014000608080033806A4878BFBF6C3E01000046050000300000000000000000
310
0000000000610900006662782F33314636303134412D443130422D343341412D424238342D3630323632333830434144312F636E782E786D6C504B0102140014000608080033806A48F97A500E7D000000A30000000B00000000000000000000000000ED0A00006662782F636E782E786D6C504B0102140014000608080033
310
806A48A6D797065F000000820000000700000000000000000000000000930B0000636E782E786D6C504B0102140014000608080033806A484FEB6A7CA0000000F40000001300000000000000000000000000170C00005B436F6E74656E745F54797065735D2E786D6C504B0102140014000608080033806A483DEE336E6400
310
0000790000001B00000000000000000000000000E80C00006175746F6465736B2D64657369676E2D7061636B6167652E786D6C504B0102140014000608080033806A48D0389B11F9000000960100003B00000000000000000000000000850D00006662782F33314636303134412D443130422D343341412D424238342D3630
310
323632333830434144312F7265736F75726365732F636F72652E786D6C504B0102140014000608080033806A48AD7C16A1F0000000B10100003100000000000000000000000000D70E00006662782F33314636303134412D443130422D343341412D424238342D3630323632333830434144312F636F72652E786D6C504B01
310
02140014000608080033806A484A01695554010000DD0200000C00000000000000000000000000161000006662782F636F72652E786D6C504B0102140014000608080033806A485CCF1A6305010000B2010000080000000000000000000000000094110000636F72652E786D6C504B0506000000000E000E0080040000BF12
310
00000000
  0
XRECORD
  5
667B
102
{ACAD_REACTORS
330
6676
102
}
330
6676
100
AcDbXrecord
280
     1
270
     1
271
     1
  0
XRECORD
  5
667A
102
{ACAD_REACTORS
330
6676
102
}
330
6676
100
AcDbXrecord
280
     1
270
     1
271
     1
  0
XRECORD
  5
667C
102
{ACAD_REACTORS
330
6676
102
}
330
6676
100
AcDbXrecord
280
     1
270
     1
271
     1
  0
XRECORD
  5
6679
102
{ACAD_REACTORS
330
6676
102
}
330
6676
100
AcDbXrecord
280
     1
270
     1
271
     1
  0
XRECORD
  5
68C1
102
{ACAD_REACTORS
330
68C0
102
}
330
68C0
100
AcDbXrecord
280
     1
102
DISPLAYNAME
  1
Imperial24
102
FLAGS
 90
        0
  0
CELLSTYLEMAP
  5
68BF
102
{ACAD_REACTORS
330
686F
102
}
330
686F
100
AcDbCellStyleMap
 90
        3
300
CELLSTYLE
  1
TABLEFORMAT_BEGIN
 90
        5
170
     1
 91
        0
 92
    32768
 62
   257
 93
        1
300
CONTENTFORMAT
  1
CONTENTFORMAT_BEGIN
 90
        0
 91
        0
 92
      512
 93
        0
300

 40
0.0
140
1.0
 94
        5
 62
     0
340
11
144
0.25
309
CONTENTFORMAT_END
171
     1
301
MARGIN
  1
CELLMARGIN_BEGIN
 40
0.06
 40
0.06
 40
0.06
 40
0.06
 40
0.18
 40
0.18
309
CELLMARGIN_END
 94
        6
 95
        1
302
GRIDFORMAT
  1
GRIDFORMAT_BEGIN
 90
        0
 91
        1
 62
     0
 92
       -2
340
0
 93
        0
 40
0.045
309
GRIDFORMAT_END
 95
        2
302
GRIDFORMAT
  1
GRIDFORMAT_BEGIN
 90
        0
 91
        1
 62
     0
 92
       -2
340
0
 93
        0
 40
0.045
309
GRIDFORMAT_END
 95
        4
302
GRIDFORMAT
  1
GRIDFORMAT_BEGIN
 90
        0
 91
        1
 62
     0
 92
       -2
340
0
 93
        0
 40
0.045
309
GRIDFORMAT_END
 95
        8
302
GRIDFORMAT
  1
GRIDFORMAT_BEGIN
 90
        0
 91
        1
 62
     0
 92
       -2
340
0
 93
        0
 40
0.045
309
GRIDFORMAT_END
 95
       16
302
GRIDFORMAT
  1
GRIDFORMAT_BEGIN
 90
        0
 91
        1
 62
     0
 92
       -2
340
0
 93
        0
 40
0.045
309
GRIDFORMAT_END
 95
       32
302
GRIDFORMAT
  1
GRIDFORMAT_BEGIN
 90
        0
 91
        1
 62
     0
 92
       -2
340
0
 93
        0
 40
0.045
309
GRIDFORMAT_END
309
TABLEFORMAT_END
  1
CELLSTYLE_BEGIN
 90
        1
 91
        1
300
_TITLE
309
CELLSTYLE_END
300
CELLSTYLE
  1
TABLEFORMAT_BEGIN
 90
        5
170
     1
 91
        0
 92
        0
 62
   257
 93
        1
300
CONTENTFORMAT
  1
CONTENTFORMAT_BEGIN
 90
        0
 91
        0
 92
      512
 93
        0
300

 40
0.0
140
1.0
 94
        5
 62
     0
340
11
144
0.18
309
CONTENTFORMAT_END
171
     1
301
MARGIN
  1
CELLMARGIN_BEGIN
 40
0.06
 40
0.06
 40
0.06
 40
0.06
 40
0.18
 40
0.18
309
CELLMARGIN_END
 94
        6
 95
        1
302
GRIDFORMAT
  1
GRIDFORMAT_BEGIN
 90
        0
 91
        1
 62
     0
 92
       -2
340
0
 93
        0
 40
0.045
309
GRIDFORMAT_END
 95
        2
302
GRIDFORMAT
  1
GRIDFORMAT_BEGIN
 90
        0
 91
        1
 62
     0
 92
       -2
340
0
 93
        0
 40
0.045
309
GRIDFORMAT_END
 95
        4
302
GRIDFORMAT
  1
GRIDFORMAT_BEGIN
 90
        0
 91
        1
 62
     0
 92
       -2
340
0
 93
        0
 40
0.045
309
GRIDFORMAT_END
 95
        8
302
GRIDFORMAT
  1
GRIDFORMAT_BEGIN
 90
        0
 91
        1
 62
     0
 92
       -2
340
0
 93
        0
 40
0.045
309
GRIDFORMAT_END
 95
       16
302
GRIDFORMAT
  1
GRIDFORMAT_BEGIN
 90
        0
 91
        1
 62
     0
 92
       -2
340
0
 93
        0
 40
0.045
309
GRIDFORMAT_END
 95
       32
302
GRIDFORMAT
  1
GRIDFORMAT_BEGIN
 90
        0
 91
        1
 62
     0
 92
       -2
340
0
 93
        0
 40
0.045
309
GRIDFORMAT_END
309
TABLEFORMAT_END
  1
CELLSTYLE_BEGIN
 90
        2
 91
        1
300
_HEADER
309
CELLSTYLE_END
300
CELLSTYLE
  1
TABLEFORMAT_BEGIN
 90
        5
170
     1
 91
        0
 92
        0
 62
   257
 93
        1
300
CONTENTFORMAT
  1
CONTENTFORMAT_BEGIN
 90
        0
 91
        0
 92
      512
 93
        0
300

 40
0.0
140
1.0
 94
        2
 62
     0
340
11
144
0.18
309
CONTENTFORMAT_END
171
     1
301
MARGIN
  1
CELLMARGIN_BEGIN
 40
0.06
 40
0.06
 40
0.06
 40
0.06
 40
0.18
 40
0.18
309
CELLMARGIN_END
 94
        6
 95
        1
302
GRIDFORMAT
  1
GRIDFORMAT_BEGIN
 90
        0
 91
        1
 62
     0
 92
       -2
340
0
 93
        0
 40
0.045
309
GRIDFORMAT_END
 95
        2
302
GRIDFORMAT
  1
GRIDFORMAT_BEGIN
 90
        0
 91
        1
 62
     0
 92
       -2
340
0
 93
        0
 40
0.045
309
GRIDFORMAT_END
 95
        4
302
GRIDFORMAT
  1
GRIDFORMAT_BEGIN
 90
        0
 91
        1
 62
     0
 92
       -2
340
0
 93
        0
 40
0.045
309
GRIDFORMAT_END
 95
        8
302
GRIDFORMAT
  1
GRIDFORMAT_BEGIN
 90
        0
 91
        1
 62
     0
 92
       -2
340
0
 93
        0
 40
0.045
309
GRIDFORMAT_END
 95
       16
302
GRIDFORMAT
  1
GRIDFORMAT_BEGIN
 90
        0
 91
        1
 62
     0
 92
       -2
340
0
 93
        0
 40
0.045
309
GRIDFORMAT_END
 95
       32
302
GRIDFORMAT
  1
GRIDFORMAT_BEGIN
 90
        0
 91
        1
 62
     0
 92
       -2
340
0
 93
        0
 40
0.045
309
GRIDFORMAT_END
309
TABLEFORMAT_END
  1
CELLSTYLE_BEGIN
 90
        3
 91
        2
300
_DATA
309
CELLSTYLE_END
  0
ENDSEC
  0
EOF
