  0
SECTION
  2
HEADER
  9
$ACADVER
  1
AC1027
  9
$ACADMAINTVER
 70
    55
  9
$DWGCODEPAGE
  3
ANSI_932
  9
$LASTSAVEDBY
  1
marketing
  9
$REQUIREDVERSIONS
160
                 0
  9
$INSBASE
 10
0.0
 20
0.0
 30
0.0
  9
$EXTMIN
 10
-83.96411608460175
 20
-369.1241318636983
 30
-0.0000000349181948
  9
$EXTMAX
 10
381.9128178551123
 20
280.2548651933869
 30
0.0000000814935747
  9
$LIMMIN
 10
-296.316999476111
 20
-370.7034300441653
  9
$LIMMAX
 10
623.3128432133979
 20
328.6261559379898
  9
$ORTHOMODE
 70
     1
  9
$REGENMODE
 70
     1
  9
$FILLMODE
 70
     1
  9
$QTEXTMODE
 70
     0
  9
$MIRRTEXT
 70
     1
  9
$LTSCALE
 40
10.0
  9
$ATTMODE
 70
     1
  9
$TEXTSIZE
 40
5.0
  9
$TRACEWID
 40
0.05
  9
$TEXTSTYLE
  7
STANDARD1
  9
$CLAYER
  8
30
  9
$CELTYPE
  6
CONTINUOUS
  9
$CECOLOR
 62
   256
  9
$CELTSCALE
 40
1.0
  9
$DISPSILH
 70
     0
  9
$DIMSCALE
 40
1.0
  9
$DIMASZ
 40
2.0
  9
$DIMEXO
 40
1.0
  9
$DIMDLI
 40
0.5
  9
$DIMRND
 40
0.0
  9
$DIMDLE
 40
0.0
  9
$DIMEXE
 40
0.5
  9
$DIMTP
 40
0.0
  9
$DIMTM
 40
0.0
  9
$DIMTXT
 40
4.0
  9
$DIMCEN
 40
0.09
  9
$DIMTSZ
 40
0.0
  9
$DIMTOL
 70
     0
  9
$DIMLIM
 70
     0
  9
$DIMTIH
 70
     0
  9
$DIMTOH
 70
     1
  9
$DIMSE1
 70
     0
  9
$DIMSE2
 70
     0
  9
$DIMTAD
 70
     3
  9
$DIMZIN
 70
    12
  9
$DIMBLK
  1
OPEN
  9
$DIMASO
 70
     1
  9
$DIMSHO
 70
     1
  9
$DIMPOST
  1

  9
$DIMAPOST
  1

  9
$DIMALT
 70
     0
  9
$DIMALTD
 70
     2
  9
$DIMALTF
 40
25.4
  9
$DIMLFAC
 40
1.0
  9
$DIMTOFL
 70
     0
  9
$DIMTVP
 40
0.0
  9
$DIMTIX
 70
     0
  9
$DIMSOXD
 70
     0
  9
$DIMSAH
 70
     0
  9
$DIMBLK1
  1

  9
$DIMBLK2
  1

  9
$DIMSTYLE
  2
STANDARD
  9
$DIMCLRD
 70
     0
  9
$DIMCLRE
 70
     0
  9
$DIMCLRT
 70
     0
  9
$DIMTFAC
 40
1.0
  9
$DIMGAP
 40
1.0
  9
$DIMJUST
 70
     0
  9
$DIMSD1
 70
     0
  9
$DIMSD2
 70
     0
  9
$DIMTOLJ
 70
     1
  9
$DIMTZIN
 70
     0
  9
$DIMALTZ
 70
     0
  9
$DIMALTTZ
 70
     0
  9
$DIMUPT
 70
     0
  9
$DIMDEC
 70
     1
  9
$DIMTDEC
 70
     1
  9
$DIMALTU
 70
     2
  9
$DIMALTTD
 70
     2
  9
$DIMTXSTY
  7
STANDARD
  9
$DIMAUNIT
 70
     0
  9
$DIMADEC
 70
     0
  9
$DIMALTRND
 40
0.0
  9
$DIMAZIN
 70
     3
  9
$DIMDSEP
 70
    46
  9
$DIMATFIT
 70
     3
  9
$DIMFRAC
 70
     0
  9
$DIMLDRBLK
  1
OPEN
  9
$DIMLUNIT
 70
     2
  9
$DIMLWD
 70
    -2
  9
$DIMLWE
 70
    -2
  9
$DIMTMOVE
 70
     0
  9
$DIMFXL
 40
1.0
  9
$DIMFXLON
 70
     0
  9
$DIMJOGANG
 40
0.7853981633974483
  9
$DIMTFILL
 70
     0
  9
$DIMTFILLCLR
 70
     0
  9
$DIMARCSYM
 70
     0
  9
$DIMLTYPE
  6

  9
$DIMLTEX1
  6

  9
$DIMLTEX2
  6

  9
$DIMTXTDIRECTION
 70
     0
  9
$LUNITS
 70
     2
  9
$LUPREC
 70
     4
  9
$SKETCHINC
 40
0.1
  9
$FILLETRAD
 40
0.0
  9
$AUNITS
 70
     0
  9
$AUPREC
 70
     0
  9
$MENU
  1
.
  9
$ELEVATION
 40
0.0
  9
$PELEVATION
 40
0.0
  9
$THICKNESS
 40
0.0
  9
$LIMCHECK
 70
     0
  9
$CHAMFERA
 40
0.0
  9
$CHAMFERB
 40
0.0
  9
$CHAMFERC
 40
0.0
  9
$CHAMFERD
 40
0.0
  9
$SKPOLY
 70
     0
  9
$TDCREATE
 40
2452286.555658658
  9
$TDUCREATE
 40
2452286.180658658
  9
$TDUPDATE
 40
2459278.601884491
  9
$TDUUPDATE
 40
2459278.226884491
  9
$TDINDWG
 40
1.2417403472
  9
$TDUSRTIMER
 40
1.2417393981
  9
$USRTIMER
 70
     1
  9
$ANGBASE
 50
0.0
  9
$ANGDIR
 70
     0
  9
$PDMODE
 70
     0
  9
$PDSIZE
 40
0.0
  9
$PLINEWID
 40
0.0
  9
$SPLFRAME
 70
     0
  9
$SPLINETYPE
 70
     6
  9
$SPLINESEGS
 70
     8
  9
$HANDSEED
  5
6E77
  9
$SURFTAB1
 70
     6
  9
$SURFTAB2
 70
     6
  9
$SURFTYPE
 70
     6
  9
$SURFU
 70
     6
  9
$SURFV
 70
     6
  9
$UCSBASE
  2

  9
$UCSNAME
  2

  9
$UCSORG
 10
0.0
 20
0.0
 30
0.0
  9
$UCSXDIR
 10
1.0
 20
0.0
 30
0.0
  9
$UCSYDIR
 10
0.0
 20
1.0
 30
0.0
  9
$UCSORTHOREF
  2

  9
$UCSORTHOVIEW
 70
     0
  9
$UCSORGTOP
 10
0.0
 20
0.0
 30
0.0
  9
$UCSORGBOTTOM
 10
0.0
 20
0.0
 30
0.0
  9
$UCSORGLEFT
 10
0.0
 20
0.0
 30
0.0
  9
$UCSORGRIGHT
 10
0.0
 20
0.0
 30
0.0
  9
$UCSORGFRONT
 10
0.0
 20
0.0
 30
0.0
  9
$UCSORGBACK
 10
0.0
 20
0.0
 30
0.0
  9
$PUCSBASE
  2

  9
$PUCSNAME
  2

  9
$PUCSORG
 10
0.0
 20
0.0
 30
0.0
  9
$PUCSXDIR
 10
1.0
 20
0.0
 30
0.0
  9
$PUCSYDIR
 10
0.0
 20
1.0
 30
0.0
  9
$PUCSORTHOREF
  2

  9
$PUCSORTHOVIEW
 70
     0
  9
$PUCSORGTOP
 10
0.0
 20
0.0
 30
0.0
  9
$PUCSORGBOTTOM
 10
0.0
 20
0.0
 30
0.0
  9
$PUCSORGLEFT
 10
0.0
 20
0.0
 30
0.0
  9
$PUCSORGRIGHT
 10
0.0
 20
0.0
 30
0.0
  9
$PUCSORGFRONT
 10
0.0
 20
0.0
 30
0.0
  9
$PUCSORGBACK
 10
0.0
 20
0.0
 30
0.0
  9
$USERI1
 70
     0
  9
$USERI2
 70
     0
  9
$USERI3
 70
     0
  9
$USERI4
 70
     0
  9
$USERI5
 70
     0
  9
$USERR1
 40
0.0
  9
$USERR2
 40
0.0
  9
$USERR3
 40
0.0
  9
$USERR4
 40
0.0
  9
$USERR5
 40
0.0
  9
$WORLDVIEW
 70
     1
  9
$SHADEDGE
 70
     3
  9
$SHADEDIF
 70
    70
  9
$TILEMODE
 70
     1
  9
$MAXACTVP
 70
    48
  9
$PINSBASE
 10
0.0
 20
0.0
 30
0.0
  9
$PLIMCHECK
 70
     0
  9
$PEXTMIN
 10
4.273573
 20
5.205245999999998
 30
0.0
  9
$PEXTMAX
 10
194.610095
 20
283.0697009999996
 30
0.0
  9
$PLIMMIN
 10
-5.873749
 20
-5.87375
  9
$PLIMMAX
 10
204.099579
 20
291.1369009999999
  9
$UNITMODE
 70
     0
  9
$VISRETAIN
 70
     1
  9
$PLINEGEN
 70
     0
  9
$PSLTSCALE
 70
     1
  9
$TREEDEPTH
 70
  3020
  9
$CMLSTYLE
  2
STANDARD
  9
$CMLJUST
 70
     0
  9
$CMLSCALE
 40
1.0
  9
$PROXYGRAPHICS
 70
     1
  9
$MEASUREMENT
 70
     0
  9
$CELWEIGHT
370
    -1
  9
$ENDCAPS
280
     0
  9
$JOINSTYLE
280
     0
  9
$LWDISPLAY
290
     0
  9
$INSUNITS
 70
     0
  9
$HYPERLINKBASE
  1

  9
$STYLESHEET
  1
MONOCHROME.CTB
  9
$XEDIT
290
     1
  9
$CEPSNTYPE
380
     0
  9
$PSTYLEMODE
290
     1
  9
$FINGERPRINTGUID
  2

  9
$VERSIONGUID
  2
{AAE24E4B-D61E-4480-8ED7-0B19E90D7AD8}
  9
$EXTNAMES
290
     1
  9
$PSVPSCALE
 40
0.0
  9
$OLESTARTUP
290
     0
  9
$SORTENTS
280
   127
  9
$INDEXCTL
280
     0
  9
$HIDETEXT
280
     0
  9
$XCLIPFRAME
280
     2
  9
$HALOGAP
280
     0
  9
$OBSCOLOR
 70
   257
  9
$OBSLTYPE
280
     0
  9
$INTERSECTIONDISPLAY
280
     0
  9
$INTERSECTIONCOLOR
 70
   257
  9
$DIMASSOC
280
     1
  9
$PROJECTNAME
  1

  9
$CAMERADISPLAY
290
     0
  9
$LENSLENGTH
 40
50.0
  9
$CAMERAHEIGHT
 40
0.0
  9
$STEPSPERSEC
 40
2.0
  9
$STEPSIZE
 40
6.0
  9
$3DDWFPREC
 40
2.0
  9
$PSOLWIDTH
 40
0.25
  9
$PSOLHEIGHT
 40
4.0
  9
$LOFTANG1
 40
1.570796326794896
  9
$LOFTANG2
 40
1.570796326794896
  9
$LOFTMAG1
 40
0.0
  9
$LOFTMAG2
 40
0.0
  9
$LOFTPARAM
 70
     7
  9
$LOFTNORMALS
280
     1
  9
$LATITUDE
 40
37.795
  9
$LONGITUDE
 40
-122.394
  9
$NORTHDIRECTION
 40
0.0
  9
$TIMEZONE
 70
 -8000
  9
$LIGHTGLYPHDISPLAY
280
     1
  9
$TILEMODELIGHTSYNCH
280
     1
  9
$CMATERIAL
347
6C29
  9
$SOLIDHIST
280
     0
  9
$SHOWHIST
280
     1
  9
$DWFFRAME
280
     2
  9
$DGNFRAME
280
     0
  9
$REALWORLDSCALE
290
     1
  9
$INTERFERECOLOR
 62
     1
  9
$INTERFEREOBJVS
345
6C4B
  9
$INTERFEREVPVS
346
6C48
  9
$CSHADOW
280
     0
  9
$SHADOWPLANELOCATION
 40
0.0
  0
ENDSEC
  0
SECTION
  2
CLASSES
  0
CLASS
  1
ACDBDICTIONARYWDFLT
  2
AcDbDictionaryWithDefault
  3
ObjectDBX Classes
 90
        0
 91
        1
280
     0
281
     0
  0
CLASS
  1
DICTIONARYVAR
  2
AcDbDictionaryVar
  3
ObjectDBX Classes
 90
        0
 91
       13
280
     0
281
     0
  0
CLASS
  1
MATERIAL
  2
AcDbMaterial
  3
ObjectDBX Classes
 90
     1153
 91
        3
280
     0
281
     0
  0
CLASS
  1
VISUALSTYLE
  2
AcDbVisualStyle
  3
ObjectDBX Classes
 90
     4095
 91
       24
280
     0
281
     0
  0
CLASS
  1
TABLESTYLE
  2
AcDbTableStyle
  3
ObjectDBX Classes
 90
     4095
 91
        1
280
     0
281
     0
  0
CLASS
  1
SCALE
  2
AcDbScale
  3
ObjectDBX Classes
 90
     1153
 91
       17
280
     0
281
     0
  0
CLASS
  1
MLEADERSTYLE
  2
AcDbMLeaderStyle
  3
ACDB_MLEADERSTYLE_CLASS
 90
     4095
 91
        1
280
     0
281
     0
  0
CLASS
  1
ACDBSECTIONVIEWSTYLE
  2
AcDbSectionViewStyle
  3
ObjectDBX Classes
 90
     1025
 91
        1
280
     0
281
     0
  0
CLASS
  1
ACDBDETAILVIEWSTYLE
  2
AcDbDetailViewStyle
  3
ObjectDBX Classes
 90
     1025
 91
        1
280
     0
281
     0
  0
CLASS
  1
CELLSTYLEMAP
  2
AcDbCellStyleMap
  3
ObjectDBX Classes
 90
     1152
 91
        2
280
     0
281
     0
  0
ENDSEC
  0
SECTION
  2
TABLES
  0
TABLE
  2
VPORT
  5
8
330
0
100
AcDbSymbolTable
 70
     1
  0
VPORT
  5
6C20
330
8
100
AcDbSymbolTableRecord
100
AcDbViewportTableRecord
  2
*Active
 70
     0
 10
0.0
 20
0.0
 11
1.0
 21
1.0
 12
148.9743508852552
 22
-44.43463333515569
 13
0.0
 23
0.0
 14
1.0
 24
1.0
 15
10.0
 25
10.0
 16
0.0
 26
0.0
 36
1.0
 17
0.0
 27
0.0
 37
0.0
 40
654.0733030599073
 41
2.289505428226779
 42
50.0
 43
0.0
 44
0.0
 50
0.0
 51
0.0
 71
     0
 72
   100
 73
     1
 74
     1
 75
     1
 76
     0
 77
     0
 78
     0
281
     0
 65
     1
110
0.0
120
0.0
130
0.0
111
1.0
121
0.0
131
0.0
112
0.0
122
1.0
132
0.0
 79
     0
146
0.0
348
6C47
 60
     3
 61
     5
292
     1
282
     1
141
0.0
142
0.0
 63
   250
421
  3355443
1001
ACAD_NAV_VCDISPLAY
1070
     3
  0
ENDTAB
  0
TABLE
  2
LTYPE
  5
5
330
0
100
AcDbSymbolTable
 70
     6
  0
LTYPE
  5
13
330
5
100
AcDbSymbolTableRecord
100
AcDbLinetypeTableRecord
  2
BYBLOCK
 70
     0
  3

 72
    65
 73
     0
 40
0.0
  0
LTYPE
  5
14
330
5
100
AcDbSymbolTableRecord
100
AcDbLinetypeTableRecord
  2
BYLAYER
 70
     0
  3

 72
    65
 73
     0
 40
0.0
  0
LTYPE
  5
15
330
5
100
AcDbSymbolTableRecord
100
AcDbLinetypeTableRecord
  2
CONTINUOUS
 70
     0
  3
Solid line
 72
    65
 73
     0
 40
0.0
  0
LTYPE
  5
22
330
5
100
AcDbSymbolTableRecord
100
AcDbLinetypeTableRecord
  2
CONTINOUS
 70
     0
  3
Solid line
 72
    65
 73
     0
 40
0.0
  0
LTYPE
  5
23
330
5
100
AcDbSymbolTableRecord
100
AcDbLinetypeTableRecord
  2
DASHED
 70
     0
  3
__ __ __ __ __ __ __ __ __ __ __ __ __ __ __
 72
    65
 73
     2
 40
0.75
 49
0.5
 74
     0
 49
-0.25
 74
     0
  0
LTYPE
  5
24
330
5
100
AcDbSymbolTableRecord
100
AcDbLinetypeTableRecord
  2
DASHDOT
 70
     0
  3
__ . __ . __ . __ . __ . __ . __ . __ . __ . __
 72
    65
 73
     4
 40
1.0
 49
0.5
 74
     0
 49
-0.25
 74
     0
 49
0.0
 74
     0
 49
-0.25
 74
     0
  0
LTYPE
  5
4C47
330
5
100
AcDbSymbolTableRecord
100
AcDbLinetypeTableRecord
  2
DIVIDE
 70
     0
  3
Divide ____ . . ____ . . ____ . . ____ . . ____
 72
    65
 73
     6
 40
1.25
 49
0.5
 74
     0
 49
-0.25
 74
     0
 49
0.0
 74
     0
 49
-0.25
 74
     0
 49
0.0
 74
     0
 49
-0.25
 74
     0
  0
ENDTAB
  0
TABLE
  2
LAYER
  5
2
330
0
100
AcDbSymbolTable
 70
    13
  0
LAYER
  5
10
102
{ACAD_XDICTIONARY
360
6DB4
102
}
330
2
100
AcDbSymbolTableRecord
100
AcDbLayerTableRecord
  2
0
 70
     0
 62
     7
  6
CONTINOUS
370
    -3
390
F
347
6C39
348
0
  0
LAYER
  5
2F
102
{ACAD_XDICTIONARY
360
6DB6
102
}
330
2
100
AcDbSymbolTableRecord
100
AcDbLayerTableRecord
  2
10
 70
     0
 62
     4
  6
CONTINOUS
370
    -3
390
F
347
6C39
348
0
  0
LAYER
  5
31
102
{ACAD_XDICTIONARY
360
6DB8
102
}
330
2
100
AcDbSymbolTableRecord
100
AcDbLayerTableRecord
  2
12
 70
     0
 62
     3
  6
CONTINOUS
370
    -3
390
F
347
6C39
348
0
  0
LAYER
  5
35
102
{ACAD_XDICTIONARY
360
6DBA
102
}
330
2
100
AcDbSymbolTableRecord
100
AcDbLayerTableRecord
  2
16
 70
     0
 62
     6
  6
DASHDOT
370
    -3
390
F
347
6C39
348
0
  0
LAYER
  5
38
102
{ACAD_XDICTIONARY
360
6DBC
102
}
330
2
100
AcDbSymbolTableRecord
100
AcDbLayerTableRecord
  2
19
 70
     0
 62
     7
  6
CONTINOUS
370
    -3
390
F
347
6C39
348
0
  0
LAYER
  5
3C
102
{ACAD_XDICTIONARY
360
6DBE
102
}
330
2
100
AcDbSymbolTableRecord
100
AcDbLayerTableRecord
  2
11
 70
     0
 62
     1
  6
CONTINOUS
370
    -3
390
F
347
6C39
348
0
  0
LAYER
  5
3D
102
{ACAD_XDICTIONARY
360
6DC0
102
}
330
2
100
AcDbSymbolTableRecord
100
AcDbLayerTableRecord
  2
24
 70
     0
 62
     2
  6
CONTINOUS
370
    -3
390
F
347
6C39
348
0
  0
LAYER
  5
3A2
102
{ACAD_XDICTIONARY
360
6DC2
102
}
330
2
100
AcDbSymbolTableRecord
100
AcDbLayerTableRecord
  2
30
 70
     0
 62
     9
  6
CONTINUOUS
370
    -3
390
F
347
6C39
348
0
  0
LAYER
  5
3A4
330
2
100
AcDbSymbolTableRecord
100
AcDbLayerTableRecord
  2
DEFPOINTS
 70
     0
 62
     7
  6
CONTINUOUS
290
     0
370
    -3
390
F
347
6C39
348
0
  0
LAYER
  5
3BBA
102
{ACAD_XDICTIONARY
360
6DC4
102
}
330
2
100
AcDbSymbolTableRecord
100
AcDbLayerTableRecord
  2
18
 70
     0
 62
     5
  6
DIVIDE
370
    -3
390
F
347
6C39
348
0
  0
LAYER
  5
5116
102
{ACAD_XDICTIONARY
360
6DC6
102
}
330
2
100
AcDbSymbolTableRecord
100
AcDbLayerTableRecord
  2
1
 70
     0
 62
     7
  6
CONTINUOUS
370
    -3
390
F
347
6C39
348
0
  0
LAYER
  5
5117
102
{ACAD_XDICTIONARY
360
6DC8
102
}
330
2
100
AcDbSymbolTableRecord
100
AcDbLayerTableRecord
  2
TOP
 70
     0
 62
     7
  6
CONTINUOUS
370
    -3
390
F
347
6C39
348
0
  0
LAYER
  5
5C47
102
{ACAD_XDICTIONARY
360
6DCA
102
}
330
2
100
AcDbSymbolTableRecord
100
AcDbLayerTableRecord
  2
17
 70
     0
 62
     2
  6
DASHDOT
370
    -3
390
F
347
6C39
348
0
  0
ENDTAB
  0
TABLE
  2
STYLE
  5
3
330
0
100
AcDbSymbolTable
 70
     3
  0
STYLE
  5
11
330
3
100
AcDbSymbolTableRecord
100
AcDbTextStyleTableRecord
  2
STANDARD
 70
     0
 40
0.0
 41
1.0
 50
0.0
 71
     0
 42
2.0
  3
txt.shx
  4
bigfont.shx
  0
STYLE
  5
42
330
3
100
AcDbSymbolTableRecord
100
AcDbTextStyleTableRecord
  2
STANDARD1
 70
     0
 40
0.0
 41
1.0
 50
0.0
 71
     0
 42
5.0
  3
MONOTXT
  4
BIGFONT
  0
STYLE
  5
5016
330
3
100
AcDbSymbolTableRecord
100
AcDbTextStyleTableRecord
  2
UGMTXT
 70
     0
 40
0.0
 41
1.0
 50
0.0
 71
     0
 42
0.2
  3
ugmtxt
  4
bigfont
  0
ENDTAB
  0
TABLE
  2
VIEW
  5
6
330
0
100
AcDbSymbolTable
 70
     3
  0
VIEW
  5
230C
330
6
100
AcDbSymbolTableRecord
100
AcDbViewTableRecord
  2
OLE1
 70
     0
 40
148.912488
 10
429.497628
 20
2.560627
 41
103.145806
 11
0.0
 21
0.0
 31
1.0
 12
0.0
 22
0.0
 32
0.0
 42
50.0
 43
0.0
 44
0.0
 50
0.0
 71
     0
281
     0
 72
     0
 73
     0
348
6C47
  0
VIEW
  5
230E
330
6
100
AcDbSymbolTableRecord
100
AcDbViewTableRecord
  2
OLE2
 70
     0
 40
170.778692
 10
322.66497
 20
-5.978304
 41
102.467215
 11
0.0
 21
0.0
 31
1.0
 12
0.0
 22
0.0
 32
0.0
 42
50.0
 43
0.0
 44
0.0
 50
0.0
 71
     0
281
     0
 72
     0
 73
     0
348
6C47
  0
VIEW
  5
23AA
330
6
100
AcDbSymbolTableRecord
100
AcDbViewTableRecord
  2
OLE3
 70
     0
 40
591.7897389999998
 10
84.79698199999999
 20
-46.09335999999998
 41
388.792096
 11
0.0
 21
0.0
 31
1.0
 12
0.0
 22
0.0
 32
0.0
 42
50.0
 43
0.0
 44
0.0
 50
0.0
 71
     0
281
     0
 72
     0
 73
     0
348
6C47
  0
ENDTAB
  0
TABLE
  2
UCS
  5
7
330
0
100
AcDbSymbolTable
 70
     0
  0
ENDTAB
  0
TABLE
  2
APPID
  5
9
330
0
100
AcDbSymbolTable
 70
     6
  0
APPID
  5
12
330
9
100
AcDbSymbolTableRecord
100
AcDbRegAppTableRecord
  2
ACAD
 70
     0
  0
APPID
  5
ECD
330
9
100
AcDbSymbolTableRecord
100
AcDbRegAppTableRecord
  2
CONTENTBLOCKICON
 70
     0
  0
APPID
  5
6CBF
330
9
100
AcDbSymbolTableRecord
100
AcDbRegAppTableRecord
  2
ACAD_PSEXT
 70
     0
  0
APPID
  5
6CC0
330
9
100
AcDbSymbolTableRecord
100
AcDbRegAppTableRecord
  2
ACAD_NAV_VCDISPLAY
 70
     0
  0
APPID
  5
6E5E
330
9
100
AcDbSymbolTableRecord
100
AcDbRegAppTableRecord
  2
ACAD_MLEADERVER
 70
     0
  0
APPID
  5
6E6B
330
9
100
AcDbSymbolTableRecord
100
AcDbRegAppTableRecord
  2
ACAD_EXEMPT_FROM_CAD_STANDARDS
 70
     0
  0
ENDTAB
  0
TABLE
  2
DIMSTYLE
  5
A
330
0
100
AcDbSymbolTable
 70
     1
100
AcDbDimStyleTable
 71
     1
340
175
  0
DIMSTYLE
105
175
102
{ACAD_REACTORS
330
59D1
330
59D0
330
59B9
330
59D2
330
59C6
330
59BE
330
59FD
330
59F0
330
59BB
330
59BA
330
5E29
330
5E42
330
5E41
330
5E2A
330
5EF0
330
6157
330
619F
330
61AC
330
66A1
330
6780
330
676D
330
67E9
330
6D2D
330
6D2E
330
6D2F
330
6D30
330
6D31
330
6D32
102
}
330
A
100
AcDbSymbolTableRecord
100
AcDbDimStyleTableRecord
  2
STANDARD
 70
     0
 41
2.0
 42
1.0
 43
0.5
 44
0.5
 73
     0
 77
     3
 78
    12
140
4.0
147
1.0
271
     1
272
     1
340
11
341
3B2
342
3B2
  0
ENDTAB
  0
TABLE
  2
BLOCK_RECORD
  5
1
330
0
100
AcDbSymbolTable
 70
    49
  0
BLOCK_RECORD
  5
1E
102
{ACAD_XDICTIONARY
360
178
102
}
330
1
100
AcDbSymbolTableRecord
100
AcDbBlockTableRecord
  2
*MODEL_SPACE
340
6C1B
 70
     0
280
     1
281
     0
  0
BLOCK_RECORD
  5
1A
102
{ACAD_XDICTIONARY
360
17A
102
}
330
1
100
AcDbSymbolTableRecord
100
AcDbBlockTableRecord
  2
*PAPER_SPACE
340
6C1C
 70
     0
280
     1
281
     0
  0
BLOCK_RECORD
  5
3B2
330
1
100
AcDbSymbolTableRecord
100
AcDbBlockTableRecord
  2
_OPEN
340
0
102
{BLKREFS
331
6B24
331
6B25
331
6AEF
331
6AF0
331
6B49
331
6B4A
331
6B1B
331
6B1C
331
6B12
331
6B13
331
6B40
331
6B41
331
6B52
331
6B53
331
6B5D
331
6B5E
331
68A4
331
68A5
331
689B
331
689C
331
6892
331
6893
331
6B37
331
6889
331
688A
331
6948
331
6949
331
65B5
331
6877
331
6878
331
686E
331
686F
331
659A
331
659B
331
6591
331
6592
331
693F
331
6940
331
685C
331
685D
331
6C0E
331
6C0F
331
6AF8
331
6AF9
331
6B2E
331
6B2F
331
6C94
331
6C95
331
6C7C
331
6C7D
331
6CB8
331
6CB9
331
6CAC
331
6CAD
331
6C88
331
6C89
331
6B38
331
67C0
331
67C1
331
67C9
331
67CA
331
6B0A
331
6B01
331
6B02
331
67E3
331
67E4
331
6B66
331
6B67
331
6D81
331
6D82
331
6D8A
331
6D8B
331
6D93
331
6D94
331
6D9C
331
6D9D
331
6DA5
331
6DA6
331
6DAE
331
6DAF
331
6CA0
331
6CA1
102
}
 70
     0
280
     1
281
     0
  0
BLOCK_RECORD
  5
58CA
330
1
100
AcDbSymbolTableRecord
100
AcDbBlockTableRecord
  2
*U1
340
0
102
{BLKREFS
331
59F3
102
}
 70
     0
280
     1
281
     0
  0
BLOCK_RECORD
  5
58CE
330
1
100
AcDbSymbolTableRecord
100
AcDbBlockTableRecord
  2
*U2
340
0
102
{BLKREFS
331
59F2
102
}
 70
     0
280
     1
281
     0
  0
BLOCK_RECORD
  5
58DA
330
1
100
AcDbSymbolTableRecord
100
AcDbBlockTableRecord
  2
*U3
340
0
 70
     0
280
     1
281
     0
  0
BLOCK_RECORD
  5
58DE
330
1
100
AcDbSymbolTableRecord
100
AcDbBlockTableRecord
  2
*U4
340
0
102
{BLKREFS
331
59F1
102
}
 70
     0
280
     1
281
     0
  0
BLOCK_RECORD
  5
58E2
330
1
100
AcDbSymbolTableRecord
100
AcDbBlockTableRecord
  2
*U5
340
0
 70
     0
280
     1
281
     0
  0
BLOCK_RECORD
  5
5A00
330
1
100
AcDbSymbolTableRecord
100
AcDbBlockTableRecord
  2
*D6
340
0
 70
     0
280
     1
281
     0
  0
BLOCK_RECORD
  5
5A0C
330
1
100
AcDbSymbolTableRecord
100
AcDbBlockTableRecord
  2
*D7
340
0
 70
     0
280
     1
281
     0
  0
BLOCK_RECORD
  5
5A19
330
1
100
AcDbSymbolTableRecord
100
AcDbBlockTableRecord
  2
*D8
340
0
 70
     0
280
     1
281
     0
  0
BLOCK_RECORD
  5
5A25
330
1
100
AcDbSymbolTableRecord
100
AcDbBlockTableRecord
  2
*D9
340
0
 70
     0
280
     1
281
     0
  0
BLOCK_RECORD
  5
5A31
330
1
100
AcDbSymbolTableRecord
100
AcDbBlockTableRecord
  2
*D10
340
0
 70
     0
280
     1
281
     0
  0
BLOCK_RECORD
  5
5A3D
330
1
100
AcDbSymbolTableRecord
100
AcDbBlockTableRecord
  2
*D11
340
0
 70
     0
280
     1
281
     0
  0
BLOCK_RECORD
  5
5A49
330
1
100
AcDbSymbolTableRecord
100
AcDbBlockTableRecord
  2
*D12
340
0
 70
     0
280
     1
281
     0
  0
BLOCK_RECORD
  5
5A55
330
1
100
AcDbSymbolTableRecord
100
AcDbBlockTableRecord
  2
*D13
340
0
 70
     0
280
     1
281
     0
  0
BLOCK_RECORD
  5
5A61
330
1
100
AcDbSymbolTableRecord
100
AcDbBlockTableRecord
  2
*D14
340
0
 70
     0
280
     1
281
     0
  0
BLOCK_RECORD
  5
5A6D
330
1
100
AcDbSymbolTableRecord
100
AcDbBlockTableRecord
  2
*D15
340
0
 70
     0
280
     1
281
     0
  0
BLOCK_RECORD
  5
5E7C
330
1
100
AcDbSymbolTableRecord
100
AcDbBlockTableRecord
  2
*D16
340
0
 70
     0
280
     1
281
     0
  0
BLOCK_RECORD
  5
5E88
330
1
100
AcDbSymbolTableRecord
100
AcDbBlockTableRecord
  2
*D17
340
0
 70
     0
280
     1
281
     0
  0
BLOCK_RECORD
  5
5E94
330
1
100
AcDbSymbolTableRecord
100
AcDbBlockTableRecord
  2
*D18
340
0
 70
     0
280
     1
281
     0
  0
BLOCK_RECORD
  5
5EA0
330
1
100
AcDbSymbolTableRecord
100
AcDbBlockTableRecord
  2
*D19
340
0
 70
     0
280
     1
281
     0
  0
BLOCK_RECORD
  5
5EF9
330
1
100
AcDbSymbolTableRecord
100
AcDbBlockTableRecord
  2
*D20
340
0
 70
     0
280
     1
281
     0
  0
BLOCK_RECORD
  5
5F2F
330
1
100
AcDbSymbolTableRecord
100
AcDbBlockTableRecord
  2
*D21
340
0
 70
     0
280
     1
281
     0
  0
BLOCK_RECORD
  5
5F6C
330
1
100
AcDbSymbolTableRecord
100
AcDbBlockTableRecord
  2
*D22
340
0
 70
     0
280
     1
281
     0
  0
BLOCK_RECORD
  5
5F79
330
1
100
AcDbSymbolTableRecord
100
AcDbBlockTableRecord
  2
*D23
340
0
 70
     0
280
     1
281
     0
  0
BLOCK_RECORD
  5
600C
330
1
100
AcDbSymbolTableRecord
100
AcDbBlockTableRecord
  2
*D24
340
0
 70
     0
280
     1
281
     0
  0
BLOCK_RECORD
  5
60BD
330
1
100
AcDbSymbolTableRecord
100
AcDbBlockTableRecord
  2
*D25
340
0
 70
     0
280
     1
281
     0
  0
BLOCK_RECORD
  5
6158
330
1
100
AcDbSymbolTableRecord
100
AcDbBlockTableRecord
  2
*D26
340
0
 70
     0
280
     1
281
     0
  0
BLOCK_RECORD
  5
61A0
330
1
100
AcDbSymbolTableRecord
100
AcDbBlockTableRecord
  2
*D27
340
0
 70
     0
280
     1
281
     0
  0
BLOCK_RECORD
  5
61AD
330
1
100
AcDbSymbolTableRecord
100
AcDbBlockTableRecord
  2
*D28
340
0
 70
     0
280
     1
281
     0
  0
BLOCK_RECORD
  5
66A2
330
1
100
AcDbSymbolTableRecord
100
AcDbBlockTableRecord
  2
*D29
340
0
 70
     0
280
     1
281
     0
  0
BLOCK_RECORD
  5
6782
330
1
100
AcDbSymbolTableRecord
100
AcDbBlockTableRecord
  2
*D30
340
0
 70
     0
280
     1
281
     0
  0
BLOCK_RECORD
  5
678E
330
1
100
AcDbSymbolTableRecord
100
AcDbBlockTableRecord
  2
*D31
340
0
 70
     0
280
     1
281
     0
  0
BLOCK_RECORD
  5
679A
330
1
100
AcDbSymbolTableRecord
100
AcDbBlockTableRecord
  2
*D32
340
0
 70
     0
280
     1
281
     0
  0
BLOCK_RECORD
  5
67A5
330
1
100
AcDbSymbolTableRecord
100
AcDbBlockTableRecord
  2
*D33
340
0
 70
     0
280
     1
281
     0
  0
BLOCK_RECORD
  5
67B1
330
1
100
AcDbSymbolTableRecord
100
AcDbBlockTableRecord
  2
*D34
340
0
 70
     0
280
     1
281
     0
  0
BLOCK_RECORD
  5
67EA
330
1
100
AcDbSymbolTableRecord
100
AcDbBlockTableRecord
  2
*D35
340
0
 70
     0
280
     1
281
     0
  0
BLOCK_RECORD
  5
6A16
330
1
100
AcDbSymbolTableRecord
100
AcDbBlockTableRecord
  2
A$C201D3A2B
340
0
 70
     0
280
     1
281
     0
  0
BLOCK_RECORD
  5
6C77
330
1
100
AcDbSymbolTableRecord
100
AcDbBlockTableRecord
  2
*D37
340
0
 70
     0
280
     1
281
     0
  0
BLOCK_RECORD
  5
6C83
330
1
100
AcDbSymbolTableRecord
100
AcDbBlockTableRecord
  2
*D38
340
0
 70
     0
280
     1
281
     0
  0
BLOCK_RECORD
  5
6C8F
330
1
100
AcDbSymbolTableRecord
100
AcDbBlockTableRecord
  2
*D39
340
0
 70
     0
280
     1
281
     0
  0
BLOCK_RECORD
  5
6C9B
330
1
100
AcDbSymbolTableRecord
100
AcDbBlockTableRecord
  2
*D40
340
0
 70
     0
280
     1
281
     0
  0
BLOCK_RECORD
  5
6CA7
330
1
100
AcDbSymbolTableRecord
100
AcDbBlockTableRecord
  2
*D41
340
0
 70
     0
280
     1
281
     0
  0
BLOCK_RECORD
  5
6CB3
330
1
100
AcDbSymbolTableRecord
100
AcDbBlockTableRecord
  2
*D42
340
0
 70
     0
280
     1
281
     0
  0
BLOCK_RECORD
  5
6D36
330
1
100
AcDbSymbolTableRecord
100
AcDbBlockTableRecord
  2
*D43
340
0
 70
     0
280
     1
281
     0
  0
BLOCK_RECORD
  5
6D42
330
1
100
AcDbSymbolTableRecord
100
AcDbBlockTableRecord
  2
*D44
340
0
 70
     0
280
     1
281
     0
  0
BLOCK_RECORD
  5
6D4E
330
1
100
AcDbSymbolTableRecord
100
AcDbBlockTableRecord
  2
*D45
340
0
 70
     0
280
     1
281
     0
  0
BLOCK_RECORD
  5
6D5A
330
1
100
AcDbSymbolTableRecord
100
AcDbBlockTableRecord
  2
*D46
340
0
 70
     0
280
     1
281
     0
  0
BLOCK_RECORD
  5
6D66
330
1
100
AcDbSymbolTableRecord
100
AcDbBlockTableRecord
  2
*D47
340
0
 70
     0
280
     1
281
     0
  0
BLOCK_RECORD
  5
6D72
330
1
100
AcDbSymbolTableRecord
100
AcDbBlockTableRecord
  2
*D48
340
0
 70
     0
280
     1
281
     0
  0
ENDTAB
  0
ENDSEC
  0
SECTION
  2
BLOCKS
  0
BLOCK
  5
1F
330
1E
100
AcDbEntity
  8
0
100
AcDbBlockBegin
  2
*MODEL_SPACE
 70
     0
 10
0.0
 20
0.0
 30
0.0
  3
*MODEL_SPACE
  1

  0
ENDBLK
  5
20
330
1E
100
AcDbEntity
  8
0
100
AcDbBlockEnd
  0
BLOCK
  5
1B
330
1A
100
AcDbEntity
 67
     1
  8
0
100
AcDbBlockBegin
  2
*PAPER_SPACE
 70
     0
 10
0.0
 20
0.0
 30
0.0
  3
*PAPER_SPACE
  1

  0
ENDBLK
  5
1C
330
1A
100
AcDbEntity
 67
     1
  8
0
100
AcDbBlockEnd
  0
BLOCK
  5
3B6
330
3B2
100
AcDbEntity
  8
0
100
AcDbBlockBegin
  2
_OPEN
 70
     0
 10
0.0
 20
0.0
 30
0.0
  3
_OPEN
  1

  0
LINE
  5
3B3
330
3B2
100
AcDbEntity
  8
30
  6
Continuous
 62
     0
100
AcDbLine
 10
-1.0
 20
0.166667
 30
0.0
 11
0.0
 21
0.0
 31
0.0
  0
LINE
  5
3B4
330
3B2
100
AcDbEntity
  8
30
  6
Continuous
 62
     0
100
AcDbLine
 10
-1.0
 20
-0.166667
 30
0.0
 11
0.0
 21
0.0
 31
0.0
  0
LINE
  5
3B5
330
3B2
100
AcDbEntity
  8
30
  6
Continuous
 62
     0
100
AcDbLine
 10
0.0
 20
0.0
 30
0.0
 11
-1.0
 21
0.0
 31
0.0
  0
ENDBLK
  5
3B7
330
3B2
100
AcDbEntity
  8
0
100
AcDbBlockEnd
  0
BLOCK
  5
58CC
330
58CA
100
AcDbEntity
  8
TOP
  6
Continuous
 62
     4
100
AcDbBlockBegin
  2
*U1
 70
     1
 10
0.0
 20
0.0
 30
0.0
  3
*U1
  1

  0
TEXT
  5
58CB
330
58CA
100
AcDbEntity
  8
TOP
  6
ByBlock
 62
     0
100
AcDbText
 10
249.4949984839538
 20
103.4999999999999
 30
0.0
 40
2.500000003799998
  1
17
 41
0.78325
  7
UGMTXT
100
AcDbText
  0
ENDBLK
  5
58CD
330
58CA
100
AcDbEntity
  8
0
100
AcDbBlockEnd
  0
BLOCK
  5
58D0
330
58CE
100
AcDbEntity
  8
TOP
  6
Continuous
 62
     4
100
AcDbBlockBegin
  2
*U2
 70
     1
 10
0.0
 20
0.0
 30
0.0
  3
*U2
  1

  0
TEXT
  5
58CF
330
58CE
100
AcDbEntity
  8
TOP
  6
ByBlock
 62
     0
100
AcDbText
 10
252.6153110179847
 20
103.4999999999999
 30
0.0
 40
2.500000003799998
  1
(max.)
 41
0.7263970588235275
  7
UGMTXT
100
AcDbText
  0
ENDBLK
  5
58D1
330
58CE
100
AcDbEntity
  8
0
100
AcDbBlockEnd
  0
BLOCK
  5
58DC
330
58DA
100
AcDbEntity
  8
TOP
  6
Continuous
 62
     4
100
AcDbBlockBegin
  2
*U3
 70
     1
 10
0.0
 20
0.0
 30
0.0
  3
*U3
  1

  0
TEXT
  5
58DB
330
58DA
100
AcDbEntity
  8
TOP
  6
ByBlock
 62
     0
100
AcDbText
 10
236.6619255869728
 20
58.26042938214733
 30
0.0
 40
2.500000003799998
  1
8
 41
1.054062499999999
  7
UGMTXT
100
AcDbText
  0
ENDBLK
  5
58DD
330
58DA
100
AcDbEntity
  8
0
100
AcDbBlockEnd
  0
BLOCK
  5
58E0
330
58DE
100
AcDbEntity
  8
TOP
  6
Continuous
 62
     4
100
AcDbBlockBegin
  2
*U4
 70
     1
 10
0.0
 20
0.0
 30
0.0
  3
*U4
  1

  0
TEXT
  5
58DF
330
58DE
100
AcDbEntity
  8
TOP
  6
ByBlock
 62
     0
100
AcDbText
 10
250.6153110179847
 20
99.29999999999997
 30
0.0
 40
2.500000003799998
  1
max.t5
 41
0.7263970588235275
  7
UGMTXT
100
AcDbText
  0
ENDBLK
  5
58E1
330
58DE
100
AcDbEntity
  8
0
100
AcDbBlockEnd
  0
BLOCK
  5
58E9
330
58E2
100
AcDbEntity
  8
TOP
  6
Continuous
 62
     4
100
AcDbBlockBegin
  2
*U5
 70
     1
 10
0.0
 20
0.0
 30
0.0
  3
*U5
  1

  0
LINE
  5
58E3
330
58E2
100
AcDbEntity
  8
1
  6
ByBlock
 62
     0
100
AcDbLine
 10
235.8153110047847
 20
66.71019663782792
 30
0.0
 11
235.8153110047847
 21
56.01042938024733
 31
0.0
  0
LINE
  5
58E4
330
58E2
100
AcDbEntity
  8
1
  6
ByBlock
 62
     0
100
AcDbLine
 10
239.0153110047847
 20
69.41019663122792
 30
0.0
 11
239.0153110047847
 21
56.01042938024733
 31
0.0
  0
LINE
  5
58E5
330
58E2
100
AcDbEntity
  8
1
  6
ByBlock
 62
     0
100
AcDbLine
 10
233.3153110047847
 20
57.01042938024731
 30
0.0
 11
241.5153110047846
 21
57.01042938024731
 31
0.0
  0
SOLID
  5
58E6
330
58E2
100
AcDbEntity
  8
1
  6
ByBlock
 62
     0
100
AcDbTrace
 10
235.8153110047847
 20
57.01042938024731
 30
0.0
 11
233.8153109915847
 21
56.67709604471401
 31
0.0
 12
233.8153109915847
 22
57.34376271578065
 32
0.0
 13
233.8153109915847
 23
57.34376271578065
 33
0.0
  0
SOLID
  5
58E7
330
58E2
100
AcDbEntity
  8
1
  6
ByBlock
 62
     0
100
AcDbTrace
 10
239.0153110047847
 20
57.01042938024731
 30
0.0
 11
241.0153110179845
 21
57.34376271578065
 31
0.0
 12
241.0153110179845
 22
56.67709604471401
 32
0.0
 13
241.0153110179845
 23
56.67709604471401
 33
0.0
  0
TEXT
  5
58E8
330
58E2
100
AcDbEntity
  8
TOP
  6
ByBlock
 62
     0
100
AcDbText
 10
237.1139568381178
 20
57.51042938024731
 30
0.0
 40
1.0
  1
 
 41
1.054062499999999
  7
UGMTXT
100
AcDbText
  0
ENDBLK
  5
58EA
330
58E2
100
AcDbEntity
  8
0
100
AcDbBlockEnd
  0
BLOCK
  5
5A0A
330
5A00
100
AcDbEntity
  8
0
100
AcDbBlockBegin
  2
*D6
 70
     1
 10
0.0
 20
0.0
 30
0.0
  3
*D6
  1

  0
LINE
  5
6AF5
330
5A00
100
AcDbEntity
  8
30
  6
Continuous
 62
     0
440
 16777216
100
AcDbLine
 10
209.8144775593031
 20
-1.0
 30
0.0
 11
209.8144775593031
 21
-133.2494181439514
 31
0.0
  0
LINE
  5
6AF6
330
5A00
100
AcDbEntity
  8
30
  6
Continuous
 62
     0
440
 16777216
100
AcDbLine
 10
301.8144775593031
 20
-78.50000000000003
 30
0.0
 11
301.8144775593031
 21
-133.2494181439514
 31
0.0
  0
LINE
  5
6AF7
330
5A00
100
AcDbEntity
  8
30
  6
Continuous
 62
     0
440
 16777216
100
AcDbLine
 10
211.8144775593031
 20
-132.7494181439514
 30
0.0
 11
299.8144775593031
 21
-132.7494181439514
 31
0.0
  0
INSERT
  5
6AF8
330
5A00
100
AcDbEntity
  8
30
  6
Continuous
 62
     0
440
 16777216
100
AcDbBlockReference
  2
_OPEN
 10
209.8144775593031
 20
-132.7494181439514
 30
0.0
 41
2.0
 42
2.0
 43
2.0
 50
180.0
  0
INSERT
  5
6AF9
330
5A00
100
AcDbEntity
  8
30
  6
Continuous
 62
     0
440
 16777216
100
AcDbBlockReference
  2
_OPEN
 10
301.8144775593031
 20
-132.7494181439514
 30
0.0
 41
2.0
 42
2.0
 43
2.0
  0
MTEXT
  5
6AFA
330
5A00
100
AcDbEntity
  8
30
  6
Continuous
 62
     0
440
 16777216
100
AcDbMText
 10
255.8144775593031
 20
-129.7494181439514
 30
0.0
 40
4.0
 41
0.0
 46
0.0
 71
     5
 72
     1
  1
\A1;92
 73
     1
 44
1.0
1001
ACAD
1000
MTEXTBEGIN
1070
    73
1070
     1
1070
    44
1040
1.0
1070
    74
1070
     0
1000
MTEXTEND
  0
POINT
  5
6AFB
330
5A00
100
AcDbEntity
  8
DEFPOINTS
  6
Continuous
 62
     0
440
 16777216
100
AcDbPoint
 10
209.8144775593031
 20
0.0
 30
0.0
  0
POINT
  5
6AFC
330
5A00
100
AcDbEntity
  8
DEFPOINTS
  6
Continuous
 62
     0
440
 16777216
100
AcDbPoint
 10
301.8144775593031
 20
-77.50000000000003
 30
0.0
  0
POINT
  5
6AFD
330
5A00
100
AcDbEntity
  8
DEFPOINTS
  6
Continuous
 62
     0
440
 16777216
100
AcDbPoint
 10
301.8144775593031
 20
-132.7494181439514
 30
0.0
  0
ENDBLK
  5
5A0B
330
5A00
100
AcDbEntity
  8
0
100
AcDbBlockEnd
  0
BLOCK
  5
5A17
330
5A0C
100
AcDbEntity
  8
0
100
AcDbBlockBegin
  2
*D7
 70
     1
 10
0.0
 20
0.0
 30
0.0
  3
*D7
  1

  0
LINE
  5
6B2A
330
5A0C
100
AcDbEntity
  8
30
  6
Continuous
 62
     0
440
 16777216
100
AcDbLine
 10
225.814477559303
 20
-26.0
 30
0.0
 11
225.814477559303
 21
-121.2494181439514
 31
0.0
  0
LINE
  5
6B2B
330
5A0C
100
AcDbEntity
  8
30
  6
Continuous
 62
     0
440
 16777216
100
AcDbLine
 10
229.8144775593029
 20
-26.0
 30
0.0
 11
229.8144775593029
 21
-121.2494181439514
 31
0.0
  0
LINE
  5
6B2C
330
5A0C
100
AcDbEntity
  8
30
  6
Continuous
 62
     0
440
 16777216
100
AcDbLine
 10
223.8144775593031
 20
-120.7494181439514
 30
0.0
 11
221.8144775593031
 21
-120.7494181439514
 31
0.0
  0
LINE
  5
6B2D
330
5A0C
100
AcDbEntity
  8
30
  6
Continuous
 62
     0
440
 16777216
100
AcDbLine
 10
231.814477559303
 20
-120.7494181439514
 30
0.0
 11
238.4811442259695
 21
-120.7494181439514
 31
0.0
  0
INSERT
  5
6B2E
330
5A0C
100
AcDbEntity
  8
30
  6
Continuous
 62
     0
440
 16777216
100
AcDbBlockReference
  2
_OPEN
 10
225.814477559303
 20
-120.7494181439514
 30
0.0
 41
2.0
 42
2.0
 43
2.0
  0
INSERT
  5
6B2F
330
5A0C
100
AcDbEntity
  8
30
  6
Continuous
 62
     0
440
 16777216
100
AcDbBlockReference
  2
_OPEN
 10
229.8144775593029
 20
-120.7494181439514
 30
0.0
 41
2.0
 42
2.0
 43
2.0
 50
180.0
  0
MTEXT
  5
6B30
330
5A0C
100
AcDbEntity
  8
30
  6
Continuous
 62
     0
440
 16777216
100
AcDbMText
 10
236.1478108926364
 20
-117.7494181439514
 30
0.0
 40
4.0
 41
0.0
 46
0.0
 71
     5
 72
     1
  1
\A1;4
 73
     1
 44
1.0
1001
ACAD
1000
MTEXTBEGIN
1070
    73
1070
     1
1070
    44
1040
1.0
1070
    74
1070
     0
1000
MTEXTEND
  0
POINT
  5
6B31
330
5A0C
100
AcDbEntity
  8
DEFPOINTS
  6
Continuous
 62
     0
440
 16777216
100
AcDbPoint
 10
225.814477559303
 20
-25.0
 30
0.0
  0
POINT
  5
6B32
330
5A0C
100
AcDbEntity
  8
DEFPOINTS
  6
Continuous
 62
     0
440
 16777216
100
AcDbPoint
 10
229.8144775593029
 20
-25.0
 30
0.0
  0
POINT
  5
6B33
330
5A0C
100
AcDbEntity
  8
DEFPOINTS
  6
Continuous
 62
     0
440
 16777216
100
AcDbPoint
 10
229.8144775593029
 20
-120.7494181439514
 30
0.0
  0
ENDBLK
  5
5A18
330
5A0C
100
AcDbEntity
  8
0
100
AcDbBlockEnd
  0
BLOCK
  5
5A23
330
5A19
100
AcDbEntity
  8
0
100
AcDbBlockBegin
  2
*D8
 70
     1
 10
0.0
 20
0.0
 30
0.0
  3
*D8
  1

  0
LINE
  5
6B21
330
5A19
100
AcDbEntity
  8
30
  6
Continuous
 62
     0
440
 16777216
100
AcDbLine
 10
229.8144775593029
 20
-26.0
 30
0.0
 11
229.8144775593029
 21
-121.2494181439514
 31
0.0
  0
LINE
  5
6B22
330
5A19
100
AcDbEntity
  8
30
  6
Continuous
 62
     0
440
 16777216
100
AcDbLine
 10
301.8144775593031
 20
-78.50000000000003
 30
0.0
 11
301.8144775593031
 21
-121.2494181439514
 31
0.0
  0
LINE
  5
6B23
330
5A19
100
AcDbEntity
  8
30
  6
Continuous
 62
     0
440
 16777216
100
AcDbLine
 10
231.814477559303
 20
-120.7494181439514
 30
0.0
 11
299.8144775593031
 21
-120.7494181439514
 31
0.0
  0
INSERT
  5
6B24
330
5A19
100
AcDbEntity
  8
30
  6
Continuous
 62
     0
440
 16777216
100
AcDbBlockReference
  2
_OPEN
 10
229.8144775593029
 20
-120.7494181439514
 30
0.0
 41
2.0
 42
2.0
 43
2.0
 50
180.0
  0
INSERT
  5
6B25
330
5A19
100
AcDbEntity
  8
30
  6
Continuous
 62
     0
440
 16777216
100
AcDbBlockReference
  2
_OPEN
 10
301.8144775593031
 20
-120.7494181439514
 30
0.0
 41
2.0
 42
2.0
 43
2.0
  0
MTEXT
  5
6B26
330
5A19
100
AcDbEntity
  8
30
  6
Continuous
 62
     0
440
 16777216
100
AcDbMText
 10
265.8144775593031
 20
-117.7494181439514
 30
0.0
 40
4.0
 41
0.0
 46
0.0
 71
     5
 72
     1
  1
\A1;72
 73
     1
 44
1.0
1001
ACAD
1000
MTEXTBEGIN
1070
    73
1070
     1
1070
    44
1040
1.0
1070
    74
1070
     0
1000
MTEXTEND
  0
POINT
  5
6B27
330
5A19
100
AcDbEntity
  8
DEFPOINTS
  6
Continuous
 62
     0
440
 16777216
100
AcDbPoint
 10
229.8144775593029
 20
-25.0
 30
0.0
  0
POINT
  5
6B28
330
5A19
100
AcDbEntity
  8
DEFPOINTS
  6
Continuous
 62
     0
440
 16777216
100
AcDbPoint
 10
301.8144775593031
 20
-77.50000000000003
 30
0.0
  0
POINT
  5
6B29
330
5A19
100
AcDbEntity
  8
DEFPOINTS
  6
Continuous
 62
     0
440
 16777216
100
AcDbPoint
 10
301.8144775593031
 20
-120.7494181439514
 30
0.0
  0
ENDBLK
  5
5A24
330
5A19
100
AcDbEntity
  8
0
100
AcDbBlockEnd
  0
BLOCK
  5
5A2F
330
5A25
100
AcDbEntity
  8
0
100
AcDbBlockBegin
  2
*D9
 70
     1
 10
0.0
 20
0.0
 30
0.0
  3
*D9
  1

  0
LINE
  5
6AEC
330
5A25
100
AcDbEntity
  8
30
  6
Continuous
 62
     0
440
 16777216
100
AcDbLine
 10
224.8144775593031
 20
-25.0
 30
0.0
 11
184.8588555544834
 21
-24.99999999999999
 31
0.0
  0
LINE
  5
6AED
330
5A25
100
AcDbEntity
  8
30
  6
Continuous
 62
     0
440
 16777216
100
AcDbLine
 10
224.8144775593031
 20
24.99999999999996
 30
0.0
 11
184.8588555544834
 21
24.99999999999996
 31
0.0
  0
LINE
  5
6AEE
330
5A25
100
AcDbEntity
  8
30
  6
Continuous
 62
     0
440
 16777216
100
AcDbLine
 10
185.3588555544834
 20
-22.99999999999998
 30
0.0
 11
185.3588555544834
 21
22.99999999999996
 31
0.0
  0
INSERT
  5
6AEF
330
5A25
100
AcDbEntity
  8
30
  6
Continuous
 62
     0
440
 16777216
100
AcDbBlockReference
  2
_OPEN
 10
185.3588555544834
 20
-24.99999999999999
 30
0.0
 41
2.0
 42
2.0
 43
2.0
 50
270.0
  0
INSERT
  5
6AF0
330
5A25
100
AcDbEntity
  8
30
  6
Continuous
 62
     0
440
 16777216
100
AcDbBlockReference
  2
_OPEN
 10
185.3588555544834
 20
24.99999999999996
 30
0.0
 41
2.0
 42
2.0
 43
2.0
 50
90.0
  0
MTEXT
  5
6AF1
330
5A25
100
AcDbEntity
  8
30
  6
Continuous
 62
     0
440
 16777216
100
AcDbMText
 10
182.3588555544834
 20
0.0000000000000228
 30
0.0
 40
4.0
 41
0.0
 46
0.0
 71
     5
 72
     1
  1
\A1;50
 11
0.0000000000000001
 21
1.0
 31
0.0
 73
     1
 44
1.0
1001
ACAD
1000
MTEXTBEGIN
1070
    73
1070
     1
1070
    44
1040
1.0
1070
    74
1070
     0
1000
MTEXTEND
  0
POINT
  5
6AF2
330
5A25
100
AcDbEntity
  8
DEFPOINTS
  6
Continuous
 62
     0
440
 16777216
100
AcDbPoint
 10
225.814477559303
 20
-25.0
 30
0.0
  0
POINT
  5
6AF3
330
5A25
100
AcDbEntity
  8
DEFPOINTS
  6
Continuous
 62
     0
440
 16777216
100
AcDbPoint
 10
225.814477559303
 20
24.99999999999996
 30
0.0
  0
POINT
  5
6AF4
330
5A25
100
AcDbEntity
  8
DEFPOINTS
  6
Continuous
 62
     0
440
 16777216
100
AcDbPoint
 10
185.3588555544834
 20
24.99999999999996
 30
0.0
  0
ENDBLK
  5
5A30
330
5A25
100
AcDbEntity
  8
0
100
AcDbBlockEnd
  0
BLOCK
  5
5A3B
330
5A31
100
AcDbEntity
  8
0
100
AcDbBlockBegin
  2
*D10
 70
     1
 10
0.0
 20
0.0
 30
0.0
  3
*D10
  1

  0
LINE
  5
6B46
330
5A31
100
AcDbEntity
  8
30
  6
Continuous
 62
     0
440
 16777216
100
AcDbLine
 10
277.814477559303
 20
78.50000000000001
 30
0.0
 11
277.814477559303
 21
108.7505818560479
 31
0.0
  0
LINE
  5
6B47
330
5A31
100
AcDbEntity
  8
30
  6
Continuous
 62
     0
440
 16777216
100
AcDbLine
 10
301.8144775593031
 20
78.5000000000001
 30
0.0
 11
301.8144775593031
 21
108.7505818560479
 31
0.0
  0
LINE
  5
6B48
330
5A31
100
AcDbEntity
  8
30
  6
Continuous
 62
     0
440
 16777216
100
AcDbLine
 10
279.814477559303
 20
108.2505818560482
 30
0.0
 11
299.8144775593031
 21
108.2505818560482
 31
0.0
  0
INSERT
  5
6B49
330
5A31
100
AcDbEntity
  8
30
  6
Continuous
 62
     0
440
 16777216
100
AcDbBlockReference
  2
_OPEN
 10
277.814477559303
 20
108.2505818560482
 30
0.0
 41
2.0
 42
2.0
 43
2.0
 50
180.0
  0
INSERT
  5
6B4A
330
5A31
100
AcDbEntity
  8
30
  6
Continuous
 62
     0
440
 16777216
100
AcDbBlockReference
  2
_OPEN
 10
301.8144775593031
 20
108.2505818560482
 30
0.0
 41
2.0
 42
2.0
 43
2.0
  0
MTEXT
  5
6B4B
330
5A31
100
AcDbEntity
  8
30
  6
Continuous
 62
     0
440
 16777216
100
AcDbMText
 10
289.814477559303
 20
111.2505818560479
 30
0.0
 40
4.0
 41
0.0
 46
0.0
 71
     5
 72
     1
  1
\A1;24
 73
     1
 44
1.0
1001
ACAD
1000
MTEXTBEGIN
1070
    73
1070
     1
1070
    44
1040
1.0
1070
    74
1070
     0
1000
MTEXTEND
  0
POINT
  5
6B4C
330
5A31
100
AcDbEntity
  8
DEFPOINTS
  6
Continuous
 62
     0
440
 16777216
100
AcDbPoint
 10
277.814477559303
 20
77.50000000000001
 30
0.0
  0
POINT
  5
6B4D
330
5A31
100
AcDbEntity
  8
DEFPOINTS
  6
Continuous
 62
     0
440
 16777216
100
AcDbPoint
 10
301.8144775593031
 20
77.5000000000001
 30
0.0
  0
POINT
  5
6B4E
330
5A31
100
AcDbEntity
  8
DEFPOINTS
  6
Continuous
 62
     0
440
 16777216
100
AcDbPoint
 10
301.8144775593031
 20
108.2505818560482
 30
0.0
  0
ENDBLK
  5
5A3C
330
5A31
100
AcDbEntity
  8
0
100
AcDbBlockEnd
  0
BLOCK
  5
5A47
330
5A3D
100
AcDbEntity
  8
0
100
AcDbBlockBegin
  2
*D11
 70
     1
 10
0.0
 20
0.0
 30
0.0
  3
*D11
  1

  0
LINE
  5
6B18
330
5A3D
100
AcDbEntity
  8
30
  6
Continuous
 62
     0
440
 16777216
100
AcDbLine
 10
233.814477559303
 20
-52.0000000000001
 30
0.0
 11
233.814477559303
 21
-111.2494181439513
 31
0.0
  0
LINE
  5
6B19
330
5A3D
100
AcDbEntity
  8
30
  6
Continuous
 62
     0
440
 16777216
100
AcDbLine
 10
301.8144775593031
 20
-78.50000000000003
 30
0.0
 11
301.8144775593031
 21
-111.2494181439513
 31
0.0
  0
LINE
  5
6B1A
330
5A3D
100
AcDbEntity
  8
30
  6
Continuous
 62
     0
440
 16777216
100
AcDbLine
 10
235.814477559303
 20
-110.7494181439514
 30
0.0
 11
299.8144775593031
 21
-110.7494181439514
 31
0.0
  0
INSERT
  5
6B1B
330
5A3D
100
AcDbEntity
  8
30
  6
Continuous
 62
     0
440
 16777216
100
AcDbBlockReference
  2
_OPEN
 10
233.814477559303
 20
-110.7494181439514
 30
0.0
 41
2.0
 42
2.0
 43
2.0
 50
180.0
  0
INSERT
  5
6B1C
330
5A3D
100
AcDbEntity
  8
30
  6
Continuous
 62
     0
440
 16777216
100
AcDbBlockReference
  2
_OPEN
 10
301.8144775593031
 20
-110.7494181439514
 30
0.0
 41
2.0
 42
2.0
 43
2.0
  0
MTEXT
  5
6B1D
330
5A3D
100
AcDbEntity
  8
30
  6
Continuous
 62
     0
440
 16777216
100
AcDbMText
 10
267.8144775593031
 20
-107.7494181439514
 30
0.0
 40
4.0
 41
0.0
 46
0.0
 71
     5
 72
     1
  1
\A1;68
 73
     1
 44
1.0
1001
ACAD
1000
MTEXTBEGIN
1070
    73
1070
     1
1070
    44
1040
1.0
1070
    74
1070
     0
1000
MTEXTEND
  0
POINT
  5
6B1E
330
5A3D
100
AcDbEntity
  8
DEFPOINTS
  6
Continuous
 62
     0
440
 16777216
100
AcDbPoint
 10
233.814477559303
 20
-51.00000000000011
 30
0.0
  0
POINT
  5
6B1F
330
5A3D
100
AcDbEntity
  8
DEFPOINTS
  6
Continuous
 62
     0
440
 16777216
100
AcDbPoint
 10
301.8144775593031
 20
-77.50000000000003
 30
0.0
  0
POINT
  5
6B20
330
5A3D
100
AcDbEntity
  8
DEFPOINTS
  6
Continuous
 62
     0
440
 16777216
100
AcDbPoint
 10
301.8144775593031
 20
-110.7494181439514
 30
0.0
  0
ENDBLK
  5
5A48
330
5A3D
100
AcDbEntity
  8
0
100
AcDbBlockEnd
  0
BLOCK
  5
5A53
330
5A49
100
AcDbEntity
  8
0
100
AcDbBlockBegin
  2
*D12
 70
     1
 10
0.0
 20
0.0
 30
0.0
  3
*D12
  1

  0
LINE
  5
6B0F
330
5A49
100
AcDbEntity
  8
30
  6
Continuous
 62
     0
440
 16777216
100
AcDbLine
 10
240.8144775593031
 20
-78.50000000000003
 30
0.0
 11
240.8144775593031
 21
-100.2494181439514
 31
0.0
  0
LINE
  5
6B10
330
5A49
100
AcDbEntity
  8
30
  6
Continuous
 62
     0
440
 16777216
100
AcDbLine
 10
301.8144775593031
 20
-78.50000000000003
 30
0.0
 11
301.8144775593031
 21
-100.2494181439514
 31
0.0
  0
LINE
  5
6B11
330
5A49
100
AcDbEntity
  8
30
  6
Continuous
 62
     0
440
 16777216
100
AcDbLine
 10
242.8144775593031
 20
-99.74941814395144
 30
0.0
 11
299.8144775593031
 21
-99.74941814395144
 31
0.0
  0
INSERT
  5
6B12
330
5A49
100
AcDbEntity
  8
30
  6
Continuous
 62
     0
440
 16777216
100
AcDbBlockReference
  2
_OPEN
 10
240.8144775593031
 20
-99.74941814395144
 30
0.0
 41
2.0
 42
2.0
 43
2.0
 50
180.0
  0
INSERT
  5
6B13
330
5A49
100
AcDbEntity
  8
30
  6
Continuous
 62
     0
440
 16777216
100
AcDbBlockReference
  2
_OPEN
 10
301.8144775593031
 20
-99.74941814395144
 30
0.0
 41
2.0
 42
2.0
 43
2.0
  0
MTEXT
  5
6B14
330
5A49
100
AcDbEntity
  8
30
  6
Continuous
 62
     0
440
 16777216
100
AcDbMText
 10
271.314477559303
 20
-96.74941814395143
 30
0.0
 40
4.0
 41
0.0
 46
0.0
 71
     5
 72
     1
  1
\A1;61
 73
     1
 44
1.0
1001
ACAD
1000
MTEXTBEGIN
1070
    73
1070
     1
1070
    44
1040
1.0
1070
    74
1070
     0
1000
MTEXTEND
  0
POINT
  5
6B15
330
5A49
100
AcDbEntity
  8
DEFPOINTS
  6
Continuous
 62
     0
440
 16777216
100
AcDbPoint
 10
240.8144775593031
 20
-77.50000000000003
 30
0.0
  0
POINT
  5
6B16
330
5A49
100
AcDbEntity
  8
DEFPOINTS
  6
Continuous
 62
     0
440
 16777216
100
AcDbPoint
 10
301.8144775593031
 20
-77.50000000000003
 30
0.0
  0
POINT
  5
6B17
330
5A49
100
AcDbEntity
  8
DEFPOINTS
  6
Continuous
 62
     0
440
 16777216
100
AcDbPoint
 10
301.8144775593031
 20
-99.74941814395144
 30
0.0
  0
ENDBLK
  5
5A54
330
5A49
100
AcDbEntity
  8
0
100
AcDbBlockEnd
  0
BLOCK
  5
5A5F
330
5A55
100
AcDbEntity
  8
0
100
AcDbBlockBegin
  2
*D13
 70
     1
 10
0.0
 20
0.0
 30
0.0
  3
*D13
  1

  0
LINE
  5
6B3D
330
5A55
100
AcDbEntity
  8
30
  6
Continuous
 62
     0
440
 16777216
100
AcDbLine
 10
256.814477559303
 20
-71.25000000000001
 30
0.0
 11
256.814477559303
 21
-90.24941814395139
 31
0.0
  0
LINE
  5
6B3E
330
5A55
100
AcDbEntity
  8
30
  6
Continuous
 62
     0
440
 16777216
100
AcDbLine
 10
301.8144775593031
 20
-78.50000000000003
 30
0.0
 11
301.8144775593031
 21
-90.24941814395139
 31
0.0
  0
LINE
  5
6B3F
330
5A55
100
AcDbEntity
  8
30
  6
Continuous
 62
     0
440
 16777216
100
AcDbLine
 10
258.814477559303
 20
-89.74941814395142
 30
0.0
 11
299.8144775593031
 21
-89.74941814395142
 31
0.0
  0
INSERT
  5
6B40
330
5A55
100
AcDbEntity
  8
30
  6
Continuous
 62
     0
440
 16777216
100
AcDbBlockReference
  2
_OPEN
 10
256.814477559303
 20
-89.74941814395142
 30
0.0
 41
2.0
 42
2.0
 43
2.0
 50
180.0
  0
INSERT
  5
6B41
330
5A55
100
AcDbEntity
  8
30
  6
Continuous
 62
     0
440
 16777216
100
AcDbBlockReference
  2
_OPEN
 10
301.8144775593031
 20
-89.74941814395142
 30
0.0
 41
2.0
 42
2.0
 43
2.0
  0
MTEXT
  5
6B42
330
5A55
100
AcDbEntity
  8
30
  6
Continuous
 62
     0
440
 16777216
100
AcDbMText
 10
279.314477559303
 20
-86.74941814395142
 30
0.0
 40
4.0
 41
0.0
 46
0.0
 71
     5
 72
     1
  1
\A1;45
 73
     1
 44
1.0
1001
ACAD
1000
MTEXTBEGIN
1070
    73
1070
     1
1070
    44
1040
1.0
1070
    74
1070
     0
1000
MTEXTEND
  0
POINT
  5
6B43
330
5A55
100
AcDbEntity
  8
DEFPOINTS
  6
Continuous
 62
     0
440
 16777216
100
AcDbPoint
 10
256.814477559303
 20
-70.25000000000002
 30
0.0
  0
POINT
  5
6B44
330
5A55
100
AcDbEntity
  8
DEFPOINTS
  6
Continuous
 62
     0
440
 16777216
100
AcDbPoint
 10
301.8144775593031
 20
-77.50000000000003
 30
0.0
  0
POINT
  5
6B45
330
5A55
100
AcDbEntity
  8
DEFPOINTS
  6
Continuous
 62
     0
440
 16777216
100
AcDbPoint
 10
301.8144775593031
 20
-89.74941814395142
 30
0.0
  0
ENDBLK
  5
5A60
330
5A55
100
AcDbEntity
  8
0
100
AcDbBlockEnd
  0
BLOCK
  5
5A6B
330
5A61
100
AcDbEntity
  8
0
100
AcDbBlockBegin
  2
*D14
 70
     1
 10
0.0
 20
0.0
 30
0.0
  3
*D14
  1

  0
LINE
  5
6B4F
330
5A61
100
AcDbEntity
  8
30
  6
Continuous
 62
     0
440
 16777216
100
AcDbLine
 10
341.3144775593033
 20
42.0
 30
0.0
 11
341.3144775593033
 21
27.09950840068014
 31
0.0
  0
LINE
  5
6B50
330
5A61
100
AcDbEntity
  8
30
  6
Continuous
 62
     0
440
 16777216
100
AcDbLine
 10
358.3144775593031
 20
42.0
 30
0.0
 11
358.3144775593031
 21
27.09950840068014
 31
0.0
  0
LINE
  5
6B51
330
5A61
100
AcDbEntity
  8
30
  6
Continuous
 62
     0
440
 16777216
100
AcDbLine
 10
343.3144775593033
 20
27.59950840068014
 30
0.0
 11
356.314477559303
 21
27.59950840068014
 31
0.0
  0
INSERT
  5
6B52
330
5A61
100
AcDbEntity
  8
30
  6
Continuous
 62
     0
440
 16777216
100
AcDbBlockReference
  2
_OPEN
 10
341.3144775593033
 20
27.59950840068014
 30
0.0
 41
2.0
 42
2.0
 43
2.0
 50
180.0
  0
INSERT
  5
6B53
330
5A61
100
AcDbEntity
  8
30
  6
Continuous
 62
     0
440
 16777216
100
AcDbBlockReference
  2
_OPEN
 10
358.3144775593031
 20
27.59950840068014
 30
0.0
 41
2.0
 42
2.0
 43
2.0
  0
MTEXT
  5
6B54
330
5A61
100
AcDbEntity
  8
30
  6
Continuous
 62
     0
440
 16777216
100
AcDbMText
 10
349.8144775593032
 20
30.59950840068012
 30
0.0
 40
4.0
 41
0.0
 46
0.0
 71
     5
 72
     1
  1
\A1;17
 73
     1
 44
1.0
1001
ACAD
1000
MTEXTBEGIN
1070
    73
1070
     1
1070
    44
1040
1.0
1070
    74
1070
     0
1000
MTEXTEND
  0
POINT
  5
6B55
330
5A61
100
AcDbEntity
  8
DEFPOINTS
  6
Continuous
 62
     0
440
 16777216
100
AcDbPoint
 10
341.3144775593033
 20
43.0
 30
0.0
  0
POINT
  5
6B56
330
5A61
100
AcDbEntity
  8
DEFPOINTS
  6
Continuous
 62
     0
440
 16777216
100
AcDbPoint
 10
358.3144775593031
 20
43.0
 30
0.0
  0
POINT
  5
6B57
330
5A61
100
AcDbEntity
  8
DEFPOINTS
  6
Continuous
 62
     0
440
 16777216
100
AcDbPoint
 10
358.3144775593031
 20
27.59950840068014
 30
0.0
  0
ENDBLK
  5
5A6C
330
5A61
100
AcDbEntity
  8
0
100
AcDbBlockEnd
  0
BLOCK
  5
5A79
330
5A6D
100
AcDbEntity
  8
0
100
AcDbBlockBegin
  2
*D15
 70
     1
 10
0.0
 20
0.0
 30
0.0
  3
*D15
  1

  0
LINE
  5
6B58
330
5A6D
100
AcDbEntity
  8
30
  6
Continuous
 62
     0
440
 16777216
100
AcDbLine
 10
359.3144775593032
 20
43.0
 30
0.0
 11
373.4012000520912
 21
42.99999999999999
 31
0.0
  0
LINE
  5
6B59
330
5A6D
100
AcDbEntity
  8
30
  6
Continuous
 62
     0
440
 16777216
100
AcDbLine
 10
353.3144775758032
 20
51.49999999999997
 30
0.0
 11
373.4012000520912
 21
51.49999999999996
 31
0.0
  0
LINE
  5
6B5A
330
5A6D
100
AcDbEntity
  8
30
  6
Continuous
 62
     0
440
 16777216
100
AcDbLine
 10
372.9012000520912
 20
44.99999999999999
 30
0.0
 11
372.9012000520912
 21
49.49999999999996
 31
0.0
  0
LINE
  5
6B5B
330
5A6D
100
AcDbEntity
  8
30
  6
Continuous
 62
     0
440
 16777216
100
AcDbLine
 10
372.9012000520912
 20
51.49999999999996
 30
0.0
 11
372.9012000520912
 21
53.49999999999996
 31
0.0
  0
LINE
  5
6B5C
330
5A6D
100
AcDbEntity
  8
30
  6
Continuous
 62
     0
440
 16777216
100
AcDbLine
 10
372.9012000520912
 20
53.49999999999996
 30
0.0
 11
381.9012000520912
 21
53.49999999999996
 31
0.0
  0
INSERT
  5
6B5D
330
5A6D
100
AcDbEntity
  8
30
  6
Continuous
 62
     0
440
 16777216
100
AcDbBlockReference
  2
_OPEN
 10
372.9012000520912
 20
42.99999999999999
 30
0.0
 41
2.0
 42
2.0
 43
2.0
 50
270.0
  0
INSERT
  5
6B5E
330
5A6D
100
AcDbEntity
  8
30
  6
Continuous
 62
     0
440
 16777216
100
AcDbBlockReference
  2
_OPEN
 10
372.9012000520912
 20
51.49999999999996
 30
0.0
 41
2.0
 42
2.0
 43
2.0
 50
90.0
  0
MTEXT
  5
6B5F
330
5A6D
100
AcDbEntity
  8
30
  6
Continuous
 62
     0
440
 16777216
100
AcDbMText
 10
377.9012000520912
 20
56.50000000000003
 30
0.0
 40
4.0
 41
0.0
 46
0.0
 71
     5
 72
     1
  1
\A1;8.5
 73
     1
 44
1.0
1001
ACAD
1000
MTEXTBEGIN
1070
    73
1070
     1
1070
    44
1040
1.0
1070
    74
1070
     0
1000
MTEXTEND
  0
POINT
  5
6B60
330
5A6D
100
AcDbEntity
  8
DEFPOINTS
  6
Continuous
 62
     0
440
 16777216
100
AcDbPoint
 10
358.3144775593031
 20
43.0
 30
0.0
  0
POINT
  5
6B61
330
5A6D
100
AcDbEntity
  8
DEFPOINTS
  6
Continuous
 62
     0
440
 16777216
100
AcDbPoint
 10
352.314477575803
 20
51.49999999999997
 30
0.0
  0
POINT
  5
6B62
330
5A6D
100
AcDbEntity
  8
DEFPOINTS
  6
Continuous
 62
     0
440
 16777216
100
AcDbPoint
 10
372.9012000520912
 20
51.49999999999996
 30
0.0
  0
ENDBLK
  5
5A7A
330
5A6D
100
AcDbEntity
  8
0
100
AcDbBlockEnd
  0
BLOCK
  5
5E86
330
5E7C
100
AcDbEntity
  8
0
100
AcDbBlockBegin
  2
*D16
 70
     1
 10
0.0
 20
0.0
 30
0.0
  3
*D16
  1

  0
LINE
  5
68A1
330
5E7C
100
AcDbEntity
  8
30
  6
Continuous
 62
     0
440
 16777216
100
AcDbLine
 10
-41.99999999999996
 20
25.99999999999996
 30
0.0
 11
-41.99999999999996
 21
33.09950840068013
 31
0.0
  0
LINE
  5
68A2
330
5E7C
100
AcDbEntity
  8
30
  6
Continuous
 62
     0
440
 16777216
100
AcDbLine
 10
42.00000000000001
 20
25.99999999999996
 30
0.0
 11
42.00000000000001
 21
33.09950840068013
 31
0.0
  0
LINE
  5
68A3
330
5E7C
100
AcDbEntity
  8
30
  6
Continuous
 62
     0
440
 16777216
100
AcDbLine
 10
-39.99999999999996
 20
32.59950840068013
 30
0.0
 11
40.0
 21
32.59950840068013
 31
0.0
  0
INSERT
  5
68A4
330
5E7C
100
AcDbEntity
  8
30
  6
Continuous
 62
     0
440
 16777216
100
AcDbBlockReference
  2
_OPEN
 10
-41.99999999999996
 20
32.59950840068013
 30
0.0
 41
2.0
 42
2.0
 43
2.0
 50
180.0
  0
INSERT
  5
68A5
330
5E7C
100
AcDbEntity
  8
30
  6
Continuous
 62
     0
440
 16777216
100
AcDbBlockReference
  2
_OPEN
 10
42.00000000000001
 20
32.59950840068013
 30
0.0
 41
2.0
 42
2.0
 43
2.0
  0
MTEXT
  5
68A6
330
5E7C
100
AcDbEntity
  8
30
  6
Continuous
 62
     0
440
 16777216
100
AcDbMText
 10
0.0000000000000215
 20
35.59950840068013
 30
0.0
 40
4.0
 41
0.0
 46
0.0
 71
     5
 72
     1
  1
\A1;84
 73
     1
 44
1.0
1001
ACAD
1000
MTEXTBEGIN
1070
    73
1070
     1
1070
    44
1040
1.0
1070
    74
1070
     0
1000
MTEXTEND
  0
POINT
  5
68A7
330
5E7C
100
AcDbEntity
  8
DEFPOINTS
  6
Continuous
 62
     0
440
 16777216
100
AcDbPoint
 10
-41.99999999999996
 20
24.99999999999996
 30
0.0
  0
POINT
  5
68A8
330
5E7C
100
AcDbEntity
  8
DEFPOINTS
  6
Continuous
 62
     0
440
 16777216
100
AcDbPoint
 10
42.00000000000001
 20
24.99999999999996
 30
0.0
  0
POINT
  5
68A9
330
5E7C
100
AcDbEntity
  8
DEFPOINTS
  6
Continuous
 62
     0
440
 16777216
100
AcDbPoint
 10
42.00000000000001
 20
32.59950840068013
 30
0.0
  0
ENDBLK
  5
5E87
330
5E7C
100
AcDbEntity
  8
0
100
AcDbBlockEnd
  0
BLOCK
  5
5E92
330
5E88
100
AcDbEntity
  8
0
100
AcDbBlockBegin
  2
*D17
 70
     1
 10
0.0
 20
0.0
 30
0.0
  3
*D17
  1

  0
LINE
  5
6898
330
5E88
100
AcDbEntity
  8
30
  6
Continuous
 62
     0
440
 16777216
100
AcDbLine
 10
-44.99999999999997
 20
-78.50000000000003
 30
0.0
 11
-44.99999999999997
 21
-122.2494181439514
 31
0.0
  0
LINE
  5
6899
330
5E88
100
AcDbEntity
  8
30
  6
Continuous
 62
     0
440
 16777216
100
AcDbLine
 10
45.0
 20
-78.50000000000003
 30
0.0
 11
45.0
 21
-122.2494181439514
 31
0.0
  0
LINE
  5
689A
330
5E88
100
AcDbEntity
  8
30
  6
Continuous
 62
     0
440
 16777216
100
AcDbLine
 10
-42.99999999999997
 20
-121.7494181439514
 30
0.0
 11
43.0
 21
-121.7494181439514
 31
0.0
  0
INSERT
  5
689B
330
5E88
100
AcDbEntity
  8
30
  6
Continuous
 62
     0
440
 16777216
100
AcDbBlockReference
  2
_OPEN
 10
-44.99999999999997
 20
-121.7494181439514
 30
0.0
 41
2.0
 42
2.0
 43
2.0
 50
180.0
  0
INSERT
  5
689C
330
5E88
100
AcDbEntity
  8
30
  6
Continuous
 62
     0
440
 16777216
100
AcDbBlockReference
  2
_OPEN
 10
45.0
 20
-121.7494181439514
 30
0.0
 41
2.0
 42
2.0
 43
2.0
  0
MTEXT
  5
689D
330
5E88
100
AcDbEntity
  8
30
  6
Continuous
 62
     0
440
 16777216
100
AcDbMText
 10
0.0000000000000144
 20
-118.7494181439514
 30
0.0
 40
4.0
 41
0.0
 46
0.0
 71
     5
 72
     1
  1
\A1;90
 73
     1
 44
1.0
1001
ACAD
1000
MTEXTBEGIN
1070
    73
1070
     1
1070
    44
1040
1.0
1070
    74
1070
     0
1000
MTEXTEND
  0
POINT
  5
689E
330
5E88
100
AcDbEntity
  8
DEFPOINTS
  6
Continuous
 62
     0
440
 16777216
100
AcDbPoint
 10
-44.99999999999997
 20
-77.50000000000003
 30
0.0
  0
POINT
  5
689F
330
5E88
100
AcDbEntity
  8
DEFPOINTS
  6
Continuous
 62
     0
440
 16777216
100
AcDbPoint
 10
45.0
 20
-77.50000000000003
 30
0.0
  0
POINT
  5
68A0
330
5E88
100
AcDbEntity
  8
DEFPOINTS
  6
Continuous
 62
     0
440
 16777216
100
AcDbPoint
 10
45.0
 20
-121.7494181439514
 30
0.0
  0
ENDBLK
  5
5E93
330
5E88
100
AcDbEntity
  8
0
100
AcDbBlockEnd
  0
BLOCK
  5
5E9E
330
5E94
100
AcDbEntity
  8
0
100
AcDbBlockBegin
  2
*D18
 70
     1
 10
0.0
 20
0.0
 30
0.0
  3
*D18
  1

  0
LINE
  5
688F
330
5E94
100
AcDbEntity
  8
30
  6
Continuous
 62
     0
440
 16777216
100
AcDbLine
 10
-29.99999999999995
 20
-70.50000001650004
 30
0.0
 11
-29.99999999999995
 21
-102.2494181439514
 31
0.0
  0
LINE
  5
6890
330
5E94
100
AcDbEntity
  8
30
  6
Continuous
 62
     0
440
 16777216
100
AcDbLine
 10
30.00000000000003
 20
-70.50000001650004
 30
0.0
 11
30.00000000000003
 21
-102.2494181439514
 31
0.0
  0
LINE
  5
6891
330
5E94
100
AcDbEntity
  8
30
  6
Continuous
 62
     0
440
 16777216
100
AcDbLine
 10
-27.99999999999994
 20
-101.7494181439513
 30
0.0
 11
28.00000000000002
 21
-101.7494181439513
 31
0.0
  0
INSERT
  5
6892
330
5E94
100
AcDbEntity
  8
30
  6
Continuous
 62
     0
440
 16777216
100
AcDbBlockReference
  2
_OPEN
 10
-29.99999999999995
 20
-101.7494181439513
 30
0.0
 41
2.0
 42
2.0
 43
2.0
 50
180.0
  0
INSERT
  5
6893
330
5E94
100
AcDbEntity
  8
30
  6
Continuous
 62
     0
440
 16777216
100
AcDbBlockReference
  2
_OPEN
 10
30.00000000000003
 20
-101.7494181439513
 30
0.0
 41
2.0
 42
2.0
 43
2.0
  0
MTEXT
  5
6894
330
5E94
100
AcDbEntity
  8
30
  6
Continuous
 62
     0
440
 16777216
100
AcDbMText
 10
0.000000000000041
 20
-98.7494181439515
 30
0.0
 40
4.0
 41
0.0
 46
0.0
 71
     5
 72
     1
  1
\A1;60
 73
     1
 44
1.0
1001
ACAD
1000
MTEXTBEGIN
1070
    73
1070
     1
1070
    44
1040
1.0
1070
    74
1070
     0
1000
MTEXTEND
  0
POINT
  5
6895
330
5E94
100
AcDbEntity
  8
DEFPOINTS
  6
Continuous
 62
     0
440
 16777216
100
AcDbPoint
 10
-29.99999999999995
 20
-69.50000001650003
 30
0.0
  0
POINT
  5
6896
330
5E94
100
AcDbEntity
  8
DEFPOINTS
  6
Continuous
 62
     0
440
 16777216
100
AcDbPoint
 10
30.00000000000003
 20
-69.50000001650003
 30
0.0
  0
POINT
  5
6897
330
5E94
100
AcDbEntity
  8
DEFPOINTS
  6
Continuous
 62
     0
440
 16777216
100
AcDbPoint
 10
30.00000000000003
 20
-101.7494181439513
 30
0.0
  0
ENDBLK
  5
5E9F
330
5E94
100
AcDbEntity
  8
0
100
AcDbBlockEnd
  0
BLOCK
  5
5EAA
330
5EA0
100
AcDbEntity
  8
0
100
AcDbBlockBegin
  2
*D19
 70
     1
 10
0.0
 20
0.0
 30
0.0
  3
*D19
  1

  0
LINE
  5
6886
330
5EA0
100
AcDbEntity
  8
30
  6
Continuous
 62
     0
440
 16777216
100
AcDbLine
 10
-10.99999999999999
 20
-26.0
 30
0.0
 11
-10.99999999999999
 21
-42.2494181439515
 31
0.0
  0
LINE
  5
6887
330
5EA0
100
AcDbEntity
  8
30
  6
Continuous
 62
     0
440
 16777216
100
AcDbLine
 10
11.00000000000002
 20
-26.0
 30
0.0
 11
11.00000000000002
 21
-42.2494181439515
 31
0.0
  0
LINE
  5
6888
330
5EA0
100
AcDbEntity
  8
30
  6
Continuous
 62
     0
440
 16777216
100
AcDbLine
 10
-8.999999999999991
 20
-41.74941814395149
 30
0.0
 11
9.000000000000046
 21
-41.74941814395149
 31
0.0
  0
INSERT
  5
6889
330
5EA0
100
AcDbEntity
  8
30
  6
Continuous
 62
     0
440
 16777216
100
AcDbBlockReference
  2
_OPEN
 10
-10.99999999999999
 20
-41.74941814395149
 30
0.0
 41
2.0
 42
2.0
 43
2.0
 50
180.0
  0
INSERT
  5
688A
330
5EA0
100
AcDbEntity
  8
30
  6
Continuous
 62
     0
440
 16777216
100
AcDbBlockReference
  2
_OPEN
 10
11.00000000000002
 20
-41.74941814395149
 30
0.0
 41
2.0
 42
2.0
 43
2.0
  0
MTEXT
  5
688B
330
5EA0
100
AcDbEntity
  8
30
  6
Continuous
 62
     0
440
 16777216
100
AcDbMText
 10
0.0000000000000277
 20
-38.7494181439515
 30
0.0
 40
4.0
 41
0.0
 46
0.0
 71
     5
 72
     1
  1
\A1;22
 73
     1
 44
1.0
1001
ACAD
1000
MTEXTBEGIN
1070
    73
1070
     1
1070
    44
1040
1.0
1070
    74
1070
     0
1000
MTEXTEND
  0
POINT
  5
688C
330
5EA0
100
AcDbEntity
  8
DEFPOINTS
  6
Continuous
 62
     0
440
 16777216
100
AcDbPoint
 10
-10.99999999999999
 20
-25.0
 30
0.0
  0
POINT
  5
688D
330
5EA0
100
AcDbEntity
  8
DEFPOINTS
  6
Continuous
 62
     0
440
 16777216
100
AcDbPoint
 10
11.00000000000002
 20
-25.0
 30
0.0
  0
POINT
  5
688E
330
5EA0
100
AcDbEntity
  8
DEFPOINTS
  6
Continuous
 62
     0
440
 16777216
100
AcDbPoint
 10
11.00000000000002
 20
-41.74941814395149
 30
0.0
  0
ENDBLK
  5
5EAB
330
5EA0
100
AcDbEntity
  8
0
100
AcDbBlockEnd
  0
BLOCK
  5
5F03
330
5EF9
100
AcDbEntity
  8
0
100
AcDbBlockBegin
  2
*D20
 70
     1
 10
0.0
 20
0.0
 30
0.0
  3
*D20
  1

  0
LINE
  5
6945
330
5EF9
100
AcDbEntity
  8
30
  6
Continuous
 62
     0
440
 16777216
100
AcDbLine
 10
-14.99999999999999
 20
-192.5000000165002
 30
0.0
 11
-15.0
 21
-357.2494181439513
 31
0.0
  0
LINE
  5
6946
330
5EF9
100
AcDbEntity
  8
30
  6
Continuous
 62
     0
440
 16777216
100
AcDbLine
 10
15.0
 20
-324.5000000165001
 30
0.0
 11
15.0
 21
-357.2494181439513
 31
0.0
  0
LINE
  5
6947
330
5EF9
100
AcDbEntity
  8
30
  6
Continuous
 62
     0
440
 16777216
100
AcDbLine
 10
-13.0
 20
-356.7494181439514
 30
0.0
 11
12.99999999999999
 21
-356.7494181439514
 31
0.0
  0
INSERT
  5
6948
330
5EF9
100
AcDbEntity
  8
30
  6
Continuous
 62
     0
440
 16777216
100
AcDbBlockReference
  2
_OPEN
 10
-15.0
 20
-356.7494181439514
 30
0.0
 41
2.0
 42
2.0
 43
2.0
 50
180.0
  0
INSERT
  5
6949
330
5EF9
100
AcDbEntity
  8
30
  6
Continuous
 62
     0
440
 16777216
100
AcDbBlockReference
  2
_OPEN
 10
15.0
 20
-356.7494181439514
 30
0.0
 41
2.0
 42
2.0
 43
2.0
  0
MTEXT
  5
694A
330
5EF9
100
AcDbEntity
  8
30
  6
Continuous
 62
     0
440
 16777216
100
AcDbMText
 10
-0.0000000000000016
 20
-353.7494181439513
 30
0.0
 40
4.0
 41
0.0
 46
0.0
 71
     5
 72
     1
  1
\A1;30
 73
     1
 44
1.0
1001
ACAD
1000
MTEXTBEGIN
1070
    73
1070
     1
1070
    44
1040
1.0
1070
    74
1070
     0
1000
MTEXTEND
  0
POINT
  5
694B
330
5EF9
100
AcDbEntity
  8
DEFPOINTS
  6
Continuous
 62
     0
440
 16777216
100
AcDbPoint
 10
-14.99999999999999
 20
-191.5000000165002
 30
0.0
  0
POINT
  5
694C
330
5EF9
100
AcDbEntity
  8
DEFPOINTS
  6
Continuous
 62
     0
440
 16777216
100
AcDbPoint
 10
15.0
 20
-323.5000000165001
 30
0.0
  0
POINT
  5
694D
330
5EF9
100
AcDbEntity
  8
DEFPOINTS
  6
Continuous
 62
     0
440
 16777216
100
AcDbPoint
 10
15.0
 20
-356.7494181439514
 30
0.0
  0
ENDBLK
  5
5F04
330
5EF9
100
AcDbEntity
  8
0
100
AcDbBlockEnd
  0
BLOCK
  5
5F38
330
5F2F
100
AcDbEntity
  8
0
100
AcDbBlockBegin
  2
*D21
 70
     1
 10
0.0
 20
0.0
 30
0.0
  3
*D21
  1

  0
LINE
  5
65B2
330
5F2F
100
AcDbEntity
  8
30
  6
Continuous
 62
     0
100
AcDbLine
 10
51.91960537553277
 20
-224.6187952184035
 30
0.0
 11
45.5862720421994
 21
-224.6187952184035
 31
0.0
  0
LINE
  5
65B3
330
5F2F
100
AcDbEntity
  8
30
  6
Continuous
 62
     0
100
AcDbLine
 10
45.5862720421994
 20
-224.6187952184035
 30
0.0
 11
43.99972541125129
 21
-225.8365266287836
 31
0.0
  0
MTEXT
  5
65B4
330
5F2F
100
AcDbEntity
  8
30
  6
Continuous
 62
     0
100
AcDbMText
 10
49.25293870886611
 20
-221.6187952184035
 30
0.0
 40
4.0
 41
0.0
 46
0.0
 71
     5
 72
     1
  1
\A1;R1
 73
     1
 44
1.0
1001
ACAD
1000
MTEXTBEGIN
1070
    73
1070
     1
1070
    44
1040
1.0
1070
    74
1070
     0
1000
MTEXTEND
  0
INSERT
  5
65B5
330
5F2F
100
AcDbEntity
  8
30
  6
Continuous
 62
     0
100
AcDbBlockReference
  2
_OPEN
 10
42.41317878030318
 20
-227.0542580391643
 30
0.0
 41
2.0
 42
2.0
 43
2.0
 50
217.5075311795294
  0
LINE
  5
65B6
330
5F2F
100
AcDbEntity
  8
30
  6
Continuous
 62
     0
100
AcDbLine
 10
41.52990546482917
 20
-227.6631237443545
 30
0.0
 11
41.70990546482918
 21
-227.6631237443547
 31
0.0
  0
LINE
  5
65B7
330
5F2F
100
AcDbEntity
  8
30
  6
Continuous
 62
     0
100
AcDbLine
 10
41.61990546482917
 20
-227.7531237443545
 30
0.0
 11
41.61990546482917
 21
-227.5731237443546
 31
0.0
  0
POINT
  5
65B8
330
5F2F
100
AcDbEntity
  8
DEFPOINTS
  6
Continuous
 62
     0
100
AcDbPoint
 10
42.41317878030318
 20
-227.0542580391643
 30
0.0
  0
POINT
  5
65B9
330
5F2F
100
AcDbEntity
  8
DEFPOINTS
  6
Continuous
 62
     0
100
AcDbPoint
 10
41.61990546482917
 20
-227.6631237443547
 30
0.0
  0
ENDBLK
  5
5F39
330
5F2F
100
AcDbEntity
  8
0
100
AcDbBlockEnd
  0
BLOCK
  5
5F76
330
5F6C
100
AcDbEntity
  8
0
100
AcDbBlockBegin
  2
*D22
 70
     1
 10
0.0
 20
0.0
 30
0.0
  3
*D22
  1

  0
LINE
  5
6874
330
5F6C
100
AcDbEntity
  8
30
  6
Continuous
 62
     0
100
AcDbLine
 10
-31.01790353517123
 20
217.1349134126129
 30
0.0
 11
-31.01790353517123
 21
257.4821974718418
 31
0.0
  0
LINE
  5
6875
330
5F6C
100
AcDbEntity
  8
30
  6
Continuous
 62
     0
100
AcDbLine
 10
-1.017903535171259
 20
217.1349134126129
 30
0.0
 11
-1.017903535171257
 21
257.4821974718418
 31
0.0
  0
LINE
  5
6876
330
5F6C
100
AcDbEntity
  8
30
  6
Continuous
 62
     0
100
AcDbLine
 10
-29.01790353517123
 20
256.9821974718418
 30
0.0
 11
-3.017903535171256
 21
256.9821974718418
 31
0.0
  0
INSERT
  5
6877
330
5F6C
100
AcDbEntity
  8
30
  6
Continuous
 62
     0
100
AcDbBlockReference
  2
_OPEN
 10
-31.01790353517123
 20
256.9821974718418
 30
0.0
 41
2.0
 42
2.0
 43
2.0
 50
180.0
  0
INSERT
  5
6878
330
5F6C
100
AcDbEntity
  8
30
  6
Continuous
 62
     0
100
AcDbBlockReference
  2
_OPEN
 10
-1.017903535171257
 20
256.9821974718418
 30
0.0
 41
2.0
 42
2.0
 43
2.0
  0
MTEXT
  5
6879
330
5F6C
100
AcDbEntity
  8
30
  6
Continuous
 62
     0
100
AcDbMText
 10
-16.01790353517124
 20
259.9821974718417
 30
0.0
 40
4.0
 41
0.0
 46
0.0
 71
     5
 72
     1
  1
\A1;30
 73
     1
 44
1.0
1001
ACAD
1000
MTEXTBEGIN
1070
    73
1070
     1
1070
    44
1040
1.0
1070
    74
1070
     0
1000
MTEXTEND
  0
POINT
  5
687A
330
5F6C
100
AcDbEntity
  8
DEFPOINTS
  6
Continuous
 62
     0
100
AcDbPoint
 10
-31.01790353517123
 20
216.1349134126129
 30
0.0
  0
POINT
  5
687B
330
5F6C
100
AcDbEntity
  8
DEFPOINTS
  6
Continuous
 62
     0
100
AcDbPoint
 10
-1.017903535171259
 20
216.1349134126129
 30
0.0
  0
POINT
  5
687C
330
5F6C
100
AcDbEntity
  8
DEFPOINTS
  6
Continuous
 62
     0
100
AcDbPoint
 10
-1.017903535171257
 20
256.9821974718418
 30
0.0
  0
ENDBLK
  5
5F77
330
5F6C
100
AcDbEntity
  8
0
100
AcDbBlockEnd
  0
BLOCK
  5
5F83
330
5F79
100
AcDbEntity
  8
0
100
AcDbBlockBegin
  2
*D23
 70
     1
 10
0.0
 20
0.0
 30
0.0
  3
*D23
  1

  0
LINE
  5
686B
330
5F79
100
AcDbEntity
  8
30
  6
Continuous
 62
     0
100
AcDbLine
 10
-1.017903535171259
 20
218.1349134126129
 30
0.0
 11
-1.017903535171257
 21
257.4821974718418
 31
0.0
  0
LINE
  5
686C
330
5F79
100
AcDbEntity
  8
30
  6
Continuous
 62
     0
100
AcDbLine
 10
28.98209646482873
 20
217.1349134126129
 30
0.0
 11
28.98209646482873
 21
257.4821974718418
 31
0.0
  0
LINE
  5
686D
330
5F79
100
AcDbEntity
  8
30
  6
Continuous
 62
     0
100
AcDbLine
 10
0.9820964648287423
 20
256.9821974718418
 30
0.0
 11
26.98209646482872
 21
256.9821974718418
 31
0.0
  0
INSERT
  5
686E
330
5F79
100
AcDbEntity
  8
30
  6
Continuous
 62
     0
100
AcDbBlockReference
  2
_OPEN
 10
-1.017903535171257
 20
256.9821974718418
 30
0.0
 41
2.0
 42
2.0
 43
2.0
 50
180.0
  0
INSERT
  5
686F
330
5F79
100
AcDbEntity
  8
30
  6
Continuous
 62
     0
100
AcDbBlockReference
  2
_OPEN
 10
28.98209646482873
 20
256.9821974718418
 30
0.0
 41
2.0
 42
2.0
 43
2.0
  0
MTEXT
  5
6870
330
5F79
100
AcDbEntity
  8
30
  6
Continuous
 62
     0
100
AcDbMText
 10
13.98209646482873
 20
259.9821974718417
 30
0.0
 40
4.0
 41
0.0
 46
0.0
 71
     5
 72
     1
  1
\A1;30
 73
     1
 44
1.0
1001
ACAD
1000
MTEXTBEGIN
1070
    73
1070
     1
1070
    44
1040
1.0
1070
    74
1070
     0
1000
MTEXTEND
  0
POINT
  5
6871
330
5F79
100
AcDbEntity
  8
DEFPOINTS
  6
Continuous
 62
     0
100
AcDbPoint
 10
-1.017903535171259
 20
217.1349134126129
 30
0.0
  0
POINT
  5
6872
330
5F79
100
AcDbEntity
  8
DEFPOINTS
  6
Continuous
 62
     0
100
AcDbPoint
 10
28.98209646482873
 20
216.1349134126129
 30
0.0
  0
POINT
  5
6873
330
5F79
100
AcDbEntity
  8
DEFPOINTS
  6
Continuous
 62
     0
100
AcDbPoint
 10
28.98209646482873
 20
256.9821974718418
 30
0.0
  0
ENDBLK
  5
5F84
330
5F79
100
AcDbEntity
  8
0
100
AcDbBlockEnd
  0
BLOCK
  5
6016
330
600C
100
AcDbEntity
  8
0
100
AcDbBlockBegin
  2
*D24
 70
     1
 10
0.0
 20
0.0
 30
0.0
  3
*D24
  1

  0
LINE
  5
6597
330
600C
100
AcDbEntity
  8
30
  6
Continuous
 62
     0
100
AcDbLine
 10
-43.38009453517117
 20
-278.6631237443549
 30
0.0
 11
-43.38009453517117
 21
-371.8804450066013
 31
0.0
  0
LINE
  5
6598
330
600C
100
AcDbEntity
  8
30
  6
Continuous
 62
     0
100
AcDbLine
 10
42.61990546482903
 20
-278.6631237443549
 30
0.0
 11
42.61990546482902
 21
-371.8804450066013
 31
0.0
  0
LINE
  5
6599
330
600C
100
AcDbEntity
  8
30
  6
Continuous
 62
     0
100
AcDbLine
 10
-41.3800945351712
 20
-371.3804450066013
 30
0.0
 11
40.61990546482902
 21
-371.3804450066013
 31
0.0
  0
INSERT
  5
659A
330
600C
100
AcDbEntity
  8
30
  6
Continuous
 62
     0
100
AcDbBlockReference
  2
_OPEN
 10
-43.38009453517117
 20
-371.3804450066013
 30
0.0
 41
2.0
 42
2.0
 43
2.0
 50
180.0
  0
INSERT
  5
659B
330
600C
100
AcDbEntity
  8
30
  6
Continuous
 62
     0
100
AcDbBlockReference
  2
_OPEN
 10
42.61990546482902
 20
-371.3804450066013
 30
0.0
 41
2.0
 42
2.0
 43
2.0
  0
MTEXT
  5
659C
330
600C
100
AcDbEntity
  8
30
  6
Continuous
 62
     0
100
AcDbMText
 10
-0.3800945351710856
 20
-368.3804450066014
 30
0.0
 40
4.0
 41
0.0
 46
0.0
 71
     5
 72
     1
  1
\A1;86
 73
     1
 44
1.0
1001
ACAD
1000
MTEXTBEGIN
1070
    73
1070
     1
1070
    44
1040
1.0
1070
    74
1070
     0
1000
MTEXTEND
  0
POINT
  5
659D
330
600C
100
AcDbEntity
  8
DEFPOINTS
  6
Continuous
 62
     0
100
AcDbPoint
 10
-43.38009453517117
 20
-277.6631237443548
 30
0.0
  0
POINT
  5
659E
330
600C
100
AcDbEntity
  8
DEFPOINTS
  6
Continuous
 62
     0
100
AcDbPoint
 10
42.61990546482903
 20
-277.6631237443548
 30
0.0
  0
POINT
  5
659F
330
600C
100
AcDbEntity
  8
DEFPOINTS
  6
Continuous
 62
     0
100
AcDbPoint
 10
42.61990546482902
 20
-371.3804450066013
 30
0.0
  0
ENDBLK
  5
6017
330
600C
100
AcDbEntity
  8
0
100
AcDbBlockEnd
  0
BLOCK
  5
60C7
330
60BD
100
AcDbEntity
  8
0
100
AcDbBlockBegin
  2
*D25
 70
     1
 10
0.0
 20
0.0
 30
0.0
  3
*D25
  1

  0
LINE
  5
658E
330
60BD
100
AcDbEntity
  8
30
  6
Continuous
 62
     0
100
AcDbLine
 10
42.61990546482879
 20
-226.6631237443549
 30
0.0
 11
76.13773581904563
 21
-226.6631237443549
 31
0.0
  0
LINE
  5
658F
330
60BD
100
AcDbEntity
  8
30
  6
Continuous
 62
     0
100
AcDbLine
 10
42.61990546482879
 20
-278.6631237443549
 30
0.0
 11
76.13773581904563
 21
-278.6631237443549
 31
0.0
  0
LINE
  5
6590
330
60BD
100
AcDbEntity
  8
30
  6
Continuous
 62
     0
100
AcDbLine
 10
75.63773581904563
 20
-228.6631237443549
 30
0.0
 11
75.63773581904563
 21
-276.6631237443549
 31
0.0
  0
INSERT
  5
6591
330
60BD
100
AcDbEntity
  8
30
  6
Continuous
 62
     0
100
AcDbBlockReference
  2
_OPEN
 10
75.63773581904563
 20
-226.6631237443549
 30
0.0
 41
2.0
 42
2.0
 43
2.0
 50
90.0
  0
INSERT
  5
6592
330
60BD
100
AcDbEntity
  8
30
  6
Continuous
 62
     0
100
AcDbBlockReference
  2
_OPEN
 10
75.63773581904563
 20
-278.6631237443549
 30
0.0
 41
2.0
 42
2.0
 43
2.0
 50
270.0
  0
MTEXT
  5
6593
330
60BD
100
AcDbEntity
  8
30
  6
Continuous
 62
     0
100
AcDbMText
 10
72.63773581904567
 20
-252.6631237443548
 30
0.0
 40
4.0
 41
0.0
 46
0.0
 71
     5
 72
     1
  1
\A1;52
 11
0.0000000000000001
 21
1.0
 31
0.0
 73
     1
 44
1.0
1001
ACAD
1000
MTEXTBEGIN
1070
    73
1070
     1
1070
    44
1040
1.0
1070
    74
1070
     0
1000
MTEXTEND
  0
POINT
  5
6594
330
60BD
100
AcDbEntity
  8
DEFPOINTS
  6
Continuous
 62
     0
100
AcDbPoint
 10
41.61990546482878
 20
-226.6631237443549
 30
0.0
  0
POINT
  5
6595
330
60BD
100
AcDbEntity
  8
DEFPOINTS
  6
Continuous
 62
     0
100
AcDbPoint
 10
41.61990546482878
 20
-278.6631237443549
 30
0.0
  0
POINT
  5
6596
330
60BD
100
AcDbEntity
  8
DEFPOINTS
  6
Continuous
 62
     0
100
AcDbPoint
 10
75.63773581904563
 20
-278.6631237443549
 30
0.0
  0
ENDBLK
  5
60C8
330
60BD
100
AcDbEntity
  8
0
100
AcDbBlockEnd
  0
BLOCK
  5
6162
330
6158
100
AcDbEntity
  8
0
100
AcDbBlockBegin
  2
*D26
 70
     1
 10
0.0
 20
0.0
 30
0.0
  3
*D26
  1

  0
LINE
  5
693C
330
6158
100
AcDbEntity
  8
30
  6
Continuous
 62
     0
440
 16777216
100
AcDbLine
 10
-8.499999999999998
 20
-189.0
 30
0.0
 11
88.41568416193036
 21
-189.0
 31
0.0
  0
LINE
  5
693D
330
6158
100
AcDbEntity
  8
30
  6
Continuous
 62
     0
440
 16777216
100
AcDbLine
 10
21.49999999999998
 20
-320.9999999999999
 30
0.0
 11
88.41568416193036
 21
-320.9999999999999
 31
0.0
  0
LINE
  5
693E
330
6158
100
AcDbEntity
  8
30
  6
Continuous
 62
     0
440
 16777216
100
AcDbLine
 10
87.91568416193035
 20
-191.0
 30
0.0
 11
87.91568416193033
 21
-318.9999999999999
 31
0.0
  0
INSERT
  5
693F
330
6158
100
AcDbEntity
  8
30
  6
Continuous
 62
     0
440
 16777216
100
AcDbBlockReference
  2
_OPEN
 10
87.91568416193035
 20
-189.0
 30
0.0
 41
2.0
 42
2.0
 43
2.0
 50
90.0
  0
INSERT
  5
6940
330
6158
100
AcDbEntity
  8
30
  6
Continuous
 62
     0
440
 16777216
100
AcDbBlockReference
  2
_OPEN
 10
87.91568416193033
 20
-320.9999999999999
 30
0.0
 41
2.0
 42
2.0
 43
2.0
 50
270.0
  0
MTEXT
  5
6941
330
6158
100
AcDbEntity
  8
30
  6
Continuous
 62
     0
440
 16777216
100
AcDbMText
 10
84.91568416193038
 20
-255.0
 30
0.0
 40
4.0
 41
0.0
 46
0.0
 71
     5
 72
     1
  1
\A1;132
 11
0.0000000000000001
 21
1.0
 31
0.0
 73
     1
 44
1.0
1001
ACAD
1000
MTEXTBEGIN
1070
    73
1070
     1
1070
    44
1040
1.0
1070
    74
1070
     0
1000
MTEXTEND
  0
POINT
  5
6942
330
6158
100
AcDbEntity
  8
DEFPOINTS
  6
Continuous
 62
     0
440
 16777216
100
AcDbPoint
 10
-9.499999999999998
 20
-189.0
 30
0.0
  0
POINT
  5
6943
330
6158
100
AcDbEntity
  8
DEFPOINTS
  6
Continuous
 62
     0
440
 16777216
100
AcDbPoint
 10
20.49999999999998
 20
-320.9999999999999
 30
0.0
  0
POINT
  5
6944
330
6158
100
AcDbEntity
  8
DEFPOINTS
  6
Continuous
 62
     0
440
 16777216
100
AcDbPoint
 10
87.91568416193033
 20
-320.9999999999999
 30
0.0
  0
ENDBLK
  5
6163
330
6158
100
AcDbEntity
  8
0
100
AcDbBlockEnd
  0
BLOCK
  5
61AA
330
61A0
100
AcDbEntity
  8
0
100
AcDbBlockBegin
  2
*D27
 70
     1
 10
0.0
 20
0.0
 30
0.0
  3
*D27
  1

  0
LINE
  5
6859
330
61A0
100
AcDbEntity
  8
30
  6
Continuous
 62
     0
440
 16777216
100
AcDbLine
 10
-17.5
 20
124.4999999999996
 30
0.0
 11
-68.68995837047084
 21
124.4999999999996
 31
0.0
  0
LINE
  5
685A
330
61A0
100
AcDbEntity
  8
30
  6
Continuous
 62
     0
440
 16777216
100
AcDbLine
 10
-45.99999999999996
 20
77.49999999999997
 30
0.0
 11
-68.68995837047086
 21
77.49999999999997
 31
0.0
  0
LINE
  5
685B
330
61A0
100
AcDbEntity
  8
30
  6
Continuous
 62
     0
440
 16777216
100
AcDbLine
 10
-68.18995837047085
 20
122.4999999999996
 30
0.0
 11
-68.18995837047086
 21
79.49999999999997
 31
0.0
  0
INSERT
  5
685C
330
61A0
100
AcDbEntity
  8
30
  6
Continuous
 62
     0
440
 16777216
100
AcDbBlockReference
  2
_OPEN
 10
-68.18995837047085
 20
124.4999999999996
 30
0.0
 41
2.0
 42
2.0
 43
2.0
 50
90.0
  0
INSERT
  5
685D
330
61A0
100
AcDbEntity
  8
30
  6
Continuous
 62
     0
440
 16777216
100
AcDbBlockReference
  2
_OPEN
 10
-68.18995837047086
 20
77.49999999999997
 30
0.0
 41
2.0
 42
2.0
 43
2.0
 50
270.0
  0
MTEXT
  5
685E
330
61A0
100
AcDbEntity
  8
30
  6
Continuous
 62
     0
440
 16777216
100
AcDbMText
 10
-71.18995837047087
 20
100.9999999999997
 30
0.0
 40
4.0
 41
0.0
 46
0.0
 71
     5
 72
     1
  1
\A1;47
 11
0.0000000000000001
 21
1.0
 31
0.0
 73
     1
 44
1.0
1001
ACAD
1000
MTEXTBEGIN
1070
    73
1070
     1
1070
    44
1040
1.0
1070
    74
1070
     0
1000
MTEXTEND
  0
POINT
  5
685F
330
61A0
100
AcDbEntity
  8
DEFPOINTS
  6
Continuous
 62
     0
440
 16777216
100
AcDbPoint
 10
-16.5
 20
124.4999999999996
 30
0.0
  0
POINT
  5
6860
330
61A0
100
AcDbEntity
  8
DEFPOINTS
  6
Continuous
 62
     0
440
 16777216
100
AcDbPoint
 10
-44.99999999999997
 20
77.49999999999997
 30
0.0
  0
POINT
  5
6861
330
61A0
100
AcDbEntity
  8
DEFPOINTS
  6
Continuous
 62
     0
440
 16777216
100
AcDbPoint
 10
-68.18995837047086
 20
77.49999999999997
 30
0.0
  0
ENDBLK
  5
61AB
330
61A0
100
AcDbEntity
  8
0
100
AcDbBlockEnd
  0
BLOCK
  5
61B7
330
61AD
100
AcDbEntity
  8
0
100
AcDbBlockBegin
  2
*D28
 70
     1
 10
0.0
 20
0.0
 30
0.0
  3
*D28
  1

  0
LINE
  5
6C0B
330
61AD
100
AcDbEntity
  8
30
  6
Continuous
 62
     0
440
 16777216
100
AcDbLine
 10
-45.99999999999996
 20
77.49999999999997
 30
0.0
 11
-68.68995837047086
 21
77.49999999999997
 31
0.0
  0
LINE
  5
6C0C
330
61AD
100
AcDbEntity
  8
30
  6
Continuous
 62
     0
440
 16777216
100
AcDbLine
 10
-45.99999999999996
 20
-77.50000000000003
 30
0.0
 11
-68.68995837047089
 21
-77.50000000000003
 31
0.0
  0
LINE
  5
6C0D
330
61AD
100
AcDbEntity
  8
30
  6
Continuous
 62
     0
440
 16777216
100
AcDbLine
 10
-68.18995837047086
 20
75.49999999999997
 30
0.0
 11
-68.18995837047089
 21
-75.50000000000003
 31
0.0
  0
INSERT
  5
6C0E
330
61AD
100
AcDbEntity
  8
30
  6
Continuous
 62
     0
440
 16777216
100
AcDbBlockReference
  2
_OPEN
 10
-68.18995837047086
 20
77.49999999999997
 30
0.0
 41
2.0
 42
2.0
 43
2.0
 50
90.0
  0
INSERT
  5
6C0F
330
61AD
100
AcDbEntity
  8
30
  6
Continuous
 62
     0
440
 16777216
100
AcDbBlockReference
  2
_OPEN
 10
-68.18995837047089
 20
-77.50000000000003
 30
0.0
 41
2.0
 42
2.0
 43
2.0
 50
270.0
  0
MTEXT
  5
6C10
330
61AD
100
AcDbEntity
  8
30
  6
Continuous
 62
     0
440
 16777216
100
AcDbMText
 10
-71.18995837047087
 20
-0.0000000000000381
 30
0.0
 40
4.0
 41
0.0
 46
0.0
 71
     5
 72
     1
  1
\A1;155
 11
0.0000000000000001
 21
1.0
 31
0.0
 73
     1
 44
1.0
1001
ACAD
1000
MTEXTBEGIN
1070
    73
1070
     1
1070
    44
1040
1.0
1070
    74
1070
     0
1000
MTEXTEND
  0
POINT
  5
6C11
330
61AD
100
AcDbEntity
  8
DEFPOINTS
  6
Continuous
 62
     0
440
 16777216
100
AcDbPoint
 10
-44.99999999999997
 20
77.49999999999997
 30
0.0
  0
POINT
  5
6C12
330
61AD
100
AcDbEntity
  8
DEFPOINTS
  6
Continuous
 62
     0
440
 16777216
100
AcDbPoint
 10
-44.99999999999997
 20
-77.50000000000003
 30
0.0
  0
POINT
  5
6C13
330
61AD
100
AcDbEntity
  8
DEFPOINTS
  6
Continuous
 62
     0
440
 16777216
100
AcDbPoint
 10
-68.18995837047089
 20
-77.50000000000003
 30
0.0
  0
ENDBLK
  5
61B8
330
61AD
100
AcDbEntity
  8
0
100
AcDbBlockEnd
  0
BLOCK
  5
66AC
330
66A2
100
AcDbEntity
  8
0
100
AcDbBlockBegin
  2
*D29
 70
     1
 10
0.0
 20
0.0
 30
0.0
  3
*D29
  1

  0
LINE
  5
6B34
330
66A2
100
AcDbEntity
  8
30
  6
Continuous
 62
     0
440
 16777216
100
AcDbLine
 10
301.8144775593031
 20
-78.50000000000003
 30
0.0
 11
301.8144775593031
 21
-90.41608514395143
 31
0.0
  0
LINE
  5
6B35
330
66A2
100
AcDbEntity
  8
30
  6
Continuous
 62
     0
440
 16777216
100
AcDbLine
 10
309.8144775593032
 20
-69.25000000000001
 30
0.0
 11
309.8144775593032
 21
-90.41608514395143
 31
0.0
  0
LINE
  5
6B36
330
66A2
100
AcDbEntity
  8
30
  6
Continuous
 62
     0
440
 16777216
100
AcDbLine
 10
303.8144775593031
 20
-89.91608514395144
 30
0.0
 11
307.8144775593032
 21
-89.91608514395144
 31
0.0
  0
INSERT
  5
6B37
330
66A2
100
AcDbEntity
  8
30
  6
Continuous
 62
     0
440
 16777216
100
AcDbBlockReference
  2
_OPEN
 10
301.8144775593031
 20
-89.91608514395144
 30
0.0
 41
2.0
 42
2.0
 43
2.0
 50
180.0
  0
INSERT
  5
6B38
330
66A2
100
AcDbEntity
  8
30
  6
Continuous
 62
     0
440
 16777216
100
AcDbBlockReference
  2
_OPEN
 10
309.8144775593032
 20
-89.91608514395144
 30
0.0
 41
2.0
 42
2.0
 43
2.0
  0
MTEXT
  5
6B39
330
66A2
100
AcDbEntity
  8
30
  6
Continuous
 62
     0
440
 16777216
100
AcDbMText
 10
305.8144775593031
 20
-86.91608514395143
 30
0.0
 40
4.0
 41
0.0
 46
0.0
 71
     5
 72
     1
  1
\A1;8
 73
     1
 44
1.0
1001
ACAD
1000
MTEXTBEGIN
1070
    73
1070
     1
1070
    44
1040
1.0
1070
    74
1070
     0
1000
MTEXTEND
  0
POINT
  5
6B3A
330
66A2
100
AcDbEntity
  8
DEFPOINTS
  6
Continuous
 62
     0
440
 16777216
100
AcDbPoint
 10
301.8144775593031
 20
-77.50000000000003
 30
0.0
  0
POINT
  5
6B3B
330
66A2
100
AcDbEntity
  8
DEFPOINTS
  6
Continuous
 62
     0
440
 16777216
100
AcDbPoint
 10
309.8144775593032
 20
-68.25000000000001
 30
0.0
  0
POINT
  5
6B3C
330
66A2
100
AcDbEntity
  8
DEFPOINTS
  6
Continuous
 62
     0
440
 16777216
100
AcDbPoint
 10
309.8144775593032
 20
-89.91608514395144
 30
0.0
  0
ENDBLK
  5
66AD
330
66A2
100
AcDbEntity
  8
0
100
AcDbBlockEnd
  0
BLOCK
  5
678C
330
6782
100
AcDbEntity
  8
0
100
AcDbBlockBegin
  2
*D30
 70
     1
 10
0.0
 20
0.0
 30
0.0
  3
*D30
  1

  0
LINE
  5
67BD
330
6782
100
AcDbEntity
  8
30
  6
Continuous
 62
     0
100
AcDbLine
 10
165.0
 20
-190.8833992259861
 30
0.0
 11
165.0
 21
-355.6328173534375
 31
0.0
  0
LINE
  5
67BE
330
6782
100
AcDbEntity
  8
30
  6
Continuous
 62
     0
100
AcDbLine
 10
195.0
 20
-322.883399225986
 30
0.0
 11
195.0
 21
-355.6328173534375
 31
0.0
  0
LINE
  5
67BF
330
6782
100
AcDbEntity
  8
30
  6
Continuous
 62
     0
100
AcDbLine
 10
167.0
 20
-355.1328173534374
 30
0.0
 11
193.0
 21
-355.1328173534374
 31
0.0
  0
INSERT
  5
67C0
330
6782
100
AcDbEntity
  8
30
  6
Continuous
 62
     0
100
AcDbBlockReference
  2
_OPEN
 10
165.0
 20
-355.1328173534374
 30
0.0
 41
2.0
 42
2.0
 43
2.0
 50
180.0
  0
INSERT
  5
67C1
330
6782
100
AcDbEntity
  8
30
  6
Continuous
 62
     0
100
AcDbBlockReference
  2
_OPEN
 10
195.0
 20
-355.1328173534374
 30
0.0
 41
2.0
 42
2.0
 43
2.0
  0
MTEXT
  5
67C2
330
6782
100
AcDbEntity
  8
30
  6
Continuous
 62
     0
100
AcDbMText
 10
180.0
 20
-352.1328173534373
 30
0.0
 40
4.0
 41
0.0
 46
0.0
 71
     5
 72
     1
  1
\A1;30
 73
     1
 44
1.0
1001
ACAD
1000
MTEXTBEGIN
1070
    73
1070
     1
1070
    44
1040
1.0
1070
    74
1070
     0
1000
MTEXTEND
  0
POINT
  5
67C3
330
6782
100
AcDbEntity
  8
DEFPOINTS
  6
Continuous
 62
     0
100
AcDbPoint
 10
165.0
 20
-189.8833992259856
 30
0.0
  0
POINT
  5
67C4
330
6782
100
AcDbEntity
  8
DEFPOINTS
  6
Continuous
 62
     0
100
AcDbPoint
 10
195.0
 20
-321.883399225986
 30
0.0
  0
POINT
  5
67C5
330
6782
100
AcDbEntity
  8
DEFPOINTS
  6
Continuous
 62
     0
100
AcDbPoint
 10
195.0
 20
-355.1328173534374
 30
0.0
  0
ENDBLK
  5
678D
330
6782
100
AcDbEntity
  8
0
100
AcDbBlockEnd
  0
BLOCK
  5
6798
330
678E
100
AcDbEntity
  8
0
100
AcDbBlockBegin
  2
*D31
 70
     1
 10
0.0
 20
0.0
 30
0.0
  3
*D31
  1

  0
LINE
  5
67C6
330
678E
100
AcDbEntity
  8
30
  6
Continuous
 62
     0
100
AcDbLine
 10
137.0
 20
-279.3833992094858
 30
0.0
 11
137.0
 21
-372.6007204717323
 31
0.0
  0
LINE
  5
67C7
330
678E
100
AcDbEntity
  8
30
  6
Continuous
 62
     0
100
AcDbLine
 10
223.0000000000002
 20
-279.3833992094858
 30
0.0
 11
223.0000000000002
 21
-372.6007204717323
 31
0.0
  0
LINE
  5
67C8
330
678E
100
AcDbEntity
  8
30
  6
Continuous
 62
     0
100
AcDbLine
 10
139.0
 20
-372.1007204717323
 30
0.0
 11
221.0000000000002
 21
-372.1007204717323
 31
0.0
  0
INSERT
  5
67C9
330
678E
100
AcDbEntity
  8
30
  6
Continuous
 62
     0
100
AcDbBlockReference
  2
_OPEN
 10
137.0
 20
-372.1007204717323
 30
0.0
 41
2.0
 42
2.0
 43
2.0
 50
180.0
  0
INSERT
  5
67CA
330
678E
100
AcDbEntity
  8
30
  6
Continuous
 62
     0
100
AcDbBlockReference
  2
_OPEN
 10
223.0000000000002
 20
-372.1007204717323
 30
0.0
 41
2.0
 42
2.0
 43
2.0
  0
MTEXT
  5
67CB
330
678E
100
AcDbEntity
  8
30
  6
Continuous
 62
     0
100
AcDbMText
 10
180.0
 20
-369.1007204717323
 30
0.0
 40
4.0
 41
0.0
 46
0.0
 71
     5
 72
     1
  1
\A1;86
 73
     1
 44
1.0
1001
ACAD
1000
MTEXTBEGIN
1070
    73
1070
     1
1070
    44
1040
1.0
1070
    74
1070
     0
1000
MTEXTEND
  0
POINT
  5
67CC
330
678E
100
AcDbEntity
  8
DEFPOINTS
  6
Continuous
 62
     0
100
AcDbPoint
 10
137.0
 20
-278.3833992094859
 30
0.0
  0
POINT
  5
67CD
330
678E
100
AcDbEntity
  8
DEFPOINTS
  6
Continuous
 62
     0
100
AcDbPoint
 10
223.0000000000002
 20
-278.3833992094859
 30
0.0
  0
POINT
  5
67CE
330
678E
100
AcDbEntity
  8
DEFPOINTS
  6
Continuous
 62
     0
100
AcDbPoint
 10
223.0000000000002
 20
-372.1007204717323
 30
0.0
  0
ENDBLK
  5
6799
330
678E
100
AcDbEntity
  8
0
100
AcDbBlockEnd
  0
BLOCK
  5
67A3
330
679A
100
AcDbEntity
  8
0
100
AcDbBlockBegin
  2
*D32
 70
     1
 10
0.0
 20
0.0
 30
0.0
  3
*D32
  1

  0
LINE
  5
6B07
330
679A
100
AcDbEntity
  8
30
  6
Continuous
 62
     0
440
 16777216
100
AcDbLine
 10
312.299699910704
 20
-226.9556714740484
 30
0.0
 11
305.9663665773707
 21
-226.9556714740484
 31
0.0
  0
LINE
  5
6B08
330
679A
100
AcDbEntity
  8
30
  6
Continuous
 62
     0
440
 16777216
100
AcDbLine
 10
305.9663665773707
 20
-226.9556714740484
 30
0.0
 11
304.3798199464225
 21
-228.1734028844285
 31
0.0
  0
MTEXT
  5
6B09
330
679A
100
AcDbEntity
  8
30
  6
Continuous
 62
     0
440
 16777216
100
AcDbMText
 10
309.6330332440373
 20
-223.9556714740484
 30
0.0
 40
4.0
 41
0.0
 46
0.0
 71
     5
 72
     1
  1
\A1;R1
 73
     1
 44
1.0
1001
ACAD
1000
MTEXTBEGIN
1070
    73
1070
     1
1070
    44
1040
1.0
1070
    74
1070
     0
1000
MTEXTEND
  0
INSERT
  5
6B0A
330
679A
100
AcDbEntity
  8
30
  6
Continuous
 62
     0
440
 16777216
100
AcDbBlockReference
  2
_OPEN
 10
302.7932733154743
 20
-229.3911342948091
 30
0.0
 41
2.0
 42
2.0
 43
2.0
 50
217.5075311795255
  0
LINE
  5
6B0B
330
679A
100
AcDbEntity
  8
30
  6
Continuous
 62
     0
440
 16777216
100
AcDbLine
 10
301.91
 20
-229.9999999999993
 30
0.0
 11
302.0899999999998
 21
-229.9999999999993
 31
0.0
  0
LINE
  5
6B0C
330
679A
100
AcDbEntity
  8
30
  6
Continuous
 62
     0
440
 16777216
100
AcDbLine
 10
302.0
 20
-230.0899999999993
 30
0.0
 11
302.0000000000001
 21
-229.9099999999993
 31
0.0
  0
POINT
  5
6B0D
330
679A
100
AcDbEntity
  8
DEFPOINTS
  6
Continuous
 62
     0
440
 16777216
100
AcDbPoint
 10
302.7932733154743
 20
-229.3911342948091
 30
0.0
  0
POINT
  5
6B0E
330
679A
100
AcDbEntity
  8
DEFPOINTS
  6
Continuous
 62
     0
440
 16777216
100
AcDbPoint
 10
302.0000000000001
 20
-229.9999999999994
 30
0.0
  0
ENDBLK
  5
67A4
330
679A
100
AcDbEntity
  8
0
100
AcDbBlockEnd
  0
BLOCK
  5
67AF
330
67A5
100
AcDbEntity
  8
0
100
AcDbBlockBegin
  2
*D33
 70
     1
 10
0.0
 20
0.0
 30
0.0
  3
*D33
  1

  0
LINE
  5
6AFE
330
67A5
100
AcDbEntity
  8
30
  6
Continuous
 62
     0
440
 16777216
100
AcDbLine
 10
303.0
 20
-228.9999999999998
 30
0.0
 11
336.5178303542168
 21
-228.9999999999998
 31
0.0
  0
LINE
  5
6AFF
330
67A5
100
AcDbEntity
  8
30
  6
Continuous
 62
     0
440
 16777216
100
AcDbLine
 10
303.0
 20
-280.9999999999998
 30
0.0
 11
336.5178303542168
 21
-280.9999999999998
 31
0.0
  0
LINE
  5
6B00
330
67A5
100
AcDbEntity
  8
30
  6
Continuous
 62
     0
440
 16777216
100
AcDbLine
 10
336.0178303542168
 20
-230.9999999999998
 30
0.0
 11
336.0178303542168
 21
-278.9999999999998
 31
0.0
  0
INSERT
  5
6B01
330
67A5
100
AcDbEntity
  8
30
  6
Continuous
 62
     0
440
 16777216
100
AcDbBlockReference
  2
_OPEN
 10
336.0178303542168
 20
-228.9999999999998
 30
0.0
 41
2.0
 42
2.0
 43
2.0
 50
90.0
  0
INSERT
  5
6B02
330
67A5
100
AcDbEntity
  8
30
  6
Continuous
 62
     0
440
 16777216
100
AcDbBlockReference
  2
_OPEN
 10
336.0178303542168
 20
-280.9999999999998
 30
0.0
 41
2.0
 42
2.0
 43
2.0
 50
270.0
  0
MTEXT
  5
6B03
330
67A5
100
AcDbEntity
  8
30
  6
Continuous
 62
     0
440
 16777216
100
AcDbMText
 10
333.0178303542168
 20
-254.9999999999998
 30
0.0
 40
4.0
 41
0.0
 46
0.0
 71
     5
 72
     1
  1
\A1;52
 11
0.0000000000000001
 21
1.0
 31
0.0
 73
     1
 44
1.0
1001
ACAD
1000
MTEXTBEGIN
1070
    73
1070
     1
1070
    44
1040
1.0
1070
    74
1070
     0
1000
MTEXTEND
  0
POINT
  5
6B04
330
67A5
100
AcDbEntity
  8
DEFPOINTS
  6
Continuous
 62
     0
440
 16777216
100
AcDbPoint
 10
302.0
 20
-228.9999999999998
 30
0.0
  0
POINT
  5
6B05
330
67A5
100
AcDbEntity
  8
DEFPOINTS
  6
Continuous
 62
     0
440
 16777216
100
AcDbPoint
 10
302.0
 20
-280.9999999999998
 30
0.0
  0
POINT
  5
6B06
330
67A5
100
AcDbEntity
  8
DEFPOINTS
  6
Continuous
 62
     0
440
 16777216
100
AcDbPoint
 10
336.0178303542168
 20
-280.9999999999998
 30
0.0
  0
ENDBLK
  5
67B0
330
67A5
100
AcDbEntity
  8
0
100
AcDbBlockEnd
  0
BLOCK
  5
67BB
330
67B1
100
AcDbEntity
  8
0
100
AcDbBlockBegin
  2
*D34
 70
     1
 10
0.0
 20
0.0
 30
0.0
  3
*D34
  1

  0
LINE
  5
67E0
330
67B1
100
AcDbEntity
  8
30
  6
Continuous
 62
     0
100
AcDbLine
 10
171.5
 20
-187.383399209486
 30
0.0
 11
268.4156841619302
 21
-187.383399209486
 31
0.0
  0
LINE
  5
67E1
330
67B1
100
AcDbEntity
  8
30
  6
Continuous
 62
     0
100
AcDbLine
 10
201.5
 20
-319.3833992094859
 30
0.0
 11
268.4156841619302
 21
-319.3833992094859
 31
0.0
  0
LINE
  5
67E2
330
67B1
100
AcDbEntity
  8
30
  6
Continuous
 62
     0
100
AcDbLine
 10
267.9156841619303
 20
-189.383399209486
 30
0.0
 11
267.9156841619303
 21
-317.3833992094859
 31
0.0
  0
INSERT
  5
67E3
330
67B1
100
AcDbEntity
  8
30
  6
Continuous
 62
     0
100
AcDbBlockReference
  2
_OPEN
 10
267.9156841619303
 20
-187.383399209486
 30
0.0
 41
2.0
 42
2.0
 43
2.0
 50
90.0
  0
INSERT
  5
67E4
330
67B1
100
AcDbEntity
  8
30
  6
Continuous
 62
     0
100
AcDbBlockReference
  2
_OPEN
 10
267.9156841619303
 20
-319.3833992094859
 30
0.0
 41
2.0
 42
2.0
 43
2.0
 50
270.0
  0
MTEXT
  5
67E5
330
67B1
100
AcDbEntity
  8
30
  6
Continuous
 62
     0
100
AcDbMText
 10
264.9156841619304
 20
-253.383399209486
 30
0.0
 40
4.0
 41
0.0
 46
0.0
 71
     5
 72
     1
  1
\A1;132
 11
0.0000000000000001
 21
1.0
 31
0.0
 73
     1
 44
1.0
1001
ACAD
1000
MTEXTBEGIN
1070
    73
1070
     1
1070
    44
1040
1.0
1070
    74
1070
     0
1000
MTEXTEND
  0
POINT
  5
67E6
330
67B1
100
AcDbEntity
  8
DEFPOINTS
  6
Continuous
 62
     0
100
AcDbPoint
 10
170.5
 20
-187.383399209486
 30
0.0
  0
POINT
  5
67E7
330
67B1
100
AcDbEntity
  8
DEFPOINTS
  6
Continuous
 62
     0
100
AcDbPoint
 10
200.4999999999999
 20
-319.3833992094859
 30
0.0
  0
POINT
  5
67E8
330
67B1
100
AcDbEntity
  8
DEFPOINTS
  6
Continuous
 62
     0
100
AcDbPoint
 10
267.9156841619303
 20
-319.3833992094859
 30
0.0
  0
ENDBLK
  5
67BC
330
67B1
100
AcDbEntity
  8
0
100
AcDbBlockEnd
  0
BLOCK
  5
67F4
330
67EA
100
AcDbEntity
  8
0
100
AcDbBlockBegin
  2
*D35
 70
     1
 10
0.0
 20
0.0
 30
0.0
  3
*D35
  1

  0
LINE
  5
6B63
330
67EA
100
AcDbEntity
  8
30
  6
Continuous
 62
     0
440
 16777216
100
AcDbLine
 10
217.0
 20
-256.0
 30
0.0
 11
217.0
 21
-369.1166007905138
 31
0.0
  0
LINE
  5
6B64
330
67EA
100
AcDbEntity
  8
30
  6
Continuous
 62
     0
440
 16777216
100
AcDbLine
 10
303.0000000000001
 20
-255.9999999999998
 30
0.0
 11
303.0000000000001
 21
-369.1166007905138
 31
0.0
  0
LINE
  5
6B65
330
67EA
100
AcDbEntity
  8
30
  6
Continuous
 62
     0
440
 16777216
100
AcDbLine
 10
219.0
 20
-368.6166007905138
 30
0.0
 11
301.0000000000001
 21
-368.6166007905138
 31
0.0
  0
INSERT
  5
6B66
330
67EA
100
AcDbEntity
  8
30
  6
Continuous
 62
     0
440
 16777216
100
AcDbBlockReference
  2
_OPEN
 10
217.0
 20
-368.6166007905138
 30
0.0
 41
2.0
 42
2.0
 43
2.0
 50
180.0
  0
INSERT
  5
6B67
330
67EA
100
AcDbEntity
  8
30
  6
Continuous
 62
     0
440
 16777216
100
AcDbBlockReference
  2
_OPEN
 10
303.0000000000001
 20
-368.6166007905138
 30
0.0
 41
2.0
 42
2.0
 43
2.0
  0
MTEXT
  5
6B68
330
67EA
100
AcDbEntity
  8
30
  6
Continuous
 62
     0
440
 16777216
100
AcDbMText
 10
260.0
 20
-365.6166007905138
 30
0.0
 40
4.0
 41
0.0
 46
0.0
 71
     5
 72
     1
  1
\A1;86
 73
     1
 44
1.0
1001
ACAD
1000
MTEXTBEGIN
1070
    73
1070
     1
1070
    44
1040
1.0
1070
    74
1070
     0
1000
MTEXTEND
  0
POINT
  5
6B69
330
67EA
100
AcDbEntity
  8
DEFPOINTS
  6
Continuous
 62
     0
440
 16777216
100
AcDbPoint
 10
217.0
 20
-255.0
 30
0.0
  0
POINT
  5
6B6A
330
67EA
100
AcDbEntity
  8
DEFPOINTS
  6
Continuous
 62
     0
440
 16777216
100
AcDbPoint
 10
303.0000000000001
 20
-254.9999999999998
 30
0.0
  0
POINT
  5
6B6B
330
67EA
100
AcDbEntity
  8
DEFPOINTS
  6
Continuous
 62
     0
440
 16777216
100
AcDbPoint
 10
303.0000000000001
 20
-368.6166007905138
 30
0.0
  0
ENDBLK
  5
67F5
330
67EA
100
AcDbEntity
  8
0
100
AcDbBlockEnd
  0
BLOCK
  5
6A40
330
6A16
100
AcDbEntity
  8
0
100
AcDbBlockBegin
  2
A$C201D3A2B
 70
     0
 10
0.0
 20
0.0
 30
0.0
  3
A$C201D3A2B
  1

  0
CIRCLE
  5
6A17
330
6A16
100
AcDbEntity
  8
0
100
AcDbCircle
 10
-15.8
 20
-26.89999999999999
 30
0.0
 40
2.6
  0
CIRCLE
  5
6A18
330
6A16
100
AcDbEntity
  8
0
100
AcDbCircle
 10
-15.8
 20
-26.89999999999999
 30
0.0
 40
3.6
  0
LINE
  5
6A19
330
6A16
100
AcDbEntity
  8
0
100
AcDbLine
 10
-19.30000000000001
 20
-40.49999999999999
 30
0.0
 11
-11.30000000000001
 21
-40.49999999999999
 31
0.0
  0
LINE
  5
6A1A
330
6A16
100
AcDbEntity
  8
0
100
AcDbLine
 10
-19.30000000000001
 20
-37.5
 30
0.0
 11
-11.30000000000001
 21
-37.5
 31
0.0
  0
LINE
  5
6A1B
330
6A16
100
AcDbEntity
  8
0
100
AcDbLine
 10
-19.30000000000001
 20
-35.5
 30
0.0
 11
-11.30000000000001
 21
-35.5
 31
0.0
  0
LINE
  5
6A1C
330
6A16
100
AcDbEntity
  8
0
100
AcDbLine
 10
-19.30000000000001
 20
-32.5
 30
0.0
 11
-11.30000000000001
 21
-32.5
 31
0.0
  0
LINE
  5
6A1D
330
6A16
100
AcDbEntity
  8
0
100
AcDbLine
 10
-19.30000000000001
 20
-37.5
 30
0.0
 11
-19.30000000000001
 21
-40.49999999999999
 31
0.0
  0
LINE
  5
6A1E
330
6A16
100
AcDbEntity
  8
0
100
AcDbLine
 10
-19.30000000000001
 20
-32.5
 30
0.0
 11
-19.30000000000001
 21
-35.5
 31
0.0
  0
LINE
  5
6A1F
330
6A16
100
AcDbEntity
  8
0
100
AcDbLine
 10
-11.30000000000001
 20
-37.5
 30
0.0
 11
-11.30000000000001
 21
-40.49999999999999
 31
0.0
  0
LINE
  5
6A20
330
6A16
100
AcDbEntity
  8
0
100
AcDbLine
 10
-11.30000000000001
 20
-32.5
 30
0.0
 11
-11.30000000000001
 21
-35.5
 31
0.0
  0
CIRCLE
  5
6A21
330
6A16
100
AcDbEntity
  8
0
100
AcDbCircle
 10
-15.8
 20
-19.19999999999999
 30
0.0
 40
3.6
  0
CIRCLE
  5
6A22
330
6A16
100
AcDbEntity
  8
0
100
AcDbCircle
 10
-15.8
 20
-19.19999999999999
 30
0.0
 40
2.6
  0
CIRCLE
  5
6A23
330
6A16
100
AcDbEntity
  8
0
100
AcDbCircle
 10
-15.8
 20
-12.69999999999998
 30
0.0
 40
1.5
  0
LINE
  5
6A24
330
6A16
100
AcDbEntity
  8
0
100
AcDbLine
 10
83.49999999999999
 20
-28.5
 30
0.0
 11
83.49999999999999
 21
-21.49999999999999
 31
0.0
  0
LINE
  5
6A25
330
6A16
100
AcDbEntity
  8
0
100
AcDbLine
 10
68.5
 20
-28.5
 30
0.0
 11
68.5
 21
-21.49999999999999
 31
0.0
  0
LINE
  5
6A26
330
6A16
100
AcDbEntity
  8
0
100
AcDbLine
 10
40.66646632145503
 20
-28.0
 30
0.0
 11
68.5
 21
-28.0
 31
0.0
  0
LINE
  5
6A27
330
6A16
100
AcDbEntity
  8
0
100
AcDbLine
 10
0.0
 20
-28.0
 30
0.0
 11
36.66646632145504
 21
-28.0
 31
0.0
  0
LINE
  5
6A28
330
6A16
100
AcDbEntity
  8
0
100
AcDbLine
 10
83.49999999999999
 20
-28.0
 30
0.0
 11
116.0
 21
-28.0
 31
0.0
  0
LINE
  5
6A29
330
6A16
100
AcDbEntity
  8
0
100
AcDbLine
 10
68.5
 20
-28.5
 30
0.0
 11
83.49999999999999
 21
-28.5
 31
0.0
  0
LINE
  5
6A2A
330
6A16
100
AcDbEntity
  8
0
100
AcDbLine
 10
41.8699037977761
 20
-26.0
 30
0.0
 11
68.5
 21
-26.0
 31
0.0
  0
LINE
  5
6A2B
330
6A16
100
AcDbEntity
  8
0
100
AcDbLine
 10
41.53199924773557
 20
-24.0
 30
0.0
 11
68.5
 21
-24.0
 31
0.0
  0
LINE
  5
6A2C
330
6A16
100
AcDbEntity
  8
0
100
AcDbLine
 10
42.01770323792863
 20
-22.0
 30
0.0
 11
68.5
 21
-22.0
 31
0.0
  0
LINE
  5
6A2D
330
6A16
100
AcDbEntity
  8
0
100
AcDbLine
 10
0.0
 20
-26.0
 30
0.0
 11
37.86990379777611
 21
-26.0
 31
0.0
  0
LINE
  5
6A2E
330
6A16
100
AcDbEntity
  8
0
100
AcDbLine
 10
0.0
 20
-24.0
 30
0.0
 11
37.53199924773539
 21
-24.0
 31
0.0
  0
LINE
  5
6A2F
330
6A16
100
AcDbEntity
  8
0
100
AcDbLine
 10
0.0
 20
-22.0
 30
0.0
 11
38.01770323792864
 21
-22.0
 31
0.0
  0
LINE
  5
6A30
330
6A16
100
AcDbEntity
  8
0
100
AcDbLine
 10
83.49999999999999
 20
-22.0
 30
0.0
 11
116.0
 21
-22.0
 31
0.0
  0
LINE
  5
6A31
330
6A16
100
AcDbEntity
  8
0
100
AcDbLine
 10
83.49999999999999
 20
-26.0
 30
0.0
 11
116.0
 21
-26.0
 31
0.0
  0
LINE
  5
6A32
330
6A16
100
AcDbEntity
  8
0
100
AcDbLine
 10
83.49999999999999
 20
-24.0
 30
0.0
 11
116.0
 21
-24.0
 31
0.0
  0
LINE
  5
6A33
330
6A16
100
AcDbEntity
  8
0
100
AcDbLine
 10
68.5
 20
-21.49999999999999
 30
0.0
 11
83.49999999999999
 21
-21.49999999999999
 31
0.0
  0
LINE
  5
6A34
330
6A16
100
AcDbEntity
  8
0
100
AcDbLine
 10
116.0
 20
-28.0
 30
0.0
 11
116.0
 21
-26.0
 31
0.0
  0
LINE
  5
6A35
330
6A16
100
AcDbEntity
  8
0
100
AcDbLine
 10
116.0
 20
-27.5
 30
0.0
 11
121.0
 21
-27.5
 31
0.0
  0
LINE
  5
6A36
330
6A16
100
AcDbEntity
  8
0
100
AcDbLine
 10
116.0
 20
-26.5
 30
0.0
 11
121.0
 21
-26.5
 31
0.0
  0
LINE
  5
6A37
330
6A16
100
AcDbEntity
  8
0
100
AcDbLine
 10
121.0
 20
-27.5
 30
0.0
 11
121.0
 21
-26.5
 31
0.0
  0
LINE
  5
6A38
330
6A16
100
AcDbEntity
  8
0
100
AcDbLine
 10
116.0
 20
-25.5
 30
0.0
 11
121.0
 21
-25.5
 31
0.0
  0
LINE
  5
6A39
330
6A16
100
AcDbEntity
  8
0
100
AcDbLine
 10
116.0
 20
-24.5
 30
0.0
 11
121.0
 21
-24.5
 31
0.0
  0
LINE
  5
6A3A
330
6A16
100
AcDbEntity
  8
0
100
AcDbLine
 10
116.0
 20
-23.5
 30
0.0
 11
121.0
 21
-23.5
 31
0.0
  0
LINE
  5
6A3B
330
6A16
100
AcDbEntity
  8
0
100
AcDbLine
 10
116.0
 20
-22.5
 30
0.0
 11
121.0
 21
-22.5
 31
0.0
  0
LINE
  5
6A3C
330
6A16
100
AcDbEntity
  8
0
100
AcDbLine
 10
116.0
 20
-26.0
 30
0.0
 11
116.0
 21
-24.0
 31
0.0
  0
LINE
  5
6A3D
330
6A16
100
AcDbEntity
  8
0
100
AcDbLine
 10
116.0
 20
-24.0
 30
0.0
 11
116.0
 21
-22.0
 31
0.0
  0
LINE
  5
6A3E
330
6A16
100
AcDbEntity
  8
0
100
AcDbLine
 10
121.0
 20
-25.5
 30
0.0
 11
121.0
 21
-24.5
 31
0.0
  0
LINE
  5
6A3F
330
6A16
100
AcDbEntity
  8
0
100
AcDbLine
 10
121.0
 20
-23.5
 30
0.0
 11
121.0
 21
-22.5
 31
0.0
  0
ENDBLK
  5
6A41
330
6A16
100
AcDbEntity
  8
0
100
AcDbBlockEnd
  0
BLOCK
  5
6C78
330
6C77
100
AcDbEntity
  8
0
100
AcDbBlockBegin
  2
*D37
 70
     1
 10
0.0
 20
0.0
 30
0.0
  3
*D37
  1

  0
LINE
  5
6C79
330
6C77
100
AcDbEntity
  8
30
  6
Continuous
 62
     0
370
    -2
100
AcDbLine
 10
-30.01790353517123
 20
219.0
 30
0.0
 11
-30.01790353517123
 21
256.1073578546832
 31
0.0
  0
LINE
  5
6C7A
330
6C77
100
AcDbEntity
  8
30
  6
Continuous
 62
     0
370
    -2
100
AcDbLine
 10
0.0000000000000001
 20
256.6073578546832
 30
0.0
 11
0.0
 21
256.1073578546832
 31
0.0
  0
LINE
  5
6C7B
330
6C77
100
AcDbEntity
  8
30
  6
Continuous
 62
     0
370
    -2
100
AcDbLine
 10
-28.01790353517123
 20
255.6073578546832
 30
0.0
 11
-2.0
 21
255.6073578546832
 31
0.0
  0
INSERT
  5
6C7C
330
6C77
100
AcDbEntity
  8
30
  6
Continuous
 62
     0
370
    -2
100
AcDbBlockReference
  2
_OPEN
 10
-30.01790353517123
 20
255.6073578546832
 30
0.0
 41
2.0
 42
2.0
 43
2.0
 50
180.0
  0
INSERT
  5
6C7D
330
6C77
100
AcDbEntity
  8
30
  6
Continuous
 62
     0
370
    -2
100
AcDbBlockReference
  2
_OPEN
 10
0.0
 20
255.6073578546832
 30
0.0
 41
2.0
 42
2.0
 43
2.0
  0
MTEXT
  5
6C7E
330
6C77
100
AcDbEntity
  8
30
  6
Continuous
 62
     0
100
AcDbMText
 10
-15.00895176758561
 20
258.6073578546832
 30
0.0
 40
4.0
 41
0.0
 46
0.0
 71
     5
 72
     1
  1
\A1;30
 73
     1
 44
1.0
1001
ACAD
1000
MTEXTBEGIN
1070
    73
1070
     1
1070
    44
1040
1.0
1070
    74
1070
     0
1000
MTEXTEND
  0
POINT
  5
6C7F
330
6C77
100
AcDbEntity
  8
DEFPOINTS
  6
Continuous
 62
     0
100
AcDbPoint
 10
-30.01790353517123
 20
218.0
 30
0.0
  0
POINT
  5
6C80
330
6C77
100
AcDbEntity
  8
DEFPOINTS
  6
Continuous
 62
     0
100
AcDbPoint
 10
0.0
 20
255.6073578546832
 30
0.0
  0
POINT
  5
6C81
330
6C77
100
AcDbEntity
  8
DEFPOINTS
  6
Continuous
 62
     0
100
AcDbPoint
 10
0.0
 20
255.6073578546832
 30
0.0
  0
ENDBLK
  5
6C82
330
6C77
100
AcDbEntity
  8
0
100
AcDbBlockEnd
  0
BLOCK
  5
6C84
330
6C83
100
AcDbEntity
  8
0
100
AcDbBlockBegin
  2
*D38
 70
     1
 10
0.0
 20
0.0
 30
0.0
  3
*D38
  1

  0
LINE
  5
6C85
330
6C83
100
AcDbEntity
  8
30
  6
Continuous
 62
     0
370
    -2
100
AcDbLine
 10
29.98209646482873
 20
219.0
 30
0.0
 11
29.98209646482873
 21
256.5
 31
0.0
  0
LINE
  5
6C86
330
6C83
100
AcDbEntity
  8
30
  6
Continuous
 62
     0
370
    -2
100
AcDbLine
 10
0.0000000000000001
 20
256.6073578546832
 30
0.0
 11
0.0000000000000001
 21
256.5
 31
0.0
  0
LINE
  5
6C87
330
6C83
100
AcDbEntity
  8
30
  6
Continuous
 62
     0
370
    -2
100
AcDbLine
 10
27.98209646482873
 20
256.0
 30
0.0
 11
2.0
 21
256.0
 31
0.0
  0
INSERT
  5
6C88
330
6C83
100
AcDbEntity
  8
30
  6
Continuous
 62
     0
370
    -2
100
AcDbBlockReference
  2
_OPEN
 10
29.98209646482873
 20
256.0
 30
0.0
 41
2.0
 42
2.0
 43
2.0
  0
INSERT
  5
6C89
330
6C83
100
AcDbEntity
  8
30
  6
Continuous
 62
     0
370
    -2
100
AcDbBlockReference
  2
_OPEN
 10
0.0
 20
256.0
 30
0.0
 41
2.0
 42
2.0
 43
2.0
 50
180.0
  0
MTEXT
  5
6C8A
330
6C83
100
AcDbEntity
  8
30
  6
Continuous
 62
     0
100
AcDbMText
 10
14.99104823241436
 20
259.0
 30
0.0
 40
4.0
 41
0.0
 46
0.0
 71
     5
 72
     1
  1
\A1;30
 73
     1
 44
1.0
1001
ACAD
1000
MTEXTBEGIN
1070
    73
1070
     1
1070
    44
1040
1.0
1070
    74
1070
     0
1000
MTEXTEND
  0
POINT
  5
6C8B
330
6C83
100
AcDbEntity
  8
DEFPOINTS
  6
Continuous
 62
     0
100
AcDbPoint
 10
29.98209646482873
 20
218.0
 30
0.0
  0
POINT
  5
6C8C
330
6C83
100
AcDbEntity
  8
DEFPOINTS
  6
Continuous
 62
     0
100
AcDbPoint
 10
0.0
 20
255.6073578546832
 30
0.0
  0
POINT
  5
6C8D
330
6C83
100
AcDbEntity
  8
DEFPOINTS
  6
Continuous
 62
     0
100
AcDbPoint
 10
0.0
 20
256.0
 30
0.0
  0
ENDBLK
  5
6C8E
330
6C83
100
AcDbEntity
  8
0
100
AcDbBlockEnd
  0
BLOCK
  5
6C90
330
6C8F
100
AcDbEntity
  8
0
100
AcDbBlockBegin
  2
*D39
 70
     1
 10
0.0
 20
0.0
 30
0.0
  3
*D39
  1

  0
LINE
  5
6C91
330
6C8F
100
AcDbEntity
  8
30
  6
Continuous
 62
     0
370
    -2
100
AcDbLine
 10
46.0
 20
235.1349134126127
 30
0.0
 11
54.50000000000001
 21
235.1349134126127
 31
0.0
  0
LINE
  5
6C92
330
6C8F
100
AcDbEntity
  8
30
  6
Continuous
 62
     0
370
    -2
100
AcDbLine
 10
46.0
 20
174.134913412613
 30
0.0
 11
54.49999999999999
 21
174.134913412613
 31
0.0
  0
LINE
  5
6C93
330
6C8F
100
AcDbEntity
  8
30
  6
Continuous
 62
     0
370
    -2
100
AcDbLine
 10
54.00000000000001
 20
233.1349134126127
 30
0.0
 11
54.0
 21
176.134913412613
 31
0.0
  0
INSERT
  5
6C94
330
6C8F
100
AcDbEntity
  8
30
  6
Continuous
 62
     0
370
    -2
100
AcDbBlockReference
  2
_OPEN
 10
54.00000000000001
 20
235.1349134126127
 30
0.0
 41
2.0
 42
2.0
 43
2.0
 50
90.0
  0
INSERT
  5
6C95
330
6C8F
100
AcDbEntity
  8
30
  6
Continuous
 62
     0
370
    -2
100
AcDbBlockReference
  2
_OPEN
 10
53.99999999999999
 20
174.134913412613
 30
0.0
 41
2.0
 42
2.0
 43
2.0
 50
270.0
  0
MTEXT
  5
6C96
330
6C8F
100
AcDbEntity
  8
30
  6
Continuous
 62
     0
100
AcDbMText
 10
50.99999999999997
 20
204.6349134126128
 30
0.0
 40
4.0
 41
0.0
 46
0.0
 71
     5
 72
     1
  1
\A1;61
 11
0.0000000000000001
 21
1.0
 31
0.0
 73
     1
 44
1.0
1001
ACAD
1000
MTEXTBEGIN
1070
    73
1070
     1
1070
    44
1040
1.0
1070
    74
1070
     0
1000
MTEXTEND
  0
POINT
  5
6C97
330
6C8F
100
AcDbEntity
  8
DEFPOINTS
  6
Continuous
 62
     0
100
AcDbPoint
 10
45.0
 20
235.1349134126127
 30
0.0
  0
POINT
  5
6C98
330
6C8F
100
AcDbEntity
  8
DEFPOINTS
  6
Continuous
 62
     0
100
AcDbPoint
 10
45.0
 20
174.134913412613
 30
0.0
  0
POINT
  5
6C99
330
6C8F
100
AcDbEntity
  8
DEFPOINTS
  6
Continuous
 62
     0
100
AcDbPoint
 10
53.99999999999999
 20
174.134913412613
 30
0.0
  0
ENDBLK
  5
6C9A
330
6C8F
100
AcDbEntity
  8
0
100
AcDbBlockEnd
  0
BLOCK
  5
6C9C
330
6C9B
100
AcDbEntity
  8
0
100
AcDbBlockBegin
  2
*D40
 70
     1
 10
0.0
 20
0.0
 30
0.0
  3
*D40
  1

  0
LINE
  5
6C9D
330
6C9B
100
AcDbEntity
  8
30
  6
Continuous
 62
     0
370
    -2
100
AcDbLine
 10
46.0
 20
235.1349134126127
 30
0.0
 11
61.50000000000002
 21
235.1349134126127
 31
0.0
  0
LINE
  5
6C9E
330
6C9B
100
AcDbEntity
  8
30
  6
Continuous
 62
     0
370
    -2
100
AcDbLine
 10
46.0
 20
167.1349134126126
 30
0.0
 11
61.5
 21
167.1349134126126
 31
0.0
  0
LINE
  5
6C9F
330
6C9B
100
AcDbEntity
  8
30
  6
Continuous
 62
     0
370
    -2
100
AcDbLine
 10
61.00000000000001
 20
233.1349134126127
 30
0.0
 11
61.0
 21
169.1349134126126
 31
0.0
  0
INSERT
  5
6CA0
330
6C9B
100
AcDbEntity
  8
30
  6
Continuous
 62
     0
370
    -2
100
AcDbBlockReference
  2
_OPEN
 10
61.00000000000001
 20
235.1349134126127
 30
0.0
 41
2.0
 42
2.0
 43
2.0
 50
90.0
  0
INSERT
  5
6CA1
330
6C9B
100
AcDbEntity
  8
30
  6
Continuous
 62
     0
370
    -2
100
AcDbBlockReference
  2
_OPEN
 10
61.0
 20
167.1349134126126
 30
0.0
 41
2.0
 42
2.0
 43
2.0
 50
270.0
  0
MTEXT
  5
6CA2
330
6C9B
100
AcDbEntity
  8
30
  6
Continuous
 62
     0
100
AcDbMText
 10
57.99999999999998
 20
201.1349134126127
 30
0.0
 40
4.0
 41
0.0
 46
0.0
 71
     5
 72
     1
  1
\A1;68
 11
0.0000000000000001
 21
1.0
 31
0.0
 73
     1
 44
1.0
1001
ACAD
1000
MTEXTBEGIN
1070
    73
1070
     1
1070
    44
1040
1.0
1070
    74
1070
     0
1000
MTEXTEND
  0
POINT
  5
6CA3
330
6C9B
100
AcDbEntity
  8
DEFPOINTS
  6
Continuous
 62
     0
100
AcDbPoint
 10
45.0
 20
235.1349134126127
 30
0.0
  0
POINT
  5
6CA4
330
6C9B
100
AcDbEntity
  8
DEFPOINTS
  6
Continuous
 62
     0
100
AcDbPoint
 10
45.0
 20
167.1349134126126
 30
0.0
  0
POINT
  5
6CA5
330
6C9B
100
AcDbEntity
  8
DEFPOINTS
  6
Continuous
 62
     0
100
AcDbPoint
 10
61.0
 20
167.1349134126126
 30
0.0
  0
ENDBLK
  5
6CA6
330
6C9B
100
AcDbEntity
  8
0
100
AcDbBlockEnd
  0
BLOCK
  5
6CA8
330
6CA7
100
AcDbEntity
  8
0
100
AcDbBlockBegin
  2
*D41
 70
     1
 10
0.0
 20
0.0
 30
0.0
  3
*D41
  1

  0
LINE
  5
6CA9
330
6CA7
100
AcDbEntity
  8
30
  6
Continuous
 62
     0
370
    -2
100
AcDbLine
 10
46.0
 20
235.1349134126127
 30
0.0
 11
69.50000000000001
 21
235.1349134126127
 31
0.0
  0
LINE
  5
6CAA
330
6CA7
100
AcDbEntity
  8
30
  6
Continuous
 62
     0
370
    -2
100
AcDbLine
 10
42.98209646482869
 20
163.1698268252254
 30
0.0
 11
69.5
 21
163.1698268252254
 31
0.0
  0
LINE
  5
6CAB
330
6CA7
100
AcDbEntity
  8
30
  6
Continuous
 62
     0
370
    -2
100
AcDbLine
 10
69.00000000000002
 20
233.1349134126126
 30
0.0
 11
69.0
 21
165.1698268252254
 31
0.0
  0
INSERT
  5
6CAC
330
6CA7
100
AcDbEntity
  8
30
  6
Continuous
 62
     0
370
    -2
100
AcDbBlockReference
  2
_OPEN
 10
69.00000000000002
 20
235.1349134126127
 30
0.0
 41
2.0
 42
2.0
 43
2.0
 50
90.0
  0
INSERT
  5
6CAD
330
6CA7
100
AcDbEntity
  8
30
  6
Continuous
 62
     0
370
    -2
100
AcDbBlockReference
  2
_OPEN
 10
69.0
 20
163.1698268252254
 30
0.0
 41
2.0
 42
2.0
 43
2.0
 50
270.0
  0
MTEXT
  5
6CAE
330
6CA7
100
AcDbEntity
  8
30
  6
Continuous
 62
     0
100
AcDbMText
 10
65.99999999999997
 20
199.152370118919
 30
0.0
 40
4.0
 41
0.0
 46
0.0
 71
     5
 72
     1
  1
\A1;72
 11
0.0000000000000001
 21
1.0
 31
0.0
 73
     1
 44
1.0
1001
ACAD
1000
MTEXTBEGIN
1070
    73
1070
     1
1070
    44
1040
1.0
1070
    74
1070
     0
1000
MTEXTEND
  0
POINT
  5
6CAF
330
6CA7
100
AcDbEntity
  8
DEFPOINTS
  6
Continuous
 62
     0
100
AcDbPoint
 10
45.0
 20
235.1349134126127
 30
0.0
  0
POINT
  5
6CB0
330
6CA7
100
AcDbEntity
  8
DEFPOINTS
  6
Continuous
 62
     0
100
AcDbPoint
 10
41.98209646482871
 20
163.1698268252254
 30
0.0
  0
POINT
  5
6CB1
330
6CA7
100
AcDbEntity
  8
DEFPOINTS
  6
Continuous
 62
     0
100
AcDbPoint
 10
69.0
 20
163.1698268252254
 30
0.0
  0
ENDBLK
  5
6CB2
330
6CA7
100
AcDbEntity
  8
0
100
AcDbBlockEnd
  0
BLOCK
  5
6CB4
330
6CB3
100
AcDbEntity
  8
0
100
AcDbBlockBegin
  2
*D42
 70
     1
 10
0.0
 20
0.0
 30
0.0
  3
*D42
  1

  0
LINE
  5
6CB5
330
6CB3
100
AcDbEntity
  8
30
  6
Continuous
 62
     0
370
    -2
100
AcDbLine
 10
46.0
 20
235.1349134126127
 30
0.0
 11
77.50000000000001
 21
235.1349134126127
 31
0.0
  0
LINE
  5
6CB6
330
6CB3
100
AcDbEntity
  8
30
  6
Continuous
 62
     0
370
    -2
100
AcDbLine
 10
11.98209646482871
 20
159.1349134126128
 30
0.0
 11
77.49999999999999
 21
159.1349134126128
 31
0.0
  0
LINE
  5
6CB7
330
6CB3
100
AcDbEntity
  8
30
  6
Continuous
 62
     0
370
    -2
100
AcDbLine
 10
77.00000000000001
 20
233.1349134126126
 30
0.0
 11
77.0
 21
161.1349134126128
 31
0.0
  0
INSERT
  5
6CB8
330
6CB3
100
AcDbEntity
  8
30
  6
Continuous
 62
     0
370
    -2
100
AcDbBlockReference
  2
_OPEN
 10
77.00000000000001
 20
235.1349134126127
 30
0.0
 41
2.0
 42
2.0
 43
2.0
 50
90.0
  0
INSERT
  5
6CB9
330
6CB3
100
AcDbEntity
  8
30
  6
Continuous
 62
     0
370
    -2
100
AcDbBlockReference
  2
_OPEN
 10
76.99999999999999
 20
159.1349134126128
 30
0.0
 41
2.0
 42
2.0
 43
2.0
 50
270.0
  0
MTEXT
  5
6CBA
330
6CB3
100
AcDbEntity
  8
30
  6
Continuous
 62
     0
100
AcDbMText
 10
73.99999999999997
 20
197.1349134126127
 30
0.0
 40
4.0
 41
0.0
 46
0.0
 71
     5
 72
     1
  1
\A1;76
 11
0.0000000000000001
 21
1.0
 31
0.0
 73
     1
 44
1.0
1001
ACAD
1000
MTEXTBEGIN
1070
    73
1070
     1
1070
    44
1040
1.0
1070
    74
1070
     0
1000
MTEXTEND
  0
POINT
  5
6CBB
330
6CB3
100
AcDbEntity
  8
DEFPOINTS
  6
Continuous
 62
     0
100
AcDbPoint
 10
45.0
 20
235.1349134126127
 30
0.0
  0
POINT
  5
6CBC
330
6CB3
100
AcDbEntity
  8
DEFPOINTS
  6
Continuous
 62
     0
100
AcDbPoint
 10
10.98209646482871
 20
159.1349134126128
 30
0.0
  0
POINT
  5
6CBD
330
6CB3
100
AcDbEntity
  8
DEFPOINTS
  6
Continuous
 62
     0
100
AcDbPoint
 10
76.99999999999999
 20
159.1349134126128
 30
0.0
  0
ENDBLK
  5
6CBE
330
6CB3
100
AcDbEntity
  8
0
100
AcDbBlockEnd
  0
BLOCK
  5
6D37
330
6D36
100
AcDbEntity
  8
0
100
AcDbBlockBegin
  2
*D43
 70
     1
 10
0.0
 20
0.0
 30
0.0
  3
*D43
  1

  0
LINE
  5
6D7E
330
6D36
100
AcDbEntity
  8
30
  6
Continuous
 62
     0
440
 16777216
370
    -2
100
AcDbLine
 10
-30.01790353517123
 20
219.0
 30
0.0
 11
-30.01790353517123
 21
256.1073578546832
 31
0.0
  0
LINE
  5
6D7F
330
6D36
100
AcDbEntity
  8
30
  6
Continuous
 62
     0
440
 16777216
370
    -2
100
AcDbLine
 10
0.0000000000000001
 20
256.6073578546832
 30
0.0
 11
0.0
 21
256.1073578546832
 31
0.0
  0
LINE
  5
6D80
330
6D36
100
AcDbEntity
  8
30
  6
Continuous
 62
     0
440
 16777216
370
    -2
100
AcDbLine
 10
-28.01790353517123
 20
255.6073578546832
 30
0.0
 11
-2.0
 21
255.6073578546832
 31
0.0
  0
INSERT
  5
6D81
330
6D36
100
AcDbEntity
  8
30
  6
Continuous
 62
     0
440
 16777216
370
    -2
100
AcDbBlockReference
  2
_OPEN
 10
-30.01790353517123
 20
255.6073578546832
 30
0.0
 41
2.0
 42
2.0
 43
2.0
 50
180.0
  0
INSERT
  5
6D82
330
6D36
100
AcDbEntity
  8
30
  6
Continuous
 62
     0
440
 16777216
370
    -2
100
AcDbBlockReference
  2
_OPEN
 10
0.0
 20
255.6073578546832
 30
0.0
 41
2.0
 42
2.0
 43
2.0
  0
MTEXT
  5
6D83
330
6D36
100
AcDbEntity
  8
30
  6
Continuous
 62
     0
440
 16777216
100
AcDbMText
 10
-15.00895176758561
 20
258.6073578546832
 30
0.0
 40
4.0
 41
0.0
 46
0.0
 71
     5
 72
     1
  1
\A1;30
 73
     1
 44
1.0
1001
ACAD
1000
MTEXTBEGIN
1070
    73
1070
     1
1070
    44
1040
1.0
1070
    74
1070
     0
1000
MTEXTEND
  0
POINT
  5
6D84
330
6D36
100
AcDbEntity
  8
DEFPOINTS
  6
Continuous
 62
     0
440
 16777216
100
AcDbPoint
 10
-30.01790353517123
 20
218.0
 30
0.0
  0
POINT
  5
6D85
330
6D36
100
AcDbEntity
  8
DEFPOINTS
  6
Continuous
 62
     0
440
 16777216
100
AcDbPoint
 10
0.0
 20
255.6073578546832
 30
0.0
  0
POINT
  5
6D86
330
6D36
100
AcDbEntity
  8
DEFPOINTS
  6
Continuous
 62
     0
440
 16777216
100
AcDbPoint
 10
0.0
 20
255.6073578546832
 30
0.0
  0
ENDBLK
  5
6D38
330
6D36
100
AcDbEntity
  8
0
100
AcDbBlockEnd
  0
BLOCK
  5
6D43
330
6D42
100
AcDbEntity
  8
0
100
AcDbBlockBegin
  2
*D44
 70
     1
 10
0.0
 20
0.0
 30
0.0
  3
*D44
  1

  0
LINE
  5
6D87
330
6D42
100
AcDbEntity
  8
30
  6
Continuous
 62
     0
440
 16777216
370
    -2
100
AcDbLine
 10
29.98209646482873
 20
219.0
 30
0.0
 11
29.98209646482873
 21
256.5
 31
0.0
  0
LINE
  5
6D88
330
6D42
100
AcDbEntity
  8
30
  6
Continuous
 62
     0
440
 16777216
370
    -2
100
AcDbLine
 10
0.0000000000000001
 20
256.6073578546832
 30
0.0
 11
0.0000000000000001
 21
256.5
 31
0.0
  0
LINE
  5
6D89
330
6D42
100
AcDbEntity
  8
30
  6
Continuous
 62
     0
440
 16777216
370
    -2
100
AcDbLine
 10
27.98209646482873
 20
256.0
 30
0.0
 11
2.0
 21
256.0
 31
0.0
  0
INSERT
  5
6D8A
330
6D42
100
AcDbEntity
  8
30
  6
Continuous
 62
     0
440
 16777216
370
    -2
100
AcDbBlockReference
  2
_OPEN
 10
29.98209646482873
 20
256.0
 30
0.0
 41
2.0
 42
2.0
 43
2.0
  0
INSERT
  5
6D8B
330
6D42
100
AcDbEntity
  8
30
  6
Continuous
 62
     0
440
 16777216
370
    -2
100
AcDbBlockReference
  2
_OPEN
 10
0.0
 20
256.0
 30
0.0
 41
2.0
 42
2.0
 43
2.0
 50
180.0
  0
MTEXT
  5
6D8C
330
6D42
100
AcDbEntity
  8
30
  6
Continuous
 62
     0
440
 16777216
100
AcDbMText
 10
14.99104823241436
 20
259.0
 30
0.0
 40
4.0
 41
0.0
 46
0.0
 71
     5
 72
     1
  1
\A1;30
 73
     1
 44
1.0
1001
ACAD
1000
MTEXTBEGIN
1070
    73
1070
     1
1070
    44
1040
1.0
1070
    74
1070
     0
1000
MTEXTEND
  0
POINT
  5
6D8D
330
6D42
100
AcDbEntity
  8
DEFPOINTS
  6
Continuous
 62
     0
440
 16777216
100
AcDbPoint
 10
29.98209646482873
 20
218.0
 30
0.0
  0
POINT
  5
6D8E
330
6D42
100
AcDbEntity
  8
DEFPOINTS
  6
Continuous
 62
     0
440
 16777216
100
AcDbPoint
 10
0.0
 20
255.6073578546832
 30
0.0
  0
POINT
  5
6D8F
330
6D42
100
AcDbEntity
  8
DEFPOINTS
  6
Continuous
 62
     0
440
 16777216
100
AcDbPoint
 10
0.0
 20
256.0
 30
0.0
  0
ENDBLK
  5
6D44
330
6D42
100
AcDbEntity
  8
0
100
AcDbBlockEnd
  0
BLOCK
  5
6D4F
330
6D4E
100
AcDbEntity
  8
0
100
AcDbBlockBegin
  2
*D45
 70
     1
 10
0.0
 20
0.0
 30
0.0
  3
*D45
  1

  0
LINE
  5
6D90
330
6D4E
100
AcDbEntity
  8
30
  6
Continuous
 62
     0
440
 16777216
370
    -2
100
AcDbLine
 10
46.0
 20
235.1349134126127
 30
0.0
 11
54.50000000000001
 21
235.1349134126127
 31
0.0
  0
LINE
  5
6D91
330
6D4E
100
AcDbEntity
  8
30
  6
Continuous
 62
     0
440
 16777216
370
    -2
100
AcDbLine
 10
46.0
 20
174.134913412613
 30
0.0
 11
54.49999999999999
 21
174.134913412613
 31
0.0
  0
LINE
  5
6D92
330
6D4E
100
AcDbEntity
  8
30
  6
Continuous
 62
     0
440
 16777216
370
    -2
100
AcDbLine
 10
54.00000000000001
 20
233.1349134126127
 30
0.0
 11
54.0
 21
176.134913412613
 31
0.0
  0
INSERT
  5
6D93
330
6D4E
100
AcDbEntity
  8
30
  6
Continuous
 62
     0
440
 16777216
370
    -2
100
AcDbBlockReference
  2
_OPEN
 10
54.00000000000001
 20
235.1349134126127
 30
0.0
 41
2.0
 42
2.0
 43
2.0
 50
90.0
  0
INSERT
  5
6D94
330
6D4E
100
AcDbEntity
  8
30
  6
Continuous
 62
     0
440
 16777216
370
    -2
100
AcDbBlockReference
  2
_OPEN
 10
53.99999999999999
 20
174.134913412613
 30
0.0
 41
2.0
 42
2.0
 43
2.0
 50
270.0
  0
MTEXT
  5
6D95
330
6D4E
100
AcDbEntity
  8
30
  6
Continuous
 62
     0
440
 16777216
100
AcDbMText
 10
50.99999999999997
 20
204.6349134126128
 30
0.0
 40
4.0
 41
0.0
 46
0.0
 71
     5
 72
     1
  1
\A1;61
 11
0.0000000000000001
 21
1.0
 31
0.0
 73
     1
 44
1.0
1001
ACAD
1000
MTEXTBEGIN
1070
    73
1070
     1
1070
    44
1040
1.0
1070
    74
1070
     0
1000
MTEXTEND
  0
POINT
  5
6D96
330
6D4E
100
AcDbEntity
  8
DEFPOINTS
  6
Continuous
 62
     0
440
 16777216
100
AcDbPoint
 10
45.0
 20
235.1349134126127
 30
0.0
  0
POINT
  5
6D97
330
6D4E
100
AcDbEntity
  8
DEFPOINTS
  6
Continuous
 62
     0
440
 16777216
100
AcDbPoint
 10
45.0
 20
174.134913412613
 30
0.0
  0
POINT
  5
6D98
330
6D4E
100
AcDbEntity
  8
DEFPOINTS
  6
Continuous
 62
     0
440
 16777216
100
AcDbPoint
 10
53.99999999999999
 20
174.134913412613
 30
0.0
  0
ENDBLK
  5
6D50
330
6D4E
100
AcDbEntity
  8
0
100
AcDbBlockEnd
  0
BLOCK
  5
6D5B
330
6D5A
100
AcDbEntity
  8
0
100
AcDbBlockBegin
  2
*D46
 70
     1
 10
0.0
 20
0.0
 30
0.0
  3
*D46
  1

  0
LINE
  5
6D99
330
6D5A
100
AcDbEntity
  8
30
  6
Continuous
 62
     0
440
 16777216
370
    -2
100
AcDbLine
 10
46.0
 20
235.1349134126127
 30
0.0
 11
61.50000000000002
 21
235.1349134126127
 31
0.0
  0
LINE
  5
6D9A
330
6D5A
100
AcDbEntity
  8
30
  6
Continuous
 62
     0
440
 16777216
370
    -2
100
AcDbLine
 10
46.0
 20
167.1349134126126
 30
0.0
 11
61.5
 21
167.1349134126126
 31
0.0
  0
LINE
  5
6D9B
330
6D5A
100
AcDbEntity
  8
30
  6
Continuous
 62
     0
440
 16777216
370
    -2
100
AcDbLine
 10
61.00000000000001
 20
233.1349134126127
 30
0.0
 11
61.0
 21
169.1349134126126
 31
0.0
  0
INSERT
  5
6D9C
330
6D5A
100
AcDbEntity
  8
30
  6
Continuous
 62
     0
440
 16777216
370
    -2
100
AcDbBlockReference
  2
_OPEN
 10
61.00000000000001
 20
235.1349134126127
 30
0.0
 41
2.0
 42
2.0
 43
2.0
 50
90.0
  0
INSERT
  5
6D9D
330
6D5A
100
AcDbEntity
  8
30
  6
Continuous
 62
     0
440
 16777216
370
    -2
100
AcDbBlockReference
  2
_OPEN
 10
61.0
 20
167.1349134126126
 30
0.0
 41
2.0
 42
2.0
 43
2.0
 50
270.0
  0
MTEXT
  5
6D9E
330
6D5A
100
AcDbEntity
  8
30
  6
Continuous
 62
     0
440
 16777216
100
AcDbMText
 10
57.99999999999998
 20
201.1349134126127
 30
0.0
 40
4.0
 41
0.0
 46
0.0
 71
     5
 72
     1
  1
\A1;68
 11
0.0000000000000001
 21
1.0
 31
0.0
 73
     1
 44
1.0
1001
ACAD
1000
MTEXTBEGIN
1070
    73
1070
     1
1070
    44
1040
1.0
1070
    74
1070
     0
1000
MTEXTEND
  0
POINT
  5
6D9F
330
6D5A
100
AcDbEntity
  8
DEFPOINTS
  6
Continuous
 62
     0
440
 16777216
100
AcDbPoint
 10
45.0
 20
235.1349134126127
 30
0.0
  0
POINT
  5
6DA0
330
6D5A
100
AcDbEntity
  8
DEFPOINTS
  6
Continuous
 62
     0
440
 16777216
100
AcDbPoint
 10
45.0
 20
167.1349134126126
 30
0.0
  0
POINT
  5
6DA1
330
6D5A
100
AcDbEntity
  8
DEFPOINTS
  6
Continuous
 62
     0
440
 16777216
100
AcDbPoint
 10
61.0
 20
167.1349134126126
 30
0.0
  0
ENDBLK
  5
6D5C
330
6D5A
100
AcDbEntity
  8
0
100
AcDbBlockEnd
  0
BLOCK
  5
6D67
330
6D66
100
AcDbEntity
  8
0
100
AcDbBlockBegin
  2
*D47
 70
     1
 10
0.0
 20
0.0
 30
0.0
  3
*D47
  1

  0
LINE
  5
6DA2
330
6D66
100
AcDbEntity
  8
30
  6
Continuous
 62
     0
440
 16777216
370
    -2
100
AcDbLine
 10
46.0
 20
235.1349134126127
 30
0.0
 11
69.50000000000001
 21
235.1349134126127
 31
0.0
  0
LINE
  5
6DA3
330
6D66
100
AcDbEntity
  8
30
  6
Continuous
 62
     0
440
 16777216
370
    -2
100
AcDbLine
 10
42.98209646482869
 20
163.1698268252254
 30
0.0
 11
69.5
 21
163.1698268252254
 31
0.0
  0
LINE
  5
6DA4
330
6D66
100
AcDbEntity
  8
30
  6
Continuous
 62
     0
440
 16777216
370
    -2
100
AcDbLine
 10
69.00000000000002
 20
233.1349134126126
 30
0.0
 11
69.0
 21
165.1698268252254
 31
0.0
  0
INSERT
  5
6DA5
330
6D66
100
AcDbEntity
  8
30
  6
Continuous
 62
     0
440
 16777216
370
    -2
100
AcDbBlockReference
  2
_OPEN
 10
69.00000000000002
 20
235.1349134126127
 30
0.0
 41
2.0
 42
2.0
 43
2.0
 50
90.0
  0
INSERT
  5
6DA6
330
6D66
100
AcDbEntity
  8
30
  6
Continuous
 62
     0
440
 16777216
370
    -2
100
AcDbBlockReference
  2
_OPEN
 10
69.0
 20
163.1698268252254
 30
0.0
 41
2.0
 42
2.0
 43
2.0
 50
270.0
  0
MTEXT
  5
6DA7
330
6D66
100
AcDbEntity
  8
30
  6
Continuous
 62
     0
440
 16777216
100
AcDbMText
 10
65.99999999999997
 20
199.152370118919
 30
0.0
 40
4.0
 41
0.0
 46
0.0
 71
     5
 72
     1
  1
\A1;72
 11
0.0000000000000001
 21
1.0
 31
0.0
 73
     1
 44
1.0
1001
ACAD
1000
MTEXTBEGIN
1070
    73
1070
     1
1070
    44
1040
1.0
1070
    74
1070
     0
1000
MTEXTEND
  0
POINT
  5
6DA8
330
6D66
100
AcDbEntity
  8
DEFPOINTS
  6
Continuous
 62
     0
440
 16777216
100
AcDbPoint
 10
45.0
 20
235.1349134126127
 30
0.0
  0
POINT
  5
6DA9
330
6D66
100
AcDbEntity
  8
DEFPOINTS
  6
Continuous
 62
     0
440
 16777216
100
AcDbPoint
 10
41.98209646482871
 20
163.1698268252254
 30
0.0
  0
POINT
  5
6DAA
330
6D66
100
AcDbEntity
  8
DEFPOINTS
  6
Continuous
 62
     0
440
 16777216
100
AcDbPoint
 10
69.0
 20
163.1698268252254
 30
0.0
  0
ENDBLK
  5
6D68
330
6D66
100
AcDbEntity
  8
0
100
AcDbBlockEnd
  0
BLOCK
  5
6D73
330
6D72
100
AcDbEntity
  8
0
100
AcDbBlockBegin
  2
*D48
 70
     1
 10
0.0
 20
0.0
 30
0.0
  3
*D48
  1

  0
LINE
  5
6DAB
330
6D72
100
AcDbEntity
  8
30
  6
Continuous
 62
     0
440
 16777216
370
    -2
100
AcDbLine
 10
46.0
 20
235.1349134126127
 30
0.0
 11
77.50000000000001
 21
235.1349134126127
 31
0.0
  0
LINE
  5
6DAC
330
6D72
100
AcDbEntity
  8
30
  6
Continuous
 62
     0
440
 16777216
370
    -2
100
AcDbLine
 10
11.98209646482871
 20
159.1349134126128
 30
0.0
 11
77.49999999999999
 21
159.1349134126128
 31
0.0
  0
LINE
  5
6DAD
330
6D72
100
AcDbEntity
  8
30
  6
Continuous
 62
     0
440
 16777216
370
    -2
100
AcDbLine
 10
77.00000000000001
 20
233.1349134126126
 30
0.0
 11
77.0
 21
161.1349134126128
 31
0.0
  0
INSERT
  5
6DAE
330
6D72
100
AcDbEntity
  8
30
  6
Continuous
 62
     0
440
 16777216
370
    -2
100
AcDbBlockReference
  2
_OPEN
 10
77.00000000000001
 20
235.1349134126127
 30
0.0
 41
2.0
 42
2.0
 43
2.0
 50
90.0
  0
INSERT
  5
6DAF
330
6D72
100
AcDbEntity
  8
30
  6
Continuous
 62
     0
440
 16777216
370
    -2
100
AcDbBlockReference
  2
_OPEN
 10
76.99999999999999
 20
159.1349134126128
 30
0.0
 41
2.0
 42
2.0
 43
2.0
 50
270.0
  0
MTEXT
  5
6DB0
330
6D72
100
AcDbEntity
  8
30
  6
Continuous
 62
     0
440
 16777216
100
AcDbMText
 10
73.99999999999997
 20
197.1349134126127
 30
0.0
 40
4.0
 41
0.0
 46
0.0
 71
     5
 72
     1
  1
\A1;76
 11
0.0000000000000001
 21
1.0
 31
0.0
 73
     1
 44
1.0
1001
ACAD
1000
MTEXTBEGIN
1070
    73
1070
     1
1070
    44
1040
1.0
1070
    74
1070
     0
1000
MTEXTEND
  0
POINT
  5
6DB1
330
6D72
100
AcDbEntity
  8
DEFPOINTS
  6
Continuous
 62
     0
440
 16777216
100
AcDbPoint
 10
45.0
 20
235.1349134126127
 30
0.0
  0
POINT
  5
6DB2
330
6D72
100
AcDbEntity
  8
DEFPOINTS
  6
Continuous
 62
     0
440
 16777216
100
AcDbPoint
 10
10.98209646482871
 20
159.1349134126128
 30
0.0
  0
POINT
  5
6DB3
330
6D72
100
AcDbEntity
  8
DEFPOINTS
  6
Continuous
 62
     0
440
 16777216
100
AcDbPoint
 10
76.99999999999999
 20
159.1349134126128
 30
0.0
  0
ENDBLK
  5
6D74
330
6D72
100
AcDbEntity
  8
0
100
AcDbBlockEnd
  0
ENDSEC
  0
SECTION
  2
ENTITIES
  0
LINE
  5
B4
330
1E
100
AcDbEntity
  8
16
100
AcDbLine
 10
0.0
 20
-101.8246001220914
 30
0.0
 11
0.0
 21
105.6073578546832
 31
0.0
  0
LINE
  5
B5
330
1E
100
AcDbEntity
  8
16
100
AcDbLine
 10
71.77465564206305
 20
-0.0000000000000027
 30
0.0
 11
-83.90588178115756
 21
-0.0000000000000027
 31
0.0
  0
MTEXT
  5
BF3
330
1E
100
AcDbEntity
  8
24
  6
Continuous
100
AcDbMText
 10
140.9820964648283
 20
176.3476821548369
 30
0.0
 40
3.0
 41
0.0
 46
0.0
 71
     1
 72
     1
  1
\A1;
 73
     1
 44
1.0
1001
ACAD
1000
MTEXTBEGIN
1070
    73
1070
     1
1070
    44
1040
1.0
1070
    74
1070
     0
1000
MTEXTEND
  0
LINE
  5
1C9B
330
1E
100
AcDbEntity
  8
16
100
AcDbLine
 10
336.0826238060848
 20
0.0
 30
0.0
 11
203.9173761939149
 21
0.0
 31
0.0
  0
LINE
  5
2260
330
1E
100
AcDbEntity
  8
16
100
AcDbLine
 10
68.90389754940699
 20
-255.0
 30
0.0
 11
-80.54991320158091
 21
-255.0
 31
0.0
  0
LINE
  5
2261
330
1E
100
AcDbEntity
  8
16
100
AcDbLine
 10
0.0
 20
-352.7519397628458
 30
0.0
 11
0.0
 21
-153.6166007905139
 31
0.0
  0
LINE
  5
4C5A
330
1E
100
AcDbEntity
  8
16
100
AcDbLine
 10
88.49441808474184
 20
-0.0000000000000027
 30
0.0
 11
-83.90588178115756
 21
-0.0000000000000027
 31
0.0
  0
DIMENSION
  5
59B9
330
1E
100
AcDbEntity
  8
30
  6
Continuous
100
AcDbDimension
280
     0
  2
*D6
 10
301.8144775593031
 20
-132.7494181439514
 30
0.0
 11
255.8144775593031
 21
-129.7494181439514
 31
0.0
 70
    32
 71
     5
 42
-1.0
 73
     0
 74
     0
 75
     0
  3
STANDARD
100
AcDbAlignedDimension
 13
209.8144775593031
 23
0.0
 33
0.0
 14
301.8144775593031
 24
-77.50000000000003
 34
0.0
 50
180.0
100
AcDbRotatedDimension
1001
ACAD
1000
DSTYLE
1002
{
1070
    79
1070
     3
1002
}
  0
DIMENSION
  5
59BA
330
1E
100
AcDbEntity
  8
30
  6
Continuous
100
AcDbDimension
280
     0
  2
*D7
 10
229.8144775593029
 20
-120.7494181439514
 30
0.0
 11
236.1478108926364
 21
-117.7494181439514
 31
0.0
 70
    32
 71
     5
 42
-1.0
 73
     0
 74
     0
 75
     0
  3
STANDARD
100
AcDbAlignedDimension
 13
225.814477559303
 23
-25.0
 33
0.0
 14
229.8144775593029
 24
-25.0
 34
0.0
 50
180.0
100
AcDbRotatedDimension
1001
ACAD
1000
DSTYLE
1002
{
1070
    79
1070
     3
1002
}
  0
DIMENSION
  5
59BB
330
1E
100
AcDbEntity
  8
30
  6
Continuous
100
AcDbDimension
280
     0
  2
*D8
 10
301.8144775593031
 20
-120.7494181439514
 30
0.0
 11
265.8144775593031
 21
-117.7494181439514
 31
0.0
 70
    32
 71
     5
 42
-1.0
 73
     0
 74
     0
 75
     0
  3
STANDARD
100
AcDbAlignedDimension
 13
229.8144775593029
 23
-25.0
 33
0.0
 14
301.8144775593031
 24
-77.50000000000003
 34
0.0
 50
180.0
100
AcDbRotatedDimension
1001
ACAD
1000
DSTYLE
1002
{
1070
    79
1070
     3
1002
}
  0
DIMENSION
  5
59BE
330
1E
100
AcDbEntity
  8
30
  6
Continuous
100
AcDbDimension
280
     0
  2
*D9
 10
185.3588555544834
 20
24.99999999999996
 30
0.0
 11
182.3588555544834
 21
0.0000000000000228
 31
0.0
 70
    32
 71
     5
 42
-1.0
 73
     0
 74
     0
 75
     0
  3
STANDARD
100
AcDbAlignedDimension
 13
225.814477559303
 23
-25.0
 33
0.0
 14
225.814477559303
 24
24.99999999999996
 34
0.0
 50
90.0
100
AcDbRotatedDimension
1001
ACAD
1000
DSTYLE
1002
{
1070
    79
1070
     3
1002
}
  0
LINE
  5
59BF
330
1E
100
AcDbEntity
  8
10
  6
CONTINOUS
100
AcDbLine
 10
225.814477559303
 20
14.16543683942991
 30
0.0
 11
217.2606823778141
 21
20.1548687058105
 31
0.0
  0
LINE
  5
59C0
330
1E
100
AcDbEntity
  8
10
  6
CONTINOUS
100
AcDbLine
 10
225.814477559303
 20
6.840789306861235
 30
0.0
 11
213.8192237597078
 21
15.23995644007658
 31
0.0
  0
ARC
  5
59C2
330
1E
100
AcDbEntity
  8
30
  6
Continuous
100
AcDbCircle
 10
240.8144775593033
 20
0.0
 30
0.0
 40
31.0
100
AcDbArc
 50
150.5534441956585
 51
180.0
  0
LINE
  5
59C5
330
1E
100
AcDbEntity
  8
10
  6
CONTINOUS
100
AcDbLine
 10
213.8192237597078
 20
15.23995644007658
 30
0.0
 11
217.2606823778141
 21
20.1548687058105
 31
0.0
  0
DIMENSION
  5
59C6
330
1E
100
AcDbEntity
  8
30
  6
Continuous
100
AcDbDimension
280
     0
  2
*D10
 10
301.8144775593031
 20
108.2505818560482
 30
0.0
 11
289.814477559303
 21
111.2505818560479
 31
0.0
 70
    32
 71
     5
 42
-1.0
 73
     0
 74
     0
 75
     0
  3
STANDARD
100
AcDbAlignedDimension
 13
277.814477559303
 23
77.50000000000001
 33
0.0
 14
301.8144775593031
 24
77.5000000000001
 34
0.0
100
AcDbRotatedDimension
1001
ACAD
1000
DSTYLE
1002
{
1070
    79
1070
     3
1002
}
  0
LINE
  5
59C7
330
1E
100
AcDbEntity
  8
10
  6
CONTINOUS
100
AcDbLine
 10
233.814477559303
 20
50.99999999999989
 30
0.0
 11
233.814477559303
 21
-51.00000000000011
 31
0.0
  0
LINE
  5
59C8
330
1E
100
AcDbEntity
  8
10
  6
CONTINOUS
100
AcDbLine
 10
229.8144775593029
 20
24.99999999999998
 30
0.0
 11
229.8144775593029
 21
-25.0
 31
0.0
  0
LINE
  5
59C9
330
1E
100
AcDbEntity
  8
10
  6
CONTINOUS
100
AcDbLine
 10
301.8144775593031
 20
77.5000000000001
 30
0.0
 11
301.8144775593031
 21
-77.50000000000003
 31
0.0
  0
LINE
  5
59CA
330
1E
100
AcDbEntity
  8
10
  6
CONTINOUS
100
AcDbLine
 10
225.814477559303
 20
24.99999999999998
 30
0.0
 11
225.814477559303
 21
-25.0
 31
0.0
  0
LINE
  5
59CD
330
1E
100
AcDbEntity
  8
12
  6
DASHED
100
AcDbLine
 10
301.8144775593031
 20
-63.75000000000003
 30
0.0
 11
309.8144775593032
 21
-63.75000000000003
 31
0.0
  0
LINE
  5
59CE
330
1E
100
AcDbEntity
  8
12
  6
DASHED
100
AcDbLine
 10
230.8144775593035
 20
-66.00000000000004
 30
0.0
 11
319.8144775593032
 21
-66.00000000000004
 31
0.0
  0
LINE
  5
59CF
330
1E
100
AcDbEntity
  8
12
  6
DASHED
100
AcDbLine
 10
301.8144775593031
 20
-68.25000000000001
 30
0.0
 11
309.8144775593032
 21
-68.25000000000001
 31
0.0
  0
DIMENSION
  5
59D0
330
1E
100
AcDbEntity
  8
30
  6
Continuous
100
AcDbDimension
280
     0
  2
*D11
 10
301.8144775593031
 20
-110.7494181439514
 30
0.0
 11
267.8144775593031
 21
-107.7494181439514
 31
0.0
 70
    32
 71
     5
 42
-1.0
 73
     0
 74
     0
 75
     0
  3
STANDARD
100
AcDbAlignedDimension
 13
233.814477559303
 23
-51.00000000000011
 33
0.0
 14
301.8144775593031
 24
-77.50000000000003
 34
0.0
 50
180.0
100
AcDbRotatedDimension
1001
ACAD
1000
DSTYLE
1002
{
1070
    79
1070
     3
1002
}
  0
DIMENSION
  5
59D1
330
1E
100
AcDbEntity
  8
30
  6
Continuous
100
AcDbDimension
280
     0
  2
*D12
 10
301.8144775593031
 20
-99.74941814395144
 30
0.0
 11
271.314477559303
 21
-96.74941814395143
 31
0.0
 70
    32
 71
     5
 42
-1.0
 73
     0
 74
     0
 75
     0
  3
STANDARD
100
AcDbAlignedDimension
 13
240.8144775593031
 23
-77.50000000000003
 33
0.0
 14
301.8144775593031
 24
-77.50000000000003
 34
0.0
 50
180.0
100
AcDbRotatedDimension
1001
ACAD
1000
DSTYLE
1002
{
1070
    79
1070
     3
1002
}
  0
DIMENSION
  5
59D2
330
1E
100
AcDbEntity
  8
30
  6
Continuous
100
AcDbDimension
280
     0
  2
*D13
 10
301.8144775593031
 20
-89.74941814395142
 30
0.0
 11
279.314477559303
 21
-86.74941814395142
 31
0.0
 70
    32
 71
     5
 42
-1.0
 73
     0
 74
     0
 75
     0
  3
STANDARD
100
AcDbAlignedDimension
 13
256.814477559303
 23
-70.25000000000002
 33
0.0
 14
301.8144775593031
 24
-77.50000000000003
 34
0.0
 50
180.0
100
AcDbRotatedDimension
1001
ACAD
1000
DSTYLE
1002
{
1070
    79
1070
     3
1002
}
  0
LINE
  5
59D3
330
1E
100
AcDbEntity
  8
12
  6
DASHED
100
AcDbLine
 10
256.814477559303
 20
-68.25000000000001
 30
0.0
 11
301.8144775593031
 21
-68.25000000000001
 31
0.0
  0
LINE
  5
59D4
330
1E
100
AcDbEntity
  8
12
  6
DASHED
100
AcDbLine
 10
256.814477559303
 20
-63.75000000000003
 30
0.0
 11
301.8144775593031
 21
-63.75000000000003
 31
0.0
  0
LINE
  5
59D5
330
1E
100
AcDbEntity
  8
10
  6
CONTINOUS
100
AcDbLine
 10
240.8144775593033
 20
-77.50000000000003
 30
0.0
 11
301.8144775593031
 21
-77.50000000000003
 31
0.0
  0
LINE
  5
59D6
330
1E
100
AcDbEntity
  8
10
  6
CONTINOUS
100
AcDbLine
 10
240.8144775593033
 20
-50.99999999999996
 30
0.0
 11
240.8144775593033
 21
-77.50000000000003
 31
0.0
  0
LINE
  5
59D7
330
1E
100
AcDbEntity
  8
12
  6
DASHED
100
AcDbLine
 10
240.8144775593033
 20
-70.25000000000002
 30
0.0
 11
256.814477559303
 21
-70.25000000000002
 31
0.0
  0
LINE
  5
59D8
330
1E
100
AcDbEntity
  8
12
  6
DASHED
100
AcDbLine
 10
240.8144775593033
 20
-61.74999999999997
 30
0.0
 11
256.814477559303
 21
-61.74999999999997
 31
0.0
  0
LINE
  5
59D9
330
1E
100
AcDbEntity
  8
12
  6
DASHED
100
AcDbLine
 10
256.814477559303
 20
-61.74999999999997
 30
0.0
 11
256.814477559303
 21
-70.25000000000002
 31
0.0
  0
LINE
  5
59DA
330
1E
100
AcDbEntity
  8
12
  6
DASHED
100
AcDbLine
 10
250.814477559303
 20
-61.74999999999997
 30
0.0
 11
250.814477559303
 21
-70.25000000000002
 31
0.0
  0
LINE
  5
59DB
330
1E
100
AcDbEntity
  8
12
  6
DASHED
100
AcDbLine
 10
256.814477559303
 20
-68.25
 30
0.0
 11
256.814477559303
 21
-70.25000000000002
 31
0.0
  0
LINE
  5
59DC
330
1E
100
AcDbEntity
  8
12
  6
DASHED
100
AcDbLine
 10
256.814477559303
 20
-61.74999999999997
 30
0.0
 11
256.814477559303
 21
-63.75000000000003
 31
0.0
  0
LINE
  5
59DD
330
1E
100
AcDbEntity
  8
10
  6
CONTINOUS
100
AcDbLine
 10
233.814477559303
 20
-51.00000000000011
 30
0.0
 11
240.8144775593033
 21
-51.00000000000011
 31
0.0
  0
LINE
  5
59DE
330
1E
100
AcDbEntity
  8
10
  6
CONTINOUS
100
AcDbLine
 10
225.814477559303
 20
-25.0
 30
0.0
 11
233.814477559303
 21
-25.0
 31
0.0
  0
LINE
  5
59DF
330
1E
100
AcDbEntity
  8
12
  6
DASHED
100
AcDbLine
 10
309.8144775593032
 20
-63.75
 30
0.0
 11
309.8144775593032
 21
-68.25
 31
0.0
  0
LINE
  5
59E0
330
1E
100
AcDbEntity
  8
10
  6
CONTINOUS
100
AcDbLine
 10
225.814477559303
 20
24.99999999999998
 30
0.0
 11
233.814477559303
 21
24.99999999999998
 31
0.0
  0
LINE
  5
59E1
330
1E
100
AcDbEntity
  8
10
  6
CONTINOUS
100
AcDbLine
 10
240.8144775593033
 20
77.50000000000001
 30
0.0
 11
301.8144775593031
 21
77.5000000000001
 31
0.0
  0
LINE
  5
59E2
330
1E
100
AcDbEntity
  8
10
  6
CONTINOUS
100
AcDbLine
 10
240.8144775593033
 20
77.50000000000001
 30
0.0
 11
240.8144775593033
 21
50.99999999999997
 31
0.0
  0
LINE
  5
59E3
330
1E
100
AcDbEntity
  8
10
  6
CONTINOUS
100
AcDbLine
 10
233.814477559303
 20
50.99999999999997
 30
0.0
 11
240.8144775593033
 21
50.99999999999997
 31
0.0
  0
LINE
  5
59E4
330
1E
100
AcDbEntity
  8
24
  6
CONTINOUS
100
AcDbLine
 10
279.814477559303
 20
77.50000000000001
 30
0.0
 11
279.814477559303
 21
56.49999999999989
 31
0.0
  0
LINE
  5
59E5
330
1E
100
AcDbEntity
  8
24
  6
CONTINOUS
100
AcDbLine
 10
270.6144775593029
 20
71.99999999999997
 30
0.0
 11
270.6144775593029
 21
61.99999999999997
 31
0.0
  0
LINE
  5
59E6
330
1E
100
AcDbEntity
  8
24
  6
CONTINOUS
100
AcDbLine
 10
275.814477559303
 20
74.69999999999995
 30
0.0
 11
275.814477559303
 21
59.29999999999999
 31
0.0
  0
LINE
  5
59E7
330
1E
100
AcDbEntity
  8
24
  6
CONTINOUS
100
AcDbLine
 10
277.814477559303
 20
77.50000000000001
 30
0.0
 11
277.814477559303
 21
56.49999999999989
 31
0.0
  0
LINE
  5
59E8
330
1E
100
AcDbEntity
  8
24
  6
CONTINOUS
100
AcDbLine
 10
272.6144775593033
 20
59.99999999999997
 30
0.0
 11
275.814477559303
 21
59.99999999999997
 31
0.0
  0
LINE
  5
59E9
330
1E
100
AcDbEntity
  8
24
  6
CONTINOUS
100
AcDbLine
 10
265.614477559303
 20
66.99999999999997
 30
0.0
 11
282.8144775593031
 21
66.99999999999997
 31
0.0
  0
ARC
  5
59EA
330
1E
100
AcDbEntity
  8
24
  6
CONTINOUS
100
AcDbCircle
 10
272.6144775593033
 20
61.99999999999997
 30
0.0
 40
2.0
100
AcDbArc
 50
180.0
 51
270.0
  0
LINE
  5
59EB
330
1E
100
AcDbEntity
  8
24
  6
CONTINOUS
100
AcDbLine
 10
277.814477559303
 20
56.49999999999989
 30
0.0
 11
279.814477559303
 21
56.49999999999989
 31
0.0
  0
LINE
  5
59EC
330
1E
100
AcDbEntity
  8
24
  6
CONTINOUS
100
AcDbLine
 10
275.814477559303
 20
59.29999999999999
 30
0.0
 11
277.814477559303
 21
59.29999999999999
 31
0.0
  0
LINE
  5
59ED
330
1E
100
AcDbEntity
  8
24
  6
CONTINOUS
100
AcDbLine
 10
272.6144775593033
 20
73.99999999999997
 30
0.0
 11
275.814477559303
 21
73.99999999999997
 31
0.0
  0
ARC
  5
59EE
330
1E
100
AcDbEntity
  8
24
  6
CONTINOUS
100
AcDbCircle
 10
272.6144775593033
 20
71.99999999999997
 30
0.0
 40
2.0
100
AcDbArc
 50
90.0
 51
180.0
  0
LINE
  5
59EF
330
1E
100
AcDbEntity
  8
24
  6
CONTINOUS
100
AcDbLine
 10
275.814477559303
 20
74.69999999999995
 30
0.0
 11
277.814477559303
 21
74.69999999999995
 31
0.0
  0
DIMENSION
  5
59F0
330
1E
100
AcDbEntity
  8
30
  6
Continuous
100
AcDbDimension
280
     0
  2
*D14
 10
358.3144775593031
 20
27.59950840068014
 30
0.0
 11
349.8144775593032
 21
30.59950840068012
 31
0.0
 70
    32
 71
     5
 42
-1.0
 73
     0
 74
     0
 75
     0
  3
STANDARD
100
AcDbAlignedDimension
 13
341.3144775593033
 23
43.0
 33
0.0
 14
358.3144775593031
 24
43.0
 34
0.0
 50
180.0
100
AcDbRotatedDimension
1001
ACAD
1000
DSTYLE
1002
{
1070
    79
1070
     3
1002
}
  0
INSERT
  5
59F1
330
1E
100
AcDbEntity
  8
30
  6
Continuous
100
AcDbBlockReference
  2
*U4
 10
-287.7237999526581
 20
-244.2754915945696
 30
0.0
 41
2.5
 42
2.5
 43
2.5
  0
INSERT
  5
59F2
330
1E
100
AcDbEntity
  8
30
  6
Continuous
100
AcDbBlockReference
  2
*U2
 10
-287.7237999526581
 20
-244.2754915945696
 30
0.0
 41
2.5
 42
2.5
 43
2.5
  0
INSERT
  5
59F3
330
1E
100
AcDbEntity
  8
30
  6
Continuous
100
AcDbBlockReference
  2
*U1
 10
-287.7237999526581
 20
-244.2754915945696
 30
0.0
 41
2.5
 42
2.5
 43
2.5
  0
ARC
  5
59F4
330
1E
100
AcDbEntity
  8
24
  6
Continuous
100
AcDbCircle
 10
345.4394775593032
 20
68.64548506457246
 30
0.0
 40
8.0
100
AcDbArc
 50
58.9607599896022
 51
121.0392400103977
  0
CIRCLE
  5
59F5
330
1E
100
AcDbEntity
  8
17
  6
DASHDOT
100
AcDbCircle
 10
349.8144775593032
 20
51.49999999999997
 30
0.0
 40
4.5
  0
LINE
  5
59F6
330
1E
100
AcDbEntity
  8
24
  6
Continuous
100
AcDbLine
 10
349.1390335891645
 20
75.73867089196451
 30
0.0
 11
353.6099195278401
 21
73.40681417260779
 31
0.0
  0
LINE
  5
59F7
330
1E
100
AcDbEntity
  8
17
  6
DASHDOT
100
AcDbLine
 10
343.5644775593033
 20
51.49999999999997
 30
0.0
 11
356.0644775593032
 21
51.49999999999997
 31
0.0
  0
LINE
  5
59F8
330
1E
100
AcDbEntity
  8
24
  6
Continuous
100
AcDbLine
 10
341.3144775593033
 20
43.0
 30
0.0
 11
358.3144775593031
 21
43.0
 31
0.0
  0
LINE
  5
59FA
330
1E
100
AcDbEntity
  8
24
  6
Continuous
100
AcDbLine
 10
341.3144775593033
 20
75.50000000000003
 30
0.0
 11
341.3144775593033
 21
43.0
 31
0.0
  0
LINE
  5
59FC
330
1E
100
AcDbEntity
  8
24
  6
Continuous
100
AcDbLine
 10
358.3144775593031
 20
72.5633778610307
 30
0.0
 11
358.3144775593031
 21
43.0
 31
0.0
  0
DIMENSION
  5
59FD
330
1E
100
AcDbEntity
  8
30
  6
Continuous
100
AcDbDimension
280
     0
  2
*D15
 10
372.9012000520912
 20
51.49999999999996
 30
0.0
 11
377.9012000520912
 21
56.50000000000003
 31
0.0
 70
    32
 71
     5
 42
-1.0
 73
     0
 74
     0
 75
     0
  3
STANDARD
100
AcDbAlignedDimension
 13
358.3144775593031
 23
43.0
 33
0.0
 14
352.314477575803
 24
51.49999999999997
 34
0.0
 50
270.0
100
AcDbRotatedDimension
1001
ACAD
1000
DSTYLE
1002
{
1070
    79
1070
     3
1002
}
  0
LINE
  5
59FE
330
1E
100
AcDbEntity
  8
17
  6
DASHDOT
100
AcDbLine
 10
349.8144775593032
 20
57.74999999999997
 30
0.0
 11
349.8144775593035
 21
45.24999999999997
 31
0.0
  0
ARC
  5
59FF
330
1E
100
AcDbEntity
  8
24
  6
Continuous
100
AcDbCircle
 10
357.3094755577017
 20
80.50000000000002
 30
0.0
 40
8.0
100
AcDbArc
 50
242.4550403035893
 51
277.2168646146247
  0
TEXT
  5
5C38
330
1E
100
AcDbEntity
  8
30
  6
Continuous
100
AcDbText
 10
249.4285447303397
 20
94.039817676845
 30
0.0
 40
5.0
  1
M8
  7
STANDARD1
100
AcDbText
  0
TEXT
  5
5C39
330
1E
100
AcDbEntity
  8
30
  6
Continuous
100
AcDbText
 10
324.3526601839091
 20
76.11649607392563
 30
0.0
 40
5.0
  1
%%c9
  7
STANDARD1
100
AcDbText
  0
MTEXT
  5
5C78
330
1E
100
AcDbEntity
  8
30
  6
Continuous
100
AcDbMText
 10
162.3297648581359
 20
88.99793930010117
 30
0.0
 40
4.0
 41
0.0
 46
0.0
 71
     9
 72
     1
  1

 73
     1
 44
1.0
1001
ACAD
1000
MTEXTBEGIN
1070
    73
1070
     1
1070
    44
1040
1.0
1070
    74
1070
     0
1000
MTEXTEND
  0
LEADER
  5
5C79
330
1E
100
AcDbEntity
  8
30
  6
Continuous
100
AcDbLeader
  3
STANDARD
 76
     3
 10
345.652348210705
 20
55.11720759482259
 30
0.0
 10
336.3163505821475
 20
74.22421373062309
 30
0.0
 10
322.9792070568799
 20
74.66856214966412
 30
0.0
213
0.0
223
2.0
233
0.0
1001
ACAD
1000
DSTYLE
1002
{
1070
     5
1000
OPEN
1070
    77
1070
     0
1070
    79
1070
     3
1070
   147
1040
1.0
1070
   342
1005
3B2
1002
}
  0
DIMENSION
  5
5E29
330
1E
100
AcDbEntity
  8
30
  6
Continuous
100
AcDbDimension
280
     0
  2
*D16
 10
42.00000000000001
 20
32.59950840068013
 30
0.0
 11
0.0000000000000215
 21
35.59950840068013
 31
0.0
 70
    32
 71
     5
 42
-1.0
 73
     0
 74
     0
 75
     0
  3
STANDARD
100
AcDbAlignedDimension
 13
-41.99999999999996
 23
24.99999999999996
 33
0.0
 14
42.00000000000001
 24
24.99999999999996
 34
0.0
100
AcDbRotatedDimension
1001
ACAD
1000
DSTYLE
1002
{
1070
    79
1070
     3
1002
}
  0
DIMENSION
  5
5E2A
330
1E
100
AcDbEntity
  8
30
  6
Continuous
100
AcDbDimension
280
     0
  2
*D17
 10
45.0
 20
-121.7494181439514
 30
0.0
 11
0.0000000000000144
 21
-118.7494181439514
 31
0.0
 70
    32
 71
     5
 42
-1.0
 73
     0
 74
     0
 75
     0
  3
STANDARD
100
AcDbAlignedDimension
 13
-44.99999999999997
 23
-77.50000000000003
 33
0.0
 14
45.0
 24
-77.50000000000003
 34
0.0
 50
180.0
100
AcDbRotatedDimension
1001
ACAD
1000
DSTYLE
1002
{
1070
    79
1070
     3
1002
}
  0
ARC
  5
5E2B
330
1E
100
AcDbEntity
  8
10
  6
CONTINOUS
100
AcDbCircle
 10
-33.74999999999992
 20
-66.00000000000004
 30
0.0
 40
5.0
100
AcDbArc
 50
90.0
 51
180.0
  0
ARC
  5
5E2C
330
1E
100
AcDbEntity
  8
10
  6
CONTINOUS
100
AcDbCircle
 10
33.74999999999992
 20
65.99999999999997
 30
0.0
 40
5.0
210
0.0
220
0.0
230
-1.0
100
AcDbArc
 50
270.0
 51
0.0
  0
LINE
  5
5E2D
330
1E
100
AcDbEntity
  8
10
  6
CONTINOUS
100
AcDbLine
 10
-41.99999999999996
 20
-25.0
 30
0.0
 11
42.00000000000001
 21
-25.0
 31
0.0
  0
LINE
  5
5E2E
330
1E
100
AcDbEntity
  8
10
  6
CONTINOUS
100
AcDbLine
 10
-44.99999999999997
 20
-51.00000000000008
 30
0.0
 11
45.0
 21
-51.00000000000008
 31
0.0
  0
LINE
  5
5E2F
330
1E
100
AcDbEntity
  8
10
  6
CONTINOUS
100
AcDbLine
 10
-44.99999999999997
 20
50.99999999999996
 30
0.0
 11
45.0
 21
50.99999999999996
 31
0.0
  0
LINE
  5
5E30
330
1E
100
AcDbEntity
  8
10
  6
CONTINOUS
100
AcDbLine
 10
45.0
 20
77.49999999999997
 30
0.0
 11
-44.99999999999997
 21
77.49999999999997
 31
0.0
  0
LINE
  5
5E31
330
1E
100
AcDbEntity
  8
10
  6
CONTINOUS
100
AcDbLine
 10
-44.99999999999997
 20
-77.50000000000003
 30
0.0
 11
45.0
 21
-77.50000000000003
 31
0.0
  0
LINE
  5
5E32
330
1E
100
AcDbEntity
  8
10
  6
CONTINOUS
100
AcDbLine
 10
-41.99999999999996
 20
25.0
 30
0.0
 11
42.00000000000001
 21
25.0
 31
0.0
  0
LINE
  5
5E33
330
1E
100
AcDbEntity
  8
10
  6
CONTINOUS
100
AcDbLine
 10
-41.99999999999996
 20
25.0
 30
0.0
 11
-41.99999999999996
 21
-25.0
 31
0.0
  0
LINE
  5
5E34
330
1E
100
AcDbEntity
  8
10
  6
CONTINOUS
100
AcDbLine
 10
-44.99999999999997
 20
77.49999999999997
 30
0.0
 11
-44.99999999999997
 21
-77.50000000000003
 31
0.0
  0
LINE
  5
5E35
330
1E
100
AcDbEntity
  8
10
  6
CONTINOUS
100
AcDbLine
 10
-38.74999999999996
 20
-66.00000000000004
 30
0.0
 11
-38.74999999999996
 21
-77.50000000000003
 31
0.0
  0
LINE
  5
5E36
330
1E
100
AcDbEntity
  8
10
  6
CONTINOUS
100
AcDbLine
 10
-38.74999999999996
 20
65.99999999999997
 30
0.0
 11
-38.74999999999996
 21
77.49999999999997
 31
0.0
  0
LINE
  5
5E38
330
1E
100
AcDbEntity
  8
18
100
AcDbLine
 10
13.50000000000002
 20
124.4999999999996
 30
0.0
 11
13.50000000000002
 21
77.49999999999973
 31
0.0
  0
LINE
  5
5E39
330
1E
100
AcDbEntity
  8
18
100
AcDbLine
 10
16.5
 20
124.4999999999996
 30
0.0
 11
16.5
 21
77.49999999999973
 31
0.0
  0
LINE
  5
5E3A
330
1E
100
AcDbEntity
  8
18
100
AcDbLine
 10
-13.49999999999999
 20
124.4999999999996
 30
0.0
 11
-13.49999999999999
 21
77.49999999999973
 31
0.0
  0
LINE
  5
5E3B
330
1E
100
AcDbEntity
  8
18
100
AcDbLine
 10
-16.5
 20
124.4999999999996
 30
0.0
 11
-16.5
 21
77.49999999999973
 31
0.0
  0
LINE
  5
5E3C
330
1E
100
AcDbEntity
  8
10
  6
CONTINOUS
100
AcDbLine
 10
42.00000000000001
 20
25.0
 30
0.0
 11
42.00000000000001
 21
-25.0
 31
0.0
  0
LINE
  5
5E3E
330
1E
100
AcDbEntity
  8
10
  6
CONTINOUS
100
AcDbLine
 10
11.00000000000002
 20
25.0
 30
0.0
 11
11.00000000000002
 21
-25.0
 31
0.0
  0
LINE
  5
5E3F
330
1E
100
AcDbEntity
  8
10
  6
CONTINOUS
100
AcDbLine
 10
-10.99999999999999
 20
25.0
 30
0.0
 11
-10.99999999999999
 21
-25.0
 31
0.0
  0
LINE
  5
5E40
330
1E
100
AcDbEntity
  8
10
  6
CONTINOUS
100
AcDbLine
 10
45.0
 20
-77.50000000000003
 30
0.0
 11
45.0
 21
77.49999999999997
 31
0.0
  0
DIMENSION
  5
5E41
330
1E
100
AcDbEntity
  8
30
  6
Continuous
100
AcDbDimension
280
     0
  2
*D18
 10
30.00000000000003
 20
-101.7494181439513
 30
0.0
 11
0.000000000000041
 21
-98.7494181439515
 31
0.0
 70
    32
 71
     5
 42
-1.0
 73
     0
 74
     0
 75
     0
  3
STANDARD
100
AcDbAlignedDimension
 13
-29.99999999999995
 23
-69.50000001650003
 33
0.0
 14
30.00000000000003
 24
-69.50000001650003
 34
0.0
 50
180.0
100
AcDbRotatedDimension
1001
ACAD
1000
DSTYLE
1002
{
1070
    79
1070
     3
1002
}
  0
DIMENSION
  5
5E42
330
1E
100
AcDbEntity
  8
30
  6
Continuous
100
AcDbDimension
280
     0
  2
*D19
 10
11.00000000000002
 20
-41.74941814395149
 30
0.0
 11
0.0000000000000277
 21
-38.7494181439515
 31
0.0
 70
    32
 71
     5
 42
-1.0
 73
     0
 74
     0
 75
     0
  3
STANDARD
100
AcDbAlignedDimension
 13
-10.99999999999999
 23
-25.0
 33
0.0
 14
11.00000000000002
 24
-25.0
 34
0.0
 50
180.0
100
AcDbRotatedDimension
1001
ACAD
1000
DSTYLE
1002
{
1070
    79
1070
     3
1002
}
  0
ARC
  5
5E43
330
1E
100
AcDbEntity
  8
10
  6
CONTINOUS
100
AcDbCircle
 10
-3.75
 20
-66.00000000000004
 30
0.0
 40
5.0
210
0.0
220
0.0
230
-1.0
100
AcDbArc
 50
90.0
 51
180.0
  0
CIRCLE
  5
5E44
330
1E
100
AcDbEntity
  8
24
  6
CONTINOUS
100
AcDbCircle
 10
0.0
 20
-67.00000000000001
 30
0.0
 40
5.0
  0
LINE
  5
5E45
330
1E
100
AcDbEntity
  8
24
  6
CONTINOUS
100
AcDbLine
 10
-6.999999999999997
 20
-67.00000000000001
 30
0.0
 11
7.000000000000026
 21
-67.00000000000001
 31
0.0
  0
CIRCLE
  5
5E46
330
1E
100
AcDbEntity
  8
24
  6
CONTINOUS
100
AcDbCircle
 10
-29.99999999999995
 20
-67.00000000000009
 30
0.0
 40
5.0
  0
LINE
  5
5E47
330
1E
100
AcDbEntity
  8
10
  6
CONTINOUS
100
AcDbLine
 10
-21.24999999999999
 20
-66.00000000000004
 30
0.0
 11
-21.24999999999999
 21
-77.50000000000003
 31
0.0
  0
LINE
  5
5E48
330
1E
100
AcDbEntity
  8
24
  6
CONTINOUS
100
AcDbLine
 10
-29.99999999999995
 20
-74.00000000000003
 30
0.0
 11
-29.99999999999995
 21
-60.00000000000003
 31
0.0
  0
LINE
  5
5E49
330
1E
100
AcDbEntity
  8
10
  6
CONTINOUS
100
AcDbLine
 10
-33.74999999999992
 20
-61.00000000000008
 30
0.0
 11
-26.24999999999999
 21
-61.00000000000008
 31
0.0
  0
LINE
  5
5E4A
330
1E
100
AcDbEntity
  8
24
  6
CONTINOUS
100
AcDbLine
 10
-22.99999999999996
 20
-67.00000000000001
 30
0.0
 11
-36.99999999999997
 21
-67.00000000000001
 31
0.0
  0
ARC
  5
5E4B
330
1E
100
AcDbEntity
  8
10
  6
CONTINOUS
100
AcDbCircle
 10
-26.24999999999999
 20
-66.00000000000004
 30
0.0
 40
5.0
100
AcDbArc
 50
0.0
 51
90.0
  0
LINE
  5
5E4C
330
1E
100
AcDbEntity
  8
10
  6
CONTINOUS
100
AcDbLine
 10
-8.749999999999998
 20
-66.00000000000004
 30
0.0
 11
-8.749999999999998
 21
-77.50000000000003
 31
0.0
  0
ARC
  5
5E4D
330
1E
100
AcDbEntity
  8
10
  6
CONTINOUS
100
AcDbCircle
 10
3.749999999999998
 20
-66.00000000000004
 30
0.0
 40
5.0
210
0.0
220
0.0
230
-1.0
100
AcDbArc
 50
0.0
 51
90.0
  0
LINE
  5
5E4E
330
1E
100
AcDbEntity
  8
10
  6
CONTINOUS
100
AcDbLine
 10
3.75
 20
-61.00000000000008
 30
0.0
 11
-3.749999999999998
 21
-61.00000000000008
 31
0.0
  0
ARC
  5
5E4F
330
1E
100
AcDbEntity
  8
10
  6
CONTINOUS
100
AcDbCircle
 10
-26.25000000000003
 20
-66.00000000000004
 30
0.0
 40
5.0
210
0.0
220
0.0
230
-1.0
100
AcDbArc
 50
0.0
 51
90.0
  0
CIRCLE
  5
5E50
330
1E
100
AcDbEntity
  8
24
  6
CONTINOUS
100
AcDbCircle
 10
30.00000000000003
 20
-67.00000000000001
 30
0.0
 40
5.0
  0
LINE
  5
5E51
330
1E
100
AcDbEntity
  8
24
  6
CONTINOUS
100
AcDbLine
 10
23.00000000000002
 20
-67.00000000000001
 30
0.0
 11
37.00000000000001
 21
-67.00000000000001
 31
0.0
  0
CIRCLE
  5
5E52
330
1E
100
AcDbEntity
  8
12
  6
DASHED
100
AcDbCircle
 10
15.00000000000005
 20
-66.00000000000004
 30
0.0
 40
4.0
  0
LINE
  5
5E53
330
1E
100
AcDbEntity
  8
12
  6
DASHED
100
AcDbLine
 10
15.00000000000005
 20
-71.50000000000003
 30
0.0
 11
15.00000000000005
 21
-60.49999999999998
 31
0.0
  0
LINE
  5
5E54
330
1E
100
AcDbEntity
  8
10
  6
CONTINOUS
100
AcDbLine
 10
21.25000000000003
 20
-66.00000000000004
 30
0.0
 11
21.25000000000003
 21
-77.50000000000003
 31
0.0
  0
LINE
  5
5E55
330
1E
100
AcDbEntity
  8
10
  6
CONTINOUS
100
AcDbLine
 10
8.750000000000023
 20
-66.00000000000004
 30
0.0
 11
8.750000000000023
 21
-77.50000000000003
 31
0.0
  0
LINE
  5
5E56
330
1E
100
AcDbEntity
  8
12
  6
DASHED
100
AcDbLine
 10
9.500000000000078
 20
-66.00000000000004
 30
0.0
 11
20.50000000000014
 21
-66.00000000000004
 31
0.0
  0
LINE
  5
5E57
330
1E
100
AcDbEntity
  8
24
  6
CONTINOUS
100
AcDbLine
 10
30.00000000000003
 20
-74.00000000000003
 30
0.0
 11
30.00000000000003
 21
-60.00000000000003
 31
0.0
  0
LINE
  5
5E58
330
1E
100
AcDbEntity
  8
10
  6
CONTINOUS
100
AcDbLine
 10
38.75000000000003
 20
-66.00000000000004
 30
0.0
 11
38.75000000000003
 21
-77.50000000000003
 31
0.0
  0
ARC
  5
5E59
330
1E
100
AcDbEntity
  8
10
  6
CONTINOUS
100
AcDbCircle
 10
-33.75000000000003
 20
-66.00000000000004
 30
0.0
 40
5.0
210
0.0
220
0.0
230
-1.0
100
AcDbArc
 50
90.0
 51
180.0
  0
LINE
  5
5E5A
330
1E
100
AcDbEntity
  8
10
  6
CONTINOUS
100
AcDbLine
 10
33.75000000000003
 20
-61.00000000000008
 30
0.0
 11
26.25000000000003
 21
-61.00000000000008
 31
0.0
  0
LINE
  5
5E5B
330
1E
100
AcDbEntity
  8
10
  6
CONTINOUS
100
AcDbLine
 10
7.000000000000026
 20
20.15486870581028
 30
0.0
 11
-7.000000000000909
 21
20.15486870581028
 31
0.0
  0
LINE
  5
5E5C
330
1E
100
AcDbEntity
  8
10
  6
CONTINOUS
100
AcDbLine
 10
7.000000000000026
 20
15.23995644007658
 30
0.0
 11
-6.999999999999997
 21
15.23995644007658
 31
0.0
  0
LINE
  5
5E5D
330
1E
100
AcDbEntity
  8
10
  6
CONTINOUS
100
AcDbLine
 10
7.000000000000026
 20
6.840789306861434
 30
0.0
 11
-6.99999999999903
 21
6.840789306861521
 31
0.0
  0
LINE
  5
5E5E
330
1E
100
AcDbEntity
  8
10
  6
CONTINOUS
100
AcDbLine
 10
-6.999999999999997
 20
-18.50000000000001
 30
0.0
 11
7.000000000000026
 21
-18.50000000000001
 31
0.0
  0
LINE
  5
5E5F
330
1E
100
AcDbEntity
  8
10
  6
CONTINOUS
100
AcDbLine
 10
-6.999999999999997
 20
-18.50000000000001
 30
0.0
 11
-6.999999999999857
 21
20.15486870581028
 31
0.0
  0
LINE
  5
5E60
330
1E
100
AcDbEntity
  8
10
  6
CONTINOUS
100
AcDbLine
 10
7.000000000000026
 20
-18.50000000000001
 30
0.0
 11
7.000000000000079
 21
20.15486870581028
 31
0.0
  0
ARC
  5
5E62
330
1E
100
AcDbEntity
  8
10
  6
CONTINOUS
100
AcDbCircle
 10
3.75
 20
65.99999999999997
 30
0.0
 40
5.0
100
AcDbArc
 50
270.0
 51
0.0
  0
CIRCLE
  5
5E63
330
1E
100
AcDbEntity
  8
24
  6
CONTINOUS
100
AcDbCircle
 10
0.0
 20
66.99999999999997
 30
0.0
 40
5.0
  0
LINE
  5
5E64
330
1E
100
AcDbEntity
  8
24
  6
CONTINOUS
100
AcDbLine
 10
-6.999999999999997
 20
66.99999999999997
 30
0.0
 11
7.000000000000026
 21
66.99999999999997
 31
0.0
  0
CIRCLE
  5
5E65
330
1E
100
AcDbEntity
  8
24
  6
CONTINOUS
100
AcDbCircle
 10
-29.99999999999995
 20
66.99999999999997
 30
0.0
 40
5.0
  0
LINE
  5
5E66
330
1E
100
AcDbEntity
  8
10
  6
CONTINOUS
100
AcDbLine
 10
-21.24999999999999
 20
65.99999999999997
 30
0.0
 11
-21.24999999999999
 21
77.49999999999997
 31
0.0
  0
LINE
  5
5E67
330
1E
100
AcDbEntity
  8
24
  6
CONTINOUS
100
AcDbLine
 10
-29.99999999999995
 20
73.99999999999997
 30
0.0
 11
-29.99999999999995
 21
59.99999999999996
 31
0.0
  0
LINE
  5
5E68
330
1E
100
AcDbEntity
  8
10
  6
CONTINOUS
100
AcDbLine
 10
-8.749999999999998
 20
65.99999999999997
 30
0.0
 11
-8.749999999999998
 21
77.49999999999997
 31
0.0
  0
CIRCLE
  5
5E69
330
1E
100
AcDbEntity
  8
12
  6
DASHED
100
AcDbCircle
 10
-14.99999999999998
 20
65.99999999999974
 30
0.0
 40
4.0
  0
LINE
  5
5E6A
330
1E
100
AcDbEntity
  8
12
  6
DASHED
100
AcDbLine
 10
-20.49999999999996
 20
65.99999999999974
 30
0.0
 11
-9.5
 21
65.99999999999974
 31
0.0
  0
LINE
  5
5E6B
330
1E
100
AcDbEntity
  8
10
  6
CONTINOUS
100
AcDbLine
 10
-33.74999999999992
 20
60.99999999999996
 30
0.0
 11
-26.24999999999999
 21
60.99999999999996
 31
0.0
  0
LINE
  5
5E6C
330
1E
100
AcDbEntity
  8
24
  6
CONTINOUS
100
AcDbLine
 10
-22.99999999999996
 20
66.99999999999997
 30
0.0
 11
-36.99999999999997
 21
66.99999999999997
 31
0.0
  0
ARC
  5
5E6D
330
1E
100
AcDbEntity
  8
10
  6
CONTINOUS
100
AcDbCircle
 10
26.24999999999999
 20
65.99999999999997
 30
0.0
 40
5.0
210
0.0
220
0.0
230
-1.0
100
AcDbArc
 50
180.0
 51
270.0
  0
ARC
  5
5E6E
330
1E
100
AcDbEntity
  8
10
  6
CONTINOUS
100
AcDbCircle
 10
-3.749999999999998
 20
65.99999999999997
 30
0.0
 40
5.0
100
AcDbArc
 50
180.0
 51
270.0
  0
LINE
  5
5E6F
330
1E
100
AcDbEntity
  8
12
  6
DASHED
100
AcDbLine
 10
-14.99999999999998
 20
60.49999999999974
 30
0.0
 11
-14.99999999999998
 21
71.49999999999973
 31
0.0
  0
LINE
  5
5E70
330
1E
100
AcDbEntity
  8
10
  6
CONTINOUS
100
AcDbLine
 10
3.75
 20
60.99999999999996
 30
0.0
 11
-3.749999999999998
 21
60.99999999999996
 31
0.0
  0
CIRCLE
  5
5E71
330
1E
100
AcDbEntity
  8
24
  6
CONTINOUS
100
AcDbCircle
 10
30.00000000000003
 20
66.99999999999997
 30
0.0
 40
5.0
  0
LINE
  5
5E72
330
1E
100
AcDbEntity
  8
10
  6
CONTINOUS
100
AcDbLine
 10
38.75000000000003
 20
65.99999999999997
 30
0.0
 11
38.75000000000003
 21
77.49999999999997
 31
0.0
  0
LINE
  5
5E73
330
1E
100
AcDbEntity
  8
10
  6
CONTINOUS
100
AcDbLine
 10
21.25000000000003
 20
65.99999999999997
 30
0.0
 11
21.25000000000003
 21
77.49999999999997
 31
0.0
  0
LINE
  5
5E74
330
1E
100
AcDbEntity
  8
24
  6
CONTINOUS
100
AcDbLine
 10
30.00000000000003
 20
73.99999999999997
 30
0.0
 11
30.00000000000003
 21
59.99999999999996
 31
0.0
  0
LINE
  5
5E75
330
1E
100
AcDbEntity
  8
10
  6
CONTINOUS
100
AcDbLine
 10
8.750000000000023
 20
65.99999999999997
 30
0.0
 11
8.750000000000023
 21
77.49999999999997
 31
0.0
  0
ARC
  5
5E76
330
1E
100
AcDbEntity
  8
10
  6
CONTINOUS
100
AcDbCircle
 10
26.25000000000003
 20
65.99999999999997
 30
0.0
 40
5.0
100
AcDbArc
 50
180.0
 51
270.0
  0
LINE
  5
5E77
330
1E
100
AcDbEntity
  8
24
  6
CONTINOUS
100
AcDbLine
 10
23.00000000000002
 20
66.99999999999997
 30
0.0
 11
37.00000000000001
 21
66.99999999999997
 31
0.0
  0
ARC
  5
5E78
330
1E
100
AcDbEntity
  8
10
  6
CONTINOUS
100
AcDbCircle
 10
33.75000000000003
 20
65.99999999999997
 30
0.0
 40
5.0
100
AcDbArc
 50
270.0
 51
0.0
  0
LINE
  5
5E79
330
1E
100
AcDbEntity
  8
10
  6
CONTINOUS
100
AcDbLine
 10
33.75000000000003
 20
60.99999999999996
 30
0.0
 11
26.25000000000003
 21
60.99999999999996
 31
0.0
  0
LINE
  5
5E7A
330
1E
100
AcDbEntity
  8
18
100
AcDbLine
 10
-13.49999999999999
 20
124.4999999999996
 30
0.0
 11
-16.5
 21
124.4999999999996
 31
0.0
  0
LINE
  5
5E7B
330
1E
100
AcDbEntity
  8
18
100
AcDbLine
 10
13.50000000000002
 20
124.4999999999996
 30
0.0
 11
16.5
 21
124.4999999999996
 31
0.0
  0
LINE
  5
5EEE
330
1E
100
AcDbEntity
  8
18
  6
DIVIDE
100
AcDbLine
 10
45.0
 20
-177.4999999999999
 30
0.0
 11
-44.99999999999999
 21
-177.4999999999999
 31
0.0
  0
LINE
  5
5EEF
330
1E
100
AcDbEntity
  8
18
  6
DIVIDE
100
AcDbLine
 10
-44.99999999999999
 20
-332.4999999999998
 30
0.0
 11
45.0
 21
-332.4999999999998
 31
0.0
  0
DIMENSION
  5
5EF0
330
1E
100
AcDbEntity
  8
30
  6
Continuous
100
AcDbDimension
280
     0
  2
*D20
 10
15.0
 20
-356.7494181439514
 30
0.0
 11
-0.0000000000000016
 21
-353.7494181439513
 31
0.0
 70
    32
 71
     5
 42
-1.0
 73
     0
 74
     0
 75
     0
  3
STANDARD
100
AcDbAlignedDimension
 13
-14.99999999999999
 23
-191.5000000165002
 33
0.0
 14
15.0
 24
-323.5000000165001
 34
0.0
 50
180.0
100
AcDbRotatedDimension
1001
ACAD
1000
DSTYLE
1002
{
1070
    79
1070
     3
1002
}
  0
LINE
  5
5EF1
330
1E
100
AcDbEntity
  8
18
  6
DIVIDE
100
AcDbLine
 10
-44.99999999999999
 20
-177.4999999999999
 30
0.0
 11
-44.99999999999999
 21
-332.4999999999998
 31
0.0
  0
LINE
  5
5EF2
330
1E
100
AcDbEntity
  8
12
  6
Continuous
 62
     3
100
AcDbLine
 10
9.499999999999984
 20
-320.9999999999999
 30
0.0
 11
20.49999999999998
 21
-320.9999999999999
 31
0.0
  0
LINE
  5
5EF3
330
1E
100
AcDbEntity
  8
12
  6
Continuous
 62
     3
100
AcDbLine
 10
15.0
 20
-326.4999999999998
 30
0.0
 11
15.0
 21
-315.4999999999998
 31
0.0
  0
CIRCLE
  5
5EF4
330
1E
100
AcDbEntity
  8
12
  6
Continuous
 62
     3
100
AcDbCircle
 10
15.0
 20
-320.9999999999999
 30
0.0
 40
2.0
  0
CIRCLE
  5
5EF5
330
1E
100
AcDbEntity
  8
12
  6
Continuous
 62
     3
100
AcDbCircle
 10
-14.99999999999999
 20
-189.0
 30
0.0
 40
2.0
  0
LINE
  5
5EF6
330
1E
100
AcDbEntity
  8
12
  6
Continuous
 62
     3
100
AcDbLine
 10
-20.49999999999998
 20
-189.0
 30
0.0
 11
-9.499999999999998
 21
-189.0
 31
0.0
  0
LINE
  5
5EF7
330
1E
100
AcDbEntity
  8
12
  6
Continuous
 62
     3
100
AcDbLine
 10
-14.99999999999999
 20
-194.5
 30
0.0
 11
-14.99999999999999
 21
-183.4999999999999
 31
0.0
  0
LINE
  5
5EF8
330
1E
100
AcDbEntity
  8
18
  6
DIVIDE
100
AcDbLine
 10
45.0
 20
-332.4999999999998
 30
0.0
 11
45.0
 21
-177.4999999999999
 31
0.0
  0
LEADER
  5
6067
330
1E
100
AcDbEntity
  8
30
  6
Continuous
100
AcDbLeader
  3
STANDARD
 73
     0
 40
4.0
 76
     3
 10
-14.99999999999999
 20
-189.0
 30
0.0
 10
-24.14302787963855
 20
-165.368371608535
 30
0.0
 10
-45.6199054648288
 20
-165.3368762556449
 30
0.0
340
6068
213
-12.87672171467731
223
1.90869741556051
233
0.0
1001
ACAD
1000
DSTYLE
1002
{
1070
     5
1000
OPEN
1070
    77
1070
     0
1070
    79
1070
     3
1070
   147
1040
1.0
1070
   342
1005
3B2
1002
}
  0
MTEXT
  5
6068
102
{ACAD_REACTORS
330
6067
102
}
330
1E
100
AcDbEntity
  8
30
  6
Continuous
100
AcDbMText
 10
-34.12327828532269
 20
-164.9086974155603
 30
0.0
 40
4.0
 41
0.0
 46
0.0
 71
     9
 72
     1
  1

 73
     1
 44
1.0
1001
ACAD
1000
MTEXTBEGIN
1070
    73
1070
     1
1070
    44
1040
1.0
1070
    74
1070
     0
1000
MTEXTEND
  0
MTEXT
  5
606B
330
1E
100
AcDbEntity
  8
30
  6
Continuous
100
AcDbMText
 10
-34.17173218180357
 20
-162.1570239285006
 30
0.0
 40
4.0
 41
0.0
 46
0.0
 71
     5
 72
     1
  1
M4×0.7
 73
     1
 44
1.0
1001
ACAD
1000
MTEXTBEGIN
1070
    73
1070
     1
1070
    44
1040
1.0
1070
    74
1070
     0
1000
MTEXTEND
  0
DIMENSION
  5
6157
330
1E
100
AcDbEntity
  8
30
  6
Continuous
100
AcDbDimension
280
     0
  2
*D26
 10
87.91568416193033
 20
-320.9999999999999
 30
0.0
 11
84.91568416193038
 21
-255.0
 31
0.0
 70
    32
 71
     5
 42
-1.0
 73
     0
 74
     0
 75
     0
  3
STANDARD
100
AcDbAlignedDimension
 13
-9.499999999999998
 23
-189.0
 33
0.0
 14
20.49999999999998
 24
-320.9999999999999
 34
0.0
 50
90.0
100
AcDbRotatedDimension
1001
ACAD
1000
DSTYLE
1002
{
1070
    79
1070
     3
1002
}
  0
DIMENSION
  5
619F
330
1E
100
AcDbEntity
  8
30
  6
Continuous
100
AcDbDimension
280
     0
  2
*D27
 10
-68.18995837047086
 20
77.49999999999997
 30
0.0
 11
-71.18995837047087
 21
100.9999999999997
 31
0.0
 70
    32
 71
     5
 42
-1.0
 73
     0
 74
     0
 75
     0
  3
STANDARD
100
AcDbAlignedDimension
 13
-16.5
 23
124.4999999999996
 33
0.0
 14
-44.99999999999997
 24
77.49999999999997
 34
0.0
 50
90.0
100
AcDbRotatedDimension
1001
ACAD
1000
DSTYLE
1002
{
1070
    79
1070
     3
1002
}
  0
DIMENSION
  5
61AC
330
1E
100
AcDbEntity
  8
30
  6
Continuous
100
AcDbDimension
280
     0
  2
*D28
 10
-68.18995837047089
 20
-77.50000000000003
 30
0.0
 11
-71.18995837047087
 21
-0.0000000000000381
 31
0.0
 70
    32
 71
     5
 42
-1.0
 73
     0
 74
     0
 75
     0
  3
STANDARD
100
AcDbAlignedDimension
 13
-44.99999999999997
 23
77.49999999999997
 33
0.0
 14
-44.99999999999997
 24
-77.50000000000003
 34
0.0
 50
90.0
100
AcDbRotatedDimension
1001
ACAD
1000
DSTYLE
1002
{
1070
   287
1070
     4
1070
   287
1070
     4
1070
   287
1070
     4
1070
   287
1070
     4
1070
   287
1070
     4
1070
   279
1070
     1
1070
    79
1070
     3
1002
}
  0
DIMENSION
  5
66A1
330
1E
100
AcDbEntity
  8
30
  6
Continuous
100
AcDbDimension
280
     0
  2
*D29
 10
309.8144775593032
 20
-89.91608514395144
 30
0.0
 11
305.8144775593031
 21
-86.91608514395143
 31
0.0
 70
    32
 71
     5
 42
-1.0
 73
     0
 74
     0
 75
     0
  3
STANDARD
100
AcDbAlignedDimension
 13
301.8144775593031
 23
-77.50000000000003
 33
0.0
 14
309.8144775593032
 24
-68.25000000000001
 34
0.0
100
AcDbRotatedDimension
1001
ACAD
1000
DSTYLE
1002
{
1070
    79
1070
     3
1002
}
  0
LEADER
  5
6766
330
1E
100
AcDbEntity
  8
30
  6
Continuous
100
AcDbLeader
  3
STANDARD
 76
     3
 10
270.9105529131242
 20
73.04720618797992
 30
0.0
 10
263.0
 20
91.0
 30
0.0
 10
235.0
 20
91.0
 30
0.0
1001
ACAD
1000
DSTYLE
1002
{
1070
     5
1000
OPEN
1070
    77
1070
     0
1070
    79
1070
     3
1070
   147
1040
1.0
1070
   342
1005
3B2
1002
}
  0
LINE
  5
6767
330
1E
100
AcDbEntity
  8
16
100
AcDbLine
 10
260.0
 20
-352.7519397628458
 30
0.0
 11
260.0
 21
-153.6166007905139
 31
0.0
  0
LINE
  5
6769
330
1E
100
AcDbEntity
  8
18
  6
DIVIDE
100
AcDbLine
 10
215.0
 20
-177.4999999999998
 30
0.0
 11
215.0
 21
-332.4999999999998
 31
0.0
  0
LINE
  5
676A
330
1E
100
AcDbEntity
  8
18
  6
DIVIDE
100
AcDbLine
 10
305.0
 20
-332.4999999999998
 30
0.0
 11
305.0
 21
-177.4999999999998
 31
0.0
  0
LINE
  5
676B
330
1E
100
AcDbEntity
  8
11
 48
2.0
100
AcDbLine
 10
217.0
 20
-230.0
 30
0.0
 11
217.0
 21
-279.9999999999998
 31
0.0
  0
LINE
  5
676C
330
1E
100
AcDbEntity
  8
11
 48
2.0
100
AcDbLine
 10
303.0000000000001
 20
-230.0
 30
0.0
 11
303.0000000000001
 21
-279.9999999999998
 31
0.0
  0
DIMENSION
  5
676D
330
1E
100
AcDbEntity
  8
30
  6
Continuous
100
AcDbDimension
280
     0
  2
*D33
 10
336.0178303542168
 20
-280.9999999999998
 30
0.0
 11
333.0178303542168
 21
-254.9999999999998
 31
0.0
 70
    32
 71
     5
 42
-1.0
 73
     0
 74
     0
 75
     0
  3
STANDARD
100
AcDbAlignedDimension
 13
302.0
 23
-228.9999999999998
 33
0.0
 14
302.0
 24
-280.9999999999998
 34
0.0
 50
90.0
100
AcDbRotatedDimension
1001
ACAD
1000
DSTYLE
1002
{
1070
    79
1070
     3
1002
}
  0
LINE
  5
676F
330
1E
100
AcDbEntity
  8
16
100
AcDbLine
 10
328.9038975494069
 20
-255.0
 30
0.0
 11
179.450086798419
 21
-255.0
 31
0.0
  0
LINE
  5
6770
330
1E
100
AcDbEntity
  8
18
  6
DIVIDE
100
AcDbLine
 10
215.0
 20
-332.4999999999998
 30
0.0
 11
305.0
 21
-332.4999999999998
 31
0.0
  0
LINE
  5
6772
330
1E
100
AcDbEntity
  8
11
 48
2.0
100
AcDbLine
 10
218.0
 20
-280.9999999999998
 30
0.0
 11
302.0
 21
-280.9999999999998
 31
0.0
  0
ARC
  5
6776
330
1E
100
AcDbEntity
  8
11
 48
2.0
100
AcDbCircle
 10
218.0
 20
-279.9999999999998
 30
0.0
 40
1.0
100
AcDbArc
 50
180.0
 51
270.0
  0
ARC
  5
6777
330
1E
100
AcDbEntity
  8
11
 48
2.0
100
AcDbCircle
 10
302.0
 20
-279.9999999999998
 30
0.0
 40
1.0
100
AcDbArc
 50
270.0
 51
0.0
  0
LINE
  5
6778
330
1E
100
AcDbEntity
  8
18
  6
DIVIDE
100
AcDbLine
 10
305.0
 20
-177.4999999999998
 30
0.0
 11
215.0
 21
-177.4999999999998
 31
0.0
  0
LINE
  5
6779
330
1E
100
AcDbEntity
  8
11
 48
2.0
100
AcDbLine
 10
218.0
 20
-228.9999999999998
 30
0.0
 11
302.0
 21
-228.9999999999998
 31
0.0
  0
ARC
  5
677E
330
1E
100
AcDbEntity
  8
11
 48
2.0
100
AcDbCircle
 10
218.0
 20
-230.0
 30
0.0
 40
1.0
100
AcDbArc
 50
90.0
 51
180.0
  0
DIMENSION
  5
6780
330
1E
100
AcDbEntity
  8
30
  6
Continuous
100
AcDbDimension
280
     0
  2
*D32
 10
302.0000000000001
 20
-229.9999999999994
 30
0.0
 11
309.6330332440373
 21
-223.9556714740484
 31
0.0
 70
    36
 71
     5
 42
-1.0
 73
     0
 74
     0
 75
     0
  3
STANDARD
100
AcDbRadialDimension
 15
302.7932733154743
 25
-229.3911342948091
 35
0.0
 40
0.0
1001
ACAD
1000
DSTYLE
1002
{
1070
   288
1070
     1
1002
}
  0
ARC
  5
6781
330
1E
100
AcDbEntity
  8
11
 48
2.0
100
AcDbCircle
 10
302.0
 20
-230.0
 30
0.0
 40
1.0
100
AcDbArc
 50
0.0
 51
90.0
  0
DIMENSION
  5
67E9
330
1E
100
AcDbEntity
  8
30
  6
Continuous
100
AcDbDimension
280
     0
  2
*D35
 10
303.0000000000001
 20
-368.6166007905138
 30
0.0
 11
260.0
 21
-365.6166007905138
 31
0.0
 70
    32
 71
     5
 42
-1.0
 73
     0
 74
     0
 75
     0
  3
STANDARD
100
AcDbAlignedDimension
 13
217.0
 23
-255.0
 33
0.0
 14
303.0000000000001
 24
-254.9999999999998
 34
0.0
100
AcDbRotatedDimension
1001
ACAD
1000
DSTYLE
1002
{
1070
    79
1070
     3
1002
}
  0
CIRCLE
  5
6B6D
330
1E
100
AcDbEntity
  8
10
  6
CONTINOUS
100
AcDbCircle
 10
26.19999999999999
 20
-1.900000000000004
 30
0.0
 40
2.6
  0
CIRCLE
  5
6B6E
330
1E
100
AcDbEntity
  8
10
  6
CONTINOUS
100
AcDbCircle
 10
26.19999999999999
 20
-1.900000000000004
 30
0.0
 40
3.6
  0
LINE
  5
6B6F
330
1E
100
AcDbEntity
  8
10
  6
CONTINOUS
100
AcDbLine
 10
22.69999999999999
 20
-15.5
 30
0.0
 11
30.69999999999999
 21
-15.5
 31
0.0
  0
LINE
  5
6B70
330
1E
100
AcDbEntity
  8
10
  6
CONTINOUS
100
AcDbLine
 10
22.69999999999999
 20
-12.5
 30
0.0
 11
30.69999999999999
 21
-12.5
 31
0.0
  0
LINE
  5
6B71
330
1E
100
AcDbEntity
  8
10
  6
CONTINOUS
100
AcDbLine
 10
22.69999999999999
 20
-10.5
 30
0.0
 11
30.69999999999999
 21
-10.5
 31
0.0
  0
LINE
  5
6B72
330
1E
100
AcDbEntity
  8
10
  6
CONTINOUS
100
AcDbLine
 10
22.69999999999999
 20
-7.5
 30
0.0
 11
30.69999999999999
 21
-7.5
 31
0.0
  0
LINE
  5
6B73
330
1E
100
AcDbEntity
  8
10
  6
CONTINOUS
100
AcDbLine
 10
22.69999999999999
 20
-12.5
 30
0.0
 11
22.69999999999999
 21
-15.5
 31
0.0
  0
LINE
  5
6B74
330
1E
100
AcDbEntity
  8
10
  6
CONTINOUS
100
AcDbLine
 10
22.69999999999999
 20
-7.5
 30
0.0
 11
22.69999999999999
 21
-10.5
 31
0.0
  0
LINE
  5
6B75
330
1E
100
AcDbEntity
  8
10
  6
CONTINOUS
100
AcDbLine
 10
30.69999999999999
 20
-12.5
 30
0.0
 11
30.69999999999999
 21
-15.5
 31
0.0
  0
LINE
  5
6B76
330
1E
100
AcDbEntity
  8
10
  6
CONTINOUS
100
AcDbLine
 10
30.69999999999999
 20
-7.5
 30
0.0
 11
30.69999999999999
 21
-10.5
 31
0.0
  0
CIRCLE
  5
6B77
330
1E
100
AcDbEntity
  8
10
  6
CONTINOUS
100
AcDbCircle
 10
26.19999999999999
 20
5.800000000000013
 30
0.0
 40
3.6
  0
CIRCLE
  5
6B78
330
1E
100
AcDbEntity
  8
10
  6
CONTINOUS
100
AcDbCircle
 10
26.19999999999999
 20
5.800000000000013
 30
0.0
 40
2.6
  0
CIRCLE
  5
6B79
330
1E
100
AcDbEntity
  8
10
  6
CONTINOUS
100
AcDbCircle
 10
26.19999999999999
 20
12.30000000000001
 30
0.0
 40
1.5
  0
LINE
  5
6B7A
330
1E
100
AcDbEntity
  8
18
100
AcDbLine
 10
125.5
 20
-3.5
 30
0.0
 11
125.5
 21
3.5
 31
0.0
  0
LINE
  5
6B7B
330
1E
100
AcDbEntity
  8
18
100
AcDbLine
 10
110.4999999999999
 20
-3.5
 30
0.0
 11
110.4999999999999
 21
3.5
 31
0.0
  0
LINE
  5
6B7C
330
1E
100
AcDbEntity
  8
18
100
AcDbLine
 10
82.66646632145503
 20
-3.0
 30
0.0
 11
110.4999999999999
 21
-3.0
 31
0.0
  0
LINE
  5
6B7D
330
1E
100
AcDbEntity
  8
18
100
AcDbLine
 10
42.00000000000001
 20
-3.0
 30
0.0
 11
78.66646632145503
 21
-3.0
 31
0.0
  0
LINE
  5
6B7E
330
1E
100
AcDbEntity
  8
18
100
AcDbLine
 10
125.5
 20
-3.0
 30
0.0
 11
158.0
 21
-3.0
 31
0.0
  0
LINE
  5
6B7F
330
1E
100
AcDbEntity
  8
18
100
AcDbLine
 10
110.4999999999999
 20
-3.5
 30
0.0
 11
125.5
 21
-3.5
 31
0.0
  0
LINE
  5
6B80
330
1E
100
AcDbEntity
  8
18
100
AcDbLine
 10
83.86990379777612
 20
-1.0
 30
0.0
 11
110.4999999999999
 21
-1.0
 31
0.0
  0
LINE
  5
6B81
330
1E
100
AcDbEntity
  8
18
100
AcDbLine
 10
83.53199924773557
 20
1.0
 30
0.0
 11
110.4999999999999
 21
1.0
 31
0.0
  0
LINE
  5
6B82
330
1E
100
AcDbEntity
  8
18
100
AcDbLine
 10
84.01770323792863
 20
3.0
 30
0.0
 11
110.4999999999999
 21
3.0
 31
0.0
  0
LINE
  5
6B83
330
1E
100
AcDbEntity
  8
18
100
AcDbLine
 10
42.00000000000001
 20
-1.0
 30
0.0
 11
79.86990379777613
 21
-1.0
 31
0.0
  0
LINE
  5
6B84
330
1E
100
AcDbEntity
  8
18
100
AcDbLine
 10
42.00000000000001
 20
1.0
 30
0.0
 11
79.5319992477354
 21
1.0
 31
0.0
  0
LINE
  5
6B85
330
1E
100
AcDbEntity
  8
18
100
AcDbLine
 10
42.00000000000001
 20
3.0
 30
0.0
 11
80.01770323792863
 21
3.0
 31
0.0
  0
LINE
  5
6B86
330
1E
100
AcDbEntity
  8
18
100
AcDbLine
 10
125.5
 20
3.0
 30
0.0
 11
158.0
 21
3.0
 31
0.0
  0
LINE
  5
6B87
330
1E
100
AcDbEntity
  8
18
100
AcDbLine
 10
125.5
 20
-1.0
 30
0.0
 11
158.0
 21
-1.0
 31
0.0
  0
LINE
  5
6B88
330
1E
100
AcDbEntity
  8
18
100
AcDbLine
 10
125.5
 20
1.0
 30
0.0
 11
158.0
 21
1.0
 31
0.0
  0
LINE
  5
6B89
330
1E
100
AcDbEntity
  8
18
100
AcDbLine
 10
110.4999999999999
 20
3.5
 30
0.0
 11
125.5
 21
3.5
 31
0.0
  0
LINE
  5
6B8A
330
1E
100
AcDbEntity
  8
18
100
AcDbLine
 10
158.0
 20
-3.0
 30
0.0
 11
158.0
 21
-1.0
 31
0.0
  0
LINE
  5
6B8B
330
1E
100
AcDbEntity
  8
18
100
AcDbLine
 10
158.0
 20
-2.5
 30
0.0
 11
163.0
 21
-2.5
 31
0.0
  0
LINE
  5
6B8C
330
1E
100
AcDbEntity
  8
18
100
AcDbLine
 10
158.0
 20
-1.5
 30
0.0
 11
163.0
 21
-1.5
 31
0.0
  0
LINE
  5
6B8D
330
1E
100
AcDbEntity
  8
18
100
AcDbLine
 10
163.0
 20
-2.5
 30
0.0
 11
163.0
 21
-1.5
 31
0.0
  0
LINE
  5
6B8E
330
1E
100
AcDbEntity
  8
18
100
AcDbLine
 10
158.0
 20
-0.5
 30
0.0
 11
163.0
 21
-0.5
 31
0.0
  0
LINE
  5
6B8F
330
1E
100
AcDbEntity
  8
18
100
AcDbLine
 10
158.0
 20
0.5
 30
0.0
 11
163.0
 21
0.5
 31
0.0
  0
LINE
  5
6B90
330
1E
100
AcDbEntity
  8
18
100
AcDbLine
 10
158.0
 20
1.5
 30
0.0
 11
163.0
 21
1.5
 31
0.0
  0
LINE
  5
6B91
330
1E
100
AcDbEntity
  8
18
100
AcDbLine
 10
158.0
 20
2.5
 30
0.0
 11
163.0
 21
2.5
 31
0.0
  0
LINE
  5
6B92
330
1E
100
AcDbEntity
  8
18
100
AcDbLine
 10
158.0
 20
-1.0
 30
0.0
 11
158.0
 21
1.0
 31
0.0
  0
LINE
  5
6B93
330
1E
100
AcDbEntity
  8
18
100
AcDbLine
 10
158.0
 20
1.0
 30
0.0
 11
158.0
 21
3.0
 31
0.0
  0
LINE
  5
6B94
330
1E
100
AcDbEntity
  8
18
100
AcDbLine
 10
163.0
 20
-0.5
 30
0.0
 11
163.0
 21
0.5
 31
0.0
  0
LINE
  5
6B95
330
1E
100
AcDbEntity
  8
18
100
AcDbLine
 10
163.0
 20
1.5
 30
0.0
 11
163.0
 21
2.5
 31
0.0
  0
ARC
  5
6BDC
330
1E
100
AcDbEntity
  8
10
  6
CONTINOUS
100
AcDbCircle
 10
225.814477559303
 20
-3.900000000000004
 30
0.0
 40
0.5
100
AcDbArc
 50
180.0
 51
270.0
  0
ARC
  5
6BDD
330
1E
100
AcDbEntity
  8
10
  6
CONTINOUS
100
AcDbCircle
 10
225.814477559303
 20
0.0999999999999943
 30
0.0
 40
0.5
100
AcDbArc
 50
90.0
 51
180.0
  0
LINE
  5
6BDF
330
1E
100
AcDbEntity
  8
10
  6
CONTINOUS
100
AcDbLine
 10
225.314477559303
 20
0.0999999999999943
 30
0.0
 11
225.314477559303
 21
-3.900000000000004
 31
0.0
  0
ARC
  5
6BE0
330
1E
100
AcDbEntity
  8
10
  6
CONTINOUS
100
AcDbCircle
 10
227.814477559303
 20
-5.0
 30
0.0
 40
0.5
100
AcDbArc
 50
180.0
 51
270.0
  0
ARC
  5
6BE1
330
1E
100
AcDbEntity
  8
10
  6
CONTINOUS
100
AcDbCircle
 10
227.814477559303
 20
1.199999999999988
 30
0.0
 40
0.5
100
AcDbArc
 50
90.0
 51
180.0
  0
LINE
  5
6BE2
330
1E
100
AcDbEntity
  8
10
  6
CONTINOUS
100
AcDbLine
 10
225.814477559303
 20
-4.400000000000003
 30
0.0
 11
227.314477559303
 21
-4.400000000000003
 31
0.0
  0
LINE
  5
6BE3
330
1E
100
AcDbEntity
  8
10
  6
CONTINOUS
100
AcDbLine
 10
225.814477559303
 20
0.5999999999999944
 30
0.0
 11
227.314477559303
 21
0.5999999999999944
 31
0.0
  0
LINE
  5
6BE4
330
1E
100
AcDbEntity
  8
10
  6
CONTINOUS
100
AcDbLine
 10
227.814477559303
 20
-5.5
 30
0.0
 11
229.8144775593029
 21
-5.5
 31
0.0
  0
LINE
  5
6BE5
330
1E
100
AcDbEntity
  8
10
  6
CONTINOUS
100
AcDbLine
 10
227.814477559303
 20
1.699999999999988
 30
0.0
 11
229.8144775593029
 21
1.699999999999988
 31
0.0
  0
LINE
  5
6BE6
330
1E
100
AcDbEntity
  8
10
  6
CONTINOUS
100
AcDbLine
 10
227.314477559303
 20
1.199999999999988
 30
0.0
 11
227.314477559303
 21
-5.0
 31
0.0
  0
MTEXT
  5
6C1E
330
1E
100
AcDbEntity
  8
30
  6
Continuous
100
AcDbMText
 10
225.472043609071
 20
226.7109861623653
 30
0.0
 40
5.0
 41
110.0
 46
0.0
 71
     1
 72
     5
  1
ZAS50-GF 3P FC\PZAS100-GF 3P FC\PZAS125-GF 3P FC
  7
STANDARD1
 73
     1
 44
1.0
1001
ACAD
1000
MTEXTBEGIN
1070
    73
1070
     1
1070
    44
1040
1.0
1070
    74
1070
     0
1000
MTEXTEND
  0
LINE
  5
6CFE
330
1E
100
AcDbEntity
  8
16
100
AcDbLine
 10
-0.0179035351712551
 20
137.7384784421552
 30
0.0
 11
-0.0179035351712551
 21
280.2384784421551
 31
0.0
  0
LINE
  5
6CFF
330
1E
100
AcDbEntity
  8
10
  6
CONTINOUS
100
AcDbLine
 10
-44.99999999999984
 20
174.1349134126129
 30
0.0
 11
-44.99999999999997
 21
235.1349134126127
 31
0.0
  0
LINE
  5
6D00
330
1E
100
AcDbEntity
  8
10
  6
CONTINOUS
100
AcDbLine
 10
45.0
 20
174.134913412613
 30
0.0
 11
45.0
 21
235.1349134126127
 31
0.0
  0
LINE
  5
6D01
330
1E
100
AcDbEntity
  8
10
  6
CONTINOUS
100
AcDbLine
 10
-44.99999999999975
 20
167.1349134126124
 30
0.0
 11
45.0
 21
167.1349134126126
 31
0.0
  0
LINE
  5
6D02
330
1E
100
AcDbEntity
  8
10
  6
CONTINOUS
100
AcDbLine
 10
-44.99999999999984
 20
174.1349134126124
 30
0.0
 11
45.0
 21
174.1349134126129
 31
0.0
  0
LINE
  5
6D03
330
1E
100
AcDbEntity
  8
10
  6
CONTINOUS
100
AcDbLine
 10
45.0
 20
167.1349134126126
 30
0.0
 11
45.0
 21
174.1349134126129
 31
0.0
  0
LINE
  5
6D04
330
1E
100
AcDbEntity
  8
10
  6
CONTINOUS
100
AcDbLine
 10
-11.03580707034253
 20
159.1349134126128
 30
0.0
 11
10.98209646482871
 21
159.1349134126128
 31
0.0
  0
LINE
  5
6D05
330
1E
100
AcDbEntity
  8
10
  6
CONTINOUS
100
AcDbLine
 10
10.98209646482871
 20
159.1349134126128
 30
0.0
 11
10.98209646482871
 21
163.1349134126127
 31
0.0
  0
LINE
  5
6D06
330
1E
100
AcDbEntity
  8
10
  6
CONTINOUS
100
AcDbLine
 10
-11.03580707034253
 20
159.1349134126128
 30
0.0
 11
-11.03580707034253
 21
163.1349134126127
 31
0.0
  0
LINE
  5
6D07
330
1E
100
AcDbEntity
  8
10
  6
CONTINOUS
100
AcDbLine
 10
-44.99999999999984
 20
167.1349134126124
 30
0.0
 11
-44.99999999999984
 21
174.1349134126124
 31
0.0
  0
LINE
  5
6D08
330
1E
100
AcDbEntity
  8
10
  6
CONTINOUS
100
AcDbLine
 10
-44.99999999999997
 20
235.1349134126127
 30
0.0
 11
45.0
 21
235.1349134126127
 31
0.0
  0
LINE
  5
6D09
330
1E
100
AcDbEntity
  8
24
  6
CONTINOUS
100
AcDbLine
 10
29.98209646482873
 20
198.9349134126126
 30
0.0
 11
29.98209646482873
 21
216.1349134126129
 31
0.0
  0
LINE
  5
6D0A
330
1E
100
AcDbEntity
  8
24
  6
CONTINOUS
100
AcDbLine
 10
19.48209646482874
 20
211.1349134126129
 30
0.0
 11
40.48209646482885
 21
211.1349134126129
 31
0.0
  0
LINE
  5
6D0B
330
1E
100
AcDbEntity
  8
24
  6
CONTINOUS
100
AcDbLine
 10
22.28209646482881
 20
209.1349134126128
 30
0.0
 11
37.68209646482878
 21
209.1349134126128
 31
0.0
  0
LINE
  5
6D0C
330
1E
100
AcDbEntity
  8
24
  6
CONTINOUS
100
AcDbLine
 10
24.98209646482873
 20
203.9349134126128
 30
0.0
 11
34.98209646482873
 21
203.9349134126128
 31
0.0
  0
LINE
  5
6D0D
330
1E
100
AcDbEntity
  8
24
  6
CONTINOUS
100
AcDbLine
 10
19.48209646482874
 20
213.1349134126129
 30
0.0
 11
40.48209646482885
 21
213.1349134126129
 31
0.0
  0
LINE
  5
6D0E
330
1E
100
AcDbEntity
  8
24
  6
CONTINOUS
100
AcDbLine
 10
37.68209646482878
 20
209.1349134126128
 30
0.0
 11
37.68209646482878
 21
211.1349134126129
 31
0.0
  0
ARC
  5
6D0F
330
1E
100
AcDbEntity
  8
24
  6
CONTINOUS
100
AcDbCircle
 10
34.98209646482877
 20
205.9349134126128
 30
0.0
 40
2.0
100
AcDbArc
 50
270.0
 51
0.0
  0
LINE
  5
6D10
330
1E
100
AcDbEntity
  8
24
  6
CONTINOUS
100
AcDbLine
 10
36.98209646482875
 20
205.9349134126128
 30
0.0
 11
36.98209646482875
 21
209.1349134126128
 31
0.0
  0
LINE
  5
6D11
330
1E
100
AcDbEntity
  8
24
  6
CONTINOUS
100
AcDbLine
 10
22.28209646482881
 20
209.1349134126128
 30
0.0
 11
22.28209646482881
 21
211.1349134126129
 31
0.0
  0
ARC
  5
6D12
330
1E
100
AcDbEntity
  8
24
  6
CONTINOUS
100
AcDbCircle
 10
24.98209646482877
 20
205.9349134126128
 30
0.0
 40
2.0
100
AcDbArc
 50
180.0
 51
270.0
  0
LINE
  5
6D13
330
1E
100
AcDbEntity
  8
24
  6
CONTINOUS
100
AcDbLine
 10
22.98209646482874
 20
205.9349134126128
 30
0.0
 11
22.98209646482874
 21
209.1349134126128
 31
0.0
  0
LINE
  5
6D14
330
1E
100
AcDbEntity
  8
24
  6
CONTINOUS
100
AcDbLine
 10
-10.51790353517123
 20
213.1349134126129
 30
0.0
 11
10.48209646482884
 21
213.1349134126129
 31
0.0
  0
LINE
  5
6D15
330
1E
100
AcDbEntity
  8
24
  6
CONTINOUS
100
AcDbLine
 10
-7.717903535171193
 20
209.1349134126128
 30
0.0
 11
7.682096464828785
 21
209.1349134126128
 31
0.0
  0
LINE
  5
6D16
330
1E
100
AcDbEntity
  8
24
  6
CONTINOUS
100
AcDbLine
 10
-10.51790353517123
 20
211.1349134126129
 30
0.0
 11
10.48209646482884
 21
211.1349134126129
 31
0.0
  0
ARC
  5
6D17
330
1E
100
AcDbEntity
  8
24
  6
CONTINOUS
100
AcDbCircle
 10
4.982096464828766
 20
205.9349134126128
 30
0.0
 40
2.0
100
AcDbArc
 50
270.0
 51
0.0
  0
LINE
  5
6D18
330
1E
100
AcDbEntity
  8
24
  6
CONTINOUS
100
AcDbLine
 10
-7.017903535171257
 20
205.9349134126128
 30
0.0
 11
-7.017903535171257
 21
209.1349134126128
 31
0.0
  0
LINE
  5
6D19
330
1E
100
AcDbEntity
  8
24
  6
CONTINOUS
100
AcDbLine
 10
-0.0179035351712591
 20
198.9349134126126
 30
0.0
 11
-0.0179035351712591
 21
216.1349134126129
 31
0.0
  0
LINE
  5
6D1A
330
1E
100
AcDbEntity
  8
24
  6
CONTINOUS
100
AcDbLine
 10
-5.017903535171257
 20
203.9349134126128
 30
0.0
 11
4.982096464828741
 21
203.9349134126128
 31
0.0
  0
ARC
  5
6D1B
330
1E
100
AcDbEntity
  8
24
  6
CONTINOUS
100
AcDbCircle
 10
-5.017903535171231
 20
205.9349134126128
 30
0.0
 40
2.0
100
AcDbArc
 50
180.0
 51
270.0
  0
LINE
  5
6D1C
330
1E
100
AcDbEntity
  8
24
  6
CONTINOUS
100
AcDbLine
 10
-7.717903535171193
 20
209.1349134126128
 30
0.0
 11
-7.717903535171193
 21
211.1349134126129
 31
0.0
  0
LINE
  5
6D1D
330
1E
100
AcDbEntity
  8
24
  6
CONTINOUS
100
AcDbLine
 10
6.982096464828741
 20
205.9349134126128
 30
0.0
 11
6.982096464828741
 21
209.1349134126128
 31
0.0
  0
LINE
  5
6D1E
330
1E
100
AcDbEntity
  8
24
  6
CONTINOUS
100
AcDbLine
 10
7.682096464828785
 20
209.1349134126128
 30
0.0
 11
7.682096464828785
 21
211.1349134126129
 31
0.0
  0
LINE
  5
6D1F
330
1E
100
AcDbEntity
  8
24
  6
CONTINOUS
100
AcDbLine
 10
-35.01790353517125
 20
203.9349134126128
 30
0.0
 11
-25.01790353517123
 21
203.9349134126128
 31
0.0
  0
LINE
  5
6D20
330
1E
100
AcDbEntity
  8
24
  6
CONTINOUS
100
AcDbLine
 10
-40.51790353517124
 20
211.1349134126129
 30
0.0
 11
-19.51790353517112
 21
211.1349134126129
 31
0.0
  0
LINE
  5
6D21
330
1E
100
AcDbEntity
  8
24
  6
CONTINOUS
100
AcDbLine
 10
-37.71790353517118
 20
209.1349134126128
 30
0.0
 11
-22.31790353517118
 21
209.1349134126128
 31
0.0
  0
LINE
  5
6D22
330
1E
100
AcDbEntity
  8
24
  6
CONTINOUS
100
AcDbLine
 10
-40.51790353517124
 20
213.1349134126129
 30
0.0
 11
-19.51790353517112
 21
213.1349134126129
 31
0.0
  0
LINE
  5
6D23
330
1E
100
AcDbEntity
  8
24
  6
CONTINOUS
100
AcDbLine
 10
-30.01790353517123
 20
198.9349134126126
 30
0.0
 11
-30.01790353517123
 21
216.1349134126129
 31
0.0
  0
LINE
  5
6D24
330
1E
100
AcDbEntity
  8
24
  6
CONTINOUS
100
AcDbLine
 10
-37.01790353517125
 20
205.9349134126128
 30
0.0
 11
-37.01790353517125
 21
209.1349134126128
 31
0.0
  0
ARC
  5
6D25
330
1E
100
AcDbEntity
  8
24
  6
CONTINOUS
100
AcDbCircle
 10
-35.01790353517121
 20
205.9349134126128
 30
0.0
 40
2.0
100
AcDbArc
 50
180.0
 51
270.0
  0
LINE
  5
6D26
330
1E
100
AcDbEntity
  8
24
  6
CONTINOUS
100
AcDbLine
 10
-37.71790353517118
 20
209.1349134126128
 30
0.0
 11
-37.71790353517118
 21
211.1349134126129
 31
0.0
  0
LINE
  5
6D27
330
1E
100
AcDbEntity
  8
24
  6
CONTINOUS
100
AcDbLine
 10
-23.01790353517123
 20
205.9349134126128
 30
0.0
 11
-23.01790353517123
 21
209.1349134126128
 31
0.0
  0
ARC
  5
6D28
330
1E
100
AcDbEntity
  8
24
  6
CONTINOUS
100
AcDbCircle
 10
-25.01790353517122
 20
205.9349134126128
 30
0.0
 40
2.0
100
AcDbArc
 50
270.0
 51
0.0
  0
LINE
  5
6D29
330
1E
100
AcDbEntity
  8
24
  6
CONTINOUS
100
AcDbLine
 10
-22.31790353517118
 20
209.1349134126128
 30
0.0
 11
-22.31790353517118
 21
211.1349134126129
 31
0.0
  0
LINE
  5
6D2A
330
1E
100
AcDbEntity
  8
10
  6
CONTINOUS
100
AcDbLine
 10
-41.99999999999984
 20
163.1698268252254
 30
0.0
 11
41.98209646482871
 21
163.1698268252254
 31
0.0
  0
LINE
  5
6D2B
330
1E
100
AcDbEntity
  8
10
  6
CONTINOUS
100
AcDbLine
 10
41.9820964648287
 20
163.1698268252254
 30
0.0
 11
41.9820964648287
 21
167.1349134126126
 31
0.0
  0
LINE
  5
6D2C
330
1E
100
AcDbEntity
  8
10
  6
CONTINOUS
100
AcDbLine
 10
-41.99999999999984
 20
163.1698268252254
 30
0.0
 11
-41.99999999999984
 21
167.1349134126124
 31
0.0
  0
DIMENSION
  5
6D2D
330
1E
100
AcDbEntity
  8
30
  6
Continuous
100
AcDbDimension
280
     0
  2
*D43
 10
0.0
 20
255.6073578546832
 30
0.0
 11
-15.00895176758561
 21
258.6073578546832
 31
0.0
 70
    32
 71
     5
 42
30.01790353517123
 73
     0
 74
     0
 75
     0
  3
STANDARD
100
AcDbAlignedDimension
 13
-30.01790353517123
 23
218.0
 33
0.0
 14
0.0
 24
255.6073578546832
 34
0.0
100
AcDbRotatedDimension
1001
ACAD
1000
DSTYLE
1002
{
1070
    79
1070
     3
1002
}
  0
DIMENSION
  5
6D2E
330
1E
100
AcDbEntity
  8
30
  6
Continuous
100
AcDbDimension
280
     0
  2
*D44
 10
0.0
 20
256.0
 30
0.0
 11
14.99104823241436
 21
259.0
 31
0.0
 70
    32
 71
     5
 42
29.98209646482873
 73
     0
 74
     0
 75
     0
  3
STANDARD
100
AcDbAlignedDimension
 13
29.98209646482873
 23
218.0
 33
0.0
 14
0.0
 24
255.6073578546832
 34
0.0
100
AcDbRotatedDimension
1001
ACAD
1000
DSTYLE
1002
{
1070
    79
1070
     3
1002
}
  0
DIMENSION
  5
6D2F
330
1E
100
AcDbEntity
  8
30
  6
Continuous
100
AcDbDimension
280
     0
  2
*D45
 10
53.99999999999999
 20
174.134913412613
 30
0.0
 11
50.99999999999997
 21
204.6349134126128
 31
0.0
 70
    32
 71
     5
 42
60.99999999999969
 73
     0
 74
     0
 75
     0
  3
STANDARD
100
AcDbAlignedDimension
 13
45.0
 23
235.1349134126127
 33
0.0
 14
45.0
 24
174.134913412613
 34
0.0
 50
90.0
100
AcDbRotatedDimension
1001
ACAD
1000
DSTYLE
1002
{
1070
    79
1070
     3
1002
}
  0
DIMENSION
  5
6D30
330
1E
100
AcDbEntity
  8
30
  6
Continuous
100
AcDbDimension
280
     0
  2
*D46
 10
61.0
 20
167.1349134126126
 30
0.0
 11
57.99999999999998
 21
201.1349134126127
 31
0.0
 70
    32
 71
     5
 42
68.00000000000007
 73
     0
 74
     0
 75
     0
  3
STANDARD
100
AcDbAlignedDimension
 13
45.0
 23
235.1349134126127
 33
0.0
 14
45.0
 24
167.1349134126126
 34
0.0
 50
90.0
100
AcDbRotatedDimension
1001
ACAD
1000
DSTYLE
1002
{
1070
    79
1070
     3
1002
}
  0
DIMENSION
  5
6D31
330
1E
100
AcDbEntity
  8
30
  6
Continuous
100
AcDbDimension
280
     0
  2
*D47
 10
69.0
 20
163.1698268252254
 30
0.0
 11
65.99999999999997
 21
199.152370118919
 31
0.0
 70
    32
 71
     5
 42
71.96508658738729
 73
     0
 74
     0
 75
     0
  3
STANDARD
100
AcDbAlignedDimension
 13
45.0
 23
235.1349134126127
 33
0.0
 14
41.98209646482871
 24
163.1698268252254
 34
0.0
 50
90.0
100
AcDbRotatedDimension
1001
ACAD
1000
DSTYLE
1002
{
1070
    79
1070
     3
1002
}
  0
DIMENSION
  5
6D32
330
1E
100
AcDbEntity
  8
30
  6
Continuous
100
AcDbDimension
280
     0
  2
*D48
 10
76.99999999999999
 20
159.1349134126128
 30
0.0
 11
73.99999999999997
 21
197.1349134126127
 31
0.0
 70
    32
 71
     5
 42
75.99999999999986
 73
     0
 74
     0
 75
     0
  3
STANDARD
100
AcDbAlignedDimension
 13
45.0
 23
235.1349134126127
 33
0.0
 14
10.98209646482871
 24
159.1349134126128
 34
0.0
 50
90.0
100
AcDbRotatedDimension
1001
ACAD
1000
DSTYLE
1002
{
1070
    79
1070
     3
1002
}
  0
LINE
  5
6D33
330
1E
100
AcDbEntity
  8
10
  6
CONTINOUS
100
AcDbLine
 10
-7.017903535171235
 20
159.1349134126128
 30
0.0
 11
-7.017903535171235
 21
147.1349134126128
 31
0.0
  0
LINE
  5
6D34
330
1E
100
AcDbEntity
  8
10
  6
CONTINOUS
100
AcDbLine
 10
-7.017903535171235
 20
147.1349134126128
 30
0.0
 11
6.982096464828763
 21
147.1349134126128
 31
0.0
  0
LINE
  5
6D35
330
1E
100
AcDbEntity
  8
10
  6
CONTINOUS
100
AcDbLine
 10
6.982096464828763
 20
147.1349134126128
 30
0.0
 11
6.982096464828763
 21
159.1349134126128
 31
0.0
  0
VIEWPORT
  5
9AC
330
1A
100
AcDbEntity
 67
     1
  8
0
  6
Continuous
100
AcDbViewport
 10
171.999535
 20
144.1384739999999
 30
0.0
 40
488.867686
 41
292.351491
 68
    -1
 69
     1
 12
171.999535
 22
144.1384739999999
 13
0.0
 23
0.0
 14
10.0
 24
10.0
 15
10.0
 25
10.0
 16
0.0
 26
0.0
 36
1.0
 17
0.0
 27
0.0
 37
0.0
 42
50.0
 43
0.0
 44
0.0
 45
292.351491
 50
0.0
 51
0.0
 72
   100
 90
    32800
  1

281
     0
 71
     1
 74
     0
110
0.0
120
0.0
130
0.0
111
1.0
121
0.0
131
0.0
112
0.0
122
1.0
132
0.0
 79
     0
146
0.0
170
     0
 61
     5
348
6C47
292
     1
282
     1
141
0.0
142
0.0
 63
   250
421
  3355443
  0
ENDSEC
  0
SECTION
  2
OBJECTS
  0
DICTIONARY
  5
C
330
0
100
AcDbDictionary
281
     1
  3
ACAD_CIP_PREVIOUS_PRODUCT_INFO
350
6C76
  3
ACAD_COLOR
350
6C5A
  3
ACAD_DETAILVIEWSTYLE
350
6C73
  3
ACAD_GROUP
350
D
  3
ACAD_LAYOUT
350
19
  3
ACAD_MATERIAL
350
6C28
  3
ACAD_MLEADERSTYLE
350
6C6F
  3
ACAD_MLINESTYLE
350
16
  3
ACAD_PLOTSETTINGS
350
18
  3
ACAD_PLOTSTYLENAME
350
E
  3
ACAD_SCALELIST
350
6C5D
  3
ACAD_SECTIONVIEWSTYLE
350
6C71
  3
ACAD_TABLESTYLE
350
6C5B
  3
ACAD_VISUALSTYLE
350
6C41
  3
ACADDIM
350
5C76
  3
ACDB_RECOMPOSE_DATA
350
6E76
  3
ACDBVARIABLEDICTIONARY
350
5697
  0
DICTIONARY
  5
6DB4
330
10
100
AcDbDictionary
280
     1
281
     1
  3
ADSK_XREC_LAYER_RECONCILED
360
6DB5
  0
DICTIONARY
  5
6DB6
330
2F
100
AcDbDictionary
280
     1
281
     1
  3
ADSK_XREC_LAYER_RECONCILED
360
6DB7
  0
DICTIONARY
  5
6DB8
330
31
100
AcDbDictionary
280
     1
281
     1
  3
ADSK_XREC_LAYER_RECONCILED
360
6DB9
  0
DICTIONARY
  5
6DBA
330
35
100
AcDbDictionary
280
     1
281
     1
  3
ADSK_XREC_LAYER_RECONCILED
360
6DBB
  0
DICTIONARY
  5
6DBC
330
38
100
AcDbDictionary
280
     1
281
     1
  3
ADSK_XREC_LAYER_RECONCILED
360
6DBD
  0
DICTIONARY
  5
6DBE
330
3C
100
AcDbDictionary
280
     1
281
     1
  3
ADSK_XREC_LAYER_RECONCILED
360
6DBF
  0
DICTIONARY
  5
6DC0
330
3D
100
AcDbDictionary
280
     1
281
     1
  3
ADSK_XREC_LAYER_RECONCILED
360
6DC1
  0
DICTIONARY
  5
6DC2
330
3A2
100
AcDbDictionary
280
     1
281
     1
  3
ADSK_XREC_LAYER_RECONCILED
360
6DC3
  0
DICTIONARY
  5
6DC4
330
3BBA
100
AcDbDictionary
280
     1
281
     1
  3
ADSK_XREC_LAYER_RECONCILED
360
6DC5
  0
DICTIONARY
  5
6DC6
330
5116
100
AcDbDictionary
280
     1
281
     1
  3
ADSK_XREC_LAYER_RECONCILED
360
6DC7
  0
DICTIONARY
  5
6DC8
330
5117
100
AcDbDictionary
280
     1
281
     1
  3
ADSK_XREC_LAYER_RECONCILED
360
6DC9
  0
DICTIONARY
  5
6DCA
330
5C47
100
AcDbDictionary
280
     1
281
     1
  3
ADSK_XREC_LAYER_RECONCILED
360
6DCB
  0
DICTIONARY
  5
178
330
1E
100
AcDbDictionary
280
     1
281
     1
  3
ACAD_LAYOUTSELFREF
360
6C0A
  0
DICTIONARY
  5
17A
330
1A
100
AcDbDictionary
280
     1
281
     1
  3
ACAD_LAYOUTSELFREF
360
6C09
  0
XRECORD
  5
6C76
102
{ACAD_REACTORS
330
C
102
}
330
C
100
AcDbXrecord
280
     1
300
ACDLT
300
2014
300
ACDLT_F_S
  0
DICTIONARY
  5
6C5A
102
{ACAD_REACTORS
330
C
102
}
330
C
100
AcDbDictionary
281
     1
  0
DICTIONARY
  5
6C73
102
{ACAD_REACTORS
330
C
102
}
330
C
100
AcDbDictionary
281
     1
  3
Imperial24
350
6C74
  0
DICTIONARY
  5
D
102
{ACAD_REACTORS
330
C
102
}
330
C
100
AcDbDictionary
281
     1
  0
DICTIONARY
  5
19
102
{ACAD_REACTORS
330
C
102
}
330
C
100
AcDbDictionary
281
     1
  3
Model
350
6C1B
  3
ﾚｲｱｳﾄ1
350
6C1C
  0
DICTIONARY
  5
6C28
102
{ACAD_REACTORS
330
C
102
}
330
C
100
AcDbDictionary
281
     1
  3
ByBlock
350
6C31
  3
ByLayer
350
6C29
  3
Global
350
6C39
  0
DICTIONARY
  5
6C6F
102
{ACAD_REACTORS
330
C
102
}
330
C
100
AcDbDictionary
281
     1
  3
Standard
350
6C70
  0
DICTIONARY
  5
16
102
{ACAD_REACTORS
330
C
102
}
330
C
100
AcDbDictionary
281
     1
  3
STANDARD
350
17
  0
DICTIONARY
  5
18
102
{ACAD_REACTORS
330
C
102
}
330
C
100
AcDbDictionary
281
     1
  0
ACDBDICTIONARYWDFLT
  5
E
102
{ACAD_REACTORS
330
C
102
}
330
C
100
AcDbDictionary
281
     1
  3
Normal
350
F
100
AcDbDictionaryWithDefault
340
F
  0
DICTIONARY
  5
6C5D
102
{ACAD_REACTORS
330
C
102
}
330
C
100
AcDbDictionary
281
     1
  3
A0
350
6C5E
  3
A1
350
6C5F
  3
A2
350
6C60
  3
A3
350
6C61
  3
A4
350
6C62
  3
A5
350
6C63
  3
A6
350
6C64
  3
A7
350
6C65
  3
A8
350
6C66
  3
A9
350
6C67
  3
B0
350
6C68
  3
B1
350
6C69
  3
B2
350
6C6A
  3
B3
350
6C6B
  3
B4
350
6C6C
  3
B5
350
6C6D
  3
B6
350
6C6E
  0
DICTIONARY
  5
6C71
102
{ACAD_REACTORS
330
C
102
}
330
C
100
AcDbDictionary
281
     1
  3
Imperial24
350
6C72
  0
DICTIONARY
  5
6C5B
102
{ACAD_REACTORS
330
C
102
}
330
C
100
AcDbDictionary
281
     1
  3
Standard
350
6C5C
  0
DICTIONARY
  5
6C41
102
{ACAD_REACTORS
330
C
102
}
330
C
100
AcDbDictionary
281
     1
  3
2dWireframe
350
6C47
  3
Basic
350
6C46
  3
Brighten
350
6C4D
  3
ColorChange
350
6C51
  3
Conceptual
350
6C4A
  3
Dim
350
6C4C
  3
EdgeColorOff
350
6C59
  3
Facepattern
350
6C50
  3
Flat
350
6C42
  3
FlatWithEdges
350
6C43
  3
Gouraud
350
6C44
  3
GouraudWithEdges
350
6C45
  3
Hidden
350
6C49
  3
JitterOff
350
6C57
  3
Linepattern
350
6C4F
  3
OverhangOff
350
6C58
  3
Realistic
350
6C4B
  3
Shaded
350
6C56
  3
Shaded with edges
350
6C55
  3
Shades of Gray
350
6C52
  3
Sketchy
350
6C53
  3
Thicken
350
6C4E
  3
Wireframe
350
6C48
  3
X-Ray
350
6C54
  0
XRECORD
  5
5C76
102
{ACAD_REACTORS
330
C
102
}
330
C
100
AcDbXrecord
280
     1
 90
   990106
  3

 60
     0
 61
     0
 62
     1
 63
     3
 64
     0
 65
     0
 66
     0
 67
     3
 68
     1
 69
     0
 70
     0
 71
     0
 72
     0
 40
0.0
170
     0
340
6068
  0
XRECORD
  5
6E76
102
{ACAD_REACTORS
330
C
102
}
330
C
100
AcDbXrecord
280
     1
 90
        1
330
6C5C
330
6C72
330
6C74
  0
DICTIONARY
  5
5697
102
{ACAD_REACTORS
330
C
102
}
330
C
100
AcDbDictionary
281
     1
  3
CANNOSCALE
350
6DD0
  3
CMLEADERSTYLE
350
6DCD
  3
CTABLESTYLE
350
6DCC
  3
CVIEWDETAILSTYLE
350
6DCE
  3
CVIEWSECTIONSTYLE
350
6DCF
  3
DIMASSOC
350
5698
  3
INDEXCTL
350
6DD2
  3
LAYEREVAL
350
6E6F
  3
LAYERNOTIFY
350
6E70
  3
LIGHTINGUNITS
350
6E6E
  3
MSLTSCALE
350
6E6D
  3
SORTENTS
350
6DD1
  0
XRECORD
  5
6DB5
102
{ACAD_REACTORS
330
6DB4
102
}
330
6DB4
100
AcDbXrecord
280
     1
290
     1
  0
XRECORD
  5
6DB7
102
{ACAD_REACTORS
330
6DB6
102
}
330
6DB6
100
AcDbXrecord
280
     1
290
     1
  0
XRECORD
  5
6DB9
102
{ACAD_REACTORS
330
6DB8
102
}
330
6DB8
100
AcDbXrecord
280
     1
290
     1
  0
XRECORD
  5
6DBB
102
{ACAD_REACTORS
330
6DBA
102
}
330
6DBA
100
AcDbXrecord
280
     1
290
     1
  0
XRECORD
  5
6DBD
102
{ACAD_REACTORS
330
6DBC
102
}
330
6DBC
100
AcDbXrecord
280
     1
290
     1
  0
XRECORD
  5
6DBF
102
{ACAD_REACTORS
330
6DBE
102
}
330
6DBE
100
AcDbXrecord
280
     1
290
     1
  0
XRECORD
  5
6DC1
102
{ACAD_REACTORS
330
6DC0
102
}
330
6DC0
100
AcDbXrecord
280
     1
290
     1
  0
XRECORD
  5
6DC3
102
{ACAD_REACTORS
330
6DC2
102
}
330
6DC2
100
AcDbXrecord
280
     1
290
     1
  0
XRECORD
  5
6DC5
102
{ACAD_REACTORS
330
6DC4
102
}
330
6DC4
100
AcDbXrecord
280
     1
290
     1
  0
XRECORD
  5
6DC7
102
{ACAD_REACTORS
330
6DC6
102
}
330
6DC6
100
AcDbXrecord
280
     1
290
     1
  0
XRECORD
  5
6DC9
102
{ACAD_REACTORS
330
6DC8
102
}
330
6DC8
100
AcDbXrecord
280
     1
290
     1
  0
XRECORD
  5
6DCB
102
{ACAD_REACTORS
330
6DCA
102
}
330
6DCA
100
AcDbXrecord
280
     1
290
     1
  0
XRECORD
  5
6C0A
102
{ACAD_REACTORS
330
178
102
}
330
178
100
AcDbXrecord
280
     1
340
1E
  0
XRECORD
  5
6C09
102
{ACAD_REACTORS
330
17A
102
}
330
17A
100
AcDbXrecord
280
     1
340
1A
  0
ACDBDETAILVIEWSTYLE
  5
6C74
102
{ACAD_XDICTIONARY
360
6E74
102
}
102
{ACAD_REACTORS
330
6C73
102
}
330
6C73
100
AcDbModelDocViewStyle
 70
     0
  3
Imperial24
290
     0
100
AcDbDetailViewStyle
 70
     0
 71
     0
 90
        3
 71
     1
340
11
 62
   256
 40
0.24
340
0
 62
   256
 40
0.24
300

 40
0.36
280
     3
 71
     2
340
15
 90
       25
 62
   256
 71
     3
340
11
 62
   256
 40
0.24
 90
        1
 40
0.75
 90
        1
300
%<\AcVar ViewType \f "%tc1">% %<\AcVar ViewDetailId>%\PSCALE %<\AcVar ViewScale \f "%sn">%
 71
     4
340
15
 90
       25
 62
   256
340
15
 90
       25
 62
   256
280
     0
  0
LAYOUT
  5
6C1B
102
{ACAD_REACTORS
330
19
102
}
330
19
100
AcDbPlotSettings
  1

  2
none_device
  4
Letter_(8.50_x_11.00_Inches)
  6

 40
6.349999904632567
 41
6.349999904632567
 42
6.350006103515625
 43
6.350006103515625
 44
215.8999938964844
 45
279.3999938964844
 46
0.0
 47
0.0
 48
0.0
 49
0.0
140
0.0
141
0.0
142
1.0
143
74.99511898693845
 70
 11952
 72
     0
 73
     1
 74
     0
  7
monochrome.ctb
 75
     0
147
0.0133342011254648
 76
     0
 77
     2
 78
   300
148
6238.184081351324
149
2422.985937093262
100
AcDbLayout
  1
Model
 70
     1
 71
     0
 10
0.0
 20
0.0
 11
12.0
 21
9.0
 12
0.0
 22
0.0
 32
0.0
 14
0.0
 24
0.0
 34
0.0
 15
0.0
 25
0.0
 35
0.0
146
0.0
 13
0.0
 23
0.0
 33
0.0
 16
1.0
 26
0.0
 36
0.0
 17
0.0
 27
1.0
 37
0.0
 76
     0
330
1E
331
6C20
1001
ACAD_PSEXT
1000
なし
1000
なし
1000
適切ではありません
1000
新しいプロッタ環境設定名を選択しない限り、レイアウトは印刷されません。
1070
     0
  0
LAYOUT
  5
6C1C
102
{ACAD_REACTORS
330
19
102
}
330
19
100
AcDbPlotSettings
  1

  2
Canon LBP3800 LIPSLX
  4

  6

 40
0.0
 41
0.0
 42
0.0
 43
0.0
 44
0.0
 45
0.0
 46
0.0
 47
0.0
 48
0.0
 49
0.0
140
0.0
141
0.0
142
1.0
143
1.0
 70
   688
 72
     0
 73
     0
 74
     5
  7
monochrome.ctb
 75
    16
147
1.0
 76
     0
 77
     2
 78
   300
148
0.0
149
0.0
100
AcDbLayout
  1
ﾚｲｱｳﾄ1
 70
     1
 71
     1
 10
-5.873749
 20
-5.87375
 11
204.099579
 21
291.1369009999999
 12
0.0
 22
0.0
 32
0.0
 14
4.273573
 24
5.205245999999998
 34
0.0
 15
194.610095
 25
283.0697009999996
 35
0.0
146
0.0
 13
0.0
 23
0.0
 33
0.0
 16
1.0
 26
0.0
 36
0.0
 17
0.0
 27
1.0
 37
0.0
 76
     0
330
1A
  0
MATERIAL
  5
6C31
102
{ACAD_XDICTIONARY
360
6C32
102
}
102
{ACAD_REACTORS
330
6C28
102
}
330
6C28
100
AcDbMaterial
  1
ByBlock
 72
     0
 43
0.0208333333333333
 43
0.0
 43
0.0
 43
0.0
 43
0.0
 43
0.0208333333333333
 43
0.0
 43
0.0
 43
0.0
 43
0.0
 43
1.0
 43
0.0
 43
0.0
 43
0.0
 43
0.0
 43
1.0
 77
     0
 47
0.0208333333333333
 47
0.0
 47
0.0
 47
0.0
 47
0.0
 47
0.0208333333333333
 47
0.0
 47
0.0
 47
0.0
 47
0.0
 47
1.0
 47
0.0
 47
0.0
 47
0.0
 47
0.0
 47
1.0
171
     0
 49
0.0208333333333333
 49
0.0
 49
0.0
 49
0.0
 49
0.0
 49
0.0208333333333333
 49
0.0
 49
0.0
 49
0.0
 49
0.0
 49
1.0
 49
0.0
 49
0.0
 49
0.0
 49
0.0
 49
1.0
175
     0
142
0.0208333333333333
142
0.0
142
0.0
142
0.0
142
0.0
142
0.0208333333333333
142
0.0
142
0.0
142
0.0
142
0.0
142
1.0
142
0.0
142
0.0
142
0.0
142
0.0
142
1.0
179
     0
144
0.0208333333333333
144
0.0
144
0.0
144
0.0
144
0.0
144
0.0208333333333333
144
0.0
144
0.0
144
0.0
144
0.0
144
1.0
144
0.0
144
0.0
144
0.0
144
0.0
144
1.0
147
0.0208333333333333
147
0.0
147
0.0
147
0.0
147
0.0
147
0.0208333333333333
147
0.0
147
0.0
147
0.0
147
0.0
147
1.0
147
0.0
147
0.0
147
0.0
147
0.0
147
1.0
  0
MATERIAL
  5
6C29
102
{ACAD_XDICTIONARY
360
6C2A
102
}
102
{ACAD_REACTORS
330
6C28
102
}
330
6C28
100
AcDbMaterial
  1
ByLayer
 72
     0
 43
0.0208333333333333
 43
0.0
 43
0.0
 43
0.0
 43
0.0
 43
0.0208333333333333
 43
0.0
 43
0.0
 43
0.0
 43
0.0
 43
1.0
 43
0.0
 43
0.0
 43
0.0
 43
0.0
 43
1.0
 77
     0
 47
0.0208333333333333
 47
0.0
 47
0.0
 47
0.0
 47
0.0
 47
0.0208333333333333
 47
0.0
 47
0.0
 47
0.0
 47
0.0
 47
1.0
 47
0.0
 47
0.0
 47
0.0
 47
0.0
 47
1.0
171
     0
 49
0.0208333333333333
 49
0.0
 49
0.0
 49
0.0
 49
0.0
 49
0.0208333333333333
 49
0.0
 49
0.0
 49
0.0
 49
0.0
 49
1.0
 49
0.0
 49
0.0
 49
0.0
 49
0.0
 49
1.0
175
     0
142
0.0208333333333333
142
0.0
142
0.0
142
0.0
142
0.0
142
0.0208333333333333
142
0.0
142
0.0
142
0.0
142
0.0
142
1.0
142
0.0
142
0.0
142
0.0
142
0.0
142
1.0
179
     0
144
0.0208333333333333
144
0.0
144
0.0
144
0.0
144
0.0
144
0.0208333333333333
144
0.0
144
0.0
144
0.0
144
0.0
144
1.0
144
0.0
144
0.0
144
0.0
144
0.0
144
1.0
147
0.0208333333333333
147
0.0
147
0.0
147
0.0
147
0.0
147
0.0208333333333333
147
0.0
147
0.0
147
0.0
147
0.0
147
1.0
147
0.0
147
0.0
147
0.0
147
0.0
147
1.0
  0
MATERIAL
  5
6C39
102
{ACAD_XDICTIONARY
360
6C3A
102
}
102
{ACAD_REACTORS
330
6C28
102
}
330
6C28
100
AcDbMaterial
  1
Global
 72
     0
 43
0.0208333333333333
 43
0.0
 43
0.0
 43
0.0
 43
0.0
 43
0.0208333333333333
 43
0.0
 43
0.0
 43
0.0
 43
0.0
 43
1.0
 43
0.0
 43
0.0
 43
0.0
 43
0.0
 43
1.0
 77
     0
 47
0.0208333333333333
 47
0.0
 47
0.0
 47
0.0
 47
0.0
 47
0.0208333333333333
 47
0.0
 47
0.0
 47
0.0
 47
0.0
 47
1.0
 47
0.0
 47
0.0
 47
0.0
 47
0.0
 47
1.0
171
     0
 49
0.0208333333333333
 49
0.0
 49
0.0
 49
0.0
 49
0.0
 49
0.0208333333333333
 49
0.0
 49
0.0
 49
0.0
 49
0.0
 49
1.0
 49
0.0
 49
0.0
 49
0.0
 49
0.0
 49
1.0
175
     0
142
0.0208333333333333
142
0.0
142
0.0
142
0.0
142
0.0
142
0.0208333333333333
142
0.0
142
0.0
142
0.0
142
0.0
142
1.0
142
0.0
142
0.0
142
0.0
142
0.0
142
1.0
179
     0
144
0.0208333333333333
144
0.0
144
0.0
144
0.0
144
0.0
144
0.0208333333333333
144
0.0
144
0.0
144
0.0
144
0.0
144
1.0
144
0.0
144
0.0
144
0.0
144
0.0
144
1.0
147
0.0208333333333333
147
0.0
147
0.0
147
0.0
147
0.0
147
0.0208333333333333
147
0.0
147
0.0
147
0.0
147
0.0
147
1.0
147
0.0
147
0.0
147
0.0
147
0.0
147
1.0
  0
MLEADERSTYLE
  5
6C70
102
{ACAD_REACTORS
330
6C6F
102
}
330
6C6F
100
AcDbMLeaderStyle
179
     2
170
     2
171
     1
172
     0
 90
        2
 40
0.0
 41
0.0
173
     1
 91
-1056964608
340
13
 92
       -2
290
     1
 42
0.09
291
     1
 43
0.36
  3
Standard
 44
0.18
300

342
11
174
     1
178
     6
175
     1
176
     0
 93
-1056964608
 45
0.18
292
     0
297
     0
 46
0.18
 94
-1056964608
 47
1.0
 49
1.0
140
1.0
293
     1
141
0.0
294
     1
177
     0
142
1.0
295
     0
296
     0
143
0.125
271
     0
272
     9
273
     9
298
     0
1001
ACAD_MLEADERVER
1070
     2
  0
MLINESTYLE
  5
17
102
{ACAD_REACTORS
330
16
102
}
330
16
100
AcDbMlineStyle
  2
STANDARD
 70
     0
  3

 62
   256
 51
90.0
 52
90.0
 71
     2
 49
0.5
 62
   256
  6
BYLAYER
 49
-0.5
 62
   256
  6
BYLAYER
  0
ACDBPLACEHOLDER
  5
F
102
{ACAD_REACTORS
330
E
102
}
330
E
  0
SCALE
  5
6C5E
102
{ACAD_REACTORS
330
6C5D
102
}
330
6C5D
100
AcDbScale
 70
     0
300
1:1
140
1.0
141
1.0
290
     1
  0
SCALE
  5
6C5F
102
{ACAD_REACTORS
330
6C5D
102
}
330
6C5D
100
AcDbScale
 70
     0
300
1/128" = 1'-0"
140
0.0078125
141
12.0
290
     0
  0
SCALE
  5
6C60
102
{ACAD_REACTORS
330
6C5D
102
}
330
6C5D
100
AcDbScale
 70
     0
300
1/64" = 1'-0"
140
0.015625
141
12.0
290
     0
  0
SCALE
  5
6C61
102
{ACAD_REACTORS
330
6C5D
102
}
330
6C5D
100
AcDbScale
 70
     0
300
1/32" = 1'-0"
140
0.03125
141
12.0
290
     0
  0
SCALE
  5
6C62
102
{ACAD_REACTORS
330
6C5D
102
}
330
6C5D
100
AcDbScale
 70
     0
300
1/16" = 1'-0"
140
0.0625
141
12.0
290
     0
  0
SCALE
  5
6C63
102
{ACAD_REACTORS
330
6C5D
102
}
330
6C5D
100
AcDbScale
 70
     0
300
3/32" = 1'-0"
140
0.09375
141
12.0
290
     0
  0
SCALE
  5
6C64
102
{ACAD_REACTORS
330
6C5D
102
}
330
6C5D
100
AcDbScale
 70
     0
300
1/8" = 1'-0"
140
0.125
141
12.0
290
     0
  0
SCALE
  5
6C65
102
{ACAD_REACTORS
330
6C5D
102
}
330
6C5D
100
AcDbScale
 70
     0
300
3/16" = 1'-0"
140
0.1875
141
12.0
290
     0
  0
SCALE
  5
6C66
102
{ACAD_REACTORS
330
6C5D
102
}
330
6C5D
100
AcDbScale
 70
     0
300
1/4" = 1'-0"
140
0.25
141
12.0
290
     0
  0
SCALE
  5
6C67
102
{ACAD_REACTORS
330
6C5D
102
}
330
6C5D
100
AcDbScale
 70
     0
300
3/8" = 1'-0"
140
0.375
141
12.0
290
     0
  0
SCALE
  5
6C68
102
{ACAD_REACTORS
330
6C5D
102
}
330
6C5D
100
AcDbScale
 70
     0
300
1/2" = 1'-0"
140
0.5
141
12.0
290
     0
  0
SCALE
  5
6C69
102
{ACAD_REACTORS
330
6C5D
102
}
330
6C5D
100
AcDbScale
 70
     0
300
3/4" = 1'-0"
140
0.75
141
12.0
290
     0
  0
SCALE
  5
6C6A
102
{ACAD_REACTORS
330
6C5D
102
}
330
6C5D
100
AcDbScale
 70
     0
300
1" = 1'-0"
140
1.0
141
12.0
290
     0
  0
SCALE
  5
6C6B
102
{ACAD_REACTORS
330
6C5D
102
}
330
6C5D
100
AcDbScale
 70
     0
300
1-1/2" = 1'-0"
140
1.5
141
12.0
290
     0
  0
SCALE
  5
6C6C
102
{ACAD_REACTORS
330
6C5D
102
}
330
6C5D
100
AcDbScale
 70
     0
300
3" = 1'-0"
140
3.0
141
12.0
290
     0
  0
SCALE
  5
6C6D
102
{ACAD_REACTORS
330
6C5D
102
}
330
6C5D
100
AcDbScale
 70
     0
300
6" = 1'-0"
140
6.0
141
12.0
290
     0
  0
SCALE
  5
6C6E
102
{ACAD_REACTORS
330
6C5D
102
}
330
6C5D
100
AcDbScale
 70
     0
300
1'-0" = 1'-0"
140
12.0
141
12.0
290
     0
  0
ACDBSECTIONVIEWSTYLE
  5
6C72
102
{ACAD_XDICTIONARY
360
6E72
102
}
102
{ACAD_REACTORS
330
6C71
102
}
330
6C71
100
AcDbModelDocViewStyle
 70
     0
  3
Imperial24
290
     0
100
AcDbSectionViewStyle
 70
     0
 71
     0
 90
       78
 71
     1
340
11
 62
   256
 40
0.24
340
0
340
0
 62
   256
 40
0.24
300
I, O, Q, S, X, Z
 40
0.48
 90
        3
 40
0.18
 90
        1
 71
     2
340
15
 90
       25
 62
   256
340
15
 90
       50
 62
   256
 40
0.24
 40
0.0
 40
0.24
 71
     3
340
11
 62
   256
 40
0.24
 90
        1
 40
0.75
 90
        1
300
%<\AcVar ViewType \f "%tc1">% %<\AcVar ViewSectionStartId>%-%<\AcVar ViewSectionEndId>%\PSCALE %<\AcVar ViewScale \f "%sn">%
 71
     4
 62
   256
 62
   257
300
ANSI31
 40
1.0
 90
        0
290
     0
290
     0
 90
        6
 40
0.0
 40
1.570796326794896
 40
0.2617993877991494
 40
1.308996938995747
 40
-0.2617993877991494
 40
1.832595714594045
  0
TABLESTYLE
  5
6C5C
102
{ACAD_XDICTIONARY
360
6E20
102
}
102
{ACAD_REACTORS
330
6C5B
102
}
330
6C5B
100
AcDbTableStyle
280
     0
  3
Standard
 70
     0
 71
     0
 40
0.06
 41
0.06
280
     0
281
     0
  7
STANDARD
140
0.18
170
     2
 62
     0
 63
     7
283
     0
 90
      512
 91
        0
  1

274
    -2
284
     1
 64
     0
275
    -2
285
     1
 65
     0
276
    -2
286
     1
 66
     0
277
    -2
287
     1
 67
     0
278
    -2
288
     1
 68
     0
279
    -2
289
     1
 69
     0
  7
STANDARD
140
0.25
170
     5
 62
     0
 63
     7
283
     0
 90
      512
 91
        0
  1

274
    -2
284
     1
 64
     0
275
    -2
285
     1
 65
     0
276
    -2
286
     1
 66
     0
277
    -2
287
     1
 67
     0
278
    -2
288
     1
 68
     0
279
    -2
289
     1
 69
     0
  7
STANDARD
140
0.18
170
     5
 62
     0
 63
     7
283
     0
 90
      512
 91
        0
  1

274
    -2
284
     1
 64
     0
275
    -2
285
     1
 65
     0
276
    -2
286
     1
 66
     0
277
    -2
287
     1
 67
     0
278
    -2
288
     1
 68
     0
279
    -2
289
     1
 69
     0
  0
VISUALSTYLE
  5
6C47
102
{ACAD_REACTORS
330
6C41
102
}
330
6C41
100
AcDbVisualStyle
  2

 70
     4
177
     3
291
     0
 70
    58
 90
        0
176
     1
 90
        2
176
     1
 90
        0
176
     1
 90
        0
176
     1
 40
0.6
176
     1
 40
30.0
176
     1
 62
     7
176
     1
 90
        1
176
     1
 90
        4
176
     1
 62
     7
176
     1
 62
   257
176
     1
 90
        1
176
     1
 90
        1
176
     1
 40
1.0
176
     1
 90
        0
176
     1
 62
   257
176
     1
 40
1.0
176
     1
 90
        1
176
     1
 90
        6
176
     1
 90
        2
176
     1
 62
     7
176
     1
 90
        5
176
     1
 90
        0
176
     1
 90
        0
176
     1
290
     0
176
     1
 90
        1
176
     1
 40
0.0
176
     1
 90
        0
176
     1
290
     1
176
     1
290
     1
176
     1
290
     0
176
     1
290
     0
176
     1
290
     0
176
     1
290
     0
176
     1
290
     0
176
     1
290
     0
176
     1
290
     0
176
     1
 90
       50
176
     1
 40
0.0
176
     1
 40
1.0
176
     1
 90
        0
176
     1
 62
    18
420
        0
176
     1
 90
       50
176
     1
 90
        3
176
     1
 62
     5
420
      255
176
     1
290
     0
176
     1
 90
       50
176
     1
 90
       50
176
     1
 90
       50
176
     1
290
     0
176
     1
 90
       50
176
     1
 62
   256
176
     0
 40
1.0
176
     0
 90
        2
176
     1
  1
strokes_ogs.tif
176
     1
290
     0
176
     1
 40
1.0
176
     1
 40
1.0
176
     1
1001
ACAD
1000
AcDbSavedByObjectVersion
1070
     0
  0
VISUALSTYLE
  5
6C46
102
{ACAD_REACTORS
330
6C41
102
}
330
6C41
100
AcDbVisualStyle
  2

 70
     7
177
     3
291
     1
 70
    58
 90
        1
176
     1
 90
        0
176
     1
 90
        1
176
     1
 90
        0
176
     1
 40
0.6
176
     1
 40
30.0
176
     1
 62
     7
176
     1
 90
        0
176
     1
 90
        4
176
     1
 62
     7
176
     1
 62
   257
176
     1
 90
        1
176
     1
 90
        1
176
     1
 40
1.0
176
     1
 90
        8
176
     1
 62
     7
176
     1
 40
1.0
176
     1
 90
        1
176
     1
 90
        6
176
     1
 90
        2
176
     1
 62
     7
176
     1
 90
        5
176
     1
 90
        0
176
     1
 90
        0
176
     1
290
     0
176
     1
 90
        1
176
     1
 40
0.0
176
     1
 90
        0
176
     1
290
     0
176
     1
290
     1
176
     1
290
     1
176
     1
290
     0
176
     1
290
     0
176
     1
290
     0
176
     1
290
     0
176
     1
290
     0
176
     1
290
     0
176
     1
 90
       50
176
     1
 40
0.0
176
     1
 40
1.0
176
     1
 90
        0
176
     1
 62
    18
420
        0
176
     1
 90
       50
176
     1
 90
        3
176
     1
 62
     5
420
      255
176
     1
290
     0
176
     1
 90
       50
176
     1
 90
       50
176
     1
 90
       50
176
     1
290
     0
176
     1
 90
       50
176
     1
 62
   256
176
     0
 40
1.0
176
     0
 90
        2
176
     1
  1
strokes_ogs.tif
176
     1
290
     0
176
     1
 40
1.0
176
     1
 40
1.0
176
     1
1001
ACAD
1000
AcDbSavedByObjectVersion
1070
     0
  0
VISUALSTYLE
  5
6C4D
102
{ACAD_REACTORS
330
6C41
102
}
330
6C41
100
AcDbVisualStyle
  2

 70
    12
177
     3
291
     1
 70
    58
 90
        2
176
     1
 90
        2
176
     1
 90
        0
176
     1
 90
        0
176
     1
 40
0.6
176
     1
 40
30.0
176
     1
 62
     7
176
     1
 90
        1
176
     1
 90
        4
176
     1
 62
     7
176
     1
 62
   257
176
     1
 90
        1
176
     1
 90
        1
176
     1
 40
1.0
176
     1
 90
        8
176
     1
 62
     7
176
     1
 40
1.0
176
     1
 90
        1
176
     1
 90
        6
176
     1
 90
        2
176
     1
 62
     7
176
     1
 90
        5
176
     1
 90
        0
176
     1
 90
        0
176
     1
290
     0
176
     1
 90
        1
176
     1
 40
50.0
176
     1
 90
        0
176
     1
290
     0
176
     1
290
     1
176
     1
290
     1
176
     1
290
     0
176
     1
290
     0
176
     1
290
     0
176
     1
290
     0
176
     1
290
     0
176
     1
290
     0
176
     1
 90
       50
176
     1
 40
0.0
176
     1
 40
1.0
176
     1
 90
        0
176
     1
 62
    18
420
        0
176
     1
 90
       50
176
     1
 90
        3
176
     1
 62
     5
420
      255
176
     1
290
     0
176
     1
 90
       50
176
     1
 90
       50
176
     1
 90
       50
176
     1
290
     0
176
     1
 90
       50
176
     1
 62
   256
176
     0
 40
1.0
176
     0
 90
        2
176
     1
  1
strokes_ogs.tif
176
     1
290
     0
176
     1
 40
1.0
176
     1
 40
1.0
176
     1
1001
ACAD
1000
AcDbSavedByObjectVersion
1070
     0
  0
VISUALSTYLE
  5
6C51
102
{ACAD_REACTORS
330
6C41
102
}
330
6C41
100
AcDbVisualStyle
  2

 70
    16
177
     3
291
     1
 70
    58
 90
        2
176
     1
 90
        2
176
     1
 90
        3
176
     1
 90
        0
176
     1
 40
0.6
176
     1
 40
30.0
176
     1
 62
     8
176
     1
 90
        1
176
     1
 90
        4
176
     1
 62
     7
176
     1
 62
   257
176
     1
 90
        1
176
     1
 90
        1
176
     1
 40
1.0
176
     1
 90
        8
176
     1
 62
     8
176
     1
 40
1.0
176
     1
 90
        1
176
     1
 90
        6
176
     1
 90
        2
176
     1
 62
     7
176
     1
 90
        5
176
     1
 90
        0
176
     1
 90
        0
176
     1
290
     0
176
     1
 90
        1
176
     1
 40
0.0
176
     1
 90
        0
176
     1
290
     0
176
     1
290
     1
176
     1
290
     1
176
     1
290
     0
176
     1
290
     0
176
     1
290
     0
176
     1
290
     0
176
     1
290
     0
176
     1
290
     0
176
     1
 90
       50
176
     1
 40
0.0
176
     1
 40
1.0
176
     1
 90
        0
176
     1
 62
    18
420
        0
176
     1
 90
       50
176
     1
 90
        3
176
     1
 62
     5
420
      255
176
     1
290
     0
176
     1
 90
       50
176
     1
 90
       50
176
     1
 90
       50
176
     1
290
     0
176
     1
 90
       50
176
     1
 62
   256
176
     0
 40
1.0
176
     0
 90
        2
176
     1
  1
strokes_ogs.tif
176
     1
290
     0
176
     1
 40
1.0
176
     1
 40
1.0
176
     1
1001
ACAD
1000
AcDbSavedByObjectVersion
1070
     0
  0
VISUALSTYLE
  5
6C4A
102
{ACAD_REACTORS
330
6C41
102
}
330
6C41
100
AcDbVisualStyle
  2

 70
     9
177
     3
291
     0
 70
    58
 90
        3
176
     1
 90
        2
176
     1
 90
        0
176
     1
 90
        0
176
     1
 40
0.6
176
     1
 40
30.0
176
     1
 62
     7
176
     1
 90
        2
176
     1
 90
        2
176
     1
 62
     7
176
     1
 62
   257
176
     1
 90
        1
176
     1
 90
        1
176
     1
 40
179.0
176
     1
 90
        8
176
     1
 62
     7
176
     1
 40
1.0
176
     1
 90
        1
176
     1
 90
        6
176
     1
 90
        2
176
     1
 62
     7
176
     1
 90
        3
176
     1
 90
        0
176
     1
 90
        0
176
     1
290
     0
176
     1
 90
        1
176
     1
 40
0.0
176
     1
 90
        0
176
     1
290
     0
176
     1
290
     1
176
     1
290
     1
176
     1
290
     0
176
     1
290
     0
176
     1
290
     0
176
     1
290
     0
176
     1
290
     0
176
     1
290
     0
176
     1
 90
       50
176
     1
 40
0.0
176
     1
 40
1.0
176
     1
 90
        0
176
     1
 62
    18
420
        0
176
     1
 90
       50
176
     1
 90
        3
176
     1
 62
     5
420
      255
176
     1
290
     0
176
     1
 90
       50
176
     1
 90
       50
176
     1
 90
       50
176
     1
290
     0
176
     1
 90
       50
176
     1
 62
   256
176
     0
 40
1.0
176
     0
 90
        2
176
     1
  1
strokes_ogs.tif
176
     1
290
     0
176
     1
 40
1.0
176
     1
 40
1.0
176
     1
1001
ACAD
1000
AcDbSavedByObjectVersion
1070
     0
  0
VISUALSTYLE
  5
6C4C
102
{ACAD_REACTORS
330
6C41
102
}
330
6C41
100
AcDbVisualStyle
  2

 70
    11
177
     3
291
     1
 70
    58
 90
        2
176
     1
 90
        2
176
     1
 90
        0
176
     1
 90
        0
176
     1
 40
0.6
176
     1
 40
30.0
176
     1
 62
     7
176
     1
 90
        1
176
     1
 90
        4
176
     1
 62
     7
176
     1
 62
   257
176
     1
 90
        1
176
     1
 90
        1
176
     1
 40
1.0
176
     1
 90
        8
176
     1
 62
     7
176
     1
 40
1.0
176
     1
 90
        1
176
     1
 90
        6
176
     1
 90
        2
176
     1
 62
     7
176
     1
 90
        5
176
     1
 90
        0
176
     1
 90
        0
176
     1
290
     0
176
     1
 90
        1
176
     1
 40
-50.0
176
     1
 90
        0
176
     1
290
     0
176
     1
290
     1
176
     1
290
     1
176
     1
290
     0
176
     1
290
     0
176
     1
290
     0
176
     1
290
     0
176
     1
290
     0
176
     1
290
     0
176
     1
 90
       50
176
     1
 40
0.0
176
     1
 40
1.0
176
     1
 90
        0
176
     1
 62
    18
420
        0
176
     1
 90
       50
176
     1
 90
        3
176
     1
 62
     5
420
      255
176
     1
290
     0
176
     1
 90
       50
176
     1
 90
       50
176
     1
 90
       50
176
     1
290
     0
176
     1
 90
       50
176
     1
 62
   256
176
     0
 40
1.0
176
     0
 90
        2
176
     1
  1
strokes_ogs.tif
176
     1
290
     0
176
     1
 40
1.0
176
     1
 40
1.0
176
     1
1001
ACAD
1000
AcDbSavedByObjectVersion
1070
     0
  0
VISUALSTYLE
  5
6C59
102
{ACAD_REACTORS
330
6C41
102
}
330
6C41
100
AcDbVisualStyle
  2

 70
    22
177
     3
291
     1
 70
    58
 90
        2
176
     0
 90
        2
176
     0
 90
        0
176
     0
 90
        0
176
     0
 40
0.6
176
     0
 40
30.0
176
     0
 62
     7
176
     0
 90
        1
176
     0
 90
        4
176
     0
 62
     7
176
     0
 62
   257
176
     0
 90
        1
176
     0
 90
        1
176
     0
 40
1.0
176
     0
 90
        8
176
     2
 62
     7
176
     0
 40
1.0
176
     0
 90
        1
176
     0
 90
        6
176
     0
 90
        2
176
     0
 62
     7
176
     0
 90
        5
176
     0
 90
        0
176
     0
 90
        0
176
     0
290
     0
176
     0
 90
        1
176
     0
 40
0.0
176
     0
 90
        0
176
     0
290
     0
176
     1
290
     1
176
     1
290
     1
176
     1
290
     0
176
     1
290
     0
176
     1
290
     0
176
     1
290
     0
176
     1
290
     0
176
     1
290
     0
176
     1
 90
       50
176
     0
 40
0.0
176
     0
 40
1.0
176
     0
 90
        0
176
     0
 62
    18
420
        0
176
     0
 90
       50
176
     0
 90
        3
176
     0
 62
     5
420
      255
176
     0
290
     0
176
     1
 90
       50
176
     0
 90
       50
176
     0
 90
       50
176
     0
290
     0
176
     1
 90
       50
176
     0
 62
   256
176
     0
 40
1.0
176
     0
 90
        2
176
     0
  1
strokes_ogs.tif
176
     0
290
     0
176
     1
 40
1.0
176
     0
 40
1.0
176
     0
1001
ACAD
1000
AcDbSavedByObjectVersion
1070
     0
  0
VISUALSTYLE
  5
6C50
102
{ACAD_REACTORS
330
6C41
102
}
330
6C41
100
AcDbVisualStyle
  2

 70
    15
177
     3
291
     1
 70
    58
 90
        2
176
     1
 90
        2
176
     1
 90
        0
176
     1
 90
        0
176
     1
 40
0.6
176
     1
 40
30.0
176
     1
 62
     7
176
     1
 90
        1
176
     1
 90
        4
176
     1
 62
     7
176
     1
 62
   257
176
     1
 90
        1
176
     1
 90
        1
176
     1
 40
1.0
176
     1
 90
        8
176
     1
 62
     7
176
     1
 40
1.0
176
     1
 90
        1
176
     1
 90
        6
176
     1
 90
        2
176
     1
 62
     7
176
     1
 90
        5
176
     1
 90
        0
176
     1
 90
        0
176
     1
290
     0
176
     1
 90
        1
176
     1
 40
0.0
176
     1
 90
        0
176
     1
290
     0
176
     1
290
     1
176
     1
290
     1
176
     1
290
     0
176
     1
290
     0
176
     1
290
     0
176
     1
290
     0
176
     1
290
     0
176
     1
290
     0
176
     1
 90
       50
176
     1
 40
0.0
176
     1
 40
1.0
176
     1
 90
        0
176
     1
 62
    18
420
        0
176
     1
 90
       50
176
     1
 90
        3
176
     1
 62
     5
420
      255
176
     1
290
     0
176
     1
 90
       50
176
     1
 90
       50
176
     1
 90
       50
176
     1
290
     0
176
     1
 90
       50
176
     1
 62
   256
176
     0
 40
1.0
176
     0
 90
        2
176
     1
  1
strokes_ogs.tif
176
     1
290
     0
176
     1
 40
1.0
176
     1
 40
1.0
176
     1
1001
ACAD
1000
AcDbSavedByObjectVersion
1070
     0
  0
VISUALSTYLE
  5
6C42
102
{ACAD_REACTORS
330
6C41
102
}
330
6C41
100
AcDbVisualStyle
  2

 70
     0
177
     3
291
     1
 70
    58
 90
        2
176
     1
 90
        1
176
     1
 90
        1
176
     1
 90
        2
176
     1
 40
0.6
176
     1
 40
30.0
176
     1
 62
     7
176
     1
 90
        0
176
     1
 90
        0
176
     1
 62
     7
176
     1
 62
   257
176
     1
 90
        1
176
     1
 90
        1
176
     1
 40
1.0
176
     1
 90
        8
176
     1
 62
     7
176
     1
 40
1.0
176
     1
 90
        1
176
     1
 90
        6
176
     1
 90
        2
176
     1
 62
     7
176
     1
 90
        5
176
     1
 90
        0
176
     1
 90
        0
176
     1
290
     0
176
     1
 90
       13
176
     1
 40
0.0
176
     1
 90
        0
176
     1
290
     0
176
     1
290
     1
176
     1
290
     1
176
     1
290
     0
176
     1
290
     0
176
     1
290
     0
176
     1
290
     0
176
     1
290
     0
176
     1
290
     0
176
     1
 90
       50
176
     1
 40
0.0
176
     1
 40
1.0
176
     1
 90
        0
176
     1
 62
    18
420
        0
176
     1
 90
       50
176
     1
 90
        3
176
     1
 62
     5
420
      255
176
     1
290
     0
176
     1
 90
       50
176
     1
 90
       50
176
     1
 90
       50
176
     1
290
     0
176
     1
 90
       50
176
     1
 62
   256
176
     0
 40
1.0
176
     0
 90
        2
176
     1
  1
strokes_ogs.tif
176
     1
290
     0
176
     1
 40
1.0
176
     1
 40
1.0
176
     1
1001
ACAD
1000
AcDbSavedByObjectVersion
1070
     0
  0
VISUALSTYLE
  5
6C43
102
{ACAD_REACTORS
330
6C41
102
}
330
6C41
100
AcDbVisualStyle
  2

 70
     1
177
     3
291
     1
 70
    58
 90
        2
176
     1
 90
        1
176
     1
 90
        1
176
     1
 90
        2
176
     1
 40
0.6
176
     1
 40
30.0
176
     1
 62
     7
176
     1
 90
        1
176
     1
 90
        0
176
     1
 62
     7
176
     1
 62
   257
176
     1
 90
        1
176
     1
 90
        1
176
     1
 40
1.0
176
     1
 90
        0
176
     1
 62
   257
176
     1
 40
1.0
176
     1
 90
        1
176
     1
 90
        6
176
     1
 90
        2
176
     1
 62
     7
176
     1
 90
        5
176
     1
 90
        0
176
     1
 90
        0
176
     1
290
     0
176
     1
 90
       13
176
     1
 40
0.0
176
     1
 90
        0
176
     1
290
     0
176
     1
290
     1
176
     1
290
     1
176
     1
290
     0
176
     1
290
     0
176
     1
290
     0
176
     1
290
     0
176
     1
290
     0
176
     1
290
     0
176
     1
 90
       50
176
     1
 40
0.0
176
     1
 40
1.0
176
     1
 90
        0
176
     1
 62
    18
420
        0
176
     1
 90
       50
176
     1
 90
        3
176
     1
 62
     5
420
      255
176
     1
290
     0
176
     1
 90
       50
176
     1
 90
       50
176
     1
 90
       50
176
     1
290
     0
176
     1
 90
       50
176
     1
 62
   256
176
     0
 40
1.0
176
     0
 90
        2
176
     1
  1
strokes_ogs.tif
176
     1
290
     0
176
     1
 40
1.0
176
     1
 40
1.0
176
     1
1001
ACAD
1000
AcDbSavedByObjectVersion
1070
     0
  0
VISUALSTYLE
  5
6C44
102
{ACAD_REACTORS
330
6C41
102
}
330
6C41
100
AcDbVisualStyle
  2

 70
     2
177
     3
291
     1
 70
    58
 90
        2
176
     1
 90
        2
176
     1
 90
        1
176
     1
 90
        2
176
     1
 40
0.6
176
     1
 40
30.0
176
     1
 62
     7
176
     1
 90
        0
176
     1
 90
        0
176
     1
 62
     7
176
     1
 62
   257
176
     1
 90
        1
176
     1
 90
        1
176
     1
 40
1.0
176
     1
 90
        0
176
     1
 62
     7
176
     1
 40
1.0
176
     1
 90
        1
176
     1
 90
        6
176
     1
 90
        2
176
     1
 62
     7
176
     1
 90
        5
176
     1
 90
        0
176
     1
 90
        0
176
     1
290
     0
176
     1
 90
       13
176
     1
 40
0.0
176
     1
 90
        0
176
     1
290
     0
176
     1
290
     1
176
     1
290
     1
176
     1
290
     0
176
     1
290
     0
176
     1
290
     0
176
     1
290
     0
176
     1
290
     0
176
     1
290
     0
176
     1
 90
       50
176
     1
 40
0.0
176
     1
 40
1.0
176
     1
 90
        0
176
     1
 62
    18
420
        0
176
     1
 90
       50
176
     1
 90
        3
176
     1
 62
     5
420
      255
176
     1
290
     0
176
     1
 90
       50
176
     1
 90
       50
176
     1
 90
       50
176
     1
290
     0
176
     1
 90
       50
176
     1
 62
   256
176
     0
 40
1.0
176
     0
 90
        2
176
     1
  1
strokes_ogs.tif
176
     1
290
     0
176
     1
 40
1.0
176
     1
 40
1.0
176
     1
1001
ACAD
1000
AcDbSavedByObjectVersion
1070
     0
  0
VISUALSTYLE
  5
6C45
102
{ACAD_REACTORS
330
6C41
102
}
330
6C41
100
AcDbVisualStyle
  2

 70
     3
177
     3
291
     1
 70
    58
 90
        2
176
     1
 90
        2
176
     1
 90
        1
176
     1
 90
        2
176
     1
 40
0.6
176
     1
 40
30.0
176
     1
 62
     7
176
     1
 90
        1
176
     1
 90
        0
176
     1
 62
     7
176
     1
 62
   257
176
     1
 90
        1
176
     1
 90
        1
176
     1
 40
1.0
176
     1
 90
        0
176
     1
 62
   257
176
     1
 40
1.0
176
     1
 90
        1
176
     1
 90
        6
176
     1
 90
        2
176
     1
 62
     7
176
     1
 90
        5
176
     1
 90
        0
176
     1
 90
        0
176
     1
290
     0
176
     1
 90
       13
176
     1
 40
0.0
176
     1
 90
        0
176
     1
290
     0
176
     1
290
     1
176
     1
290
     1
176
     1
290
     0
176
     1
290
     0
176
     1
290
     0
176
     1
290
     0
176
     1
290
     0
176
     1
290
     0
176
     1
 90
       50
176
     1
 40
0.0
176
     1
 40
1.0
176
     1
 90
        0
176
     1
 62
    18
420
        0
176
     1
 90
       50
176
     1
 90
        3
176
     1
 62
     5
420
      255
176
     1
290
     0
176
     1
 90
       50
176
     1
 90
       50
176
     1
 90
       50
176
     1
290
     0
176
     1
 90
       50
176
     1
 62
   256
176
     0
 40
1.0
176
     0
 90
        2
176
     1
  1
strokes_ogs.tif
176
     1
290
     0
176
     1
 40
1.0
176
     1
 40
1.0
176
     1
1001
ACAD
1000
AcDbSavedByObjectVersion
1070
     0
  0
VISUALSTYLE
  5
6C49
102
{ACAD_REACTORS
330
6C41
102
}
330
6C41
100
AcDbVisualStyle
  2

 70
     6
177
     3
291
     0
 70
    58
 90
        1
176
     1
 90
        2
176
     1
 90
        2
176
     1
 90
        0
176
     1
 40
0.6
176
     1
 40
30.0
176
     1
 62
     7
176
     1
 90
        2
176
     1
 90
        2
176
     1
 62
     7
176
     1
 62
   257
176
     1
 90
        2
176
     1
 90
        1
176
     1
 40
40.0
176
     1
 90
        0
176
     1
 62
   257
176
     1
 40
1.0
176
     1
 90
        1
176
     1
 90
        6
176
     1
 90
        2
176
     1
 62
     7
176
     1
 90
        3
176
     1
 90
        0
176
     1
 90
        0
176
     1
290
     0
176
     1
 90
        1
176
     1
 40
0.0
176
     1
 90
        0
176
     1
290
     0
176
     1
290
     1
176
     1
290
     1
176
     1
290
     0
176
     1
290
     0
176
     1
290
     0
176
     1
290
     0
176
     1
290
     0
176
     1
290
     0
176
     1
 90
       50
176
     1
 40
0.0
176
     1
 40
1.0
176
     1
 90
        0
176
     1
 62
    18
420
        0
176
     1
 90
       50
176
     1
 90
        3
176
     1
 62
     5
420
      255
176
     1
290
     0
176
     1
 90
       50
176
     1
 90
       50
176
     1
 90
       50
176
     1
290
     0
176
     1
 90
       50
176
     1
 62
   256
176
     0
 40
1.0
176
     0
 90
        2
176
     1
  1
strokes_ogs.tif
176
     1
290
     0
176
     1
 40
1.0
176
     1
 40
1.0
176
     1
1001
ACAD
1000
AcDbSavedByObjectVersion
1070
     0
  0
VISUALSTYLE
  5
6C57
102
{ACAD_REACTORS
330
6C41
102
}
330
6C41
100
AcDbVisualStyle
  2

 70
    20
177
     3
291
     1
 70
    58
 90
        2
176
     0
 90
        2
176
     0
 90
        0
176
     0
 90
        0
176
     0
 40
0.6
176
     0
 40
30.0
176
     0
 62
     7
176
     0
 90
        1
176
     0
 90
        4
176
     0
 62
     7
176
     0
 62
   257
176
     0
 90
        1
176
     0
 90
        1
176
     0
 40
1.0
176
     0
 90
       10
176
     2
 62
     7
176
     0
 40
1.0
176
     0
 90
        1
176
     0
 90
        6
176
     0
 90
        2
176
     0
 62
     7
176
     0
 90
        5
176
     0
 90
        0
176
     0
 90
        0
176
     0
290
     0
176
     0
 90
        1
176
     0
 40
0.0
176
     0
 90
        0
176
     0
290
     0
176
     1
290
     1
176
     1
290
     1
176
     1
290
     0
176
     1
290
     0
176
     1
290
     0
176
     1
290
     0
176
     1
290
     0
176
     1
290
     0
176
     1
 90
       50
176
     0
 40
0.0
176
     0
 40
1.0
176
     0
 90
        0
176
     0
 62
    18
420
        0
176
     0
 90
       50
176
     0
 90
        3
176
     0
 62
     5
420
      255
176
     0
290
     0
176
     1
 90
       50
176
     0
 90
       50
176
     0
 90
       50
176
     0
290
     0
176
     1
 90
       50
176
     0
 62
   256
176
     0
 40
1.0
176
     0
 90
        2
176
     0
  1
strokes_ogs.tif
176
     0
290
     0
176
     1
 40
1.0
176
     0
 40
1.0
176
     0
1001
ACAD
1000
AcDbSavedByObjectVersion
1070
     0
  0
VISUALSTYLE
  5
6C4F
102
{ACAD_REACTORS
330
6C41
102
}
330
6C41
100
AcDbVisualStyle
  2

 70
    14
177
     3
291
     1
 70
    58
 90
        2
176
     1
 90
        2
176
     1
 90
        0
176
     1
 90
        0
176
     1
 40
0.6
176
     1
 40
30.0
176
     1
 62
     7
176
     1
 90
        1
176
     1
 90
        4
176
     1
 62
     7
176
     1
 62
   257
176
     1
 90
        7
176
     1
 90
        7
176
     1
 40
1.0
176
     1
 90
        8
176
     1
 62
     7
176
     1
 40
1.0
176
     1
 90
        1
176
     1
 90
        6
176
     1
 90
        2
176
     1
 62
     7
176
     1
 90
        5
176
     1
 90
        0
176
     1
 90
        0
176
     1
290
     0
176
     1
 90
        1
176
     1
 40
0.0
176
     1
 90
        0
176
     1
290
     0
176
     1
290
     1
176
     1
290
     1
176
     1
290
     0
176
     1
290
     0
176
     1
290
     0
176
     1
290
     0
176
     1
290
     0
176
     1
290
     0
176
     1
 90
       50
176
     1
 40
0.0
176
     1
 40
1.0
176
     1
 90
        0
176
     1
 62
    18
420
        0
176
     1
 90
       50
176
     1
 90
        3
176
     1
 62
     5
420
      255
176
     1
290
     0
176
     1
 90
       50
176
     1
 90
       50
176
     1
 90
       50
176
     1
290
     0
176
     1
 90
       50
176
     1
 62
   256
176
     0
 40
1.0
176
     0
 90
        2
176
     1
  1
strokes_ogs.tif
176
     1
290
     0
176
     1
 40
1.0
176
     1
 40
1.0
176
     1
1001
ACAD
1000
AcDbSavedByObjectVersion
1070
     0
  0
VISUALSTYLE
  5
6C58
102
{ACAD_REACTORS
330
6C41
102
}
330
6C41
100
AcDbVisualStyle
  2

 70
    21
177
     3
291
     1
 70
    58
 90
        2
176
     0
 90
        2
176
     0
 90
        0
176
     0
 90
        0
176
     0
 40
0.6
176
     0
 40
30.0
176
     0
 62
     7
176
     0
 90
        1
176
     0
 90
        4
176
     0
 62
     7
176
     0
 62
   257
176
     0
 90
        1
176
     0
 90
        1
176
     0
 40
1.0
176
     0
 90
        9
176
     2
 62
     7
176
     0
 40
1.0
176
     0
 90
        1
176
     0
 90
        6
176
     0
 90
        2
176
     0
 62
     7
176
     0
 90
        5
176
     0
 90
        0
176
     0
 90
        0
176
     0
290
     0
176
     0
 90
        1
176
     0
 40
0.0
176
     0
 90
        0
176
     0
290
     0
176
     1
290
     1
176
     1
290
     1
176
     1
290
     0
176
     1
290
     0
176
     1
290
     0
176
     1
290
     0
176
     1
290
     0
176
     1
290
     0
176
     1
 90
       50
176
     0
 40
0.0
176
     0
 40
1.0
176
     0
 90
        0
176
     0
 62
    18
420
        0
176
     0
 90
       50
176
     0
 90
        3
176
     0
 62
     5
420
      255
176
     0
290
     0
176
     1
 90
       50
176
     0
 90
       50
176
     0
 90
       50
176
     0
290
     0
176
     1
 90
       50
176
     0
 62
   256
176
     0
 40
1.0
176
     0
 90
        2
176
     0
  1
strokes_ogs.tif
176
     0
290
     0
176
     1
 40
1.0
176
     0
 40
1.0
176
     0
1001
ACAD
1000
AcDbSavedByObjectVersion
1070
     0
  0
VISUALSTYLE
  5
6C4B
102
{ACAD_REACTORS
330
6C41
102
}
330
6C41
100
AcDbVisualStyle
  2

 70
     8
177
     3
291
     0
 70
    58
 90
        2
176
     1
 90
        3
176
     1
 90
        0
176
     1
 90
        2
176
     1
 40
0.6
176
     1
 40
30.0
176
     1
 62
     7
176
     1
 90
        0
176
     1
 90
        0
176
     1
 62
     7
176
     1
 62
   257
176
     1
 90
        1
176
     1
 90
        1
176
     1
 40
1.0
176
     1
 90
        8
176
     1
 62
   257
176
     1
 40
1.0
176
     1
 90
        1
176
     1
 90
        6
176
     1
 90
        2
176
     1
 62
     7
176
     1
 90
        3
176
     1
 90
        0
176
     1
 90
        0
176
     1
290
     0
176
     1
 90
       13
176
     1
 40
0.0
176
     1
 90
        0
176
     1
290
     0
176
     1
290
     1
176
     1
290
     1
176
     1
290
     0
176
     1
290
     0
176
     1
290
     0
176
     1
290
     0
176
     1
290
     0
176
     1
290
     0
176
     1
 90
       50
176
     1
 40
0.0
176
     1
 40
1.0
176
     1
 90
        0
176
     1
 62
    18
420
        0
176
     1
 90
       50
176
     1
 90
        3
176
     1
 62
     5
420
      255
176
     1
290
     0
176
     1
 90
       50
176
     1
 90
       50
176
     1
 90
       50
176
     1
290
     0
176
     1
 90
       50
176
     1
 62
   256
176
     0
 40
1.0
176
     0
 90
        2
176
     1
  1
strokes_ogs.tif
176
     1
290
     0
176
     1
 40
1.0
176
     1
 40
1.0
176
     1
1001
ACAD
1000
AcDbSavedByObjectVersion
1070
     0
  0
VISUALSTYLE
  5
6C56
102
{ACAD_REACTORS
330
6C41
102
}
330
6C41
100
AcDbVisualStyle
  2

 70
    27
177
     3
291
     0
 70
    58
 90
        2
176
     1
 90
        2
176
     1
 90
        1
176
     1
 90
        2
176
     1
 40
0.6
176
     1
 40
30.0
176
     1
 62
     7
176
     1
 90
        0
176
     1
 90
        4
176
     1
 62
     7
176
     1
 62
   257
176
     1
 90
        1
176
     1
 90
        1
176
     1
 40
1.0
176
     1
 90
        8
176
     1
 62
   257
176
     1
 40
1.0
176
     1
 90
        1
176
     1
 90
        6
176
     1
 90
        2
176
     1
 62
     8
176
     1
 90
        3
176
     1
 90
        0
176
     1
 90
        0
176
     1
290
     0
176
     1
 90
        5
176
     1
 40
0.0
176
     1
 90
        0
176
     1
290
     0
176
     1
290
     1
176
     1
290
     1
176
     1
290
     0
176
     1
290
     0
176
     1
290
     0
176
     1
290
     0
176
     1
290
     0
176
     1
290
     0
176
     1
 90
       50
176
     1
 40
0.0
176
     1
 40
1.0
176
     1
 90
        0
176
     1
 62
    18
420
        0
176
     1
 90
       50
176
     1
 90
        3
176
     1
 62
     5
420
      255
176
     1
290
     0
176
     1
 90
       50
176
     1
 90
       50
176
     1
 90
       50
176
     1
290
     0
176
     1
 90
       50
176
     1
 62
   256
176
     0
 40
1.0
176
     0
 90
        2
176
     1
  1
strokes_ogs.tif
176
     1
290
     0
176
     1
 40
1.0
176
     1
 40
1.0
176
     1
1001
ACAD
1000
AcDbSavedByObjectVersion
1070
     0
  0
VISUALSTYLE
  5
6C55
102
{ACAD_REACTORS
330
6C41
102
}
330
6C41
100
AcDbVisualStyle
  2

 70
    26
177
     3
291
     0
 70
    58
 90
        2
176
     1
 90
        2
176
     1
 90
        1
176
     1
 90
        2
176
     1
 40
0.6
176
     1
 40
30.0
176
     1
 62
     7
176
     1
 90
        1
176
     1
 90
       10
176
     1
 62
     7
176
     1
 62
   257
176
     1
 90
        2
176
     1
 90
        1
176
     1
 40
1.0
176
     1
 90
        8
176
     1
 62
   257
176
     1
 40
1.0
176
     1
 90
        1
176
     1
 90
        6
176
     1
 90
        2
176
     1
 62
     7
176
     1
 90
        3
176
     1
 90
        0
176
     1
 90
        0
176
     1
290
     0
176
     1
 90
        5
176
     1
 40
0.0
176
     1
 90
        0
176
     1
290
     0
176
     1
290
     1
176
     1
290
     1
176
     1
290
     0
176
     1
290
     0
176
     1
290
     0
176
     1
290
     0
176
     1
290
     0
176
     1
290
     0
176
     1
 90
       50
176
     1
 40
0.0
176
     1
 40
1.0
176
     1
 90
        0
176
     1
 62
    18
420
        0
176
     1
 90
       50
176
     1
 90
        3
176
     1
 62
     5
420
      255
176
     1
290
     0
176
     1
 90
       50
176
     1
 90
       50
176
     1
 90
       50
176
     1
290
     0
176
     1
 90
       50
176
     1
 62
   256
176
     0
 40
1.0
176
     0
 90
        2
176
     1
  1
strokes_ogs.tif
176
     1
290
     0
176
     1
 40
1.0
176
     1
 40
1.0
176
     1
1001
ACAD
1000
AcDbSavedByObjectVersion
1070
     0
  0
VISUALSTYLE
  5
6C52
102
{ACAD_REACTORS
330
6C41
102
}
330
6C41
100
AcDbVisualStyle
  2

 70
    23
177
     3
291
     0
 70
    58
 90
        2
176
     1
 90
        2
176
     1
 90
        3
176
     1
 90
        0
176
     1
 40
0.6
176
     1
 40
30.0
176
     1
 62
     7
176
     1
 90
        2
176
     1
 90
        2
176
     1
 62
     7
176
     1
 62
     7
176
     1
 90
        1
176
     1
 90
        1
176
     1
 40
40.0
176
     1
 90
        8
176
     1
 62
     7
176
     1
 40
1.0
176
     1
 90
        1
176
     1
 90
        6
176
     1
 90
        2
176
     1
 62
     7
176
     1
 90
        3
176
     1
 90
        0
176
     1
 90
        0
176
     1
290
     0
176
     1
 90
        1
176
     1
 40
0.0
176
     1
 90
        0
176
     1
290
     0
176
     1
290
     1
176
     1
290
     1
176
     1
290
     0
176
     1
290
     0
176
     1
290
     0
176
     1
290
     0
176
     1
290
     0
176
     1
290
     0
176
     1
 90
       50
176
     1
 40
0.0
176
     1
 40
1.0
176
     1
 90
        0
176
     1
 62
    18
420
        0
176
     1
 90
       50
176
     1
 90
        3
176
     1
 62
     5
420
      255
176
     1
290
     0
176
     1
 90
       50
176
     1
 90
       50
176
     1
 90
       50
176
     1
290
     0
176
     1
 90
       50
176
     1
 62
   256
176
     0
 40
1.0
176
     0
 90
        2
176
     1
  1
strokes_ogs.tif
176
     1
290
     0
176
     1
 40
1.0
176
     1
 40
1.0
176
     1
1001
ACAD
1000
AcDbSavedByObjectVersion
1070
     0
  0
VISUALSTYLE
  5
6C53
102
{ACAD_REACTORS
330
6C41
102
}
330
6C41
100
AcDbVisualStyle
  2

 70
    24
177
     3
291
     0
 70
    58
 90
        1
176
     1
 90
        2
176
     1
 90
        2
176
     1
 90
        0
176
     1
 40
0.6
176
     1
 40
30.0
176
     1
 62
     7
176
     1
 90
        2
176
     1
 90
        2
176
     1
 62
     7
176
     1
 62
     7
176
     1
 90
        1
176
     1
 90
        1
176
     1
 40
40.0
176
     1
 90
       11
176
     1
 62
     7
176
     1
 40
1.0
176
     1
 90
        1
176
     1
 90
        6
176
     1
 90
        2
176
     1
 62
     7
176
     1
 90
        6
176
     1
 90
        0
176
     1
 90
        0
176
     1
290
     0
176
     1
 90
        1
176
     1
 40
0.0
176
     1
 90
        0
176
     1
290
     0
176
     1
290
     1
176
     1
290
     1
176
     1
290
     0
176
     1
290
     0
176
     1
290
     0
176
     1
290
     0
176
     1
290
     0
176
     1
290
     0
176
     1
 90
       50
176
     1
 40
0.0
176
     1
 40
1.0
176
     1
 90
        0
176
     1
 62
    18
420
        0
176
     1
 90
       50
176
     1
 90
        3
176
     1
 62
     5
420
      255
176
     1
290
     0
176
     1
 90
       50
176
     1
 90
       50
176
     1
 90
       50
176
     1
290
     0
176
     1
 90
       50
176
     1
 62
   256
176
     0
 40
1.0
176
     0
 90
        2
176
     1
  1
strokes_ogs.tif
176
     1
290
     0
176
     1
 40
1.0
176
     1
 40
1.0
176
     1
1001
ACAD
1000
AcDbSavedByObjectVersion
1070
     0
  0
VISUALSTYLE
  5
6C4E
102
{ACAD_REACTORS
330
6C41
102
}
330
6C41
100
AcDbVisualStyle
  2

 70
    13
177
     3
291
     1
 70
    58
 90
        2
176
     1
 90
        2
176
     1
 90
        0
176
     1
 90
        0
176
     1
 40
0.6
176
     1
 40
30.0
176
     1
 62
     7
176
     1
 90
        1
176
     1
 90
        4
176
     1
 62
     7
176
     1
 62
   257
176
     1
 90
        1
176
     1
 90
        1
176
     1
 40
1.0
176
     1
 90
       12
176
     1
 62
     7
176
     1
 40
1.0
176
     1
 90
        1
176
     1
 90
        6
176
     1
 90
        2
176
     1
 62
     7
176
     1
 90
        5
176
     1
 90
        0
176
     1
 90
        0
176
     1
290
     0
176
     1
 90
        1
176
     1
 40
0.0
176
     1
 90
        0
176
     1
290
     0
176
     1
290
     1
176
     1
290
     1
176
     1
290
     0
176
     1
290
     0
176
     1
290
     0
176
     1
290
     0
176
     1
290
     0
176
     1
290
     0
176
     1
 90
       50
176
     1
 40
0.0
176
     1
 40
1.0
176
     1
 90
        0
176
     1
 62
    18
420
        0
176
     1
 90
       50
176
     1
 90
        3
176
     1
 62
     5
420
      255
176
     1
290
     0
176
     1
 90
       50
176
     1
 90
       50
176
     1
 90
       50
176
     1
290
     0
176
     1
 90
       50
176
     1
 62
   256
176
     0
 40
1.0
176
     0
 90
        2
176
     1
  1
strokes_ogs.tif
176
     1
290
     0
176
     1
 40
1.0
176
     1
 40
1.0
176
     1
1001
ACAD
1000
AcDbSavedByObjectVersion
1070
     0
  0
VISUALSTYLE
  5
6C48
102
{ACAD_REACTORS
330
6C41
102
}
330
6C41
100
AcDbVisualStyle
  2

 70
     5
177
     3
291
     0
 70
    58
 90
        0
176
     1
 90
        2
176
     1
 90
        0
176
     1
 90
        0
176
     1
 40
0.6
176
     1
 40
30.0
176
     1
 62
     7
176
     1
 90
        1
176
     1
 90
        4
176
     1
 62
     7
176
     1
 62
   257
176
     1
 90
        1
176
     1
 90
        1
176
     1
 40
1.0
176
     1
 90
        0
176
     1
 62
   257
176
     1
 40
1.0
176
     1
 90
        1
176
     1
 90
        6
176
     1
 90
        2
176
     1
 62
     7
176
     1
 90
        3
176
     1
 90
        0
176
     1
 90
        0
176
     1
290
     0
176
     1
 90
        1
176
     1
 40
0.0
176
     1
 90
        0
176
     1
290
     0
176
     1
290
     1
176
     1
290
     1
176
     1
290
     0
176
     1
290
     0
176
     1
290
     0
176
     1
290
     0
176
     1
290
     0
176
     1
290
     0
176
     1
 90
       50
176
     1
 40
0.0
176
     1
 40
1.0
176
     1
 90
        0
176
     1
 62
    18
420
        0
176
     1
 90
       50
176
     1
 90
        3
176
     1
 62
     5
420
      255
176
     1
290
     0
176
     1
 90
       50
176
     1
 90
       50
176
     1
 90
       50
176
     1
290
     0
176
     1
 90
       50
176
     1
 62
   256
176
     0
 40
1.0
176
     0
 90
        2
176
     1
  1
strokes_ogs.tif
176
     1
290
     0
176
     1
 40
1.0
176
     1
 40
1.0
176
     1
1001
ACAD
1000
AcDbSavedByObjectVersion
1070
     0
  0
VISUALSTYLE
  5
6C54
102
{ACAD_REACTORS
330
6C41
102
}
330
6C41
100
AcDbVisualStyle
  2

 70
    25
177
     3
291
     0
 70
    58
 90
        2
176
     1
 90
        2
176
     1
 90
        1
176
     1
 90
        1
176
     1
 40
0.5
176
     1
 40
30.0
176
     1
 62
     7
176
     1
 90
        1
176
     1
 90
        0
176
     1
 62
     7
176
     1
 62
   257
176
     1
 90
        1
176
     1
 90
        1
176
     1
 40
1.0
176
     1
 90
        8
176
     1
 62
     7
176
     1
 40
1.0
176
     1
 90
        1
176
     1
 90
        6
176
     1
 90
        2
176
     1
 62
     7
176
     1
 90
        3
176
     1
 90
        0
176
     1
 90
        0
176
     1
290
     0
176
     1
 90
       13
176
     1
 40
0.0
176
     1
 90
        0
176
     1
290
     0
176
     1
290
     1
176
     1
290
     1
176
     1
290
     0
176
     1
290
     0
176
     1
290
     0
176
     1
290
     0
176
     1
290
     0
176
     1
290
     0
176
     1
 90
       50
176
     1
 40
0.0
176
     1
 40
1.0
176
     1
 90
        0
176
     1
 62
    18
420
        0
176
     1
 90
       50
176
     1
 90
        3
176
     1
 62
     5
420
      255
176
     1
290
     0
176
     1
 90
       50
176
     1
 90
       50
176
     1
 90
       50
176
     1
290
     0
176
     1
 90
       50
176
     1
 62
   256
176
     0
 40
1.0
176
     0
 90
        2
176
     1
  1
strokes_ogs.tif
176
     1
290
     0
176
     1
 40
1.0
176
     1
 40
1.0
176
     1
1001
ACAD
1000
AcDbSavedByObjectVersion
1070
     0
  0
DICTIONARYVAR
  5
6DD0
102
{ACAD_REACTORS
330
5697
102
}
330
5697
100
DictionaryVariables
280
     0
  1
1:1
  0
DICTIONARYVAR
  5
6DCD
102
{ACAD_REACTORS
330
5697
102
}
330
5697
100
DictionaryVariables
280
     0
  1
STANDARD
  0
DICTIONARYVAR
  5
6DCC
102
{ACAD_REACTORS
330
5697
102
}
330
5697
100
DictionaryVariables
280
     0
  1
STANDARD
  0
DICTIONARYVAR
  5
6DCE
102
{ACAD_REACTORS
330
5697
102
}
330
5697
100
DictionaryVariables
280
     0
  1
Imperial24
  0
DICTIONARYVAR
  5
6DCF
102
{ACAD_REACTORS
330
5697
102
}
330
5697
100
DictionaryVariables
280
     0
  1
Imperial24
  0
DICTIONARYVAR
  5
5698
102
{ACAD_REACTORS
330
5697
102
}
330
5697
100
DictionaryVariables
280
     0
  1
1
  0
DICTIONARYVAR
  5
6DD2
102
{ACAD_REACTORS
330
5697
102
}
330
5697
100
DictionaryVariables
280
     0
  1
0
  0
DICTIONARYVAR
  5
6E6F
102
{ACAD_REACTORS
330
5697
102
}
330
5697
100
DictionaryVariables
280
     0
  1
1
  0
DICTIONARYVAR
  5
6E70
102
{ACAD_REACTORS
330
5697
102
}
330
5697
100
DictionaryVariables
280
     0
  1
15
  0
DICTIONARYVAR
  5
6E6E
102
{ACAD_REACTORS
330
5697
102
}
330
5697
100
DictionaryVariables
280
     0
  1
0
  0
DICTIONARYVAR
  5
6E6D
102
{ACAD_REACTORS
330
5697
102
}
330
5697
100
DictionaryVariables
280
     0
  1
0
  0
DICTIONARYVAR
  5
6DD1
102
{ACAD_REACTORS
330
5697
102
}
330
5697
100
DictionaryVariables
280
     0
  1
127
  0
DICTIONARY
  5
6E74
330
6C74
100
AcDbDictionary
280
     1
281
     1
  3
ACAD_XREC_ROUNDTRIP
360
6E75
  0
DICTIONARY
  5
6C32
330
6C31
100
AcDbDictionary
280
     1
281
     1
  3
ACAD_XREC_ROUNDTRIP
360
6E2B
  3
BUMPTILE
360
6C34
  3
DIFFUSETILE
360
6C33
  3
OPACITYTILE
360
6C37
  3
REFLECTIONTILE
360
6C36
  3
REFRACTIONTILE
360
6C38
  3
SPECULARTILE
360
6C35
  0
DICTIONARY
  5
6C2A
330
6C29
100
AcDbDictionary
280
     1
281
     1
  3
ACAD_XREC_ROUNDTRIP
360
6E2A
  3
BUMPTILE
360
6C2C
  3
DIFFUSETILE
360
6C2B
  3
OPACITYTILE
360
6C2F
  3
REFLECTIONTILE
360
6C2E
  3
REFRACTIONTILE
360
6C30
  3
SPECULARTILE
360
6C2D
  0
DICTIONARY
  5
6C3A
330
6C39
100
AcDbDictionary
280
     1
281
     1
  3
ACAD_XREC_ROUNDTRIP
360
6E2C
  3
BUMPTILE
360
6C3C
  3
DIFFUSETILE
360
6C3B
  3
FBXASSET
360
6E1F
  3
OPACITYTILE
360
6C3F
  3
REFLECTIONTILE
360
6C3E
  3
REFRACTIONTILE
360
6C40
  3
SPECULARTILE
360
6C3D
  0
DICTIONARY
  5
6E72
330
6C72
100
AcDbDictionary
280
     1
281
     1
  3
ACAD_XREC_ROUNDTRIP
360
6E73
  0
DICTIONARY
  5
6E20
330
6C5C
100
AcDbDictionary
280
     1
281
     1
  3
ACAD_ROUNDTRIP_2008_TABLESTYLE_CELLSTYLEMAP
360
6E71
  0
XRECORD
  5
6E75
102
{ACAD_REACTORS
330
6E74
102
}
330
6E74
100
AcDbXrecord
280
     1
102
DISPLAYNAME
  1
Imperial24
102
FLAGS
 90
        0
  0
XRECORD
  5
6E2B
102
{ACAD_REACTORS
330
6C32
102
}
330
6C32
100
AcDbXrecord
280
     1
102
MATERIAL
148
0.0
149
0.0
149
0.0
 93
        0
 94
      127
282
     0
 72
     0
 77
     0
171
     0
175
     0
179
     0
273
     0
  0
XRECORD
  5
6C34
102
{ACAD_REACTORS
330
6C32
102
}
330
6C32
100
AcDbXrecord
280
     1
270
     1
271
     1
  0
XRECORD
  5
6C33
102
{ACAD_REACTORS
330
6C32
102
}
330
6C32
100
AcDbXrecord
280
     1
270
     1
271
     1
  0
XRECORD
  5
6C37
102
{ACAD_REACTORS
330
6C32
102
}
330
6C32
100
AcDbXrecord
280
     1
270
     1
271
     1
  0
XRECORD
  5
6C36
102
{ACAD_REACTORS
330
6C32
102
}
330
6C32
100
AcDbXrecord
280
     1
270
     1
271
     1
  0
XRECORD
  5
6C38
102
{ACAD_REACTORS
330
6C32
102
}
330
6C32
100
AcDbXrecord
280
     1
270
     1
271
     1
  0
XRECORD
  5
6C35
102
{ACAD_REACTORS
330
6C32
102
}
330
6C32
100
AcDbXrecord
280
     1
270
     1
271
     1
  0
XRECORD
  5
6E2A
102
{ACAD_REACTORS
330
6C2A
102
}
330
6C2A
100
AcDbXrecord
280
     1
102
MATERIAL
148
0.0
149
0.0
149
0.0
 93
        0
 94
      127
282
     0
 72
     0
 77
     0
171
     0
175
     0
179
     0
273
     0
  0
XRECORD
  5
6C2C
102
{ACAD_REACTORS
330
6C2A
102
}
330
6C2A
100
AcDbXrecord
280
     1
270
     1
271
     1
  0
XRECORD
  5
6C2B
102
{ACAD_REACTORS
330
6C2A
102
}
330
6C2A
100
AcDbXrecord
280
     1
270
     1
271
     1
  0
XRECORD
  5
6C2F
102
{ACAD_REACTORS
330
6C2A
102
}
330
6C2A
100
AcDbXrecord
280
     1
270
     1
271
     1
  0
XRECORD
  5
6C2E
102
{ACAD_REACTORS
330
6C2A
102
}
330
6C2A
100
AcDbXrecord
280
     1
270
     1
271
     1
  0
XRECORD
  5
6C30
102
{ACAD_REACTORS
330
6C2A
102
}
330
6C2A
100
AcDbXrecord
280
     1
270
     1
271
     1
  0
XRECORD
  5
6C2D
102
{ACAD_REACTORS
330
6C2A
102
}
330
6C2A
100
AcDbXrecord
280
     1
270
     1
271
     1
  0
XRECORD
  5
6E2C
102
{ACAD_REACTORS
330
6C3A
102
}
330
6C3A
100
AcDbXrecord
280
     1
102
MATERIAL
148
0.0
149
0.0
149
0.0
 93
        0
 94
      127
282
     0
 72
     0
 77
     0
171
     0
175
     0
179
     0
273
     0
  0
XRECORD
  5
6C3C
102
{ACAD_REACTORS
330
6C3A
102
}
330
6C3A
100
AcDbXrecord
280
     1
270
     1
271
     1
  0
XRECORD
  5
6C3B
102
{ACAD_REACTORS
330
6C3A
102
}
330
6C3A
100
AcDbXrecord
280
     1
270
     1
271
     1
  0
XRECORD
  5
6E1F
102
{ACAD_REACTORS
330
6C3A
102
}
330
6C3A
100
AcDbXrecord
280
     1
 70
     1
 90
1959938040
 71
     1
  1
F2CC5D27-FE7D-42B2-9FA6-1FF964044FDC
311
504B0304140006080800C3806A484278A552D9000000200100004F00000034344132353845382D414443362D343345372D383343452D3731393730373030323241432F4173736574446174612F446566696E6974696F6E4974657261746F7250726F706572746965732E62696E454E3B4F0241105E2D301616FE0342BFEE83
311
CBF1086038E0ACB0D18A860CCB705EB2B74776F7124B4BFFB5CE460C93F9E63DDFCC3763ECE72214B21BC217D907F22FE8D0D7E6CD7C6003AC972AB63D80BDBBF66E294CE91A4FD0D998B6B67530682D386CBBF0781DED3710890EEC535ABA27FC174262A8FE8EA5FBAF84F452F2703C4F9F21048C73713A7C8ACDB2D0EB51
311
59F0892A973CCBB5E2E37CB5E1D9B85CC989545A6585F018DACE1B0C420BB9BF30EFCFAEC2F9C078A43F8E8385962AE772C8957C57F954928E763311EB0617B3107DEDAABE83E617504B0304140006080800C3806A48042CCD1008010000300200004500000034344132353845382D414443362D343345372D383343452D37
311
31393730373030323241432F4173736574446174612F496E7374616E636550726F706572746965732E62696EEB606060F80F0540260323103700495E20ED9E9A975A94991C9C9C919A9BA802147033727636753132D775733577D135317232D2B5747334D3357473B33433313031717371664768046931363471713532B5D4
311
35353131D635313332D475727372D13534373670367376B67474B5042A03DBCBA019D37FE8ABC6157B20CD04146B0062181F4C03F940F0C11EA29A8141C08141002C0426541C106CAC2CA046088033B02A030AC2157C6006F21A8018AAF50194E6010A610250382264E08660284CD9E98021862280A91564B406929A0FF62C
311
401E28B6F88038B83CB1243943D7A928312F2535052403033A408623109FE2CE6798C67D1BA4010380CC860922ABD7E28D8409C36900504B0304140006080800C3806A4828BB58AF800100009E0500003D00000034344132353845382D414443362D343345372D383343452D3731393730373030323241432F536368656D61
311
732F436F6D6D6F6E536368656D612E786D6CBD544D4FC23018BEFB2B96DE15493C78601010A34B880709DEDFB52FD0D8B54BD70DF6EFED3AC0B12E6442E2716BFB3CEFF3D18E26FB440405EA8C2B1992E1C323095052C5B8DC842437EBFB673219DF8DA659866649B798C078B48AE6410122242F2A4994AC7F93815DF85C04
311
9C8564CA0A901499DD886B2EB9B1E02448F358701A9235880C49A0119892A20C89D1B9FD768815CAD268CB5E0355B40B1E47F3E37A2020464BED06AA57CE8FCC20C3C3446D46761A2632A8C1283D07031EFF2AE7CCB1BFEEE916E406DFAC8E36FFD99A9D60A6944090EEDC3B670C7DC13DE86B6B2C5C240D6E503BB85ACD57
311
9D513F1B9F9A69DC9CC22AFA80C426D40AF0B21EA168559156B6276F0F726A6BFF04DCD513A87A62CAD41FB24FCB2858B3952E3D852084DA25B9303C15687973CC8E8AAE11DF2836C38C6A9E765E8C1BA1BFB1DC29CDFE518C8B5A7655A4ED7E77291ABEB80DBD82EC866ADE1B8D05AF9E35CF09D7A061F38A986D9EC412B8
311
F0F65E5D81534D9B231D1E5A8FE577A241F3A5FD01504B0304140006080800C3806A482CCEBD668A040000E01200003E00000034344132353845382D414443362D343345372D383343452D3731393730373030323241432F536368656D61732F47656E65726963536368656D612E786D6CD5586D6FDB380CFE7EBF42F0F7A6
311
49B70E1B90744856B4970F450FCD7A5F05459613EDE4174872DADCAF3F522F8ED3B88D2F1D06AC4050DBA2493EE4438AF2F8EB73AEC8466823CB62928C06C384888297A92C5693A4B6D9D9E7E4EBD51FE3A931C22EF85AE4EC6AFC38BF261BA626C9AD288496DC3F4FCEAFC63366845F7A10452AF41DB320C0D44EC26EAB20
311
918735565582695670811A6A49643A49A6E9069FA4604A64B29016DC4B48552F95E4932463CA888468C1D2B250DB4962750DF7CE273069CE8363F1FF4EDB00E0A21999574AE4A2B00C353B93F3BD4777B8A61ED8F604ABFEDD79CE56A2B7BDFBDBC50996E0ADDE16FED26223C5D30956C29BDF4A55EA686E5E58B112DA45CE
311
67F76F4FA27EFA3FB672FD7372FC388FAECDCA5209E693CAD167BADCD272F943701B3812F8A3D852008B1D2E32DB927B2F833C6EA95879925356D254582695095A3CE982924720BE5774A3CB9CDCDB350427D2DF20DA1B5532EBE2D5D6288D75D4F7E4FD9890A0EF8E3D93EBB8F8BA4758158EF6FB90A6F9520281C93DE7AA
311
C6D24607DA296BB96018123F821A7D6A5C5884050C475DA4865442732C8B95684A50165CBB3A32F25F783A4A480ED59AD7F924B968AEA50131F46303223E6A397B0E52976030DC1DCA81D7E7C1EDEEA42C19FF27635C505E2BD5198A599020DF50A2330FCB3AAF28CB0124108429553EF1B228802E2265D8F7CC2401042B15
311
5BCC7070F1E5C55F13B4A9577362CCCE46C32174E010C3C378C44841A4BDA00FE3A12006CE11EE6AEC59894D3526DDE1CD59D503ECC324017F8061B7F162162FA62EDD81AE3308617770796DCBDAD2B2625C5AE8A63DE20B2C8AA5E95E76E5730823955956E33E705425A2187C185D36489A1B44D3DCEC2172F6BA2105C354
311
6287A7194B2331768EBBE64F6E70A9930ABE0ADEA89E9E2C38523B810287AD67A54A039C1606EAFE68F8304610BB9093DBDDABC0B2AE4E290DCDA15376D7E39F72B556F0B32EAB5D3D498B4C41ABADEC3A1434C422D87E8025A84BDCB2B1417ED750FAE4DA8976863974C577C7F902D3F156AD354DEA3540DE6BEAE2BEA52F
311
7A2EB4CA43802ECE5BF2CE2EDC9347179FFB023CE412E60BE16DA0BE29B374988A553F561DC04615DD35F7D2C8979F60E5955CE93DF29DED8AFA1EE6642D53418086C03C47C377910F75F7E8F5EF665F70B60FFB22AEDF897D119E8423C773E819A3C1E55E550599EE6EDCA34D0C86FD72057DF2CD46F16A470682471C164E
311
4346D5306BF12D7D12D82CFF673D41636C347443FEB51B50D72EA171A8E4A58623A4A16E0FA2B8B10A0D23268D87C33896EE8FB73305A74BF224EDBADFA0BD674AB354D63DB7BD5D83426761C077DE767728235446A552754EB93B755891C3C4CC6CADE37CF0E912A7BB38DBA010F9DE1282EDF470CA69A9CDA482E334C4A6
311
EA4107987980B17E72F31730EBF88BBD39E7C629F56797A3C0009C2C5AE7951D9A05A02773440F02EEB4DE396A3B6A570C72CCFBCD823B0B8ED3F1D5CEDDFED772FA70236C83FB7D86C385D570B87107535572A60A96035F8F7C6A7192F13007246BBE0521855E6AC46F3E27689CEE7D186A6FD679D98CDCAD13333E04EBE7
311
ED6F55FF01504B0304140006080800C3806A486180134D5F0100006B0300004500000034344132353845382D414443362D343345372D383343452D3731393730373030323241432F536368656D61732F52656E6465724D6174657269616C536368656D612E786D6CA5934D6FC2300C86EFFB1551EEE343DBA41D1A10300955
311
1ADAD40EAE28A4A68D9426284961FCFBE5A340113B2071746D3F765EBF4DC6BFB5407BD0862B49F0B037C0082453059725C18DDD3EBFE3F1E829991803366715D474942CD30FB4A782E00C64017A412D684E454CE3FE28995203B162A6EA5AC94B66997D225E109CD63B0135484BAD1B3C07E9080CA35DB3119C11BCA5C200
311
461A68A1A438126C75E3E230D40FF81FB3F03C91D1E3A3A0AF79FE28E25BC39EC3E17E4C2A2D94A0833A51AF55BCCA7D88572FCBAC529C4140B020FC3AAFA886621DCED7EAD7664CC86024E806DC297DA1BB393E4156543457A4537DB8817349A70F8ACBF09B3EEE2CB2F33E91B65D60786E4E3B39B77E3FEEEF5650424525
311
DA657FB8B46BE6BF064646F0A0F7327C0BC1BC1B4CBBC1C419FA3CCB23500007872A2580CAAE5461865565294E4EDB4617B62FF579DF9A5B2F54E834076A597573A020912FED777F9B3F504B0304140006080800C3806A48B71796DF51000000570000004700000034344132353845382D414443362D343345372D38334345
311
2D3731393730373030323241432F4173736574446174612F41737365745461626C654F66436F6E74656E74732E62696E536160607033727636753132D775733577D135317232D2B5747334D3357473B334333130317173711602AACB4D2C492DCA4CCC492C28484D2C4ACC4B4E050A82012F90744FCD03CA26072767A4E626
311
0200504B0304140006080800C3806A48F865834058000000680000004500000034344132353845382D414443362D343345372D383343452D3731393730373030323241432F4173736574446174612F53747265616D56657273696F6E5461626C652E696E66558CBD0A80300C06F73E4B117FB66E451741D041DC5BF98480A4
311
92E4FDD18EAEC7DD4555D89EF28DF51A0B1BD8340C4DE7DD848B988C0ACF0649566493F2408C508DDEBB99D5129FF8F1AF8CF5B9503E20FAE5A16B5AF702504B0304140006080800C3806A489D1AB93B330100009A0400003600000034344132353845382D414443362D343345372D383343452D3731393730373030323241
311
432F4173736574446174612F636E782E786D6CCD54B14EC33010FD95C87BEC04A48290E30AC1D209242A06B6AB7329561D3BB22F08FE1E3BCD002A62CA10C9D3F3BBBBE727BF93DBCFDE161F18A2F1AE6135AF58814EFBD6B863C346EACA5B566C950CDED30F1A2B1CF4D8B00C33258FC18FC30CB5D8C168336A8D3BCDE07D
311
8C487B38587CEA1EBC23741459A12DC4D8B0A8DFB1070E23F916E389B740C06B1E30FA31684C9DC8F43877D20181B065EAAAAA3765755DD6D5BEDEDC55E9DCBC4991994A1EBCB733DFA461C10F853E4F65AA92225F2B39063373F25B98FA4B233F182745622A1929244FE60AFA1A52050C83351A285927BC26A43291107A29
311
CE642545F6E097138FD8196772C92E0903F2E139C9C3400657E7C87F5A977766E72281D3B85E3F2E152EEFC2CBF4835ECF819C12B3B69C5C2AE4C6750BA4444C6B2485266F15F50D504B0304140006080800C3806A483752C770070100004F0300003400000034344132353845382D414443362D343345372D383343452D37
311
31393730373030323241432F536368656D61732F636E782E786D6CCD93BD4E442110855F85D02F7035598DE1B28585958D5AD921CCAE6481B9E1C7E8DB0B578ADDC44E8B4D28E0F06532E730C8DD67F0E403527618673A3141094483D6C5C34C6BD96F6E29D9299910CB094649D40166DA65AAE421615D866461AFABEFAA77
311
F138C47B0C01E3B37987A029315EE73CD3BC1E99AE052DE423B3BA6836B104196B32D02A14176054300974014BD59598B61B71BD99C4CBB4BD136DDDBC4ADE4925DF10FDE05D2C90702106DB26B67684E4FD5AC99ADC60BA07AA4E7B632D0DC91BA1642EA96530C8F2B534522F8B77469716155FC11F4649DEAD9E197E8008
311
C999CB747CD6DCBF597E8268213DB6574A4EFBCB74FE5B8F7F0B80AFB3DF46A07F05F50D504B0304140006080800C3806A48410A3D5871000000A40000002C00000034344132353845382D414443362D343345372D383343452D3731393730373030323241432F636E782E786D6C55CC4D0E82301086E1AB34B31774E7A22D
311
31F1069E60020334B633A63FC6E34B0909B07DDE2F9FEE7EC1AB2FC5E4840DDC9A2B28E25E06C7938192C7CB1D54677514C9871928C640062A83D55394F2D968A0118BAFEA1DBF377CA444F98919176EAB9FEAAB9F2960DA5BBB1E2ED3FA6FFF504B0304140006080800C3806A48B4C8E9927E000000A30000000700000063
311
6E782E786D6C4D8CD10AC22018465F45FE7BCB394B037588F920A3B931DA74D88C1E3F8D5D74F5C1E13B47769F75416F9F5E730C0A9A1301E4C3230E739814E47DC40250A7658A71FFBB010AFDEA15540C5A4E29E6ED40831FFBBC54BACCE17940C60CBD0827B0B9DB2B66ADE358B4D661DEDC38E184506A6C31CE5529F3EB
311
95AD79FD05504B0304140006080800C3806A4816E99B5DA600000035010000130000005B436F6E74656E745F54797065735D2E786D6C9590410E82301045AFD2740F4517C6180A0BF5065E60AC53688469D30E066F6F91AD9AB89CF9FFFD3F99BA9DC7413C3026E749CB4D59498164FCCD51A7E5C4B6D84BD136F5E5193089
311
ECA5A465CF1C0E4A25D3E308A9F401292BD6C711388FB15301CC1D3A54DBAADA29E38991B8E0254336F5092D4C038BF39CD76B6FC6A538AEBEA54A4B08617006389FA516557DE4AE8E7E70DE30729138228C5F021CD93F02D4FB0DCD0B504B0304140006080800C3806A483DEE336E64000000790000001B0000006175746F
311
6465736B2D64657369676E2D7061636B6167652E786D6C35CBC10E83200C00D05F21DCA56CA76D41FC96062B120735B69A7DBE268BB7777961F8D5AF396893C2ADB70FE7ADA196782C2DF776D7A97B5933C430F15651E5469C55D70F80A4992A3ADC954792C525AE70A1E4D6AD9816CC044FEFDF01FE3FDE907802504B0304
311
140006080800C3806A48176EC841F8000000960100003700000034344132353845382D414443362D343345372D383343452D3731393730373030323241432F4173736574446174612F636F72652E786D6C85505D6F842010FC2B66DF51D0ABD506B9186B7F419FFA4680B3E44E307C5CFAF30BA74DDAA726244B6667677687
311
9EBFD65B7157CE6B6B06202586421961A536CB00315C5007C59951676DF84583C2F0550D9061607471366E0724AC09CA64D458A90E907BAF0214E2963E0378F1A9565EF21812C35FCB8D8B2B5F5449CA9DC7688C5A1EA35A26357DD1CA011BFBB96E7143D0845B8C4E63FB86BA7A7E4263DFD7D3D891097733ADF230A341AF
311
3FEEC2291E94045663D222DC2082DF49FB82D37BFEA0556632EA834B371FA6F9BA6497B77EE581D36AEFFE518D9BFC5F356A139AFA50DD273C3092967C3418AD724AA93C224C3527CABE01504B0304140006080800C3806A48DF1F8E68F6000000940100003500000034344132353845382D414443362D343345372D383343
311
452D3731393730373030323241432F536368656D61732F636F72652E786D6C8550DB6E852010FC15B3EF28686BB5414E8CB13FD03EF58D00C7927304C3A5E9E717D426ED53139225B333B3BB432F5FEBBDF854CE6B6B06202586421961A536CB00315C5107C58551676DF84583C2F0550D9061607471366E2724AC09CA64D4
311
58A94E907BAF0214E29E3E0378F1A1565EF21812C3DFCA8D8B1B5F5449CA83C7688C5A9E522D939BBE6AE5808DFD5CB7B82168C22D460F63FB82BA7A7E4463DFD7D3D891097733ADB298D1A0D79FE9C2291E94045663D222DC2082DF48FB8CD37B7AA7556632EA834B379F43F375C05EF73D3DAD8EDE1FCFB8C9FF3DA336A1
311
A94FCF43E18191B4E2DE60B4CA19A5B207986ACE937D03504B0304140006080800C3806A48BF3A679800010000D70100002D00000034344132353845382D414443362D343345372D383343452D3731393730373030323241432F636F72652E786D6C9591D16E842010457FC5CC3B0AEAAADD201B63FD833EF58DCAAC25BB82
311
116CFAF9856AD3F6AD4D4820977307EE0CBFBCCFF7E40D57A7AD6981A5141234A355DA4C2D6CFE4A1A482E82AFD6FA1F182446CED8429441F069B5DB7248A3351E4D548D557888D239F4908CF77068C18DAF38CB546E3E10EE962E72BCC9095396EE9CE05ECF5FD67145E95181C829AB082D08A34FAC3AD3B0EA679E4552F0
311
4D1B5FE4C76338BFA04AECE2432410279EEDB781DAB43A18ADC21FF555E30AA22CBBFCD40C0DE91EFB8A94C55093A6E80752B3879AD694E679D78722C12CB8F36BE8CC5124F6E0AFF6DDF82BD9B6A87F26DB1D0E04FB0E95C5360B9E7DCE20EC7124E203504B0304140006080800C3806A48B0B3646A06010000B201000008
311
000000636F72652E786D6C8D50D16E842010FC15B2EF28686BBD06B91863BFA04F7DA3C059720A46F0D2FE7DE1A449FBD68464C9CCECCEECB2F3E732A39BDEBC71B6035A1040DA4AA78C9D3AD8C305B780CE9C6DCE855F3240562CBA83040367D3E6F63543D2D9A06D42AD533A83C27B1D00C9397E3AF0F2432FA2107B880A
311
7F2D5621AF62D2052D0E1D67C12C3FAD72D3226805BC22B4C1A4C694BCD2E699C4F7F4C6CAA4E46CDF8DCA5646457773317A03DE9FC6AA2135C50369087EE89B17DC56E323EE4FA76AE85B3A907664656AE6CC872DEE9C87C49C0179714BBEAC3C28CEDE9D9BB3208652C8D9F90B38616522FE84DE57F58FD0C686BACA038F
311
0E0F9CC64077221AA70BC6723F6FACE9DAFC1B504B01021400140006080800C3806A484278A552D9000000200100004F000000000000000000000000000000000034344132353845382D414443362D343345372D383343452D3731393730373030323241432F4173736574446174612F446566696E6974696F6E4974657261
311
746F7250726F706572746965732E62696E504B01021400140006080800C3806A48042CCD10080100003002000045000000000000000000000000004601000034344132353845382D414443362D343345372D383343452D3731393730373030323241432F4173736574446174612F496E7374616E636550726F706572746965
311
732E62696E504B01021400140006080800C3806A4828BB58AF800100009E0500003D00000000000000000000000000B102000034344132353845382D414443362D343345372D383343452D3731393730373030323241432F536368656D61732F436F6D6D6F6E536368656D612E786D6C504B01021400140006080800C3806A
311
482CCEBD668A040000E01200003E000000000000000000000000008C04000034344132353845382D414443362D343345372D383343452D3731393730373030323241432F536368656D61732F47656E65726963536368656D612E786D6C504B01021400140006080800C3806A486180134D5F0100006B030000450000000000
311
00000000000000007209000034344132353845382D414443362D343345372D383343452D3731393730373030323241432F536368656D61732F52656E6465724D6174657269616C536368656D612E786D6C504B01021400140006080800C3806A48B71796DF51000000570000004700000000000000000000000000340B0000
311
34344132353845382D414443362D343345372D383343452D3731393730373030323241432F4173736574446174612F41737365745461626C654F66436F6E74656E74732E62696E504B01021400140006080800C3806A48F865834058000000680000004500000000000000000000000000EA0B000034344132353845382D41
311
4443362D343345372D383343452D3731393730373030323241432F4173736574446174612F53747265616D56657273696F6E5461626C652E696E66504B01021400140006080800C3806A489D1AB93B330100009A0400003600000000000000000000000000A50C000034344132353845382D414443362D343345372D383343
311
452D3731393730373030323241432F4173736574446174612F636E782E786D6C504B01021400140006080800C3806A483752C770070100004F03000034000000000000000000000000002C0E000034344132353845382D414443362D343345372D383343452D3731393730373030323241432F536368656D61732F636E782E
311
786D6C504B01021400140006080800C3806A48410A3D5871000000A40000002C00000000000000000000000000850F000034344132353845382D414443362D343345372D383343452D3731393730373030323241432F636E782E786D6C504B01021400140006080800C3806A48B4C8E9927E000000A3000000070000000000
311
000000000000000040100000636E782E786D6C504B01021400140006080800C3806A4816E99B5DA6000000350100001300000000000000000000000000E31000005B436F6E74656E745F54797065735D2E786D6C504B01021400140006080800C3806A483DEE336E64000000790000001B00000000000000000000000000BA
311
1100006175746F6465736B2D64657369676E2D7061636B6167652E786D6C504B01021400140006080800C3806A48176EC841F80000009601000037000000000000000000000000005712000034344132353845382D414443362D343345372D383343452D3731393730373030323241432F4173736574446174612F636F7265
311
2E786D6C504B01021400140006080800C3806A48DF1F8E68F6000000940100003500000000000000000000000000A413000034344132353845382D414443362D343345372D383343452D3731393730373030323241432F536368656D61732F636F72652E786D6C504B01021400140006080800C3806A48BF3A679800010000
311
D70100002D00000000000000000000000000ED14000034344132353845382D414443362D343345372D383343452D3731393730373030323241432F636F72652E786D6C504B01021400140006080800C3806A48B0B3646A06010000B2010000080000000000000000000000000038160000636F72652E786D6C504B05060000
311
0000110011005A060000641700000000
310
504B0304140006080800C3806A48000000000000000000000000370000006662782F38463045363730392D343232382D343230322D383339312D3238463546333844343544322F617474726962757465732E62696E504B0304140006080800C3806A48000000000000000000000000350000006662782F3846304536373039
310
2D343232382D343230322D383339312D3238463546333844343544322F76657274696365732E62696E504B0304140006080800C3806A48F270F1330600000004000000360000006662782F38463045363730392D343232382D343230322D383339312D3238463546333844343544322F747269616E676C65732E62696E6366
310
60600000504B0304140006080800C3806A4851464CB48900000043010000360000006662782F38463045363730392D343232382D343230322D383339312D3238463546333844343544322F6469726563746F72792E786D6C9D8F310EC2300C45AF127987122606C71DD918B841D4B851A43646695A717C52A85029031293A5
310
A76FBF6FACEF7DA7264E43906840EF0FA03836E242F406C6DCEE4EA06AC22492573150D1F66C60C640E8938CB705396EEDD86DE9B5042FE27813D640EA63BB001C722AF6E55CB61E4863F58284D5D3F53DD715CE1C3985E63FD7F1B7EBDD617E9F1E504B0304140006080800C3806A484E663E062C0700001A1C0000340000
310
006662782F38463045363730392D343232382D343230322D383339312D3238463546333844343544322F6F626A656374732E786D6CDD59596FDB3810FE2B84F6D9BA7C242E1417B11D174691B6A8D1C5BE09B4443BDCE80229E5D85FBF438A942559B6956C0B149B00B14293C3996FEE91F7F1258ED013619CA6C98DE198B6
310
814812A4214DF6374691EF06D706FA38431E4BD3BCB6CF40098EC98D21968D99B7676991A9A590EC7011B55757F3BF100F48420C144498F31B83070F24C6262EF23424FCD10C718ECDFDEEC574CC726393EC9EE1ECA17555861949726015D613A0A238709AFF8248D6CCB3C486C636B7DFB6E1996D9614BCC9284D788E93E0
310
88AB161DB71F574367B4BC73C7D3C178341A0E4613D719CC57F3E5C0B91ADA8BC96231BDBD9B1A68E66DD334AA14909124042DBE1A33C7B3C43795F80A852EBE83344948A0D0ECDA1012459712DEC6A401AC2345AB29A494B5B630EC29FC896DBD4069B0D4405B0BA73FEBD69B6EFF0610781F2B659C082BE739035D2BEC4B
310
7FB03DAB5C6DE8857214E39C308A2314D12DC30C14045B4B0535C8086F11A490C04C6A51D3ABF30A867DD997BAB8DC155124FCD798494FF3C11F49CE2567F41FC20EDCD76F039E40DA8226F9B512367FCD80C4D4B3E462F9DDD0555F9640A25D84F7602D20A6D834745B782D442C582F8DD9E7D5F66523E243F7E5194B33C2
310
726179D29995DF690DD64C0B8CAF072825AE4DDD1D50F90ED07F01E42B5E90079A63F465F432D2B2339CF05DCA62D00EB2D1C0863F36128F474F9E551D9E21D48895A73005B7FD499836C468DC5D8374E63D81D1A76CA884DB0438029BBEA789F073301414A5B004F17EB77D31666B08A6B008A77004D2C3AF678947041F25
310
1D88372D0D7585DF1E8AD20ED3F6B383AE3E81CD301A54AA6AC8780ADFF14FC1F776B9F9BC29D80E07E45E39F692EC68427348A6DD0C35406FB8FC8FF517E99147F234760570CF3E1581A3432F1BA517241503AC883C5CAA46AEDC5370F728C209490BAED6BB0255904629F3B7AF7EE9C39D77FDA98DA0BC0CFC5B58406730
310
83EC1E309A09508C9912AF8A84E6012711079501EE4BA5FA5B1C3C0A78FD0022D67BF800ABC5AC4DB488331FC7699188F07D6CDE6DD1CCA12D7F1C67EADA53F77A3AD1C272495E7B8F0E0D15F3E29E1867272E5934B4A5A286A65CFAD108A265970401D44C45EEA7190E68DE6D0B2D21948702D867590EE96E577008EA9DB0
310
B4383687CE18D9B5BFD525E7B95797F834C67BE2EFB0C8709DF73500AA886B093A91D94729E734215C56284791AB858A6D422028ED5653ED3042CAFD98E4F83DF627535ECBFC18D9453ED452B9A8662F5B9F665065CF531445E59626BE94FFD5E738CEA2B24ABB8481E3B66EE8C455302DAE78027BF371EEDB219145F725EA
310
555CD0F8F6A23E7D37F913F030FCCBE1D1575028BD21475ED6AC638E9DA9F8B986A032193BC32BAD884B58E9AB7251834405544DC1ABFF4CE8FEA15F40EB750F27D1CEA75154C47E990F7212430986F382F5F2D7C9D83E52BE8A0B2D87A8DDB4A31114C8BD83A6AC3D74F50152C9E2E354D0AC5D0342D1047AB45E821C49D1
310
69C25217B21F156DD765EDBF9DEA7F8E97F53EE591BC3EA72CECE4B45946E80A4C170C225CAA0C57D991A43CF3EACE17CBC6E5320E234D44C5B7B24B5016C2C813158309D90175F60FFC19E70104D28DFC1CCCC12342121E6A8A063935E6306670A9A6A6EBD47AA703C14EA48F46E1B51601358669031671F65E3C44DF31A8
310
1A2A3F6EA9AAC62AD7D722B199305839F07186D6D74F9B161558E97DFA9BC0883CB728A8D58528E4CE90FAB13ED4AB2D0A4AA21FEB33C7F38722DE26988ACC28CC0287D9878FB297BCB1A051B0EE6EE7EEF26A351F4C9DD56D39BBB89E2CEE06A3EBD5C29EDA8EEB8CE616233C2D5840B8E55AB6AF6BA72CD96BC328A1EBD3
310
51C054E172EBA7EDB9ADE0FF714711A55B7CCA167FD786A22AF74441D6F2C5BE0D4567A0DEBEADFA778E027577127B53E55CCE0AB4819F4F5B108C74BEEF5F5A68D2BA92E8E6B99611DF98784F762BBF3CC734027A677E68ECE80AF9CD580CB3A78E2CA5BB5B19D756EE62315EBA5783D5DDD5723072E7EE60BABA9D0C9CD5
310
6A3A19D9A3D16A09AD91EA23542EEC9B577E8B18AA99AD8DD1601ACCD388C2509E84684F52E88060EAD023BEB29870D9D94001A0D2B87E23D0E3F4533953CDF136D2A783070C83E94865E42280A128741D37865A477FC018544C22E570CA7C84C4A3ACDD4005A3370698404E21BF985B1867C9E1A1A4DE1A5782DA70B2173D
310
5379AAFAFF704CA003B67290ABDAD307172559C33A613890C9F70410ED7441F27ED1353B08E7F0B82DF24A98C3C2411A05827E21500A0753BF4705EF0B049EF37239A6DCD380A4D764FEAC1D94540739667B395EAFE17DBBFC6689C9F8FA2BCAA2622FD4792EDF37280D449D1115E510CA03C350626658F4E18B0FD63796C2
310
2BA618AD281881B548E3384DD43FB7EA1515DA3CC00BA7D0D2C33E28596C676CC98A470DF46162C5898943FE080BA05446C554B404B7A1FA2A30D554AF7521B400C71AFBD74BA4C27FAD78AD17AD021839CD47E042E22D8E7098FA86DAE811BC00B82A27B4D5835EF02C06E3EFD9BF504B0304140006080800C3806A48213B
310
B0503D01000046050000300000006662782F38463045363730392D343232382D343230322D383339312D3238463546333844343544322F636E782E786D6CCD94C14EC42010865F85706F6935598DA16CE2C127F060BC513A5B7129343018F7ED8595AE1AB3C6C326BB090732FC24FF37F367F8FA7D32E40D7CD0CE76B4AD1B
310
4AC02A37683B7634E2A6BAA5642DB8770EBFC928B172828EE632157CF42ECEA534C0464693AB46DB6D294A44AFFB881028514686D0D1A05E6092B58CE80608DB7A9028EBB6F6105CF40AD27FD41394FFCA834418A8B86ADA55D55C576DF3D8AEEE9A746E9E39CB4AC17BE74CD16B8BE0DD4C944B179BCC349CE567C1A3D745
310
9309A8F87256F7DA7296DE050FC9AD1D8B0E7773D6CDB3D14A626A13730A01AB24023971F629169C65DE1FD40FF74F8B0332680F0A9DDF9DA901EDB1061C8CD52909FFE3DF0BFFC676FD6BC23DD7B48FC2165B27435DD21A525C7FCF3FA548DAD15C5EE80FC64E9FF9B44A50ABCB435E7C9D8898ED575E1A7ADE80E203504B
310
0304140006080800C3806A48A2C39CED7D000000A30000000B0000006662782F636E782E786D6C4D8C410E83201444AF42FE1E8BA8ED3701DC58EE612A1A5284868AE9F10B8D8B6EE6252F332386CFE6C861E2DB062FA1AE1810E31F61B67E9590F6852290418918C2FE5703E2A7CD48281A94586348AF53CD6699922BD659
310
FF3C256A76BFDE584F5BCE3107E3149BBEA61C75A71B1CDB6EE4797129938CDF5F66B9575F504B0304140006080800C3806A48A6D797065F0000008200000007000000636E782E786D6C4DCB3B0E80201045D1AD90E9FD7516806B51190811670C8A61F982B1B0BAC9C97B72CA7B1037C6D3332918DA1E04D2CAC69353902E
310
DB8C20262D23F3F59B81A079470595414B17391D1F19B4730A5583A7ED43BBE4025D9592775E5ADFFA01504B0304140006080800C3806A484FEB6A7CA0000000F4000000130000005B436F6E74656E745F54797065735D2E786D6C7D8F4B0EC2300C44AF1279DFA6B0400835ED02B8011730C16D239A8F121795DB93D02D62
310
69CFBC19BBED573B8B17C564BC53B0AB1B10E4B47F18372A5878A88E20FAAEBDBD032591BD2E299898C349CAA427B2986A1FC86565F0D122E7318E32A07EE24872DF3407A9BD63725C71C980AEBDD080CBCCE2BAE6F5D69B7110E7CD57AA146008B3D1C8F92C5954F993BB1BF787F39A89ABC491D09600F9FDA2FB00504B03
310
04140006080800C3806A483DEE336E64000000790000001B0000006175746F6465736B2D64657369676E2D7061636B6167652E786D6C35CBC10E83200C00D05F21DCA56CA76D41FC96062B120735B69A7DBE268BB7777961F8D5AF396893C2ADB70FE7ADA196782C2DF776D7A97B5933C430F15651E5469C55D70F80A4992A
310
3ADC954792C525AE70A1E4D6AD9816CC044FEFDF01FE3FDE907802504B0304140006080800C3806A48A81D3FB5F8000000960100003B0000006662782F38463045363730392D343232382D343230322D383339312D3238463546333844343544322F7265736F75726365732F636F72652E786D6C8550CB6E833010FC15B477
310
0386809BCA385213FEA0A7DE2CB32156828DFCA8FAF9B50395DA53254B6BCDCECCEE0E3F7D2D8FE2139DD7D60C40CB1A0A34CA4EDACC03C470252F509C0477D6865F34288C5C70800C83E0B3B371DD21654D4093516327DC41E93D0628D4237D06F0EA868B2C650C89E1EFE52AD55DCE58D272E3091EA39E76A99E929BBE6A
310
74208EAC3D8FC733231DEB7A7260174ADE8E878ED46333367D7BE95937F22A8B050F7AF999AE1CCA801388A6A63DA95B42EB77DABFD6E9B10F5E65A6E03EB874F33E345F07C2A1B7D129F4BCDABA7F5CE33AFDEF1AB5096DB3BB6E0A0F82A6259F0DC1AB9C522ACF0853CD898A6F504B0304140006080800C3806A484C0B8E
310
07F0000000B1010000310000006662782F38463045363730392D343232382D343230322D383339312D3238463546333844343544322F636F72652E786D6C8D50CB6EC32010FC156BEFD880138754985C527F414FBD21200E4A0C168FAA9F5F485CA9BD45422C1A667666979FBE977BF36542B4DE8D405A0C8D71CA6BEBE611
310
72BA2006CD49F0E07DFA4383C6C9C58C5061107C0E3EAF1BA4BC4BC655D4796D3650C6681234EA5E1E234475358B6C654E85116FED2AD54DCEA625ED932778B2CBAF54052393D120282603C23D22F8830C6FB89CC327EF2A53F09CADDEACAC2EEEF6624D00C126FC3E1CF011ED2865E5C214B1FE481065D37EEAD979B73F53
310
DE55B1E0318532F3D6A44EF7AAFC29FC9739AFFA85CCD6A59E6E864F4504414A9EC787E05D5D60298FED965A972D7E00504B0304140006080800C3806A485A1B319352010000DD0200000C0000006662782F636F72652E786D6C8D52CB6E833010FC15E4BB7906682AE3484DF8839E7A738C43AD808D8C8DF2F95DF310CDA1
310
0F81B035BB33BB33829C1E7D174CC28C52AB0A25618C02A1B86EA46A2BE4EC0DBFA0E04489D1DA7E6B438162BDA890871125ADD16E5821AE9515CAA34A376205D9380A8B02DEC1A54223FF143D0B99B3D031DEC381F13B6B4598844B1F25CEC966A5CA06D4E44D0A83E8B1CCCEF5F15CE2BCCC0B7C282F097E3B1E721CD769
310
9D16D9A528F39A449E4C8995FD369D1BC1AC68104DE3A4C0718693F83D295E6378CB0F12F94E4A466BC0F33AD4BB43F4767D9068C19FF4DCD0FCADE7A4B259BAEA2D8C11D104D69B0B94443E1F38E6F09E3384C1909F65D76EB370076812DC6A73804AA3DD5E9A58E70448C7C1FC9068A982F22CF0934EFA8BCEEF1A101453
310
2DACC62C5CAFCEFAE9CF3B0DC2E0C93E02A54DCFBA7DB965C5FDBB0F7AB2B4D1B9EEB4F90F7BB3BA8519F91F937E01504B0304140006080800C3806A48FF27F13B07010000B201000008000000636F72652E786D6C8D50416EC32010FC0ADA3B36D8B1692A4CA426FE414FBD51435C141B2C0351FBFB42EC4AEDAD12D2A299
310
D99DD9E5A7CF794277BD7AE36C07B42080B41D9C3276EC20862B7E0274127C752EFC9201B272D61D6418041F5717971D1A9C0DDA66D43AA577507AAF03A0614A9F0EFCF0A16759C81892C2DF8A450E3739EA82169B4EF060E69FD661D5326805A222B4C5A4C694BCD2F699A4C7DE78999582C768D46E6554723757A3571047
310
569FFBE399E186352D3EB00BC52FC74383495FF5555B5F5AD6F4BCCCCD82FBB0A69DF7212967405EDEB32F2F374AF077E7A65D904229E4ECF40582F032137F42C745FD23B4B1A1AEF6815B87074153A007918CF30553799C37D57C6DF10D504B01021400140006080800C3806A480000000000000000000000003700000000
310
000000000000000000000000006662782F38463045363730392D343232382D343230322D383339312D3238463546333844343544322F617474726962757465732E62696E504B01021400140006080800C3806A480000000000000000000000003500000000000000000000000000550000006662782F38463045363730392D
310
343232382D343230322D383339312D3238463546333844343544322F76657274696365732E62696E504B01021400140006080800C3806A48F270F13306000000040000003600000000000000000000000000A80000006662782F38463045363730392D343232382D343230322D383339312D3238463546333844343544322F
310
747269616E676C65732E62696E504B01021400140006080800C3806A4851464CB489000000430100003600000000000000000000000000020100006662782F38463045363730392D343232382D343230322D383339312D3238463546333844343544322F6469726563746F72792E786D6C504B01021400140006080800C380
310
6A484E663E062C0700001A1C00003400000000000000000000000000DF0100006662782F38463045363730392D343232382D343230322D383339312D3238463546333844343544322F6F626A656374732E786D6C504B01021400140006080800C3806A48213BB0503D0100004605000030000000000000000000000000005D
310
0900006662782F38463045363730392D343232382D343230322D383339312D3238463546333844343544322F636E782E786D6C504B01021400140006080800C3806A48A2C39CED7D000000A30000000B00000000000000000000000000E80A00006662782F636E782E786D6C504B01021400140006080800C3806A48A6D797
310
065F0000008200000007000000000000000000000000008E0B0000636E782E786D6C504B01021400140006080800C3806A484FEB6A7CA0000000F40000001300000000000000000000000000120C00005B436F6E74656E745F54797065735D2E786D6C504B01021400140006080800C3806A483DEE336E6400000079000000
310
1B00000000000000000000000000E30C00006175746F6465736B2D64657369676E2D7061636B6167652E786D6C504B01021400140006080800C3806A48A81D3FB5F8000000960100003B00000000000000000000000000800D00006662782F38463045363730392D343232382D343230322D383339312D3238463546333844
310
343544322F7265736F75726365732F636F72652E786D6C504B01021400140006080800C3806A484C0B8E07F0000000B10100003100000000000000000000000000D10E00006662782F38463045363730392D343232382D343230322D383339312D3238463546333844343544322F636F72652E786D6C504B01021400140006
310
080800C3806A485A1B319352010000DD0200000C00000000000000000000000000101000006662782F636F72652E786D6C504B01021400140006080800C3806A48FF27F13B07010000B201000008000000000000000000000000008C110000636F72652E786D6C504B0506000000000E000E0080040000B91200000000
  0
XRECORD
  5
6C3F
102
{ACAD_REACTORS
330
6C3A
102
}
330
6C3A
100
AcDbXrecord
280
     1
270
     1
271
     1
  0
XRECORD
  5
6C3E
102
{ACAD_REACTORS
330
6C3A
102
}
330
6C3A
100
AcDbXrecord
280
     1
270
     1
271
     1
  0
XRECORD
  5
6C40
102
{ACAD_REACTORS
330
6C3A
102
}
330
6C3A
100
AcDbXrecord
280
     1
270
     1
271
     1
  0
XRECORD
  5
6C3D
102
{ACAD_REACTORS
330
6C3A
102
}
330
6C3A
100
AcDbXrecord
280
     1
270
     1
271
     1
  0
XRECORD
  5
6E73
102
{ACAD_REACTORS
330
6E72
102
}
330
6E72
100
AcDbXrecord
280
     1
102
DISPLAYNAME
  1
Imperial24
102
FLAGS
 90
        0
  0
CELLSTYLEMAP
  5
6E71
102
{ACAD_REACTORS
330
6E20
102
}
330
6E20
100
AcDbCellStyleMap
 90
        3
300
CELLSTYLE
  1
TABLEFORMAT_BEGIN
 90
        5
170
     1
 91
        0
 92
    32768
 62
   257
 93
        1
300
CONTENTFORMAT
  1
CONTENTFORMAT_BEGIN
 90
        0
 91
        0
 92
      512
 93
        0
300

 40
0.0
140
1.0
 94
        5
 62
     0
340
11
144
0.25
309
CONTENTFORMAT_END
171
     1
301
MARGIN
  1
CELLMARGIN_BEGIN
 40
0.06
 40
0.06
 40
0.06
 40
0.06
 40
0.18
 40
0.18
309
CELLMARGIN_END
 94
        6
 95
        1
302
GRIDFORMAT
  1
GRIDFORMAT_BEGIN
 90
        0
 91
        1
 62
     0
 92
       -2
340
0
 93
        0
 40
0.045
309
GRIDFORMAT_END
 95
        2
302
GRIDFORMAT
  1
GRIDFORMAT_BEGIN
 90
        0
 91
        1
 62
     0
 92
       -2
340
0
 93
        0
 40
0.045
309
GRIDFORMAT_END
 95
        4
302
GRIDFORMAT
  1
GRIDFORMAT_BEGIN
 90
        0
 91
        1
 62
     0
 92
       -2
340
0
 93
        0
 40
0.045
309
GRIDFORMAT_END
 95
        8
302
GRIDFORMAT
  1
GRIDFORMAT_BEGIN
 90
        0
 91
        1
 62
     0
 92
       -2
340
0
 93
        0
 40
0.045
309
GRIDFORMAT_END
 95
       16
302
GRIDFORMAT
  1
GRIDFORMAT_BEGIN
 90
        0
 91
        1
 62
     0
 92
       -2
340
0
 93
        0
 40
0.045
309
GRIDFORMAT_END
 95
       32
302
GRIDFORMAT
  1
GRIDFORMAT_BEGIN
 90
        0
 91
        1
 62
     0
 92
       -2
340
0
 93
        0
 40
0.045
309
GRIDFORMAT_END
309
TABLEFORMAT_END
  1
CELLSTYLE_BEGIN
 90
        1
 91
        1
300
_TITLE
309
CELLSTYLE_END
300
CELLSTYLE
  1
TABLEFORMAT_BEGIN
 90
        5
170
     1
 91
        0
 92
        0
 62
   257
 93
        1
300
CONTENTFORMAT
  1
CONTENTFORMAT_BEGIN
 90
        0
 91
        0
 92
      512
 93
        0
300

 40
0.0
140
1.0
 94
        5
 62
     0
340
11
144
0.18
309
CONTENTFORMAT_END
171
     1
301
MARGIN
  1
CELLMARGIN_BEGIN
 40
0.06
 40
0.06
 40
0.06
 40
0.06
 40
0.18
 40
0.18
309
CELLMARGIN_END
 94
        6
 95
        1
302
GRIDFORMAT
  1
GRIDFORMAT_BEGIN
 90
        0
 91
        1
 62
     0
 92
       -2
340
0
 93
        0
 40
0.045
309
GRIDFORMAT_END
 95
        2
302
GRIDFORMAT
  1
GRIDFORMAT_BEGIN
 90
        0
 91
        1
 62
     0
 92
       -2
340
0
 93
        0
 40
0.045
309
GRIDFORMAT_END
 95
        4
302
GRIDFORMAT
  1
GRIDFORMAT_BEGIN
 90
        0
 91
        1
 62
     0
 92
       -2
340
0
 93
        0
 40
0.045
309
GRIDFORMAT_END
 95
        8
302
GRIDFORMAT
  1
GRIDFORMAT_BEGIN
 90
        0
 91
        1
 62
     0
 92
       -2
340
0
 93
        0
 40
0.045
309
GRIDFORMAT_END
 95
       16
302
GRIDFORMAT
  1
GRIDFORMAT_BEGIN
 90
        0
 91
        1
 62
     0
 92
       -2
340
0
 93
        0
 40
0.045
309
GRIDFORMAT_END
 95
       32
302
GRIDFORMAT
  1
GRIDFORMAT_BEGIN
 90
        0
 91
        1
 62
     0
 92
       -2
340
0
 93
        0
 40
0.045
309
GRIDFORMAT_END
309
TABLEFORMAT_END
  1
CELLSTYLE_BEGIN
 90
        2
 91
        1
300
_HEADER
309
CELLSTYLE_END
300
CELLSTYLE
  1
TABLEFORMAT_BEGIN
 90
        5
170
     1
 91
        0
 92
        0
 62
   257
 93
        1
300
CONTENTFORMAT
  1
CONTENTFORMAT_BEGIN
 90
        0
 91
        0
 92
      512
 93
        0
300

 40
0.0
140
1.0
 94
        2
 62
     0
340
11
144
0.18
309
CONTENTFORMAT_END
171
     1
301
MARGIN
  1
CELLMARGIN_BEGIN
 40
0.06
 40
0.06
 40
0.06
 40
0.06
 40
0.18
 40
0.18
309
CELLMARGIN_END
 94
        6
 95
        1
302
GRIDFORMAT
  1
GRIDFORMAT_BEGIN
 90
        0
 91
        1
 62
     0
 92
       -2
340
0
 93
        0
 40
0.045
309
GRIDFORMAT_END
 95
        2
302
GRIDFORMAT
  1
GRIDFORMAT_BEGIN
 90
        0
 91
        1
 62
     0
 92
       -2
340
0
 93
        0
 40
0.045
309
GRIDFORMAT_END
 95
        4
302
GRIDFORMAT
  1
GRIDFORMAT_BEGIN
 90
        0
 91
        1
 62
     0
 92
       -2
340
0
 93
        0
 40
0.045
309
GRIDFORMAT_END
 95
        8
302
GRIDFORMAT
  1
GRIDFORMAT_BEGIN
 90
        0
 91
        1
 62
     0
 92
       -2
340
0
 93
        0
 40
0.045
309
GRIDFORMAT_END
 95
       16
302
GRIDFORMAT
  1
GRIDFORMAT_BEGIN
 90
        0
 91
        1
 62
     0
 92
       -2
340
0
 93
        0
 40
0.045
309
GRIDFORMAT_END
 95
       32
302
GRIDFORMAT
  1
GRIDFORMAT_BEGIN
 90
        0
 91
        1
 62
     0
 92
       -2
340
0
 93
        0
 40
0.045
309
GRIDFORMAT_END
309
TABLEFORMAT_END
  1
CELLSTYLE_BEGIN
 90
        3
 91
        2
300
_DATA
309
CELLSTYLE_END
  0
ENDSEC
  0
EOF
