  0
SECTION
  2
HEADER
  9
$ACADVER
  1
AC1027
  9
$ACADMAINTVER
 70
    55
  9
$DWGCODEPAGE
  3
ANSI_932
  9
$LASTSAVEDBY
  1
ce1cc169
  9
$REQUIREDVERSIONS
160
                 0
  9
$INSBASE
 10
0.0
 20
0.0
 30
0.0
  9
$EXTMIN
 10
-83.90588178115756
 20
-365.6576913624973
 30
0.0
  9
$EXTMAX
 10
354.4656248643129
 20
332.5142024541258
 30
0.0
  9
$LIMMIN
 10
-296.316999476111
 20
-370.7034300441653
  9
$LIMMAX
 10
623.3128432133979
 20
328.6261559379898
  9
$ORTHOMODE
 70
     0
  9
$REGENMODE
 70
     1
  9
$FILLMODE
 70
     1
  9
$QTEXTMODE
 70
     0
  9
$MIRRTEXT
 70
     1
  9
$LTSCALE
 40
10.0
  9
$ATTMODE
 70
     1
  9
$TEXTSIZE
 40
5.0
  9
$TRACEWID
 40
0.05
  9
$TEXTSTYLE
  7
STANDARD1
  9
$CLAYER
  8
30
  9
$CELTYPE
  6
CONTINUOUS
  9
$CECOLOR
 62
   256
  9
$CELTSCALE
 40
1.0
  9
$DISPSILH
 70
     0
  9
$DIMSCALE
 40
1.0
  9
$DIMASZ
 40
2.0
  9
$DIMEXO
 40
1.0
  9
$DIMDLI
 40
0.5
  9
$DIMRND
 40
0.0
  9
$DIMDLE
 40
0.0
  9
$DIMEXE
 40
0.5
  9
$DIMTP
 40
0.0
  9
$DIMTM
 40
0.0
  9
$DIMTXT
 40
4.0
  9
$DIMCEN
 40
0.09
  9
$DIMTSZ
 40
0.0
  9
$DIMTOL
 70
     0
  9
$DIMLIM
 70
     0
  9
$DIMTIH
 70
     0
  9
$DIMTOH
 70
     1
  9
$DIMSE1
 70
     0
  9
$DIMSE2
 70
     0
  9
$DIMTAD
 70
     3
  9
$DIMZIN
 70
    12
  9
$DIMBLK
  1
OPEN
  9
$DIMASO
 70
     1
  9
$DIMSHO
 70
     1
  9
$DIMPOST
  1

  9
$DIMAPOST
  1

  9
$DIMALT
 70
     0
  9
$DIMALTD
 70
     2
  9
$DIMALTF
 40
25.4
  9
$DIMLFAC
 40
1.0
  9
$DIMTOFL
 70
     0
  9
$DIMTVP
 40
0.0
  9
$DIMTIX
 70
     0
  9
$DIMSOXD
 70
     0
  9
$DIMSAH
 70
     0
  9
$DIMBLK1
  1

  9
$DIMBLK2
  1

  9
$DIMSTYLE
  2
STANDARD
  9
$DIMCLRD
 70
     0
  9
$DIMCLRE
 70
     0
  9
$DIMCLRT
 70
     0
  9
$DIMTFAC
 40
1.0
  9
$DIMGAP
 40
1.0
  9
$DIMJUST
 70
     0
  9
$DIMSD1
 70
     0
  9
$DIMSD2
 70
     0
  9
$DIMTOLJ
 70
     1
  9
$DIMTZIN
 70
     0
  9
$DIMALTZ
 70
     0
  9
$DIMALTTZ
 70
     0
  9
$DIMUPT
 70
     0
  9
$DIMDEC
 70
     1
  9
$DIMTDEC
 70
     1
  9
$DIMALTU
 70
     2
  9
$DIMALTTD
 70
     2
  9
$DIMTXSTY
  7
STANDARD
  9
$DIMAUNIT
 70
     0
  9
$DIMADEC
 70
     0
  9
$DIMALTRND
 40
0.0
  9
$DIMAZIN
 70
     3
  9
$DIMDSEP
 70
    46
  9
$DIMATFIT
 70
     3
  9
$DIMFRAC
 70
     0
  9
$DIMLDRBLK
  1
OPEN
  9
$DIMLUNIT
 70
     2
  9
$DIMLWD
 70
    -2
  9
$DIMLWE
 70
    -2
  9
$DIMTMOVE
 70
     0
  9
$DIMFXL
 40
1.0
  9
$DIMFXLON
 70
     0
  9
$DIMJOGANG
 40
0.7853981633974483
  9
$DIMTFILL
 70
     0
  9
$DIMTFILLCLR
 70
     0
  9
$DIMARCSYM
 70
     0
  9
$DIMLTYPE
  6

  9
$DIMLTEX1
  6

  9
$DIMLTEX2
  6

  9
$DIMTXTDIRECTION
 70
     0
  9
$LUNITS
 70
     2
  9
$LUPREC
 70
     4
  9
$SKETCHINC
 40
0.1
  9
$FILLETRAD
 40
0.0
  9
$AUNITS
 70
     0
  9
$AUPREC
 70
     0
  9
$MENU
  1
.
  9
$ELEVATION
 40
0.0
  9
$PELEVATION
 40
0.0
  9
$THICKNESS
 40
0.0
  9
$LIMCHECK
 70
     0
  9
$CHAMFERA
 40
0.0
  9
$CHAMFERB
 40
0.0
  9
$CHAMFERC
 40
0.0
  9
$CHAMFERD
 40
0.0
  9
$SKPOLY
 70
     0
  9
$TDCREATE
 40
2452286.555658658
  9
$TDUCREATE
 40
2452286.180658658
  9
$TDUPDATE
 40
2459495.426914676
  9
$TDUUPDATE
 40
2459495.051914676
  9
$TDINDWG
 40
1.2366787847
  9
$TDUSRTIMER
 40
1.2366775347
  9
$USRTIMER
 70
     1
  9
$ANGBASE
 50
0.0
  9
$ANGDIR
 70
     0
  9
$PDMODE
 70
     0
  9
$PDSIZE
 40
0.0
  9
$PLINEWID
 40
0.0
  9
$SPLFRAME
 70
     0
  9
$SPLINETYPE
 70
     6
  9
$SPLINESEGS
 70
     8
  9
$HANDSEED
  5
723D
  9
$SURFTAB1
 70
     6
  9
$SURFTAB2
 70
     6
  9
$SURFTYPE
 70
     6
  9
$SURFU
 70
     6
  9
$SURFV
 70
     6
  9
$UCSBASE
  2

  9
$UCSNAME
  2

  9
$UCSORG
 10
0.0
 20
0.0
 30
0.0
  9
$UCSXDIR
 10
1.0
 20
0.0
 30
0.0
  9
$UCSYDIR
 10
0.0
 20
1.0
 30
0.0
  9
$UCSORTHOREF
  2

  9
$UCSORTHOVIEW
 70
     0
  9
$UCSORGTOP
 10
0.0
 20
0.0
 30
0.0
  9
$UCSORGBOTTOM
 10
0.0
 20
0.0
 30
0.0
  9
$UCSORGLEFT
 10
0.0
 20
0.0
 30
0.0
  9
$UCSORGRIGHT
 10
0.0
 20
0.0
 30
0.0
  9
$UCSORGFRONT
 10
0.0
 20
0.0
 30
0.0
  9
$UCSORGBACK
 10
0.0
 20
0.0
 30
0.0
  9
$PUCSBASE
  2

  9
$PUCSNAME
  2

  9
$PUCSORG
 10
0.0
 20
0.0
 30
0.0
  9
$PUCSXDIR
 10
1.0
 20
0.0
 30
0.0
  9
$PUCSYDIR
 10
0.0
 20
1.0
 30
0.0
  9
$PUCSORTHOREF
  2

  9
$PUCSORTHOVIEW
 70
     0
  9
$PUCSORGTOP
 10
0.0
 20
0.0
 30
0.0
  9
$PUCSORGBOTTOM
 10
0.0
 20
0.0
 30
0.0
  9
$PUCSORGLEFT
 10
0.0
 20
0.0
 30
0.0
  9
$PUCSORGRIGHT
 10
0.0
 20
0.0
 30
0.0
  9
$PUCSORGFRONT
 10
0.0
 20
0.0
 30
0.0
  9
$PUCSORGBACK
 10
0.0
 20
0.0
 30
0.0
  9
$USERI1
 70
     0
  9
$USERI2
 70
     0
  9
$USERI3
 70
     0
  9
$USERI4
 70
     0
  9
$USERI5
 70
     0
  9
$USERR1
 40
0.0
  9
$USERR2
 40
0.0
  9
$USERR3
 40
0.0
  9
$USERR4
 40
0.0
  9
$USERR5
 40
0.0
  9
$WORLDVIEW
 70
     1
  9
$SHADEDGE
 70
     3
  9
$SHADEDIF
 70
    70
  9
$TILEMODE
 70
     1
  9
$MAXACTVP
 70
    48
  9
$PINSBASE
 10
0.0
 20
0.0
 30
0.0
  9
$PLIMCHECK
 70
     0
  9
$PEXTMIN
 10
4.273573
 20
5.205245999999998
 30
0.0
  9
$PEXTMAX
 10
194.610095
 20
283.0697009999996
 30
0.0
  9
$PLIMMIN
 10
-5.873749
 20
-5.87375
  9
$PLIMMAX
 10
204.099579
 20
291.1369009999999
  9
$UNITMODE
 70
     0
  9
$VISRETAIN
 70
     1
  9
$PLINEGEN
 70
     0
  9
$PSLTSCALE
 70
     1
  9
$TREEDEPTH
 70
  3020
  9
$CMLSTYLE
  2
STANDARD
  9
$CMLJUST
 70
     0
  9
$CMLSCALE
 40
1.0
  9
$PROXYGRAPHICS
 70
     1
  9
$MEASUREMENT
 70
     0
  9
$CELWEIGHT
370
    -1
  9
$ENDCAPS
280
     0
  9
$JOINSTYLE
280
     0
  9
$LWDISPLAY
290
     0
  9
$INSUNITS
 70
     0
  9
$HYPERLINKBASE
  1

  9
$STYLESHEET
  1
KIKI.CTB
  9
$XEDIT
290
     1
  9
$CEPSNTYPE
380
     0
  9
$PSTYLEMODE
290
     1
  9
$FINGERPRINTGUID
  2

  9
$VERSIONGUID
  2
{073468E4-5010-4805-974B-206AAE7329C7}
  9
$EXTNAMES
290
     1
  9
$PSVPSCALE
 40
0.0
  9
$OLESTARTUP
290
     0
  9
$SORTENTS
280
   127
  9
$INDEXCTL
280
     0
  9
$HIDETEXT
280
     0
  9
$XCLIPFRAME
280
     2
  9
$HALOGAP
280
     0
  9
$OBSCOLOR
 70
   257
  9
$OBSLTYPE
280
     0
  9
$INTERSECTIONDISPLAY
280
     0
  9
$INTERSECTIONCOLOR
 70
   257
  9
$DIMASSOC
280
     1
  9
$PROJECTNAME
  1

  9
$CAMERADISPLAY
290
     0
  9
$LENSLENGTH
 40
50.0
  9
$CAMERAHEIGHT
 40
0.0
  9
$STEPSPERSEC
 40
2.0
  9
$STEPSIZE
 40
6.0
  9
$3DDWFPREC
 40
2.0
  9
$PSOLWIDTH
 40
0.25
  9
$PSOLHEIGHT
 40
4.0
  9
$LOFTANG1
 40
1.570796326794896
  9
$LOFTANG2
 40
1.570796326794896
  9
$LOFTMAG1
 40
0.0
  9
$LOFTMAG2
 40
0.0
  9
$LOFTPARAM
 70
     7
  9
$LOFTNORMALS
280
     1
  9
$LATITUDE
 40
37.795
  9
$LONGITUDE
 40
-122.394
  9
$NORTHDIRECTION
 40
0.0
  9
$TIMEZONE
 70
 -8000
  9
$LIGHTGLYPHDISPLAY
280
     1
  9
$TILEMODELIGHTSYNCH
280
     1
  9
$CMATERIAL
347
71BC
  9
$SOLIDHIST
280
     0
  9
$SHOWHIST
280
     1
  9
$DWFFRAME
280
     2
  9
$DGNFRAME
280
     0
  9
$REALWORLDSCALE
290
     1
  9
$INTERFERECOLOR
 62
     1
  9
$INTERFEREOBJVS
345
71DE
  9
$INTERFEREVPVS
346
71DB
  9
$CSHADOW
280
     0
  9
$SHADOWPLANELOCATION
 40
0.0
  0
ENDSEC
  0
SECTION
  2
CLASSES
  0
CLASS
  1
ACDBDICTIONARYWDFLT
  2
AcDbDictionaryWithDefault
  3
ObjectDBX Classes
 90
        0
 91
        1
280
     0
281
     0
  0
CLASS
  1
DICTIONARYVAR
  2
AcDbDictionaryVar
  3
ObjectDBX Classes
 90
        0
 91
       10
280
     0
281
     0
  0
CLASS
  1
MATERIAL
  2
AcDbMaterial
  3
ObjectDBX Classes
 90
     1153
 91
        3
280
     0
281
     0
  0
CLASS
  1
VISUALSTYLE
  2
AcDbVisualStyle
  3
ObjectDBX Classes
 90
     4095
 91
       24
280
     0
281
     0
  0
CLASS
  1
TABLESTYLE
  2
AcDbTableStyle
  3
ObjectDBX Classes
 90
     4095
 91
        1
280
     0
281
     0
  0
CLASS
  1
SCALE
  2
AcDbScale
  3
ObjectDBX Classes
 90
     1153
 91
       17
280
     0
281
     0
  0
CLASS
  1
MLEADERSTYLE
  2
AcDbMLeaderStyle
  3
ACDB_MLEADERSTYLE_CLASS
 90
     4095
 91
        1
280
     0
281
     0
  0
CLASS
  1
ACDBSECTIONVIEWSTYLE
  2
AcDbSectionViewStyle
  3
ObjectDBX Classes
 90
     1025
 91
        1
280
     0
281
     0
  0
CLASS
  1
ACDBDETAILVIEWSTYLE
  2
AcDbDetailViewStyle
  3
ObjectDBX Classes
 90
     1025
 91
        1
280
     0
281
     0
  0
CLASS
  1
CELLSTYLEMAP
  2
AcDbCellStyleMap
  3
ObjectDBX Classes
 90
     1152
 91
        1
280
     0
281
     0
  0
ENDSEC
  0
SECTION
  2
TABLES
  0
TABLE
  2
VPORT
  5
8
330
0
100
AcDbSymbolTable
 70
     1
  0
VPORT
  5
71B2
330
8
100
AcDbSymbolTableRecord
100
AcDbViewportTableRecord
  2
*Active
 70
     0
 10
0.0
 20
0.0
 11
1.0
 21
1.0
 12
341.5137875930667
 22
187.7694091068284
 13
0.0
 23
0.0
 14
1.0
 24
1.0
 15
10.0
 25
10.0
 16
0.0
 26
0.0
 36
1.0
 17
0.0
 27
0.0
 37
0.0
 40
249.7100595505815
 41
2.354037267080745
 42
50.0
 43
0.0
 44
0.0
 50
0.0
 51
0.0
 71
     0
 72
   100
 73
     1
 74
     1
 75
     1
 76
     0
 77
     0
 78
     0
281
     0
 65
     1
110
0.0
120
0.0
130
0.0
111
1.0
121
0.0
131
0.0
112
0.0
122
1.0
132
0.0
 79
     0
146
0.0
348
71DA
 60
     3
 61
     5
292
     1
282
     1
141
0.0
142
0.0
 63
   250
421
  3355443
1001
ACAD_NAV_VCDISPLAY
1070
     3
  0
ENDTAB
  0
TABLE
  2
LTYPE
  5
5
330
0
100
AcDbSymbolTable
 70
     5
  0
LTYPE
  5
13
330
5
100
AcDbSymbolTableRecord
100
AcDbLinetypeTableRecord
  2
BYBLOCK
 70
     0
  3

 72
    65
 73
     0
 40
0.0
  0
LTYPE
  5
14
330
5
100
AcDbSymbolTableRecord
100
AcDbLinetypeTableRecord
  2
BYLAYER
 70
     0
  3

 72
    65
 73
     0
 40
0.0
  0
LTYPE
  5
15
330
5
100
AcDbSymbolTableRecord
100
AcDbLinetypeTableRecord
  2
CONTINUOUS
 70
     0
  3
Solid line
 72
    65
 73
     0
 40
0.0
  0
LTYPE
  5
22
330
5
100
AcDbSymbolTableRecord
100
AcDbLinetypeTableRecord
  2
CONTINOUS
 70
     0
  3
Solid line
 72
    65
 73
     0
 40
0.0
  0
LTYPE
  5
23
330
5
100
AcDbSymbolTableRecord
100
AcDbLinetypeTableRecord
  2
DASHED
 70
     0
  3
__ __ __ __ __ __ __ __ __ __ __ __ __ __ __
 72
    65
 73
     2
 40
0.75
 49
0.5
 74
     0
 49
-0.25
 74
     0
  0
LTYPE
  5
24
330
5
100
AcDbSymbolTableRecord
100
AcDbLinetypeTableRecord
  2
DASHDOT
 70
     0
  3
__ . __ . __ . __ . __ . __ . __ . __ . __ . __
 72
    65
 73
     4
 40
1.0
 49
0.5
 74
     0
 49
-0.25
 74
     0
 49
0.0
 74
     0
 49
-0.25
 74
     0
  0
LTYPE
  5
4C47
330
5
100
AcDbSymbolTableRecord
100
AcDbLinetypeTableRecord
  2
DIVIDE
 70
     0
  3
Divide ____ . . ____ . . ____ . . ____ . . ____
 72
    65
 73
     6
 40
1.25
 49
0.5
 74
     0
 49
-0.25
 74
     0
 49
0.0
 74
     0
 49
-0.25
 74
     0
 49
0.0
 74
     0
 49
-0.25
 74
     0
  0
ENDTAB
  0
TABLE
  2
LAYER
  5
2
330
0
100
AcDbSymbolTable
 70
    12
  0
LAYER
  5
10
102
{ACAD_XDICTIONARY
360
720B
102
}
330
2
100
AcDbSymbolTableRecord
100
AcDbLayerTableRecord
  2
0
 70
     0
 62
     7
  6
CONTINOUS
370
    -3
390
F
347
71CC
348
0
  0
LAYER
  5
2F
102
{ACAD_XDICTIONARY
360
720D
102
}
330
2
100
AcDbSymbolTableRecord
100
AcDbLayerTableRecord
  2
10
 70
     0
 62
     4
  6
CONTINOUS
370
    -3
390
F
347
71CC
348
0
  0
LAYER
  5
31
102
{ACAD_XDICTIONARY
360
720F
102
}
330
2
100
AcDbSymbolTableRecord
100
AcDbLayerTableRecord
  2
12
 70
     0
 62
     3
  6
CONTINOUS
370
    -3
390
F
347
71CC
348
0
  0
LAYER
  5
35
102
{ACAD_XDICTIONARY
360
7211
102
}
330
2
100
AcDbSymbolTableRecord
100
AcDbLayerTableRecord
  2
16
 70
     0
 62
     6
  6
DASHDOT
370
    -3
390
F
347
71CC
348
0
  0
LAYER
  5
38
102
{ACAD_XDICTIONARY
360
7213
102
}
330
2
100
AcDbSymbolTableRecord
100
AcDbLayerTableRecord
  2
19
 70
     0
 62
     7
  6
CONTINOUS
370
    -3
390
F
347
71CC
348
0
  0
LAYER
  5
3C
102
{ACAD_XDICTIONARY
360
7215
102
}
330
2
100
AcDbSymbolTableRecord
100
AcDbLayerTableRecord
  2
11
 70
     0
 62
     1
  6
CONTINOUS
370
    -3
390
F
347
71CC
348
0
  0
LAYER
  5
3D
102
{ACAD_XDICTIONARY
360
7217
102
}
330
2
100
AcDbSymbolTableRecord
100
AcDbLayerTableRecord
  2
24
 70
     0
 62
     2
  6
CONTINOUS
370
    -3
390
F
347
71CC
348
0
  0
LAYER
  5
3A2
102
{ACAD_XDICTIONARY
360
7219
102
}
330
2
100
AcDbSymbolTableRecord
100
AcDbLayerTableRecord
  2
30
 70
     0
 62
     9
  6
CONTINUOUS
370
    -3
390
F
347
71CC
348
0
  0
LAYER
  5
3A4
330
2
100
AcDbSymbolTableRecord
100
AcDbLayerTableRecord
  2
DEFPOINTS
 70
     0
 62
     7
  6
CONTINUOUS
290
     0
370
    -3
390
F
347
71CC
348
0
  0
LAYER
  5
3BBA
102
{ACAD_XDICTIONARY
360
721B
102
}
330
2
100
AcDbSymbolTableRecord
100
AcDbLayerTableRecord
  2
18
 70
     0
 62
     5
  6
DIVIDE
370
    -3
390
F
347
71CC
348
0
  0
LAYER
  5
5117
102
{ACAD_XDICTIONARY
360
721D
102
}
330
2
100
AcDbSymbolTableRecord
100
AcDbLayerTableRecord
  2
TOP
 70
     0
 62
     7
  6
CONTINUOUS
370
    -3
390
F
347
71CC
348
0
  0
LAYER
  5
64C0
102
{ACAD_XDICTIONARY
360
721F
102
}
330
2
100
AcDbSymbolTableRecord
100
AcDbLayerTableRecord
  2
5
 70
     0
 62
     7
  6
CONTINUOUS
370
    -3
390
F
347
71CC
348
0
  0
ENDTAB
  0
TABLE
  2
STYLE
  5
3
330
0
100
AcDbSymbolTable
 70
     3
  0
STYLE
  5
11
330
3
100
AcDbSymbolTableRecord
100
AcDbTextStyleTableRecord
  2
STANDARD
 70
     0
 40
0.0
 41
1.0
 50
0.0
 71
     0
 42
2.0
  3
txt.shx
  4
bigfont.shx
  0
STYLE
  5
42
330
3
100
AcDbSymbolTableRecord
100
AcDbTextStyleTableRecord
  2
STANDARD1
 70
     0
 40
0.0
 41
1.0
 50
0.0
 71
     0
 42
5.0
  3
MONOTXT
  4
BIGFONT
  0
STYLE
  5
5016
330
3
100
AcDbSymbolTableRecord
100
AcDbTextStyleTableRecord
  2
UGMTXT
 70
     0
 40
0.0
 41
1.0
 50
0.0
 71
     0
 42
0.2
  3
ugmtxt
  4
bigfont
  0
ENDTAB
  0
TABLE
  2
VIEW
  5
6
330
0
100
AcDbSymbolTable
 70
     3
  0
VIEW
  5
230C
330
6
100
AcDbSymbolTableRecord
100
AcDbViewTableRecord
  2
OLE1
 70
     0
 40
148.912488
 10
429.497628
 20
2.560627
 41
103.145806
 11
0.0
 21
0.0
 31
1.0
 12
0.0
 22
0.0
 32
0.0
 42
50.0
 43
0.0
 44
0.0
 50
0.0
 71
     0
281
     0
 72
     0
 73
     0
348
71DA
  0
VIEW
  5
230E
330
6
100
AcDbSymbolTableRecord
100
AcDbViewTableRecord
  2
OLE2
 70
     0
 40
170.778692
 10
322.66497
 20
-5.978304
 41
102.467215
 11
0.0
 21
0.0
 31
1.0
 12
0.0
 22
0.0
 32
0.0
 42
50.0
 43
0.0
 44
0.0
 50
0.0
 71
     0
281
     0
 72
     0
 73
     0
348
71DA
  0
VIEW
  5
23AA
330
6
100
AcDbSymbolTableRecord
100
AcDbViewTableRecord
  2
OLE3
 70
     0
 40
591.7897389999998
 10
84.79698199999999
 20
-46.09335999999998
 41
388.792096
 11
0.0
 21
0.0
 31
1.0
 12
0.0
 22
0.0
 32
0.0
 42
50.0
 43
0.0
 44
0.0
 50
0.0
 71
     0
281
     0
 72
     0
 73
     0
348
71DA
  0
ENDTAB
  0
TABLE
  2
UCS
  5
7
330
0
100
AcDbSymbolTable
 70
     0
  0
ENDTAB
  0
TABLE
  2
APPID
  5
9
330
0
100
AcDbSymbolTable
 70
     4
  0
APPID
  5
12
330
9
100
AcDbSymbolTableRecord
100
AcDbRegAppTableRecord
  2
ACAD
 70
     0
  0
APPID
  5
ECD
330
9
100
AcDbSymbolTableRecord
100
AcDbRegAppTableRecord
  2
CONTENTBLOCKICON
 70
     0
  0
APPID
  5
7209
330
9
100
AcDbSymbolTableRecord
100
AcDbRegAppTableRecord
  2
ACAD_EXEMPT_FROM_CAD_STANDARDS
 70
     0
  0
APPID
  5
7221
330
9
100
AcDbSymbolTableRecord
100
AcDbRegAppTableRecord
  2
ACAD_NAV_VCDISPLAY
 70
     0
  0
ENDTAB
  0
TABLE
  2
DIMSTYLE
  5
A
330
0
100
AcDbSymbolTable
 70
     1
100
AcDbDimStyleTable
 71
     0
  0
DIMSTYLE
105
175
102
{ACAD_REACTORS
330
62D4
330
62D3
330
62F8
330
62D2
330
658E
330
657D
330
657C
330
6592
330
65B0
330
65AC
330
67C1
330
6571
330
6575
330
6573
330
6570
330
6593
330
63B5
330
68F3
330
6909
330
6916
330
6923
330
6930
330
693D
330
6967
330
6974
330
6B4E
330
6B39
330
6B40
102
}
330
A
100
AcDbSymbolTableRecord
100
AcDbDimStyleTableRecord
  2
STANDARD
 70
     0
 41
2.0
 42
1.0
 43
0.5
 44
0.5
 73
     0
 77
     3
 78
    12
140
4.0
147
1.0
271
     1
272
     1
340
11
341
3B2
342
3B2
  0
ENDTAB
  0
TABLE
  2
BLOCK_RECORD
  5
1
330
0
100
AcDbSymbolTable
 70
    40
  0
BLOCK_RECORD
  5
1E
102
{ACAD_XDICTIONARY
360
178
102
}
330
1
100
AcDbSymbolTableRecord
100
AcDbBlockTableRecord
  2
*MODEL_SPACE
340
71AE
 70
     0
280
     1
281
     0
  0
BLOCK_RECORD
  5
1A
102
{ACAD_XDICTIONARY
360
17A
102
}
330
1
100
AcDbSymbolTableRecord
100
AcDbBlockTableRecord
  2
*PAPER_SPACE
340
71AF
 70
     0
280
     1
281
     0
  0
BLOCK_RECORD
  5
3B2
330
1
100
AcDbSymbolTableRecord
100
AcDbBlockTableRecord
  2
_OPEN
340
0
102
{BLKREFS
331
6E8B
331
6E8C
331
6E94
331
6E95
331
6EAF
331
6EB0
331
6EB8
331
6EB9
331
6EC1
331
6EC2
331
6ED4
331
6ED5
331
6EDD
331
6EDE
331
6EE6
331
6EE7
331
6EEF
331
6EF0
331
6EF8
331
6EF9
331
6F01
331
6F02
331
6F0A
331
6F0B
331
6F13
331
6F14
331
6F1C
331
6F1D
331
6F25
331
6F26
331
6F2E
331
6F2F
331
6F37
331
6F38
331
6F49
331
6F4A
331
6F52
331
6F53
331
6F5B
331
6F5C
331
6F64
331
6F65
331
6F6D
331
6F6E
331
6F76
331
6F77
331
701B
331
701C
331
7024
331
7025
331
702D
331
7197
331
7198
331
71A0
331
71A1
102
}
 70
     0
280
     1
281
     0
  0
BLOCK_RECORD
  5
6328
330
1
100
AcDbSymbolTableRecord
100
AcDbBlockTableRecord
  2
*D1
340
0
 70
     0
280
     1
281
     0
  0
BLOCK_RECORD
  5
6334
330
1
100
AcDbSymbolTableRecord
100
AcDbBlockTableRecord
  2
*D2
340
0
 70
     0
280
     1
281
     0
  0
BLOCK_RECORD
  5
6340
330
1
100
AcDbSymbolTableRecord
100
AcDbBlockTableRecord
  2
*D3
340
0
 70
     0
280
     1
281
     0
  0
BLOCK_RECORD
  5
634C
330
1
100
AcDbSymbolTableRecord
100
AcDbBlockTableRecord
  2
*D4
340
0
 70
     0
280
     1
281
     0
  0
BLOCK_RECORD
  5
63CC
330
1
100
AcDbSymbolTableRecord
100
AcDbBlockTableRecord
  2
*D5
340
0
 70
     0
280
     1
281
     0
  0
BLOCK_RECORD
  5
6402
330
1
100
AcDbSymbolTableRecord
100
AcDbBlockTableRecord
  2
*U7
340
0
102
{BLKREFS
331
65AF
102
}
 70
     0
280
     1
281
     0
  0
BLOCK_RECORD
  5
6406
330
1
100
AcDbSymbolTableRecord
100
AcDbBlockTableRecord
  2
*U8
340
0
102
{BLKREFS
331
65AE
102
}
 70
     0
280
     1
281
     0
  0
BLOCK_RECORD
  5
640A
330
1
100
AcDbSymbolTableRecord
100
AcDbBlockTableRecord
  2
*U9
340
0
102
{BLKREFS
331
65BC
102
}
 70
     0
280
     1
281
     0
  0
BLOCK_RECORD
  5
640E
330
1
100
AcDbSymbolTableRecord
100
AcDbBlockTableRecord
  2
*U10
340
0
102
{BLKREFS
331
65BB
102
}
 70
     0
280
     1
281
     0
  0
BLOCK_RECORD
  5
641D
330
1
100
AcDbSymbolTableRecord
100
AcDbBlockTableRecord
  2
*U11
340
0
102
{BLKREFS
331
65AD
102
}
 70
     0
280
     1
281
     0
  0
BLOCK_RECORD
  5
6421
330
1
100
AcDbSymbolTableRecord
100
AcDbBlockTableRecord
  2
*U12
340
0
102
{BLKREFS
331
6574
102
}
 70
     0
280
     1
281
     0
  0
BLOCK_RECORD
  5
65BE
330
1
100
AcDbSymbolTableRecord
100
AcDbBlockTableRecord
  2
*D13
340
0
 70
     0
280
     1
281
     0
  0
BLOCK_RECORD
  5
65CA
330
1
100
AcDbSymbolTableRecord
100
AcDbBlockTableRecord
  2
*D14
340
0
 70
     0
280
     1
281
     0
  0
BLOCK_RECORD
  5
65D6
330
1
100
AcDbSymbolTableRecord
100
AcDbBlockTableRecord
  2
*D15
340
0
 70
     0
280
     1
281
     0
  0
BLOCK_RECORD
  5
65E2
330
1
100
AcDbSymbolTableRecord
100
AcDbBlockTableRecord
  2
*D16
340
0
 70
     0
280
     1
281
     0
  0
BLOCK_RECORD
  5
65EE
330
1
100
AcDbSymbolTableRecord
100
AcDbBlockTableRecord
  2
*D17
340
0
 70
     0
280
     1
281
     0
  0
BLOCK_RECORD
  5
65FA
330
1
100
AcDbSymbolTableRecord
100
AcDbBlockTableRecord
  2
*D18
340
0
 70
     0
280
     1
281
     0
  0
BLOCK_RECORD
  5
6606
330
1
100
AcDbSymbolTableRecord
100
AcDbBlockTableRecord
  2
*D19
340
0
 70
     0
280
     1
281
     0
  0
BLOCK_RECORD
  5
6612
330
1
100
AcDbSymbolTableRecord
100
AcDbBlockTableRecord
  2
*D20
340
0
 70
     0
280
     1
281
     0
  0
BLOCK_RECORD
  5
661E
330
1
100
AcDbSymbolTableRecord
100
AcDbBlockTableRecord
  2
*D21
340
0
 70
     0
280
     1
281
     0
  0
BLOCK_RECORD
  5
662A
330
1
100
AcDbSymbolTableRecord
100
AcDbBlockTableRecord
  2
*D22
340
0
 70
     0
280
     1
281
     0
  0
BLOCK_RECORD
  5
6636
330
1
100
AcDbSymbolTableRecord
100
AcDbBlockTableRecord
  2
*D23
340
0
 70
     0
280
     1
281
     0
  0
BLOCK_RECORD
  5
67C2
330
1
100
AcDbSymbolTableRecord
100
AcDbBlockTableRecord
  2
*D24
340
0
 70
     0
280
     1
281
     0
  0
BLOCK_RECORD
  5
68F4
330
1
100
AcDbSymbolTableRecord
100
AcDbBlockTableRecord
  2
*D26
340
0
 70
     0
280
     1
281
     0
  0
BLOCK_RECORD
  5
690A
330
1
100
AcDbSymbolTableRecord
100
AcDbBlockTableRecord
  2
*D27
340
0
 70
     0
280
     1
281
     0
  0
BLOCK_RECORD
  5
6917
330
1
100
AcDbSymbolTableRecord
100
AcDbBlockTableRecord
  2
*D28
340
0
 70
     0
280
     1
281
     0
  0
BLOCK_RECORD
  5
6924
330
1
100
AcDbSymbolTableRecord
100
AcDbBlockTableRecord
  2
*D29
340
0
 70
     0
280
     1
281
     0
  0
BLOCK_RECORD
  5
6931
330
1
100
AcDbSymbolTableRecord
100
AcDbBlockTableRecord
  2
*D30
340
0
 70
     0
280
     1
281
     0
  0
BLOCK_RECORD
  5
693E
330
1
100
AcDbSymbolTableRecord
100
AcDbBlockTableRecord
  2
*D31
340
0
 70
     0
280
     1
281
     0
  0
BLOCK_RECORD
  5
6968
330
1
100
AcDbSymbolTableRecord
100
AcDbBlockTableRecord
  2
*D33
340
0
 70
     0
280
     1
281
     0
  0
BLOCK_RECORD
  5
6975
330
1
100
AcDbSymbolTableRecord
100
AcDbBlockTableRecord
  2
*D34
340
0
 70
     0
280
     1
281
     0
  0
BLOCK_RECORD
  5
6B5D
330
1
100
AcDbSymbolTableRecord
100
AcDbBlockTableRecord
  2
*D36
340
0
 70
     0
280
     1
281
     0
  0
BLOCK_RECORD
  5
6B68
330
1
100
AcDbSymbolTableRecord
100
AcDbBlockTableRecord
  2
*D37
340
0
 70
     0
280
     1
281
     0
  0
BLOCK_RECORD
  5
6B80
330
1
100
AcDbSymbolTableRecord
100
AcDbBlockTableRecord
  2
*D39
340
0
 70
     0
280
     1
281
     0
  0
ENDTAB
  0
ENDSEC
  0
SECTION
  2
BLOCKS
  0
BLOCK
  5
1F
330
1E
100
AcDbEntity
  8
0
100
AcDbBlockBegin
  2
*MODEL_SPACE
 70
     0
 10
0.0
 20
0.0
 30
0.0
  3
*MODEL_SPACE
  1

  0
ENDBLK
  5
20
330
1E
100
AcDbEntity
  8
0
100
AcDbBlockEnd
  0
BLOCK
  5
1B
330
1A
100
AcDbEntity
 67
     1
  8
0
100
AcDbBlockBegin
  2
*PAPER_SPACE
 70
     0
 10
0.0
 20
0.0
 30
0.0
  3
*PAPER_SPACE
  1

  0
ENDBLK
  5
1C
330
1A
100
AcDbEntity
 67
     1
  8
0
100
AcDbBlockEnd
  0
BLOCK
  5
3B6
330
3B2
100
AcDbEntity
  8
0
100
AcDbBlockBegin
  2
_OPEN
 70
     0
 10
0.0
 20
0.0
 30
0.0
  3
_OPEN
  1

  0
LINE
  5
3B3
330
3B2
100
AcDbEntity
  8
30
  6
Continuous
 62
     0
100
AcDbLine
 10
-1.0
 20
0.166667
 30
0.0
 11
0.0
 21
0.0
 31
0.0
  0
LINE
  5
3B4
330
3B2
100
AcDbEntity
  8
30
  6
Continuous
 62
     0
100
AcDbLine
 10
-1.0
 20
-0.166667
 30
0.0
 11
0.0
 21
0.0
 31
0.0
  0
LINE
  5
3B5
330
3B2
100
AcDbEntity
  8
30
  6
Continuous
 62
     0
100
AcDbLine
 10
0.0
 20
0.0
 30
0.0
 11
-1.0
 21
0.0
 31
0.0
  0
ENDBLK
  5
3B7
330
3B2
100
AcDbEntity
  8
0
100
AcDbBlockEnd
  0
BLOCK
  5
6332
330
6328
100
AcDbEntity
  8
0
100
AcDbBlockBegin
  2
*D1
 70
     1
 10
0.0
 20
0.0
 30
0.0
  3
*D1
  1

  0
LINE
  5
6F61
330
6328
100
AcDbEntity
  8
30
  6
Continuous
 62
     0
440
 16777216
100
AcDbLine
 10
-48.99999999999998
 20
26.0
 30
0.0
 11
-48.99999999999998
 21
35.71319198619852
 31
0.0
  0
LINE
  5
6F62
330
6328
100
AcDbEntity
  8
30
  6
Continuous
 62
     0
440
 16777216
100
AcDbLine
 10
49.00000000000003
 20
26.0
 30
0.0
 11
49.00000000000003
 21
35.71319198619852
 31
0.0
  0
LINE
  5
6F63
330
6328
100
AcDbEntity
  8
30
  6
Continuous
 62
     0
440
 16777216
100
AcDbLine
 10
-46.99999999999998
 20
35.21319198619853
 30
0.0
 11
47.00000000000001
 21
35.21319198619853
 31
0.0
  0
INSERT
  5
6F64
330
6328
100
AcDbEntity
  8
30
  6
Continuous
 62
     0
440
 16777216
100
AcDbBlockReference
  2
_OPEN
 10
-48.99999999999998
 20
35.21319198619853
 30
0.0
 41
2.0
 42
2.0
 43
2.0
 50
180.0
  0
INSERT
  5
6F65
330
6328
100
AcDbEntity
  8
30
  6
Continuous
 62
     0
440
 16777216
100
AcDbBlockReference
  2
_OPEN
 10
49.00000000000003
 20
35.21319198619853
 30
0.0
 41
2.0
 42
2.0
 43
2.0
  0
MTEXT
  5
6F66
330
6328
100
AcDbEntity
  8
30
  6
Continuous
 62
     0
440
 16777216
100
AcDbMText
 10
0.0000000000000251
 20
38.21319198619852
 30
0.0
 40
4.0
 41
0.0
 46
0.0
 71
     5
 72
     1
  1
\A1;98
 73
     1
 44
1.0
  0
POINT
  5
6F67
330
6328
100
AcDbEntity
  8
DEFPOINTS
  6
Continuous
 62
     0
440
 16777216
100
AcDbPoint
 10
-48.99999999999998
 20
25.0
 30
0.0
  0
POINT
  5
6F68
330
6328
100
AcDbEntity
  8
DEFPOINTS
  6
Continuous
 62
     0
440
 16777216
100
AcDbPoint
 10
49.00000000000003
 20
25.0
 30
0.0
  0
POINT
  5
6F69
330
6328
100
AcDbEntity
  8
DEFPOINTS
  6
Continuous
 62
     0
440
 16777216
100
AcDbPoint
 10
49.00000000000003
 20
35.21319198619853
 30
0.0
  0
ENDBLK
  5
6333
330
6328
100
AcDbEntity
  8
0
100
AcDbBlockEnd
  0
BLOCK
  5
633E
330
6334
100
AcDbEntity
  8
0
100
AcDbBlockBegin
  2
*D2
 70
     1
 10
0.0
 20
0.0
 30
0.0
  3
*D2
  1

  0
LINE
  5
6F58
330
6334
100
AcDbEntity
  8
30
  6
Continuous
 62
     0
440
 16777216
100
AcDbLine
 10
-52.5
 20
-83.49999999999999
 30
0.0
 11
-52.5
 21
-130.9544464119911
 31
0.0
  0
LINE
  5
6F59
330
6334
100
AcDbEntity
  8
30
  6
Continuous
 62
     0
440
 16777216
100
AcDbLine
 10
87.50000000000005
 20
-83.49999999999999
 30
0.0
 11
87.50000000000005
 21
-130.9544464119911
 31
0.0
  0
LINE
  5
6F5A
330
6334
100
AcDbEntity
  8
30
  6
Continuous
 62
     0
440
 16777216
100
AcDbLine
 10
-50.5
 20
-130.4544464119911
 30
0.0
 11
85.50000000000004
 21
-130.4544464119911
 31
0.0
  0
INSERT
  5
6F5B
330
6334
100
AcDbEntity
  8
30
  6
Continuous
 62
     0
440
 16777216
100
AcDbBlockReference
  2
_OPEN
 10
-52.5
 20
-130.4544464119911
 30
0.0
 41
2.0
 42
2.0
 43
2.0
 50
180.0
  0
INSERT
  5
6F5C
330
6334
100
AcDbEntity
  8
30
  6
Continuous
 62
     0
440
 16777216
100
AcDbBlockReference
  2
_OPEN
 10
87.50000000000005
 20
-130.4544464119911
 30
0.0
 41
2.0
 42
2.0
 43
2.0
  0
MTEXT
  5
6F5D
330
6334
100
AcDbEntity
  8
30
  6
Continuous
 62
     0
440
 16777216
100
AcDbMText
 10
17.50000000000001
 20
-127.4544464119911
 30
0.0
 40
4.0
 41
0.0
 46
0.0
 71
     5
 72
     1
  1
\A1;140
 73
     1
 44
1.0
  0
POINT
  5
6F5E
330
6334
100
AcDbEntity
  8
DEFPOINTS
  6
Continuous
 62
     0
440
 16777216
100
AcDbPoint
 10
-52.5
 20
-82.5
 30
0.0
  0
POINT
  5
6F5F
330
6334
100
AcDbEntity
  8
DEFPOINTS
  6
Continuous
 62
     0
440
 16777216
100
AcDbPoint
 10
87.50000000000005
 20
-82.5
 30
0.0
  0
POINT
  5
6F60
330
6334
100
AcDbEntity
  8
DEFPOINTS
  6
Continuous
 62
     0
440
 16777216
100
AcDbPoint
 10
87.50000000000005
 20
-130.4544464119911
 30
0.0
  0
ENDBLK
  5
633F
330
6334
100
AcDbEntity
  8
0
100
AcDbBlockEnd
  0
BLOCK
  5
634A
330
6340
100
AcDbEntity
  8
0
100
AcDbBlockBegin
  2
*D3
 70
     1
 10
0.0
 20
0.0
 30
0.0
  3
*D3
  1

  0
LINE
  5
6F4F
330
6340
100
AcDbEntity
  8
30
  6
Continuous
 62
     0
440
 16777216
100
AcDbLine
 10
-35.0
 20
-75.50000001650001
 30
0.0
 11
-35.0
 21
-110.9544464119909
 31
0.0
  0
LINE
  5
6F50
330
6340
100
AcDbEntity
  8
30
  6
Continuous
 62
     0
440
 16777216
100
AcDbLine
 10
-0.0000000000000001
 20
-78.00000000000007
 30
0.0
 11
-0.0000000000000021
 21
-110.9544464119909
 31
0.0
  0
LINE
  5
6F51
330
6340
100
AcDbEntity
  8
30
  6
Continuous
 62
     0
440
 16777216
100
AcDbLine
 10
-32.99999999999999
 20
-110.454446411991
 30
0.0
 11
-2.000000000000002
 21
-110.454446411991
 31
0.0
  0
INSERT
  5
6F52
330
6340
100
AcDbEntity
  8
30
  6
Continuous
 62
     0
440
 16777216
100
AcDbBlockReference
  2
_OPEN
 10
-35.0
 20
-110.454446411991
 30
0.0
 41
2.0
 42
2.0
 43
2.0
 50
180.0
  0
INSERT
  5
6F53
330
6340
100
AcDbEntity
  8
30
  6
Continuous
 62
     0
440
 16777216
100
AcDbBlockReference
  2
_OPEN
 10
-0.000000000000002
 20
-110.454446411991
 30
0.0
 41
2.0
 42
2.0
 43
2.0
  0
MTEXT
  5
6F54
330
6340
100
AcDbEntity
  8
30
  6
Continuous
 62
     0
440
 16777216
100
AcDbMText
 10
-17.49999999999999
 20
-107.454446411991
 30
0.0
 40
4.0
 41
0.0
 46
0.0
 71
     5
 72
     1
  1
\A1;35
 73
     1
 44
1.0
  0
POINT
  5
6F55
330
6340
100
AcDbEntity
  8
DEFPOINTS
  6
Continuous
 62
     0
440
 16777216
100
AcDbPoint
 10
-35.0
 20
-74.50000001650001
 30
0.0
  0
POINT
  5
6F56
330
6340
100
AcDbEntity
  8
DEFPOINTS
  6
Continuous
 62
     0
440
 16777216
100
AcDbPoint
 10
0.0
 20
-77.00000000000007
 30
0.0
  0
POINT
  5
6F57
330
6340
100
AcDbEntity
  8
DEFPOINTS
  6
Continuous
 62
     0
440
 16777216
100
AcDbPoint
 10
-0.000000000000002
 20
-110.454446411991
 30
0.0
  0
ENDBLK
  5
634B
330
6340
100
AcDbEntity
  8
0
100
AcDbBlockEnd
  0
BLOCK
  5
6356
330
634C
100
AcDbEntity
  8
0
100
AcDbBlockBegin
  2
*D4
 70
     1
 10
0.0
 20
0.0
 30
0.0
  3
*D4
  1

  0
LINE
  5
6F46
330
634C
100
AcDbEntity
  8
30
  6
Continuous
 62
     0
440
 16777216
100
AcDbLine
 10
-10.99999999999999
 20
-26.0
 30
0.0
 11
-10.99999999999999
 21
-40.95444641199117
 31
0.0
  0
LINE
  5
6F47
330
634C
100
AcDbEntity
  8
30
  6
Continuous
 62
     0
440
 16777216
100
AcDbLine
 10
10.99999999999999
 20
-26.0
 30
0.0
 11
10.99999999999998
 21
-40.95444641199117
 31
0.0
  0
LINE
  5
6F48
330
634C
100
AcDbEntity
  8
30
  6
Continuous
 62
     0
440
 16777216
100
AcDbLine
 10
-8.999999999999991
 20
-40.45444641199117
 30
0.0
 11
8.999999999999987
 21
-40.45444641199117
 31
0.0
  0
INSERT
  5
6F49
330
634C
100
AcDbEntity
  8
30
  6
Continuous
 62
     0
440
 16777216
100
AcDbBlockReference
  2
_OPEN
 10
-10.99999999999999
 20
-40.45444641199117
 30
0.0
 41
2.0
 42
2.0
 43
2.0
 50
180.0
  0
INSERT
  5
6F4A
330
634C
100
AcDbEntity
  8
30
  6
Continuous
 62
     0
440
 16777216
100
AcDbBlockReference
  2
_OPEN
 10
10.99999999999998
 20
-40.45444641199117
 30
0.0
 41
2.0
 42
2.0
 43
2.0
  0
MTEXT
  5
6F4B
330
634C
100
AcDbEntity
  8
30
  6
Continuous
 62
     0
440
 16777216
100
AcDbMText
 10
-0.0000000000000016
 20
-37.45444641199117
 30
0.0
 40
4.0
 41
0.0
 46
0.0
 71
     5
 72
     1
  1
\A1;22
 73
     1
 44
1.0
  0
POINT
  5
6F4C
330
634C
100
AcDbEntity
  8
DEFPOINTS
  6
Continuous
 62
     0
440
 16777216
100
AcDbPoint
 10
-10.99999999999999
 20
-25.0
 30
0.0
  0
POINT
  5
6F4D
330
634C
100
AcDbEntity
  8
DEFPOINTS
  6
Continuous
 62
     0
440
 16777216
100
AcDbPoint
 10
10.99999999999999
 20
-25.0
 30
0.0
  0
POINT
  5
6F4E
330
634C
100
AcDbEntity
  8
DEFPOINTS
  6
Continuous
 62
     0
440
 16777216
100
AcDbPoint
 10
10.99999999999998
 20
-40.45444641199117
 30
0.0
  0
ENDBLK
  5
6357
330
634C
100
AcDbEntity
  8
0
100
AcDbBlockEnd
  0
BLOCK
  5
63D6
330
63CC
100
AcDbEntity
  8
0
100
AcDbBlockBegin
  2
*D5
 70
     1
 10
0.0
 20
0.0
 30
0.0
  3
*D5
  1

  0
LINE
  5
6F6A
330
63CC
100
AcDbEntity
  8
30
  6
Continuous
 62
     0
440
 16777216
100
AcDbLine
 10
-17.88009453517117
 20
-191.3473940375349
 30
0.0
 11
-17.88009453517117
 21
-361.8018404330259
 31
0.0
  0
LINE
  5
6F6B
330
63CC
100
AcDbEntity
  8
30
  6
Continuous
 62
     0
440
 16777216
100
AcDbLine
 10
17.1199054648288
 20
-317.3473940375349
 30
0.0
 11
17.11990546482879
 21
-361.8018404330259
 31
0.0
  0
LINE
  5
6F6C
330
63CC
100
AcDbEntity
  8
30
  6
Continuous
 62
     0
440
 16777216
100
AcDbLine
 10
-15.88009453517118
 20
-361.3018404330259
 30
0.0
 11
15.11990546482879
 21
-361.3018404330259
 31
0.0
  0
INSERT
  5
6F6D
330
63CC
100
AcDbEntity
  8
30
  6
Continuous
 62
     0
440
 16777216
100
AcDbBlockReference
  2
_OPEN
 10
-17.88009453517117
 20
-361.3018404330259
 30
0.0
 41
2.0
 42
2.0
 43
2.0
 50
180.0
  0
INSERT
  5
6F6E
330
63CC
100
AcDbEntity
  8
30
  6
Continuous
 62
     0
440
 16777216
100
AcDbBlockReference
  2
_OPEN
 10
17.11990546482879
 20
-361.3018404330259
 30
0.0
 41
2.0
 42
2.0
 43
2.0
  0
MTEXT
  5
6F6F
330
63CC
100
AcDbEntity
  8
30
  6
Continuous
 62
     0
440
 16777216
100
AcDbMText
 10
-0.3800945351711958
 20
-358.3018404330259
 30
0.0
 40
4.0
 41
0.0
 46
0.0
 71
     5
 72
     1
  1
\A1;35
 73
     1
 44
1.0
  0
POINT
  5
6F70
330
63CC
100
AcDbEntity
  8
DEFPOINTS
  6
Continuous
 62
     0
440
 16777216
100
AcDbPoint
 10
-17.88009453517117
 20
-190.3473940375349
 30
0.0
  0
POINT
  5
6F71
330
63CC
100
AcDbEntity
  8
DEFPOINTS
  6
Continuous
 62
     0
440
 16777216
100
AcDbPoint
 10
17.1199054648288
 20
-316.3473940375348
 30
0.0
  0
POINT
  5
6F72
330
63CC
100
AcDbEntity
  8
DEFPOINTS
  6
Continuous
 62
     0
440
 16777216
100
AcDbPoint
 10
17.11990546482879
 20
-361.3018404330259
 30
0.0
  0
ENDBLK
  5
63D7
330
63CC
100
AcDbEntity
  8
0
100
AcDbBlockEnd
  0
BLOCK
  5
6404
330
6402
100
AcDbEntity
  8
TOP
  6
Continuous
 62
     4
100
AcDbBlockBegin
  2
*U7
 70
     1
 10
0.0
 20
0.0
 30
0.0
  3
*U7
  1

  0
TEXT
  5
6403
330
6402
100
AcDbEntity
  8
TOP
  6
ByBlock
 62
     0
100
AcDbText
 10
241.0
 20
103.4999999999999
 30
0.0
 40
2.500000003799998
  1
25
 41
0.8912499999999965
  7
UGMTXT
100
AcDbText
  0
ENDBLK
  5
6405
330
6402
100
AcDbEntity
  8
0
100
AcDbBlockEnd
  0
BLOCK
  5
6408
330
6406
100
AcDbEntity
  8
TOP
  6
Continuous
 62
     4
100
AcDbBlockBegin
  2
*U8
 70
     1
 10
0.0
 20
0.0
 30
0.0
  3
*U8
  1

  0
TEXT
  5
6407
330
6406
100
AcDbEntity
  8
TOP
  6
ByBlock
 62
     0
100
AcDbText
 10
245.0
 20
103.4999999999999
 30
0.0
 40
2.500000003799998
  1
(max.)
 41
0.8216911764705852
  7
UGMTXT
100
AcDbText
  0
ENDBLK
  5
6409
330
6406
100
AcDbEntity
  8
0
100
AcDbBlockEnd
  0
BLOCK
  5
640C
330
640A
100
AcDbEntity
  8
TOP
  6
Continuous
 62
     4
100
AcDbBlockBegin
  2
*U9
 70
     1
 10
0.0
 20
0.0
 30
0.0
  3
*U9
  1

  0
TEXT
  5
640B
330
640A
100
AcDbEntity
  8
TOP
  6
ByBlock
 62
     0
100
AcDbText
 10
262.5
 20
115.0
 30
0.0
 40
2.500000003799998
  1
10
 50
90.00000000000005
 41
0.8912499999999965
  7
UGMTXT
100
AcDbText
  0
ENDBLK
  5
640D
330
640A
100
AcDbEntity
  8
0
100
AcDbBlockEnd
  0
BLOCK
  5
6410
330
640E
100
AcDbEntity
  8
TOP
  6
Continuous
 62
     4
100
AcDbBlockBegin
  2
*U10
 70
     1
 10
0.0
 20
0.0
 30
0.0
  3
*U10
  1

  0
TEXT
  5
640F
330
640E
100
AcDbEntity
  8
TOP
  6
ByBlock
 62
     0
100
AcDbText
 10
262.5
 20
119.5
 30
0.0
 40
2.500000003799998
  1
(max.)
 50
90.00000000000005
 41
0.8216911764705852
  7
UGMTXT
100
AcDbText
  0
ENDBLK
  5
6411
330
640E
100
AcDbEntity
  8
0
100
AcDbBlockEnd
  0
BLOCK
  5
641F
330
641D
100
AcDbEntity
  8
TOP
  6
Continuous
 62
     4
100
AcDbBlockBegin
  2
*U11
 70
     1
 10
0.0
 20
0.0
 30
0.0
  3
*U11
  1

  0
TEXT
  5
641E
330
641D
100
AcDbEntity
  8
TOP
  6
ByBlock
 62
     0
100
AcDbText
 10
243.0
 20
98.50000000000001
 30
0.0
 40
2.500000003799998
  1
max.t7
 41
0.8216911764705852
  7
UGMTXT
100
AcDbText
  0
ENDBLK
  5
6420
330
641D
100
AcDbEntity
  8
0
100
AcDbBlockEnd
  0
BLOCK
  5
6427
330
6421
100
AcDbEntity
  8
TOP
  6
Continuous
 62
     4
100
AcDbBlockBegin
  2
*U12
 70
     1
 10
0.0
 20
0.0
 30
0.0
  3
*U12
  1

  0
LINE
  5
6422
330
6421
100
AcDbEntity
  8
5
  6
ByBlock
 62
     0
100
AcDbLine
 10
187.4932291666666
 20
140.0
 30
0.0
 11
187.4932291666666
 21
140.0
 31
0.0
  0
LINE
  5
6423
330
6421
100
AcDbEntity
  8
5
  6
ByBlock
 62
     0
100
AcDbLine
 10
212.3871961722488
 20
130.0647232036205
 30
0.0
 11
204.0
 21
140.0
 31
0.0
  0
LINE
  5
6424
330
6421
100
AcDbEntity
  8
5
  6
ByBlock
 62
     0
100
AcDbLine
 10
204.0
 20
140.0
 30
0.0
 11
187.4932291666666
 21
140.0
 31
0.0
  0
SOLID
  5
6425
330
6421
100
AcDbEntity
  8
5
  6
ByBlock
 62
     0
100
AcDbTrace
 10
212.3871961722488
 20
130.0647232036205
 30
0.0
 11
210.8423579767661
 21
131.3779581845569
 31
0.0
 12
211.3517767919609
 22
131.8080011138521
 32
0.0
 13
211.3517767919609
 23
131.8080011138521
 33
0.0
  0
TEXT
  5
6426
330
6421
100
AcDbEntity
  8
TOP
  6
ByBlock
 62
     0
100
AcDbText
 10
187.4932291666666
 20
138.7499999999999
 30
0.0
 40
2.5
  1
 
 41
1.054062499999991
  7
UGMTXT
100
AcDbText
  0
ENDBLK
  5
6428
330
6421
100
AcDbEntity
  8
0
100
AcDbBlockEnd
  0
BLOCK
  5
65C8
330
65BE
100
AcDbEntity
  8
0
100
AcDbBlockBegin
  2
*D13
 70
     1
 10
0.0
 20
0.0
 30
0.0
  3
*D13
  1

  0
LINE
  5
6F34
330
65BE
100
AcDbEntity
  8
30
  6
Continuous
 62
     0
440
 16777216
100
AcDbLine
 10
191.2602819584348
 20
-52.00000000000002
 30
0.0
 11
191.2602819584348
 21
-115.9544464119911
 31
0.0
  0
LINE
  5
6F35
330
65BE
100
AcDbEntity
  8
30
  6
Continuous
 62
     0
440
 16777216
100
AcDbLine
 10
259.2602819584348
 20
-83.49999999999999
 30
0.0
 11
259.2602819584348
 21
-115.9544464119911
 31
0.0
  0
LINE
  5
6F36
330
65BE
100
AcDbEntity
  8
30
  6
Continuous
 62
     0
440
 16777216
100
AcDbLine
 10
193.2602819584348
 20
-115.454446411991
 30
0.0
 11
257.2602819584348
 21
-115.454446411991
 31
0.0
  0
INSERT
  5
6F37
330
65BE
100
AcDbEntity
  8
30
  6
Continuous
 62
     0
440
 16777216
100
AcDbBlockReference
  2
_OPEN
 10
191.2602819584348
 20
-115.454446411991
 30
0.0
 41
2.0
 42
2.0
 43
2.0
 50
180.0
  0
INSERT
  5
6F38
330
65BE
100
AcDbEntity
  8
30
  6
Continuous
 62
     0
440
 16777216
100
AcDbBlockReference
  2
_OPEN
 10
259.2602819584348
 20
-115.454446411991
 30
0.0
 41
2.0
 42
2.0
 43
2.0
  0
MTEXT
  5
6F39
330
65BE
100
AcDbEntity
  8
30
  6
Continuous
 62
     0
440
 16777216
100
AcDbMText
 10
225.2602819584347
 20
-112.454446411991
 30
0.0
 40
4.0
 41
0.0
 46
0.0
 71
     5
 72
     1
  1
\A1;68
 73
     1
 44
1.0
  0
POINT
  5
6F3A
330
65BE
100
AcDbEntity
  8
DEFPOINTS
  6
Continuous
 62
     0
440
 16777216
100
AcDbPoint
 10
191.2602819584348
 20
-51.00000000000002
 30
0.0
  0
POINT
  5
6F3B
330
65BE
100
AcDbEntity
  8
DEFPOINTS
  6
Continuous
 62
     0
440
 16777216
100
AcDbPoint
 10
259.2602819584348
 20
-82.5
 30
0.0
  0
POINT
  5
6F3C
330
65BE
100
AcDbEntity
  8
DEFPOINTS
  6
Continuous
 62
     0
440
 16777216
100
AcDbPoint
 10
259.2602819584348
 20
-115.454446411991
 30
0.0
  0
ENDBLK
  5
65C9
330
65BE
100
AcDbEntity
  8
0
100
AcDbBlockEnd
  0
BLOCK
  5
65D4
330
65CA
100
AcDbEntity
  8
0
100
AcDbBlockBegin
  2
*D14
 70
     1
 10
0.0
 20
0.0
 30
0.0
  3
*D14
  1

  0
LINE
  5
6F2B
330
65CA
100
AcDbEntity
  8
30
  6
Continuous
 62
     0
440
 16777216
100
AcDbLine
 10
167.2602819584346
 20
-1.000000000000001
 30
0.0
 11
167.2602819584346
 21
-138.9544464119911
 31
0.0
  0
LINE
  5
6F2C
330
65CA
100
AcDbEntity
  8
30
  6
Continuous
 62
     0
440
 16777216
100
AcDbLine
 10
259.2602819584348
 20
-83.49999999999999
 30
0.0
 11
259.2602819584348
 21
-138.9544464119911
 31
0.0
  0
LINE
  5
6F2D
330
65CA
100
AcDbEntity
  8
30
  6
Continuous
 62
     0
440
 16777216
100
AcDbLine
 10
169.2602819584346
 20
-138.4544464119911
 30
0.0
 11
257.2602819584348
 21
-138.4544464119911
 31
0.0
  0
INSERT
  5
6F2E
330
65CA
100
AcDbEntity
  8
30
  6
Continuous
 62
     0
440
 16777216
100
AcDbBlockReference
  2
_OPEN
 10
167.2602819584346
 20
-138.4544464119911
 30
0.0
 41
2.0
 42
2.0
 43
2.0
 50
180.0
  0
INSERT
  5
6F2F
330
65CA
100
AcDbEntity
  8
30
  6
Continuous
 62
     0
440
 16777216
100
AcDbBlockReference
  2
_OPEN
 10
259.2602819584348
 20
-138.4544464119911
 30
0.0
 41
2.0
 42
2.0
 43
2.0
  0
MTEXT
  5
6F30
330
65CA
100
AcDbEntity
  8
30
  6
Continuous
 62
     0
440
 16777216
100
AcDbMText
 10
213.2602819584346
 20
-135.4544464119911
 30
0.0
 40
4.0
 41
0.0
 46
0.0
 71
     5
 72
     1
  1
\A1;92
 73
     1
 44
1.0
  0
POINT
  5
6F31
330
65CA
100
AcDbEntity
  8
DEFPOINTS
  6
Continuous
 62
     0
440
 16777216
100
AcDbPoint
 10
167.2602819584346
 20
-0.0000000000000027
 30
0.0
  0
POINT
  5
6F32
330
65CA
100
AcDbEntity
  8
DEFPOINTS
  6
Continuous
 62
     0
440
 16777216
100
AcDbPoint
 10
259.2602819584348
 20
-82.5
 30
0.0
  0
POINT
  5
6F33
330
65CA
100
AcDbEntity
  8
DEFPOINTS
  6
Continuous
 62
     0
440
 16777216
100
AcDbPoint
 10
259.2602819584348
 20
-138.4544464119911
 30
0.0
  0
ENDBLK
  5
65D5
330
65CA
100
AcDbEntity
  8
0
100
AcDbBlockEnd
  0
BLOCK
  5
65E0
330
65D6
100
AcDbEntity
  8
0
100
AcDbBlockBegin
  2
*D15
 70
     1
 10
0.0
 20
0.0
 30
0.0
  3
*D15
  1

  0
LINE
  5
6F22
330
65D6
100
AcDbEntity
  8
30
  6
Continuous
 62
     0
440
 16777216
100
AcDbLine
 10
187.2602819584348
 20
-26.0
 30
0.0
 11
187.2602819584348
 21
-126.954446411991
 31
0.0
  0
LINE
  5
6F23
330
65D6
100
AcDbEntity
  8
30
  6
Continuous
 62
     0
440
 16777216
100
AcDbLine
 10
259.2602819584348
 20
-83.49999999999999
 30
0.0
 11
259.2602819584348
 21
-126.954446411991
 31
0.0
  0
LINE
  5
6F24
330
65D6
100
AcDbEntity
  8
30
  6
Continuous
 62
     0
440
 16777216
100
AcDbLine
 10
189.2602819584348
 20
-126.4544464119911
 30
0.0
 11
257.2602819584348
 21
-126.4544464119911
 31
0.0
  0
INSERT
  5
6F25
330
65D6
100
AcDbEntity
  8
30
  6
Continuous
 62
     0
440
 16777216
100
AcDbBlockReference
  2
_OPEN
 10
187.2602819584348
 20
-126.4544464119911
 30
0.0
 41
2.0
 42
2.0
 43
2.0
 50
180.0
  0
INSERT
  5
6F26
330
65D6
100
AcDbEntity
  8
30
  6
Continuous
 62
     0
440
 16777216
100
AcDbBlockReference
  2
_OPEN
 10
259.2602819584348
 20
-126.4544464119911
 30
0.0
 41
2.0
 42
2.0
 43
2.0
  0
MTEXT
  5
6F27
330
65D6
100
AcDbEntity
  8
30
  6
Continuous
 62
     0
440
 16777216
100
AcDbMText
 10
223.2602819584347
 20
-123.4544464119911
 30
0.0
 40
4.0
 41
0.0
 46
0.0
 71
     5
 72
     1
  1
\A1;72
 73
     1
 44
1.0
  0
POINT
  5
6F28
330
65D6
100
AcDbEntity
  8
DEFPOINTS
  6
Continuous
 62
     0
440
 16777216
100
AcDbPoint
 10
187.2602819584348
 20
-25.0
 30
0.0
  0
POINT
  5
6F29
330
65D6
100
AcDbEntity
  8
DEFPOINTS
  6
Continuous
 62
     0
440
 16777216
100
AcDbPoint
 10
259.2602819584348
 20
-82.5
 30
0.0
  0
POINT
  5
6F2A
330
65D6
100
AcDbEntity
  8
DEFPOINTS
  6
Continuous
 62
     0
440
 16777216
100
AcDbPoint
 10
259.2602819584348
 20
-126.4544464119911
 30
0.0
  0
ENDBLK
  5
65E1
330
65D6
100
AcDbEntity
  8
0
100
AcDbBlockEnd
  0
BLOCK
  5
65EC
330
65E2
100
AcDbEntity
  8
0
100
AcDbBlockBegin
  2
*D16
 70
     1
 10
0.0
 20
0.0
 30
0.0
  3
*D16
  1

  0
LINE
  5
6F19
330
65E2
100
AcDbEntity
  8
30
  6
Continuous
 62
     0
440
 16777216
100
AcDbLine
 10
198.2602819584347
 20
-83.49999999999999
 30
0.0
 11
198.2602819584347
 21
-103.954446411991
 31
0.0
  0
LINE
  5
6F1A
330
65E2
100
AcDbEntity
  8
30
  6
Continuous
 62
     0
440
 16777216
100
AcDbLine
 10
259.2602819584348
 20
-83.49999999999999
 30
0.0
 11
259.2602819584348
 21
-103.954446411991
 31
0.0
  0
LINE
  5
6F1B
330
65E2
100
AcDbEntity
  8
30
  6
Continuous
 62
     0
440
 16777216
100
AcDbLine
 10
200.2602819584347
 20
-103.4544464119911
 30
0.0
 11
257.2602819584348
 21
-103.4544464119911
 31
0.0
  0
INSERT
  5
6F1C
330
65E2
100
AcDbEntity
  8
30
  6
Continuous
 62
     0
440
 16777216
100
AcDbBlockReference
  2
_OPEN
 10
198.2602819584347
 20
-103.4544464119911
 30
0.0
 41
2.0
 42
2.0
 43
2.0
 50
180.0
  0
INSERT
  5
6F1D
330
65E2
100
AcDbEntity
  8
30
  6
Continuous
 62
     0
440
 16777216
100
AcDbBlockReference
  2
_OPEN
 10
259.2602819584348
 20
-103.4544464119911
 30
0.0
 41
2.0
 42
2.0
 43
2.0
  0
MTEXT
  5
6F1E
330
65E2
100
AcDbEntity
  8
30
  6
Continuous
 62
     0
440
 16777216
100
AcDbMText
 10
228.7602819584346
 20
-100.4544464119911
 30
0.0
 40
4.0
 41
0.0
 46
0.0
 71
     5
 72
     1
  1
\A1;61
 73
     1
 44
1.0
  0
POINT
  5
6F1F
330
65E2
100
AcDbEntity
  8
DEFPOINTS
  6
Continuous
 62
     0
440
 16777216
100
AcDbPoint
 10
198.2602819584347
 20
-82.5
 30
0.0
  0
POINT
  5
6F20
330
65E2
100
AcDbEntity
  8
DEFPOINTS
  6
Continuous
 62
     0
440
 16777216
100
AcDbPoint
 10
259.2602819584348
 20
-82.5
 30
0.0
  0
POINT
  5
6F21
330
65E2
100
AcDbEntity
  8
DEFPOINTS
  6
Continuous
 62
     0
440
 16777216
100
AcDbPoint
 10
259.2602819584348
 20
-103.4544464119911
 30
0.0
  0
ENDBLK
  5
65ED
330
65E2
100
AcDbEntity
  8
0
100
AcDbBlockEnd
  0
BLOCK
  5
65F8
330
65EE
100
AcDbEntity
  8
0
100
AcDbBlockBegin
  2
*D17
 70
     1
 10
0.0
 20
0.0
 30
0.0
  3
*D17
  1

  0
LINE
  5
6F10
330
65EE
100
AcDbEntity
  8
30
  6
Continuous
 62
     0
440
 16777216
100
AcDbLine
 10
190.2602819584348
 20
51.0
 30
0.0
 11
123.7572915325626
 21
51.00000000000002
 31
0.0
  0
LINE
  5
6F11
330
65EE
100
AcDbEntity
  8
30
  6
Continuous
 62
     0
440
 16777216
100
AcDbLine
 10
190.2602819584348
 20
-51.00000000000002
 30
0.0
 11
123.7572915325626
 21
-51.0
 31
0.0
  0
LINE
  5
6F12
330
65EE
100
AcDbEntity
  8
30
  6
Continuous
 62
     0
440
 16777216
100
AcDbLine
 10
124.2572915325625
 20
49.00000000000002
 30
0.0
 11
124.2572915325625
 21
-49.0
 31
0.0
  0
INSERT
  5
6F13
330
65EE
100
AcDbEntity
  8
30
  6
Continuous
 62
     0
440
 16777216
100
AcDbBlockReference
  2
_OPEN
 10
124.2572915325625
 20
51.00000000000002
 30
0.0
 41
2.0
 42
2.0
 43
2.0
 50
90.0
  0
INSERT
  5
6F14
330
65EE
100
AcDbEntity
  8
30
  6
Continuous
 62
     0
440
 16777216
100
AcDbBlockReference
  2
_OPEN
 10
124.2572915325625
 20
-51.0
 30
0.0
 41
2.0
 42
2.0
 43
2.0
 50
270.0
  0
MTEXT
  5
6F15
330
65EE
100
AcDbEntity
  8
30
  6
Continuous
 62
     0
440
 16777216
100
AcDbMText
 10
121.2572915325626
 20
0.0000000000000318
 30
0.0
 40
4.0
 41
0.0
 46
0.0
 71
     5
 72
     1
  1
\A1;102
 11
0.0000000000000001
 21
1.0
 31
0.0
 73
     1
 44
1.0
  0
POINT
  5
6F16
330
65EE
100
AcDbEntity
  8
DEFPOINTS
  6
Continuous
 62
     0
440
 16777216
100
AcDbPoint
 10
191.2602819584348
 20
51.0
 30
0.0
  0
POINT
  5
6F17
330
65EE
100
AcDbEntity
  8
DEFPOINTS
  6
Continuous
 62
     0
440
 16777216
100
AcDbPoint
 10
191.2602819584348
 20
-51.00000000000002
 30
0.0
  0
POINT
  5
6F18
330
65EE
100
AcDbEntity
  8
DEFPOINTS
  6
Continuous
 62
     0
440
 16777216
100
AcDbPoint
 10
124.2572915325625
 20
-51.0
 30
0.0
  0
ENDBLK
  5
65F9
330
65EE
100
AcDbEntity
  8
0
100
AcDbBlockEnd
  0
BLOCK
  5
6604
330
65FA
100
AcDbEntity
  8
0
100
AcDbBlockBegin
  2
*D18
 70
     1
 10
0.0
 20
0.0
 30
0.0
  3
*D18
  1

  0
LINE
  5
6F07
330
65FA
100
AcDbEntity
  8
30
  6
Continuous
 62
     0
440
 16777216
100
AcDbLine
 10
182.2602819584346
 20
24.99999999999999
 30
0.0
 11
142.5072915325625
 21
25.0
 31
0.0
  0
LINE
  5
6F08
330
65FA
100
AcDbEntity
  8
30
  6
Continuous
 62
     0
440
 16777216
100
AcDbLine
 10
182.2602819584346
 20
-25.0
 30
0.0
 11
142.5072915325625
 21
-24.99999999999999
 31
0.0
  0
LINE
  5
6F09
330
65FA
100
AcDbEntity
  8
30
  6
Continuous
 62
     0
440
 16777216
100
AcDbLine
 10
143.0072915325627
 20
23.0
 30
0.0
 11
143.0072915325627
 21
-22.99999999999998
 31
0.0
  0
INSERT
  5
6F0A
330
65FA
100
AcDbEntity
  8
30
  6
Continuous
 62
     0
440
 16777216
100
AcDbBlockReference
  2
_OPEN
 10
143.0072915325627
 20
25.0
 30
0.0
 41
2.0
 42
2.0
 43
2.0
 50
90.0
  0
INSERT
  5
6F0B
330
65FA
100
AcDbEntity
  8
30
  6
Continuous
 62
     0
440
 16777216
100
AcDbBlockReference
  2
_OPEN
 10
143.0072915325627
 20
-24.99999999999999
 30
0.0
 41
2.0
 42
2.0
 43
2.0
 50
270.0
  0
MTEXT
  5
6F0C
330
65FA
100
AcDbEntity
  8
30
  6
Continuous
 62
     0
440
 16777216
100
AcDbMText
 10
140.0072915325627
 20
0.0000000000000289
 30
0.0
 40
4.0
 41
0.0
 46
0.0
 71
     5
 72
     1
  1
\A1;50
 11
0.0000000000000001
 21
1.0
 31
0.0
 73
     1
 44
1.0
  0
POINT
  5
6F0D
330
65FA
100
AcDbEntity
  8
DEFPOINTS
  6
Continuous
 62
     0
440
 16777216
100
AcDbPoint
 10
183.2602819584344
 20
24.99999999999999
 30
0.0
  0
POINT
  5
6F0E
330
65FA
100
AcDbEntity
  8
DEFPOINTS
  6
Continuous
 62
     0
440
 16777216
100
AcDbPoint
 10
183.2602819584344
 20
-25.0
 30
0.0
  0
POINT
  5
6F0F
330
65FA
100
AcDbEntity
  8
DEFPOINTS
  6
Continuous
 62
     0
440
 16777216
100
AcDbPoint
 10
143.0072915325627
 20
-24.99999999999999
 30
0.0
  0
ENDBLK
  5
6605
330
65FA
100
AcDbEntity
  8
0
100
AcDbBlockEnd
  0
BLOCK
  5
6610
330
6606
100
AcDbEntity
  8
0
100
AcDbBlockBegin
  2
*D19
 70
     1
 10
0.0
 20
0.0
 30
0.0
  3
*D19
  1

  0
LINE
  5
6EFE
330
6606
100
AcDbEntity
  8
30
  6
Continuous
 62
     0
440
 16777216
100
AcDbLine
 10
235.2602819584347
 20
83.50000000000001
 30
0.0
 11
235.2602819584347
 21
110.0455535880087
 31
0.0
  0
LINE
  5
6EFF
330
6606
100
AcDbEntity
  8
30
  6
Continuous
 62
     0
440
 16777216
100
AcDbLine
 10
259.2602819584348
 20
83.50000000000001
 30
0.0
 11
259.2602819584348
 21
110.0455535880087
 31
0.0
  0
LINE
  5
6F00
330
6606
100
AcDbEntity
  8
30
  6
Continuous
 62
     0
440
 16777216
100
AcDbLine
 10
237.2602819584347
 20
109.5455535880087
 30
0.0
 11
257.2602819584348
 21
109.5455535880087
 31
0.0
  0
INSERT
  5
6F01
330
6606
100
AcDbEntity
  8
30
  6
Continuous
 62
     0
440
 16777216
100
AcDbBlockReference
  2
_OPEN
 10
235.2602819584347
 20
109.5455535880087
 30
0.0
 41
2.0
 42
2.0
 43
2.0
 50
180.0
  0
INSERT
  5
6F02
330
6606
100
AcDbEntity
  8
30
  6
Continuous
 62
     0
440
 16777216
100
AcDbBlockReference
  2
_OPEN
 10
259.2602819584348
 20
109.5455535880087
 30
0.0
 41
2.0
 42
2.0
 43
2.0
  0
MTEXT
  5
6F03
330
6606
100
AcDbEntity
  8
30
  6
Continuous
 62
     0
440
 16777216
100
AcDbMText
 10
247.2602819584345
 20
112.5455535880087
 30
0.0
 40
4.0
 41
0.0
 46
0.0
 71
     5
 72
     1
  1
\A1;24
 73
     1
 44
1.0
  0
POINT
  5
6F04
330
6606
100
AcDbEntity
  8
DEFPOINTS
  6
Continuous
 62
     0
440
 16777216
100
AcDbPoint
 10
235.2602819584347
 20
82.50000000000001
 30
0.0
  0
POINT
  5
6F05
330
6606
100
AcDbEntity
  8
DEFPOINTS
  6
Continuous
 62
     0
440
 16777216
100
AcDbPoint
 10
259.2602819584348
 20
82.50000000000001
 30
0.0
  0
POINT
  5
6F06
330
6606
100
AcDbEntity
  8
DEFPOINTS
  6
Continuous
 62
     0
440
 16777216
100
AcDbPoint
 10
259.2602819584348
 20
109.5455535880087
 30
0.0
  0
ENDBLK
  5
6611
330
6606
100
AcDbEntity
  8
0
100
AcDbBlockEnd
  0
BLOCK
  5
661C
330
6612
100
AcDbEntity
  8
0
100
AcDbBlockBegin
  2
*D20
 70
     1
 10
0.0
 20
0.0
 30
0.0
  3
*D20
  1

  0
LINE
  5
6EF5
330
6612
100
AcDbEntity
  8
30
  6
Continuous
 62
     0
440
 16777216
100
AcDbLine
 10
259.2602819584348
 20
-83.49999999999999
 30
0.0
 11
259.2602819584348
 21
-93.95444641199111
 31
0.0
  0
LINE
  5
6EF6
330
6612
100
AcDbEntity
  8
30
  6
Continuous
 62
     0
440
 16777216
100
AcDbLine
 10
267.2602819584344
 20
-66.25000000000003
 30
0.0
 11
267.2602819584344
 21
-93.95444641199111
 31
0.0
  0
LINE
  5
6EF7
330
6612
100
AcDbEntity
  8
30
  6
Continuous
 62
     0
440
 16777216
100
AcDbLine
 10
261.2602819584348
 20
-93.45444641199112
 30
0.0
 11
265.2602819584344
 21
-93.45444641199112
 31
0.0
  0
INSERT
  5
6EF8
330
6612
100
AcDbEntity
  8
30
  6
Continuous
 62
     0
440
 16777216
100
AcDbBlockReference
  2
_OPEN
 10
259.2602819584348
 20
-93.45444641199112
 30
0.0
 41
2.0
 42
2.0
 43
2.0
 50
180.0
  0
INSERT
  5
6EF9
330
6612
100
AcDbEntity
  8
30
  6
Continuous
 62
     0
440
 16777216
100
AcDbBlockReference
  2
_OPEN
 10
267.2602819584344
 20
-93.45444641199112
 30
0.0
 41
2.0
 42
2.0
 43
2.0
  0
MTEXT
  5
6EFA
330
6612
100
AcDbEntity
  8
30
  6
Continuous
 62
     0
440
 16777216
100
AcDbMText
 10
263.2602819584344
 20
-90.45444641199111
 30
0.0
 40
4.0
 41
0.0
 46
0.0
 71
     5
 72
     1
  1
\A1;8
 73
     1
 44
1.0
  0
POINT
  5
6EFB
330
6612
100
AcDbEntity
  8
DEFPOINTS
  6
Continuous
 62
     0
440
 16777216
100
AcDbPoint
 10
259.2602819584348
 20
-82.5
 30
0.0
  0
POINT
  5
6EFC
330
6612
100
AcDbEntity
  8
DEFPOINTS
  6
Continuous
 62
     0
440
 16777216
100
AcDbPoint
 10
267.2602819584344
 20
-65.25000000000003
 30
0.0
  0
POINT
  5
6EFD
330
6612
100
AcDbEntity
  8
DEFPOINTS
  6
Continuous
 62
     0
440
 16777216
100
AcDbPoint
 10
267.2602819584344
 20
-93.45444641199112
 30
0.0
  0
ENDBLK
  5
661D
330
6612
100
AcDbEntity
  8
0
100
AcDbBlockEnd
  0
BLOCK
  5
6628
330
661E
100
AcDbEntity
  8
0
100
AcDbBlockBegin
  2
*D21
 70
     1
 10
0.0
 20
0.0
 30
0.0
  3
*D21
  1

  0
LINE
  5
6EEC
330
661E
100
AcDbEntity
  8
30
  6
Continuous
 62
     0
440
 16777216
100
AcDbLine
 10
214.2602819584348
 20
-68.25000000000001
 30
0.0
 11
214.2602819584348
 21
-93.95444641199111
 31
0.0
  0
LINE
  5
6EED
330
661E
100
AcDbEntity
  8
30
  6
Continuous
 62
     0
440
 16777216
100
AcDbLine
 10
259.2602819584348
 20
-83.49999999999999
 30
0.0
 11
259.2602819584348
 21
-93.95444641199111
 31
0.0
  0
LINE
  5
6EEE
330
661E
100
AcDbEntity
  8
30
  6
Continuous
 62
     0
440
 16777216
100
AcDbLine
 10
216.2602819584348
 20
-93.45444641199112
 30
0.0
 11
257.2602819584348
 21
-93.45444641199112
 31
0.0
  0
INSERT
  5
6EEF
330
661E
100
AcDbEntity
  8
30
  6
Continuous
 62
     0
440
 16777216
100
AcDbBlockReference
  2
_OPEN
 10
214.2602819584348
 20
-93.45444641199112
 30
0.0
 41
2.0
 42
2.0
 43
2.0
 50
180.0
  0
INSERT
  5
6EF0
330
661E
100
AcDbEntity
  8
30
  6
Continuous
 62
     0
440
 16777216
100
AcDbBlockReference
  2
_OPEN
 10
259.2602819584348
 20
-93.45444641199112
 30
0.0
 41
2.0
 42
2.0
 43
2.0
  0
MTEXT
  5
6EF1
330
661E
100
AcDbEntity
  8
30
  6
Continuous
 62
     0
440
 16777216
100
AcDbMText
 10
236.7602819584348
 20
-90.45444641199111
 30
0.0
 40
4.0
 41
0.0
 46
0.0
 71
     5
 72
     1
  1
\A1;45
 73
     1
 44
1.0
  0
POINT
  5
6EF2
330
661E
100
AcDbEntity
  8
DEFPOINTS
  6
Continuous
 62
     0
440
 16777216
100
AcDbPoint
 10
214.2602819584348
 20
-67.25000000000003
 30
0.0
  0
POINT
  5
6EF3
330
661E
100
AcDbEntity
  8
DEFPOINTS
  6
Continuous
 62
     0
440
 16777216
100
AcDbPoint
 10
259.2602819584348
 20
-82.5
 30
0.0
  0
POINT
  5
6EF4
330
661E
100
AcDbEntity
  8
DEFPOINTS
  6
Continuous
 62
     0
440
 16777216
100
AcDbPoint
 10
259.2602819584348
 20
-93.45444641199112
 30
0.0
  0
ENDBLK
  5
6629
330
661E
100
AcDbEntity
  8
0
100
AcDbBlockEnd
  0
BLOCK
  5
6634
330
662A
100
AcDbEntity
  8
0
100
AcDbBlockBegin
  2
*D22
 70
     1
 10
0.0
 20
0.0
 30
0.0
  3
*D22
  1

  0
LINE
  5
6EE3
330
662A
100
AcDbEntity
  8
30
  6
Continuous
 62
     0
440
 16777216
100
AcDbLine
 10
303.2602819584328
 20
47.92504825041532
 30
0.0
 11
303.2602819584328
 21
24.71319198619851
 31
0.0
  0
LINE
  5
6EE4
330
662A
100
AcDbEntity
  8
30
  6
Continuous
 62
     0
440
 16777216
100
AcDbLine
 10
328.2602819584328
 20
47.92504825041532
 30
0.0
 11
328.2602819584328
 21
24.71319198619851
 31
0.0
  0
LINE
  5
6EE5
330
662A
100
AcDbEntity
  8
30
  6
Continuous
 62
     0
440
 16777216
100
AcDbLine
 10
305.2602819584328
 20
25.21319198619851
 30
0.0
 11
326.2602819584328
 21
25.21319198619851
 31
0.0
  0
INSERT
  5
6EE6
330
662A
100
AcDbEntity
  8
30
  6
Continuous
 62
     0
440
 16777216
100
AcDbBlockReference
  2
_OPEN
 10
303.2602819584328
 20
25.21319198619851
 30
0.0
 41
2.0
 42
2.0
 43
2.0
 50
180.0
  0
INSERT
  5
6EE7
330
662A
100
AcDbEntity
  8
30
  6
Continuous
 62
     0
440
 16777216
100
AcDbBlockReference
  2
_OPEN
 10
328.2602819584328
 20
25.21319198619851
 30
0.0
 41
2.0
 42
2.0
 43
2.0
  0
MTEXT
  5
6EE8
330
662A
100
AcDbEntity
  8
30
  6
Continuous
 62
     0
440
 16777216
100
AcDbMText
 10
315.7602819584328
 20
28.21319198619851
 30
0.0
 40
4.0
 41
0.0
 46
0.0
 71
     5
 72
     1
  1
\A1;25
 73
     1
 44
1.0
  0
POINT
  5
6EE9
330
662A
100
AcDbEntity
  8
DEFPOINTS
  6
Continuous
 62
     0
440
 16777216
100
AcDbPoint
 10
303.2602819584328
 20
48.92504825041531
 30
0.0
  0
POINT
  5
6EEA
330
662A
100
AcDbEntity
  8
DEFPOINTS
  6
Continuous
 62
     0
440
 16777216
100
AcDbPoint
 10
328.2602819584328
 20
48.92504825041531
 30
0.0
  0
POINT
  5
6EEB
330
662A
100
AcDbEntity
  8
DEFPOINTS
  6
Continuous
 62
     0
440
 16777216
100
AcDbPoint
 10
328.2602819584328
 20
25.21319198619851
 30
0.0
  0
ENDBLK
  5
6635
330
662A
100
AcDbEntity
  8
0
100
AcDbBlockEnd
  0
BLOCK
  5
6640
330
6636
100
AcDbEntity
  8
0
100
AcDbBlockBegin
  2
*D23
 70
     1
 10
0.0
 20
0.0
 30
0.0
  3
*D23
  1

  0
LINE
  5
6EDA
330
6636
100
AcDbEntity
  8
30
  6
Continuous
 62
     0
440
 16777216
100
AcDbLine
 10
329.2602819584327
 20
48.92504825041531
 30
0.0
 11
339.0828896186868
 21
48.92504825041529
 31
0.0
  0
LINE
  5
6EDB
330
6636
100
AcDbEntity
  8
30
  6
Continuous
 62
     0
440
 16777216
100
AcDbLine
 10
319.2602819749328
 20
58.92504825041531
 30
0.0
 11
339.0828896186868
 21
58.92504825041531
 31
0.0
  0
LINE
  5
6EDC
330
6636
100
AcDbEntity
  8
30
  6
Continuous
 62
     0
440
 16777216
100
AcDbLine
 10
338.5828896186868
 20
50.92504825041531
 30
0.0
 11
338.5828896186868
 21
56.92504825041531
 31
0.0
  0
INSERT
  5
6EDD
330
6636
100
AcDbEntity
  8
30
  6
Continuous
 62
     0
440
 16777216
100
AcDbBlockReference
  2
_OPEN
 10
338.5828896186868
 20
48.92504825041529
 30
0.0
 41
2.0
 42
2.0
 43
2.0
 50
270.0
  0
INSERT
  5
6EDE
330
6636
100
AcDbEntity
  8
30
  6
Continuous
 62
     0
440
 16777216
100
AcDbBlockReference
  2
_OPEN
 10
338.5828896186868
 20
58.92504825041531
 30
0.0
 41
2.0
 42
2.0
 43
2.0
 50
90.0
  0
MTEXT
  5
6EDF
330
6636
100
AcDbEntity
  8
30
  6
Continuous
 62
     0
440
 16777216
100
AcDbMText
 10
335.5828896186868
 20
53.92504825041537
 30
0.0
 40
4.0
 41
0.0
 46
0.0
 71
     5
 72
     1
  1
\A1;10
 11
0.0000000000000001
 21
1.0
 31
0.0
 73
     1
 44
1.0
  0
POINT
  5
6EE0
330
6636
100
AcDbEntity
  8
DEFPOINTS
  6
Continuous
 62
     0
440
 16777216
100
AcDbPoint
 10
328.2602819584328
 20
48.92504825041531
 30
0.0
  0
POINT
  5
6EE1
330
6636
100
AcDbEntity
  8
DEFPOINTS
  6
Continuous
 62
     0
440
 16777216
100
AcDbPoint
 10
318.2602819749328
 20
58.92504825041531
 30
0.0
  0
POINT
  5
6EE2
330
6636
100
AcDbEntity
  8
DEFPOINTS
  6
Continuous
 62
     0
440
 16777216
100
AcDbPoint
 10
338.5828896186868
 20
58.92504825041531
 30
0.0
  0
ENDBLK
  5
6641
330
6636
100
AcDbEntity
  8
0
100
AcDbBlockEnd
  0
BLOCK
  5
67CD
330
67C2
100
AcDbEntity
  8
0
100
AcDbBlockBegin
  2
*D24
 70
     1
 10
0.0
 20
0.0
 30
0.0
  3
*D24
  1

  0
LINE
  5
6ED0
330
67C2
100
AcDbEntity
  8
30
  6
Continuous
 62
     0
440
 16777216
100
AcDbLine
 10
183.2602819584344
 20
-26.0
 30
0.0
 11
183.2602819584344
 21
-126.954446411991
 31
0.0
  0
LINE
  5
6ED1
330
67C2
100
AcDbEntity
  8
30
  6
Continuous
 62
     0
440
 16777216
100
AcDbLine
 10
187.2602819584348
 20
-26.0
 30
0.0
 11
187.2602819584348
 21
-126.954446411991
 31
0.0
  0
LINE
  5
6ED2
330
67C2
100
AcDbEntity
  8
30
  6
Continuous
 62
     0
440
 16777216
100
AcDbLine
 10
181.2602819584346
 20
-126.4544464119911
 30
0.0
 11
179.2602819584342
 21
-126.4544464119911
 31
0.0
  0
LINE
  5
6ED3
330
67C2
100
AcDbEntity
  8
30
  6
Continuous
 62
     0
440
 16777216
100
AcDbLine
 10
189.2602819584348
 20
-126.4544464119911
 30
0.0
 11
195.9269486251015
 21
-126.4544464119911
 31
0.0
  0
INSERT
  5
6ED4
330
67C2
100
AcDbEntity
  8
30
  6
Continuous
 62
     0
440
 16777216
100
AcDbBlockReference
  2
_OPEN
 10
183.2602819584344
 20
-126.4544464119911
 30
0.0
 41
2.0
 42
2.0
 43
2.0
  0
INSERT
  5
6ED5
330
67C2
100
AcDbEntity
  8
30
  6
Continuous
 62
     0
440
 16777216
100
AcDbBlockReference
  2
_OPEN
 10
187.2602819584348
 20
-126.4544464119911
 30
0.0
 41
2.0
 42
2.0
 43
2.0
 50
180.0
  0
MTEXT
  5
6ED6
330
67C2
100
AcDbEntity
  8
30
  6
Continuous
 62
     0
440
 16777216
100
AcDbMText
 10
193.5936152917681
 20
-123.4544464119911
 30
0.0
 40
4.0
 41
0.0
 46
0.0
 71
     5
 72
     1
  1
\A1;4
 73
     1
 44
1.0
  0
POINT
  5
6ED7
330
67C2
100
AcDbEntity
  8
DEFPOINTS
  6
Continuous
 62
     0
440
 16777216
100
AcDbPoint
 10
183.2602819584344
 20
-25.0
 30
0.0
  0
POINT
  5
6ED8
330
67C2
100
AcDbEntity
  8
DEFPOINTS
  6
Continuous
 62
     0
440
 16777216
100
AcDbPoint
 10
187.2602819584348
 20
-25.0
 30
0.0
  0
POINT
  5
6ED9
330
67C2
100
AcDbEntity
  8
DEFPOINTS
  6
Continuous
 62
     0
440
 16777216
100
AcDbPoint
 10
187.2602819584348
 20
-126.4544464119911
 30
0.0
  0
ENDBLK
  5
67CE
330
67C2
100
AcDbEntity
  8
0
100
AcDbBlockEnd
  0
BLOCK
  5
68FE
330
68F4
100
AcDbEntity
  8
0
100
AcDbBlockBegin
  2
*D26
 70
     1
 10
0.0
 20
0.0
 30
0.0
  3
*D26
  1

  0
LINE
  5
6F73
330
68F4
100
AcDbEntity
  8
30
  6
Continuous
 62
     0
440
 16777216
100
AcDbLine
 10
-11.38009453517118
 20
-187.8473940210345
 30
0.0
 11
108.6947822581959
 21
-187.8473940210345
 31
0.0
  0
LINE
  5
6F74
330
68F4
100
AcDbEntity
  8
30
  6
Continuous
 62
     0
440
 16777216
100
AcDbLine
 10
23.6199054648288
 20
-313.8473940210346
 30
0.0
 11
108.6947822581959
 21
-313.8473940210346
 31
0.0
  0
LINE
  5
6F75
330
68F4
100
AcDbEntity
  8
30
  6
Continuous
 62
     0
440
 16777216
100
AcDbLine
 10
108.1947822581959
 20
-189.8473940210345
 30
0.0
 11
108.1947822581959
 21
-311.8473940210346
 31
0.0
  0
INSERT
  5
6F76
330
68F4
100
AcDbEntity
  8
30
  6
Continuous
 62
     0
440
 16777216
100
AcDbBlockReference
  2
_OPEN
 10
108.1947822581959
 20
-187.8473940210345
 30
0.0
 41
2.0
 42
2.0
 43
2.0
 50
90.0
  0
INSERT
  5
6F77
330
68F4
100
AcDbEntity
  8
30
  6
Continuous
 62
     0
440
 16777216
100
AcDbBlockReference
  2
_OPEN
 10
108.1947822581959
 20
-313.8473940210346
 30
0.0
 41
2.0
 42
2.0
 43
2.0
 50
270.0
  0
MTEXT
  5
6F78
330
68F4
100
AcDbEntity
  8
30
  6
Continuous
 62
     0
440
 16777216
100
AcDbMText
 10
105.1947822581959
 20
-250.8473940210345
 30
0.0
 40
4.0
 41
0.0
 46
0.0
 71
     5
 72
     1
  1
\A1;126
 11
0.0000000000000001
 21
1.0
 31
0.0
 73
     1
 44
1.0
  0
POINT
  5
6F79
330
68F4
100
AcDbEntity
  8
DEFPOINTS
  6
Continuous
 62
     0
440
 16777216
100
AcDbPoint
 10
-12.38009453517117
 20
-187.8473940210345
 30
0.0
  0
POINT
  5
6F7A
330
68F4
100
AcDbEntity
  8
DEFPOINTS
  6
Continuous
 62
     0
440
 16777216
100
AcDbPoint
 10
22.6199054648288
 20
-313.8473940210346
 30
0.0
  0
POINT
  5
6F7B
330
68F4
100
AcDbEntity
  8
DEFPOINTS
  6
Continuous
 62
     0
440
 16777216
100
AcDbPoint
 10
108.1947822581959
 20
-313.8473940210346
 30
0.0
  0
ENDBLK
  5
68FF
330
68F4
100
AcDbEntity
  8
0
100
AcDbBlockEnd
  0
BLOCK
  5
6914
330
690A
100
AcDbEntity
  8
0
100
AcDbBlockBegin
  2
*D27
 70
     1
 10
0.0
 20
0.0
 30
0.0
  3
*D27
  1

  0
LINE
  5
6EBE
330
690A
100
AcDbEntity
  8
30
  6
Continuous
 62
     0
440
 16777216
100
AcDbLine
 10
-0.0000000000000001
 20
-83.49999999999999
 30
0.0
 11
-0.0000000000000018
 21
-111.454446411991
 31
0.0
  0
LINE
  5
6EBF
330
690A
100
AcDbEntity
  8
30
  6
Continuous
 62
     0
440
 16777216
100
AcDbLine
 10
35.00000000000003
 20
-80.00000000000003
 30
0.0
 11
35.00000000000003
 21
-111.454446411991
 31
0.0
  0
LINE
  5
6EC0
330
690A
100
AcDbEntity
  8
30
  6
Continuous
 62
     0
440
 16777216
100
AcDbLine
 10
1.999999999999998
 20
-110.9544464119909
 30
0.0
 11
33.00000000000004
 21
-110.9544464119909
 31
0.0
  0
INSERT
  5
6EC1
330
690A
100
AcDbEntity
  8
30
  6
Continuous
 62
     0
440
 16777216
100
AcDbBlockReference
  2
_OPEN
 10
-0.0000000000000017
 20
-110.9544464119909
 30
0.0
 41
2.0
 42
2.0
 43
2.0
 50
180.0
  0
INSERT
  5
6EC2
330
690A
100
AcDbEntity
  8
30
  6
Continuous
 62
     0
440
 16777216
100
AcDbBlockReference
  2
_OPEN
 10
35.00000000000003
 20
-110.9544464119909
 30
0.0
 41
2.0
 42
2.0
 43
2.0
  0
MTEXT
  5
6EC3
330
690A
100
AcDbEntity
  8
30
  6
Continuous
 62
     0
440
 16777216
100
AcDbMText
 10
17.50000000000001
 20
-107.954446411991
 30
0.0
 40
4.0
 41
0.0
 46
0.0
 71
     5
 72
     1
  1
\A1;35
 73
     1
 44
1.0
  0
POINT
  5
6EC4
330
690A
100
AcDbEntity
  8
DEFPOINTS
  6
Continuous
 62
     0
440
 16777216
100
AcDbPoint
 10
0.0
 20
-82.5
 30
0.0
  0
POINT
  5
6EC5
330
690A
100
AcDbEntity
  8
DEFPOINTS
  6
Continuous
 62
     0
440
 16777216
100
AcDbPoint
 10
35.00000000000003
 20
-79.00000000000003
 30
0.0
  0
POINT
  5
6EC6
330
690A
100
AcDbEntity
  8
DEFPOINTS
  6
Continuous
 62
     0
440
 16777216
100
AcDbPoint
 10
35.00000000000003
 20
-110.9544464119909
 30
0.0
  0
ENDBLK
  5
6915
330
690A
100
AcDbEntity
  8
0
100
AcDbBlockEnd
  0
BLOCK
  5
6921
330
6917
100
AcDbEntity
  8
0
100
AcDbBlockBegin
  2
*D28
 70
     1
 10
0.0
 20
0.0
 30
0.0
  3
*D28
  1

  0
LINE
  5
6EB5
330
6917
100
AcDbEntity
  8
30
  6
Continuous
 62
     0
440
 16777216
100
AcDbLine
 10
35.00000000000003
 20
-83.49999999999999
 30
0.0
 11
35.00000000000003
 21
-111.454446411991
 31
0.0
  0
LINE
  5
6EB6
330
6917
100
AcDbEntity
  8
30
  6
Continuous
 62
     0
440
 16777216
100
AcDbLine
 10
70.00000000000003
 20
-78.00000000000007
 30
0.0
 11
70.00000000000003
 21
-111.454446411991
 31
0.0
  0
LINE
  5
6EB7
330
6917
100
AcDbEntity
  8
30
  6
Continuous
 62
     0
440
 16777216
100
AcDbLine
 10
37.00000000000004
 20
-110.9544464119909
 30
0.0
 11
68.00000000000003
 21
-110.9544464119909
 31
0.0
  0
INSERT
  5
6EB8
330
6917
100
AcDbEntity
  8
30
  6
Continuous
 62
     0
440
 16777216
100
AcDbBlockReference
  2
_OPEN
 10
35.00000000000003
 20
-110.9544464119909
 30
0.0
 41
2.0
 42
2.0
 43
2.0
 50
180.0
  0
INSERT
  5
6EB9
330
6917
100
AcDbEntity
  8
30
  6
Continuous
 62
     0
440
 16777216
100
AcDbBlockReference
  2
_OPEN
 10
70.00000000000003
 20
-110.9544464119909
 30
0.0
 41
2.0
 42
2.0
 43
2.0
  0
MTEXT
  5
6EBA
330
6917
100
AcDbEntity
  8
30
  6
Continuous
 62
     0
440
 16777216
100
AcDbMText
 10
52.50000000000003
 20
-107.954446411991
 30
0.0
 40
4.0
 41
0.0
 46
0.0
 71
     5
 72
     1
  1
\A1;35
 73
     1
 44
1.0
  0
POINT
  5
6EBB
330
6917
100
AcDbEntity
  8
DEFPOINTS
  6
Continuous
 62
     0
440
 16777216
100
AcDbPoint
 10
35.00000000000003
 20
-82.5
 30
0.0
  0
POINT
  5
6EBC
330
6917
100
AcDbEntity
  8
DEFPOINTS
  6
Continuous
 62
     0
440
 16777216
100
AcDbPoint
 10
70.00000000000003
 20
-77.00000000000007
 30
0.0
  0
POINT
  5
6EBD
330
6917
100
AcDbEntity
  8
DEFPOINTS
  6
Continuous
 62
     0
440
 16777216
100
AcDbPoint
 10
70.00000000000003
 20
-110.9544464119909
 30
0.0
  0
ENDBLK
  5
6922
330
6917
100
AcDbEntity
  8
0
100
AcDbBlockEnd
  0
BLOCK
  5
692E
330
6924
100
AcDbEntity
  8
0
100
AcDbBlockBegin
  2
*D29
 70
     1
 10
0.0
 20
0.0
 30
0.0
  3
*D29
  1

  0
LINE
  5
6EAC
330
6924
100
AcDbEntity
  8
30
  6
Continuous
 62
     0
440
 16777216
100
AcDbLine
 10
-35.0
 20
278.415875659212
 30
0.0
 11
-35.0
 21
328.0142024541258
 31
0.0
  0
LINE
  5
6EAD
330
6924
100
AcDbEntity
  8
30
  6
Continuous
 62
     0
440
 16777216
100
AcDbLine
 10
0.0000000000000001
 20
275.415875659212
 30
0.0
 11
0.0000000000000033
 21
328.0142024541258
 31
0.0
  0
LINE
  5
6EAE
330
6924
100
AcDbEntity
  8
30
  6
Continuous
 62
     0
440
 16777216
100
AcDbLine
 10
-32.99999999999999
 20
327.5142024541259
 30
0.0
 11
-1.999999999999995
 21
327.5142024541259
 31
0.0
  0
INSERT
  5
6EAF
330
6924
100
AcDbEntity
  8
30
  6
Continuous
 62
     0
440
 16777216
100
AcDbBlockReference
  2
_OPEN
 10
-35.0
 20
327.5142024541259
 30
0.0
 41
2.0
 42
2.0
 43
2.0
 50
180.0
  0
INSERT
  5
6EB0
330
6924
100
AcDbEntity
  8
30
  6
Continuous
 62
     0
440
 16777216
100
AcDbBlockReference
  2
_OPEN
 10
0.0000000000000033
 20
327.5142024541259
 30
0.0
 41
2.0
 42
2.0
 43
2.0
  0
MTEXT
  5
6EB1
330
6924
100
AcDbEntity
  8
30
  6
Continuous
 62
     0
440
 16777216
100
AcDbMText
 10
-17.49999999999999
 20
330.5142024541258
 30
0.0
 40
4.0
 41
0.0
 46
0.0
 71
     5
 72
     1
  1
\A1;35
 73
     1
 44
1.0
  0
POINT
  5
6EB2
330
6924
100
AcDbEntity
  8
DEFPOINTS
  6
Continuous
 62
     0
440
 16777216
100
AcDbPoint
 10
-35.0
 20
277.415875659212
 30
0.0
  0
POINT
  5
6EB3
330
6924
100
AcDbEntity
  8
DEFPOINTS
  6
Continuous
 62
     0
440
 16777216
100
AcDbPoint
 10
0.0
 20
274.415875659212
 30
0.0
  0
POINT
  5
6EB4
330
6924
100
AcDbEntity
  8
DEFPOINTS
  6
Continuous
 62
     0
440
 16777216
100
AcDbPoint
 10
0.0000000000000033
 20
327.5142024541259
 30
0.0
  0
ENDBLK
  5
692F
330
6924
100
AcDbEntity
  8
0
100
AcDbBlockEnd
  0
BLOCK
  5
693B
330
6931
100
AcDbEntity
  8
0
100
AcDbBlockBegin
  2
*D30
 70
     1
 10
0.0
 20
0.0
 30
0.0
  3
*D30
  1

  0
LINE
  5
7194
330
6931
100
AcDbEntity
  8
30
  6
Continuous
 62
     0
440
 16777216
100
AcDbLine
 10
0.0000000000000001
 20
275.415875659212
 30
0.0
 11
0.0000000000000033
 21
328.0142024541258
 31
0.0
  0
LINE
  5
7195
330
6931
100
AcDbEntity
  8
30
  6
Continuous
 62
     0
440
 16777216
100
AcDbLine
 10
35.00000000000003
 20
278.415875659212
 30
0.0
 11
35.00000000000003
 21
328.0142024541258
 31
0.0
  0
LINE
  5
7196
330
6931
100
AcDbEntity
  8
30
  6
Continuous
 62
     0
440
 16777216
100
AcDbLine
 10
2.000000000000003
 20
327.5142024541259
 30
0.0
 11
33.00000000000004
 21
327.5142024541259
 31
0.0
  0
INSERT
  5
7197
330
6931
100
AcDbEntity
  8
30
  6
Continuous
 62
     0
440
 16777216
100
AcDbBlockReference
  2
_OPEN
 10
0.0000000000000033
 20
327.5142024541259
 30
0.0
 41
2.0
 42
2.0
 43
2.0
 50
180.0
  0
INSERT
  5
7198
330
6931
100
AcDbEntity
  8
30
  6
Continuous
 62
     0
440
 16777216
100
AcDbBlockReference
  2
_OPEN
 10
35.00000000000003
 20
327.5142024541259
 30
0.0
 41
2.0
 42
2.0
 43
2.0
  0
MTEXT
  5
7199
330
6931
100
AcDbEntity
  8
30
  6
Continuous
 62
     0
440
 16777216
100
AcDbMText
 10
17.50000000000001
 20
330.5142024541258
 30
0.0
 40
4.0
 41
0.0
 46
0.0
 71
     5
 72
     1
  1
\A1;35
 73
     1
 44
1.0
  0
POINT
  5
719A
330
6931
100
AcDbEntity
  8
DEFPOINTS
  6
Continuous
 62
     0
440
 16777216
100
AcDbPoint
 10
0.0
 20
274.415875659212
 30
0.0
  0
POINT
  5
719B
330
6931
100
AcDbEntity
  8
DEFPOINTS
  6
Continuous
 62
     0
440
 16777216
100
AcDbPoint
 10
35.00000000000003
 20
277.415875659212
 30
0.0
  0
POINT
  5
719C
330
6931
100
AcDbEntity
  8
DEFPOINTS
  6
Continuous
 62
     0
440
 16777216
100
AcDbPoint
 10
35.00000000000003
 20
327.5142024541259
 30
0.0
  0
ENDBLK
  5
693C
330
6931
100
AcDbEntity
  8
0
100
AcDbBlockEnd
  0
BLOCK
  5
6948
330
693E
100
AcDbEntity
  8
0
100
AcDbBlockBegin
  2
*D31
 70
     1
 10
0.0
 20
0.0
 30
0.0
  3
*D31
  1

  0
LINE
  5
719D
330
693E
100
AcDbEntity
  8
30
  6
Continuous
 62
     0
440
 16777216
100
AcDbLine
 10
35.00000000000003
 20
278.415875659212
 30
0.0
 11
35.00000000000003
 21
328.0142024541258
 31
0.0
  0
LINE
  5
719E
330
693E
100
AcDbEntity
  8
30
  6
Continuous
 62
     0
440
 16777216
100
AcDbLine
 10
70.00000000000003
 20
278.415875659212
 30
0.0
 11
70.00000000000003
 21
328.0142024541258
 31
0.0
  0
LINE
  5
719F
330
693E
100
AcDbEntity
  8
30
  6
Continuous
 62
     0
440
 16777216
100
AcDbLine
 10
37.00000000000004
 20
327.5142024541259
 30
0.0
 11
68.00000000000003
 21
327.5142024541259
 31
0.0
  0
INSERT
  5
71A0
330
693E
100
AcDbEntity
  8
30
  6
Continuous
 62
     0
440
 16777216
100
AcDbBlockReference
  2
_OPEN
 10
35.00000000000003
 20
327.5142024541259
 30
0.0
 41
2.0
 42
2.0
 43
2.0
 50
180.0
  0
INSERT
  5
71A1
330
693E
100
AcDbEntity
  8
30
  6
Continuous
 62
     0
440
 16777216
100
AcDbBlockReference
  2
_OPEN
 10
70.00000000000003
 20
327.5142024541259
 30
0.0
 41
2.0
 42
2.0
 43
2.0
  0
MTEXT
  5
71A2
330
693E
100
AcDbEntity
  8
30
  6
Continuous
 62
     0
440
 16777216
100
AcDbMText
 10
52.50000000000003
 20
330.5142024541258
 30
0.0
 40
4.0
 41
0.0
 46
0.0
 71
     5
 72
     1
  1
\A1;35
 73
     1
 44
1.0
  0
POINT
  5
71A3
330
693E
100
AcDbEntity
  8
DEFPOINTS
  6
Continuous
 62
     0
440
 16777216
100
AcDbPoint
 10
35.00000000000003
 20
277.415875659212
 30
0.0
  0
POINT
  5
71A4
330
693E
100
AcDbEntity
  8
DEFPOINTS
  6
Continuous
 62
     0
440
 16777216
100
AcDbPoint
 10
70.00000000000003
 20
277.415875659212
 30
0.0
  0
POINT
  5
71A5
330
693E
100
AcDbEntity
  8
DEFPOINTS
  6
Continuous
 62
     0
440
 16777216
100
AcDbPoint
 10
70.00000000000003
 20
327.5142024541259
 30
0.0
  0
ENDBLK
  5
6949
330
693E
100
AcDbEntity
  8
0
100
AcDbBlockEnd
  0
BLOCK
  5
6972
330
6968
100
AcDbEntity
  8
0
100
AcDbBlockBegin
  2
*D33
 70
     1
 10
0.0
 20
0.0
 30
0.0
  3
*D33
  1

  0
LINE
  5
6E91
330
6968
100
AcDbEntity
  8
30
  6
Continuous
 62
     0
440
 16777216
100
AcDbLine
 10
-20.0
 20
182.4999999999999
 30
0.0
 11
-72.92950291237827
 21
182.4999999999999
 31
0.0
  0
LINE
  5
6E92
330
6968
100
AcDbEntity
  8
30
  6
Continuous
 62
     0
440
 16777216
100
AcDbLine
 10
-20.0
 20
82.50000000000001
 30
0.0
 11
-72.92950291237829
 21
82.50000000000003
 31
0.0
  0
LINE
  5
6E93
330
6968
100
AcDbEntity
  8
30
  6
Continuous
 62
     0
440
 16777216
100
AcDbLine
 10
-72.42950291237827
 20
180.4999999999999
 30
0.0
 11
-72.42950291237829
 21
84.50000000000001
 31
0.0
  0
INSERT
  5
6E94
330
6968
100
AcDbEntity
  8
30
  6
Continuous
 62
     0
440
 16777216
100
AcDbBlockReference
  2
_OPEN
 10
-72.42950291237827
 20
182.4999999999999
 30
0.0
 41
2.0
 42
2.0
 43
2.0
 50
90.0
  0
INSERT
  5
6E95
330
6968
100
AcDbEntity
  8
30
  6
Continuous
 62
     0
440
 16777216
100
AcDbBlockReference
  2
_OPEN
 10
-72.42950291237829
 20
82.50000000000003
 30
0.0
 41
2.0
 42
2.0
 43
2.0
 50
270.0
  0
MTEXT
  5
6E96
330
6968
100
AcDbEntity
  8
30
  6
Continuous
 62
     0
440
 16777216
100
AcDbMText
 10
-75.42950291237829
 20
132.4999999999999
 30
0.0
 40
4.0
 41
0.0
 46
0.0
 71
     5
 72
     1
  1
\A1;100
 11
0.0000000000000001
 21
1.0
 31
0.0
 73
     1
 44
1.0
  0
POINT
  5
6E97
330
6968
100
AcDbEntity
  8
DEFPOINTS
  6
Continuous
 62
     0
440
 16777216
100
AcDbPoint
 10
-19.0
 20
182.4999999999999
 30
0.0
  0
POINT
  5
6E98
330
6968
100
AcDbEntity
  8
DEFPOINTS
  6
Continuous
 62
     0
440
 16777216
100
AcDbPoint
 10
-19.0
 20
82.50000000000001
 30
0.0
  0
POINT
  5
6E99
330
6968
100
AcDbEntity
  8
DEFPOINTS
  6
Continuous
 62
     0
440
 16777216
100
AcDbPoint
 10
-72.42950291237829
 20
82.50000000000003
 30
0.0
  0
ENDBLK
  5
6973
330
6968
100
AcDbEntity
  8
0
100
AcDbBlockEnd
  0
BLOCK
  5
697F
330
6975
100
AcDbEntity
  8
0
100
AcDbBlockBegin
  2
*D34
 70
     1
 10
0.0
 20
0.0
 30
0.0
  3
*D34
  1

  0
LINE
  5
6E88
330
6975
100
AcDbEntity
  8
30
  6
Continuous
 62
     0
440
 16777216
100
AcDbLine
 10
-71.4295029123783
 20
82.50000000000001
 30
0.0
 11
-71.92950291237828
 21
82.50000000000001
 31
0.0
  0
LINE
  5
6E89
330
6975
100
AcDbEntity
  8
30
  6
Continuous
 62
     0
440
 16777216
100
AcDbLine
 10
-53.50000000000001
 20
-82.5
 30
0.0
 11
-72.92950291237831
 21
-82.5
 31
0.0
  0
LINE
  5
6E8A
330
6975
100
AcDbEntity
  8
30
  6
Continuous
 62
     0
440
 16777216
100
AcDbLine
 10
-72.42950291237828
 20
80.50000000000002
 30
0.0
 11
-72.42950291237831
 21
-80.5
 31
0.0
  0
INSERT
  5
6E8B
330
6975
100
AcDbEntity
  8
30
  6
Continuous
 62
     0
440
 16777216
100
AcDbBlockReference
  2
_OPEN
 10
-72.42950291237828
 20
82.50000000000001
 30
0.0
 41
2.0
 42
2.0
 43
2.0
 50
90.0
  0
INSERT
  5
6E8C
330
6975
100
AcDbEntity
  8
30
  6
Continuous
 62
     0
440
 16777216
100
AcDbBlockReference
  2
_OPEN
 10
-72.42950291237831
 20
-82.5
 30
0.0
 41
2.0
 42
2.0
 43
2.0
 50
270.0
  0
MTEXT
  5
6E8D
330
6975
100
AcDbEntity
  8
30
  6
Continuous
 62
     0
440
 16777216
100
AcDbMText
 10
-75.42950291237829
 20
-0.0000000000000023
 30
0.0
 40
4.0
 41
0.0
 46
0.0
 71
     5
 72
     1
  1
\A1;165
 11
0.0000000000000001
 21
1.0
 31
0.0
 73
     1
 44
1.0
  0
POINT
  5
6E8E
330
6975
100
AcDbEntity
  8
DEFPOINTS
  6
Continuous
 62
     0
440
 16777216
100
AcDbPoint
 10
-72.42950291237829
 20
82.50000000000001
 30
0.0
  0
POINT
  5
6E8F
330
6975
100
AcDbEntity
  8
DEFPOINTS
  6
Continuous
 62
     0
440
 16777216
100
AcDbPoint
 10
-52.5
 20
-82.5
 30
0.0
  0
POINT
  5
6E90
330
6975
100
AcDbEntity
  8
DEFPOINTS
  6
Continuous
 62
     0
440
 16777216
100
AcDbPoint
 10
-72.42950291237831
 20
-82.5
 30
0.0
  0
ENDBLK
  5
6980
330
6975
100
AcDbEntity
  8
0
100
AcDbBlockEnd
  0
BLOCK
  5
6B66
330
6B5D
100
AcDbEntity
  8
0
100
AcDbBlockBegin
  2
*D36
 70
     1
 10
0.0
 20
0.0
 30
0.0
  3
*D36
  1

  0
LINE
  5
702A
330
6B5D
100
AcDbEntity
  8
30
  6
Continuous
 62
     0
440
 16777216
100
AcDbLine
 10
269.4290315443383
 20
-223.7951530045505
 30
0.0
 11
263.0956982110049
 21
-223.7951530045505
 31
0.0
  0
LINE
  5
702B
330
6B5D
100
AcDbEntity
  8
30
  6
Continuous
 62
     0
440
 16777216
100
AcDbLine
 10
263.0956982110049
 20
-223.7951530045505
 30
0.0
 11
261.457418926603
 21
-224.9423413004719
 31
0.0
  0
MTEXT
  5
702C
330
6B5D
100
AcDbEntity
  8
30
  6
Continuous
 62
     0
440
 16777216
100
AcDbMText
 10
266.7623648776715
 20
-220.7951530045506
 30
0.0
 40
4.0
 41
0.0
 46
0.0
 71
     5
 72
     1
  1
\A1;R1
 73
     1
 44
1.0
  0
INSERT
  5
702D
330
6B5D
100
AcDbEntity
  8
30
  6
Continuous
 62
     0
440
 16777216
100
AcDbBlockReference
  2
_OPEN
 10
259.8191396422011
 20
-226.0895295963939
 30
0.0
 41
2.0
 42
2.0
 43
2.0
 50
215.0012388520259
  0
LINE
  5
702E
330
6B5D
100
AcDbEntity
  8
30
  6
Continuous
 62
     0
440
 16777216
100
AcDbLine
 10
258.9100000000001
 20
-226.6631237443545
 30
0.0
 11
259.0899999999999
 21
-226.6631237443545
 31
0.0
  0
LINE
  5
702F
330
6B5D
100
AcDbEntity
  8
30
  6
Continuous
 62
     0
440
 16777216
100
AcDbLine
 10
259.0
 20
-226.7531237443547
 30
0.0
 11
259.0
 21
-226.5731237443545
 31
0.0
  0
POINT
  5
7030
330
6B5D
100
AcDbEntity
  8
DEFPOINTS
  6
Continuous
 62
     0
440
 16777216
100
AcDbPoint
 10
259.8191396422011
 20
-226.0895295963939
 30
0.0
  0
POINT
  5
7031
330
6B5D
100
AcDbEntity
  8
DEFPOINTS
  6
Continuous
 62
     0
440
 16777216
100
AcDbPoint
 10
259.0
 20
-226.6631237443545
 30
0.0
  0
ENDBLK
  5
6B67
330
6B5D
100
AcDbEntity
  8
0
100
AcDbBlockEnd
  0
BLOCK
  5
6B72
330
6B68
100
AcDbEntity
  8
0
100
AcDbBlockBegin
  2
*D37
 70
     1
 10
0.0
 20
0.0
 30
0.0
  3
*D37
  1

  0
LINE
  5
7021
330
6B68
100
AcDbEntity
  8
30
  6
Continuous
 62
     0
440
 16777216
100
AcDbLine
 10
260.0
 20
-225.6631237443547
 30
0.0
 11
307.4306349733515
 21
-225.6631237443547
 31
0.0
  0
LINE
  5
7022
330
6B68
100
AcDbEntity
  8
30
  6
Continuous
 62
     0
440
 16777216
100
AcDbLine
 10
260.0
 20
-277.6631237443548
 30
0.0
 11
307.4306349733515
 21
-277.6631237443548
 31
0.0
  0
LINE
  5
7023
330
6B68
100
AcDbEntity
  8
30
  6
Continuous
 62
     0
440
 16777216
100
AcDbLine
 10
306.9306349733515
 20
-227.6631237443548
 30
0.0
 11
306.9306349733515
 21
-275.6631237443548
 31
0.0
  0
INSERT
  5
7024
330
6B68
100
AcDbEntity
  8
30
  6
Continuous
 62
     0
440
 16777216
100
AcDbBlockReference
  2
_OPEN
 10
306.9306349733515
 20
-225.6631237443547
 30
0.0
 41
2.0
 42
2.0
 43
2.0
 50
90.0
  0
INSERT
  5
7025
330
6B68
100
AcDbEntity
  8
30
  6
Continuous
 62
     0
440
 16777216
100
AcDbBlockReference
  2
_OPEN
 10
306.9306349733515
 20
-277.6631237443548
 30
0.0
 41
2.0
 42
2.0
 43
2.0
 50
270.0
  0
MTEXT
  5
7026
330
6B68
100
AcDbEntity
  8
30
  6
Continuous
 62
     0
440
 16777216
100
AcDbMText
 10
303.9306349733515
 20
-251.6631237443548
 30
0.0
 40
4.0
 41
0.0
 46
0.0
 71
     5
 72
     1
  1
\A1;52
 11
0.0000000000000001
 21
1.0
 31
0.0
 73
     1
 44
1.0
  0
POINT
  5
7027
330
6B68
100
AcDbEntity
  8
DEFPOINTS
  6
Continuous
 62
     0
440
 16777216
100
AcDbPoint
 10
259.0
 20
-225.6631237443547
 30
0.0
  0
POINT
  5
7028
330
6B68
100
AcDbEntity
  8
DEFPOINTS
  6
Continuous
 62
     0
440
 16777216
100
AcDbPoint
 10
259.0
 20
-277.6631237443548
 30
0.0
  0
POINT
  5
7029
330
6B68
100
AcDbEntity
  8
DEFPOINTS
  6
Continuous
 62
     0
440
 16777216
100
AcDbPoint
 10
306.9306349733515
 20
-277.6631237443548
 30
0.0
  0
ENDBLK
  5
6B73
330
6B68
100
AcDbEntity
  8
0
100
AcDbBlockEnd
  0
BLOCK
  5
6B8A
330
6B80
100
AcDbEntity
  8
0
100
AcDbBlockBegin
  2
*D39
 70
     1
 10
0.0
 20
0.0
 30
0.0
  3
*D39
  1

  0
LINE
  5
7018
330
6B80
100
AcDbEntity
  8
30
  6
Continuous
 62
     0
440
 16777216
100
AcDbLine
 10
160.0
 20
-277.6631237443548
 30
0.0
 11
160.0
 21
-365.6576913624973
 31
0.0
  0
LINE
  5
7019
330
6B80
100
AcDbEntity
  8
30
  6
Continuous
 62
     0
440
 16777216
100
AcDbLine
 10
260.0
 20
-277.6631237443548
 30
0.0
 11
260.0
 21
-365.6576913624973
 31
0.0
  0
LINE
  5
701A
330
6B80
100
AcDbEntity
  8
30
  6
Continuous
 62
     0
440
 16777216
100
AcDbLine
 10
162.0
 20
-365.1576913624972
 30
0.0
 11
258.0
 21
-365.1576913624972
 31
0.0
  0
INSERT
  5
701B
330
6B80
100
AcDbEntity
  8
30
  6
Continuous
 62
     0
440
 16777216
100
AcDbBlockReference
  2
_OPEN
 10
160.0
 20
-365.1576913624972
 30
0.0
 41
2.0
 42
2.0
 43
2.0
 50
180.0
  0
INSERT
  5
701C
330
6B80
100
AcDbEntity
  8
30
  6
Continuous
 62
     0
440
 16777216
100
AcDbBlockReference
  2
_OPEN
 10
260.0
 20
-365.1576913624972
 30
0.0
 41
2.0
 42
2.0
 43
2.0
  0
MTEXT
  5
701D
330
6B80
100
AcDbEntity
  8
30
  6
Continuous
 62
     0
440
 16777216
100
AcDbMText
 10
210.0
 20
-362.1576913624973
 30
0.0
 40
4.0
 41
0.0
 46
0.0
 71
     5
 72
     1
  1
\A1;100
 73
     1
 44
1.0
  0
POINT
  5
701E
330
6B80
100
AcDbEntity
  8
DEFPOINTS
  6
Continuous
 62
     0
440
 16777216
100
AcDbPoint
 10
160.0
 20
-276.6631237443549
 30
0.0
  0
POINT
  5
701F
330
6B80
100
AcDbEntity
  8
DEFPOINTS
  6
Continuous
 62
     0
440
 16777216
100
AcDbPoint
 10
260.0
 20
-276.6631237443549
 30
0.0
  0
POINT
  5
7020
330
6B80
100
AcDbEntity
  8
DEFPOINTS
  6
Continuous
 62
     0
440
 16777216
100
AcDbPoint
 10
260.0
 20
-365.1576913624972
 30
0.0
  0
ENDBLK
  5
6B8B
330
6B80
100
AcDbEntity
  8
0
100
AcDbBlockEnd
  0
ENDSEC
  0
SECTION
  2
ENTITIES
  0
LINE
  5
B4
330
1E
100
AcDbEntity
  8
16
100
AcDbLine
 10
0.0
 20
-101.8246001220914
 30
0.0
 11
0.0
 21
105.6073578546832
 31
0.0
  0
MTEXT
  5
BF3
330
1E
100
AcDbEntity
  8
24
  6
Continuous
100
AcDbMText
 10
142.118191
 20
177.5
 30
0.0
 40
3.0
 41
0.0
 46
0.0
 71
     1
 72
     1
  1
\A1;
 73
     1
 44
1.0
  0
LINE
  5
1C9A
330
1E
100
AcDbEntity
  8
16
100
AcDbLine
 10
0.0
 20
173.6953512083053
 30
0.0
 11
0.0
 21
316.1953512083052
 31
0.0
  0
LINE
  5
1C9B
330
1E
100
AcDbEntity
  8
16
100
AcDbLine
 10
249.3429057645195
 20
-0.0000000000000027
 30
0.0
 11
117.1776581523497
 21
-0.0000000000000027
 31
0.0
  0
LINE
  5
2260
330
1E
100
AcDbEntity
  8
16
100
AcDbLine
 10
68.52380301423583
 20
-250.8473940210348
 30
0.0
 11
-80.93000773675209
 21
-250.8473940210348
 31
0.0
  0
LINE
  5
2261
330
1E
100
AcDbEntity
  8
16
100
AcDbLine
 10
-0.3800945351711884
 20
-348.5993337838804
 30
0.0
 11
-0.3800945351711884
 21
-149.4639948115488
 31
0.0
  0
LINE
  5
4C5A
330
1E
100
AcDbEntity
  8
16
100
AcDbLine
 10
88.49441808474184
 20
-0.0000000000000027
 30
0.0
 11
-83.90588178115756
 21
-0.0000000000000027
 31
0.0
  0
TEXT
  5
5C39
330
1E
100
AcDbEntity
  8
30
  6
Continuous
100
AcDbText
 10
290.2984645830388
 20
83.54154432434098
 30
0.0
 40
5.0
  1
%%c9
  7
STANDARD1
100
AcDbText
  0
MTEXT
  5
5C78
330
1E
100
AcDbEntity
  8
30
  6
Continuous
100
AcDbMText
 10
163.4658593933072
 20
90.15025714526428
 30
0.0
 40
4.0
 41
0.0
 46
0.0
 71
     9
 72
     1
  1

 73
     1
 44
1.0
  0
LEADER
  5
5C79
330
1E
100
AcDbEntity
  8
30
  6
Continuous
100
AcDbLeader
  3
STANDARD
 76
     3
 10
311.5981526098346
 20
62.54225584523794
 30
0.0
 10
302.2621549812772
 20
81.64926198103842
 30
0.0
 10
288.9250114560097
 20
82.09361040007944
 30
0.0
213
0.0
223
2.0
233
0.0
1001
ACAD
1000
DSTYLE
1002
{
1070
     5
1000
OPEN
1070
    77
1070
     0
1070
    79
1070
     3
1070
   147
1040
1.0
1070
   342
1005
3B2
1002
}
  0
LINE
  5
5C86
330
1E
100
AcDbEntity
  8
10
  6
CONTINOUS
100
AcDbLine
 10
-52.49999999999989
 20
235.415875659212
 30
0.0
 11
-52.5
 21
296.4158756592119
 31
0.0
  0
LINE
  5
5C8A
330
1E
100
AcDbEntity
  8
10
  6
CONTINOUS
100
AcDbLine
 10
87.50000000000005
 20
235.415875659212
 30
0.0
 11
87.50000000000005
 21
296.4158756592119
 31
0.0
  0
LINE
  5
5C8B
330
1E
100
AcDbEntity
  8
10
  6
CONTINOUS
100
AcDbLine
 10
-48.99999999999986
 20
228.4158756592118
 30
0.0
 11
49.00000000000003
 21
228.4158756592118
 31
0.0
  0
LINE
  5
5C8C
330
1E
100
AcDbEntity
  8
10
  6
CONTINOUS
100
AcDbLine
 10
48.99999999999989
 20
235.415875659212
 30
0.0
 11
87.50000000000005
 21
235.415875659212
 31
0.0
  0
LINE
  5
5C8D
330
1E
100
AcDbEntity
  8
10
  6
CONTINOUS
100
AcDbLine
 10
49.00000000000003
 20
228.4158756592118
 30
0.0
 11
49.00000000000003
 21
235.415875659212
 31
0.0
  0
LINE
  5
5C8E
330
1E
100
AcDbEntity
  8
10
  6
CONTINOUS
100
AcDbLine
 10
-11.52685530275693
 20
220.4158756592119
 30
0.0
 11
10.49104823241427
 21
220.4158756592119
 31
0.0
  0
LINE
  5
5C8F
330
1E
100
AcDbEntity
  8
10
  6
CONTINOUS
100
AcDbLine
 10
-11.52685530275693
 20
224.4158756592119
 30
0.0
 11
10.49104823241427
 21
224.4158756592119
 31
0.0
  0
LINE
  5
5C91
330
1E
100
AcDbEntity
  8
10
  6
CONTINOUS
100
AcDbLine
 10
10.49104823241427
 20
220.4158756592119
 30
0.0
 11
10.49104823241427
 21
228.4158756592118
 31
0.0
  0
LINE
  5
5C95
330
1E
100
AcDbEntity
  8
10
  6
CONTINOUS
100
AcDbLine
 10
-52.49999999999989
 20
235.415875659212
 30
0.0
 11
-48.99999999999998
 21
235.415875659212
 31
0.0
  0
LINE
  5
5C96
330
1E
100
AcDbEntity
  8
10
  6
CONTINOUS
100
AcDbLine
 10
-11.52685530275693
 20
220.4158756592119
 30
0.0
 11
-11.52685530275693
 21
228.4158756592118
 31
0.0
  0
LINE
  5
5C97
330
1E
100
AcDbEntity
  8
10
  6
CONTINOUS
100
AcDbLine
 10
-48.99999999999998
 20
228.4158756592118
 30
0.0
 11
-48.99999999999998
 21
235.415875659212
 31
0.0
  0
LINE
  5
5C98
330
1E
100
AcDbEntity
  8
10
  6
CONTINOUS
100
AcDbLine
 10
-52.5
 20
296.4158756592119
 30
0.0
 11
87.50000000000005
 21
296.4158756592119
 31
0.0
  0
LINE
  5
5CA2
330
1E
100
AcDbEntity
  8
24
  6
CONTINOUS
100
AcDbLine
 10
35.00000000000003
 20
260.2158756592118
 30
0.0
 11
35.00000000000003
 21
277.415875659212
 31
0.0
  0
LINE
  5
5CA3
330
1E
100
AcDbEntity
  8
24
  6
CONTINOUS
100
AcDbLine
 10
24.50000000000001
 20
272.415875659212
 30
0.0
 11
45.50000000000014
 21
272.415875659212
 31
0.0
  0
LINE
  5
5CA4
330
1E
100
AcDbEntity
  8
24
  6
CONTINOUS
100
AcDbLine
 10
27.30000000000009
 20
270.415875659212
 30
0.0
 11
42.70000000000007
 21
270.415875659212
 31
0.0
  0
LINE
  5
5CA5
330
1E
100
AcDbEntity
  8
24
  6
CONTINOUS
100
AcDbLine
 10
30.00000000000003
 20
265.2158756592118
 30
0.0
 11
40.0
 21
265.2158756592118
 31
0.0
  0
LINE
  5
5CA6
330
1E
100
AcDbEntity
  8
24
  6
CONTINOUS
100
AcDbLine
 10
24.50000000000001
 20
274.415875659212
 30
0.0
 11
45.50000000000014
 21
274.415875659212
 31
0.0
  0
LINE
  5
5CA7
330
1E
100
AcDbEntity
  8
24
  6
CONTINOUS
100
AcDbLine
 10
42.70000000000007
 20
270.415875659212
 30
0.0
 11
42.70000000000007
 21
272.415875659212
 31
0.0
  0
ARC
  5
5CA8
330
1E
100
AcDbEntity
  8
24
  6
CONTINOUS
100
AcDbCircle
 10
40.0
 20
267.2158756592115
 30
0.0
 40
2.0
100
AcDbArc
 50
270.0
 51
0.0
  0
LINE
  5
5CA9
330
1E
100
AcDbEntity
  8
24
  6
CONTINOUS
100
AcDbLine
 10
42.00000000000001
 20
267.2158756592115
 30
0.0
 11
42.00000000000001
 21
270.415875659212
 31
0.0
  0
LINE
  5
5CAB
330
1E
100
AcDbEntity
  8
24
  6
CONTINOUS
100
AcDbLine
 10
27.30000000000009
 20
270.415875659212
 30
0.0
 11
27.30000000000009
 21
272.415875659212
 31
0.0
  0
ARC
  5
5CAC
330
1E
100
AcDbEntity
  8
24
  6
CONTINOUS
100
AcDbCircle
 10
30.00000000000003
 20
267.2158756592115
 30
0.0
 40
2.0
100
AcDbArc
 50
180.0
 51
270.0
  0
LINE
  5
5CAD
330
1E
100
AcDbEntity
  8
24
  6
CONTINOUS
100
AcDbLine
 10
28.00000000000002
 20
267.2158756592115
 30
0.0
 11
28.00000000000002
 21
270.415875659212
 31
0.0
  0
LWPOLYLINE
  5
5CCD
330
1E
100
AcDbEntity
  8
10
  6
CONTINOUS
100
AcDbPolyline
 90
        4
 70
     1
 43
0.0
 10
-7.508951767585668
 20
220.4158756592119
 10
6.491048232414271
 20
220.4158756592119
 10
6.491048232414271
 20
212.3438542435155
 10
-7.508951767585668
 20
212.3438542435155
  0
LINE
  5
5F54
330
1E
100
AcDbEntity
  8
24
  6
CONTINOUS
100
AcDbLine
 10
-10.49999999999999
 20
274.415875659212
 30
0.0
 11
10.5000000000001
 21
274.415875659212
 31
0.0
  0
LINE
  5
5F55
330
1E
100
AcDbEntity
  8
24
  6
CONTINOUS
100
AcDbLine
 10
-7.699999999999931
 20
270.415875659212
 30
0.0
 11
7.700000000000045
 21
270.415875659212
 31
0.0
  0
LINE
  5
5F56
330
1E
100
AcDbEntity
  8
24
  6
CONTINOUS
100
AcDbLine
 10
-10.49999999999999
 20
272.415875659212
 30
0.0
 11
10.5000000000001
 21
272.415875659212
 31
0.0
  0
ARC
  5
5F57
330
1E
100
AcDbEntity
  8
24
  6
CONTINOUS
100
AcDbCircle
 10
5.0
 20
267.2158756592115
 30
0.0
 40
2.0
100
AcDbArc
 50
270.0
 51
0.0
  0
LINE
  5
5F58
330
1E
100
AcDbEntity
  8
24
  6
CONTINOUS
100
AcDbLine
 10
-6.999999999999997
 20
267.2158756592115
 30
0.0
 11
-6.999999999999997
 21
270.415875659212
 31
0.0
  0
LINE
  5
5F59
330
1E
100
AcDbEntity
  8
24
  6
CONTINOUS
100
AcDbLine
 10
-0.0000000000000009
 20
260.2158756592118
 30
0.0
 11
-0.0000000000000009
 21
277.415875659212
 31
0.0
  0
LINE
  5
5F5A
330
1E
100
AcDbEntity
  8
24
  6
CONTINOUS
100
AcDbLine
 10
-4.999999999999999
 20
265.2158756592118
 30
0.0
 11
5.0
 21
265.2158756592118
 31
0.0
  0
ARC
  5
5F5B
330
1E
100
AcDbEntity
  8
24
  6
CONTINOUS
100
AcDbCircle
 10
-4.999999999999999
 20
267.2158756592115
 30
0.0
 40
2.0
100
AcDbArc
 50
180.0
 51
270.0
  0
LINE
  5
5F5C
330
1E
100
AcDbEntity
  8
24
  6
CONTINOUS
100
AcDbLine
 10
-7.699999999999931
 20
270.415875659212
 30
0.0
 11
-7.699999999999931
 21
272.415875659212
 31
0.0
  0
LINE
  5
5F5D
330
1E
100
AcDbEntity
  8
24
  6
CONTINOUS
100
AcDbLine
 10
7.0
 20
267.2158756592115
 30
0.0
 11
7.0
 21
270.415875659212
 31
0.0
  0
LINE
  5
5F5E
330
1E
100
AcDbEntity
  8
24
  6
CONTINOUS
100
AcDbLine
 10
7.700000000000045
 20
270.415875659212
 30
0.0
 11
7.700000000000045
 21
272.415875659212
 31
0.0
  0
LINE
  5
5F60
330
1E
100
AcDbEntity
  8
24
  6
CONTINOUS
100
AcDbLine
 10
-40.0
 20
265.2158756592118
 30
0.0
 11
-29.99999999999999
 21
265.2158756592118
 31
0.0
  0
LINE
  5
5F61
330
1E
100
AcDbEntity
  8
24
  6
CONTINOUS
100
AcDbLine
 10
-45.49999999999999
 20
272.415875659212
 30
0.0
 11
-24.49999999999988
 21
272.415875659212
 31
0.0
  0
LINE
  5
5F62
330
1E
100
AcDbEntity
  8
24
  6
CONTINOUS
100
AcDbLine
 10
-42.69999999999993
 20
270.415875659212
 30
0.0
 11
-27.29999999999995
 21
270.415875659212
 31
0.0
  0
LINE
  5
5F63
330
1E
100
AcDbEntity
  8
24
  6
CONTINOUS
100
AcDbLine
 10
-45.49999999999999
 20
274.415875659212
 30
0.0
 11
-24.49999999999988
 21
274.415875659212
 31
0.0
  0
LINE
  5
5F64
330
1E
100
AcDbEntity
  8
24
  6
CONTINOUS
100
AcDbLine
 10
-35.0
 20
260.2158756592118
 30
0.0
 11
-35.0
 21
277.415875659212
 31
0.0
  0
LINE
  5
5F65
330
1E
100
AcDbEntity
  8
24
  6
CONTINOUS
100
AcDbLine
 10
-42.0
 20
267.2158756592115
 30
0.0
 11
-42.0
 21
270.415875659212
 31
0.0
  0
ARC
  5
5F66
330
1E
100
AcDbEntity
  8
24
  6
CONTINOUS
100
AcDbCircle
 10
-39.99999999999987
 20
267.2158756592115
 30
0.0
 40
2.0
100
AcDbArc
 50
180.0
 51
270.0
  0
LINE
  5
5F67
330
1E
100
AcDbEntity
  8
24
  6
CONTINOUS
100
AcDbLine
 10
-42.69999999999993
 20
270.415875659212
 30
0.0
 11
-42.69999999999993
 21
272.415875659212
 31
0.0
  0
LINE
  5
5F68
330
1E
100
AcDbEntity
  8
24
  6
CONTINOUS
100
AcDbLine
 10
-28.0
 20
267.2158756592115
 30
0.0
 11
-28.0
 21
270.415875659212
 31
0.0
  0
ARC
  5
5F69
330
1E
100
AcDbEntity
  8
24
  6
CONTINOUS
100
AcDbCircle
 10
-29.99999999999987
 20
267.2158756592115
 30
0.0
 40
2.0
100
AcDbArc
 50
270.0
 51
0.0
  0
LINE
  5
5F6A
330
1E
100
AcDbEntity
  8
24
  6
CONTINOUS
100
AcDbLine
 10
-27.29999999999995
 20
270.415875659212
 30
0.0
 11
-27.29999999999995
 21
272.415875659212
 31
0.0
  0
MTEXT
  5
6068
330
1E
100
AcDbEntity
  8
30
  6
Continuous
100
AcDbMText
 10
-32.98718375015141
 20
-163.7563795703974
 30
0.0
 40
4.0
 41
0.0
 46
0.0
 71
     9
 72
     1
  1

 73
     1
 44
1.0
  0
DIMENSION
  5
62D2
330
1E
100
AcDbEntity
  8
30
  6
Continuous
100
AcDbDimension
280
     0
  2
*D1
 10
49.00000000000003
 20
35.21319198619853
 30
0.0
 11
0.0000000000000251
 21
38.21319198619852
 31
0.0
 70
    32
 71
     5
 42
-1.0
 73
     0
 74
     0
 75
     0
  3
STANDARD
100
AcDbAlignedDimension
 13
-48.99999999999998
 23
25.0
 33
0.0
 14
49.00000000000003
 24
25.0
 34
0.0
100
AcDbRotatedDimension
1001
ACAD
1000
DSTYLE
1002
{
1070
    79
1070
     3
1002
}
  0
DIMENSION
  5
62D3
330
1E
100
AcDbEntity
  8
30
  6
Continuous
100
AcDbDimension
280
     0
  2
*D2
 10
87.50000000000005
 20
-130.4544464119911
 30
0.0
 11
17.50000000000001
 21
-127.4544464119911
 31
0.0
 70
    32
 71
     5
 42
-1.0
 73
     0
 74
     0
 75
     0
  3
STANDARD
100
AcDbAlignedDimension
 13
-52.5
 23
-82.5
 33
0.0
 14
87.50000000000005
 24
-82.5
 34
0.0
 50
180.0
100
AcDbRotatedDimension
1001
ACAD
1000
DSTYLE
1002
{
1070
    79
1070
     3
1002
}
  0
DIMENSION
  5
62D4
330
1E
100
AcDbEntity
  8
30
  6
Continuous
100
AcDbDimension
280
     0
  2
*D3
 10
-0.000000000000002
 20
-110.454446411991
 30
0.0
 11
-17.49999999999999
 21
-107.454446411991
 31
0.0
 70
    32
 71
     5
 42
-1.0
 73
     0
 74
     0
 75
     0
  3
STANDARD
100
AcDbAlignedDimension
 13
-35.0
 23
-74.50000001650001
 33
0.0
 14
0.0
 24
-77.00000000000007
 34
0.0
 50
180.0
100
AcDbRotatedDimension
1001
ACAD
1000
DSTYLE
1002
{
1070
    79
1070
     3
1002
}
  0
LINE
  5
62D5
330
1E
100
AcDbEntity
  8
12
  6
DASHED
100
AcDbLine
 10
12.00000000000001
 20
-63.0
 30
0.0
 11
23.0
 21
-63.0
 31
0.0
  0
LINE
  5
62D6
330
1E
100
AcDbEntity
  8
10
  6
CONTINOUS
100
AcDbLine
 10
-48.99999999999998
 20
-25.0
 30
0.0
 11
49.00000000000003
 21
-25.0
 31
0.0
  0
LINE
  5
62D7
330
1E
100
AcDbEntity
  8
10
  6
CONTINOUS
100
AcDbLine
 10
-52.5
 20
-51.00000000000002
 30
0.0
 11
87.50000000000005
 21
-51.00000000000002
 31
0.0
  0
LINE
  5
62D8
330
1E
100
AcDbEntity
  8
10
  6
CONTINOUS
100
AcDbLine
 10
-52.5
 20
50.99999999999999
 30
0.0
 11
87.50000000000005
 21
50.99999999999999
 31
0.0
  0
LINE
  5
62DA
330
1E
100
AcDbEntity
  8
10
  6
CONTINOUS
100
AcDbLine
 10
87.50000000000005
 20
82.50000000000001
 30
0.0
 11
-52.5
 21
82.50000000000001
 31
0.0
  0
LINE
  5
62DB
330
1E
100
AcDbEntity
  8
10
  6
CONTINOUS
100
AcDbLine
 10
-52.5
 20
-82.5
 30
0.0
 11
87.50000000000005
 21
-82.5
 31
0.0
  0
LINE
  5
62DC
330
1E
100
AcDbEntity
  8
10
  6
CONTINOUS
100
AcDbLine
 10
-48.99999999999998
 20
25.0
 30
0.0
 11
49.00000000000003
 21
25.0
 31
0.0
  0
LINE
  5
62DE
330
1E
100
AcDbEntity
  8
18
100
AcDbLine
 10
16.0
 20
182.4999999999999
 30
0.0
 11
16.0
 21
82.49999999999987
 31
0.0
  0
LINE
  5
62DF
330
1E
100
AcDbEntity
  8
18
100
AcDbLine
 10
-15.99999999999999
 20
182.4999999999999
 30
0.0
 11
-15.99999999999999
 21
82.49999999999987
 31
0.0
  0
LINE
  5
62E0
330
1E
100
AcDbEntity
  8
18
100
AcDbLine
 10
-19.0
 20
182.4999999999999
 30
0.0
 11
-19.0
 21
82.49999999999987
 31
0.0
  0
LINE
  5
62E1
330
1E
100
AcDbEntity
  8
18
100
AcDbLine
 10
19.00000000000003
 20
182.4999999999999
 30
0.0
 11
19.00000000000003
 21
82.49999999999987
 31
0.0
  0
LINE
  5
62E2
330
1E
100
AcDbEntity
  8
10
  6
CONTINOUS
100
AcDbLine
 10
-48.99999999999998
 20
25.0
 30
0.0
 11
-48.99999999999998
 21
-25.0
 31
0.0
  0
LINE
  5
62E4
330
1E
100
AcDbEntity
  8
10
  6
CONTINOUS
100
AcDbLine
 10
10.99999999999999
 20
25.0
 30
0.0
 11
10.99999999999999
 21
-25.0
 31
0.0
  0
LINE
  5
62E5
330
1E
100
AcDbEntity
  8
10
  6
CONTINOUS
100
AcDbLine
 10
-10.99999999999999
 20
25.0
 30
0.0
 11
-10.99999999999999
 21
-25.0
 31
0.0
  0
LINE
  5
62E6
330
1E
100
AcDbEntity
  8
10
  6
CONTINOUS
100
AcDbLine
 10
-52.5
 20
82.50000000000001
 30
0.0
 11
-52.5
 21
-82.5
 31
0.0
  0
LINE
  5
62E7
330
1E
100
AcDbEntity
  8
10
  6
CONTINOUS
100
AcDbLine
 10
-27.99999999999998
 20
-60.0
 30
0.0
 11
-42.00000000000001
 21
-60.0
 31
0.0
  0
LINE
  5
62E8
330
1E
100
AcDbEntity
  8
24
  6
CONTINOUS
100
AcDbLine
 10
-42.00000000000001
 20
-72.00000000000007
 30
0.0
 11
-27.99999999999998
 21
-72.00000000000007
 31
0.0
  0
LINE
  5
62E9
330
1E
100
AcDbEntity
  8
10
  6
CONTINOUS
100
AcDbLine
 10
-47.00000000000001
 20
-82.5
 30
0.0
 11
-47.00000000000001
 21
-65.0
 31
0.0
  0
ARC
  5
62EA
330
1E
100
AcDbEntity
  8
10
  6
CONTINOUS
100
AcDbCircle
 10
42.00000000000001
 20
-65.0
 30
0.0
 40
5.0
210
0.0
220
0.0
230
-1.0
100
AcDbArc
 50
0.0
 51
90.0
  0
CIRCLE
  5
62EB
330
1E
100
AcDbEntity
  8
24
  6
CONTINOUS
100
AcDbCircle
 10
-35.0
 20
-72.00000000000007
 30
0.0
 40
5.0
  0
LINE
  5
62EC
330
1E
100
AcDbEntity
  8
10
  6
CONTINOUS
100
AcDbLine
 10
-22.99999999999998
 20
-82.5
 30
0.0
 11
-22.99999999999998
 21
-65.0
 31
0.0
  0
LINE
  5
62ED
330
1E
100
AcDbEntity
  8
24
  6
CONTINOUS
100
AcDbLine
 10
-35.0
 20
-65.0
 30
0.0
 11
-35.0
 21
-79.00000000000003
 31
0.0
  0
ARC
  5
62EE
330
1E
100
AcDbEntity
  8
10
  6
CONTINOUS
100
AcDbCircle
 10
27.99999999999998
 20
-65.0
 30
0.0
 40
5.0
210
0.0
220
0.0
230
-1.0
100
AcDbArc
 50
90.0
 51
180.0
  0
CIRCLE
  5
62EF
330
1E
100
AcDbEntity
  8
24
  6
CONTINOUS
100
AcDbCircle
 10
0.0
 20
-72.00000000000007
 30
0.0
 40
5.0
  0
LINE
  5
62F0
330
1E
100
AcDbEntity
  8
10
  6
CONTINOUS
100
AcDbLine
 10
7.000000000000013
 20
-60.0
 30
0.0
 11
-6.999999999999997
 21
-60.0
 31
0.0
  0
LINE
  5
62F1
330
1E
100
AcDbEntity
  8
24
  6
CONTINOUS
100
AcDbLine
 10
-6.999999999999997
 20
-72.00000000000007
 30
0.0
 11
7.000000000000013
 21
-72.00000000000007
 31
0.0
  0
LINE
  5
62F2
330
1E
100
AcDbEntity
  8
10
  6
CONTINOUS
100
AcDbLine
 10
-11.99999999999999
 20
-82.5
 30
0.0
 11
-11.99999999999999
 21
-65.0
 31
0.0
  0
ARC
  5
62F3
330
1E
100
AcDbEntity
  8
10
  6
CONTINOUS
100
AcDbCircle
 10
6.999999999999997
 20
-65.0
 30
0.0
 40
5.0
210
0.0
220
0.0
230
-1.0
100
AcDbArc
 50
0.0
 51
90.0
  0
LINE
  5
62F4
330
1E
100
AcDbEntity
  8
10
  6
CONTINOUS
100
AcDbLine
 10
12.00000000000001
 20
-82.5
 30
0.0
 11
12.00000000000001
 21
-65.0
 31
0.0
  0
ARC
  5
62F5
330
1E
100
AcDbEntity
  8
10
  6
CONTINOUS
100
AcDbCircle
 10
-7.000000000000013
 20
-65.0
 30
0.0
 40
5.0
210
0.0
220
0.0
230
-1.0
100
AcDbArc
 50
90.0
 51
180.0
  0
CIRCLE
  5
62F6
330
1E
100
AcDbEntity
  8
12
  6
DASHED
100
AcDbCircle
 10
17.5
 20
-63.0
 30
0.0
 40
4.0
  0
LINE
  5
62F7
330
1E
100
AcDbEntity
  8
12
  6
DASHED
100
AcDbLine
 10
17.5
 20
-57.5
 30
0.0
 11
17.5
 21
-68.50000000000003
 31
0.0
  0
DIMENSION
  5
62F8
330
1E
100
AcDbEntity
  8
30
  6
Continuous
100
AcDbDimension
280
     0
  2
*D4
 10
10.99999999999998
 20
-40.45444641199117
 30
0.0
 11
-0.0000000000000016
 21
-37.45444641199117
 31
0.0
 70
    32
 71
     5
 42
-1.0
 73
     0
 74
     0
 75
     0
  3
STANDARD
100
AcDbAlignedDimension
 13
-10.99999999999999
 23
-25.0
 33
0.0
 14
10.99999999999999
 24
-25.0
 34
0.0
 50
180.0
100
AcDbRotatedDimension
1001
ACAD
1000
DSTYLE
1002
{
1070
    79
1070
     3
1002
}
  0
LINE
  5
62FA
330
1E
100
AcDbEntity
  8
10
  6
CONTINOUS
100
AcDbLine
 10
-6.999999999999997
 20
-18.49999999999998
 30
0.0
 11
-6.999999999999912
 21
20.1548687058103
 31
0.0
  0
LINE
  5
62FB
330
1E
100
AcDbEntity
  8
10
  6
CONTINOUS
100
AcDbLine
 10
7.000000000000013
 20
-18.49999999999998
 30
0.0
 11
7.000000000000082
 21
20.1548687058103
 31
0.0
  0
LINE
  5
62FC
330
1E
100
AcDbEntity
  8
10
  6
CONTINOUS
100
AcDbLine
 10
-6.999999999999997
 20
-18.49999999999998
 30
0.0
 11
7.000000000000013
 21
-18.49999999999998
 31
0.0
  0
LINE
  5
62FD
330
1E
100
AcDbEntity
  8
10
  6
CONTINOUS
100
AcDbLine
 10
7.000000000000013
 20
6.840789306861548
 30
0.0
 11
-6.999999999999087
 21
6.840789306861548
 31
0.0
  0
LINE
  5
62FE
330
1E
100
AcDbEntity
  8
10
  6
CONTINOUS
100
AcDbLine
 10
7.000000000000013
 20
20.1548687058103
 30
0.0
 11
-7.000000000000892
 21
20.1548687058103
 31
0.0
  0
LINE
  5
62FF
330
1E
100
AcDbEntity
  8
10
  6
CONTINOUS
100
AcDbLine
 10
7.000000000000013
 20
15.23995644007664
 30
0.0
 11
-6.999999999999997
 21
15.23995644007664
 31
0.0
  0
CIRCLE
  5
6300
330
1E
100
AcDbEntity
  8
12
  6
DASHED
100
AcDbCircle
 10
-17.49999999999999
 20
63.0
 30
0.0
 40
4.0
  0
LINE
  5
6301
330
1E
100
AcDbEntity
  8
12
  6
DASHED
100
AcDbLine
 10
-22.99999999999998
 20
63.0
 30
0.0
 11
-11.99999999999999
 21
63.0
 31
0.0
  0
CIRCLE
  5
6302
330
1E
100
AcDbEntity
  8
24
  6
CONTINOUS
100
AcDbCircle
 10
-35.0
 20
72.0
 30
0.0
 40
5.0
  0
LINE
  5
6303
330
1E
100
AcDbEntity
  8
10
  6
CONTINOUS
100
AcDbLine
 10
-22.99999999999998
 20
82.50000000000001
 30
0.0
 11
-22.99999999999998
 21
65.0
 31
0.0
  0
LINE
  5
6304
330
1E
100
AcDbEntity
  8
10
  6
CONTINOUS
100
AcDbLine
 10
-47.00000000000001
 20
82.50000000000001
 30
0.0
 11
-47.00000000000001
 21
65.0
 31
0.0
  0
LINE
  5
6305
330
1E
100
AcDbEntity
  8
24
  6
CONTINOUS
100
AcDbLine
 10
-35.0
 20
78.99999999999997
 30
0.0
 11
-35.0
 21
65.0
 31
0.0
  0
LINE
  5
6306
330
1E
100
AcDbEntity
  8
10
  6
CONTINOUS
100
AcDbLine
 10
-27.99999999999998
 20
60.0
 30
0.0
 11
-42.00000000000001
 21
60.0
 31
0.0
  0
ARC
  5
6307
330
1E
100
AcDbEntity
  8
10
  6
CONTINOUS
100
AcDbCircle
 10
-42.00000000000001
 20
65.0
 30
0.0
 40
5.0
100
AcDbArc
 50
180.0
 51
270.0
  0
ARC
  5
6308
330
1E
100
AcDbEntity
  8
10
  6
CONTINOUS
100
AcDbCircle
 10
-27.99999999999998
 20
65.0
 30
0.0
 40
5.0
100
AcDbArc
 50
270.0
 51
0.0
  0
LINE
  5
6309
330
1E
100
AcDbEntity
  8
24
  6
CONTINOUS
100
AcDbLine
 10
-42.00000000000001
 20
72.0
 30
0.0
 11
-27.99999999999998
 21
72.0
 31
0.0
  0
CIRCLE
  5
630A
330
1E
100
AcDbEntity
  8
24
  6
CONTINOUS
100
AcDbCircle
 10
0.0
 20
72.0
 30
0.0
 40
5.0
  0
LINE
  5
630B
330
1E
100
AcDbEntity
  8
10
  6
CONTINOUS
100
AcDbLine
 10
12.00000000000001
 20
82.50000000000001
 30
0.0
 11
12.00000000000001
 21
65.0
 31
0.0
  0
LINE
  5
630C
330
1E
100
AcDbEntity
  8
10
  6
CONTINOUS
100
AcDbLine
 10
-11.99999999999999
 20
82.50000000000001
 30
0.0
 11
-11.99999999999999
 21
65.0
 31
0.0
  0
LINE
  5
630D
330
1E
100
AcDbEntity
  8
10
  6
CONTINOUS
100
AcDbLine
 10
7.000000000000013
 20
60.0
 30
0.0
 11
-6.999999999999997
 21
60.0
 31
0.0
  0
ARC
  5
630E
330
1E
100
AcDbEntity
  8
10
  6
CONTINOUS
100
AcDbCircle
 10
-6.999999999999997
 20
65.0
 30
0.0
 40
5.0
100
AcDbArc
 50
180.0
 51
270.0
  0
LINE
  5
630F
330
1E
100
AcDbEntity
  8
12
  6
DASHED
100
AcDbLine
 10
-17.49999999999999
 20
68.5
 30
0.0
 11
-17.49999999999999
 21
57.5
 31
0.0
  0
ARC
  5
6310
330
1E
100
AcDbEntity
  8
10
  6
CONTINOUS
100
AcDbCircle
 10
7.000000000000013
 20
65.0
 30
0.0
 40
5.0
100
AcDbArc
 50
270.0
 51
0.0
  0
LINE
  5
6311
330
1E
100
AcDbEntity
  8
24
  6
CONTINOUS
100
AcDbLine
 10
-6.999999999999997
 20
72.0
 30
0.0
 11
7.000000000000013
 21
72.0
 31
0.0
  0
LINE
  5
6314
330
1E
100
AcDbEntity
  8
18
100
AcDbLine
 10
-15.99999999999999
 20
182.4999999999999
 30
0.0
 11
-19.0
 21
182.4999999999999
 31
0.0
  0
LINE
  5
6315
330
1E
100
AcDbEntity
  8
18
100
AcDbLine
 10
16.0
 20
182.4999999999999
 30
0.0
 11
19.00000000000003
 21
182.4999999999999
 31
0.0
  0
LINE
  5
6316
330
1E
100
AcDbEntity
  8
10
  6
CONTINOUS
100
AcDbLine
 10
49.00000000000003
 20
25.0
 30
0.0
 11
49.00000000000003
 21
-25.0
 31
0.0
  0
LINE
  5
6317
330
1E
100
AcDbEntity
  8
10
  6
CONTINOUS
100
AcDbLine
 10
87.50000000000005
 20
-82.5
 30
0.0
 11
87.50000000000005
 21
82.50000000000001
 31
0.0
  0
ARC
  5
6318
330
1E
100
AcDbEntity
  8
10
  6
CONTINOUS
100
AcDbCircle
 10
-42.00000000000001
 20
-65.0
 30
0.0
 40
5.0
210
0.0
220
0.0
230
-1.0
100
AcDbArc
 50
90.0
 51
180.0
  0
CIRCLE
  5
6319
330
1E
100
AcDbEntity
  8
24
  6
CONTINOUS
100
AcDbCircle
 10
35.00000000000003
 20
-72.00000000000007
 30
0.0
 40
5.0
  0
LINE
  5
631A
330
1E
100
AcDbEntity
  8
10
  6
CONTINOUS
100
AcDbLine
 10
23.0
 20
-82.5
 30
0.0
 11
23.0
 21
-65.0
 31
0.0
  0
LINE
  5
631B
330
1E
100
AcDbEntity
  8
24
  6
CONTINOUS
100
AcDbLine
 10
35.00000000000003
 20
-65.0
 30
0.0
 11
35.00000000000003
 21
-79.00000000000003
 31
0.0
  0
LINE
  5
631C
330
1E
100
AcDbEntity
  8
24
  6
CONTINOUS
100
AcDbLine
 10
27.99999999999997
 20
-72.00000000000007
 30
0.0
 11
42.00000000000001
 21
-72.00000000000007
 31
0.0
  0
LINE
  5
631D
330
1E
100
AcDbEntity
  8
10
  6
CONTINOUS
100
AcDbLine
 10
42.00000000000001
 20
-60.0
 30
0.0
 11
27.99999999999997
 21
-60.0
 31
0.0
  0
ARC
  5
631E
330
1E
100
AcDbEntity
  8
10
  6
CONTINOUS
100
AcDbCircle
 10
-27.99999999999997
 20
-65.0
 30
0.0
 40
5.0
210
0.0
220
0.0
230
-1.0
100
AcDbArc
 50
0.0
 51
90.0
  0
LINE
  5
631F
330
1E
100
AcDbEntity
  8
10
  6
CONTINOUS
100
AcDbLine
 10
47.0
 20
-82.5
 30
0.0
 11
47.0
 21
-65.0
 31
0.0
  0
CIRCLE
  5
6320
330
1E
100
AcDbEntity
  8
24
  6
CONTINOUS
100
AcDbCircle
 10
35.00000000000003
 20
72.0
 30
0.0
 40
5.0
  0
LINE
  5
6321
330
1E
100
AcDbEntity
  8
10
  6
CONTINOUS
100
AcDbLine
 10
23.0
 20
82.50000000000001
 30
0.0
 11
23.0
 21
65.0
 31
0.0
  0
LINE
  5
6322
330
1E
100
AcDbEntity
  8
10
  6
CONTINOUS
100
AcDbLine
 10
47.0
 20
82.50000000000001
 30
0.0
 11
47.0
 21
65.0
 31
0.0
  0
LINE
  5
6323
330
1E
100
AcDbEntity
  8
24
  6
CONTINOUS
100
AcDbLine
 10
35.00000000000003
 20
78.99999999999997
 30
0.0
 11
35.00000000000003
 21
65.0
 31
0.0
  0
ARC
  5
6324
330
1E
100
AcDbEntity
  8
10
  6
CONTINOUS
100
AcDbCircle
 10
42.00000000000001
 20
65.0
 30
0.0
 40
5.0
100
AcDbArc
 50
270.0
 51
0.0
  0
LINE
  5
6325
330
1E
100
AcDbEntity
  8
10
  6
CONTINOUS
100
AcDbLine
 10
42.00000000000001
 20
60.0
 30
0.0
 11
27.99999999999997
 21
60.0
 31
0.0
  0
ARC
  5
6326
330
1E
100
AcDbEntity
  8
10
  6
CONTINOUS
100
AcDbCircle
 10
27.99999999999997
 20
65.0
 30
0.0
 40
5.0
100
AcDbArc
 50
180.0
 51
270.0
  0
LINE
  5
6327
330
1E
100
AcDbEntity
  8
24
  6
CONTINOUS
100
AcDbLine
 10
27.99999999999997
 20
72.0
 30
0.0
 11
42.00000000000001
 21
72.0
 31
0.0
  0
DIMENSION
  5
63B5
330
1E
100
AcDbEntity
  8
30
  6
Continuous
100
AcDbDimension
280
     0
  2
*D5
 10
17.11990546482879
 20
-361.3018404330259
 30
0.0
 11
-0.3800945351711958
 21
-358.3018404330259
 31
0.0
 70
    32
 71
     5
 42
-1.0
 73
     0
 74
     0
 75
     0
  3
STANDARD
100
AcDbAlignedDimension
 13
-17.88009453517117
 23
-190.3473940375349
 33
0.0
 14
17.1199054648288
 24
-316.3473940375348
 34
0.0
 50
180.0
100
AcDbRotatedDimension
1001
ACAD
1000
DSTYLE
1002
{
1070
    79
1070
     3
1002
}
  0
LINE
  5
63B7
330
1E
100
AcDbEntity
  8
18
  6
DIVIDE
100
AcDbLine
 10
-52.88009453517117
 20
-168.3473940210349
 30
0.0
 11
-52.88009453517117
 21
-333.3473940210347
 31
0.0
  0
LINE
  5
63B8
330
1E
100
AcDbEntity
  8
18
  6
DIVIDE
100
AcDbLine
 10
87.11990546482878
 20
-333.3473940210347
 30
0.0
 11
87.11990546482878
 21
-168.3473940210349
 31
0.0
  0
LINE
  5
63BA
330
1E
100
AcDbEntity
  8
18
  6
DIVIDE
100
AcDbLine
 10
-52.88009453517117
 20
-333.3473940210347
 30
0.0
 11
87.11990546482878
 21
-333.3473940210347
 31
0.0
  0
CIRCLE
  5
63BC
330
1E
100
AcDbEntity
  8
12
  6
Continuous
 62
     3
100
AcDbCircle
 10
17.1199054648288
 20
-313.8473940210346
 30
0.0
 40
2.0
  0
LINE
  5
63BD
330
1E
100
AcDbEntity
  8
12
  6
Continuous
 62
     3
100
AcDbLine
 10
11.61990546482891
 20
-313.8473940210346
 30
0.0
 11
22.6199054648288
 21
-313.8473940210346
 31
0.0
  0
LINE
  5
63BE
330
1E
100
AcDbEntity
  8
12
  6
Continuous
 62
     3
100
AcDbLine
 10
17.1199054648288
 20
-308.3473940210347
 30
0.0
 11
17.1199054648288
 21
-319.3473940210346
 31
0.0
  0
LINE
  5
63C3
330
1E
100
AcDbEntity
  8
18
  6
DIVIDE
100
AcDbLine
 10
87.11990546482878
 20
-168.3473940210349
 30
0.0
 11
-52.88009453517117
 21
-168.3473940210349
 31
0.0
  0
LINE
  5
63C9
330
1E
100
AcDbEntity
  8
12
  6
Continuous
 62
     3
100
AcDbLine
 10
-23.38009453517107
 20
-187.8473940210345
 30
0.0
 11
-12.38009453517117
 21
-187.8473940210345
 31
0.0
  0
CIRCLE
  5
63CA
330
1E
100
AcDbEntity
  8
12
  6
Continuous
 62
     3
100
AcDbCircle
 10
-17.88009453517117
 20
-187.8473940210345
 30
0.0
 40
2.0
  0
LINE
  5
63CB
330
1E
100
AcDbEntity
  8
12
  6
Continuous
 62
     3
100
AcDbLine
 10
-17.88009453517117
 20
-182.3473940210345
 30
0.0
 11
-17.88009453517117
 21
-193.3473940210348
 31
0.0
  0
DIMENSION
  5
6570
330
1E
100
AcDbEntity
  8
30
  6
Continuous
100
AcDbDimension
280
     0
  2
*D13
 10
259.2602819584348
 20
-115.454446411991
 30
0.0
 11
225.2602819584347
 21
-112.454446411991
 31
0.0
 70
    32
 71
     5
 42
-1.0
 73
     0
 74
     0
 75
     0
  3
STANDARD
100
AcDbAlignedDimension
 13
191.2602819584348
 23
-51.00000000000002
 33
0.0
 14
259.2602819584348
 24
-82.5
 34
0.0
 50
180.0
100
AcDbRotatedDimension
1001
ACAD
1000
DSTYLE
1002
{
1070
    79
1070
     3
1002
}
  0
DIMENSION
  5
6571
330
1E
100
AcDbEntity
  8
30
  6
Continuous
100
AcDbDimension
280
     0
  2
*D14
 10
259.2602819584348
 20
-138.4544464119911
 30
0.0
 11
213.2602819584346
 21
-135.4544464119911
 31
0.0
 70
    32
 71
     5
 42
-1.0
 73
     0
 74
     0
 75
     0
  3
STANDARD
100
AcDbAlignedDimension
 13
167.2602819584346
 23
-0.0000000000000027
 33
0.0
 14
259.2602819584348
 24
-82.5
 34
0.0
 50
180.0
100
AcDbRotatedDimension
1001
ACAD
1000
DSTYLE
1002
{
1070
    79
1070
     3
1002
}
  0
DIMENSION
  5
6573
330
1E
100
AcDbEntity
  8
30
  6
Continuous
100
AcDbDimension
280
     0
  2
*D15
 10
259.2602819584348
 20
-126.4544464119911
 30
0.0
 11
223.2602819584347
 21
-123.4544464119911
 31
0.0
 70
    32
 71
     5
 42
-1.0
 73
     0
 74
     0
 75
     0
  3
STANDARD
100
AcDbAlignedDimension
 13
187.2602819584348
 23
-25.0
 33
0.0
 14
259.2602819584348
 24
-82.5
 34
0.0
 50
180.0
100
AcDbRotatedDimension
1001
ACAD
1000
DSTYLE
1002
{
1070
    79
1070
     3
1002
}
  0
INSERT
  5
6574
330
1E
100
AcDbEntity
  8
30
  6
Continuous
100
AcDbBlockReference
  2
*U12
 10
-303.8677084721872
 20
-246.6618080090514
 30
0.0
 41
2.5
 42
2.5
 43
2.5
  0
DIMENSION
  5
6575
330
1E
100
AcDbEntity
  8
30
  6
Continuous
100
AcDbDimension
280
     0
  2
*D16
 10
259.2602819584348
 20
-103.4544464119911
 30
0.0
 11
228.7602819584346
 21
-100.4544464119911
 31
0.0
 70
    32
 71
     5
 42
-1.0
 73
     0
 74
     0
 75
     0
  3
STANDARD
100
AcDbAlignedDimension
 13
198.2602819584347
 23
-82.5
 33
0.0
 14
259.2602819584348
 24
-82.5
 34
0.0
 50
180.0
100
AcDbRotatedDimension
1001
ACAD
1000
DSTYLE
1002
{
1070
    79
1070
     3
1002
}
  0
LINE
  5
6576
330
1E
100
AcDbEntity
  8
12
  6
DASHED
100
AcDbLine
 10
198.2602819584339
 20
-58.75
 30
0.0
 11
214.2602819584348
 21
-58.75
 31
0.0
  0
LINE
  5
6577
330
1E
100
AcDbEntity
  8
12
  6
DASHED
100
AcDbLine
 10
193.2602819584346
 20
-63.0
 30
0.0
 11
277.2602819584347
 21
-63.0
 31
0.0
  0
LINE
  5
6579
330
1E
100
AcDbEntity
  8
10
  6
CONTINOUS
100
AcDbLine
 10
259.2602819584348
 20
82.50000000000001
 30
0.0
 11
198.2602819584347
 21
82.50000000000001
 31
0.0
  0
LINE
  5
657A
330
1E
100
AcDbEntity
  8
10
  6
CONTINOUS
100
AcDbLine
 10
198.2602819584347
 20
-82.5
 30
0.0
 11
259.2602819584348
 21
-82.5
 31
0.0
  0
LINE
  5
657B
330
1E
100
AcDbEntity
  8
12
  6
DASHED
100
AcDbLine
 10
198.2602819584339
 20
-67.25000000000003
 30
0.0
 11
214.2602819584348
 21
-67.25000000000003
 31
0.0
  0
DIMENSION
  5
657C
330
1E
100
AcDbEntity
  8
30
  6
Continuous
100
AcDbDimension
280
     0
  2
*D17
 10
124.2572915325625
 20
-51.0
 30
0.0
 11
121.2572915325626
 21
0.0000000000000318
 31
0.0
 70
    32
 71
     5
 42
-1.0
 73
     0
 74
     0
 75
     0
  3
STANDARD
100
AcDbAlignedDimension
 13
191.2602819584348
 23
51.0
 33
0.0
 14
191.2602819584348
 24
-51.00000000000002
 34
0.0
 50
90.0
100
AcDbRotatedDimension
1001
ACAD
1000
DSTYLE
1002
{
1070
    79
1070
     3
1002
}
  0
DIMENSION
  5
657D
330
1E
100
AcDbEntity
  8
30
  6
Continuous
100
AcDbDimension
280
     0
  2
*D18
 10
143.0072915325627
 20
-24.99999999999999
 30
0.0
 11
140.0072915325627
 21
0.0000000000000289
 31
0.0
 70
    32
 71
     5
 42
-1.0
 73
     0
 74
     0
 75
     0
  3
STANDARD
100
AcDbAlignedDimension
 13
183.2602819584344
 23
24.99999999999999
 33
0.0
 14
183.2602819584344
 24
-25.0
 34
0.0
 50
90.0
100
AcDbRotatedDimension
1001
ACAD
1000
DSTYLE
1002
{
1070
    79
1070
     3
1002
}
  0
LINE
  5
657E
330
1E
100
AcDbEntity
  8
10
  6
CONTINOUS
100
AcDbLine
 10
191.2602819584348
 20
51.0
 30
0.0
 11
191.2602819584348
 21
-51.00000000000002
 31
0.0
  0
LINE
  5
657F
330
1E
100
AcDbEntity
  8
10
  6
CONTINOUS
100
AcDbLine
 10
183.2602819584344
 20
24.99999999999999
 30
0.0
 11
183.2602819584344
 21
-25.0
 31
0.0
  0
LINE
  5
6580
330
1E
100
AcDbEntity
  8
10
  6
CONTINOUS
100
AcDbLine
 10
187.2602819584348
 20
24.99999999999999
 30
0.0
 11
187.2602819584348
 21
-25.0
 31
0.0
  0
LINE
  5
6581
330
1E
100
AcDbEntity
  8
10
  6
CONTINOUS
100
AcDbLine
 10
198.2602819584347
 20
-51.00000000000002
 30
0.0
 11
198.2602819584347
 21
-82.5
 31
0.0
  0
LINE
  5
6582
330
1E
100
AcDbEntity
  8
10
  6
CONTINOUS
100
AcDbLine
 10
183.2602819584344
 20
-25.0
 30
0.0
 11
191.2602819584348
 21
-25.0
 31
0.0
  0
LINE
  5
6583
330
1E
100
AcDbEntity
  8
10
  6
CONTINOUS
100
AcDbLine
 10
191.2602819584348
 20
-51.00000000000002
 30
0.0
 11
198.2602819584347
 21
-51.00000000000002
 31
0.0
  0
ARC
  5
6586
330
1E
100
AcDbEntity
  8
30
  6
Continuous
100
AcDbCircle
 10
198.2602819584347
 20
-0.0000000000000027
 30
0.0
 40
31.0
100
AcDbArc
 50
150.5534441956585
 51
180.0
  0
LINE
  5
6587
330
1E
100
AcDbEntity
  8
10
  6
CONTINOUS
100
AcDbLine
 10
183.2602819584344
 20
6.840789306861262
 30
0.0
 11
171.2650281588393
 21
15.23995644007663
 31
0.0
  0
LINE
  5
6588
330
1E
100
AcDbEntity
  8
10
  6
CONTINOUS
100
AcDbLine
 10
183.2602819584344
 20
24.99999999999999
 30
0.0
 11
191.2602819584348
 21
24.99999999999999
 31
0.0
  0
LINE
  5
6589
330
1E
100
AcDbEntity
  8
10
  6
CONTINOUS
100
AcDbLine
 10
171.2650281588393
 20
15.23995644007663
 30
0.0
 11
174.7064867769456
 21
20.15486870581053
 31
0.0
  0
LINE
  5
658A
330
1E
100
AcDbEntity
  8
10
  6
CONTINOUS
100
AcDbLine
 10
183.2602819584344
 20
14.16543683942997
 30
0.0
 11
174.7064867769456
 21
20.15486870581053
 31
0.0
  0
LINE
  5
658B
330
1E
100
AcDbEntity
  8
10
  6
CONTINOUS
100
AcDbLine
 10
198.2602819584347
 20
82.50000000000001
 30
0.0
 11
198.2602819584347
 21
51.0
 31
0.0
  0
LINE
  5
658C
330
1E
100
AcDbEntity
  8
10
  6
CONTINOUS
100
AcDbLine
 10
191.2602819584348
 20
51.0
 30
0.0
 11
198.2602819584347
 21
51.0
 31
0.0
  0
TEXT
  5
658D
330
1E
100
AcDbEntity
  8
30
  6
Continuous
100
AcDbText
 10
166.6218748611458
 20
105.7131919909485
 30
0.0
 40
6.25
  1
M8 
 41
0.8141304347826125
  7
UGMTXT
100
AcDbText
  0
DIMENSION
  5
658E
330
1E
100
AcDbEntity
  8
30
  6
Continuous
100
AcDbDimension
280
     0
  2
*D19
 10
259.2602819584348
 20
109.5455535880087
 30
0.0
 11
247.2602819584345
 21
112.5455535880087
 31
0.0
 70
    32
 71
     5
 42
-1.0
 73
     0
 74
     0
 75
     0
  3
STANDARD
100
AcDbAlignedDimension
 13
235.2602819584347
 23
82.50000000000001
 33
0.0
 14
259.2602819584348
 24
82.50000000000001
 34
0.0
100
AcDbRotatedDimension
1001
ACAD
1000
DSTYLE
1002
{
1070
    79
1070
     3
1002
}
  0
LINE
  5
6590
330
1E
100
AcDbEntity
  8
10
  6
CONTINOUS
100
AcDbLine
 10
259.2602819584348
 20
82.50000000000001
 30
0.0
 11
259.2602819584348
 21
-82.5
 31
0.0
  0
DIMENSION
  5
6592
330
1E
100
AcDbEntity
  8
30
  6
Continuous
100
AcDbDimension
280
     0
  2
*D20
 10
267.2602819584344
 20
-93.45444641199112
 30
0.0
 11
263.2602819584344
 21
-90.45444641199111
 31
0.0
 70
    32
 71
     5
 42
-1.0
 73
     0
 74
     0
 75
     0
  3
STANDARD
100
AcDbAlignedDimension
 13
259.2602819584348
 23
-82.5
 33
0.0
 14
267.2602819584344
 24
-65.25000000000003
 34
0.0
 50
180.0
100
AcDbRotatedDimension
1001
ACAD
1000
DSTYLE
1002
{
1070
    79
1070
     3
1002
}
  0
DIMENSION
  5
6593
330
1E
100
AcDbEntity
  8
30
  6
Continuous
100
AcDbDimension
280
     0
  2
*D21
 10
259.2602819584348
 20
-93.45444641199112
 30
0.0
 11
236.7602819584348
 21
-90.45444641199111
 31
0.0
 70
    32
 71
     5
 42
-1.0
 73
     0
 74
     0
 75
     0
  3
STANDARD
100
AcDbAlignedDimension
 13
214.2602819584348
 23
-67.25000000000003
 33
0.0
 14
259.2602819584348
 24
-82.5
 34
0.0
 50
180.0
100
AcDbRotatedDimension
1001
ACAD
1000
DSTYLE
1002
{
1070
    79
1070
     3
1002
}
  0
LINE
  5
6595
330
1E
100
AcDbEntity
  8
12
  6
DASHED
100
AcDbLine
 10
214.2602819584348
 20
-65.25000000000003
 30
0.0
 11
259.2602819584348
 21
-65.25000000000003
 31
0.0
  0
LINE
  5
6596
330
1E
100
AcDbEntity
  8
12
  6
DASHED
100
AcDbLine
 10
214.2602819584348
 20
-60.75000000000006
 30
0.0
 11
259.2602819584348
 21
-60.75000000000006
 31
0.0
  0
LINE
  5
6597
330
1E
100
AcDbEntity
  8
12
  6
DASHED
100
AcDbLine
 10
214.2602819584348
 20
-58.75
 30
0.0
 11
214.2602819584348
 21
-67.25000000000003
 31
0.0
  0
LINE
  5
6598
330
1E
100
AcDbEntity
  8
12
  6
DASHED
100
AcDbLine
 10
208.2602819584346
 20
-58.75
 30
0.0
 11
208.2602819584346
 21
-67.25000000000003
 31
0.0
  0
LINE
  5
6599
330
1E
100
AcDbEntity
  8
12
  6
DASHED
100
AcDbLine
 10
214.2602819584348
 20
-65.25000000000003
 30
0.0
 11
214.2602819584348
 21
-67.25000000000003
 31
0.0
  0
LINE
  5
659A
330
1E
100
AcDbEntity
  8
12
  6
DASHED
100
AcDbLine
 10
214.2602819584348
 20
-58.75
 30
0.0
 11
214.2602819584348
 21
-60.75000000000006
 31
0.0
  0
LINE
  5
659B
330
1E
100
AcDbEntity
  8
12
  6
DASHED
100
AcDbLine
 10
259.2602819584348
 20
-60.75000000000006
 30
0.0
 11
267.2602819584344
 21
-60.75000000000006
 31
0.0
  0
LINE
  5
659C
330
1E
100
AcDbEntity
  8
12
  6
DASHED
100
AcDbLine
 10
259.2602819584348
 20
-65.25000000000003
 30
0.0
 11
267.2602819584344
 21
-65.25000000000003
 31
0.0
  0
LINE
  5
659D
330
1E
100
AcDbEntity
  8
12
  6
DASHED
100
AcDbLine
 10
267.2602819584344
 20
-60.75000000000006
 30
0.0
 11
267.2602819584344
 21
-65.25000000000003
 31
0.0
  0
TEXT
  5
659E
330
1E
100
AcDbEntity
  8
30
  6
Continuous
100
AcDbText
 10
293.326534691792
 20
-85.43262376806112
 30
0.0
 40
5.0
  1
M4x0.7
 41
0.8216911764705923
100
AcDbText
  0
LINE
  5
65A2
330
1E
100
AcDbEntity
  8
24
  6
CONTINOUS
100
AcDbLine
 10
225.2602819584347
 20
78.5
 30
0.0
 11
225.2602819584347
 21
65.5
 31
0.0
  0
LINE
  5
65A3
330
1E
100
AcDbEntity
  8
24
  6
CONTINOUS
100
AcDbLine
 10
239.2602819584348
 20
82.50000000000001
 30
0.0
 11
239.2602819584348
 21
61.5
 31
0.0
  0
LINE
  5
65A4
330
1E
100
AcDbEntity
  8
24
  6
CONTINOUS
100
AcDbLine
 10
233.2602819584346
 20
79.69999999999997
 30
0.0
 11
233.2602819584346
 21
64.29999999999994
 31
0.0
  0
LINE
  5
65A5
330
1E
100
AcDbEntity
  8
24
  6
CONTINOUS
100
AcDbLine
 10
235.2602819584347
 20
82.50000000000001
 30
0.0
 11
235.2602819584347
 21
61.5
 31
0.0
  0
LINE
  5
65A6
330
1E
100
AcDbEntity
  8
24
  6
CONTINOUS
100
AcDbLine
 10
225.2602819584347
 20
65.5
 30
0.0
 11
233.2602819584346
 21
65.5
 31
0.0
  0
LINE
  5
65A7
330
1E
100
AcDbEntity
  8
24
  6
CONTINOUS
100
AcDbLine
 10
235.2602819584347
 20
61.5
 30
0.0
 11
239.2602819584349
 21
61.5
 31
0.0
  0
LINE
  5
65A8
330
1E
100
AcDbEntity
  8
24
  6
CONTINOUS
100
AcDbLine
 10
233.2602819584346
 20
64.29999999999994
 30
0.0
 11
235.2602819584347
 21
64.29999999999994
 31
0.0
  0
LINE
  5
65A9
330
1E
100
AcDbEntity
  8
24
  6
CONTINOUS
100
AcDbLine
 10
220.2602819584345
 20
72.0
 30
0.0
 11
244.2602819584348
 21
72.0
 31
0.0
  0
LINE
  5
65AA
330
1E
100
AcDbEntity
  8
24
  6
CONTINOUS
100
AcDbLine
 10
225.2602819584347
 20
78.5
 30
0.0
 11
233.2602819584346
 21
78.5
 31
0.0
  0
LINE
  5
65AB
330
1E
100
AcDbEntity
  8
24
  6
CONTINOUS
100
AcDbLine
 10
233.2602819584346
 20
79.69999999999997
 30
0.0
 11
235.2602819584347
 21
79.69999999999997
 31
0.0
  0
DIMENSION
  5
65AC
330
1E
100
AcDbEntity
  8
30
  6
Continuous
100
AcDbDimension
280
     0
  2
*D22
 10
328.2602819584328
 20
25.21319198619851
 30
0.0
 11
315.7602819584328
 21
28.21319198619851
 31
0.0
 70
    32
 71
     5
 42
-1.0
 73
     0
 74
     0
 75
     0
  3
STANDARD
100
AcDbAlignedDimension
 13
303.2602819584328
 23
48.92504825041531
 33
0.0
 14
328.2602819584328
 24
48.92504825041531
 34
0.0
 50
180.0
100
AcDbRotatedDimension
1001
ACAD
1000
DSTYLE
1002
{
1070
    79
1070
     3
1002
}
  0
INSERT
  5
65AD
330
1E
100
AcDbEntity
  8
30
  6
Continuous
100
AcDbBlockReference
  2
*U11
 10
-303.8677084721872
 20
-246.6618080090514
 30
0.0
 41
2.5
 42
2.5
 43
2.5
  0
INSERT
  5
65AE
330
1E
100
AcDbEntity
  8
30
  6
Continuous
100
AcDbBlockReference
  2
*U8
 10
-303.8677084721872
 20
-246.6618080090514
 30
0.0
 41
2.5
 42
2.5
 43
2.5
  0
INSERT
  5
65AF
330
1E
100
AcDbEntity
  8
30
  6
Continuous
100
AcDbBlockReference
  2
*U7
 10
-303.8677084721872
 20
-246.6618080090514
 30
0.0
 41
2.5
 42
2.5
 43
2.5
  0
DIMENSION
  5
65B0
330
1E
100
AcDbEntity
  8
30
  6
Continuous
100
AcDbDimension
280
     0
  2
*D23
 10
338.5828896186868
 20
58.92504825041531
 30
0.0
 11
335.5828896186868
 21
53.92504825041537
 31
0.0
 70
    32
 71
     5
 42
-1.0
 73
     0
 74
     0
 75
     0
  3
STANDARD
100
AcDbAlignedDimension
 13
328.2602819584328
 23
48.92504825041531
 33
0.0
 14
318.2602819749328
 24
58.92504825041531
 34
0.0
 50
270.0
100
AcDbRotatedDimension
1001
ACAD
1000
DSTYLE
1002
{
1070
    79
1070
     3
1002
}
  0
LINE
  5
65B1
330
1E
100
AcDbEntity
  8
24
  6
Continuous
100
AcDbLine
 10
303.2602819584328
 20
80.92504825041528
 30
0.0
 11
303.2602819584328
 21
48.92504825041531
 31
0.0
  0
LINE
  5
65B2
330
1E
100
AcDbEntity
  8
24
  6
Continuous
100
AcDbLine
 10
328.2602819584328
 20
81.07495174958456
 30
0.0
 11
328.2602819584328
 21
48.92504825041531
 31
0.0
  0
CIRCLE
  5
65B3
330
1E
100
AcDbEntity
  8
24
  6
Continuous
100
AcDbCircle
 10
315.7602819584328
 20
58.92504825041531
 30
0.0
 40
4.5
  0
LINE
  5
65B4
330
1E
100
AcDbEntity
  8
24
  6
Continuous
100
AcDbLine
 10
309.5102819584328
 20
58.92504825041531
 30
0.0
 11
322.0102819584328
 21
58.92504825041531
 31
0.0
  0
LINE
  5
65B5
330
1E
100
AcDbEntity
  8
24
  6
Continuous
100
AcDbLine
 10
303.2602819584328
 20
48.92504825041531
 30
0.0
 11
328.2602819584328
 21
48.92504825041531
 31
0.0
  0
LINE
  5
65B6
330
1E
100
AcDbEntity
  8
24
  6
Continuous
100
AcDbLine
 10
315.7602819584328
 20
65.17504825041533
 30
0.0
 11
315.7602819584328
 21
52.67504825041531
 31
0.0
  0
LINE
  5
65B7
330
1E
100
AcDbEntity
  8
24
  6
Continuous
100
AcDbLine
 10
311.5181596414458
 20
80.92030134443616
 30
0.0
 11
315.3732909515546
 21
79.49930875165524
 31
0.0
  0
ARC
  5
65B8
330
1E
100
AcDbEntity
  8
24
  6
Continuous
100
AcDbCircle
 10
307.3852819584327
 20
74.07053331498777
 30
0.0
 40
8.0
100
AcDbArc
 50
58.9607599896022
 51
121.0392400103977
  0
LINE
  5
65B9
330
1E
100
AcDbEntity
  8
24
  6
Continuous
100
AcDbLine
 10
322.3227637432488
 20
79.08027989468191
 30
0.0
 11
328.2602819584328
 21
81.07495174958456
 31
0.0
  0
ARC
  5
65BA
330
1E
100
AcDbEntity
  8
24
  6
Continuous
100
AcDbCircle
 10
319.2478637793793
 20
85.92096627926309
 30
0.0
 40
7.5
100
AcDbArc
 50
238.8948889125936
 51
294.2039969225378
  0
INSERT
  5
65BB
330
1E
100
AcDbEntity
  8
30
  6
Continuous
100
AcDbBlockReference
  2
*U10
 10
-303.8677084721872
 20
-246.6618080090514
 30
0.0
 41
2.5
 42
2.5
 43
2.5
  0
INSERT
  5
65BC
330
1E
100
AcDbEntity
  8
30
  6
Continuous
100
AcDbBlockReference
  2
*U9
 10
-303.8677084721872
 20
-246.6618080090514
 30
0.0
 41
2.5
 42
2.5
 43
2.5
  0
TEXT
  5
67AA
330
1E
100
AcDbEntity
  8
TOP
  6
ByBlock
 62
     0
100
AcDbText
 10
371.3280318172496
 20
-98.62309151624522
 30
0.0
 40
7.500000049499999
  1
 
 41
1.189062499999995
  7
UGMTXT
100
AcDbText
  0
LEADER
  5
67AD
330
1E
100
AcDbEntity
  8
30
  6
Continuous
100
AcDbLeader
  3
STANDARD
 73
     0
 40
4.0
 41
2.399999999999999
 76
     3
 10
267.2602819584344
 20
-65.25000000000003
 30
0.0
 10
284.5302748502888
 20
-89.50927681457356
 30
0.0
 10
325.1216727604241
 20
-91.57893637381492
 30
0.0
340
67AE
213
0.0
223
15.0
233
0.0
1001
ACAD
1000
DSTYLE
1002
{
1070
     5
1000
OPEN
1070
    77
1070
     0
1070
    79
1070
     3
1070
   147
1040
1.0
1070
   342
1005
3B2
1002
}
  0
MTEXT
  5
67AE
102
{ACAD_REACTORS
330
67AD
102
}
330
1E
100
AcDbEntity
  8
30
  6
Continuous
100
AcDbMText
 10
326.1216727604241
 20
-106.5789363738149
 30
0.0
 40
4.0
 41
0.0
 46
0.0
 71
     1
 72
     1
  1
 
 73
     1
 44
1.0
  0
DIMENSION
  5
67C1
330
1E
100
AcDbEntity
  8
30
  6
Continuous
100
AcDbDimension
280
     0
  2
*D24
 10
187.2602819584348
 20
-126.4544464119911
 30
0.0
 11
193.5936152917681
 21
-123.4544464119911
 31
0.0
 70
    32
 71
     5
 42
-1.0
 73
     0
 74
     0
 75
     0
  3
STANDARD
100
AcDbAlignedDimension
 13
183.2602819584344
 23
-25.0
 33
0.0
 14
187.2602819584348
 24
-25.0
 34
0.0
100
AcDbRotatedDimension
1001
ACAD
1000
DSTYLE
1002
{
1070
    79
1070
     3
1002
}
  0
LINE
  5
68B7
330
1E
100
AcDbEntity
  8
24
  6
CONTINOUS
100
AcDbLine
 10
65.00000000000003
 20
265.2158756592118
 30
0.0
 11
75.00000000000003
 21
265.2158756592118
 31
0.0
  0
LINE
  5
68B8
330
1E
100
AcDbEntity
  8
24
  6
CONTINOUS
100
AcDbLine
 10
59.50000000000001
 20
272.415875659212
 30
0.0
 11
80.50000000000016
 21
272.415875659212
 31
0.0
  0
LINE
  5
68B9
330
1E
100
AcDbEntity
  8
24
  6
CONTINOUS
100
AcDbLine
 10
59.50000000000001
 20
274.415875659212
 30
0.0
 11
80.50000000000016
 21
274.415875659212
 31
0.0
  0
LINE
  5
68BA
330
1E
100
AcDbEntity
  8
24
  6
CONTINOUS
100
AcDbLine
 10
62.30000000000011
 20
270.415875659212
 30
0.0
 11
77.70000000000006
 21
270.415875659212
 31
0.0
  0
LINE
  5
68BB
330
1E
100
AcDbEntity
  8
24
  6
CONTINOUS
100
AcDbLine
 10
70.00000000000003
 20
260.2158756592118
 30
0.0
 11
70.00000000000003
 21
277.415875659212
 31
0.0
  0
ARC
  5
68BC
330
1E
100
AcDbEntity
  8
24
  6
CONTINOUS
100
AcDbCircle
 10
65.00000000000003
 20
267.2158756592115
 30
0.0
 40
2.0
100
AcDbArc
 50
180.0
 51
270.0
  0
LINE
  5
68BD
330
1E
100
AcDbEntity
  8
24
  6
CONTINOUS
100
AcDbLine
 10
62.30000000000011
 20
270.415875659212
 30
0.0
 11
62.30000000000011
 21
272.415875659212
 31
0.0
  0
LINE
  5
68BE
330
1E
100
AcDbEntity
  8
24
  6
CONTINOUS
100
AcDbLine
 10
63.00000000000003
 20
267.2158756592115
 30
0.0
 11
63.00000000000003
 21
270.415875659212
 31
0.0
  0
LINE
  5
68BF
330
1E
100
AcDbEntity
  8
24
  6
CONTINOUS
100
AcDbLine
 10
77.70000000000006
 20
270.415875659212
 30
0.0
 11
77.70000000000006
 21
272.415875659212
 31
0.0
  0
LINE
  5
68C0
330
1E
100
AcDbEntity
  8
24
  6
CONTINOUS
100
AcDbLine
 10
77.00000000000001
 20
267.2158756592115
 30
0.0
 11
77.00000000000001
 21
270.415875659212
 31
0.0
  0
ARC
  5
68C1
330
1E
100
AcDbEntity
  8
24
  6
CONTINOUS
100
AcDbCircle
 10
75.00000000000003
 20
267.2158756592115
 30
0.0
 40
2.0
100
AcDbArc
 50
270.0
 51
0.0
  0
LINE
  5
68C2
330
1E
100
AcDbEntity
  8
18
100
AcDbLine
 10
51.0
 20
182.4999999999999
 30
0.0
 11
51.0
 21
82.49999999999987
 31
0.0
  0
LINE
  5
68C3
330
1E
100
AcDbEntity
  8
18
100
AcDbLine
 10
54.00000000000003
 20
182.4999999999999
 30
0.0
 11
54.00000000000003
 21
82.49999999999987
 31
0.0
  0
LINE
  5
68C4
330
1E
100
AcDbEntity
  8
18
100
AcDbLine
 10
51.0
 20
182.4999999999999
 30
0.0
 11
54.00000000000003
 21
182.4999999999999
 31
0.0
  0
ARC
  5
68C5
330
1E
100
AcDbEntity
  8
10
  6
CONTINOUS
100
AcDbCircle
 10
62.99999999999997
 20
65.0
 30
0.0
 40
5.0
100
AcDbArc
 50
180.0
 51
270.0
  0
ARC
  5
68C6
330
1E
100
AcDbEntity
  8
10
  6
CONTINOUS
100
AcDbCircle
 10
77.00000000000001
 20
65.0
 30
0.0
 40
5.0
100
AcDbArc
 50
270.0
 51
0.0
  0
LINE
  5
68C7
330
1E
100
AcDbEntity
  8
24
  6
CONTINOUS
100
AcDbLine
 10
62.99999999999997
 20
72.0
 30
0.0
 11
77.00000000000001
 21
72.0
 31
0.0
  0
CIRCLE
  5
68C8
330
1E
100
AcDbEntity
  8
24
  6
CONTINOUS
100
AcDbCircle
 10
70.00000000000003
 20
72.0
 30
0.0
 40
5.0
  0
LINE
  5
68C9
330
1E
100
AcDbEntity
  8
10
  6
CONTINOUS
100
AcDbLine
 10
77.00000000000001
 20
60.0
 30
0.0
 11
62.99999999999997
 21
60.0
 31
0.0
  0
LINE
  5
68CA
330
1E
100
AcDbEntity
  8
24
  6
CONTINOUS
100
AcDbLine
 10
70.00000000000003
 20
78.99999999999997
 30
0.0
 11
70.00000000000003
 21
65.0
 31
0.0
  0
LINE
  5
68CB
330
1E
100
AcDbEntity
  8
10
  6
CONTINOUS
100
AcDbLine
 10
58.0
 20
82.50000000000001
 30
0.0
 11
58.0
 21
65.0
 31
0.0
  0
LINE
  5
68CC
330
1E
100
AcDbEntity
  8
10
  6
CONTINOUS
100
AcDbLine
 10
82.00000000000001
 20
82.50000000000001
 30
0.0
 11
82.00000000000001
 21
65.0
 31
0.0
  0
LINE
  5
68CD
330
1E
100
AcDbEntity
  8
24
  6
CONTINOUS
100
AcDbLine
 10
70.00000000000003
 20
-65.0
 30
0.0
 11
70.00000000000003
 21
-79.00000000000003
 31
0.0
  0
CIRCLE
  5
68CE
330
1E
100
AcDbEntity
  8
24
  6
CONTINOUS
100
AcDbCircle
 10
70.00000000000003
 20
-72.00000000000007
 30
0.0
 40
5.0
  0
LINE
  5
68CF
330
1E
100
AcDbEntity
  8
10
  6
CONTINOUS
100
AcDbLine
 10
82.00000000000001
 20
-82.5
 30
0.0
 11
82.00000000000001
 21
-65.0
 31
0.0
  0
LINE
  5
68D0
330
1E
100
AcDbEntity
  8
10
  6
CONTINOUS
100
AcDbLine
 10
58.0
 20
-82.5
 30
0.0
 11
58.0
 21
-65.0
 31
0.0
  0
LINE
  5
68D1
330
1E
100
AcDbEntity
  8
24
  6
CONTINOUS
100
AcDbLine
 10
62.99999999999997
 20
-72.00000000000007
 30
0.0
 11
77.00000000000001
 21
-72.00000000000007
 31
0.0
  0
LINE
  5
68D2
330
1E
100
AcDbEntity
  8
10
  6
CONTINOUS
100
AcDbLine
 10
77.00000000000001
 20
-60.0
 30
0.0
 11
62.99999999999997
 21
-60.0
 31
0.0
  0
ARC
  5
68D3
330
1E
100
AcDbEntity
  8
10
  6
CONTINOUS
100
AcDbCircle
 10
-62.99999999999997
 20
-65.0
 30
0.0
 40
5.0
210
0.0
220
0.0
230
-1.0
100
AcDbArc
 50
0.0
 51
90.0
  0
ARC
  5
68D4
330
1E
100
AcDbEntity
  8
10
  6
CONTINOUS
100
AcDbCircle
 10
-77.00000000000001
 20
-65.0
 30
0.0
 40
5.0
210
0.0
220
0.0
230
-1.0
100
AcDbArc
 50
90.0
 51
180.0
  0
DIMENSION
  5
68F3
330
1E
100
AcDbEntity
  8
30
  6
Continuous
100
AcDbDimension
280
     0
  2
*D26
 10
108.1947822581959
 20
-313.8473940210346
 30
0.0
 11
105.1947822581959
 21
-250.8473940210345
 31
0.0
 70
    32
 71
     5
 42
-1.0
 73
     0
 74
     0
 75
     0
  3
STANDARD
100
AcDbAlignedDimension
 13
-12.38009453517117
 23
-187.8473940210345
 33
0.0
 14
22.6199054648288
 24
-313.8473940210346
 34
0.0
 50
90.0
100
AcDbRotatedDimension
1001
ACAD
1000
DSTYLE
1002
{
1070
    79
1070
     3
1002
}
  0
DIMENSION
  5
6909
330
1E
100
AcDbEntity
  8
30
  6
Continuous
100
AcDbDimension
280
     0
  2
*D27
 10
35.00000000000003
 20
-110.9544464119909
 30
0.0
 11
17.50000000000001
 21
-107.954446411991
 31
0.0
 70
    32
 71
     5
 42
-1.0
 73
     0
 74
     0
 75
     0
  3
STANDARD
100
AcDbAlignedDimension
 13
0.0
 23
-82.5
 33
0.0
 14
35.00000000000003
 24
-79.00000000000003
 34
0.0
100
AcDbRotatedDimension
1001
ACAD
1000
DSTYLE
1002
{
1070
    79
1070
     3
1002
}
  0
DIMENSION
  5
6916
330
1E
100
AcDbEntity
  8
30
  6
Continuous
100
AcDbDimension
280
     0
  2
*D28
 10
70.00000000000003
 20
-110.9544464119909
 30
0.0
 11
52.50000000000003
 21
-107.954446411991
 31
0.0
 70
    32
 71
     5
 42
-1.0
 73
     0
 74
     0
 75
     0
  3
STANDARD
100
AcDbAlignedDimension
 13
35.00000000000003
 23
-82.5
 33
0.0
 14
70.00000000000003
 24
-77.00000000000007
 34
0.0
100
AcDbRotatedDimension
1001
ACAD
1000
DSTYLE
1002
{
1070
    79
1070
     3
1002
}
  0
DIMENSION
  5
6923
330
1E
100
AcDbEntity
  8
30
  6
Continuous
100
AcDbDimension
280
     0
  2
*D29
 10
0.0000000000000033
 20
327.5142024541259
 30
0.0
 11
-17.49999999999999
 21
330.5142024541258
 31
0.0
 70
    32
 71
     5
 42
-1.0
 73
     0
 74
     0
 75
     0
  3
STANDARD
100
AcDbAlignedDimension
 13
-35.0
 23
277.415875659212
 33
0.0
 14
0.0
 24
274.415875659212
 34
0.0
100
AcDbRotatedDimension
1001
ACAD
1000
DSTYLE
1002
{
1070
    79
1070
     3
1002
}
  0
DIMENSION
  5
6930
330
1E
100
AcDbEntity
  8
30
  6
Continuous
100
AcDbDimension
280
     0
  2
*D30
 10
35.00000000000003
 20
327.5142024541259
 30
0.0
 11
17.50000000000001
 21
330.5142024541258
 31
0.0
 70
    32
 71
     5
 42
-1.0
 73
     0
 74
     0
 75
     0
  3
STANDARD
100
AcDbAlignedDimension
 13
0.0
 23
274.415875659212
 33
0.0
 14
35.00000000000003
 24
277.415875659212
 34
0.0
100
AcDbRotatedDimension
1001
ACAD
1000
DSTYLE
1002
{
1070
   287
1070
     4
1070
   287
1070
     4
1070
   287
1070
     4
1070
   287
1070
     4
1070
   287
1070
     4
1070
   287
1070
     4
1070
   279
1070
     1
1070
    79
1070
     3
1002
}
  0
DIMENSION
  5
693D
330
1E
100
AcDbEntity
  8
30
  6
Continuous
100
AcDbDimension
280
     0
  2
*D31
 10
70.00000000000003
 20
327.5142024541259
 30
0.0
 11
52.50000000000003
 21
330.5142024541258
 31
0.0
 70
    32
 71
     5
 42
-1.0
 73
     0
 74
     0
 75
     0
  3
STANDARD
100
AcDbAlignedDimension
 13
35.00000000000003
 23
277.415875659212
 33
0.0
 14
70.00000000000003
 24
277.415875659212
 34
0.0
100
AcDbRotatedDimension
1001
ACAD
1000
DSTYLE
1002
{
1070
   287
1070
     4
1070
   287
1070
     4
1070
   287
1070
     4
1070
   287
1070
     4
1070
   287
1070
     4
1070
   287
1070
     4
1070
   279
1070
     1
1070
    79
1070
     3
1002
}
  0
DIMENSION
  5
6967
330
1E
100
AcDbEntity
  8
30
  6
Continuous
100
AcDbDimension
280
     0
  2
*D33
 10
-72.42950291237829
 20
82.50000000000003
 30
0.0
 11
-75.42950291237829
 21
132.4999999999999
 31
0.0
 70
    32
 71
     5
 42
-1.0
 73
     0
 74
     0
 75
     0
  3
STANDARD
100
AcDbAlignedDimension
 13
-19.0
 23
182.4999999999999
 33
0.0
 14
-19.0
 24
82.50000000000001
 34
0.0
 50
90.0
100
AcDbRotatedDimension
1001
ACAD
1000
DSTYLE
1002
{
1070
    79
1070
     3
1002
}
  0
DIMENSION
  5
6974
330
1E
100
AcDbEntity
  8
30
  6
Continuous
100
AcDbDimension
280
     0
  2
*D34
 10
-72.42950291237831
 20
-82.5
 30
0.0
 11
-75.42950291237829
 21
-0.0000000000000023
 31
0.0
 70
    32
 71
     5
 42
-1.0
 73
     0
 74
     0
 75
     0
  3
STANDARD
100
AcDbAlignedDimension
 13
-72.42950291237829
 23
82.50000000000001
 33
0.0
 14
-52.5
 24
-82.5
 34
0.0
 50
90.0
100
AcDbRotatedDimension
1001
ACAD
1000
DSTYLE
1002
{
1070
    79
1070
     3
1002
}
  0
DIMENSION
  5
6B39
330
1E
100
AcDbEntity
  8
30
  6
Continuous
100
AcDbDimension
280
     0
  2
*D37
 10
306.9306349733515
 20
-277.6631237443548
 30
0.0
 11
303.9306349733515
 21
-251.6631237443548
 31
0.0
 70
    32
 71
     5
 42
-1.0
 73
     0
 74
     0
 75
     0
  3
STANDARD
100
AcDbAlignedDimension
 13
259.0
 23
-225.6631237443547
 33
0.0
 14
259.0
 24
-277.6631237443548
 34
0.0
 50
90.0
100
AcDbRotatedDimension
1001
ACAD
1000
DSTYLE
1002
{
1070
    79
1070
     3
1002
}
  0
LINE
  5
6B3A
330
1E
100
AcDbEntity
  8
18
  6
DIVIDE
100
AcDbLine
 10
297.5
 20
-334.1631237443547
 30
0.0
 11
297.5
 21
-169.1631237443548
 31
0.0
  0
LINE
  5
6B3B
330
1E
100
AcDbEntity
  8
18
  6
DIVIDE
100
AcDbLine
 10
157.5
 20
-169.1631237443548
 30
0.0
 11
157.5
 21
-334.1631237443547
 31
0.0
  0
LINE
  5
6B3D
330
1E
100
AcDbEntity
  8
11
 48
2.0
100
AcDbLine
 10
160.0
 20
-226.6631237443549
 30
0.0
 11
160.0
 21
-276.6631237443549
 31
0.0
  0
LINE
  5
6B3E
330
1E
100
AcDbEntity
  8
11
 48
2.0
100
AcDbLine
 10
260.0
 20
-226.6631237443549
 30
0.0
 11
260.0
 21
-276.6631237443549
 31
0.0
  0
LINE
  5
6B3F
330
1E
100
AcDbEntity
  8
16
100
AcDbLine
 10
210.0
 20
-349.4150635072003
 30
0.0
 11
210.0
 21
-150.2797245348688
 31
0.0
  0
DIMENSION
  5
6B40
330
1E
100
AcDbEntity
  8
30
  6
Continuous
100
AcDbDimension
280
     0
  2
*D39
 10
260.0
 20
-365.1576913624972
 30
0.0
 11
210.0
 21
-362.1576913624973
 31
0.0
 70
    32
 71
     5
 42
-1.0
 73
     0
 74
     0
 75
     0
  3
STANDARD
100
AcDbAlignedDimension
 13
160.0
 23
-276.6631237443549
 33
0.0
 14
260.0
 24
-276.6631237443549
 34
0.0
100
AcDbRotatedDimension
1001
ACAD
1000
DSTYLE
1002
{
1070
    79
1070
     3
1002
}
  0
LINE
  5
6B43
330
1E
100
AcDbEntity
  8
18
  6
DIVIDE
100
AcDbLine
 10
157.5
 20
-334.1631237443547
 30
0.0
 11
297.5
 21
-334.1631237443547
 31
0.0
  0
LINE
  5
6B44
330
1E
100
AcDbEntity
  8
11
 48
2.0
100
AcDbLine
 10
161.0000000000001
 20
-277.6631237443547
 30
0.0
 11
259.0
 21
-277.6631237443547
 31
0.0
  0
ARC
  5
6B46
330
1E
100
AcDbEntity
  8
11
 48
2.0
100
AcDbCircle
 10
161.0000000000001
 20
-276.6631237443549
 30
0.0
 40
1.0
100
AcDbArc
 50
180.0
 51
270.0
  0
ARC
  5
6B47
330
1E
100
AcDbEntity
  8
11
 48
2.0
100
AcDbCircle
 10
259.0
 20
-276.6631237443549
 30
0.0
 40
1.0
100
AcDbArc
 50
270.0
 51
0.0
  0
LINE
  5
6B48
330
1E
100
AcDbEntity
  8
18
  6
DIVIDE
100
AcDbLine
 10
297.5
 20
-169.1631237443548
 30
0.0
 11
157.5
 21
-169.1631237443548
 31
0.0
  0
LINE
  5
6B49
330
1E
100
AcDbEntity
  8
11
 48
2.0
100
AcDbLine
 10
161.0000000000001
 20
-225.6631237443547
 30
0.0
 11
259.0
 21
-225.6631237443547
 31
0.0
  0
ARC
  5
6B4D
330
1E
100
AcDbEntity
  8
11
 48
2.0
100
AcDbCircle
 10
161.0000000000001
 20
-226.6631237443549
 30
0.0
 40
1.0
100
AcDbArc
 50
90.0
 51
180.0
  0
DIMENSION
  5
6B4E
330
1E
100
AcDbEntity
  8
30
  6
Continuous
100
AcDbDimension
280
     0
  2
*D36
 10
259.0
 20
-226.6631237443545
 30
0.0
 11
266.7623648776715
 21
-220.7951530045506
 31
0.0
 70
    36
 71
     5
 42
-1.0
 73
     0
 74
     0
 75
     0
  3
STANDARD
100
AcDbRadialDimension
 15
259.8191396422011
 25
-226.0895295963939
 35
0.0
 40
0.0
1001
ACAD
1000
DSTYLE
1002
{
1070
    79
1070
     3
1002
}
  0
ARC
  5
6B4F
330
1E
100
AcDbEntity
  8
11
 48
2.0
100
AcDbCircle
 10
259.0
 20
-226.6631237443549
 30
0.0
 40
1.0
100
AcDbArc
 50
0.0
 51
90.0
  0
LINE
  5
6B50
330
1E
100
AcDbEntity
  8
16
100
AcDbLine
 10
278.903897549407
 20
-249.0
 30
0.0
 11
129.4500867984191
 21
-249.0
 31
0.0
  0
LEADER
  5
6CFB
330
1E
100
AcDbEntity
  8
30
  6
Continuous
100
AcDbLeader
  3
STANDARD
 76
     3
 10
-19.37842113598296
 20
-187.4475362948153
 30
0.0
 10
-31.36225079993437
 20
-163.4860183718135
 30
0.0
 10
-72.00306366862469
 20
-163.4860183718135
 30
0.0
1001
ACAD
1000
DSTYLE
1002
{
1070
     5
1000
OPEN
1070
    77
1070
     0
1070
    79
1070
     3
1070
   147
1040
1.0
1070
   342
1005
3B2
1002
}
  0
TEXT
  5
6CFC
330
1E
100
AcDbEntity
  8
30
  6
Continuous
100
AcDbText
 10
-61.82036446943204
 20
-161.5698688127565
 30
0.0
 40
5.0
  1
M4x0.7
 41
0.8216911764705923
100
AcDbText
  0
LINE
  5
70AA
330
1E
100
AcDbEntity
  8
10
  6
CONTINOUS
100
AcDbLine
 10
36.2
 20
-12.0
 30
0.0
 11
36.2
 21
-16.0
 31
0.0
  0
LINE
  5
70AB
330
1E
100
AcDbEntity
  8
10
  6
CONTINOUS
100
AcDbLine
 10
27.00000000000001
 20
-11.99999999999997
 30
0.0
 11
36.20000000000013
 21
-11.99999999999997
 31
0.0
  0
LINE
  5
70AC
330
1E
100
AcDbEntity
  8
10
  6
CONTINOUS
100
AcDbLine
 10
27.00000000000001
 20
-15.99999999999997
 30
0.0
 11
36.20000000000013
 21
-15.99999999999997
 31
0.0
  0
LINE
  5
70AD
330
1E
100
AcDbEntity
  8
10
  6
CONTINOUS
100
AcDbLine
 10
27.00000000000001
 20
-12.0
 30
0.0
 11
27.00000000000001
 21
-16.0
 31
0.0
  0
LINE
  5
70AE
330
1E
100
AcDbEntity
  8
10
  6
CONTINOUS
100
AcDbLine
 10
36.2
 20
-7.0
 30
0.0
 11
36.2
 21
-11.0
 31
0.0
  0
LINE
  5
70AF
330
1E
100
AcDbEntity
  8
10
  6
CONTINOUS
100
AcDbLine
 10
27.00000000000001
 20
-7.0
 30
0.0
 11
27.00000000000001
 21
-11.0
 31
0.0
  0
LINE
  5
70B0
330
1E
100
AcDbEntity
  8
10
  6
CONTINOUS
100
AcDbLine
 10
27.00000000000001
 20
-10.99999999999997
 30
0.0
 11
36.20000000000013
 21
-10.99999999999997
 31
0.0
  0
LINE
  5
70B1
330
1E
100
AcDbEntity
  8
10
  6
CONTINOUS
100
AcDbLine
 10
27.00000000000001
 20
-6.999999999999971
 30
0.0
 11
36.20000000000013
 21
-6.999999999999971
 31
0.0
  0
CIRCLE
  5
70B2
330
1E
100
AcDbEntity
  8
10
  6
CONTINOUS
100
AcDbCircle
 10
31.10000000000005
 20
12.30000000000001
 30
0.0
 40
1.5
  0
CIRCLE
  5
70B3
330
1E
100
AcDbEntity
  8
10
  6
CONTINOUS
100
AcDbCircle
 10
31.10000000000005
 20
5.800000000000013
 30
0.0
 40
2.6
  0
CIRCLE
  5
70B4
330
1E
100
AcDbEntity
  8
10
  6
CONTINOUS
100
AcDbCircle
 10
31.10000000000005
 20
5.800000000000013
 30
0.0
 40
3.6
  0
CIRCLE
  5
70B5
330
1E
100
AcDbEntity
  8
10
  6
CONTINOUS
100
AcDbCircle
 10
31.10000000000005
 20
-1.900000000000004
 30
0.0
 40
2.6
  0
CIRCLE
  5
70B6
330
1E
100
AcDbEntity
  8
10
  6
CONTINOUS
100
AcDbCircle
 10
31.10000000000005
 20
-1.900000000000004
 30
0.0
 40
3.6
  0
LINE
  5
70BA
330
1E
100
AcDbEntity
  8
18
100
AcDbLine
 10
51.00000000000003
 20
0.0
 30
0.0
 11
51.00000000000003
 21
-33.45146422575911
 31
0.0
  0
LINE
  5
70BB
330
1E
100
AcDbEntity
  8
18
100
AcDbLine
 10
55.00000000000003
 20
0.0
 30
0.0
 11
55.00000000000003
 21
-33.79288839175109
 31
0.0
  0
LINE
  5
70BC
330
1E
100
AcDbEntity
  8
18
100
AcDbLine
 10
53.00000000000003
 20
0.0
 30
0.0
 11
53.00000000000003
 21
-34.47735581906582
 31
0.0
  0
LINE
  5
70BD
330
1E
100
AcDbEntity
  8
18
100
AcDbLine
 10
49.00000000000003
 20
0.0
 30
0.0
 11
49.00000000000003
 21
-34.02456426108177
 31
0.0
  0
LINE
  5
70BE
330
1E
100
AcDbEntity
  8
18
100
AcDbLine
 10
55.00000000000003
 20
-37.79288839175104
 30
0.0
 11
55.00000000000003
 21
-95.99999999999996
 31
0.0
  0
LINE
  5
70BF
330
1E
100
AcDbEntity
  8
18
100
AcDbLine
 10
53.00000000000003
 20
-38.47735581906585
 30
0.0
 11
53.00000000000003
 21
-95.99999999999996
 31
0.0
  0
LINE
  5
70C0
330
1E
100
AcDbEntity
  8
18
100
AcDbLine
 10
51.00000000000003
 20
-37.45146422575919
 30
0.0
 11
51.00000000000003
 21
-96.0
 31
0.0
  0
LINE
  5
70C1
330
1E
100
AcDbEntity
  8
18
100
AcDbLine
 10
49.00000000000003
 20
-38.02456426108182
 30
0.0
 11
49.00000000000003
 21
-95.99999999999996
 31
0.0
  0
LINE
  5
70C2
330
1E
100
AcDbEntity
  8
18
100
AcDbLine
 10
55.00000000000003
 20
-111.0
 30
0.0
 11
55.00000000000003
 21
-143.5
 31
0.0
  0
LINE
  5
70C3
330
1E
100
AcDbEntity
  8
18
100
AcDbLine
 10
51.00000000000003
 20
-111.0
 30
0.0
 11
51.00000000000003
 21
-143.5
 31
0.0
  0
LINE
  5
70C4
330
1E
100
AcDbEntity
  8
18
100
AcDbLine
 10
49.00000000000003
 20
-111.0
 30
0.0
 11
49.00000000000003
 21
-143.5
 31
0.0
  0
LINE
  5
70C5
330
1E
100
AcDbEntity
  8
18
100
AcDbLine
 10
53.00000000000003
 20
-111.0
 30
0.0
 11
53.00000000000003
 21
-143.5
 31
0.0
  0
LINE
  5
70C6
330
1E
100
AcDbEntity
  8
18
100
AcDbLine
 10
49.00000000000003
 20
-143.5
 30
0.0
 11
51.00000000000003
 21
-143.5
 31
0.0
  0
LINE
  5
70C7
330
1E
100
AcDbEntity
  8
18
100
AcDbLine
 10
49.50000000000002
 20
-143.5
 30
0.0
 11
49.50000000000002
 21
-148.5
 31
0.0
  0
LINE
  5
70C8
330
1E
100
AcDbEntity
  8
18
100
AcDbLine
 10
49.50000000000002
 20
-148.5
 30
0.0
 11
50.50000000000003
 21
-148.5
 31
0.0
  0
LINE
  5
70C9
330
1E
100
AcDbEntity
  8
18
100
AcDbLine
 10
50.50000000000003
 20
-143.5
 30
0.0
 11
50.50000000000003
 21
-148.5
 31
0.0
  0
LINE
  5
70CA
330
1E
100
AcDbEntity
  8
18
100
AcDbLine
 10
53.50000000000003
 20
-148.5
 30
0.0
 11
54.50000000000002
 21
-148.5
 31
0.0
  0
LINE
  5
70CB
330
1E
100
AcDbEntity
  8
18
100
AcDbLine
 10
54.50000000000002
 20
-143.5
 30
0.0
 11
54.50000000000002
 21
-148.5
 31
0.0
  0
LINE
  5
70CC
330
1E
100
AcDbEntity
  8
18
100
AcDbLine
 10
51.00000000000003
 20
-143.5
 30
0.0
 11
53.00000000000003
 21
-143.5
 31
0.0
  0
LINE
  5
70CD
330
1E
100
AcDbEntity
  8
18
100
AcDbLine
 10
53.50000000000003
 20
-143.5
 30
0.0
 11
53.50000000000003
 21
-148.5
 31
0.0
  0
LINE
  5
70CE
330
1E
100
AcDbEntity
  8
18
100
AcDbLine
 10
53.00000000000003
 20
-143.5
 30
0.0
 11
55.00000000000003
 21
-143.5
 31
0.0
  0
LINE
  5
70CF
330
1E
100
AcDbEntity
  8
18
100
AcDbLine
 10
52.50000000000003
 20
-143.5
 30
0.0
 11
52.50000000000003
 21
-148.5
 31
0.0
  0
LINE
  5
70D0
330
1E
100
AcDbEntity
  8
18
100
AcDbLine
 10
51.50000000000003
 20
-143.5
 30
0.0
 11
51.50000000000003
 21
-148.5
 31
0.0
  0
LINE
  5
70D1
330
1E
100
AcDbEntity
  8
18
100
AcDbLine
 10
51.50000000000003
 20
-148.5
 30
0.0
 11
52.50000000000003
 21
-148.5
 31
0.0
  0
LINE
  5
70D2
330
1E
100
AcDbEntity
  8
18
100
AcDbLine
 10
48.50000000000003
 20
-96.0
 30
0.0
 11
48.50000000000003
 21
-111.0
 31
0.0
  0
LINE
  5
70D3
330
1E
100
AcDbEntity
  8
18
100
AcDbLine
 10
55.50000000000003
 20
-96.0
 30
0.0
 11
55.50000000000003
 21
-111.0
 31
0.0
  0
LINE
  5
70D4
330
1E
100
AcDbEntity
  8
0
100
AcDbLine
 10
48.50000000000003
 20
-111.0
 30
0.0
 11
55.50000000000003
 21
-111.0
 31
0.0
  0
LINE
  5
70D5
330
1E
100
AcDbEntity
  8
18
100
AcDbLine
 10
48.50000000000003
 20
-96.0
 30
0.0
 11
55.50000000000003
 21
-96.0
 31
0.0
  0
ARC
  5
7125
330
1E
100
AcDbEntity
  8
10
  6
CONTINOUS
100
AcDbCircle
 10
183.2602819584348
 20
-3.900000000000008
 30
0.0
 40
0.5
100
AcDbArc
 50
180.0
 51
270.0
  0
ARC
  5
7126
330
1E
100
AcDbEntity
  8
10
  6
CONTINOUS
100
AcDbCircle
 10
183.2602819584348
 20
0.0999999999999916
 30
0.0
 40
0.5
100
AcDbArc
 50
90.0
 51
180.0
  0
LINE
  5
7128
330
1E
100
AcDbEntity
  8
10
  6
CONTINOUS
100
AcDbLine
 10
182.7602819584348
 20
0.0999999999999916
 30
0.0
 11
182.7602819584348
 21
-3.900000000000008
 31
0.0
  0
ARC
  5
7129
330
1E
100
AcDbEntity
  8
10
  6
CONTINOUS
100
AcDbCircle
 10
185.2602819584348
 20
-5.0
 30
0.0
 40
0.5
100
AcDbArc
 50
180.0
 51
270.0
  0
ARC
  5
712A
330
1E
100
AcDbEntity
  8
10
  6
CONTINOUS
100
AcDbCircle
 10
185.2602819584348
 20
1.199999999999985
 30
0.0
 40
0.5
100
AcDbArc
 50
90.0
 51
180.0
  0
LINE
  5
712B
330
1E
100
AcDbEntity
  8
10
  6
CONTINOUS
100
AcDbLine
 10
183.2602819584348
 20
-4.400000000000005
 30
0.0
 11
184.7602819584348
 21
-4.400000000000005
 31
0.0
  0
LINE
  5
712C
330
1E
100
AcDbEntity
  8
10
  6
CONTINOUS
100
AcDbLine
 10
183.2602819584348
 20
0.5999999999999917
 30
0.0
 11
184.7602819584348
 21
0.5999999999999917
 31
0.0
  0
LINE
  5
712D
330
1E
100
AcDbEntity
  8
10
  6
CONTINOUS
100
AcDbLine
 10
185.2602819584348
 20
-5.500000000000002
 30
0.0
 11
187.2602819584349
 21
-5.500000000000002
 31
0.0
  0
LINE
  5
712E
330
1E
100
AcDbEntity
  8
10
  6
CONTINOUS
100
AcDbLine
 10
185.2602819584348
 20
1.699999999999985
 30
0.0
 11
187.2602819584349
 21
1.699999999999985
 31
0.0
  0
LINE
  5
712F
330
1E
100
AcDbEntity
  8
10
  6
CONTINOUS
100
AcDbLine
 10
184.7602819584348
 20
1.199999999999985
 30
0.0
 11
184.7602819584348
 21
-5.0
 31
0.0
  0
MTEXT
  5
71B0
330
1E
100
AcDbEntity
  8
30
  6
Continuous
100
AcDbMText
 10
247.6705606429618
 20
226.1533100516889
 30
0.0
 40
5.0
 41
101.0
 46
0.0
 71
     1
 72
     5
  1
\PZAS225-GF 4P FC\PZAS250-GF 4P FC
  7
STANDARD1
 73
     1
 44
1.0
  0
VIEWPORT
  5
9AC
330
1A
100
AcDbEntity
 67
     1
  8
0
  6
Continuous
100
AcDbViewport
 10
171.999535
 20
144.1384739999999
 30
0.0
 40
488.867686
 41
292.351491
 68
     1
 69
     1
 12
171.999535
 22
144.1384739999999
 13
0.0
 23
0.0
 14
10.0
 24
10.0
 15
10.0
 25
10.0
 16
0.0
 26
0.0
 36
1.0
 17
0.0
 27
0.0
 37
0.0
 42
50.0
 43
0.0
 44
0.0
 45
292.351491
 50
0.0
 51
0.0
 72
   100
 90
    32800
  1

281
     0
 71
     1
 74
     0
110
0.0
120
0.0
130
0.0
111
1.0
121
0.0
131
0.0
112
0.0
122
1.0
132
0.0
 79
     0
146
0.0
170
     0
 61
     5
348
71DA
292
     1
282
     1
141
0.0
142
0.0
 63
   250
421
  3355443
  0
ENDSEC
  0
SECTION
  2
OBJECTS
  0
DICTIONARY
  5
C
330
0
100
AcDbDictionary
281
     1
  3
ACAD_CIP_PREVIOUS_PRODUCT_INFO
350
7208
  3
ACAD_COLOR
350
71ED
  3
ACAD_DETAILVIEWSTYLE
350
7206
  3
ACAD_GROUP
350
D
  3
ACAD_LAYOUT
350
19
  3
ACAD_MATERIAL
350
71BB
  3
ACAD_MLEADERSTYLE
350
7202
  3
ACAD_MLINESTYLE
350
16
  3
ACAD_PLOTSETTINGS
350
18
  3
ACAD_PLOTSTYLENAME
350
E
  3
ACAD_SCALELIST
350
71F0
  3
ACAD_SECTIONVIEWSTYLE
350
7204
  3
ACAD_TABLESTYLE
350
71EE
  3
ACAD_VISUALSTYLE
350
71D4
  3
ACADDIM
350
67AC
  3
ACDB_RECOMPOSE_DATA
350
723C
  3
ACDBVARIABLEDICTIONARY
350
5697
  0
DICTIONARY
  5
720B
330
10
100
AcDbDictionary
280
     1
281
     1
  3
ADSK_XREC_LAYER_RECONCILED
360
720C
  0
DICTIONARY
  5
720D
330
2F
100
AcDbDictionary
280
     1
281
     1
  3
ADSK_XREC_LAYER_RECONCILED
360
720E
  0
DICTIONARY
  5
720F
330
31
100
AcDbDictionary
280
     1
281
     1
  3
ADSK_XREC_LAYER_RECONCILED
360
7210
  0
DICTIONARY
  5
7211
330
35
100
AcDbDictionary
280
     1
281
     1
  3
ADSK_XREC_LAYER_RECONCILED
360
7212
  0
DICTIONARY
  5
7213
330
38
100
AcDbDictionary
280
     1
281
     1
  3
ADSK_XREC_LAYER_RECONCILED
360
7214
  0
DICTIONARY
  5
7215
330
3C
100
AcDbDictionary
280
     1
281
     1
  3
ADSK_XREC_LAYER_RECONCILED
360
7216
  0
DICTIONARY
  5
7217
330
3D
100
AcDbDictionary
280
     1
281
     1
  3
ADSK_XREC_LAYER_RECONCILED
360
7218
  0
DICTIONARY
  5
7219
330
3A2
100
AcDbDictionary
280
     1
281
     1
  3
ADSK_XREC_LAYER_RECONCILED
360
721A
  0
DICTIONARY
  5
721B
330
3BBA
100
AcDbDictionary
280
     1
281
     1
  3
ADSK_XREC_LAYER_RECONCILED
360
721C
  0
DICTIONARY
  5
721D
330
5117
100
AcDbDictionary
280
     1
281
     1
  3
ADSK_XREC_LAYER_RECONCILED
360
721E
  0
DICTIONARY
  5
721F
330
64C0
100
AcDbDictionary
280
     1
281
     1
  3
ADSK_XREC_LAYER_RECONCILED
360
7220
  0
DICTIONARY
  5
178
330
1E
100
AcDbDictionary
280
     1
281
     1
  3
ACAD_LAYOUTSELFREF
360
7193
  0
DICTIONARY
  5
17A
330
1A
100
AcDbDictionary
280
     1
281
     1
  3
ACAD_LAYOUTSELFREF
360
7192
  0
XRECORD
  5
7208
102
{ACAD_REACTORS
330
C
102
}
330
C
100
AcDbXrecord
280
     1
300
ACDLT
300
2014
300
ACDLT_F_S
  0
DICTIONARY
  5
71ED
102
{ACAD_REACTORS
330
C
102
}
330
C
100
AcDbDictionary
281
     1
  0
DICTIONARY
  5
7206
102
{ACAD_REACTORS
330
C
102
}
330
C
100
AcDbDictionary
281
     1
  3
Imperial24
350
7207
  0
DICTIONARY
  5
D
102
{ACAD_REACTORS
330
C
102
}
330
C
100
AcDbDictionary
281
     1
  0
DICTIONARY
  5
19
102
{ACAD_REACTORS
330
C
102
}
330
C
100
AcDbDictionary
281
     1
  3
Model
350
71AE
  3
ﾚｲｱｳﾄ1
350
71AF
  0
DICTIONARY
  5
71BB
102
{ACAD_REACTORS
330
C
102
}
330
C
100
AcDbDictionary
281
     1
  3
ByBlock
350
71C4
  3
ByLayer
350
71BC
  3
Global
350
71CC
  0
DICTIONARY
  5
7202
102
{ACAD_REACTORS
330
C
102
}
330
C
100
AcDbDictionary
281
     1
  3
Standard
350
7203
  0
DICTIONARY
  5
16
102
{ACAD_REACTORS
330
C
102
}
330
C
100
AcDbDictionary
281
     1
  3
STANDARD
350
17
  0
DICTIONARY
  5
18
102
{ACAD_REACTORS
330
C
102
}
330
C
100
AcDbDictionary
281
     1
  0
ACDBDICTIONARYWDFLT
  5
E
102
{ACAD_REACTORS
330
C
102
}
330
C
100
AcDbDictionary
281
     1
  3
Normal
350
F
100
AcDbDictionaryWithDefault
340
F
  0
DICTIONARY
  5
71F0
102
{ACAD_REACTORS
330
C
102
}
330
C
100
AcDbDictionary
281
     1
  3
A0
350
71F1
  3
A1
350
71F2
  3
A2
350
71F3
  3
A3
350
71F4
  3
A4
350
71F5
  3
A5
350
71F6
  3
A6
350
71F7
  3
A7
350
71F8
  3
A8
350
71F9
  3
A9
350
71FA
  3
B0
350
71FB
  3
B1
350
71FC
  3
B2
350
71FD
  3
B3
350
71FE
  3
B4
350
71FF
  3
B5
350
7200
  3
B6
350
7201
  0
DICTIONARY
  5
7204
102
{ACAD_REACTORS
330
C
102
}
330
C
100
AcDbDictionary
281
     1
  3
Imperial24
350
7205
  0
DICTIONARY
  5
71EE
102
{ACAD_REACTORS
330
C
102
}
330
C
100
AcDbDictionary
281
     1
  3
Standard
350
71EF
  0
DICTIONARY
  5
71D4
102
{ACAD_REACTORS
330
C
102
}
330
C
100
AcDbDictionary
281
     1
  3
2dWireframe
350
71DA
  3
Basic
350
71D9
  3
Brighten
350
71E0
  3
ColorChange
350
71E4
  3
Conceptual
350
71DD
  3
Dim
350
71DF
  3
EdgeColorOff
350
71EC
  3
Facepattern
350
71E3
  3
Flat
350
71D5
  3
FlatWithEdges
350
71D6
  3
Gouraud
350
71D7
  3
GouraudWithEdges
350
71D8
  3
Hidden
350
71DC
  3
JitterOff
350
71EA
  3
Linepattern
350
71E2
  3
OverhangOff
350
71EB
  3
Realistic
350
71DE
  3
Shaded
350
71E9
  3
Shaded with edges
350
71E8
  3
Shades of Gray
350
71E5
  3
Sketchy
350
71E6
  3
Thicken
350
71E1
  3
Wireframe
350
71DB
  3
X-Ray
350
71E7
  0
XRECORD
  5
67AC
102
{ACAD_REACTORS
330
C
102
}
330
C
100
AcDbXrecord
280
     1
 90
   990106
  3

 60
     0
 61
     0
 62
     1
 63
     3
 64
     0
 65
     0
 66
     0
 67
     3
 68
     1
 69
     0
 70
     0
 71
     0
 72
     0
 40
0.0
170
     0
340
67AE
  0
XRECORD
  5
723C
102
{ACAD_REACTORS
330
C
102
}
330
C
100
AcDbXrecord
280
     1
 90
        1
330
71EF
330
7205
330
7207
  0
DICTIONARY
  5
5697
102
{ACAD_REACTORS
330
C
102
}
330
C
100
AcDbDictionary
281
     1
  3
CANNOSCALE
350
722C
  3
CMLEADERSTYLE
350
7228
  3
CTABLESTYLE
350
7227
  3
CVIEWDETAILSTYLE
350
7229
  3
CVIEWSECTIONSTYLE
350
722A
  3
DIMASSOC
350
5698
  3
LAYEREVAL
350
722E
  3
LAYERNOTIFY
350
722F
  3
LIGHTINGUNITS
350
722D
  3
MSLTSCALE
350
722B
  0
XRECORD
  5
720C
102
{ACAD_REACTORS
330
720B
102
}
330
720B
100
AcDbXrecord
280
     1
290
     1
  0
XRECORD
  5
720E
102
{ACAD_REACTORS
330
720D
102
}
330
720D
100
AcDbXrecord
280
     1
290
     1
  0
XRECORD
  5
7210
102
{ACAD_REACTORS
330
720F
102
}
330
720F
100
AcDbXrecord
280
     1
290
     1
  0
XRECORD
  5
7212
102
{ACAD_REACTORS
330
7211
102
}
330
7211
100
AcDbXrecord
280
     1
290
     1
  0
XRECORD
  5
7214
102
{ACAD_REACTORS
330
7213
102
}
330
7213
100
AcDbXrecord
280
     1
290
     1
  0
XRECORD
  5
7216
102
{ACAD_REACTORS
330
7215
102
}
330
7215
100
AcDbXrecord
280
     1
290
     1
  0
XRECORD
  5
7218
102
{ACAD_REACTORS
330
7217
102
}
330
7217
100
AcDbXrecord
280
     1
290
     1
  0
XRECORD
  5
721A
102
{ACAD_REACTORS
330
7219
102
}
330
7219
100
AcDbXrecord
280
     1
290
     1
  0
XRECORD
  5
721C
102
{ACAD_REACTORS
330
721B
102
}
330
721B
100
AcDbXrecord
280
     1
290
     1
  0
XRECORD
  5
721E
102
{ACAD_REACTORS
330
721D
102
}
330
721D
100
AcDbXrecord
280
     1
290
     1
  0
XRECORD
  5
7220
102
{ACAD_REACTORS
330
721F
102
}
330
721F
100
AcDbXrecord
280
     1
290
     1
  0
XRECORD
  5
7193
102
{ACAD_REACTORS
330
178
102
}
330
178
100
AcDbXrecord
280
     1
340
1E
  0
XRECORD
  5
7192
102
{ACAD_REACTORS
330
17A
102
}
330
17A
100
AcDbXrecord
280
     1
340
1A
  0
ACDBDETAILVIEWSTYLE
  5
7207
102
{ACAD_XDICTIONARY
360
7224
102
}
102
{ACAD_REACTORS
330
7206
102
}
330
7206
100
AcDbModelDocViewStyle
 70
     0
  3
Imperial24
290
     0
100
AcDbDetailViewStyle
 70
     0
 71
     0
 90
        3
 71
     1
340
11
 62
   256
 40
0.24
340
0
 62
   256
 40
0.24
300

 40
0.36
280
     3
 71
     2
340
15
 90
       25
 62
   256
 71
     3
340
11
 62
   256
 40
0.24
 90
        1
 40
0.75
 90
        1
300
%<\AcVar ViewType \f "%tc1">% %<\AcVar ViewDetailId>%\PSCALE %<\AcVar ViewScale \f "%sn">%
 71
     4
340
15
 90
       25
 62
   256
340
15
 90
       25
 62
   256
280
     0
  0
LAYOUT
  5
71AE
102
{ACAD_REACTORS
330
19
102
}
330
19
100
AcDbPlotSettings
  1

  2
Canon LBP3800 LIPSLX
  4

  6

 40
0.0
 41
0.0
 42
0.0
 43
0.0
 44
0.0
 45
0.0
 46
0.0
 47
0.0
 48
0.0
 49
0.0
140
0.0
141
0.0
142
1.0
143
1.0
 70
  1712
 72
     0
 73
     0
 74
     0
  7
monochrome.ctb
 75
     0
147
1.0
 76
     0
 77
     2
 78
   300
148
0.0
149
0.0
100
AcDbLayout
  1
Model
 70
     1
 71
     0
 10
0.0
 20
0.0
 11
12.0
 21
9.0
 12
0.0
 22
0.0
 32
0.0
 14
0.0
 24
0.0
 34
0.0
 15
0.0
 25
0.0
 35
0.0
146
0.0
 13
0.0
 23
0.0
 33
0.0
 16
1.0
 26
0.0
 36
0.0
 17
0.0
 27
1.0
 37
0.0
 76
     0
330
1E
331
71B2
  0
LAYOUT
  5
71AF
102
{ACAD_REACTORS
330
19
102
}
330
19
100
AcDbPlotSettings
  1

  2
Canon LBP3800 LIPSLX
  4

  6

 40
0.0
 41
0.0
 42
0.0
 43
0.0
 44
0.0
 45
0.0
 46
0.0
 47
0.0
 48
0.0
 49
0.0
140
0.0
141
0.0
142
1.0
143
1.0
 70
   688
 72
     0
 73
     0
 74
     5
  7
monochrome.ctb
 75
    16
147
1.0
 76
     0
 77
     2
 78
   300
148
0.0
149
0.0
100
AcDbLayout
  1
ﾚｲｱｳﾄ1
 70
     1
 71
     1
 10
-5.873749
 20
-5.87375
 11
204.099579
 21
291.1369009999999
 12
0.0
 22
0.0
 32
0.0
 14
4.273573
 24
5.205245999999998
 34
0.0
 15
194.610095
 25
283.0697009999996
 35
0.0
146
0.0
 13
0.0
 23
0.0
 33
0.0
 16
1.0
 26
0.0
 36
0.0
 17
0.0
 27
1.0
 37
0.0
 76
     0
330
1A
331
9AC
  0
MATERIAL
  5
71C4
102
{ACAD_XDICTIONARY
360
71C5
102
}
102
{ACAD_REACTORS
330
71BB
102
}
330
71BB
100
AcDbMaterial
  1
ByBlock
 72
     0
 43
0.0208333333333333
 43
0.0
 43
0.0
 43
0.0
 43
0.0
 43
0.0208333333333333
 43
0.0
 43
0.0
 43
0.0
 43
0.0
 43
1.0
 43
0.0
 43
0.0
 43
0.0
 43
0.0
 43
1.0
 77
     0
 47
0.0208333333333333
 47
0.0
 47
0.0
 47
0.0
 47
0.0
 47
0.0208333333333333
 47
0.0
 47
0.0
 47
0.0
 47
0.0
 47
1.0
 47
0.0
 47
0.0
 47
0.0
 47
0.0
 47
1.0
171
     0
 49
0.0208333333333333
 49
0.0
 49
0.0
 49
0.0
 49
0.0
 49
0.0208333333333333
 49
0.0
 49
0.0
 49
0.0
 49
0.0
 49
1.0
 49
0.0
 49
0.0
 49
0.0
 49
0.0
 49
1.0
175
     0
142
0.0208333333333333
142
0.0
142
0.0
142
0.0
142
0.0
142
0.0208333333333333
142
0.0
142
0.0
142
0.0
142
0.0
142
1.0
142
0.0
142
0.0
142
0.0
142
0.0
142
1.0
179
     0
144
0.0208333333333333
144
0.0
144
0.0
144
0.0
144
0.0
144
0.0208333333333333
144
0.0
144
0.0
144
0.0
144
0.0
144
1.0
144
0.0
144
0.0
144
0.0
144
0.0
144
1.0
147
0.0208333333333333
147
0.0
147
0.0
147
0.0
147
0.0
147
0.0208333333333333
147
0.0
147
0.0
147
0.0
147
0.0
147
1.0
147
0.0
147
0.0
147
0.0
147
0.0
147
1.0
  0
MATERIAL
  5
71BC
102
{ACAD_XDICTIONARY
360
71BD
102
}
102
{ACAD_REACTORS
330
71BB
102
}
330
71BB
100
AcDbMaterial
  1
ByLayer
 72
     0
 43
0.0208333333333333
 43
0.0
 43
0.0
 43
0.0
 43
0.0
 43
0.0208333333333333
 43
0.0
 43
0.0
 43
0.0
 43
0.0
 43
1.0
 43
0.0
 43
0.0
 43
0.0
 43
0.0
 43
1.0
 77
     0
 47
0.0208333333333333
 47
0.0
 47
0.0
 47
0.0
 47
0.0
 47
0.0208333333333333
 47
0.0
 47
0.0
 47
0.0
 47
0.0
 47
1.0
 47
0.0
 47
0.0
 47
0.0
 47
0.0
 47
1.0
171
     0
 49
0.0208333333333333
 49
0.0
 49
0.0
 49
0.0
 49
0.0
 49
0.0208333333333333
 49
0.0
 49
0.0
 49
0.0
 49
0.0
 49
1.0
 49
0.0
 49
0.0
 49
0.0
 49
0.0
 49
1.0
175
     0
142
0.0208333333333333
142
0.0
142
0.0
142
0.0
142
0.0
142
0.0208333333333333
142
0.0
142
0.0
142
0.0
142
0.0
142
1.0
142
0.0
142
0.0
142
0.0
142
0.0
142
1.0
179
     0
144
0.0208333333333333
144
0.0
144
0.0
144
0.0
144
0.0
144
0.0208333333333333
144
0.0
144
0.0
144
0.0
144
0.0
144
1.0
144
0.0
144
0.0
144
0.0
144
0.0
144
1.0
147
0.0208333333333333
147
0.0
147
0.0
147
0.0
147
0.0
147
0.0208333333333333
147
0.0
147
0.0
147
0.0
147
0.0
147
1.0
147
0.0
147
0.0
147
0.0
147
0.0
147
1.0
  0
MATERIAL
  5
71CC
102
{ACAD_XDICTIONARY
360
71CD
102
}
102
{ACAD_REACTORS
330
71BB
102
}
330
71BB
100
AcDbMaterial
  1
Global
 72
     0
 43
0.0208333333333333
 43
0.0
 43
0.0
 43
0.0
 43
0.0
 43
0.0208333333333333
 43
0.0
 43
0.0
 43
0.0
 43
0.0
 43
1.0
 43
0.0
 43
0.0
 43
0.0
 43
0.0
 43
1.0
 77
     0
 47
0.0208333333333333
 47
0.0
 47
0.0
 47
0.0
 47
0.0
 47
0.0208333333333333
 47
0.0
 47
0.0
 47
0.0
 47
0.0
 47
1.0
 47
0.0
 47
0.0
 47
0.0
 47
0.0
 47
1.0
171
     0
 49
0.0208333333333333
 49
0.0
 49
0.0
 49
0.0
 49
0.0
 49
0.0208333333333333
 49
0.0
 49
0.0
 49
0.0
 49
0.0
 49
1.0
 49
0.0
 49
0.0
 49
0.0
 49
0.0
 49
1.0
175
     0
142
0.0208333333333333
142
0.0
142
0.0
142
0.0
142
0.0
142
0.0208333333333333
142
0.0
142
0.0
142
0.0
142
0.0
142
1.0
142
0.0
142
0.0
142
0.0
142
0.0
142
1.0
179
     0
144
0.0208333333333333
144
0.0
144
0.0
144
0.0
144
0.0
144
0.0208333333333333
144
0.0
144
0.0
144
0.0
144
0.0
144
1.0
144
0.0
144
0.0
144
0.0
144
0.0
144
1.0
147
0.0208333333333333
147
0.0
147
0.0
147
0.0
147
0.0
147
0.0208333333333333
147
0.0
147
0.0
147
0.0
147
0.0
147
1.0
147
0.0
147
0.0
147
0.0
147
0.0
147
1.0
  0
MLEADERSTYLE
  5
7203
102
{ACAD_REACTORS
330
7202
102
}
330
7202
100
AcDbMLeaderStyle
179
     2
170
     2
171
     1
172
     0
 90
        2
 40
0.0
 41
0.0
173
     1
 91
-1056964608
340
13
 92
       -2
290
     1
 42
0.09
291
     1
 43
0.36
  3
Standard
 44
0.18
300

342
11
174
     1
178
     6
175
     1
176
     0
 93
-1056964608
 45
0.18
292
     0
297
     0
 46
0.18
 94
-1056964608
 47
1.0
 49
1.0
140
1.0
293
     1
141
0.0
294
     1
177
     0
142
1.0
295
     0
296
     0
143
0.125
271
     0
272
     9
273
     9
298
     0
  0
MLINESTYLE
  5
17
102
{ACAD_REACTORS
330
16
102
}
330
16
100
AcDbMlineStyle
  2
STANDARD
 70
     0
  3

 62
   256
 51
90.0
 52
90.0
 71
     2
 49
0.5
 62
   256
  6
BYLAYER
 49
-0.5
 62
   256
  6
BYLAYER
  0
ACDBPLACEHOLDER
  5
F
102
{ACAD_REACTORS
330
E
102
}
330
E
  0
SCALE
  5
71F1
102
{ACAD_REACTORS
330
71F0
102
}
330
71F0
100
AcDbScale
 70
     0
300
1:1
140
1.0
141
1.0
290
     1
  0
SCALE
  5
71F2
102
{ACAD_REACTORS
330
71F0
102
}
330
71F0
100
AcDbScale
 70
     0
300
1/128" = 1'-0"
140
0.0078125
141
12.0
290
     0
  0
SCALE
  5
71F3
102
{ACAD_REACTORS
330
71F0
102
}
330
71F0
100
AcDbScale
 70
     0
300
1/64" = 1'-0"
140
0.015625
141
12.0
290
     0
  0
SCALE
  5
71F4
102
{ACAD_REACTORS
330
71F0
102
}
330
71F0
100
AcDbScale
 70
     0
300
1/32" = 1'-0"
140
0.03125
141
12.0
290
     0
  0
SCALE
  5
71F5
102
{ACAD_REACTORS
330
71F0
102
}
330
71F0
100
AcDbScale
 70
     0
300
1/16" = 1'-0"
140
0.0625
141
12.0
290
     0
  0
SCALE
  5
71F6
102
{ACAD_REACTORS
330
71F0
102
}
330
71F0
100
AcDbScale
 70
     0
300
3/32" = 1'-0"
140
0.09375
141
12.0
290
     0
  0
SCALE
  5
71F7
102
{ACAD_REACTORS
330
71F0
102
}
330
71F0
100
AcDbScale
 70
     0
300
1/8" = 1'-0"
140
0.125
141
12.0
290
     0
  0
SCALE
  5
71F8
102
{ACAD_REACTORS
330
71F0
102
}
330
71F0
100
AcDbScale
 70
     0
300
3/16" = 1'-0"
140
0.1875
141
12.0
290
     0
  0
SCALE
  5
71F9
102
{ACAD_REACTORS
330
71F0
102
}
330
71F0
100
AcDbScale
 70
     0
300
1/4" = 1'-0"
140
0.25
141
12.0
290
     0
  0
SCALE
  5
71FA
102
{ACAD_REACTORS
330
71F0
102
}
330
71F0
100
AcDbScale
 70
     0
300
3/8" = 1'-0"
140
0.375
141
12.0
290
     0
  0
SCALE
  5
71FB
102
{ACAD_REACTORS
330
71F0
102
}
330
71F0
100
AcDbScale
 70
     0
300
1/2" = 1'-0"
140
0.5
141
12.0
290
     0
  0
SCALE
  5
71FC
102
{ACAD_REACTORS
330
71F0
102
}
330
71F0
100
AcDbScale
 70
     0
300
3/4" = 1'-0"
140
0.75
141
12.0
290
     0
  0
SCALE
  5
71FD
102
{ACAD_REACTORS
330
71F0
102
}
330
71F0
100
AcDbScale
 70
     0
300
1" = 1'-0"
140
1.0
141
12.0
290
     0
  0
SCALE
  5
71FE
102
{ACAD_REACTORS
330
71F0
102
}
330
71F0
100
AcDbScale
 70
     0
300
1-1/2" = 1'-0"
140
1.5
141
12.0
290
     0
  0
SCALE
  5
71FF
102
{ACAD_REACTORS
330
71F0
102
}
330
71F0
100
AcDbScale
 70
     0
300
3" = 1'-0"
140
3.0
141
12.0
290
     0
  0
SCALE
  5
7200
102
{ACAD_REACTORS
330
71F0
102
}
330
71F0
100
AcDbScale
 70
     0
300
6" = 1'-0"
140
6.0
141
12.0
290
     0
  0
SCALE
  5
7201
102
{ACAD_REACTORS
330
71F0
102
}
330
71F0
100
AcDbScale
 70
     0
300
1'-0" = 1'-0"
140
12.0
141
12.0
290
     0
  0
ACDBSECTIONVIEWSTYLE
  5
7205
102
{ACAD_XDICTIONARY
360
7222
102
}
102
{ACAD_REACTORS
330
7204
102
}
330
7204
100
AcDbModelDocViewStyle
 70
     0
  3
Imperial24
290
     0
100
AcDbSectionViewStyle
 70
     0
 71
     0
 90
       78
 71
     1
340
11
 62
   256
 40
0.24
340
0
340
0
 62
   256
 40
0.24
300
I, O, Q, S, X, Z
 40
0.48
 90
        3
 40
0.18
 90
        1
 71
     2
340
15
 90
       25
 62
   256
340
15
 90
       50
 62
   256
 40
0.24
 40
0.0
 40
0.24
 71
     3
340
11
 62
   256
 40
0.24
 90
        1
 40
0.75
 90
        1
300
%<\AcVar ViewType \f "%tc1">% %<\AcVar ViewSectionStartId>%-%<\AcVar ViewSectionEndId>%\PSCALE %<\AcVar ViewScale \f "%sn">%
 71
     4
 62
   256
 62
   257
300
ANSI31
 40
1.0
 90
        0
290
     0
290
     0
 90
        6
 40
0.0
 40
1.570796326794896
 40
0.2617993877991494
 40
1.308996938995747
 40
-0.2617993877991494
 40
1.832595714594046
  0
TABLESTYLE
  5
71EF
102
{ACAD_XDICTIONARY
360
7238
102
}
102
{ACAD_REACTORS
330
71EE
102
}
330
71EE
100
AcDbTableStyle
280
     0
  3
Standard
 70
     0
 71
     0
 40
0.06
 41
0.06
280
     0
281
     0
  7
STANDARD
140
0.18
170
     2
 62
     0
 63
     7
283
     0
 90
      512
 91
        0
  1

274
    -2
284
     1
 64
     0
275
    -2
285
     1
 65
     0
276
    -2
286
     1
 66
     0
277
    -2
287
     1
 67
     0
278
    -2
288
     1
 68
     0
279
    -2
289
     1
 69
     0
  7
STANDARD
140
0.25
170
     5
 62
     0
 63
     7
283
     0
 90
      512
 91
        0
  1

274
    -2
284
     1
 64
     0
275
    -2
285
     1
 65
     0
276
    -2
286
     1
 66
     0
277
    -2
287
     1
 67
     0
278
    -2
288
     1
 68
     0
279
    -2
289
     1
 69
     0
  7
STANDARD
140
0.18
170
     5
 62
     0
 63
     7
283
     0
 90
      512
 91
        0
  1

274
    -2
284
     1
 64
     0
275
    -2
285
     1
 65
     0
276
    -2
286
     1
 66
     0
277
    -2
287
     1
 67
     0
278
    -2
288
     1
 68
     0
279
    -2
289
     1
 69
     0
  0
VISUALSTYLE
  5
71DA
102
{ACAD_REACTORS
330
71D4
102
}
330
71D4
100
AcDbVisualStyle
  2
2dWireframe
 70
     4
177
     3
291
     0
 70
    58
 90
        0
176
     1
 90
        2
176
     1
 90
        0
176
     1
 90
        0
176
     1
 40
0.6
176
     1
 40
30.0
176
     1
 62
     7
420
 16777215
176
     1
 90
        1
176
     1
 90
        4
176
     1
 62
     7
176
     1
 62
   257
176
     1
 90
        1
176
     1
 90
        1
176
     1
 40
1.0
176
     1
 90
        0
176
     1
 62
   257
176
     1
 40
1.0
176
     1
 90
        1
176
     1
 90
        6
176
     1
 90
        2
176
     1
 62
     7
176
     1
 90
        5
176
     1
 90
        0
176
     1
 90
        0
176
     1
290
     0
176
     1
 90
        1
176
     1
 40
0.0
176
     1
 90
        0
176
     1
290
     1
176
     1
290
     1
176
     1
290
     0
176
     1
290
     0
176
     1
290
     0
176
     1
290
     0
176
     1
290
     0
176
     1
290
     0
176
     1
290
     0
176
     1
 90
       50
176
     1
 40
0.0
176
     1
 40
1.0
176
     1
 90
        0
176
     1
 62
    18
420
        0
176
     1
 90
       50
176
     1
 90
        3
176
     1
 62
     5
420
      255
176
     1
290
     0
176
     1
 90
       50
176
     1
 90
       50
176
     1
 90
       50
176
     1
290
     0
176
     1
 90
       50
176
     1
 62
   256
176
     0
 40
1.0
176
     0
 90
        2
176
     1
  1
strokes_ogs.tif
176
     1
290
     0
176
     1
 40
1.0
176
     1
 40
1.0
176
     1
  0
VISUALSTYLE
  5
71D9
102
{ACAD_REACTORS
330
71D4
102
}
330
71D4
100
AcDbVisualStyle
  2
Basic
 70
     7
177
     3
291
     1
 70
    58
 90
        1
176
     1
 90
        0
176
     1
 90
        1
176
     1
 90
        0
176
     1
 40
0.6
176
     1
 40
30.0
176
     1
 62
     7
420
 16777215
176
     1
 90
        0
176
     1
 90
        4
176
     1
 62
     7
176
     1
 62
   257
176
     1
 90
        1
176
     1
 90
        1
176
     1
 40
1.0
176
     1
 90
        8
176
     1
 62
     7
176
     1
 40
1.0
176
     1
 90
        1
176
     1
 90
        6
176
     1
 90
        2
176
     1
 62
     7
176
     1
 90
        5
176
     1
 90
        0
176
     1
 90
        0
176
     1
290
     0
176
     1
 90
        1
176
     1
 40
0.0
176
     1
 90
        0
176
     1
290
     0
176
     1
290
     1
176
     1
290
     1
176
     1
290
     0
176
     1
290
     0
176
     1
290
     0
176
     1
290
     0
176
     1
290
     0
176
     1
290
     0
176
     1
 90
       50
176
     1
 40
0.0
176
     1
 40
1.0
176
     1
 90
        0
176
     1
 62
    18
420
        0
176
     1
 90
       50
176
     1
 90
        3
176
     1
 62
     5
420
      255
176
     1
290
     0
176
     1
 90
       50
176
     1
 90
       50
176
     1
 90
       50
176
     1
290
     0
176
     1
 90
       50
176
     1
 62
   256
176
     0
 40
1.0
176
     0
 90
        2
176
     1
  1
strokes_ogs.tif
176
     1
290
     0
176
     1
 40
1.0
176
     1
 40
1.0
176
     1
  0
VISUALSTYLE
  5
71E0
102
{ACAD_REACTORS
330
71D4
102
}
330
71D4
100
AcDbVisualStyle
  2
Brighten
 70
    12
177
     3
291
     1
 70
    58
 90
        2
176
     1
 90
        2
176
     1
 90
        0
176
     1
 90
        0
176
     1
 40
0.6
176
     1
 40
30.0
176
     1
 62
     7
420
 16777215
176
     1
 90
        1
176
     1
 90
        4
176
     1
 62
     7
176
     1
 62
   257
176
     1
 90
        1
176
     1
 90
        1
176
     1
 40
1.0
176
     1
 90
        8
176
     1
 62
     7
176
     1
 40
1.0
176
     1
 90
        1
176
     1
 90
        6
176
     1
 90
        2
176
     1
 62
     7
176
     1
 90
        5
176
     1
 90
        0
176
     1
 90
        0
176
     1
290
     0
176
     1
 90
        1
176
     1
 40
50.0
176
     1
 90
        0
176
     1
290
     0
176
     1
290
     1
176
     1
290
     1
176
     1
290
     0
176
     1
290
     0
176
     1
290
     0
176
     1
290
     0
176
     1
290
     0
176
     1
290
     0
176
     1
 90
       50
176
     1
 40
0.0
176
     1
 40
1.0
176
     1
 90
        0
176
     1
 62
    18
420
        0
176
     1
 90
       50
176
     1
 90
        3
176
     1
 62
     5
420
      255
176
     1
290
     0
176
     1
 90
       50
176
     1
 90
       50
176
     1
 90
       50
176
     1
290
     0
176
     1
 90
       50
176
     1
 62
   256
176
     0
 40
1.0
176
     0
 90
        2
176
     1
  1
strokes_ogs.tif
176
     1
290
     0
176
     1
 40
1.0
176
     1
 40
1.0
176
     1
  0
VISUALSTYLE
  5
71E4
102
{ACAD_REACTORS
330
71D4
102
}
330
71D4
100
AcDbVisualStyle
  2
ColorChange
 70
    16
177
     3
291
     1
 70
    58
 90
        2
176
     1
 90
        2
176
     1
 90
        3
176
     1
 90
        0
176
     1
 40
0.6
176
     1
 40
30.0
176
     1
 62
     8
420
  8421504
176
     1
 90
        1
176
     1
 90
        4
176
     1
 62
     7
176
     1
 62
   257
176
     1
 90
        1
176
     1
 90
        1
176
     1
 40
1.0
176
     1
 90
        8
176
     1
 62
     8
420
  8421504
176
     1
 40
1.0
176
     1
 90
        1
176
     1
 90
        6
176
     1
 90
        2
176
     1
 62
     7
176
     1
 90
        5
176
     1
 90
        0
176
     1
 90
        0
176
     1
290
     0
176
     1
 90
        1
176
     1
 40
0.0
176
     1
 90
        0
176
     1
290
     0
176
     1
290
     1
176
     1
290
     1
176
     1
290
     0
176
     1
290
     0
176
     1
290
     0
176
     1
290
     0
176
     1
290
     0
176
     1
290
     0
176
     1
 90
       50
176
     1
 40
0.0
176
     1
 40
1.0
176
     1
 90
        0
176
     1
 62
    18
420
        0
176
     1
 90
       50
176
     1
 90
        3
176
     1
 62
     5
420
      255
176
     1
290
     0
176
     1
 90
       50
176
     1
 90
       50
176
     1
 90
       50
176
     1
290
     0
176
     1
 90
       50
176
     1
 62
   256
176
     0
 40
1.0
176
     0
 90
        2
176
     1
  1
strokes_ogs.tif
176
     1
290
     0
176
     1
 40
1.0
176
     1
 40
1.0
176
     1
  0
VISUALSTYLE
  5
71DD
102
{ACAD_REACTORS
330
71D4
102
}
330
71D4
100
AcDbVisualStyle
  2
Conceptual
 70
     9
177
     3
291
     0
 70
    58
 90
        3
176
     1
 90
        2
176
     1
 90
        0
176
     1
 90
        0
176
     1
 40
0.6
176
     1
 40
30.0
176
     1
 62
     7
420
 16777215
176
     1
 90
        2
176
     1
 90
        2
176
     1
 62
     7
176
     1
 62
   257
176
     1
 90
        1
176
     1
 90
        1
176
     1
 40
179.0
176
     1
 90
        8
176
     1
 62
     7
176
     1
 40
1.0
176
     1
 90
        1
176
     1
 90
        6
176
     1
 90
        2
176
     1
 62
     7
176
     1
 90
        3
176
     1
 90
        0
176
     1
 90
        0
176
     1
290
     0
176
     1
 90
        1
176
     1
 40
0.0
176
     1
 90
        0
176
     1
290
     0
176
     1
290
     1
176
     1
290
     1
176
     1
290
     0
176
     1
290
     0
176
     1
290
     0
176
     1
290
     0
176
     1
290
     0
176
     1
290
     0
176
     1
 90
       50
176
     1
 40
0.0
176
     1
 40
1.0
176
     1
 90
        0
176
     1
 62
    18
420
        0
176
     1
 90
       50
176
     1
 90
        3
176
     1
 62
     5
420
      255
176
     1
290
     0
176
     1
 90
       50
176
     1
 90
       50
176
     1
 90
       50
176
     1
290
     0
176
     1
 90
       50
176
     1
 62
   256
176
     0
 40
1.0
176
     0
 90
        2
176
     1
  1
strokes_ogs.tif
176
     1
290
     0
176
     1
 40
1.0
176
     1
 40
1.0
176
     1
  0
VISUALSTYLE
  5
71DF
102
{ACAD_REACTORS
330
71D4
102
}
330
71D4
100
AcDbVisualStyle
  2
Dim
 70
    11
177
     3
291
     1
 70
    58
 90
        2
176
     1
 90
        2
176
     1
 90
        0
176
     1
 90
        0
176
     1
 40
0.6
176
     1
 40
30.0
176
     1
 62
     7
420
 16777215
176
     1
 90
        1
176
     1
 90
        4
176
     1
 62
     7
176
     1
 62
   257
176
     1
 90
        1
176
     1
 90
        1
176
     1
 40
1.0
176
     1
 90
        8
176
     1
 62
     7
176
     1
 40
1.0
176
     1
 90
        1
176
     1
 90
        6
176
     1
 90
        2
176
     1
 62
     7
176
     1
 90
        5
176
     1
 90
        0
176
     1
 90
        0
176
     1
290
     0
176
     1
 90
        1
176
     1
 40
-50.0
176
     1
 90
        0
176
     1
290
     0
176
     1
290
     1
176
     1
290
     1
176
     1
290
     0
176
     1
290
     0
176
     1
290
     0
176
     1
290
     0
176
     1
290
     0
176
     1
290
     0
176
     1
 90
       50
176
     1
 40
0.0
176
     1
 40
1.0
176
     1
 90
        0
176
     1
 62
    18
420
        0
176
     1
 90
       50
176
     1
 90
        3
176
     1
 62
     5
420
      255
176
     1
290
     0
176
     1
 90
       50
176
     1
 90
       50
176
     1
 90
       50
176
     1
290
     0
176
     1
 90
       50
176
     1
 62
   256
176
     0
 40
1.0
176
     0
 90
        2
176
     1
  1
strokes_ogs.tif
176
     1
290
     0
176
     1
 40
1.0
176
     1
 40
1.0
176
     1
  0
VISUALSTYLE
  5
71EC
102
{ACAD_REACTORS
330
71D4
102
}
330
71D4
100
AcDbVisualStyle
  2
EdgeColorOff
 70
    22
177
     3
291
     1
 70
    58
 90
        2
176
     0
 90
        2
176
     0
 90
        0
176
     0
 90
        0
176
     0
 40
0.6
176
     0
 40
30.0
176
     0
 62
     7
420
 16777215
176
     0
 90
        1
176
     0
 90
        4
176
     0
 62
     7
176
     0
 62
   257
176
     0
 90
        1
176
     0
 90
        1
176
     0
 40
1.0
176
     0
 90
        8
176
     2
 62
     7
176
     0
 40
1.0
176
     0
 90
        1
176
     0
 90
        6
176
     0
 90
        2
176
     0
 62
     7
176
     0
 90
        5
176
     0
 90
        0
176
     0
 90
        0
176
     0
290
     0
176
     0
 90
        1
176
     0
 40
0.0
176
     0
 90
        0
176
     0
290
     0
176
     1
290
     1
176
     1
290
     1
176
     1
290
     0
176
     1
290
     0
176
     1
290
     0
176
     1
290
     0
176
     1
290
     0
176
     1
290
     0
176
     1
 90
       50
176
     0
 40
0.0
176
     0
 40
1.0
176
     0
 90
        0
176
     0
 62
    18
420
        0
176
     0
 90
       50
176
     0
 90
        3
176
     0
 62
     5
420
      255
176
     0
290
     0
176
     1
 90
       50
176
     0
 90
       50
176
     0
 90
       50
176
     0
290
     0
176
     1
 90
       50
176
     0
 62
   256
176
     0
 40
1.0
176
     0
 90
        2
176
     0
  1
strokes_ogs.tif
176
     0
290
     0
176
     1
 40
1.0
176
     0
 40
1.0
176
     0
  0
VISUALSTYLE
  5
71E3
102
{ACAD_REACTORS
330
71D4
102
}
330
71D4
100
AcDbVisualStyle
  2
Facepattern
 70
    15
177
     3
291
     1
 70
    58
 90
        2
176
     1
 90
        2
176
     1
 90
        0
176
     1
 90
        0
176
     1
 40
0.6
176
     1
 40
30.0
176
     1
 62
     7
420
 16777215
176
     1
 90
        1
176
     1
 90
        4
176
     1
 62
     7
176
     1
 62
   257
176
     1
 90
        1
176
     1
 90
        1
176
     1
 40
1.0
176
     1
 90
        8
176
     1
 62
     7
176
     1
 40
1.0
176
     1
 90
        1
176
     1
 90
        6
176
     1
 90
        2
176
     1
 62
     7
176
     1
 90
        5
176
     1
 90
        0
176
     1
 90
        0
176
     1
290
     0
176
     1
 90
        1
176
     1
 40
0.0
176
     1
 90
        0
176
     1
290
     0
176
     1
290
     1
176
     1
290
     1
176
     1
290
     0
176
     1
290
     0
176
     1
290
     0
176
     1
290
     0
176
     1
290
     0
176
     1
290
     0
176
     1
 90
       50
176
     1
 40
0.0
176
     1
 40
1.0
176
     1
 90
        0
176
     1
 62
    18
420
        0
176
     1
 90
       50
176
     1
 90
        3
176
     1
 62
     5
420
      255
176
     1
290
     0
176
     1
 90
       50
176
     1
 90
       50
176
     1
 90
       50
176
     1
290
     0
176
     1
 90
       50
176
     1
 62
   256
176
     0
 40
1.0
176
     0
 90
        2
176
     1
  1
strokes_ogs.tif
176
     1
290
     0
176
     1
 40
1.0
176
     1
 40
1.0
176
     1
  0
VISUALSTYLE
  5
71D5
102
{ACAD_REACTORS
330
71D4
102
}
330
71D4
100
AcDbVisualStyle
  2
Flat
 70
     0
177
     3
291
     1
 70
    58
 90
        2
176
     1
 90
        1
176
     1
 90
        1
176
     1
 90
        2
176
     1
 40
0.6
176
     1
 40
30.0
176
     1
 62
     7
420
 16777215
176
     1
 90
        0
176
     1
 90
        0
176
     1
 62
     7
176
     1
 62
   257
176
     1
 90
        1
176
     1
 90
        1
176
     1
 40
1.0
176
     1
 90
        8
176
     1
 62
     7
176
     1
 40
1.0
176
     1
 90
        1
176
     1
 90
        6
176
     1
 90
        2
176
     1
 62
     7
176
     1
 90
        5
176
     1
 90
        0
176
     1
 90
        0
176
     1
290
     0
176
     1
 90
       13
176
     1
 40
0.0
176
     1
 90
        0
176
     1
290
     0
176
     1
290
     1
176
     1
290
     1
176
     1
290
     0
176
     1
290
     0
176
     1
290
     0
176
     1
290
     0
176
     1
290
     0
176
     1
290
     0
176
     1
 90
       50
176
     1
 40
0.0
176
     1
 40
1.0
176
     1
 90
        0
176
     1
 62
    18
420
        0
176
     1
 90
       50
176
     1
 90
        3
176
     1
 62
     5
420
      255
176
     1
290
     0
176
     1
 90
       50
176
     1
 90
       50
176
     1
 90
       50
176
     1
290
     0
176
     1
 90
       50
176
     1
 62
   256
176
     0
 40
1.0
176
     0
 90
        2
176
     1
  1
strokes_ogs.tif
176
     1
290
     0
176
     1
 40
1.0
176
     1
 40
1.0
176
     1
  0
VISUALSTYLE
  5
71D6
102
{ACAD_REACTORS
330
71D4
102
}
330
71D4
100
AcDbVisualStyle
  2
FlatWithEdges
 70
     1
177
     3
291
     1
 70
    58
 90
        2
176
     1
 90
        1
176
     1
 90
        1
176
     1
 90
        2
176
     1
 40
0.6
176
     1
 40
30.0
176
     1
 62
     7
420
 16777215
176
     1
 90
        1
176
     1
 90
        0
176
     1
 62
     7
176
     1
 62
   257
176
     1
 90
        1
176
     1
 90
        1
176
     1
 40
1.0
176
     1
 90
        0
176
     1
 62
   257
176
     1
 40
1.0
176
     1
 90
        1
176
     1
 90
        6
176
     1
 90
        2
176
     1
 62
     7
176
     1
 90
        5
176
     1
 90
        0
176
     1
 90
        0
176
     1
290
     0
176
     1
 90
       13
176
     1
 40
0.0
176
     1
 90
        0
176
     1
290
     0
176
     1
290
     1
176
     1
290
     1
176
     1
290
     0
176
     1
290
     0
176
     1
290
     0
176
     1
290
     0
176
     1
290
     0
176
     1
290
     0
176
     1
 90
       50
176
     1
 40
0.0
176
     1
 40
1.0
176
     1
 90
        0
176
     1
 62
    18
420
        0
176
     1
 90
       50
176
     1
 90
        3
176
     1
 62
     5
420
      255
176
     1
290
     0
176
     1
 90
       50
176
     1
 90
       50
176
     1
 90
       50
176
     1
290
     0
176
     1
 90
       50
176
     1
 62
   256
176
     0
 40
1.0
176
     0
 90
        2
176
     1
  1
strokes_ogs.tif
176
     1
290
     0
176
     1
 40
1.0
176
     1
 40
1.0
176
     1
  0
VISUALSTYLE
  5
71D7
102
{ACAD_REACTORS
330
71D4
102
}
330
71D4
100
AcDbVisualStyle
  2
Gouraud
 70
     2
177
     3
291
     1
 70
    58
 90
        2
176
     1
 90
        2
176
     1
 90
        1
176
     1
 90
        2
176
     1
 40
0.6
176
     1
 40
30.0
176
     1
 62
     7
420
 16777215
176
     1
 90
        0
176
     1
 90
        0
176
     1
 62
     7
176
     1
 62
   257
176
     1
 90
        1
176
     1
 90
        1
176
     1
 40
1.0
176
     1
 90
        0
176
     1
 62
     7
176
     1
 40
1.0
176
     1
 90
        1
176
     1
 90
        6
176
     1
 90
        2
176
     1
 62
     7
176
     1
 90
        5
176
     1
 90
        0
176
     1
 90
        0
176
     1
290
     0
176
     1
 90
       13
176
     1
 40
0.0
176
     1
 90
        0
176
     1
290
     0
176
     1
290
     1
176
     1
290
     1
176
     1
290
     0
176
     1
290
     0
176
     1
290
     0
176
     1
290
     0
176
     1
290
     0
176
     1
290
     0
176
     1
 90
       50
176
     1
 40
0.0
176
     1
 40
1.0
176
     1
 90
        0
176
     1
 62
    18
420
        0
176
     1
 90
       50
176
     1
 90
        3
176
     1
 62
     5
420
      255
176
     1
290
     0
176
     1
 90
       50
176
     1
 90
       50
176
     1
 90
       50
176
     1
290
     0
176
     1
 90
       50
176
     1
 62
   256
176
     0
 40
1.0
176
     0
 90
        2
176
     1
  1
strokes_ogs.tif
176
     1
290
     0
176
     1
 40
1.0
176
     1
 40
1.0
176
     1
  0
VISUALSTYLE
  5
71D8
102
{ACAD_REACTORS
330
71D4
102
}
330
71D4
100
AcDbVisualStyle
  2
GouraudWithEdges
 70
     3
177
     3
291
     1
 70
    58
 90
        2
176
     1
 90
        2
176
     1
 90
        1
176
     1
 90
        2
176
     1
 40
0.6
176
     1
 40
30.0
176
     1
 62
     7
420
 16777215
176
     1
 90
        1
176
     1
 90
        0
176
     1
 62
     7
176
     1
 62
   257
176
     1
 90
        1
176
     1
 90
        1
176
     1
 40
1.0
176
     1
 90
        0
176
     1
 62
   257
176
     1
 40
1.0
176
     1
 90
        1
176
     1
 90
        6
176
     1
 90
        2
176
     1
 62
     7
176
     1
 90
        5
176
     1
 90
        0
176
     1
 90
        0
176
     1
290
     0
176
     1
 90
       13
176
     1
 40
0.0
176
     1
 90
        0
176
     1
290
     0
176
     1
290
     1
176
     1
290
     1
176
     1
290
     0
176
     1
290
     0
176
     1
290
     0
176
     1
290
     0
176
     1
290
     0
176
     1
290
     0
176
     1
 90
       50
176
     1
 40
0.0
176
     1
 40
1.0
176
     1
 90
        0
176
     1
 62
    18
420
        0
176
     1
 90
       50
176
     1
 90
        3
176
     1
 62
     5
420
      255
176
     1
290
     0
176
     1
 90
       50
176
     1
 90
       50
176
     1
 90
       50
176
     1
290
     0
176
     1
 90
       50
176
     1
 62
   256
176
     0
 40
1.0
176
     0
 90
        2
176
     1
  1
strokes_ogs.tif
176
     1
290
     0
176
     1
 40
1.0
176
     1
 40
1.0
176
     1
  0
VISUALSTYLE
  5
71DC
102
{ACAD_REACTORS
330
71D4
102
}
330
71D4
100
AcDbVisualStyle
  2
Hidden
 70
     6
177
     3
291
     0
 70
    58
 90
        1
176
     1
 90
        2
176
     1
 90
        2
176
     1
 90
        0
176
     1
 40
0.6
176
     1
 40
30.0
176
     1
 62
     7
420
 16777215
176
     1
 90
        2
176
     1
 90
        2
176
     1
 62
     7
176
     1
 62
   257
176
     1
 90
        2
176
     1
 90
        1
176
     1
 40
40.0
176
     1
 90
        0
176
     1
 62
   257
176
     1
 40
1.0
176
     1
 90
        1
176
     1
 90
        6
176
     1
 90
        2
176
     1
 62
     7
176
     1
 90
        3
176
     1
 90
        0
176
     1
 90
        0
176
     1
290
     0
176
     1
 90
        1
176
     1
 40
0.0
176
     1
 90
        0
176
     1
290
     0
176
     1
290
     1
176
     1
290
     1
176
     1
290
     0
176
     1
290
     0
176
     1
290
     0
176
     1
290
     0
176
     1
290
     0
176
     1
290
     0
176
     1
 90
       50
176
     1
 40
0.0
176
     1
 40
1.0
176
     1
 90
        0
176
     1
 62
    18
420
        0
176
     1
 90
       50
176
     1
 90
        3
176
     1
 62
     5
420
      255
176
     1
290
     0
176
     1
 90
       50
176
     1
 90
       50
176
     1
 90
       50
176
     1
290
     0
176
     1
 90
       50
176
     1
 62
   256
176
     0
 40
1.0
176
     0
 90
        2
176
     1
  1
strokes_ogs.tif
176
     1
290
     0
176
     1
 40
1.0
176
     1
 40
1.0
176
     1
  0
VISUALSTYLE
  5
71EA
102
{ACAD_REACTORS
330
71D4
102
}
330
71D4
100
AcDbVisualStyle
  2
JitterOff
 70
    20
177
     3
291
     1
 70
    58
 90
        2
176
     0
 90
        2
176
     0
 90
        0
176
     0
 90
        0
176
     0
 40
0.6
176
     0
 40
30.0
176
     0
 62
     7
420
 16777215
176
     0
 90
        1
176
     0
 90
        4
176
     0
 62
     7
176
     0
 62
   257
176
     0
 90
        1
176
     0
 90
        1
176
     0
 40
1.0
176
     0
 90
       10
176
     2
 62
     7
176
     0
 40
1.0
176
     0
 90
        1
176
     0
 90
        6
176
     0
 90
        2
176
     0
 62
     7
176
     0
 90
        5
176
     0
 90
        0
176
     0
 90
        0
176
     0
290
     0
176
     0
 90
        1
176
     0
 40
0.0
176
     0
 90
        0
176
     0
290
     0
176
     1
290
     1
176
     1
290
     1
176
     1
290
     0
176
     1
290
     0
176
     1
290
     0
176
     1
290
     0
176
     1
290
     0
176
     1
290
     0
176
     1
 90
       50
176
     0
 40
0.0
176
     0
 40
1.0
176
     0
 90
        0
176
     0
 62
    18
420
        0
176
     0
 90
       50
176
     0
 90
        3
176
     0
 62
     5
420
      255
176
     0
290
     0
176
     1
 90
       50
176
     0
 90
       50
176
     0
 90
       50
176
     0
290
     0
176
     1
 90
       50
176
     0
 62
   256
176
     0
 40
1.0
176
     0
 90
        2
176
     0
  1
strokes_ogs.tif
176
     0
290
     0
176
     1
 40
1.0
176
     0
 40
1.0
176
     0
  0
VISUALSTYLE
  5
71E2
102
{ACAD_REACTORS
330
71D4
102
}
330
71D4
100
AcDbVisualStyle
  2
Linepattern
 70
    14
177
     3
291
     1
 70
    58
 90
        2
176
     1
 90
        2
176
     1
 90
        0
176
     1
 90
        0
176
     1
 40
0.6
176
     1
 40
30.0
176
     1
 62
     7
420
 16777215
176
     1
 90
        1
176
     1
 90
        4
176
     1
 62
     7
176
     1
 62
   257
176
     1
 90
        7
176
     1
 90
        7
176
     1
 40
1.0
176
     1
 90
        8
176
     1
 62
     7
176
     1
 40
1.0
176
     1
 90
        1
176
     1
 90
        6
176
     1
 90
        2
176
     1
 62
     7
176
     1
 90
        5
176
     1
 90
        0
176
     1
 90
        0
176
     1
290
     0
176
     1
 90
        1
176
     1
 40
0.0
176
     1
 90
        0
176
     1
290
     0
176
     1
290
     1
176
     1
290
     1
176
     1
290
     0
176
     1
290
     0
176
     1
290
     0
176
     1
290
     0
176
     1
290
     0
176
     1
290
     0
176
     1
 90
       50
176
     1
 40
0.0
176
     1
 40
1.0
176
     1
 90
        0
176
     1
 62
    18
420
        0
176
     1
 90
       50
176
     1
 90
        3
176
     1
 62
     5
420
      255
176
     1
290
     0
176
     1
 90
       50
176
     1
 90
       50
176
     1
 90
       50
176
     1
290
     0
176
     1
 90
       50
176
     1
 62
   256
176
     0
 40
1.0
176
     0
 90
        2
176
     1
  1
strokes_ogs.tif
176
     1
290
     0
176
     1
 40
1.0
176
     1
 40
1.0
176
     1
  0
VISUALSTYLE
  5
71EB
102
{ACAD_REACTORS
330
71D4
102
}
330
71D4
100
AcDbVisualStyle
  2
OverhangOff
 70
    21
177
     3
291
     1
 70
    58
 90
        2
176
     0
 90
        2
176
     0
 90
        0
176
     0
 90
        0
176
     0
 40
0.6
176
     0
 40
30.0
176
     0
 62
     7
420
 16777215
176
     0
 90
        1
176
     0
 90
        4
176
     0
 62
     7
176
     0
 62
   257
176
     0
 90
        1
176
     0
 90
        1
176
     0
 40
1.0
176
     0
 90
        9
176
     2
 62
     7
176
     0
 40
1.0
176
     0
 90
        1
176
     0
 90
        6
176
     0
 90
        2
176
     0
 62
     7
176
     0
 90
        5
176
     0
 90
        0
176
     0
 90
        0
176
     0
290
     0
176
     0
 90
        1
176
     0
 40
0.0
176
     0
 90
        0
176
     0
290
     0
176
     1
290
     1
176
     1
290
     1
176
     1
290
     0
176
     1
290
     0
176
     1
290
     0
176
     1
290
     0
176
     1
290
     0
176
     1
290
     0
176
     1
 90
       50
176
     0
 40
0.0
176
     0
 40
1.0
176
     0
 90
        0
176
     0
 62
    18
420
        0
176
     0
 90
       50
176
     0
 90
        3
176
     0
 62
     5
420
      255
176
     0
290
     0
176
     1
 90
       50
176
     0
 90
       50
176
     0
 90
       50
176
     0
290
     0
176
     1
 90
       50
176
     0
 62
   256
176
     0
 40
1.0
176
     0
 90
        2
176
     0
  1
strokes_ogs.tif
176
     0
290
     0
176
     1
 40
1.0
176
     0
 40
1.0
176
     0
  0
VISUALSTYLE
  5
71DE
102
{ACAD_REACTORS
330
71D4
102
}
330
71D4
100
AcDbVisualStyle
  2
Realistic
 70
     8
177
     3
291
     0
 70
    58
 90
        2
176
     1
 90
        3
176
     1
 90
        0
176
     1
 90
        2
176
     1
 40
0.6
176
     1
 40
30.0
176
     1
 62
     7
420
 16777215
176
     1
 90
        0
176
     1
 90
        0
176
     1
 62
     7
176
     1
 62
   257
176
     1
 90
        1
176
     1
 90
        1
176
     1
 40
1.0
176
     1
 90
        8
176
     1
 62
   257
176
     1
 40
1.0
176
     1
 90
        1
176
     1
 90
        6
176
     1
 90
        2
176
     1
 62
     7
176
     1
 90
        3
176
     1
 90
        0
176
     1
 90
        0
176
     1
290
     0
176
     1
 90
       13
176
     1
 40
0.0
176
     1
 90
        0
176
     1
290
     0
176
     1
290
     1
176
     1
290
     1
176
     1
290
     0
176
     1
290
     0
176
     1
290
     0
176
     1
290
     0
176
     1
290
     0
176
     1
290
     0
176
     1
 90
       50
176
     1
 40
0.0
176
     1
 40
1.0
176
     1
 90
        0
176
     1
 62
    18
420
        0
176
     1
 90
       50
176
     1
 90
        3
176
     1
 62
     5
420
      255
176
     1
290
     0
176
     1
 90
       50
176
     1
 90
       50
176
     1
 90
       50
176
     1
290
     0
176
     1
 90
       50
176
     1
 62
   256
176
     0
 40
1.0
176
     0
 90
        2
176
     1
  1
strokes_ogs.tif
176
     1
290
     0
176
     1
 40
1.0
176
     1
 40
1.0
176
     1
  0
VISUALSTYLE
  5
71E9
102
{ACAD_REACTORS
330
71D4
102
}
330
71D4
100
AcDbVisualStyle
  2
Shaded
 70
    27
177
     3
291
     0
 70
    58
 90
        2
176
     1
 90
        2
176
     1
 90
        1
176
     1
 90
        2
176
     1
 40
0.6
176
     1
 40
30.0
176
     1
 62
     7
420
 16777215
176
     1
 90
        0
176
     1
 90
        4
176
     1
 62
     7
176
     1
 62
   257
176
     1
 90
        1
176
     1
 90
        1
176
     1
 40
1.0
176
     1
 90
        8
176
     1
 62
   257
176
     1
 40
1.0
176
     1
 90
        1
176
     1
 90
        6
176
     1
 90
        2
176
     1
 62
     8
420
  7895160
176
     1
 90
        3
176
     1
 90
        0
176
     1
 90
        0
176
     1
290
     0
176
     1
 90
        5
176
     1
 40
0.0
176
     1
 90
        0
176
     1
290
     0
176
     1
290
     1
176
     1
290
     1
176
     1
290
     0
176
     1
290
     0
176
     1
290
     0
176
     1
290
     0
176
     1
290
     0
176
     1
290
     0
176
     1
 90
       50
176
     1
 40
0.0
176
     1
 40
1.0
176
     1
 90
        0
176
     1
 62
    18
420
        0
176
     1
 90
       50
176
     1
 90
        3
176
     1
 62
     5
420
      255
176
     1
290
     0
176
     1
 90
       50
176
     1
 90
       50
176
     1
 90
       50
176
     1
290
     0
176
     1
 90
       50
176
     1
 62
   256
176
     0
 40
1.0
176
     0
 90
        2
176
     1
  1
strokes_ogs.tif
176
     1
290
     0
176
     1
 40
1.0
176
     1
 40
1.0
176
     1
  0
VISUALSTYLE
  5
71E8
102
{ACAD_REACTORS
330
71D4
102
}
330
71D4
100
AcDbVisualStyle
  2
Shaded with edges
 70
    26
177
     3
291
     0
 70
    58
 90
        2
176
     1
 90
        2
176
     1
 90
        1
176
     1
 90
        2
176
     1
 40
0.6
176
     1
 40
30.0
176
     1
 62
     7
420
 16777215
176
     1
 90
        1
176
     1
 90
       10
176
     1
 62
     7
176
     1
 62
   257
176
     1
 90
        2
176
     1
 90
        1
176
     1
 40
1.0
176
     1
 90
        8
176
     1
 62
   257
176
     1
 40
1.0
176
     1
 90
        1
176
     1
 90
        6
176
     1
 90
        2
176
     1
 62
     7
176
     1
 90
        3
176
     1
 90
        0
176
     1
 90
        0
176
     1
290
     0
176
     1
 90
        5
176
     1
 40
0.0
176
     1
 90
        0
176
     1
290
     0
176
     1
290
     1
176
     1
290
     1
176
     1
290
     0
176
     1
290
     0
176
     1
290
     0
176
     1
290
     0
176
     1
290
     0
176
     1
290
     0
176
     1
 90
       50
176
     1
 40
0.0
176
     1
 40
1.0
176
     1
 90
        0
176
     1
 62
    18
420
        0
176
     1
 90
       50
176
     1
 90
        3
176
     1
 62
     5
420
      255
176
     1
290
     0
176
     1
 90
       50
176
     1
 90
       50
176
     1
 90
       50
176
     1
290
     0
176
     1
 90
       50
176
     1
 62
   256
176
     0
 40
1.0
176
     0
 90
        2
176
     1
  1
strokes_ogs.tif
176
     1
290
     0
176
     1
 40
1.0
176
     1
 40
1.0
176
     1
  0
VISUALSTYLE
  5
71E5
102
{ACAD_REACTORS
330
71D4
102
}
330
71D4
100
AcDbVisualStyle
  2
Shades of Gray
 70
    23
177
     3
291
     0
 70
    58
 90
        2
176
     1
 90
        2
176
     1
 90
        3
176
     1
 90
        0
176
     1
 40
0.6
176
     1
 40
30.0
176
     1
 62
     7
420
 16777215
176
     1
 90
        2
176
     1
 90
        2
176
     1
 62
     7
176
     1
 62
     7
176
     1
 90
        1
176
     1
 90
        1
176
     1
 40
40.0
176
     1
 90
        8
176
     1
 62
     7
176
     1
 40
1.0
176
     1
 90
        1
176
     1
 90
        6
176
     1
 90
        2
176
     1
 62
     7
176
     1
 90
        3
176
     1
 90
        0
176
     1
 90
        0
176
     1
290
     0
176
     1
 90
        1
176
     1
 40
0.0
176
     1
 90
        0
176
     1
290
     0
176
     1
290
     1
176
     1
290
     1
176
     1
290
     0
176
     1
290
     0
176
     1
290
     0
176
     1
290
     0
176
     1
290
     0
176
     1
290
     0
176
     1
 90
       50
176
     1
 40
0.0
176
     1
 40
1.0
176
     1
 90
        0
176
     1
 62
    18
420
        0
176
     1
 90
       50
176
     1
 90
        3
176
     1
 62
     5
420
      255
176
     1
290
     0
176
     1
 90
       50
176
     1
 90
       50
176
     1
 90
       50
176
     1
290
     0
176
     1
 90
       50
176
     1
 62
   256
176
     0
 40
1.0
176
     0
 90
        2
176
     1
  1
strokes_ogs.tif
176
     1
290
     0
176
     1
 40
1.0
176
     1
 40
1.0
176
     1
  0
VISUALSTYLE
  5
71E6
102
{ACAD_REACTORS
330
71D4
102
}
330
71D4
100
AcDbVisualStyle
  2
Sketchy
 70
    24
177
     3
291
     0
 70
    58
 90
        1
176
     1
 90
        2
176
     1
 90
        2
176
     1
 90
        0
176
     1
 40
0.6
176
     1
 40
30.0
176
     1
 62
     7
420
 16777215
176
     1
 90
        2
176
     1
 90
        2
176
     1
 62
     7
176
     1
 62
     7
176
     1
 90
        1
176
     1
 90
        1
176
     1
 40
40.0
176
     1
 90
       11
176
     1
 62
     7
176
     1
 40
1.0
176
     1
 90
        1
176
     1
 90
        6
176
     1
 90
        2
176
     1
 62
     7
176
     1
 90
        6
176
     1
 90
        0
176
     1
 90
        0
176
     1
290
     0
176
     1
 90
        1
176
     1
 40
0.0
176
     1
 90
        0
176
     1
290
     0
176
     1
290
     1
176
     1
290
     1
176
     1
290
     0
176
     1
290
     0
176
     1
290
     0
176
     1
290
     0
176
     1
290
     0
176
     1
290
     0
176
     1
 90
       50
176
     1
 40
0.0
176
     1
 40
1.0
176
     1
 90
        0
176
     1
 62
    18
420
        0
176
     1
 90
       50
176
     1
 90
        3
176
     1
 62
     5
420
      255
176
     1
290
     0
176
     1
 90
       50
176
     1
 90
       50
176
     1
 90
       50
176
     1
290
     0
176
     1
 90
       50
176
     1
 62
   256
176
     0
 40
1.0
176
     0
 90
        2
176
     1
  1
strokes_ogs.tif
176
     1
290
     0
176
     1
 40
1.0
176
     1
 40
1.0
176
     1
  0
VISUALSTYLE
  5
71E1
102
{ACAD_REACTORS
330
71D4
102
}
330
71D4
100
AcDbVisualStyle
  2
Thicken
 70
    13
177
     3
291
     1
 70
    58
 90
        2
176
     1
 90
        2
176
     1
 90
        0
176
     1
 90
        0
176
     1
 40
0.6
176
     1
 40
30.0
176
     1
 62
     7
420
 16777215
176
     1
 90
        1
176
     1
 90
        4
176
     1
 62
     7
176
     1
 62
   257
176
     1
 90
        1
176
     1
 90
        1
176
     1
 40
1.0
176
     1
 90
       12
176
     1
 62
     7
176
     1
 40
1.0
176
     1
 90
        1
176
     1
 90
        6
176
     1
 90
        2
176
     1
 62
     7
176
     1
 90
        5
176
     1
 90
        0
176
     1
 90
        0
176
     1
290
     0
176
     1
 90
        1
176
     1
 40
0.0
176
     1
 90
        0
176
     1
290
     0
176
     1
290
     1
176
     1
290
     1
176
     1
290
     0
176
     1
290
     0
176
     1
290
     0
176
     1
290
     0
176
     1
290
     0
176
     1
290
     0
176
     1
 90
       50
176
     1
 40
0.0
176
     1
 40
1.0
176
     1
 90
        0
176
     1
 62
    18
420
        0
176
     1
 90
       50
176
     1
 90
        3
176
     1
 62
     5
420
      255
176
     1
290
     0
176
     1
 90
       50
176
     1
 90
       50
176
     1
 90
       50
176
     1
290
     0
176
     1
 90
       50
176
     1
 62
   256
176
     0
 40
1.0
176
     0
 90
        2
176
     1
  1
strokes_ogs.tif
176
     1
290
     0
176
     1
 40
1.0
176
     1
 40
1.0
176
     1
  0
VISUALSTYLE
  5
71DB
102
{ACAD_REACTORS
330
71D4
102
}
330
71D4
100
AcDbVisualStyle
  2
Wireframe
 70
     5
177
     3
291
     0
 70
    58
 90
        0
176
     1
 90
        2
176
     1
 90
        0
176
     1
 90
        0
176
     1
 40
0.6
176
     1
 40
30.0
176
     1
 62
     7
420
 16777215
176
     1
 90
        1
176
     1
 90
        4
176
     1
 62
     7
176
     1
 62
   257
176
     1
 90
        1
176
     1
 90
        1
176
     1
 40
1.0
176
     1
 90
        0
176
     1
 62
   257
176
     1
 40
1.0
176
     1
 90
        1
176
     1
 90
        6
176
     1
 90
        2
176
     1
 62
     7
176
     1
 90
        3
176
     1
 90
        0
176
     1
 90
        0
176
     1
290
     0
176
     1
 90
        1
176
     1
 40
0.0
176
     1
 90
        0
176
     1
290
     0
176
     1
290
     1
176
     1
290
     1
176
     1
290
     0
176
     1
290
     0
176
     1
290
     0
176
     1
290
     0
176
     1
290
     0
176
     1
290
     0
176
     1
 90
       50
176
     1
 40
0.0
176
     1
 40
1.0
176
     1
 90
        0
176
     1
 62
    18
420
        0
176
     1
 90
       50
176
     1
 90
        3
176
     1
 62
     5
420
      255
176
     1
290
     0
176
     1
 90
       50
176
     1
 90
       50
176
     1
 90
       50
176
     1
290
     0
176
     1
 90
       50
176
     1
 62
   256
176
     0
 40
1.0
176
     0
 90
        2
176
     1
  1
strokes_ogs.tif
176
     1
290
     0
176
     1
 40
1.0
176
     1
 40
1.0
176
     1
  0
VISUALSTYLE
  5
71E7
102
{ACAD_REACTORS
330
71D4
102
}
330
71D4
100
AcDbVisualStyle
  2
X-Ray
 70
    25
177
     3
291
     0
 70
    58
 90
        2
176
     1
 90
        2
176
     1
 90
        1
176
     1
 90
        1
176
     1
 40
0.5
176
     1
 40
30.0
176
     1
 62
     7
420
 16777215
176
     1
 90
        1
176
     1
 90
        0
176
     1
 62
     7
176
     1
 62
   257
176
     1
 90
        1
176
     1
 90
        1
176
     1
 40
1.0
176
     1
 90
        8
176
     1
 62
     7
176
     1
 40
1.0
176
     1
 90
        1
176
     1
 90
        6
176
     1
 90
        2
176
     1
 62
     7
176
     1
 90
        3
176
     1
 90
        0
176
     1
 90
        0
176
     1
290
     0
176
     1
 90
       13
176
     1
 40
0.0
176
     1
 90
        0
176
     1
290
     0
176
     1
290
     1
176
     1
290
     1
176
     1
290
     0
176
     1
290
     0
176
     1
290
     0
176
     1
290
     0
176
     1
290
     0
176
     1
290
     0
176
     1
 90
       50
176
     1
 40
0.0
176
     1
 40
1.0
176
     1
 90
        0
176
     1
 62
    18
420
        0
176
     1
 90
       50
176
     1
 90
        3
176
     1
 62
     5
420
      255
176
     1
290
     0
176
     1
 90
       50
176
     1
 90
       50
176
     1
 90
       50
176
     1
290
     0
176
     1
 90
       50
176
     1
 62
   256
176
     0
 40
1.0
176
     0
 90
        2
176
     1
  1
strokes_ogs.tif
176
     1
290
     0
176
     1
 40
1.0
176
     1
 40
1.0
176
     1
  0
DICTIONARYVAR
  5
722C
102
{ACAD_REACTORS
330
5697
102
}
330
5697
100
DictionaryVariables
280
     0
  1
1:1
  0
DICTIONARYVAR
  5
7228
102
{ACAD_REACTORS
330
5697
102
}
330
5697
100
DictionaryVariables
280
     0
  1
STANDARD
  0
DICTIONARYVAR
  5
7227
102
{ACAD_REACTORS
330
5697
102
}
330
5697
100
DictionaryVariables
280
     0
  1
STANDARD
  0
DICTIONARYVAR
  5
7229
102
{ACAD_REACTORS
330
5697
102
}
330
5697
100
DictionaryVariables
280
     0
  1
Imperial24
  0
DICTIONARYVAR
  5
722A
102
{ACAD_REACTORS
330
5697
102
}
330
5697
100
DictionaryVariables
280
     0
  1
Imperial24
  0
DICTIONARYVAR
  5
5698
102
{ACAD_REACTORS
330
5697
102
}
330
5697
100
DictionaryVariables
280
     0
  1
1
  0
DICTIONARYVAR
  5
722E
102
{ACAD_REACTORS
330
5697
102
}
330
5697
100
DictionaryVariables
280
     0
  1
1
  0
DICTIONARYVAR
  5
722F
102
{ACAD_REACTORS
330
5697
102
}
330
5697
100
DictionaryVariables
280
     0
  1
15
  0
DICTIONARYVAR
  5
722D
102
{ACAD_REACTORS
330
5697
102
}
330
5697
100
DictionaryVariables
280
     0
  1
0
  0
DICTIONARYVAR
  5
722B
102
{ACAD_REACTORS
330
5697
102
}
330
5697
100
DictionaryVariables
280
     0
  1
0
  0
DICTIONARY
  5
7224
330
7207
100
AcDbDictionary
280
     1
281
     1
  3
ACAD_XREC_ROUNDTRIP
360
723B
  0
DICTIONARY
  5
71C5
330
71C4
100
AcDbDictionary
280
     1
281
     1
  3
BUMPTILE
360
71C7
  3
DIFFUSETILE
360
71C6
  3
OPACITYTILE
360
71CA
  3
REFLECTIONTILE
360
71C9
  3
REFRACTIONTILE
360
71CB
  3
SPECULARTILE
360
71C8
  0
DICTIONARY
  5
71BD
330
71BC
100
AcDbDictionary
280
     1
281
     1
  3
BUMPTILE
360
71BF
  3
DIFFUSETILE
360
71BE
  3
OPACITYTILE
360
71C2
  3
REFLECTIONTILE
360
71C1
  3
REFRACTIONTILE
360
71C3
  3
SPECULARTILE
360
71C0
  0
DICTIONARY
  5
71CD
330
71CC
100
AcDbDictionary
280
     1
281
     1
  3
BUMPTILE
360
71CF
  3
DIFFUSETILE
360
71CE
  3
OPACITYTILE
360
71D2
  3
REFLECTIONTILE
360
71D1
  3
REFRACTIONTILE
360
71D3
  3
SPECULARTILE
360
71D0
  0
DICTIONARY
  5
7222
330
7205
100
AcDbDictionary
280
     1
281
     1
  3
ACAD_XREC_ROUNDTRIP
360
723A
  0
DICTIONARY
  5
7238
330
71EF
100
AcDbDictionary
280
     1
281
     1
  3
ACAD_ROUNDTRIP_2008_TABLESTYLE_CELLSTYLEMAP
360
7239
  0
XRECORD
  5
723B
102
{ACAD_REACTORS
330
7224
102
}
330
7224
100
AcDbXrecord
280
     1
102
DISPLAYNAME
  1
Imperial24
102
FLAGS
 90
        0
  0
XRECORD
  5
71C7
102
{ACAD_REACTORS
330
71C5
102
}
330
71C5
100
AcDbXrecord
280
     1
270
     1
271
     1
  0
XRECORD
  5
71C6
102
{ACAD_REACTORS
330
71C5
102
}
330
71C5
100
AcDbXrecord
280
     1
270
     1
271
     1
  0
XRECORD
  5
71CA
102
{ACAD_REACTORS
330
71C5
102
}
330
71C5
100
AcDbXrecord
280
     1
270
     1
271
     1
  0
XRECORD
  5
71C9
102
{ACAD_REACTORS
330
71C5
102
}
330
71C5
100
AcDbXrecord
280
     1
270
     1
271
     1
  0
XRECORD
  5
71CB
102
{ACAD_REACTORS
330
71C5
102
}
330
71C5
100
AcDbXrecord
280
     1
270
     1
271
     1
  0
XRECORD
  5
71C8
102
{ACAD_REACTORS
330
71C5
102
}
330
71C5
100
AcDbXrecord
280
     1
270
     1
271
     1
  0
XRECORD
  5
71BF
102
{ACAD_REACTORS
330
71BD
102
}
330
71BD
100
AcDbXrecord
280
     1
270
     1
271
     1
  0
XRECORD
  5
71BE
102
{ACAD_REACTORS
330
71BD
102
}
330
71BD
100
AcDbXrecord
280
     1
270
     1
271
     1
  0
XRECORD
  5
71C2
102
{ACAD_REACTORS
330
71BD
102
}
330
71BD
100
AcDbXrecord
280
     1
270
     1
271
     1
  0
XRECORD
  5
71C1
102
{ACAD_REACTORS
330
71BD
102
}
330
71BD
100
AcDbXrecord
280
     1
270
     1
271
     1
  0
XRECORD
  5
71C3
102
{ACAD_REACTORS
330
71BD
102
}
330
71BD
100
AcDbXrecord
280
     1
270
     1
271
     1
  0
XRECORD
  5
71C0
102
{ACAD_REACTORS
330
71BD
102
}
330
71BD
100
AcDbXrecord
280
     1
270
     1
271
     1
  0
XRECORD
  5
71CF
102
{ACAD_REACTORS
330
71CD
102
}
330
71CD
100
AcDbXrecord
280
     1
270
     1
271
     1
  0
XRECORD
  5
71CE
102
{ACAD_REACTORS
330
71CD
102
}
330
71CD
100
AcDbXrecord
280
     1
270
     1
271
     1
  0
XRECORD
  5
71D2
102
{ACAD_REACTORS
330
71CD
102
}
330
71CD
100
AcDbXrecord
280
     1
270
     1
271
     1
  0
XRECORD
  5
71D1
102
{ACAD_REACTORS
330
71CD
102
}
330
71CD
100
AcDbXrecord
280
     1
270
     1
271
     1
  0
XRECORD
  5
71D3
102
{ACAD_REACTORS
330
71CD
102
}
330
71CD
100
AcDbXrecord
280
     1
270
     1
271
     1
  0
XRECORD
  5
71D0
102
{ACAD_REACTORS
330
71CD
102
}
330
71CD
100
AcDbXrecord
280
     1
270
     1
271
     1
  0
XRECORD
  5
723A
102
{ACAD_REACTORS
330
7222
102
}
330
7222
100
AcDbXrecord
280
     1
102
DISPLAYNAME
  1
Imperial24
102
FLAGS
 90
        0
  0
CELLSTYLEMAP
  5
7239
102
{ACAD_REACTORS
330
7238
102
}
330
7238
100
AcDbCellStyleMap
 90
        3
300
CELLSTYLE
  1
TABLEFORMAT_BEGIN
 90
        5
170
     1
 91
        0
 92
    32768
 62
   257
 93
        1
300
CONTENTFORMAT
  1
CONTENTFORMAT_BEGIN
 90
        0
 91
        0
 92
      512
 93
        0
300

 40
0.0
140
1.0
 94
        5
 62
     0
340
11
144
0.25
309
CONTENTFORMAT_END
171
     0
 94
        0
309
TABLEFORMAT_END
  1
CELLSTYLE_BEGIN
 90
        1
 91
        1
300
_TITLE
309
CELLSTYLE_END
300
CELLSTYLE
  1
TABLEFORMAT_BEGIN
 90
        5
170
     1
 91
        0
 92
        0
 62
   257
 93
        1
300
CONTENTFORMAT
  1
CONTENTFORMAT_BEGIN
 90
        0
 91
        0
 92
      512
 93
        0
300

 40
0.0
140
1.0
 94
        5
 62
     0
340
11
144
0.18
309
CONTENTFORMAT_END
171
     0
 94
        0
309
TABLEFORMAT_END
  1
CELLSTYLE_BEGIN
 90
        2
 91
        1
300
_HEADER
309
CELLSTYLE_END
300
CELLSTYLE
  1
TABLEFORMAT_BEGIN
 90
        5
170
     1
 91
        0
 92
        0
 62
   257
 93
        1
300
CONTENTFORMAT
  1
CONTENTFORMAT_BEGIN
 90
        0
 91
        0
 92
      512
 93
        0
300

 40
0.0
140
1.0
 94
        2
 62
     0
340
11
144
0.18
309
CONTENTFORMAT_END
171
     0
 94
        0
309
TABLEFORMAT_END
  1
CELLSTYLE_BEGIN
 90
        3
 91
        2
300
_DATA
309
CELLSTYLE_END
  0
ENDSEC
  0
EOF
