  0
SECTION
  2
HEADER
  9
$ACADVER
  1
AC1027
  9
$ACADMAINTVER
 70
    55
  9
$DWGCODEPAGE
  3
ANSI_932
  9
$LASTSAVEDBY
  1
marketing
  9
$REQUIREDVERSIONS
160
                 0
  9
$INSBASE
 10
0.0
 20
0.0
 30
0.0
  9
$EXTMIN
 10
-91.06449084790302
 20
-401.4233767216601
 30
-0.0015258207003583
  9
$EXTMAX
 10
408.2541233857845
 20
348.5793021639438
 30
0.0000000349246037
  9
$LIMMIN
 10
-296.316999476111
 20
-370.7034300441653
  9
$LIMMAX
 10
623.3128432133979
 20
328.6261559379898
  9
$ORTHOMODE
 70
     1
  9
$REGENMODE
 70
     1
  9
$FILLMODE
 70
     1
  9
$QTEXTMODE
 70
     0
  9
$MIRRTEXT
 70
     1
  9
$LTSCALE
 40
10.0
  9
$ATTMODE
 70
     1
  9
$TEXTSIZE
 40
5.0
  9
$TRACEWID
 40
0.05
  9
$TEXTSTYLE
  7
STANDARD1
  9
$CLAYER
  8
30
  9
$CELTYPE
  6
CONTINUOUS
  9
$CECOLOR
 62
   256
  9
$CELTSCALE
 40
1.0
  9
$DISPSILH
 70
     0
  9
$DIMSCALE
 40
1.0
  9
$DIMASZ
 40
2.0
  9
$DIMEXO
 40
1.0
  9
$DIMDLI
 40
0.5
  9
$DIMRND
 40
0.0
  9
$DIMDLE
 40
0.0
  9
$DIMEXE
 40
0.5
  9
$DIMTP
 40
0.0
  9
$DIMTM
 40
0.0
  9
$DIMTXT
 40
4.0
  9
$DIMCEN
 40
0.09
  9
$DIMTSZ
 40
0.0
  9
$DIMTOL
 70
     0
  9
$DIMLIM
 70
     0
  9
$DIMTIH
 70
     0
  9
$DIMTOH
 70
     1
  9
$DIMSE1
 70
     0
  9
$DIMSE2
 70
     0
  9
$DIMTAD
 70
     3
  9
$DIMZIN
 70
    12
  9
$DIMBLK
  1
OPEN
  9
$DIMASO
 70
     1
  9
$DIMSHO
 70
     1
  9
$DIMPOST
  1

  9
$DIMAPOST
  1

  9
$DIMALT
 70
     0
  9
$DIMALTD
 70
     2
  9
$DIMALTF
 40
25.4
  9
$DIMLFAC
 40
1.0
  9
$DIMTOFL
 70
     0
  9
$DIMTVP
 40
0.0
  9
$DIMTIX
 70
     0
  9
$DIMSOXD
 70
     0
  9
$DIMSAH
 70
     0
  9
$DIMBLK1
  1

  9
$DIMBLK2
  1

  9
$DIMSTYLE
  2
STANDARD
  9
$DIMCLRD
 70
     0
  9
$DIMCLRE
 70
     0
  9
$DIMCLRT
 70
     0
  9
$DIMTFAC
 40
1.0
  9
$DIMGAP
 40
1.0
  9
$DIMJUST
 70
     0
  9
$DIMSD1
 70
     0
  9
$DIMSD2
 70
     0
  9
$DIMTOLJ
 70
     1
  9
$DIMTZIN
 70
     0
  9
$DIMALTZ
 70
     0
  9
$DIMALTTZ
 70
     0
  9
$DIMUPT
 70
     0
  9
$DIMDEC
 70
     1
  9
$DIMTDEC
 70
     1
  9
$DIMALTU
 70
     2
  9
$DIMALTTD
 70
     2
  9
$DIMTXSTY
  7
STANDARD
  9
$DIMAUNIT
 70
     0
  9
$DIMADEC
 70
     0
  9
$DIMALTRND
 40
0.0
  9
$DIMAZIN
 70
     3
  9
$DIMDSEP
 70
    46
  9
$DIMATFIT
 70
     3
  9
$DIMFRAC
 70
     0
  9
$DIMLDRBLK
  1
OPEN
  9
$DIMLUNIT
 70
     2
  9
$DIMLWD
 70
    -2
  9
$DIMLWE
 70
    -2
  9
$DIMTMOVE
 70
     0
  9
$DIMFXL
 40
1.0
  9
$DIMFXLON
 70
     0
  9
$DIMJOGANG
 40
0.7853981633974483
  9
$DIMTFILL
 70
     0
  9
$DIMTFILLCLR
 70
     0
  9
$DIMARCSYM
 70
     0
  9
$DIMLTYPE
  6

  9
$DIMLTEX1
  6

  9
$DIMLTEX2
  6

  9
$DIMTXTDIRECTION
 70
     0
  9
$LUNITS
 70
     2
  9
$LUPREC
 70
     4
  9
$SKETCHINC
 40
0.1
  9
$FILLETRAD
 40
0.0
  9
$AUNITS
 70
     0
  9
$AUPREC
 70
     0
  9
$MENU
  1
.
  9
$ELEVATION
 40
0.0
  9
$PELEVATION
 40
0.0
  9
$THICKNESS
 40
0.0
  9
$LIMCHECK
 70
     0
  9
$CHAMFERA
 40
0.0
  9
$CHAMFERB
 40
0.0
  9
$CHAMFERC
 40
0.0
  9
$CHAMFERD
 40
0.0
  9
$SKPOLY
 70
     0
  9
$TDCREATE
 40
2452286.555658658
  9
$TDUCREATE
 40
2452286.180658658
  9
$TDUPDATE
 40
2459278.589808252
  9
$TDUUPDATE
 40
2459278.214808252
  9
$TDINDWG
 40
1.3473947569
  9
$TDUSRTIMER
 40
1.3473939931
  9
$USRTIMER
 70
     1
  9
$ANGBASE
 50
0.0
  9
$ANGDIR
 70
     0
  9
$PDMODE
 70
     0
  9
$PDSIZE
 40
0.0
  9
$PLINEWID
 40
0.0
  9
$SPLFRAME
 70
     0
  9
$SPLINETYPE
 70
     6
  9
$SPLINESEGS
 70
     8
  9
$HANDSEED
  5
5F4F
  9
$SURFTAB1
 70
     6
  9
$SURFTAB2
 70
     6
  9
$SURFTYPE
 70
     6
  9
$SURFU
 70
     6
  9
$SURFV
 70
     6
  9
$UCSBASE
  2

  9
$UCSNAME
  2

  9
$UCSORG
 10
0.0
 20
0.0
 30
0.0
  9
$UCSXDIR
 10
1.0
 20
0.0
 30
0.0
  9
$UCSYDIR
 10
0.0
 20
1.0
 30
0.0
  9
$UCSORTHOREF
  2

  9
$UCSORTHOVIEW
 70
     0
  9
$UCSORGTOP
 10
0.0
 20
0.0
 30
0.0
  9
$UCSORGBOTTOM
 10
0.0
 20
0.0
 30
0.0
  9
$UCSORGLEFT
 10
0.0
 20
0.0
 30
0.0
  9
$UCSORGRIGHT
 10
0.0
 20
0.0
 30
0.0
  9
$UCSORGFRONT
 10
0.0
 20
0.0
 30
0.0
  9
$UCSORGBACK
 10
0.0
 20
0.0
 30
0.0
  9
$PUCSBASE
  2

  9
$PUCSNAME
  2

  9
$PUCSORG
 10
0.0
 20
0.0
 30
0.0
  9
$PUCSXDIR
 10
1.0
 20
0.0
 30
0.0
  9
$PUCSYDIR
 10
0.0
 20
1.0
 30
0.0
  9
$PUCSORTHOREF
  2

  9
$PUCSORTHOVIEW
 70
     0
  9
$PUCSORGTOP
 10
0.0
 20
0.0
 30
0.0
  9
$PUCSORGBOTTOM
 10
0.0
 20
0.0
 30
0.0
  9
$PUCSORGLEFT
 10
0.0
 20
0.0
 30
0.0
  9
$PUCSORGRIGHT
 10
0.0
 20
0.0
 30
0.0
  9
$PUCSORGFRONT
 10
0.0
 20
0.0
 30
0.0
  9
$PUCSORGBACK
 10
0.0
 20
0.0
 30
0.0
  9
$USERI1
 70
     0
  9
$USERI2
 70
     0
  9
$USERI3
 70
     0
  9
$USERI4
 70
     0
  9
$USERI5
 70
     0
  9
$USERR1
 40
0.0
  9
$USERR2
 40
0.0
  9
$USERR3
 40
0.0
  9
$USERR4
 40
0.0
  9
$USERR5
 40
0.0
  9
$WORLDVIEW
 70
     1
  9
$SHADEDGE
 70
     3
  9
$SHADEDIF
 70
    70
  9
$TILEMODE
 70
     1
  9
$MAXACTVP
 70
    48
  9
$PINSBASE
 10
0.0
 20
0.0
 30
0.0
  9
$PLIMCHECK
 70
     0
  9
$PEXTMIN
 10
4.273573
 20
5.205245999999998
 30
0.0
  9
$PEXTMAX
 10
194.610095
 20
283.0697009999996
 30
0.0
  9
$PLIMMIN
 10
-5.873749
 20
-5.87375
  9
$PLIMMAX
 10
204.099579
 20
291.1369009999999
  9
$UNITMODE
 70
     0
  9
$VISRETAIN
 70
     1
  9
$PLINEGEN
 70
     0
  9
$PSLTSCALE
 70
     1
  9
$TREEDEPTH
 70
  3020
  9
$CMLSTYLE
  2
STANDARD
  9
$CMLJUST
 70
     0
  9
$CMLSCALE
 40
1.0
  9
$PROXYGRAPHICS
 70
     1
  9
$MEASUREMENT
 70
     0
  9
$CELWEIGHT
370
    -1
  9
$ENDCAPS
280
     0
  9
$JOINSTYLE
280
     0
  9
$LWDISPLAY
290
     0
  9
$INSUNITS
 70
     0
  9
$HYPERLINKBASE
  1

  9
$STYLESHEET
  1
KIKI.CTB
  9
$XEDIT
290
     1
  9
$CEPSNTYPE
380
     0
  9
$PSTYLEMODE
290
     1
  9
$FINGERPRINTGUID
  2

  9
$VERSIONGUID
  2
{B8964DA6-5EA3-4B22-8587-E5F4F452AD1C}
  9
$EXTNAMES
290
     1
  9
$PSVPSCALE
 40
0.0
  9
$OLESTARTUP
290
     0
  9
$SORTENTS
280
   127
  9
$INDEXCTL
280
     0
  9
$HIDETEXT
280
     0
  9
$XCLIPFRAME
280
     2
  9
$HALOGAP
280
     0
  9
$OBSCOLOR
 70
   257
  9
$OBSLTYPE
280
     0
  9
$INTERSECTIONDISPLAY
280
     0
  9
$INTERSECTIONCOLOR
 70
   257
  9
$DIMASSOC
280
     1
  9
$PROJECTNAME
  1

  9
$CAMERADISPLAY
290
     0
  9
$LENSLENGTH
 40
50.0
  9
$CAMERAHEIGHT
 40
0.0
  9
$STEPSPERSEC
 40
2.0
  9
$STEPSIZE
 40
6.0
  9
$3DDWFPREC
 40
2.0
  9
$PSOLWIDTH
 40
0.25
  9
$PSOLHEIGHT
 40
4.0
  9
$LOFTANG1
 40
1.570796326794896
  9
$LOFTANG2
 40
1.570796326794896
  9
$LOFTMAG1
 40
0.0
  9
$LOFTMAG2
 40
0.0
  9
$LOFTPARAM
 70
     7
  9
$LOFTNORMALS
280
     1
  9
$LATITUDE
 40
37.795
  9
$LONGITUDE
 40
-122.394
  9
$NORTHDIRECTION
 40
0.0
  9
$TIMEZONE
 70
 -8000
  9
$LIGHTGLYPHDISPLAY
280
     1
  9
$TILEMODELIGHTSYNCH
280
     1
  9
$CMATERIAL
347
59A1
  9
$SOLIDHIST
280
     0
  9
$SHOWHIST
280
     1
  9
$DWFFRAME
280
     2
  9
$DGNFRAME
280
     0
  9
$REALWORLDSCALE
290
     1
  9
$INTERFERECOLOR
 62
     1
  9
$INTERFEREOBJVS
345
59C3
  9
$INTERFEREVPVS
346
59C0
  9
$CSHADOW
280
     0
  9
$SHADOWPLANELOCATION
 40
0.0
  0
ENDSEC
  0
SECTION
  2
CLASSES
  0
CLASS
  1
ACDBDICTIONARYWDFLT
  2
AcDbDictionaryWithDefault
  3
ObjectDBX Classes
 90
        0
 91
        1
280
     0
281
     0
  0
CLASS
  1
DICTIONARYVAR
  2
AcDbDictionaryVar
  3
ObjectDBX Classes
 90
        0
 91
       13
280
     0
281
     0
  0
CLASS
  1
MATERIAL
  2
AcDbMaterial
  3
ObjectDBX Classes
 90
     1153
 91
        3
280
     0
281
     0
  0
CLASS
  1
VISUALSTYLE
  2
AcDbVisualStyle
  3
ObjectDBX Classes
 90
     4095
 91
       24
280
     0
281
     0
  0
CLASS
  1
TABLESTYLE
  2
AcDbTableStyle
  3
ObjectDBX Classes
 90
     4095
 91
        1
280
     0
281
     0
  0
CLASS
  1
SCALE
  2
AcDbScale
  3
ObjectDBX Classes
 90
     1153
 91
       17
280
     0
281
     0
  0
CLASS
  1
MLEADERSTYLE
  2
AcDbMLeaderStyle
  3
ACDB_MLEADERSTYLE_CLASS
 90
     4095
 91
        1
280
     0
281
     0
  0
CLASS
  1
ACDBSECTIONVIEWSTYLE
  2
AcDbSectionViewStyle
  3
ObjectDBX Classes
 90
     1025
 91
        1
280
     0
281
     0
  0
CLASS
  1
ACDBDETAILVIEWSTYLE
  2
AcDbDetailViewStyle
  3
ObjectDBX Classes
 90
     1025
 91
        1
280
     0
281
     0
  0
CLASS
  1
CELLSTYLEMAP
  2
AcDbCellStyleMap
  3
ObjectDBX Classes
 90
     1152
 91
        2
280
     0
281
     0
  0
ENDSEC
  0
SECTION
  2
TABLES
  0
TABLE
  2
VPORT
  5
8
330
0
100
AcDbSymbolTable
 70
     1
  0
VPORT
  5
5978
330
8
100
AcDbSymbolTableRecord
100
AcDbViewportTableRecord
  2
*Active
 70
     0
 10
0.0
 20
0.0
 11
1.0
 21
1.0
 12
158.5948162689407
 22
-26.42203727885817
 13
0.0
 23
0.0
 14
1.0
 24
1.0
 15
10.0
 25
10.0
 16
0.0
 26
0.0
 36
1.0
 17
0.0
 27
0.0
 37
0.0
 40
755.4243849980299
 41
2.289505428226779
 42
50.0
 43
0.0
 44
0.0
 50
0.0
 51
0.0
 71
     0
 72
   100
 73
     1
 74
     1
 75
     0
 76
     0
 77
     0
 78
     0
281
     0
 65
     1
110
0.0
120
0.0
130
0.0
111
1.0
121
0.0
131
0.0
112
0.0
122
1.0
132
0.0
 79
     0
146
0.0
348
59BF
 60
     3
 61
     5
292
     1
282
     1
141
0.0
142
0.0
 63
   250
421
  3355443
1001
ACAD_NAV_VCDISPLAY
1070
     3
  0
ENDTAB
  0
TABLE
  2
LTYPE
  5
5
330
0
100
AcDbSymbolTable
 70
     8
  0
LTYPE
  5
13
330
5
100
AcDbSymbolTableRecord
100
AcDbLinetypeTableRecord
  2
BYBLOCK
 70
     0
  3

 72
    65
 73
     0
 40
0.0
  0
LTYPE
  5
14
330
5
100
AcDbSymbolTableRecord
100
AcDbLinetypeTableRecord
  2
BYLAYER
 70
     0
  3

 72
    65
 73
     0
 40
0.0
  0
LTYPE
  5
15
330
5
100
AcDbSymbolTableRecord
100
AcDbLinetypeTableRecord
  2
CONTINUOUS
 70
     0
  3
Solid line
 72
    65
 73
     0
 40
0.0
  0
LTYPE
  5
22
330
5
100
AcDbSymbolTableRecord
100
AcDbLinetypeTableRecord
  2
CONTINOUS
 70
     0
  3
Solid line
 72
    65
 73
     0
 40
0.0
  0
LTYPE
  5
23
330
5
100
AcDbSymbolTableRecord
100
AcDbLinetypeTableRecord
  2
DASHED
 70
     0
  3
__ __ __ __ __ __ __ __ __ __ __ __ __ __ __
 72
    65
 73
     2
 40
0.75
 49
0.5
 74
     0
 49
-0.25
 74
     0
  0
LTYPE
  5
24
330
5
100
AcDbSymbolTableRecord
100
AcDbLinetypeTableRecord
  2
DASHDOT
 70
     0
  3
__ . __ . __ . __ . __ . __ . __ . __ . __ . __
 72
    65
 73
     4
 40
1.0
 49
0.5
 74
     0
 49
-0.25
 74
     0
 49
0.0
 74
     0
 49
-0.25
 74
     0
  0
LTYPE
  5
4C47
330
5
100
AcDbSymbolTableRecord
100
AcDbLinetypeTableRecord
  2
DIVIDE
 70
     0
  3
Divide ____ . . ____ . . ____ . . ____ . . ____
 72
    65
 73
     6
 40
1.25
 49
0.5
 74
     0
 49
-0.25
 74
     0
 49
0.0
 74
     0
 49
-0.25
 74
     0
 49
0.0
 74
     0
 49
-0.25
 74
     0
  0
LTYPE
  5
5015
330
5
100
AcDbSymbolTableRecord
100
AcDbLinetypeTableRecord
  2
HIDDEN
 70
     0
  3
_ _ _ _ _ _ _ _ _ _ _ _ _ _ _ _ _ _ _ _ _ _ _
 72
    65
 73
     2
 40
0.5
 49
0.25
 74
     0
 49
-0.25
 74
     0
  0
LTYPE
  5
5115
330
5
100
AcDbSymbolTableRecord
100
AcDbLinetypeTableRecord
  2
PHANTOM
 70
     0
  3
_____ _ _ _____ _ _ _____ _ _ _____ _ _ ____
 72
    65
 73
     6
 40
2.5
 49
1.25
 74
     0
 49
-0.25
 74
     0
 49
0.25
 74
     0
 49
-0.25
 74
     0
 49
0.25
 74
     0
 49
-0.25
 74
     0
  0
ENDTAB
  0
TABLE
  2
LAYER
  5
2
330
0
100
AcDbSymbolTable
 70
    16
  0
LAYER
  5
10
102
{ACAD_XDICTIONARY
360
5C63
102
}
330
2
100
AcDbSymbolTableRecord
100
AcDbLayerTableRecord
  2
0
 70
     0
 62
     7
  6
CONTINOUS
370
    -3
390
F
347
59B1
348
0
  0
LAYER
  5
2F
102
{ACAD_XDICTIONARY
360
5C65
102
}
330
2
100
AcDbSymbolTableRecord
100
AcDbLayerTableRecord
  2
10
 70
     0
 62
     4
  6
CONTINOUS
370
    -3
390
F
347
59B1
348
0
  0
LAYER
  5
31
102
{ACAD_XDICTIONARY
360
5C67
102
}
330
2
100
AcDbSymbolTableRecord
100
AcDbLayerTableRecord
  2
12
 70
     0
 62
     3
  6
CONTINOUS
370
    -3
390
F
347
59B1
348
0
  0
LAYER
  5
35
102
{ACAD_XDICTIONARY
360
5C69
102
}
330
2
100
AcDbSymbolTableRecord
100
AcDbLayerTableRecord
  2
16
 70
     0
 62
     6
  6
DASHDOT
370
    -3
390
F
347
59B1
348
0
  0
LAYER
  5
38
102
{ACAD_XDICTIONARY
360
5C6B
102
}
330
2
100
AcDbSymbolTableRecord
100
AcDbLayerTableRecord
  2
19
 70
     0
 62
     7
  6
CONTINOUS
370
    -3
390
F
347
59B1
348
0
  0
LAYER
  5
3C
102
{ACAD_XDICTIONARY
360
5C6D
102
}
330
2
100
AcDbSymbolTableRecord
100
AcDbLayerTableRecord
  2
11
 70
     0
 62
     1
  6
CONTINOUS
370
    -3
390
F
347
59B1
348
0
  0
LAYER
  5
3D
102
{ACAD_XDICTIONARY
360
5C6F
102
}
330
2
100
AcDbSymbolTableRecord
100
AcDbLayerTableRecord
  2
24
 70
     0
 62
     2
  6
CONTINOUS
370
    -3
390
F
347
59B1
348
0
  0
LAYER
  5
3A2
102
{ACAD_XDICTIONARY
360
5C71
102
}
330
2
100
AcDbSymbolTableRecord
100
AcDbLayerTableRecord
  2
30
 70
     0
 62
     9
  6
CONTINUOUS
370
    -3
390
F
347
59B1
348
0
  0
LAYER
  5
3A4
330
2
100
AcDbSymbolTableRecord
100
AcDbLayerTableRecord
  2
DEFPOINTS
 70
     0
 62
     7
  6
CONTINUOUS
290
     0
370
    -3
390
F
347
59B1
348
0
  0
LAYER
  5
3BBA
102
{ACAD_XDICTIONARY
360
5C73
102
}
330
2
100
AcDbSymbolTableRecord
100
AcDbLayerTableRecord
  2
18
 70
     0
 62
     5
  6
DIVIDE
370
    -3
390
F
347
59B1
348
0
  0
LAYER
  5
3BBB
102
{ACAD_XDICTIONARY
360
5C75
102
}
330
2
100
AcDbSymbolTableRecord
100
AcDbLayerTableRecord
  2
21
 70
     0
 62
     7
  6
CONTINUOUS
370
    -3
390
F
347
59B1
348
0
  0
LAYER
  5
5116
102
{ACAD_XDICTIONARY
360
5C77
102
}
330
2
100
AcDbSymbolTableRecord
100
AcDbLayerTableRecord
  2
1
 70
     0
 62
     7
  6
CONTINUOUS
370
    -3
390
F
347
59B1
348
0
  0
LAYER
  5
5117
102
{ACAD_XDICTIONARY
360
5C79
102
}
330
2
100
AcDbSymbolTableRecord
100
AcDbLayerTableRecord
  2
TOP
 70
     0
 62
     7
  6
CONTINUOUS
370
    -3
390
F
347
59B1
348
0
  0
LAYER
  5
5CF8
330
2
100
AcDbSymbolTableRecord
100
AcDbLayerTableRecord
  2
4
 70
     0
 62
     7
  6
CONTINUOUS
370
    -3
390
F
347
59B1
348
0
  0
LAYER
  5
5CF9
330
2
100
AcDbSymbolTableRecord
100
AcDbLayerTableRecord
  2
7
 70
     0
 62
     7
  6
CONTINUOUS
370
    -3
390
F
347
59B1
348
0
  0
LAYER
  5
5CFA
330
2
100
AcDbSymbolTableRecord
100
AcDbLayerTableRecord
  2
5
 70
     0
 62
     7
  6
CONTINUOUS
370
    -3
390
F
347
59B1
348
0
  0
ENDTAB
  0
TABLE
  2
STYLE
  5
3
330
0
100
AcDbSymbolTable
 70
     5
  0
STYLE
  5
11
330
3
100
AcDbSymbolTableRecord
100
AcDbTextStyleTableRecord
  2
STANDARD
 70
     0
 40
0.0
 41
1.0
 50
0.0
 71
     0
 42
2.0
  3
txt.shx
  4
bigfont.shx
  0
STYLE
  5
42
330
3
100
AcDbSymbolTableRecord
100
AcDbTextStyleTableRecord
  2
STANDARD1
 70
     0
 40
0.0
 41
1.0
 50
0.0
 71
     0
 42
5.0
  3
MONOTXT
  4
BIGFONT
  0
STYLE
  5
4C46
330
3
100
AcDbSymbolTableRecord
100
AcDbTextStyleTableRecord
  2

 70
     1
 40
0.0
 41
1.0
 50
0.0
 71
     0
 42
5.0
  3
ltypeshp.shx
  4

  0
STYLE
  5
5016
330
3
100
AcDbSymbolTableRecord
100
AcDbTextStyleTableRecord
  2
UGMTXT
 70
     0
 40
0.0
 41
1.0
 50
0.0
 71
     0
 42
0.2
  3
ugmtxt
  4
bigfont
  0
STYLE
  5
5CFB
330
3
100
AcDbSymbolTableRecord
100
AcDbTextStyleTableRecord
  2
blockfont
 70
     0
 40
0.0
 41
1.0
 50
0.0
 71
     0
 42
0.2
  3
simplex.shx
  4
bigfont
  0
ENDTAB
  0
TABLE
  2
VIEW
  5
6
330
0
100
AcDbSymbolTable
 70
     3
  0
VIEW
  5
230C
330
6
100
AcDbSymbolTableRecord
100
AcDbViewTableRecord
  2
OLE1
 70
     0
 40
148.912488
 10
429.497628
 20
2.560627
 41
103.145806
 11
0.0
 21
0.0
 31
1.0
 12
0.0
 22
0.0
 32
0.0
 42
50.0
 43
0.0
 44
0.0
 50
0.0
 71
     0
281
     0
 72
     0
 73
     0
348
59BF
  0
VIEW
  5
230E
330
6
100
AcDbSymbolTableRecord
100
AcDbViewTableRecord
  2
OLE2
 70
     0
 40
170.778692
 10
322.66497
 20
-5.978304
 41
102.467215
 11
0.0
 21
0.0
 31
1.0
 12
0.0
 22
0.0
 32
0.0
 42
50.0
 43
0.0
 44
0.0
 50
0.0
 71
     0
281
     0
 72
     0
 73
     0
348
59BF
  0
VIEW
  5
23AA
330
6
100
AcDbSymbolTableRecord
100
AcDbViewTableRecord
  2
OLE3
 70
     0
 40
591.7897389999998
 10
84.79698199999999
 20
-46.09335999999998
 41
388.792096
 11
0.0
 21
0.0
 31
1.0
 12
0.0
 22
0.0
 32
0.0
 42
50.0
 43
0.0
 44
0.0
 50
0.0
 71
     0
281
     0
 72
     0
 73
     0
348
59BF
  0
ENDTAB
  0
TABLE
  2
UCS
  5
7
330
0
100
AcDbSymbolTable
 70
     0
  0
ENDTAB
  0
TABLE
  2
APPID
  5
9
330
0
100
AcDbSymbolTable
 70
     5
  0
APPID
  5
12
330
9
100
AcDbSymbolTableRecord
100
AcDbRegAppTableRecord
  2
ACAD
 70
     0
  0
APPID
  5
ECD
330
9
100
AcDbSymbolTableRecord
100
AcDbRegAppTableRecord
  2
CONTENTBLOCKICON
 70
     0
  0
APPID
  5
59F1
330
9
100
AcDbSymbolTableRecord
100
AcDbRegAppTableRecord
  2
ACAD_EXEMPT_FROM_CAD_STANDARDS
 70
     0
  0
APPID
  5
5A7B
330
9
100
AcDbSymbolTableRecord
100
AcDbRegAppTableRecord
  2
ACAD_NAV_VCDISPLAY
 70
     0
  0
APPID
  5
5F36
330
9
100
AcDbSymbolTableRecord
100
AcDbRegAppTableRecord
  2
ACAD_MLEADERVER
 70
     0
  0
ENDTAB
  0
TABLE
  2
DIMSTYLE
  5
A
330
0
100
AcDbSymbolTable
 70
     1
100
AcDbDimStyleTable
 71
     1
340
175
  0
DIMSTYLE
105
175
102
{ACAD_REACTORS
330
5476
330
5483
330
53E3
330
53E2
330
54D8
330
5119
330
511D
330
512C
330
512D
330
512F
330
5133
330
5140
330
5141
330
514F
330
5166
330
5B08
330
5B14
330
5B15
330
5B17
330
5B1B
330
5B27
330
5B28
330
5B36
330
5B4A
330
5B4E
330
5E08
330
5E09
330
5E0A
102
}
330
A
100
AcDbSymbolTableRecord
100
AcDbDimStyleTableRecord
  2
STANDARD
 70
     0
 41
2.0
 42
1.0
 43
0.5
 44
0.5
 73
     0
 77
     3
 78
    12
140
4.0
147
1.0
271
     1
272
     1
340
11
341
3B2
342
3B2
  0
ENDTAB
  0
TABLE
  2
BLOCK_RECORD
  5
1
330
0
100
AcDbSymbolTable
 70
    65
  0
BLOCK_RECORD
  5
1E
102
{ACAD_XDICTIONARY
360
178
102
}
330
1
100
AcDbSymbolTableRecord
100
AcDbBlockTableRecord
  2
*MODEL_SPACE
340
5968
 70
     0
280
     1
281
     0
  0
BLOCK_RECORD
  5
1A
102
{ACAD_XDICTIONARY
360
17A
102
}
330
1
100
AcDbSymbolTableRecord
100
AcDbBlockTableRecord
  2
*PAPER_SPACE
340
5969
 70
     0
280
     1
281
     0
  0
BLOCK_RECORD
  5
3B2
330
1
100
AcDbSymbolTableRecord
100
AcDbBlockTableRecord
  2
_OPEN
340
0
102
{BLKREFS
331
579F
331
57A0
331
57BA
331
57BB
331
57C3
331
57C4
331
57A8
331
57A9
331
57CC
331
57CD
331
57DE
331
57DF
331
57D5
331
57D6
331
57E7
331
57E8
331
57F2
331
57F3
331
5926
331
5927
331
592F
331
5A2A
331
5A2B
331
5A36
331
5A37
331
5A42
331
5A43
331
5A4E
331
5A4F
331
5A5A
331
5A5B
331
5A68
331
5A69
331
5A74
331
5A75
331
5834
331
5835
331
582B
331
582C
331
58FA
331
58FB
331
5903
331
5904
331
5938
331
57B1
331
57B2
331
58BA
331
58BB
331
5C38
331
5C40
331
5C41
331
5C49
331
5C4A
331
5C54
331
5C55
331
5C5D
331
5C5E
331
5C37
331
5930
331
5A06
331
5A07
331
5A12
331
5A13
331
5A1E
331
5A1F
331
5E5A
331
5E5B
331
5E8C
331
5E8D
331
5E95
331
5E96
331
5E9E
331
5E9F
331
5EAB
331
5EAC
331
5C0A
331
5C0B
331
5C13
331
5C14
331
5C1C
331
5C1D
331
5C25
331
5C26
331
5C2E
331
5C2F
102
}
 70
     0
280
     1
281
     0
  0
BLOCK_RECORD
  5
506F
330
1
100
AcDbSymbolTableRecord
100
AcDbBlockTableRecord
  2
*U1
340
0
102
{BLKREFS
331
5126
102
}
 70
     0
280
     1
281
     0
  0
BLOCK_RECORD
  5
5078
330
1
100
AcDbSymbolTableRecord
100
AcDbBlockTableRecord
  2
*U2
340
0
102
{BLKREFS
331
5136
102
}
 70
     0
280
     1
281
     0
  0
BLOCK_RECORD
  5
507D
330
1
100
AcDbSymbolTableRecord
100
AcDbBlockTableRecord
  2
*U3
340
0
102
{BLKREFS
331
512E
102
}
 70
     0
280
     1
281
     0
  0
BLOCK_RECORD
  5
5085
330
1
100
AcDbSymbolTableRecord
100
AcDbBlockTableRecord
  2
*U4
340
0
102
{BLKREFS
331
5169
102
}
 70
     0
280
     1
281
     0
  0
BLOCK_RECORD
  5
508C
330
1
100
AcDbSymbolTableRecord
100
AcDbBlockTableRecord
  2
*U5
340
0
102
{BLKREFS
331
5152
102
}
 70
     0
280
     1
281
     0
  0
BLOCK_RECORD
  5
5093
330
1
100
AcDbSymbolTableRecord
100
AcDbBlockTableRecord
  2
*D6
340
0
 70
     0
280
     1
281
     0
  0
BLOCK_RECORD
  5
50A0
330
1
100
AcDbSymbolTableRecord
100
AcDbBlockTableRecord
  2
*D7
340
0
 70
     0
280
     1
281
     0
  0
BLOCK_RECORD
  5
50AD
330
1
100
AcDbSymbolTableRecord
100
AcDbBlockTableRecord
  2
*D8
340
0
 70
     0
280
     1
281
     0
  0
BLOCK_RECORD
  5
50BA
330
1
100
AcDbSymbolTableRecord
100
AcDbBlockTableRecord
  2
*D9
340
0
 70
     0
280
     1
281
     0
  0
BLOCK_RECORD
  5
50C7
330
1
100
AcDbSymbolTableRecord
100
AcDbBlockTableRecord
  2
*D10
340
0
 70
     0
280
     1
281
     0
  0
BLOCK_RECORD
  5
50D4
330
1
100
AcDbSymbolTableRecord
100
AcDbBlockTableRecord
  2
*D11
340
0
 70
     0
280
     1
281
     0
  0
BLOCK_RECORD
  5
50E1
330
1
100
AcDbSymbolTableRecord
100
AcDbBlockTableRecord
  2
*D12
340
0
 70
     0
280
     1
281
     0
  0
BLOCK_RECORD
  5
50EE
330
1
100
AcDbSymbolTableRecord
100
AcDbBlockTableRecord
  2
*D13
340
0
 70
     0
280
     1
281
     0
  0
BLOCK_RECORD
  5
50FB
330
1
100
AcDbSymbolTableRecord
100
AcDbBlockTableRecord
  2
*D14
340
0
 70
     0
280
     1
281
     0
  0
BLOCK_RECORD
  5
5108
330
1
100
AcDbSymbolTableRecord
100
AcDbBlockTableRecord
  2
*D15
340
0
 70
     0
280
     1
281
     0
  0
BLOCK_RECORD
  5
5118
330
1
100
AcDbSymbolTableRecord
100
AcDbBlockTableRecord
  2
A$C26E55131
340
0
 70
     0
280
     1
281
     0
  0
BLOCK_RECORD
  5
5209
330
1
100
AcDbSymbolTableRecord
100
AcDbBlockTableRecord
  2
*D17
340
0
 70
     0
280
     1
281
     0
  0
BLOCK_RECORD
  5
5221
330
1
100
AcDbSymbolTableRecord
100
AcDbBlockTableRecord
  2
*D18
340
0
 70
     0
280
     1
281
     0
  0
BLOCK_RECORD
  5
522D
330
1
100
AcDbSymbolTableRecord
100
AcDbBlockTableRecord
  2
*D19
340
0
 70
     0
280
     1
281
     0
  0
BLOCK_RECORD
  5
5239
330
1
100
AcDbSymbolTableRecord
100
AcDbBlockTableRecord
  2
*D20
340
0
 70
     0
280
     1
281
     0
  0
BLOCK_RECORD
  5
5245
330
1
100
AcDbSymbolTableRecord
100
AcDbBlockTableRecord
  2
*D21
340
0
 70
     0
280
     1
281
     0
  0
BLOCK_RECORD
  5
5251
330
1
100
AcDbSymbolTableRecord
100
AcDbBlockTableRecord
  2
*D22
340
0
 70
     0
280
     1
281
     0
  0
BLOCK_RECORD
  5
525D
330
1
100
AcDbSymbolTableRecord
100
AcDbBlockTableRecord
  2
*D23
340
0
 70
     0
280
     1
281
     0
  0
BLOCK_RECORD
  5
5269
330
1
100
AcDbSymbolTableRecord
100
AcDbBlockTableRecord
  2
*D24
340
0
 70
     0
280
     1
281
     0
  0
BLOCK_RECORD
  5
5275
330
1
100
AcDbSymbolTableRecord
100
AcDbBlockTableRecord
  2
*D25
340
0
 70
     0
280
     1
281
     0
  0
BLOCK_RECORD
  5
5407
330
1
100
AcDbSymbolTableRecord
100
AcDbBlockTableRecord
  2
*D26
340
0
 70
     0
280
     1
281
     0
  0
BLOCK_RECORD
  5
5413
330
1
100
AcDbSymbolTableRecord
100
AcDbBlockTableRecord
  2
*D27
340
0
 70
     0
280
     1
281
     0
  0
BLOCK_RECORD
  5
5432
330
1
100
AcDbSymbolTableRecord
100
AcDbBlockTableRecord
  2
*D28
340
0
 70
     0
280
     1
281
     0
  0
BLOCK_RECORD
  5
543F
330
1
100
AcDbSymbolTableRecord
100
AcDbBlockTableRecord
  2
*D29
340
0
 70
     0
280
     1
281
     0
  0
BLOCK_RECORD
  5
5477
330
1
100
AcDbSymbolTableRecord
100
AcDbBlockTableRecord
  2
*D30
340
0
 70
     0
280
     1
281
     0
  0
BLOCK_RECORD
  5
5484
330
1
100
AcDbSymbolTableRecord
100
AcDbBlockTableRecord
  2
*D31
340
0
 70
     0
280
     1
281
     0
  0
BLOCK_RECORD
  5
54D9
330
1
100
AcDbSymbolTableRecord
100
AcDbBlockTableRecord
  2
*D32
340
0
 70
     0
280
     1
281
     0
  0
BLOCK_RECORD
  5
55FF
330
1
100
AcDbSymbolTableRecord
100
AcDbBlockTableRecord
  2
*D33
340
0
 70
     0
280
     1
281
     0
  0
BLOCK_RECORD
  5
58B6
330
1
100
AcDbSymbolTableRecord
100
AcDbBlockTableRecord
  2
*D34
340
0
 70
     0
280
     1
281
     0
  0
BLOCK_RECORD
  5
59F9
330
1
100
AcDbSymbolTableRecord
100
AcDbBlockTableRecord
  2
*U35
340
0
102
{BLKREFS
331
5B16
102
}
 70
     0
280
     1
281
     0
  0
BLOCK_RECORD
  5
5A01
330
1
100
AcDbSymbolTableRecord
100
AcDbBlockTableRecord
  2
*D36
340
0
 70
     0
280
     1
281
     0
  0
BLOCK_RECORD
  5
5A0D
330
1
100
AcDbSymbolTableRecord
100
AcDbBlockTableRecord
  2
*D37
340
0
 70
     0
280
     1
281
     0
  0
BLOCK_RECORD
  5
5A19
330
1
100
AcDbSymbolTableRecord
100
AcDbBlockTableRecord
  2
*D38
340
0
 70
     0
280
     1
281
     0
  0
BLOCK_RECORD
  5
5A25
330
1
100
AcDbSymbolTableRecord
100
AcDbBlockTableRecord
  2
*D39
340
0
 70
     0
280
     1
281
     0
  0
BLOCK_RECORD
  5
5A31
330
1
100
AcDbSymbolTableRecord
100
AcDbBlockTableRecord
  2
*D40
340
0
 70
     0
280
     1
281
     0
  0
BLOCK_RECORD
  5
5A3D
330
1
100
AcDbSymbolTableRecord
100
AcDbBlockTableRecord
  2
*D41
340
0
 70
     0
280
     1
281
     0
  0
BLOCK_RECORD
  5
5A49
330
1
100
AcDbSymbolTableRecord
100
AcDbBlockTableRecord
  2
*D42
340
0
 70
     0
280
     1
281
     0
  0
BLOCK_RECORD
  5
5A55
330
1
100
AcDbSymbolTableRecord
100
AcDbBlockTableRecord
  2
*D43
340
0
 70
     0
280
     1
281
     0
  0
BLOCK_RECORD
  5
5A61
330
1
100
AcDbSymbolTableRecord
100
AcDbBlockTableRecord
  2
*D44
340
0
 70
     0
280
     1
281
     0
  0
BLOCK_RECORD
  5
5A6F
330
1
100
AcDbSymbolTableRecord
100
AcDbBlockTableRecord
  2
*D45
340
0
 70
     0
280
     1
281
     0
  0
BLOCK_RECORD
  5
5B8D
330
1
100
AcDbSymbolTableRecord
100
AcDbBlockTableRecord
  2
*D46
340
0
 70
     0
280
     1
281
     0
  0
BLOCK_RECORD
  5
5B99
330
1
100
AcDbSymbolTableRecord
100
AcDbBlockTableRecord
  2
*D47
340
0
 70
     0
280
     1
281
     0
  0
BLOCK_RECORD
  5
5BA5
330
1
100
AcDbSymbolTableRecord
100
AcDbBlockTableRecord
  2
*D48
340
0
 70
     0
280
     1
281
     0
  0
BLOCK_RECORD
  5
5BB1
330
1
100
AcDbSymbolTableRecord
100
AcDbBlockTableRecord
  2
*D49
340
0
 70
     0
280
     1
281
     0
  0
BLOCK_RECORD
  5
5BBD
330
1
100
AcDbSymbolTableRecord
100
AcDbBlockTableRecord
  2
*D50
340
0
 70
     0
280
     1
281
     0
  0
BLOCK_RECORD
  5
5BC9
330
1
100
AcDbSymbolTableRecord
100
AcDbBlockTableRecord
  2
*D51
340
0
 70
     0
280
     1
281
     0
  0
BLOCK_RECORD
  5
5BD5
330
1
100
AcDbSymbolTableRecord
100
AcDbBlockTableRecord
  2
*D52
340
0
 70
     0
280
     1
281
     0
  0
BLOCK_RECORD
  5
5BE1
330
1
100
AcDbSymbolTableRecord
100
AcDbBlockTableRecord
  2
*D53
340
0
 70
     0
280
     1
281
     0
  0
BLOCK_RECORD
  5
5BED
330
1
100
AcDbSymbolTableRecord
100
AcDbBlockTableRecord
  2
*D54
340
0
 70
     0
280
     1
281
     0
  0
BLOCK_RECORD
  5
5BFB
330
1
100
AcDbSymbolTableRecord
100
AcDbBlockTableRecord
  2
*D55
340
0
 70
     0
280
     1
281
     0
  0
BLOCK_RECORD
  5
5CC8
330
1
100
AcDbSymbolTableRecord
100
AcDbBlockTableRecord
  2
*D56
340
0
 70
     0
280
     1
281
     0
  0
BLOCK_RECORD
  5
5CD4
330
1
100
AcDbSymbolTableRecord
100
AcDbBlockTableRecord
  2
*D57
340
0
 70
     0
280
     1
281
     0
  0
BLOCK_RECORD
  5
5CE0
330
1
100
AcDbSymbolTableRecord
100
AcDbBlockTableRecord
  2
*D58
340
0
 70
     0
280
     1
281
     0
  0
BLOCK_RECORD
  5
5CEC
330
1
100
AcDbSymbolTableRecord
100
AcDbBlockTableRecord
  2
*D59
340
0
 70
     0
280
     1
281
     0
  0
BLOCK_RECORD
  5
5E0C
330
1
100
AcDbSymbolTableRecord
100
AcDbBlockTableRecord
  2
*D60
340
0
 70
     0
280
     1
281
     0
  0
BLOCK_RECORD
  5
5E18
330
1
100
AcDbSymbolTableRecord
100
AcDbBlockTableRecord
  2
*D61
340
0
 70
     0
280
     1
281
     0
  0
BLOCK_RECORD
  5
5E24
330
1
100
AcDbSymbolTableRecord
100
AcDbBlockTableRecord
  2
*D62
340
0
 70
     0
280
     1
281
     0
  0
BLOCK_RECORD
  5
5E30
330
1
100
AcDbSymbolTableRecord
100
AcDbBlockTableRecord
  2
*D63
340
0
 70
     0
280
     1
281
     0
  0
BLOCK_RECORD
  5
5EA5
330
1
100
AcDbSymbolTableRecord
100
AcDbBlockTableRecord
  2
*D64
340
0
 70
     0
280
     1
281
     0
  0
ENDTAB
  0
ENDSEC
  0
SECTION
  2
BLOCKS
  0
BLOCK
  5
1F
330
1E
100
AcDbEntity
  8
0
100
AcDbBlockBegin
  2
*MODEL_SPACE
 70
     0
 10
0.0
 20
0.0
 30
0.0
  3
*MODEL_SPACE
  1

  0
ENDBLK
  5
20
330
1E
100
AcDbEntity
  8
0
100
AcDbBlockEnd
  0
BLOCK
  5
1B
330
1A
100
AcDbEntity
 67
     1
  8
0
100
AcDbBlockBegin
  2
*PAPER_SPACE
 70
     0
 10
0.0
 20
0.0
 30
0.0
  3
*PAPER_SPACE
  1

  0
ENDBLK
  5
1C
330
1A
100
AcDbEntity
 67
     1
  8
0
100
AcDbBlockEnd
  0
BLOCK
  5
3B6
330
3B2
100
AcDbEntity
  8
0
100
AcDbBlockBegin
  2
_OPEN
 70
     0
 10
0.0
 20
0.0
 30
0.0
  3
_OPEN
  1

  0
LINE
  5
3B3
330
3B2
100
AcDbEntity
  8
30
  6
Continuous
 62
     0
100
AcDbLine
 10
-1.0
 20
0.166667
 30
0.0
 11
0.0
 21
0.0
 31
0.0
  0
LINE
  5
3B4
330
3B2
100
AcDbEntity
  8
30
  6
Continuous
 62
     0
100
AcDbLine
 10
-1.0
 20
-0.166667
 30
0.0
 11
0.0
 21
0.0
 31
0.0
  0
LINE
  5
3B5
330
3B2
100
AcDbEntity
  8
30
  6
Continuous
 62
     0
100
AcDbLine
 10
0.0
 20
0.0
 30
0.0
 11
-1.0
 21
0.0
 31
0.0
  0
ENDBLK
  5
3B7
330
3B2
100
AcDbEntity
  8
0
100
AcDbBlockEnd
  0
BLOCK
  5
5076
330
506F
100
AcDbEntity
  8
TOP
  6
Continuous
 62
     4
100
AcDbBlockBegin
  2
*U1
 70
     1
 10
0.0
 20
0.0
 30
0.0
  3
*U1
  1

  0
LINE
  5
5070
330
506F
100
AcDbEntity
  8
1
  6
ByBlock
 62
     0
100
AcDbLine
 10
334.4153110047843
 20
95.91019663782793
 30
0.0
 11
337.2500000084996
 21
95.91019663782793
 31
0.0
  0
LINE
  5
5071
330
506F
100
AcDbEntity
  8
1
  6
ByBlock
 62
     0
100
AcDbLine
 10
334.4153110047843
 20
149.5101966378278
 30
0.0
 11
337.2500000084996
 21
149.5101966378278
 31
0.0
  0
LINE
  5
5072
330
506F
100
AcDbEntity
  8
1
  6
ByBlock
 62
     0
100
AcDbLine
 10
336.2500000019
 20
95.91019663782793
 30
0.0
 11
336.2500000019
 21
149.5101966378278
 31
0.0
  0
SOLID
  5
5073
330
506F
100
AcDbEntity
  8
1
  6
ByBlock
 62
     0
100
AcDbTrace
 10
336.2500000019
 20
95.91019663782793
 30
0.0
 11
335.9166666663666
 21
97.91019665102794
 31
0.0
 12
336.5833333374331
 22
97.91019665102794
 32
0.0
 13
336.5833333374331
 23
97.91019665102794
 33
0.0
  0
SOLID
  5
5074
330
506F
100
AcDbEntity
  8
1
  6
ByBlock
 62
     0
100
AcDbTrace
 10
336.2500000019
 20
149.5101966378278
 30
0.0
 11
336.5833333374331
 21
147.5101966246279
 31
0.0
 12
335.9166666663666
 22
147.5101966246279
 32
0.0
 13
335.9166666663666
 23
147.5101966246279
 33
0.0
  0
TEXT
  5
5075
330
506F
100
AcDbEntity
  8
TOP
  6
ByBlock
 62
     0
100
AcDbText
 10
335.0
 20
119.8625403834995
 30
0.0
 40
2.500000003799998
  1
134
 50
89.99999999999404
 41
0.8542968749999989
  7
UGMTXT
100
AcDbText
  0
ENDBLK
  5
5077
330
506F
100
AcDbEntity
  8
0
100
AcDbBlockEnd
  0
BLOCK
  5
507B
330
5078
100
AcDbEntity
  8
TOP
  6
Continuous
 62
     4
100
AcDbBlockBegin
  2
*U2
 70
     1
 10
0.0
 20
0.0
 30
0.0
  3
*U2
  1

  0
TEXT
  5
5079
330
5078
100
AcDbEntity
  8
TOP
  6
ByBlock
 62
     0
100
AcDbText
 10
280.562938070046
 20
75.47570270834146
 30
0.0
 40
2.500000003799998
  1
8.5
 41
0.8542968749999968
  7
UGMTXT
100
AcDbText
  0
TEXT
  5
507A
330
5078
100
AcDbEntity
  8
TOP
  6
ByBlock
 62
     0
100
AcDbText
 10
276.8697321605457
 20
74.22570270644145
 30
0.0
 40
2.500000003799998
  1
%%c
 41
1.519902056402514
  7
UGMTXT
100
AcDbText
  0
ENDBLK
  5
507C
330
5078
100
AcDbEntity
  8
0
100
AcDbBlockEnd
  0
BLOCK
  5
5083
330
507D
100
AcDbEntity
  8
TOP
  6
Continuous
 62
     4
100
AcDbBlockBegin
  2
*U3
 70
     1
 10
0.0
 20
0.0
 30
0.0
  3
*U3
  1

  0
LINE
  5
507E
330
507D
100
AcDbEntity
  8
1
  6
ByBlock
 62
     0
100
AcDbLine
 10
287.2057572385031
 20
73.79512687471603
 30
0.0
 11
276.2057572385031
 21
73.79512687471603
 31
0.0
  0
LINE
  5
507F
330
507D
100
AcDbEntity
  8
1
  6
ByBlock
 62
     0
100
AcDbLine
 10
296.8913158503363
 20
94.37207082491942
 30
0.0
 11
287.2057572385031
 21
73.79512687471603
 31
0.0
  0
SOLID
  5
5080
330
507D
100
AcDbEntity
  8
1
  6
ByBlock
 62
     0
100
AcDbTrace
 10
296.8913158503363
 20
94.37207082491942
 30
0.0
 11
296.3411501381206
 21
92.42055119794148
 31
0.0
 12
295.7379635408423
 22
92.7044708682264
 32
0.0
 13
295.7379635408423
 23
92.7044708682264
 33
0.0
  0
TEXT
  5
5081
330
507D
100
AcDbEntity
  8
TOP
  6
ByBlock
 62
     0
100
AcDbText
 10
274.4739864025374
 20
72.54512687281603
 30
0.0
 40
2.500000003799998
  1
 
 41
1.189062499999995
  7
UGMTXT
100
AcDbText
  0
TEXT
  5
5082
330
507D
100
AcDbEntity
  8
TOP
  6
ByBlock
 62
     0
100
AcDbText
 10
272.742215566572
 20
72.54512687281603
 30
0.0
 40
2.500000003799998
  1
 
 41
1.189062499999995
  7
UGMTXT
100
AcDbText
  0
ENDBLK
  5
5084
330
507D
100
AcDbEntity
  8
0
100
AcDbBlockEnd
  0
BLOCK
  5
508A
330
5085
100
AcDbEntity
  8
TOP
  6
Continuous
 62
     3
100
AcDbBlockBegin
  2
*U4
 70
     1
 10
0.0
 20
0.0
 30
0.0
  3
*U4
  1

  0
LINE
  5
5086
330
5085
100
AcDbEntity
  8
1
  6
ByBlock
 62
     0
100
AcDbLine
 10
356.0226384799982
 20
73.67938951191193
 30
0.0
 11
330.0226384799981
 21
73.67938951191193
 31
0.0
  0
LINE
  5
5087
330
5085
100
AcDbEntity
  8
1
  6
ByBlock
 62
     0
100
AcDbLine
 10
319.8164585567165
 20
92.71019663782793
 30
0.0
 11
330.0226384799981
 21
73.67938951191193
 31
0.0
  0
SOLID
  5
5088
330
5085
100
AcDbEntity
  8
1
  6
ByBlock
 62
     0
100
AcDbTrace
 10
319.8164585567165
 20
92.71019663782793
 30
0.0
 11
321.0554556869717
 21
91.10520527442524
 31
0.0
 12
320.4679451296377
 22
90.79012465722914
 32
0.0
 13
320.4679451296377
 23
90.79012465722914
 33
0.0
  0
TEXT
  5
5089
330
5085
100
AcDbEntity
  8
TOP
  6
ByBlock
 62
     0
100
AcDbText
 10
356.0226384799982
 20
72.42938951191193
 30
0.0
 40
2.5
  1
 
 41
1.189062499999988
  7
UGMTXT
100
AcDbText
  0
ENDBLK
  5
508B
330
5085
100
AcDbEntity
  8
0
100
AcDbBlockEnd
  0
BLOCK
  5
5091
330
508C
100
AcDbEntity
  8
TOP
  6
Continuous
 62
     3
100
AcDbBlockBegin
  2
*U5
 70
     1
 10
0.0
 20
0.0
 30
0.0
  3
*U5
  1

  0
LINE
  5
508D
330
508C
100
AcDbEntity
  8
1
  6
ByBlock
 62
     0
100
AcDbLine
 10
300.9609374931422
 20
171.5000000098999
 30
0.0
 11
271.9609374931422
 21
171.5000000098999
 31
0.0
  0
LINE
  5
508E
330
508C
100
AcDbEntity
  8
1
  6
ByBlock
 62
     0
100
AcDbLine
 10
262.4153110047846
 20
159.718196637828
 30
0.0
 11
271.9609374931422
 21
171.5000000098999
 31
0.0
  0
SOLID
  5
508F
330
508C
100
AcDbEntity
  8
1
  6
ByBlock
 62
     0
100
AcDbTrace
 10
262.4153110047846
 20
159.718196637828
 30
0.0
 11
263.4153470455668
 21
161.482010426898
 31
0.0
 12
263.9333387587366
 22
161.0623331277758
 32
0.0
 13
263.9333387587366
 23
161.0623331277758
 33
0.0
  0
TEXT
  5
5090
330
508C
100
AcDbEntity
  8
TOP
  6
ByBlock
 62
     0
100
AcDbText
 10
300.9609374931422
 20
170.0
 30
0.0
 40
3.000000019799997
  1
 
 41
1.189062499999995
  7
UGMTXT
100
AcDbText
  0
ENDBLK
  5
5092
330
508C
100
AcDbEntity
  8
0
100
AcDbBlockEnd
  0
BLOCK
  5
509E
330
5093
100
AcDbEntity
  8
0
100
AcDbBlockBegin
  2
*D6
 70
     1
 10
0.0
 20
0.0
 30
0.0
  3
*D6
  1

  0
LINE
  5
5094
330
5093
100
AcDbEntity
  8
0
  6
Continuous
 62
     0
100
AcDbLine
 10
638.5482368421052
 20
285.1567974937046
 30
0.0
 11
603.8575000048068
 21
285.1567974937046
 31
0.0
  0
LINE
  5
5095
330
5093
100
AcDbEntity
  8
0
  6
Continuous
 62
     0
100
AcDbLine
 10
638.5482368421052
 20
335.7567974937047
 30
0.0
 11
603.8575000048068
 21
335.7567974937047
 31
0.0
  0
LINE
  5
5096
330
5093
100
AcDbEntity
  8
0
  6
Continuous
 62
     0
100
AcDbLine
 10
604.0375000048069
 20
285.3367974937047
 30
0.0
 11
604.0375000048069
 21
310.2767974937043
 31
0.0
  0
LINE
  5
5097
330
5093
100
AcDbEntity
  8
0
  6
Continuous
 62
     0
100
AcDbLine
 10
604.0375000048069
 20
335.5767974937045
 30
0.0
 11
604.0375000048069
 21
310.6367974937043
 31
0.0
  0
SOLID
  5
5098
330
5093
100
AcDbEntity
  8
0
  6
Continuous
 62
     0
100
AcDbTrace
 10
604.0075000048067
 20
285.3367974937047
 30
0.0
 11
604.0675000048069
 21
285.3367974937047
 31
0.0
 12
604.0375000048069
 22
285.1567974937046
 32
0.0
 13
604.0375000048069
 23
285.1567974937046
 33
0.0
  0
SOLID
  5
5099
330
5093
100
AcDbEntity
  8
0
  6
Continuous
 62
     0
100
AcDbTrace
 10
604.0075000048067
 20
335.5767974937045
 30
0.0
 11
604.0675000048069
 21
335.5767974937045
 31
0.0
 12
604.0375000048069
 22
335.7567974937047
 32
0.0
 13
604.0375000048069
 23
335.7567974937047
 33
0.0
  0
MTEXT
  5
509A
330
5093
100
AcDbEntity
  8
0
  6
Continuous
 62
     0
100
AcDbMText
 10
604.0375000048067
 20
310.4567974937046
 30
0.0
 40
0.18
 41
0.0
 46
0.0
 71
     5
 72
     1
  1
\A1;50.6000
 73
     1
 44
1.0
1001
ACAD
1000
MTEXTBEGIN
1070
    73
1070
     1
1070
    44
1040
1.0
1070
    74
1070
     0
1000
MTEXTEND
  0
POINT
  5
509B
330
5093
100
AcDbEntity
  8
DEFPOINTS
  6
Continuous
 62
     0
100
AcDbPoint
 10
638.610736842105
 20
285.1567974937046
 30
0.0
  0
POINT
  5
509C
330
5093
100
AcDbEntity
  8
DEFPOINTS
  6
Continuous
 62
     0
100
AcDbPoint
 10
638.610736842105
 20
335.7567974937047
 30
0.0
  0
POINT
  5
509D
330
5093
100
AcDbEntity
  8
DEFPOINTS
  6
Continuous
 62
     0
100
AcDbPoint
 10
604.0375000048069
 20
335.7567974937047
 30
0.0
  0
ENDBLK
  5
509F
330
5093
100
AcDbEntity
  8
0
100
AcDbBlockEnd
  0
BLOCK
  5
50AB
330
50A0
100
AcDbEntity
  8
0
100
AcDbBlockBegin
  2
*D7
 70
     1
 10
0.0
 20
0.0
 30
0.0
  3
*D7
  1

  0
LINE
  5
50A1
330
50A0
100
AcDbEntity
  8
0
  6
Continuous
 62
     0
100
AcDbLine
 10
803.5667368421052
 20
240.0602974770066
 30
0.0
 11
803.5667368421052
 21
186.4074999951929
 31
0.0
  0
LINE
  5
50A2
330
50A0
100
AcDbEntity
  8
0
  6
Continuous
 62
     0
100
AcDbLine
 10
818.7467368421049
 20
233.1917645962124
 30
0.0
 11
818.7467368421049
 21
186.4074999951929
 31
0.0
  0
LINE
  5
50A3
330
50A0
100
AcDbEntity
  8
0
  6
Continuous
 62
     0
100
AcDbLine
 10
803.7467368421051
 20
186.5874999951929
 30
0.0
 11
810.5695939849622
 21
186.5874999951929
 31
0.0
  0
LINE
  5
50A4
330
50A0
100
AcDbEntity
  8
0
  6
Continuous
 62
     0
100
AcDbLine
 10
818.566736842105
 20
186.5874999951929
 30
0.0
 11
811.743879699248
 21
186.5874999951929
 31
0.0
  0
SOLID
  5
50A5
330
50A0
100
AcDbEntity
  8
0
  6
Continuous
 62
     0
100
AcDbTrace
 10
803.7467368421051
 20
186.6174999951929
 30
0.0
 11
803.7467368421051
 21
186.5574999951929
 31
0.0
 12
803.5667368421052
 22
186.5874999951929
 32
0.0
 13
803.5667368421052
 23
186.5874999951929
 33
0.0
  0
SOLID
  5
50A6
330
50A0
100
AcDbEntity
  8
0
  6
Continuous
 62
     0
100
AcDbTrace
 10
818.566736842105
 20
186.6174999951929
 30
0.0
 11
818.566736842105
 21
186.5574999951929
 31
0.0
 12
818.7467368421049
 22
186.5874999951929
 32
0.0
 13
818.7467368421049
 23
186.5874999951929
 33
0.0
  0
MTEXT
  5
50A7
330
50A0
100
AcDbEntity
  8
0
  6
Continuous
 62
     0
100
AcDbMText
 10
811.1567368421049
 20
186.5874999951929
 30
0.0
 40
0.18
 41
0.0
 46
0.0
 71
     5
 72
     1
  1
\A1;15.1800
 73
     1
 44
1.0
1001
ACAD
1000
MTEXTBEGIN
1070
    73
1070
     1
1070
    44
1040
1.0
1070
    74
1070
     0
1000
MTEXTEND
  0
POINT
  5
50A8
330
50A0
100
AcDbEntity
  8
DEFPOINTS
  6
Continuous
 62
     0
100
AcDbPoint
 10
803.5667368421052
 20
240.1227974770065
 30
0.0
  0
POINT
  5
50A9
330
50A0
100
AcDbEntity
  8
DEFPOINTS
  6
Continuous
 62
     0
100
AcDbPoint
 10
818.7467368421049
 20
233.2542645962124
 30
0.0
  0
POINT
  5
50AA
330
50A0
100
AcDbEntity
  8
DEFPOINTS
  6
Continuous
 62
     0
100
AcDbPoint
 10
818.7467368421049
 20
186.5874999951929
 30
0.0
  0
ENDBLK
  5
50AC
330
50A0
100
AcDbEntity
  8
0
100
AcDbBlockEnd
  0
BLOCK
  5
50B8
330
50AD
100
AcDbEntity
  8
0
100
AcDbBlockBegin
  2
*D8
 70
     1
 10
0.0
 20
0.0
 30
0.0
  3
*D8
  1

  0
LINE
  5
50AE
330
50AD
100
AcDbEntity
  8
0
  6
Continuous
 62
     0
100
AcDbLine
 10
659.862736842105
 20
203.1222974937048
 30
0.0
 11
659.862736842105
 21
135.8074999951929
 31
0.0
  0
LINE
  5
50AF
330
50AD
100
AcDbEntity
  8
0
  6
Continuous
 62
     0
100
AcDbLine
 10
818.7467368421049
 20
242.5902974937045
 30
0.0
 11
818.7467368421049
 21
135.8074999951929
 31
0.0
  0
LINE
  5
50B0
330
50AD
100
AcDbEntity
  8
0
  6
Continuous
 62
     0
100
AcDbLine
 10
660.0427368421051
 20
135.9874999951929
 30
0.0
 11
738.614736842105
 21
135.9874999951929
 31
0.0
  0
LINE
  5
50B1
330
50AD
100
AcDbEntity
  8
0
  6
Continuous
 62
     0
100
AcDbLine
 10
818.566736842105
 20
135.9874999951929
 30
0.0
 11
739.9947368421051
 21
135.9874999951929
 31
0.0
  0
SOLID
  5
50B2
330
50AD
100
AcDbEntity
  8
0
  6
Continuous
 62
     0
100
AcDbTrace
 10
660.0427368421051
 20
136.0174999951929
 30
0.0
 11
660.0427368421051
 21
135.9574999951929
 31
0.0
 12
659.862736842105
 22
135.9874999951929
 32
0.0
 13
659.862736842105
 23
135.9874999951929
 33
0.0
  0
SOLID
  5
50B3
330
50AD
100
AcDbEntity
  8
0
  6
Continuous
 62
     0
100
AcDbTrace
 10
818.566736842105
 20
136.0174999951929
 30
0.0
 11
818.566736842105
 21
135.9574999951929
 31
0.0
 12
818.7467368421049
 22
135.9874999951929
 32
0.0
 13
818.7467368421049
 23
135.9874999951929
 33
0.0
  0
MTEXT
  5
50B4
330
50AD
100
AcDbEntity
  8
0
  6
Continuous
 62
     0
100
AcDbMText
 10
739.3047368421051
 20
135.9874999951929
 30
0.0
 40
0.18
 41
0.0
 46
0.0
 71
     5
 72
     1
  1
\A1;158.8840
 73
     1
 44
1.0
1001
ACAD
1000
MTEXTBEGIN
1070
    73
1070
     1
1070
    44
1040
1.0
1070
    74
1070
     0
1000
MTEXTEND
  0
POINT
  5
50B5
330
50AD
100
AcDbEntity
  8
DEFPOINTS
  6
Continuous
 62
     0
100
AcDbPoint
 10
659.862736842105
 20
203.1847974937046
 30
0.0
  0
POINT
  5
50B6
330
50AD
100
AcDbEntity
  8
DEFPOINTS
  6
Continuous
 62
     0
100
AcDbPoint
 10
818.7467368421049
 20
242.6527974937046
 30
0.0
  0
POINT
  5
50B7
330
50AD
100
AcDbEntity
  8
DEFPOINTS
  6
Continuous
 62
     0
100
AcDbPoint
 10
818.7467368421049
 20
135.9874999951929
 30
0.0
  0
ENDBLK
  5
50B9
330
50AD
100
AcDbEntity
  8
0
100
AcDbBlockEnd
  0
BLOCK
  5
50C5
330
50BA
100
AcDbEntity
  8
0
100
AcDbBlockBegin
  2
*D9
 70
     1
 10
0.0
 20
0.0
 30
0.0
  3
*D9
  1

  0
LINE
  5
50BB
330
50BA
100
AcDbEntity
  8
0
  6
Continuous
 62
     0
100
AcDbLine
 10
659.862736842105
 20
203.1222974937048
 30
0.0
 11
659.862736842105
 21
161.107499995193
 31
0.0
  0
LINE
  5
50BC
330
50BA
100
AcDbEntity
  8
0
  6
Continuous
 62
     0
100
AcDbLine
 10
768.1467368421049
 20
242.5902974937045
 30
0.0
 11
768.1467368421049
 21
161.107499995193
 31
0.0
  0
LINE
  5
50BD
330
50BA
100
AcDbEntity
  8
0
  6
Continuous
 62
     0
100
AcDbLine
 10
660.0427368421051
 20
161.287499995193
 30
0.0
 11
713.3147368421049
 21
161.287499995193
 31
0.0
  0
LINE
  5
50BE
330
50BA
100
AcDbEntity
  8
0
  6
Continuous
 62
     0
100
AcDbLine
 10
767.9667368421051
 20
161.287499995193
 30
0.0
 11
714.6947368421051
 21
161.287499995193
 31
0.0
  0
SOLID
  5
50BF
330
50BA
100
AcDbEntity
  8
0
  6
Continuous
 62
     0
100
AcDbTrace
 10
660.0427368421051
 20
161.317499995193
 30
0.0
 11
660.0427368421051
 21
161.257499995193
 31
0.0
 12
659.862736842105
 22
161.287499995193
 32
0.0
 13
659.862736842105
 23
161.287499995193
 33
0.0
  0
SOLID
  5
50C0
330
50BA
100
AcDbEntity
  8
0
  6
Continuous
 62
     0
100
AcDbTrace
 10
767.9667368421051
 20
161.317499995193
 30
0.0
 11
767.9667368421051
 21
161.257499995193
 31
0.0
 12
768.1467368421049
 22
161.287499995193
 32
0.0
 13
768.1467368421049
 23
161.287499995193
 33
0.0
  0
MTEXT
  5
50C1
330
50BA
100
AcDbEntity
  8
0
  6
Continuous
 62
     0
100
AcDbMText
 10
714.0047368421051
 20
161.287499995193
 30
0.0
 40
0.18
 41
0.0
 46
0.0
 71
     5
 72
     1
  1
\A1;108.2840
 73
     1
 44
1.0
1001
ACAD
1000
MTEXTBEGIN
1070
    73
1070
     1
1070
    44
1040
1.0
1070
    74
1070
     0
1000
MTEXTEND
  0
POINT
  5
50C2
330
50BA
100
AcDbEntity
  8
DEFPOINTS
  6
Continuous
 62
     0
100
AcDbPoint
 10
659.862736842105
 20
203.1847974937046
 30
0.0
  0
POINT
  5
50C3
330
50BA
100
AcDbEntity
  8
DEFPOINTS
  6
Continuous
 62
     0
100
AcDbPoint
 10
768.1467368421049
 20
242.6527974937046
 30
0.0
  0
POINT
  5
50C4
330
50BA
100
AcDbEntity
  8
DEFPOINTS
  6
Continuous
 62
     0
100
AcDbPoint
 10
768.1467368421049
 20
161.287499995193
 30
0.0
  0
ENDBLK
  5
50C6
330
50BA
100
AcDbEntity
  8
0
100
AcDbBlockEnd
  0
BLOCK
  5
50D2
330
50C7
100
AcDbEntity
  8
0
100
AcDbBlockBegin
  2
*D10
 70
     1
 10
0.0
 20
0.0
 30
0.0
  3
*D10
  1

  0
LINE
  5
50C8
330
50C7
100
AcDbEntity
  8
0
  6
Continuous
 62
     0
100
AcDbLine
 10
622.4187368421052
 20
307.8642974770066
 30
0.0
 11
622.4187368421052
 21
135.8074999951929
 31
0.0
  0
LINE
  5
50C9
330
50C7
100
AcDbEntity
  8
0
  6
Continuous
 62
     0
100
AcDbLine
 10
659.862736842105
 20
203.1222974937048
 30
0.0
 11
659.862736842105
 21
135.8074999951929
 31
0.0
  0
LINE
  5
50CA
330
50C7
100
AcDbEntity
  8
0
  6
Continuous
 62
     0
100
AcDbLine
 10
622.5987368421051
 20
135.9874999951929
 30
0.0
 11
640.5193082706762
 21
135.9874999951929
 31
0.0
  0
LINE
  5
50CB
330
50C7
100
AcDbEntity
  8
0
  6
Continuous
 62
     0
100
AcDbLine
 10
659.6827368421052
 20
135.9874999951929
 30
0.0
 11
641.7621654135338
 21
135.9874999951929
 31
0.0
  0
SOLID
  5
50CC
330
50C7
100
AcDbEntity
  8
0
  6
Continuous
 62
     0
100
AcDbTrace
 10
622.5987368421051
 20
136.0174999951929
 30
0.0
 11
622.5987368421051
 21
135.9574999951929
 31
0.0
 12
622.4187368421052
 22
135.9874999951929
 32
0.0
 13
622.4187368421052
 23
135.9874999951929
 33
0.0
  0
SOLID
  5
50CD
330
50C7
100
AcDbEntity
  8
0
  6
Continuous
 62
     0
100
AcDbTrace
 10
659.6827368421052
 20
136.0174999951929
 30
0.0
 11
659.6827368421052
 21
135.9574999951929
 31
0.0
 12
659.862736842105
 22
135.9874999951929
 32
0.0
 13
659.862736842105
 23
135.9874999951929
 33
0.0
  0
MTEXT
  5
50CE
330
50C7
100
AcDbEntity
  8
0
  6
Continuous
 62
     0
100
AcDbMText
 10
641.1407368421053
 20
135.9874999951929
 30
0.0
 40
0.18
 41
0.0
 46
0.0
 71
     5
 72
     1
  1
\A1;37.4440
 73
     1
 44
1.0
1001
ACAD
1000
MTEXTBEGIN
1070
    73
1070
     1
1070
    44
1040
1.0
1070
    74
1070
     0
1000
MTEXTEND
  0
POINT
  5
50CF
330
50C7
100
AcDbEntity
  8
DEFPOINTS
  6
Continuous
 62
     0
100
AcDbPoint
 10
622.4187368421052
 20
307.9267974770066
 30
0.0
  0
POINT
  5
50D0
330
50C7
100
AcDbEntity
  8
DEFPOINTS
  6
Continuous
 62
     0
100
AcDbPoint
 10
659.862736842105
 20
203.1847974937046
 30
0.0
  0
POINT
  5
50D1
330
50C7
100
AcDbEntity
  8
DEFPOINTS
  6
Continuous
 62
     0
100
AcDbPoint
 10
659.862736842105
 20
135.9874999951929
 30
0.0
  0
ENDBLK
  5
50D3
330
50C7
100
AcDbEntity
  8
0
100
AcDbBlockEnd
  0
BLOCK
  5
50DF
330
50D4
100
AcDbEntity
  8
0
100
AcDbBlockBegin
  2
*D11
 70
     1
 10
0.0
 20
0.0
 30
0.0
  3
*D11
  1

  0
LINE
  5
50D5
330
50D4
100
AcDbEntity
  8
0
  6
Continuous
 62
     0
100
AcDbLine
 10
644.6827368421052
 20
213.2422974937048
 30
0.0
 11
644.6827368421052
 21
161.107499995193
 31
0.0
  0
LINE
  5
50D6
330
50D4
100
AcDbEntity
  8
0
  6
Continuous
 62
     0
100
AcDbLine
 10
659.862736842105
 20
203.1222974937048
 30
0.0
 11
659.862736842105
 21
161.107499995193
 31
0.0
  0
LINE
  5
50D7
330
50D4
100
AcDbEntity
  8
0
  6
Continuous
 62
     0
100
AcDbLine
 10
644.862736842105
 20
161.287499995193
 30
0.0
 11
651.6855939849622
 21
161.287499995193
 31
0.0
  0
LINE
  5
50D8
330
50D4
100
AcDbEntity
  8
0
  6
Continuous
 62
     0
100
AcDbLine
 10
659.6827368421052
 20
161.287499995193
 30
0.0
 11
652.8598796992479
 21
161.287499995193
 31
0.0
  0
SOLID
  5
50D9
330
50D4
100
AcDbEntity
  8
0
  6
Continuous
 62
     0
100
AcDbTrace
 10
644.862736842105
 20
161.317499995193
 30
0.0
 11
644.862736842105
 21
161.257499995193
 31
0.0
 12
644.6827368421052
 22
161.287499995193
 32
0.0
 13
644.6827368421052
 23
161.287499995193
 33
0.0
  0
SOLID
  5
50DA
330
50D4
100
AcDbEntity
  8
0
  6
Continuous
 62
     0
100
AcDbTrace
 10
659.6827368421052
 20
161.317499995193
 30
0.0
 11
659.6827368421052
 21
161.257499995193
 31
0.0
 12
659.862736842105
 22
161.287499995193
 32
0.0
 13
659.862736842105
 23
161.287499995193
 33
0.0
  0
MTEXT
  5
50DB
330
50D4
100
AcDbEntity
  8
0
  6
Continuous
 62
     0
100
AcDbMText
 10
652.2727368421051
 20
161.287499995193
 30
0.0
 40
0.18
 41
0.0
 46
0.0
 71
     5
 72
     1
  1
\A1;15.1800
 73
     1
 44
1.0
1001
ACAD
1000
MTEXTBEGIN
1070
    73
1070
     1
1070
    44
1040
1.0
1070
    74
1070
     0
1000
MTEXTEND
  0
POINT
  5
50DC
330
50D4
100
AcDbEntity
  8
DEFPOINTS
  6
Continuous
 62
     0
100
AcDbPoint
 10
644.6827368421052
 20
213.3047974937047
 30
0.0
  0
POINT
  5
50DD
330
50D4
100
AcDbEntity
  8
DEFPOINTS
  6
Continuous
 62
     0
100
AcDbPoint
 10
659.862736842105
 20
203.1847974937046
 30
0.0
  0
POINT
  5
50DE
330
50D4
100
AcDbEntity
  8
DEFPOINTS
  6
Continuous
 62
     0
100
AcDbPoint
 10
659.862736842105
 20
161.287499995193
 30
0.0
  0
ENDBLK
  5
50E0
330
50D4
100
AcDbEntity
  8
0
100
AcDbBlockEnd
  0
BLOCK
  5
50EC
330
50E1
100
AcDbEntity
  8
0
100
AcDbBlockBegin
  2
*D12
 70
     1
 10
0.0
 20
0.0
 30
0.0
  3
*D12
  1

  0
LINE
  5
50E2
330
50E1
100
AcDbEntity
  8
0
  6
Continuous
 62
     0
100
AcDbLine
 10
752.9667368421049
 20
240.0602974770066
 30
0.0
 11
752.9667368421049
 21
186.4074999951929
 31
0.0
  0
LINE
  5
50E3
330
50E1
100
AcDbEntity
  8
0
  6
Continuous
 62
     0
100
AcDbLine
 10
768.1467368421049
 20
233.1917645962124
 30
0.0
 11
768.1467368421049
 21
186.4074999951929
 31
0.0
  0
LINE
  5
50E4
330
50E1
100
AcDbEntity
  8
0
  6
Continuous
 62
     0
100
AcDbLine
 10
753.1467368421049
 20
186.5874999951929
 30
0.0
 11
759.9695939849619
 21
186.5874999951929
 31
0.0
  0
LINE
  5
50E5
330
50E1
100
AcDbEntity
  8
0
  6
Continuous
 62
     0
100
AcDbLine
 10
767.9667368421051
 20
186.5874999951929
 30
0.0
 11
761.1438796992479
 21
186.5874999951929
 31
0.0
  0
SOLID
  5
50E6
330
50E1
100
AcDbEntity
  8
0
  6
Continuous
 62
     0
100
AcDbTrace
 10
753.1467368421049
 20
186.6174999951929
 30
0.0
 11
753.1467368421049
 21
186.5574999951929
 31
0.0
 12
752.9667368421049
 22
186.5874999951929
 32
0.0
 13
752.9667368421049
 23
186.5874999951929
 33
0.0
  0
SOLID
  5
50E7
330
50E1
100
AcDbEntity
  8
0
  6
Continuous
 62
     0
100
AcDbTrace
 10
767.9667368421051
 20
186.6174999951929
 30
0.0
 11
767.9667368421051
 21
186.5574999951929
 31
0.0
 12
768.1467368421049
 22
186.5874999951929
 32
0.0
 13
768.1467368421049
 23
186.5874999951929
 33
0.0
  0
MTEXT
  5
50E8
330
50E1
100
AcDbEntity
  8
0
  6
Continuous
 62
     0
100
AcDbMText
 10
760.5567368421048
 20
186.5874999951929
 30
0.0
 40
0.18
 41
0.0
 46
0.0
 71
     5
 72
     1
  1
\A1;15.1800
 73
     1
 44
1.0
1001
ACAD
1000
MTEXTBEGIN
1070
    73
1070
     1
1070
    44
1040
1.0
1070
    74
1070
     0
1000
MTEXTEND
  0
POINT
  5
50E9
330
50E1
100
AcDbEntity
  8
DEFPOINTS
  6
Continuous
 62
     0
100
AcDbPoint
 10
752.9667368421049
 20
240.1227974770065
 30
0.0
  0
POINT
  5
50EA
330
50E1
100
AcDbEntity
  8
DEFPOINTS
  6
Continuous
 62
     0
100
AcDbPoint
 10
768.1467368421049
 20
233.2542645962124
 30
0.0
  0
POINT
  5
50EB
330
50E1
100
AcDbEntity
  8
DEFPOINTS
  6
Continuous
 62
     0
100
AcDbPoint
 10
768.1467368421049
 20
186.5874999951929
 30
0.0
  0
ENDBLK
  5
50ED
330
50E1
100
AcDbEntity
  8
0
100
AcDbBlockEnd
  0
BLOCK
  5
50F9
330
50EE
100
AcDbEntity
  8
0
100
AcDbBlockBegin
  2
*D13
 70
     1
 10
0.0
 20
0.0
 30
0.0
  3
*D13
  1

  0
LINE
  5
50EF
330
50EE
100
AcDbEntity
  8
0
  6
Continuous
 62
     0
100
AcDbLine
 10
737.7867368421051
 20
249.7992975104025
 30
0.0
 11
737.7867368421051
 21
275.3174999951929
 31
0.0
  0
LINE
  5
50F0
330
50EE
100
AcDbEntity
  8
0
  6
Continuous
 62
     0
100
AcDbLine
 10
752.9667368421049
 20
245.2452975104026
 30
0.0
 11
752.9667368421049
 21
275.3174999951929
 31
0.0
  0
LINE
  5
50F1
330
50EE
100
AcDbEntity
  8
0
  6
Continuous
 62
     0
100
AcDbLine
 10
737.9667368421051
 20
275.1374999951929
 30
0.0
 11
744.7895939849622
 21
275.1374999951929
 31
0.0
  0
LINE
  5
50F2
330
50EE
100
AcDbEntity
  8
0
  6
Continuous
 62
     0
100
AcDbLine
 10
752.7867368421051
 20
275.1374999951929
 30
0.0
 11
745.963879699248
 21
275.1374999951929
 31
0.0
  0
SOLID
  5
50F3
330
50EE
100
AcDbEntity
  8
0
  6
Continuous
 62
     0
100
AcDbTrace
 10
737.9667368421051
 20
275.1674999951926
 30
0.0
 11
737.9667368421051
 21
275.107499995193
 31
0.0
 12
737.7867368421051
 22
275.1374999951929
 32
0.0
 13
737.7867368421051
 23
275.1374999951929
 33
0.0
  0
SOLID
  5
50F4
330
50EE
100
AcDbEntity
  8
0
  6
Continuous
 62
     0
100
AcDbTrace
 10
752.7867368421051
 20
275.1674999951926
 30
0.0
 11
752.7867368421051
 21
275.107499995193
 31
0.0
 12
752.9667368421049
 22
275.1374999951929
 32
0.0
 13
752.9667368421049
 23
275.1374999951929
 33
0.0
  0
MTEXT
  5
50F5
330
50EE
100
AcDbEntity
  8
0
  6
Continuous
 62
     0
100
AcDbMText
 10
745.3767368421051
 20
275.1374999951929
 30
0.0
 40
0.18
 41
0.0
 46
0.0
 71
     5
 72
     1
  1
\A1;15.1800
 73
     1
 44
1.0
1001
ACAD
1000
MTEXTBEGIN
1070
    73
1070
     1
1070
    44
1040
1.0
1070
    74
1070
     0
1000
MTEXTEND
  0
POINT
  5
50F6
330
50EE
100
AcDbEntity
  8
DEFPOINTS
  6
Continuous
 62
     0
100
AcDbPoint
 10
737.7867368421051
 20
249.7367975104026
 30
0.0
  0
POINT
  5
50F7
330
50EE
100
AcDbEntity
  8
DEFPOINTS
  6
Continuous
 62
     0
100
AcDbPoint
 10
752.9667368421049
 20
245.1827975104026
 30
0.0
  0
POINT
  5
50F8
330
50EE
100
AcDbEntity
  8
DEFPOINTS
  6
Continuous
 62
     0
100
AcDbPoint
 10
752.9667368421049
 20
275.1374999951929
 30
0.0
  0
ENDBLK
  5
50FA
330
50EE
100
AcDbEntity
  8
0
100
AcDbBlockEnd
  0
BLOCK
  5
5106
330
50FB
100
AcDbEntity
  8
0
100
AcDbBlockBegin
  2
*D14
 70
     1
 10
0.0
 20
0.0
 30
0.0
  3
*D14
  1

  0
LINE
  5
50FC
330
50FB
100
AcDbEntity
  8
0
  6
Continuous
 62
     0
100
AcDbLine
 10
816.6399201801828
 20
234.5567974937046
 30
0.0
 11
843.3025000048068
 21
234.5567974937046
 31
0.0
  0
LINE
  5
50FD
330
50FB
100
AcDbEntity
  8
0
  6
Continuous
 62
     0
100
AcDbLine
 10
816.6399201801828
 20
250.7487974937046
 30
0.0
 11
843.3025000048068
 21
250.7487974937046
 31
0.0
  0
LINE
  5
50FE
330
50FB
100
AcDbEntity
  8
0
  6
Continuous
 62
     0
100
AcDbLine
 10
843.1225000048069
 20
234.7367974937046
 30
0.0
 11
843.1225000048069
 21
242.4727974937046
 31
0.0
  0
LINE
  5
50FF
330
50FB
100
AcDbEntity
  8
0
  6
Continuous
 62
     0
100
AcDbLine
 10
843.1225000048069
 20
250.5687974937046
 30
0.0
 11
843.1225000048069
 21
242.8327974937046
 31
0.0
  0
SOLID
  5
5100
330
50FB
100
AcDbEntity
  8
0
  6
Continuous
 62
     0
100
AcDbTrace
 10
843.092500004807
 20
234.7367974937046
 30
0.0
 11
843.1525000048068
 21
234.7367974937046
 31
0.0
 12
843.1225000048069
 22
234.5567974937046
 32
0.0
 13
843.1225000048069
 23
234.5567974937046
 33
0.0
  0
SOLID
  5
5101
330
50FB
100
AcDbEntity
  8
0
  6
Continuous
 62
     0
100
AcDbTrace
 10
843.092500004807
 20
250.5687974937046
 30
0.0
 11
843.1525000048068
 21
250.5687974937046
 31
0.0
 12
843.1225000048069
 22
250.7487974937046
 32
0.0
 13
843.1225000048069
 23
250.7487974937046
 33
0.0
  0
MTEXT
  5
5102
330
50FB
100
AcDbEntity
  8
0
  6
Continuous
 62
     0
100
AcDbMText
 10
843.1225000048069
 20
242.6527974937048
 30
0.0
 40
0.18
 41
0.0
 46
0.0
 71
     5
 72
     1
  1
\A1;16.1920
 73
     1
 44
1.0
1001
ACAD
1000
MTEXTBEGIN
1070
    73
1070
     1
1070
    44
1040
1.0
1070
    74
1070
     0
1000
MTEXTEND
  0
POINT
  5
5103
330
50FB
100
AcDbEntity
  8
DEFPOINTS
  6
Continuous
 62
     0
100
AcDbPoint
 10
816.5774201801827
 20
234.5567974937046
 30
0.0
  0
POINT
  5
5104
330
50FB
100
AcDbEntity
  8
DEFPOINTS
  6
Continuous
 62
     0
100
AcDbPoint
 10
816.5774201801827
 20
250.7487974937046
 30
0.0
  0
POINT
  5
5105
330
50FB
100
AcDbEntity
  8
DEFPOINTS
  6
Continuous
 62
     0
100
AcDbPoint
 10
843.1225000048069
 20
250.7487974937046
 30
0.0
  0
ENDBLK
  5
5107
330
50FB
100
AcDbEntity
  8
0
100
AcDbBlockEnd
  0
BLOCK
  5
5113
330
5108
100
AcDbEntity
  8
0
100
AcDbBlockBegin
  2
*D15
 70
     1
 10
0.0
 20
0.0
 30
0.0
  3
*D15
  1

  0
LINE
  5
5109
330
5108
100
AcDbEntity
  8
0
  6
Continuous
 62
     0
100
AcDbLine
 10
818.8092368421051
 20
375.7307974937045
 30
0.0
 11
843.3025000048068
 21
375.7307974937045
 31
0.0
  0
LINE
  5
510A
330
5108
100
AcDbEntity
  8
0
  6
Continuous
 62
     0
100
AcDbLine
 10
818.8092368421051
 20
380.7907974937045
 30
0.0
 11
843.3025000048068
 21
380.7907974937045
 31
0.0
  0
LINE
  5
510B
330
5108
100
AcDbEntity
  8
0
  6
Continuous
 62
     0
100
AcDbLine
 10
843.1225000048069
 20
375.9107974937045
 30
0.0
 11
843.1225000048069
 21
378.0807974937046
 31
0.0
  0
LINE
  5
510C
330
5108
100
AcDbEntity
  8
0
  6
Continuous
 62
     0
100
AcDbLine
 10
843.1225000048069
 20
380.6107974937045
 30
0.0
 11
843.1225000048069
 21
378.4407974937046
 31
0.0
  0
SOLID
  5
510D
330
5108
100
AcDbEntity
  8
0
  6
Continuous
 62
     0
100
AcDbTrace
 10
843.092500004807
 20
375.9107974937045
 30
0.0
 11
843.1525000048068
 21
375.9107974937045
 31
0.0
 12
843.1225000048069
 22
375.7307974937045
 32
0.0
 13
843.1225000048069
 23
375.7307974937045
 33
0.0
  0
SOLID
  5
510E
330
5108
100
AcDbEntity
  8
0
  6
Continuous
 62
     0
100
AcDbTrace
 10
843.092500004807
 20
380.6107974937045
 30
0.0
 11
843.1525000048068
 21
380.6107974937045
 31
0.0
 12
843.1225000048069
 22
380.7907974937045
 32
0.0
 13
843.1225000048069
 23
380.7907974937045
 33
0.0
  0
MTEXT
  5
510F
330
5108
100
AcDbEntity
  8
0
  6
Continuous
 62
     0
100
AcDbMText
 10
843.1225000048069
 20
378.2607974937046
 30
0.0
 40
0.18
 41
0.0
 46
0.0
 71
     5
 72
     1
  1
\A1;5.0600
 73
     1
 44
1.0
1001
ACAD
1000
MTEXTBEGIN
1070
    73
1070
     1
1070
    44
1040
1.0
1070
    74
1070
     0
1000
MTEXTEND
  0
POINT
  5
5110
330
5108
100
AcDbEntity
  8
DEFPOINTS
  6
Continuous
 62
     0
100
AcDbPoint
 10
818.7467368421049
 20
375.7307974937045
 30
0.0
  0
POINT
  5
5111
330
5108
100
AcDbEntity
  8
DEFPOINTS
  6
Continuous
 62
     0
100
AcDbPoint
 10
818.7467368421049
 20
380.7907974937045
 30
0.0
  0
POINT
  5
5112
330
5108
100
AcDbEntity
  8
DEFPOINTS
  6
Continuous
 62
     0
100
AcDbPoint
 10
843.1225000048069
 20
380.7907974937045
 30
0.0
  0
ENDBLK
  5
5114
330
5108
100
AcDbEntity
  8
0
100
AcDbBlockEnd
  0
BLOCK
  5
5170
330
5118
100
AcDbEntity
  8
0
100
AcDbBlockBegin
  2
A$C26E55131
 70
     0
 10
0.0
 20
0.0
 30
0.0
  3
A$C26E55131
  1

  0
DIMENSION
  5
5119
330
5118
100
AcDbEntity
  8
0
  6
Continuous
100
AcDbDimension
280
     0
  2
*D10
 10
0.0
 20
-174.4692974985115
 30
0.0
 11
-18.72199999999996
 21
-174.4692974985115
 31
0.0
 12
-659.862736842105
 22
-310.4567974937046
 32
0.0
 71
     5
 42
-1.0
 73
     0
 74
     0
 75
     0
  3
STANDARD
100
AcDbAlignedDimension
 13
-37.44399999999996
 23
-2.530000016698009
 33
0.0
 14
0.0
 24
-107.2719999999997
 34
0.0
 50
180.0
100
AcDbRotatedDimension
1001
ACAD
1000
DSTYLE
1002
{
1070
   340
1005
11
1002
}
  0
LINE
  5
511A
330
5118
100
AcDbEntity
  8
0
  6
Continuous
100
AcDbLine
 10
-21.25199999999983
 20
-25.30000000000001
 30
0.0
 11
-15.17999999999995
 21
-25.30000000000001
 31
0.0
  0
LINE
  5
511B
330
5118
100
AcDbEntity
  8
0
  6
Continuous
100
AcDbLine
 10
-42.50399999999991
 20
0.0
 30
0.0
 11
60.72000000000002
 21
0.0
 31
0.0
  0
LINE
  5
511C
330
5118
100
AcDbEntity
  8
0
  6
Continuous
100
AcDbLine
 10
-21.25199999999983
 20
25.29999999999994
 30
0.0
 11
-15.17999999999995
 21
25.29999999999994
 31
0.0
  0
DIMENSION
  5
511D
330
5118
100
AcDbEntity
  8
0
  6
Continuous
100
AcDbDimension
280
     0
  2
*D6
 10
-55.82523683729823
 20
25.29999999999994
 30
0.0
 11
-55.82523683729835
 21
0.0
 31
0.0
 12
-659.862736842105
 22
-310.4567974937046
 32
0.0
 71
     5
 42
-1.0
 73
     0
 74
     0
 75
     0
  3
STANDARD
100
AcDbAlignedDimension
 13
-21.25199999999983
 23
-25.30000000000001
 33
0.0
 14
-21.25199999999983
 24
25.29999999999994
 34
0.0
 50
90.0
100
AcDbRotatedDimension
1001
ACAD
1000
DSTYLE
1002
{
1070
   340
1005
11
1002
}
  0
LINE
  5
511E
330
5118
100
AcDbEntity
  8
0
  6
Continuous
100
AcDbLine
 10
-21.25199999999983
 20
25.29999999999994
 30
0.0
 11
-21.25199999999983
 21
-25.30000000000001
 31
0.0
  0
ARC
  5
511F
330
5118
100
AcDbEntity
  8
0
  6
Continuous
100
AcDbCircle
 10
-6.071999999999889
 20
0.0
 30
0.0
 40
31.37199999999999
100
AcDbArc
 50
150.5534441956571
 51
180.0
  0
LINE
  5
5120
330
5118
100
AcDbEntity
  8
0
  6
Continuous
100
AcDbLine
 10
-21.25199999999983
 20
6.922878778543577
 30
0.0
 11
-33.39119684519039
 21
15.42283591735752
 31
0.0
  0
TEXT
  5
5121
330
5118
100
AcDbEntity
  8
0
  6
Continuous
100
AcDbText
 10
-49.92642505154504
 20
-3.782110402524551
 30
0.0
 40
7.590000050093999
  1
C
 41
1.189062499999995
  7
UGMTXT
100
AcDbText
  0
TEXT
  5
5122
330
5118
100
AcDbEntity
  8
0
  6
Continuous
100
AcDbText
 10
-47.8338102629242
 20
-7.570906439385852
 30
0.0
 40
7.590000050093999
  1
L
 41
1.189062499999995
  7
UGMTXT
100
AcDbText
  0
LINE
  5
5123
330
5118
100
AcDbEntity
  8
0
  6
Continuous
100
AcDbLine
 10
-21.25199999999983
 20
14.33542208150315
 30
0.0
 11
-29.90844072366678
 21
20.39672713028032
 31
0.0
  0
LINE
  5
5124
330
5118
100
AcDbEntity
  8
0
  6
Continuous
100
AcDbLine
 10
-33.39119684519039
 20
15.42283591735752
 30
0.0
 11
-29.90844072366678
 21
20.39672713028032
 31
0.0
  0
TEXT
  5
5125
330
5118
100
AcDbEntity
  8
0
  6
Continuous
100
AcDbText
 10
30.93228585497161
 20
126.6277903531155
 30
0.0
 40
6.324999999999997
  1
Mounting plate
 41
0.8047256097560897
  7
UGMTXT
100
AcDbText
  0
INSERT
  5
5126
330
5118
100
AcDbEntity
  8
0
100
AcDbBlockReference
  2
*U1
 10
-659.862736842105
 20
-310.4567974937046
 30
0.0
 41
2.52999999999997
 42
2.52999999999997
 43
2.52999999999997
  0
LINE
  5
5127
330
5118
100
AcDbEntity
  8
0
  6
Continuous
100
AcDbLine
 10
0.0
 20
97.15200000000022
 30
0.0
 11
0.0
 21
-97.15199999999979
 31
0.0
  0
LINE
  5
5128
330
5118
100
AcDbEntity
  8
0
  6
Continuous
100
AcDbLine
 10
55.66000000000006
 20
78.43000000000012
 30
0.0
 11
55.66000000000006
 21
-78.42999999999998
 31
0.0
  0
LINE
  5
5129
330
5118
100
AcDbEntity
  8
0
  6
Continuous
100
AcDbLine
 10
-17.20399999999995
 20
25.29999999999994
 30
0.0
 11
-17.20399999999995
 21
-25.30000000000001
 31
0.0
  0
LINE
  5
512A
330
5118
100
AcDbEntity
  8
0
  6
PHANTOM
100
AcDbLine
 10
4.048000000000111
 20
102.2120000000002
 30
0.0
 11
4.048000000000111
 21
-112.3319999999995
 31
0.0
  0
LINE
  5
512B
330
5118
100
AcDbEntity
  8
0
  6
Continuous
100
AcDbLine
 10
-15.17999999999995
 20
97.15200000000022
 30
0.0
 11
-15.17999999999995
 21
-97.15199999999979
 31
0.0
  0
DIMENSION
  5
512C
330
5118
100
AcDbEntity
  8
0
  6
Continuous
100
AcDbDimension
280
     0
  2
*D8
 10
158.8839999999999
 20
-174.4692974985115
 30
0.0
 11
79.44199999999989
 21
-174.4692974985115
 31
0.0
 12
-659.862736842105
 22
-310.4567974937046
 32
0.0
 71
     5
 42
-1.0
 73
     0
 74
     0
 75
     0
  3
STANDARD
100
AcDbAlignedDimension
 13
0.0
 23
-107.2719999999997
 33
0.0
 14
158.8839999999999
 24
-67.80399999999997
 34
0.0
 50
180.0
100
AcDbRotatedDimension
1001
ACAD
1000
DSTYLE
1002
{
1070
   340
1005
11
1002
}
  0
DIMENSION
  5
512D
330
5118
100
AcDbEntity
  8
0
  6
Continuous
100
AcDbDimension
280
     0
  2
*D9
 10
108.2839999999998
 20
-149.1692974985116
 30
0.0
 11
54.14199999999993
 21
-149.1692974985116
 31
0.0
 12
-659.862736842105
 22
-310.4567974937046
 32
0.0
 71
     5
 42
-1.0
 73
     0
 74
     0
 75
     0
  3
STANDARD
100
AcDbAlignedDimension
 13
0.0
 23
-107.2719999999997
 33
0.0
 14
108.2839999999998
 24
-67.80399999999997
 34
0.0
 50
180.0
100
AcDbRotatedDimension
1001
ACAD
1000
DSTYLE
1002
{
1070
   340
1005
11
1002
}
  0
INSERT
  5
512E
330
5118
100
AcDbEntity
  8
0
100
AcDbBlockReference
  2
*U3
 10
-659.862736842105
 20
-310.4567974937046
 30
0.0
 41
2.52999999999997
 42
2.52999999999997
 43
2.52999999999997
  0
DIMENSION
  5
512F
330
5118
100
AcDbEntity
  8
0
  6
Continuous
100
AcDbDimension
280
     0
  2
*D13
 10
93.10399999999992
 20
-35.31929749851168
 30
0.0
 11
85.51400000000002
 21
-35.31929749851168
 31
0.0
 12
-659.862736842105
 22
-310.4567974937046
 32
0.0
 71
     5
 42
-1.0
 73
     0
 74
     0
 75
     0
  3
STANDARD
100
AcDbAlignedDimension
 13
77.92399999999997
 23
-60.71999998330202
 33
0.0
 14
93.10399999999992
 24
-65.27399998330202
 34
0.0
100
AcDbRotatedDimension
1001
ACAD
1000
DSTYLE
1002
{
1070
   340
1005
11
1002
}
  0
LINE
  5
5130
330
5118
100
AcDbEntity
  8
0
  6
Continuous
100
AcDbLine
 10
79.53689751061313
 20
-75.89999999999998
 30
0.0
 11
106.1146833380776
 21
-75.89999999999998
 31
0.0
  0
LINE
  5
5131
330
5118
100
AcDbEntity
  8
0
  6
Continuous
100
AcDbLine
 10
79.53689751061313
 20
-59.708
 30
0.0
 11
106.1146833380776
 21
-59.708
 31
0.0
  0
LINE
  5
5132
330
5118
100
AcDbEntity
  8
0
  6
Continuous
100
AcDbLine
 10
50.59999999999989
 20
-67.80399999999997
 30
0.0
 11
169.0039999999999
 21
-67.80399999999997
 31
0.0
  0
DIMENSION
  5
5133
330
5118
100
AcDbEntity
  8
0
  6
Continuous
100
AcDbDimension
280
     0
  2
*D11
 10
0.0
 20
-149.1692974985116
 30
0.0
 11
-7.59000000000003
 21
-149.1692974985116
 31
0.0
 12
-659.862736842105
 22
-310.4567974937046
 32
0.0
 71
     5
 42
-1.0
 73
     0
 74
     0
 75
     0
  3
STANDARD
100
AcDbAlignedDimension
 13
-15.17999999999995
 23
-97.15199999999979
 33
0.0
 14
0.0
 24
-107.2719999999997
 34
0.0
 50
180.0
100
AcDbRotatedDimension
1001
ACAD
1000
DSTYLE
1002
{
1070
   340
1005
11
1002
}
  0
LINE
  5
5134
330
5118
100
AcDbEntity
  8
0
  6
PHANTOM
100
AcDbLine
 10
0.0
 20
-97.15199999999979
 30
0.0
 11
0.0
 21
-107.2719999999997
 31
0.0
  0
LINE
  5
5135
330
5118
100
AcDbEntity
  8
0
  6
PHANTOM
100
AcDbLine
 10
0.0
 20
-107.2719999999997
 30
0.0
 11
4.048000000000111
 21
-112.3319999999995
 31
0.0
  0
INSERT
  5
5136
330
5118
100
AcDbEntity
  8
0
100
AcDbBlockReference
  2
*U2
 10
-659.862736842105
 20
-310.4567974937046
 30
0.0
 41
2.52999999999997
 42
2.52999999999997
 43
2.52999999999997
  0
LINE
  5
5137
330
5118
100
AcDbEntity
  8
0
  6
Continuous
100
AcDbLine
 10
0.0
 20
-78.42999999999998
 30
0.0
 11
55.66000000000006
 21
-78.42999999999998
 31
0.0
  0
LINE
  5
5138
330
5118
100
AcDbEntity
  8
0
  6
Continuous
100
AcDbLine
 10
-15.17999999999995
 20
-97.15199999999979
 30
0.0
 11
0.0
 21
-97.15199999999979
 31
0.0
  0
LINE
  5
5139
330
5118
100
AcDbEntity
  8
0
  6
Continuous
100
AcDbLine
 10
72.35799999999983
 20
-60.59350000000002
 30
0.0
 11
72.35799999999983
 21
-75.0145
 31
0.0
  0
LINE
  5
513A
330
5118
100
AcDbEntity
  8
0
  6
Continuous
100
AcDbLine
 10
55.65999999999984
 20
-75.0145
 30
0.0
 11
79.05465453181079
 21
-75.0145
 31
0.0
  0
LINE
  5
513B
330
5118
100
AcDbEntity
  8
0
  6
Continuous
100
AcDbLine
 10
72.35799999999983
 20
-72.35800000000002
 30
0.0
 11
77.92399999999997
 21
-72.35800000000002
 31
0.0
  0
ARC
  5
513C
330
5118
100
AcDbEntity
  8
0
  6
Continuous
100
AcDbCircle
 10
97.06525168321023
 20
-65.77999999999997
 30
0.0
 40
20.24
100
AcDbArc
 50
198.9655749888484
 51
210.0000000000004
  0
LINE
  5
513D
330
5118
100
AcDbEntity
  8
0
  6
Continuous
100
AcDbLine
 10
55.65999999999984
 20
-60.59350000000002
 30
0.0
 11
79.05465453181079
 21
-60.59350000000002
 31
0.0
  0
LINE
  5
513E
330
5118
100
AcDbEntity
  8
0
  6
Continuous
100
AcDbLine
 10
72.35799999999983
 20
-63.25
 30
0.0
 11
77.92399999999997
 21
-63.25
 31
0.0
  0
ARC
  5
513F
330
5118
100
AcDbEntity
  8
0
  6
Continuous
100
AcDbCircle
 10
-97.06525168321023
 20
-69.82800000000001
 30
0.0
 40
20.24
210
0.0
220
0.0
230
-1.0
100
AcDbArc
 50
18.96557498884845
 51
30.00000000000054
  0
DIMENSION
  5
5140
330
5118
100
AcDbEntity
  8
0
  6
Continuous
100
AcDbDimension
280
     0
  2
*D7
 10
158.8839999999999
 20
-123.8692974985116
 30
0.0
 11
151.2939999999999
 21
-123.8692974985116
 31
0.0
 12
-659.862736842105
 22
-310.4567974937046
 32
0.0
 71
     5
 42
-1.0
 73
     0
 74
     0
 75
     0
  3
STANDARD
100
AcDbAlignedDimension
 13
143.7039999999998
 23
-70.33400001669801
 33
0.0
 14
158.8839999999999
 24
-77.20253289749209
 34
0.0
 50
180.0
100
AcDbRotatedDimension
1001
ACAD
1000
DSTYLE
1002
{
1070
   340
1005
11
1002
}
  0
DIMENSION
  5
5141
330
5118
100
AcDbEntity
  8
0
  6
Continuous
100
AcDbDimension
280
     0
  2
*D12
 10
108.2839999999998
 20
-123.8692974985116
 30
0.0
 11
100.6939999999996
 21
-123.8692974985116
 31
0.0
 12
-659.862736842105
 22
-310.4567974937046
 32
0.0
 71
     5
 42
-1.0
 73
     0
 74
     0
 75
     0
  3
STANDARD
100
AcDbAlignedDimension
 13
93.10399999999992
 23
-70.33400001669801
 33
0.0
 14
108.2839999999998
 24
-77.20253289749209
 34
0.0
 50
180.0
100
AcDbRotatedDimension
1001
ACAD
1000
DSTYLE
1002
{
1070
   340
1005
11
1002
}
  0
CIRCLE
  5
5142
330
5118
100
AcDbEntity
  8
0
  6
Continuous
100
AcDbCircle
 10
143.7039999999998
 20
-67.80399999999997
 30
0.0
 40
4.301
  0
LINE
  5
5143
330
5118
100
AcDbEntity
  8
0
  6
Continuous
100
AcDbLine
 10
130.1368975106131
 20
-59.708
 30
0.0
 11
156.7146833380776
 21
-59.708
 31
0.0
  0
LINE
  5
5144
330
5118
100
AcDbEntity
  8
0
  6
Continuous
100
AcDbLine
 10
130.1368975106131
 20
-75.89999999999998
 30
0.0
 11
156.7146833380776
 21
-75.89999999999998
 31
0.0
  0
ARC
  5
5145
330
5118
100
AcDbEntity
  8
0
  6
Continuous
100
AcDbCircle
 10
92.09200000000008
 20
-67.80399999999997
 30
0.0
 40
16.192
100
AcDbArc
 50
329.9999999999993
 51
30.00000000000054
  0
CIRCLE
  5
5146
330
5118
100
AcDbEntity
  8
0
  6
Continuous
100
AcDbCircle
 10
93.10399999999992
 20
-67.80399999999997
 30
0.0
 40
4.301
  0
LINE
  5
5147
330
5118
100
AcDbEntity
  8
0
  6
Continuous
100
AcDbLine
 10
93.10399999999992
 20
-54.648
 30
0.0
 11
93.10399999999992
 21
-80.95999999999998
 31
0.0
  0
LINE
  5
5148
330
5118
100
AcDbEntity
  8
0
  6
Continuous
100
AcDbLine
 10
122.9579999999997
 20
-60.59350000000002
 30
0.0
 11
122.9579999999997
 21
-75.0145
 31
0.0
  0
LINE
  5
5149
330
5118
100
AcDbEntity
  8
0
  6
Continuous
100
AcDbLine
 10
106.5899154967187
 20
-75.0145
 30
0.0
 11
122.958
 21
-75.0145
 31
0.0
  0
LINE
  5
514A
330
5118
100
AcDbEntity
  8
0
  6
Continuous
100
AcDbLine
 10
122.9579999999997
 20
-72.35800000000002
 30
0.0
 11
128.5239999999996
 21
-72.35800000000002
 31
0.0
  0
ARC
  5
514B
330
5118
100
AcDbEntity
  8
0
  6
Continuous
100
AcDbCircle
 10
147.66525168321
 20
-65.77999999999997
 30
0.0
 40
20.24
100
AcDbArc
 50
198.9655749888484
 51
210.0000000000004
  0
LINE
  5
514C
330
5118
100
AcDbEntity
  8
0
  6
Continuous
100
AcDbLine
 10
106.5899154967187
 20
-60.59350000000002
 30
0.0
 11
122.958
 21
-60.59350000000002
 31
0.0
  0
LINE
  5
514D
330
5118
100
AcDbEntity
  8
0
  6
Continuous
100
AcDbLine
 10
122.9579999999997
 20
-63.25
 30
0.0
 11
128.5239999999996
 21
-63.25
 31
0.0
  0
ARC
  5
514E
330
5118
100
AcDbEntity
  8
0
  6
Continuous
100
AcDbCircle
 10
-147.66525168321
 20
-69.82800000000001
 30
0.0
 40
20.24
210
0.0
220
0.0
230
-1.0
100
AcDbArc
 50
18.96557498884845
 51
30.00000000000054
  0
DIMENSION
  5
514F
330
5118
100
AcDbEntity
  8
0
  6
Continuous
100
AcDbDimension
280
     0
  2
*D14
 10
183.2597631627018
 20
-59.70800000000003
 30
0.0
 11
183.2597631627018
 21
-67.80399999999985
 31
0.0
 12
-659.862736842105
 22
-310.4567974937046
 32
0.0
 71
     5
 42
-1.0
 73
     0
 74
     0
 75
     0
  3
STANDARD
100
AcDbAlignedDimension
 13
156.7146833380776
 23
-75.89999999999998
 33
0.0
 14
156.7146833380776
 24
-59.708
 34
0.0
 50
270.0
100
AcDbRotatedDimension
1001
ACAD
1000
DSTYLE
1002
{
1070
   340
1005
11
1002
}
  0
ARC
  5
5150
330
5118
100
AcDbEntity
  8
0
  6
Continuous
100
AcDbCircle
 10
142.692
 20
-67.80399999999997
 30
0.0
 40
16.192
100
AcDbArc
 50
329.9999999999993
 51
30.00000000000054
  0
LINE
  5
5151
330
5118
100
AcDbEntity
  8
0
  6
Continuous
100
AcDbLine
 10
143.7039999999998
 20
-54.648
 30
0.0
 11
143.7039999999998
 21
-80.95999999999998
 31
0.0
  0
INSERT
  5
5152
330
5118
100
AcDbEntity
  8
0
100
AcDbBlockReference
  2
*U5
 10
-659.862736842105
 20
-310.4567974937046
 30
0.0
 41
2.52999999999997
 42
2.52999999999997
 43
2.52999999999997
  0
TEXT
  5
5153
330
5118
100
AcDbEntity
  8
0
  6
Continuous
100
AcDbText
 10
73.44199308533291
 20
-20.05104921046847
 30
0.0
 40
6.324999999999997
  1
Conductor overlap max.
 41
0.8002884615384539
  7
UGMTXT
100
AcDbText
  0
LINE
  5
5154
330
5118
100
AcDbEntity
  8
0
  6
Continuous
100
AcDbLine
 10
72.35799999999983
 20
65.27399999999992
 30
0.0
 11
108.2839999999998
 21
65.27399999999992
 31
0.0
  0
LINE
  5
5155
330
5118
100
AcDbEntity
  8
0
  6
Continuous
100
AcDbLine
 10
72.35799999999983
 20
70.33399999999993
 30
0.0
 11
108.2839999999998
 21
70.33399999999993
 31
0.0
  0
LINE
  5
5156
330
5118
100
AcDbEntity
  8
0
  6
Continuous
100
AcDbLine
 10
50.59999999999989
 20
67.80399999999992
 30
0.0
 11
169.0039999999999
 21
67.80399999999992
 31
0.0
  0
LINE
  5
5157
330
5118
100
AcDbEntity
  8
0
  6
Continuous
100
AcDbLine
 10
55.65999999999984
 20
60.59350000000002
 30
0.0
 11
122.9579999999995
 21
60.59350000000002
 31
0.0
  0
LINE
  5
5158
330
5118
100
AcDbEntity
  8
0
  6
Continuous
100
AcDbLine
 10
55.65999999999984
 20
75.01449999999987
 30
0.0
 11
122.9579999999995
 21
75.01449999999987
 31
0.0
  0
TEXT
  5
5159
330
5118
100
AcDbEntity
  8
0
  6
Continuous
100
AcDbText
 10
30.93228585497161
 20
113.9777903531155
 30
0.0
 40
6.324999999999997
  1
(max. t4)
 41
0.8116586538461458
  7
UGMTXT
100
AcDbText
  0
LINE
  5
515A
330
5118
100
AcDbEntity
  8
0
  6
Continuous
100
AcDbLine
 10
0.0
 20
78.43000000000012
 30
0.0
 11
55.66000000000006
 21
78.43000000000012
 31
0.0
  0
LINE
  5
515B
330
5118
100
AcDbEntity
  8
0
  6
Continuous
100
AcDbLine
 10
-15.17999999999995
 20
97.15200000000022
 30
0.0
 11
0.0
 21
97.15200000000022
 31
0.0
  0
LINE
  5
515C
330
5118
100
AcDbEntity
  8
0
  6
PHANTOM
100
AcDbLine
 10
0.0
 20
107.2720000000002
 30
0.0
 11
0.0
 21
97.15200000000022
 31
0.0
  0
LINE
  5
515D
330
5118
100
AcDbEntity
  8
0
  6
PHANTOM
100
AcDbLine
 10
0.0
 20
107.2720000000002
 30
0.0
 11
4.048000000000111
 21
102.2120000000002
 31
0.0
  0
LINE
  5
515E
330
5118
100
AcDbEntity
  8
0
  6
Continuous
100
AcDbLine
 10
72.35799999999983
 20
75.01449999999987
 30
0.0
 11
72.35799999999983
 21
60.59349999999994
 31
0.0
  0
LINE
  5
515F
330
5118
100
AcDbEntity
  8
0
  6
Continuous
100
AcDbLine
 10
77.92399999999997
 20
70.33399999999993
 30
0.0
 11
77.92399999999997
 21
65.27399999999992
 31
0.0
  0
LINE
  5
5160
330
5118
100
AcDbEntity
  8
0
  6
Continuous
100
AcDbLine
 10
122.9579999999997
 20
70.33399999999993
 30
0.0
 11
158.8839999999999
 21
70.33399999999993
 31
0.0
  0
LINE
  5
5161
330
5118
100
AcDbEntity
  8
0
  6
Continuous
100
AcDbLine
 10
122.9579999999997
 20
65.27399999999992
 30
0.0
 11
158.8839999999999
 21
65.27399999999992
 31
0.0
  0
LINE
  5
5162
330
5118
100
AcDbEntity
  8
0
  6
Continuous
100
AcDbLine
 10
93.10399999999992
 20
74.1289999999999
 30
0.0
 11
93.10399999999992
 21
61.47899999999992
 31
0.0
  0
LINE
  5
5163
330
5118
100
AcDbEntity
  8
0
  6
Continuous
100
AcDbLine
 10
108.2839999999998
 20
70.33399999999993
 30
0.0
 11
108.2839999999998
 21
65.27399999999992
 31
0.0
  0
LINE
  5
5164
330
5118
100
AcDbEntity
  8
0
  6
Continuous
100
AcDbLine
 10
122.9579999999997
 20
75.01449999999987
 30
0.0
 11
122.9579999999997
 21
60.59350000000002
 31
0.0
  0
LINE
  5
5165
330
5118
100
AcDbEntity
  8
0
  6
Continuous
100
AcDbLine
 10
128.5239999999996
 20
70.33399999999993
 30
0.0
 11
128.5239999999996
 21
65.27399999999992
 31
0.0
  0
DIMENSION
  5
5166
330
5118
100
AcDbEntity
  8
0
  6
Continuous
100
AcDbDimension
280
     0
  2
*D15
 10
183.2597631627018
 20
70.33399999999993
 30
0.0
 11
183.2597631627016
 21
67.8040000000001
 31
0.0
 12
-659.862736842105
 22
-310.4567974937046
 32
0.0
 71
     5
 42
-1.0
 73
     0
 74
     0
 75
     0
  3
STANDARD
100
AcDbAlignedDimension
 13
158.8839999999999
 23
65.27399999999992
 33
0.0
 14
158.8839999999999
 24
70.33399999999993
 34
0.0
 50
270.0
100
AcDbRotatedDimension
1001
ACAD
1000
DSTYLE
1002
{
1070
   340
1005
11
1002
}
  0
LINE
  5
5167
330
5118
100
AcDbEntity
  8
0
  6
Continuous
100
AcDbLine
 10
143.7039999999998
 20
74.1289999999999
 30
0.0
 11
143.7039999999998
 21
61.47899999999992
 31
0.0
  0
LINE
  5
5168
330
5118
100
AcDbEntity
  8
0
  6
Continuous
100
AcDbLine
 10
158.8839999999999
 20
70.33399999999993
 30
0.0
 11
158.8839999999999
 21
65.27399999999992
 31
0.0
  0
INSERT
  5
5169
330
5118
100
AcDbEntity
  8
0
100
AcDbBlockReference
  2
*U4
 10
-659.862736842105
 20
-310.4567974937046
 30
0.0
 41
2.52999999999997
 42
2.52999999999997
 43
2.52999999999997
  0
TEXT
  5
516A
330
5118
100
AcDbEntity
  8
0
  6
Continuous
100
AcDbText
 10
176.5656152757899
 20
-120.3935488900433
 30
0.0
 40
6.324999999999997
  1
turned 45
 41
0.8116586538461458
  7
UGMTXT
100
AcDbText
  0
TEXT
  5
516B
330
5118
100
AcDbEntity
  8
0
  6
Continuous
100
AcDbText
 10
176.5656152757899
 20
-110.9060488900432
 30
0.0
 40
6.324999999999997
  1
Stud can be
 41
0.8081054687499921
  7
UGMTXT
100
AcDbText
  0
TEXT
  5
516C
330
5118
100
AcDbEntity
  8
0
  6
Continuous
100
AcDbText
 10
228.5821517341229
 20
-120.3935488900433
 30
0.0
 40
6.324999999999997
  1
90
 41
0.8912499999999909
  7
UGMTXT
100
AcDbText
  0
TEXT
  5
516D
330
5118
100
AcDbEntity
  8
0
  6
Continuous
100
AcDbText
 10
223.3834426804115
 20
-120.8705475662156
 30
0.0
 40
6.324999999999997
  1
,
 41
1.189062499999988
  7
UGMTXT
100
AcDbText
  0
TEXT
  5
516E
330
5118
100
AcDbEntity
  8
0
  6
Continuous
100
AcDbText
 10
221.6905371507897
 20
-120.3935488900433
 30
0.0
 40
6.324999999999997
  1
%%d
 41
1.484374999999988
  7
UGMTXT
100
AcDbText
  0
TEXT
  5
516F
330
5118
100
AcDbEntity
  8
0
  6
Continuous
100
AcDbText
 10
238.6099121507894
 20
-120.3935488900433
 30
0.0
 40
6.324999999999997
  1
%%d
 41
1.484374999999988
  7
UGMTXT
100
AcDbText
  0
ENDBLK
  5
5171
330
5118
100
AcDbEntity
  8
0
100
AcDbBlockEnd
  0
BLOCK
  5
5213
330
5209
100
AcDbEntity
  8
0
100
AcDbBlockBegin
  2
*D17
 70
     1
 10
0.0
 20
0.0
 30
0.0
  3
*D17
  1

  0
LINE
  5
579C
330
5209
100
AcDbEntity
  8
30
  6
Continuous
 62
     0
100
AcDbLine
 10
158.0001089354263
 20
-3.499987637474178
 30
0.0
 11
158.0001089354263
 21
-172.8996379392699
 31
0.0
  0
LINE
  5
579D
330
5209
100
AcDbEntity
  8
30
  6
Continuous
 62
     0
100
AcDbLine
 10
194.9999257258451
 20
-106.9994751293082
 30
0.0
 11
194.9999257258451
 21
-172.8996379392699
 31
0.0
  0
LINE
  5
579E
330
5209
100
AcDbEntity
  8
30
  6
Continuous
 62
     0
100
AcDbLine
 10
160.0001089354264
 20
-172.3996379392698
 30
0.0
 11
192.9999257258453
 21
-172.3996379392698
 31
0.0
  0
INSERT
  5
579F
330
5209
100
AcDbEntity
  8
30
  6
Continuous
 62
     0
100
AcDbBlockReference
  2
_OPEN
 10
158.0001089354263
 20
-172.3996379392698
 30
0.0
 41
2.0
 42
2.0
 43
2.0
 50
180.0
  0
INSERT
  5
57A0
330
5209
100
AcDbEntity
  8
30
  6
Continuous
 62
     0
100
AcDbBlockReference
  2
_OPEN
 10
194.9999257258451
 20
-172.3996379392698
 30
0.0
 41
2.0
 42
2.0
 43
2.0
  0
MTEXT
  5
57A1
330
5209
100
AcDbEntity
  8
30
  6
Continuous
 62
     0
100
AcDbMText
 10
176.5000173306356
 20
-169.39963793927
 30
0.0
 40
4.0
 41
0.0
 46
0.0
 71
     5
 72
     1
  1
\A1;37
 73
     1
 44
1.0
1001
ACAD
1000
MTEXTBEGIN
1070
    73
1070
     1
1070
    44
1040
1.0
1070
    74
1070
     0
1000
MTEXTEND
  0
POINT
  5
57A2
330
5209
100
AcDbEntity
  8
DEFPOINTS
  6
Continuous
 62
     0
100
AcDbPoint
 10
158.0001089354263
 20
-2.499987637474178
 30
0.0
  0
POINT
  5
57A3
330
5209
100
AcDbEntity
  8
DEFPOINTS
  6
Continuous
 62
     0
100
AcDbPoint
 10
194.9999257258451
 20
-105.9994751293082
 30
0.0
  0
POINT
  5
57A4
330
5209
100
AcDbEntity
  8
DEFPOINTS
  6
Continuous
 62
     0
100
AcDbPoint
 10
194.9999257258451
 20
-172.3996379392698
 30
0.0
  0
ENDBLK
  5
5214
330
5209
100
AcDbEntity
  8
0
100
AcDbBlockEnd
  0
BLOCK
  5
522B
330
5221
100
AcDbEntity
  8
0
100
AcDbBlockBegin
  2
*D18
 70
     1
 10
0.0
 20
0.0
 30
0.0
  3
*D18
  1

  0
LINE
  5
57B7
330
5221
100
AcDbEntity
  8
30
  6
Continuous
 62
     0
100
AcDbLine
 10
194.9999257258451
 20
-106.9994751293082
 30
0.0
 11
194.9999257258451
 21
-172.8996379392699
 31
0.0
  0
LINE
  5
57B8
330
5221
100
AcDbEntity
  8
30
  6
Continuous
 62
     0
100
AcDbLine
 10
351.9991483230286
 20
-67.99966824211003
 30
0.0
 11
351.9991483230286
 21
-172.8996379392699
 31
0.0
  0
LINE
  5
57B9
330
5221
100
AcDbEntity
  8
30
  6
Continuous
 62
     0
100
AcDbLine
 10
196.9999257258451
 20
-172.3996379392698
 30
0.0
 11
349.9991483230286
 21
-172.3996379392698
 31
0.0
  0
INSERT
  5
57BA
330
5221
100
AcDbEntity
  8
30
  6
Continuous
 62
     0
100
AcDbBlockReference
  2
_OPEN
 10
194.9999257258451
 20
-172.3996379392698
 30
0.0
 41
2.0
 42
2.0
 43
2.0
 50
180.0
  0
INSERT
  5
57BB
330
5221
100
AcDbEntity
  8
30
  6
Continuous
 62
     0
100
AcDbBlockReference
  2
_OPEN
 10
351.9991483230286
 20
-172.3996379392698
 30
0.0
 41
2.0
 42
2.0
 43
2.0
  0
MTEXT
  5
57BC
330
5221
100
AcDbEntity
  8
30
  6
Continuous
 62
     0
100
AcDbMText
 10
273.4995370244369
 20
-169.39963793927
 30
0.0
 40
4.0
 41
0.0
 46
0.0
 71
     5
 72
     1
  1
\A1;157
 73
     1
 44
1.0
1001
ACAD
1000
MTEXTBEGIN
1070
    73
1070
     1
1070
    44
1040
1.0
1070
    74
1070
     0
1000
MTEXTEND
  0
POINT
  5
57BD
330
5221
100
AcDbEntity
  8
DEFPOINTS
  6
Continuous
 62
     0
100
AcDbPoint
 10
194.9999257258451
 20
-105.9994751293082
 30
0.0
  0
POINT
  5
57BE
330
5221
100
AcDbEntity
  8
DEFPOINTS
  6
Continuous
 62
     0
100
AcDbPoint
 10
351.9991483230286
 20
-66.99966824211003
 30
0.0
  0
POINT
  5
57BF
330
5221
100
AcDbEntity
  8
DEFPOINTS
  6
Continuous
 62
     0
100
AcDbPoint
 10
351.9991483230286
 20
-172.3996379392698
 30
0.0
  0
ENDBLK
  5
522C
330
5221
100
AcDbEntity
  8
0
100
AcDbBlockEnd
  0
BLOCK
  5
5237
330
522D
100
AcDbEntity
  8
0
100
AcDbBlockBegin
  2
*D19
 70
     1
 10
0.0
 20
0.0
 30
0.0
  3
*D19
  1

  0
LINE
  5
57C0
330
522D
100
AcDbEntity
  8
30
  6
Continuous
 62
     0
100
AcDbLine
 10
194.9999257258451
 20
-106.9994751293082
 30
0.0
 11
194.9999257258451
 21
-147.8997617295273
 31
0.0
  0
LINE
  5
57C1
330
522D
100
AcDbEntity
  8
30
  6
Continuous
 62
     0
100
AcDbLine
 10
301.9993959035433
 20
-67.99966824211003
 30
0.0
 11
301.9993959035433
 21
-147.8997617295273
 31
0.0
  0
LINE
  5
57C2
330
522D
100
AcDbEntity
  8
30
  6
Continuous
 62
     0
100
AcDbLine
 10
196.9999257258451
 20
-147.3997617295276
 30
0.0
 11
299.9993959035433
 21
-147.3997617295276
 31
0.0
  0
INSERT
  5
57C3
330
522D
100
AcDbEntity
  8
30
  6
Continuous
 62
     0
100
AcDbBlockReference
  2
_OPEN
 10
194.9999257258451
 20
-147.3997617295276
 30
0.0
 41
2.0
 42
2.0
 43
2.0
 50
180.0
  0
INSERT
  5
57C4
330
522D
100
AcDbEntity
  8
30
  6
Continuous
 62
     0
100
AcDbBlockReference
  2
_OPEN
 10
301.9993959035433
 20
-147.3997617295276
 30
0.0
 41
2.0
 42
2.0
 43
2.0
  0
MTEXT
  5
57C5
330
522D
100
AcDbEntity
  8
30
  6
Continuous
 62
     0
100
AcDbMText
 10
248.4996608146944
 20
-144.3997617295273
 30
0.0
 40
4.0
 41
0.0
 46
0.0
 71
     5
 72
     1
  1
\A1;107
 73
     1
 44
1.0
1001
ACAD
1000
MTEXTBEGIN
1070
    73
1070
     1
1070
    44
1040
1.0
1070
    74
1070
     0
1000
MTEXTEND
  0
POINT
  5
57C6
330
522D
100
AcDbEntity
  8
DEFPOINTS
  6
Continuous
 62
     0
100
AcDbPoint
 10
194.9999257258451
 20
-105.9994751293082
 30
0.0
  0
POINT
  5
57C7
330
522D
100
AcDbEntity
  8
DEFPOINTS
  6
Continuous
 62
     0
100
AcDbPoint
 10
301.9993959035433
 20
-66.99966824211003
 30
0.0
  0
POINT
  5
57C8
330
522D
100
AcDbEntity
  8
DEFPOINTS
  6
Continuous
 62
     0
100
AcDbPoint
 10
301.9993959035433
 20
-147.3997617295276
 30
0.0
  0
ENDBLK
  5
5238
330
522D
100
AcDbEntity
  8
0
100
AcDbBlockEnd
  0
BLOCK
  5
5243
330
5239
100
AcDbEntity
  8
0
100
AcDbBlockBegin
  2
*D20
 70
     1
 10
0.0
 20
0.0
 30
0.0
  3
*D20
  1

  0
LINE
  5
57A5
330
5239
100
AcDbEntity
  8
30
  6
Continuous
 62
     0
100
AcDbLine
 10
271.9995444518525
 20
-58.99970288688223
 30
0.0
 11
271.9995444518525
 21
-34.40031878568621
 31
0.0
  0
LINE
  5
57A6
330
5239
100
AcDbEntity
  8
30
  6
Continuous
 62
     0
100
AcDbLine
 10
286.9994701776981
 20
-63.49968060463591
 30
0.0
 11
286.9994701776981
 21
-34.40031878568621
 31
0.0
  0
LINE
  5
57A7
330
5239
100
AcDbEntity
  8
30
  6
Continuous
 62
     0
100
AcDbLine
 10
273.9995444518525
 20
-34.90031878568621
 30
0.0
 11
284.9994701776981
 21
-34.90031878568621
 31
0.0
  0
INSERT
  5
57A8
330
5239
100
AcDbEntity
  8
30
  6
Continuous
 62
     0
100
AcDbBlockReference
  2
_OPEN
 10
271.9995444518525
 20
-34.90031878568621
 30
0.0
 41
2.0
 42
2.0
 43
2.0
 50
180.0
  0
INSERT
  5
57A9
330
5239
100
AcDbEntity
  8
30
  6
Continuous
 62
     0
100
AcDbBlockReference
  2
_OPEN
 10
286.9994701776981
 20
-34.90031878568621
 30
0.0
 41
2.0
 42
2.0
 43
2.0
  0
MTEXT
  5
57AA
330
5239
100
AcDbEntity
  8
30
  6
Continuous
 62
     0
100
AcDbMText
 10
279.4995073147753
 20
-31.90031878568621
 30
0.0
 40
4.0
 41
0.0
 46
0.0
 71
     5
 72
     1
  1
\A1;15
 73
     1
 44
1.0
1001
ACAD
1000
MTEXTBEGIN
1070
    73
1070
     1
1070
    44
1040
1.0
1070
    74
1070
     0
1000
MTEXTEND
  0
POINT
  5
57AB
330
5239
100
AcDbEntity
  8
DEFPOINTS
  6
Continuous
 62
     0
100
AcDbPoint
 10
271.9995444518525
 20
-59.99970288688222
 30
0.0
  0
POINT
  5
57AC
330
5239
100
AcDbEntity
  8
DEFPOINTS
  6
Continuous
 62
     0
100
AcDbPoint
 10
286.9994701776981
 20
-64.49968060463591
 30
0.0
  0
POINT
  5
57AD
330
5239
100
AcDbEntity
  8
DEFPOINTS
  6
Continuous
 62
     0
100
AcDbPoint
 10
286.9994701776981
 20
-34.90031878568621
 30
0.0
  0
ENDBLK
  5
5244
330
5239
100
AcDbEntity
  8
0
100
AcDbBlockEnd
  0
BLOCK
  5
524F
330
5245
100
AcDbEntity
  8
0
100
AcDbBlockBegin
  2
*D21
 70
     1
 10
0.0
 20
0.0
 30
0.0
  3
*D21
  1

  0
LINE
  5
57C9
330
5245
100
AcDbEntity
  8
30
  6
Continuous
 62
     0
100
AcDbLine
 10
180.0
 20
-96.99952464541119
 30
0.0
 11
180.0
 21
-147.8997617295273
 31
0.0
  0
LINE
  5
57CA
330
5245
100
AcDbEntity
  8
30
  6
Continuous
 62
     0
100
AcDbLine
 10
194.9999257258451
 20
-106.9994751293082
 30
0.0
 11
194.9999257258451
 21
-147.8997617295273
 31
0.0
  0
LINE
  5
57CB
330
5245
100
AcDbEntity
  8
30
  6
Continuous
 62
     0
100
AcDbLine
 10
182.0
 20
-147.3997617295276
 30
0.0
 11
192.9999257258453
 21
-147.3997617295276
 31
0.0
  0
INSERT
  5
57CC
330
5245
100
AcDbEntity
  8
30
  6
Continuous
 62
     0
100
AcDbBlockReference
  2
_OPEN
 10
180.0
 20
-147.3997617295276
 30
0.0
 41
2.0
 42
2.0
 43
2.0
 50
180.0
  0
INSERT
  5
57CD
330
5245
100
AcDbEntity
  8
30
  6
Continuous
 62
     0
100
AcDbBlockReference
  2
_OPEN
 10
194.9999257258451
 20
-147.3997617295276
 30
0.0
 41
2.0
 42
2.0
 43
2.0
  0
MTEXT
  5
57CE
330
5245
100
AcDbEntity
  8
30
  6
Continuous
 62
     0
100
AcDbMText
 10
187.4999628629225
 20
-144.3997617295273
 30
0.0
 40
4.0
 41
0.0
 46
0.0
 71
     5
 72
     1
  1
\A1;15
 73
     1
 44
1.0
1001
ACAD
1000
MTEXTBEGIN
1070
    73
1070
     1
1070
    44
1040
1.0
1070
    74
1070
     0
1000
MTEXTEND
  0
POINT
  5
57CF
330
5245
100
AcDbEntity
  8
DEFPOINTS
  6
Continuous
 62
     0
100
AcDbPoint
 10
180.0
 20
-95.99952464541123
 30
0.0
  0
POINT
  5
57D0
330
5245
100
AcDbEntity
  8
DEFPOINTS
  6
Continuous
 62
     0
100
AcDbPoint
 10
194.9999257258451
 20
-105.9994751293082
 30
0.0
  0
POINT
  5
57D1
330
5245
100
AcDbEntity
  8
DEFPOINTS
  6
Continuous
 62
     0
100
AcDbPoint
 10
194.9999257258451
 20
-147.3997617295276
 30
0.0
  0
ENDBLK
  5
5250
330
5245
100
AcDbEntity
  8
0
100
AcDbBlockEnd
  0
BLOCK
  5
525B
330
5251
100
AcDbEntity
  8
0
100
AcDbBlockBegin
  2
*D22
 70
     1
 10
0.0
 20
0.0
 30
0.0
  3
*D22
  1

  0
LINE
  5
57DB
330
5251
100
AcDbEntity
  8
30
  6
Continuous
 62
     0
100
AcDbLine
 10
336.9992225971831
 20
-70.49965587958424
 30
0.0
 11
336.9992225971831
 21
-122.8998855197852
 31
0.0
  0
LINE
  5
57DC
330
5251
100
AcDbEntity
  8
30
  6
Continuous
 62
     0
100
AcDbLine
 10
351.9991483230286
 20
-77.28671009944187
 30
0.0
 11
351.9991483230286
 21
-122.8998855197852
 31
0.0
  0
LINE
  5
57DD
330
5251
100
AcDbEntity
  8
30
  6
Continuous
 62
     0
100
AcDbLine
 10
338.9992225971831
 20
-122.3998855197852
 30
0.0
 11
349.9991483230286
 21
-122.3998855197852
 31
0.0
  0
INSERT
  5
57DE
330
5251
100
AcDbEntity
  8
30
  6
Continuous
 62
     0
100
AcDbBlockReference
  2
_OPEN
 10
336.9992225971831
 20
-122.3998855197852
 30
0.0
 41
2.0
 42
2.0
 43
2.0
 50
180.0
  0
INSERT
  5
57DF
330
5251
100
AcDbEntity
  8
30
  6
Continuous
 62
     0
100
AcDbBlockReference
  2
_OPEN
 10
351.9991483230286
 20
-122.3998855197852
 30
0.0
 41
2.0
 42
2.0
 43
2.0
  0
MTEXT
  5
57E0
330
5251
100
AcDbEntity
  8
30
  6
Continuous
 62
     0
100
AcDbMText
 10
344.4991854601058
 20
-119.3998855197851
 30
0.0
 40
4.0
 41
0.0
 46
0.0
 71
     5
 72
     1
  1
\A1;15
 73
     1
 44
1.0
1001
ACAD
1000
MTEXTBEGIN
1070
    73
1070
     1
1070
    44
1040
1.0
1070
    74
1070
     0
1000
MTEXTEND
  0
POINT
  5
57E1
330
5251
100
AcDbEntity
  8
DEFPOINTS
  6
Continuous
 62
     0
100
AcDbPoint
 10
336.9992225971831
 20
-69.49965587958423
 30
0.0
  0
POINT
  5
57E2
330
5251
100
AcDbEntity
  8
DEFPOINTS
  6
Continuous
 62
     0
100
AcDbPoint
 10
351.9991483230286
 20
-76.28671009944188
 30
0.0
  0
POINT
  5
57E3
330
5251
100
AcDbEntity
  8
DEFPOINTS
  6
Continuous
 62
     0
100
AcDbPoint
 10
351.9991483230286
 20
-122.3998855197852
 30
0.0
  0
ENDBLK
  5
525C
330
5251
100
AcDbEntity
  8
0
100
AcDbBlockEnd
  0
BLOCK
  5
5267
330
525D
100
AcDbEntity
  8
0
100
AcDbBlockBegin
  2
*D23
 70
     1
 10
0.0
 20
0.0
 30
0.0
  3
*D23
  1

  0
LINE
  5
57D2
330
525D
100
AcDbEntity
  8
30
  6
Continuous
 62
     0
100
AcDbLine
 10
286.9994701776981
 20
-70.49965587958424
 30
0.0
 11
286.9994701776981
 21
-122.8998855197852
 31
0.0
  0
LINE
  5
57D3
330
525D
100
AcDbEntity
  8
30
  6
Continuous
 62
     0
100
AcDbLine
 10
301.9993959035433
 20
-77.28671009944187
 30
0.0
 11
301.9993959035433
 21
-122.8998855197852
 31
0.0
  0
LINE
  5
57D4
330
525D
100
AcDbEntity
  8
30
  6
Continuous
 62
     0
100
AcDbLine
 10
288.9994701776982
 20
-122.3998855197852
 30
0.0
 11
299.9993959035433
 21
-122.3998855197852
 31
0.0
  0
INSERT
  5
57D5
330
525D
100
AcDbEntity
  8
30
  6
Continuous
 62
     0
100
AcDbBlockReference
  2
_OPEN
 10
286.9994701776981
 20
-122.3998855197852
 30
0.0
 41
2.0
 42
2.0
 43
2.0
 50
180.0
  0
INSERT
  5
57D6
330
525D
100
AcDbEntity
  8
30
  6
Continuous
 62
     0
100
AcDbBlockReference
  2
_OPEN
 10
301.9993959035433
 20
-122.3998855197852
 30
0.0
 41
2.0
 42
2.0
 43
2.0
  0
MTEXT
  5
57D7
330
525D
100
AcDbEntity
  8
30
  6
Continuous
 62
     0
100
AcDbMText
 10
294.4994330406208
 20
-119.3998855197851
 30
0.0
 40
4.0
 41
0.0
 46
0.0
 71
     5
 72
     1
  1
\A1;15
 73
     1
 44
1.0
1001
ACAD
1000
MTEXTBEGIN
1070
    73
1070
     1
1070
    44
1040
1.0
1070
    74
1070
     0
1000
MTEXTEND
  0
POINT
  5
57D8
330
525D
100
AcDbEntity
  8
DEFPOINTS
  6
Continuous
 62
     0
100
AcDbPoint
 10
286.9994701776981
 20
-69.49965587958423
 30
0.0
  0
POINT
  5
57D9
330
525D
100
AcDbEntity
  8
DEFPOINTS
  6
Continuous
 62
     0
100
AcDbPoint
 10
301.9993959035433
 20
-76.28671009944188
 30
0.0
  0
POINT
  5
57DA
330
525D
100
AcDbEntity
  8
DEFPOINTS
  6
Continuous
 62
     0
100
AcDbPoint
 10
301.9993959035433
 20
-122.3998855197852
 30
0.0
  0
ENDBLK
  5
5268
330
525D
100
AcDbEntity
  8
0
100
AcDbBlockEnd
  0
BLOCK
  5
5273
330
5269
100
AcDbEntity
  8
0
100
AcDbBlockBegin
  2
*D24
 70
     1
 10
0.0
 20
0.0
 30
0.0
  3
*D24
  1

  0
LINE
  5
57E4
330
5269
100
AcDbEntity
  8
30
  6
Continuous
 62
     0
100
AcDbLine
 10
350.8555653978195
 20
-74.99962862922766
 30
0.0
 11
376.585751547754
 21
-74.99962862922767
 31
0.0
  0
LINE
  5
57E5
330
5269
100
AcDbEntity
  8
30
  6
Continuous
 62
     0
100
AcDbLine
 10
350.8555653978195
 20
-58.99970785499242
 30
0.0
 11
376.585751547754
 21
-58.99970785499243
 31
0.0
  0
LINE
  5
57E6
330
5269
100
AcDbEntity
  8
30
  6
Continuous
 62
     0
100
AcDbLine
 10
376.0857515477538
 20
-72.99962862922767
 30
0.0
 11
376.0857515477538
 21
-60.99970785499243
 31
0.0
  0
INSERT
  5
57E7
330
5269
100
AcDbEntity
  8
30
  6
Continuous
 62
     0
100
AcDbBlockReference
  2
_OPEN
 10
376.0857515477538
 20
-74.99962862922767
 30
0.0
 41
2.0
 42
2.0
 43
2.0
 50
270.0
  0
INSERT
  5
57E8
330
5269
100
AcDbEntity
  8
30
  6
Continuous
 62
     0
100
AcDbBlockReference
  2
_OPEN
 10
376.0857515477538
 20
-58.99970785499243
 30
0.0
 41
2.0
 42
2.0
 43
2.0
 50
90.0
  0
MTEXT
  5
57E9
330
5269
100
AcDbEntity
  8
30
  6
Continuous
 62
     0
100
AcDbMText
 10
373.085751547754
 20
-66.99966824210999
 30
0.0
 40
4.0
 41
0.0
 46
0.0
 71
     5
 72
     1
  1
\A1;16
 11
0.0000000000000001
 21
1.0
 31
0.0
 73
     1
 44
1.0
1001
ACAD
1000
MTEXTBEGIN
1070
    73
1070
     1
1070
    44
1040
1.0
1070
    74
1070
     0
1000
MTEXTEND
  0
POINT
  5
57EA
330
5269
100
AcDbEntity
  8
DEFPOINTS
  6
Continuous
 62
     0
100
AcDbPoint
 10
349.8555653978196
 20
-74.99962862922766
 30
0.0
  0
POINT
  5
57EB
330
5269
100
AcDbEntity
  8
DEFPOINTS
  6
Continuous
 62
     0
100
AcDbPoint
 10
349.8555653978196
 20
-58.99970785499242
 30
0.0
  0
POINT
  5
57EC
330
5269
100
AcDbEntity
  8
DEFPOINTS
  6
Continuous
 62
     0
100
AcDbPoint
 10
376.0857515477538
 20
-58.99970785499243
 30
0.0
  0
ENDBLK
  5
5274
330
5269
100
AcDbEntity
  8
0
100
AcDbBlockEnd
  0
BLOCK
  5
5281
330
5275
100
AcDbEntity
  8
0
100
AcDbBlockBegin
  2
*D25
 70
     1
 10
0.0
 20
0.0
 30
0.0
  3
*D25
  1

  0
LINE
  5
57ED
330
5275
100
AcDbEntity
  8
30
  6
Continuous
 62
     0
100
AcDbLine
 10
352.9991483230286
 20
64.49968062113573
 30
0.0
 11
374.2524182144206
 21
64.49968062113573
 31
0.0
  0
LINE
  5
57EE
330
5275
100
AcDbEntity
  8
30
  6
Continuous
 62
     0
100
AcDbLine
 10
352.9991483230286
 20
69.49965586308421
 30
0.0
 11
374.2524182144206
 21
69.49965586308421
 31
0.0
  0
LINE
  5
57EF
330
5275
100
AcDbEntity
  8
30
  6
Continuous
 62
     0
100
AcDbLine
 10
373.7524182144206
 20
62.49968062113573
 30
0.0
 11
373.7524182144206
 21
60.49968062113574
 31
0.0
  0
LINE
  5
57F0
330
5275
100
AcDbEntity
  8
30
  6
Continuous
 62
     0
100
AcDbLine
 10
373.7524182144206
 20
71.49965586308423
 30
0.0
 11
373.7524182144206
 21
73.49965586308425
 31
0.0
  0
LINE
  5
57F1
330
5275
100
AcDbEntity
  8
30
  6
Continuous
 62
     0
100
AcDbLine
 10
373.7524182144206
 20
73.49965586308425
 30
0.0
 11
377.4190848810873
 21
73.49965586308425
 31
0.0
  0
INSERT
  5
57F2
330
5275
100
AcDbEntity
  8
30
  6
Continuous
 62
     0
100
AcDbBlockReference
  2
_OPEN
 10
373.7524182144206
 20
64.49968062113573
 30
0.0
 41
2.0
 42
2.0
 43
2.0
 50
90.0
  0
INSERT
  5
57F3
330
5275
100
AcDbEntity
  8
30
  6
Continuous
 62
     0
100
AcDbBlockReference
  2
_OPEN
 10
373.7524182144206
 20
69.49965586308421
 30
0.0
 41
2.0
 42
2.0
 43
2.0
 50
270.0
  0
MTEXT
  5
57F4
330
5275
100
AcDbEntity
  8
30
  6
Continuous
 62
     0
100
AcDbMText
 10
376.0857515477538
 20
76.4996558630843
 30
0.0
 40
4.0
 41
0.0
 46
0.0
 71
     5
 72
     1
  1
\A1;5
 73
     1
 44
1.0
1001
ACAD
1000
MTEXTBEGIN
1070
    73
1070
     1
1070
    44
1040
1.0
1070
    74
1070
     0
1000
MTEXTEND
  0
POINT
  5
57F5
330
5275
100
AcDbEntity
  8
DEFPOINTS
  6
Continuous
 62
     0
100
AcDbPoint
 10
351.9991483230286
 20
64.49968062113575
 30
0.0
  0
POINT
  5
57F6
330
5275
100
AcDbEntity
  8
DEFPOINTS
  6
Continuous
 62
     0
100
AcDbPoint
 10
351.9991483230286
 20
69.49965586308424
 30
0.0
  0
POINT
  5
57F7
330
5275
100
AcDbEntity
  8
DEFPOINTS
  6
Continuous
 62
     0
100
AcDbPoint
 10
373.7524182144206
 20
69.49965586308421
 30
0.0
  0
ENDBLK
  5
5282
330
5275
100
AcDbEntity
  8
0
100
AcDbBlockEnd
  0
BLOCK
  5
5411
330
5407
100
AcDbEntity
  8
0
100
AcDbBlockBegin
  2
*D26
 70
     1
 10
0.0
 20
0.0
 30
0.0
  3
*D26
  1

  0
LINE
  5
5923
330
5407
100
AcDbEntity
  8
30
  6
Continuous
 62
     0
440
 16777216
100
AcDbLine
 10
-70.50000000000015
 20
-286.5000000165001
 30
0.0
 11
-70.50000000000015
 21
-401.4004915993198
 31
0.0
  0
LINE
  5
5924
330
5407
100
AcDbEntity
  8
30
  6
Continuous
 62
     0
440
 16777216
100
AcDbLine
 10
100.4999999999997
 20
-286.5000000165001
 30
0.0
 11
100.4999999999997
 21
-401.4004915993198
 31
0.0
  0
LINE
  5
5925
330
5407
100
AcDbEntity
  8
30
  6
Continuous
 62
     0
440
 16777216
100
AcDbLine
 10
-68.50000000000015
 20
-400.9004915993198
 30
0.0
 11
98.49999999999972
 21
-400.9004915993198
 31
0.0
  0
INSERT
  5
5926
330
5407
100
AcDbEntity
  8
30
  6
Continuous
 62
     0
440
 16777216
100
AcDbBlockReference
  2
_OPEN
 10
-70.50000000000015
 20
-400.9004915993198
 30
0.0
 41
2.0
 42
2.0
 43
2.0
 50
180.0
  0
INSERT
  5
5927
330
5407
100
AcDbEntity
  8
30
  6
Continuous
 62
     0
440
 16777216
100
AcDbBlockReference
  2
_OPEN
 10
100.4999999999997
 20
-400.9004915993198
 30
0.0
 41
2.0
 42
2.0
 43
2.0
  0
MTEXT
  5
5928
330
5407
100
AcDbEntity
  8
30
  6
Continuous
 62
     0
440
 16777216
100
AcDbMText
 10
14.99999999999976
 20
-397.9004915993198
 30
0.0
 40
4.0
 41
0.0
 46
0.0
 71
     5
 72
     1
  1
\A1;171
 73
     1
 44
1.0
1001
ACAD
1000
MTEXTBEGIN
1070
    73
1070
     1
1070
    44
1040
1.0
1070
    74
1070
     0
1000
MTEXTEND
  0
POINT
  5
5929
330
5407
100
AcDbEntity
  8
DEFPOINTS
  6
Continuous
 62
     0
440
 16777216
100
AcDbPoint
 10
-70.50000000000015
 20
-285.5000000165001
 30
0.0
  0
POINT
  5
592A
330
5407
100
AcDbEntity
  8
DEFPOINTS
  6
Continuous
 62
     0
440
 16777216
100
AcDbPoint
 10
100.4999999999997
 20
-285.5000000165001
 30
0.0
  0
POINT
  5
592B
330
5407
100
AcDbEntity
  8
DEFPOINTS
  6
Continuous
 62
     0
440
 16777216
100
AcDbPoint
 10
100.4999999999997
 20
-400.9004915993198
 30
0.0
  0
ENDBLK
  5
5412
330
5407
100
AcDbEntity
  8
0
100
AcDbBlockEnd
  0
BLOCK
  5
541D
330
5413
100
AcDbEntity
  8
0
100
AcDbBlockBegin
  2
*D27
 70
     1
 10
0.0
 20
0.0
 30
0.0
  3
*D27
  1

  0
LINE
  5
592C
330
5413
100
AcDbEntity
  8
30
  6
Continuous
 62
     0
440
 16777216
100
AcDbLine
 10
-65.49999999999996
 20
-341.5
 30
0.0
 11
-65.49999999999996
 21
-376.4004915993198
 31
0.0
  0
LINE
  5
592D
330
5413
100
AcDbEntity
  8
30
  6
Continuous
 62
     0
440
 16777216
100
AcDbLine
 10
95.50000000000002
 20
-341.5
 30
0.0
 11
95.50000000000002
 21
-376.4004915993198
 31
0.0
  0
LINE
  5
592E
330
5413
100
AcDbEntity
  8
30
  6
Continuous
 62
     0
440
 16777216
100
AcDbLine
 10
-63.49999999999996
 20
-375.9004915993198
 30
0.0
 11
93.50000000000004
 21
-375.9004915993198
 31
0.0
  0
INSERT
  5
592F
330
5413
100
AcDbEntity
  8
30
  6
Continuous
 62
     0
440
 16777216
100
AcDbBlockReference
  2
_OPEN
 10
-65.49999999999996
 20
-375.9004915993198
 30
0.0
 41
2.0
 42
2.0
 43
2.0
 50
180.0
  0
INSERT
  5
5930
330
5413
100
AcDbEntity
  8
30
  6
Continuous
 62
     0
440
 16777216
100
AcDbBlockReference
  2
_OPEN
 10
95.50000000000002
 20
-375.9004915993198
 30
0.0
 41
2.0
 42
2.0
 43
2.0
  0
MTEXT
  5
5931
330
5413
100
AcDbEntity
  8
30
  6
Continuous
 62
     0
440
 16777216
100
AcDbMText
 10
15.00000000000001
 20
-372.9004915993198
 30
0.0
 40
4.0
 41
0.0
 46
0.0
 71
     5
 72
     1
  1
\A1;161
 73
     1
 44
1.0
1001
ACAD
1000
MTEXTBEGIN
1070
    73
1070
     1
1070
    44
1040
1.0
1070
    74
1070
     0
1000
MTEXTEND
  0
POINT
  5
5932
330
5413
100
AcDbEntity
  8
DEFPOINTS
  6
Continuous
 62
     0
440
 16777216
100
AcDbPoint
 10
-65.49999999999996
 20
-340.5
 30
0.0
  0
POINT
  5
5933
330
5413
100
AcDbEntity
  8
DEFPOINTS
  6
Continuous
 62
     0
440
 16777216
100
AcDbPoint
 10
95.50000000000002
 20
-340.5
 30
0.0
  0
POINT
  5
5934
330
5413
100
AcDbEntity
  8
DEFPOINTS
  6
Continuous
 62
     0
440
 16777216
100
AcDbPoint
 10
95.50000000000002
 20
-375.9004915993198
 30
0.0
  0
ENDBLK
  5
541E
330
5413
100
AcDbEntity
  8
0
100
AcDbBlockEnd
  0
BLOCK
  5
543C
330
5432
100
AcDbEntity
  8
0
100
AcDbBlockBegin
  2
*D28
 70
     1
 10
0.0
 20
0.0
 30
0.0
  3
*D28
  1

  0
LINE
  5
5831
330
5432
100
AcDbEntity
  8
30
  6
Continuous
 62
     0
100
AcDbLine
 10
-29.96000000000011
 20
271.3553751724501
 30
0.0
 11
-29.96000000000011
 21
326.6448107631839
 31
0.0
  0
LINE
  5
5832
330
5432
100
AcDbEntity
  8
30
  6
Continuous
 62
     0
100
AcDbLine
 10
0.0000000000000001
 20
322.3953751724502
 30
0.0
 11
0.0000000000000003
 21
326.6448107631839
 31
0.0
  0
LINE
  5
5833
330
5432
100
AcDbEntity
  8
30
  6
Continuous
 62
     0
100
AcDbLine
 10
-27.96000000000011
 20
326.1448107631839
 30
0.0
 11
-1.999999999999999
 21
326.1448107631839
 31
0.0
  0
INSERT
  5
5834
330
5432
100
AcDbEntity
  8
30
  6
Continuous
 62
     0
100
AcDbBlockReference
  2
_OPEN
 10
-29.96000000000011
 20
326.1448107631839
 30
0.0
 41
2.0
 42
2.0
 43
2.0
 50
180.0
  0
INSERT
  5
5835
330
5432
100
AcDbEntity
  8
30
  6
Continuous
 62
     0
100
AcDbBlockReference
  2
_OPEN
 10
0.0000000000000003
 20
326.1448107631839
 30
0.0
 41
2.0
 42
2.0
 43
2.0
  0
MTEXT
  5
5836
330
5432
100
AcDbEntity
  8
30
  6
Continuous
 62
     0
100
AcDbMText
 10
-14.98000000000005
 20
329.1448107631838
 30
0.0
 40
4.0
 41
0.0
 46
0.0
 71
     5
 72
     1
  1
\A1;30
 73
     1
 44
1.0
1001
ACAD
1000
MTEXTBEGIN
1070
    73
1070
     1
1070
    44
1040
1.0
1070
    74
1070
     0
1000
MTEXTEND
  0
POINT
  5
5837
330
5432
100
AcDbEntity
  8
DEFPOINTS
  6
Continuous
 62
     0
100
AcDbPoint
 10
-29.96000000000011
 20
270.3553751724502
 30
0.0
  0
POINT
  5
5838
330
5432
100
AcDbEntity
  8
DEFPOINTS
  6
Continuous
 62
     0
100
AcDbPoint
 10
0.0
 20
321.3953751724502
 30
0.0
  0
POINT
  5
5839
330
5432
100
AcDbEntity
  8
DEFPOINTS
  6
Continuous
 62
     0
100
AcDbPoint
 10
0.0000000000000003
 20
326.1448107631839
 30
0.0
  0
ENDBLK
  5
543D
330
5432
100
AcDbEntity
  8
0
100
AcDbBlockEnd
  0
BLOCK
  5
5448
330
543F
100
AcDbEntity
  8
0
100
AcDbBlockBegin
  2
*D29
 70
     1
 10
0.0
 20
0.0
 30
0.0
  3
*D29
  1

  0
LINE
  5
5829
330
543F
100
AcDbEntity
  8
30
  6
Continuous
 62
     0
100
AcDbLine
 10
29.95999999999989
 20
271.7953751724501
 30
0.0
 11
29.9599999999999
 21
326.6448107631839
 31
0.0
  0
LINE
  5
582A
330
543F
100
AcDbEntity
  8
30
  6
Continuous
 62
     0
100
AcDbLine
 10
2.0
 20
326.1448107631839
 30
0.0
 11
27.9599999999999
 21
326.1448107631839
 31
0.0
  0
INSERT
  5
582B
330
543F
100
AcDbEntity
  8
30
  6
Continuous
 62
     0
100
AcDbBlockReference
  2
_OPEN
 10
0.0
 20
326.1448107631839
 30
0.0
 41
2.0
 42
2.0
 43
2.0
 50
180.0
  0
INSERT
  5
582C
330
543F
100
AcDbEntity
  8
30
  6
Continuous
 62
     0
100
AcDbBlockReference
  2
_OPEN
 10
29.9599999999999
 20
326.1448107631839
 30
0.0
 41
2.0
 42
2.0
 43
2.0
  0
MTEXT
  5
582D
330
543F
100
AcDbEntity
  8
30
  6
Continuous
 62
     0
100
AcDbMText
 10
14.97999999999995
 20
329.1448107631838
 30
0.0
 40
4.0
 41
0.0
 46
0.0
 71
     5
 72
     1
  1
\A1;30
 73
     1
 44
1.0
1001
ACAD
1000
MTEXTBEGIN
1070
    73
1070
     1
1070
    44
1040
1.0
1070
    74
1070
     0
1000
MTEXTEND
  0
POINT
  5
582E
330
543F
100
AcDbEntity
  8
DEFPOINTS
  6
Continuous
 62
     0
100
AcDbPoint
 10
0.0
 20
326.6448107631839
 30
0.0
  0
POINT
  5
582F
330
543F
100
AcDbEntity
  8
DEFPOINTS
  6
Continuous
 62
     0
100
AcDbPoint
 10
29.95999999999989
 20
270.7953751724502
 30
0.0
  0
POINT
  5
5830
330
543F
100
AcDbEntity
  8
DEFPOINTS
  6
Continuous
 62
     0
100
AcDbPoint
 10
29.9599999999999
 20
326.1448107631839
 30
0.0
  0
ENDBLK
  5
5449
330
543F
100
AcDbEntity
  8
0
100
AcDbBlockEnd
  0
BLOCK
  5
5481
330
5477
100
AcDbEntity
  8
0
100
AcDbBlockBegin
  2
*D30
 70
     1
 10
0.0
 20
0.0
 30
0.0
  3
*D30
  1

  0
LINE
  5
58F7
330
5477
100
AcDbEntity
  8
30
  6
Continuous
 62
     0
440
 16777216
100
AcDbLine
 10
-80.99948019072272
 20
-96.2647216513492
 30
0.0
 11
-80.99948019072272
 21
-124.7815389722079
 31
0.0
  0
LINE
  5
58F8
330
5477
100
AcDbEntity
  8
30
  6
Continuous
 62
     0
440
 16777216
100
AcDbLine
 10
111.0
 20
-96.2647216513492
 30
0.0
 11
111.0
 21
-124.7815389722079
 31
0.0
  0
LINE
  5
58F9
330
5477
100
AcDbEntity
  8
30
  6
Continuous
 62
     0
440
 16777216
100
AcDbLine
 10
-78.99948019072272
 20
-124.2815389722079
 30
0.0
 11
109.0
 21
-124.2815389722079
 31
0.0
  0
INSERT
  5
58FA
330
5477
100
AcDbEntity
  8
30
  6
Continuous
 62
     0
440
 16777216
100
AcDbBlockReference
  2
_OPEN
 10
-80.99948019072272
 20
-124.2815389722079
 30
0.0
 41
2.0
 42
2.0
 43
2.0
 50
180.0
  0
INSERT
  5
58FB
330
5477
100
AcDbEntity
  8
30
  6
Continuous
 62
     0
440
 16777216
100
AcDbBlockReference
  2
_OPEN
 10
111.0
 20
-124.2815389722079
 30
0.0
 41
2.0
 42
2.0
 43
2.0
  0
MTEXT
  5
58FC
330
5477
100
AcDbEntity
  8
30
  6
Continuous
 62
     0
440
 16777216
100
AcDbMText
 10
15.00025990463869
 20
-121.2815389722079
 30
0.0
 40
4.0
 41
0.0
 46
0.0
 71
     5
 72
     1
  1
\A1;192
 73
     1
 44
1.0
1001
ACAD
1000
MTEXTBEGIN
1070
    73
1070
     1
1070
    44
1040
1.0
1070
    74
1070
     0
1000
MTEXTEND
  0
POINT
  5
58FD
330
5477
100
AcDbEntity
  8
DEFPOINTS
  6
Continuous
 62
     0
440
 16777216
100
AcDbPoint
 10
-80.99948019072272
 20
-95.2647216513492
 30
0.0
  0
POINT
  5
58FE
330
5477
100
AcDbEntity
  8
DEFPOINTS
  6
Continuous
 62
     0
440
 16777216
100
AcDbPoint
 10
111.0
 20
-95.2647216513492
 30
0.0
  0
POINT
  5
58FF
330
5477
100
AcDbEntity
  8
DEFPOINTS
  6
Continuous
 62
     0
440
 16777216
100
AcDbPoint
 10
111.0
 20
-124.2815389722079
 30
0.0
  0
ENDBLK
  5
5482
330
5477
100
AcDbEntity
  8
0
100
AcDbBlockEnd
  0
BLOCK
  5
548E
330
5484
100
AcDbEntity
  8
0
100
AcDbBlockBegin
  2
*D31
 70
     1
 10
0.0
 20
0.0
 30
0.0
  3
*D31
  1

  0
LINE
  5
5900
330
5484
100
AcDbEntity
  8
30
  6
Continuous
 62
     0
440
 16777216
100
AcDbLine
 10
111.2693634927873
 20
95.99968215483697
 30
0.0
 11
131.4236543708355
 21
95.99968215483697
 31
0.0
  0
LINE
  5
5901
330
5484
100
AcDbEntity
  8
30
  6
Continuous
 62
     0
440
 16777216
100
AcDbLine
 10
111.2693634927873
 20
-95.9996821548369
 30
0.0
 11
131.4236543708354
 21
-95.9996821548369
 31
0.0
  0
LINE
  5
5902
330
5484
100
AcDbEntity
  8
30
  6
Continuous
 62
     0
440
 16777216
100
AcDbLine
 10
130.9236543708355
 20
93.99968215483696
 30
0.0
 11
130.9236543708354
 21
-93.9996821548369
 31
0.0
  0
INSERT
  5
5903
330
5484
100
AcDbEntity
  8
30
  6
Continuous
 62
     0
440
 16777216
100
AcDbBlockReference
  2
_OPEN
 10
130.9236543708355
 20
95.99968215483697
 30
0.0
 41
2.0
 42
2.0
 43
2.0
 50
90.0
  0
INSERT
  5
5904
330
5484
100
AcDbEntity
  8
30
  6
Continuous
 62
     0
440
 16777216
100
AcDbBlockReference
  2
_OPEN
 10
130.9236543708354
 20
-95.9996821548369
 30
0.0
 41
2.0
 42
2.0
 43
2.0
 50
270.0
  0
MTEXT
  5
5905
330
5484
100
AcDbEntity
  8
30
  6
Continuous
 62
     0
440
 16777216
100
AcDbMText
 10
127.9236543708357
 20
0.0000000000000492
 30
0.0
 40
4.0
 41
0.0
 46
0.0
 71
     5
 72
     1
  1
\A1;192
 11
0.0000000000000001
 21
1.0
 31
0.0
 73
     1
 44
1.0
1001
ACAD
1000
MTEXTBEGIN
1070
    73
1070
     1
1070
    44
1040
1.0
1070
    74
1070
     0
1000
MTEXTEND
  0
POINT
  5
5906
330
5484
100
AcDbEntity
  8
DEFPOINTS
  6
Continuous
 62
     0
440
 16777216
100
AcDbPoint
 10
110.2693634927873
 20
95.99968215483697
 30
0.0
  0
POINT
  5
5907
330
5484
100
AcDbEntity
  8
DEFPOINTS
  6
Continuous
 62
     0
440
 16777216
100
AcDbPoint
 10
110.2693634927873
 20
-95.9996821548369
 30
0.0
  0
POINT
  5
5908
330
5484
100
AcDbEntity
  8
DEFPOINTS
  6
Continuous
 62
     0
440
 16777216
100
AcDbPoint
 10
130.9236543708354
 20
-95.9996821548369
 30
0.0
  0
ENDBLK
  5
548F
330
5484
100
AcDbEntity
  8
0
100
AcDbBlockEnd
  0
BLOCK
  5
54E2
330
54D9
100
AcDbEntity
  8
0
100
AcDbBlockBegin
  2
*D32
 70
     1
 10
0.0
 20
0.0
 30
0.0
  3
*D32
  1

  0
LINE
  5
5935
330
54D9
100
AcDbEntity
  8
30
  6
Continuous
 62
     0
440
 16777216
100
AcDbLine
 10
133.5311491872793
 20
-202.2099931008078
 30
0.0
 11
125.8644731905097
 21
-202.2099931008078
 31
0.0
  0
LINE
  5
5936
330
54D9
100
AcDbEntity
  8
30
  6
Continuous
 62
     0
440
 16777216
100
AcDbLine
 10
125.8644731905097
 20
-202.2099931008078
 30
0.0
 11
103.2575416949538
 21
-213.2888791787248
 31
0.0
  0
MTEXT
  5
5937
102
{ACAD_XDICTIONARY
360
5EFC
102
}
330
54D9
100
AcDbEntity
  8
30
  6
Continuous
 62
     0
440
 16777216
100
AcDbMText
 10
130.197815853946
 20
-199.209993100808
 30
0.0
 40
4.0
 41
0.0
 46
0.0
 71
     5
 72
     1
  1
\A1;∅6
 73
     1
 44
1.0
1001
ACAD
1000
MTEXTBEGIN
1070
    73
1070
     1
1070
    44
1040
1.0
1070
    74
1070
     0
1000
MTEXTEND
  0
INSERT
  5
5938
330
54D9
100
AcDbEntity
  8
30
  6
Continuous
 62
     0
440
 16777216
100
AcDbBlockReference
  2
_OPEN
 10
101.461607853946
 20
-214.169005100808
 30
0.0
 41
2.0
 42
2.0
 43
2.0
 50
206.1078983677154
  0
LINE
  5
5939
330
54D9
100
AcDbEntity
  8
30
  6
Continuous
 62
     0
440
 16777216
100
AcDbLine
 10
98.67770685394608
 20
-215.489194100808
 30
0.0
 11
98.85770685394607
 21
-215.489194100808
 31
0.0
  0
LINE
  5
593A
330
54D9
100
AcDbEntity
  8
30
  6
Continuous
 62
     0
440
 16777216
100
AcDbLine
 10
98.76770685394609
 20
-215.5791941008081
 30
0.0
 11
98.76770685394609
 21
-215.3991941008081
 31
0.0
  0
POINT
  5
593B
330
54D9
100
AcDbEntity
  8
DEFPOINTS
  6
Continuous
 62
     0
440
 16777216
100
AcDbPoint
 10
101.461607853946
 20
-214.169005100808
 30
0.0
  0
POINT
  5
593C
330
54D9
100
AcDbEntity
  8
DEFPOINTS
  6
Continuous
 62
     0
440
 16777216
100
AcDbPoint
 10
96.07380585394606
 20
-216.8093831008082
 30
0.0
  0
ENDBLK
  5
54E3
330
54D9
100
AcDbEntity
  8
0
100
AcDbBlockEnd
  0
BLOCK
  5
5609
330
55FF
100
AcDbEntity
  8
0
100
AcDbBlockBegin
  2
*D33
 70
     1
 10
0.0
 20
0.0
 30
0.0
  3
*D33
  1

  0
LINE
  5
57AE
330
55FF
100
AcDbEntity
  8
30
  6
Continuous
 62
     0
100
AcDbLine
 10
362.9990988069256
 20
66.99966824210996
 30
0.0
 11
388.2367141808032
 21
66.99966824210996
 31
0.0
  0
LINE
  5
57AF
330
55FF
100
AcDbEntity
  8
30
  6
Continuous
 62
     0
100
AcDbLine
 10
377.085751547754
 20
-66.99966824211003
 30
0.0
 11
388.2367141808032
 21
-66.99966824211003
 31
0.0
  0
LINE
  5
57B0
330
55FF
100
AcDbEntity
  8
30
  6
Continuous
 62
     0
100
AcDbLine
 10
387.7367141808032
 20
64.99966824210996
 30
0.0
 11
387.7367141808032
 21
-64.99966824211004
 31
0.0
  0
INSERT
  5
57B1
330
55FF
100
AcDbEntity
  8
30
  6
Continuous
 62
     0
100
AcDbBlockReference
  2
_OPEN
 10
387.7367141808032
 20
66.99966824210996
 30
0.0
 41
2.0
 42
2.0
 43
2.0
 50
90.0
  0
INSERT
  5
57B2
330
55FF
100
AcDbEntity
  8
30
  6
Continuous
 62
     0
100
AcDbBlockReference
  2
_OPEN
 10
387.7367141808032
 20
-66.99966824211003
 30
0.0
 41
2.0
 42
2.0
 43
2.0
 50
270.0
  0
MTEXT
  5
57B3
330
55FF
100
AcDbEntity
  8
30
  6
Continuous
 62
     0
100
AcDbMText
 10
384.7367141808033
 20
0.0000000000000335
 30
0.0
 40
4.0
 41
0.0
 46
0.0
 71
     5
 72
     1
  1
\A1;134
 11
0.0000000000000001
 21
1.0
 31
0.0
 73
     1
 44
1.0
1001
ACAD
1000
MTEXTBEGIN
1070
    73
1070
     1
1070
    44
1040
1.0
1070
    74
1070
     0
1000
MTEXTEND
  0
POINT
  5
57B4
330
55FF
100
AcDbEntity
  8
DEFPOINTS
  6
Continuous
 62
     0
100
AcDbPoint
 10
361.9990988069257
 20
66.99966824210996
 30
0.0
  0
POINT
  5
57B5
330
55FF
100
AcDbEntity
  8
DEFPOINTS
  6
Continuous
 62
     0
100
AcDbPoint
 10
376.0857515477538
 20
-66.99966824211003
 30
0.0
  0
POINT
  5
57B6
330
55FF
100
AcDbEntity
  8
DEFPOINTS
  6
Continuous
 62
     0
100
AcDbPoint
 10
387.7367141808032
 20
-66.99966824211003
 30
0.0
  0
ENDBLK
  5
560A
330
55FF
100
AcDbEntity
  8
0
100
AcDbBlockEnd
  0
BLOCK
  5
58C0
330
58B6
100
AcDbEntity
  8
0
100
AcDbBlockBegin
  2
*D34
 70
     1
 10
0.0
 20
0.0
 30
0.0
  3
*D34
  1

  0
LINE
  5
58B7
330
58B6
100
AcDbEntity
  8
30
  6
Continuous
 62
     0
100
AcDbLine
 10
29.95999999999989
 20
272.7953751724502
 30
0.0
 11
29.9599999999999
 21
326.6448107631839
 31
0.0
  0
LINE
  5
58B8
330
58B6
100
AcDbEntity
  8
30
  6
Continuous
 62
     0
100
AcDbLine
 10
60.0
 20
322.3953751724502
 30
0.0
 11
60.0
 21
326.6448107631839
 31
0.0
  0
LINE
  5
58B9
330
58B6
100
AcDbEntity
  8
30
  6
Continuous
 62
     0
100
AcDbLine
 10
31.9599999999999
 20
326.1448107631839
 30
0.0
 11
58.0
 21
326.1448107631839
 31
0.0
  0
INSERT
  5
58BA
330
58B6
100
AcDbEntity
  8
30
  6
Continuous
 62
     0
100
AcDbBlockReference
  2
_OPEN
 10
29.9599999999999
 20
326.1448107631839
 30
0.0
 41
2.0
 42
2.0
 43
2.0
 50
180.0
  0
INSERT
  5
58BB
330
58B6
100
AcDbEntity
  8
30
  6
Continuous
 62
     0
100
AcDbBlockReference
  2
_OPEN
 10
60.0
 20
326.1448107631839
 30
0.0
 41
2.0
 42
2.0
 43
2.0
  0
MTEXT
  5
58BC
330
58B6
100
AcDbEntity
  8
30
  6
Continuous
 62
     0
100
AcDbMText
 10
44.97999999999993
 20
329.1448107631838
 30
0.0
 40
4.0
 41
0.0
 46
0.0
 71
     5
 72
     1
  1
\A1;30
 73
     1
 44
1.0
1001
ACAD
1000
MTEXTBEGIN
1070
    73
1070
     1
1070
    44
1040
1.0
1070
    74
1070
     0
1000
MTEXTEND
  0
POINT
  5
58BD
330
58B6
100
AcDbEntity
  8
DEFPOINTS
  6
Continuous
 62
     0
100
AcDbPoint
 10
29.95999999999989
 20
271.7953751724501
 30
0.0
  0
POINT
  5
58BE
330
58B6
100
AcDbEntity
  8
DEFPOINTS
  6
Continuous
 62
     0
100
AcDbPoint
 10
60.0
 20
321.3953751724502
 30
0.0
  0
POINT
  5
58BF
330
58B6
100
AcDbEntity
  8
DEFPOINTS
  6
Continuous
 62
     0
100
AcDbPoint
 10
60.0
 20
326.1448107631839
 30
0.0
  0
ENDBLK
  5
58C1
330
58B6
100
AcDbEntity
  8
0
100
AcDbBlockEnd
  0
BLOCK
  5
59FA
330
59F9
100
AcDbEntity
  8
TOP
  6
Continuous
 62
     4
100
AcDbBlockBegin
  2
*U35
 70
     1
 10
0.0
 20
0.0
 30
0.0
  3
*U35
  1

  0
LINE
  5
59FB
330
59F9
100
AcDbEntity
  8
1
  6
ByBlock
 62
     0
100
AcDbLine
 10
287.2057572385031
 20
73.79512687471603
 30
0.0
 11
276.2057572385031
 21
73.79512687471603
 31
0.0
  0
LINE
  5
59FC
330
59F9
100
AcDbEntity
  8
1
  6
ByBlock
 62
     0
100
AcDbLine
 10
296.8913158503363
 20
94.37207082491942
 30
0.0
 11
287.2057572385031
 21
73.79512687471603
 31
0.0
  0
SOLID
  5
59FD
330
59F9
100
AcDbEntity
  8
1
  6
ByBlock
 62
     0
100
AcDbTrace
 10
296.8913158503363
 20
94.37207082491942
 30
0.0
 11
296.3411501381206
 21
92.42055119794148
 31
0.0
 12
295.7379635408423
 22
92.7044708682264
 32
0.0
 13
295.7379635408423
 23
92.7044708682264
 33
0.0
  0
TEXT
  5
59FE
330
59F9
100
AcDbEntity
  8
TOP
  6
ByBlock
 62
     0
100
AcDbText
 10
274.4739864025374
 20
72.54512687281603
 30
0.0
 40
2.500000003799998
  1
 
 41
1.189062499999995
  7
UGMTXT
100
AcDbText
  0
TEXT
  5
59FF
330
59F9
100
AcDbEntity
  8
TOP
  6
ByBlock
 62
     0
100
AcDbText
 10
272.742215566572
 20
72.54512687281603
 30
0.0
 40
2.500000003799998
  1
 
 41
1.189062499999995
  7
UGMTXT
100
AcDbText
  0
ENDBLK
  5
5A00
330
59F9
100
AcDbEntity
  8
0
100
AcDbBlockEnd
  0
BLOCK
  5
5A02
330
5A01
100
AcDbEntity
  8
0
100
AcDbBlockBegin
  2
*D36
 70
     1
 10
0.0
 20
0.0
 30
0.0
  3
*D36
  1

  0
LINE
  5
5A03
330
5A01
100
AcDbEntity
  8
30
  6
Continuous
 62
     0
100
AcDbLine
 10
158.0001089354263
 20
-3.499987637474178
 30
0.0
 11
158.0001089354263
 21
-172.8996379392699
 31
0.0
  0
LINE
  5
5A04
330
5A01
100
AcDbEntity
  8
30
  6
Continuous
 62
     0
100
AcDbLine
 10
194.9999257258451
 20
-106.9994751293082
 30
0.0
 11
194.9999257258451
 21
-172.8996379392699
 31
0.0
  0
LINE
  5
5A05
330
5A01
100
AcDbEntity
  8
30
  6
Continuous
 62
     0
100
AcDbLine
 10
160.0001089354264
 20
-172.3996379392698
 30
0.0
 11
192.9999257258453
 21
-172.3996379392698
 31
0.0
  0
INSERT
  5
5A06
330
5A01
100
AcDbEntity
  8
30
  6
Continuous
 62
     0
100
AcDbBlockReference
  2
_OPEN
 10
158.0001089354263
 20
-172.3996379392698
 30
0.0
 41
2.0
 42
2.0
 43
2.0
 50
180.0
  0
INSERT
  5
5A07
330
5A01
100
AcDbEntity
  8
30
  6
Continuous
 62
     0
100
AcDbBlockReference
  2
_OPEN
 10
194.9999257258451
 20
-172.3996379392698
 30
0.0
 41
2.0
 42
2.0
 43
2.0
  0
MTEXT
  5
5A08
330
5A01
100
AcDbEntity
  8
30
  6
Continuous
 62
     0
100
AcDbMText
 10
176.5000173306356
 20
-169.39963793927
 30
0.0
 40
4.0
 41
0.0
 46
0.0
 71
     5
 72
     1
  1
\A1;37
 73
     1
 44
1.0
1001
ACAD
1000
MTEXTBEGIN
1070
    73
1070
     1
1070
    44
1040
1.0
1070
    74
1070
     0
1000
MTEXTEND
  0
POINT
  5
5A09
330
5A01
100
AcDbEntity
  8
DEFPOINTS
  6
Continuous
 62
     0
100
AcDbPoint
 10
158.0001089354263
 20
-2.499987637474178
 30
0.0
  0
POINT
  5
5A0A
330
5A01
100
AcDbEntity
  8
DEFPOINTS
  6
Continuous
 62
     0
100
AcDbPoint
 10
194.9999257258451
 20
-105.9994751293082
 30
0.0
  0
POINT
  5
5A0B
330
5A01
100
AcDbEntity
  8
DEFPOINTS
  6
Continuous
 62
     0
100
AcDbPoint
 10
194.9999257258451
 20
-172.3996379392698
 30
0.0
  0
ENDBLK
  5
5A0C
330
5A01
100
AcDbEntity
  8
0
100
AcDbBlockEnd
  0
BLOCK
  5
5A0E
330
5A0D
100
AcDbEntity
  8
0
100
AcDbBlockBegin
  2
*D37
 70
     1
 10
0.0
 20
0.0
 30
0.0
  3
*D37
  1

  0
LINE
  5
5A0F
330
5A0D
100
AcDbEntity
  8
30
  6
Continuous
 62
     0
100
AcDbLine
 10
194.9999257258451
 20
-106.9994751293082
 30
0.0
 11
194.9999257258451
 21
-172.8996379392699
 31
0.0
  0
LINE
  5
5A10
330
5A0D
100
AcDbEntity
  8
30
  6
Continuous
 62
     0
100
AcDbLine
 10
351.9991483230286
 20
-67.99966824211003
 30
0.0
 11
351.9991483230286
 21
-172.8996379392699
 31
0.0
  0
LINE
  5
5A11
330
5A0D
100
AcDbEntity
  8
30
  6
Continuous
 62
     0
100
AcDbLine
 10
196.9999257258451
 20
-172.3996379392698
 30
0.0
 11
349.9991483230286
 21
-172.3996379392698
 31
0.0
  0
INSERT
  5
5A12
330
5A0D
100
AcDbEntity
  8
30
  6
Continuous
 62
     0
100
AcDbBlockReference
  2
_OPEN
 10
194.9999257258451
 20
-172.3996379392698
 30
0.0
 41
2.0
 42
2.0
 43
2.0
 50
180.0
  0
INSERT
  5
5A13
330
5A0D
100
AcDbEntity
  8
30
  6
Continuous
 62
     0
100
AcDbBlockReference
  2
_OPEN
 10
351.9991483230286
 20
-172.3996379392698
 30
0.0
 41
2.0
 42
2.0
 43
2.0
  0
MTEXT
  5
5A14
330
5A0D
100
AcDbEntity
  8
30
  6
Continuous
 62
     0
100
AcDbMText
 10
273.4995370244369
 20
-169.39963793927
 30
0.0
 40
4.0
 41
0.0
 46
0.0
 71
     5
 72
     1
  1
\A1;157
 73
     1
 44
1.0
1001
ACAD
1000
MTEXTBEGIN
1070
    73
1070
     1
1070
    44
1040
1.0
1070
    74
1070
     0
1000
MTEXTEND
  0
POINT
  5
5A15
330
5A0D
100
AcDbEntity
  8
DEFPOINTS
  6
Continuous
 62
     0
100
AcDbPoint
 10
194.9999257258451
 20
-105.9994751293082
 30
0.0
  0
POINT
  5
5A16
330
5A0D
100
AcDbEntity
  8
DEFPOINTS
  6
Continuous
 62
     0
100
AcDbPoint
 10
351.9991483230286
 20
-66.99966824211003
 30
0.0
  0
POINT
  5
5A17
330
5A0D
100
AcDbEntity
  8
DEFPOINTS
  6
Continuous
 62
     0
100
AcDbPoint
 10
351.9991483230286
 20
-172.3996379392698
 30
0.0
  0
ENDBLK
  5
5A18
330
5A0D
100
AcDbEntity
  8
0
100
AcDbBlockEnd
  0
BLOCK
  5
5A1A
330
5A19
100
AcDbEntity
  8
0
100
AcDbBlockBegin
  2
*D38
 70
     1
 10
0.0
 20
0.0
 30
0.0
  3
*D38
  1

  0
LINE
  5
5A1B
330
5A19
100
AcDbEntity
  8
30
  6
Continuous
 62
     0
100
AcDbLine
 10
194.9999257258451
 20
-106.9994751293082
 30
0.0
 11
194.9999257258451
 21
-147.8997617295273
 31
0.0
  0
LINE
  5
5A1C
330
5A19
100
AcDbEntity
  8
30
  6
Continuous
 62
     0
100
AcDbLine
 10
301.9993959035433
 20
-67.99966824211003
 30
0.0
 11
301.9993959035433
 21
-147.8997617295273
 31
0.0
  0
LINE
  5
5A1D
330
5A19
100
AcDbEntity
  8
30
  6
Continuous
 62
     0
100
AcDbLine
 10
196.9999257258451
 20
-147.3997617295276
 30
0.0
 11
299.9993959035433
 21
-147.3997617295276
 31
0.0
  0
INSERT
  5
5A1E
330
5A19
100
AcDbEntity
  8
30
  6
Continuous
 62
     0
100
AcDbBlockReference
  2
_OPEN
 10
194.9999257258451
 20
-147.3997617295276
 30
0.0
 41
2.0
 42
2.0
 43
2.0
 50
180.0
  0
INSERT
  5
5A1F
330
5A19
100
AcDbEntity
  8
30
  6
Continuous
 62
     0
100
AcDbBlockReference
  2
_OPEN
 10
301.9993959035433
 20
-147.3997617295276
 30
0.0
 41
2.0
 42
2.0
 43
2.0
  0
MTEXT
  5
5A20
330
5A19
100
AcDbEntity
  8
30
  6
Continuous
 62
     0
100
AcDbMText
 10
248.4996608146944
 20
-144.3997617295273
 30
0.0
 40
4.0
 41
0.0
 46
0.0
 71
     5
 72
     1
  1
\A1;107
 73
     1
 44
1.0
1001
ACAD
1000
MTEXTBEGIN
1070
    73
1070
     1
1070
    44
1040
1.0
1070
    74
1070
     0
1000
MTEXTEND
  0
POINT
  5
5A21
330
5A19
100
AcDbEntity
  8
DEFPOINTS
  6
Continuous
 62
     0
100
AcDbPoint
 10
194.9999257258451
 20
-105.9994751293082
 30
0.0
  0
POINT
  5
5A22
330
5A19
100
AcDbEntity
  8
DEFPOINTS
  6
Continuous
 62
     0
100
AcDbPoint
 10
301.9993959035433
 20
-66.99966824211003
 30
0.0
  0
POINT
  5
5A23
330
5A19
100
AcDbEntity
  8
DEFPOINTS
  6
Continuous
 62
     0
100
AcDbPoint
 10
301.9993959035433
 20
-147.3997617295276
 30
0.0
  0
ENDBLK
  5
5A24
330
5A19
100
AcDbEntity
  8
0
100
AcDbBlockEnd
  0
BLOCK
  5
5A26
330
5A25
100
AcDbEntity
  8
0
100
AcDbBlockBegin
  2
*D39
 70
     1
 10
0.0
 20
0.0
 30
0.0
  3
*D39
  1

  0
LINE
  5
5A27
330
5A25
100
AcDbEntity
  8
30
  6
Continuous
 62
     0
100
AcDbLine
 10
271.9995444518525
 20
-58.99970288688223
 30
0.0
 11
271.9995444518525
 21
-34.40031878568621
 31
0.0
  0
LINE
  5
5A28
330
5A25
100
AcDbEntity
  8
30
  6
Continuous
 62
     0
100
AcDbLine
 10
286.9994701776981
 20
-63.49968060463591
 30
0.0
 11
286.9994701776981
 21
-34.40031878568621
 31
0.0
  0
LINE
  5
5A29
330
5A25
100
AcDbEntity
  8
30
  6
Continuous
 62
     0
100
AcDbLine
 10
273.9995444518525
 20
-34.90031878568621
 30
0.0
 11
284.9994701776981
 21
-34.90031878568621
 31
0.0
  0
INSERT
  5
5A2A
330
5A25
100
AcDbEntity
  8
30
  6
Continuous
 62
     0
100
AcDbBlockReference
  2
_OPEN
 10
271.9995444518525
 20
-34.90031878568621
 30
0.0
 41
2.0
 42
2.0
 43
2.0
 50
180.0
  0
INSERT
  5
5A2B
330
5A25
100
AcDbEntity
  8
30
  6
Continuous
 62
     0
100
AcDbBlockReference
  2
_OPEN
 10
286.9994701776981
 20
-34.90031878568621
 30
0.0
 41
2.0
 42
2.0
 43
2.0
  0
MTEXT
  5
5A2C
330
5A25
100
AcDbEntity
  8
30
  6
Continuous
 62
     0
100
AcDbMText
 10
279.4995073147753
 20
-31.90031878568621
 30
0.0
 40
4.0
 41
0.0
 46
0.0
 71
     5
 72
     1
  1
\A1;15
 73
     1
 44
1.0
1001
ACAD
1000
MTEXTBEGIN
1070
    73
1070
     1
1070
    44
1040
1.0
1070
    74
1070
     0
1000
MTEXTEND
  0
POINT
  5
5A2D
330
5A25
100
AcDbEntity
  8
DEFPOINTS
  6
Continuous
 62
     0
100
AcDbPoint
 10
271.9995444518525
 20
-59.99970288688222
 30
0.0
  0
POINT
  5
5A2E
330
5A25
100
AcDbEntity
  8
DEFPOINTS
  6
Continuous
 62
     0
100
AcDbPoint
 10
286.9994701776981
 20
-64.49968060463591
 30
0.0
  0
POINT
  5
5A2F
330
5A25
100
AcDbEntity
  8
DEFPOINTS
  6
Continuous
 62
     0
100
AcDbPoint
 10
286.9994701776981
 20
-34.90031878568621
 30
0.0
  0
ENDBLK
  5
5A30
330
5A25
100
AcDbEntity
  8
0
100
AcDbBlockEnd
  0
BLOCK
  5
5A32
330
5A31
100
AcDbEntity
  8
0
100
AcDbBlockBegin
  2
*D40
 70
     1
 10
0.0
 20
0.0
 30
0.0
  3
*D40
  1

  0
LINE
  5
5A33
330
5A31
100
AcDbEntity
  8
30
  6
Continuous
 62
     0
100
AcDbLine
 10
180.0
 20
-96.99952464541119
 30
0.0
 11
180.0
 21
-147.8997617295273
 31
0.0
  0
LINE
  5
5A34
330
5A31
100
AcDbEntity
  8
30
  6
Continuous
 62
     0
100
AcDbLine
 10
194.9999257258451
 20
-106.9994751293082
 30
0.0
 11
194.9999257258451
 21
-147.8997617295273
 31
0.0
  0
LINE
  5
5A35
330
5A31
100
AcDbEntity
  8
30
  6
Continuous
 62
     0
100
AcDbLine
 10
182.0
 20
-147.3997617295276
 30
0.0
 11
192.9999257258453
 21
-147.3997617295276
 31
0.0
  0
INSERT
  5
5A36
330
5A31
100
AcDbEntity
  8
30
  6
Continuous
 62
     0
100
AcDbBlockReference
  2
_OPEN
 10
180.0
 20
-147.3997617295276
 30
0.0
 41
2.0
 42
2.0
 43
2.0
 50
180.0
  0
INSERT
  5
5A37
330
5A31
100
AcDbEntity
  8
30
  6
Continuous
 62
     0
100
AcDbBlockReference
  2
_OPEN
 10
194.9999257258451
 20
-147.3997617295276
 30
0.0
 41
2.0
 42
2.0
 43
2.0
  0
MTEXT
  5
5A38
330
5A31
100
AcDbEntity
  8
30
  6
Continuous
 62
     0
100
AcDbMText
 10
187.4999628629225
 20
-144.3997617295273
 30
0.0
 40
4.0
 41
0.0
 46
0.0
 71
     5
 72
     1
  1
\A1;15
 73
     1
 44
1.0
1001
ACAD
1000
MTEXTBEGIN
1070
    73
1070
     1
1070
    44
1040
1.0
1070
    74
1070
     0
1000
MTEXTEND
  0
POINT
  5
5A39
330
5A31
100
AcDbEntity
  8
DEFPOINTS
  6
Continuous
 62
     0
100
AcDbPoint
 10
180.0
 20
-95.99952464541123
 30
0.0
  0
POINT
  5
5A3A
330
5A31
100
AcDbEntity
  8
DEFPOINTS
  6
Continuous
 62
     0
100
AcDbPoint
 10
194.9999257258451
 20
-105.9994751293082
 30
0.0
  0
POINT
  5
5A3B
330
5A31
100
AcDbEntity
  8
DEFPOINTS
  6
Continuous
 62
     0
100
AcDbPoint
 10
194.9999257258451
 20
-147.3997617295276
 30
0.0
  0
ENDBLK
  5
5A3C
330
5A31
100
AcDbEntity
  8
0
100
AcDbBlockEnd
  0
BLOCK
  5
5A3E
330
5A3D
100
AcDbEntity
  8
0
100
AcDbBlockBegin
  2
*D41
 70
     1
 10
0.0
 20
0.0
 30
0.0
  3
*D41
  1

  0
LINE
  5
5A3F
330
5A3D
100
AcDbEntity
  8
30
  6
Continuous
 62
     0
100
AcDbLine
 10
336.9992225971831
 20
-70.49965587958424
 30
0.0
 11
336.9992225971831
 21
-122.8998855197852
 31
0.0
  0
LINE
  5
5A40
330
5A3D
100
AcDbEntity
  8
30
  6
Continuous
 62
     0
100
AcDbLine
 10
351.9991483230286
 20
-77.28671009944187
 30
0.0
 11
351.9991483230286
 21
-122.8998855197852
 31
0.0
  0
LINE
  5
5A41
330
5A3D
100
AcDbEntity
  8
30
  6
Continuous
 62
     0
100
AcDbLine
 10
338.9992225971831
 20
-122.3998855197852
 30
0.0
 11
349.9991483230286
 21
-122.3998855197852
 31
0.0
  0
INSERT
  5
5A42
330
5A3D
100
AcDbEntity
  8
30
  6
Continuous
 62
     0
100
AcDbBlockReference
  2
_OPEN
 10
336.9992225971831
 20
-122.3998855197852
 30
0.0
 41
2.0
 42
2.0
 43
2.0
 50
180.0
  0
INSERT
  5
5A43
330
5A3D
100
AcDbEntity
  8
30
  6
Continuous
 62
     0
100
AcDbBlockReference
  2
_OPEN
 10
351.9991483230286
 20
-122.3998855197852
 30
0.0
 41
2.0
 42
2.0
 43
2.0
  0
MTEXT
  5
5A44
330
5A3D
100
AcDbEntity
  8
30
  6
Continuous
 62
     0
100
AcDbMText
 10
344.4991854601058
 20
-119.3998855197851
 30
0.0
 40
4.0
 41
0.0
 46
0.0
 71
     5
 72
     1
  1
\A1;15
 73
     1
 44
1.0
1001
ACAD
1000
MTEXTBEGIN
1070
    73
1070
     1
1070
    44
1040
1.0
1070
    74
1070
     0
1000
MTEXTEND
  0
POINT
  5
5A45
330
5A3D
100
AcDbEntity
  8
DEFPOINTS
  6
Continuous
 62
     0
100
AcDbPoint
 10
336.9992225971831
 20
-69.49965587958423
 30
0.0
  0
POINT
  5
5A46
330
5A3D
100
AcDbEntity
  8
DEFPOINTS
  6
Continuous
 62
     0
100
AcDbPoint
 10
351.9991483230286
 20
-76.28671009944188
 30
0.0
  0
POINT
  5
5A47
330
5A3D
100
AcDbEntity
  8
DEFPOINTS
  6
Continuous
 62
     0
100
AcDbPoint
 10
351.9991483230286
 20
-122.3998855197852
 30
0.0
  0
ENDBLK
  5
5A48
330
5A3D
100
AcDbEntity
  8
0
100
AcDbBlockEnd
  0
BLOCK
  5
5A4A
330
5A49
100
AcDbEntity
  8
0
100
AcDbBlockBegin
  2
*D42
 70
     1
 10
0.0
 20
0.0
 30
0.0
  3
*D42
  1

  0
LINE
  5
5A4B
330
5A49
100
AcDbEntity
  8
30
  6
Continuous
 62
     0
100
AcDbLine
 10
286.9994701776981
 20
-70.49965587958424
 30
0.0
 11
286.9994701776981
 21
-122.8998855197852
 31
0.0
  0
LINE
  5
5A4C
330
5A49
100
AcDbEntity
  8
30
  6
Continuous
 62
     0
100
AcDbLine
 10
301.9993959035433
 20
-77.28671009944187
 30
0.0
 11
301.9993959035433
 21
-122.8998855197852
 31
0.0
  0
LINE
  5
5A4D
330
5A49
100
AcDbEntity
  8
30
  6
Continuous
 62
     0
100
AcDbLine
 10
288.9994701776982
 20
-122.3998855197852
 30
0.0
 11
299.9993959035433
 21
-122.3998855197852
 31
0.0
  0
INSERT
  5
5A4E
330
5A49
100
AcDbEntity
  8
30
  6
Continuous
 62
     0
100
AcDbBlockReference
  2
_OPEN
 10
286.9994701776981
 20
-122.3998855197852
 30
0.0
 41
2.0
 42
2.0
 43
2.0
 50
180.0
  0
INSERT
  5
5A4F
330
5A49
100
AcDbEntity
  8
30
  6
Continuous
 62
     0
100
AcDbBlockReference
  2
_OPEN
 10
301.9993959035433
 20
-122.3998855197852
 30
0.0
 41
2.0
 42
2.0
 43
2.0
  0
MTEXT
  5
5A50
330
5A49
100
AcDbEntity
  8
30
  6
Continuous
 62
     0
100
AcDbMText
 10
294.4994330406208
 20
-119.3998855197851
 30
0.0
 40
4.0
 41
0.0
 46
0.0
 71
     5
 72
     1
  1
\A1;15
 73
     1
 44
1.0
1001
ACAD
1000
MTEXTBEGIN
1070
    73
1070
     1
1070
    44
1040
1.0
1070
    74
1070
     0
1000
MTEXTEND
  0
POINT
  5
5A51
330
5A49
100
AcDbEntity
  8
DEFPOINTS
  6
Continuous
 62
     0
100
AcDbPoint
 10
286.9994701776981
 20
-69.49965587958423
 30
0.0
  0
POINT
  5
5A52
330
5A49
100
AcDbEntity
  8
DEFPOINTS
  6
Continuous
 62
     0
100
AcDbPoint
 10
301.9993959035433
 20
-76.28671009944188
 30
0.0
  0
POINT
  5
5A53
330
5A49
100
AcDbEntity
  8
DEFPOINTS
  6
Continuous
 62
     0
100
AcDbPoint
 10
301.9993959035433
 20
-122.3998855197852
 30
0.0
  0
ENDBLK
  5
5A54
330
5A49
100
AcDbEntity
  8
0
100
AcDbBlockEnd
  0
BLOCK
  5
5A56
330
5A55
100
AcDbEntity
  8
0
100
AcDbBlockBegin
  2
*D43
 70
     1
 10
0.0
 20
0.0
 30
0.0
  3
*D43
  1

  0
LINE
  5
5A57
330
5A55
100
AcDbEntity
  8
30
  6
Continuous
 62
     0
100
AcDbLine
 10
350.8555653978195
 20
-74.99962862922766
 30
0.0
 11
376.585751547754
 21
-74.99962862922767
 31
0.0
  0
LINE
  5
5A58
330
5A55
100
AcDbEntity
  8
30
  6
Continuous
 62
     0
100
AcDbLine
 10
350.8555653978195
 20
-58.99970785499242
 30
0.0
 11
376.585751547754
 21
-58.99970785499243
 31
0.0
  0
LINE
  5
5A59
330
5A55
100
AcDbEntity
  8
30
  6
Continuous
 62
     0
100
AcDbLine
 10
376.0857515477538
 20
-72.99962862922767
 30
0.0
 11
376.0857515477538
 21
-60.99970785499243
 31
0.0
  0
INSERT
  5
5A5A
330
5A55
100
AcDbEntity
  8
30
  6
Continuous
 62
     0
100
AcDbBlockReference
  2
_OPEN
 10
376.0857515477538
 20
-74.99962862922767
 30
0.0
 41
2.0
 42
2.0
 43
2.0
 50
270.0
  0
INSERT
  5
5A5B
330
5A55
100
AcDbEntity
  8
30
  6
Continuous
 62
     0
100
AcDbBlockReference
  2
_OPEN
 10
376.0857515477538
 20
-58.99970785499243
 30
0.0
 41
2.0
 42
2.0
 43
2.0
 50
90.0
  0
MTEXT
  5
5A5C
330
5A55
100
AcDbEntity
  8
30
  6
Continuous
 62
     0
100
AcDbMText
 10
373.085751547754
 20
-66.99966824210999
 30
0.0
 40
4.0
 41
0.0
 46
0.0
 71
     5
 72
     1
  1
\A1;16
 11
0.0000000000000001
 21
1.0
 31
0.0
 73
     1
 44
1.0
1001
ACAD
1000
MTEXTBEGIN
1070
    73
1070
     1
1070
    44
1040
1.0
1070
    74
1070
     0
1000
MTEXTEND
  0
POINT
  5
5A5D
330
5A55
100
AcDbEntity
  8
DEFPOINTS
  6
Continuous
 62
     0
100
AcDbPoint
 10
349.8555653978196
 20
-74.99962862922766
 30
0.0
  0
POINT
  5
5A5E
330
5A55
100
AcDbEntity
  8
DEFPOINTS
  6
Continuous
 62
     0
100
AcDbPoint
 10
349.8555653978196
 20
-58.99970785499242
 30
0.0
  0
POINT
  5
5A5F
330
5A55
100
AcDbEntity
  8
DEFPOINTS
  6
Continuous
 62
     0
100
AcDbPoint
 10
376.0857515477538
 20
-58.99970785499243
 30
0.0
  0
ENDBLK
  5
5A60
330
5A55
100
AcDbEntity
  8
0
100
AcDbBlockEnd
  0
BLOCK
  5
5A62
330
5A61
100
AcDbEntity
  8
0
100
AcDbBlockBegin
  2
*D44
 70
     1
 10
0.0
 20
0.0
 30
0.0
  3
*D44
  1

  0
LINE
  5
5A63
330
5A61
100
AcDbEntity
  8
30
  6
Continuous
 62
     0
100
AcDbLine
 10
352.9991483230286
 20
64.49968062113573
 30
0.0
 11
374.2524182144206
 21
64.49968062113573
 31
0.0
  0
LINE
  5
5A64
330
5A61
100
AcDbEntity
  8
30
  6
Continuous
 62
     0
100
AcDbLine
 10
352.9991483230286
 20
69.49965586308421
 30
0.0
 11
374.2524182144206
 21
69.49965586308421
 31
0.0
  0
LINE
  5
5A65
330
5A61
100
AcDbEntity
  8
30
  6
Continuous
 62
     0
100
AcDbLine
 10
373.7524182144206
 20
62.49968062113573
 30
0.0
 11
373.7524182144206
 21
60.49968062113574
 31
0.0
  0
LINE
  5
5A66
330
5A61
100
AcDbEntity
  8
30
  6
Continuous
 62
     0
100
AcDbLine
 10
373.7524182144206
 20
71.49965586308423
 30
0.0
 11
373.7524182144206
 21
73.49965586308425
 31
0.0
  0
LINE
  5
5A67
330
5A61
100
AcDbEntity
  8
30
  6
Continuous
 62
     0
100
AcDbLine
 10
373.7524182144206
 20
73.49965586308425
 30
0.0
 11
377.4190848810873
 21
73.49965586308425
 31
0.0
  0
INSERT
  5
5A68
330
5A61
100
AcDbEntity
  8
30
  6
Continuous
 62
     0
100
AcDbBlockReference
  2
_OPEN
 10
373.7524182144206
 20
64.49968062113573
 30
0.0
 41
2.0
 42
2.0
 43
2.0
 50
90.0
  0
INSERT
  5
5A69
330
5A61
100
AcDbEntity
  8
30
  6
Continuous
 62
     0
100
AcDbBlockReference
  2
_OPEN
 10
373.7524182144206
 20
69.49965586308421
 30
0.0
 41
2.0
 42
2.0
 43
2.0
 50
270.0
  0
MTEXT
  5
5A6A
330
5A61
100
AcDbEntity
  8
30
  6
Continuous
 62
     0
100
AcDbMText
 10
376.0857515477538
 20
76.4996558630843
 30
0.0
 40
4.0
 41
0.0
 46
0.0
 71
     5
 72
     1
  1
\A1;5
 73
     1
 44
1.0
1001
ACAD
1000
MTEXTBEGIN
1070
    73
1070
     1
1070
    44
1040
1.0
1070
    74
1070
     0
1000
MTEXTEND
  0
POINT
  5
5A6B
330
5A61
100
AcDbEntity
  8
DEFPOINTS
  6
Continuous
 62
     0
100
AcDbPoint
 10
351.9991483230286
 20
64.49968062113575
 30
0.0
  0
POINT
  5
5A6C
330
5A61
100
AcDbEntity
  8
DEFPOINTS
  6
Continuous
 62
     0
100
AcDbPoint
 10
351.9991483230286
 20
69.49965586308424
 30
0.0
  0
POINT
  5
5A6D
330
5A61
100
AcDbEntity
  8
DEFPOINTS
  6
Continuous
 62
     0
100
AcDbPoint
 10
373.7524182144206
 20
69.49965586308421
 30
0.0
  0
ENDBLK
  5
5A6E
330
5A61
100
AcDbEntity
  8
0
100
AcDbBlockEnd
  0
BLOCK
  5
5A70
330
5A6F
100
AcDbEntity
  8
0
100
AcDbBlockBegin
  2
*D45
 70
     1
 10
0.0
 20
0.0
 30
0.0
  3
*D45
  1

  0
LINE
  5
5A71
330
5A6F
100
AcDbEntity
  8
30
  6
Continuous
 62
     0
100
AcDbLine
 10
362.9990988069256
 20
66.99966824210996
 30
0.0
 11
388.2367141808032
 21
66.99966824210996
 31
0.0
  0
LINE
  5
5A72
330
5A6F
100
AcDbEntity
  8
30
  6
Continuous
 62
     0
100
AcDbLine
 10
377.085751547754
 20
-66.99966824211003
 30
0.0
 11
388.2367141808032
 21
-66.99966824211003
 31
0.0
  0
LINE
  5
5A73
330
5A6F
100
AcDbEntity
  8
30
  6
Continuous
 62
     0
100
AcDbLine
 10
387.7367141808032
 20
64.99966824210996
 30
0.0
 11
387.7367141808032
 21
-64.99966824211004
 31
0.0
  0
INSERT
  5
5A74
330
5A6F
100
AcDbEntity
  8
30
  6
Continuous
 62
     0
100
AcDbBlockReference
  2
_OPEN
 10
387.7367141808032
 20
66.99966824210996
 30
0.0
 41
2.0
 42
2.0
 43
2.0
 50
90.0
  0
INSERT
  5
5A75
330
5A6F
100
AcDbEntity
  8
30
  6
Continuous
 62
     0
100
AcDbBlockReference
  2
_OPEN
 10
387.7367141808032
 20
-66.99966824211003
 30
0.0
 41
2.0
 42
2.0
 43
2.0
 50
270.0
  0
MTEXT
  5
5A76
330
5A6F
100
AcDbEntity
  8
30
  6
Continuous
 62
     0
100
AcDbMText
 10
384.7367141808033
 20
0.0000000000000335
 30
0.0
 40
4.0
 41
0.0
 46
0.0
 71
     5
 72
     1
  1
\A1;134
 11
0.0000000000000001
 21
1.0
 31
0.0
 73
     1
 44
1.0
1001
ACAD
1000
MTEXTBEGIN
1070
    73
1070
     1
1070
    44
1040
1.0
1070
    74
1070
     0
1000
MTEXTEND
  0
POINT
  5
5A77
330
5A6F
100
AcDbEntity
  8
DEFPOINTS
  6
Continuous
 62
     0
100
AcDbPoint
 10
361.9990988069257
 20
66.99966824210996
 30
0.0
  0
POINT
  5
5A78
330
5A6F
100
AcDbEntity
  8
DEFPOINTS
  6
Continuous
 62
     0
100
AcDbPoint
 10
376.0857515477538
 20
-66.99966824211003
 30
0.0
  0
POINT
  5
5A79
330
5A6F
100
AcDbEntity
  8
DEFPOINTS
  6
Continuous
 62
     0
100
AcDbPoint
 10
387.7367141808032
 20
-66.99966824211003
 30
0.0
  0
ENDBLK
  5
5A7A
330
5A6F
100
AcDbEntity
  8
0
100
AcDbBlockEnd
  0
BLOCK
  5
5B8E
330
5B8D
100
AcDbEntity
  8
0
100
AcDbBlockBegin
  2
*D46
 70
     1
 10
0.0
 20
0.0
 30
0.0
  3
*D46
  1

  0
LINE
  5
5C07
330
5B8D
100
AcDbEntity
  8
30
  6
Continuous
 62
     0
440
 16777216
370
    -2
100
AcDbLine
 10
178.0001089354263
 20
-3.499987637474178
 30
0.0
 11
178.0001089354263
 21
-172.8996379392698
 31
0.0
  0
LINE
  5
5C08
330
5B8D
100
AcDbEntity
  8
30
  6
Continuous
 62
     0
440
 16777216
370
    -2
100
AcDbLine
 10
214.9999257258451
 20
-106.9994751293082
 30
0.0
 11
214.9999257258451
 21
-172.8996379392698
 31
0.0
  0
LINE
  5
5C09
330
5B8D
100
AcDbEntity
  8
30
  6
Continuous
 62
     0
440
 16777216
370
    -2
100
AcDbLine
 10
180.0001089354263
 20
-172.3996379392698
 30
0.0
 11
212.9999257258451
 21
-172.3996379392698
 31
0.0
  0
INSERT
  5
5C0A
330
5B8D
100
AcDbEntity
  8
30
  6
Continuous
 62
     0
440
 16777216
370
    -2
100
AcDbBlockReference
  2
_OPEN
 10
178.0001089354263
 20
-172.3996379392698
 30
0.0
 41
2.0
 42
2.0
 43
2.0
 50
180.0
  0
INSERT
  5
5C0B
330
5B8D
100
AcDbEntity
  8
30
  6
Continuous
 62
     0
440
 16777216
370
    -2
100
AcDbBlockReference
  2
_OPEN
 10
214.9999257258451
 20
-172.3996379392698
 30
0.0
 41
2.0
 42
2.0
 43
2.0
  0
MTEXT
  5
5C0C
330
5B8D
100
AcDbEntity
  8
30
  6
Continuous
 62
     0
440
 16777216
100
AcDbMText
 10
196.5000173306356
 20
-169.3996379392698
 30
0.0
 40
4.0
 41
0.0
 46
0.0
 71
     5
 72
     1
  1
\A1;37
 73
     1
 44
1.0
1001
ACAD
1000
MTEXTBEGIN
1070
    73
1070
     1
1070
    44
1040
1.0
1070
    74
1070
     0
1000
MTEXTEND
  0
POINT
  5
5C0D
330
5B8D
100
AcDbEntity
  8
DEFPOINTS
  6
Continuous
 62
     0
440
 16777216
100
AcDbPoint
 10
178.0001089354263
 20
-2.499987637474178
 30
0.0
  0
POINT
  5
5C0E
330
5B8D
100
AcDbEntity
  8
DEFPOINTS
  6
Continuous
 62
     0
440
 16777216
100
AcDbPoint
 10
214.9999257258451
 20
-105.9994751293082
 30
0.0
  0
POINT
  5
5C0F
330
5B8D
100
AcDbEntity
  8
DEFPOINTS
  6
Continuous
 62
     0
440
 16777216
100
AcDbPoint
 10
214.9999257258451
 20
-172.3996379392698
 30
0.0
  0
ENDBLK
  5
5B8F
330
5B8D
100
AcDbEntity
  8
0
100
AcDbBlockEnd
  0
BLOCK
  5
5B9A
330
5B99
100
AcDbEntity
  8
0
100
AcDbBlockBegin
  2
*D47
 70
     1
 10
0.0
 20
0.0
 30
0.0
  3
*D47
  1

  0
LINE
  5
5C10
330
5B99
100
AcDbEntity
  8
30
  6
Continuous
 62
     0
440
 16777216
370
    -2
100
AcDbLine
 10
214.9999257258451
 20
-106.9994751293082
 30
0.0
 11
214.9999257258451
 21
-172.8996379392698
 31
0.0
  0
LINE
  5
5C11
330
5B99
100
AcDbEntity
  8
30
  6
Continuous
 62
     0
440
 16777216
370
    -2
100
AcDbLine
 10
371.9991483230286
 20
-67.99966824211003
 30
0.0
 11
371.9991483230286
 21
-172.8996379392698
 31
0.0
  0
LINE
  5
5C12
330
5B99
100
AcDbEntity
  8
30
  6
Continuous
 62
     0
440
 16777216
370
    -2
100
AcDbLine
 10
216.9999257258451
 20
-172.3996379392698
 30
0.0
 11
369.9991483230286
 21
-172.3996379392698
 31
0.0
  0
INSERT
  5
5C13
330
5B99
100
AcDbEntity
  8
30
  6
Continuous
 62
     0
440
 16777216
370
    -2
100
AcDbBlockReference
  2
_OPEN
 10
214.9999257258451
 20
-172.3996379392698
 30
0.0
 41
2.0
 42
2.0
 43
2.0
 50
180.0
  0
INSERT
  5
5C14
330
5B99
100
AcDbEntity
  8
30
  6
Continuous
 62
     0
440
 16777216
370
    -2
100
AcDbBlockReference
  2
_OPEN
 10
371.9991483230286
 20
-172.3996379392698
 30
0.0
 41
2.0
 42
2.0
 43
2.0
  0
MTEXT
  5
5C15
330
5B99
100
AcDbEntity
  8
30
  6
Continuous
 62
     0
440
 16777216
100
AcDbMText
 10
293.4995370244369
 20
-169.3996379392698
 30
0.0
 40
4.0
 41
0.0
 46
0.0
 71
     5
 72
     1
  1
\A1;157
 73
     1
 44
1.0
1001
ACAD
1000
MTEXTBEGIN
1070
    73
1070
     1
1070
    44
1040
1.0
1070
    74
1070
     0
1000
MTEXTEND
  0
POINT
  5
5C16
330
5B99
100
AcDbEntity
  8
DEFPOINTS
  6
Continuous
 62
     0
440
 16777216
100
AcDbPoint
 10
214.9999257258451
 20
-105.9994751293082
 30
0.0
  0
POINT
  5
5C17
330
5B99
100
AcDbEntity
  8
DEFPOINTS
  6
Continuous
 62
     0
440
 16777216
100
AcDbPoint
 10
371.9991483230286
 20
-66.99966824211003
 30
0.0
  0
POINT
  5
5C18
330
5B99
100
AcDbEntity
  8
DEFPOINTS
  6
Continuous
 62
     0
440
 16777216
100
AcDbPoint
 10
371.9991483230286
 20
-172.3996379392698
 30
0.0
  0
ENDBLK
  5
5B9B
330
5B99
100
AcDbEntity
  8
0
100
AcDbBlockEnd
  0
BLOCK
  5
5BA6
330
5BA5
100
AcDbEntity
  8
0
100
AcDbBlockBegin
  2
*D48
 70
     1
 10
0.0
 20
0.0
 30
0.0
  3
*D48
  1

  0
LINE
  5
5C19
330
5BA5
100
AcDbEntity
  8
30
  6
Continuous
 62
     0
440
 16777216
370
    -2
100
AcDbLine
 10
214.9999257258451
 20
-106.9994751293082
 30
0.0
 11
214.9999257258451
 21
-147.8997617295276
 31
0.0
  0
LINE
  5
5C1A
330
5BA5
100
AcDbEntity
  8
30
  6
Continuous
 62
     0
440
 16777216
370
    -2
100
AcDbLine
 10
321.9993959035433
 20
-67.99966824211003
 30
0.0
 11
321.9993959035433
 21
-147.8997617295276
 31
0.0
  0
LINE
  5
5C1B
330
5BA5
100
AcDbEntity
  8
30
  6
Continuous
 62
     0
440
 16777216
370
    -2
100
AcDbLine
 10
216.9999257258451
 20
-147.3997617295276
 30
0.0
 11
319.9993959035433
 21
-147.3997617295276
 31
0.0
  0
INSERT
  5
5C1C
330
5BA5
100
AcDbEntity
  8
30
  6
Continuous
 62
     0
440
 16777216
370
    -2
100
AcDbBlockReference
  2
_OPEN
 10
214.9999257258451
 20
-147.3997617295276
 30
0.0
 41
2.0
 42
2.0
 43
2.0
 50
180.0
  0
INSERT
  5
5C1D
330
5BA5
100
AcDbEntity
  8
30
  6
Continuous
 62
     0
440
 16777216
370
    -2
100
AcDbBlockReference
  2
_OPEN
 10
321.9993959035433
 20
-147.3997617295276
 30
0.0
 41
2.0
 42
2.0
 43
2.0
  0
MTEXT
  5
5C1E
330
5BA5
100
AcDbEntity
  8
30
  6
Continuous
 62
     0
440
 16777216
100
AcDbMText
 10
268.4996608146942
 20
-144.3997617295276
 30
0.0
 40
4.0
 41
0.0
 46
0.0
 71
     5
 72
     1
  1
\A1;107
 73
     1
 44
1.0
1001
ACAD
1000
MTEXTBEGIN
1070
    73
1070
     1
1070
    44
1040
1.0
1070
    74
1070
     0
1000
MTEXTEND
  0
POINT
  5
5C1F
330
5BA5
100
AcDbEntity
  8
DEFPOINTS
  6
Continuous
 62
     0
440
 16777216
100
AcDbPoint
 10
214.9999257258451
 20
-105.9994751293082
 30
0.0
  0
POINT
  5
5C20
330
5BA5
100
AcDbEntity
  8
DEFPOINTS
  6
Continuous
 62
     0
440
 16777216
100
AcDbPoint
 10
321.9993959035433
 20
-66.99966824211003
 30
0.0
  0
POINT
  5
5C21
330
5BA5
100
AcDbEntity
  8
DEFPOINTS
  6
Continuous
 62
     0
440
 16777216
100
AcDbPoint
 10
321.9993959035433
 20
-147.3997617295276
 30
0.0
  0
ENDBLK
  5
5BA7
330
5BA5
100
AcDbEntity
  8
0
100
AcDbBlockEnd
  0
BLOCK
  5
5BB2
330
5BB1
100
AcDbEntity
  8
0
100
AcDbBlockBegin
  2
*D49
 70
     1
 10
0.0
 20
0.0
 30
0.0
  3
*D49
  1

  0
LINE
  5
5C22
330
5BB1
100
AcDbEntity
  8
30
  6
Continuous
 62
     0
440
 16777216
370
    -2
100
AcDbLine
 10
291.9995444518525
 20
-58.99970288688222
 30
0.0
 11
291.9995444518525
 21
-34.40031878568621
 31
0.0
  0
LINE
  5
5C23
330
5BB1
100
AcDbEntity
  8
30
  6
Continuous
 62
     0
440
 16777216
370
    -2
100
AcDbLine
 10
306.9994701776981
 20
-63.49968060463591
 30
0.0
 11
306.9994701776981
 21
-34.40031878568621
 31
0.0
  0
LINE
  5
5C24
330
5BB1
100
AcDbEntity
  8
30
  6
Continuous
 62
     0
440
 16777216
370
    -2
100
AcDbLine
 10
293.9995444518525
 20
-34.90031878568621
 30
0.0
 11
304.9994701776981
 21
-34.90031878568621
 31
0.0
  0
INSERT
  5
5C25
330
5BB1
100
AcDbEntity
  8
30
  6
Continuous
 62
     0
440
 16777216
370
    -2
100
AcDbBlockReference
  2
_OPEN
 10
291.9995444518525
 20
-34.90031878568621
 30
0.0
 41
2.0
 42
2.0
 43
2.0
 50
180.0
  0
INSERT
  5
5C26
330
5BB1
100
AcDbEntity
  8
30
  6
Continuous
 62
     0
440
 16777216
370
    -2
100
AcDbBlockReference
  2
_OPEN
 10
306.9994701776981
 20
-34.90031878568621
 30
0.0
 41
2.0
 42
2.0
 43
2.0
  0
MTEXT
  5
5C27
330
5BB1
100
AcDbEntity
  8
30
  6
Continuous
 62
     0
440
 16777216
100
AcDbMText
 10
299.4995073147753
 20
-31.90031878568621
 30
0.0
 40
4.0
 41
0.0
 46
0.0
 71
     5
 72
     1
  1
\A1;15
 73
     1
 44
1.0
1001
ACAD
1000
MTEXTBEGIN
1070
    73
1070
     1
1070
    44
1040
1.0
1070
    74
1070
     0
1000
MTEXTEND
  0
POINT
  5
5C28
330
5BB1
100
AcDbEntity
  8
DEFPOINTS
  6
Continuous
 62
     0
440
 16777216
100
AcDbPoint
 10
291.9995444518525
 20
-59.99970288688222
 30
0.0
  0
POINT
  5
5C29
330
5BB1
100
AcDbEntity
  8
DEFPOINTS
  6
Continuous
 62
     0
440
 16777216
100
AcDbPoint
 10
306.9994701776981
 20
-64.49968060463591
 30
0.0
  0
POINT
  5
5C2A
330
5BB1
100
AcDbEntity
  8
DEFPOINTS
  6
Continuous
 62
     0
440
 16777216
100
AcDbPoint
 10
306.9994701776981
 20
-34.90031878568621
 30
0.0
  0
ENDBLK
  5
5BB3
330
5BB1
100
AcDbEntity
  8
0
100
AcDbBlockEnd
  0
BLOCK
  5
5BBE
330
5BBD
100
AcDbEntity
  8
0
100
AcDbBlockBegin
  2
*D50
 70
     1
 10
0.0
 20
0.0
 30
0.0
  3
*D50
  1

  0
LINE
  5
5C2B
330
5BBD
100
AcDbEntity
  8
30
  6
Continuous
 62
     0
440
 16777216
370
    -2
100
AcDbLine
 10
200.0
 20
-96.99952464541125
 30
0.0
 11
200.0
 21
-147.8997617295276
 31
0.0
  0
LINE
  5
5C2C
330
5BBD
100
AcDbEntity
  8
30
  6
Continuous
 62
     0
440
 16777216
370
    -2
100
AcDbLine
 10
214.9999257258451
 20
-106.9994751293082
 30
0.0
 11
214.9999257258451
 21
-147.8997617295276
 31
0.0
  0
LINE
  5
5C2D
330
5BBD
100
AcDbEntity
  8
30
  6
Continuous
 62
     0
440
 16777216
370
    -2
100
AcDbLine
 10
202.0
 20
-147.3997617295276
 30
0.0
 11
212.9999257258451
 21
-147.3997617295276
 31
0.0
  0
INSERT
  5
5C2E
330
5BBD
100
AcDbEntity
  8
30
  6
Continuous
 62
     0
440
 16777216
370
    -2
100
AcDbBlockReference
  2
_OPEN
 10
200.0
 20
-147.3997617295276
 30
0.0
 41
2.0
 42
2.0
 43
2.0
 50
180.0
  0
INSERT
  5
5C2F
330
5BBD
100
AcDbEntity
  8
30
  6
Continuous
 62
     0
440
 16777216
370
    -2
100
AcDbBlockReference
  2
_OPEN
 10
214.9999257258451
 20
-147.3997617295276
 30
0.0
 41
2.0
 42
2.0
 43
2.0
  0
MTEXT
  5
5C30
330
5BBD
100
AcDbEntity
  8
30
  6
Continuous
 62
     0
440
 16777216
100
AcDbMText
 10
207.4999628629226
 20
-144.3997617295276
 30
0.0
 40
4.0
 41
0.0
 46
0.0
 71
     5
 72
     1
  1
\A1;15
 73
     1
 44
1.0
1001
ACAD
1000
MTEXTBEGIN
1070
    73
1070
     1
1070
    44
1040
1.0
1070
    74
1070
     0
1000
MTEXTEND
  0
POINT
  5
5C31
330
5BBD
100
AcDbEntity
  8
DEFPOINTS
  6
Continuous
 62
     0
440
 16777216
100
AcDbPoint
 10
200.0
 20
-95.99952464541123
 30
0.0
  0
POINT
  5
5C32
330
5BBD
100
AcDbEntity
  8
DEFPOINTS
  6
Continuous
 62
     0
440
 16777216
100
AcDbPoint
 10
214.9999257258451
 20
-105.9994751293082
 30
0.0
  0
POINT
  5
5C33
330
5BBD
100
AcDbEntity
  8
DEFPOINTS
  6
Continuous
 62
     0
440
 16777216
100
AcDbPoint
 10
214.9999257258451
 20
-147.3997617295276
 30
0.0
  0
ENDBLK
  5
5BBF
330
5BBD
100
AcDbEntity
  8
0
100
AcDbBlockEnd
  0
BLOCK
  5
5BCA
330
5BC9
100
AcDbEntity
  8
0
100
AcDbBlockBegin
  2
*D51
 70
     1
 10
0.0
 20
0.0
 30
0.0
  3
*D51
  1

  0
LINE
  5
5C34
330
5BC9
100
AcDbEntity
  8
30
  6
Continuous
 62
     0
440
 16777216
370
    -2
100
AcDbLine
 10
356.9992225971832
 20
-70.49965587958421
 30
0.0
 11
356.9992225971832
 21
-122.8998855197852
 31
0.0
  0
LINE
  5
5C35
330
5BC9
100
AcDbEntity
  8
30
  6
Continuous
 62
     0
440
 16777216
370
    -2
100
AcDbLine
 10
371.9991483230286
 20
-77.28671009944187
 30
0.0
 11
371.9991483230286
 21
-122.8998855197852
 31
0.0
  0
LINE
  5
5C36
330
5BC9
100
AcDbEntity
  8
30
  6
Continuous
 62
     0
440
 16777216
370
    -2
100
AcDbLine
 10
358.9992225971832
 20
-122.3998855197852
 30
0.0
 11
369.9991483230286
 21
-122.3998855197852
 31
0.0
  0
INSERT
  5
5C37
330
5BC9
100
AcDbEntity
  8
30
  6
Continuous
 62
     0
440
 16777216
370
    -2
100
AcDbBlockReference
  2
_OPEN
 10
356.9992225971832
 20
-122.3998855197852
 30
0.0
 41
2.0
 42
2.0
 43
2.0
 50
180.0
  0
INSERT
  5
5C38
330
5BC9
100
AcDbEntity
  8
30
  6
Continuous
 62
     0
440
 16777216
370
    -2
100
AcDbBlockReference
  2
_OPEN
 10
371.9991483230286
 20
-122.3998855197852
 30
0.0
 41
2.0
 42
2.0
 43
2.0
  0
MTEXT
  5
5C39
330
5BC9
100
AcDbEntity
  8
30
  6
Continuous
 62
     0
440
 16777216
100
AcDbMText
 10
364.4991854601059
 20
-119.3998855197852
 30
0.0
 40
4.0
 41
0.0
 46
0.0
 71
     5
 72
     1
  1
\A1;15
 73
     1
 44
1.0
1001
ACAD
1000
MTEXTBEGIN
1070
    73
1070
     1
1070
    44
1040
1.0
1070
    74
1070
     0
1000
MTEXTEND
  0
POINT
  5
5C3A
330
5BC9
100
AcDbEntity
  8
DEFPOINTS
  6
Continuous
 62
     0
440
 16777216
100
AcDbPoint
 10
356.9992225971832
 20
-69.49965587958423
 30
0.0
  0
POINT
  5
5C3B
330
5BC9
100
AcDbEntity
  8
DEFPOINTS
  6
Continuous
 62
     0
440
 16777216
100
AcDbPoint
 10
371.9991483230286
 20
-76.28671009944188
 30
0.0
  0
POINT
  5
5C3C
330
5BC9
100
AcDbEntity
  8
DEFPOINTS
  6
Continuous
 62
     0
440
 16777216
100
AcDbPoint
 10
371.9991483230286
 20
-122.3998855197852
 30
0.0
  0
ENDBLK
  5
5BCB
330
5BC9
100
AcDbEntity
  8
0
100
AcDbBlockEnd
  0
BLOCK
  5
5BD6
330
5BD5
100
AcDbEntity
  8
0
100
AcDbBlockBegin
  2
*D52
 70
     1
 10
0.0
 20
0.0
 30
0.0
  3
*D52
  1

  0
LINE
  5
5C3D
330
5BD5
100
AcDbEntity
  8
30
  6
Continuous
 62
     0
440
 16777216
370
    -2
100
AcDbLine
 10
306.9994701776981
 20
-70.49965587958421
 30
0.0
 11
306.9994701776981
 21
-122.8998855197852
 31
0.0
  0
LINE
  5
5C3E
330
5BD5
100
AcDbEntity
  8
30
  6
Continuous
 62
     0
440
 16777216
370
    -2
100
AcDbLine
 10
321.9993959035433
 20
-77.28671009944187
 30
0.0
 11
321.9993959035433
 21
-122.8998855197852
 31
0.0
  0
LINE
  5
5C3F
330
5BD5
100
AcDbEntity
  8
30
  6
Continuous
 62
     0
440
 16777216
370
    -2
100
AcDbLine
 10
308.9994701776981
 20
-122.3998855197852
 30
0.0
 11
319.9993959035433
 21
-122.3998855197852
 31
0.0
  0
INSERT
  5
5C40
330
5BD5
100
AcDbEntity
  8
30
  6
Continuous
 62
     0
440
 16777216
370
    -2
100
AcDbBlockReference
  2
_OPEN
 10
306.9994701776981
 20
-122.3998855197852
 30
0.0
 41
2.0
 42
2.0
 43
2.0
 50
180.0
  0
INSERT
  5
5C41
330
5BD5
100
AcDbEntity
  8
30
  6
Continuous
 62
     0
440
 16777216
370
    -2
100
AcDbBlockReference
  2
_OPEN
 10
321.9993959035433
 20
-122.3998855197852
 30
0.0
 41
2.0
 42
2.0
 43
2.0
  0
MTEXT
  5
5C42
330
5BD5
100
AcDbEntity
  8
30
  6
Continuous
 62
     0
440
 16777216
100
AcDbMText
 10
314.4994330406207
 20
-119.3998855197852
 30
0.0
 40
4.0
 41
0.0
 46
0.0
 71
     5
 72
     1
  1
\A1;15
 73
     1
 44
1.0
1001
ACAD
1000
MTEXTBEGIN
1070
    73
1070
     1
1070
    44
1040
1.0
1070
    74
1070
     0
1000
MTEXTEND
  0
POINT
  5
5C43
330
5BD5
100
AcDbEntity
  8
DEFPOINTS
  6
Continuous
 62
     0
440
 16777216
100
AcDbPoint
 10
306.9994701776981
 20
-69.49965587958423
 30
0.0
  0
POINT
  5
5C44
330
5BD5
100
AcDbEntity
  8
DEFPOINTS
  6
Continuous
 62
     0
440
 16777216
100
AcDbPoint
 10
321.9993959035433
 20
-76.28671009944188
 30
0.0
  0
POINT
  5
5C45
330
5BD5
100
AcDbEntity
  8
DEFPOINTS
  6
Continuous
 62
     0
440
 16777216
100
AcDbPoint
 10
321.9993959035433
 20
-122.3998855197852
 30
0.0
  0
ENDBLK
  5
5BD7
330
5BD5
100
AcDbEntity
  8
0
100
AcDbBlockEnd
  0
BLOCK
  5
5BE2
330
5BE1
100
AcDbEntity
  8
0
100
AcDbBlockBegin
  2
*D53
 70
     1
 10
0.0
 20
0.0
 30
0.0
  3
*D53
  1

  0
LINE
  5
5C46
330
5BE1
100
AcDbEntity
  8
30
  6
Continuous
 62
     0
440
 16777216
370
    -2
100
AcDbLine
 10
370.8555653978196
 20
-74.99962862922766
 30
0.0
 11
396.5857515477538
 21
-74.99962862922766
 31
0.0
  0
LINE
  5
5C47
330
5BE1
100
AcDbEntity
  8
30
  6
Continuous
 62
     0
440
 16777216
370
    -2
100
AcDbLine
 10
370.8555653978196
 20
-58.99970785499242
 30
0.0
 11
396.5857515477538
 21
-58.99970785499242
 31
0.0
  0
LINE
  5
5C48
330
5BE1
100
AcDbEntity
  8
30
  6
Continuous
 62
     0
440
 16777216
370
    -2
100
AcDbLine
 10
396.0857515477538
 20
-72.99962862922765
 30
0.0
 11
396.0857515477538
 21
-60.99970785499241
 31
0.0
  0
INSERT
  5
5C49
330
5BE1
100
AcDbEntity
  8
30
  6
Continuous
 62
     0
440
 16777216
370
    -2
100
AcDbBlockReference
  2
_OPEN
 10
396.0857515477538
 20
-74.99962862922766
 30
0.0
 41
2.0
 42
2.0
 43
2.0
 50
270.0
  0
INSERT
  5
5C4A
330
5BE1
100
AcDbEntity
  8
30
  6
Continuous
 62
     0
440
 16777216
370
    -2
100
AcDbBlockReference
  2
_OPEN
 10
396.0857515477538
 20
-58.99970785499242
 30
0.0
 41
2.0
 42
2.0
 43
2.0
 50
90.0
  0
MTEXT
  5
5C4B
330
5BE1
100
AcDbEntity
  8
30
  6
Continuous
 62
     0
440
 16777216
100
AcDbMText
 10
393.0857515477539
 20
-66.99966824210996
 30
0.0
 40
4.0
 41
0.0
 46
0.0
 71
     5
 72
     1
  1
\A1;16
 11
0.0000000000000001
 21
1.0
 31
0.0
 73
     1
 44
1.0
1001
ACAD
1000
MTEXTBEGIN
1070
    73
1070
     1
1070
    44
1040
1.0
1070
    74
1070
     0
1000
MTEXTEND
  0
POINT
  5
5C4C
330
5BE1
100
AcDbEntity
  8
DEFPOINTS
  6
Continuous
 62
     0
440
 16777216
100
AcDbPoint
 10
369.8555653978196
 20
-74.99962862922766
 30
0.0
  0
POINT
  5
5C4D
330
5BE1
100
AcDbEntity
  8
DEFPOINTS
  6
Continuous
 62
     0
440
 16777216
100
AcDbPoint
 10
369.8555653978196
 20
-58.99970785499242
 30
0.0
  0
POINT
  5
5C4E
330
5BE1
100
AcDbEntity
  8
DEFPOINTS
  6
Continuous
 62
     0
440
 16777216
100
AcDbPoint
 10
396.0857515477538
 20
-58.99970785499242
 30
0.0
  0
ENDBLK
  5
5BE3
330
5BE1
100
AcDbEntity
  8
0
100
AcDbBlockEnd
  0
BLOCK
  5
5BEE
330
5BED
100
AcDbEntity
  8
0
100
AcDbBlockBegin
  2
*D54
 70
     1
 10
0.0
 20
0.0
 30
0.0
  3
*D54
  1

  0
LINE
  5
5C4F
330
5BED
100
AcDbEntity
  8
30
  6
Continuous
 62
     0
440
 16777216
370
    -2
100
AcDbLine
 10
372.9991483230286
 20
64.49968062113575
 30
0.0
 11
394.2524182144205
 21
64.49968062113575
 31
0.0
  0
LINE
  5
5C50
330
5BED
100
AcDbEntity
  8
30
  6
Continuous
 62
     0
440
 16777216
370
    -2
100
AcDbLine
 10
372.9991483230286
 20
69.49965586308424
 30
0.0
 11
394.2524182144205
 21
69.49965586308424
 31
0.0
  0
LINE
  5
5C51
330
5BED
100
AcDbEntity
  8
30
  6
Continuous
 62
     0
440
 16777216
370
    -2
100
AcDbLine
 10
393.7524182144205
 20
62.49968062113575
 30
0.0
 11
393.7524182144205
 21
60.49968062113575
 31
0.0
  0
LINE
  5
5C52
330
5BED
100
AcDbEntity
  8
30
  6
Continuous
 62
     0
440
 16777216
370
    -2
100
AcDbLine
 10
393.7524182144205
 20
71.49965586308423
 30
0.0
 11
393.7524182144205
 21
73.49965586308425
 31
0.0
  0
LINE
  5
5C53
330
5BED
100
AcDbEntity
  8
30
  6
Continuous
 62
     0
440
 16777216
370
    -2
100
AcDbLine
 10
393.7524182144205
 20
73.49965586308425
 30
0.0
 11
397.4190848810872
 21
73.49965586308425
 31
0.0
  0
INSERT
  5
5C54
330
5BED
100
AcDbEntity
  8
30
  6
Continuous
 62
     0
440
 16777216
370
    -2
100
AcDbBlockReference
  2
_OPEN
 10
393.7524182144205
 20
64.49968062113575
 30
0.0
 41
2.0
 42
2.0
 43
2.0
 50
90.0
  0
INSERT
  5
5C55
330
5BED
100
AcDbEntity
  8
30
  6
Continuous
 62
     0
440
 16777216
370
    -2
100
AcDbBlockReference
  2
_OPEN
 10
393.7524182144205
 20
69.49965586308424
 30
0.0
 41
2.0
 42
2.0
 43
2.0
 50
270.0
  0
MTEXT
  5
5C56
330
5BED
100
AcDbEntity
  8
30
  6
Continuous
 62
     0
440
 16777216
100
AcDbMText
 10
396.0857515477538
 20
76.4996558630843
 30
0.0
 40
4.0
 41
0.0
 46
0.0
 71
     5
 72
     1
  1
\A1;5
 73
     1
 44
1.0
1001
ACAD
1000
MTEXTBEGIN
1070
    73
1070
     1
1070
    44
1040
1.0
1070
    74
1070
     0
1000
MTEXTEND
  0
POINT
  5
5C57
330
5BED
100
AcDbEntity
  8
DEFPOINTS
  6
Continuous
 62
     0
440
 16777216
100
AcDbPoint
 10
371.9991483230286
 20
64.49968062113575
 30
0.0
  0
POINT
  5
5C58
330
5BED
100
AcDbEntity
  8
DEFPOINTS
  6
Continuous
 62
     0
440
 16777216
100
AcDbPoint
 10
371.9991483230286
 20
69.49965586308424
 30
0.0
  0
POINT
  5
5C59
330
5BED
100
AcDbEntity
  8
DEFPOINTS
  6
Continuous
 62
     0
440
 16777216
100
AcDbPoint
 10
393.7524182144205
 20
69.49965586308424
 30
0.0
  0
ENDBLK
  5
5BEF
330
5BED
100
AcDbEntity
  8
0
100
AcDbBlockEnd
  0
BLOCK
  5
5BFC
330
5BFB
100
AcDbEntity
  8
0
100
AcDbBlockBegin
  2
*D55
 70
     1
 10
0.0
 20
0.0
 30
0.0
  3
*D55
  1

  0
LINE
  5
5C5A
330
5BFB
100
AcDbEntity
  8
30
  6
Continuous
 62
     0
440
 16777216
370
    -2
100
AcDbLine
 10
382.9990988069257
 20
66.99966824210996
 30
0.0
 11
408.2367141808032
 21
66.99966824210996
 31
0.0
  0
LINE
  5
5C5B
330
5BFB
100
AcDbEntity
  8
30
  6
Continuous
 62
     0
440
 16777216
370
    -2
100
AcDbLine
 10
397.0857515477538
 20
-66.99966824211003
 30
0.0
 11
408.2367141808032
 21
-66.99966824211003
 31
0.0
  0
LINE
  5
5C5C
330
5BFB
100
AcDbEntity
  8
30
  6
Continuous
 62
     0
440
 16777216
370
    -2
100
AcDbLine
 10
407.7367141808032
 20
64.99966824210996
 30
0.0
 11
407.7367141808032
 21
-64.99966824211004
 31
0.0
  0
INSERT
  5
5C5D
330
5BFB
100
AcDbEntity
  8
30
  6
Continuous
 62
     0
440
 16777216
370
    -2
100
AcDbBlockReference
  2
_OPEN
 10
407.7367141808032
 20
66.99966824210996
 30
0.0
 41
2.0
 42
2.0
 43
2.0
 50
90.0
  0
INSERT
  5
5C5E
330
5BFB
100
AcDbEntity
  8
30
  6
Continuous
 62
     0
440
 16777216
370
    -2
100
AcDbBlockReference
  2
_OPEN
 10
407.7367141808032
 20
-66.99966824211003
 30
0.0
 41
2.0
 42
2.0
 43
2.0
 50
270.0
  0
MTEXT
  5
5C5F
330
5BFB
100
AcDbEntity
  8
30
  6
Continuous
 62
     0
440
 16777216
100
AcDbMText
 10
404.7367141808032
 20
0.0000000000000251
 30
0.0
 40
4.0
 41
0.0
 46
0.0
 71
     5
 72
     1
  1
\A1;134
 11
0.0000000000000001
 21
1.0
 31
0.0
 73
     1
 44
1.0
1001
ACAD
1000
MTEXTBEGIN
1070
    73
1070
     1
1070
    44
1040
1.0
1070
    74
1070
     0
1000
MTEXTEND
  0
POINT
  5
5C60
330
5BFB
100
AcDbEntity
  8
DEFPOINTS
  6
Continuous
 62
     0
440
 16777216
100
AcDbPoint
 10
381.9990988069256
 20
66.99966824210996
 30
0.0
  0
POINT
  5
5C61
330
5BFB
100
AcDbEntity
  8
DEFPOINTS
  6
Continuous
 62
     0
440
 16777216
100
AcDbPoint
 10
396.0857515477538
 20
-66.99966824211003
 30
0.0
  0
POINT
  5
5C62
330
5BFB
100
AcDbEntity
  8
DEFPOINTS
  6
Continuous
 62
     0
440
 16777216
100
AcDbPoint
 10
407.7367141808032
 20
-66.99966824211003
 30
0.0
  0
ENDBLK
  5
5BFD
330
5BFB
100
AcDbEntity
  8
0
100
AcDbBlockEnd
  0
BLOCK
  5
5CC9
330
5CC8
100
AcDbEntity
  8
0
370
     0
100
AcDbBlockBegin
  2
*D56
 70
     1
 10
0.0
 20
0.0
 30
0.0
  3
*D56
  1

  0
LINE
  5
5CCA
330
5CC8
100
AcDbEntity
  8
1
  6
Continuous
 62
     4
370
    -2
100
AcDbLine
 10
1149.36104460326
 20
347.4143726553807
 30
0.0
 11
1149.36104460326
 21
449.5648651553806
 31
0.0
  0
LINE
  5
5CCB
330
5CC8
100
AcDbEntity
  8
1
  6
Continuous
 62
     4
370
    -2
100
AcDbLine
 10
1179.36104460326
 20
397.4143726553807
 30
0.0
 11
1179.36104460326
 21
449.5648651553806
 31
0.0
  0
LINE
  5
5CCC
330
5CC8
100
AcDbEntity
  8
1
  6
Continuous
 62
     4
370
    -2
100
AcDbLine
 10
1151.36104460326
 20
448.5648651553806
 30
0.0
 11
1177.36104460326
 21
448.5648651553806
 31
0.0
  0
SOLID
  5
5CCD
330
5CC8
100
AcDbEntity
  8
1
  6
Continuous
 62
     4
370
     0
100
AcDbTrace
 10
1151.36104460326
 20
448.8981984887138
 30
0.0
 11
1151.36104460326
 21
448.2315318220472
 31
0.0
 12
1149.36104460326
 22
448.5648651553806
 32
0.0
 13
1149.36104460326
 23
448.5648651553806
 33
0.0
  0
SOLID
  5
5CCE
330
5CC8
100
AcDbEntity
  8
1
  6
Continuous
 62
     4
370
     0
100
AcDbTrace
 10
1177.36104460326
 20
448.8981984887138
 30
0.0
 11
1177.36104460326
 21
448.2315318220472
 31
0.0
 12
1179.36104460326
 22
448.5648651553806
 32
0.0
 13
1179.36104460326
 23
448.5648651553806
 33
0.0
  0
MTEXT
  5
5CCF
330
5CC8
100
AcDbEntity
  8
1
  6
Continuous
 62
     4
100
AcDbMText
 10
1164.36104460326
 20
449.8148651553806
 30
0.0
 40
2.5
 41
0.0
 46
0.0
 71
     5
 72
     1
  1
\A1; 30 
 73
     1
 44
1.0
1001
ACAD
1000
MTEXTBEGIN
1070
    73
1070
     1
1070
    44
1040
1.0
1070
    74
1070
     0
1000
MTEXTEND
  0
POINT
  5
5CD0
330
5CC8
100
AcDbEntity
  8
DEFPOINTS
  6
Continuous
 62
     0
370
     0
100
AcDbPoint
 10
1149.36104460326
 20
346.4143726553807
 30
0.0
  0
POINT
  5
5CD1
330
5CC8
100
AcDbEntity
  8
DEFPOINTS
  6
Continuous
 62
     0
370
     0
100
AcDbPoint
 10
1179.36104460326
 20
396.4143726553807
 30
0.0
  0
POINT
  5
5CD2
330
5CC8
100
AcDbEntity
  8
DEFPOINTS
  6
Continuous
 62
     0
370
     0
100
AcDbPoint
 10
1179.36104460326
 20
448.5648651553806
 30
0.0
  0
ENDBLK
  5
5CD3
330
5CC8
100
AcDbEntity
  8
0
370
     0
100
AcDbBlockEnd
  0
BLOCK
  5
5CD5
330
5CD4
100
AcDbEntity
  8
0
370
     0
100
AcDbBlockBegin
  2
*D57
 70
     1
 10
0.0
 20
0.0
 30
0.0
  3
*D57
  1

  0
LINE
  5
5CD6
330
5CD4
100
AcDbEntity
  8
1
  6
Continuous
 62
     4
370
    -2
100
AcDbLine
 10
1179.36104460326
 20
397.4143726553807
 30
0.0
 11
1179.36104460326
 21
449.5648651553806
 31
0.0
  0
LINE
  5
5CD7
330
5CD4
100
AcDbEntity
  8
1
  6
Continuous
 62
     4
370
    -2
100
AcDbLine
 10
1209.36104460326
 20
347.4143726553807
 30
0.0
 11
1209.36104460326
 21
449.5648651553806
 31
0.0
  0
LINE
  5
5CD8
330
5CD4
100
AcDbEntity
  8
1
  6
Continuous
 62
     4
370
    -2
100
AcDbLine
 10
1181.36104460326
 20
448.5648651553806
 30
0.0
 11
1207.36104460326
 21
448.5648651553806
 31
0.0
  0
SOLID
  5
5CD9
330
5CD4
100
AcDbEntity
  8
1
  6
Continuous
 62
     4
370
     0
100
AcDbTrace
 10
1181.36104460326
 20
448.8981984887138
 30
0.0
 11
1181.36104460326
 21
448.2315318220472
 31
0.0
 12
1179.36104460326
 22
448.5648651553806
 32
0.0
 13
1179.36104460326
 23
448.5648651553806
 33
0.0
  0
SOLID
  5
5CDA
330
5CD4
100
AcDbEntity
  8
1
  6
Continuous
 62
     4
370
     0
100
AcDbTrace
 10
1207.36104460326
 20
448.8981984887138
 30
0.0
 11
1207.36104460326
 21
448.2315318220472
 31
0.0
 12
1209.36104460326
 22
448.5648651553806
 32
0.0
 13
1209.36104460326
 23
448.5648651553806
 33
0.0
  0
MTEXT
  5
5CDB
330
5CD4
100
AcDbEntity
  8
1
  6
Continuous
 62
     4
100
AcDbMText
 10
1194.36104460326
 20
449.8148651553806
 30
0.0
 40
2.5
 41
0.0
 46
0.0
 71
     5
 72
     1
  1
\A1; 30 
 73
     1
 44
1.0
1001
ACAD
1000
MTEXTBEGIN
1070
    73
1070
     1
1070
    44
1040
1.0
1070
    74
1070
     0
1000
MTEXTEND
  0
POINT
  5
5CDC
330
5CD4
100
AcDbEntity
  8
DEFPOINTS
  6
Continuous
 62
     0
370
     0
100
AcDbPoint
 10
1179.36104460326
 20
396.4143726553807
 30
0.0
  0
POINT
  5
5CDD
330
5CD4
100
AcDbEntity
  8
DEFPOINTS
  6
Continuous
 62
     0
370
     0
100
AcDbPoint
 10
1209.36104460326
 20
346.4143726553807
 30
0.0
  0
POINT
  5
5CDE
330
5CD4
100
AcDbEntity
  8
DEFPOINTS
  6
Continuous
 62
     0
370
     0
100
AcDbPoint
 10
1209.36104460326
 20
448.5648651553806
 30
0.0
  0
ENDBLK
  5
5CDF
330
5CD4
100
AcDbEntity
  8
0
370
     0
100
AcDbBlockEnd
  0
BLOCK
  5
5CE1
330
5CE0
100
AcDbEntity
  8
0
370
     0
100
AcDbBlockBegin
  2
*D58
 70
     1
 10
0.0
 20
0.0
 30
0.0
  3
*D58
  1

  0
LINE
  5
5CE2
330
5CE0
100
AcDbEntity
  8
1
  6
Continuous
 62
     4
370
    -2
100
AcDbLine
 10
1209.36104460326
 20
347.4143726553807
 30
0.0
 11
1209.36104460326
 21
449.5648651553806
 31
0.0
  0
LINE
  5
5CE3
330
5CE0
100
AcDbEntity
  8
1
  6
Continuous
 62
     4
370
    -2
100
AcDbLine
 10
1239.36104460326
 20
397.4143726553807
 30
0.0
 11
1239.36104460326
 21
449.5648651553806
 31
0.0
  0
LINE
  5
5CE4
330
5CE0
100
AcDbEntity
  8
1
  6
Continuous
 62
     4
370
    -2
100
AcDbLine
 10
1211.36104460326
 20
448.5648651553806
 30
0.0
 11
1237.36104460326
 21
448.5648651553806
 31
0.0
  0
SOLID
  5
5CE5
330
5CE0
100
AcDbEntity
  8
1
  6
Continuous
 62
     4
370
     0
100
AcDbTrace
 10
1211.36104460326
 20
448.8981984887138
 30
0.0
 11
1211.36104460326
 21
448.2315318220472
 31
0.0
 12
1209.36104460326
 22
448.5648651553806
 32
0.0
 13
1209.36104460326
 23
448.5648651553806
 33
0.0
  0
SOLID
  5
5CE6
330
5CE0
100
AcDbEntity
  8
1
  6
Continuous
 62
     4
370
     0
100
AcDbTrace
 10
1237.36104460326
 20
448.8981984887138
 30
0.0
 11
1237.36104460326
 21
448.2315318220472
 31
0.0
 12
1239.36104460326
 22
448.5648651553806
 32
0.0
 13
1239.36104460326
 23
448.5648651553806
 33
0.0
  0
MTEXT
  5
5CE7
330
5CE0
100
AcDbEntity
  8
1
  6
Continuous
 62
     4
100
AcDbMText
 10
1224.36104460326
 20
449.8148651553806
 30
0.0
 40
2.5
 41
0.0
 46
0.0
 71
     5
 72
     1
  1
\A1; 30 
 73
     1
 44
1.0
1001
ACAD
1000
MTEXTBEGIN
1070
    73
1070
     1
1070
    44
1040
1.0
1070
    74
1070
     0
1000
MTEXTEND
  0
POINT
  5
5CE8
330
5CE0
100
AcDbEntity
  8
DEFPOINTS
  6
Continuous
 62
     0
370
     0
100
AcDbPoint
 10
1209.36104460326
 20
346.4143726553807
 30
0.0
  0
POINT
  5
5CE9
330
5CE0
100
AcDbEntity
  8
DEFPOINTS
  6
Continuous
 62
     0
370
     0
100
AcDbPoint
 10
1239.36104460326
 20
396.4143726553807
 30
0.0
  0
POINT
  5
5CEA
330
5CE0
100
AcDbEntity
  8
DEFPOINTS
  6
Continuous
 62
     0
370
     0
100
AcDbPoint
 10
1239.36104460326
 20
448.5648651553806
 30
0.0
  0
ENDBLK
  5
5CEB
330
5CE0
100
AcDbEntity
  8
0
370
     0
100
AcDbBlockEnd
  0
BLOCK
  5
5CED
330
5CEC
100
AcDbEntity
  8
0
370
     0
100
AcDbBlockBegin
  2
*D59
 70
     1
 10
0.0
 20
0.0
 30
0.0
  3
*D59
  1

  0
LINE
  5
5CEE
330
5CEC
100
AcDbEntity
  8
1
  6
Continuous
 62
     4
370
    -2
100
AcDbLine
 10
1194.36104460326
 20
270.9143726553805
 30
0.0
 11
1194.36104460326
 21
225.6898651553806
 31
0.0
  0
LINE
  5
5CEF
330
5CEC
100
AcDbEntity
  8
1
  6
Continuous
 62
     4
370
    -2
100
AcDbLine
 10
1179.36104460326
 20
228.8148651553806
 30
0.0
 11
1179.36104460326
 21
225.6898651553806
 31
0.0
  0
LINE
  5
5CF0
330
5CEC
100
AcDbEntity
  8
1
  6
Continuous
 62
     4
370
    -2
100
AcDbLine
 10
1192.36104460326
 20
226.6898651553806
 30
0.0
 11
1181.36104460326
 21
226.6898651553806
 31
0.0
  0
SOLID
  5
5CF1
330
5CEC
100
AcDbEntity
  8
1
  6
Continuous
 62
     4
370
     0
100
AcDbTrace
 10
1192.36104460326
 20
227.023198488714
 30
0.0
 11
1192.36104460326
 21
226.3565318220473
 31
0.0
 12
1194.36104460326
 22
226.6898651553806
 32
0.0
 13
1194.36104460326
 23
226.6898651553806
 33
0.0
  0
SOLID
  5
5CF2
330
5CEC
100
AcDbEntity
  8
1
  6
Continuous
 62
     4
370
     0
100
AcDbTrace
 10
1181.36104460326
 20
227.023198488714
 30
0.0
 11
1181.36104460326
 21
226.3565318220473
 31
0.0
 12
1179.36104460326
 22
226.6898651553806
 32
0.0
 13
1179.36104460326
 23
226.6898651553806
 33
0.0
  0
MTEXT
  5
5CF3
330
5CEC
100
AcDbEntity
  8
1
  6
Continuous
 62
     4
100
AcDbMText
 10
1186.86104460326
 20
227.9398651553806
 30
0.0
 40
2.5
 41
0.0
 46
0.0
 71
     5
 72
     1
  1
\A1; 15 
 73
     1
 44
1.0
1001
ACAD
1000
MTEXTBEGIN
1070
    73
1070
     1
1070
    44
1040
1.0
1070
    74
1070
     0
1000
MTEXTEND
  0
POINT
  5
5CF4
330
5CEC
100
AcDbEntity
  8
DEFPOINTS
  6
Continuous
 62
     0
370
     0
100
AcDbPoint
 10
1194.36104460326
 20
271.9143726553805
 30
0.0
  0
POINT
  5
5CF5
330
5CEC
100
AcDbEntity
  8
DEFPOINTS
  6
Continuous
 62
     0
370
     0
100
AcDbPoint
 10
1179.36104460326
 20
229.8148651553806
 30
0.0
  0
POINT
  5
5CF6
330
5CEC
100
AcDbEntity
  8
DEFPOINTS
  6
Continuous
 62
     0
370
     0
100
AcDbPoint
 10
1179.36104460326
 20
226.6898651553806
 30
0.0
  0
ENDBLK
  5
5CF7
330
5CEC
100
AcDbEntity
  8
0
370
     0
100
AcDbBlockEnd
  0
BLOCK
  5
5E0D
330
5E0C
100
AcDbEntity
  8
0
100
AcDbBlockBegin
  2
*D60
 70
     1
 10
0.0
 20
0.0
 30
0.0
  3
*D60
  1

  0
LINE
  5
5E89
330
5E0C
100
AcDbEntity
  8
30
  6
Continuous
 62
     0
440
 16777216
370
    -2
100
AcDbLine
 10
-30.0
 20
242.4059210493446
 30
0.0
 11
-30.0
 21
344.0564135493445
 31
0.0
  0
LINE
  5
5E8A
330
5E0C
100
AcDbEntity
  8
30
  6
Continuous
 62
     0
440
 16777216
370
    -2
100
AcDbLine
 10
0.0000000000000001
 20
292.4059210493446
 30
0.0
 11
0.0000000000000032
 21
344.0564135493445
 31
0.0
  0
LINE
  5
5E8B
330
5E0C
100
AcDbEntity
  8
30
  6
Continuous
 62
     0
440
 16777216
370
    -2
100
AcDbLine
 10
-27.99999999999999
 20
343.5564135493446
 30
0.0
 11
-1.999999999999995
 21
343.5564135493446
 31
0.0
  0
INSERT
  5
5E8C
330
5E0C
100
AcDbEntity
  8
30
  6
Continuous
 62
     0
440
 16777216
370
    -2
100
AcDbBlockReference
  2
_OPEN
 10
-30.0
 20
343.5564135493446
 30
0.0
 41
2.0
 42
2.0
 43
2.0
 50
180.0
  0
INSERT
  5
5E8D
330
5E0C
100
AcDbEntity
  8
30
  6
Continuous
 62
     0
440
 16777216
370
    -2
100
AcDbBlockReference
  2
_OPEN
 10
0.0000000000000032
 20
343.5564135493446
 30
0.0
 41
2.0
 42
2.0
 43
2.0
  0
MTEXT
  5
5E8E
330
5E0C
100
AcDbEntity
  8
30
  6
Continuous
 62
     0
440
 16777216
100
AcDbMText
 10
-14.99999999999999
 20
346.5564135493445
 30
0.0
 40
4.0
 41
0.0
 46
0.0
 71
     5
 72
     1
  1
\A1; 30 
 73
     1
 44
1.0
1001
ACAD
1000
MTEXTBEGIN
1070
    73
1070
     1
1070
    44
1040
1.0
1070
    74
1070
     0
1000
MTEXTEND
  0
POINT
  5
5E8F
330
5E0C
100
AcDbEntity
  8
DEFPOINTS
  6
Continuous
 62
     0
440
 16777216
100
AcDbPoint
 10
-30.0
 20
241.4059210493446
 30
0.0
  0
POINT
  5
5E90
330
5E0C
100
AcDbEntity
  8
DEFPOINTS
  6
Continuous
 62
     0
440
 16777216
100
AcDbPoint
 10
0.0
 20
291.4059210493446
 30
0.0
  0
POINT
  5
5E91
330
5E0C
100
AcDbEntity
  8
DEFPOINTS
  6
Continuous
 62
     0
440
 16777216
100
AcDbPoint
 10
0.0000000000000032
 20
343.5564135493446
 30
0.0
  0
ENDBLK
  5
5E0E
330
5E0C
100
AcDbEntity
  8
0
100
AcDbBlockEnd
  0
BLOCK
  5
5E19
330
5E18
100
AcDbEntity
  8
0
100
AcDbBlockBegin
  2
*D61
 70
     1
 10
0.0
 20
0.0
 30
0.0
  3
*D61
  1

  0
LINE
  5
5E92
330
5E18
100
AcDbEntity
  8
30
  6
Continuous
 62
     0
440
 16777216
370
    -2
100
AcDbLine
 10
0.0000000000000001
 20
292.4059210493446
 30
0.0
 11
0.0000000000000032
 21
344.0564135493445
 31
0.0
  0
LINE
  5
5E93
330
5E18
100
AcDbEntity
  8
30
  6
Continuous
 62
     0
440
 16777216
370
    -2
100
AcDbLine
 10
30.0
 20
242.4059210493446
 30
0.0
 11
30.00000000000001
 21
344.0564135493445
 31
0.0
  0
LINE
  5
5E94
330
5E18
100
AcDbEntity
  8
30
  6
Continuous
 62
     0
440
 16777216
370
    -2
100
AcDbLine
 10
2.000000000000003
 20
343.5564135493446
 30
0.0
 11
28.00000000000001
 21
343.5564135493446
 31
0.0
  0
INSERT
  5
5E95
330
5E18
100
AcDbEntity
  8
30
  6
Continuous
 62
     0
440
 16777216
370
    -2
100
AcDbBlockReference
  2
_OPEN
 10
0.0000000000000032
 20
343.5564135493446
 30
0.0
 41
2.0
 42
2.0
 43
2.0
 50
180.0
  0
INSERT
  5
5E96
330
5E18
100
AcDbEntity
  8
30
  6
Continuous
 62
     0
440
 16777216
370
    -2
100
AcDbBlockReference
  2
_OPEN
 10
30.00000000000001
 20
343.5564135493446
 30
0.0
 41
2.0
 42
2.0
 43
2.0
  0
MTEXT
  5
5E97
330
5E18
100
AcDbEntity
  8
30
  6
Continuous
 62
     0
440
 16777216
100
AcDbMText
 10
15.0
 20
346.5564135493445
 30
0.0
 40
4.0
 41
0.0
 46
0.0
 71
     5
 72
     1
  1
\A1; 30 
 73
     1
 44
1.0
1001
ACAD
1000
MTEXTBEGIN
1070
    73
1070
     1
1070
    44
1040
1.0
1070
    74
1070
     0
1000
MTEXTEND
  0
POINT
  5
5E98
330
5E18
100
AcDbEntity
  8
DEFPOINTS
  6
Continuous
 62
     0
440
 16777216
100
AcDbPoint
 10
0.0
 20
291.4059210493446
 30
0.0
  0
POINT
  5
5E99
330
5E18
100
AcDbEntity
  8
DEFPOINTS
  6
Continuous
 62
     0
440
 16777216
100
AcDbPoint
 10
30.0
 20
241.4059210493446
 30
0.0
  0
POINT
  5
5E9A
330
5E18
100
AcDbEntity
  8
DEFPOINTS
  6
Continuous
 62
     0
440
 16777216
100
AcDbPoint
 10
30.00000000000001
 20
343.5564135493446
 30
0.0
  0
ENDBLK
  5
5E1A
330
5E18
100
AcDbEntity
  8
0
100
AcDbBlockEnd
  0
BLOCK
  5
5E25
330
5E24
100
AcDbEntity
  8
0
100
AcDbBlockBegin
  2
*D62
 70
     1
 10
0.0
 20
0.0
 30
0.0
  3
*D62
  1

  0
LINE
  5
5E9B
330
5E24
100
AcDbEntity
  8
30
  6
Continuous
 62
     0
440
 16777216
370
    -2
100
AcDbLine
 10
30.0
 20
242.4059210493446
 30
0.0
 11
30.00000000000001
 21
344.0564135493445
 31
0.0
  0
LINE
  5
5E9C
330
5E24
100
AcDbEntity
  8
30
  6
Continuous
 62
     0
440
 16777216
370
    -2
100
AcDbLine
 10
60.0
 20
292.4059210493446
 30
0.0
 11
60.0
 21
344.0564135493445
 31
0.0
  0
LINE
  5
5E9D
330
5E24
100
AcDbEntity
  8
30
  6
Continuous
 62
     0
440
 16777216
370
    -2
100
AcDbLine
 10
32.00000000000001
 20
343.5564135493446
 30
0.0
 11
58.0
 21
343.5564135493446
 31
0.0
  0
INSERT
  5
5E9E
330
5E24
100
AcDbEntity
  8
30
  6
Continuous
 62
     0
440
 16777216
370
    -2
100
AcDbBlockReference
  2
_OPEN
 10
30.00000000000001
 20
343.5564135493446
 30
0.0
 41
2.0
 42
2.0
 43
2.0
 50
180.0
  0
INSERT
  5
5E9F
330
5E24
100
AcDbEntity
  8
30
  6
Continuous
 62
     0
440
 16777216
370
    -2
100
AcDbBlockReference
  2
_OPEN
 10
60.0
 20
343.5564135493446
 30
0.0
 41
2.0
 42
2.0
 43
2.0
  0
MTEXT
  5
5EA0
330
5E24
100
AcDbEntity
  8
30
  6
Continuous
 62
     0
440
 16777216
100
AcDbMText
 10
45.0
 20
346.5564135493445
 30
0.0
 40
4.0
 41
0.0
 46
0.0
 71
     5
 72
     1
  1
\A1; 30 
 73
     1
 44
1.0
1001
ACAD
1000
MTEXTBEGIN
1070
    73
1070
     1
1070
    44
1040
1.0
1070
    74
1070
     0
1000
MTEXTEND
  0
POINT
  5
5EA1
330
5E24
100
AcDbEntity
  8
DEFPOINTS
  6
Continuous
 62
     0
440
 16777216
100
AcDbPoint
 10
30.0
 20
241.4059210493446
 30
0.0
  0
POINT
  5
5EA2
330
5E24
100
AcDbEntity
  8
DEFPOINTS
  6
Continuous
 62
     0
440
 16777216
100
AcDbPoint
 10
60.0
 20
291.4059210493446
 30
0.0
  0
POINT
  5
5EA3
330
5E24
100
AcDbEntity
  8
DEFPOINTS
  6
Continuous
 62
     0
440
 16777216
100
AcDbPoint
 10
60.0
 20
343.5564135493446
 30
0.0
  0
ENDBLK
  5
5E26
330
5E24
100
AcDbEntity
  8
0
100
AcDbBlockEnd
  0
BLOCK
  5
5E31
330
5E30
100
AcDbEntity
  8
0
100
AcDbBlockBegin
  2
*D63
 70
     1
 10
0.0
 20
0.0
 30
0.0
  3
*D63
  1

  0
LINE
  5
5E57
330
5E30
100
AcDbEntity
  8
1
  6
Continuous
 62
     4
370
    -2
100
AcDbLine
 10
-255.7366673066886
 20
158.8135613955564
 30
0.0
 11
-255.7366673066886
 21
113.5890538955566
 31
0.0
  0
LINE
  5
5E58
330
5E30
100
AcDbEntity
  8
1
  6
Continuous
 62
     4
370
    -2
100
AcDbLine
 10
-270.7366673066886
 20
116.7140538955566
 30
0.0
 11
-270.7366673066886
 21
113.5890538955566
 31
0.0
  0
LINE
  5
5E59
330
5E30
100
AcDbEntity
  8
1
  6
Continuous
 62
     4
370
    -2
100
AcDbLine
 10
-257.7366673066886
 20
114.5890538955566
 30
0.0
 11
-268.7366673066886
 21
114.5890538955566
 31
0.0
  0
INSERT
  5
5E5A
330
5E30
100
AcDbEntity
  8
1
  6
Continuous
 62
     4
370
    -2
100
AcDbBlockReference
  2
_OPEN
 10
-255.7366673066886
 20
114.5890538955566
 30
0.0
 41
2.0
 42
2.0
 43
2.0
  0
INSERT
  5
5E5B
330
5E30
100
AcDbEntity
  8
1
  6
Continuous
 62
     4
370
    -2
100
AcDbBlockReference
  2
_OPEN
 10
-270.7366673066886
 20
114.5890538955566
 30
0.0
 41
2.0
 42
2.0
 43
2.0
 50
180.0
  0
MTEXT
  5
5E5C
330
5E30
100
AcDbEntity
  8
1
  6
Continuous
 62
     4
100
AcDbMText
 10
-263.2366673066885
 20
115.8390538955566
 30
0.0
 40
2.5
 41
0.0
 46
0.0
 71
     5
 72
     1
  1
\A1; 15 
 73
     1
 44
1.0
1001
ACAD
1000
MTEXTBEGIN
1070
    73
1070
     1
1070
    44
1040
1.0
1070
    74
1070
     0
1000
MTEXTEND
  0
POINT
  5
5E5D
330
5E30
100
AcDbEntity
  8
DEFPOINTS
  6
Continuous
 62
     0
100
AcDbPoint
 10
-255.7366673066886
 20
159.8135613955564
 30
0.0
  0
POINT
  5
5E5E
330
5E30
100
AcDbEntity
  8
DEFPOINTS
  6
Continuous
 62
     0
100
AcDbPoint
 10
-270.7366673066886
 20
117.7140538955566
 30
0.0
  0
POINT
  5
5E5F
330
5E30
100
AcDbEntity
  8
DEFPOINTS
  6
Continuous
 62
     0
100
AcDbPoint
 10
-270.7366673066886
 20
114.5890538955566
 30
0.0
  0
ENDBLK
  5
5E32
330
5E30
100
AcDbEntity
  8
0
100
AcDbBlockEnd
  0
BLOCK
  5
5EA6
330
5EA5
100
AcDbEntity
  8
0
100
AcDbBlockBegin
  2
*D64
 70
     1
 10
0.0
 20
0.0
 30
0.0
  3
*D64
  1

  0
LINE
  5
5EA8
330
5EA5
100
AcDbEntity
  8
30
  6
Continuous
 62
     0
370
    -2
100
AcDbLine
 10
-80.99948019072272
 20
1.0
 30
0.0
 11
-80.9994801907227
 21
116.3832691293576
 31
0.0
  0
LINE
  5
5EA9
330
5EA5
100
AcDbEntity
  8
30
  6
Continuous
 62
     0
370
    -2
100
AcDbLine
 10
111.0
 20
151.4059210493446
 30
0.0
 11
111.0
 21
115.3832691293576
 31
0.0
  0
LINE
  5
5EAA
330
5EA5
100
AcDbEntity
  8
30
  6
Continuous
 62
     0
370
    -2
100
AcDbLine
 10
-78.99948019072272
 20
115.8832691293576
 30
0.0
 11
109.0
 21
115.8832691293576
 31
0.0
  0
INSERT
  5
5EAB
330
5EA5
100
AcDbEntity
  8
30
  6
Continuous
 62
     0
370
    -2
100
AcDbBlockReference
  2
_OPEN
 10
-80.99948019072272
 20
115.8832691293576
 30
0.0
 41
2.0
 42
2.0
 43
2.0
 50
180.0
  0
INSERT
  5
5EAC
330
5EA5
100
AcDbEntity
  8
30
  6
Continuous
 62
     0
370
    -2
100
AcDbBlockReference
  2
_OPEN
 10
111.0
 20
115.8832691293576
 30
0.0
 41
2.0
 42
2.0
 43
2.0
  0
MTEXT
  5
5EAD
330
5EA5
100
AcDbEntity
  8
30
  6
Continuous
 62
     0
100
AcDbMText
 10
15.00025990463864
 20
118.8832691293576
 30
0.0
 40
4.0
 41
0.0
 46
0.0
 71
     5
 72
     1
  1
\A1;192
 73
     1
 44
1.0
1001
ACAD
1000
MTEXTBEGIN
1070
    73
1070
     1
1070
    44
1040
1.0
1070
    74
1070
     0
1000
MTEXTEND
  0
POINT
  5
5EAE
330
5EA5
100
AcDbEntity
  8
DEFPOINTS
  6
Continuous
 62
     0
100
AcDbPoint
 10
-80.99948019072272
 20
0.0
 30
0.0
  0
POINT
  5
5EAF
330
5EA5
100
AcDbEntity
  8
DEFPOINTS
  6
Continuous
 62
     0
100
AcDbPoint
 10
111.0
 20
152.4059210493446
 30
0.0
  0
POINT
  5
5EB0
330
5EA5
100
AcDbEntity
  8
DEFPOINTS
  6
Continuous
 62
     0
100
AcDbPoint
 10
111.0
 20
115.8832691293576
 30
0.0
  0
ENDBLK
  5
5EA7
330
5EA5
100
AcDbEntity
  8
0
100
AcDbBlockEnd
  0
ENDSEC
  0
SECTION
  2
ENTITIES
  0
LINE
  5
B4
330
1E
100
AcDbEntity
  8
16
100
AcDbLine
 10
0.0
 20
-101.8246001220914
 30
0.0
 11
0.0
 21
105.6073578546832
 31
0.0
  0
LINE
  5
B5
330
1E
100
AcDbEntity
  8
16
100
AcDbLine
 10
106.774655642063
 20
-0.0000000000000007
 30
0.0
 11
-83.90588178115756
 21
-0.0000000000000007
 31
0.0
  0
MTEXT
  5
BF3
330
1E
100
AcDbEntity
  8
24
  6
Continuous
100
AcDbMText
 10
140.9820964648283
 20
176.3476821548369
 30
0.0
 40
3.0
 41
0.0
 46
0.0
 71
     1
 72
     1
  1
\A1;
 73
     1
 44
1.0
1001
ACAD
1000
MTEXTBEGIN
1070
    73
1070
     1
1070
    44
1040
1.0
1070
    74
1070
     0
1000
MTEXTEND
  0
LINE
  5
2260
330
1E
100
AcDbEntity
  8
16
100
AcDbLine
 10
103.903897549407
 20
-250.0
 30
0.0
 11
-80.54991320158091
 21
-250.0
 31
0.0
  0
LINE
  5
2261
330
1E
100
AcDbEntity
  8
16
100
AcDbLine
 10
0.0
 20
-347.7519397628455
 30
0.0
 11
0.0
 21
-148.6166007905139
 31
0.0
  0
CIRCLE
  5
5045
330
1E
100
AcDbEntity
  8
12
  6
DASHED
100
AcDbCircle
 10
-70.5
 20
-32.99989074072519
 30
0.0
 40
2.499991722782211
  0
CIRCLE
  5
5047
330
1E
100
AcDbEntity
  8
12
  6
DASHED
100
AcDbCircle
 10
-70.5
 20
32.99989074072514
 30
0.0
 40
2.499991722782211
  0
LINE
  5
5048
330
1E
100
AcDbEntity
  8
12
  6
DASHDOT
 62
     3
100
AcDbLine
 10
-73.99975499435348
 20
-32.99989074072517
 30
0.0
 11
-66.9997781705633
 21
-32.99989074072517
 31
0.0
  0
LINE
  5
504A
330
1E
100
AcDbEntity
  8
12
  6
DASHDOT
 62
     3
100
AcDbLine
 10
-73.99975499435348
 20
32.99989074072514
 30
0.0
 11
-66.9997781705633
 21
32.99989074072514
 31
0.0
  0
LINE
  5
504C
330
1E
100
AcDbEntity
  8
10
  6
CONTINOUS
100
AcDbLine
 10
-75.9994967451583
 20
-95.9996821548369
 30
0.0
 11
106.0000165544357
 21
-95.9996821548369
 31
0.0
  0
LINE
  5
504D
330
1E
100
AcDbEntity
  8
10
  6
CONTINOUS
100
AcDbLine
 10
-80.99948019072272
 20
90.99969870927251
 30
0.0
 11
-80.99948019072272
 21
-90.99969870927248
 31
0.0
  0
ARC
  5
504E
330
1E
100
AcDbEntity
  8
10
  6
CONTINOUS
100
AcDbCircle
 10
-75.9994967451583
 20
-90.99969870927248
 30
0.0
 40
4.999983445564422
100
AcDbArc
 50
180.0
 51
270.0
  0
LINE
  5
504F
330
1E
100
AcDbEntity
  8
12
  6
DASHDOT
 62
     3
100
AcDbLine
 10
-70.49951495503757
 20
-36.49987915262093
 30
0.0
 11
-70.49951495503757
 21
-29.49990232883076
 31
0.0
  0
LINE
  5
5051
330
1E
100
AcDbEntity
  8
12
  6
DASHDOT
 62
     3
100
AcDbLine
 10
-70.49951495503757
 20
29.4999023288294
 30
0.0
 11
-70.49951495503757
 21
36.49987915261965
 31
0.0
  0
ARC
  5
5052
330
1E
100
AcDbEntity
  8
10
  6
CONTINOUS
100
AcDbCircle
 10
-75.9994967451583
 20
90.99969870927251
 30
0.0
 40
4.999983445564422
100
AcDbArc
 50
90.0
 51
180.0
  0
LINE
  5
5053
330
1E
100
AcDbEntity
  8
10
  6
CONTINOUS
100
AcDbLine
 10
-41.99986094274118
 20
24.99991722782211
 30
0.0
 11
-41.99986094274118
 21
-24.99991722782206
 31
0.0
  0
LINE
  5
5054
330
1E
100
AcDbEntity
  8
10
  6
CONTINOUS
100
AcDbLine
 10
41.99986094274112
 20
24.99991722782211
 30
0.0
 11
41.99986094274112
 21
-24.99991722782206
 31
0.0
  0
LINE
  5
5055
330
1E
100
AcDbEntity
  8
10
  6
CONTINOUS
100
AcDbLine
 10
-10.99996358024178
 20
24.99991722782211
 30
0.0
 11
-10.99996358024178
 21
-24.99991722782206
 31
0.0
  0
LINE
  5
5056
330
1E
100
AcDbEntity
  8
10
  6
CONTINOUS
100
AcDbLine
 10
10.99996358024167
 20
24.99991722782211
 30
0.0
 11
10.99996358024167
 21
-24.99991722782206
 31
0.0
  0
LINE
  5
5057
330
1E
100
AcDbEntity
  8
10
  6
DASHED
100
AcDbLine
 10
-44.99985101007982
 20
77.49974340624856
 30
0.0
 11
-44.99985101007982
 21
-77.49974340624856
 31
0.0
  0
LINE
  5
5058
330
1E
100
AcDbEntity
  8
10
  6
DASHED
100
AcDbLine
 10
74.99985101007981
 20
-77.49974340624856
 30
0.0
 11
74.99985101007981
 21
77.49974340624856
 31
0.0
  0
LINE
  5
5059
330
1E
100
AcDbEntity
  8
10
  6
CONTINOUS
100
AcDbLine
 10
111.0
 20
-90.99969870927248
 30
0.0
 11
111.0
 21
90.99969870927251
 31
0.0
  0
LINE
  5
505A
330
1E
100
AcDbEntity
  8
10
  6
CONTINOUS
100
AcDbLine
 10
-41.99986094274118
 20
-24.99991722782206
 30
0.0
 11
41.99986094274112
 21
-24.99991722782206
 31
0.0
  0
LINE
  5
505B
330
1E
100
AcDbEntity
  8
10
  6
DASHED
100
AcDbLine
 10
-44.99985101007982
 20
-77.49974340624856
 30
0.0
 11
74.99985101007981
 21
-77.49974340624856
 31
0.0
  0
ARC
  5
505C
330
1E
100
AcDbEntity
  8
10
  6
CONTINOUS
100
AcDbCircle
 10
106.0000165544357
 20
-90.99969870927248
 30
0.0
 40
4.999983445564422
100
AcDbArc
 50
270.0
 51
0.0
  0
CIRCLE
  5
505D
330
1E
100
AcDbEntity
  8
12
  6
DASHED
100
AcDbCircle
 10
100.5000347643148
 20
-32.99989074072519
 30
0.0
 40
2.499991722782211
  0
LINE
  5
505E
330
1E
100
AcDbEntity
  8
12
  6
DASHDOT
 62
     3
100
AcDbLine
 10
97.0000463524197
 20
-32.99989074072519
 30
0.0
 11
104.0000231762099
 21
-32.99989074072519
 31
0.0
  0
LINE
  5
505F
330
1E
100
AcDbEntity
  8
12
  6
DASHDOT
 62
     3
100
AcDbLine
 10
100.5000347643147
 20
-36.49987915262093
 30
0.0
 11
100.5000347643147
 21
-29.49990232883076
 31
0.0
  0
LINE
  5
5060
330
1E
100
AcDbEntity
  8
10
  6
CONTINOUS
100
AcDbLine
 10
-41.99986094274118
 20
24.99991722782211
 30
0.0
 11
41.99986094274112
 21
24.99991722782211
 31
0.0
  0
LINE
  5
5061
330
1E
100
AcDbEntity
  8
10
  6
DASHED
100
AcDbLine
 10
74.99985101007981
 20
77.49974340624856
 30
0.0
 11
-44.99985101007982
 21
77.49974340624856
 31
0.0
  0
LINE
  5
5062
330
1E
100
AcDbEntity
  8
10
  6
CONTINOUS
100
AcDbLine
 10
6.999976823790134
 20
-18.49993874858834
 30
0.0
 11
6.999976823790247
 21
20.15480197531517
 31
0.0
  0
LINE
  5
5063
330
1E
100
AcDbEntity
  8
10
  6
CONTINOUS
100
AcDbLine
 10
-6.999976823790191
 20
-18.49993874858834
 30
0.0
 11
-6.999976823790134
 21
20.15480197531517
 31
0.0
  0
LINE
  5
5064
330
1E
100
AcDbEntity
  8
10
  6
CONTINOUS
100
AcDbLine
 10
-6.999976823790191
 20
-18.49993874858834
 30
0.0
 11
6.999976823790134
 21
-18.49993874858834
 31
0.0
  0
LINE
  5
5065
330
1E
100
AcDbEntity
  8
10
  6
CONTINOUS
100
AcDbLine
 10
6.999976823790134
 20
6.840766657780405
 30
0.0
 11
-6.999976823789296
 21
6.840766657780405
 31
0.0
  0
LINE
  5
5066
330
1E
100
AcDbEntity
  8
10
  6
CONTINOUS
100
AcDbLine
 10
6.999976823790134
 20
20.15480197531517
 30
0.0
 11
-6.999976823791143
 21
20.15480197531517
 31
0.0
  0
LINE
  5
5067
330
1E
100
AcDbEntity
  8
10
  6
CONTINOUS
100
AcDbLine
 10
6.999976823790134
 20
15.2399059823013
 30
0.0
 11
-6.999976823790191
 21
15.2399059823013
 31
0.0
  0
CIRCLE
  5
506B
330
1E
100
AcDbEntity
  8
12
  6
DASHED
100
AcDbCircle
 10
100.5000347643148
 20
32.99989074072514
 30
0.0
 40
2.499991722782211
  0
LINE
  5
506C
330
1E
100
AcDbEntity
  8
12
  6
DASHDOT
 62
     3
100
AcDbLine
 10
97.0000463524197
 20
32.99989074072514
 30
0.0
 11
104.0000231762099
 21
32.99989074072514
 31
0.0
  0
LINE
  5
506D
330
1E
100
AcDbEntity
  8
12
  6
DASHDOT
 62
     3
100
AcDbLine
 10
100.5000347643147
 20
29.4999023288294
 30
0.0
 11
100.5000347643147
 21
36.49987915261965
 31
0.0
  0
ARC
  5
506E
330
1E
100
AcDbEntity
  8
10
  6
CONTINOUS
100
AcDbCircle
 10
106.0000165544357
 20
90.99969870927251
 30
0.0
 40
4.999983445564422
100
AcDbArc
 50
0.0
 51
90.0
  0
DIMENSION
  5
53E2
330
1E
100
AcDbEntity
  8
30
  6
Continuous
100
AcDbDimension
280
     0
  2
*D26
 10
100.4999999999997
 20
-400.9004915993198
 30
0.0
 11
14.99999999999976
 21
-397.9004915993198
 31
0.0
 70
    32
 71
     5
 42
-1.0
 73
     0
 74
     0
 75
     0
  3
STANDARD
100
AcDbAlignedDimension
 13
-70.50000000000015
 23
-285.5000000165001
 33
0.0
 14
100.4999999999997
 24
-285.5000000165001
 34
0.0
 50
180.0
100
AcDbRotatedDimension
  0
DIMENSION
  5
53E3
330
1E
100
AcDbEntity
  8
30
  6
Continuous
100
AcDbDimension
280
     0
  2
*D27
 10
95.50000000000002
 20
-375.9004915993198
 30
0.0
 11
15.00000000000001
 21
-372.9004915993198
 31
0.0
 70
    32
 71
     5
 42
-1.0
 73
     0
 74
     0
 75
     0
  3
STANDARD
100
AcDbAlignedDimension
 13
-65.49999999999996
 23
-340.5
 33
0.0
 14
95.50000000000002
 24
-340.5
 34
0.0
 50
180.0
100
AcDbRotatedDimension
  0
LINE
  5
53E4
330
1E
100
AcDbEntity
  8
18
  6
DIVIDE
100
AcDbLine
 10
105.9999999999996
 20
-154.0000000000006
 30
0.0
 11
-76.00000000000007
 21
-154.0000000000006
 31
0.0
  0
LINE
  5
53E5
330
1E
100
AcDbEntity
  8
18
  6
DIVIDE
100
AcDbLine
 10
-73.49999999999987
 20
-346.0000000000002
 30
0.0
 11
108.4999999999999
 21
-346.0000000000002
 31
0.0
  0
LINE
  5
53E7
330
1E
100
AcDbEntity
  8
11
 48
2.0
100
AcDbLine
 10
95.50000000000002
 20
-159.5
 30
0.0
 11
-65.49999999999997
 21
-159.5
 31
0.0
  0
LINE
  5
53E8
330
1E
100
AcDbEntity
  8
11
 48
2.0
100
AcDbLine
 10
-65.50000000000017
 20
-340.5
 30
0.0
 11
95.49999999999958
 21
-340.5
 31
0.0
  0
LINE
  5
53E9
330
1E
100
AcDbEntity
  8
18
  6
DIVIDE
100
AcDbLine
 10
-81.0
 20
-159.0000000000005
 30
0.0
 11
-81.0
 21
-341.0000000000001
 31
0.0
  0
LINE
  5
53EA
330
1E
100
AcDbEntity
  8
11
 48
2.0
100
AcDbLine
 10
-65.49999999999997
 20
-340.5
 30
0.0
 11
-65.49999999999997
 21
-159.5
 31
0.0
  0
ARC
  5
53EB
330
1E
100
AcDbEntity
  8
18
  6
DIVIDE
100
AcDbCircle
 10
-76.00000000000007
 20
-341.0000000000001
 30
0.0
 40
4.999999999999992
100
AcDbArc
 50
180.0
 51
270.0
  0
CIRCLE
  5
53EC
330
1E
100
AcDbEntity
  8
12
  6
Continuous
 62
     3
100
AcDbCircle
 10
-70.50000000000015
 20
-283.0
 30
0.0
 40
2.999999999999996
  0
LINE
  5
53ED
330
1E
100
AcDbEntity
  8
12
  6
Continuous
 62
     3
100
AcDbLine
 10
-70.50000000000015
 20
-288.0000000000011
 30
0.0
 11
-70.50000000000015
 21
-278.0000000000009
 31
0.0
  0
LINE
  5
53EE
330
1E
100
AcDbEntity
  8
12
  6
Continuous
 62
     3
100
AcDbLine
 10
-75.50000000000007
 20
-283.0
 30
0.0
 11
-65.50000000000017
 21
-283.0
 31
0.0
  0
CIRCLE
  5
53F2
330
1E
100
AcDbEntity
  8
12
  6
Continuous
 62
     3
100
AcDbCircle
 10
-70.50000000000015
 20
-217.0000000000002
 30
0.0
 40
2.999999999999996
  0
LINE
  5
53F3
330
1E
100
AcDbEntity
  8
12
  6
Continuous
 62
     3
100
AcDbLine
 10
-75.50000000000007
 20
-217.0000000000002
 30
0.0
 11
-65.50000000000017
 21
-217.0000000000002
 31
0.0
  0
LINE
  5
53F4
330
1E
100
AcDbEntity
  8
12
  6
Continuous
 62
     3
100
AcDbLine
 10
-70.50000000000057
 20
-222.0000000000011
 30
0.0
 11
-70.50000000000057
 21
-212.0000000000011
 31
0.0
  0
ARC
  5
53F5
330
1E
100
AcDbEntity
  8
18
  6
DIVIDE
100
AcDbCircle
 10
-76.00000000000007
 20
-159.0000000000005
 30
0.0
 40
4.999999999999992
100
AcDbArc
 50
90.0
 51
180.0
  0
LINE
  5
53F6
330
1E
100
AcDbEntity
  8
18
  6
DIVIDE
100
AcDbLine
 10
110.9999999999996
 20
-341.0000000000001
 30
0.0
 11
110.9999999999996
 21
-159.0000000000005
 31
0.0
  0
LINE
  5
53F8
330
1E
100
AcDbEntity
  8
11
 48
2.0
100
AcDbLine
 10
95.50000000000002
 20
-340.5
 30
0.0
 11
95.50000000000002
 21
-159.5
 31
0.0
  0
ARC
  5
53F9
330
1E
100
AcDbEntity
  8
18
  6
DIVIDE
100
AcDbCircle
 10
105.9999999999996
 20
-341.0000000000001
 30
0.0
 40
4.999999999999992
100
AcDbArc
 50
270.0
 51
0.0
  0
CIRCLE
  5
53FA
330
1E
100
AcDbEntity
  8
12
  6
Continuous
 62
     3
100
AcDbCircle
 10
100.4999999999997
 20
-283.0
 30
0.0
 40
2.999999999999996
  0
LINE
  5
53FB
330
1E
100
AcDbEntity
  8
12
  6
Continuous
 62
     3
100
AcDbLine
 10
100.4999999999995
 20
-288.0000000000011
 30
0.0
 11
100.4999999999995
 21
-278.0000000000009
 31
0.0
  0
LINE
  5
53FC
330
1E
100
AcDbEntity
  8
12
  6
Continuous
 62
     3
100
AcDbLine
 10
95.49999999999958
 20
-283.0
 30
0.0
 11
105.4999999999995
 21
-283.0
 31
0.0
  0
LINE
  5
5400
330
1E
100
AcDbEntity
  8
12
  6
Continuous
 62
     3
100
AcDbLine
 10
95.49999999999958
 20
-217.0000000000002
 30
0.0
 11
105.4999999999992
 21
-217.0000000000002
 31
0.0
  0
CIRCLE
  5
5401
330
1E
100
AcDbEntity
  8
12
  6
Continuous
 62
     3
100
AcDbCircle
 10
100.4999999999995
 20
-217.0000000000002
 30
0.0
 40
2.999999999999996
  0
LINE
  5
5402
330
1E
100
AcDbEntity
  8
12
  6
Continuous
 62
     3
100
AcDbLine
 10
100.4999999999995
 20
-222.0000000000011
 30
0.0
 11
100.4999999999995
 21
-212.0000000000011
 31
0.0
  0
ARC
  5
5403
330
1E
100
AcDbEntity
  8
18
  6
DIVIDE
100
AcDbCircle
 10
105.9999999999996
 20
-159.0000000000005
 30
0.0
 40
4.999999999999992
100
AcDbArc
 50
0.0
 51
90.0
  0
LWPOLYLINE
  5
5475
330
1E
100
AcDbEntity
  8
10
  6
CONTINOUS
100
AcDbPolyline
 90
        2
 70
     0
 43
0.0
 10
106.0000165544357
 20
95.99968215483697
 10
-75.99949674515831
 20
95.99968215483697
  0
DIMENSION
  5
5476
330
1E
100
AcDbEntity
  8
30
  6
Continuous
100
AcDbDimension
280
     0
  2
*D30
 10
111.0
 20
-124.2815389722079
 30
0.0
 11
15.00025990463869
 21
-121.2815389722079
 31
0.0
 70
    32
 71
     5
 42
-1.0
 73
     0
 74
     0
 75
     0
  3
STANDARD
100
AcDbAlignedDimension
 13
-80.99948019072272
 23
-95.2647216513492
 33
0.0
 14
111.0
 24
-95.2647216513492
 34
0.0
100
AcDbRotatedDimension
1001
ACAD
1000
DSTYLE
1002
{
1070
    79
1070
     3
1002
}
  0
DIMENSION
  5
5483
330
1E
100
AcDbEntity
  8
30
  6
Continuous
100
AcDbDimension
280
     0
  2
*D31
 10
130.9236543708354
 20
-95.9996821548369
 30
0.0
 11
127.9236543708357
 21
0.0000000000000492
 31
0.0
 70
    32
 71
     5
 42
-1.0
 73
     0
 74
     0
 75
     0
  3
STANDARD
100
AcDbAlignedDimension
 13
110.2693634927873
 23
95.99968215483697
 33
0.0
 14
110.2693634927873
 24
-95.9996821548369
 34
0.0
 50
90.0
100
AcDbRotatedDimension
1001
ACAD
1000
DSTYLE
1002
{
1070
    79
1070
     3
1002
}
  0
DIMENSION
  5
54D8
330
1E
100
AcDbEntity
  8
30
  6
Continuous
100
AcDbDimension
280
     0
  2
*D32
 10
96.07380585394606
 20
-216.8093831008082
 30
0.0
 11
130.197815853946
 21
-202.2099931008078
 31
0.0
 70
   163
 71
     5
 42
-1.0
 73
     0
 74
     0
 75
     0
  3
STANDARD
100
AcDbDiametricDimension
 15
101.461607853946
 25
-214.169005100808
 35
0.0
 40
0.0
1001
ACAD
1000
DSTYLE
1002
{
1070
   288
1070
     1
1002
}
  0
MTEXT
  5
596C
330
1E
100
AcDbEntity
  8
30
  6
Continuous
100
AcDbMText
 10
212.8314450804323
 20
225.8511975969888
 30
0.0
 40
5.0
 41
156.3987999999999
 46
0.0
 71
     1
 72
     5
  1
S100-GF 4P FP\PS125-GF 4P FP
  7
STANDARD1
 73
     1
 44
1.0
1001
ACAD
1000
MTEXTBEGIN
1070
    73
1070
     1
1070
    44
1040
1.0
1070
    74
1070
     0
1000
MTEXTEND
  0
LINE
  5
5B07
330
1E
100
AcDbEntity
  8
16
100
AcDbLine
 10
293.9068787532455
 20
0.0
 30
0.0
 11
161.7416311410758
 21
0.0
 31
0.0
  0
DIMENSION
  5
5B08
330
1E
100
AcDbEntity
  8
30
  6
Continuous
100
AcDbDimension
280
     0
  2
*D46
 10
214.9999257258451
 20
-172.3996379392698
 30
0.0
 11
196.5000173306356
 21
-169.3996379392698
 31
0.0
 70
    32
 71
     5
 42
36.99981679041882
 73
     0
 74
     0
 75
     0
  3
STANDARD
100
AcDbAlignedDimension
 13
178.0001089354263
 23
-2.499987637474178
 33
0.0
 14
214.9999257258451
 24
-105.9994751293082
 34
0.0
 50
180.0
100
AcDbRotatedDimension
  0
LINE
  5
5B09
330
1E
100
AcDbEntity
  8
10
  6
CONTINOUS
100
AcDbLine
 10
194.0000297096619
 20
-24.99987620974255
 30
0.0
 11
200.0
 21
-24.99987620974255
 31
0.0
  0
LINE
  5
5B0A
330
1E
100
AcDbEntity
  8
10
  6
CONTINOUS
100
AcDbLine
 10
194.0000297096619
 20
24.99987620974251
 30
0.0
 11
200.0
 21
24.99987620974251
 31
0.0
  0
LINE
  5
5B0B
330
1E
100
AcDbEntity
  8
10
  6
CONTINOUS
100
AcDbLine
 10
194.0000297096619
 20
24.99987620974251
 30
0.0
 11
194.0000297096619
 21
-24.99987620974255
 31
0.0
  0
ARC
  5
5B0C
330
1E
100
AcDbEntity
  8
30
  6
Continuous
100
AcDbCircle
 10
208.9999554355073
 20
0.0
 30
0.0
 40
30.99984650008077
100
AcDbArc
 50
150.5534441956563
 51
180.0
  0
LINE
  5
5B0D
330
1E
100
AcDbEntity
  8
10
  6
CONTINOUS
100
AcDbLine
 10
194.0000297096619
 20
6.840755433938483
 30
0.0
 11
182.0048353058886
 21
15.23988097775136
 31
0.0
  0
LINE
  5
5B0E
330
1E
100
AcDbEntity
  8
10
  6
CONTINOUS
100
AcDbLine
 10
194.0000297096619
 20
14.16536669770709
 30
0.0
 11
185.4462768832329
 21
20.15476890675518
 31
0.0
  0
LINE
  5
5B0F
330
1E
100
AcDbEntity
  8
10
  6
CONTINOUS
100
AcDbLine
 10
182.0048353058886
 20
15.23988097775136
 30
0.0
 11
185.4462768832329
 21
20.15476890675518
 31
0.0
  0
LINE
  5
5B10
330
1E
100
AcDbEntity
  8
10
  6
CONTINOUS
100
AcDbLine
 10
214.9999257258451
 20
95.99952464541166
 30
0.0
 11
214.9999257258451
 21
-95.99952464541123
 31
0.0
  0
LINE
  5
5B11
330
1E
100
AcDbEntity
  8
10
  6
CONTINOUS
100
AcDbLine
 10
198.0000099032204
 20
24.99987620974251
 30
0.0
 11
198.0000099032204
 21
-24.99987620974255
 31
0.0
  0
LINE
  5
5B12
330
1E
100
AcDbEntity
  8
18
100
AcDbLine
 10
218.9999059194044
 20
100.9994998873601
 30
0.0
 11
218.9999059194044
 21
-110.9994503712566
 31
0.0
  0
LINE
  5
5B13
330
1E
100
AcDbEntity
  8
10
  6
CONTINOUS
100
AcDbLine
 10
200.0
 20
95.99952464541166
 30
0.0
 11
200.0
 21
-95.99952464541123
 31
0.0
  0
DIMENSION
  5
5B14
330
1E
100
AcDbEntity
  8
30
  6
Continuous
100
AcDbDimension
280
     0
  2
*D47
 10
371.9991483230286
 20
-172.3996379392698
 30
0.0
 11
293.4995370244369
 21
-169.3996379392698
 31
0.0
 70
    32
 71
     5
 42
156.9992225971835
 73
     0
 74
     0
 75
     0
  3
STANDARD
100
AcDbAlignedDimension
 13
214.9999257258451
 23
-105.9994751293082
 33
0.0
 14
371.9991483230286
 24
-66.99966824211003
 34
0.0
 50
180.0
100
AcDbRotatedDimension
  0
DIMENSION
  5
5B15
330
1E
100
AcDbEntity
  8
30
  6
Continuous
100
AcDbDimension
280
     0
  2
*D48
 10
321.9993959035433
 20
-147.3997617295276
 30
0.0
 11
268.4996608146942
 21
-144.3997617295276
 31
0.0
 70
    32
 71
     5
 42
106.9994701776982
 73
     0
 74
     0
 75
     0
  3
STANDARD
100
AcDbAlignedDimension
 13
214.9999257258451
 23
-105.9994751293082
 33
0.0
 14
321.9993959035433
 24
-66.99966824211003
 34
0.0
 50
180.0
100
AcDbRotatedDimension
  0
INSERT
  5
5B16
330
1E
100
AcDbEntity
  8
30
  6
Continuous
100
AcDbBlockReference
  2
*U35
 10
-437.0351231466663
 20
-306.7739725618864
 30
0.0
 41
2.499987620974227
 42
2.499987620974227
 43
2.499987620974227
  0
DIMENSION
  5
5B17
330
1E
100
AcDbEntity
  8
30
  6
Continuous
100
AcDbDimension
280
     0
  2
*D49
 10
306.9994701776981
 20
-34.90031878568621
 30
0.0
 11
299.4995073147753
 21
-31.90031878568621
 31
0.0
 70
    32
 71
     5
 42
14.99992572584563
 73
     0
 74
     0
 75
     0
  3
STANDARD
100
AcDbAlignedDimension
 13
291.9995444518525
 23
-59.99970288688222
 33
0.0
 14
306.9994701776981
 24
-64.49968060463591
 34
0.0
100
AcDbRotatedDimension
  0
LINE
  5
5B18
330
1E
100
AcDbEntity
  8
0
  6
Continuous
100
AcDbLine
 10
293.5933088038023
 20
-74.99962862922766
 30
0.0
 11
319.8558129783345
 21
-74.99962862922766
 31
0.0
  0
LINE
  5
5B19
330
1E
100
AcDbEntity
  8
0
  6
Continuous
100
AcDbLine
 10
293.5933088038023
 20
-58.99970785499243
 30
0.0
 11
319.8558129783345
 21
-58.99970785499243
 31
0.0
  0
LINE
  5
5B1A
330
1E
100
AcDbEntity
  8
0
  6
Continuous
100
AcDbLine
 10
264.9996781453305
 20
-66.99966824211003
 30
0.0
 11
381.9990988069256
 21
-66.99966824211003
 31
0.0
  0
DIMENSION
  5
5B1B
330
1E
100
AcDbEntity
  8
30
  6
Continuous
100
AcDbDimension
280
     0
  2
*D50
 10
214.9999257258451
 20
-147.3997617295276
 30
0.0
 11
207.4999628629226
 21
-144.3997617295276
 31
0.0
 70
    32
 71
     5
 42
14.99992572584512
 73
     0
 74
     0
 75
     0
  3
STANDARD
100
AcDbAlignedDimension
 13
200.0
 23
-95.99952464541123
 33
0.0
 14
214.9999257258451
 24
-105.9994751293082
 34
0.0
 50
180.0
100
AcDbRotatedDimension
  0
LINE
  5
5B1C
330
1E
100
AcDbEntity
  8
18
100
AcDbLine
 10
214.9999257258451
 20
-95.99952464541123
 30
0.0
 11
214.9999257258451
 21
-105.999475129308
 31
0.0
  0
LINE
  5
5B1D
330
1E
100
AcDbEntity
  8
18
100
AcDbLine
 10
214.9999257258451
 20
-105.999475129308
 30
0.0
 11
218.9999059194044
 21
-110.9994503712566
 31
0.0
  0
LINE
  5
5B1E
330
1E
100
AcDbEntity
  8
10
  6
CONTINOUS
100
AcDbLine
 10
214.9999257258451
 20
-77.4996162502019
 30
0.0
 11
269.9996533872792
 21
-77.4996162502019
 31
0.0
  0
LINE
  5
5B1F
330
1E
100
AcDbEntity
  8
10
  6
CONTINOUS
100
AcDbLine
 10
200.0
 20
-95.99952464541123
 30
0.0
 11
214.9999257258451
 21
-95.99952464541123
 31
0.0
  0
LINE
  5
5B20
330
1E
100
AcDbEntity
  8
0
  6
Continuous
100
AcDbLine
 10
286.4995716857089
 20
-59.87470352233343
 30
0.0
 11
286.4995716857089
 21
-74.12463296188668
 31
0.0
  0
LINE
  5
5B21
330
1E
100
AcDbEntity
  8
0
  6
Continuous
100
AcDbLine
 10
269.9996533872788
 20
-74.12463296188668
 30
0.0
 11
293.1167864807559
 21
-74.12463296188668
 31
0.0
  0
LINE
  5
5B22
330
1E
100
AcDbEntity
  8
0
  6
Continuous
100
AcDbLine
 10
286.4995716857089
 20
-71.4996459598637
 30
0.0
 11
291.9995444518525
 21
-71.4996459598637
 31
0.0
  0
ARC
  5
5B23
330
1E
100
AcDbEntity
  8
0
  6
Continuous
100
AcDbCircle
 10
310.9137311150848
 20
-64.99967814533062
 30
0.0
 40
19.99990096779404
100
AcDbArc
 50
198.9655749888483
 51
209.9999999999995
  0
LINE
  5
5B24
330
1E
100
AcDbEntity
  8
0
  6
Continuous
100
AcDbLine
 10
269.9996533872788
 20
-59.87470352233343
 30
0.0
 11
293.1167864807559
 21
-59.87470352233343
 31
0.0
  0
LINE
  5
5B25
330
1E
100
AcDbEntity
  8
0
  6
Continuous
100
AcDbLine
 10
286.4995716857089
 20
-62.49969052435638
 30
0.0
 11
291.9995444518525
 21
-62.49969052435638
 31
0.0
  0
ARC
  5
5B26
330
1E
100
AcDbEntity
  8
0
  6
Continuous
100
AcDbCircle
 10
-310.9137311150848
 20
-68.99965833888946
 30
0.0
 40
19.99990096779404
210
0.0
220
0.0
230
-1.0
100
AcDbArc
 50
18.96557498884837
 51
29.9999999999996
  0
DIMENSION
  5
5B27
330
1E
100
AcDbEntity
  8
30
  6
Continuous
100
AcDbDimension
280
     0
  2
*D51
 10
371.9991483230286
 20
-122.3998855197852
 30
0.0
 11
364.4991854601059
 21
-119.3998855197852
 31
0.0
 70
    32
 71
     5
 42
14.99992572584551
 73
     0
 74
     0
 75
     0
  3
STANDARD
100
AcDbAlignedDimension
 13
356.9992225971832
 23
-69.49965587958423
 33
0.0
 14
371.9991483230286
 24
-76.28671009944188
 34
0.0
 50
180.0
100
AcDbRotatedDimension
  0
DIMENSION
  5
5B28
330
1E
100
AcDbEntity
  8
30
  6
Continuous
100
AcDbDimension
280
     0
  2
*D52
 10
321.9993959035433
 20
-122.3998855197852
 30
0.0
 11
314.4994330406207
 21
-119.3998855197852
 31
0.0
 70
    32
 71
     5
 42
14.99992572584517
 73
     0
 74
     0
 75
     0
  3
STANDARD
100
AcDbAlignedDimension
 13
306.9994701776981
 23
-69.49965587958423
 33
0.0
 14
321.9993959035433
 24
-76.28671009944188
 34
0.0
 50
180.0
100
AcDbRotatedDimension
  0
CIRCLE
  5
5B29
330
1E
100
AcDbEntity
  8
0
  6
Continuous
100
AcDbCircle
 10
356.9992225971832
 20
-66.99966824211003
 30
0.0
 40
4.249978955656231
  0
LINE
  5
5B2A
330
1E
100
AcDbEntity
  8
0
  6
Continuous
100
AcDbLine
 10
343.5930612232875
 20
-58.99970785499243
 30
0.0
 11
369.8555653978196
 21
-58.99970785499243
 31
0.0
  0
LINE
  5
5B2B
330
1E
100
AcDbEntity
  8
0
  6
Continuous
100
AcDbLine
 10
343.5930612232875
 20
-74.99962862922766
 30
0.0
 11
369.8555653978196
 21
-74.99962862922766
 31
0.0
  0
ARC
  5
5B2C
330
1E
100
AcDbEntity
  8
0
  6
Continuous
100
AcDbCircle
 10
305.9994751293085
 20
-66.99966824211003
 30
0.0
 40
15.99992077423523
100
AcDbArc
 50
330.0000000000003
 51
29.9999999999996
  0
CIRCLE
  5
5B2D
330
1E
100
AcDbEntity
  8
0
  6
Continuous
100
AcDbCircle
 10
306.9994701776981
 20
-66.99966824211003
 30
0.0
 40
4.249978955656231
  0
LINE
  5
5B2E
330
1E
100
AcDbEntity
  8
0
  6
Continuous
100
AcDbLine
 10
306.9994701776981
 20
-53.99973261304392
 30
0.0
 11
306.9994701776981
 21
-79.99960387117616
 31
0.0
  0
LINE
  5
5B2F
330
1E
100
AcDbEntity
  8
0
  6
Continuous
100
AcDbLine
 10
336.4993241051942
 20
-59.87470352233343
 30
0.0
 11
336.4993241051942
 21
-74.12463296188668
 31
0.0
  0
LINE
  5
5B30
330
1E
100
AcDbEntity
  8
0
  6
Continuous
100
AcDbLine
 10
320.3254076477777
 20
-74.12463296188668
 30
0.0
 11
336.4993241051943
 21
-74.12463296188668
 31
0.0
  0
LINE
  5
5B31
330
1E
100
AcDbEntity
  8
0
  6
Continuous
100
AcDbLine
 10
336.4993241051942
 20
-71.4996459598637
 30
0.0
 11
341.9992968713376
 21
-71.4996459598637
 31
0.0
  0
ARC
  5
5B32
330
1E
100
AcDbEntity
  8
0
  6
Continuous
100
AcDbCircle
 10
360.9134835345702
 20
-64.99967814533062
 30
0.0
 40
19.99990096779404
100
AcDbArc
 50
198.9655749888483
 51
209.9999999999995
  0
LINE
  5
5B33
330
1E
100
AcDbEntity
  8
0
  6
Continuous
100
AcDbLine
 10
320.3254076477777
 20
-59.87470352233343
 30
0.0
 11
336.4993241051943
 21
-59.87470352233343
 31
0.0
  0
LINE
  5
5B34
330
1E
100
AcDbEntity
  8
0
  6
Continuous
100
AcDbLine
 10
336.4993241051942
 20
-62.49969052435638
 30
0.0
 11
341.9992968713376
 21
-62.49969052435638
 31
0.0
  0
ARC
  5
5B35
330
1E
100
AcDbEntity
  8
0
  6
Continuous
100
AcDbCircle
 10
-360.9134835345702
 20
-68.99965833888946
 30
0.0
 40
19.99990096779404
210
0.0
220
0.0
230
-1.0
100
AcDbArc
 50
18.96557498884837
 51
29.9999999999996
  0
DIMENSION
  5
5B36
330
1E
100
AcDbEntity
  8
30
  6
Continuous
100
AcDbDimension
280
     0
  2
*D53
 10
396.0857515477538
 20
-58.99970785499242
 30
0.0
 11
393.0857515477539
 21
-66.99966824210996
 31
0.0
 70
    32
 71
     5
 42
15.99992077423524
 73
     0
 74
     0
 75
     0
  3
STANDARD
100
AcDbAlignedDimension
 13
369.8555653978196
 23
-74.99962862922766
 33
0.0
 14
369.8555653978196
 24
-58.99970785499242
 34
0.0
 50
270.0
100
AcDbRotatedDimension
  0
ARC
  5
5B37
330
1E
100
AcDbEntity
  8
0
  6
Continuous
100
AcDbCircle
 10
355.9992275487935
 20
-66.99966824211003
 30
0.0
 40
15.99992077423523
100
AcDbArc
 50
330.0000000000003
 51
29.9999999999996
  0
LINE
  5
5B38
330
1E
100
AcDbEntity
  8
0
  6
Continuous
100
AcDbLine
 10
356.9992225971832
 20
-53.99973261304392
 30
0.0
 11
356.9992225971832
 21
-79.99960387117616
 31
0.0
  0
LINE
  5
5B39
330
1E
100
AcDbEntity
  8
0
  6
Continuous
100
AcDbLine
 10
286.4995716857089
 20
64.49968062113575
 30
0.0
 11
321.9993959035433
 21
64.49968062113575
 31
0.0
  0
LINE
  5
5B3A
330
1E
100
AcDbEntity
  8
0
  6
Continuous
100
AcDbLine
 10
286.4995716857089
 20
69.49965586308424
 30
0.0
 11
321.9993959035433
 21
69.49965586308424
 31
0.0
  0
LINE
  5
5B3B
330
1E
100
AcDbEntity
  8
0
  6
Continuous
100
AcDbLine
 10
264.9996781453305
 20
66.99966824210996
 30
0.0
 11
381.9990988069256
 21
66.99966824210996
 31
0.0
  0
LINE
  5
5B3C
330
1E
100
AcDbEntity
  8
0
  6
Continuous
100
AcDbLine
 10
269.9996533872788
 20
59.87470352233344
 30
0.0
 11
336.4993241051938
 21
59.87470352233344
 31
0.0
  0
LINE
  5
5B3D
330
1E
100
AcDbEntity
  8
0
  6
Continuous
100
AcDbLine
 10
269.9996533872788
 20
74.12463296188659
 30
0.0
 11
336.4993241051938
 21
74.12463296188659
 31
0.0
  0
LINE
  5
5B3E
330
1E
100
AcDbEntity
  8
10
  6
CONTINOUS
100
AcDbLine
 10
214.9999257258451
 20
77.49961625020205
 30
0.0
 11
269.9996533872792
 21
77.49961625020205
 31
0.0
  0
LINE
  5
5B3F
330
1E
100
AcDbEntity
  8
10
  6
CONTINOUS
100
AcDbLine
 10
200.0
 20
95.99952464541166
 30
0.0
 11
214.9999257258451
 21
95.99952464541166
 31
0.0
  0
LINE
  5
5B40
330
1E
100
AcDbEntity
  8
18
100
AcDbLine
 10
214.9999257258451
 20
105.9994751293084
 30
0.0
 11
214.9999257258451
 21
95.99952464541166
 31
0.0
  0
LINE
  5
5B41
330
1E
100
AcDbEntity
  8
18
100
AcDbLine
 10
214.9999257258451
 20
105.9994751293084
 30
0.0
 11
218.9999059194044
 21
100.9994998873601
 31
0.0
  0
LINE
  5
5B42
330
1E
100
AcDbEntity
  8
0
  6
Continuous
100
AcDbLine
 10
286.4995716857089
 20
74.12463296188659
 30
0.0
 11
286.4995716857089
 21
59.87470352233339
 31
0.0
  0
LINE
  5
5B43
330
1E
100
AcDbEntity
  8
0
  6
Continuous
100
AcDbLine
 10
291.9995444518525
 20
69.49965586308424
 30
0.0
 11
291.9995444518525
 21
64.49968062113575
 31
0.0
  0
LINE
  5
5B44
330
1E
100
AcDbEntity
  8
0
  6
Continuous
100
AcDbLine
 10
336.4993241051942
 20
69.49965586308424
 30
0.0
 11
371.9991483230286
 21
69.49965586308424
 31
0.0
  0
LINE
  5
5B45
330
1E
100
AcDbEntity
  8
0
  6
Continuous
100
AcDbLine
 10
336.4993241051942
 20
64.49968062113575
 30
0.0
 11
371.9991483230286
 21
64.49968062113575
 31
0.0
  0
LINE
  5
5B46
330
1E
100
AcDbEntity
  8
0
  6
Continuous
100
AcDbLine
 10
306.9994701776981
 20
73.24963729454561
 30
0.0
 11
306.9994701776981
 21
60.74969918967435
 31
0.0
  0
LINE
  5
5B47
330
1E
100
AcDbEntity
  8
0
  6
Continuous
100
AcDbLine
 10
321.9993959035433
 20
69.49965586308424
 30
0.0
 11
321.9993959035433
 21
64.49968062113575
 31
0.0
  0
LINE
  5
5B48
330
1E
100
AcDbEntity
  8
0
  6
Continuous
100
AcDbLine
 10
336.4993241051942
 20
74.12463296188659
 30
0.0
 11
336.4993241051942
 21
59.87470352233344
 31
0.0
  0
LINE
  5
5B49
330
1E
100
AcDbEntity
  8
0
  6
Continuous
100
AcDbLine
 10
341.9992968713376
 20
69.49965586308424
 30
0.0
 11
341.9992968713376
 21
64.49968062113575
 31
0.0
  0
DIMENSION
  5
5B4A
330
1E
100
AcDbEntity
  8
30
  6
Continuous
100
AcDbDimension
280
     0
  2
*D54
 10
393.7524182144205
 20
69.49965586308424
 30
0.0
 11
396.0857515477538
 21
73.4996558630843
 31
0.0
 70
   160
 71
     5
 42
4.999975241948489
 73
     0
 74
     0
 75
     0
  3
STANDARD
100
AcDbAlignedDimension
 13
371.9991483230286
 23
64.49968062113575
 33
0.0
 14
371.9991483230286
 24
69.49965586308424
 34
0.0
 50
270.0
100
AcDbRotatedDimension
1001
ACAD
1000
DSTYLE
1002
{
1070
   340
1005
11
1002
}
  0
LINE
  5
5B4B
330
1E
100
AcDbEntity
  8
0
  6
Continuous
100
AcDbLine
 10
356.9992225971832
 20
73.24963729454561
 30
0.0
 11
356.9992225971832
 21
60.74969918967435
 31
0.0
  0
LINE
  5
5B4C
330
1E
100
AcDbEntity
  8
0
  6
Continuous
100
AcDbLine
 10
371.9991483230286
 20
69.49965586308424
 30
0.0
 11
371.9991483230286
 21
64.49968062113575
 31
0.0
  0
TEXT
  5
5B4D
330
1E
100
AcDbEntity
  8
30
  6
Continuous
100
AcDbText
 10
264.3687489326077
 20
-121.3902071445067
 30
0.0
 40
5.0
  1
%%c8.5
 41
0.8542968749999968
  7
UGMTXT
100
AcDbText
  0
DIMENSION
  5
5B4E
330
1E
100
AcDbEntity
  8
30
  6
Continuous
100
AcDbDimension
280
     0
  2
*D55
 10
407.7367141808032
 20
-66.99966824211003
 30
0.0
 11
404.7367141808032
 21
0.0000000000000251
 31
0.0
 70
    32
 71
     5
 42
133.9993364842199
 73
     0
 74
     0
 75
     0
  3
STANDARD
100
AcDbAlignedDimension
 13
381.9990988069256
 23
66.99966824210996
 33
0.0
 14
396.0857515477538
 24
-66.99966824211003
 34
0.0
 50
90.0
100
AcDbRotatedDimension
1001
ACAD
1000
DSTYLE
1002
{
1070
    79
1070
     3
1002
}
  0
LINE
  5
5B4F
330
1E
100
AcDbEntity
  8
1
  6
Continuous
 62
     3
100
AcDbLine
 10
274.1999257258449
 20
-50.00038374979793
 30
0.0
 11
272.599925725845
 21
-50.00038374979793
 31
0.0
  0
LINE
  5
5B50
330
1E
100
AcDbEntity
  8
1
  6
Continuous
 62
     3
100
AcDbLine
 10
226.7999257258448
 20
-50.00038374979793
 30
0.0
 11
226.7999257258448
 21
-75.00038374979793
 31
0.0
  0
LINE
  5
5B51
330
1E
100
AcDbEntity
  8
1
  6
Continuous
 62
     3
100
AcDbLine
 10
272.599925725845
 20
-50.00038374979793
 30
0.0
 11
272.599925725845
 21
-76.50038374979793
 31
0.0
  0
LINE
  5
5B52
330
1E
100
AcDbEntity
  8
1
  6
Continuous
 62
     3
100
AcDbLine
 10
277.2999257258446
 20
-32.60038374979793
 30
0.0
 11
277.2999257258446
 21
-41.40038374979795
 31
0.0
  0
LINE
  5
5B53
330
1E
100
AcDbEntity
  8
1
  6
Continuous
 62
     3
100
AcDbLine
 10
279.7499257258447
 20
38.59961625020205
 30
0.0
 11
277.4999257258451
 21
38.59961625020205
 31
0.0
  0
LINE
  5
5B54
330
1E
100
AcDbEntity
  8
1
  6
Continuous
 62
     3
100
AcDbLine
 10
223.3999257258448
 20
17.99961625020209
 30
0.0
 11
223.3999257258448
 21
-18.00038374979792
 31
0.0
  0
LINE
  5
5B55
330
1E
100
AcDbEntity
  8
1
  6
Continuous
 62
     3
100
AcDbLine
 10
277.0999257258448
 20
-32.60038374979793
 30
0.0
 11
276.1999257258447
 21
-32.60038374979793
 31
0.0
  0
LINE
  5
5B56
330
1E
100
AcDbEntity
  8
1
  6
Continuous
 62
     3
100
AcDbLine
 10
269.9999257258451
 20
-76.50038374979793
 30
0.0
 11
272.599925725845
 21
-76.50038374979793
 31
0.0
  0
LINE
  5
5B57
330
1E
100
AcDbEntity
  8
1
  6
Continuous
 62
     3
100
AcDbLine
 10
226.7999257258448
 20
74.99961625020205
 30
0.0
 11
214.9999257258451
 21
74.99961625020205
 31
0.0
  0
LINE
  5
5B58
330
1E
100
AcDbEntity
  8
1
  6
Continuous
 62
     3
100
AcDbLine
 10
226.7999257258448
 20
49.99961625020205
 30
0.0
 11
272.599925725845
 21
49.99961625020205
 31
0.0
  0
LINE
  5
5B59
330
1E
100
AcDbEntity
  8
1
  6
Continuous
 62
     3
100
AcDbLine
 10
260.3999257258447
 20
-18.00038374979792
 30
0.0
 11
260.3999257258447
 21
17.99961625020209
 31
0.0
  0
LINE
  5
5B5A
330
1E
100
AcDbEntity
  8
1
  6
Continuous
 62
     3
100
AcDbLine
 10
275.1999257258449
 20
54.49961625020208
 30
0.0
 11
272.599925725845
 21
54.49961625020208
 31
0.0
  0
LINE
  5
5B5B
330
1E
100
AcDbEntity
  8
1
  6
Continuous
 62
     3
100
AcDbLine
 10
276.3999257258447
 20
43.64143875020203
 30
0.0
 11
277.4999257258451
 21
43.54520125020207
 31
0.0
  0
LINE
  5
5B5C
330
1E
100
AcDbEntity
  8
1
  6
Continuous
 62
     3
100
AcDbLine
 10
280.7499257258449
 20
46.39961625020204
 30
0.0
 11
280.7499257258449
 21
39.59961625020206
 31
0.0
  0
LINE
  5
5B5D
330
1E
100
AcDbEntity
  8
1
  6
Continuous
 62
     3
100
AcDbLine
 10
276.3999257258447
 20
38.64961625020207
 30
0.0
 11
276.3999257258447
 21
47.34961625020203
 31
0.0
  0
LINE
  5
5B5E
330
1E
100
AcDbEntity
  8
1
  6
Continuous
 62
     3
100
AcDbLine
 10
275.9999257258447
 20
38.24961625020208
 30
0.0
 11
275.2999257258448
 21
38.24961625020208
 31
0.0
  0
LINE
  5
5B5F
330
1E
100
AcDbEntity
  8
1
  6
Continuous
 62
     3
100
AcDbLine
 10
277.4999257258451
 20
47.19961625020203
 30
0.0
 11
277.4999257258451
 21
38.79961625020208
 31
0.0
  0
LINE
  5
5B60
330
1E
100
AcDbEntity
  8
1
  6
Continuous
 62
     3
100
AcDbLine
 10
275.7999257258449
 20
-32.25038374979793
 30
0.0
 11
275.099925725845
 21
-32.25038374979793
 31
0.0
  0
LINE
  5
5B61
330
1E
100
AcDbEntity
  8
1
  6
Continuous
 62
     3
100
AcDbLine
 10
277.4999257258451
 20
42.74405625020206
 30
0.0
 11
276.3999257258447
 21
42.84029375020202
 31
0.0
  0
LINE
  5
5B62
330
1E
100
AcDbEntity
  8
1
  6
Continuous
 62
     3
100
AcDbLine
 10
258.3999257258447
 20
19.99961625020205
 30
0.0
 11
225.3999257258448
 21
19.99961625020205
 31
0.0
  0
LINE
  5
5B63
330
1E
100
AcDbEntity
  8
1
  6
Continuous
 62
     3
100
AcDbLine
 10
275.1999257258449
 20
-45.50038374979795
 30
0.0
 11
275.1999257258449
 21
54.49961625020208
 31
0.0
  0
LINE
  5
5B64
330
1E
100
AcDbEntity
  8
1
  6
Continuous
 62
     3
100
AcDbLine
 10
277.2999257258446
 20
47.39961625020207
 30
0.0
 11
276.3999257258447
 21
47.39961625020207
 31
0.0
  0
LINE
  5
5B65
330
1E
100
AcDbEntity
  8
1
  6
Continuous
 62
     3
100
AcDbLine
 10
277.2999257258446
 20
38.59961625020205
 30
0.0
 11
276.3999257258447
 21
38.59961625020205
 31
0.0
  0
LINE
  5
5B66
330
1E
100
AcDbEntity
  8
1
  6
Continuous
 62
     3
100
AcDbLine
 10
275.9999257258447
 20
47.74961625020203
 30
0.0
 11
275.2999257258448
 21
47.74961625020203
 31
0.0
  0
LINE
  5
5B67
330
1E
100
AcDbEntity
  8
1
  6
Continuous
 62
     3
100
AcDbLine
 10
279.5499257258448
 20
-41.40038374979795
 30
0.0
 11
277.2999257258446
 21
-41.40038374979795
 31
0.0
  0
LINE
  5
5B68
330
1E
100
AcDbEntity
  8
1
  6
Continuous
 62
     3
100
AcDbLine
 10
226.7999257258448
 20
74.99961625020205
 30
0.0
 11
226.7999257258448
 21
49.99961625020205
 31
0.0
  0
LINE
  5
5B69
330
1E
100
AcDbEntity
  8
1
  6
Continuous
 62
     3
100
AcDbLine
 10
225.3999257258448
 20
-20.00038374979795
 30
0.0
 11
258.3999257258447
 21
-20.00038374979795
 31
0.0
  0
LINE
  5
5B6A
330
1E
100
AcDbEntity
  8
1
  6
Continuous
 62
     3
100
AcDbLine
 10
274.1999257258449
 20
49.99961625020205
 30
0.0
 11
274.1999257258449
 21
-50.00038374979793
 31
0.0
  0
LINE
  5
5B6B
330
1E
100
AcDbEntity
  8
1
  6
Continuous
 62
     3
100
AcDbLine
 10
272.599925725845
 20
76.49961625020205
 30
0.0
 11
272.599925725845
 21
49.99961625020205
 31
0.0
  0
LINE
  5
5B6C
330
1E
100
AcDbEntity
  8
1
  6
Continuous
 62
     3
100
AcDbLine
 10
279.5499257258448
 20
-32.60038374979793
 30
0.0
 11
277.2999257258446
 21
-32.60038374979793
 31
0.0
  0
LINE
  5
5B6D
330
1E
100
AcDbEntity
  8
1
  6
Continuous
 62
     3
100
AcDbLine
 10
280.5499257258448
 20
-33.60038374979794
 30
0.0
 11
280.5499257258448
 21
-40.40038374979793
 31
0.0
  0
LINE
  5
5B6E
330
1E
100
AcDbEntity
  8
1
  6
Continuous
 62
     3
100
AcDbLine
 10
276.1999257258447
 20
-36.35856124979792
 30
0.0
 11
277.2999257258446
 21
-36.45479874979792
 31
0.0
  0
LINE
  5
5B6F
330
1E
100
AcDbEntity
  8
1
  6
Continuous
 62
     3
100
AcDbLine
 10
214.9999257258451
 20
-75.00038374979793
 30
0.0
 11
226.7999257258448
 21
-75.00038374979793
 31
0.0
  0
LINE
  5
5B70
330
1E
100
AcDbEntity
  8
1
  6
Continuous
 62
     3
100
AcDbLine
 10
269.9999257258451
 20
76.49961625020205
 30
0.0
 11
272.599925725845
 21
76.49961625020205
 31
0.0
  0
LINE
  5
5B71
330
1E
100
AcDbEntity
  8
1
  6
Continuous
 62
     3
100
AcDbLine
 10
277.4999257258451
 20
47.39961625020207
 30
0.0
 11
277.4999257258451
 21
38.59961625020205
 31
0.0
  0
LINE
  5
5B72
330
1E
100
AcDbEntity
  8
1
  6
Continuous
 62
     3
100
AcDbLine
 10
279.7499257258447
 20
47.39961625020207
 30
0.0
 11
277.4999257258451
 21
47.39961625020207
 31
0.0
  0
LINE
  5
5B73
330
1E
100
AcDbEntity
  8
1
  6
Continuous
 62
     3
100
AcDbLine
 10
277.0999257258448
 20
-41.40038374979795
 30
0.0
 11
276.1999257258447
 21
-41.40038374979795
 31
0.0
  0
LINE
  5
5B74
330
1E
100
AcDbEntity
  8
1
  6
Continuous
 62
     3
100
AcDbLine
 10
272.599925725845
 20
-50.00038374979793
 30
0.0
 11
226.7999257258448
 21
-50.00038374979793
 31
0.0
  0
LINE
  5
5B75
330
1E
100
AcDbEntity
  8
1
  6
Continuous
 62
     3
100
AcDbLine
 10
272.599925725845
 20
49.99961625020205
 30
0.0
 11
274.1999257258449
 21
49.99961625020205
 31
0.0
  0
LINE
  5
5B76
330
1E
100
AcDbEntity
  8
1
  6
Continuous
 62
     3
100
AcDbLine
 10
275.1999257258449
 20
-45.50038374979795
 30
0.0
 11
274.1999257258449
 21
-45.50038374979795
 31
0.0
  0
LINE
  5
5B77
330
1E
100
AcDbEntity
  8
1
  6
Continuous
 62
     3
100
AcDbLine
 10
277.2999257258446
 20
-37.25594374979792
 30
0.0
 11
276.1999257258447
 21
-37.15970624979796
 31
0.0
  0
LINE
  5
5B78
330
1E
100
AcDbEntity
  8
1
  6
Continuous
 62
     3
100
AcDbLine
 10
275.7999257258449
 20
-41.75038374979795
 30
0.0
 11
275.099925725845
 21
-41.75038374979795
 31
0.0
  0
LINE
  5
5B79
330
1E
100
AcDbEntity
  8
1
  6
Continuous
 62
     3
100
AcDbLine
 10
277.2999257258446
 20
-32.80038374979792
 30
0.0
 11
277.2999257258446
 21
-41.20038374979792
 31
0.0
  0
LINE
  5
5B7A
330
1E
100
AcDbEntity
  8
1
  6
Continuous
 62
     3
100
AcDbLine
 10
276.1999257258447
 20
-41.35038374979791
 30
0.0
 11
276.1999257258447
 21
-32.65038374979795
 31
0.0
  0
ARC
  5
5B7B
330
1E
100
AcDbEntity
  8
1
  6
Continuous
 62
     3
100
AcDbCircle
 10
279.5499257258448
 20
-33.60038374979794
 30
0.0
 40
1.0
100
AcDbArc
 50
0.0
 51
90.0
  0
ARC
  5
5B7C
330
1E
100
AcDbEntity
  8
1
  6
Continuous
 62
     3
100
AcDbCircle
 10
277.2999257258446
 20
47.19961625020203
 30
0.0
 40
0.2
100
AcDbArc
 50
0.0
 51
90.0
  0
ARC
  5
5B7D
330
1E
100
AcDbEntity
  8
1
  6
Continuous
 62
     3
100
AcDbCircle
 10
225.3999257258448
 20
-18.00038374979792
 30
0.0
 40
2.0
100
AcDbArc
 50
180.0
 51
270.0
  0
ARC
  5
5B7E
330
1E
100
AcDbEntity
  8
1
  6
Continuous
 62
     3
100
AcDbCircle
 10
277.2999257258446
 20
38.79961625020208
 30
0.0
 40
0.2
100
AcDbArc
 50
270.0
 51
0.0
  0
ARC
  5
5B7F
330
1E
100
AcDbEntity
  8
1
  6
Continuous
 62
     3
100
AcDbCircle
 10
277.0999257258448
 20
-32.80038374979792
 30
0.0
 40
0.2
100
AcDbArc
 50
0.0
 51
90.0
  0
ARC
  5
5B80
330
1E
100
AcDbEntity
  8
1
  6
Continuous
 62
     3
100
AcDbCircle
 10
225.3999257258448
 20
17.99961625020209
 30
0.0
 40
2.0
100
AcDbArc
 50
90.0
 51
180.0
  0
ARC
  5
5B81
330
1E
100
AcDbEntity
  8
1
  6
Continuous
 62
     3
100
AcDbCircle
 10
275.9999257258447
 20
47.34961625020203
 30
0.0
 40
0.4
100
AcDbArc
 50
0.0
 51
90.0
  0
ARC
  5
5B82
330
1E
100
AcDbEntity
  8
1
  6
Continuous
 62
     3
100
AcDbCircle
 10
258.3999257258447
 20
-18.00038374979792
 30
0.0
 40
2.0
100
AcDbArc
 50
270.0
 51
0.0
  0
ARC
  5
5B83
330
1E
100
AcDbEntity
  8
1
  6
Continuous
 62
     3
100
AcDbCircle
 10
275.9999257258447
 20
38.64961625020207
 30
0.0
 40
0.4
100
AcDbArc
 50
270.0
 51
0.0
  0
ARC
  5
5B84
330
1E
100
AcDbEntity
  8
1
  6
Continuous
 62
     3
100
AcDbCircle
 10
279.7499257258447
 20
46.39961625020204
 30
0.0
 40
1.0
100
AcDbArc
 50
0.0
 51
90.0
  0
ARC
  5
5B85
330
1E
100
AcDbEntity
  8
1
  6
Continuous
 62
     3
100
AcDbCircle
 10
277.0999257258448
 20
-41.20038374979792
 30
0.0
 40
0.2
100
AcDbArc
 50
270.0
 51
0.0
  0
ARC
  5
5B86
330
1E
100
AcDbEntity
  8
1
  6
Continuous
 62
     3
100
AcDbCircle
 10
279.5499257258448
 20
-40.40038374979793
 30
0.0
 40
1.0
100
AcDbArc
 50
270.0
 51
0.0
  0
ARC
  5
5B87
330
1E
100
AcDbEntity
  8
1
  6
Continuous
 62
     3
100
AcDbCircle
 10
279.7499257258447
 20
39.59961625020206
 30
0.0
 40
1.0
100
AcDbArc
 50
270.0
 51
0.0
  0
ARC
  5
5B88
330
1E
100
AcDbEntity
  8
1
  6
Continuous
 62
     3
100
AcDbCircle
 10
275.7999257258449
 20
-41.35038374979791
 30
0.0
 40
0.4
100
AcDbArc
 50
270.0
 51
0.0
  0
ARC
  5
5B89
330
1E
100
AcDbEntity
  8
1
  6
Continuous
 62
     3
100
AcDbCircle
 10
258.3999257258447
 20
17.99961625020209
 30
0.0
 40
2.0
100
AcDbArc
 50
0.0
 51
90.0
  0
ARC
  5
5B8A
330
1E
100
AcDbEntity
  8
1
  6
Continuous
 62
     3
100
AcDbCircle
 10
275.7999257258449
 20
-32.65038374979795
 30
0.0
 40
0.4
100
AcDbArc
 50
0.0
 51
90.0
  0
LINE
  5
5B8B
330
1E
100
AcDbEntity
  8
10
  6
CONTINOUS
100
AcDbLine
 10
269.9996533872792
 20
-77.4996162502019
 30
0.0
 11
269.9996533872792
 21
-50.00038374979793
 31
0.0
  0
LINE
  5
5B8C
330
1E
100
AcDbEntity
  8
10
  6
CONTINOUS
100
AcDbLine
 10
269.9996533872792
 20
77.49961625020205
 30
0.0
 11
269.9996533872792
 21
49.99961625020205
 31
0.0
  0
LINE
  5
5D86
330
1E
100
AcDbEntity
  8
10
  6
CONTINOUS
100
AcDbLine
 10
-81.0
 20
152.4059210493446
 30
0.0
 11
-81.0
 21
167.4059210493446
 31
0.0
  0
LINE
  5
5D87
330
1E
100
AcDbEntity
  8
21
  6
Continuous
100
AcDbLine
 10
57.5
 20
288.9059210493446
 30
0.0
 11
57.5
 21
324.4059210493446
 31
0.0
  0
LINE
  5
5D88
330
1E
100
AcDbEntity
  8
10
  6
CONTINOUS
100
AcDbLine
 10
-7.0
 20
146.4059210493446
 30
0.0
 11
-7.0
 21
134.4106685493445
 31
0.0
  0
LINE
  5
5D89
330
1E
100
AcDbEntity
  8
10
  6
CONTINOUS
100
AcDbLine
 10
-45.0
 20
167.4059210493446
 30
0.0
 11
-45.0
 21
222.4059210493446
 31
0.0
  0
LINE
  5
5D8A
330
1E
100
AcDbEntity
  8
18
100
AcDbLine
 10
-81.0
 20
167.4059210493446
 30
0.0
 11
-86.0
 21
167.4059210493446
 31
0.0
  0
LINE
  5
5D8B
330
1E
100
AcDbEntity
  8
10
  6
CONTINOUS
100
AcDbLine
 10
7.0
 20
134.4106685493445
 30
0.0
 11
-7.0
 21
134.4106685493445
 31
0.0
  0
LINE
  5
5D8C
330
1E
100
AcDbEntity
  8
1
  6
Continuous
 62
     3
100
AcDbLine
 10
75.0
 20
222.4059210493446
 30
0.0
 11
-45.0
 21
222.4059210493446
 31
0.0
  0
LINE
  5
5D8D
330
1E
100
AcDbEntity
  8
21
  6
Continuous
100
AcDbLine
 10
2.5
 20
288.9059210493446
 30
0.0
 11
2.5
 21
324.4059210493446
 31
0.0
  0
LINE
  5
5D8F
330
1E
100
AcDbEntity
  8
1
  6
Continuous
 62
     3
100
AcDbLine
 10
84.913
 20
221.3059210493446
 30
0.0
 11
84.62432500000025
 21
220.8059210493446
 31
0.0
  0
LINE
  5
5D90
330
1E
100
AcDbEntity
  8
1
  6
Continuous
 62
     3
100
AcDbLine
 10
-56.9000000000001
 20
228.6059210493446
 30
0.0
 11
-56.9000000000001
 21
227.7059210493446
 31
0.0
  0
LINE
  5
5D91
330
1E
100
AcDbEntity
  8
1
  6
Continuous
 62
     3
100
AcDbLine
 10
-49.0999999999999
 20
232.0559210493446
 30
0.0
 11
-55.9000000000001
 21
232.0559210493446
 31
0.0
  0
LINE
  5
5D92
330
1E
100
AcDbEntity
  8
1
  6
Continuous
 62
     3
100
AcDbLine
 10
-61.0
 20
225.0059210493445
 30
0.0
 11
-61.0
 21
167.4059210493446
 31
0.0
  0
LINE
  5
5D93
330
1E
100
AcDbEntity
  8
1
  6
Continuous
 62
     3
100
AcDbLine
 10
-40.0
 20
227.6059210493445
 30
0.0
 11
-37.125
 21
227.6059210493445
 31
0.0
  0
LINE
  5
5D94
330
1E
100
AcDbEntity
  8
21
  6
Continuous
100
AcDbLine
 10
7.125
 20
288.9059210493446
 30
0.0
 11
-7.125
 21
288.9059210493446
 31
0.0
  0
LINE
  5
5D95
330
1E
100
AcDbEntity
  8
21
  6
Continuous
100
AcDbLine
 10
-22.875
 20
238.9059210493446
 30
0.0
 11
-37.125
 21
238.9059210493446
 31
0.0
  0
LINE
  5
5D96
330
1E
100
AcDbEntity
  8
1
  6
Continuous
 62
     3
100
AcDbLine
 10
-50.37567499999977
 20
220.8059210493446
 30
0.0
 11
-54.62432499999977
 21
220.8059210493446
 31
0.0
  0
LINE
  5
5D97
330
1E
100
AcDbEntity
  8
1
  6
Continuous
 62
     3
100
AcDbLine
 10
83.1418249999997
 20
227.7059210493446
 30
0.0
 11
83.04558749999978
 21
228.8059210493446
 31
0.0
  0
LINE
  5
5D98
330
1E
100
AcDbEntity
  8
1
  6
Continuous
 62
     3
100
AcDbLine
 10
-52.75556000000007
 20
228.8059210493446
 30
0.0
 11
-52.65932250000014
 21
227.7059210493446
 31
0.0
  0
LINE
  5
5D99
330
1E
100
AcDbEntity
  8
1
  6
Continuous
 62
     3
100
AcDbLine
 10
91.0
 20
225.0059210493445
 30
0.0
 11
88.49999999999999
 21
225.0059210493445
 31
0.0
  0
LINE
  5
5D9B
330
1E
100
AcDbEntity
  8
1
  6
Continuous
 62
     3
100
AcDbLine
 10
-58.5
 20
225.0059210493445
 30
0.0
 11
-37.125
 21
225.0059210493445
 31
0.0
  0
LINE
  5
5D9C
330
1E
100
AcDbEntity
  8
1
  6
Continuous
 62
     3
100
AcDbLine
 10
10.0
 20
227.6059210493445
 30
0.0
 11
10.0
 21
225.0059210493445
 31
0.0
  0
LINE
  5
5D9D
330
1E
100
AcDbEntity
  8
1
  6
Continuous
 62
     3
100
AcDbLine
 10
-22.875
 20
225.0059210493445
 30
0.0
 11
-7.125
 21
225.0059210493445
 31
0.0
  0
LINE
  5
5D9E
330
1E
100
AcDbEntity
  8
1
  6
Continuous
 62
     3
100
AcDbLine
 10
-61.0
 20
225.0059210493445
 30
0.0
 11
-39.625
 21
225.0059210493445
 31
0.0
  0
LINE
  5
5D9F
330
1E
100
AcDbEntity
  8
1
  6
Continuous
 62
     3
100
AcDbLine
 10
-48.30000000000018
 20
228.8059210493446
 30
0.0
 11
-56.69999999999982
 21
228.8059210493446
 31
0.0
  0
LINE
  5
5DA0
330
1E
100
AcDbEntity
  8
1
  6
Continuous
 62
     3
100
AcDbLine
 10
-48.0999999999999
 20
231.0559210493447
 30
0.0
 11
-48.0999999999999
 21
228.8059210493446
 31
0.0
  0
LINE
  5
5DA1
330
1E
100
AcDbEntity
  8
1
  6
Continuous
 62
     3
100
AcDbLine
 10
87.24999999999999
 20
227.3059210493447
 30
0.0
 11
87.24999999999999
 21
226.6059210493446
 31
0.0
  0
LINE
  5
5DA2
330
1E
100
AcDbEntity
  8
1
  6
Continuous
 62
     3
100
AcDbLine
 10
-50.08699999999999
 20
221.3059210493446
 30
0.0
 11
-50.37567499999977
 21
220.8059210493446
 31
0.0
  0
LINE
  5
5DA3
330
1E
100
AcDbEntity
  8
1
  6
Continuous
 62
     3
100
AcDbLine
 10
84.913
 20
221.3059210493446
 30
0.0
 11
84.913
 21
222.4059210493446
 31
0.0
  0
LINE
  5
5DA4
330
1E
100
AcDbEntity
  8
21
  6
Continuous
100
AcDbLine
 10
-22.875
 20
222.4059210493446
 30
0.0
 11
-22.875
 21
238.9059210493446
 31
0.0
  0
LINE
  5
5DA5
330
1E
100
AcDbEntity
  8
21
  6
Continuous
100
AcDbLine
 10
67.125
 20
222.4059210493446
 30
0.0
 11
67.125
 21
288.9059210493446
 31
0.0
  0
LINE
  5
5DA6
330
1E
100
AcDbEntity
  8
21
  6
Continuous
100
AcDbLine
 10
37.125
 20
238.9059210493446
 30
0.0
 11
22.875
 21
238.9059210493446
 31
0.0
  0
LINE
  5
5DA7
330
1E
100
AcDbEntity
  8
21
  6
Continuous
100
AcDbLine
 10
37.125
 20
222.4059210493446
 30
0.0
 11
37.125
 21
238.9059210493446
 31
0.0
  0
LINE
  5
5DA8
330
1E
100
AcDbEntity
  8
1
  6
Continuous
 62
     3
100
AcDbLine
 10
88.49999999999999
 20
225.0059210493445
 30
0.0
 11
88.49999999999999
 21
222.4059210493446
 31
0.0
  0
LINE
  5
5DA9
330
1E
100
AcDbEntity
  8
1
  6
Continuous
 62
     3
100
AcDbLine
 10
67.125
 20
225.0059210493445
 30
0.0
 11
88.49999999999999
 21
225.0059210493445
 31
0.0
  0
LINE
  5
5DAA
330
1E
100
AcDbEntity
  8
1
  6
Continuous
 62
     3
100
AcDbLine
 10
92.5999999999999
 20
226.6059210493446
 30
0.0
 11
92.5999999999999
 21
167.4059210493446
 31
0.0
  0
LINE
  5
5DAB
330
1E
100
AcDbEntity
  8
1
  6
Continuous
 62
     3
100
AcDbLine
 10
78.15000000000009
 20
227.7059210493446
 30
0.0
 11
86.84999999999991
 21
227.7059210493446
 31
0.0
  0
LINE
  5
5DAC
330
1E
100
AcDbEntity
  8
1
  6
Continuous
 62
     3
100
AcDbLine
 10
86.9000000000001
 20
228.6059210493446
 30
0.0
 11
86.9000000000001
 21
227.7059210493446
 31
0.0
  0
LINE
  5
5DAD
330
1E
100
AcDbEntity
  8
1
  6
Continuous
 62
     3
100
AcDbLine
 10
86.9000000000001
 20
231.0559210493447
 30
0.0
 11
86.9000000000001
 21
228.8059210493446
 31
0.0
  0
LINE
  5
5DAE
330
1E
100
AcDbEntity
  8
1
  6
Continuous
 62
     3
100
AcDbLine
 10
84.62432500000025
 20
220.8059210493446
 30
0.0
 11
80.37567499999978
 21
220.8059210493446
 31
0.0
  0
LINE
  5
5DAF
330
1E
100
AcDbEntity
  8
21
  6
Continuous
100
AcDbLine
 10
-32.5
 20
238.9059210493446
 30
0.0
 11
-32.5
 21
274.4059210493446
 31
0.0
  0
LINE
  5
5DB0
330
1E
100
AcDbEntity
  8
21
  6
Continuous
100
AcDbLine
 10
62.5
 20
324.4059210493446
 30
0.0
 11
57.5
 21
324.4059210493446
 31
0.0
  0
LINE
  5
5DB1
330
1E
100
AcDbEntity
  8
21
  6
Continuous
100
AcDbLine
 10
7.125
 20
222.4059210493446
 30
0.0
 11
7.125
 21
288.9059210493446
 31
0.0
  0
LINE
  5
5DB2
330
1E
100
AcDbEntity
  8
21
  6
Continuous
100
AcDbLine
 10
27.5
 20
238.9059210493446
 30
0.0
 11
27.5
 21
274.4059210493446
 31
0.0
  0
LINE
  5
5DB3
330
1E
100
AcDbEntity
  8
10
  6
CONTINOUS
100
AcDbLine
 10
-11.0
 20
146.4059210493446
 30
0.0
 11
-11.0
 21
150.4059210493445
 31
0.0
  0
LINE
  5
5DB4
330
1E
100
AcDbEntity
  8
10
  6
CONTINOUS
100
AcDbLine
 10
42.0
 20
150.4059210493445
 30
0.0
 11
42.0
 21
152.4059210493446
 31
0.0
  0
LINE
  5
5DB5
330
1E
100
AcDbEntity
  8
10
  6
CONTINOUS
100
AcDbLine
 10
111.0
 20
167.4059210493446
 30
0.0
 11
-81.0
 21
167.4059210493446
 31
0.0
  0
LINE
  5
5DB6
330
1E
100
AcDbEntity
  8
18
100
AcDbLine
 10
116.0
 20
167.4059210493446
 30
0.0
 11
111.0
 21
171.4059210493446
 31
0.0
  0
LINE
  5
5DB7
330
1E
100
AcDbEntity
  8
1
  6
Continuous
 62
     3
100
AcDbLine
 10
10.0
 20
227.6059210493445
 30
0.0
 11
22.875
 21
227.6059210493445
 31
0.0
  0
LINE
  5
5DB8
330
1E
100
AcDbEntity
  8
1
  6
Continuous
 62
     3
100
AcDbLine
 10
37.125
 20
225.0059210493445
 30
0.0
 11
52.875
 21
225.0059210493445
 31
0.0
  0
LINE
  5
5DB9
330
1E
100
AcDbEntity
  8
1
  6
Continuous
 62
     3
100
AcDbLine
 10
-46.0
 20
226.6059210493446
 30
0.0
 11
-46.0
 21
225.0059210493445
 31
0.0
  0
LINE
  5
5DBA
330
1E
100
AcDbEntity
  8
1
  6
Continuous
 62
     3
100
AcDbLine
 10
-57.25
 20
227.3059210493447
 30
0.0
 11
-57.25
 21
226.6059210493446
 31
0.0
  0
LINE
  5
5DBB
330
1E
100
AcDbEntity
  8
1
  6
Continuous
 62
     3
100
AcDbLine
 10
-48.0999999999999
 20
228.8059210493446
 30
0.0
 11
-56.9000000000001
 21
228.8059210493446
 31
0.0
  0
LINE
  5
5DBC
330
1E
100
AcDbEntity
  8
1
  6
Continuous
 62
     3
100
AcDbLine
 10
-51.85817500000029
 20
227.7059210493446
 30
0.0
 11
-51.95441250000022
 21
228.8059210493446
 31
0.0
  0
LINE
  5
5DBD
330
1E
100
AcDbEntity
  8
1
  6
Continuous
 62
     3
100
AcDbLine
 10
-54.62432499999977
 20
220.8059210493446
 30
0.0
 11
-54.91300000000001
 21
221.3059210493446
 31
0.0
  0
LINE
  5
5DBF
330
1E
100
AcDbEntity
  8
21
  6
Continuous
100
AcDbLine
 10
-27.5
 20
238.9059210493446
 30
0.0
 11
-27.5
 21
274.4059210493446
 31
0.0
  0
LINE
  5
5DC0
330
1E
100
AcDbEntity
  8
21
  6
Continuous
100
AcDbLine
 10
62.5
 20
324.4059210493446
 30
0.0
 11
57.5
 21
324.4059210493446
 31
0.0
  0
LINE
  5
5DC1
330
1E
100
AcDbEntity
  8
21
  6
Continuous
100
AcDbLine
 10
32.5
 20
238.9059210493446
 30
0.0
 11
32.5
 21
274.4059210493446
 31
0.0
  0
LINE
  5
5DC3
330
1E
100
AcDbEntity
  8
10
  6
CONTINOUS
100
AcDbLine
 10
75.0
 20
222.4059210493446
 30
0.0
 11
75.0
 21
167.4059210493446
 31
0.0
  0
LINE
  5
5DC4
330
1E
100
AcDbEntity
  8
10
  6
CONTINOUS
100
AcDbLine
 10
7.0
 20
146.4059210493446
 30
0.0
 11
7.0
 21
134.4106685493445
 31
0.0
  0
LINE
  5
5DC5
330
1E
100
AcDbEntity
  8
21
  6
Continuous
100
AcDbLine
 10
62.5
 20
294.4059210493446
 30
0.0
 11
57.5
 21
294.4059210493446
 31
0.0
  0
LINE
  5
5DC6
330
1E
100
AcDbEntity
  8
10
  6
CONTINOUS
100
AcDbLine
 10
111.0
 20
152.4059210493446
 30
0.0
 11
111.0
 21
167.4059210493446
 31
0.0
  0
LINE
  5
5DC7
330
1E
100
AcDbEntity
  8
1
  6
Continuous
 62
     3
100
AcDbLine
 10
-15.0
 20
227.6059210493445
 30
0.0
 11
-15.0
 21
225.0059210493445
 31
0.0
  0
LINE
  5
5DC8
330
1E
100
AcDbEntity
  8
1
  6
Continuous
 62
     3
100
AcDbLine
 10
-22.875
 20
227.6059210493445
 30
0.0
 11
-15.0
 21
227.6059210493445
 31
0.0
  0
LINE
  5
5DC9
330
1E
100
AcDbEntity
  8
1
  6
Continuous
 62
     3
100
AcDbLine
 10
-62.60000000000037
 20
226.6059210493446
 30
0.0
 11
-46.0
 21
226.6059210493446
 31
0.0
  0
LINE
  5
5DCA
330
1E
100
AcDbEntity
  8
1
  6
Continuous
 62
     3
100
AcDbLine
 10
76.0
 20
226.6059210493446
 30
0.0
 11
76.0
 21
225.0059210493445
 31
0.0
  0
LINE
  5
5DCB
330
1E
100
AcDbEntity
  8
1
  6
Continuous
 62
     3
100
AcDbLine
 10
-47.75
 20
227.3059210493447
 30
0.0
 11
-47.75
 21
226.6059210493446
 31
0.0
  0
LINE
  5
5DCC
330
1E
100
AcDbEntity
  8
1
  6
Continuous
 62
     3
100
AcDbLine
 10
82.24443999999992
 20
228.8059210493446
 30
0.0
 11
82.34067750000031
 21
227.7059210493446
 31
0.0
  0
LINE
  5
5DCD
330
1E
100
AcDbEntity
  8
1
  6
Continuous
 62
     3
100
AcDbLine
 10
78.09999999999991
 20
231.0559210493447
 30
0.0
 11
78.09999999999991
 21
228.8059210493446
 31
0.0
  0
LINE
  5
5DCE
330
1E
100
AcDbEntity
  8
1
  6
Continuous
 62
     3
100
AcDbLine
 10
-56.8499999999999
 20
227.7059210493446
 30
0.0
 11
-48.1500000000001
 21
227.7059210493446
 31
0.0
  0
LINE
  5
5DCF
330
1E
100
AcDbEntity
  8
1
  6
Continuous
 62
     3
100
AcDbLine
 10
-54.91300000000001
 20
221.3059210493446
 30
0.0
 11
-54.91300000000001
 21
222.4059210493446
 31
0.0
  0
LINE
  5
5DD0
330
1E
100
AcDbEntity
  8
1
  6
Continuous
 62
     3
100
AcDbLine
 10
80.37567499999978
 20
220.8059210493446
 30
0.0
 11
80.08699999999997
 21
221.3059210493446
 31
0.0
  0
LINE
  5
5DD1
330
1E
100
AcDbEntity
  8
21
  6
Continuous
100
AcDbLine
 10
-37.125
 20
222.4059210493446
 30
0.0
 11
-37.125
 21
238.9059210493446
 31
0.0
  0
LINE
  5
5DD2
330
1E
100
AcDbEntity
  8
21
  6
Continuous
100
AcDbLine
 10
52.875
 20
222.4059210493446
 30
0.0
 11
52.875
 21
288.9059210493446
 31
0.0
  0
LINE
  5
5DD3
330
1E
100
AcDbEntity
  8
21
  6
Continuous
100
AcDbLine
 10
2.5
 20
324.4059210493446
 30
0.0
 11
-2.5
 21
324.4059210493446
 31
0.0
  0
LINE
  5
5DD4
330
1E
100
AcDbEntity
  8
21
  6
Continuous
100
AcDbLine
 10
22.875
 20
222.4059210493446
 30
0.0
 11
22.875
 21
238.9059210493446
 31
0.0
  0
LINE
  5
5DD5
330
1E
100
AcDbEntity
  8
21
  6
Continuous
100
AcDbLine
 10
2.5
 20
294.4059210493446
 30
0.0
 11
-2.5
 21
294.4059210493446
 31
0.0
  0
LINE
  5
5DD6
330
1E
100
AcDbEntity
  8
10
  6
CONTINOUS
100
AcDbLine
 10
11.0
 20
146.4059210493446
 30
0.0
 11
-11.0
 21
146.4059210493446
 31
0.0
  0
LINE
  5
5DD7
330
1E
100
AcDbEntity
  8
21
  6
Continuous
100
AcDbLine
 10
62.5
 20
288.9059210493446
 30
0.0
 11
62.5
 21
324.4059210493446
 31
0.0
  0
LINE
  5
5DD8
330
1E
100
AcDbEntity
  8
18
100
AcDbLine
 10
-86.0
 20
167.4059210493446
 30
0.0
 11
-91.0
 21
171.4059210493446
 31
0.0
  0
LINE
  5
5DD9
330
1E
100
AcDbEntity
  8
1
  6
Continuous
 62
     3
100
AcDbLine
 10
-40.0
 20
227.6059210493445
 30
0.0
 11
-40.0
 21
225.0059210493445
 31
0.0
  0
LINE
  5
5DDB
330
1E
100
AcDbEntity
  8
1
  6
Continuous
 62
     3
100
AcDbLine
 10
-62.60000000000037
 20
226.6059210493446
 30
0.0
 11
-62.60000000000037
 21
167.4059210493446
 31
0.0
  0
LINE
  5
5DDC
330
1E
100
AcDbEntity
  8
1
  6
Continuous
 62
     3
100
AcDbLine
 10
76.0
 20
226.6059210493446
 30
0.0
 11
92.5999999999999
 21
226.6059210493446
 31
0.0
  0
LINE
  5
5DDD
330
1E
100
AcDbEntity
  8
1
  6
Continuous
 62
     3
100
AcDbLine
 10
-48.0999999999999
 20
228.6059210493446
 30
0.0
 11
-48.0999999999999
 21
227.7059210493446
 31
0.0
  0
LINE
  5
5DDE
330
1E
100
AcDbEntity
  8
1
  6
Continuous
 62
     3
100
AcDbLine
 10
77.75
 20
227.3059210493447
 30
0.0
 11
77.75
 21
226.6059210493446
 31
0.0
  0
LINE
  5
5DDF
330
1E
100
AcDbEntity
  8
1
  6
Continuous
 62
     3
100
AcDbLine
 10
86.9000000000001
 20
228.8059210493446
 30
0.0
 11
78.09999999999991
 21
228.8059210493446
 31
0.0
  0
LINE
  5
5DE0
330
1E
100
AcDbEntity
  8
1
  6
Continuous
 62
     3
100
AcDbLine
 10
85.90000000000008
 20
232.0559210493446
 30
0.0
 11
79.09999999999991
 21
232.0559210493446
 31
0.0
  0
LINE
  5
5DE1
330
1E
100
AcDbEntity
  8
1
  6
Continuous
 62
     3
100
AcDbLine
 10
80.08699999999997
 20
221.3059210493446
 30
0.0
 11
80.08699999999997
 21
222.4059210493446
 31
0.0
  0
LINE
  5
5DE2
330
1E
100
AcDbEntity
  8
21
  6
Continuous
100
AcDbLine
 10
-27.5
 20
274.4059210493446
 30
0.0
 11
-32.5
 21
274.4059210493446
 31
0.0
  0
LINE
  5
5DE3
330
1E
100
AcDbEntity
  8
21
  6
Continuous
100
AcDbLine
 10
-7.125
 20
222.4059210493446
 30
0.0
 11
-7.125
 21
288.9059210493446
 31
0.0
  0
LINE
  5
5DE4
330
1E
100
AcDbEntity
  8
21
  6
Continuous
100
AcDbLine
 10
32.5
 20
274.4059210493446
 30
0.0
 11
27.5
 21
274.4059210493446
 31
0.0
  0
LINE
  5
5DE5
330
1E
100
AcDbEntity
  8
10
  6
CONTINOUS
100
AcDbLine
 10
42.0
 20
150.4059210493445
 30
0.0
 11
-42.0
 21
150.4059210493445
 31
0.0
  0
LINE
  5
5DE6
330
1E
100
AcDbEntity
  8
16
100
AcDbLine
 10
0.0
 20
118.3138729996612
 30
0.0
 11
0.0
 21
329.4059210493446
 31
0.0
  0
LINE
  5
5DE7
330
1E
100
AcDbEntity
  8
18
100
AcDbLine
 10
111.0
 20
171.4059210493446
 30
0.0
 11
-91.0
 21
171.4059210493446
 31
0.0
  0
LINE
  5
5DE8
330
1E
100
AcDbEntity
  8
1
  6
Continuous
 62
     3
100
AcDbLine
 10
-58.5
 20
225.0059210493445
 30
0.0
 11
-58.5
 21
222.4059210493446
 31
0.0
  0
LINE
  5
5DE9
330
1E
100
AcDbEntity
  8
1
  6
Continuous
 62
     3
100
AcDbLine
 10
7.125
 20
225.0059210493445
 30
0.0
 11
22.875
 21
225.0059210493445
 31
0.0
  0
LINE
  5
5DEA
330
1E
100
AcDbEntity
  8
1
  6
Continuous
 62
     3
100
AcDbLine
 10
91.0
 20
225.0059210493445
 30
0.0
 11
91.0
 21
167.4059210493446
 31
0.0
  0
LINE
  5
5DEB
330
1E
100
AcDbEntity
  8
1
  6
Continuous
 62
     3
100
AcDbLine
 10
-56.9000000000001
 20
231.0559210493447
 30
0.0
 11
-56.9000000000001
 21
228.8059210493446
 31
0.0
  0
LINE
  5
5DEC
330
1E
100
AcDbEntity
  8
1
  6
Continuous
 62
     3
100
AcDbLine
 10
78.09999999999991
 20
228.6059210493446
 30
0.0
 11
78.09999999999991
 21
227.7059210493446
 31
0.0
  0
LINE
  5
5DED
330
1E
100
AcDbEntity
  8
1
  6
Continuous
 62
     3
100
AcDbLine
 10
86.6999999999998
 20
228.8059210493446
 30
0.0
 11
78.29999999999973
 21
228.8059210493446
 31
0.0
  0
LINE
  5
5DEE
330
1E
100
AcDbEntity
  8
1
  6
Continuous
 62
     3
100
AcDbLine
 10
-50.08699999999999
 20
221.3059210493446
 30
0.0
 11
-50.08699999999999
 21
222.4059210493446
 31
0.0
  0
LINE
  5
5DEF
330
1E
100
AcDbEntity
  8
21
  6
Continuous
100
AcDbLine
 10
-27.5
 20
244.4059210493444
 30
0.0
 11
-32.5
 21
244.4059210493444
 31
0.0
  0
LINE
  5
5DF0
330
1E
100
AcDbEntity
  8
21
  6
Continuous
100
AcDbLine
 10
67.125
 20
288.9059210493446
 30
0.0
 11
52.875
 21
288.9059210493446
 31
0.0
  0
LINE
  5
5DF1
330
1E
100
AcDbEntity
  8
21
  6
Continuous
100
AcDbLine
 10
2.5
 20
324.4059210493446
 30
0.0
 11
-2.5
 21
324.4059210493446
 31
0.0
  0
LINE
  5
5DF2
330
1E
100
AcDbEntity
  8
21
  6
Continuous
100
AcDbLine
 10
32.5
 20
244.4059210493444
 30
0.0
 11
27.5
 21
244.4059210493444
 31
0.0
  0
LINE
  5
5DF3
330
1E
100
AcDbEntity
  8
21
  6
Continuous
100
AcDbLine
 10
-2.5
 20
288.9059210493446
 30
0.0
 11
-2.5
 21
324.4059210493446
 31
0.0
  0
LINE
  5
5DF4
330
1E
100
AcDbEntity
  8
10
  6
CONTINOUS
100
AcDbLine
 10
11.0
 20
146.4059210493446
 30
0.0
 11
11.0
 21
150.4059210493445
 31
0.0
  0
LINE
  5
5DF5
330
1E
100
AcDbEntity
  8
10
  6
CONTINOUS
100
AcDbLine
 10
-42.0
 20
150.4059210493445
 30
0.0
 11
-42.0
 21
152.4059210493446
 31
0.0
  0
LINE
  5
5DF6
330
1E
100
AcDbEntity
  8
10
  6
CONTINOUS
100
AcDbLine
 10
111.0
 20
152.4059210493446
 30
0.0
 11
-81.0
 21
152.4059210493446
 31
0.0
  0
LINE
  5
5DF7
330
1E
100
AcDbEntity
  8
18
100
AcDbLine
 10
116.0
 20
167.4059210493446
 30
0.0
 11
111.0
 21
167.4059210493446
 31
0.0
  0
ARC
  5
5DF8
330
1E
100
AcDbEntity
  8
1
  6
Continuous
 62
     3
100
AcDbCircle
 10
-48.30000000000018
 20
228.6059210493446
 30
0.0
 40
0.2
100
AcDbArc
 50
0.0
 51
90.0
  0
ARC
  5
5DF9
330
1E
100
AcDbEntity
  8
1
  6
Continuous
 62
     3
100
AcDbCircle
 10
86.84999999999991
 20
227.3059210493447
 30
0.0
 40
0.4
100
AcDbArc
 50
0.0
 51
90.0
  0
ARC
  5
5DFA
330
1E
100
AcDbEntity
  8
1
  6
Continuous
 62
     3
100
AcDbCircle
 10
85.90000000000008
 20
231.0559210493447
 30
0.0
 40
1.0
100
AcDbArc
 50
0.0
 51
90.0
  0
ARC
  5
5DFB
330
1E
100
AcDbEntity
  8
1
  6
Continuous
 62
     3
100
AcDbCircle
 10
78.29999999999973
 20
228.6059210493446
 30
0.0
 40
0.2
100
AcDbArc
 50
90.0
 51
180.0
  0
ARC
  5
5DFC
330
1E
100
AcDbEntity
  8
1
  6
Continuous
 62
     3
100
AcDbCircle
 10
86.6999999999998
 20
228.6059210493446
 30
0.0
 40
0.2
100
AcDbArc
 50
0.0
 51
90.0
  0
ARC
  5
5DFD
330
1E
100
AcDbEntity
  8
1
  6
Continuous
 62
     3
100
AcDbCircle
 10
-56.69999999999982
 20
228.6059210493446
 30
0.0
 40
0.2
100
AcDbArc
 50
90.0
 51
180.0
  0
ARC
  5
5DFE
330
1E
100
AcDbEntity
  8
1
  6
Continuous
 62
     3
100
AcDbCircle
 10
78.15000000000009
 20
227.3059210493447
 30
0.0
 40
0.4
100
AcDbArc
 50
90.0
 51
180.0
  0
ARC
  5
5DFF
330
1E
100
AcDbEntity
  8
1
  6
Continuous
 62
     3
100
AcDbCircle
 10
-49.0999999999999
 20
231.0559210493447
 30
0.0
 40
1.0
100
AcDbArc
 50
0.0
 51
90.0
  0
ARC
  5
5E00
330
1E
100
AcDbEntity
  8
1
  6
Continuous
 62
     3
100
AcDbCircle
 10
79.09999999999991
 20
231.0559210493447
 30
0.0
 40
1.0
100
AcDbArc
 50
90.0
 51
180.0
  0
ARC
  5
5E01
330
1E
100
AcDbEntity
  8
1
  6
Continuous
 62
     3
100
AcDbCircle
 10
-56.8499999999999
 20
227.3059210493447
 30
0.0
 40
0.4
100
AcDbArc
 50
90.0
 51
180.0
  0
ARC
  5
5E02
330
1E
100
AcDbEntity
  8
1
  6
Continuous
 62
     3
100
AcDbCircle
 10
-48.1500000000001
 20
227.3059210493447
 30
0.0
 40
0.4
100
AcDbArc
 50
0.0
 51
90.0
  0
ARC
  5
5E03
330
1E
100
AcDbEntity
  8
1
  6
Continuous
 62
     3
100
AcDbCircle
 10
-55.9000000000001
 20
231.0559210493447
 30
0.0
 40
1.0
100
AcDbArc
 50
90.0
 51
180.0
  0
DIMENSION
  5
5E08
330
1E
100
AcDbEntity
  8
30
  6
Continuous
100
AcDbDimension
280
     0
  2
*D60
 10
0.0000000000000032
 20
343.5564135493446
 30
0.0
 11
-14.99999999999999
 21
346.5564135493445
 31
0.0
 70
    32
  1
 <> 
 71
     5
 42
30.0
 73
     0
 74
     0
 75
     0
  3
STANDARD
100
AcDbAlignedDimension
 13
-30.0
 23
241.4059210493446
 33
0.0
 14
0.0
 24
291.4059210493446
 34
0.0
100
AcDbRotatedDimension
1001
ACAD
1000
DSTYLE
1002
{
1070
    79
1070
     3
1002
}
  0
DIMENSION
  5
5E09
330
1E
100
AcDbEntity
  8
30
  6
Continuous
100
AcDbDimension
280
     0
  2
*D61
 10
30.00000000000001
 20
343.5564135493446
 30
0.0
 11
15.0
 21
346.5564135493445
 31
0.0
 70
    32
  1
 <> 
 71
     5
 42
30.0
 73
     0
 74
     0
 75
     0
  3
STANDARD
100
AcDbAlignedDimension
 13
0.0
 23
291.4059210493446
 33
0.0
 14
30.0
 24
241.4059210493446
 34
0.0
100
AcDbRotatedDimension
1001
ACAD
1000
DSTYLE
1002
{
1070
    79
1070
     3
1002
}
  0
DIMENSION
  5
5E0A
330
1E
100
AcDbEntity
  8
30
  6
Continuous
100
AcDbDimension
280
     0
  2
*D62
 10
60.0
 20
343.5564135493446
 30
0.0
 11
45.0
 21
346.5564135493445
 31
0.0
 70
    32
  1
 <> 
 71
     5
 42
30.0
 73
     0
 74
     0
 75
     0
  3
STANDARD
100
AcDbAlignedDimension
 13
30.0
 23
241.4059210493446
 33
0.0
 14
60.0
 24
291.4059210493446
 34
0.0
100
AcDbRotatedDimension
1001
ACAD
1000
DSTYLE
1002
{
1070
    79
1070
     3
1002
}
  0
LINE
  5
5E7B
330
1E
100
AcDbEntity
  8
10
  6
CONTINOUS
100
AcDbLine
 10
-45.0
 20
222.4059210493446
 30
0.0
 11
75.0
 21
222.4059210493446
 31
0.0
  0
LINE
  5
5E7C
330
1E
100
AcDbEntity
  8
1
  6
Continuous
 62
     3
100
AcDbLine
 10
-58.5
 20
222.4059210493446
 30
0.0
 11
-45.0
 21
222.4059210493446
 31
0.0
  0
LINE
  5
5E7D
330
1E
100
AcDbEntity
  8
1
  6
Continuous
 62
     3
100
AcDbLine
 10
75.0
 20
222.4059210493446
 30
0.0
 11
88.49999999999999
 21
222.4059210493446
 31
0.0
  0
VIEWPORT
  5
9AC
330
1A
100
AcDbEntity
 67
     1
  8
0
  6
Continuous
100
AcDbViewport
 10
171.999535
 20
144.1384739999999
 30
0.0
 40
488.867686
 41
292.351491
 68
    -1
 69
     1
 12
171.999535
 22
144.1384739999999
 13
0.0
 23
0.0
 14
10.0
 24
10.0
 15
10.0
 25
10.0
 16
0.0
 26
0.0
 36
1.0
 17
0.0
 27
0.0
 37
0.0
 42
50.0
 43
0.0
 44
0.0
 45
292.351491
 50
0.0
 51
0.0
 72
   100
 90
    32800
  1

281
     0
 71
     1
 74
     0
110
0.0
120
0.0
130
0.0
111
1.0
121
0.0
131
0.0
112
0.0
122
1.0
132
0.0
 79
     0
146
0.0
170
     0
 61
     5
348
59BF
292
     1
282
     1
141
0.0
142
0.0
 63
   250
421
  3355443
  0
ENDSEC
  0
SECTION
  2
OBJECTS
  0
DICTIONARY
  5
C
330
0
100
AcDbDictionary
281
     1
  3
ACAD_CIP_PREVIOUS_PRODUCT_INFO
350
59F0
  3
ACAD_COLOR
350
59D2
  3
ACAD_DETAILVIEWSTYLE
350
59EB
  3
ACAD_GROUP
350
D
  3
ACAD_LAYOUT
350
19
  3
ACAD_MATERIAL
350
59A0
  3
ACAD_MLEADERSTYLE
350
59E7
  3
ACAD_MLINESTYLE
350
16
  3
ACAD_PLOTSETTINGS
350
18
  3
ACAD_PLOTSTYLENAME
350
E
  3
ACAD_SCALELIST
350
59D5
  3
ACAD_SECTIONVIEWSTYLE
350
59E9
  3
ACAD_TABLESTYLE
350
59D3
  3
ACAD_VISUALSTYLE
350
59B9
  3
ACDB_RECOMPOSE_DATA
350
5F4E
  3
ACDBVARIABLEDICTIONARY
350
5697
  0
DICTIONARY
  5
5C63
330
10
100
AcDbDictionary
280
     1
281
     1
  3
ADSK_XREC_LAYER_RECONCILED
360
5C64
  0
DICTIONARY
  5
5C65
330
2F
100
AcDbDictionary
280
     1
281
     1
  3
ADSK_XREC_LAYER_RECONCILED
360
5C66
  0
DICTIONARY
  5
5C67
330
31
100
AcDbDictionary
280
     1
281
     1
  3
ADSK_XREC_LAYER_RECONCILED
360
5C68
  0
DICTIONARY
  5
5C69
330
35
100
AcDbDictionary
280
     1
281
     1
  3
ADSK_XREC_LAYER_RECONCILED
360
5C6A
  0
DICTIONARY
  5
5C6B
330
38
100
AcDbDictionary
280
     1
281
     1
  3
ADSK_XREC_LAYER_RECONCILED
360
5C6C
  0
DICTIONARY
  5
5C6D
330
3C
100
AcDbDictionary
280
     1
281
     1
  3
ADSK_XREC_LAYER_RECONCILED
360
5C6E
  0
DICTIONARY
  5
5C6F
330
3D
100
AcDbDictionary
280
     1
281
     1
  3
ADSK_XREC_LAYER_RECONCILED
360
5C70
  0
DICTIONARY
  5
5C71
330
3A2
100
AcDbDictionary
280
     1
281
     1
  3
ADSK_XREC_LAYER_RECONCILED
360
5C72
  0
DICTIONARY
  5
5C73
330
3BBA
100
AcDbDictionary
280
     1
281
     1
  3
ADSK_XREC_LAYER_RECONCILED
360
5C74
  0
DICTIONARY
  5
5C75
330
3BBB
100
AcDbDictionary
280
     1
281
     1
  3
ADSK_XREC_LAYER_RECONCILED
360
5C76
  0
DICTIONARY
  5
5C77
330
5116
100
AcDbDictionary
280
     1
281
     1
  3
ADSK_XREC_LAYER_RECONCILED
360
5C78
  0
DICTIONARY
  5
5C79
330
5117
100
AcDbDictionary
280
     1
281
     1
  3
ADSK_XREC_LAYER_RECONCILED
360
5C7A
  0
DICTIONARY
  5
178
330
1E
100
AcDbDictionary
280
     1
281
     1
  3
ACAD_LAYOUTSELFREF
360
5960
  0
DICTIONARY
  5
17A
330
1A
100
AcDbDictionary
280
     1
281
     1
  3
ACAD_LAYOUTSELFREF
360
595F
  0
DICTIONARY
  5
5EFC
330
5937
100
AcDbDictionary
280
     1
281
     1
  0
XRECORD
  5
59F0
102
{ACAD_REACTORS
330
C
102
}
330
C
100
AcDbXrecord
280
     1
300
ACDLT
300
2014
300
ACDLT_F_S
  0
DICTIONARY
  5
59D2
102
{ACAD_REACTORS
330
C
102
}
330
C
100
AcDbDictionary
281
     1
  0
DICTIONARY
  5
59EB
102
{ACAD_REACTORS
330
C
102
}
330
C
100
AcDbDictionary
281
     1
  3
Imperial24
350
59EC
  0
DICTIONARY
  5
D
102
{ACAD_REACTORS
330
C
102
}
330
C
100
AcDbDictionary
281
     1
  0
DICTIONARY
  5
19
102
{ACAD_REACTORS
330
C
102
}
330
C
100
AcDbDictionary
281
     1
  3
Model
350
5968
  3
ﾚｲｱｳﾄ1
350
5969
  0
DICTIONARY
  5
59A0
102
{ACAD_REACTORS
330
C
102
}
330
C
100
AcDbDictionary
281
     1
  3
ByBlock
350
59A9
  3
ByLayer
350
59A1
  3
Global
350
59B1
  0
DICTIONARY
  5
59E7
102
{ACAD_REACTORS
330
C
102
}
330
C
100
AcDbDictionary
281
     1
  3
Standard
350
59E8
  0
DICTIONARY
  5
16
102
{ACAD_REACTORS
330
C
102
}
330
C
100
AcDbDictionary
281
     1
  3
STANDARD
350
17
  0
DICTIONARY
  5
18
102
{ACAD_REACTORS
330
C
102
}
330
C
100
AcDbDictionary
281
     1
  0
ACDBDICTIONARYWDFLT
  5
E
102
{ACAD_REACTORS
330
C
102
}
330
C
100
AcDbDictionary
281
     1
  3
Normal
350
F
100
AcDbDictionaryWithDefault
340
F
  0
DICTIONARY
  5
59D5
102
{ACAD_REACTORS
330
C
102
}
330
C
100
AcDbDictionary
281
     1
  3
A0
350
59D6
  3
A1
350
59D7
  3
A2
350
59D8
  3
A3
350
59D9
  3
A4
350
59DA
  3
A5
350
59DB
  3
A6
350
59DC
  3
A7
350
59DD
  3
A8
350
59DE
  3
A9
350
59DF
  3
B0
350
59E0
  3
B1
350
59E1
  3
B2
350
59E2
  3
B3
350
59E3
  3
B4
350
59E4
  3
B5
350
59E5
  3
B6
350
59E6
  0
DICTIONARY
  5
59E9
102
{ACAD_REACTORS
330
C
102
}
330
C
100
AcDbDictionary
281
     1
  3
Imperial24
350
59EA
  0
DICTIONARY
  5
59D3
102
{ACAD_REACTORS
330
C
102
}
330
C
100
AcDbDictionary
281
     1
  3
Standard
350
59D4
  0
DICTIONARY
  5
59B9
102
{ACAD_REACTORS
330
C
102
}
330
C
100
AcDbDictionary
281
     1
  3
2dWireframe
350
59BF
  3
Basic
350
59BE
  3
Brighten
350
59C5
  3
ColorChange
350
59C9
  3
Conceptual
350
59C2
  3
Dim
350
59C4
  3
EdgeColorOff
350
59D1
  3
Facepattern
350
59C8
  3
Flat
350
59BA
  3
FlatWithEdges
350
59BB
  3
Gouraud
350
59BC
  3
GouraudWithEdges
350
59BD
  3
Hidden
350
59C1
  3
JitterOff
350
59CF
  3
Linepattern
350
59C7
  3
OverhangOff
350
59D0
  3
Realistic
350
59C3
  3
Shaded
350
59CE
  3
Shaded with edges
350
59CD
  3
Shades of Gray
350
59CA
  3
Sketchy
350
59CB
  3
Thicken
350
59C6
  3
Wireframe
350
59C0
  3
X-Ray
350
59CC
  0
XRECORD
  5
5F4E
102
{ACAD_REACTORS
330
C
102
}
330
C
100
AcDbXrecord
280
     1
 90
        1
330
59D4
330
59EA
330
59EC
  0
DICTIONARY
  5
5697
102
{ACAD_REACTORS
330
C
102
}
330
C
100
AcDbDictionary
281
     1
  3
CANNOSCALE
350
5C7F
  3
CMLEADERSTYLE
350
5C7C
  3
CTABLESTYLE
350
5C7B
  3
CVIEWDETAILSTYLE
350
5C7D
  3
CVIEWSECTIONSTYLE
350
5C7E
  3
DIMASSOC
350
5698
  3
INDEXCTL
350
5C81
  3
LAYEREVAL
350
5F47
  3
LAYERNOTIFY
350
5F48
  3
LIGHTINGUNITS
350
5F46
  3
MSLTSCALE
350
5F45
  3
SORTENTS
350
5C80
  0
XRECORD
  5
5C64
102
{ACAD_REACTORS
330
5C63
102
}
330
5C63
100
AcDbXrecord
280
     1
290
     1
  0
XRECORD
  5
5C66
102
{ACAD_REACTORS
330
5C65
102
}
330
5C65
100
AcDbXrecord
280
     1
290
     1
  0
XRECORD
  5
5C68
102
{ACAD_REACTORS
330
5C67
102
}
330
5C67
100
AcDbXrecord
280
     1
290
     1
  0
XRECORD
  5
5C6A
102
{ACAD_REACTORS
330
5C69
102
}
330
5C69
100
AcDbXrecord
280
     1
290
     1
  0
XRECORD
  5
5C6C
102
{ACAD_REACTORS
330
5C6B
102
}
330
5C6B
100
AcDbXrecord
280
     1
290
     1
  0
XRECORD
  5
5C6E
102
{ACAD_REACTORS
330
5C6D
102
}
330
5C6D
100
AcDbXrecord
280
     1
290
     1
  0
XRECORD
  5
5C70
102
{ACAD_REACTORS
330
5C6F
102
}
330
5C6F
100
AcDbXrecord
280
     1
290
     1
  0
XRECORD
  5
5C72
102
{ACAD_REACTORS
330
5C71
102
}
330
5C71
100
AcDbXrecord
280
     1
290
     1
  0
XRECORD
  5
5C74
102
{ACAD_REACTORS
330
5C73
102
}
330
5C73
100
AcDbXrecord
280
     1
290
     1
  0
XRECORD
  5
5C76
102
{ACAD_REACTORS
330
5C75
102
}
330
5C75
100
AcDbXrecord
280
     1
290
     1
  0
XRECORD
  5
5C78
102
{ACAD_REACTORS
330
5C77
102
}
330
5C77
100
AcDbXrecord
280
     1
290
     1
  0
XRECORD
  5
5C7A
102
{ACAD_REACTORS
330
5C79
102
}
330
5C79
100
AcDbXrecord
280
     1
290
     1
  0
XRECORD
  5
5960
102
{ACAD_REACTORS
330
178
102
}
330
178
100
AcDbXrecord
280
     1
340
1E
  0
XRECORD
  5
595F
102
{ACAD_REACTORS
330
17A
102
}
330
17A
100
AcDbXrecord
280
     1
340
1A
  0
ACDBDETAILVIEWSTYLE
  5
59EC
102
{ACAD_XDICTIONARY
360
5F4C
102
}
102
{ACAD_REACTORS
330
59EB
102
}
330
59EB
100
AcDbModelDocViewStyle
 70
     0
  3
Imperial24
290
     0
100
AcDbDetailViewStyle
 70
     0
 71
     0
 90
        3
 71
     1
340
11
 62
   256
 40
0.24
340
0
 62
   256
 40
0.24
300

 40
0.36
280
     3
 71
     2
340
15
 90
       25
 62
   256
 71
     3
340
11
 62
   256
 40
0.24
 90
        1
 40
0.75
 90
        1
300
%<\AcVar ViewType \f "%tc1">% %<\AcVar ViewDetailId>%\PSCALE %<\AcVar ViewScale \f "%sn">%
 71
     4
340
15
 90
       25
 62
   256
340
15
 90
       25
 62
   256
280
     0
  0
LAYOUT
  5
5968
102
{ACAD_REACTORS
330
19
102
}
330
19
100
AcDbPlotSettings
  1

  2
Canon LBP3800 LIPSLX
  4

  6

 40
0.0
 41
0.0
 42
0.0
 43
0.0
 44
0.0
 45
0.0
 46
0.0
 47
0.0
 48
0.0
 49
0.0
140
0.0
141
0.0
142
1.0
143
1.0
 70
  1712
 72
     0
 73
     0
 74
     0
  7
monochrome.ctb
 75
     0
147
1.0
 76
     0
 77
     2
 78
   300
148
0.0
149
0.0
100
AcDbLayout
  1
Model
 70
     1
 71
     0
 10
0.0
 20
0.0
 11
12.0
 21
9.0
 12
0.0
 22
0.0
 32
0.0
 14
0.0
 24
0.0
 34
0.0
 15
0.0
 25
0.0
 35
0.0
146
0.0
 13
0.0
 23
0.0
 33
0.0
 16
1.0
 26
0.0
 36
0.0
 17
0.0
 27
1.0
 37
0.0
 76
     0
330
1E
331
5978
  0
LAYOUT
  5
5969
102
{ACAD_REACTORS
330
19
102
}
330
19
100
AcDbPlotSettings
  1

  2
Canon LBP3800 LIPSLX
  4

  6

 40
0.0
 41
0.0
 42
0.0
 43
0.0
 44
0.0
 45
0.0
 46
0.0
 47
0.0
 48
0.0
 49
0.0
140
0.0
141
0.0
142
1.0
143
1.0
 70
   688
 72
     0
 73
     0
 74
     5
  7
monochrome.ctb
 75
    16
147
1.0
 76
     0
 77
     2
 78
   300
148
0.0
149
0.0
100
AcDbLayout
  1
ﾚｲｱｳﾄ1
 70
     1
 71
     1
 10
-5.873749
 20
-5.87375
 11
204.099579
 21
291.1369009999999
 12
0.0
 22
0.0
 32
0.0
 14
4.273573
 24
5.205245999999998
 34
0.0
 15
194.610095
 25
283.0697009999996
 35
0.0
146
0.0
 13
0.0
 23
0.0
 33
0.0
 16
1.0
 26
0.0
 36
0.0
 17
0.0
 27
1.0
 37
0.0
 76
     0
330
1A
  0
MATERIAL
  5
59A9
102
{ACAD_XDICTIONARY
360
59AA
102
}
102
{ACAD_REACTORS
330
59A0
102
}
330
59A0
100
AcDbMaterial
  1
ByBlock
 72
     0
 43
0.0208333333333333
 43
0.0
 43
0.0
 43
0.0
 43
0.0
 43
0.0208333333333333
 43
0.0
 43
0.0
 43
0.0
 43
0.0
 43
1.0
 43
0.0
 43
0.0
 43
0.0
 43
0.0
 43
1.0
 77
     0
 47
0.0208333333333333
 47
0.0
 47
0.0
 47
0.0
 47
0.0
 47
0.0208333333333333
 47
0.0
 47
0.0
 47
0.0
 47
0.0
 47
1.0
 47
0.0
 47
0.0
 47
0.0
 47
0.0
 47
1.0
171
     0
 49
0.0208333333333333
 49
0.0
 49
0.0
 49
0.0
 49
0.0
 49
0.0208333333333333
 49
0.0
 49
0.0
 49
0.0
 49
0.0
 49
1.0
 49
0.0
 49
0.0
 49
0.0
 49
0.0
 49
1.0
175
     0
142
0.0208333333333333
142
0.0
142
0.0
142
0.0
142
0.0
142
0.0208333333333333
142
0.0
142
0.0
142
0.0
142
0.0
142
1.0
142
0.0
142
0.0
142
0.0
142
0.0
142
1.0
179
     0
144
0.0208333333333333
144
0.0
144
0.0
144
0.0
144
0.0
144
0.0208333333333333
144
0.0
144
0.0
144
0.0
144
0.0
144
1.0
144
0.0
144
0.0
144
0.0
144
0.0
144
1.0
147
0.0208333333333333
147
0.0
147
0.0
147
0.0
147
0.0
147
0.0208333333333333
147
0.0
147
0.0
147
0.0
147
0.0
147
1.0
147
0.0
147
0.0
147
0.0
147
0.0
147
1.0
  0
MATERIAL
  5
59A1
102
{ACAD_XDICTIONARY
360
59A2
102
}
102
{ACAD_REACTORS
330
59A0
102
}
330
59A0
100
AcDbMaterial
  1
ByLayer
 72
     0
 43
0.0208333333333333
 43
0.0
 43
0.0
 43
0.0
 43
0.0
 43
0.0208333333333333
 43
0.0
 43
0.0
 43
0.0
 43
0.0
 43
1.0
 43
0.0
 43
0.0
 43
0.0
 43
0.0
 43
1.0
 77
     0
 47
0.0208333333333333
 47
0.0
 47
0.0
 47
0.0
 47
0.0
 47
0.0208333333333333
 47
0.0
 47
0.0
 47
0.0
 47
0.0
 47
1.0
 47
0.0
 47
0.0
 47
0.0
 47
0.0
 47
1.0
171
     0
 49
0.0208333333333333
 49
0.0
 49
0.0
 49
0.0
 49
0.0
 49
0.0208333333333333
 49
0.0
 49
0.0
 49
0.0
 49
0.0
 49
1.0
 49
0.0
 49
0.0
 49
0.0
 49
0.0
 49
1.0
175
     0
142
0.0208333333333333
142
0.0
142
0.0
142
0.0
142
0.0
142
0.0208333333333333
142
0.0
142
0.0
142
0.0
142
0.0
142
1.0
142
0.0
142
0.0
142
0.0
142
0.0
142
1.0
179
     0
144
0.0208333333333333
144
0.0
144
0.0
144
0.0
144
0.0
144
0.0208333333333333
144
0.0
144
0.0
144
0.0
144
0.0
144
1.0
144
0.0
144
0.0
144
0.0
144
0.0
144
1.0
147
0.0208333333333333
147
0.0
147
0.0
147
0.0
147
0.0
147
0.0208333333333333
147
0.0
147
0.0
147
0.0
147
0.0
147
1.0
147
0.0
147
0.0
147
0.0
147
0.0
147
1.0
  0
MATERIAL
  5
59B1
102
{ACAD_XDICTIONARY
360
59B2
102
}
102
{ACAD_REACTORS
330
59A0
102
}
330
59A0
100
AcDbMaterial
  1
Global
 72
     0
 43
0.0208333333333333
 43
0.0
 43
0.0
 43
0.0
 43
0.0
 43
0.0208333333333333
 43
0.0
 43
0.0
 43
0.0
 43
0.0
 43
1.0
 43
0.0
 43
0.0
 43
0.0
 43
0.0
 43
1.0
 77
     0
 47
0.0208333333333333
 47
0.0
 47
0.0
 47
0.0
 47
0.0
 47
0.0208333333333333
 47
0.0
 47
0.0
 47
0.0
 47
0.0
 47
1.0
 47
0.0
 47
0.0
 47
0.0
 47
0.0
 47
1.0
171
     0
 49
0.0208333333333333
 49
0.0
 49
0.0
 49
0.0
 49
0.0
 49
0.0208333333333333
 49
0.0
 49
0.0
 49
0.0
 49
0.0
 49
1.0
 49
0.0
 49
0.0
 49
0.0
 49
0.0
 49
1.0
175
     0
142
0.0208333333333333
142
0.0
142
0.0
142
0.0
142
0.0
142
0.0208333333333333
142
0.0
142
0.0
142
0.0
142
0.0
142
1.0
142
0.0
142
0.0
142
0.0
142
0.0
142
1.0
179
     0
144
0.0208333333333333
144
0.0
144
0.0
144
0.0
144
0.0
144
0.0208333333333333
144
0.0
144
0.0
144
0.0
144
0.0
144
1.0
144
0.0
144
0.0
144
0.0
144
0.0
144
1.0
147
0.0208333333333333
147
0.0
147
0.0
147
0.0
147
0.0
147
0.0208333333333333
147
0.0
147
0.0
147
0.0
147
0.0
147
1.0
147
0.0
147
0.0
147
0.0
147
0.0
147
1.0
  0
MLEADERSTYLE
  5
59E8
102
{ACAD_REACTORS
330
59E7
102
}
330
59E7
100
AcDbMLeaderStyle
179
     2
170
     2
171
     1
172
     0
 90
        2
 40
0.0
 41
0.0
173
     1
 91
-1056964608
340
13
 92
       -2
290
     1
 42
0.09
291
     1
 43
0.36
  3
Standard
 44
0.18
300

342
11
174
     1
178
     6
175
     1
176
     0
 93
-1056964608
 45
0.18
292
     0
297
     0
 46
0.18
 94
-1056964608
 47
1.0
 49
1.0
140
1.0
293
     1
141
0.0
294
     1
177
     0
142
1.0
295
     0
296
     0
143
0.125
271
     0
272
     9
273
     9
298
     0
1001
ACAD_MLEADERVER
1070
     2
  0
MLINESTYLE
  5
17
102
{ACAD_REACTORS
330
16
102
}
330
16
100
AcDbMlineStyle
  2
STANDARD
 70
     0
  3

 62
   256
 51
90.0
 52
90.0
 71
     2
 49
0.5
 62
   256
  6
BYLAYER
 49
-0.5
 62
   256
  6
BYLAYER
  0
ACDBPLACEHOLDER
  5
F
102
{ACAD_REACTORS
330
E
102
}
330
E
  0
SCALE
  5
59D6
102
{ACAD_REACTORS
330
59D5
102
}
330
59D5
100
AcDbScale
 70
     0
300
1:1
140
1.0
141
1.0
290
     1
  0
SCALE
  5
59D7
102
{ACAD_REACTORS
330
59D5
102
}
330
59D5
100
AcDbScale
 70
     0
300
1/128" = 1'-0"
140
0.0078125
141
12.0
290
     0
  0
SCALE
  5
59D8
102
{ACAD_REACTORS
330
59D5
102
}
330
59D5
100
AcDbScale
 70
     0
300
1/64" = 1'-0"
140
0.015625
141
12.0
290
     0
  0
SCALE
  5
59D9
102
{ACAD_REACTORS
330
59D5
102
}
330
59D5
100
AcDbScale
 70
     0
300
1/32" = 1'-0"
140
0.03125
141
12.0
290
     0
  0
SCALE
  5
59DA
102
{ACAD_REACTORS
330
59D5
102
}
330
59D5
100
AcDbScale
 70
     0
300
1/16" = 1'-0"
140
0.0625
141
12.0
290
     0
  0
SCALE
  5
59DB
102
{ACAD_REACTORS
330
59D5
102
}
330
59D5
100
AcDbScale
 70
     0
300
3/32" = 1'-0"
140
0.09375
141
12.0
290
     0
  0
SCALE
  5
59DC
102
{ACAD_REACTORS
330
59D5
102
}
330
59D5
100
AcDbScale
 70
     0
300
1/8" = 1'-0"
140
0.125
141
12.0
290
     0
  0
SCALE
  5
59DD
102
{ACAD_REACTORS
330
59D5
102
}
330
59D5
100
AcDbScale
 70
     0
300
3/16" = 1'-0"
140
0.1875
141
12.0
290
     0
  0
SCALE
  5
59DE
102
{ACAD_REACTORS
330
59D5
102
}
330
59D5
100
AcDbScale
 70
     0
300
1/4" = 1'-0"
140
0.25
141
12.0
290
     0
  0
SCALE
  5
59DF
102
{ACAD_REACTORS
330
59D5
102
}
330
59D5
100
AcDbScale
 70
     0
300
3/8" = 1'-0"
140
0.375
141
12.0
290
     0
  0
SCALE
  5
59E0
102
{ACAD_REACTORS
330
59D5
102
}
330
59D5
100
AcDbScale
 70
     0
300
1/2" = 1'-0"
140
0.5
141
12.0
290
     0
  0
SCALE
  5
59E1
102
{ACAD_REACTORS
330
59D5
102
}
330
59D5
100
AcDbScale
 70
     0
300
3/4" = 1'-0"
140
0.75
141
12.0
290
     0
  0
SCALE
  5
59E2
102
{ACAD_REACTORS
330
59D5
102
}
330
59D5
100
AcDbScale
 70
     0
300
1" = 1'-0"
140
1.0
141
12.0
290
     0
  0
SCALE
  5
59E3
102
{ACAD_REACTORS
330
59D5
102
}
330
59D5
100
AcDbScale
 70
     0
300
1-1/2" = 1'-0"
140
1.5
141
12.0
290
     0
  0
SCALE
  5
59E4
102
{ACAD_REACTORS
330
59D5
102
}
330
59D5
100
AcDbScale
 70
     0
300
3" = 1'-0"
140
3.0
141
12.0
290
     0
  0
SCALE
  5
59E5
102
{ACAD_REACTORS
330
59D5
102
}
330
59D5
100
AcDbScale
 70
     0
300
6" = 1'-0"
140
6.0
141
12.0
290
     0
  0
SCALE
  5
59E6
102
{ACAD_REACTORS
330
59D5
102
}
330
59D5
100
AcDbScale
 70
     0
300
1'-0" = 1'-0"
140
12.0
141
12.0
290
     0
  0
ACDBSECTIONVIEWSTYLE
  5
59EA
102
{ACAD_XDICTIONARY
360
5F4A
102
}
102
{ACAD_REACTORS
330
59E9
102
}
330
59E9
100
AcDbModelDocViewStyle
 70
     0
  3
Imperial24
290
     0
100
AcDbSectionViewStyle
 70
     0
 71
     0
 90
       78
 71
     1
340
11
 62
   256
 40
0.24
340
0
340
0
 62
   256
 40
0.24
300
I, O, Q, S, X, Z
 40
0.48
 90
        3
 40
0.18
 90
        1
 71
     2
340
15
 90
       25
 62
   256
340
15
 90
       50
 62
   256
 40
0.24
 40
0.0
 40
0.24
 71
     3
340
11
 62
   256
 40
0.24
 90
        1
 40
0.75
 90
        1
300
%<\AcVar ViewType \f "%tc1">% %<\AcVar ViewSectionStartId>%-%<\AcVar ViewSectionEndId>%\PSCALE %<\AcVar ViewScale \f "%sn">%
 71
     4
 62
   256
 62
   257
300
ANSI31
 40
1.0
 90
        0
290
     0
290
     0
 90
        6
 40
0.0
 40
1.570796326794896
 40
0.2617993877991494
 40
1.308996938995747
 40
-0.2617993877991494
 40
1.832595714594045
  0
TABLESTYLE
  5
59D4
102
{ACAD_XDICTIONARY
360
5EF6
102
}
102
{ACAD_REACTORS
330
59D3
102
}
330
59D3
100
AcDbTableStyle
280
     0
  3
Standard
 70
     0
 71
     0
 40
0.06
 41
0.06
280
     0
281
     0
  7
STANDARD
140
0.18
170
     2
 62
     0
 63
     7
283
     0
 90
      512
 91
        0
  1

274
    -2
284
     1
 64
     0
275
    -2
285
     1
 65
     0
276
    -2
286
     1
 66
     0
277
    -2
287
     1
 67
     0
278
    -2
288
     1
 68
     0
279
    -2
289
     1
 69
     0
  7
STANDARD
140
0.25
170
     5
 62
     0
 63
     7
283
     0
 90
      512
 91
        0
  1

274
    -2
284
     1
 64
     0
275
    -2
285
     1
 65
     0
276
    -2
286
     1
 66
     0
277
    -2
287
     1
 67
     0
278
    -2
288
     1
 68
     0
279
    -2
289
     1
 69
     0
  7
STANDARD
140
0.18
170
     5
 62
     0
 63
     7
283
     0
 90
      512
 91
        0
  1

274
    -2
284
     1
 64
     0
275
    -2
285
     1
 65
     0
276
    -2
286
     1
 66
     0
277
    -2
287
     1
 67
     0
278
    -2
288
     1
 68
     0
279
    -2
289
     1
 69
     0
  0
VISUALSTYLE
  5
59BF
102
{ACAD_REACTORS
330
59B9
102
}
330
59B9
100
AcDbVisualStyle
  2

 70
     4
177
     3
291
     0
 70
    58
 90
        0
176
     1
 90
        2
176
     1
 90
        0
176
     1
 90
        0
176
     1
 40
0.6
176
     1
 40
30.0
176
     1
 62
     7
176
     1
 90
        1
176
     1
 90
        4
176
     1
 62
     7
176
     1
 62
   257
176
     1
 90
        1
176
     1
 90
        1
176
     1
 40
1.0
176
     1
 90
        0
176
     1
 62
   257
176
     1
 40
1.0
176
     1
 90
        1
176
     1
 90
        6
176
     1
 90
        2
176
     1
 62
     7
176
     1
 90
        5
176
     1
 90
        0
176
     1
 90
        0
176
     1
290
     0
176
     1
 90
        1
176
     1
 40
0.0
176
     1
 90
        0
176
     1
290
     1
176
     1
290
     1
176
     1
290
     0
176
     1
290
     0
176
     1
290
     0
176
     1
290
     0
176
     1
290
     0
176
     1
290
     0
176
     1
290
     0
176
     1
 90
       50
176
     1
 40
0.0
176
     1
 40
1.0
176
     1
 90
        0
176
     1
 62
    18
420
        0
176
     1
 90
       50
176
     1
 90
        3
176
     1
 62
     5
420
      255
176
     1
290
     0
176
     1
 90
       50
176
     1
 90
       50
176
     1
 90
       50
176
     1
290
     0
176
     1
 90
       50
176
     1
 62
   256
176
     0
 40
1.0
176
     0
 90
        2
176
     1
  1
strokes_ogs.tif
176
     1
290
     0
176
     1
 40
1.0
176
     1
 40
1.0
176
     1
1001
ACAD
1000
AcDbSavedByObjectVersion
1070
     0
  0
VISUALSTYLE
  5
59BE
102
{ACAD_REACTORS
330
59B9
102
}
330
59B9
100
AcDbVisualStyle
  2

 70
     7
177
     3
291
     1
 70
    58
 90
        1
176
     1
 90
        0
176
     1
 90
        1
176
     1
 90
        0
176
     1
 40
0.6
176
     1
 40
30.0
176
     1
 62
     7
176
     1
 90
        0
176
     1
 90
        4
176
     1
 62
     7
176
     1
 62
   257
176
     1
 90
        1
176
     1
 90
        1
176
     1
 40
1.0
176
     1
 90
        8
176
     1
 62
     7
176
     1
 40
1.0
176
     1
 90
        1
176
     1
 90
        6
176
     1
 90
        2
176
     1
 62
     7
176
     1
 90
        5
176
     1
 90
        0
176
     1
 90
        0
176
     1
290
     0
176
     1
 90
        1
176
     1
 40
0.0
176
     1
 90
        0
176
     1
290
     0
176
     1
290
     1
176
     1
290
     1
176
     1
290
     0
176
     1
290
     0
176
     1
290
     0
176
     1
290
     0
176
     1
290
     0
176
     1
290
     0
176
     1
 90
       50
176
     1
 40
0.0
176
     1
 40
1.0
176
     1
 90
        0
176
     1
 62
    18
420
        0
176
     1
 90
       50
176
     1
 90
        3
176
     1
 62
     5
420
      255
176
     1
290
     0
176
     1
 90
       50
176
     1
 90
       50
176
     1
 90
       50
176
     1
290
     0
176
     1
 90
       50
176
     1
 62
   256
176
     0
 40
1.0
176
     0
 90
        2
176
     1
  1
strokes_ogs.tif
176
     1
290
     0
176
     1
 40
1.0
176
     1
 40
1.0
176
     1
1001
ACAD
1000
AcDbSavedByObjectVersion
1070
     0
  0
VISUALSTYLE
  5
59C5
102
{ACAD_REACTORS
330
59B9
102
}
330
59B9
100
AcDbVisualStyle
  2

 70
    12
177
     3
291
     1
 70
    58
 90
        2
176
     1
 90
        2
176
     1
 90
        0
176
     1
 90
        0
176
     1
 40
0.6
176
     1
 40
30.0
176
     1
 62
     7
176
     1
 90
        1
176
     1
 90
        4
176
     1
 62
     7
176
     1
 62
   257
176
     1
 90
        1
176
     1
 90
        1
176
     1
 40
1.0
176
     1
 90
        8
176
     1
 62
     7
176
     1
 40
1.0
176
     1
 90
        1
176
     1
 90
        6
176
     1
 90
        2
176
     1
 62
     7
176
     1
 90
        5
176
     1
 90
        0
176
     1
 90
        0
176
     1
290
     0
176
     1
 90
        1
176
     1
 40
50.0
176
     1
 90
        0
176
     1
290
     0
176
     1
290
     1
176
     1
290
     1
176
     1
290
     0
176
     1
290
     0
176
     1
290
     0
176
     1
290
     0
176
     1
290
     0
176
     1
290
     0
176
     1
 90
       50
176
     1
 40
0.0
176
     1
 40
1.0
176
     1
 90
        0
176
     1
 62
    18
420
        0
176
     1
 90
       50
176
     1
 90
        3
176
     1
 62
     5
420
      255
176
     1
290
     0
176
     1
 90
       50
176
     1
 90
       50
176
     1
 90
       50
176
     1
290
     0
176
     1
 90
       50
176
     1
 62
   256
176
     0
 40
1.0
176
     0
 90
        2
176
     1
  1
strokes_ogs.tif
176
     1
290
     0
176
     1
 40
1.0
176
     1
 40
1.0
176
     1
1001
ACAD
1000
AcDbSavedByObjectVersion
1070
     0
  0
VISUALSTYLE
  5
59C9
102
{ACAD_REACTORS
330
59B9
102
}
330
59B9
100
AcDbVisualStyle
  2

 70
    16
177
     3
291
     1
 70
    58
 90
        2
176
     1
 90
        2
176
     1
 90
        3
176
     1
 90
        0
176
     1
 40
0.6
176
     1
 40
30.0
176
     1
 62
     8
176
     1
 90
        1
176
     1
 90
        4
176
     1
 62
     7
176
     1
 62
   257
176
     1
 90
        1
176
     1
 90
        1
176
     1
 40
1.0
176
     1
 90
        8
176
     1
 62
     8
176
     1
 40
1.0
176
     1
 90
        1
176
     1
 90
        6
176
     1
 90
        2
176
     1
 62
     7
176
     1
 90
        5
176
     1
 90
        0
176
     1
 90
        0
176
     1
290
     0
176
     1
 90
        1
176
     1
 40
0.0
176
     1
 90
        0
176
     1
290
     0
176
     1
290
     1
176
     1
290
     1
176
     1
290
     0
176
     1
290
     0
176
     1
290
     0
176
     1
290
     0
176
     1
290
     0
176
     1
290
     0
176
     1
 90
       50
176
     1
 40
0.0
176
     1
 40
1.0
176
     1
 90
        0
176
     1
 62
    18
420
        0
176
     1
 90
       50
176
     1
 90
        3
176
     1
 62
     5
420
      255
176
     1
290
     0
176
     1
 90
       50
176
     1
 90
       50
176
     1
 90
       50
176
     1
290
     0
176
     1
 90
       50
176
     1
 62
   256
176
     0
 40
1.0
176
     0
 90
        2
176
     1
  1
strokes_ogs.tif
176
     1
290
     0
176
     1
 40
1.0
176
     1
 40
1.0
176
     1
1001
ACAD
1000
AcDbSavedByObjectVersion
1070
     0
  0
VISUALSTYLE
  5
59C2
102
{ACAD_REACTORS
330
59B9
102
}
330
59B9
100
AcDbVisualStyle
  2

 70
     9
177
     3
291
     0
 70
    58
 90
        3
176
     1
 90
        2
176
     1
 90
        0
176
     1
 90
        0
176
     1
 40
0.6
176
     1
 40
30.0
176
     1
 62
     7
176
     1
 90
        2
176
     1
 90
        2
176
     1
 62
     7
176
     1
 62
   257
176
     1
 90
        1
176
     1
 90
        1
176
     1
 40
179.0
176
     1
 90
        8
176
     1
 62
     7
176
     1
 40
1.0
176
     1
 90
        1
176
     1
 90
        6
176
     1
 90
        2
176
     1
 62
     7
176
     1
 90
        3
176
     1
 90
        0
176
     1
 90
        0
176
     1
290
     0
176
     1
 90
        1
176
     1
 40
0.0
176
     1
 90
        0
176
     1
290
     0
176
     1
290
     1
176
     1
290
     1
176
     1
290
     0
176
     1
290
     0
176
     1
290
     0
176
     1
290
     0
176
     1
290
     0
176
     1
290
     0
176
     1
 90
       50
176
     1
 40
0.0
176
     1
 40
1.0
176
     1
 90
        0
176
     1
 62
    18
420
        0
176
     1
 90
       50
176
     1
 90
        3
176
     1
 62
     5
420
      255
176
     1
290
     0
176
     1
 90
       50
176
     1
 90
       50
176
     1
 90
       50
176
     1
290
     0
176
     1
 90
       50
176
     1
 62
   256
176
     0
 40
1.0
176
     0
 90
        2
176
     1
  1
strokes_ogs.tif
176
     1
290
     0
176
     1
 40
1.0
176
     1
 40
1.0
176
     1
1001
ACAD
1000
AcDbSavedByObjectVersion
1070
     0
  0
VISUALSTYLE
  5
59C4
102
{ACAD_REACTORS
330
59B9
102
}
330
59B9
100
AcDbVisualStyle
  2

 70
    11
177
     3
291
     1
 70
    58
 90
        2
176
     1
 90
        2
176
     1
 90
        0
176
     1
 90
        0
176
     1
 40
0.6
176
     1
 40
30.0
176
     1
 62
     7
176
     1
 90
        1
176
     1
 90
        4
176
     1
 62
     7
176
     1
 62
   257
176
     1
 90
        1
176
     1
 90
        1
176
     1
 40
1.0
176
     1
 90
        8
176
     1
 62
     7
176
     1
 40
1.0
176
     1
 90
        1
176
     1
 90
        6
176
     1
 90
        2
176
     1
 62
     7
176
     1
 90
        5
176
     1
 90
        0
176
     1
 90
        0
176
     1
290
     0
176
     1
 90
        1
176
     1
 40
-50.0
176
     1
 90
        0
176
     1
290
     0
176
     1
290
     1
176
     1
290
     1
176
     1
290
     0
176
     1
290
     0
176
     1
290
     0
176
     1
290
     0
176
     1
290
     0
176
     1
290
     0
176
     1
 90
       50
176
     1
 40
0.0
176
     1
 40
1.0
176
     1
 90
        0
176
     1
 62
    18
420
        0
176
     1
 90
       50
176
     1
 90
        3
176
     1
 62
     5
420
      255
176
     1
290
     0
176
     1
 90
       50
176
     1
 90
       50
176
     1
 90
       50
176
     1
290
     0
176
     1
 90
       50
176
     1
 62
   256
176
     0
 40
1.0
176
     0
 90
        2
176
     1
  1
strokes_ogs.tif
176
     1
290
     0
176
     1
 40
1.0
176
     1
 40
1.0
176
     1
1001
ACAD
1000
AcDbSavedByObjectVersion
1070
     0
  0
VISUALSTYLE
  5
59D1
102
{ACAD_REACTORS
330
59B9
102
}
330
59B9
100
AcDbVisualStyle
  2

 70
    22
177
     3
291
     1
 70
    58
 90
        2
176
     0
 90
        2
176
     0
 90
        0
176
     0
 90
        0
176
     0
 40
0.6
176
     0
 40
30.0
176
     0
 62
     7
176
     0
 90
        1
176
     0
 90
        4
176
     0
 62
     7
176
     0
 62
   257
176
     0
 90
        1
176
     0
 90
        1
176
     0
 40
1.0
176
     0
 90
        8
176
     2
 62
     7
176
     0
 40
1.0
176
     0
 90
        1
176
     0
 90
        6
176
     0
 90
        2
176
     0
 62
     7
176
     0
 90
        5
176
     0
 90
        0
176
     0
 90
        0
176
     0
290
     0
176
     0
 90
        1
176
     0
 40
0.0
176
     0
 90
        0
176
     0
290
     0
176
     1
290
     1
176
     1
290
     1
176
     1
290
     0
176
     1
290
     0
176
     1
290
     0
176
     1
290
     0
176
     1
290
     0
176
     1
290
     0
176
     1
 90
       50
176
     0
 40
0.0
176
     0
 40
1.0
176
     0
 90
        0
176
     0
 62
    18
420
        0
176
     0
 90
       50
176
     0
 90
        3
176
     0
 62
     5
420
      255
176
     0
290
     0
176
     1
 90
       50
176
     0
 90
       50
176
     0
 90
       50
176
     0
290
     0
176
     1
 90
       50
176
     0
 62
   256
176
     0
 40
1.0
176
     0
 90
        2
176
     0
  1
strokes_ogs.tif
176
     0
290
     0
176
     1
 40
1.0
176
     0
 40
1.0
176
     0
1001
ACAD
1000
AcDbSavedByObjectVersion
1070
     0
  0
VISUALSTYLE
  5
59C8
102
{ACAD_REACTORS
330
59B9
102
}
330
59B9
100
AcDbVisualStyle
  2

 70
    15
177
     3
291
     1
 70
    58
 90
        2
176
     1
 90
        2
176
     1
 90
        0
176
     1
 90
        0
176
     1
 40
0.6
176
     1
 40
30.0
176
     1
 62
     7
176
     1
 90
        1
176
     1
 90
        4
176
     1
 62
     7
176
     1
 62
   257
176
     1
 90
        1
176
     1
 90
        1
176
     1
 40
1.0
176
     1
 90
        8
176
     1
 62
     7
176
     1
 40
1.0
176
     1
 90
        1
176
     1
 90
        6
176
     1
 90
        2
176
     1
 62
     7
176
     1
 90
        5
176
     1
 90
        0
176
     1
 90
        0
176
     1
290
     0
176
     1
 90
        1
176
     1
 40
0.0
176
     1
 90
        0
176
     1
290
     0
176
     1
290
     1
176
     1
290
     1
176
     1
290
     0
176
     1
290
     0
176
     1
290
     0
176
     1
290
     0
176
     1
290
     0
176
     1
290
     0
176
     1
 90
       50
176
     1
 40
0.0
176
     1
 40
1.0
176
     1
 90
        0
176
     1
 62
    18
420
        0
176
     1
 90
       50
176
     1
 90
        3
176
     1
 62
     5
420
      255
176
     1
290
     0
176
     1
 90
       50
176
     1
 90
       50
176
     1
 90
       50
176
     1
290
     0
176
     1
 90
       50
176
     1
 62
   256
176
     0
 40
1.0
176
     0
 90
        2
176
     1
  1
strokes_ogs.tif
176
     1
290
     0
176
     1
 40
1.0
176
     1
 40
1.0
176
     1
1001
ACAD
1000
AcDbSavedByObjectVersion
1070
     0
  0
VISUALSTYLE
  5
59BA
102
{ACAD_REACTORS
330
59B9
102
}
330
59B9
100
AcDbVisualStyle
  2

 70
     0
177
     3
291
     1
 70
    58
 90
        2
176
     1
 90
        1
176
     1
 90
        1
176
     1
 90
        2
176
     1
 40
0.6
176
     1
 40
30.0
176
     1
 62
     7
176
     1
 90
        0
176
     1
 90
        0
176
     1
 62
     7
176
     1
 62
   257
176
     1
 90
        1
176
     1
 90
        1
176
     1
 40
1.0
176
     1
 90
        8
176
     1
 62
     7
176
     1
 40
1.0
176
     1
 90
        1
176
     1
 90
        6
176
     1
 90
        2
176
     1
 62
     7
176
     1
 90
        5
176
     1
 90
        0
176
     1
 90
        0
176
     1
290
     0
176
     1
 90
       13
176
     1
 40
0.0
176
     1
 90
        0
176
     1
290
     0
176
     1
290
     1
176
     1
290
     1
176
     1
290
     0
176
     1
290
     0
176
     1
290
     0
176
     1
290
     0
176
     1
290
     0
176
     1
290
     0
176
     1
 90
       50
176
     1
 40
0.0
176
     1
 40
1.0
176
     1
 90
        0
176
     1
 62
    18
420
        0
176
     1
 90
       50
176
     1
 90
        3
176
     1
 62
     5
420
      255
176
     1
290
     0
176
     1
 90
       50
176
     1
 90
       50
176
     1
 90
       50
176
     1
290
     0
176
     1
 90
       50
176
     1
 62
   256
176
     0
 40
1.0
176
     0
 90
        2
176
     1
  1
strokes_ogs.tif
176
     1
290
     0
176
     1
 40
1.0
176
     1
 40
1.0
176
     1
1001
ACAD
1000
AcDbSavedByObjectVersion
1070
     0
  0
VISUALSTYLE
  5
59BB
102
{ACAD_REACTORS
330
59B9
102
}
330
59B9
100
AcDbVisualStyle
  2

 70
     1
177
     3
291
     1
 70
    58
 90
        2
176
     1
 90
        1
176
     1
 90
        1
176
     1
 90
        2
176
     1
 40
0.6
176
     1
 40
30.0
176
     1
 62
     7
176
     1
 90
        1
176
     1
 90
        0
176
     1
 62
     7
176
     1
 62
   257
176
     1
 90
        1
176
     1
 90
        1
176
     1
 40
1.0
176
     1
 90
        0
176
     1
 62
   257
176
     1
 40
1.0
176
     1
 90
        1
176
     1
 90
        6
176
     1
 90
        2
176
     1
 62
     7
176
     1
 90
        5
176
     1
 90
        0
176
     1
 90
        0
176
     1
290
     0
176
     1
 90
       13
176
     1
 40
0.0
176
     1
 90
        0
176
     1
290
     0
176
     1
290
     1
176
     1
290
     1
176
     1
290
     0
176
     1
290
     0
176
     1
290
     0
176
     1
290
     0
176
     1
290
     0
176
     1
290
     0
176
     1
 90
       50
176
     1
 40
0.0
176
     1
 40
1.0
176
     1
 90
        0
176
     1
 62
    18
420
        0
176
     1
 90
       50
176
     1
 90
        3
176
     1
 62
     5
420
      255
176
     1
290
     0
176
     1
 90
       50
176
     1
 90
       50
176
     1
 90
       50
176
     1
290
     0
176
     1
 90
       50
176
     1
 62
   256
176
     0
 40
1.0
176
     0
 90
        2
176
     1
  1
strokes_ogs.tif
176
     1
290
     0
176
     1
 40
1.0
176
     1
 40
1.0
176
     1
1001
ACAD
1000
AcDbSavedByObjectVersion
1070
     0
  0
VISUALSTYLE
  5
59BC
102
{ACAD_REACTORS
330
59B9
102
}
330
59B9
100
AcDbVisualStyle
  2

 70
     2
177
     3
291
     1
 70
    58
 90
        2
176
     1
 90
        2
176
     1
 90
        1
176
     1
 90
        2
176
     1
 40
0.6
176
     1
 40
30.0
176
     1
 62
     7
176
     1
 90
        0
176
     1
 90
        0
176
     1
 62
     7
176
     1
 62
   257
176
     1
 90
        1
176
     1
 90
        1
176
     1
 40
1.0
176
     1
 90
        0
176
     1
 62
     7
176
     1
 40
1.0
176
     1
 90
        1
176
     1
 90
        6
176
     1
 90
        2
176
     1
 62
     7
176
     1
 90
        5
176
     1
 90
        0
176
     1
 90
        0
176
     1
290
     0
176
     1
 90
       13
176
     1
 40
0.0
176
     1
 90
        0
176
     1
290
     0
176
     1
290
     1
176
     1
290
     1
176
     1
290
     0
176
     1
290
     0
176
     1
290
     0
176
     1
290
     0
176
     1
290
     0
176
     1
290
     0
176
     1
 90
       50
176
     1
 40
0.0
176
     1
 40
1.0
176
     1
 90
        0
176
     1
 62
    18
420
        0
176
     1
 90
       50
176
     1
 90
        3
176
     1
 62
     5
420
      255
176
     1
290
     0
176
     1
 90
       50
176
     1
 90
       50
176
     1
 90
       50
176
     1
290
     0
176
     1
 90
       50
176
     1
 62
   256
176
     0
 40
1.0
176
     0
 90
        2
176
     1
  1
strokes_ogs.tif
176
     1
290
     0
176
     1
 40
1.0
176
     1
 40
1.0
176
     1
1001
ACAD
1000
AcDbSavedByObjectVersion
1070
     0
  0
VISUALSTYLE
  5
59BD
102
{ACAD_REACTORS
330
59B9
102
}
330
59B9
100
AcDbVisualStyle
  2

 70
     3
177
     3
291
     1
 70
    58
 90
        2
176
     1
 90
        2
176
     1
 90
        1
176
     1
 90
        2
176
     1
 40
0.6
176
     1
 40
30.0
176
     1
 62
     7
176
     1
 90
        1
176
     1
 90
        0
176
     1
 62
     7
176
     1
 62
   257
176
     1
 90
        1
176
     1
 90
        1
176
     1
 40
1.0
176
     1
 90
        0
176
     1
 62
   257
176
     1
 40
1.0
176
     1
 90
        1
176
     1
 90
        6
176
     1
 90
        2
176
     1
 62
     7
176
     1
 90
        5
176
     1
 90
        0
176
     1
 90
        0
176
     1
290
     0
176
     1
 90
       13
176
     1
 40
0.0
176
     1
 90
        0
176
     1
290
     0
176
     1
290
     1
176
     1
290
     1
176
     1
290
     0
176
     1
290
     0
176
     1
290
     0
176
     1
290
     0
176
     1
290
     0
176
     1
290
     0
176
     1
 90
       50
176
     1
 40
0.0
176
     1
 40
1.0
176
     1
 90
        0
176
     1
 62
    18
420
        0
176
     1
 90
       50
176
     1
 90
        3
176
     1
 62
     5
420
      255
176
     1
290
     0
176
     1
 90
       50
176
     1
 90
       50
176
     1
 90
       50
176
     1
290
     0
176
     1
 90
       50
176
     1
 62
   256
176
     0
 40
1.0
176
     0
 90
        2
176
     1
  1
strokes_ogs.tif
176
     1
290
     0
176
     1
 40
1.0
176
     1
 40
1.0
176
     1
1001
ACAD
1000
AcDbSavedByObjectVersion
1070
     0
  0
VISUALSTYLE
  5
59C1
102
{ACAD_REACTORS
330
59B9
102
}
330
59B9
100
AcDbVisualStyle
  2

 70
     6
177
     3
291
     0
 70
    58
 90
        1
176
     1
 90
        2
176
     1
 90
        2
176
     1
 90
        0
176
     1
 40
0.6
176
     1
 40
30.0
176
     1
 62
     7
176
     1
 90
        2
176
     1
 90
        2
176
     1
 62
     7
176
     1
 62
   257
176
     1
 90
        2
176
     1
 90
        1
176
     1
 40
40.0
176
     1
 90
        0
176
     1
 62
   257
176
     1
 40
1.0
176
     1
 90
        1
176
     1
 90
        6
176
     1
 90
        2
176
     1
 62
     7
176
     1
 90
        3
176
     1
 90
        0
176
     1
 90
        0
176
     1
290
     0
176
     1
 90
        1
176
     1
 40
0.0
176
     1
 90
        0
176
     1
290
     0
176
     1
290
     1
176
     1
290
     1
176
     1
290
     0
176
     1
290
     0
176
     1
290
     0
176
     1
290
     0
176
     1
290
     0
176
     1
290
     0
176
     1
 90
       50
176
     1
 40
0.0
176
     1
 40
1.0
176
     1
 90
        0
176
     1
 62
    18
420
        0
176
     1
 90
       50
176
     1
 90
        3
176
     1
 62
     5
420
      255
176
     1
290
     0
176
     1
 90
       50
176
     1
 90
       50
176
     1
 90
       50
176
     1
290
     0
176
     1
 90
       50
176
     1
 62
   256
176
     0
 40
1.0
176
     0
 90
        2
176
     1
  1
strokes_ogs.tif
176
     1
290
     0
176
     1
 40
1.0
176
     1
 40
1.0
176
     1
1001
ACAD
1000
AcDbSavedByObjectVersion
1070
     0
  0
VISUALSTYLE
  5
59CF
102
{ACAD_REACTORS
330
59B9
102
}
330
59B9
100
AcDbVisualStyle
  2

 70
    20
177
     3
291
     1
 70
    58
 90
        2
176
     0
 90
        2
176
     0
 90
        0
176
     0
 90
        0
176
     0
 40
0.6
176
     0
 40
30.0
176
     0
 62
     7
176
     0
 90
        1
176
     0
 90
        4
176
     0
 62
     7
176
     0
 62
   257
176
     0
 90
        1
176
     0
 90
        1
176
     0
 40
1.0
176
     0
 90
       10
176
     2
 62
     7
176
     0
 40
1.0
176
     0
 90
        1
176
     0
 90
        6
176
     0
 90
        2
176
     0
 62
     7
176
     0
 90
        5
176
     0
 90
        0
176
     0
 90
        0
176
     0
290
     0
176
     0
 90
        1
176
     0
 40
0.0
176
     0
 90
        0
176
     0
290
     0
176
     1
290
     1
176
     1
290
     1
176
     1
290
     0
176
     1
290
     0
176
     1
290
     0
176
     1
290
     0
176
     1
290
     0
176
     1
290
     0
176
     1
 90
       50
176
     0
 40
0.0
176
     0
 40
1.0
176
     0
 90
        0
176
     0
 62
    18
420
        0
176
     0
 90
       50
176
     0
 90
        3
176
     0
 62
     5
420
      255
176
     0
290
     0
176
     1
 90
       50
176
     0
 90
       50
176
     0
 90
       50
176
     0
290
     0
176
     1
 90
       50
176
     0
 62
   256
176
     0
 40
1.0
176
     0
 90
        2
176
     0
  1
strokes_ogs.tif
176
     0
290
     0
176
     1
 40
1.0
176
     0
 40
1.0
176
     0
1001
ACAD
1000
AcDbSavedByObjectVersion
1070
     0
  0
VISUALSTYLE
  5
59C7
102
{ACAD_REACTORS
330
59B9
102
}
330
59B9
100
AcDbVisualStyle
  2

 70
    14
177
     3
291
     1
 70
    58
 90
        2
176
     1
 90
        2
176
     1
 90
        0
176
     1
 90
        0
176
     1
 40
0.6
176
     1
 40
30.0
176
     1
 62
     7
176
     1
 90
        1
176
     1
 90
        4
176
     1
 62
     7
176
     1
 62
   257
176
     1
 90
        7
176
     1
 90
        7
176
     1
 40
1.0
176
     1
 90
        8
176
     1
 62
     7
176
     1
 40
1.0
176
     1
 90
        1
176
     1
 90
        6
176
     1
 90
        2
176
     1
 62
     7
176
     1
 90
        5
176
     1
 90
        0
176
     1
 90
        0
176
     1
290
     0
176
     1
 90
        1
176
     1
 40
0.0
176
     1
 90
        0
176
     1
290
     0
176
     1
290
     1
176
     1
290
     1
176
     1
290
     0
176
     1
290
     0
176
     1
290
     0
176
     1
290
     0
176
     1
290
     0
176
     1
290
     0
176
     1
 90
       50
176
     1
 40
0.0
176
     1
 40
1.0
176
     1
 90
        0
176
     1
 62
    18
420
        0
176
     1
 90
       50
176
     1
 90
        3
176
     1
 62
     5
420
      255
176
     1
290
     0
176
     1
 90
       50
176
     1
 90
       50
176
     1
 90
       50
176
     1
290
     0
176
     1
 90
       50
176
     1
 62
   256
176
     0
 40
1.0
176
     0
 90
        2
176
     1
  1
strokes_ogs.tif
176
     1
290
     0
176
     1
 40
1.0
176
     1
 40
1.0
176
     1
1001
ACAD
1000
AcDbSavedByObjectVersion
1070
     0
  0
VISUALSTYLE
  5
59D0
102
{ACAD_REACTORS
330
59B9
102
}
330
59B9
100
AcDbVisualStyle
  2

 70
    21
177
     3
291
     1
 70
    58
 90
        2
176
     0
 90
        2
176
     0
 90
        0
176
     0
 90
        0
176
     0
 40
0.6
176
     0
 40
30.0
176
     0
 62
     7
176
     0
 90
        1
176
     0
 90
        4
176
     0
 62
     7
176
     0
 62
   257
176
     0
 90
        1
176
     0
 90
        1
176
     0
 40
1.0
176
     0
 90
        9
176
     2
 62
     7
176
     0
 40
1.0
176
     0
 90
        1
176
     0
 90
        6
176
     0
 90
        2
176
     0
 62
     7
176
     0
 90
        5
176
     0
 90
        0
176
     0
 90
        0
176
     0
290
     0
176
     0
 90
        1
176
     0
 40
0.0
176
     0
 90
        0
176
     0
290
     0
176
     1
290
     1
176
     1
290
     1
176
     1
290
     0
176
     1
290
     0
176
     1
290
     0
176
     1
290
     0
176
     1
290
     0
176
     1
290
     0
176
     1
 90
       50
176
     0
 40
0.0
176
     0
 40
1.0
176
     0
 90
        0
176
     0
 62
    18
420
        0
176
     0
 90
       50
176
     0
 90
        3
176
     0
 62
     5
420
      255
176
     0
290
     0
176
     1
 90
       50
176
     0
 90
       50
176
     0
 90
       50
176
     0
290
     0
176
     1
 90
       50
176
     0
 62
   256
176
     0
 40
1.0
176
     0
 90
        2
176
     0
  1
strokes_ogs.tif
176
     0
290
     0
176
     1
 40
1.0
176
     0
 40
1.0
176
     0
1001
ACAD
1000
AcDbSavedByObjectVersion
1070
     0
  0
VISUALSTYLE
  5
59C3
102
{ACAD_REACTORS
330
59B9
102
}
330
59B9
100
AcDbVisualStyle
  2

 70
     8
177
     3
291
     0
 70
    58
 90
        2
176
     1
 90
        3
176
     1
 90
        0
176
     1
 90
        2
176
     1
 40
0.6
176
     1
 40
30.0
176
     1
 62
     7
176
     1
 90
        0
176
     1
 90
        0
176
     1
 62
     7
176
     1
 62
   257
176
     1
 90
        1
176
     1
 90
        1
176
     1
 40
1.0
176
     1
 90
        8
176
     1
 62
   257
176
     1
 40
1.0
176
     1
 90
        1
176
     1
 90
        6
176
     1
 90
        2
176
     1
 62
     7
176
     1
 90
        3
176
     1
 90
        0
176
     1
 90
        0
176
     1
290
     0
176
     1
 90
       13
176
     1
 40
0.0
176
     1
 90
        0
176
     1
290
     0
176
     1
290
     1
176
     1
290
     1
176
     1
290
     0
176
     1
290
     0
176
     1
290
     0
176
     1
290
     0
176
     1
290
     0
176
     1
290
     0
176
     1
 90
       50
176
     1
 40
0.0
176
     1
 40
1.0
176
     1
 90
        0
176
     1
 62
    18
420
        0
176
     1
 90
       50
176
     1
 90
        3
176
     1
 62
     5
420
      255
176
     1
290
     0
176
     1
 90
       50
176
     1
 90
       50
176
     1
 90
       50
176
     1
290
     0
176
     1
 90
       50
176
     1
 62
   256
176
     0
 40
1.0
176
     0
 90
        2
176
     1
  1
strokes_ogs.tif
176
     1
290
     0
176
     1
 40
1.0
176
     1
 40
1.0
176
     1
1001
ACAD
1000
AcDbSavedByObjectVersion
1070
     0
  0
VISUALSTYLE
  5
59CE
102
{ACAD_REACTORS
330
59B9
102
}
330
59B9
100
AcDbVisualStyle
  2

 70
    27
177
     3
291
     0
 70
    58
 90
        2
176
     1
 90
        2
176
     1
 90
        1
176
     1
 90
        2
176
     1
 40
0.6
176
     1
 40
30.0
176
     1
 62
     7
176
     1
 90
        0
176
     1
 90
        4
176
     1
 62
     7
176
     1
 62
   257
176
     1
 90
        1
176
     1
 90
        1
176
     1
 40
1.0
176
     1
 90
        8
176
     1
 62
   257
176
     1
 40
1.0
176
     1
 90
        1
176
     1
 90
        6
176
     1
 90
        2
176
     1
 62
     8
176
     1
 90
        3
176
     1
 90
        0
176
     1
 90
        0
176
     1
290
     0
176
     1
 90
        5
176
     1
 40
0.0
176
     1
 90
        0
176
     1
290
     0
176
     1
290
     1
176
     1
290
     1
176
     1
290
     0
176
     1
290
     0
176
     1
290
     0
176
     1
290
     0
176
     1
290
     0
176
     1
290
     0
176
     1
 90
       50
176
     1
 40
0.0
176
     1
 40
1.0
176
     1
 90
        0
176
     1
 62
    18
420
        0
176
     1
 90
       50
176
     1
 90
        3
176
     1
 62
     5
420
      255
176
     1
290
     0
176
     1
 90
       50
176
     1
 90
       50
176
     1
 90
       50
176
     1
290
     0
176
     1
 90
       50
176
     1
 62
   256
176
     0
 40
1.0
176
     0
 90
        2
176
     1
  1
strokes_ogs.tif
176
     1
290
     0
176
     1
 40
1.0
176
     1
 40
1.0
176
     1
1001
ACAD
1000
AcDbSavedByObjectVersion
1070
     0
  0
VISUALSTYLE
  5
59CD
102
{ACAD_REACTORS
330
59B9
102
}
330
59B9
100
AcDbVisualStyle
  2

 70
    26
177
     3
291
     0
 70
    58
 90
        2
176
     1
 90
        2
176
     1
 90
        1
176
     1
 90
        2
176
     1
 40
0.6
176
     1
 40
30.0
176
     1
 62
     7
176
     1
 90
        1
176
     1
 90
       10
176
     1
 62
     7
176
     1
 62
   257
176
     1
 90
        2
176
     1
 90
        1
176
     1
 40
1.0
176
     1
 90
        8
176
     1
 62
   257
176
     1
 40
1.0
176
     1
 90
        1
176
     1
 90
        6
176
     1
 90
        2
176
     1
 62
     7
176
     1
 90
        3
176
     1
 90
        0
176
     1
 90
        0
176
     1
290
     0
176
     1
 90
        5
176
     1
 40
0.0
176
     1
 90
        0
176
     1
290
     0
176
     1
290
     1
176
     1
290
     1
176
     1
290
     0
176
     1
290
     0
176
     1
290
     0
176
     1
290
     0
176
     1
290
     0
176
     1
290
     0
176
     1
 90
       50
176
     1
 40
0.0
176
     1
 40
1.0
176
     1
 90
        0
176
     1
 62
    18
420
        0
176
     1
 90
       50
176
     1
 90
        3
176
     1
 62
     5
420
      255
176
     1
290
     0
176
     1
 90
       50
176
     1
 90
       50
176
     1
 90
       50
176
     1
290
     0
176
     1
 90
       50
176
     1
 62
   256
176
     0
 40
1.0
176
     0
 90
        2
176
     1
  1
strokes_ogs.tif
176
     1
290
     0
176
     1
 40
1.0
176
     1
 40
1.0
176
     1
1001
ACAD
1000
AcDbSavedByObjectVersion
1070
     0
  0
VISUALSTYLE
  5
59CA
102
{ACAD_REACTORS
330
59B9
102
}
330
59B9
100
AcDbVisualStyle
  2

 70
    23
177
     3
291
     0
 70
    58
 90
        2
176
     1
 90
        2
176
     1
 90
        3
176
     1
 90
        0
176
     1
 40
0.6
176
     1
 40
30.0
176
     1
 62
     7
176
     1
 90
        2
176
     1
 90
        2
176
     1
 62
     7
176
     1
 62
     7
176
     1
 90
        1
176
     1
 90
        1
176
     1
 40
40.0
176
     1
 90
        8
176
     1
 62
     7
176
     1
 40
1.0
176
     1
 90
        1
176
     1
 90
        6
176
     1
 90
        2
176
     1
 62
     7
176
     1
 90
        3
176
     1
 90
        0
176
     1
 90
        0
176
     1
290
     0
176
     1
 90
        1
176
     1
 40
0.0
176
     1
 90
        0
176
     1
290
     0
176
     1
290
     1
176
     1
290
     1
176
     1
290
     0
176
     1
290
     0
176
     1
290
     0
176
     1
290
     0
176
     1
290
     0
176
     1
290
     0
176
     1
 90
       50
176
     1
 40
0.0
176
     1
 40
1.0
176
     1
 90
        0
176
     1
 62
    18
420
        0
176
     1
 90
       50
176
     1
 90
        3
176
     1
 62
     5
420
      255
176
     1
290
     0
176
     1
 90
       50
176
     1
 90
       50
176
     1
 90
       50
176
     1
290
     0
176
     1
 90
       50
176
     1
 62
   256
176
     0
 40
1.0
176
     0
 90
        2
176
     1
  1
strokes_ogs.tif
176
     1
290
     0
176
     1
 40
1.0
176
     1
 40
1.0
176
     1
1001
ACAD
1000
AcDbSavedByObjectVersion
1070
     0
  0
VISUALSTYLE
  5
59CB
102
{ACAD_REACTORS
330
59B9
102
}
330
59B9
100
AcDbVisualStyle
  2

 70
    24
177
     3
291
     0
 70
    58
 90
        1
176
     1
 90
        2
176
     1
 90
        2
176
     1
 90
        0
176
     1
 40
0.6
176
     1
 40
30.0
176
     1
 62
     7
176
     1
 90
        2
176
     1
 90
        2
176
     1
 62
     7
176
     1
 62
     7
176
     1
 90
        1
176
     1
 90
        1
176
     1
 40
40.0
176
     1
 90
       11
176
     1
 62
     7
176
     1
 40
1.0
176
     1
 90
        1
176
     1
 90
        6
176
     1
 90
        2
176
     1
 62
     7
176
     1
 90
        6
176
     1
 90
        0
176
     1
 90
        0
176
     1
290
     0
176
     1
 90
        1
176
     1
 40
0.0
176
     1
 90
        0
176
     1
290
     0
176
     1
290
     1
176
     1
290
     1
176
     1
290
     0
176
     1
290
     0
176
     1
290
     0
176
     1
290
     0
176
     1
290
     0
176
     1
290
     0
176
     1
 90
       50
176
     1
 40
0.0
176
     1
 40
1.0
176
     1
 90
        0
176
     1
 62
    18
420
        0
176
     1
 90
       50
176
     1
 90
        3
176
     1
 62
     5
420
      255
176
     1
290
     0
176
     1
 90
       50
176
     1
 90
       50
176
     1
 90
       50
176
     1
290
     0
176
     1
 90
       50
176
     1
 62
   256
176
     0
 40
1.0
176
     0
 90
        2
176
     1
  1
strokes_ogs.tif
176
     1
290
     0
176
     1
 40
1.0
176
     1
 40
1.0
176
     1
1001
ACAD
1000
AcDbSavedByObjectVersion
1070
     0
  0
VISUALSTYLE
  5
59C6
102
{ACAD_REACTORS
330
59B9
102
}
330
59B9
100
AcDbVisualStyle
  2

 70
    13
177
     3
291
     1
 70
    58
 90
        2
176
     1
 90
        2
176
     1
 90
        0
176
     1
 90
        0
176
     1
 40
0.6
176
     1
 40
30.0
176
     1
 62
     7
176
     1
 90
        1
176
     1
 90
        4
176
     1
 62
     7
176
     1
 62
   257
176
     1
 90
        1
176
     1
 90
        1
176
     1
 40
1.0
176
     1
 90
       12
176
     1
 62
     7
176
     1
 40
1.0
176
     1
 90
        1
176
     1
 90
        6
176
     1
 90
        2
176
     1
 62
     7
176
     1
 90
        5
176
     1
 90
        0
176
     1
 90
        0
176
     1
290
     0
176
     1
 90
        1
176
     1
 40
0.0
176
     1
 90
        0
176
     1
290
     0
176
     1
290
     1
176
     1
290
     1
176
     1
290
     0
176
     1
290
     0
176
     1
290
     0
176
     1
290
     0
176
     1
290
     0
176
     1
290
     0
176
     1
 90
       50
176
     1
 40
0.0
176
     1
 40
1.0
176
     1
 90
        0
176
     1
 62
    18
420
        0
176
     1
 90
       50
176
     1
 90
        3
176
     1
 62
     5
420
      255
176
     1
290
     0
176
     1
 90
       50
176
     1
 90
       50
176
     1
 90
       50
176
     1
290
     0
176
     1
 90
       50
176
     1
 62
   256
176
     0
 40
1.0
176
     0
 90
        2
176
     1
  1
strokes_ogs.tif
176
     1
290
     0
176
     1
 40
1.0
176
     1
 40
1.0
176
     1
1001
ACAD
1000
AcDbSavedByObjectVersion
1070
     0
  0
VISUALSTYLE
  5
59C0
102
{ACAD_REACTORS
330
59B9
102
}
330
59B9
100
AcDbVisualStyle
  2

 70
     5
177
     3
291
     0
 70
    58
 90
        0
176
     1
 90
        2
176
     1
 90
        0
176
     1
 90
        0
176
     1
 40
0.6
176
     1
 40
30.0
176
     1
 62
     7
176
     1
 90
        1
176
     1
 90
        4
176
     1
 62
     7
176
     1
 62
   257
176
     1
 90
        1
176
     1
 90
        1
176
     1
 40
1.0
176
     1
 90
        0
176
     1
 62
   257
176
     1
 40
1.0
176
     1
 90
        1
176
     1
 90
        6
176
     1
 90
        2
176
     1
 62
     7
176
     1
 90
        3
176
     1
 90
        0
176
     1
 90
        0
176
     1
290
     0
176
     1
 90
        1
176
     1
 40
0.0
176
     1
 90
        0
176
     1
290
     0
176
     1
290
     1
176
     1
290
     1
176
     1
290
     0
176
     1
290
     0
176
     1
290
     0
176
     1
290
     0
176
     1
290
     0
176
     1
290
     0
176
     1
 90
       50
176
     1
 40
0.0
176
     1
 40
1.0
176
     1
 90
        0
176
     1
 62
    18
420
        0
176
     1
 90
       50
176
     1
 90
        3
176
     1
 62
     5
420
      255
176
     1
290
     0
176
     1
 90
       50
176
     1
 90
       50
176
     1
 90
       50
176
     1
290
     0
176
     1
 90
       50
176
     1
 62
   256
176
     0
 40
1.0
176
     0
 90
        2
176
     1
  1
strokes_ogs.tif
176
     1
290
     0
176
     1
 40
1.0
176
     1
 40
1.0
176
     1
1001
ACAD
1000
AcDbSavedByObjectVersion
1070
     0
  0
VISUALSTYLE
  5
59CC
102
{ACAD_REACTORS
330
59B9
102
}
330
59B9
100
AcDbVisualStyle
  2

 70
    25
177
     3
291
     0
 70
    58
 90
        2
176
     1
 90
        2
176
     1
 90
        1
176
     1
 90
        1
176
     1
 40
0.5
176
     1
 40
30.0
176
     1
 62
     7
176
     1
 90
        1
176
     1
 90
        0
176
     1
 62
     7
176
     1
 62
   257
176
     1
 90
        1
176
     1
 90
        1
176
     1
 40
1.0
176
     1
 90
        8
176
     1
 62
     7
176
     1
 40
1.0
176
     1
 90
        1
176
     1
 90
        6
176
     1
 90
        2
176
     1
 62
     7
176
     1
 90
        3
176
     1
 90
        0
176
     1
 90
        0
176
     1
290
     0
176
     1
 90
       13
176
     1
 40
0.0
176
     1
 90
        0
176
     1
290
     0
176
     1
290
     1
176
     1
290
     1
176
     1
290
     0
176
     1
290
     0
176
     1
290
     0
176
     1
290
     0
176
     1
290
     0
176
     1
290
     0
176
     1
 90
       50
176
     1
 40
0.0
176
     1
 40
1.0
176
     1
 90
        0
176
     1
 62
    18
420
        0
176
     1
 90
       50
176
     1
 90
        3
176
     1
 62
     5
420
      255
176
     1
290
     0
176
     1
 90
       50
176
     1
 90
       50
176
     1
 90
       50
176
     1
290
     0
176
     1
 90
       50
176
     1
 62
   256
176
     0
 40
1.0
176
     0
 90
        2
176
     1
  1
strokes_ogs.tif
176
     1
290
     0
176
     1
 40
1.0
176
     1
 40
1.0
176
     1
1001
ACAD
1000
AcDbSavedByObjectVersion
1070
     0
  0
DICTIONARYVAR
  5
5C7F
102
{ACAD_REACTORS
330
5697
102
}
330
5697
100
DictionaryVariables
280
     0
  1
1:1
  0
DICTIONARYVAR
  5
5C7C
102
{ACAD_REACTORS
330
5697
102
}
330
5697
100
DictionaryVariables
280
     0
  1
STANDARD
  0
DICTIONARYVAR
  5
5C7B
102
{ACAD_REACTORS
330
5697
102
}
330
5697
100
DictionaryVariables
280
     0
  1
STANDARD
  0
DICTIONARYVAR
  5
5C7D
102
{ACAD_REACTORS
330
5697
102
}
330
5697
100
DictionaryVariables
280
     0
  1
Imperial24
  0
DICTIONARYVAR
  5
5C7E
102
{ACAD_REACTORS
330
5697
102
}
330
5697
100
DictionaryVariables
280
     0
  1
Imperial24
  0
DICTIONARYVAR
  5
5698
102
{ACAD_REACTORS
330
5697
102
}
330
5697
100
DictionaryVariables
280
     0
  1
1
  0
DICTIONARYVAR
  5
5C81
102
{ACAD_REACTORS
330
5697
102
}
330
5697
100
DictionaryVariables
280
     0
  1
0
  0
DICTIONARYVAR
  5
5F47
102
{ACAD_REACTORS
330
5697
102
}
330
5697
100
DictionaryVariables
280
     0
  1
1
  0
DICTIONARYVAR
  5
5F48
102
{ACAD_REACTORS
330
5697
102
}
330
5697
100
DictionaryVariables
280
     0
  1
15
  0
DICTIONARYVAR
  5
5F46
102
{ACAD_REACTORS
330
5697
102
}
330
5697
100
DictionaryVariables
280
     0
  1
0
  0
DICTIONARYVAR
  5
5F45
102
{ACAD_REACTORS
330
5697
102
}
330
5697
100
DictionaryVariables
280
     0
  1
0
  0
DICTIONARYVAR
  5
5C80
102
{ACAD_REACTORS
330
5697
102
}
330
5697
100
DictionaryVariables
280
     0
  1
127
  0
DICTIONARY
  5
5F4C
330
59EC
100
AcDbDictionary
280
     1
281
     1
  3
ACAD_XREC_ROUNDTRIP
360
5F4D
  0
DICTIONARY
  5
59AA
330
59A9
100
AcDbDictionary
280
     1
281
     1
  3
ACAD_XREC_ROUNDTRIP
360
5F03
  3
BUMPTILE
360
59AC
  3
DIFFUSETILE
360
59AB
  3
OPACITYTILE
360
59AF
  3
REFLECTIONTILE
360
59AE
  3
REFRACTIONTILE
360
59B0
  3
SPECULARTILE
360
59AD
  0
DICTIONARY
  5
59A2
330
59A1
100
AcDbDictionary
280
     1
281
     1
  3
ACAD_XREC_ROUNDTRIP
360
5F02
  3
BUMPTILE
360
59A4
  3
DIFFUSETILE
360
59A3
  3
OPACITYTILE
360
59A7
  3
REFLECTIONTILE
360
59A6
  3
REFRACTIONTILE
360
59A8
  3
SPECULARTILE
360
59A5
  0
DICTIONARY
  5
59B2
330
59B1
100
AcDbDictionary
280
     1
281
     1
  3
ACAD_XREC_ROUNDTRIP
360
5F04
  3
BUMPTILE
360
59B4
  3
DIFFUSETILE
360
59B3
  3
OPACITYTILE
360
59B7
  3
REFLECTIONTILE
360
59B6
  3
REFRACTIONTILE
360
59B8
  3
SPECULARTILE
360
59B5
  0
DICTIONARY
  5
5F4A
330
59EA
100
AcDbDictionary
280
     1
281
     1
  3
ACAD_XREC_ROUNDTRIP
360
5F4B
  0
DICTIONARY
  5
5EF6
330
59D4
100
AcDbDictionary
280
     1
281
     1
  3
ACAD_ROUNDTRIP_2008_TABLESTYLE_CELLSTYLEMAP
360
5F49
  0
XRECORD
  5
5F4D
102
{ACAD_REACTORS
330
5F4C
102
}
330
5F4C
100
AcDbXrecord
280
     1
102
DISPLAYNAME
  1
Imperial24
102
FLAGS
 90
        0
  0
XRECORD
  5
5F03
102
{ACAD_REACTORS
330
59AA
102
}
330
59AA
100
AcDbXrecord
280
     1
102
MATERIAL
148
0.0
149
0.0
149
0.0
 93
        0
 94
      127
282
     0
 72
     0
 77
     0
171
     0
175
     0
179
     0
273
     0
  0
XRECORD
  5
59AC
102
{ACAD_REACTORS
330
59AA
102
}
330
59AA
100
AcDbXrecord
280
     1
270
     1
271
     1
  0
XRECORD
  5
59AB
102
{ACAD_REACTORS
330
59AA
102
}
330
59AA
100
AcDbXrecord
280
     1
270
     1
271
     1
  0
XRECORD
  5
59AF
102
{ACAD_REACTORS
330
59AA
102
}
330
59AA
100
AcDbXrecord
280
     1
270
     1
271
     1
  0
XRECORD
  5
59AE
102
{ACAD_REACTORS
330
59AA
102
}
330
59AA
100
AcDbXrecord
280
     1
270
     1
271
     1
  0
XRECORD
  5
59B0
102
{ACAD_REACTORS
330
59AA
102
}
330
59AA
100
AcDbXrecord
280
     1
270
     1
271
     1
  0
XRECORD
  5
59AD
102
{ACAD_REACTORS
330
59AA
102
}
330
59AA
100
AcDbXrecord
280
     1
270
     1
271
     1
  0
XRECORD
  5
5F02
102
{ACAD_REACTORS
330
59A2
102
}
330
59A2
100
AcDbXrecord
280
     1
102
MATERIAL
148
0.0
149
0.0
149
0.0
 93
        0
 94
      127
282
     0
 72
     0
 77
     0
171
     0
175
     0
179
     0
273
     0
  0
XRECORD
  5
59A4
102
{ACAD_REACTORS
330
59A2
102
}
330
59A2
100
AcDbXrecord
280
     1
270
     1
271
     1
  0
XRECORD
  5
59A3
102
{ACAD_REACTORS
330
59A2
102
}
330
59A2
100
AcDbXrecord
280
     1
270
     1
271
     1
  0
XRECORD
  5
59A7
102
{ACAD_REACTORS
330
59A2
102
}
330
59A2
100
AcDbXrecord
280
     1
270
     1
271
     1
  0
XRECORD
  5
59A6
102
{ACAD_REACTORS
330
59A2
102
}
330
59A2
100
AcDbXrecord
280
     1
270
     1
271
     1
  0
XRECORD
  5
59A8
102
{ACAD_REACTORS
330
59A2
102
}
330
59A2
100
AcDbXrecord
280
     1
270
     1
271
     1
  0
XRECORD
  5
59A5
102
{ACAD_REACTORS
330
59A2
102
}
330
59A2
100
AcDbXrecord
280
     1
270
     1
271
     1
  0
XRECORD
  5
5F04
102
{ACAD_REACTORS
330
59B2
102
}
330
59B2
100
AcDbXrecord
280
     1
102
MATERIAL
148
0.0
149
0.0
149
0.0
 93
        0
 94
      127
282
     0
 72
     0
 77
     0
171
     0
175
     0
179
     0
273
     0
  0
XRECORD
  5
59B4
102
{ACAD_REACTORS
330
59B2
102
}
330
59B2
100
AcDbXrecord
280
     1
270
     1
271
     1
  0
XRECORD
  5
59B3
102
{ACAD_REACTORS
330
59B2
102
}
330
59B2
100
AcDbXrecord
280
     1
270
     1
271
     1
  0
XRECORD
  5
59B7
102
{ACAD_REACTORS
330
59B2
102
}
330
59B2
100
AcDbXrecord
280
     1
270
     1
271
     1
  0
XRECORD
  5
59B6
102
{ACAD_REACTORS
330
59B2
102
}
330
59B2
100
AcDbXrecord
280
     1
270
     1
271
     1
  0
XRECORD
  5
59B8
102
{ACAD_REACTORS
330
59B2
102
}
330
59B2
100
AcDbXrecord
280
     1
270
     1
271
     1
  0
XRECORD
  5
59B5
102
{ACAD_REACTORS
330
59B2
102
}
330
59B2
100
AcDbXrecord
280
     1
270
     1
271
     1
  0
XRECORD
  5
5F4B
102
{ACAD_REACTORS
330
5F4A
102
}
330
5F4A
100
AcDbXrecord
280
     1
102
DISPLAYNAME
  1
Imperial24
102
FLAGS
 90
        0
  0
CELLSTYLEMAP
  5
5F49
102
{ACAD_REACTORS
330
5EF6
102
}
330
5EF6
100
AcDbCellStyleMap
 90
        3
300
CELLSTYLE
  1
TABLEFORMAT_BEGIN
 90
        5
170
     1
 91
        0
 92
    32768
 62
   257
 93
        1
300
CONTENTFORMAT
  1
CONTENTFORMAT_BEGIN
 90
        0
 91
        0
 92
      512
 93
        0
300

 40
0.0
140
1.0
 94
        5
 62
     0
340
11
144
0.25
309
CONTENTFORMAT_END
171
     1
301
MARGIN
  1
CELLMARGIN_BEGIN
 40
0.06
 40
0.06
 40
0.06
 40
0.06
 40
0.18
 40
0.18
309
CELLMARGIN_END
 94
        6
 95
        1
302
GRIDFORMAT
  1
GRIDFORMAT_BEGIN
 90
        0
 91
        1
 62
     0
 92
       -2
340
0
 93
        0
 40
0.045
309
GRIDFORMAT_END
 95
        2
302
GRIDFORMAT
  1
GRIDFORMAT_BEGIN
 90
        0
 91
        1
 62
     0
 92
       -2
340
0
 93
        0
 40
0.045
309
GRIDFORMAT_END
 95
        4
302
GRIDFORMAT
  1
GRIDFORMAT_BEGIN
 90
        0
 91
        1
 62
     0
 92
       -2
340
0
 93
        0
 40
0.045
309
GRIDFORMAT_END
 95
        8
302
GRIDFORMAT
  1
GRIDFORMAT_BEGIN
 90
        0
 91
        1
 62
     0
 92
       -2
340
0
 93
        0
 40
0.045
309
GRIDFORMAT_END
 95
       16
302
GRIDFORMAT
  1
GRIDFORMAT_BEGIN
 90
        0
 91
        1
 62
     0
 92
       -2
340
0
 93
        0
 40
0.045
309
GRIDFORMAT_END
 95
       32
302
GRIDFORMAT
  1
GRIDFORMAT_BEGIN
 90
        0
 91
        1
 62
     0
 92
       -2
340
0
 93
        0
 40
0.045
309
GRIDFORMAT_END
309
TABLEFORMAT_END
  1
CELLSTYLE_BEGIN
 90
        1
 91
        1
300
_TITLE
309
CELLSTYLE_END
300
CELLSTYLE
  1
TABLEFORMAT_BEGIN
 90
        5
170
     1
 91
        0
 92
        0
 62
   257
 93
        1
300
CONTENTFORMAT
  1
CONTENTFORMAT_BEGIN
 90
        0
 91
        0
 92
      512
 93
        0
300

 40
0.0
140
1.0
 94
        5
 62
     0
340
11
144
0.18
309
CONTENTFORMAT_END
171
     1
301
MARGIN
  1
CELLMARGIN_BEGIN
 40
0.06
 40
0.06
 40
0.06
 40
0.06
 40
0.18
 40
0.18
309
CELLMARGIN_END
 94
        6
 95
        1
302
GRIDFORMAT
  1
GRIDFORMAT_BEGIN
 90
        0
 91
        1
 62
     0
 92
       -2
340
0
 93
        0
 40
0.045
309
GRIDFORMAT_END
 95
        2
302
GRIDFORMAT
  1
GRIDFORMAT_BEGIN
 90
        0
 91
        1
 62
     0
 92
       -2
340
0
 93
        0
 40
0.045
309
GRIDFORMAT_END
 95
        4
302
GRIDFORMAT
  1
GRIDFORMAT_BEGIN
 90
        0
 91
        1
 62
     0
 92
       -2
340
0
 93
        0
 40
0.045
309
GRIDFORMAT_END
 95
        8
302
GRIDFORMAT
  1
GRIDFORMAT_BEGIN
 90
        0
 91
        1
 62
     0
 92
       -2
340
0
 93
        0
 40
0.045
309
GRIDFORMAT_END
 95
       16
302
GRIDFORMAT
  1
GRIDFORMAT_BEGIN
 90
        0
 91
        1
 62
     0
 92
       -2
340
0
 93
        0
 40
0.045
309
GRIDFORMAT_END
 95
       32
302
GRIDFORMAT
  1
GRIDFORMAT_BEGIN
 90
        0
 91
        1
 62
     0
 92
       -2
340
0
 93
        0
 40
0.045
309
GRIDFORMAT_END
309
TABLEFORMAT_END
  1
CELLSTYLE_BEGIN
 90
        2
 91
        1
300
_HEADER
309
CELLSTYLE_END
300
CELLSTYLE
  1
TABLEFORMAT_BEGIN
 90
        5
170
     1
 91
        0
 92
        0
 62
   257
 93
        1
300
CONTENTFORMAT
  1
CONTENTFORMAT_BEGIN
 90
        0
 91
        0
 92
      512
 93
        0
300

 40
0.0
140
1.0
 94
        2
 62
     0
340
11
144
0.18
309
CONTENTFORMAT_END
171
     1
301
MARGIN
  1
CELLMARGIN_BEGIN
 40
0.06
 40
0.06
 40
0.06
 40
0.06
 40
0.18
 40
0.18
309
CELLMARGIN_END
 94
        6
 95
        1
302
GRIDFORMAT
  1
GRIDFORMAT_BEGIN
 90
        0
 91
        1
 62
     0
 92
       -2
340
0
 93
        0
 40
0.045
309
GRIDFORMAT_END
 95
        2
302
GRIDFORMAT
  1
GRIDFORMAT_BEGIN
 90
        0
 91
        1
 62
     0
 92
       -2
340
0
 93
        0
 40
0.045
309
GRIDFORMAT_END
 95
        4
302
GRIDFORMAT
  1
GRIDFORMAT_BEGIN
 90
        0
 91
        1
 62
     0
 92
       -2
340
0
 93
        0
 40
0.045
309
GRIDFORMAT_END
 95
        8
302
GRIDFORMAT
  1
GRIDFORMAT_BEGIN
 90
        0
 91
        1
 62
     0
 92
       -2
340
0
 93
        0
 40
0.045
309
GRIDFORMAT_END
 95
       16
302
GRIDFORMAT
  1
GRIDFORMAT_BEGIN
 90
        0
 91
        1
 62
     0
 92
       -2
340
0
 93
        0
 40
0.045
309
GRIDFORMAT_END
 95
       32
302
GRIDFORMAT
  1
GRIDFORMAT_BEGIN
 90
        0
 91
        1
 62
     0
 92
       -2
340
0
 93
        0
 40
0.045
309
GRIDFORMAT_END
309
TABLEFORMAT_END
  1
CELLSTYLE_BEGIN
 90
        3
 91
        2
300
_DATA
309
CELLSTYLE_END
  0
ENDSEC
  0
EOF
