  0
SECTION
  2
HEADER
  9
$ACADVER
  1
AC1027
  9
$ACADMAINTVER
 70
    55
  9
$DWGCODEPAGE
  3
ANSI_932
  9
$LASTSAVEDBY
  1
marketing
  9
$REQUIREDVERSIONS
160
                 0
  9
$INSBASE
 10
0.0
 20
0.0
 30
0.0
  9
$EXTMIN
 10
-105.2579620194833
 20
-387.2520730768469
 30
-0.0015258207003583
  9
$EXTMAX
 10
358.9000572121004
 20
109.9982927350775
 30
0.0000000349246037
  9
$LIMMIN
 10
-459.0
 20
-527.0
  9
$LIMMAX
 10
682.0
 20
313.0
  9
$ORTHOMODE
 70
     1
  9
$REGENMODE
 70
     1
  9
$FILLMODE
 70
     1
  9
$QTEXTMODE
 70
     0
  9
$MIRRTEXT
 70
     1
  9
$LTSCALE
 40
5.0
  9
$ATTMODE
 70
     1
  9
$TEXTSIZE
 40
5.0
  9
$TRACEWID
 40
0.05
  9
$TEXTSTYLE
  7
STANDARD1
  9
$CLAYER
  8
30
  9
$CELTYPE
  6
CONTINUOUS
  9
$CECOLOR
 62
   256
  9
$CELTSCALE
 40
1.0
  9
$DISPSILH
 70
     0
  9
$DIMSCALE
 40
1.0
  9
$DIMASZ
 40
2.0
  9
$DIMEXO
 40
1.0
  9
$DIMDLI
 40
0.5
  9
$DIMRND
 40
0.0
  9
$DIMDLE
 40
0.0
  9
$DIMEXE
 40
0.5
  9
$DIMTP
 40
0.0
  9
$DIMTM
 40
0.0
  9
$DIMTXT
 40
4.0
  9
$DIMCEN
 40
0.09
  9
$DIMTSZ
 40
0.0
  9
$DIMTOL
 70
     0
  9
$DIMLIM
 70
     0
  9
$DIMTIH
 70
     0
  9
$DIMTOH
 70
     0
  9
$DIMSE1
 70
     0
  9
$DIMSE2
 70
     0
  9
$DIMTAD
 70
     3
  9
$DIMZIN
 70
    12
  9
$DIMBLK
  1
OPEN
  9
$DIMASO
 70
     1
  9
$DIMSHO
 70
     1
  9
$DIMPOST
  1

  9
$DIMAPOST
  1

  9
$DIMALT
 70
     0
  9
$DIMALTD
 70
     2
  9
$DIMALTF
 40
25.4
  9
$DIMLFAC
 40
1.0
  9
$DIMTOFL
 70
     0
  9
$DIMTVP
 40
0.0
  9
$DIMTIX
 70
     0
  9
$DIMSOXD
 70
     0
  9
$DIMSAH
 70
     0
  9
$DIMBLK1
  1

  9
$DIMBLK2
  1

  9
$DIMSTYLE
  2
STANDARD
  9
$DIMCLRD
 70
     0
  9
$DIMCLRE
 70
     0
  9
$DIMCLRT
 70
     0
  9
$DIMTFAC
 40
1.0
  9
$DIMGAP
 40
1.0
  9
$DIMJUST
 70
     0
  9
$DIMSD1
 70
     0
  9
$DIMSD2
 70
     0
  9
$DIMTOLJ
 70
     1
  9
$DIMTZIN
 70
     0
  9
$DIMALTZ
 70
     0
  9
$DIMALTTZ
 70
     0
  9
$DIMUPT
 70
     0
  9
$DIMDEC
 70
     1
  9
$DIMTDEC
 70
     1
  9
$DIMALTU
 70
     2
  9
$DIMALTTD
 70
     2
  9
$DIMTXSTY
  7
STANDARD
  9
$DIMAUNIT
 70
     0
  9
$DIMADEC
 70
     0
  9
$DIMALTRND
 40
0.0
  9
$DIMAZIN
 70
     3
  9
$DIMDSEP
 70
    46
  9
$DIMATFIT
 70
     3
  9
$DIMFRAC
 70
     0
  9
$DIMLDRBLK
  1
OPEN
  9
$DIMLUNIT
 70
     2
  9
$DIMLWD
 70
    -2
  9
$DIMLWE
 70
    -2
  9
$DIMTMOVE
 70
     0
  9
$DIMFXL
 40
1.0
  9
$DIMFXLON
 70
     0
  9
$DIMJOGANG
 40
0.7853981633974483
  9
$DIMTFILL
 70
     0
  9
$DIMTFILLCLR
 70
     0
  9
$DIMARCSYM
 70
     0
  9
$DIMLTYPE
  6

  9
$DIMLTEX1
  6

  9
$DIMLTEX2
  6

  9
$DIMTXTDIRECTION
 70
     0
  9
$LUNITS
 70
     2
  9
$LUPREC
 70
     4
  9
$SKETCHINC
 40
0.1
  9
$FILLETRAD
 40
0.0
  9
$AUNITS
 70
     0
  9
$AUPREC
 70
     0
  9
$MENU
  1
.
  9
$ELEVATION
 40
0.0
  9
$PELEVATION
 40
0.0
  9
$THICKNESS
 40
0.0
  9
$LIMCHECK
 70
     0
  9
$CHAMFERA
 40
0.0
  9
$CHAMFERB
 40
0.0
  9
$CHAMFERC
 40
0.0
  9
$CHAMFERD
 40
0.0
  9
$SKPOLY
 70
     0
  9
$TDCREATE
 40
2452286.555658658
  9
$TDUCREATE
 40
2452286.180658658
  9
$TDUPDATE
 40
2459278.589288437
  9
$TDUUPDATE
 40
2459278.214288437
  9
$TDINDWG
 40
1.3555665394
  9
$TDUSRTIMER
 40
1.3555625347
  9
$USRTIMER
 70
     1
  9
$ANGBASE
 50
0.0
  9
$ANGDIR
 70
     0
  9
$PDMODE
 70
     0
  9
$PDSIZE
 40
0.0
  9
$PLINEWID
 40
0.0
  9
$SPLFRAME
 70
     0
  9
$SPLINETYPE
 70
     6
  9
$SPLINESEGS
 70
     8
  9
$HANDSEED
  5
74AF
  9
$SURFTAB1
 70
     6
  9
$SURFTAB2
 70
     6
  9
$SURFTYPE
 70
     6
  9
$SURFU
 70
     6
  9
$SURFV
 70
     6
  9
$UCSBASE
  2

  9
$UCSNAME
  2

  9
$UCSORG
 10
0.0
 20
0.0
 30
0.0
  9
$UCSXDIR
 10
1.0
 20
0.0
 30
0.0
  9
$UCSYDIR
 10
0.0
 20
1.0
 30
0.0
  9
$UCSORTHOREF
  2

  9
$UCSORTHOVIEW
 70
     0
  9
$UCSORGTOP
 10
0.0
 20
0.0
 30
0.0
  9
$UCSORGBOTTOM
 10
0.0
 20
0.0
 30
0.0
  9
$UCSORGLEFT
 10
0.0
 20
0.0
 30
0.0
  9
$UCSORGRIGHT
 10
0.0
 20
0.0
 30
0.0
  9
$UCSORGFRONT
 10
0.0
 20
0.0
 30
0.0
  9
$UCSORGBACK
 10
0.0
 20
0.0
 30
0.0
  9
$PUCSBASE
  2

  9
$PUCSNAME
  2

  9
$PUCSORG
 10
0.0
 20
0.0
 30
0.0
  9
$PUCSXDIR
 10
1.0
 20
0.0
 30
0.0
  9
$PUCSYDIR
 10
0.0
 20
1.0
 30
0.0
  9
$PUCSORTHOREF
  2

  9
$PUCSORTHOVIEW
 70
     0
  9
$PUCSORGTOP
 10
0.0
 20
0.0
 30
0.0
  9
$PUCSORGBOTTOM
 10
0.0
 20
0.0
 30
0.0
  9
$PUCSORGLEFT
 10
0.0
 20
0.0
 30
0.0
  9
$PUCSORGRIGHT
 10
0.0
 20
0.0
 30
0.0
  9
$PUCSORGFRONT
 10
0.0
 20
0.0
 30
0.0
  9
$PUCSORGBACK
 10
0.0
 20
0.0
 30
0.0
  9
$USERI1
 70
     0
  9
$USERI2
 70
     0
  9
$USERI3
 70
     0
  9
$USERI4
 70
     0
  9
$USERI5
 70
     0
  9
$USERR1
 40
0.0
  9
$USERR2
 40
0.0
  9
$USERR3
 40
0.0
  9
$USERR4
 40
0.0
  9
$USERR5
 40
0.0
  9
$WORLDVIEW
 70
     1
  9
$SHADEDGE
 70
     3
  9
$SHADEDIF
 70
    70
  9
$TILEMODE
 70
     1
  9
$MAXACTVP
 70
    48
  9
$PINSBASE
 10
0.0
 20
0.0
 30
0.0
  9
$PLIMCHECK
 70
     0
  9
$PEXTMIN
 10
4.273573370203961
 20
5.205246163471485
 30
0.0
  9
$PEXTMAX
 10
194.6100952986349
 20
283.0697008572913
 30
0.0
  9
$PLIMMIN
 10
-5.873748779296875
 20
-5.873749732971191
  9
$PLIMMAX
 10
204.0995788574218
 20
291.1369009017943
  9
$UNITMODE
 70
     0
  9
$VISRETAIN
 70
     1
  9
$PLINEGEN
 70
     0
  9
$PSLTSCALE
 70
     1
  9
$TREEDEPTH
 70
  3020
  9
$CMLSTYLE
  2
STANDARD
  9
$CMLJUST
 70
     0
  9
$CMLSCALE
 40
1.0
  9
$PROXYGRAPHICS
 70
     1
  9
$MEASUREMENT
 70
     0
  9
$CELWEIGHT
370
    -1
  9
$ENDCAPS
280
     0
  9
$JOINSTYLE
280
     0
  9
$LWDISPLAY
290
     0
  9
$INSUNITS
 70
     0
  9
$HYPERLINKBASE
  1

  9
$STYLESHEET
  1
KIKI.CTB
  9
$XEDIT
290
     1
  9
$CEPSNTYPE
380
     0
  9
$PSTYLEMODE
290
     1
  9
$FINGERPRINTGUID
  2

  9
$VERSIONGUID
  2
{CB670AD2-C4F3-4634-AA48-E4857E49437F}
  9
$EXTNAMES
290
     1
  9
$PSVPSCALE
 40
0.0
  9
$OLESTARTUP
290
     0
  9
$SORTENTS
280
   127
  9
$INDEXCTL
280
     0
  9
$HIDETEXT
280
     0
  9
$XCLIPFRAME
280
     2
  9
$HALOGAP
280
     0
  9
$OBSCOLOR
 70
   257
  9
$OBSLTYPE
280
     0
  9
$INTERSECTIONDISPLAY
280
     0
  9
$INTERSECTIONCOLOR
 70
   257
  9
$DIMASSOC
280
     1
  9
$PROJECTNAME
  1

  9
$CAMERADISPLAY
290
     0
  9
$LENSLENGTH
 40
50.0
  9
$CAMERAHEIGHT
 40
0.0
  9
$STEPSPERSEC
 40
2.0
  9
$STEPSIZE
 40
6.0
  9
$3DDWFPREC
 40
2.0
  9
$PSOLWIDTH
 40
0.25
  9
$PSOLHEIGHT
 40
4.0
  9
$LOFTANG1
 40
1.570796326794896
  9
$LOFTANG2
 40
1.570796326794896
  9
$LOFTMAG1
 40
0.0
  9
$LOFTMAG2
 40
0.0
  9
$LOFTPARAM
 70
     7
  9
$LOFTNORMALS
280
     1
  9
$LATITUDE
 40
37.795
  9
$LONGITUDE
 40
-122.394
  9
$NORTHDIRECTION
 40
0.0
  9
$TIMEZONE
 70
 -8000
  9
$LIGHTGLYPHDISPLAY
280
     1
  9
$TILEMODELIGHTSYNCH
280
     1
  9
$CMATERIAL
347
7434
  9
$SOLIDHIST
280
     0
  9
$SHOWHIST
280
     1
  9
$DWFFRAME
280
     2
  9
$DGNFRAME
280
     0
  9
$REALWORLDSCALE
290
     1
  9
$INTERFERECOLOR
 62
     1
  9
$INTERFEREOBJVS
345
7456
  9
$INTERFEREVPVS
346
7453
  9
$CSHADOW
280
     0
  9
$SHADOWPLANELOCATION
 40
0.0
  0
ENDSEC
  0
SECTION
  2
CLASSES
  0
CLASS
  1
ACDBDICTIONARYWDFLT
  2
AcDbDictionaryWithDefault
  3
ObjectDBX Classes
 90
        0
 91
        1
280
     0
281
     0
  0
CLASS
  1
DICTIONARYVAR
  2
AcDbDictionaryVar
  3
ObjectDBX Classes
 90
        0
 91
       10
280
     0
281
     0
  0
CLASS
  1
MATERIAL
  2
AcDbMaterial
  3
ObjectDBX Classes
 90
     1153
 91
        3
280
     0
281
     0
  0
CLASS
  1
VISUALSTYLE
  2
AcDbVisualStyle
  3
ObjectDBX Classes
 90
     4095
 91
       24
280
     0
281
     0
  0
CLASS
  1
TABLESTYLE
  2
AcDbTableStyle
  3
ObjectDBX Classes
 90
     4095
 91
        1
280
     0
281
     0
  0
CLASS
  1
SCALE
  2
AcDbScale
  3
ObjectDBX Classes
 90
     1153
 91
       17
280
     0
281
     0
  0
CLASS
  1
MLEADERSTYLE
  2
AcDbMLeaderStyle
  3
ACDB_MLEADERSTYLE_CLASS
 90
     4095
 91
        1
280
     0
281
     0
  0
CLASS
  1
ACDBSECTIONVIEWSTYLE
  2
AcDbSectionViewStyle
  3
ObjectDBX Classes
 90
     1025
 91
        1
280
     0
281
     0
  0
CLASS
  1
ACDBDETAILVIEWSTYLE
  2
AcDbDetailViewStyle
  3
ObjectDBX Classes
 90
     1025
 91
        1
280
     0
281
     0
  0
CLASS
  1
CELLSTYLEMAP
  2
AcDbCellStyleMap
  3
ObjectDBX Classes
 90
     1152
 91
        1
280
     0
281
     0
  0
ENDSEC
  0
SECTION
  2
TABLES
  0
TABLE
  2
VPORT
  5
8
330
0
100
AcDbSymbolTable
 70
     1
  0
VPORT
  5
742B
330
8
100
AcDbSymbolTableRecord
100
AcDbViewportTableRecord
  2
*Active
 70
     0
 10
0.0
 20
0.0
 11
1.0
 21
1.0
 12
126.8210475963085
 22
-138.6268901708847
 13
0.0
 23
0.0
 14
1.0
 24
1.0
 15
10.0
 25
10.0
 16
0.0
 26
0.0
 36
1.0
 17
0.0
 27
0.0
 37
0.0
 40
500.844946769601
 41
2.289505428226779
 42
50.0
 43
0.0
 44
0.0
 50
0.0
 51
0.0
 71
     0
 72
   100
 73
     1
 74
     1
 75
     0
 76
     0
 77
     0
 78
     0
281
     0
 65
     1
110
0.0
120
0.0
130
0.0
111
1.0
121
0.0
131
0.0
112
0.0
122
1.0
132
0.0
 79
     0
146
0.0
348
7452
 60
     3
 61
     5
292
     1
282
     1
141
0.0
142
0.0
 63
   250
421
  3355443
1001
ACAD_NAV_VCDISPLAY
1070
     3
  0
ENDTAB
  0
TABLE
  2
LTYPE
  5
5
330
0
100
AcDbSymbolTable
 70
     6
  0
LTYPE
  5
13
330
5
100
AcDbSymbolTableRecord
100
AcDbLinetypeTableRecord
  2
BYBLOCK
 70
     0
  3

 72
    65
 73
     0
 40
0.0
  0
LTYPE
  5
14
330
5
100
AcDbSymbolTableRecord
100
AcDbLinetypeTableRecord
  2
BYLAYER
 70
     0
  3

 72
    65
 73
     0
 40
0.0
  0
LTYPE
  5
15
330
5
100
AcDbSymbolTableRecord
100
AcDbLinetypeTableRecord
  2
CONTINUOUS
 70
     0
  3
Solid line
 72
    65
 73
     0
 40
0.0
  0
LTYPE
  5
22
330
5
100
AcDbSymbolTableRecord
100
AcDbLinetypeTableRecord
  2
CONTINOUS
 70
     0
  3
Solid line
 72
    65
 73
     0
 40
0.0
  0
LTYPE
  5
23
330
5
100
AcDbSymbolTableRecord
100
AcDbLinetypeTableRecord
  2
DASHED
 70
     0
  3
__ __ __ __ __ __ __ __ __ __ __ __ __ __ __
 72
    65
 73
     2
 40
0.75
 49
0.5
 74
     0
 49
-0.25
 74
     0
  0
LTYPE
  5
24
330
5
100
AcDbSymbolTableRecord
100
AcDbLinetypeTableRecord
  2
DASHDOT
 70
     0
  3
__ . __ . __ . __ . __ . __ . __ . __ . __ . __
 72
    65
 73
     4
 40
1.0
 49
0.5
 74
     0
 49
-0.25
 74
     0
 49
0.0
 74
     0
 49
-0.25
 74
     0
  0
LTYPE
  5
392A
330
5
100
AcDbSymbolTableRecord
100
AcDbLinetypeTableRecord
  2
DIVIDE
 70
     0
  3
Divide ____ . . ____ . . ____ . . ____ . . ____
 72
    65
 73
     6
 40
1.25
 49
0.5
 74
     0
 49
-0.25
 74
     0
 49
0.0
 74
     0
 49
-0.25
 74
     0
 49
0.0
 74
     0
 49
-0.25
 74
     0
  0
ENDTAB
  0
TABLE
  2
LAYER
  5
2
330
0
100
AcDbSymbolTable
 70
    14
  0
LAYER
  5
10
102
{ACAD_XDICTIONARY
360
7484
102
}
330
2
100
AcDbSymbolTableRecord
100
AcDbLayerTableRecord
  2
0
 70
     0
 62
     7
  6
CONTINOUS
370
    -3
390
F
347
7444
348
0
  0
LAYER
  5
2F
102
{ACAD_XDICTIONARY
360
7486
102
}
330
2
100
AcDbSymbolTableRecord
100
AcDbLayerTableRecord
  2
10
 70
     0
 62
     4
  6
CONTINOUS
370
    -3
390
F
347
7444
348
0
  0
LAYER
  5
31
102
{ACAD_XDICTIONARY
360
7488
102
}
330
2
100
AcDbSymbolTableRecord
100
AcDbLayerTableRecord
  2
12
 70
     0
 62
     3
  6
CONTINOUS
370
    -3
390
F
347
7444
348
0
  0
LAYER
  5
35
102
{ACAD_XDICTIONARY
360
748A
102
}
330
2
100
AcDbSymbolTableRecord
100
AcDbLayerTableRecord
  2
16
 70
     0
 62
     6
  6
DASHDOT
370
    -3
390
F
347
7444
348
0
  0
LAYER
  5
36
102
{ACAD_XDICTIONARY
360
748C
102
}
330
2
100
AcDbSymbolTableRecord
100
AcDbLayerTableRecord
  2
17
 70
     0
 62
     2
  6
DASHDOT
370
    -3
390
F
347
7444
348
0
  0
LAYER
  5
38
102
{ACAD_XDICTIONARY
360
748E
102
}
330
2
100
AcDbSymbolTableRecord
100
AcDbLayerTableRecord
  2
19
 70
     0
 62
     7
  6
CONTINOUS
370
    -3
390
F
347
7444
348
0
  0
LAYER
  5
3C
102
{ACAD_XDICTIONARY
360
7490
102
}
330
2
100
AcDbSymbolTableRecord
100
AcDbLayerTableRecord
  2
11
 70
     0
 62
     1
  6
CONTINOUS
370
    -3
390
F
347
7444
348
0
  0
LAYER
  5
3D
102
{ACAD_XDICTIONARY
360
7492
102
}
330
2
100
AcDbSymbolTableRecord
100
AcDbLayerTableRecord
  2
24
 70
     0
 62
     2
  6
CONTINOUS
370
    -3
390
F
347
7444
348
0
  0
LAYER
  5
3A2
102
{ACAD_XDICTIONARY
360
7494
102
}
330
2
100
AcDbSymbolTableRecord
100
AcDbLayerTableRecord
  2
30
 70
     0
 62
     9
  6
CONTINUOUS
370
    -3
390
F
347
7444
348
0
  0
LAYER
  5
3A4
330
2
100
AcDbSymbolTableRecord
100
AcDbLayerTableRecord
  2
DEFPOINTS
 70
     0
 62
     7
  6
CONTINUOUS
290
     0
370
    -3
390
F
347
7444
348
0
  0
LAYER
  5
4C43
102
{ACAD_XDICTIONARY
360
7496
102
}
330
2
100
AcDbSymbolTableRecord
100
AcDbLayerTableRecord
  2
18
 70
     0
 62
     5
  6
DIVIDE
370
    -3
390
F
347
7444
348
0
  0
LAYER
  5
5E73
102
{ACAD_XDICTIONARY
360
7498
102
}
330
2
100
AcDbSymbolTableRecord
100
AcDbLayerTableRecord
  2
1
 70
     0
 62
     7
  6
CONTINUOUS
370
    -3
390
F
347
7444
348
0
  0
LAYER
  5
5E74
102
{ACAD_XDICTIONARY
360
749A
102
}
330
2
100
AcDbSymbolTableRecord
100
AcDbLayerTableRecord
  2
TOP
 70
     0
 62
     7
  6
CONTINUOUS
370
    -3
390
F
347
7444
348
0
  0
LAYER
  5
7097
102
{ACAD_XDICTIONARY
360
749C
102
}
330
2
100
AcDbSymbolTableRecord
100
AcDbLayerTableRecord
  2
3
 70
     0
 62
     7
  6
CONTINUOUS
370
    -3
390
F
347
7444
348
0
  0
ENDTAB
  0
TABLE
  2
STYLE
  5
3
330
0
100
AcDbSymbolTable
 70
     3
  0
STYLE
  5
11
330
3
100
AcDbSymbolTableRecord
100
AcDbTextStyleTableRecord
  2
STANDARD
 70
     0
 40
0.0
 41
1.0
 50
0.0
 71
     0
 42
2.0
  3
txt.shx
  4
bigfont.shx
  0
STYLE
  5
42
330
3
100
AcDbSymbolTableRecord
100
AcDbTextStyleTableRecord
  2
STANDARD1
 70
     0
 40
0.0
 41
1.0
 50
0.0
 71
     0
 42
5.0
  3
MONOTXT
  4
BIGFONT
  0
STYLE
  5
5E75
330
3
100
AcDbSymbolTableRecord
100
AcDbTextStyleTableRecord
  2
UGMTXT
 70
     0
 40
0.0
 41
1.0
 50
0.0
 71
     0
 42
0.2
  3
ugmtxt
  4
bigfont
  0
ENDTAB
  0
TABLE
  2
VIEW
  5
6
330
0
100
AcDbSymbolTable
 70
     3
  0
VIEW
  5
230C
330
6
100
AcDbSymbolTableRecord
100
AcDbViewTableRecord
  2
OLE1
 70
     0
 40
148.9124878027714
 10
429.4976280407222
 20
2.560626997828478
 41
103.1458057716444
 11
0.0
 21
0.0
 31
1.0
 12
0.0
 22
0.0
 32
0.0
 42
50.0
 43
0.0
 44
0.0
 50
0.0
 71
     0
281
     0
 72
     0
 73
     0
348
7452
  0
VIEW
  5
230E
330
6
100
AcDbSymbolTableRecord
100
AcDbViewTableRecord
  2
OLE2
 70
     0
 40
170.7786920545775
 10
322.664969958371
 20
-5.978304054290276
 41
102.4672152327465
 11
0.0
 21
0.0
 31
1.0
 12
0.0
 22
0.0
 32
0.0
 42
50.0
 43
0.0
 44
0.0
 50
0.0
 71
     0
281
     0
 72
     0
 73
     0
348
7452
  0
VIEW
  5
23AA
330
6
100
AcDbSymbolTableRecord
100
AcDbViewTableRecord
  2
OLE3
 70
     0
 40
591.7897393182231
 10
84.79698158148218
 20
-46.09336010803995
 41
388.7920961799953
 11
0.0
 21
0.0
 31
1.0
 12
0.0
 22
0.0
 32
0.0
 42
50.0
 43
0.0
 44
0.0
 50
0.0
 71
     0
281
     0
 72
     0
 73
     0
348
7452
  0
ENDTAB
  0
TABLE
  2
UCS
  5
7
330
0
100
AcDbSymbolTable
 70
     0
  0
ENDTAB
  0
TABLE
  2
APPID
  5
9
330
0
100
AcDbSymbolTable
 70
     4
  0
APPID
  5
12
330
9
100
AcDbSymbolTableRecord
100
AcDbRegAppTableRecord
  2
ACAD
 70
     0
  0
APPID
  5
ECD
330
9
100
AcDbSymbolTableRecord
100
AcDbRegAppTableRecord
  2
CONTENTBLOCKICON
 70
     0
  0
APPID
  5
7482
330
9
100
AcDbSymbolTableRecord
100
AcDbRegAppTableRecord
  2
ACAD_EXEMPT_FROM_CAD_STANDARDS
 70
     0
  0
APPID
  5
74A7
330
9
100
AcDbSymbolTableRecord
100
AcDbRegAppTableRecord
  2
ACAD_NAV_VCDISPLAY
 70
     0
  0
ENDTAB
  0
TABLE
  2
DIMSTYLE
  5
A
330
0
100
AcDbSymbolTable
 70
     1
100
AcDbDimStyleTable
 71
     1
340
175
  0
DIMSTYLE
105
175
102
{ACAD_REACTORS
330
C4F
330
BD8
330
608C
330
608B
330
6056
330
6116
330
65C7
330
65C8
330
65A1
330
65A4
330
65A0
330
65A3
330
65A5
330
65A2
330
65CD
330
65CC
330
697D
330
6998
330
699D
330
6E43
330
7128
330
7129
330
712A
330
7406
330
7413
102
}
330
A
100
AcDbSymbolTableRecord
100
AcDbDimStyleTableRecord
  2
STANDARD
 70
     0
 41
2.0
 42
1.0
 43
0.5
 44
0.5
 73
     0
 74
     0
 77
     3
 78
    12
140
4.0
147
1.0
271
     1
272
     1
340
11
341
3B2
342
3B2
  0
ENDTAB
  0
TABLE
  2
BLOCK_RECORD
  5
1
330
0
100
AcDbSymbolTable
 70
    32
  0
BLOCK_RECORD
  5
1E
102
{ACAD_XDICTIONARY
360
178
102
}
330
1
100
AcDbSymbolTableRecord
100
AcDbBlockTableRecord
  2
*MODEL_SPACE
340
73BA
 70
     0
280
     1
281
     0
  0
BLOCK_RECORD
  5
1A
102
{ACAD_XDICTIONARY
360
17A
102
}
330
1
100
AcDbSymbolTableRecord
100
AcDbBlockTableRecord
  2
*PAPER_SPACE
340
73BB
 70
     0
280
     1
281
     0
  0
BLOCK_RECORD
  5
3B2
330
1
100
AcDbSymbolTableRecord
100
AcDbBlockTableRecord
  2
_OPEN
340
0
102
{BLKREFS
331
73D2
331
73D3
331
73E5
331
73FA
331
740B
331
740C
331
7418
331
7419
331
7388
331
737E
331
737F
331
72DA
331
72DB
331
72BF
331
72C0
331
72D1
331
72D2
331
72C8
331
72C9
331
72E3
331
72E4
331
7351
331
7352
331
733F
331
7340
331
7348
331
7349
331
7335
331
7336
331
735A
331
735B
331
72B6
331
72B7
331
72F5
331
72F6
331
72EC
331
72ED
331
72FE
331
72FF
331
732C
331
732D
331
7375
331
7376
331
7323
331
7324
331
731A
331
731B
331
7311
331
7312
331
7308
331
7309
331
736C
331
736D
331
7363
331
7364
331
7387
102
}
 70
     0
280
     1
281
     0
  0
BLOCK_RECORD
  5
BD9
330
1
100
AcDbSymbolTableRecord
100
AcDbBlockTableRecord
  2
*D1
340
0
 70
     0
280
     1
281
     0
  0
BLOCK_RECORD
  5
622C
330
1
100
AcDbSymbolTableRecord
100
AcDbBlockTableRecord
  2
*D2
340
0
 70
     0
280
     1
281
     0
  0
BLOCK_RECORD
  5
6244
330
1
100
AcDbSymbolTableRecord
100
AcDbBlockTableRecord
  2
*D3
340
0
 70
     0
280
     1
281
     0
  0
BLOCK_RECORD
  5
6250
330
1
100
AcDbSymbolTableRecord
100
AcDbBlockTableRecord
  2
*D4
340
0
 70
     0
280
     1
281
     0
  0
BLOCK_RECORD
  5
6268
330
1
100
AcDbSymbolTableRecord
100
AcDbBlockTableRecord
  2
*D5
340
0
 70
     0
280
     1
281
     0
  0
BLOCK_RECORD
  5
6735
330
1
100
AcDbSymbolTableRecord
100
AcDbBlockTableRecord
  2
*D6
340
0
 70
     0
280
     1
281
     0
  0
BLOCK_RECORD
  5
6741
330
1
100
AcDbSymbolTableRecord
100
AcDbBlockTableRecord
  2
*D7
340
0
 70
     0
280
     1
281
     0
  0
BLOCK_RECORD
  5
674D
330
1
100
AcDbSymbolTableRecord
100
AcDbBlockTableRecord
  2
*D8
340
0
 70
     0
280
     1
281
     0
  0
BLOCK_RECORD
  5
6759
330
1
100
AcDbSymbolTableRecord
100
AcDbBlockTableRecord
  2
*D9
340
0
 70
     0
280
     1
281
     0
  0
BLOCK_RECORD
  5
6765
330
1
100
AcDbSymbolTableRecord
100
AcDbBlockTableRecord
  2
*D10
340
0
 70
     0
280
     1
281
     0
  0
BLOCK_RECORD
  5
6771
330
1
100
AcDbSymbolTableRecord
100
AcDbBlockTableRecord
  2
*D11
340
0
 70
     0
280
     1
281
     0
  0
BLOCK_RECORD
  5
678A
330
1
100
AcDbSymbolTableRecord
100
AcDbBlockTableRecord
  2
*D12
340
0
 70
     0
280
     1
281
     0
  0
BLOCK_RECORD
  5
6796
330
1
100
AcDbSymbolTableRecord
100
AcDbBlockTableRecord
  2
*D13
340
0
 70
     0
280
     1
281
     0
  0
BLOCK_RECORD
  5
67A2
330
1
100
AcDbSymbolTableRecord
100
AcDbBlockTableRecord
  2
*D14
340
0
 70
     0
280
     1
281
     0
  0
BLOCK_RECORD
  5
67AE
330
1
100
AcDbSymbolTableRecord
100
AcDbBlockTableRecord
  2
*D15
340
0
 70
     0
280
     1
281
     0
  0
BLOCK_RECORD
  5
6868
330
1
100
AcDbSymbolTableRecord
100
AcDbBlockTableRecord
  2
*U16
340
0
102
{BLKREFS
331
697C
102
}
 70
     0
280
     1
281
     0
  0
BLOCK_RECORD
  5
6A31
330
1
100
AcDbSymbolTableRecord
100
AcDbBlockTableRecord
  2
*D17
340
0
 70
     0
280
     1
281
     0
  0
BLOCK_RECORD
  5
6A3D
330
1
100
AcDbSymbolTableRecord
100
AcDbBlockTableRecord
  2
*D18
340
0
 70
     0
280
     1
281
     0
  0
BLOCK_RECORD
  5
6A49
330
1
100
AcDbSymbolTableRecord
100
AcDbBlockTableRecord
  2
*D19
340
0
 70
     0
280
     1
281
     0
  0
BLOCK_RECORD
  5
6A55
330
1
100
AcDbSymbolTableRecord
100
AcDbBlockTableRecord
  2
*D20
340
0
 70
     0
280
     1
281
     0
  0
BLOCK_RECORD
  5
6A61
330
1
100
AcDbSymbolTableRecord
100
AcDbBlockTableRecord
  2
*D21
340
0
 70
     0
280
     1
281
     0
  0
BLOCK_RECORD
  5
6E79
330
1
100
AcDbSymbolTableRecord
100
AcDbBlockTableRecord
  2
*D22
340
0
 70
     0
280
     1
281
     0
  0
BLOCK_RECORD
  5
706B
330
1
100
AcDbSymbolTableRecord
100
AcDbBlockTableRecord
  2
*U23
340
0
102
{BLKREFS
331
716C
102
}
 70
     0
280
     1
281
     0
  0
BLOCK_RECORD
  5
7198
330
1
100
AcDbSymbolTableRecord
100
AcDbBlockTableRecord
  2
*D24
340
0
 70
     0
280
     1
281
     0
  0
BLOCK_RECORD
  5
71A5
330
1
100
AcDbSymbolTableRecord
100
AcDbBlockTableRecord
  2
*D25
340
0
 70
     0
280
     1
281
     0
  0
BLOCK_RECORD
  5
71B1
330
1
100
AcDbSymbolTableRecord
100
AcDbBlockTableRecord
  2
*D26
340
0
 70
     0
280
     1
281
     0
  0
BLOCK_RECORD
  5
73CE
330
1
100
AcDbSymbolTableRecord
100
AcDbBlockTableRecord
  2
*D27
340
0
 70
     0
280
     1
281
     0
  0
BLOCK_RECORD
  5
73E2
330
1
100
AcDbSymbolTableRecord
100
AcDbBlockTableRecord
  2
*D28
340
0
 70
     0
280
     1
281
     0
  0
BLOCK_RECORD
  5
73F7
330
1
100
AcDbSymbolTableRecord
100
AcDbBlockTableRecord
  2
*D29
340
0
 70
     0
280
     1
281
     0
  0
BLOCK_RECORD
  5
7407
330
1
100
AcDbSymbolTableRecord
100
AcDbBlockTableRecord
  2
*D30
340
0
 70
     0
280
     1
281
     0
  0
BLOCK_RECORD
  5
7414
330
1
100
AcDbSymbolTableRecord
100
AcDbBlockTableRecord
  2
*D31
340
0
 70
     0
280
     1
281
     0
  0
ENDTAB
  0
ENDSEC
  0
SECTION
  2
BLOCKS
  0
BLOCK
  5
1F
330
1E
100
AcDbEntity
  8
0
100
AcDbBlockBegin
  2
*MODEL_SPACE
 70
     0
 10
0.0
 20
0.0
 30
0.0
  3
*MODEL_SPACE
  1

  0
ENDBLK
  5
20
330
1E
100
AcDbEntity
  8
0
100
AcDbBlockEnd
  0
BLOCK
  5
1B
330
1A
100
AcDbEntity
 67
     1
  8
0
100
AcDbBlockBegin
  2
*PAPER_SPACE
 70
     0
 10
0.0
 20
0.0
 30
0.0
  3
*PAPER_SPACE
  1

  0
ENDBLK
  5
1C
330
1A
100
AcDbEntity
 67
     1
  8
0
100
AcDbBlockEnd
  0
BLOCK
  5
3B6
330
3B2
100
AcDbEntity
  8
0
100
AcDbBlockBegin
  2
_OPEN
 70
     0
 10
0.0
 20
0.0
 30
0.0
  3
_OPEN
  1

  0
LINE
  5
3B3
330
3B2
100
AcDbEntity
  8
30
  6
Continuous
 62
     0
100
AcDbLine
 10
-1.0
 20
0.1666666666666666
 30
0.0
 11
0.0
 21
0.0
 31
0.0
  0
LINE
  5
3B4
330
3B2
100
AcDbEntity
  8
30
  6
Continuous
 62
     0
100
AcDbLine
 10
-1.0
 20
-0.1666666666666666
 30
0.0
 11
0.0
 21
0.0
 31
0.0
  0
LINE
  5
3B5
330
3B2
100
AcDbEntity
  8
30
  6
Continuous
 62
     0
100
AcDbLine
 10
0.0
 20
0.0
 30
0.0
 11
-1.0
 21
0.0
 31
0.0
  0
ENDBLK
  5
3B7
330
3B2
100
AcDbEntity
  8
0
100
AcDbBlockEnd
  0
BLOCK
  5
BE3
330
BD9
100
AcDbEntity
  8
0
100
AcDbBlockBegin
  2
*D1
 70
     1
 10
0.0
 20
0.0
 30
0.0
  3
*D1
  1

  0
LINE
  5
7357
330
BD9
100
AcDbEntity
  8
30
 62
     0
440
 16777216
100
AcDbLine
 10
311.1041177097285
 20
-294.8593533752837
 30
0.0
 11
319.7021826079416
 21
-294.8593533752837
 31
0.0
  0
LINE
  5
7358
330
BD9
100
AcDbEntity
  8
30
 62
     0
440
 16777216
100
AcDbLine
 10
312.1041177097286
 20
-284.8593533752837
 30
0.0
 11
319.7021826079416
 21
-284.8593533752837
 31
0.0
  0
LINE
  5
7359
330
BD9
100
AcDbEntity
  8
30
 62
     0
440
 16777216
100
AcDbLine
 10
319.2021826079415
 20
-292.8593533752837
 30
0.0
 11
319.2021826079415
 21
-286.8593533752837
 31
0.0
  0
INSERT
  5
735A
330
BD9
100
AcDbEntity
  8
30
 62
     0
440
 16777216
100
AcDbBlockReference
  2
_OPEN
 10
319.2021826079415
 20
-294.8593533752837
 30
0.0
 41
2.0
 42
2.0
 43
2.0
 50
270.0
  0
INSERT
  5
735B
330
BD9
100
AcDbEntity
  8
30
 62
     0
440
 16777216
100
AcDbBlockReference
  2
_OPEN
 10
319.2021826079415
 20
-284.8593533752837
 30
0.0
 41
2.0
 42
2.0
 43
2.0
 50
90.0
  0
MTEXT
  5
735C
330
BD9
100
AcDbEntity
  8
30
 62
     0
440
 16777216
100
AcDbMText
 10
316.2021826079417
 20
-284.8593533752837
 30
0.0
 40
4.0
 41
0.0
 46
0.0
 71
     5
 72
     1
  1
\A1;max10
 11
0.0000000000000001
 21
1.0
 31
0.0
 73
     1
 44
1.0
1001
ACAD
1000
MTEXTBEGIN
1070
    73
1070
     1
1070
    44
1040
1.0
1070
    74
1070
     0
1000
MTEXTEND
  0
POINT
  5
735D
330
BD9
100
AcDbEntity
  8
DEFPOINTS
 62
     0
440
 16777216
100
AcDbPoint
 10
310.1041177097286
 20
-294.8593533752837
 30
0.0
  0
POINT
  5
735E
330
BD9
100
AcDbEntity
  8
DEFPOINTS
 62
     0
440
 16777216
100
AcDbPoint
 10
311.1041177097285
 20
-284.8593533752837
 30
0.0
  0
POINT
  5
735F
330
BD9
100
AcDbEntity
  8
DEFPOINTS
 62
     0
440
 16777216
100
AcDbPoint
 10
319.2021826079415
 20
-284.8593533752837
 30
0.0
  0
ENDBLK
  5
BE4
330
BD9
100
AcDbEntity
  8
0
100
AcDbBlockEnd
  0
BLOCK
  5
6236
330
622C
100
AcDbEntity
  8
0
100
AcDbBlockBegin
  2
*D2
 70
     1
 10
0.0
 20
0.0
 30
0.0
  3
*D2
  1

  0
LINE
  5
72B3
330
622C
100
AcDbEntity
  8
30
 62
     0
440
 16777216
100
AcDbLine
 10
-45.0
 20
-78.5
 30
0.0
 11
-45.0
 21
-110.4999999999999
 31
0.0
  0
LINE
  5
72B4
330
622C
100
AcDbEntity
  8
30
 62
     0
440
 16777216
100
AcDbLine
 10
75.0
 20
-78.5
 30
0.0
 11
75.0
 21
-110.4999999999999
 31
0.0
  0
LINE
  5
72B5
330
622C
100
AcDbEntity
  8
30
 62
     0
440
 16777216
100
AcDbLine
 10
-43.0
 20
-110.0
 30
0.0
 11
73.0
 21
-110.0
 31
0.0
  0
INSERT
  5
72B6
330
622C
100
AcDbEntity
  8
30
 62
     0
440
 16777216
100
AcDbBlockReference
  2
_OPEN
 10
-45.0
 20
-110.0
 30
0.0
 41
2.0
 42
2.0
 43
2.0
 50
180.0
  0
INSERT
  5
72B7
330
622C
100
AcDbEntity
  8
30
 62
     0
440
 16777216
100
AcDbBlockReference
  2
_OPEN
 10
75.0
 20
-110.0
 30
0.0
 41
2.0
 42
2.0
 43
2.0
  0
MTEXT
  5
72B8
330
622C
100
AcDbEntity
  8
30
 62
     0
440
 16777216
100
AcDbMText
 10
15.0
 20
-107.0
 30
0.0
 40
4.0
 41
0.0
 46
0.0
 71
     5
 72
     1
  1
\A1;120
 73
     1
 44
1.0
1001
ACAD
1000
MTEXTBEGIN
1070
    73
1070
     1
1070
    44
1040
1.0
1070
    74
1070
     0
1000
MTEXTEND
  0
POINT
  5
72B9
330
622C
100
AcDbEntity
  8
DEFPOINTS
 62
     0
440
 16777216
100
AcDbPoint
 10
-45.0
 20
-77.5
 30
0.0
  0
POINT
  5
72BA
330
622C
100
AcDbEntity
  8
DEFPOINTS
 62
     0
440
 16777216
100
AcDbPoint
 10
75.0
 20
-77.5
 30
0.0
  0
POINT
  5
72BB
330
622C
100
AcDbEntity
  8
DEFPOINTS
 62
     0
440
 16777216
100
AcDbPoint
 10
75.0
 20
-110.0
 30
0.0
  0
ENDBLK
  5
6237
330
622C
100
AcDbEntity
  8
0
100
AcDbBlockEnd
  0
BLOCK
  5
624E
330
6244
100
AcDbEntity
  8
0
100
AcDbBlockBegin
  2
*D3
 70
     1
 10
0.0
 20
0.0
 30
0.0
  3
*D3
  1

  0
LINE
  5
72F2
330
6244
100
AcDbEntity
  8
30
 62
     0
440
 16777216
100
AcDbLine
 10
72.24999143870809
 20
-84.99999488000776
 30
0.0
 11
107.2943779951819
 21
-84.99999488000778
 31
0.0
  0
LINE
  5
72F3
330
6244
100
AcDbEntity
  8
30
 62
     0
440
 16777216
100
AcDbLine
 10
72.24999143870809
 20
85.00000325826205
 30
0.0
 11
107.2943779951819
 21
85.00000325826203
 31
0.0
  0
LINE
  5
72F4
330
6244
100
AcDbEntity
  8
30
 62
     0
440
 16777216
100
AcDbLine
 10
106.7943779951816
 20
-82.99999488000777
 30
0.0
 11
106.794377995182
 21
83.00000325826202
 31
0.0
  0
INSERT
  5
72F5
330
6244
100
AcDbEntity
  8
30
 62
     0
440
 16777216
100
AcDbBlockReference
  2
_OPEN
 10
106.7943779951816
 20
-84.99999488000778
 30
0.0
 41
2.0
 42
2.0
 43
2.0
 50
270.0
  0
INSERT
  5
72F6
330
6244
100
AcDbEntity
  8
30
 62
     0
440
 16777216
100
AcDbBlockReference
  2
_OPEN
 10
106.794377995182
 20
85.00000325826203
 30
0.0
 41
2.0
 42
2.0
 43
2.0
 50
90.0
  0
MTEXT
  5
72F7
330
6244
100
AcDbEntity
  8
30
 62
     0
440
 16777216
100
AcDbMText
 10
103.7943779951816
 20
0.0000041891271474
 30
0.0
 40
4.0
 41
0.0
 46
0.0
 71
     5
 72
     1
  1
\A1;170
 11
0.0000000000000001
 21
1.0
 31
0.0
 73
     1
 44
1.0
1001
ACAD
1000
MTEXTBEGIN
1070
    73
1070
     1
1070
    44
1040
1.0
1070
    74
1070
     0
1000
MTEXTEND
  0
POINT
  5
72F8
330
6244
100
AcDbEntity
  8
DEFPOINTS
 62
     0
440
 16777216
100
AcDbPoint
 10
71.24999143870809
 20
-84.99999488000776
 30
0.0
  0
POINT
  5
72F9
330
6244
100
AcDbEntity
  8
DEFPOINTS
 62
     0
440
 16777216
100
AcDbPoint
 10
71.24999143870809
 20
85.00000325826205
 30
0.0
  0
POINT
  5
72FA
330
6244
100
AcDbEntity
  8
DEFPOINTS
 62
     0
440
 16777216
100
AcDbPoint
 10
106.794377995182
 20
85.00000325826203
 30
0.0
  0
ENDBLK
  5
624F
330
6244
100
AcDbEntity
  8
0
100
AcDbBlockEnd
  0
BLOCK
  5
625A
330
6250
100
AcDbEntity
  8
0
100
AcDbBlockBegin
  2
*D4
 70
     1
 10
0.0
 20
0.0
 30
0.0
  3
*D4
  1

  0
LINE
  5
72E9
330
6250
100
AcDbEntity
  8
30
 62
     0
440
 16777216
100
AcDbLine
 10
76.0
 20
-77.5
 30
0.0
 11
94.79437799518198
 21
-77.5
 31
0.0
  0
LINE
  5
72EA
330
6250
100
AcDbEntity
  8
30
 62
     0
440
 16777216
100
AcDbLine
 10
76.0
 20
77.5
 30
0.0
 11
94.79437799518199
 21
77.5
 31
0.0
  0
LINE
  5
72EB
330
6250
100
AcDbEntity
  8
30
 62
     0
440
 16777216
100
AcDbLine
 10
94.29437799518195
 20
-75.5
 30
0.0
 11
94.29437799518201
 21
75.5
 31
0.0
  0
INSERT
  5
72EC
330
6250
100
AcDbEntity
  8
30
 62
     0
440
 16777216
100
AcDbBlockReference
  2
_OPEN
 10
94.29437799518195
 20
-77.5
 30
0.0
 41
2.0
 42
2.0
 43
2.0
 50
270.0
  0
INSERT
  5
72ED
330
6250
100
AcDbEntity
  8
30
 62
     0
440
 16777216
100
AcDbBlockReference
  2
_OPEN
 10
94.29437799518201
 20
77.5
 30
0.0
 41
2.0
 42
2.0
 43
2.0
 50
90.0
  0
MTEXT
  5
72EE
330
6250
100
AcDbEntity
  8
30
 62
     0
440
 16777216
100
AcDbMText
 10
91.29437799518198
 20
0.0000000000000088
 30
0.0
 40
4.0
 41
0.0
 46
0.0
 71
     5
 72
     1
  1
\A1;155
 11
0.0000000000000001
 21
1.0
 31
0.0
 73
     1
 44
1.0
1001
ACAD
1000
MTEXTBEGIN
1070
    73
1070
     1
1070
    44
1040
1.0
1070
    74
1070
     0
1000
MTEXTEND
  0
POINT
  5
72EF
330
6250
100
AcDbEntity
  8
DEFPOINTS
 62
     0
440
 16777216
100
AcDbPoint
 10
75.0
 20
-77.5
 30
0.0
  0
POINT
  5
72F0
330
6250
100
AcDbEntity
  8
DEFPOINTS
 62
     0
440
 16777216
100
AcDbPoint
 10
75.0
 20
77.5
 30
0.0
  0
POINT
  5
72F1
330
6250
100
AcDbEntity
  8
DEFPOINTS
 62
     0
440
 16777216
100
AcDbPoint
 10
94.29437799518201
 20
77.5
 30
0.0
  0
ENDBLK
  5
625B
330
6250
100
AcDbEntity
  8
0
100
AcDbBlockEnd
  0
BLOCK
  5
6272
330
6268
100
AcDbEntity
  8
0
100
AcDbBlockBegin
  2
*D5
 70
     1
 10
0.0
 20
0.0
 30
0.0
  3
*D5
  1

  0
LINE
  5
72FB
330
6268
100
AcDbEntity
  8
30
 62
     0
440
 16777216
100
AcDbLine
 10
-42.0
 20
26.0
 30
0.0
 11
-42.0
 21
33.09950840067995
 31
0.0
  0
LINE
  5
72FC
330
6268
100
AcDbEntity
  8
30
 62
     0
440
 16777216
100
AcDbLine
 10
42.0
 20
26.0
 30
0.0
 11
42.0
 21
33.09950840067995
 31
0.0
  0
LINE
  5
72FD
330
6268
100
AcDbEntity
  8
30
 62
     0
440
 16777216
100
AcDbLine
 10
-40.0
 20
32.59950840067995
 30
0.0
 11
40.0
 21
32.59950840067995
 31
0.0
  0
INSERT
  5
72FE
330
6268
100
AcDbEntity
  8
30
 62
     0
440
 16777216
100
AcDbBlockReference
  2
_OPEN
 10
-42.0
 20
32.59950840067995
 30
0.0
 41
2.0
 42
2.0
 43
2.0
 50
180.0
  0
INSERT
  5
72FF
330
6268
100
AcDbEntity
  8
30
 62
     0
440
 16777216
100
AcDbBlockReference
  2
_OPEN
 10
42.0
 20
32.59950840067995
 30
0.0
 41
2.0
 42
2.0
 43
2.0
  0
MTEXT
  5
7300
330
6268
100
AcDbEntity
  8
30
 62
     0
440
 16777216
100
AcDbMText
 10
0.0000000000000002
 20
35.59950840067996
 30
0.0
 40
4.0
 41
0.0
 46
0.0
 71
     5
 72
     1
  1
\A1;84
 73
     1
 44
1.0
1001
ACAD
1000
MTEXTBEGIN
1070
    73
1070
     1
1070
    44
1040
1.0
1070
    74
1070
     0
1000
MTEXTEND
  0
POINT
  5
7301
330
6268
100
AcDbEntity
  8
DEFPOINTS
 62
     0
440
 16777216
100
AcDbPoint
 10
-42.0
 20
25.0
 30
0.0
  0
POINT
  5
7302
330
6268
100
AcDbEntity
  8
DEFPOINTS
 62
     0
440
 16777216
100
AcDbPoint
 10
42.0
 20
25.0
 30
0.0
  0
POINT
  5
7303
330
6268
100
AcDbEntity
  8
DEFPOINTS
 62
     0
440
 16777216
100
AcDbPoint
 10
42.0
 20
32.59950840067995
 30
0.0
  0
ENDBLK
  5
6273
330
6268
100
AcDbEntity
  8
0
100
AcDbBlockEnd
  0
BLOCK
  5
673F
330
6735
100
AcDbEntity
  8
0
100
AcDbBlockBegin
  2
*D6
 70
     1
 10
0.0
 20
0.0
 30
0.0
  3
*D6
  1

  0
LINE
  5
7329
330
6735
100
AcDbEntity
  8
30
 62
     0
440
 16777216
100
AcDbLine
 10
311.000000614258
 20
-54.9999859042091
 30
0.0
 11
311.000000614258
 21
-110.4999999999999
 31
0.0
  0
LINE
  5
732A
330
6735
100
AcDbEntity
  8
30
 62
     0
440
 16777216
100
AcDbLine
 10
337.9999994458191
 20
-78.99998621133725
 30
0.0
 11
337.9999994458191
 21
-110.4999999999999
 31
0.0
  0
LINE
  5
732B
330
6735
100
AcDbEntity
  8
30
 62
     0
440
 16777216
100
AcDbLine
 10
313.0000006142581
 20
-110.0
 30
0.0
 11
335.9999994458191
 21
-110.0
 31
0.0
  0
INSERT
  5
732C
330
6735
100
AcDbEntity
  8
30
 62
     0
440
 16777216
100
AcDbBlockReference
  2
_OPEN
 10
311.000000614258
 20
-110.0
 30
0.0
 41
2.0
 42
2.0
 43
2.0
 50
180.0
  0
INSERT
  5
732D
330
6735
100
AcDbEntity
  8
30
 62
     0
440
 16777216
100
AcDbBlockReference
  2
_OPEN
 10
337.9999994458191
 20
-110.0
 30
0.0
 41
2.0
 42
2.0
 43
2.0
  0
MTEXT
  5
732E
330
6735
100
AcDbEntity
  8
30
 62
     0
440
 16777216
100
AcDbMText
 10
324.5000000300386
 20
-107.0
 30
0.0
 40
4.0
 41
0.0
 46
0.0
 71
     5
 72
     1
  1
\A1;27
 73
     1
 44
1.0
1001
ACAD
1000
MTEXTBEGIN
1070
    73
1070
     1
1070
    44
1040
1.0
1070
    74
1070
     0
1000
MTEXTEND
  0
POINT
  5
732F
330
6735
100
AcDbEntity
  8
DEFPOINTS
 62
     0
440
 16777216
100
AcDbPoint
 10
311.000000614258
 20
-53.9999859042091
 30
0.0
  0
POINT
  5
7330
330
6735
100
AcDbEntity
  8
DEFPOINTS
 62
     0
440
 16777216
100
AcDbPoint
 10
337.9999994458191
 20
-77.99998621133726
 30
0.0
  0
POINT
  5
7331
330
6735
100
AcDbEntity
  8
DEFPOINTS
 62
     0
440
 16777216
100
AcDbPoint
 10
337.9999994458191
 20
-110.0
 30
0.0
  0
ENDBLK
  5
6740
330
6735
100
AcDbEntity
  8
0
100
AcDbBlockEnd
  0
BLOCK
  5
674B
330
6741
100
AcDbEntity
  8
0
100
AcDbBlockBegin
  2
*D7
 70
     1
 10
0.0
 20
0.0
 30
0.0
  3
*D7
  1

  0
LINE
  5
7372
330
6741
100
AcDbEntity
  8
30
 62
     0
440
 16777216
100
AcDbLine
 10
202.0000000000071
 20
-78.5
 30
0.0
 11
202.0000000000071
 21
-100.5
 31
0.0
  0
LINE
  5
7373
330
6741
100
AcDbEntity
  8
30
 62
     0
440
 16777216
100
AcDbLine
 10
263.000000000007
 20
-83.49999005381867
 30
0.0
 11
263.000000000007
 21
-100.5
 31
0.0
  0
LINE
  5
7374
330
6741
100
AcDbEntity
  8
30
 62
     0
440
 16777216
100
AcDbLine
 10
204.0000000000071
 20
-100.0
 30
0.0
 11
261.000000000007
 21
-100.0
 31
0.0
  0
INSERT
  5
7375
330
6741
100
AcDbEntity
  8
30
 62
     0
440
 16777216
100
AcDbBlockReference
  2
_OPEN
 10
202.0000000000071
 20
-100.0
 30
0.0
 41
2.0
 42
2.0
 43
2.0
 50
180.0
  0
INSERT
  5
7376
330
6741
100
AcDbEntity
  8
30
 62
     0
440
 16777216
100
AcDbBlockReference
  2
_OPEN
 10
263.000000000007
 20
-100.0
 30
0.0
 41
2.0
 42
2.0
 43
2.0
  0
MTEXT
  5
7377
330
6741
100
AcDbEntity
  8
30
 62
     0
440
 16777216
100
AcDbMText
 10
232.5000000000073
 20
-97.0
 30
0.0
 40
4.0
 41
0.0
 46
0.0
 71
     5
 72
     1
  1
\A1;61
 73
     1
 44
1.0
1001
ACAD
1000
MTEXTBEGIN
1070
    73
1070
     1
1070
    44
1040
1.0
1070
    74
1070
     0
1000
MTEXTEND
  0
POINT
  5
7378
330
6741
100
AcDbEntity
  8
DEFPOINTS
 62
     0
440
 16777216
100
AcDbPoint
 10
202.0000000000071
 20
-77.5
 30
0.0
  0
POINT
  5
7379
330
6741
100
AcDbEntity
  8
DEFPOINTS
 62
     0
440
 16777216
100
AcDbPoint
 10
263.000000000007
 20
-82.49999005381868
 30
0.0
  0
POINT
  5
737A
330
6741
100
AcDbEntity
  8
DEFPOINTS
 62
     0
440
 16777216
100
AcDbPoint
 10
263.000000000007
 20
-100.0
 30
0.0
  0
ENDBLK
  5
674C
330
6741
100
AcDbEntity
  8
0
100
AcDbBlockEnd
  0
BLOCK
  5
6757
330
674D
100
AcDbEntity
  8
0
100
AcDbBlockBegin
  2
*D8
 70
     1
 10
0.0
 20
0.0
 30
0.0
  3
*D8
  1

  0
LINE
  5
7320
330
674D
100
AcDbEntity
  8
30
 62
     0
440
 16777216
100
AcDbLine
 10
171.0000000000071
 20
-3.500000016500051
 30
0.0
 11
171.0000000000071
 21
-130.4999999999999
 31
0.0
  0
LINE
  5
7321
330
674D
100
AcDbEntity
  8
30
 62
     0
440
 16777216
100
AcDbLine
 10
311.000000614258
 20
-54.9999859042091
 30
0.0
 11
311.000000614258
 21
-130.4999999999999
 31
0.0
  0
LINE
  5
7322
330
674D
100
AcDbEntity
  8
30
 62
     0
440
 16777216
100
AcDbLine
 10
173.0000000000071
 20
-130.0
 30
0.0
 11
309.0000006142581
 21
-130.0
 31
0.0
  0
INSERT
  5
7323
330
674D
100
AcDbEntity
  8
30
 62
     0
440
 16777216
100
AcDbBlockReference
  2
_OPEN
 10
171.0000000000071
 20
-130.0
 30
0.0
 41
2.0
 42
2.0
 43
2.0
 50
180.0
  0
INSERT
  5
7324
330
674D
100
AcDbEntity
  8
30
 62
     0
440
 16777216
100
AcDbBlockReference
  2
_OPEN
 10
311.000000614258
 20
-130.0
 30
0.0
 41
2.0
 42
2.0
 43
2.0
  0
MTEXT
  5
7325
330
674D
100
AcDbEntity
  8
30
 62
     0
440
 16777216
100
AcDbMText
 10
241.0000003071326
 20
-127.0
 30
0.0
 40
4.0
 41
0.0
 46
0.0
 71
     5
 72
     1
  1
\A1;140
 73
     1
 44
1.0
1001
ACAD
1000
MTEXTBEGIN
1070
    73
1070
     1
1070
    44
1040
1.0
1070
    74
1070
     0
1000
MTEXTEND
  0
POINT
  5
7326
330
674D
100
AcDbEntity
  8
DEFPOINTS
 62
     0
440
 16777216
100
AcDbPoint
 10
171.0000000000071
 20
-2.500000016500048
 30
0.0
  0
POINT
  5
7327
330
674D
100
AcDbEntity
  8
DEFPOINTS
 62
     0
440
 16777216
100
AcDbPoint
 10
311.000000614258
 20
-53.9999859042091
 30
0.0
  0
POINT
  5
7328
330
674D
100
AcDbEntity
  8
DEFPOINTS
 62
     0
440
 16777216
100
AcDbPoint
 10
311.000000614258
 20
-130.0
 30
0.0
  0
ENDBLK
  5
6758
330
674D
100
AcDbEntity
  8
0
100
AcDbBlockEnd
  0
BLOCK
  5
6763
330
6759
100
AcDbEntity
  8
0
100
AcDbBlockBegin
  2
*D9
 70
     1
 10
0.0
 20
0.0
 30
0.0
  3
*D9
  1

  0
LINE
  5
7317
330
6759
100
AcDbEntity
  8
30
 62
     0
440
 16777216
100
AcDbLine
 10
191.0000000000071
 20
-26.0
 30
0.0
 11
191.0000000000071
 21
-120.5
 31
0.0
  0
LINE
  5
7318
330
6759
100
AcDbEntity
  8
30
 62
     0
440
 16777216
100
AcDbLine
 10
311.000000614258
 20
-54.9999859042091
 30
0.0
 11
311.000000614258
 21
-120.5
 31
0.0
  0
LINE
  5
7319
330
6759
100
AcDbEntity
  8
30
 62
     0
440
 16777216
100
AcDbLine
 10
193.000000000007
 20
-120.0
 30
0.0
 11
309.0000006142581
 21
-120.0
 31
0.0
  0
INSERT
  5
731A
330
6759
100
AcDbEntity
  8
30
 62
     0
440
 16777216
100
AcDbBlockReference
  2
_OPEN
 10
191.0000000000071
 20
-120.0
 30
0.0
 41
2.0
 42
2.0
 43
2.0
 50
180.0
  0
INSERT
  5
731B
330
6759
100
AcDbEntity
  8
30
 62
     0
440
 16777216
100
AcDbBlockReference
  2
_OPEN
 10
311.000000614258
 20
-120.0
 30
0.0
 41
2.0
 42
2.0
 43
2.0
  0
MTEXT
  5
731C
330
6759
100
AcDbEntity
  8
30
 62
     0
440
 16777216
100
AcDbMText
 10
251.0000003071326
 20
-117.0
 30
0.0
 40
4.0
 41
0.0
 46
0.0
 71
     5
 72
     1
  1
\A1;120
 73
     1
 44
1.0
1001
ACAD
1000
MTEXTBEGIN
1070
    73
1070
     1
1070
    44
1040
1.0
1070
    74
1070
     0
1000
MTEXTEND
  0
POINT
  5
731D
330
6759
100
AcDbEntity
  8
DEFPOINTS
 62
     0
440
 16777216
100
AcDbPoint
 10
191.0000000000071
 20
-25.0
 30
0.0
  0
POINT
  5
731E
330
6759
100
AcDbEntity
  8
DEFPOINTS
 62
     0
440
 16777216
100
AcDbPoint
 10
311.000000614258
 20
-53.9999859042091
 30
0.0
  0
POINT
  5
731F
330
6759
100
AcDbEntity
  8
DEFPOINTS
 62
     0
440
 16777216
100
AcDbPoint
 10
311.000000614258
 20
-120.0
 30
0.0
  0
ENDBLK
  5
6764
330
6759
100
AcDbEntity
  8
0
100
AcDbBlockEnd
  0
BLOCK
  5
676F
330
6765
100
AcDbEntity
  8
0
100
AcDbBlockBegin
  2
*D10
 70
     1
 10
0.0
 20
0.0
 30
0.0
  3
*D10
  1

  0
LINE
  5
730E
330
6765
100
AcDbEntity
  8
30
 62
     0
440
 16777216
100
AcDbLine
 10
195.0000000000071
 20
-52.0
 30
0.0
 11
195.0000000000071
 21
-110.4999999999999
 31
0.0
  0
LINE
  5
730F
330
6765
100
AcDbEntity
  8
30
 62
     0
440
 16777216
100
AcDbLine
 10
311.000000614258
 20
-54.9999859042091
 30
0.0
 11
311.000000614258
 21
-110.4999999999999
 31
0.0
  0
LINE
  5
7310
330
6765
100
AcDbEntity
  8
30
 62
     0
440
 16777216
100
AcDbLine
 10
197.000000000007
 20
-110.0
 30
0.0
 11
309.0000006142581
 21
-110.0
 31
0.0
  0
INSERT
  5
7311
330
6765
100
AcDbEntity
  8
30
 62
     0
440
 16777216
100
AcDbBlockReference
  2
_OPEN
 10
195.0000000000071
 20
-110.0
 30
0.0
 41
2.0
 42
2.0
 43
2.0
 50
180.0
  0
INSERT
  5
7312
330
6765
100
AcDbEntity
  8
30
 62
     0
440
 16777216
100
AcDbBlockReference
  2
_OPEN
 10
311.000000614258
 20
-110.0
 30
0.0
 41
2.0
 42
2.0
 43
2.0
  0
MTEXT
  5
7313
330
6765
100
AcDbEntity
  8
30
 62
     0
440
 16777216
100
AcDbMText
 10
253.0000003071326
 20
-107.0
 30
0.0
 40
4.0
 41
0.0
 46
0.0
 71
     5
 72
     1
  1
\A1;116
 73
     1
 44
1.0
1001
ACAD
1000
MTEXTBEGIN
1070
    73
1070
     1
1070
    44
1040
1.0
1070
    74
1070
     0
1000
MTEXTEND
  0
POINT
  5
7314
330
6765
100
AcDbEntity
  8
DEFPOINTS
 62
     0
440
 16777216
100
AcDbPoint
 10
195.0000000000071
 20
-51.0
 30
0.0
  0
POINT
  5
7315
330
6765
100
AcDbEntity
  8
DEFPOINTS
 62
     0
440
 16777216
100
AcDbPoint
 10
311.000000614258
 20
-53.9999859042091
 30
0.0
  0
POINT
  5
7316
330
6765
100
AcDbEntity
  8
DEFPOINTS
 62
     0
440
 16777216
100
AcDbPoint
 10
311.000000614258
 20
-110.0
 30
0.0
  0
ENDBLK
  5
6770
330
6765
100
AcDbEntity
  8
0
100
AcDbBlockEnd
  0
BLOCK
  5
677C
330
6771
100
AcDbEntity
  8
0
100
AcDbBlockBegin
  2
*D11
 70
     1
 10
0.0
 20
0.0
 30
0.0
  3
*D11
  1

  0
LINE
  5
7304
330
6771
100
AcDbEntity
  8
30
 62
     0
440
 16777216
100
AcDbLine
 10
187.0000000000071
 20
-26.0
 30
0.0
 11
187.0000000000071
 21
-120.5
 31
0.0
  0
LINE
  5
7305
330
6771
100
AcDbEntity
  8
30
 62
     0
440
 16777216
100
AcDbLine
 10
191.0000000000071
 20
-26.0
 30
0.0
 11
191.0000000000071
 21
-120.5
 31
0.0
  0
LINE
  5
7306
330
6771
100
AcDbEntity
  8
30
 62
     0
440
 16777216
100
AcDbLine
 10
185.0000000000071
 20
-120.0
 30
0.0
 11
183.0000000000071
 21
-120.0
 31
0.0
  0
LINE
  5
7307
330
6771
100
AcDbEntity
  8
30
 62
     0
440
 16777216
100
AcDbLine
 10
193.000000000007
 20
-120.0
 30
0.0
 11
199.6666666666738
 21
-120.0
 31
0.0
  0
INSERT
  5
7308
330
6771
100
AcDbEntity
  8
30
 62
     0
440
 16777216
100
AcDbBlockReference
  2
_OPEN
 10
187.0000000000071
 20
-120.0
 30
0.0
 41
2.0
 42
2.0
 43
2.0
  0
INSERT
  5
7309
330
6771
100
AcDbEntity
  8
30
 62
     0
440
 16777216
100
AcDbBlockReference
  2
_OPEN
 10
191.0000000000071
 20
-120.0
 30
0.0
 41
2.0
 42
2.0
 43
2.0
 50
180.0
  0
MTEXT
  5
730A
330
6771
100
AcDbEntity
  8
30
 62
     0
440
 16777216
100
AcDbMText
 10
197.3333333333406
 20
-117.0
 30
0.0
 40
4.0
 41
0.0
 46
0.0
 71
     5
 72
     1
  1
\A1;4
 73
     1
 44
1.0
1001
ACAD
1000
MTEXTBEGIN
1070
    73
1070
     1
1070
    44
1040
1.0
1070
    74
1070
     0
1000
MTEXTEND
  0
POINT
  5
730B
330
6771
100
AcDbEntity
  8
DEFPOINTS
 62
     0
440
 16777216
100
AcDbPoint
 10
187.0000000000071
 20
-25.0
 30
0.0
  0
POINT
  5
730C
330
6771
100
AcDbEntity
  8
DEFPOINTS
 62
     0
440
 16777216
100
AcDbPoint
 10
191.0000000000071
 20
-25.0
 30
0.0
  0
POINT
  5
730D
330
6771
100
AcDbEntity
  8
DEFPOINTS
 62
     0
440
 16777216
100
AcDbPoint
 10
191.0000000000071
 20
-120.0
 30
0.0
  0
ENDBLK
  5
677D
330
6771
100
AcDbEntity
  8
0
100
AcDbBlockEnd
  0
BLOCK
  5
6794
330
678A
100
AcDbEntity
  8
0
100
AcDbBlockBegin
  2
*D12
 70
     1
 10
0.0
 20
0.0
 30
0.0
  3
*D12
  1

  0
LINE
  5
7369
330
678A
100
AcDbEntity
  8
30
 62
     0
440
 16777216
100
AcDbLine
 10
194.000000000007
 20
51.0
 30
0.0
 11
139.0867219386125
 21
51.00000000000001
 31
0.0
  0
LINE
  5
736A
330
678A
100
AcDbEntity
  8
30
 62
     0
440
 16777216
100
AcDbLine
 10
194.000000000007
 20
-51.0
 30
0.0
 11
139.0867219386125
 21
-50.99999999999997
 31
0.0
  0
LINE
  5
736B
330
678A
100
AcDbEntity
  8
30
 62
     0
440
 16777216
100
AcDbLine
 10
139.5867219386127
 20
49.00000000000002
 30
0.0
 11
139.5867219386127
 21
-48.99999999999998
 31
0.0
  0
INSERT
  5
736C
330
678A
100
AcDbEntity
  8
30
 62
     0
440
 16777216
100
AcDbBlockReference
  2
_OPEN
 10
139.5867219386127
 20
51.00000000000001
 30
0.0
 41
2.0
 42
2.0
 43
2.0
 50
90.0
  0
INSERT
  5
736D
330
678A
100
AcDbEntity
  8
30
 62
     0
440
 16777216
100
AcDbBlockReference
  2
_OPEN
 10
139.5867219386127
 20
-50.99999999999997
 30
0.0
 41
2.0
 42
2.0
 43
2.0
 50
270.0
  0
MTEXT
  5
736E
330
678A
100
AcDbEntity
  8
30
 62
     0
440
 16777216
100
AcDbMText
 10
136.5867219386124
 20
0.0000000000000345
 30
0.0
 40
4.0
 41
0.0
 46
0.0
 71
     5
 72
     1
  1
\A1;102
 11
0.0000000000000001
 21
1.0
 31
0.0
 73
     1
 44
1.0
1001
ACAD
1000
MTEXTBEGIN
1070
    73
1070
     1
1070
    44
1040
1.0
1070
    74
1070
     0
1000
MTEXTEND
  0
POINT
  5
736F
330
678A
100
AcDbEntity
  8
DEFPOINTS
 62
     0
440
 16777216
100
AcDbPoint
 10
195.0000000000071
 20
51.0
 30
0.0
  0
POINT
  5
7370
330
678A
100
AcDbEntity
  8
DEFPOINTS
 62
     0
440
 16777216
100
AcDbPoint
 10
195.0000000000071
 20
-51.0
 30
0.0
  0
POINT
  5
7371
330
678A
100
AcDbEntity
  8
DEFPOINTS
 62
     0
440
 16777216
100
AcDbPoint
 10
139.5867219386127
 20
-50.99999999999997
 30
0.0
  0
ENDBLK
  5
6795
330
678A
100
AcDbEntity
  8
0
100
AcDbBlockEnd
  0
BLOCK
  5
67A0
330
6796
100
AcDbEntity
  8
0
100
AcDbBlockBegin
  2
*D13
 70
     1
 10
0.0
 20
0.0
 30
0.0
  3
*D13
  1

  0
LINE
  5
7360
330
6796
100
AcDbEntity
  8
30
 62
     0
440
 16777216
100
AcDbLine
 10
186.0000000000071
 20
-25.0
 30
0.0
 11
151.5867219386127
 21
-24.99999999999998
 31
0.0
  0
LINE
  5
7361
330
6796
100
AcDbEntity
  8
30
 62
     0
440
 16777216
100
AcDbLine
 10
186.0000000000071
 20
25.0
 30
0.0
 11
151.5867219386127
 21
25.00000000000001
 31
0.0
  0
LINE
  5
7362
330
6796
100
AcDbEntity
  8
30
 62
     0
440
 16777216
100
AcDbLine
 10
152.0867219386127
 20
-22.99999999999998
 30
0.0
 11
152.0867219386127
 21
23.00000000000001
 31
0.0
  0
INSERT
  5
7363
330
6796
100
AcDbEntity
  8
30
 62
     0
440
 16777216
100
AcDbBlockReference
  2
_OPEN
 10
152.0867219386127
 20
-24.99999999999999
 30
0.0
 41
2.0
 42
2.0
 43
2.0
 50
270.0
  0
INSERT
  5
7364
330
6796
100
AcDbEntity
  8
30
 62
     0
440
 16777216
100
AcDbBlockReference
  2
_OPEN
 10
152.0867219386127
 20
25.00000000000001
 30
0.0
 41
2.0
 42
2.0
 43
2.0
 50
90.0
  0
MTEXT
  5
7365
330
6796
100
AcDbEntity
  8
30
 62
     0
440
 16777216
100
AcDbMText
 10
149.0867219386124
 20
0.0000000000000372
 30
0.0
 40
4.0
 41
0.0
 46
0.0
 71
     5
 72
     1
  1
\A1;50
 11
0.0000000000000001
 21
1.0
 31
0.0
 73
     1
 44
1.0
1001
ACAD
1000
MTEXTBEGIN
1070
    73
1070
     1
1070
    44
1040
1.0
1070
    74
1070
     0
1000
MTEXTEND
  0
POINT
  5
7366
330
6796
100
AcDbEntity
  8
DEFPOINTS
 62
     0
440
 16777216
100
AcDbPoint
 10
187.0000000000071
 20
-25.0
 30
0.0
  0
POINT
  5
7367
330
6796
100
AcDbEntity
  8
DEFPOINTS
 62
     0
440
 16777216
100
AcDbPoint
 10
187.0000000000071
 20
25.0
 30
0.0
  0
POINT
  5
7368
330
6796
100
AcDbEntity
  8
DEFPOINTS
 62
     0
440
 16777216
100
AcDbPoint
 10
152.0867219386127
 20
25.00000000000001
 30
0.0
  0
ENDBLK
  5
67A1
330
6796
100
AcDbEntity
  8
0
100
AcDbBlockEnd
  0
BLOCK
  5
67AC
330
67A2
100
AcDbEntity
  8
0
100
AcDbBlockBegin
  2
*D14
 70
     1
 10
0.0
 20
0.0
 30
0.0
  3
*D14
  1

  0
LINE
  5
7384
330
67A2
100
AcDbEntity
  8
30
 62
     0
440
 16777216
100
AcDbLine
 10
338.5000057475845
 20
-79.99998522762599
 30
0.0
 11
358.8367219386126
 21
-79.999985227626
 31
0.0
  0
LINE
  5
7385
330
67A2
100
AcDbEntity
  8
30
 62
     0
440
 16777216
100
AcDbLine
 10
338.5000057475845
 20
80.0000208571164
 30
0.0
 11
358.8367219386126
 21
80.00002085711637
 31
0.0
  0
LINE
  5
7386
330
67A2
100
AcDbEntity
  8
30
 62
     0
440
 16777216
100
AcDbLine
 10
358.3367219386127
 20
-77.99998522762598
 30
0.0
 11
358.3367219386127
 21
78.00002085711637
 31
0.0
  0
INSERT
  5
7387
330
67A2
100
AcDbEntity
  8
30
 62
     0
440
 16777216
100
AcDbBlockReference
  2
_OPEN
 10
358.3367219386127
 20
-79.999985227626
 30
0.0
 41
2.0
 42
2.0
 43
2.0
 50
270.0
  0
INSERT
  5
7388
330
67A2
100
AcDbEntity
  8
30
 62
     0
440
 16777216
100
AcDbBlockReference
  2
_OPEN
 10
358.3367219386127
 20
80.00002085711637
 30
0.0
 41
2.0
 42
2.0
 43
2.0
 50
90.0
  0
MTEXT
  5
7389
330
67A2
100
AcDbEntity
  8
30
 62
     0
440
 16777216
100
AcDbMText
 10
355.3367219386127
 20
0.0000178147452556
 30
0.0
 40
4.0
 41
0.0
 46
0.0
 71
     5
 72
     1
  1
\A1;160
 11
0.0000000000000001
 21
1.0
 31
0.0
 73
     1
 44
1.0
1001
ACAD
1000
MTEXTBEGIN
1070
    73
1070
     1
1070
    44
1040
1.0
1070
    74
1070
     0
1000
MTEXTEND
  0
POINT
  5
738A
330
67A2
100
AcDbEntity
  8
DEFPOINTS
 62
     0
440
 16777216
100
AcDbPoint
 10
337.5000057475844
 20
-79.99998522762599
 30
0.0
  0
POINT
  5
738B
330
67A2
100
AcDbEntity
  8
DEFPOINTS
 62
     0
440
 16777216
100
AcDbPoint
 10
337.5000057475844
 20
80.0000208571164
 30
0.0
  0
POINT
  5
738C
330
67A2
100
AcDbEntity
  8
DEFPOINTS
 62
     0
440
 16777216
100
AcDbPoint
 10
358.3367219386127
 20
80.00002085711637
 30
0.0
  0
ENDBLK
  5
67AD
330
67A2
100
AcDbEntity
  8
0
100
AcDbBlockEnd
  0
BLOCK
  5
67B8
330
67AE
100
AcDbEntity
  8
0
100
AcDbBlockBegin
  2
*D15
 70
     1
 10
0.0
 20
0.0
 30
0.0
  3
*D15
  1

  0
LINE
  5
737B
330
67AE
100
AcDbEntity
  8
30
 62
     0
440
 16777216
100
AcDbLine
 10
338.5000057475845
 20
-53.9999859042091
 30
0.0
 11
346.3367219386126
 21
-53.9999859042091
 31
0.0
  0
LINE
  5
737C
330
67AE
100
AcDbEntity
  8
30
 62
     0
440
 16777216
100
AcDbLine
 10
338.5000057475845
 20
54.00000942203586
 30
0.0
 11
346.3367219386126
 21
54.00000942203586
 31
0.0
  0
LINE
  5
737D
330
67AE
100
AcDbEntity
  8
30
 62
     0
440
 16777216
100
AcDbLine
 10
345.8367219386127
 20
-51.9999859042091
 30
0.0
 11
345.8367219386127
 21
52.00000942203587
 31
0.0
  0
INSERT
  5
737E
330
67AE
100
AcDbEntity
  8
30
 62
     0
440
 16777216
100
AcDbBlockReference
  2
_OPEN
 10
345.8367219386127
 20
-53.9999859042091
 30
0.0
 41
2.0
 42
2.0
 43
2.0
 50
270.0
  0
INSERT
  5
737F
330
67AE
100
AcDbEntity
  8
30
 62
     0
440
 16777216
100
AcDbBlockReference
  2
_OPEN
 10
345.8367219386127
 20
54.00000942203586
 30
0.0
 41
2.0
 42
2.0
 43
2.0
 50
90.0
  0
MTEXT
  5
7380
330
67AE
100
AcDbEntity
  8
30
 62
     0
440
 16777216
100
AcDbMText
 10
342.8367219386127
 20
0.0000117589134452
 30
0.0
 40
4.0
 41
0.0
 46
0.0
 71
     5
 72
     1
  1
\A1;108
 11
0.0000000000000001
 21
1.0
 31
0.0
 73
     1
 44
1.0
1001
ACAD
1000
MTEXTBEGIN
1070
    73
1070
     1
1070
    44
1040
1.0
1070
    74
1070
     0
1000
MTEXTEND
  0
POINT
  5
7381
330
67AE
100
AcDbEntity
  8
DEFPOINTS
 62
     0
440
 16777216
100
AcDbPoint
 10
337.5000057475844
 20
-53.9999859042091
 30
0.0
  0
POINT
  5
7382
330
67AE
100
AcDbEntity
  8
DEFPOINTS
 62
     0
440
 16777216
100
AcDbPoint
 10
337.5000057475844
 20
54.00000942203586
 30
0.0
  0
POINT
  5
7383
330
67AE
100
AcDbEntity
  8
DEFPOINTS
 62
     0
440
 16777216
100
AcDbPoint
 10
345.8367219386127
 20
54.00000942203586
 30
0.0
  0
ENDBLK
  5
67B9
330
67AE
100
AcDbEntity
  8
0
100
AcDbBlockEnd
  0
BLOCK
  5
686F
330
6868
100
AcDbEntity
  8
TOP
  6
Continuous
 62
     4
100
AcDbBlockBegin
  2
*U16
 70
     1
 10
0.0
 20
0.0
 30
0.0
  3
*U16
  1

  0
LINE
  5
6869
330
6868
100
AcDbEntity
  8
1
  6
ByBlock
 62
     0
100
AcDbLine
 10
500.6153110047846
 20
106.710196631228
 30
0.0
 11
500.6153110047846
 21
78.51042938024732
 31
0.0
  0
LINE
  5
686A
330
6868
100
AcDbEntity
  8
1
  6
ByBlock
 62
     0
100
AcDbLine
 10
509.6153110047847
 20
87.710196637828
 30
0.0
 11
509.6153110047847
 21
78.51042938024732
 31
0.0
  0
LINE
  5
686B
330
6868
100
AcDbEntity
  8
1
  6
ByBlock
 62
     0
100
AcDbLine
 10
500.6153110047846
 20
79.51042938024731
 30
0.0
 11
509.6153110047847
 21
79.51042938024731
 31
0.0
  0
SOLID
  5
686C
330
6868
100
AcDbEntity
  8
1
  6
ByBlock
 62
     0
100
AcDbTrace
 10
500.6153110047846
 20
79.51042938024731
 30
0.0
 11
502.6153110179848
 21
79.84376271578065
 31
0.0
 12
502.6153110179848
 22
79.17709604471395
 32
0.0
 13
502.6153110179848
 23
79.17709604471395
 33
0.0
  0
SOLID
  5
686D
330
6868
100
AcDbEntity
  8
1
  6
ByBlock
 62
     0
100
AcDbTrace
 10
509.6153110047847
 20
79.51042938024731
 30
0.0
 11
507.6153109915846
 21
79.17709604471395
 31
0.0
 12
507.6153109915846
 22
79.84376271578065
 32
0.0
 13
507.6153109915846
 23
79.84376271578065
 33
0.0
  0
TEXT
  5
686E
330
6868
100
AcDbEntity
  8
TOP
  6
ByBlock
 62
     0
100
AcDbText
 10
501.2767693322834
 20
80.76042938214733
 30
0.0
 40
2.500000003799998
  1
22.5
 41
0.8374999999999969
  7
UGMTXT
100
AcDbText
  0
ENDBLK
  5
6870
330
6868
100
AcDbEntity
  8
0
100
AcDbBlockEnd
  0
BLOCK
  5
6A3B
330
6A31
100
AcDbEntity
  8
0
100
AcDbBlockBegin
  2
*D17
 70
     1
 10
0.0
 20
0.0
 30
0.0
  3
*D17
  1

  0
LINE
  5
72D7
330
6A31
100
AcDbEntity
  8
30
 62
     0
100
AcDbLine
 10
47.5
 20
-286.0
 30
0.0
 11
47.49999999999999
 21
-368.4994181439515
 31
0.0
  0
LINE
  5
72D8
330
6A31
100
AcDbEntity
  8
30
 62
     0
100
AcDbLine
 10
62.5
 20
-286.0
 30
0.0
 11
62.5
 21
-368.4994181439515
 31
0.0
  0
LINE
  5
72D9
330
6A31
100
AcDbEntity
  8
30
 62
     0
100
AcDbLine
 10
49.49999999999999
 20
-367.9994181439515
 30
0.0
 11
60.49999999999999
 21
-367.9994181439515
 31
0.0
  0
INSERT
  5
72DA
330
6A31
100
AcDbEntity
  8
30
 62
     0
100
AcDbBlockReference
  2
_OPEN
 10
47.49999999999999
 20
-367.9994181439515
 30
0.0
 41
2.0
 42
2.0
 43
2.0
 50
180.0
  0
INSERT
  5
72DB
330
6A31
100
AcDbEntity
  8
30
 62
     0
100
AcDbBlockReference
  2
_OPEN
 10
62.5
 20
-367.9994181439515
 30
0.0
 41
2.0
 42
2.0
 43
2.0
  0
MTEXT
  5
72DC
330
6A31
100
AcDbEntity
  8
30
 62
     0
100
AcDbMText
 10
55.0
 20
-364.9994181439515
 30
0.0
 40
4.0
 41
0.0
 46
0.0
 71
     5
 72
     1
  1
\A1;15
 73
     1
 44
1.0
1001
ACAD
1000
MTEXTBEGIN
1070
    73
1070
     1
1070
    44
1040
1.0
1070
    74
1070
     0
1000
MTEXTEND
  0
POINT
  5
72DD
330
6A31
100
AcDbEntity
  8
DEFPOINTS
 62
     0
100
AcDbPoint
 10
47.5
 20
-285.0
 30
0.0
  0
POINT
  5
72DE
330
6A31
100
AcDbEntity
  8
DEFPOINTS
 62
     0
100
AcDbPoint
 10
62.5
 20
-285.0
 30
0.0
  0
POINT
  5
72DF
330
6A31
100
AcDbEntity
  8
DEFPOINTS
 62
     0
100
AcDbPoint
 10
62.5
 20
-367.9994181439515
 30
0.0
  0
ENDBLK
  5
6A3C
330
6A31
100
AcDbEntity
  8
0
100
AcDbBlockEnd
  0
BLOCK
  5
6A47
330
6A3D
100
AcDbEntity
  8
0
100
AcDbBlockBegin
  2
*D18
 70
     1
 10
0.0
 20
0.0
 30
0.0
  3
*D18
  1

  0
LINE
  5
72BC
330
6A3D
100
AcDbEntity
  8
30
 62
     0
440
 16777216
100
AcDbLine
 10
-22.5
 20
-301.0000000164997
 30
0.0
 11
-22.5
 21
-387.2494181439515
 31
0.0
  0
LINE
  5
72BD
330
6A3D
100
AcDbEntity
  8
30
 62
     0
440
 16777216
100
AcDbLine
 10
47.5
 20
-301.0000000164997
 30
0.0
 11
47.49999999999999
 21
-387.2494181439515
 31
0.0
  0
LINE
  5
72BE
330
6A3D
100
AcDbEntity
  8
30
 62
     0
440
 16777216
100
AcDbLine
 10
-20.5
 20
-386.7494181439515
 30
0.0
 11
45.49999999999999
 21
-386.7494181439515
 31
0.0
  0
INSERT
  5
72BF
330
6A3D
100
AcDbEntity
  8
30
 62
     0
440
 16777216
100
AcDbBlockReference
  2
_OPEN
 10
-22.5
 20
-386.7494181439515
 30
0.0
 41
2.0
 42
2.0
 43
2.0
 50
180.0
  0
INSERT
  5
72C0
330
6A3D
100
AcDbEntity
  8
30
 62
     0
440
 16777216
100
AcDbBlockReference
  2
_OPEN
 10
47.49999999999999
 20
-386.7494181439515
 30
0.0
 41
2.0
 42
2.0
 43
2.0
  0
MTEXT
  5
72C1
330
6A3D
100
AcDbEntity
  8
30
 62
     0
440
 16777216
100
AcDbMText
 10
12.49999999999999
 20
-383.7494181439515
 30
0.0
 40
4.0
 41
0.0
 46
0.0
 71
     5
 72
     1
  1
\A1;70
 73
     1
 44
1.0
1001
ACAD
1000
MTEXTBEGIN
1070
    73
1070
     1
1070
    44
1040
1.0
1070
    74
1070
     0
1000
MTEXTEND
  0
POINT
  5
72C2
330
6A3D
100
AcDbEntity
  8
DEFPOINTS
 62
     0
440
 16777216
100
AcDbPoint
 10
-22.5
 20
-300.0000000164996
 30
0.0
  0
POINT
  5
72C3
330
6A3D
100
AcDbEntity
  8
DEFPOINTS
 62
     0
440
 16777216
100
AcDbPoint
 10
47.5
 20
-300.0000000164996
 30
0.0
  0
POINT
  5
72C4
330
6A3D
100
AcDbEntity
  8
DEFPOINTS
 62
     0
440
 16777216
100
AcDbPoint
 10
47.49999999999999
 20
-386.7494181439515
 30
0.0
  0
ENDBLK
  5
6A48
330
6A3D
100
AcDbEntity
  8
0
100
AcDbBlockEnd
  0
BLOCK
  5
6A53
330
6A49
100
AcDbEntity
  8
0
100
AcDbBlockBegin
  2
*D19
 70
     1
 10
0.0
 20
0.0
 30
0.0
  3
*D19
  1

  0
LINE
  5
72CE
330
6A49
100
AcDbEntity
  8
30
 62
     0
100
AcDbLine
 10
63.5
 20
-285.0
 30
0.0
 11
73.99898166797356
 21
-285.0
 31
0.0
  0
LINE
  5
72CF
330
6A49
100
AcDbEntity
  8
30
 62
     0
100
AcDbLine
 10
63.5
 20
-235.0
 30
0.0
 11
73.99898166797356
 21
-235.0
 31
0.0
  0
LINE
  5
72D0
330
6A49
100
AcDbEntity
  8
30
 62
     0
100
AcDbLine
 10
73.49898166797356
 20
-283.0
 30
0.0
 11
73.49898166797356
 21
-237.0
 31
0.0
  0
INSERT
  5
72D1
330
6A49
100
AcDbEntity
  8
30
 62
     0
100
AcDbBlockReference
  2
_OPEN
 10
73.49898166797356
 20
-285.0
 30
0.0
 41
2.0
 42
2.0
 43
2.0
 50
270.0
  0
INSERT
  5
72D2
330
6A49
100
AcDbEntity
  8
30
 62
     0
100
AcDbBlockReference
  2
_OPEN
 10
73.49898166797356
 20
-235.0
 30
0.0
 41
2.0
 42
2.0
 43
2.0
 50
90.0
  0
MTEXT
  5
72D3
330
6A49
100
AcDbEntity
  8
30
 62
     0
100
AcDbMText
 10
70.49898166797361
 20
-260.0
 30
0.0
 40
4.0
 41
0.0
 46
0.0
 71
     5
 72
     1
  1
\A1;50
 11
0.0000000000000001
 21
1.0
 31
0.0
 73
     1
 44
1.0
1001
ACAD
1000
MTEXTBEGIN
1070
    73
1070
     1
1070
    44
1040
1.0
1070
    74
1070
     0
1000
MTEXTEND
  0
POINT
  5
72D4
330
6A49
100
AcDbEntity
  8
DEFPOINTS
 62
     0
100
AcDbPoint
 10
62.5
 20
-285.0
 30
0.0
  0
POINT
  5
72D5
330
6A49
100
AcDbEntity
  8
DEFPOINTS
 62
     0
100
AcDbPoint
 10
62.5
 20
-235.0
 30
0.0
  0
POINT
  5
72D6
330
6A49
100
AcDbEntity
  8
DEFPOINTS
 62
     0
100
AcDbPoint
 10
73.49898166797356
 20
-235.0
 30
0.0
  0
ENDBLK
  5
6A54
330
6A49
100
AcDbEntity
  8
0
100
AcDbBlockEnd
  0
BLOCK
  5
6A5F
330
6A55
100
AcDbEntity
  8
0
100
AcDbBlockBegin
  2
*D20
 70
     1
 10
0.0
 20
0.0
 30
0.0
  3
*D20
  1

  0
LINE
  5
72C5
330
6A55
100
AcDbEntity
  8
30
 62
     0
440
 16777216
100
AcDbLine
 10
51.00000001650187
 20
-297.5
 30
0.0
 11
104.5867224927933
 21
-297.5
 31
0.0
  0
LINE
  5
72C6
330
6A55
100
AcDbEntity
  8
30
 62
     0
440
 16777216
100
AcDbLine
 10
51.00000001650187
 20
-222.5
 30
0.0
 11
104.5867224927933
 21
-222.5
 31
0.0
  0
LINE
  5
72C7
330
6A55
100
AcDbEntity
  8
30
 62
     0
440
 16777216
100
AcDbLine
 10
104.0867224927932
 20
-295.5
 30
0.0
 11
104.0867224927932
 21
-224.5
 31
0.0
  0
INSERT
  5
72C8
330
6A55
100
AcDbEntity
  8
30
 62
     0
440
 16777216
100
AcDbBlockReference
  2
_OPEN
 10
104.0867224927932
 20
-297.5
 30
0.0
 41
2.0
 42
2.0
 43
2.0
 50
270.0
  0
INSERT
  5
72C9
330
6A55
100
AcDbEntity
  8
30
 62
     0
440
 16777216
100
AcDbBlockReference
  2
_OPEN
 10
104.0867224927932
 20
-222.5
 30
0.0
 41
2.0
 42
2.0
 43
2.0
 50
90.0
  0
MTEXT
  5
72CA
330
6A55
100
AcDbEntity
  8
30
 62
     0
440
 16777216
100
AcDbMText
 10
101.0867224927932
 20
-260.0
 30
0.0
 40
4.0
 41
0.0
 46
0.0
 71
     5
 72
     1
  1
\A1;75
 11
0.0000000000000001
 21
1.0
 31
0.0
 73
     1
 44
1.0
1001
ACAD
1000
MTEXTBEGIN
1070
    73
1070
     1
1070
    44
1040
1.0
1070
    74
1070
     0
1000
MTEXTEND
  0
POINT
  5
72CB
330
6A55
100
AcDbEntity
  8
DEFPOINTS
 62
     0
440
 16777216
100
AcDbPoint
 10
50.00000001650185
 20
-297.5
 30
0.0
  0
POINT
  5
72CC
330
6A55
100
AcDbEntity
  8
DEFPOINTS
 62
     0
440
 16777216
100
AcDbPoint
 10
50.00000001650185
 20
-222.5
 30
0.0
  0
POINT
  5
72CD
330
6A55
100
AcDbEntity
  8
DEFPOINTS
 62
     0
440
 16777216
100
AcDbPoint
 10
104.0867224927932
 20
-222.5
 30
0.0
  0
ENDBLK
  5
6A60
330
6A55
100
AcDbEntity
  8
0
100
AcDbBlockEnd
  0
BLOCK
  5
6A6B
330
6A61
100
AcDbEntity
  8
0
100
AcDbBlockBegin
  2
*D21
 70
     1
 10
0.0
 20
0.0
 30
0.0
  3
*D21
  1

  0
LINE
  5
72E0
330
6A61
100
AcDbEntity
  8
30
 62
     0
440
 16777216
100
AcDbLine
 10
51.00000001650187
 20
-297.5
 30
0.0
 11
92.08672249279331
 21
-297.5
 31
0.0
  0
LINE
  5
72E1
330
6A61
100
AcDbEntity
  8
30
 62
     0
440
 16777216
100
AcDbLine
 10
81.0
 20
-260.0
 30
0.0
 11
92.08672249279336
 21
-260.0
 31
0.0
  0
LINE
  5
72E2
330
6A61
100
AcDbEntity
  8
30
 62
     0
440
 16777216
100
AcDbLine
 10
91.58672249279332
 20
-295.5
 30
0.0
 11
91.58672249279335
 21
-262.0
 31
0.0
  0
INSERT
  5
72E3
330
6A61
100
AcDbEntity
  8
30
 62
     0
440
 16777216
100
AcDbBlockReference
  2
_OPEN
 10
91.58672249279332
 20
-297.5
 30
0.0
 41
2.0
 42
2.0
 43
2.0
 50
270.0
  0
INSERT
  5
72E4
330
6A61
100
AcDbEntity
  8
30
 62
     0
440
 16777216
100
AcDbBlockReference
  2
_OPEN
 10
91.58672249279335
 20
-260.0
 30
0.0
 41
2.0
 42
2.0
 43
2.0
 50
90.0
  0
MTEXT
  5
72E5
330
6A61
100
AcDbEntity
  8
30
 62
     0
440
 16777216
100
AcDbMText
 10
88.58672249279337
 20
-278.75
 30
0.0
 40
4.0
 41
0.0
 46
0.0
 71
     5
 72
     1
  1
\A1;37.5
 11
0.0000000000000001
 21
1.0
 31
0.0
 73
     1
 44
1.0
1001
ACAD
1000
MTEXTBEGIN
1070
    73
1070
     1
1070
    44
1040
1.0
1070
    74
1070
     0
1000
MTEXTEND
  0
POINT
  5
72E6
330
6A61
100
AcDbEntity
  8
DEFPOINTS
 62
     0
440
 16777216
100
AcDbPoint
 10
50.00000001650185
 20
-297.5
 30
0.0
  0
POINT
  5
72E7
330
6A61
100
AcDbEntity
  8
DEFPOINTS
 62
     0
440
 16777216
100
AcDbPoint
 10
80.0
 20
-260.0
 30
0.0
  0
POINT
  5
72E8
330
6A61
100
AcDbEntity
  8
DEFPOINTS
 62
     0
440
 16777216
100
AcDbPoint
 10
91.58672249279335
 20
-260.0
 30
0.0
  0
ENDBLK
  5
6A6C
330
6A61
100
AcDbEntity
  8
0
100
AcDbBlockEnd
  0
BLOCK
  5
6E83
330
6E79
100
AcDbEntity
  8
0
100
AcDbBlockBegin
  2
*D22
 70
     1
 10
0.0
 20
0.0
 30
0.0
  3
*D22
  1

  0
LINE
  5
734E
330
6E79
100
AcDbEntity
  8
30
 62
     0
440
 16777216
100
AcDbLine
 10
295.1041177097286
 20
-295.8593533752837
 30
0.0
 11
295.1041177097286
 21
-311.5
 31
0.0
  0
LINE
  5
734F
330
6E79
100
AcDbEntity
  8
30
 62
     0
440
 16777216
100
AcDbLine
 10
310.1041177097286
 20
-295.8593533752837
 30
0.0
 11
310.1041177097286
 21
-311.5
 31
0.0
  0
LINE
  5
7350
330
6E79
100
AcDbEntity
  8
30
 62
     0
440
 16777216
100
AcDbLine
 10
297.1041177097286
 20
-311.0
 30
0.0
 11
308.1041177097286
 21
-311.0
 31
0.0
  0
INSERT
  5
7351
330
6E79
100
AcDbEntity
  8
30
 62
     0
440
 16777216
100
AcDbBlockReference
  2
_OPEN
 10
295.1041177097286
 20
-311.0
 30
0.0
 41
2.0
 42
2.0
 43
2.0
 50
180.0
  0
INSERT
  5
7352
330
6E79
100
AcDbEntity
  8
30
 62
     0
440
 16777216
100
AcDbBlockReference
  2
_OPEN
 10
310.1041177097286
 20
-311.0
 30
0.0
 41
2.0
 42
2.0
 43
2.0
  0
MTEXT
  5
7353
330
6E79
100
AcDbEntity
  8
30
 62
     0
440
 16777216
100
AcDbMText
 10
302.6041177097285
 20
-308.0
 30
0.0
 40
4.0
 41
0.0
 46
0.0
 71
     5
 72
     1
  1
\A1;15
 73
     1
 44
1.0
1001
ACAD
1000
MTEXTBEGIN
1070
    73
1070
     1
1070
    44
1040
1.0
1070
    74
1070
     0
1000
MTEXTEND
  0
POINT
  5
7354
330
6E79
100
AcDbEntity
  8
DEFPOINTS
 62
     0
440
 16777216
100
AcDbPoint
 10
295.1041177097286
 20
-294.8593533752837
 30
0.0
  0
POINT
  5
7355
330
6E79
100
AcDbEntity
  8
DEFPOINTS
 62
     0
440
 16777216
100
AcDbPoint
 10
310.1041177097286
 20
-294.8593533752837
 30
0.0
  0
POINT
  5
7356
330
6E79
100
AcDbEntity
  8
DEFPOINTS
 62
     0
440
 16777216
100
AcDbPoint
 10
310.1041177097286
 20
-311.0
 30
0.0
  0
ENDBLK
  5
6E84
330
6E79
100
AcDbEntity
  8
0
100
AcDbBlockEnd
  0
BLOCK
  5
7070
330
706B
100
AcDbEntity
  8
TOP
  6
Continuous
 62
     5
100
AcDbBlockBegin
  2
*U23
 70
     1
 10
0.0
 20
0.0
 30
0.0
  3
*U23
  1

  0
LINE
  5
706C
330
706B
100
AcDbEntity
  8
1
  6
ByBlock
 62
     0
100
AcDbLine
 10
254.3376338823787
 20
261.5236736210198
 30
0.0
 11
242.6970088823785
 21
261.5236736210198
 31
0.0
  0
LINE
  5
706D
330
706B
100
AcDbEntity
  8
1
  6
ByBlock
 62
     0
100
AcDbLine
 10
230.4050843973201
 20
276.8009320202328
 30
0.0
 11
242.6970088823785
 21
261.5236736210198
 31
0.0
  0
SOLID
  5
706E
330
706B
100
AcDbEntity
  8
1
  6
ByBlock
 62
     0
100
AcDbTrace
 10
230.4050843973201
 20
276.8009320202328
 30
0.0
 11
231.9185376475764
 21
275.4516468670254
 31
0.0
 12
231.399123368144
 22
275.0337314968454
 32
0.0
 13
231.399123368144
 23
275.0337314968454
 33
0.0
  0
TEXT
  5
706F
330
706B
100
AcDbEntity
  8
TOP
  6
ByBlock
 62
     0
100
AcDbText
 10
242.6970088823785
 20
261.7736736210198
 30
0.0
 40
2.5
  1
M6 nut
 41
0.8216911764705923
  7
UGMTXT
100
AcDbText
  0
ENDBLK
  5
7071
330
706B
100
AcDbEntity
  8
0
100
AcDbBlockEnd
  0
BLOCK
  5
71A3
330
7198
100
AcDbEntity
  8
0
100
AcDbBlockBegin
  2
*D24
 70
     1
 10
0.0
 20
0.0
 30
0.0
  3
*D24
  1

  0
LINE
  5
733B
330
7198
100
AcDbEntity
  8
30
 62
     0
440
 16777216
100
AcDbLine
 10
202.4999937198777
 20
-277.0000004485798
 30
0.0
 11
202.4999937198777
 21
-314.506570235929
 31
0.0
  0
LINE
  5
733C
330
7198
100
AcDbEntity
  8
30
 62
     0
440
 16777216
100
AcDbLine
 10
207.6999939449103
 20
-297.0000060479195
 30
0.0
 11
207.6999939449103
 21
-314.506570235929
 31
0.0
  0
LINE
  5
733D
330
7198
100
AcDbEntity
  8
30
 62
     0
440
 16777216
100
AcDbLine
 10
200.4999937198777
 20
-314.006570235929
 30
0.0
 11
198.4999937198778
 21
-314.006570235929
 31
0.0
  0
LINE
  5
733E
330
7198
100
AcDbEntity
  8
30
 62
     0
440
 16777216
100
AcDbLine
 10
209.6999939449103
 20
-314.006570235929
 30
0.0
 11
221.6999939449103
 21
-314.006570235929
 31
0.0
  0
INSERT
  5
733F
330
7198
100
AcDbEntity
  8
30
 62
     0
440
 16777216
100
AcDbBlockReference
  2
_OPEN
 10
202.4999937198777
 20
-314.006570235929
 30
0.0
 41
2.0
 42
2.0
 43
2.0
  0
INSERT
  5
7340
330
7198
100
AcDbEntity
  8
30
 62
     0
440
 16777216
100
AcDbBlockReference
  2
_OPEN
 10
207.6999939449103
 20
-314.006570235929
 30
0.0
 41
2.0
 42
2.0
 43
2.0
 50
180.0
  0
MTEXT
  5
7341
330
7198
100
AcDbEntity
  8
30
 62
     0
440
 16777216
100
AcDbMText
 10
216.6999939449103
 20
-311.006570235929
 30
0.0
 40
4.0
 41
0.0
 46
0.0
 71
     5
 72
     1
  1
\A1;5.2
 73
     1
 44
1.0
1001
ACAD
1000
MTEXTBEGIN
1070
    73
1070
     1
1070
    44
1040
1.0
1070
    74
1070
     0
1000
MTEXTEND
  0
POINT
  5
7342
330
7198
100
AcDbEntity
  8
DEFPOINTS
 62
     0
440
 16777216
100
AcDbPoint
 10
202.4999937198777
 20
-276.0000004485799
 30
0.0
  0
POINT
  5
7343
330
7198
100
AcDbEntity
  8
DEFPOINTS
 62
     0
440
 16777216
100
AcDbPoint
 10
207.6999939449103
 20
-296.0000060479194
 30
0.0
  0
POINT
  5
7344
330
7198
100
AcDbEntity
  8
DEFPOINTS
 62
     0
440
 16777216
100
AcDbPoint
 10
207.6999939449103
 20
-314.006570235929
 30
0.0
  0
ENDBLK
  5
71A4
330
7198
100
AcDbEntity
  8
0
100
AcDbBlockEnd
  0
BLOCK
  5
71AF
330
71A5
100
AcDbEntity
  8
0
100
AcDbBlockBegin
  2
*D25
 70
     1
 10
0.0
 20
0.0
 30
0.0
  3
*D25
  1

  0
LINE
  5
7345
330
71A5
100
AcDbEntity
  8
30
 62
     0
440
 16777216
100
AcDbLine
 10
202.4999937198777
 20
-277.0000004485798
 30
0.0
 11
202.4999937198777
 21
-347.8399050117794
 31
0.0
  0
LINE
  5
7346
330
71A5
100
AcDbEntity
  8
30
 62
     0
440
 16777216
100
AcDbLine
 10
229.4999937198777
 20
-276.5000067287022
 30
0.0
 11
229.4999937198777
 21
-347.8399050117794
 31
0.0
  0
LINE
  5
7347
330
71A5
100
AcDbEntity
  8
30
 62
     0
440
 16777216
100
AcDbLine
 10
204.4999937198777
 20
-347.3399050117794
 30
0.0
 11
227.4999937198777
 21
-347.3399050117794
 31
0.0
  0
INSERT
  5
7348
330
71A5
100
AcDbEntity
  8
30
 62
     0
440
 16777216
100
AcDbBlockReference
  2
_OPEN
 10
202.4999937198777
 20
-347.3399050117794
 30
0.0
 41
2.0
 42
2.0
 43
2.0
 50
180.0
  0
INSERT
  5
7349
330
71A5
100
AcDbEntity
  8
30
 62
     0
440
 16777216
100
AcDbBlockReference
  2
_OPEN
 10
229.4999937198777
 20
-347.3399050117794
 30
0.0
 41
2.0
 42
2.0
 43
2.0
  0
MTEXT
  5
734A
330
71A5
100
AcDbEntity
  8
30
 62
     0
440
 16777216
100
AcDbMText
 10
215.9999937198778
 20
-344.3399050117794
 30
0.0
 40
4.0
 41
0.0
 46
0.0
 71
     5
 72
     1
  1
\A1;27
 73
     1
 44
1.0
1001
ACAD
1000
MTEXTBEGIN
1070
    73
1070
     1
1070
    44
1040
1.0
1070
    74
1070
     0
1000
MTEXTEND
  0
POINT
  5
734B
330
71A5
100
AcDbEntity
  8
DEFPOINTS
 62
     0
440
 16777216
100
AcDbPoint
 10
202.4999937198777
 20
-276.0000004485799
 30
0.0
  0
POINT
  5
734C
330
71A5
100
AcDbEntity
  8
DEFPOINTS
 62
     0
440
 16777216
100
AcDbPoint
 10
229.4999937198777
 20
-275.5000067287022
 30
0.0
  0
POINT
  5
734D
330
71A5
100
AcDbEntity
  8
DEFPOINTS
 62
     0
440
 16777216
100
AcDbPoint
 10
229.4999937198777
 20
-347.3399050117794
 30
0.0
  0
ENDBLK
  5
71B0
330
71A5
100
AcDbEntity
  8
0
100
AcDbBlockEnd
  0
BLOCK
  5
71BB
330
71B1
100
AcDbEntity
  8
0
100
AcDbBlockBegin
  2
*D26
 70
     1
 10
0.0
 20
0.0
 30
0.0
  3
*D26
  1

  0
LINE
  5
7332
330
71B1
100
AcDbEntity
  8
30
 62
     0
440
 16777216
100
AcDbLine
 10
183.4999901312366
 20
-291.0000062801218
 30
0.0
 11
183.4999901312366
 21
-331.1732376238542
 31
0.0
  0
LINE
  5
7333
330
71B1
100
AcDbEntity
  8
30
 62
     0
440
 16777216
100
AcDbLine
 10
207.6999939449103
 20
-297.0000060479195
 30
0.0
 11
207.6999939449103
 21
-331.1732376238542
 31
0.0
  0
LINE
  5
7334
330
71B1
100
AcDbEntity
  8
30
 62
     0
440
 16777216
100
AcDbLine
 10
185.4999901312366
 20
-330.6732376238542
 30
0.0
 11
205.6999939449103
 21
-330.6732376238542
 31
0.0
  0
INSERT
  5
7335
330
71B1
100
AcDbEntity
  8
30
 62
     0
440
 16777216
100
AcDbBlockReference
  2
_OPEN
 10
183.4999901312366
 20
-330.6732376238542
 30
0.0
 41
2.0
 42
2.0
 43
2.0
 50
180.0
  0
INSERT
  5
7336
330
71B1
100
AcDbEntity
  8
30
 62
     0
440
 16777216
100
AcDbBlockReference
  2
_OPEN
 10
207.6999939449103
 20
-330.6732376238542
 30
0.0
 41
2.0
 42
2.0
 43
2.0
  0
MTEXT
  5
7337
330
71B1
100
AcDbEntity
  8
30
 62
     0
440
 16777216
100
AcDbMText
 10
195.5999920380734
 20
-327.6732376238542
 30
0.0
 40
4.0
 41
0.0
 46
0.0
 71
     5
 72
     1
  1
\A1;24.2
 73
     1
 44
1.0
1001
ACAD
1000
MTEXTBEGIN
1070
    73
1070
     1
1070
    44
1040
1.0
1070
    74
1070
     0
1000
MTEXTEND
  0
POINT
  5
7338
330
71B1
100
AcDbEntity
  8
DEFPOINTS
 62
     0
440
 16777216
100
AcDbPoint
 10
183.4999901312366
 20
-290.0000062801217
 30
0.0
  0
POINT
  5
7339
330
71B1
100
AcDbEntity
  8
DEFPOINTS
 62
     0
440
 16777216
100
AcDbPoint
 10
207.6999939449103
 20
-296.0000060479194
 30
0.0
  0
POINT
  5
733A
330
71B1
100
AcDbEntity
  8
DEFPOINTS
 62
     0
440
 16777216
100
AcDbPoint
 10
207.6999939449103
 20
-330.6732376238542
 30
0.0
  0
ENDBLK
  5
71BC
330
71B1
100
AcDbEntity
  8
0
100
AcDbBlockEnd
  0
BLOCK
  5
73D8
330
73CE
100
AcDbEntity
  8
0
100
AcDbBlockBegin
  2
*D27
 70
     1
 10
0.0
 20
0.0
 30
0.0
  3
*D27
  1

  0
LINE
  5
73CF
330
73CE
100
AcDbEntity
  8
30
  6
Continuous
 62
     0
370
    -2
100
AcDbLine
 10
62.5
 20
-368.9994181439515
 30
0.0
 11
62.5
 21
-380.4555939720314
 31
0.0
  0
LINE
  5
73D0
330
73CE
100
AcDbEntity
  8
30
  6
Continuous
 62
     0
370
    -2
100
AcDbLine
 10
47.49999999999999
 20
-368.9994181439515
 30
0.0
 11
47.49999999999999
 21
-380.4555939720314
 31
0.0
  0
LINE
  5
73D1
330
73CE
100
AcDbEntity
  8
30
  6
Continuous
 62
     0
370
    -2
100
AcDbLine
 10
60.5
 20
-379.9555939720314
 30
0.0
 11
49.49999999999999
 21
-379.9555939720314
 31
0.0
  0
INSERT
  5
73D2
330
73CE
100
AcDbEntity
  8
30
  6
Continuous
 62
     0
370
    -2
100
AcDbBlockReference
  2
_OPEN
 10
62.5
 20
-379.9555939720314
 30
0.0
 41
2.0
 42
2.0
 43
2.0
  0
INSERT
  5
73D3
330
73CE
100
AcDbEntity
  8
30
  6
Continuous
 62
     0
370
    -2
100
AcDbBlockReference
  2
_OPEN
 10
47.49999999999999
 20
-379.9555939720314
 30
0.0
 41
2.0
 42
2.0
 43
2.0
 50
180.0
  0
MTEXT
  5
73D4
330
73CE
100
AcDbEntity
  8
30
  6
Continuous
 62
     0
100
AcDbMText
 10
55.0
 20
-376.9555939720313
 30
0.0
 40
4.0
 41
0.0
 46
0.0
 71
     5
 72
     1
  1
\A1;15
 73
     1
 44
1.0
  0
POINT
  5
73D5
330
73CE
100
AcDbEntity
  8
DEFPOINTS
  6
Continuous
 62
     0
100
AcDbPoint
 10
62.5
 20
-367.9994181439515
 30
0.0
  0
POINT
  5
73D6
330
73CE
100
AcDbEntity
  8
DEFPOINTS
  6
Continuous
 62
     0
100
AcDbPoint
 10
47.49999999999999
 20
-367.9994181439515
 30
0.0
  0
POINT
  5
73D7
330
73CE
100
AcDbEntity
  8
DEFPOINTS
  6
Continuous
 62
     0
100
AcDbPoint
 10
47.49999999999999
 20
-379.9555939720314
 30
0.0
  0
ENDBLK
  5
73D9
330
73CE
100
AcDbEntity
  8
0
100
AcDbBlockEnd
  0
BLOCK
  5
73EA
330
73E2
100
AcDbEntity
  8
0
100
AcDbBlockBegin
  2
*D28
 70
     1
 10
0.0
 20
0.0
 30
0.0
  3
*D28
  1

  0
LINE
  5
73E3
330
73E2
100
AcDbEntity
  8
30
  6
Continuous
 62
     0
370
    -2
100
AcDbLine
 10
80.36724578874816
 20
-282.1332128452926
 30
0.0
 11
70.02902891820122
 21
-290.5533701903378
 31
0.0
  0
MTEXT
  5
73E4
330
73E2
100
AcDbEntity
  8
30
  6
Continuous
 62
     0
100
AcDbMText
 10
74.07896821613061
 20
-283.3856809210636
 30
0.0
 40
4.0
 41
0.0
 46
0.0
 71
     5
 72
     1
  1
\A1;∅18
 11
0.7753662652910186
 21
0.6315118008783826
 31
0.0
 73
     1
 44
1.0
  0
INSERT
  5
73E5
330
73E2
100
AcDbEntity
  8
30
  6
Continuous
 62
     0
370
    -2
100
AcDbBlockReference
  2
_OPEN
 10
68.47829638761918
 20
-291.8163937920945
 30
0.0
 41
2.0
 42
2.0
 43
2.0
 50
219.1617487434986
  0
LINE
  5
73E6
330
73E2
100
AcDbEntity
  8
30
  6
Continuous
 62
     0
370
    -2
100
AcDbLine
 10
61.40999999999998
 20
-297.5
 30
0.0
 11
61.59000000000003
 21
-297.5
 31
0.0
  0
LINE
  5
73E7
330
73E2
100
AcDbEntity
  8
30
  6
Continuous
 62
     0
370
    -2
100
AcDbLine
 10
61.5
 20
-297.5899999999998
 30
0.0
 11
61.50000000000003
 21
-297.41
 31
0.0
  0
POINT
  5
73E8
330
73E2
100
AcDbEntity
  8
DEFPOINTS
  6
Continuous
 62
     0
100
AcDbPoint
 10
68.47829638761918
 20
-291.8163937920945
 30
0.0
  0
POINT
  5
73E9
330
73E2
100
AcDbEntity
  8
DEFPOINTS
  6
Continuous
 62
     0
100
AcDbPoint
 10
54.52170361238085
 20
-303.1836062079053
 30
0.0
  0
ENDBLK
  5
73EB
330
73E2
100
AcDbEntity
  8
0
100
AcDbBlockEnd
  0
BLOCK
  5
73FF
330
73F7
100
AcDbEntity
  8
0
100
AcDbBlockBegin
  2
*D29
 70
     1
 10
0.0
 20
0.0
 30
0.0
  3
*D29
  1

  0
LINE
  5
73F8
330
73F7
100
AcDbEntity
  8
30
  6
Continuous
 62
     0
370
    -2
100
AcDbLine
 10
17.35137541367254
 20
-243.0403320877132
 30
0.0
 11
5.937844479985144
 21
-230.6042254097202
 31
0.0
  0
MTEXT
  5
73F9
330
73F7
100
AcDbEntity
  8
30
  6
Continuous
 62
     0
100
AcDbMText
 10
15.73000185390689
 20
-236.8369250487706
 30
0.0
 40
4.0
 41
0.0
 46
0.0
 71
     5
 72
     1
  1
\A1;∅18
 11
0.6761676799986481
 21
-0.7367477645200195
 31
0.0
 73
     1
 44
1.0
  0
INSERT
  5
73FA
330
73F7
100
AcDbEntity
  8
30
  6
Continuous
 62
     0
370
    -2
100
AcDbBlockReference
  2
_OPEN
 10
4.585509119987846
 20
-229.1307298806802
 30
0.0
 41
2.0
 42
2.0
 43
2.0
 50
132.5448930328364
  0
LINE
  5
73FB
330
73F7
100
AcDbEntity
  8
30
  6
Continuous
 62
     0
370
    -2
100
AcDbLine
 10
-1.590000000000015
 20
-222.5
 30
0.0
 11
-1.41000000000001
 21
-222.5
 31
0.0
  0
LINE
  5
73FC
330
73F7
100
AcDbEntity
  8
30
  6
Continuous
 62
     0
370
    -2
100
AcDbLine
 10
-1.5
 20
-222.59
 30
0.0
 11
-1.500000000000014
 21
-222.4099999999999
 31
0.0
  0
POINT
  5
73FD
330
73F7
100
AcDbEntity
  8
DEFPOINTS
  6
Continuous
 62
     0
100
AcDbPoint
 10
4.585509119987846
 20
-229.1307298806802
 30
0.0
  0
POINT
  5
73FE
330
73F7
100
AcDbEntity
  8
DEFPOINTS
  6
Continuous
 62
     0
100
AcDbPoint
 10
-7.585509119987832
 20
-215.8692701193198
 30
0.0
  0
ENDBLK
  5
7400
330
73F7
100
AcDbEntity
  8
0
100
AcDbBlockEnd
  0
BLOCK
  5
7411
330
7407
100
AcDbEntity
  8
0
100
AcDbBlockBegin
  2
*D30
 70
     1
 10
0.0
 20
0.0
 30
0.0
  3
*D30
  1

  0
LINE
  5
7408
330
7407
100
AcDbEntity
  8
30
  6
Continuous
 62
     0
440
 16777216
370
    -2
100
AcDbLine
 10
61.5
 20
-298.4999999999999
 30
0.0
 11
61.49999999999999
 21
-367.4730227387247
 31
0.0
  0
LINE
  5
7409
330
7407
100
AcDbEntity
  8
30
  6
Continuous
 62
     0
440
 16777216
370
    -2
100
AcDbLine
 10
47.5
 20
-298.4999999999999
 30
0.0
 11
47.49999999999999
 21
-367.4730227387247
 31
0.0
  0
LINE
  5
740A
330
7407
100
AcDbEntity
  8
30
  6
Continuous
 62
     0
440
 16777216
370
    -2
100
AcDbLine
 10
59.49999999999999
 20
-366.9730227387247
 30
0.0
 11
49.49999999999999
 21
-366.9730227387247
 31
0.0
  0
INSERT
  5
740B
330
7407
100
AcDbEntity
  8
30
  6
Continuous
 62
     0
440
 16777216
370
    -2
100
AcDbBlockReference
  2
_OPEN
 10
61.49999999999999
 20
-366.9730227387247
 30
0.0
 41
2.0
 42
2.0
 43
2.0
  0
INSERT
  5
740C
330
7407
100
AcDbEntity
  8
30
  6
Continuous
 62
     0
440
 16777216
370
    -2
100
AcDbBlockReference
  2
_OPEN
 10
47.49999999999999
 20
-366.9730227387247
 30
0.0
 41
2.0
 42
2.0
 43
2.0
 50
180.0
  0
MTEXT
  5
740D
330
7407
100
AcDbEntity
  8
30
  6
Continuous
 62
     0
440
 16777216
100
AcDbMText
 10
54.49999999999999
 20
-363.9730227387246
 30
0.0
 40
4.0
 41
0.0
 46
0.0
 71
     5
 72
     1
  1
\A1;14
 73
     1
 44
1.0
  0
POINT
  5
740E
330
7407
100
AcDbEntity
  8
DEFPOINTS
  6
Continuous
 62
     0
440
 16777216
100
AcDbPoint
 10
61.5
 20
-297.5
 30
0.0
  0
POINT
  5
740F
330
7407
100
AcDbEntity
  8
DEFPOINTS
  6
Continuous
 62
     0
440
 16777216
100
AcDbPoint
 10
47.5
 20
-297.5
 30
0.0
  0
POINT
  5
7410
330
7407
100
AcDbEntity
  8
DEFPOINTS
  6
Continuous
 62
     0
440
 16777216
100
AcDbPoint
 10
47.49999999999999
 20
-366.9730227387247
 30
0.0
  0
ENDBLK
  5
7412
330
7407
100
AcDbEntity
  8
0
100
AcDbBlockEnd
  0
BLOCK
  5
741E
330
7414
100
AcDbEntity
  8
0
100
AcDbBlockBegin
  2
*D31
 70
     1
 10
0.0
 20
0.0
 30
0.0
  3
*D31
  1

  0
LINE
  5
7415
330
7414
100
AcDbEntity
  8
30
  6
Continuous
 62
     0
440
 16777216
370
    -2
100
AcDbLine
 10
-1.5
 20
-298.4999999999999
 30
0.0
 11
-1.500000000000003
 21
-362.9885239423088
 31
0.0
  0
LINE
  5
7416
330
7414
100
AcDbEntity
  8
30
  6
Continuous
 62
     0
440
 16777216
370
    -2
100
AcDbLine
 10
-22.5
 20
-298.4999999999999
 30
0.0
 11
-22.5
 21
-362.9885239423088
 31
0.0
  0
LINE
  5
7417
330
7414
100
AcDbEntity
  8
30
  6
Continuous
 62
     0
440
 16777216
370
    -2
100
AcDbLine
 10
-3.500000000000003
 20
-362.4885239423087
 30
0.0
 11
-20.5
 21
-362.4885239423087
 31
0.0
  0
INSERT
  5
7418
330
7414
100
AcDbEntity
  8
30
  6
Continuous
 62
     0
440
 16777216
370
    -2
100
AcDbBlockReference
  2
_OPEN
 10
-1.500000000000003
 20
-362.4885239423087
 30
0.0
 41
2.0
 42
2.0
 43
2.0
  0
INSERT
  5
7419
330
7414
100
AcDbEntity
  8
30
  6
Continuous
 62
     0
440
 16777216
370
    -2
100
AcDbBlockReference
  2
_OPEN
 10
-22.5
 20
-362.4885239423087
 30
0.0
 41
2.0
 42
2.0
 43
2.0
 50
180.0
  0
MTEXT
  5
741A
330
7414
100
AcDbEntity
  8
30
  6
Continuous
 62
     0
440
 16777216
100
AcDbMText
 10
-12.0
 20
-359.4885239423088
 30
0.0
 40
4.0
 41
0.0
 46
0.0
 71
     5
 72
     1
  1
\A1;21
 73
     1
 44
1.0
  0
POINT
  5
741B
330
7414
100
AcDbEntity
  8
DEFPOINTS
  6
Continuous
 62
     0
440
 16777216
100
AcDbPoint
 10
-1.5
 20
-297.5
 30
0.0
  0
POINT
  5
741C
330
7414
100
AcDbEntity
  8
DEFPOINTS
  6
Continuous
 62
     0
440
 16777216
100
AcDbPoint
 10
-22.5
 20
-297.5
 30
0.0
  0
POINT
  5
741D
330
7414
100
AcDbEntity
  8
DEFPOINTS
  6
Continuous
 62
     0
440
 16777216
100
AcDbPoint
 10
-22.5
 20
-362.4885239423087
 30
0.0
  0
ENDBLK
  5
741F
330
7414
100
AcDbEntity
  8
0
100
AcDbBlockEnd
  0
ENDSEC
  0
SECTION
  2
ENTITIES
  0
DIMENSION
  5
BD8
330
1E
100
AcDbEntity
  8
30
100
AcDbDimension
280
     0
  2
*D1
 10
319.2021826079415
 20
-284.8593533752837
 30
0.0
 11
319.2021826079417
 21
-284.8593533752837
 31
0.0
 70
   160
  1
max10
 71
     5
 42
-1.0
 73
     0
 74
     0
 75
     0
  3
STANDARD
100
AcDbAlignedDimension
 13
310.1041177097286
 23
-294.8593533752837
 33
0.0
 14
311.1041177097285
 24
-284.8593533752837
 34
0.0
 50
90.0
100
AcDbRotatedDimension
  0
MTEXT
  5
BF3
330
1E
100
AcDbEntity
  8
24
  6
Continuous
100
AcDbMText
 10
142.1181906098743
 20
177.5
 30
0.0
 40
3.0
 41
0.0
 46
0.0
 71
     1
 72
     1
  1
\A1;
 73
     1
 44
1.0
1001
ACAD
1000
MTEXTBEGIN
1070
    73
1070
     1
1070
    44
1040
1.0
1070
    74
1070
     0
1000
MTEXTEND
  0
TEXT
  5
BF4
330
1E
100
AcDbEntity
  8
30
100
AcDbText
 10
316.0978220781311
 20
-306.3032880643961
 30
0.0
 40
4.0
  1
%%C6.5
100
AcDbText
  0
LEADER
  5
C4F
330
1E
100
AcDbEntity
  8
30
100
AcDbLeader
  3
STANDARD
 76
     3
 10
302.8541177097283
 20
-285.8593533752837
 30
0.0
 10
313.8541177097286
 20
-307.8593533752837
 30
0.0
 10
325.8541177097283
 20
-307.8593533752837
 30
0.0
1001
ACAD
1000
DSTYLE
1002
{
1070
     5
1000
OPEN
1070
   342
1005
3B2
1002
}
  0
LINE
  5
2260
330
1E
100
AcDbEntity
  8
16
100
AcDbLine
 10
127.2641627211668
 20
-260.0
 30
0.0
 11
-61.60868885537144
 21
-260.0
 31
0.0
  0
LINE
  5
2261
330
1E
100
AcDbEntity
  8
16
100
AcDbLine
 10
0.0
 20
-318.4411051697093
 30
0.0
 11
0.0
 21
-177.2499999999799
 31
0.0
  0
TEXT
  5
4977
330
1E
100
AcDbEntity
  8
30
100
AcDbText
 10
59.30990602563986
 20
-202.6896589982217
 30
0.0
 40
5.0
  1
%%c6
100
AcDbText
  0
MTEXT
  5
4B2E
330
1E
100
AcDbEntity
  8
30
  6
Continuous
 62
     2
100
AcDbMText
 10
268.061460244221
 20
-10.61653703766022
 30
0.0
 40
4.0
 41
0.0
 46
0.0
 71
     1
 72
     1
  1
 
 73
     1
 44
1.0
1001
ACAD
1000
MTEXTBEGIN
1070
    73
1070
     1
1070
    44
1040
1.0
1070
    74
1070
     0
1000
MTEXTEND
  0
LWPOLYLINE
  5
5803
330
1E
100
AcDbEntity
  8
16
100
AcDbPolyline
 90
        2
 70
     0
 43
0.001
 10
0.0
 20
109.9505615234199
 10
0.0
 20
-121.91400146485
  0
LINE
  5
5938
330
1E
100
AcDbEntity
  8
16
100
AcDbLine
 10
72.58329095406677
 20
0.0
 30
0.0
 11
-105.1765829171555
 21
0.0
 31
0.0
  0
LEADER
  5
5DE5
330
1E
100
AcDbEntity
  8
30
100
AcDbLeader
  3
STANDARD
 76
     3
 10
50.83250471314653
 20
-219.819579491114
 30
0.0
 10
56.07653568015297
 20
-205.0302348442181
 30
0.0
 10
69.64932376570499
 20
-205.0302348442181
 30
0.0
1001
ACAD
1000
DSTYLE
1002
{
1070
     5
1000
OPEN
1070
    77
1070
     0
1070
   147
1040
1.0
1002
}
  0
LINE
  5
5E0A
330
1E
100
AcDbEntity
  8
16
100
AcDbLine
 10
304.5913216207948
 20
0.0
 30
0.0
 11
126.8314477495726
 21
0.0
 31
0.0
  0
DIMENSION
  5
6056
330
1E
100
AcDbEntity
  8
30
100
AcDbDimension
280
     0
  2
*D2
 10
75.0
 20
-110.0
 30
0.0
 11
15.0
 21
-107.0
 31
0.0
 70
    32
 71
     5
 42
-1.0
 73
     0
 74
     0
 75
     0
  3
STANDARD
100
AcDbAlignedDimension
 13
-45.0
 23
-77.5
 33
0.0
 14
75.0
 24
-77.5
 34
0.0
 50
180.0
100
AcDbRotatedDimension
  0
LINE
  5
605C
330
1E
100
AcDbEntity
  8
10
100
AcDbLine
 10
39.99999772544834
 20
-88.79807331226993
 30
0.0
 11
41.50000304349669
 21
-86.19999731769713
 31
0.0
  0
LINE
  5
605D
330
1E
100
AcDbEntity
  8
10
100
AcDbLine
 10
48.49999960050627
 20
-86.19999731769713
 30
0.0
 11
50.00000491855463
 21
-88.79807331226993
 31
0.0
  0
LINE
  5
605E
330
1E
100
AcDbEntity
  8
10
100
AcDbLine
 10
18.50000224451648
 20
-86.19999731769713
 30
0.0
 11
20.00000756256486
 21
-88.79807331226993
 31
0.0
  0
LINE
  5
605F
330
1E
100
AcDbEntity
  8
10
100
AcDbLine
 10
10.00000036945857
 20
-88.79807331226993
 30
0.0
 11
11.50000568750692
 21
-86.19999731769713
 31
0.0
  0
LINE
  5
6060
330
1E
100
AcDbEntity
  8
10
100
AcDbLine
 10
-11.4999951114805
 20
-86.19999731769713
 30
0.0
 11
-10.00000190509308
 21
-88.79807331226993
 31
0.0
  0
LINE
  5
6061
330
1E
100
AcDbEntity
  8
10
100
AcDbLine
 10
-19.99999698653844
 20
-88.79807331226993
 30
0.0
 11
-18.49999166849011
 21
-86.19999731769713
 31
0.0
  0
CIRCLE
  5
6062
330
1E
100
AcDbEntity
  8
10
100
AcDbCircle
 10
-15.00000208982235
 20
-89.9999954486457
 30
0.0
 40
2.250000028793264
  0
CIRCLE
  5
6063
330
1E
100
AcDbEntity
  8
10
100
AcDbCircle
 10
44.99999791017763
 20
-89.9999954486457
 30
0.0
 40
2.250000028793264
  0
ARC
  5
606A
330
1E
100
AcDbEntity
  8
10
100
AcDbCircle
 10
49.00000541040935
 20
-93.99999499518072
 30
0.0
 40
0.9999999812562155
100
AcDbArc
 50
270.0
 51
0.0
  0
ARC
  5
606B
330
1E
100
AcDbEntity
  8
10
100
AcDbCircle
 10
40.9999972335936
 20
-93.99999499518072
 30
0.0
 40
0.9999999812562155
100
AcDbArc
 50
180.0
 51
270.0
  0
CIRCLE
  5
606C
330
1E
100
AcDbEntity
  8
10
100
AcDbCircle
 10
14.99999791017762
 20
-89.9999954486457
 30
0.0
 40
2.250000028793264
  0
ARC
  5
606D
330
1E
100
AcDbEntity
  8
10
100
AcDbCircle
 10
19.00000805441957
 20
-93.99999499518072
 30
0.0
 40
0.9999999812562155
100
AcDbArc
 50
270.0
 51
0.0
  0
ARC
  5
606E
330
1E
100
AcDbEntity
  8
10
100
AcDbCircle
 10
10.99999987759656
 20
-93.99999499518072
 30
0.0
 40
0.9999999812562155
100
AcDbArc
 50
180.0
 51
270.0
  0
ARC
  5
606F
330
1E
100
AcDbEntity
  8
10
100
AcDbCircle
 10
-11.00000141323832
 20
-93.99999499518072
 30
0.0
 40
0.9999999812562155
100
AcDbArc
 50
270.0
 51
0.0
  0
ARC
  5
6070
330
1E
100
AcDbEntity
  8
10
100
AcDbCircle
 10
-18.99999747839319
 20
-93.99999499518072
 30
0.0
 40
0.9999999812562155
100
AcDbArc
 50
180.0
 51
270.0
  0
LINE
  5
6071
330
1E
100
AcDbEntity
  8
10
100
AcDbLine
 10
41.75000432112574
 20
-90.0000090092185
 30
0.0
 11
48.25000437871493
 21
-90.0000090092185
 31
0.0
  0
LINE
  5
6072
330
1E
100
AcDbEntity
  8
10
100
AcDbLine
 10
45.00000434991672
 20
-86.75000898042526
 30
0.0
 11
45.00000434991672
 21
-93.25000903801173
 31
0.0
  0
LINE
  5
6073
330
1E
100
AcDbEntity
  8
10
100
AcDbLine
 10
11.75000999304756
 20
-89.9999954486457
 30
0.0
 11
18.25001005063676
 21
-89.9999954486457
 31
0.0
  0
LINE
  5
6074
330
1E
100
AcDbEntity
  8
10
100
AcDbLine
 10
15.00001002183853
 20
-86.74999541985242
 30
0.0
 11
15.00001002183853
 21
-93.24999547743892
 31
0.0
  0
LINE
  5
6075
330
1E
100
AcDbEntity
  8
10
100
AcDbLine
 10
-18.2499843350306
 20
-89.99998188807285
 30
0.0
 11
-11.74998427744138
 21
-89.99998188807285
 31
0.0
  0
LINE
  5
6076
330
1E
100
AcDbEntity
  8
10
100
AcDbLine
 10
-14.99998430623963
 20
-86.74998185927961
 30
0.0
 11
-14.99998430623963
 21
-93.24998191686608
 31
0.0
  0
LINE
  5
6081
330
1E
100
AcDbEntity
  8
10
100
AcDbLine
 10
19.00000805441957
 20
-94.99999601728314
 30
0.0
 11
10.99999987759656
 21
-94.99999601728314
 31
0.0
  0
LINE
  5
6082
330
1E
100
AcDbEntity
  8
10
100
AcDbLine
 10
49.00000541040935
 20
-94.99999601728314
 30
0.0
 11
40.9999972335936
 21
-94.99999601728314
 31
0.0
  0
LINE
  5
6083
330
1E
100
AcDbEntity
  8
10
100
AcDbLine
 10
50.00000491855463
 20
-88.79807331226993
 30
0.0
 11
50.00000491855463
 21
-93.99999499518072
 31
0.0
  0
LINE
  5
6084
330
1E
100
AcDbEntity
  8
10
100
AcDbLine
 10
39.99999772544834
 20
-93.99999499518072
 30
0.0
 11
39.99999772544834
 21
-88.79807331226993
 31
0.0
  0
LINE
  5
6085
330
1E
100
AcDbEntity
  8
10
100
AcDbLine
 10
20.00000756256486
 20
-88.79807331226993
 30
0.0
 11
20.00000756256486
 21
-93.99999499518072
 31
0.0
  0
LINE
  5
6086
330
1E
100
AcDbEntity
  8
10
100
AcDbLine
 10
10.00000036945857
 20
-93.99999499518072
 30
0.0
 11
10.00000036945857
 21
-88.79807331226993
 31
0.0
  0
LINE
  5
6087
330
1E
100
AcDbEntity
  8
10
100
AcDbLine
 10
10.0101862785741
 20
-88.8007984365886
 30
0.0
 11
10.00000036945857
 21
-88.79807331226993
 31
0.0
  0
LINE
  5
6088
330
1E
100
AcDbEntity
  8
10
100
AcDbLine
 10
-11.00000141323832
 20
-94.99999601728314
 30
0.0
 11
-18.99999747839319
 21
-94.99999601728314
 31
0.0
  0
LINE
  5
6089
330
1E
100
AcDbEntity
  8
10
100
AcDbLine
 10
-10.00000190509308
 20
-88.79807331226993
 30
0.0
 11
-10.00000190509308
 21
-93.99999499518072
 31
0.0
  0
LINE
  5
608A
330
1E
100
AcDbEntity
  8
10
100
AcDbLine
 10
-19.99999698653844
 20
-93.99999499518072
 30
0.0
 11
-19.99999698653844
 21
-88.79807331226993
 31
0.0
  0
DIMENSION
  5
608B
330
1E
100
AcDbEntity
  8
30
100
AcDbDimension
280
     0
  2
*D3
 10
106.794377995182
 20
85.00000325826203
 30
0.0
 11
103.7943779951816
 21
0.0000041891271474
 31
0.0
 70
    32
 71
     5
 42
-1.0
 73
     0
 74
     0
 75
     0
  3
STANDARD
100
AcDbAlignedDimension
 13
71.24999143870809
 23
-84.99999488000776
 33
0.0
 14
71.24999143870809
 24
85.00000325826205
 34
0.0
 50
270.0
100
AcDbRotatedDimension
  0
DIMENSION
  5
608C
330
1E
100
AcDbEntity
  8
30
100
AcDbDimension
280
     0
  2
*D4
 10
94.29437799518201
 20
77.5
 30
0.0
 11
91.29437799518198
 21
0.0000000000000088
 31
0.0
 70
    32
 71
     5
 42
-1.0
 73
     0
 74
     0
 75
     0
  3
STANDARD
100
AcDbAlignedDimension
 13
75.0
 23
-77.5
 33
0.0
 14
75.0
 24
77.5
 34
0.0
 50
270.0
100
AcDbRotatedDimension
  0
LINE
  5
608D
330
1E
100
AcDbEntity
  8
10
100
AcDbLine
 10
42.0
 20
25.0
 30
0.0
 11
42.0
 21
-25.0
 31
0.0
  0
LINE
  5
608E
330
1E
100
AcDbEntity
  8
10
100
AcDbLine
 10
-42.0
 20
25.0
 30
0.0
 11
-42.0
 21
-25.0
 31
0.0
  0
LINE
  5
6090
330
1E
100
AcDbEntity
  8
10
100
AcDbLine
 10
7.0
 20
-18.5
 30
0.0
 11
7.0
 21
20.15486870581026
 31
0.0
  0
LINE
  5
6091
330
1E
100
AcDbEntity
  8
10
100
AcDbLine
 10
-7.0
 20
-18.5
 30
0.0
 11
-7.0
 21
20.15486870581026
 31
0.0
  0
LINE
  5
6094
330
1E
100
AcDbEntity
  8
10
100
AcDbLine
 10
-11.0
 20
25.0
 30
0.0
 11
-11.0
 21
-25.0
 31
0.0
  0
LINE
  5
6095
330
1E
100
AcDbEntity
  8
10
100
AcDbLine
 10
11.0
 20
25.0
 30
0.0
 11
11.0
 21
-25.0
 31
0.0
  0
LINE
  5
6099
330
1E
100
AcDbEntity
  8
10
100
AcDbLine
 10
75.0
 20
-77.5
 30
0.0
 11
75.0
 21
77.5
 31
0.0
  0
LINE
  5
609A
330
1E
100
AcDbEntity
  8
10
100
AcDbLine
 10
-45.0
 20
77.5
 30
0.0
 11
-45.0
 21
-77.5
 31
0.0
  0
ARC
  5
60A1
330
1E
100
AcDbEntity
  8
10
100
AcDbCircle
 10
74.50001103559043
 20
-79.49999455729813
 30
0.0
 40
0.499999990628108
100
AcDbArc
 50
270.0
 51
0.0
  0
ARC
  5
60A2
330
1E
100
AcDbEntity
  8
10
100
AcDbCircle
 10
71.24999143870809
 20
-84.49999512593556
 30
0.0
 40
0.499999990628108
100
AcDbArc
 50
270.0
 51
0.0
  0
ARC
  5
60A3
330
1E
100
AcDbEntity
  8
10
100
AcDbCircle
 10
-44.49999704773654
 20
-84.49999512593556
 30
0.0
 40
0.499999990628108
100
AcDbArc
 50
180.0
 51
270.0
  0
CIRCLE
  5
60A4
330
1E
100
AcDbEntity
  8
12
100
AcDbCircle
 10
-15.0
 20
-65.99999999999955
 30
0.0
 40
3.999999999999996
210
0.0
220
0.0
230
-1.0
  0
CIRCLE
  5
60A5
330
1E
100
AcDbEntity
  8
12
100
AcDbCircle
 10
15.0
 20
-65.99999999999955
 30
0.0
 40
3.999999999999996
210
0.0
220
0.0
230
-1.0
  0
ARC
  5
60A6
330
1E
100
AcDbEntity
  8
10
100
AcDbCircle
 10
-63.75
 20
-66.0
 30
0.0
 40
4.999999999999995
210
0.0
220
0.0
230
-1.0
100
AcDbArc
 50
90.0
 51
180.0
  0
ARC
  5
60A7
330
1E
100
AcDbEntity
  8
10
100
AcDbCircle
 10
-56.25
 20
-66.0
 30
0.0
 40
4.999999999999995
210
0.0
220
0.0
230
-1.0
100
AcDbArc
 50
0.0
 51
90.0
  0
CIRCLE
  5
60A8
330
1E
100
AcDbEntity
  8
24
100
AcDbCircle
 10
60.0
 20
-67.0
 30
0.0
 40
4.999999999999995
  0
ARC
  5
60AA
330
1E
100
AcDbEntity
  8
10
100
AcDbCircle
 10
-33.75
 20
-66.0
 30
0.0
 40
4.999999999999995
210
0.0
220
0.0
230
-1.0
100
AcDbArc
 50
90.0
 51
180.0
  0
ARC
  5
60AB
330
1E
100
AcDbEntity
  8
10
100
AcDbCircle
 10
-26.25
 20
-66.0
 30
0.0
 40
4.999999999999995
210
0.0
220
0.0
230
-1.0
100
AcDbArc
 50
0.0
 51
90.0
  0
CIRCLE
  5
60AC
330
1E
100
AcDbEntity
  8
24
100
AcDbCircle
 10
30.0
 20
-67.0
 30
0.0
 40
4.999999999999995
  0
ARC
  5
60AD
330
1E
100
AcDbEntity
  8
10
100
AcDbCircle
 10
-33.75
 20
-66.0
 30
0.0
 40
4.999999999999995
100
AcDbArc
 50
90.0
 51
180.0
  0
ARC
  5
60AE
330
1E
100
AcDbEntity
  8
10
100
AcDbCircle
 10
-26.25
 20
-66.0
 30
0.0
 40
4.999999999999995
100
AcDbArc
 50
0.0
 51
90.0
  0
ARC
  5
60AF
330
1E
100
AcDbEntity
  8
10
100
AcDbCircle
 10
-3.75
 20
-66.0
 30
0.0
 40
4.999999999999995
210
0.0
220
0.0
230
-1.0
100
AcDbArc
 50
90.0
 51
180.0
  0
ARC
  5
60B0
330
1E
100
AcDbEntity
  8
10
100
AcDbCircle
 10
3.75
 20
-66.0
 30
0.0
 40
4.999999999999995
210
0.0
220
0.0
230
-1.0
100
AcDbArc
 50
0.0
 51
90.0
  0
CIRCLE
  5
60B1
330
1E
100
AcDbEntity
  8
24
100
AcDbCircle
 10
0.0
 20
-67.0
 30
0.0
 40
4.999999999999995
  0
CIRCLE
  5
60B2
330
1E
100
AcDbEntity
  8
24
100
AcDbCircle
 10
-30.0
 20
-67.0
 30
0.0
 40
4.999999999999995
  0
LINE
  5
60C9
330
1E
100
AcDbEntity
  8
10
100
AcDbLine
 10
75.00000473383261
 20
-77.50000035274661
 30
0.0
 11
75.00000473383261
 21
-79.49999455729813
 31
0.0
  0
LINE
  5
60CA
330
1E
100
AcDbEntity
  8
10
100
AcDbLine
 10
71.75000936027936
 20
-79.99999733928598
 30
0.0
 11
71.75000936027936
 21
-81.49999660150298
 31
0.0
  0
LINE
  5
60CB
330
1E
100
AcDbEntity
  8
10
100
AcDbLine
 10
-41.74999537242547
 20
-77.99999529508159
 30
0.0
 11
-41.74999537242547
 21
-77.50000035274661
 31
0.0
  0
LINE
  5
60CC
330
1E
100
AcDbEntity
  8
10
100
AcDbLine
 10
-12.49999461962579
 20
-84.99999488000776
 30
0.0
 11
12.5000051956449
 21
-84.99999488000776
 31
0.0
  0
LINE
  5
60CD
330
1E
100
AcDbEntity
  8
10
100
AcDbLine
 10
71.75000936027936
 20
-81.71693769264313
 30
0.0
 11
71.75000936027936
 21
-81.81174173975753
 31
0.0
  0
LINE
  5
60CE
330
1E
100
AcDbEntity
  8
10
100
AcDbLine
 10
71.75000936027936
 20
-81.98746078371096
 30
0.0
 11
71.75000936027936
 21
-81.99999635557468
 31
0.0
  0
LINE
  5
60CF
330
1E
100
AcDbEntity
  8
10
100
AcDbLine
 10
71.75000936027936
 20
-81.95048084671315
 30
0.0
 11
71.75000936027936
 21
-81.98746078371096
 31
0.0
  0
LINE
  5
60D0
330
1E
100
AcDbEntity
  8
10
100
AcDbLine
 10
74.50001103559043
 20
-79.99999733928598
 30
0.0
 11
71.75000936027936
 21
-79.99999733928598
 31
0.0
  0
LINE
  5
60D1
330
1E
100
AcDbEntity
  8
10
100
AcDbLine
 10
71.75000936027936
 20
-81.49999660150298
 30
0.0
 11
71.75000936027936
 21
-81.61125737158318
 31
0.0
  0
LINE
  5
60D2
330
1E
100
AcDbEntity
  8
10
100
AcDbLine
 10
71.75000936027936
 20
-81.61125737158318
 30
0.0
 11
71.75000936027936
 21
-81.71693769264313
 31
0.0
  0
LINE
  5
60D3
330
1E
100
AcDbEntity
  8
10
100
AcDbLine
 10
71.75000936027936
 20
-81.81174173975753
 30
0.0
 11
71.75000936027936
 21
-81.89091265703337
 31
0.0
  0
LINE
  5
60D4
330
1E
100
AcDbEntity
  8
10
100
AcDbLine
 10
71.75000936027936
 20
-81.99999635557468
 30
0.0
 11
71.75000936027936
 21
-84.49999512593556
 31
0.0
  0
LINE
  5
60D5
330
1E
100
AcDbEntity
  8
10
100
AcDbLine
 10
71.75000936027936
 20
-81.89091265703337
 30
0.0
 11
71.75000936027936
 21
-81.95048084671315
 31
0.0
  0
LINE
  5
60D6
330
1E
100
AcDbEntity
  8
10
100
AcDbLine
 10
17.50000273637124
 20
-84.99999488000776
 30
0.0
 11
42.50000255164195
 21
-84.99999488000776
 31
0.0
  0
LINE
  5
60D7
330
1E
100
AcDbEntity
  8
10
100
AcDbLine
 10
48.49999960050627
 20
-84.99999488000776
 30
0.0
 11
48.49999960050627
 21
-86.19999731769713
 31
0.0
  0
LINE
  5
60D8
330
1E
100
AcDbEntity
  8
10
100
AcDbLine
 10
41.50000304349669
 20
-86.19999731769713
 30
0.0
 11
41.50000304349669
 21
-84.99999488000776
 31
0.0
  0
LINE
  5
60D9
330
1E
100
AcDbEntity
  8
10
100
AcDbLine
 10
18.48982844706188
 20
-86.20272244201533
 30
0.0
 11
18.50000224451648
 21
-86.19999731769713
 31
0.0
  0
LINE
  5
60DA
330
1E
100
AcDbEntity
  8
10
100
AcDbLine
 10
18.50000224451648
 20
-84.99999488000776
 30
0.0
 11
18.50000224451648
 21
-86.19999731769713
 31
0.0
  0
LINE
  5
60DB
330
1E
100
AcDbEntity
  8
10
100
AcDbLine
 10
11.51017948496155
 20
-86.20272244201533
 30
0.0
 11
11.50000568750692
 21
-86.19999731769713
 31
0.0
  0
LINE
  5
60DC
330
1E
100
AcDbEntity
  8
10
100
AcDbLine
 10
11.50000568750692
 20
-86.19999731769713
 30
0.0
 11
11.50000568750692
 21
-84.99999488000776
 31
0.0
  0
LINE
  5
60DD
330
1E
100
AcDbEntity
  8
10
100
AcDbLine
 10
-44.99999680180915
 20
-84.49950875583999
 30
0.0
 11
-44.99999680180915
 21
-77.99999529508159
 31
0.0
  0
LINE
  5
60DE
330
1E
100
AcDbEntity
  8
10
100
AcDbLine
 10
-11.4999951114805
 20
-84.99999488000776
 30
0.0
 11
-11.4999951114805
 21
-86.19999731769713
 31
0.0
  0
LINE
  5
60DF
330
1E
100
AcDbEntity
  8
10
100
AcDbLine
 10
-44.49999704773654
 20
-84.99999488000776
 30
0.0
 11
-17.49999216034482
 21
-84.99999488000776
 31
0.0
  0
LINE
  5
60E0
330
1E
100
AcDbEntity
  8
10
100
AcDbLine
 10
-18.49999166849011
 20
-86.19999731769713
 30
0.0
 11
-18.49999166849011
 21
-84.99999488000776
 31
0.0
  0
LINE
  5
60E1
330
1E
100
AcDbEntity
  8
10
100
AcDbLine
 10
-44.99999680180915
 20
-77.99999529508159
 30
0.0
 11
-41.74999537242547
 21
-77.99999529508159
 31
0.0
  0
LINE
  5
60E2
330
1E
100
AcDbEntity
  8
10
100
AcDbLine
 10
-42.0
 20
-25.0
 30
0.0
 11
42.0
 21
-25.0
 31
0.0
  0
LINE
  5
60E3
330
1E
100
AcDbEntity
  8
12
100
AcDbLine
 10
15.0
 20
-60.5
 30
0.0
 11
15.0
 21
-71.49999999999955
 31
0.0
  0
LINE
  5
60E5
330
1E
100
AcDbEntity
  8
10
100
AcDbLine
 10
7.0
 20
6.840789306861553
 30
0.0
 11
-7.0
 21
6.840789306861553
 31
0.0
  0
LINE
  5
60E6
330
1E
100
AcDbEntity
  8
10
100
AcDbLine
 10
-7.0
 20
-18.5
 30
0.0
 11
7.0
 21
-18.5
 31
0.0
  0
LINE
  5
60E8
330
1E
100
AcDbEntity
  8
12
100
AcDbLine
 10
9.5
 20
-65.99999999999955
 30
0.0
 11
20.5
 21
-65.99999999999955
 31
0.0
  0
LINE
  5
60E9
330
1E
100
AcDbEntity
  8
12
100
AcDbLine
 10
-15.0
 20
-60.5
 30
0.0
 11
-15.0
 21
-71.49999999999955
 31
0.0
  0
LINE
  5
60EA
330
1E
100
AcDbEntity
  8
12
100
AcDbLine
 10
-20.5
 20
-65.99999999999955
 30
0.0
 11
-9.5
 21
-65.99999999999955
 31
0.0
  0
LINE
  5
60EB
330
1E
100
AcDbEntity
  8
17
100
AcDbLine
 10
53.0
 20
-67.0
 30
0.0
 11
67.0
 21
-67.0
 31
0.0
  0
LINE
  5
60EC
330
1E
100
AcDbEntity
  8
17
100
AcDbLine
 10
60.0
 20
-74.0
 30
0.0
 11
60.0
 21
-60.0
 31
0.0
  0
LINE
  5
60ED
330
1E
100
AcDbEntity
  8
10
100
AcDbLine
 10
68.75
 20
-66.0
 30
0.0
 11
68.75
 21
-77.5
 31
0.0
  0
LINE
  5
60EE
330
1E
100
AcDbEntity
  8
10
100
AcDbLine
 10
63.75
 20
-61.0
 30
0.0
 11
56.25
 21
-61.0
 31
0.0
  0
LINE
  5
60EF
330
1E
100
AcDbEntity
  8
10
100
AcDbLine
 10
51.25
 20
-66.0
 30
0.0
 11
51.25
 21
-77.5
 31
0.0
  0
LINE
  5
60F3
330
1E
100
AcDbEntity
  8
10
100
AcDbLine
 10
-45.0
 20
-51.0
 30
0.0
 11
75.0
 21
-51.0
 31
0.0
  0
LINE
  5
60F4
330
1E
100
AcDbEntity
  8
17
100
AcDbLine
 10
23.0
 20
-67.0
 30
0.0
 11
37.0
 21
-67.0
 31
0.0
  0
LINE
  5
60F5
330
1E
100
AcDbEntity
  8
17
100
AcDbLine
 10
30.0
 20
-74.0
 30
0.0
 11
30.0
 21
-60.0
 31
0.0
  0
LINE
  5
60F6
330
1E
100
AcDbEntity
  8
10
100
AcDbLine
 10
38.75
 20
-66.0
 30
0.0
 11
38.75
 21
-77.5
 31
0.0
  0
LINE
  5
60F7
330
1E
100
AcDbEntity
  8
10
100
AcDbLine
 10
33.75
 20
-61.0
 30
0.0
 11
26.25
 21
-61.0
 31
0.0
  0
LINE
  5
60F8
330
1E
100
AcDbEntity
  8
10
100
AcDbLine
 10
21.25
 20
-66.0
 30
0.0
 11
21.25
 21
-77.5
 31
0.0
  0
LINE
  5
60F9
330
1E
100
AcDbEntity
  8
10
100
AcDbLine
 10
-38.75
 20
-66.0
 30
0.0
 11
-38.75
 21
-77.5
 31
0.0
  0
LINE
  5
60FA
330
1E
100
AcDbEntity
  8
10
100
AcDbLine
 10
-33.75
 20
-61.0
 30
0.0
 11
-26.25
 21
-61.0
 31
0.0
  0
LINE
  5
60FB
330
1E
100
AcDbEntity
  8
10
100
AcDbLine
 10
-21.25
 20
-66.0
 30
0.0
 11
-21.25
 21
-77.5
 31
0.0
  0
LINE
  5
60FC
330
1E
100
AcDbEntity
  8
17
100
AcDbLine
 10
-30.0
 20
-74.0
 30
0.0
 11
-30.0
 21
-60.0
 31
0.0
  0
LINE
  5
60FD
330
1E
100
AcDbEntity
  8
17
100
AcDbLine
 10
-23.0
 20
-67.0
 30
0.0
 11
-37.0
 21
-67.0
 31
0.0
  0
LINE
  5
60FE
330
1E
100
AcDbEntity
  8
17
100
AcDbLine
 10
-7.0
 20
-67.0
 30
0.0
 11
7.0
 21
-67.0
 31
0.0
  0
LINE
  5
60FF
330
1E
100
AcDbEntity
  8
10
100
AcDbLine
 10
8.75
 20
-66.0
 30
0.0
 11
8.75
 21
-77.5
 31
0.0
  0
LINE
  5
6100
330
1E
100
AcDbEntity
  8
10
100
AcDbLine
 10
3.75
 20
-61.0
 30
0.0
 11
-3.75
 21
-61.0
 31
0.0
  0
LINE
  5
6101
330
1E
100
AcDbEntity
  8
10
100
AcDbLine
 10
-8.75
 20
-66.0
 30
0.0
 11
-8.75
 21
-77.5
 31
0.0
  0
LINE
  5
6114
330
1E
100
AcDbEntity
  8
10
100
AcDbLine
 10
71.24999143870809
 20
-84.99999488000776
 30
0.0
 11
47.50000009236097
 21
-84.99999488000776
 31
0.0
  0
LINE
  5
6115
330
1E
100
AcDbEntity
  8
10
100
AcDbLine
 10
-45.0
 20
-77.5
 30
0.0
 11
75.0
 21
-77.5
 31
0.0
  0
DIMENSION
  5
6116
330
1E
100
AcDbEntity
  8
30
100
AcDbDimension
280
     0
  2
*D5
 10
42.0
 20
32.59950840067995
 30
0.0
 11
0.0000000000000002
 21
35.59950840067996
 31
0.0
 70
    32
 71
     5
 42
-1.0
 73
     0
 74
     0
 75
     0
  3
STANDARD
100
AcDbAlignedDimension
 13
-42.0
 23
25.0
 33
0.0
 14
42.0
 24
25.0
 34
0.0
100
AcDbRotatedDimension
  0
CIRCLE
  5
6121
330
1E
100
AcDbEntity
  8
10
100
AcDbCircle
 10
45.00000434991672
 20
89.99999474315155
 30
0.0
 40
2.175250057989682
  0
ARC
  5
6122
330
1E
100
AcDbEntity
  8
10
100
AcDbCircle
 10
74.50001103559043
 20
79.49999990763626
 30
0.0
 40
0.499999990628108
100
AcDbArc
 50
0.0
 51
90.0
  0
ARC
  5
6123
330
1E
100
AcDbEntity
  8
10
100
AcDbCircle
 10
71.24999143870809
 20
84.49999744835805
 30
0.0
 40
0.499999990628108
100
AcDbArc
 50
0.0
 51
90.0
  0
ARC
  5
6124
330
1E
100
AcDbEntity
  8
10
100
AcDbCircle
 10
49.00000541040935
 20
93.99999883156125
 30
0.0
 40
0.9999999812562155
100
AcDbArc
 50
0.0
 51
90.0
  0
ARC
  5
6125
330
1E
100
AcDbEntity
  8
10
100
AcDbCircle
 10
40.9999972335936
 20
93.99999883156125
 30
0.0
 40
0.9999999812562155
100
AcDbArc
 50
90.0
 51
180.0
  0
ARC
  5
6126
330
1E
100
AcDbEntity
  8
10
100
AcDbCircle
 10
19.00000805441957
 20
93.99999883156125
 30
0.0
 40
0.9999999812562155
100
AcDbArc
 50
0.0
 51
90.0
  0
CIRCLE
  5
6127
330
1E
100
AcDbEntity
  8
10
100
AcDbCircle
 10
14.99999791017762
 20
90.00000079898383
 30
0.0
 40
2.250000028793264
  0
CIRCLE
  5
6128
330
1E
100
AcDbEntity
  8
10
100
AcDbCircle
 10
-14.99999641790052
 20
89.99999474315155
 30
0.0
 40
2.175250057989682
  0
ARC
  5
6129
330
1E
100
AcDbEntity
  8
10
100
AcDbCircle
 10
10.99999987759656
 20
93.99999883156125
 30
0.0
 40
0.9999999812562155
100
AcDbArc
 50
90.0
 51
180.0
  0
ARC
  5
612A
330
1E
100
AcDbEntity
  8
10
100
AcDbCircle
 10
-11.00000141323832
 20
93.99999883156125
 30
0.0
 40
0.9999999812562155
100
AcDbArc
 50
0.0
 51
90.0
  0
ARC
  5
612B
330
1E
100
AcDbEntity
  8
10
100
AcDbCircle
 10
-18.99999747839319
 20
93.99999883156125
 30
0.0
 40
0.9999999812562155
100
AcDbArc
 50
90.0
 51
180.0
  0
ARC
  5
612C
330
1E
100
AcDbEntity
  8
10
100
AcDbCircle
 10
-44.49999704773654
 20
84.49999744835805
 30
0.0
 40
0.499999990628108
100
AcDbArc
 50
90.0
 51
180.0
  0
CIRCLE
  5
612D
330
1E
100
AcDbEntity
  8
10
100
AcDbCircle
 10
60.0
 20
36.75
 30
0.0
 40
7.999999999999992
  0
CIRCLE
  5
612E
330
1E
100
AcDbEntity
  8
12
100
AcDbCircle
 10
15.0
 20
66.0
 30
0.0
 40
3.999999999999996
  0
ARC
  5
612F
330
1E
100
AcDbEntity
  8
10
100
AcDbCircle
 10
63.75
 20
66.0
 30
0.0
 40
4.999999999999995
100
AcDbArc
 50
270.0
 51
0.0
  0
ARC
  5
6130
330
1E
100
AcDbEntity
  8
10
100
AcDbCircle
 10
56.25
 20
66.0
 30
0.0
 40
4.999999999999995
100
AcDbArc
 50
180.0
 51
270.0
  0
CIRCLE
  5
6131
330
1E
100
AcDbEntity
  8
24
100
AcDbCircle
 10
60.0
 20
67.0
 30
0.0
 40
4.999999999999995
  0
ARC
  5
6133
330
1E
100
AcDbEntity
  8
10
100
AcDbCircle
 10
33.75
 20
66.0
 30
0.0
 40
4.999999999999995
100
AcDbArc
 50
270.0
 51
0.0
  0
ARC
  5
6134
330
1E
100
AcDbEntity
  8
10
100
AcDbCircle
 10
26.25
 20
66.0
 30
0.0
 40
4.999999999999995
100
AcDbArc
 50
180.0
 51
270.0
  0
CIRCLE
  5
6135
330
1E
100
AcDbEntity
  8
24
100
AcDbCircle
 10
30.0
 20
67.0
 30
0.0
 40
4.999999999999995
  0
ARC
  5
6136
330
1E
100
AcDbEntity
  8
10
100
AcDbCircle
 10
33.75
 20
66.0
 30
0.0
 40
4.999999999999995
210
0.0
220
0.0
230
-1.0
100
AcDbArc
 50
270.0
 51
0.0
  0
ARC
  5
6137
330
1E
100
AcDbEntity
  8
10
100
AcDbCircle
 10
26.25
 20
66.0
 30
0.0
 40
4.999999999999995
210
0.0
220
0.0
230
-1.0
100
AcDbArc
 50
180.0
 51
270.0
  0
ARC
  5
6138
330
1E
100
AcDbEntity
  8
10
100
AcDbCircle
 10
3.75
 20
66.0
 30
0.0
 40
4.999999999999995
100
AcDbArc
 50
270.0
 51
0.0
  0
ARC
  5
6139
330
1E
100
AcDbEntity
  8
10
100
AcDbCircle
 10
-3.75
 20
66.0
 30
0.0
 40
4.999999999999995
100
AcDbArc
 50
180.0
 51
270.0
  0
CIRCLE
  5
613A
330
1E
100
AcDbEntity
  8
24
100
AcDbCircle
 10
0.0
 20
67.0
 30
0.0
 40
4.999999999999995
  0
CIRCLE
  5
613B
330
1E
100
AcDbEntity
  8
24
100
AcDbCircle
 10
-30.0
 20
67.0
 30
0.0
 40
4.999999999999995
  0
CIRCLE
  5
6145
330
1E
100
AcDbEntity
  8
12
100
AcDbCircle
 10
-15.0
 20
66.0
 30
0.0
 40
3.999999999999996
  0
LINE
  5
6146
330
1E
100
AcDbEntity
  8
10
100
AcDbLine
 10
45.00000434991672
 20
93.24998726720423
 30
0.0
 11
45.00000434991672
 21
86.74998720961777
 31
0.0
  0
LINE
  5
6147
330
1E
100
AcDbEntity
  8
10
100
AcDbLine
 10
15.00001002183853
 20
93.25000082777659
 30
0.0
 11
15.00001002183853
 21
86.75000077019012
 31
0.0
  0
LINE
  5
6148
330
1E
100
AcDbEntity
  8
10
100
AcDbLine
 10
-14.99998430623963
 20
93.25001438834988
 30
0.0
 11
-14.99998430623963
 21
86.75001433076339
 31
0.0
  0
LINE
  5
614B
330
1E
100
AcDbEntity
  8
10
100
AcDbLine
 10
41.75000432112574
 20
89.99998723841057
 30
0.0
 11
48.25000437871493
 21
89.99998723841057
 31
0.0
  0
LINE
  5
614C
330
1E
100
AcDbEntity
  8
10
100
AcDbLine
 10
11.75000999304756
 20
90.00000079898383
 30
0.0
 11
18.25001005063676
 21
90.00000079898383
 31
0.0
  0
LINE
  5
614D
330
1E
100
AcDbEntity
  8
10
100
AcDbLine
 10
-18.2499843350306
 20
90.00001435955617
 30
0.0
 11
-11.74998427744138
 21
90.00001435955617
 31
0.0
  0
LINE
  5
6169
330
1E
100
AcDbEntity
  8
10
100
AcDbLine
 10
75.00000473383261
 20
79.49999990763626
 30
0.0
 11
75.00000473383261
 21
77.49999964725339
 31
0.0
  0
LINE
  5
616A
330
1E
100
AcDbEntity
  8
10
100
AcDbLine
 10
-41.74999537242547
 20
77.49999964725339
 30
0.0
 11
-41.74999537242547
 21
78.00000670125155
 31
0.0
  0
LINE
  5
616B
330
1E
100
AcDbEntity
  8
10
100
AcDbLine
 10
71.75000936027936
 20
81.61125666608951
 30
0.0
 11
71.75000936027936
 21
81.49999892392498
 31
0.0
  0
LINE
  5
616C
330
1E
100
AcDbEntity
  8
10
100
AcDbLine
 10
40.9999972335936
 20
95.00001045136924
 30
0.0
 11
49.00000541040935
 21
95.00001045136924
 31
0.0
  0
LINE
  5
616D
330
1E
100
AcDbEntity
  8
10
100
AcDbLine
 10
71.75000936027936
 20
80.00000571754027
 30
0.0
 11
74.50001103559043
 21
80.00000571754027
 31
0.0
  0
LINE
  5
616E
330
1E
100
AcDbEntity
  8
10
100
AcDbLine
 10
-44.99999680180915
 20
78.00000670125155
 30
0.0
 11
-41.74999537242547
 21
78.00000670125155
 31
0.0
  0
LINE
  5
616F
330
1E
100
AcDbEntity
  8
10
100
AcDbLine
 10
71.75000936027936
 20
81.95048014121949
 30
0.0
 11
71.75000936027936
 21
81.89091497945538
 31
0.0
  0
LINE
  5
6170
330
1E
100
AcDbEntity
  8
10
100
AcDbLine
 10
71.75000936027936
 20
81.71694304298126
 30
0.0
 11
71.75000936027936
 21
80.00000571754027
 31
0.0
  0
LINE
  5
6171
330
1E
100
AcDbEntity
  8
10
100
AcDbLine
 10
71.75000936027936
 20
81.81174103426384
 30
0.0
 11
71.75000936027936
 21
81.71694304298126
 31
0.0
  0
LINE
  5
6172
330
1E
100
AcDbEntity
  8
10
100
AcDbLine
 10
71.75000936027936
 20
84.49999744835805
 30
0.0
 11
71.75000936027936
 21
82.00000473382898
 31
0.0
  0
LINE
  5
6173
330
1E
100
AcDbEntity
  8
10
100
AcDbLine
 10
71.75000936027936
 20
81.89091497945538
 30
0.0
 11
71.75000936027936
 21
81.81174103426384
 31
0.0
  0
LINE
  5
6174
330
1E
100
AcDbEntity
  8
10
100
AcDbLine
 10
71.75000936027936
 20
82.00000473382898
 30
0.0
 11
71.75000936027936
 21
81.98746916196524
 31
0.0
  0
LINE
  5
6175
330
1E
100
AcDbEntity
  8
10
100
AcDbLine
 10
71.75000936027936
 20
81.98746916196524
 30
0.0
 11
71.75000936027936
 21
81.95048014121949
 31
0.0
  0
LINE
  5
6176
330
1E
100
AcDbEntity
  8
10
100
AcDbLine
 10
48.49999960050627
 20
86.20000266803526
 30
0.0
 11
48.49999960050627
 21
85.00000325826205
 31
0.0
  0
LINE
  5
6177
330
1E
100
AcDbEntity
  8
10
100
AcDbLine
 10
50.00000491855463
 20
93.99999883156125
 30
0.0
 11
50.00000491855463
 21
88.79808774635604
 31
0.0
  0
LINE
  5
6178
330
1E
100
AcDbEntity
  8
10
100
AcDbLine
 10
50.00000491855463
 20
88.79808774635604
 30
0.0
 11
48.49999960050627
 21
86.20000266803526
 31
0.0
  0
LINE
  5
6179
330
1E
100
AcDbEntity
  8
10
100
AcDbLine
 10
10.99999987759656
 20
95.00001045136924
 30
0.0
 11
19.00000805441957
 21
95.00001045136924
 31
0.0
  0
LINE
  5
617A
330
1E
100
AcDbEntity
  8
10
100
AcDbLine
 10
41.50000304349669
 20
85.00000325826205
 30
0.0
 11
18.50000224451648
 21
85.00000325826205
 31
0.0
  0
LINE
  5
617B
330
1E
100
AcDbEntity
  8
10
100
AcDbLine
 10
41.50000304349669
 20
86.20000266803526
 30
0.0
 11
39.99999772544834
 21
88.79808774635604
 31
0.0
  0
LINE
  5
617C
330
1E
100
AcDbEntity
  8
10
100
AcDbLine
 10
41.50000304349669
 20
85.00000325826205
 30
0.0
 11
41.50000304349669
 21
86.20000266803526
 31
0.0
  0
LINE
  5
617D
330
1E
100
AcDbEntity
  8
10
100
AcDbLine
 10
39.99999772544834
 20
88.79808774635604
 30
0.0
 11
39.99999772544834
 21
93.99999883156125
 31
0.0
  0
LINE
  5
617E
330
1E
100
AcDbEntity
  8
10
100
AcDbLine
 10
20.00000756256486
 20
93.99999883156125
 30
0.0
 11
20.00000756256486
 21
88.79808774635604
 31
0.0
  0
LINE
  5
617F
330
1E
100
AcDbEntity
  8
10
100
AcDbLine
 10
20.00000756256486
 20
88.79808774635604
 30
0.0
 11
18.50000224451648
 21
86.20000266803526
 31
0.0
  0
LINE
  5
6180
330
1E
100
AcDbEntity
  8
10
100
AcDbLine
 10
18.50000224451648
 20
86.20000266803526
 30
0.0
 11
18.50000224451648
 21
85.00000325826205
 31
0.0
  0
LINE
  5
6181
330
1E
100
AcDbEntity
  8
10
100
AcDbLine
 10
-18.99999747839319
 20
95.00001045136924
 30
0.0
 11
-11.00000141323832
 21
95.00001045136924
 31
0.0
  0
LINE
  5
6182
330
1E
100
AcDbEntity
  8
10
100
AcDbLine
 10
-11.4999951114805
 20
85.00000325826205
 30
0.0
 11
11.50000568750692
 21
85.00000325826205
 31
0.0
  0
LINE
  5
6183
330
1E
100
AcDbEntity
  8
10
100
AcDbLine
 10
10.00000036945857
 20
88.79808774635604
 30
0.0
 11
10.00000036945857
 21
93.99999883156125
 31
0.0
  0
LINE
  5
6184
330
1E
100
AcDbEntity
  8
10
100
AcDbLine
 10
11.50000568750692
 20
85.00000325826205
 30
0.0
 11
11.50000568750692
 21
86.20000266803526
 31
0.0
  0
LINE
  5
6185
330
1E
100
AcDbEntity
  8
10
100
AcDbLine
 10
11.50000568750692
 20
86.20000266803526
 30
0.0
 11
10.00000036945857
 21
88.79808774635604
 31
0.0
  0
LINE
  5
6186
330
1E
100
AcDbEntity
  8
10
100
AcDbLine
 10
-10.00000190509308
 20
93.99999883156125
 30
0.0
 11
-10.00000190509308
 21
88.79808774635604
 31
0.0
  0
LINE
  5
6187
330
1E
100
AcDbEntity
  8
10
100
AcDbLine
 10
-10.00000190509308
 20
88.79808774635604
 30
0.0
 11
-11.4999951114805
 21
86.20000266803526
 31
0.0
  0
LINE
  5
6188
330
1E
100
AcDbEntity
  8
10
100
AcDbLine
 10
-11.4999951114805
 20
86.20000266803526
 30
0.0
 11
-11.4999951114805
 21
85.00000325826205
 31
0.0
  0
LINE
  5
6189
330
1E
100
AcDbEntity
  8
10
100
AcDbLine
 10
-44.49999704773654
 20
85.00000325826205
 30
0.0
 11
-18.49999166849011
 21
85.00000325826205
 31
0.0
  0
LINE
  5
618A
330
1E
100
AcDbEntity
  8
10
100
AcDbLine
 10
-18.49999166849011
 20
86.20000266803526
 30
0.0
 11
-19.99999698653844
 21
88.79808774635604
 31
0.0
  0
LINE
  5
618B
330
1E
100
AcDbEntity
  8
10
100
AcDbLine
 10
-19.99999698653844
 20
88.79808774635604
 30
0.0
 11
-19.99999698653844
 21
93.99999883156125
 31
0.0
  0
LINE
  5
618C
330
1E
100
AcDbEntity
  8
10
100
AcDbLine
 10
-18.49999166849011
 20
85.00000325826205
 30
0.0
 11
-18.49999166849011
 21
86.20000266803526
 31
0.0
  0
LINE
  5
618D
330
1E
100
AcDbEntity
  8
10
100
AcDbLine
 10
-44.99999680180915
 20
84.49999744835805
 30
0.0
 11
-44.99999680180915
 21
78.00000670125155
 31
0.0
  0
LINE
  5
618E
330
1E
100
AcDbEntity
  8
10
100
AcDbLine
 10
57.63817617513996
 20
39.25213720581904
 30
0.0
 11
58.35620885842217
 21
39.97016988909672
 31
0.0
  0
LINE
  5
618F
330
1E
100
AcDbEntity
  8
10
100
AcDbLine
 10
57.78375698302989
 20
39.04416462311655
 30
0.0
 11
58.50178966631212
 21
39.76219730639514
 31
0.0
  0
LINE
  5
6190
330
1E
100
AcDbEntity
  8
10
100
AcDbLine
 10
57.92933779091981
 20
38.83619204041496
 30
0.0
 11
58.64737047420203
 21
39.55422472369352
 31
0.0
  0
LINE
  5
6191
330
1E
100
AcDbEntity
  8
10
100
AcDbLine
 10
58.07491859881702
 20
38.62821945771339
 30
0.0
 11
58.79295128209196
 21
39.34625214099105
 31
0.0
  0
LINE
  5
6192
330
1E
100
AcDbEntity
  8
10
100
AcDbLine
 10
62.5
 20
34.21446609406757
 30
0.0
 11
63.5
 21
35.21446609406757
 31
0.0
  0
LINE
  5
6193
330
1E
100
AcDbEntity
  8
10
100
AcDbLine
 10
62.5
 20
34.92157287525424
 30
0.0
 11
63.5
 21
35.92157287525424
 31
0.0
  0
LINE
  5
6194
330
1E
100
AcDbEntity
  8
10
100
AcDbLine
 10
62.5
 20
34.56801948466091
 30
0.0
 11
63.5
 21
35.56801948466091
 31
0.0
  0
LINE
  5
6195
330
1E
100
AcDbEntity
  8
10
100
AcDbLine
 10
62.5
 20
35.27512626584666
 30
0.0
 11
63.5
 21
36.27512626584756
 31
0.0
  0
LINE
  5
6196
330
1E
100
AcDbEntity
  8
10
100
AcDbLine
 10
62.5
 20
35.62867965644091
 30
0.0
 11
63.5
 21
36.62867965644
 31
0.0
  0
LINE
  5
6197
330
1E
100
AcDbEntity
  8
10
100
AcDbLine
 10
57.5
 20
39.44953174173316
 30
0.0
 11
62.88967221921485
 21
31.75
 31
0.0
  0
LINE
  5
6198
330
1E
100
AcDbEntity
  8
10
100
AcDbLine
 10
57.11032778078514
 20
41.74999999999999
 30
0.0
 11
62.5
 21
34.05046825826683
 31
0.0
  0
LINE
  5
6199
330
1E
100
AcDbEntity
  8
10
100
AcDbLine
 10
62.5
 20
34.05046825826683
 30
0.0
 11
62.5
 21
41.74999999999999
 31
0.0
  0
LINE
  5
619A
330
1E
100
AcDbEntity
  8
10
100
AcDbLine
 10
57.5
 20
39.44953174173316
 30
0.0
 11
57.5
 21
31.75
 31
0.0
  0
LINE
  5
619B
330
1E
100
AcDbEntity
  8
12
100
AcDbLine
 10
15.0
 20
71.5
 30
0.0
 11
15.0
 21
60.5
 31
0.0
  0
LINE
  5
619E
330
1E
100
AcDbEntity
  8
10
100
AcDbLine
 10
7.0
 20
15.23995644007664
 30
0.0
 11
-7.0
 21
15.23995644007664
 31
0.0
  0
LINE
  5
619F
330
1E
100
AcDbEntity
  8
10
100
AcDbLine
 10
7.0
 20
20.15486870581026
 30
0.0
 11
-7.0
 21
20.15486870581026
 31
0.0
  0
LINE
  5
61A0
330
1E
100
AcDbEntity
  8
10
100
AcDbLine
 10
58.22049940670694
 20
38.42024687501089
 30
0.0
 11
58.93853208998189
 21
39.13827955828947
 31
0.0
  0
LINE
  5
61A1
330
1E
100
AcDbEntity
  8
10
100
AcDbLine
 10
62.5
 20
41.63908729652574
 30
0.0
 11
62.61091270347242
 21
41.74999999999999
 31
0.0
  0
LINE
  5
61A2
330
1E
100
AcDbEntity
  8
10
100
AcDbLine
 10
62.5
 20
41.28553390593242
 30
0.0
 11
62.96446609406848
 21
41.74999999999999
 31
0.0
  0
LINE
  5
61A3
330
1E
100
AcDbEntity
  8
10
100
AcDbLine
 10
62.5
 20
40.93198051533909
 30
0.0
 11
63.31801948466455
 21
41.74999999999999
 31
0.0
  0
LINE
  5
61A4
330
1E
100
AcDbEntity
  8
10
100
AcDbLine
 10
62.5
 20
35.98223304703331
 30
0.0
 11
63.5
 21
36.98223304703331
 31
0.0
  0
LINE
  5
61A5
330
1E
100
AcDbEntity
  8
10
100
AcDbLine
 10
62.5
 20
36.33578643762666
 30
0.0
 11
63.5
 21
37.33578643762664
 31
0.0
  0
LINE
  5
61A6
330
1E
100
AcDbEntity
  8
10
100
AcDbLine
 10
62.5
 20
36.68933982822
 30
0.0
 11
63.5
 21
37.68933982822
 31
0.0
  0
LINE
  5
61A7
330
1E
100
AcDbEntity
  8
10
100
AcDbLine
 10
62.5
 20
37.04289321881331
 30
0.0
 11
63.5
 21
38.04289321881332
 31
0.0
  0
LINE
  5
61A8
330
1E
100
AcDbEntity
  8
10
100
AcDbLine
 10
62.5
 20
37.75
 30
0.0
 11
63.5
 21
38.75
 31
0.0
  0
LINE
  5
61A9
330
1E
100
AcDbEntity
  8
10
100
AcDbLine
 10
62.5
 20
37.39644660940665
 30
0.0
 11
63.5
 21
38.39644660940667
 31
0.0
  0
LINE
  5
61AA
330
1E
100
AcDbEntity
  8
10
100
AcDbLine
 10
62.5
 20
38.10355339059332
 30
0.0
 11
63.5
 21
39.10355339059332
 31
0.0
  0
LINE
  5
61AB
330
1E
100
AcDbEntity
  8
10
100
AcDbLine
 10
62.5
 20
38.45710678118667
 30
0.0
 11
63.5
 21
39.45710678118667
 31
0.0
  0
LINE
  5
61AC
330
1E
100
AcDbEntity
  8
10
100
AcDbLine
 10
62.5
 20
38.81066017178
 30
0.0
 11
63.5
 21
39.81066017178
 31
0.0
  0
LINE
  5
61AD
330
1E
100
AcDbEntity
  8
10
100
AcDbLine
 10
62.5
 20
39.16421356237332
 30
0.0
 11
63.5
 21
40.16421356237333
 31
0.0
  0
LINE
  5
61AE
330
1E
100
AcDbEntity
  8
10
100
AcDbLine
 10
62.5
 20
39.51776695296576
 30
0.0
 11
63.5
 21
40.51776695296576
 31
0.0
  0
LINE
  5
61AF
330
1E
100
AcDbEntity
  8
10
100
AcDbLine
 10
62.5
 20
39.87132034355909
 30
0.0
 11
63.5
 21
40.87132034355909
 31
0.0
  0
LINE
  5
61B0
330
1E
100
AcDbEntity
  8
10
100
AcDbLine
 10
62.5
 20
40.22487373415242
 30
0.0
 11
63.5
 21
41.22487373415242
 31
0.0
  0
LINE
  5
61B1
330
1E
100
AcDbEntity
  8
10
100
AcDbLine
 10
62.5
 20
40.57842712474576
 30
0.0
 11
63.5
 21
41.57842712474574
 31
0.0
  0
LINE
  5
61B2
330
1E
100
AcDbEntity
  8
10
100
AcDbLine
 10
61.42327718031446
 20
33.8448500555687
 30
0.0
 11
62.14130986359669
 21
34.56288273884728
 31
0.0
  0
LINE
  5
61B3
330
1E
100
AcDbEntity
  8
10
100
AcDbLine
 10
61.27769637242455
 20
34.05282263827121
 30
0.0
 11
61.99572905569947
 21
34.77085532154887
 31
0.0
  0
LINE
  5
61B4
330
1E
100
AcDbEntity
  8
10
100
AcDbLine
 10
61.13211556453459
 20
34.26079522097278
 30
0.0
 11
61.85014824780957
 21
34.97882790425137
 31
0.0
  0
LINE
  5
61B5
330
1E
100
AcDbEntity
  8
10
100
AcDbLine
 10
60.98653475664469
 20
34.46876780367438
 30
0.0
 11
61.70456743991961
 21
35.18680048695296
 31
0.0
  0
LINE
  5
61B6
330
1E
100
AcDbEntity
  8
10
100
AcDbLine
 10
60.84095394874747
 20
34.67674038637687
 30
0.0
 11
61.55898663202972
 21
35.39477306965546
 31
0.0
  0
LINE
  5
61B7
330
1E
100
AcDbEntity
  8
10
100
AcDbLine
 10
60.69537314085756
 20
34.88471296907845
 30
0.0
 11
61.41340582413977
 21
35.60274565235703
 31
0.0
  0
LINE
  5
61B8
330
1E
100
AcDbEntity
  8
10
100
AcDbLine
 10
60.5497923329676
 20
35.09268555178005
 30
0.0
 11
61.26782501624257
 21
35.81071823505863
 31
0.0
  0
LINE
  5
61B9
330
1E
100
AcDbEntity
  8
10
100
AcDbLine
 10
60.40421152507772
 20
35.30065813448254
 30
0.0
 11
61.12224420835264
 21
36.01869081776111
 31
0.0
  0
LINE
  5
61BA
330
1E
100
AcDbEntity
  8
10
100
AcDbLine
 10
60.25863071718777
 20
35.50863071718413
 30
0.0
 11
60.97666340046271
 21
36.22666340046271
 31
0.0
  0
LINE
  5
61BB
330
1E
100
AcDbEntity
  8
10
100
AcDbLine
 10
60.11304990929057
 20
35.71660329988572
 30
0.0
 11
60.83108259257278
 21
36.43463598316429
 31
0.0
  0
LINE
  5
61BC
330
1E
100
AcDbEntity
  8
10
100
AcDbLine
 10
59.96746910140064
 20
35.92457588258821
 30
0.0
 11
60.68550178468285
 21
36.64260856586678
 31
0.0
  0
LINE
  5
61BD
330
1E
100
AcDbEntity
  8
10
100
AcDbLine
 10
59.82188829351071
 20
36.1325484652898
 30
0.0
 11
60.53992097678565
 21
36.85058114856838
 31
0.0
  0
LINE
  5
61BE
330
1E
100
AcDbEntity
  8
10
100
AcDbLine
 10
59.67630748562078
 20
36.34052104799229
 30
0.0
 11
60.39434016889572
 21
37.05855373126996
 31
0.0
  0
LINE
  5
61BF
330
1E
100
AcDbEntity
  8
10
100
AcDbLine
 10
59.53072667773085
 20
36.54849363069388
 30
0.0
 11
60.24875936100579
 21
37.26652631397246
 31
0.0
  0
LINE
  5
61C0
330
1E
100
AcDbEntity
  8
10
100
AcDbLine
 10
59.38514586983365
 20
36.75646621339547
 30
0.0
 11
60.10317855311586
 21
37.47449889667405
 31
0.0
  0
LINE
  5
61C1
330
1E
100
AcDbEntity
  8
10
100
AcDbLine
 10
59.23956506194372
 20
36.96443879609796
 30
0.0
 11
59.95759774522593
 21
37.68247147937564
 31
0.0
  0
LINE
  5
61C2
330
1E
100
AcDbEntity
  8
10
100
AcDbLine
 10
59.09398425405379
 20
37.17241137879954
 30
0.0
 11
59.81201693733599
 21
37.89044406207813
 31
0.0
  0
LINE
  5
61C3
330
1E
100
AcDbEntity
  8
10
100
AcDbLine
 10
58.94840344616387
 20
37.38038396150114
 30
0.0
 11
59.6664361294388
 21
38.09841664477971
 31
0.0
  0
LINE
  5
61C4
330
1E
100
AcDbEntity
  8
10
100
AcDbLine
 10
58.80282263827393
 20
37.58835654420364
 30
0.0
 11
59.52085532154888
 21
38.30638922748129
 31
0.0
  0
LINE
  5
61C5
330
1E
100
AcDbEntity
  8
10
100
AcDbLine
 10
58.65724183037674
 20
37.79632912690522
 30
0.0
 11
59.37527451365895
 21
38.5143618101838
 31
0.0
  0
LINE
  5
61C6
330
1E
100
AcDbEntity
  8
10
100
AcDbLine
 10
58.36608021459689
 20
38.21227429230928
 30
0.0
 11
59.0841128978791
 21
38.93030697558788
 31
0.0
  0
LINE
  5
61C7
330
1E
100
AcDbEntity
  8
10
100
AcDbLine
 10
58.51166102248679
 20
38.00430170960679
 30
0.0
 11
59.22969370576902
 21
38.72233439288539
 31
0.0
  0
LINE
  5
61C8
330
1E
100
AcDbEntity
  8
10
100
AcDbLine
 10
63.21751442127425
 20
31.75
 30
0.0
 11
63.5
 21
32.03248557872849
 31
0.0
  0
LINE
  5
61C9
330
1E
100
AcDbEntity
  8
10
100
AcDbLine
 10
62.86396103067819
 20
31.75
 30
0.0
 11
63.5
 21
32.3860389693209
 31
0.0
  0
LINE
  5
61CA
330
1E
100
AcDbEntity
  8
10
100
AcDbLine
 10
62.73350445133837
 20
31.97309681125171
 30
0.0
 11
63.5
 21
32.73959235991515
 31
0.0
  0
LINE
  5
61CB
330
1E
100
AcDbEntity
  8
10
100
AcDbLine
 10
62.58792364344845
 20
32.18106939395328
 30
0.0
 11
63.5
 21
33.09314575050755
 31
0.0
  0
LINE
  5
61CC
330
1E
100
AcDbEntity
  8
10
100
AcDbLine
 10
62.44234283555124
 20
32.38904197665579
 30
0.0
 11
63.5
 21
33.4466991411009
 31
0.0
  0
LINE
  5
61CD
330
1E
100
AcDbEntity
  8
10
100
AcDbLine
 10
62.29676202766132
 20
32.59701455935736
 30
0.0
 11
63.5
 21
33.80025253169424
 31
0.0
  0
LINE
  5
61CE
330
1E
100
AcDbEntity
  8
10
100
AcDbLine
 10
62.15118121977138
 20
32.80498714205896
 30
0.0
 11
63.5
 21
34.15380592228757
 31
0.0
  0
LINE
  5
61CF
330
1E
100
AcDbEntity
  8
10
100
AcDbLine
 10
62.00560041188146
 20
33.01295972476145
 30
0.0
 11
63.5
 21
34.5073593128809
 31
0.0
  0
LINE
  5
61D0
330
1E
100
AcDbEntity
  8
10
100
AcDbLine
 10
61.86001960399153
 20
33.22093230746304
 30
0.0
 11
63.5
 21
34.86091270347424
 31
0.0
  0
LINE
  5
61D1
330
1E
100
AcDbEntity
  8
10
100
AcDbLine
 10
61.71443879610158
 20
33.42890489016554
 30
0.0
 11
62.43247147937655
 21
34.14693757344321
 31
0.0
  0
LINE
  5
61D2
330
1E
100
AcDbEntity
  8
10
100
AcDbLine
 10
61.56885798820439
 20
33.63687747286713
 30
0.0
 11
62.2868906714866
 21
34.35491015614569
 31
0.0
  0
LINE
  5
61D3
330
1E
100
AcDbEntity
  8
10
100
AcDbLine
 10
57.20710678118486
 20
31.75
 30
0.0
 11
57.5
 21
32.04289321881331
 31
0.0
  0
LINE
  5
61D4
330
1E
100
AcDbEntity
  8
10
100
AcDbLine
 10
56.85355339059608
 20
31.75
 30
0.0
 11
57.5
 21
32.39644660940665
 31
0.0
  0
LINE
  5
61D5
330
1E
100
AcDbEntity
  8
10
100
AcDbLine
 10
56.5
 20
41.64949493661061
 30
0.0
 11
56.60050506339029
 21
41.74999999999999
 31
0.0
  0
LINE
  5
61D6
330
1E
100
AcDbEntity
  8
10
100
AcDbLine
 10
56.5
 20
41.29594154601727
 30
0.0
 11
56.95405845398635
 21
41.74999999999999
 31
0.0
  0
LINE
  5
61D7
330
1E
100
AcDbEntity
  8
10
100
AcDbLine
 10
56.5
 20
40.94238815542392
 30
0.0
 11
57.1915623952882
 21
41.63395055071214
 31
0.0
  0
LINE
  5
61D8
330
1E
100
AcDbEntity
  8
10
100
AcDbLine
 10
56.5
 20
40.58883476483152
 30
0.0
 11
57.33714320317813
 21
41.42597796801054
 31
0.0
  0
LINE
  5
61D9
330
1E
100
AcDbEntity
  8
10
100
AcDbLine
 10
56.5
 20
40.23528137423818
 30
0.0
 11
57.48272401106806
 21
41.21800538530896
 31
0.0
  0
LINE
  5
61DA
330
1E
100
AcDbEntity
  8
10
100
AcDbLine
 10
56.5
 20
39.88172798364485
 30
0.0
 11
57.62830481896525
 21
41.01003280260647
 31
0.0
  0
LINE
  5
61DB
330
1E
100
AcDbEntity
  8
10
100
AcDbLine
 10
56.5
 20
39.52817459305151
 30
0.0
 11
57.77388562685519
 21
40.80206021990488
 31
0.0
  0
LINE
  5
61DC
330
1E
100
AcDbEntity
  8
10
100
AcDbLine
 10
56.5
 20
39.17462120245819
 30
0.0
 11
57.91946643474512
 21
40.59408763720239
 31
0.0
  0
LINE
  5
61DD
330
1E
100
AcDbEntity
  8
10
100
AcDbLine
 10
56.5
 20
38.82106781186485
 30
0.0
 11
58.06504724263504
 21
40.3861150545008
 31
0.0
  0
LINE
  5
61DE
330
1E
100
AcDbEntity
  8
10
100
AcDbLine
 10
56.5
 20
38.46751442127152
 30
0.0
 11
58.21062805052497
 21
40.17814247179922
 31
0.0
  0
LINE
  5
61DF
330
1E
100
AcDbEntity
  8
10
100
AcDbLine
 10
56.5
 20
38.11396103067819
 30
0.0
 11
57.5
 21
39.11396103067819
 31
0.0
  0
LINE
  5
61E0
330
1E
100
AcDbEntity
  8
10
100
AcDbLine
 10
56.5
 20
37.76040764008484
 30
0.0
 11
57.5
 21
38.76040764008484
 31
0.0
  0
LINE
  5
61E1
330
1E
100
AcDbEntity
  8
10
100
AcDbLine
 10
56.5
 20
37.40685424949151
 30
0.0
 11
57.5
 21
38.4068542494915
 31
0.0
  0
LINE
  5
61E2
330
1E
100
AcDbEntity
  8
10
100
AcDbLine
 10
56.5
 20
37.05330085889909
 30
0.0
 11
57.5
 21
38.05330085889819
 31
0.0
  0
LINE
  5
61E3
330
1E
100
AcDbEntity
  8
10
100
AcDbLine
 10
56.5
 20
36.69974746830575
 30
0.0
 11
57.5
 21
37.69974746830575
 31
0.0
  0
LINE
  5
61E4
330
1E
100
AcDbEntity
  8
10
100
AcDbLine
 10
56.5
 20
36.34619407771239
 30
0.0
 11
57.5
 21
37.34619407771242
 31
0.0
  0
LINE
  5
61E5
330
1E
100
AcDbEntity
  8
10
100
AcDbLine
 10
56.5
 20
35.99264068711909
 30
0.0
 11
57.5
 21
36.99264068711909
 31
0.0
  0
LINE
  5
61E6
330
1E
100
AcDbEntity
  8
10
100
AcDbLine
 10
56.5
 20
35.63908729652576
 30
0.0
 11
57.5
 21
36.63908729652575
 31
0.0
  0
LINE
  5
61E7
330
1E
100
AcDbEntity
  8
10
100
AcDbLine
 10
56.5
 20
35.28553390593243
 30
0.0
 11
57.5
 21
36.28553390593243
 31
0.0
  0
LINE
  5
61E8
330
1E
100
AcDbEntity
  8
10
100
AcDbLine
 10
56.5
 20
34.93198051533909
 30
0.0
 11
57.5
 21
35.93198051533909
 31
0.0
  0
LINE
  5
61E9
330
1E
100
AcDbEntity
  8
10
100
AcDbLine
 10
56.5
 20
34.57842712474576
 30
0.0
 11
57.5
 21
35.57842712474576
 31
0.0
  0
LINE
  5
61EA
330
1E
100
AcDbEntity
  8
10
100
AcDbLine
 10
56.5
 20
34.22487373415243
 30
0.0
 11
57.5
 21
35.22487373415243
 31
0.0
  0
LINE
  5
61EB
330
1E
100
AcDbEntity
  8
10
100
AcDbLine
 10
56.5
 20
33.87132034355909
 30
0.0
 11
57.5
 21
34.87132034355909
 31
0.0
  0
LINE
  5
61EC
330
1E
100
AcDbEntity
  8
10
100
AcDbLine
 10
56.5
 20
33.51776695296575
 30
0.0
 11
57.5
 21
34.51776695296576
 31
0.0
  0
LINE
  5
61ED
330
1E
100
AcDbEntity
  8
10
100
AcDbLine
 10
56.5
 20
33.16421356237242
 30
0.0
 11
57.5
 21
34.16421356237242
 31
0.0
  0
LINE
  5
61EE
330
1E
100
AcDbEntity
  8
10
100
AcDbLine
 10
56.5
 20
32.81066017178
 30
0.0
 11
57.5
 21
33.81066017178
 31
0.0
  0
LINE
  5
61EF
330
1E
100
AcDbEntity
  8
10
100
AcDbLine
 10
56.5
 20
32.45710678118665
 30
0.0
 11
57.5
 21
33.45710678118666
 31
0.0
  0
LINE
  5
61F0
330
1E
100
AcDbEntity
  8
10
100
AcDbLine
 10
56.5
 20
32.10355339059332
 30
0.0
 11
57.5
 21
33.10355339059332
 31
0.0
  0
LINE
  5
61F1
330
1E
100
AcDbEntity
  8
10
100
AcDbLine
 10
56.5
 20
31.75
 30
0.0
 11
57.5
 21
32.75
 31
0.0
  0
LINE
  5
61F2
330
1E
100
AcDbEntity
  8
10
100
AcDbLine
 10
62.5
 20
41.74999999999999
 30
0.0
 11
63.5
 21
41.74999999999999
 31
0.0
  0
LINE
  5
61F3
330
1E
100
AcDbEntity
  8
10
100
AcDbLine
 10
56.5
 20
41.74999999999999
 30
0.0
 11
57.11032778078514
 21
41.74999999999999
 31
0.0
  0
LINE
  5
61F4
330
1E
100
AcDbEntity
  8
10
100
AcDbLine
 10
63.5
 20
31.75
 30
0.0
 11
63.5
 21
41.74999999999999
 31
0.0
  0
LINE
  5
61F5
330
1E
100
AcDbEntity
  8
10
100
AcDbLine
 10
63.5
 20
31.75
 30
0.0
 11
62.88967221921485
 21
31.75
 31
0.0
  0
LINE
  5
61F6
330
1E
100
AcDbEntity
  8
10
100
AcDbLine
 10
56.5
 20
31.75
 30
0.0
 11
57.5
 21
31.75
 31
0.0
  0
LINE
  5
61F7
330
1E
100
AcDbEntity
  8
10
100
AcDbLine
 10
56.5
 20
31.75
 30
0.0
 11
56.5
 21
41.74999999999999
 31
0.0
  0
LINE
  5
61F8
330
1E
100
AcDbEntity
  8
12
100
AcDbLine
 10
9.5
 20
66.0
 30
0.0
 11
20.5
 21
66.0
 31
0.0
  0
LINE
  5
61F9
330
1E
100
AcDbEntity
  8
12
100
AcDbLine
 10
-15.0
 20
60.5
 30
0.0
 11
-15.0
 21
71.5
 31
0.0
  0
LINE
  5
61FA
330
1E
100
AcDbEntity
  8
12
100
AcDbLine
 10
-20.5
 20
66.0
 30
0.0
 11
-9.5
 21
66.0
 31
0.0
  0
LINE
  5
61FB
330
1E
100
AcDbEntity
  8
10
100
AcDbLine
 10
68.75
 20
66.0
 30
0.0
 11
68.75
 21
77.5
 31
0.0
  0
LINE
  5
61FC
330
1E
100
AcDbEntity
  8
10
100
AcDbLine
 10
51.25
 20
66.0
 30
0.0
 11
51.25
 21
77.5
 31
0.0
  0
LINE
  5
61FD
330
1E
100
AcDbEntity
  8
10
100
AcDbLine
 10
63.75
 20
61.0
 30
0.0
 11
56.25
 21
61.0
 31
0.0
  0
LINE
  5
61FE
330
1E
100
AcDbEntity
  8
17
100
AcDbLine
 10
53.0
 20
67.0
 30
0.0
 11
67.0
 21
67.0
 31
0.0
  0
LINE
  5
61FF
330
1E
100
AcDbEntity
  8
17
100
AcDbLine
 10
60.0
 20
74.0
 30
0.0
 11
60.0
 21
60.0
 31
0.0
  0
LINE
  5
6202
330
1E
100
AcDbEntity
  8
10
100
AcDbLine
 10
-45.0
 20
51.0
 30
0.0
 11
75.0
 21
51.0
 31
0.0
  0
LINE
  5
6203
330
1E
100
AcDbEntity
  8
10
100
AcDbLine
 10
38.75
 20
66.0
 30
0.0
 11
38.75
 21
77.5
 31
0.0
  0
LINE
  5
6204
330
1E
100
AcDbEntity
  8
10
100
AcDbLine
 10
21.25
 20
66.0
 30
0.0
 11
21.25
 21
77.5
 31
0.0
  0
LINE
  5
6205
330
1E
100
AcDbEntity
  8
10
100
AcDbLine
 10
33.75
 20
61.0
 30
0.0
 11
26.25
 21
61.0
 31
0.0
  0
LINE
  5
6206
330
1E
100
AcDbEntity
  8
17
100
AcDbLine
 10
23.0
 20
67.0
 30
0.0
 11
37.0
 21
67.0
 31
0.0
  0
LINE
  5
6207
330
1E
100
AcDbEntity
  8
17
100
AcDbLine
 10
30.0
 20
74.0
 30
0.0
 11
30.0
 21
60.0
 31
0.0
  0
LINE
  5
6208
330
1E
100
AcDbEntity
  8
10
100
AcDbLine
 10
-38.75
 20
66.0
 30
0.0
 11
-38.75
 21
77.5
 31
0.0
  0
LINE
  5
6209
330
1E
100
AcDbEntity
  8
10
100
AcDbLine
 10
-33.75
 20
61.0
 30
0.0
 11
-26.25
 21
61.0
 31
0.0
  0
LINE
  5
620A
330
1E
100
AcDbEntity
  8
10
100
AcDbLine
 10
-21.25
 20
66.0
 30
0.0
 11
-21.25
 21
77.5
 31
0.0
  0
LINE
  5
620B
330
1E
100
AcDbEntity
  8
17
100
AcDbLine
 10
-30.0
 20
74.0
 30
0.0
 11
-30.0
 21
60.0
 31
0.0
  0
LINE
  5
620C
330
1E
100
AcDbEntity
  8
17
100
AcDbLine
 10
-23.0
 20
67.0
 30
0.0
 11
-37.0
 21
67.0
 31
0.0
  0
LINE
  5
620D
330
1E
100
AcDbEntity
  8
10
100
AcDbLine
 10
8.75
 20
66.0
 30
0.0
 11
8.75
 21
77.5
 31
0.0
  0
LINE
  5
620E
330
1E
100
AcDbEntity
  8
10
100
AcDbLine
 10
-8.75
 20
66.0
 30
0.0
 11
-8.75
 21
77.5
 31
0.0
  0
LINE
  5
620F
330
1E
100
AcDbEntity
  8
10
100
AcDbLine
 10
3.75
 20
61.0
 30
0.0
 11
-3.75
 21
61.0
 31
0.0
  0
LINE
  5
6210
330
1E
100
AcDbEntity
  8
17
100
AcDbLine
 10
-7.0
 20
67.0
 30
0.0
 11
7.0
 21
67.0
 31
0.0
  0
LINE
  5
6221
330
1E
100
AcDbEntity
  8
10
100
AcDbLine
 10
71.24999143870809
 20
85.00000325826205
 30
0.0
 11
48.49999960050627
 21
85.00000325826205
 31
0.0
  0
LINE
  5
6222
330
1E
100
AcDbEntity
  8
10
100
AcDbLine
 10
-42.0
 20
25.0
 30
0.0
 11
42.0
 21
25.0
 31
0.0
  0
LINE
  5
6224
330
1E
100
AcDbEntity
  8
10
100
AcDbLine
 10
75.0
 20
77.5
 30
0.0
 11
-45.0
 21
77.5
 31
0.0
  0
DIMENSION
  5
65A0
330
1E
100
AcDbEntity
  8
30
100
AcDbDimension
280
     0
  2
*D6
 10
337.9999994458191
 20
-110.0
 30
0.0
 11
324.5000000300386
 21
-107.0
 31
0.0
 70
    32
 71
     5
 42
-1.0
 73
     0
 74
     0
 75
     0
  3
STANDARD
100
AcDbAlignedDimension
 13
311.000000614258
 23
-53.9999859042091
 33
0.0
 14
337.9999994458191
 24
-77.99998621133726
 34
0.0
 50
180.0
100
AcDbRotatedDimension
  0
DIMENSION
  5
65A1
330
1E
100
AcDbEntity
  8
30
100
AcDbDimension
280
     0
  2
*D7
 10
263.000000000007
 20
-100.0
 30
0.0
 11
232.5000000000073
 21
-97.0
 31
0.0
 70
    32
 71
     5
 42
-1.0
 73
     0
 74
     0
 75
     0
  3
STANDARD
100
AcDbAlignedDimension
 13
202.0000000000071
 23
-77.5
 33
0.0
 14
263.000000000007
 24
-82.49999005381868
 34
0.0
 50
180.0
100
AcDbRotatedDimension
  0
DIMENSION
  5
65A2
330
1E
100
AcDbEntity
  8
30
100
AcDbDimension
280
     0
  2
*D8
 10
311.000000614258
 20
-130.0
 30
0.0
 11
241.0000003071326
 21
-127.0
 31
0.0
 70
    32
 71
     5
 42
-1.0
 73
     0
 74
     0
 75
     0
  3
STANDARD
100
AcDbAlignedDimension
 13
171.0000000000071
 23
-2.500000016500048
 33
0.0
 14
311.000000614258
 24
-53.9999859042091
 34
0.0
 50
180.0
100
AcDbRotatedDimension
  0
DIMENSION
  5
65A3
330
1E
100
AcDbEntity
  8
30
100
AcDbDimension
280
     0
  2
*D9
 10
311.000000614258
 20
-120.0
 30
0.0
 11
251.0000003071326
 21
-117.0
 31
0.0
 70
    32
 71
     5
 42
-1.0
 73
     0
 74
     0
 75
     0
  3
STANDARD
100
AcDbAlignedDimension
 13
191.0000000000071
 23
-25.0
 33
0.0
 14
311.000000614258
 24
-53.9999859042091
 34
0.0
 50
180.0
100
AcDbRotatedDimension
  0
DIMENSION
  5
65A4
330
1E
100
AcDbEntity
  8
30
100
AcDbDimension
280
     0
  2
*D10
 10
311.000000614258
 20
-110.0
 30
0.0
 11
253.0000003071326
 21
-107.0
 31
0.0
 70
    32
 71
     5
 42
-1.0
 73
     0
 74
     0
 75
     0
  3
STANDARD
100
AcDbAlignedDimension
 13
195.0000000000071
 23
-51.0
 33
0.0
 14
311.000000614258
 24
-53.9999859042091
 34
0.0
 50
180.0
100
AcDbRotatedDimension
  0
DIMENSION
  5
65A5
330
1E
100
AcDbEntity
  8
30
100
AcDbDimension
280
     0
  2
*D11
 10
191.0000000000071
 20
-120.0
 30
0.0
 11
197.3333333333406
 21
-117.0
 31
0.0
 70
    32
 71
     5
 42
-1.0
 73
     0
 74
     0
 75
     0
  3
STANDARD
100
AcDbAlignedDimension
 13
187.0000000000071
 23
-25.0
 33
0.0
 14
191.0000000000071
 24
-25.0
 34
0.0
 50
180.0
100
AcDbRotatedDimension
  0
LINE
  5
65A7
330
1E
100
AcDbEntity
  8
10
100
AcDbLine
 10
291.9999978478518
 20
-86.46794062441404
 30
0.0
 11
291.9999978478518
 21
-84.99998276834777
 31
0.0
  0
LINE
  5
65A8
330
1E
100
AcDbEntity
  8
10
100
AcDbLine
 10
292.0101716453063
 20
-86.42980099562283
 30
0.0
 11
292.040499251052
 21
-86.39244862496797
 31
0.0
  0
LINE
  5
65A9
330
1E
100
AcDbEntity
  8
10
100
AcDbLine
 10
301.9999929292972
 20
-86.19998217812097
 30
0.0
 11
301.9999929292972
 21
-88.79806725644177
 31
0.0
  0
ARC
  5
65AA
330
1E
100
AcDbEntity
  8
10
100
AcDbCircle
 10
293.0000094676578
 20
-93.99999045331059
 30
0.0
 40
0.9999999812562155
100
AcDbArc
 50
180.0
 51
270.0
  0
LINE
  5
65AB
330
1E
100
AcDbEntity
  8
10
100
AcDbLine
 10
291.9999978478518
 20
-86.46794062441404
 30
0.0
 11
292.0101716453063
 21
-86.42980099562283
 31
0.0
  0
LINE
  5
65AC
330
1E
100
AcDbEntity
  8
10
100
AcDbLine
 10
291.9999978478518
 20
-89.06601359107117
 30
0.0
 11
292.0101716453063
 21
-89.02787396227996
 31
0.0
  0
LINE
  5
65AD
330
1E
100
AcDbEntity
  8
10
100
AcDbLine
 10
292.4593690262554
 20
-88.84060341913302
 30
0.0
 11
292.584579404931
 21
-88.82227847205106
 31
0.0
  0
LINE
  5
65AE
330
1E
100
AcDbEntity
  8
10
100
AcDbLine
 10
292.0101716453063
 20
-89.02787396227996
 30
0.0
 11
292.040499251052
 21
-88.99052159162513
 31
0.0
  0
LINE
  5
65AF
330
1E
100
AcDbEntity
  8
10
100
AcDbLine
 10
301.9999929292972
 20
-94.54063089471492
 30
0.0
 11
301.9999929292972
 21
-94.65484388280676
 31
0.0
  0
LINE
  5
65B0
330
1E
100
AcDbEntity
  8
10
100
AcDbLine
 10
301.9999929292972
 20
-94.14230250103901
 30
0.0
 11
301.9999929292972
 21
-94.28171986115831
 31
0.0
  0
LINE
  5
65B1
330
1E
100
AcDbEntity
  8
10
100
AcDbLine
 10
292.8576731966021
 20
-88.80079238075994
 30
0.0
 11
293.0000094676578
 21
-88.79806725644177
 31
0.0
  0
LINE
  5
65B2
330
1E
100
AcDbEntity
  8
10
100
AcDbLine
 10
292.040499251052
 20
-88.99052159162513
 30
0.0
 11
292.090375081905
 21
-88.9547074022521
 31
0.0
  0
LINE
  5
65B3
330
1E
100
AcDbEntity
  8
10
100
AcDbLine
 10
301.9999929292972
 20
-94.84124238617187
 30
0.0
 11
301.9999929292972
 21
-94.90962483906333
 31
0.0
  0
LINE
  5
65B4
330
1E
100
AcDbEntity
  8
10
100
AcDbLine
 10
292.584579404931
 20
-88.82227847205106
 30
0.0
 11
292.7182679481483
 21
-88.80891930706004
 31
0.0
  0
LINE
  5
65B5
330
1E
100
AcDbEntity
  8
10
100
AcDbLine
 10
301.9999929292972
 20
-93.99999045331059
 30
0.0
 11
301.9999929292972
 21
-94.14230250103901
 31
0.0
  0
LINE
  5
65B6
330
1E
100
AcDbEntity
  8
10
100
AcDbLine
 10
291.9999978478518
 20
-93.99999045331059
 30
0.0
 11
291.9999978478518
 21
-89.06601359107117
 31
0.0
  0
LINE
  5
65B7
330
1E
100
AcDbEntity
  8
10
100
AcDbLine
 10
301.9999929292972
 20
-94.959476446591
 30
0.0
 11
301.9999929292972
 21
-94.98980405233671
 31
0.0
  0
LINE
  5
65B8
330
1E
100
AcDbEntity
  8
10
100
AcDbLine
 10
292.1587333114728
 20
-88.92114598231547
 30
0.0
 11
292.2442416567428
 21
-88.8905398083061
 31
0.0
  0
LINE
  5
65B9
330
1E
100
AcDbEntity
  8
10
100
AcDbLine
 10
301.9999929292972
 20
-94.65484388280676
 30
0.0
 11
301.9999929292972
 21
-94.75573404089846
 31
0.0
  0
LINE
  5
65BA
330
1E
100
AcDbEntity
  8
10
100
AcDbLine
 10
301.9999929292972
 20
-94.99998996145494
 30
0.0
 11
293.0000094676578
 21
-94.99998996145494
 31
0.0
  0
LINE
  5
65BB
330
1E
100
AcDbEntity
  8
10
100
AcDbLine
 10
301.9999929292972
 20
-94.28171986115831
 30
0.0
 11
301.9999929292972
 21
-94.41539629271392
 31
0.0
  0
LINE
  5
65BC
330
1E
100
AcDbEntity
  8
10
100
AcDbLine
 10
292.7182679481483
 20
-88.80891930706004
 30
0.0
 11
292.8576731966021
 21
-88.80079238075994
 31
0.0
  0
LINE
  5
65BD
330
1E
100
AcDbEntity
  8
10
100
AcDbLine
 10
292.2442416567428
 20
-88.8905398083061
 30
0.0
 11
292.3451318148361
 21
-88.86350657506952
 31
0.0
  0
LINE
  5
65BE
330
1E
100
AcDbEntity
  8
10
100
AcDbLine
 10
301.9999929292972
 20
-94.90962483906333
 30
0.0
 11
301.9999929292972
 21
-94.959476446591
 31
0.0
  0
LINE
  5
65BF
330
1E
100
AcDbEntity
  8
10
100
AcDbLine
 10
301.9999929292972
 20
-94.75573404089846
 30
0.0
 11
301.9999929292972
 21
-94.84124238617187
 31
0.0
  0
LINE
  5
65C0
330
1E
100
AcDbEntity
  8
10
100
AcDbLine
 10
292.090375081905
 20
-88.9547074022521
 30
0.0
 11
292.1587333114728
 21
-88.92114598231547
 31
0.0
  0
LINE
  5
65C1
330
1E
100
AcDbEntity
  8
10
100
AcDbLine
 10
301.9999929292972
 20
-88.79806725644177
 30
0.0
 11
293.0000094676578
 21
-88.79806725644177
 31
0.0
  0
LINE
  5
65C2
330
1E
100
AcDbEntity
  8
10
100
AcDbLine
 10
292.3451318148361
 20
-88.86350657506952
 30
0.0
 11
292.4593690262554
 21
-88.84060341913302
 31
0.0
  0
LINE
  5
65C3
330
1E
100
AcDbEntity
  8
10
100
AcDbLine
 10
291.9999978478518
 20
-89.06601359107117
 30
0.0
 11
291.9999978478518
 21
-86.46794062441404
 31
0.0
  0
LINE
  5
65C4
330
1E
100
AcDbEntity
  8
10
100
AcDbLine
 10
301.9999929292972
 20
-93.99999045331059
 30
0.0
 11
301.9999929292972
 21
-88.79806725644177
 31
0.0
  0
LINE
  5
65C5
330
1E
100
AcDbEntity
  8
10
100
AcDbLine
 10
301.9999929292972
 20
-94.98980405233671
 30
0.0
 11
301.9999929292972
 21
-94.99998996145494
 31
0.0
  0
LINE
  5
65C6
330
1E
100
AcDbEntity
  8
10
100
AcDbLine
 10
301.9999929292972
 20
-94.41539629271392
 30
0.0
 11
301.9999929292972
 21
-94.54063089471492
 31
0.0
  0
DIMENSION
  5
65C7
330
1E
100
AcDbEntity
  8
30
100
AcDbDimension
280
     0
  2
*D12
 10
139.5867219386127
 20
-50.99999999999997
 30
0.0
 11
136.5867219386124
 21
0.0000000000000345
 31
0.0
 70
    32
 71
     5
 42
-1.0
 73
     0
 74
     0
 75
     0
  3
STANDARD
100
AcDbAlignedDimension
 13
195.0000000000071
 23
51.0
 33
0.0
 14
195.0000000000071
 24
-51.0
 34
0.0
 50
90.0
100
AcDbRotatedDimension
  0
DIMENSION
  5
65C8
330
1E
100
AcDbEntity
  8
30
100
AcDbDimension
280
     0
  2
*D13
 10
152.0867219386127
 20
25.00000000000001
 30
0.0
 11
149.0867219386124
 21
0.0000000000000372
 31
0.0
 70
    32
 71
     5
 42
-1.0
 73
     0
 74
     0
 75
     0
  3
STANDARD
100
AcDbAlignedDimension
 13
187.0000000000071
 23
-25.0
 33
0.0
 14
187.0000000000071
 24
25.0
 34
0.0
 50
90.0
100
AcDbRotatedDimension
  0
DIMENSION
  5
65CC
330
1E
100
AcDbEntity
  8
30
100
AcDbDimension
280
     0
  2
*D14
 10
358.3367219386127
 20
80.00002085711637
 30
0.0
 11
355.3367219386127
 21
0.0000178147452556
 31
0.0
 70
    32
 71
     5
 42
-1.0
 73
     0
 74
     0
 75
     0
  3
STANDARD
100
AcDbAlignedDimension
 13
337.5000057475844
 23
-79.99998522762599
 33
0.0
 14
337.5000057475844
 24
80.0000208571164
 34
0.0
 50
270.0
100
AcDbRotatedDimension
  0
DIMENSION
  5
65CD
330
1E
100
AcDbEntity
  8
30
100
AcDbDimension
280
     0
  2
*D15
 10
345.8367219386127
 20
54.00000942203586
 30
0.0
 11
342.8367219386127
 21
0.0000117589134452
 31
0.0
 70
    32
 71
     5
 42
-1.0
 73
     0
 74
     0
 75
     0
  3
STANDARD
100
AcDbAlignedDimension
 13
337.5000057475844
 23
-53.9999859042091
 33
0.0
 14
337.5000057475844
 24
54.00000942203586
 34
0.0
 50
270.0
100
AcDbRotatedDimension
  0
ARC
  5
65CE
330
1E
100
AcDbEntity
  8
0
100
AcDbCircle
 10
202.0000000000071
 20
-3.500000016500056
 30
0.0
 40
30.99999999999996
100
AcDbArc
 50
150.5534441957493
 51
180.0
  0
LINE
  5
65CF
330
1E
100
AcDbEntity
  8
18
100
AcDbLine
 10
313.5000006142581
 20
49.00000570308474
 30
0.0
 11
313.5000006142581
 21
-48.99999429691526
 31
0.0
  0
LINE
  5
65D0
330
1E
100
AcDbEntity
  8
10
100
AcDbLine
 10
187.0
 20
6.840789306860642
 30
0.0
 11
175.0047462004076
 21
15.23995644007664
 31
0.0
  0
LINE
  5
65D1
330
1E
100
AcDbEntity
  8
10
100
AcDbLine
 10
263.0
 20
77.5
 30
0.0
 11
263.0
 21
-77.5
 31
0.0
  0
LINE
  5
65D2
330
1E
100
AcDbEntity
  8
10
100
AcDbLine
 10
291.5000041496096
 20
-45.49999614081388
 30
0.0
 11
291.5000041496096
 21
45.50001965864065
 31
0.0
  0
LINE
  5
65D3
330
1E
100
AcDbEntity
  8
10
100
AcDbLine
 10
291.0000104513747
 20
45.76386013929732
 30
0.0
 11
291.0000104513747
 21
-45.76383662147054
 31
0.0
  0
LINE
  5
65D4
330
1E
100
AcDbEntity
  8
10
100
AcDbLine
 10
263.0
 20
-9.999983322530168
 30
0.0
 11
263.0
 21
82.49999005381868
 31
0.0
  0
LINE
  5
65D5
330
1E
100
AcDbEntity
  8
10
100
AcDbLine
 10
311.000000614258
 20
54.00000942203586
 30
0.0
 11
311.000000614258
 21
-53.9999859042091
 31
0.0
  0
LINE
  5
65D6
330
1E
100
AcDbEntity
  8
10
100
AcDbLine
 10
191.0
 20
25.0
 30
0.0
 11
191.0
 21
-25.0
 31
0.0
  0
LINE
  5
65D7
330
1E
100
AcDbEntity
  8
10
100
AcDbLine
 10
187.0
 20
25.0
 30
0.0
 11
187.0
 21
-25.0
 31
0.0
  0
LINE
  5
65D8
330
1E
100
AcDbEntity
  8
10
100
AcDbLine
 10
195.0
 20
51.0
 30
0.0
 11
195.0
 21
-51.0
 31
0.0
  0
ARC
  5
65D9
330
1E
100
AcDbEntity
  8
18
100
AcDbCircle
 10
314.5000006142581
 20
-48.99999429691526
 30
0.0
 40
3.499999999999996
100
AcDbArc
 50
180.0
 51
270.0
  0
ARC
  5
65DA
330
1E
100
AcDbEntity
  8
18
100
AcDbCircle
 10
314.5000006142581
 20
-48.99999429691526
 30
0.0
 40
0.9999999999999992
100
AcDbArc
 50
180.0
 51
270.0
  0
ARC
  5
65DB
330
1E
100
AcDbEntity
  8
10
100
AcDbCircle
 10
303.0000045491033
 20
-49.49998206172768
 30
0.0
 40
1.999999962512431
100
AcDbArc
 50
0.0
 51
90.0
  0
ARC
  5
65DC
330
1E
100
AcDbEntity
  8
10
100
AcDbCircle
 10
337.5000057475771
 20
-79.49999152938563
 30
0.0
 40
0.499999990628108
100
AcDbArc
 50
270.0
 51
0.0
  0
ARC
  5
65DD
330
1E
100
AcDbEntity
  8
10
100
AcDbCircle
 10
293.5000031659001
 20
-45.49999614081388
 30
0.0
 40
1.999999962512431
100
AcDbArc
 50
180.0
 51
270.0
  0
ARC
  5
65DE
330
1E
100
AcDbEntity
  8
10
100
AcDbCircle
 10
268.5000033506294
 20
-81.9999842439147
 30
0.0
 40
0.499999990628108
100
AcDbArc
 50
180.0
 51
270.0
  0
ARC
  5
65DF
330
1E
100
AcDbEntity
  8
10
100
AcDbCircle
 10
268.5000033506294
 20
-50.49999368153567
 30
0.0
 40
0.499999990628108
100
AcDbArc
 50
90.0
 51
180.0
  0
ARC
  5
65E0
330
1E
100
AcDbEntity
  8
10
100
AcDbCircle
 10
288.999987211755
 20
-45.76383662147054
 30
0.0
 40
1.999999962512431
100
AcDbArc
 50
280.000000361147
 51
0.0
  0
ARC
  5
65E1
330
1E
100
AcDbEntity
  8
10
100
AcDbCircle
 10
305.499997263636
 20
-79.49999152938563
 30
0.0
 40
0.499999990628108
100
AcDbArc
 50
180.0
 51
270.0
  0
ARC
  5
65E2
330
1E
100
AcDbEntity
  8
10
100
AcDbCircle
 10
267.4999917308229
 20
-81.9999842439147
 30
0.0
 40
0.499999990628108
100
AcDbArc
 50
270.0
 51
0.0
  0
LINE
  5
65E3
330
1E
100
AcDbEntity
  8
12
100
AcDbLine
 10
315.800000614261
 20
-35.41439537367387
 30
0.0
 11
320.5000006142581
 21
-35.41439537367387
 31
0.0
  0
LINE
  5
65E4
330
1E
100
AcDbEntity
  8
12
100
AcDbLine
 10
313.5000006142581
 20
-42.49999429691523
 30
0.0
 11
314.5000006142581
 21
-42.49999429691523
 31
0.0
  0
LINE
  5
65E5
330
1E
100
AcDbEntity
  8
12
100
AcDbLine
 10
314.5000006142581
 20
-32.89999429691488
 30
0.0
 11
315.800000614261
 21
-32.89999429691488
 31
0.0
  0
LINE
  5
65E6
330
1E
100
AcDbEntity
  8
12
100
AcDbLine
 10
320.5000006142581
 20
-33.10499429691481
 30
0.0
 11
320.5000006142581
 21
-41.89499429691522
 31
0.0
  0
LINE
  5
65E7
330
1E
100
AcDbEntity
  8
12
100
AcDbLine
 10
326.0000006142581
 20
-34.99999429691523
 30
0.0
 11
326.0000006142581
 21
-39.99999429691522
 31
0.0
  0
LINE
  5
65E8
330
1E
100
AcDbEntity
  8
12
100
AcDbLine
 10
315.800000614261
 20
-39.58559322015661
 30
0.0
 11
320.5000006142581
 21
-39.58559322015661
 31
0.0
  0
LINE
  5
65E9
330
1E
100
AcDbEntity
  8
12
100
AcDbLine
 10
302.5000006142581
 20
-37.49999429691522
 30
0.0
 11
331.0000006142581
 21
-37.49999429691522
 31
0.0
  0
LINE
  5
65EA
330
1E
100
AcDbEntity
  8
12
100
AcDbLine
 10
314.5000006142581
 20
-32.49999429691523
 30
0.0
 11
314.5000006142581
 21
-42.49999429691523
 31
0.0
  0
LINE
  5
65EB
330
1E
100
AcDbEntity
  8
12
100
AcDbLine
 10
315.800000614261
 20
-41.89499429691522
 30
0.0
 11
320.5000006142581
 21
-41.89499429691522
 31
0.0
  0
LINE
  5
65EC
330
1E
100
AcDbEntity
  8
12
100
AcDbLine
 10
315.800000614261
 20
-33.10499429691481
 30
0.0
 11
320.5000006142581
 21
-33.10499429691481
 31
0.0
  0
LINE
  5
65ED
330
1E
100
AcDbEntity
  8
12
100
AcDbLine
 10
320.5000006142581
 20
-34.99999429691523
 30
0.0
 11
326.0000006142581
 21
-34.99999429691523
 31
0.0
  0
LINE
  5
65EE
330
1E
100
AcDbEntity
  8
12
100
AcDbLine
 10
313.5000006142581
 20
-32.49999429691523
 30
0.0
 11
314.5000006142581
 21
-32.49999429691523
 31
0.0
  0
LINE
  5
65EF
330
1E
100
AcDbEntity
  8
12
100
AcDbLine
 10
315.800000614261
 20
-32.89999429691488
 30
0.0
 11
315.800000614261
 21
-42.09999429691515
 31
0.0
  0
LINE
  5
65F0
330
1E
100
AcDbEntity
  8
12
100
AcDbLine
 10
314.5000006142581
 20
-42.09999429691515
 30
0.0
 11
315.800000614261
 21
-42.09999429691515
 31
0.0
  0
LINE
  5
65F1
330
1E
100
AcDbEntity
  8
18
100
AcDbLine
 10
326.0000006142581
 20
-52.49999429691524
 30
0.0
 11
326.0000006142581
 21
-49.99999429691524
 31
0.0
  0
LINE
  5
65F2
330
1E
100
AcDbEntity
  8
18
100
AcDbLine
 10
314.5000006142581
 20
-49.99999429691524
 30
0.0
 11
326.0000006142581
 21
-49.99999429691524
 31
0.0
  0
LINE
  5
65F3
330
1E
100
AcDbEntity
  8
18
100
AcDbLine
 10
314.5000006142581
 20
-52.49999429691524
 30
0.0
 11
326.0000006142581
 21
-52.49999429691524
 31
0.0
  0
LINE
  5
65F4
330
1E
100
AcDbEntity
  8
10
100
AcDbLine
 10
195.0
 20
-51.0
 30
0.0
 11
202.0
 21
-51.0
 31
0.0
  0
LINE
  5
65F5
330
1E
100
AcDbEntity
  8
17
100
AcDbLine
 10
253.0
 20
-67.00000000000045
 30
0.0
 11
347.9999994458194
 21
-67.00000000000045
 31
0.0
  0
LINE
  5
65F6
330
1E
100
AcDbEntity
  8
10
100
AcDbLine
 10
267.5868323590912
 20
-48.08681737195275
 30
0.0
 11
267.4999917308229
 21
-47.99998885534296
 31
0.0
  0
LINE
  5
65F7
330
1E
100
AcDbEntity
  8
10
100
AcDbLine
 10
268.5974780195754
 20
-49.99998787163168
 30
0.0
 11
268.671819410978
 21
-49.99998787163168
 31
0.0
  0
LINE
  5
65F8
330
1E
100
AcDbEntity
  8
10
100
AcDbLine
 10
269.790937130987
 20
-51.99998688792039
 30
0.0
 11
269.5841668093851
 21
-51.99998688792039
 31
0.0
  0
LINE
  5
65F9
330
1E
100
AcDbEntity
  8
10
100
AcDbLine
 10
263.0
 20
-82.45627905975471
 30
0.0
 11
263.0
 21
-82.40210358830879
 31
0.0
  0
LINE
  5
65FA
330
1E
100
AcDbEntity
  8
10
100
AcDbLine
 10
263.0
 20
-82.23204371918928
 30
0.0
 11
263.0
 21
-82.11802451771564
 31
0.0
  0
LINE
  5
65FB
330
1E
100
AcDbEntity
  8
10
100
AcDbLine
 10
268.0000096523869
 20
-80.50000314919362
 30
0.0
 11
268.0000096523869
 21
-80.25940495105533
 31
0.0
  0
LINE
  5
65FC
330
1E
100
AcDbEntity
  8
10
100
AcDbLine
 10
268.0000096523869
 20
-79.75673457515132
 30
0.0
 11
268.0000096523869
 21
-79.49999152938563
 31
0.0
  0
LINE
  5
65FD
330
1E
100
AcDbEntity
  8
10
100
AcDbLine
 10
268.172915762465
 20
-51.99998688792039
 30
0.0
 11
268.0978961178989
 21
-51.99998688792039
 31
0.0
  0
LINE
  5
65FE
330
1E
100
AcDbEntity
  8
10
100
AcDbLine
 10
268.049522133333
 20
-55.24998226147364
 30
0.0
 11
268.1090872950953
 21
-55.24998226147364
 31
0.0
  0
LINE
  5
65FF
330
1E
100
AcDbEntity
  8
10
100
AcDbLine
 10
263.0
 20
-81.67556122174847
 30
0.0
 11
263.0
 21
-81.49999054567434
 31
0.0
  0
LINE
  5
6600
330
1E
100
AcDbEntity
  8
10
100
AcDbLine
 10
337.6709982148021
 20
-54.03014394666389
 30
0.0
 11
337.5868221525233
 21
-54.00757991730916
 31
0.0
  0
LINE
  5
6601
330
1E
100
AcDbEntity
  8
10
100
AcDbLine
 10
291.9999978478518
 20
-82.49999005381868
 30
0.0
 11
291.9999978478518
 21
-84.49998907010741
 31
0.0
  0
LINE
  5
6602
330
1E
100
AcDbEntity
  8
10
100
AcDbLine
 10
268.0000096523869
 20
-81.49467352533793
 30
0.0
 11
268.0000096523869
 21
-81.6227543682935
 31
0.0
  0
LINE
  5
6603
330
1E
100
AcDbEntity
  8
10
100
AcDbLine
 10
263.0
 20
-80.91580867349692
 30
0.0
 11
263.0
 21
-80.70903835189529
 31
0.0
  0
LINE
  5
6604
330
1E
100
AcDbEntity
  8
10
100
AcDbLine
 10
269.1479046851964
 20
-49.99998787163168
 30
0.0
 11
269.3029097564139
 21
-49.99998787163168
 31
0.0
  0
LINE
  5
6605
330
1E
100
AcDbEntity
  8
10
100
AcDbLine
 10
268.0000096523869
 20
-81.95639436648708
 30
0.0
 11
268.0000096523869
 21
-81.98904741165097
 31
0.0
  0
LINE
  5
6606
330
1E
100
AcDbEntity
  8
10
100
AcDbLine
 10
270.0000086686776
 20
-51.99998688792039
 30
0.0
 11
269.790937130987
 21
-51.99998688792039
 31
0.0
  0
LINE
  5
6607
330
1E
100
AcDbEntity
  8
10
100
AcDbLine
 10
303.9725953624365
 20
-47.75144540585913
 30
0.0
 11
303.9876622720039
 21
-47.83003799119613
 31
0.0
  0
LINE
  5
6608
330
1E
100
AcDbEntity
  8
10
100
AcDbLine
 10
267.6710084213699
 20
-48.17099343422615
 30
0.0
 11
267.5868323590912
 21
-48.08681737195275
 31
0.0
  0
LINE
  5
6609
330
1E
100
AcDbEntity
  8
10
100
AcDbLine
 10
292.040499251052
 20
-86.39244862496797
 30
0.0
 11
292.090375081905
 21
-86.35662232393135
 31
0.0
  0
LINE
  5
660A
330
1E
100
AcDbEntity
  8
10
100
AcDbLine
 10
295.0000084839483
 20
-84.71693318916369
 30
0.0
 11
295.0000084839483
 21
-84.81173118044626
 31
0.0
  0
LINE
  5
660B
330
1E
100
AcDbEntity
  8
10
100
AcDbLine
 10
291.9999978478518
 20
-84.71693318916369
 30
0.0
 11
291.9999978478518
 21
-84.61124681227195
 31
0.0
  0
LINE
  5
660C
330
1E
100
AcDbEntity
  8
10
100
AcDbLine
 10
295.0000084839483
 20
-84.49998907010741
 30
0.0
 11
295.0000084839483
 21
-84.61124681227195
 31
0.0
  0
LINE
  5
660D
330
1E
100
AcDbEntity
  8
10
100
AcDbLine
 10
295.0000084839483
 20
-84.99998276834777
 30
0.0
 11
291.9999978478518
 21
-84.99998276834777
 31
0.0
  0
LINE
  5
660E
330
1E
100
AcDbEntity
  8
10
100
AcDbLine
 10
263.0
 20
-82.11802451771564
 30
0.0
 11
263.0
 21
-81.98627384067821
 31
0.0
  0
LINE
  5
660F
330
1E
100
AcDbEntity
  8
10
100
AcDbLine
 10
263.0
 20
-82.3270839437446
 30
0.0
 11
263.0
 21
-82.23204371918928
 31
0.0
  0
LINE
  5
6610
330
1E
100
AcDbEntity
  8
10
100
AcDbLine
 10
303.9842225595275
 20
-49.19132842561612
 30
0.0
 11
303.9650861309853
 21
-49.27776936898953
 31
0.0
  0
LINE
  5
6611
330
1E
100
AcDbEntity
  8
10
100
AcDbLine
 10
269.8192057539125
 20
-49.99998787163168
 30
0.0
 11
270.0000086686776
 21
-49.99998787163168
 31
0.0
  0
LINE
  5
6612
330
1E
100
AcDbEntity
  8
10
100
AcDbLine
 10
337.9999994458191
 20
-54.4999917141131
 30
0.0
 11
337.9999994458191
 21
-55.99998492049781
 31
0.0
  0
LINE
  5
6613
330
1E
100
AcDbEntity
  8
10
100
AcDbLine
 10
269.641018958493
 20
-49.99998787163168
 30
0.0
 11
269.8192057539125
 21
-49.99998787163168
 31
0.0
  0
LINE
  5
6614
330
1E
100
AcDbEntity
  8
10
100
AcDbLine
 10
305.0000035653939
 20
-51.99998688792039
 30
0.0
 11
270.0000086686776
 21
-51.99998688792039
 31
0.0
  0
LINE
  5
6615
330
1E
100
AcDbEntity
  8
10
100
AcDbLine
 10
268.0000096523869
 20
-81.6227543682935
 30
0.0
 11
268.0000096523869
 21
-81.73446024201258
 31
0.0
  0
LINE
  5
6616
330
1E
100
AcDbEntity
  8
10
100
AcDbLine
 10
337.9923933210593
 20
-54.41316319750331
 30
0.0
 11
337.9698414033628
 21
-54.32897502356627
 31
0.0
  0
LINE
  5
6617
330
1E
100
AcDbEntity
  8
10
100
AcDbLine
 10
268.0109585963143
 20
-51.99998688792039
 30
0.0
 11
268.0000096523869
 21
-51.99998688792039
 31
0.0
  0
LINE
  5
6618
330
1E
100
AcDbEntity
  8
10
100
AcDbLine
 10
268.6617425068325
 20
-51.99998688792039
 30
0.0
 11
268.5137137538621
 21
-51.99998688792039
 31
0.0
  0
LINE
  5
6619
330
1E
100
AcDbEntity
  8
10
100
AcDbLine
 10
268.1882491286232
 20
-55.24998226147364
 30
0.0
 11
268.2830592315728
 21
-55.24998226147364
 31
0.0
  0
LINE
  5
661A
330
1E
100
AcDbEntity
  8
10
100
AcDbLine
 10
337.9999994458191
 20
-77.99998621133726
 30
0.0
 11
337.9999994458191
 21
-79.49999152938563
 31
0.0
  0
LINE
  5
661B
330
1E
100
AcDbEntity
  8
10
100
AcDbLine
 10
268.0000096523869
 20
-81.82816818356789
 30
0.0
 11
268.0000096523869
 21
-81.90250957496845
 31
0.0
  0
LINE
  5
661C
330
1E
100
AcDbEntity
  8
10
100
AcDbLine
 10
303.8332870072918
 20
-49.49037751246397
 30
0.0
 11
303.7928824974005
 21
-49.49998206172768
 31
0.0
  0
LINE
  5
661D
330
1E
100
AcDbEntity
  8
10
100
AcDbLine
 10
263.0
 20
-82.49999005381868
 30
0.0
 11
263.0
 21
-82.4890289982277
 31
0.0
  0
LINE
  5
661E
330
1E
100
AcDbEntity
  8
10
100
AcDbLine
 10
269.3819746966328
 20
-51.99998688792039
 30
0.0
 11
269.1865166688728
 21
-51.99998688792039
 31
0.0
  0
LINE
  5
661F
330
1E
100
AcDbEntity
  8
10
100
AcDbLine
 10
267.7500006916015
 20
-48.24998570446314
 30
0.0
 11
267.6710084213699
 21
-48.17099343422615
 31
0.0
  0
LINE
  5
6620
330
1E
100
AcDbEntity
  8
10
100
AcDbLine
 10
268.8244263727974
 20
-51.99998688792039
 30
0.0
 11
268.6617425068325
 21
-51.99998688792039
 31
0.0
  0
LINE
  5
6621
330
1E
100
AcDbEntity
  8
10
100
AcDbLine
 10
268.5109280712276
 20
-49.99998787163168
 30
0.0
 11
268.5435811163916
 21
-49.99998787163168
 31
0.0
  0
LINE
  5
6622
330
1E
100
AcDbEntity
  8
10
100
AcDbLine
 10
268.1090872950953
 20
-55.24998226147364
 30
0.0
 11
268.1882491286232
 21
-55.24998226147364
 31
0.0
  0
LINE
  5
6623
330
1E
100
AcDbEntity
  8
10
100
AcDbLine
 10
268.0978961178989
 20
-51.99998688792039
 30
0.0
 11
268.0437085347874
 21
-51.99998688792039
 31
0.0
  0
LINE
  5
6624
330
1E
100
AcDbEntity
  8
10
100
AcDbLine
 10
303.9650861309853
 20
-49.27776936898953
 30
0.0
 11
303.9393367340961
 21
-49.35353993669924
 31
0.0
  0
LINE
  5
6625
330
1E
100
AcDbEntity
  8
10
100
AcDbLine
 10
303.0000045491033
 20
-47.49998304543896
 30
0.0
 11
293.5000031659001
 21
-47.49998304543896
 31
0.0
  0
LINE
  5
6626
330
1E
100
AcDbEntity
  8
10
100
AcDbLine
 10
292.4593690262554
 20
-86.24251834081222
 30
0.0
 11
292.584579404931
 21
-86.22420550539391
 31
0.0
  0
LINE
  5
6627
330
1E
100
AcDbEntity
  8
10
100
AcDbLine
 10
301.9999929292972
 20
-86.19998217812097
 30
0.0
 11
293.0000094676578
 21
-86.19998217812097
 31
0.0
  0
LINE
  5
6628
330
1E
100
AcDbEntity
  8
10
100
AcDbLine
 10
337.8830249984166
 20
-54.17859660785598
 30
0.0
 11
337.8214008538343
 21
-54.11696035161003
 31
0.0
  0
LINE
  5
6629
330
1E
100
AcDbEntity
  8
10
100
AcDbLine
 10
263.0
 20
-82.40210358830879
 30
0.0
 11
263.0
 21
-82.3270839437446
 31
0.0
  0
LINE
  5
662A
330
1E
100
AcDbEntity
  8
10
100
AcDbLine
 10
291.9999978478518
 20
-84.99998276834777
 30
0.0
 11
291.9999978478518
 21
-84.98744719648403
 31
0.0
  0
LINE
  5
662B
330
1E
100
AcDbEntity
  8
10
100
AcDbLine
 10
291.9999978478518
 20
-84.8909051256378
 30
0.0
 11
291.9999978478518
 21
-84.81173118044626
 31
0.0
  0
LINE
  5
662C
330
1E
100
AcDbEntity
  8
10
100
AcDbLine
 10
292.090375081905
 20
-86.35662232393135
 30
0.0
 11
292.1587333114728
 21
-86.32307301565834
 31
0.0
  0
LINE
  5
662D
330
1E
100
AcDbEntity
  8
10
100
AcDbLine
 10
295.0000084839483
 20
-84.8909051256378
 30
0.0
 11
295.0000084839483
 21
-84.95047028740193
 31
0.0
  0
LINE
  5
662E
330
1E
100
AcDbEntity
  8
10
100
AcDbLine
 10
268.0000096523869
 20
-80.49999103752998
 30
0.0
 11
268.0000096523869
 21
-80.68079395229506
 31
0.0
  0
LINE
  5
662F
330
1E
100
AcDbEntity
  8
10
100
AcDbLine
 10
303.9968913596966
 20
-47.91371747526045
 30
0.0
 11
303.9999919455876
 21
-47.99998885534296
 31
0.0
  0
LINE
  5
6630
330
1E
100
AcDbEntity
  8
10
100
AcDbLine
 10
269.4680886250935
 20
-49.99998787163168
 30
0.0
 11
269.641018958493
 21
-49.99998787163168
 31
0.0
  0
LINE
  5
6631
330
1E
100
AcDbEntity
  8
10
100
AcDbLine
 10
292.2442416567428
 20
-86.292466841649
 30
0.0
 11
292.3451318148361
 21
-86.26543360841242
 31
0.0
  0
LINE
  5
6632
330
1E
100
AcDbEntity
  8
10
100
AcDbLine
 10
263.0
 20
-80.70903835189529
 30
0.0
 11
263.0
 21
-77.5
 31
0.0
  0
LINE
  5
6633
330
1E
100
AcDbEntity
  8
10
100
AcDbLine
 10
268.7655152408696
 20
-49.99998787163168
 30
0.0
 11
268.8772332262524
 21
-49.99998787163168
 31
0.0
  0
LINE
  5
6634
330
1E
100
AcDbEntity
  8
10
100
AcDbLine
 10
291.9999978478518
 20
-84.95047028740193
 30
0.0
 11
291.9999978478518
 21
-84.8909051256378
 31
0.0
  0
LINE
  5
6635
330
1E
100
AcDbEntity
  8
10
100
AcDbLine
 10
295.0000084839483
 20
-84.98744719648403
 30
0.0
 11
295.0000084839483
 21
-84.99998276834777
 31
0.0
  0
LINE
  5
6636
330
1E
100
AcDbEntity
  8
10
100
AcDbLine
 10
295.0000084839483
 20
-84.95047028740193
 30
0.0
 11
295.0000084839483
 21
-84.98744719648403
 31
0.0
  0
LINE
  5
6637
330
1E
100
AcDbEntity
  8
10
100
AcDbLine
 10
303.9079433019503
 20
-49.41572121780883
 30
0.0
 11
303.8721412242375
 21
-49.46192721458192
 31
0.0
  0
LINE
  5
6638
330
1E
100
AcDbEntity
  8
10
100
AcDbLine
 10
292.7182679481483
 20
-86.21084634040292
 30
0.0
 11
292.8576731966021
 21
-86.20271941410281
 31
0.0
  0
LINE
  5
6639
330
1E
100
AcDbEntity
  8
10
100
AcDbLine
 10
269.0053261808715
 20
-49.99998787163168
 30
0.0
 11
269.1479046851964
 21
-49.99998787163168
 31
0.0
  0
LINE
  5
663A
330
1E
100
AcDbEntity
  8
10
100
AcDbLine
 10
268.0000096523869
 20
-81.19707783812645
 30
0.0
 11
268.0000096523869
 21
-81.35208290934588
 31
0.0
  0
LINE
  5
663B
330
1E
100
AcDbEntity
  8
10
100
AcDbLine
 10
303.9999919455876
 20
-48.99998836348732
 30
0.0
 11
303.9999919455876
 21
-47.99998885534296
 31
0.0
  0
LINE
  5
663C
330
1E
100
AcDbEntity
  8
10
100
AcDbLine
 10
268.2679438753548
 20
-51.99998688792039
 30
0.0
 11
268.172915762465
 21
-51.99998688792039
 31
0.0
  0
LINE
  5
663D
330
1E
100
AcDbEntity
  8
10
100
AcDbLine
 10
268.0000096523869
 20
-81.35208290934588
 30
0.0
 11
268.0000096523869
 21
-81.49467352533793
 31
0.0
  0
LINE
  5
663E
330
1E
100
AcDbEntity
  8
10
100
AcDbLine
 10
291.9999978478518
 20
-82.49999005381868
 30
0.0
 11
268.5000033506294
 21
-82.49999005381868
 31
0.0
  0
LINE
  5
663F
330
1E
100
AcDbEntity
  8
10
100
AcDbLine
 10
268.3819630768265
 20
-51.99998688792039
 30
0.0
 11
268.2679438753548
 21
-51.99998688792039
 31
0.0
  0
LINE
  5
6640
330
1E
100
AcDbEntity
  8
10
100
AcDbLine
 10
268.0000096523869
 20
-81.03189896945242
 30
0.0
 11
268.0000096523869
 21
-81.19707783812645
 31
0.0
  0
LINE
  5
6641
330
1E
100
AcDbEntity
  8
10
100
AcDbLine
 10
268.0000096523869
 20
-80.25940495105533
 30
0.0
 11
268.0000096523869
 21
-80.01076460826244
 31
0.0
  0
LINE
  5
6642
330
1E
100
AcDbEntity
  8
10
100
AcDbLine
 10
303.2679387720708
 20
-50.00004842994986
 30
0.0
 11
303.2679387720708
 21
-49.49998206172768
 31
0.0
  0
LINE
  5
6643
330
1E
100
AcDbEntity
  8
10
100
AcDbLine
 10
337.5868221525233
 20
-54.00757991730916
 30
0.0
 11
337.5000057475771
 21
-53.9999859042091
 31
0.0
  0
LINE
  5
6644
330
1E
100
AcDbEntity
  8
10
100
AcDbLine
 10
303.7928824974005
 20
-49.49998206172768
 30
0.0
 11
268.0000096523869
 21
-49.49998206172768
 31
0.0
  0
LINE
  5
6645
330
1E
100
AcDbEntity
  8
10
100
AcDbLine
 10
337.9999994458191
 20
-54.4999917141131
 30
0.0
 11
337.9923933210593
 21
-54.41316319750331
 31
0.0
  0
LINE
  5
6646
330
1E
100
AcDbEntity
  8
10
100
AcDbLine
 10
291.9999978478518
 20
-84.61124681227195
 30
0.0
 11
291.9999978478518
 21
-84.49998907010741
 31
0.0
  0
LINE
  5
6647
330
1E
100
AcDbEntity
  8
10
100
AcDbLine
 10
289.9924896001101
 20
-47.49998304543896
 30
0.0
 11
293.4996398159928
 21
-47.49998304543896
 31
0.0
  0
LINE
  5
6648
330
1E
100
AcDbEntity
  8
10
100
AcDbLine
 10
292.3451318148361
 20
-86.26543360841242
 30
0.0
 11
292.4593690262554
 21
-86.24251834081222
 31
0.0
  0
LINE
  5
6649
330
1E
100
AcDbEntity
  8
10
100
AcDbLine
 10
263.0
 20
-82.4890289982277
 30
0.0
 11
263.0
 21
-82.45627905975471
 31
0.0
  0
LINE
  5
664A
330
1E
100
AcDbEntity
  8
10
100
AcDbLine
 10
292.8576731966021
 20
-86.20271941410281
 30
0.0
 11
293.0000094676578
 21
-86.19998217812097
 31
0.0
  0
LINE
  5
664B
330
1E
100
AcDbEntity
  8
10
100
AcDbLine
 10
267.9698516099306
 20
-48.46983662279217
 30
0.0
 11
267.9330079291539
 21
-48.4330050536737
 31
0.0
  0
LINE
  5
664C
330
1E
100
AcDbEntity
  8
10
100
AcDbLine
 10
268.0000096523869
 20
-55.24998226147364
 30
0.0
 11
268.0125331125891
 21
-55.24998226147364
 31
0.0
  0
LINE
  5
664D
330
1E
100
AcDbEntity
  8
10
100
AcDbLine
 10
270.0000086686776
 20
-49.99998787163168
 30
0.0
 11
305.0000035653939
 21
-49.99998787163168
 31
0.0
  0
LINE
  5
664E
330
1E
100
AcDbEntity
  8
10
100
AcDbLine
 10
295.0000084839483
 20
-79.99998522762599
 30
0.0
 11
305.499997263636
 21
-79.99998522762599
 31
0.0
  0
LINE
  5
664F
330
1E
100
AcDbEntity
  8
10
100
AcDbLine
 10
269.3029097564139
 20
-49.99998787163168
 30
0.0
 11
269.4680886250935
 21
-49.99998787163168
 31
0.0
  0
LINE
  5
6650
330
1E
100
AcDbEntity
  8
10
100
AcDbLine
 10
268.5435811163916
 20
-49.99998787163168
 30
0.0
 11
268.5974780195754
 21
-49.99998787163168
 31
0.0
  0
LINE
  5
6651
330
1E
100
AcDbEntity
  8
10
100
AcDbLine
 10
292.584579404931
 20
-86.22420550539391
 30
0.0
 11
292.7182679481483
 21
-86.21084634040292
 31
0.0
  0
LINE
  5
6652
330
1E
100
AcDbEntity
  8
10
100
AcDbLine
 10
295.0000084839483
 20
-84.81173118044626
 30
0.0
 11
295.0000084839483
 21
-84.8909051256378
 31
0.0
  0
LINE
  5
6653
330
1E
100
AcDbEntity
  8
10
100
AcDbLine
 10
305.0000035653939
 20
-49.49998206172768
 30
0.0
 11
303.7928824974005
 21
-49.49998206172768
 31
0.0
  0
LINE
  5
6654
330
1E
100
AcDbEntity
  8
10
100
AcDbLine
 10
269.5841668093851
 20
-51.99998688792039
 30
0.0
 11
269.3819746966328
 21
-51.99998688792039
 31
0.0
  0
LINE
  5
6655
330
1E
100
AcDbEntity
  8
10
100
AcDbLine
 10
268.0000096523869
 20
-80.85895652438741
 30
0.0
 11
268.0000096523869
 21
-81.03189896945242
 31
0.0
  0
LINE
  5
6656
330
1E
100
AcDbEntity
  8
10
100
AcDbLine
 10
303.9999919455876
 20
-48.99998836348732
 30
0.0
 11
303.9960193199148
 21
-49.09753570241537
 31
0.0
  0
LINE
  5
6657
330
1E
100
AcDbEntity
  8
10
100
AcDbLine
 10
268.2830592315728
 20
-55.24998226147364
 30
0.0
 11
268.3887456084629
 21
-55.24998226147364
 31
0.0
  0
LINE
  5
6658
330
1E
100
AcDbEntity
  8
10
100
AcDbLine
 10
268.9999970488714
 20
-51.99998688792039
 30
0.0
 11
268.8244263727974
 21
-51.99998688792039
 31
0.0
  0
LINE
  5
6659
330
1E
100
AcDbEntity
  8
10
100
AcDbLine
 10
268.8772332262524
 20
-49.99998787163168
 30
0.0
 11
269.0053261808715
 21
-49.99998787163168
 31
0.0
  0
LINE
  5
665A
330
1E
100
AcDbEntity
  8
10
100
AcDbLine
 10
268.0000096523869
 20
-81.90250957496845
 30
0.0
 11
268.0000096523869
 21
-81.95639436648708
 31
0.0
  0
LINE
  5
665B
330
1E
100
AcDbEntity
  8
10
100
AcDbLine
 10
268.0000096523869
 20
-81.73446024201258
 30
0.0
 11
268.0000096523869
 21
-81.82816818356789
 31
0.0
  0
LINE
  5
665C
330
1E
100
AcDbEntity
  8
10
100
AcDbLine
 10
295.0000084839483
 20
-84.61124681227195
 30
0.0
 11
295.0000084839483
 21
-84.71693318916369
 31
0.0
  0
LINE
  5
665D
330
1E
100
AcDbEntity
  8
10
100
AcDbLine
 10
337.8214008538343
 20
-54.11696035161003
 30
0.0
 11
337.7499904850338
 21
-54.06697551578235
 31
0.0
  0
LINE
  5
665E
330
1E
100
AcDbEntity
  8
10
100
AcDbLine
 10
301.9999929292972
 20
-84.99998276834777
 30
0.0
 11
301.9999929292972
 21
-86.19998217812097
 31
0.0
  0
LINE
  5
665F
330
1E
100
AcDbEntity
  8
10
100
AcDbLine
 10
268.0000096523869
 20
-48.49998255358332
 30
0.0
 11
267.9924035276271
 21
-48.49238854048325
 31
0.0
  0
LINE
  5
6660
330
1E
100
AcDbEntity
  8
10
100
AcDbLine
 10
305.0000035653939
 20
-55.24998226147364
 30
0.0
 11
268.5000033506294
 21
-55.24998226147364
 31
0.0
  0
LINE
  5
6661
330
1E
100
AcDbEntity
  8
10
100
AcDbLine
 10
337.7499904850338
 20
-54.06697551578235
 30
0.0
 11
337.6709982148021
 21
-54.03014394666389
 31
0.0
  0
LINE
  5
6662
330
1E
100
AcDbEntity
  8
10
100
AcDbLine
 10
292.1587333114728
 20
-86.32307301565834
 30
0.0
 11
292.2442416567428
 21
-86.292466841649
 31
0.0
  0
LINE
  5
6663
330
1E
100
AcDbEntity
  8
10
100
AcDbLine
 10
267.8213868370803
 20
-48.32138396160008
 30
0.0
 11
267.7500006916015
 21
-48.24998570446314
 31
0.0
  0
LINE
  5
6664
330
1E
100
AcDbEntity
  8
10
100
AcDbLine
 10
284.999989179181
 20
-48.49998255358332
 30
0.0
 11
268.0000096523869
 21
-48.49998255358332
 31
0.0
  0
LINE
  5
6665
330
1E
100
AcDbEntity
  8
10
100
AcDbLine
 10
269.1865166688728
 20
-51.99998688792039
 30
0.0
 11
268.9999970488714
 21
-51.99998688792039
 31
0.0
  0
LINE
  5
6666
330
1E
100
AcDbEntity
  8
10
100
AcDbLine
 10
305.0000035653939
 20
-79.49999152938563
 30
0.0
 11
305.0000035653939
 21
-49.49998206172768
 31
0.0
  0
LINE
  5
6667
330
1E
100
AcDbEntity
  8
10
100
AcDbLine
 10
268.0125331125891
 20
-55.24998226147364
 30
0.0
 11
268.049522133333
 21
-55.24998226147364
 31
0.0
  0
LINE
  5
6668
330
1E
100
AcDbEntity
  8
10
100
AcDbLine
 10
268.5137137538621
 20
-51.99998688792039
 30
0.0
 11
268.3819630768265
 21
-51.99998688792039
 31
0.0
  0
LINE
  5
6669
330
1E
100
AcDbEntity
  8
10
100
AcDbLine
 10
268.671819410978
 20
-49.99998787163168
 30
0.0
 11
268.7655152408696
 21
-49.99998787163168
 31
0.0
  0
LINE
  5
666A
330
1E
100
AcDbEntity
  8
10
100
AcDbLine
 10
289.3473012781978
 20
-47.73344747369536
 30
0.0
 11
284.999989179181
 21
-48.49998255358332
 31
0.0
  0
LINE
  5
666B
330
1E
100
AcDbEntity
  8
10
100
AcDbLine
 10
267.9924035276271
 20
-48.49238854048325
 30
0.0
 11
267.9698516099306
 21
-48.46983662279217
 31
0.0
  0
LINE
  5
666C
330
1E
100
AcDbEntity
  8
10
100
AcDbLine
 10
303.9876622720039
 20
-47.83003799119613
 30
0.0
 11
303.9968913596966
 21
-47.91371747526045
 31
0.0
  0
LINE
  5
666D
330
1E
100
AcDbEntity
  8
10
100
AcDbLine
 10
268.0000096523869
 20
-48.49998255358332
 30
0.0
 11
268.0000096523869
 21
-80.49999103752998
 31
0.0
  0
LINE
  5
666E
330
1E
100
AcDbEntity
  8
10
100
AcDbLine
 10
337.9698414033628
 20
-54.32897502356627
 30
0.0
 11
337.9330219459077
 21
-54.24998275332928
 31
0.0
  0
LINE
  5
666F
330
1E
100
AcDbEntity
  8
10
100
AcDbLine
 10
263.0
 20
-81.98627384067821
 30
0.0
 11
263.0
 21
-81.83824508771341
 31
0.0
  0
LINE
  5
6670
330
1E
100
AcDbEntity
  8
10
100
AcDbLine
 10
263.0
 20
-81.31345881400919
 30
0.0
 11
263.0
 21
-81.1180250095713
 31
0.0
  0
LINE
  5
6671
330
1E
100
AcDbEntity
  8
10
100
AcDbLine
 10
301.9999929292972
 20
-84.99998276834777
 30
0.0
 11
312.5000059323065
 21
-79.99998522762599
 31
0.0
  0
LINE
  5
6672
330
1E
100
AcDbEntity
  8
10
100
AcDbLine
 10
267.9330079291539
 20
-48.4330050536737
 30
0.0
 11
267.8830109816626
 21
-48.38300810618239
 31
0.0
  0
LINE
  5
6673
330
1E
100
AcDbEntity
  8
10
100
AcDbLine
 10
267.8830109816626
 20
-48.38300810618239
 30
0.0
 11
267.8213868370803
 21
-48.32138396160008
 31
0.0
  0
LINE
  5
6674
330
1E
100
AcDbEntity
  8
10
100
AcDbLine
 10
337.9330219459077
 20
-54.24998275332928
 30
0.0
 11
337.8830249984166
 21
-54.17859660785598
 31
0.0
  0
LINE
  5
6675
330
1E
100
AcDbEntity
  8
10
100
AcDbLine
 10
263.0
 20
-81.1180250095713
 30
0.0
 11
263.0
 21
-80.91580867349692
 31
0.0
  0
LINE
  5
6676
330
1E
100
AcDbEntity
  8
10
100
AcDbLine
 10
268.0437085347874
 20
-51.99998688792039
 30
0.0
 11
268.0109585963143
 21
-51.99998688792039
 31
0.0
  0
LINE
  5
6677
330
1E
100
AcDbEntity
  8
10
100
AcDbLine
 10
268.0000096523869
 20
-81.98904741165097
 30
0.0
 11
268.0000096523869
 21
-81.9999842439147
 31
0.0
  0
LINE
  5
6678
330
1E
100
AcDbEntity
  8
10
100
AcDbLine
 10
303.9393367340961
 20
-49.35353993669924
 30
0.0
 11
303.9079433019503
 21
-49.41572121780883
 31
0.0
  0
LINE
  5
6679
330
1E
100
AcDbEntity
  8
10
100
AcDbLine
 10
268.5000033506294
 20
-49.99998787163168
 30
0.0
 11
268.5109280712276
 21
-49.99998787163168
 31
0.0
  0
LINE
  5
667A
330
1E
100
AcDbEntity
  8
10
100
AcDbLine
 10
291.9999978478518
 20
-84.81173118044626
 30
0.0
 11
291.9999978478518
 21
-84.71693318916369
 31
0.0
  0
LINE
  5
667B
330
1E
100
AcDbEntity
  8
10
100
AcDbLine
 10
303.8721412242375
 20
-49.46192721458192
 30
0.0
 11
303.8332870072918
 21
-49.49037751246397
 31
0.0
  0
LINE
  5
667C
330
1E
100
AcDbEntity
  8
10
100
AcDbLine
 10
303.9960193199148
 20
-49.09753570241537
 30
0.0
 11
303.9842225595275
 21
-49.19132842561612
 31
0.0
  0
LINE
  5
667D
330
1E
100
AcDbEntity
  8
10
100
AcDbLine
 10
291.9999978478518
 20
-84.98744719648403
 30
0.0
 11
291.9999978478518
 21
-84.95047028740193
 31
0.0
  0
LINE
  5
667E
330
1E
100
AcDbEntity
  8
10
100
AcDbLine
 10
268.0000096523869
 20
-80.68079395229506
 30
0.0
 11
268.0000096523869
 21
-80.85895652438741
 31
0.0
  0
LINE
  5
667F
330
1E
100
AcDbEntity
  8
10
100
AcDbLine
 10
295.0000084839483
 20
-84.49998907010741
 30
0.0
 11
295.0000084839483
 21
-79.99998522762599
 31
0.0
  0
LINE
  5
6680
330
1E
100
AcDbEntity
  8
10
100
AcDbLine
 10
263.0
 20
-81.49999054567434
 30
0.0
 11
263.0
 21
-81.31345881400919
 31
0.0
  0
LINE
  5
6681
330
1E
100
AcDbEntity
  8
10
100
AcDbLine
 10
268.3887456084629
 20
-55.24998226147364
 30
0.0
 11
268.5000033506294
 21
-55.24998226147364
 31
0.0
  0
LINE
  5
6682
330
1E
100
AcDbEntity
  8
10
100
AcDbLine
 10
263.0
 20
-81.83824508771341
 30
0.0
 11
263.0
 21
-81.67556122174847
 31
0.0
  0
LINE
  5
6683
330
1E
100
AcDbEntity
  8
12
100
AcDbLine
 10
320.5000006142581
 20
-39.99999429691522
 30
0.0
 11
326.0000006142581
 21
-39.99999429691522
 31
0.0
  0
LINE
  5
6684
330
1E
100
AcDbEntity
  8
10
100
AcDbLine
 10
337.9999994458191
 20
-77.99998621133726
 30
0.0
 11
337.9999994458191
 21
-55.99998492049781
 31
0.0
  0
LINE
  5
6685
330
1E
100
AcDbEntity
  8
10
100
AcDbLine
 10
337.5000057475771
 20
-79.99998522762599
 30
0.0
 11
305.499997263636
 21
-79.99998522762599
 31
0.0
  0
LINE
  5
6686
330
1E
100
AcDbEntity
  8
10
100
AcDbLine
 10
311.000000614258
 20
-53.9999859042091
 30
0.0
 11
337.5000057475771
 21
-53.9999859042091
 31
0.0
  0
LINE
  5
6687
330
1E
100
AcDbEntity
  8
10
100
AcDbLine
 10
267.4999917308229
 20
-82.49999005381868
 30
0.0
 11
263.0
 21
-82.49999005381868
 31
0.0
  0
LINE
  5
6688
330
1E
100
AcDbEntity
  8
10
100
AcDbLine
 10
202.0
 20
-51.0
 30
0.0
 11
202.0
 21
-77.5
 31
0.0
  0
LINE
  5
6689
330
1E
100
AcDbEntity
  8
10
100
AcDbLine
 10
202.0
 20
-77.5
 30
0.0
 11
263.0
 21
-77.5
 31
0.0
  0
LINE
  5
668A
330
1E
100
AcDbEntity
  8
10
100
AcDbLine
 10
187.0
 20
-25.0
 30
0.0
 11
195.0
 21
-25.0
 31
0.0
  0
ARC
  5
668B
330
1E
100
AcDbEntity
  8
10
100
AcDbCircle
 10
-267.4999917308229
 20
81.9999842439147
 30
0.0
 40
0.499999990628108
210
0.0
220
0.0
230
-1.0
100
AcDbArc
 50
90.0
 51
180.0
  0
ARC
  5
668C
330
1E
100
AcDbEntity
  8
18
100
AcDbCircle
 10
314.5000006142581
 20
49.00000570308474
 30
0.0
 40
3.499999999999996
100
AcDbArc
 50
90.0
 51
180.0
  0
ARC
  5
668D
330
1E
100
AcDbEntity
  8
18
100
AcDbCircle
 10
314.5000006142581
 20
49.00000570308474
 30
0.0
 40
0.9999999999999992
100
AcDbArc
 50
90.0
 51
180.0
  0
ARC
  5
668E
330
1E
100
AcDbEntity
  8
10
100
AcDbCircle
 10
293.5000031659001
 20
45.50001965864065
 30
0.0
 40
1.999999962512431
100
AcDbArc
 50
90.0
 51
180.0
  0
ARC
  5
668F
330
1E
100
AcDbEntity
  8
0
100
AcDbCircle
 10
337.5000057475771
 20
79.50000293554876
 30
0.0
 40
0.499999990628108
100
AcDbArc
 50
0.0
 51
90.0
  0
ARC
  5
6690
330
1E
100
AcDbEntity
  8
10
100
AcDbCircle
 10
268.5000033506294
 20
82.00001987340511
 30
0.0
 40
0.499999990628108
100
AcDbArc
 50
90.0
 51
180.0
  0
ARC
  5
6691
330
1E
100
AcDbEntity
  8
10
100
AcDbCircle
 10
305.499997263636
 20
79.50000293554876
 30
0.0
 40
0.499999990628108
100
AcDbArc
 50
90.0
 51
180.0
  0
ARC
  5
6692
330
1E
100
AcDbEntity
  8
10
100
AcDbCircle
 10
268.5000033506294
 20
50.50000508769881
 30
0.0
 40
0.499999990628108
100
AcDbArc
 50
180.0
 51
270.0
  0
ARC
  5
6693
330
1E
100
AcDbEntity
  8
10
100
AcDbCircle
 10
293.0000094676578
 20
94.00001397113738
 30
0.0
 40
0.9999999812562155
100
AcDbArc
 50
90.0
 51
180.0
  0
ARC
  5
6694
330
1E
100
AcDbEntity
  8
10
100
AcDbCircle
 10
270.0000086686776
 20
52.00001040574715
 30
0.0
 40
1.999999962512431
100
AcDbArc
 50
180.0
 51
270.0
  0
ARC
  5
6695
330
1E
100
AcDbEntity
  8
10
100
AcDbCircle
 10
288.999987211755
 20
45.76386013929732
 30
0.0
 40
1.999999962512431
100
AcDbArc
 50
0.0
 51
79.99999963885284
  0
ARC
  5
6696
330
1E
100
AcDbEntity
  8
10
100
AcDbCircle
 10
268.5000033506294
 20
55.74999947754077
 30
0.0
 40
0.499999990628108
100
AcDbArc
 50
180.0
 51
270.0
  0
ARC
  5
6697
330
1E
100
AcDbEntity
  8
10
100
AcDbCircle
 10
303.0000045491033
 20
49.50001769121809
 30
0.0
 40
1.999999962512431
100
AcDbArc
 50
270.0
 51
0.0
  0
LINE
  5
6698
330
1E
100
AcDbEntity
  8
10
100
AcDbLine
 10
267.4999917308229
 20
82.49999005381868
 30
0.0
 11
263.0
 21
82.49999005381868
 31
0.0
  0
LINE
  5
6699
330
1E
100
AcDbEntity
  8
10
100
AcDbLine
 10
293.5000031659001
 20
47.50001867492938
 30
0.0
 11
289.9924896001101
 21
47.50001867492938
 31
0.0
  0
LINE
  5
669A
330
1E
100
AcDbEntity
  8
10
100
AcDbLine
 10
268.0000096523869
 20
49.50001769121809
 30
0.0
 11
305.0000035653939
 21
49.50001769121809
 31
0.0
  0
LINE
  5
669B
330
1E
100
AcDbEntity
  8
10
100
AcDbLine
 10
305.0000035653939
 20
50.00001138945846
 30
0.0
 11
270.0000086686776
 21
50.00001138945846
 31
0.0
  0
LINE
  5
669C
330
1E
100
AcDbEntity
  8
10
100
AcDbLine
 10
305.0000035653939
 20
55.2500057793004
 30
0.0
 11
268.5000033506294
 21
55.2500057793004
 31
0.0
  0
LINE
  5
669D
330
1E
100
AcDbEntity
  8
10
100
AcDbLine
 10
268.5000033506294
 20
82.50001357164547
 30
0.0
 11
291.9999978478518
 21
82.50001357164547
 31
0.0
  0
LINE
  5
669E
330
1E
100
AcDbEntity
  8
12
100
AcDbLine
 10
320.5000006142581
 20
40.00000570308475
 30
0.0
 11
326.0000006142581
 21
40.00000570308475
 31
0.0
  0
LINE
  5
669F
330
1E
100
AcDbEntity
  8
12
100
AcDbLine
 10
314.5000006142581
 20
42.50000570308475
 30
0.0
 11
314.5000006142581
 21
32.50000570308476
 31
0.0
  0
LINE
  5
66A0
330
1E
100
AcDbEntity
  8
12
100
AcDbLine
 10
326.0000006142581
 20
40.00000570308475
 30
0.0
 11
326.0000006142581
 21
35.00000570308476
 31
0.0
  0
LINE
  5
66A1
330
1E
100
AcDbEntity
  8
12
100
AcDbLine
 10
315.800000614261
 20
39.58560462632613
 30
0.0
 11
320.5000006142581
 21
39.58560462632613
 31
0.0
  0
LINE
  5
66A2
330
1E
100
AcDbEntity
  8
12
100
AcDbLine
 10
315.800000614261
 20
42.10000570308511
 30
0.0
 11
315.800000614261
 21
32.90000570308439
 31
0.0
  0
LINE
  5
66A3
330
1E
100
AcDbEntity
  8
12
100
AcDbLine
 10
313.5000006142581
 20
42.50000570308475
 30
0.0
 11
314.5000006142581
 21
42.50000570308475
 31
0.0
  0
LINE
  5
66A4
330
1E
100
AcDbEntity
  8
12
100
AcDbLine
 10
314.5000006142581
 20
32.90000570308439
 30
0.0
 11
315.800000614261
 21
32.90000570308439
 31
0.0
  0
LINE
  5
66A5
330
1E
100
AcDbEntity
  8
12
100
AcDbLine
 10
302.5000006142581
 20
37.50000570308476
 30
0.0
 11
331.0000006142581
 21
37.50000570308476
 31
0.0
  0
LINE
  5
66A6
330
1E
100
AcDbEntity
  8
12
100
AcDbLine
 10
315.800000614261
 20
33.10500570308521
 30
0.0
 11
320.5000006142581
 21
33.10500570308521
 31
0.0
  0
LINE
  5
66A7
330
1E
100
AcDbEntity
  8
12
100
AcDbLine
 10
313.5000006142581
 20
32.50000570308476
 30
0.0
 11
314.5000006142581
 21
32.50000570308476
 31
0.0
  0
LINE
  5
66A8
330
1E
100
AcDbEntity
  8
12
100
AcDbLine
 10
315.800000614261
 20
35.41440677984336
 30
0.0
 11
320.5000006142581
 21
35.41440677984336
 31
0.0
  0
LINE
  5
66A9
330
1E
100
AcDbEntity
  8
12
100
AcDbLine
 10
314.5000006142581
 20
42.10000570308511
 30
0.0
 11
315.800000614261
 21
42.10000570308511
 31
0.0
  0
LINE
  5
66AA
330
1E
100
AcDbEntity
  8
12
100
AcDbLine
 10
320.5000006142581
 20
41.89500570308519
 30
0.0
 11
320.5000006142581
 21
33.10500570308521
 31
0.0
  0
LINE
  5
66AB
330
1E
100
AcDbEntity
  8
12
100
AcDbLine
 10
315.800000614261
 20
41.89500570308519
 30
0.0
 11
320.5000006142581
 21
41.89500570308519
 31
0.0
  0
LINE
  5
66AC
330
1E
100
AcDbEntity
  8
12
100
AcDbLine
 10
320.5000006142581
 20
35.00000570308476
 30
0.0
 11
326.0000006142581
 21
35.00000570308476
 31
0.0
  0
LINE
  5
66AD
330
1E
100
AcDbEntity
  8
18
100
AcDbLine
 10
326.0000006142581
 20
50.00000570308476
 30
0.0
 11
326.0000006142581
 21
52.50000570308476
 31
0.0
  0
LINE
  5
66AE
330
1E
100
AcDbEntity
  8
18
100
AcDbLine
 10
314.5000006142581
 20
50.00000570308476
 30
0.0
 11
326.0000006142581
 21
50.00000570308476
 31
0.0
  0
LINE
  5
66AF
330
1E
100
AcDbEntity
  8
18
100
AcDbLine
 10
314.5000006142581
 20
52.50000570308476
 30
0.0
 11
326.0000006142581
 21
52.50000570308476
 31
0.0
  0
LINE
  5
66B0
330
1E
100
AcDbEntity
  8
10
100
AcDbLine
 10
195.0
 20
51.0
 30
0.0
 11
202.0
 21
51.0
 31
0.0
  0
LINE
  5
66B1
330
1E
100
AcDbEntity
  8
10
100
AcDbLine
 10
202.0
 20
77.5
 30
0.0
 11
263.0
 21
77.5
 31
0.0
  0
LINE
  5
66B2
330
1E
100
AcDbEntity
  8
10
100
AcDbLine
 10
175.0047462004076
 20
15.23995644007664
 30
0.0
 11
178.4462048185158
 21
20.15486870581026
 31
0.0
  0
LINE
  5
66B3
330
1E
100
AcDbEntity
  8
10
100
AcDbLine
 10
202.0
 20
77.5
 30
0.0
 11
202.0
 21
51.0
 31
0.0
  0
LINE
  5
66B4
330
1E
100
AcDbEntity
  8
10
100
AcDbLine
 10
187.0
 20
14.16543683943018
 30
0.0
 11
178.4462048185158
 21
20.15486870581026
 31
0.0
  0
LINE
  5
66B6
330
1E
100
AcDbEntity
  8
10
100
AcDbLine
 10
292.0173901968373
 20
90.73381319163855
 30
0.0
 11
292.0061021263243
 21
91.08095769478678
 31
0.0
  0
LINE
  5
66B7
330
1E
100
AcDbEntity
  8
10
100
AcDbLine
 10
301.9999929292972
 20
94.14232601886579
 30
0.0
 11
301.9999929292972
 21
94.00001397113738
 31
0.0
  0
LINE
  5
66B8
330
1E
100
AcDbEntity
  8
10
100
AcDbLine
 10
301.9999929292972
 20
86.20000569594777
 30
0.0
 11
293.0000094676578
 21
86.20000569594777
 31
0.0
  0
LINE
  5
66B9
330
1E
100
AcDbEntity
  8
10
100
AcDbLine
 10
291.9999978478518
 20
86.46796414224082
 30
0.0
 11
291.9999978478518
 21
86.63561379029671
 31
0.0
  0
LINE
  5
66BA
330
1E
100
AcDbEntity
  8
10
100
AcDbLine
 10
292.0516177582685
 20
87.78130450032405
 30
0.0
 11
292.0500674653228
 21
88.08121351529008
 31
0.0
  0
LINE
  5
66BB
330
1E
100
AcDbEntity
  8
10
100
AcDbLine
 10
291.9999978478518
 20
86.63561379029671
 30
0.0
 11
292.0053269798518
 21
86.82593647268005
 31
0.0
  0
LINE
  5
66BC
330
1E
100
AcDbEntity
  8
10
100
AcDbLine
 10
301.9999929292972
 20
88.7980786626049
 30
0.0
 11
293.0000094676578
 21
88.7980786626049
 31
0.0
  0
LINE
  5
66BD
330
1E
100
AcDbEntity
  8
10
100
AcDbLine
 10
292.3451318148361
 20
86.2654571262392
 30
0.0
 11
292.4593690262554
 21
86.24254185863902
 31
0.0
  0
LINE
  5
66BE
330
1E
100
AcDbEntity
  8
10
100
AcDbLine
 10
291.9999978478518
 20
84.50001258793419
 30
0.0
 11
291.9999978478518
 21
82.00001987340511
 31
0.0
  0
LINE
  5
66BF
330
1E
100
AcDbEntity
  8
10
100
AcDbLine
 10
292.0053269798518
 20
86.82593647268005
 30
0.0
 11
292.0176808767646
 21
87.03171363786351
 31
0.0
  0
LINE
  5
66C0
330
1E
100
AcDbEntity
  8
10
100
AcDbLine
 10
303.9393367340961
 20
49.353563454526
 30
0.0
 11
303.9650861309853
 21
49.27779288681631
 31
0.0
  0
LINE
  5
66C1
330
1E
100
AcDbEntity
  8
10
100
AcDbLine
 10
292.0176808767646
 20
87.03171363786351
 30
0.0
 11
292.0321422031411
 21
87.25677257155622
 31
0.0
  0
LINE
  5
66C2
330
1E
100
AcDbEntity
  8
10
100
AcDbLine
 10
337.9999994458191
 20
56.00000843832456
 30
0.0
 11
337.9999994458191
 21
54.50000312027622
 31
0.0
  0
LINE
  5
66C3
330
1E
100
AcDbEntity
  8
10
100
AcDbLine
 10
292.0888005656379
 20
88.95565140651525
 30
0.0
 11
292.1569650085803
 21
88.92190831162407
 31
0.0
  0
LINE
  5
66C4
330
1E
100
AcDbEntity
  8
10
100
AcDbLine
 10
301.9999929292972
 20
94.98982757016348
 30
0.0
 11
301.9999929292972
 21
94.95949996441778
 31
0.0
  0
LINE
  5
66C5
330
1E
100
AcDbEntity
  8
10
100
AcDbLine
 10
301.9999929292972
 20
94.95949996441778
 30
0.0
 11
301.9999929292972
 21
94.90964835689013
 31
0.0
  0
LINE
  5
66C6
330
1E
100
AcDbEntity
  8
10
100
AcDbLine
 10
292.0274913243047
 20
90.38153334310845
 30
0.0
 11
292.0173901968373
 21
90.73381319163855
 31
0.0
  0
LINE
  5
66C7
330
1E
100
AcDbEntity
  8
10
100
AcDbLine
 10
303.2679387720708
 20
49.50001769121809
 30
0.0
 11
303.2679387720708
 21
50.00008405944027
 31
0.0
  0
LINE
  5
66C8
330
1E
100
AcDbEntity
  8
10
100
AcDbLine
 10
291.9999978478518
 20
89.06603710889795
 30
0.0
 11
291.9999978478518
 21
91.14323586920546
 31
0.0
  0
LINE
  5
66C9
330
1E
100
AcDbEntity
  8
10
100
AcDbLine
 10
292.0444476533957
 20
87.49590525839449
 30
0.0
 11
292.0516177582685
 21
87.78130450032405
 31
0.0
  0
LINE
  5
66CA
330
1E
100
AcDbEntity
  8
10
100
AcDbLine
 10
292.7173474617156
 20
88.80900338320499
 30
0.0
 11
292.8572129533859
 21
88.80084012191401
 31
0.0
  0
LINE
  5
66CB
330
1E
100
AcDbEntity
  8
10
100
AcDbLine
 10
291.9999978478518
 20
85.00000628617454
 30
0.0
 11
295.0000084839483
 21
85.00000628617454
 31
0.0
  0
LINE
  5
66CC
330
1E
100
AcDbEntity
  8
10
100
AcDbLine
 10
292.5832955685836
 20
88.82244732984146
 30
0.0
 11
292.7173474617156
 21
88.80900338320499
 31
0.0
  0
LINE
  5
66CD
330
1E
100
AcDbEntity
  8
10
100
AcDbLine
 10
292.0101716453063
 20
86.42983662511324
 30
0.0
 11
292.040499251052
 21
86.39246003113113
 31
0.0
  0
LINE
  5
66CE
330
1E
100
AcDbEntity
  8
10
100
AcDbLine
 10
337.8830249984166
 20
54.17860801401912
 30
0.0
 11
337.9330219459077
 21
54.25001838281969
 31
0.0
  0
LINE
  5
66CF
330
1E
100
AcDbEntity
  8
10
100
AcDbLine
 10
258.4149601671305
 20
89.05186646244329
 30
0.0
 11
258.4148390504923
 21
89.05322296877058
 31
0.0
  0
LINE
  5
66D0
330
1E
100
AcDbEntity
  8
10
100
AcDbLine
 10
301.9999929292972
 20
94.75575755872524
 30
0.0
 11
301.9999929292972
 21
94.65486740063351
 31
0.0
  0
LINE
  5
66D1
330
1E
100
AcDbEntity
  8
10
100
AcDbLine
 10
270.0000086686776
 20
50.00001138945846
 30
0.0
 11
269.8192057539125
 21
50.00001138945846
 31
0.0
  0
LINE
  5
66D2
330
1E
100
AcDbEntity
  8
10
100
AcDbLine
 10
295.0000084839483
 20
85.00000628617454
 30
0.0
 11
295.0000084839483
 21
84.98748282597444
 31
0.0
  0
LINE
  5
66D3
330
1E
100
AcDbEntity
  8
10
100
AcDbLine
 10
291.9999978478518
 20
84.50001258793419
 30
0.0
 11
291.9999978478518
 21
84.61127033009871
 31
0.0
  0
LINE
  5
66D4
330
1E
100
AcDbEntity
  8
10
100
AcDbLine
 10
301.9999929292972
 20
94.28173126732144
 30
0.0
 11
301.9999929292972
 21
94.14232601886579
 31
0.0
  0
LINE
  5
66D5
330
1E
100
AcDbEntity
  8
10
100
AcDbLine
 10
303.9842225595275
 20
49.19136405510653
 30
0.0
 11
303.9960193199148
 21
49.09754710857851
 31
0.0
  0
LINE
  5
66D6
330
1E
100
AcDbEntity
  8
10
100
AcDbLine
 10
269.1479046851964
 20
50.00001138945846
 30
0.0
 11
269.0053261808715
 21
50.00001138945846
 31
0.0
  0
LINE
  5
66D7
330
1E
100
AcDbEntity
  8
10
100
AcDbLine
 10
301.9999929292972
 20
94.5406544125417
 30
0.0
 11
301.9999929292972
 21
94.4154198105407
 31
0.0
  0
LINE
  5
66D8
330
1E
100
AcDbEntity
  8
10
100
AcDbLine
 10
292.090375081905
 20
86.35665795342175
 30
0.0
 11
292.1587333114728
 21
86.32308442182148
 31
0.0
  0
LINE
  5
66D9
330
1E
100
AcDbEntity
  8
10
100
AcDbLine
 10
284.999989179181
 20
48.5000060714101
 30
0.0
 11
289.3473012781978
 21
47.7334588798585
 31
0.0
  0
LINE
  5
66DA
330
1E
100
AcDbEntity
  8
10
100
AcDbLine
 10
292.020418112741
 20
89.35700771610028
 30
0.0
 11
292.0289205006192
 21
89.69097472921205
 31
0.0
  0
LINE
  5
66DB
330
1E
100
AcDbEntity
  8
10
100
AcDbLine
 10
291.9999978478518
 20
91.43614434258962
 30
0.0
 11
291.9999978478518
 21
94.00001397113738
 31
0.0
  0
LINE
  5
66DC
330
1E
100
AcDbEntity
  8
10
100
AcDbLine
 10
292.2442416567428
 20
86.29249035947578
 30
0.0
 11
292.3451318148361
 21
86.2654571262392
 31
0.0
  0
LINE
  5
66DD
330
1E
100
AcDbEntity
  8
10
100
AcDbLine
 10
303.7928824974005
 20
49.50001769121809
 30
0.0
 11
303.8332870072918
 21
49.49040103029075
 31
0.0
  0
LINE
  5
66DE
330
1E
100
AcDbEntity
  8
10
100
AcDbLine
 10
305.499997263636
 20
80.0000208571164
 30
0.0
 11
295.0000084839483
 21
80.0000208571164
 31
0.0
  0
LINE
  5
66DF
330
1E
100
AcDbEntity
  8
10
100
AcDbLine
 10
301.9999929292972
 20
95.0000013676181
 30
0.0
 11
301.9999929292972
 21
94.98982757016348
 31
0.0
  0
LINE
  5
66E0
330
1E
100
AcDbEntity
  8
10
100
AcDbLine
 10
303.9969640296766
 20
47.91489160113266
 30
0.0
 11
303.9999919455876
 21
48.00001237316974
 31
0.0
  0
LINE
  5
66E1
330
1E
100
AcDbEntity
  8
10
100
AcDbLine
 10
301.9999929292972
 20
85.00000628617454
 30
0.0
 11
301.9999929292972
 21
86.20000569594777
 31
0.0
  0
LINE
  5
66E2
330
1E
100
AcDbEntity
  8
10
100
AcDbLine
 10
295.0000084839483
 20
84.89092864346458
 30
0.0
 11
295.0000084839483
 21
84.81176680993668
 31
0.0
  0
LINE
  5
66E3
330
1E
100
AcDbEntity
  8
10
100
AcDbLine
 10
269.0053261808715
 20
50.00001138945846
 30
0.0
 11
268.8772332262524
 21
50.00001138945846
 31
0.0
  0
LINE
  5
66E4
330
1E
100
AcDbEntity
  8
10
100
AcDbLine
 10
291.9999978478518
 20
84.98748282597444
 30
0.0
 11
291.9999978478518
 21
85.00000628617454
 31
0.0
  0
LINE
  5
66E5
330
1E
100
AcDbEntity
  8
10
100
AcDbLine
 10
268.5109280712276
 20
50.00001138945846
 30
0.0
 11
268.5000033506294
 21
50.00001138945846
 31
0.0
  0
LINE
  5
66E6
330
1E
100
AcDbEntity
  8
10
100
AcDbLine
 10
292.0500674653228
 20
88.08121351529008
 30
0.0
 11
292.0394092013228
 21
88.40294774812901
 31
0.0
  0
LINE
  5
66E7
330
1E
100
AcDbEntity
  8
10
100
AcDbLine
 10
292.584579404931
 20
86.22422902322069
 30
0.0
 11
292.7182679481483
 21
86.21085774656604
 31
0.0
  0
LINE
  5
66E8
330
1E
100
AcDbEntity
  8
10
100
AcDbLine
 10
268.5974780195754
 20
50.00001138945846
 30
0.0
 11
268.5435811163916
 21
50.00001138945846
 31
0.0
  0
LINE
  5
66E9
330
1E
100
AcDbEntity
  8
10
100
AcDbLine
 10
303.9733220622583
 20
47.75450895125866
 30
0.0
 11
303.9880013985821
 21
47.83224160847749
 31
0.0
  0
LINE
  5
66EA
330
1E
100
AcDbEntity
  8
10
100
AcDbLine
 10
337.9698414033628
 20
54.32901065305667
 30
0.0
 11
337.9923933210593
 21
54.41318671533006
 31
0.0
  0
LINE
  5
66EB
330
1E
100
AcDbEntity
  8
10
100
AcDbLine
 10
295.0000084839483
 20
84.71695670699046
 30
0.0
 11
295.0000084839483
 21
84.61127033009871
 31
0.0
  0
LINE
  5
66EC
330
1E
100
AcDbEntity
  8
10
100
AcDbLine
 10
291.9999978478518
 20
86.46796414224082
 30
0.0
 11
292.0101716453063
 21
86.42983662511324
 31
0.0
  0
LINE
  5
66ED
330
1E
100
AcDbEntity
  8
10
100
AcDbLine
 10
291.9999978478518
 20
89.06603710889795
 30
0.0
 11
292.0056418831082
 21
89.03759892267954
 31
0.0
  0
LINE
  5
66EE
330
1E
100
AcDbEntity
  8
10
100
AcDbLine
 10
337.9923933210593
 20
54.41318671533006
 30
0.0
 11
337.9999994458191
 21
54.50000312027622
 31
0.0
  0
LINE
  5
66EF
330
1E
100
AcDbEntity
  8
10
100
AcDbLine
 10
301.9999929292972
 20
94.90964835689013
 30
0.0
 11
301.9999929292972
 21
94.84126590399865
 31
0.0
  0
LINE
  5
66F0
330
1E
100
AcDbEntity
  8
10
100
AcDbLine
 10
292.0394092013228
 20
88.40294774812901
 30
0.0
 11
292.023397582001
 21
88.73555825491349
 31
0.0
  0
LINE
  5
66F1
330
1E
100
AcDbEntity
  8
10
100
AcDbLine
 10
292.0095176154717
 20
89.02916920478856
 30
0.0
 11
292.020418112741
 21
89.35700771610028
 31
0.0
  0
LINE
  5
66F2
330
1E
100
AcDbEntity
  8
10
100
AcDbLine
 10
303.9079433019503
 20
49.4157447356356
 30
0.0
 11
303.9393367340961
 21
49.353563454526
 31
0.0
  0
LINE
  5
66F3
330
1E
100
AcDbEntity
  8
10
100
AcDbLine
 10
291.9999978478518
 20
85.00000628617454
 30
0.0
 11
291.9999978478518
 21
86.46796414224082
 31
0.0
  0
LINE
  5
66F4
330
1E
100
AcDbEntity
  8
10
100
AcDbLine
 10
293.5000031659001
 20
47.50001867492938
 30
0.0
 11
303.0000045491033
 21
47.50001867492938
 31
0.0
  0
LINE
  5
66F5
330
1E
100
AcDbEntity
  8
10
100
AcDbLine
 10
268.0000096523869
 20
48.5000060714101
 30
0.0
 11
284.999989179181
 21
48.5000060714101
 31
0.0
  0
LINE
  5
66F6
330
1E
100
AcDbEntity
  8
10
100
AcDbLine
 10
337.9330219459077
 20
54.25001838281969
 30
0.0
 11
337.9698414033628
 21
54.32901065305667
 31
0.0
  0
LINE
  5
66F7
330
1E
100
AcDbEntity
  8
10
100
AcDbLine
 10
312.5000059323065
 20
80.0000208571164
 30
0.0
 11
301.9999929292972
 21
85.00000628617454
 31
0.0
  0
LINE
  5
66F8
330
1E
100
AcDbEntity
  8
10
100
AcDbLine
 10
303.9999919455876
 20
48.00001237316974
 30
0.0
 11
303.9999919455876
 21
48.99999976965045
 31
0.0
  0
LINE
  5
66F9
330
1E
100
AcDbEntity
  8
0
100
AcDbLine
 10
337.9999994458191
 20
79.50000293554876
 30
0.0
 11
337.9999994458191
 21
78.00002184082768
 31
0.0
  0
LINE
  5
66FA
330
1E
100
AcDbEntity
  8
10
100
AcDbLine
 10
295.0000084839483
 20
84.95049380522869
 30
0.0
 11
295.0000084839483
 21
84.89092864346458
 31
0.0
  0
LINE
  5
66FB
330
1E
100
AcDbEntity
  8
10
100
AcDbLine
 10
303.8721412242375
 20
49.46193862074506
 30
0.0
 11
303.9079433019503
 21
49.4157447356356
 31
0.0
  0
LINE
  5
66FC
330
1E
100
AcDbEntity
  8
10
100
AcDbLine
 10
303.9650861309853
 20
49.27779288681631
 30
0.0
 11
303.9842225595275
 21
49.19136405510653
 31
0.0
  0
LINE
  5
66FD
330
1E
100
AcDbEntity
  8
10
100
AcDbLine
 10
337.7499904850338
 20
54.06698692194549
 30
0.0
 11
337.8214008538343
 21
54.1169838694368
 31
0.0
  0
LINE
  5
66FE
330
1E
100
AcDbEntity
  8
10
100
AcDbLine
 10
292.0095176154717
 20
89.02916920478856
 30
0.0
 11
292.0393123080139
 21
88.99164727084281
 31
0.0
  0
LINE
  5
66FF
330
1E
100
AcDbEntity
  8
10
100
AcDbLine
 10
268.7655152408696
 20
50.00001138945846
 30
0.0
 11
268.671819410978
 21
50.00001138945846
 31
0.0
  0
LINE
  5
6700
330
1E
100
AcDbEntity
  8
10
100
AcDbLine
 10
292.457770286659
 20
88.84090550522342
 30
0.0
 11
292.5832955685836
 21
88.82244732984146
 31
0.0
  0
LINE
  5
6701
330
1E
100
AcDbEntity
  8
10
100
AcDbLine
 10
292.4593690262554
 20
86.24254185863902
 30
0.0
 11
292.584579404931
 21
86.22422902322069
 31
0.0
  0
LINE
  5
6702
330
1E
100
AcDbEntity
  8
10
100
AcDbLine
 10
301.9999929292972
 20
86.20000569594777
 30
0.0
 11
301.9999929292972
 21
88.7980786626049
 31
0.0
  0
LINE
  5
6703
330
1E
100
AcDbEntity
  8
10
100
AcDbLine
 10
269.3029097564139
 20
50.00001138945846
 30
0.0
 11
269.1479046851964
 21
50.00001138945846
 31
0.0
  0
LINE
  5
6704
330
1E
100
AcDbEntity
  8
10
100
AcDbLine
 10
291.9999978478518
 20
84.95049380522869
 30
0.0
 11
291.9999978478518
 21
84.98748282597444
 31
0.0
  0
LINE
  5
6705
330
1E
100
AcDbEntity
  8
10
100
AcDbLine
 10
295.0000084839483
 20
80.0000208571164
 30
0.0
 11
295.0000084839483
 21
84.50001258793419
 31
0.0
  0
LINE
  5
6706
330
1E
100
AcDbEntity
  8
10
100
AcDbLine
 10
337.8214008538343
 20
54.1169838694368
 30
0.0
 11
337.8830249984166
 21
54.17860801401912
 31
0.0
  0
LINE
  5
6707
330
1E
100
AcDbEntity
  8
10
100
AcDbLine
 10
269.4680886250935
 20
50.00001138945846
 30
0.0
 11
269.3029097564139
 21
50.00001138945846
 31
0.0
  0
LINE
  5
6708
330
1E
100
AcDbEntity
  8
10
100
AcDbLine
 10
337.6709982148021
 20
54.03016746449065
 30
0.0
 11
337.7499904850338
 21
54.06698692194549
 31
0.0
  0
LINE
  5
6709
330
1E
100
AcDbEntity
  8
10
100
AcDbLine
 10
292.0321422031411
 20
87.25677257155622
 30
0.0
 11
292.0444476533957
 21
87.49590525839449
 31
0.0
  0
LINE
  5
670A
330
1E
100
AcDbEntity
  8
10
100
AcDbLine
 10
303.0815160453785
 20
49.50001769121809
 30
0.0
 11
303.7928824974005
 21
49.50001769121809
 31
0.0
  0
LINE
  5
670B
330
1E
100
AcDbEntity
  8
10
100
AcDbLine
 10
292.3433392886216
 20
88.86394188945997
 30
0.0
 11
292.457770286659
 21
88.84090550522342
 31
0.0
  0
LINE
  5
670C
330
1E
100
AcDbEntity
  8
10
100
AcDbLine
 10
303.8332870072918
 20
49.49040103029075
 30
0.0
 11
303.8721412242375
 21
49.46193862074506
 31
0.0
  0
LINE
  5
670D
330
1E
100
AcDbEntity
  8
10
100
AcDbLine
 10
268.671819410978
 20
50.00001138945846
 30
0.0
 11
268.5974780195754
 21
50.00001138945846
 31
0.0
  0
LINE
  5
670E
330
1E
100
AcDbEntity
  8
10
100
AcDbLine
 10
291.9999978478518
 20
86.79965416258893
 30
0.0
 11
291.9999978478518
 21
89.06603710889795
 31
0.0
  0
LINE
  5
670F
330
1E
100
AcDbEntity
  8
10
100
AcDbLine
 10
301.9999929292972
 20
88.7980786626049
 30
0.0
 11
301.9999929292972
 21
94.00001397113738
 31
0.0
  0
LINE
  5
6710
330
1E
100
AcDbEntity
  8
10
100
AcDbLine
 10
295.0000084839483
 20
84.98748282597444
 30
0.0
 11
295.0000084839483
 21
84.95049380522869
 31
0.0
  0
LINE
  5
6711
330
1E
100
AcDbEntity
  8
10
100
AcDbLine
 10
292.8576731966021
 20
86.20274293192961
 30
0.0
 11
293.0000094676578
 21
86.20000569594777
 31
0.0
  0
LINE
  5
6712
330
1E
100
AcDbEntity
  8
10
100
AcDbLine
 10
292.7182679481483
 20
86.21085774656604
 30
0.0
 11
292.8576731966021
 21
86.20274293192961
 31
0.0
  0
LINE
  5
6713
330
1E
100
AcDbEntity
  8
10
100
AcDbLine
 10
268.5435811163916
 20
50.00001138945846
 30
0.0
 11
268.5109280712276
 21
50.00001138945846
 31
0.0
  0
LINE
  5
6714
330
1E
100
AcDbEntity
  8
10
100
AcDbLine
 10
291.9999978478518
 20
84.71695670699046
 30
0.0
 11
291.9999978478518
 21
84.81176680993668
 31
0.0
  0
LINE
  5
6715
330
1E
100
AcDbEntity
  8
10
100
AcDbLine
 10
291.9999978478518
 20
84.81176680993668
 30
0.0
 11
291.9999978478518
 21
84.89092864346458
 31
0.0
  0
LINE
  5
6716
330
1E
100
AcDbEntity
  8
10
100
AcDbLine
 10
291.9999978478518
 20
84.61127033009871
 30
0.0
 11
291.9999978478518
 21
84.71695670699046
 31
0.0
  0
LINE
  5
6717
330
1E
100
AcDbEntity
  8
10
100
AcDbLine
 10
337.5868221525233
 20
54.00761554679957
 30
0.0
 11
337.6709982148021
 21
54.03016746449065
 31
0.0
  0
LINE
  5
6718
330
1E
100
AcDbEntity
  8
10
100
AcDbLine
 10
268.0000096523869
 20
81.9999842439147
 30
0.0
 11
268.0000096523869
 21
48.5000060714101
 31
0.0
  0
LINE
  5
6719
330
1E
100
AcDbEntity
  8
10
100
AcDbLine
 10
292.023397582001
 20
88.73555825491349
 30
0.0
 11
292.0095176154717
 21
89.02916920478856
 31
0.0
  0
LINE
  5
671A
330
1E
100
AcDbEntity
  8
10
100
AcDbLine
 10
305.0000035653939
 20
49.50001769121809
 30
0.0
 11
305.0000035653939
 21
79.50000293554876
 31
0.0
  0
LINE
  5
671B
330
1E
100
AcDbEntity
  8
10
100
AcDbLine
 10
269.8192057539125
 20
50.00001138945846
 30
0.0
 11
269.641018958493
 21
50.00001138945846
 31
0.0
  0
LINE
  5
671C
330
1E
100
AcDbEntity
  8
10
100
AcDbLine
 10
293.0000094676578
 20
95.0000013676181
 30
0.0
 11
301.9999929292972
 21
95.0000013676181
 31
0.0
  0
LINE
  5
671D
330
1E
100
AcDbEntity
  8
10
100
AcDbLine
 10
303.9960193199148
 20
49.09754710857851
 30
0.0
 11
303.9999919455876
 21
48.99999976965045
 31
0.0
  0
LINE
  5
671E
330
1E
100
AcDbEntity
  8
10
100
AcDbLine
 10
301.9999929292972
 20
94.65486740063351
 30
0.0
 11
301.9999929292972
 21
94.5406544125417
 31
0.0
  0
LINE
  5
671F
330
1E
100
AcDbEntity
  8
10
100
AcDbLine
 10
337.5000057475771
 20
54.00000942203586
 30
0.0
 11
337.5868221525233
 21
54.00761554679957
 31
0.0
  0
LINE
  5
6720
330
1E
100
AcDbEntity
  8
10
100
AcDbLine
 10
268.8772332262524
 20
50.00001138945846
 30
0.0
 11
268.7655152408696
 21
50.00001138945846
 31
0.0
  0
LINE
  5
6721
330
1E
100
AcDbEntity
  8
10
100
AcDbLine
 10
292.040499251052
 20
86.39246003113113
 30
0.0
 11
292.090375081905
 21
86.35665795342175
 31
0.0
  0
LINE
  5
6722
330
1E
100
AcDbEntity
  8
10
100
AcDbLine
 10
269.641018958493
 20
50.00001138945846
 30
0.0
 11
269.4680886250935
 21
50.00001138945846
 31
0.0
  0
LINE
  5
6723
330
1E
100
AcDbEntity
  8
10
100
AcDbLine
 10
337.9999994458191
 20
56.00000843832456
 30
0.0
 11
337.9999994458191
 21
78.00002184082768
 31
0.0
  0
LINE
  5
6724
330
1E
100
AcDbEntity
  8
10
100
AcDbLine
 10
292.0289205006192
 20
89.69097472921205
 30
0.0
 11
292.0316092899446
 21
90.03637515279661
 31
0.0
  0
LINE
  5
6725
330
1E
100
AcDbEntity
  8
10
100
AcDbLine
 10
292.1569650085803
 20
88.92190831162407
 30
0.0
 11
292.24240068387
 21
88.89114468598746
 31
0.0
  0
LINE
  5
6726
330
1E
100
AcDbEntity
  8
10
100
AcDbLine
 10
292.0061021263243
 20
91.08095769478678
 30
0.0
 11
291.9999978478518
 21
91.43614434258962
 31
0.0
  0
LINE
  5
6727
330
1E
100
AcDbEntity
  8
10
100
AcDbLine
 10
292.0316092899446
 20
90.03637515279661
 30
0.0
 11
292.0274913243047
 21
90.38153334310845
 31
0.0
  0
LINE
  5
6728
330
1E
100
AcDbEntity
  8
10
100
AcDbLine
 10
301.9999929292972
 20
94.4154198105407
 30
0.0
 11
301.9999929292972
 21
94.28173126732144
 31
0.0
  0
LINE
  5
6729
330
1E
100
AcDbEntity
  8
10
100
AcDbLine
 10
292.0393123080139
 20
88.99164727084281
 30
0.0
 11
292.0888005656379
 21
88.95565140651525
 31
0.0
  0
LINE
  5
672A
330
1E
100
AcDbEntity
  8
10
100
AcDbLine
 10
291.9999978478518
 20
84.89092864346458
 30
0.0
 11
291.9999978478518
 21
84.95049380522869
 31
0.0
  0
LINE
  5
672B
330
1E
100
AcDbEntity
  8
10
100
AcDbLine
 10
292.8572129533859
 20
88.80084012191401
 30
0.0
 11
293.0000094676578
 21
88.7980786626049
 31
0.0
  0
LINE
  5
672C
330
1E
100
AcDbEntity
  8
10
100
AcDbLine
 10
303.9880013985821
 20
47.83224160847749
 30
0.0
 11
303.9969640296766
 21
47.91489160113266
 31
0.0
  0
LINE
  5
672D
330
1E
100
AcDbEntity
  8
10
100
AcDbLine
 10
295.0000084839483
 20
84.81176680993668
 30
0.0
 11
295.0000084839483
 21
84.71695670699046
 31
0.0
  0
LINE
  5
672E
330
1E
100
AcDbEntity
  8
10
100
AcDbLine
 10
301.9999929292972
 20
94.84126590399865
 30
0.0
 11
301.9999929292972
 21
94.75575755872524
 31
0.0
  0
LINE
  5
672F
330
1E
100
AcDbEntity
  8
10
100
AcDbLine
 10
295.0000084839483
 20
84.61127033009871
 30
0.0
 11
295.0000084839483
 21
84.50001258793419
 31
0.0
  0
LINE
  5
6730
330
1E
100
AcDbEntity
  8
10
100
AcDbLine
 10
292.24240068387
 20
88.89114468598746
 30
0.0
 11
292.3433392886216
 21
88.86394188945997
 31
0.0
  0
LINE
  5
6731
330
1E
100
AcDbEntity
  8
10
100
AcDbLine
 10
292.1587333114728
 20
86.32308442182148
 30
0.0
 11
292.2442416567428
 21
86.29249035947578
 31
0.0
  0
LINE
  5
6732
330
1E
100
AcDbEntity
  8
10
100
AcDbLine
 10
305.499997263636
 20
80.0000208571164
 30
0.0
 11
337.5000057475771
 21
80.0000208571164
 31
0.0
  0
LINE
  5
6733
330
1E
100
AcDbEntity
  8
10
100
AcDbLine
 10
337.5000057475771
 20
54.00000942203586
 30
0.0
 11
311.000000614258
 21
54.00000942203586
 31
0.0
  0
LINE
  5
6734
330
1E
100
AcDbEntity
  8
10
100
AcDbLine
 10
187.0
 20
25.0
 30
0.0
 11
195.0
 21
25.0
 31
0.0
  0
INSERT
  5
697C
330
1E
100
AcDbEntity
  8
30
100
AcDbBlockReference
  2
*U16
 10
-1274.038277511958
 20
-576.1763329334033
 30
0.0
 41
2.5
 42
2.5
 43
2.5
  0
DIMENSION
  5
697D
330
1E
100
AcDbEntity
  8
30
100
AcDbDimension
280
     0
  2
*D18
 10
47.49999999999999
 20
-386.7494181439515
 30
0.0
 11
12.49999999999999
 21
-383.7494181439515
 31
0.0
 70
    32
 71
     5
 42
-1.0
 73
     0
 74
     0
 75
     0
  3
STANDARD
100
AcDbAlignedDimension
 13
-22.5
 23
-300.0000000164996
 33
0.0
 14
47.5
 24
-300.0000000164996
 34
0.0
 50
180.0
100
AcDbRotatedDimension
  0
LINE
  5
697E
330
1E
100
AcDbEntity
  8
18
 48
2.0
100
AcDbLine
 10
11.50000474941043
 20
-346.2000136279679
 30
0.0
 11
9.999999431362084
 21
-348.7980987062886
 31
0.0
  0
LINE
  5
697F
330
1E
100
AcDbEntity
  8
18
 48
2.0
100
AcDbLine
 10
50.00000095254653
 20
-348.7980987062886
 30
0.0
 11
48.50000774616638
 21
-346.2000136279679
 31
0.0
  0
LINE
  5
6980
330
1E
100
AcDbEntity
  8
18
 48
2.0
100
AcDbLine
 10
-9.999999815270712
 20
-348.7980987062886
 30
0.0
 11
-11.49999302165815
 21
-346.2000136279679
 31
0.0
  0
LINE
  5
6981
330
1E
100
AcDbEntity
  8
18
 48
2.0
100
AcDbLine
 10
-18.49998957866771
 20
-346.2000136279679
 30
0.0
 11
-19.99999489671608
 21
-348.7980987062886
 31
0.0
  0
LINE
  5
6982
330
1E
100
AcDbEntity
  8
18
 48
2.0
100
AcDbLine
 10
41.50001118915677
 20
-346.2000136279679
 30
0.0
 11
40.00000587110115
 21
-348.7980987062886
 31
0.0
  0
LINE
  5
6983
330
1E
100
AcDbEntity
  8
18
 48
2.0
100
AcDbLine
 10
19.99999451280746
 20
-348.7980987062886
 30
0.0
 11
18.50000130642001
 21
-346.2000136279679
 31
0.0
  0
LINE
  5
6984
330
1E
100
AcDbEntity
  8
18
 48
2.0
100
AcDbLine
 10
0.0
 20
-172.5
 30
0.0
 11
0.0
 21
-347.5
 31
0.0
  0
ARC
  5
6985
330
1E
100
AcDbEntity
  8
18
 48
2.0
100
AcDbCircle
 10
18.99999538857082
 20
-354.000009791494
 30
0.0
 40
0.9999999812562155
210
0.0
220
0.0
230
-1.0
100
AcDbArc
 50
270.0
 51
0.0
  0
CIRCLE
  5
6986
330
1E
100
AcDbEntity
  8
18
 48
2.0
100
AcDbCircle
 10
-14.99999432807817
 20
-350.0000057030847
 30
0.0
 40
2.175250057989682
  0
ARC
  5
6987
330
1E
100
AcDbEntity
  8
18
 48
2.0
100
AcDbCircle
 10
-10.99999893950734
 20
-354.000009791494
 30
0.0
 40
0.9999999812562155
210
0.0
220
0.0
230
-1.0
100
AcDbArc
 50
270.0
 51
0.0
  0
ARC
  5
6988
330
1E
100
AcDbEntity
  8
18
 48
2.0
100
AcDbCircle
 10
-41.00000537924643
 20
-354.000009791494
 30
0.0
 40
0.9999999812562155
210
0.0
220
0.0
230
-1.0
100
AcDbArc
 50
270.0
 51
0.0
  0
CIRCLE
  5
6989
330
1E
100
AcDbEntity
  8
18
 48
2.0
100
AcDbCircle
 10
-15.0
 20
-350.0000057030847
 30
0.0
 40
2.250000028793264
210
0.0
220
0.0
230
-1.0
  0
ARC
  5
698A
330
1E
100
AcDbEntity
  8
18
 48
2.0
100
AcDbCircle
 10
10.99999932341596
 20
-354.000009791494
 30
0.0
 40
0.9999999812562155
210
0.0
220
0.0
230
-1.0
100
AcDbArc
 50
180.0
 51
270.0
  0
CIRCLE
  5
698B
330
1E
100
AcDbEntity
  8
18
 48
2.0
100
AcDbCircle
 10
45.00000643973907
 20
-350.0000057030847
 30
0.0
 40
2.175250057989682
  0
ARC
  5
698C
330
1E
100
AcDbEntity
  8
18
 48
2.0
100
AcDbCircle
 10
-18.99999500466219
 20
-354.000009791494
 30
0.0
 40
0.9999999812562155
210
0.0
220
0.0
230
-1.0
100
AcDbArc
 50
180.0
 51
270.0
  0
ARC
  5
698D
330
1E
100
AcDbEntity
  8
18
 48
2.0
100
AcDbCircle
 10
-49.00000144440127
 20
-354.000009791494
 30
0.0
 40
0.9999999812562155
210
0.0
220
0.0
230
-1.0
100
AcDbArc
 50
180.0
 51
270.0
  0
LINE
  5
698E
330
1E
100
AcDbEntity
  8
18
 48
2.0
100
AcDbLine
 10
50.00000095254653
 20
-354.000009791494
 30
0.0
 11
50.00000095254653
 21
-348.7980987062886
 31
0.0
  0
LINE
  5
698F
330
1E
100
AcDbEntity
  8
18
 48
2.0
100
AcDbLine
 10
19.99999451280746
 20
-354.000009791494
 30
0.0
 11
19.99999451280746
 21
-348.7980987062886
 31
0.0
  0
LINE
  5
6990
330
1E
100
AcDbEntity
  8
18
 48
2.0
100
AcDbLine
 10
10.99999893950734
 20
-355.000021411302
 30
0.0
 11
18.99999500466219
 21
-355.000021411302
 31
0.0
  0
LINE
  5
6991
330
1E
100
AcDbEntity
  8
18
 48
2.0
100
AcDbLine
 10
-18.99999538857082
 20
-355.000021411302
 30
0.0
 11
-10.99999932341596
 21
-355.000021411302
 31
0.0
  0
LINE
  5
6992
330
1E
100
AcDbEntity
  8
18
 48
2.0
100
AcDbLine
 10
40.00000587110115
 20
-348.7980987062886
 30
0.0
 11
40.00000587110115
 21
-354.000009791494
 31
0.0
  0
LINE
  5
6993
330
1E
100
AcDbEntity
  8
18
 48
2.0
100
AcDbLine
 10
-9.999999815270712
 20
-354.000009791494
 30
0.0
 11
-9.999999815270712
 21
-348.7980987062886
 31
0.0
  0
LINE
  5
6994
330
1E
100
AcDbEntity
  8
18
 48
2.0
100
AcDbLine
 10
41.00000537924643
 20
-355.000021411302
 30
0.0
 11
49.00000144440127
 21
-355.000021411302
 31
0.0
  0
LINE
  5
6995
330
1E
100
AcDbEntity
  8
18
 48
2.0
100
AcDbLine
 10
-19.99999489671608
 20
-348.7980987062886
 30
0.0
 11
-19.99999489671608
 21
-354.000009791494
 31
0.0
  0
LINE
  5
6996
330
1E
100
AcDbEntity
  8
18
 48
2.0
100
AcDbLine
 10
9.999999431362084
 20
-348.7980987062886
 30
0.0
 11
9.999999431362084
 21
-354.000009791494
 31
0.0
  0
DIMENSION
  5
6998
330
1E
100
AcDbEntity
  8
30
100
AcDbDimension
280
     0
  2
*D20
 10
104.0867224927932
 20
-222.5
 30
0.0
 11
101.0867224927932
 21
-260.0
 31
0.0
 70
    32
 71
     5
 42
-1.0
 73
     0
 74
     0
 75
     0
  3
STANDARD
100
AcDbAlignedDimension
 13
50.00000001650185
 23
-297.5
 33
0.0
 14
50.00000001650185
 24
-222.5
 34
0.0
 50
270.0
100
AcDbRotatedDimension
  0
LINE
  5
6999
330
1E
100
AcDbEntity
  8
18
 48
2.0
100
AcDbLine
 10
75.00000682365499
 20
-180.5000103468028
 30
0.0
 11
75.00000682365499
 21
-339.4974963564282
 31
0.0
  0
LINE
  5
699A
330
1E
100
AcDbEntity
  8
18
 48
2.0
100
AcDbLine
 10
-44.99999471198679
 20
-295.5000082858905
 30
0.0
 11
-44.99999471198679
 21
-203.2500021850028
 31
0.0
  0
DIMENSION
  5
699D
330
1E
100
AcDbEntity
  8
30
100
AcDbDimension
280
     0
  2
*D21
 10
91.58672249279335
 20
-260.0
 30
0.0
 11
88.58672249279337
 21
-278.75
 31
0.0
 70
    32
 71
     5
 42
-1.0
 73
     0
 74
     0
 75
     0
  3
STANDARD
100
AcDbAlignedDimension
 13
50.00000001650185
 23
-297.5
 33
0.0
 14
80.0
 24
-260.0
 34
0.0
 50
270.0
100
AcDbRotatedDimension
  0
ARC
  5
699E
330
1E
100
AcDbEntity
  8
18
 48
2.0
100
AcDbCircle
 10
-44.49999495791415
 20
-344.5000053803751
 30
0.0
 40
0.499999990628108
100
AcDbArc
 50
180.0
 51
270.0
  0
ARC
  5
699F
330
1E
100
AcDbEntity
  8
18
 48
2.0
100
AcDbCircle
 10
71.24999352853047
 20
-344.5000053803751
 30
0.0
 40
0.499999990628108
100
AcDbArc
 50
270.0
 51
0.0
  0
ARC
  5
69A0
330
1E
100
AcDbEntity
  8
18
 48
2.0
100
AcDbCircle
 10
74.50001312541282
 20
-339.5000048117371
 30
0.0
 40
0.499999990628108
100
AcDbArc
 50
270.0
 51
0.0
  0
CIRCLE
  5
69A1
330
1E
100
AcDbEntity
  8
12
100
AcDbCircle
 10
47.5
 20
-297.5
 30
0.0
 40
2.999999999999996
  0
CIRCLE
  5
69A2
330
1E
100
AcDbEntity
  8
12
100
AcDbCircle
 10
-22.5
 20
-297.5
 30
0.0
 40
2.999999999999996
  0
LINE
  5
69A3
330
1E
100
AcDbEntity
  8
18
 48
2.0
100
AcDbLine
 10
-44.99999471198679
 20
-310.5000069638871
 30
0.0
 11
-44.99999471198679
 21
-299.5000063184674
 31
0.0
  0
LINE
  5
69A4
330
1E
100
AcDbEntity
  8
18
 48
2.0
100
AcDbLine
 10
71.24999352853047
 20
-345.0000051344467
 30
0.0
 11
48.50000774616638
 21
-345.0000051344467
 31
0.0
  0
LINE
  5
69A5
330
1E
100
AcDbEntity
  8
18
 48
2.0
100
AcDbLine
 10
-44.61125270008049
 20
-316.7500069177053
 30
0.0
 11
-44.71693907697043
 21
-316.7500069177053
 31
0.0
  0
LINE
  5
69A6
330
1E
100
AcDbEntity
  8
18
 48
2.0
100
AcDbLine
 10
-44.99999471198679
 20
-344.499519010279
 30
0.0
 11
-44.99999471198679
 21
-338.0000055495206
 31
0.0
  0
LINE
  5
69A7
330
1E
100
AcDbEntity
  8
18
 48
2.0
100
AcDbLine
 10
41.50001118915677
 20
-345.0000142181948
 30
0.0
 11
41.50001118915677
 21
-346.2000136279679
 31
0.0
  0
LINE
  5
69A8
330
1E
100
AcDbEntity
  8
18
 48
2.0
100
AcDbLine
 10
-44.8909110134482
 20
-316.7500069177053
 30
0.0
 11
-44.95047617521049
 21
-316.7500069177053
 31
0.0
  0
LINE
  5
69A9
330
1E
100
AcDbEntity
  8
18
 48
2.0
100
AcDbLine
 10
-11.49999302165815
 20
-346.2000136279679
 30
0.0
 11
-11.49999302165815
 21
-345.0000142181948
 31
0.0
  0
LINE
  5
69AA
330
1E
100
AcDbEntity
  8
18
 48
2.0
100
AcDbLine
 10
-44.49999495791415
 20
-316.7500069177053
 30
0.0
 11
-44.61125270008049
 21
-316.7500069177053
 31
0.0
  0
LINE
  5
69AB
330
1E
100
AcDbEntity
  8
18
 48
2.0
100
AcDbLine
 10
-41.7499932826031
 20
-338.0000055495206
 30
0.0
 11
-41.7499932826031
 21
-316.7500069177053
 31
0.0
  0
LINE
  5
69AC
330
1E
100
AcDbEntity
  8
18
 48
2.0
100
AcDbLine
 10
-11.49999302165815
 20
-345.0000051344467
 30
0.0
 11
11.50000474941043
 21
-345.0000051344467
 31
0.0
  0
LINE
  5
69AD
330
1E
100
AcDbEntity
  8
18
 48
2.0
100
AcDbLine
 10
-44.95047617521049
 20
-316.7500069177053
 30
0.0
 11
-44.98745914012395
 21
-316.7500069177053
 31
0.0
  0
LINE
  5
69AE
330
1E
100
AcDbEntity
  8
18
 48
2.0
100
AcDbLine
 10
-44.99999471198679
 20
-316.7500069177053
 30
0.0
 11
-44.99999471198679
 21
-310.5000069638871
 31
0.0
  0
LINE
  5
69AF
330
1E
100
AcDbEntity
  8
18
 48
2.0
100
AcDbLine
 10
-44.49999495791415
 20
-345.0000051344467
 30
0.0
 11
-18.49998957866771
 21
-345.0000051344467
 31
0.0
  0
LINE
  5
69B0
330
1E
100
AcDbEntity
  8
18
 48
2.0
100
AcDbLine
 10
-18.49998957866771
 20
-345.0000051344467
 30
0.0
 11
-18.49998957866771
 21
-346.2000136279679
 31
0.0
  0
LINE
  5
69B1
330
1E
100
AcDbEntity
  8
18
 48
2.0
100
AcDbLine
 10
11.50000474941043
 20
-345.0000142181948
 30
0.0
 11
11.50000474941043
 21
-346.2000136279679
 31
0.0
  0
LINE
  5
69B2
330
1E
100
AcDbEntity
  8
18
 48
2.0
100
AcDbLine
 10
-44.98745914012395
 20
-316.7500069177053
 30
0.0
 11
-44.99999471198679
 21
-316.7500069177053
 31
0.0
  0
LINE
  5
69B3
330
1E
100
AcDbEntity
  8
18
 48
2.0
100
AcDbLine
 10
-44.49999495791415
 20
-316.7500069177053
 30
0.0
 11
-41.7499932826031
 21
-316.7500069177053
 31
0.0
  0
LINE
  5
69B4
330
1E
100
AcDbEntity
  8
18
 48
2.0
100
AcDbLine
 10
-44.99999471198679
 20
-338.0000055495206
 30
0.0
 11
-41.7499932826031
 21
-338.0000055495206
 31
0.0
  0
LINE
  5
69B5
330
1E
100
AcDbEntity
  8
18
 48
2.0
100
AcDbLine
 10
-44.8117370682521
 20
-316.7500069177053
 30
0.0
 11
-44.8909110134482
 21
-316.7500069177053
 31
0.0
  0
LINE
  5
69B6
330
1E
100
AcDbEntity
  8
18
 48
2.0
100
AcDbLine
 10
18.50000130642001
 20
-346.2000136279679
 30
0.0
 11
18.50000130642001
 21
-345.0000142181948
 31
0.0
  0
LINE
  5
69B7
330
1E
100
AcDbEntity
  8
18
 48
2.0
100
AcDbLine
 10
-44.71693907697043
 20
-316.7500069177053
 30
0.0
 11
-44.8117370682521
 21
-316.7500069177053
 31
0.0
  0
LINE
  5
69B8
330
1E
100
AcDbEntity
  8
18
 48
2.0
100
AcDbLine
 10
18.50000130642001
 20
-345.0000051344467
 30
0.0
 11
41.50001118915677
 21
-345.0000051344467
 31
0.0
  0
LINE
  5
69B9
330
1E
100
AcDbEntity
  8
18
 48
2.0
100
AcDbLine
 10
48.50000774616638
 20
-346.2000136279679
 30
0.0
 11
48.50000774616638
 21
-345.0000142181948
 31
0.0
  0
LINE
  5
69BA
330
1E
100
AcDbEntity
  8
18
 48
2.0
100
AcDbLine
 10
74.50001312541282
 20
-340.0000075937255
 30
0.0
 11
71.75001145010174
 21
-340.0000075937255
 31
0.0
  0
LINE
  5
69BB
330
1E
100
AcDbEntity
  8
18
 48
2.0
100
AcDbLine
 10
71.75001145010174
 20
-340.0000075937255
 30
0.0
 11
71.75001145010174
 21
-344.5000053803751
 31
0.0
  0
LINE
  5
69BC
330
1E
100
AcDbEntity
  8
18
 48
2.0
100
AcDbLine
 10
-44.99999471198679
 20
-297.0954414017301
 30
0.0
 11
-44.99999471198679
 21
-297.0425739899569
 31
0.0
  0
LINE
  5
69BD
330
1E
100
AcDbEntity
  8
18
 48
2.0
100
AcDbLine
 10
-44.99999471198679
 20
-298.5969001194149
 30
0.0
 11
-44.99999471198679
 21
-298.3856605939313
 31
0.0
  0
LINE
  5
69BE
330
1E
100
AcDbEntity
  8
18
 48
2.0
100
AcDbLine
 10
-44.99999471198679
 20
-297.8157704848446
 30
0.0
 11
-44.99999471198679
 21
-297.65248709153
 31
0.0
  0
LINE
  5
69BF
330
1E
100
AcDbEntity
  8
18
 48
2.0
100
AcDbLine
 10
-44.99999471198679
 20
-297.2620978933678
 30
0.0
 11
-44.99999471198679
 21
-297.1688259717033
 31
0.0
  0
LINE
  5
69C0
330
1E
100
AcDbEntity
  8
18
 48
2.0
100
AcDbLine
 10
-44.99999471198679
 20
-296.9890707158429
 30
0.0
 11
-44.99999471198679
 21
-296.956417670679
 31
0.0
  0
LINE
  5
69C1
330
1E
100
AcDbEntity
  8
18
 48
2.0
100
AcDbLine
 10
-44.99999471198679
 20
-296.9025328791603
 30
0.0
 11
-44.99999471198679
 21
-296.8281914877596
 31
0.0
  0
LINE
  5
69C2
330
1E
100
AcDbEntity
  8
18
 48
2.0
100
AcDbLine
 10
-44.99999471198679
 20
-296.6227716166536
 30
0.0
 11
-44.99999471198679
 21
-296.4946907736978
 31
0.0
  0
LINE
  5
69C3
330
1E
100
AcDbEntity
  8
18
 48
2.0
100
AcDbLine
 10
-44.99999471198679
 20
-296.4946907736978
 30
0.0
 11
-44.99999471198679
 21
-296.3521062135378
 31
0.0
  0
LINE
  5
69C4
330
1E
100
AcDbEntity
  8
18
 48
2.0
100
AcDbLine
 10
-44.99999471198679
 20
-297.1688259717033
 30
0.0
 11
-44.99999471198679
 21
-297.0954414017301
 31
0.0
  0
LINE
  5
69C5
330
1E
100
AcDbEntity
  8
18
 48
2.0
100
AcDbLine
 10
-44.99999471198679
 20
-296.1970890306547
 30
0.0
 11
-44.99999471198679
 21
-296.0319162178125
 31
0.0
  0
LINE
  5
69C6
330
1E
100
AcDbEntity
  8
18
 48
2.0
100
AcDbLine
 10
-44.99999471198679
 20
-296.956417670679
 30
0.0
 11
-44.99999471198679
 21
-296.9025328791603
 31
0.0
  0
LINE
  5
69C7
330
1E
100
AcDbEntity
  8
18
 48
2.0
100
AcDbLine
 10
-44.99999471198679
 20
-297.65248709153
 30
0.0
 11
-44.99999471198679
 21
-297.5049609726061
 31
0.0
  0
LINE
  5
69C8
330
1E
100
AcDbEntity
  8
18
 48
2.0
100
AcDbLine
 10
-44.99999471198679
 20
-296.0319162178125
 30
0.0
 11
-44.99999471198679
 21
-295.8589798285793
 31
0.0
  0
LINE
  5
69C9
330
1E
100
AcDbEntity
  8
18
 48
2.0
100
AcDbLine
 10
-44.99999471198679
 20
-296.7344835462045
 30
0.0
 11
-44.99999471198679
 21
-296.6227716166536
 31
0.0
  0
LINE
  5
69CA
330
1E
100
AcDbEntity
  8
18
 48
2.0
100
AcDbLine
 10
-44.99999471198679
 20
-299.5000063184674
 30
0.0
 11
-44.99999471198679
 21
-299.2693336286793
 31
0.0
  0
LINE
  5
69CB
330
1E
100
AcDbEntity
  8
18
 48
2.0
100
AcDbLine
 10
-44.99999471198679
 20
-297.5049609726061
 30
0.0
 11
-44.99999471198679
 21
-297.374463852755
 31
0.0
  0
LINE
  5
69CC
330
1E
100
AcDbEntity
  8
18
 48
2.0
100
AcDbLine
 10
-44.99999471198679
 20
-295.6808112006551
 30
0.0
 11
-44.99999471198679
 21
-295.5000082858905
 31
0.0
  0
LINE
  5
69CD
330
1E
100
AcDbEntity
  8
18
 48
2.0
100
AcDbLine
 10
-44.99999471198679
 20
-299.0406351400638
 30
0.0
 11
-44.99999471198679
 21
-298.8158487188028
 31
0.0
  0
LINE
  5
69CE
330
1E
100
AcDbEntity
  8
18
 48
2.0
100
AcDbLine
 10
-44.99999471198679
 20
-297.0425739899569
 30
0.0
 11
-44.99999471198679
 21
-297.0106718679385
 31
0.0
  0
LINE
  5
69CF
330
1E
100
AcDbEntity
  8
18
 48
2.0
100
AcDbLine
 10
-44.99999471198679
 20
-299.2693336286793
 30
0.0
 11
-44.99999471198679
 21
-299.0406351400638
 31
0.0
  0
LINE
  5
69D0
330
1E
100
AcDbEntity
  8
18
 48
2.0
100
AcDbLine
 10
-44.99999471198679
 20
-296.3521062135378
 30
0.0
 11
-44.99999471198679
 21
-296.1970890306547
 31
0.0
  0
LINE
  5
69D1
330
1E
100
AcDbEntity
  8
18
 48
2.0
100
AcDbLine
 10
-44.99999471198679
 20
-295.8589798285793
 30
0.0
 11
-44.99999471198679
 21
-295.6808112006551
 31
0.0
  0
LINE
  5
69D2
330
1E
100
AcDbEntity
  8
18
 48
2.0
100
AcDbLine
 10
-44.99999471198679
 20
-297.0106718679385
 30
0.0
 11
-44.99999471198679
 21
-297.0000075481067
 31
0.0
  0
LINE
  5
69D3
330
1E
100
AcDbEntity
  8
18
 48
2.0
100
AcDbLine
 10
-44.99999471198679
 20
-297.9934183112326
 30
0.0
 11
-44.99999471198679
 21
-297.8157704848446
 31
0.0
  0
LINE
  5
69D4
330
1E
100
AcDbEntity
  8
18
 48
2.0
100
AcDbLine
 10
-44.99999471198679
 20
-296.8281914877596
 30
0.0
 11
-44.99999471198679
 21
-296.7344835462045
 31
0.0
  0
LINE
  5
69D5
330
1E
100
AcDbEntity
  8
18
 48
2.0
100
AcDbLine
 10
-44.99999471198679
 20
-298.8158487188028
 30
0.0
 11
-44.99999471198679
 21
-298.5969001194149
 31
0.0
  0
LINE
  5
69D6
330
1E
100
AcDbEntity
  8
18
 48
2.0
100
AcDbLine
 10
-44.99999471198679
 20
-298.1839287244024
 30
0.0
 11
-44.99999471198679
 21
-297.9934183112326
 31
0.0
  0
LINE
  5
69D7
330
1E
100
AcDbEntity
  8
18
 48
2.0
100
AcDbLine
 10
-44.99999471198679
 20
-297.374463852755
 30
0.0
 11
-44.99999471198679
 21
-297.2620978933678
 31
0.0
  0
LINE
  5
69D8
330
1E
100
AcDbEntity
  8
18
 48
2.0
100
AcDbLine
 10
-44.99999471198679
 20
-298.3856605939313
 30
0.0
 11
-44.99999471198679
 21
-298.1839287244024
 31
0.0
  0
LINE
  5
69D9
330
1E
100
AcDbEntity
  8
18
 48
2.0
100
AcDbLine
 10
-44.99999471198679
 20
-297.0000075481067
 30
0.0
 11
-44.99999471198679
 21
-296.9890707158429
 31
0.0
  0
LINE
  5
69DA
330
1E
100
AcDbEntity
  8
12
100
AcDbLine
 10
12.5
 20
-290.5
 30
0.0
 11
12.5
 21
-304.4999999999999
 31
0.0
  0
LINE
  5
69DB
330
1E
100
AcDbEntity
  8
12
100
AcDbLine
 10
5.5
 20
-297.5
 30
0.0
 11
19.5
 21
-297.5
 31
0.0
  0
LINE
  5
69DC
330
1E
100
AcDbEntity
  8
12
100
AcDbLine
 10
40.49999999999999
 20
-297.5
 30
0.0
 11
54.5
 21
-297.5
 31
0.0
  0
LINE
  5
69DD
330
1E
100
AcDbEntity
  8
12
100
AcDbLine
 10
47.5
 20
-290.5
 30
0.0
 11
47.5
 21
-304.4999999999999
 31
0.0
  0
LINE
  5
69DE
330
1E
100
AcDbEntity
  8
0
100
AcDbLine
 10
-22.5
 20
-290.5
 30
0.0
 11
-22.5
 21
-304.4999999999999
 31
0.0
  0
LINE
  5
69DF
330
1E
100
AcDbEntity
  8
12
100
AcDbLine
 10
-29.5
 20
-297.5
 30
0.0
 11
-15.5
 21
-297.5
 31
0.0
  0
LINE
  5
69E0
330
1E
100
AcDbEntity
  8
18
 48
2.0
100
AcDbLine
 10
-50.0
 20
-310.0
 30
0.0
 11
80.0
 21
-310.0
 31
0.0
  0
LINE
  5
69E1
330
1E
100
AcDbEntity
  8
18
 48
2.0
100
AcDbLine
 10
-50.0
 20
-312.5
 30
0.0
 11
80.0
 21
-312.5
 31
0.0
  0
ARC
  5
69E7
330
1E
100
AcDbEntity
  8
18
 48
2.0
100
AcDbCircle
 10
-10.99999932341596
 20
-166.0000114228778
 30
0.0
 40
0.9999999812562155
100
AcDbArc
 50
0.0
 51
90.0
  0
ARC
  5
69E8
330
1E
100
AcDbEntity
  8
18
 48
2.0
100
AcDbCircle
 10
18.99999500466219
 20
-166.0000053670464
 30
0.0
 40
0.9999999812562155
100
AcDbArc
 50
0.0
 51
90.0
  0
ARC
  5
69E9
330
1E
100
AcDbEntity
  8
18
 48
2.0
100
AcDbCircle
 10
-18.99999538857082
 20
-166.0000114228778
 30
0.0
 40
0.9999999812562155
100
AcDbArc
 50
90.0
 51
180.0
  0
CIRCLE
  5
69EA
330
1E
100
AcDbEntity
  8
18
 48
2.0
100
AcDbCircle
 10
-44.99999432807817
 20
-169.9999958948826
 30
0.0
 40
2.249999999999996
210
0.0
220
0.0
230
-1.0
  0
CIRCLE
  5
69EB
330
1E
100
AcDbEntity
  8
18
 48
2.0
100
AcDbCircle
 10
-14.99999432807817
 20
-170.0000155112874
 30
0.0
 40
2.175250057989682
  0
ARC
  5
69EC
330
1E
100
AcDbEntity
  8
18
 48
2.0
100
AcDbCircle
 10
48.99998933274036
 20
-165.999999311214
 30
0.0
 40
0.9999999812562155
100
AcDbArc
 50
0.0
 51
90.0
  0
ARC
  5
69ED
330
1E
100
AcDbEntity
  8
18
 48
2.0
100
AcDbCircle
 10
10.99999893950734
 20
-166.0000053670464
 30
0.0
 40
0.9999999812562155
100
AcDbArc
 50
90.0
 51
180.0
  0
CIRCLE
  5
69EE
330
1E
100
AcDbEntity
  8
18
 48
2.0
100
AcDbCircle
 10
15.0
 20
-170.000009455455
 30
0.0
 40
2.250000028793264
  0
ARC
  5
69EF
330
1E
100
AcDbEntity
  8
18
 48
2.0
100
AcDbCircle
 10
-44.49999495791415
 20
-175.500012806081
 30
0.0
 40
0.499999990628108
100
AcDbArc
 50
90.0
 51
180.0
  0
ARC
  5
69F0
330
1E
100
AcDbEntity
  8
18
 48
2.0
100
AcDbCircle
 10
40.99999326758552
 20
-165.999999311214
 30
0.0
 40
0.9999999812562155
100
AcDbArc
 50
90.0
 51
180.0
  0
ARC
  5
69F1
330
1E
100
AcDbEntity
  8
18
 48
2.0
100
AcDbCircle
 10
71.24999352853047
 20
-175.500012806081
 30
0.0
 40
0.499999990628108
100
AcDbArc
 50
0.0
 51
90.0
  0
ARC
  5
69F2
330
1E
100
AcDbEntity
  8
18
 48
2.0
100
AcDbCircle
 10
74.50001312541282
 20
-180.5000103468028
 30
0.0
 40
0.499999990628108
100
AcDbArc
 50
0.0
 51
90.0
  0
CIRCLE
  5
69F3
330
1E
100
AcDbEntity
  8
12
100
AcDbCircle
 10
-22.5
 20
-222.5
 30
0.0
 40
2.999999999999996
  0
CIRCLE
  5
69F4
330
1E
100
AcDbEntity
  8
12
100
AcDbCircle
 10
47.5
 20
-222.5
 30
0.0
 40
2.999999999999996
  0
LINE
  5
69F5
330
1E
100
AcDbEntity
  8
18
 48
2.0
100
AcDbLine
 10
-41.7499932826031
 20
-203.2500021850028
 30
0.0
 11
-41.7499932826031
 21
-182.0000035531874
 31
0.0
  0
LINE
  5
69F6
330
1E
100
AcDbEntity
  8
18
 48
2.0
100
AcDbLine
 10
71.24999352853047
 20
-175.0000069961769
 30
0.0
 11
48.49999563449817
 21
-175.0000069961769
 31
0.0
  0
LINE
  5
69F7
330
1E
100
AcDbEntity
  8
18
 48
2.0
100
AcDbLine
 10
-44.49999495791415
 20
-203.2500021850028
 30
0.0
 11
-41.7499932826031
 21
-203.2500021850028
 31
0.0
  0
LINE
  5
69F8
330
1E
100
AcDbEntity
  8
18
 48
2.0
100
AcDbLine
 10
-44.8117370682521
 20
-203.2500021850028
 30
0.0
 11
-44.71693907697043
 21
-203.2500021850028
 31
0.0
  0
LINE
  5
69F9
330
1E
100
AcDbEntity
  8
18
 48
2.0
100
AcDbLine
 10
-44.98745914012395
 20
-203.2500021850028
 30
0.0
 11
-44.95047617521049
 21
-203.2500021850028
 31
0.0
  0
LINE
  5
69FA
330
1E
100
AcDbEntity
  8
18
 48
2.0
100
AcDbLine
 10
-44.95047617521049
 20
-203.2500021850028
 30
0.0
 11
-44.8909110134482
 21
-203.2500021850028
 31
0.0
  0
LINE
  5
69FB
330
1E
100
AcDbEntity
  8
18
 48
2.0
100
AcDbLine
 10
-44.61125270008049
 20
-203.2500021850028
 30
0.0
 11
-44.49999495791415
 21
-203.2500021850028
 31
0.0
  0
LINE
  5
69FC
330
1E
100
AcDbEntity
  8
18
 48
2.0
100
AcDbLine
 10
-44.71693907697043
 20
-203.2500021850028
 30
0.0
 11
-44.61125270008049
 21
-203.2500021850028
 31
0.0
  0
LINE
  5
69FD
330
1E
100
AcDbEntity
  8
18
 48
2.0
100
AcDbLine
 10
-44.99999471198679
 20
-203.2500021850028
 30
0.0
 11
-44.98745914012395
 21
-203.2500021850028
 31
0.0
  0
LINE
  5
69FE
330
1E
100
AcDbEntity
  8
18
 48
2.0
100
AcDbLine
 10
-44.8909110134482
 20
-203.2500021850028
 30
0.0
 11
-44.8117370682521
 21
-203.2500021850028
 31
0.0
  0
LINE
  5
69FF
330
1E
100
AcDbEntity
  8
18
 48
2.0
100
AcDbLine
 10
-9.999999815270712
 20
-166.0000114228778
 30
0.0
 11
-9.999999815270712
 21
-171.2019225080829
 31
0.0
  0
LINE
  5
6A00
330
1E
100
AcDbEntity
  8
18
 48
2.0
100
AcDbLine
 10
-11.49999302165815
 20
-175.0000069961769
 30
0.0
 11
11.50000474941043
 21
-175.0000069961769
 31
0.0
  0
LINE
  5
6A01
330
1E
100
AcDbEntity
  8
18
 48
2.0
100
AcDbLine
 10
41.49999907748861
 20
-175.0000069961769
 30
0.0
 11
18.50000130642001
 21
-175.0000069961769
 31
0.0
  0
LINE
  5
6A02
330
1E
100
AcDbEntity
  8
18
 48
2.0
100
AcDbLine
 10
-44.99999471198679
 20
-182.0000035531874
 30
0.0
 11
-41.7499932826031
 21
-182.0000035531874
 31
0.0
  0
LINE
  5
6A03
330
1E
100
AcDbEntity
  8
18
 48
2.0
100
AcDbLine
 10
40.99999326758552
 20
-164.9999876914062
 30
0.0
 11
48.99998933274036
 21
-164.9999876914062
 31
0.0
  0
LINE
  5
6A04
330
1E
100
AcDbEntity
  8
18
 48
2.0
100
AcDbLine
 10
-44.99999471198679
 20
-178.2830672114578
 30
0.0
 11
-44.99999471198679
 21
-178.188269220175
 31
0.0
  0
LINE
  5
6A05
330
1E
100
AcDbEntity
  8
18
 48
2.0
100
AcDbLine
 10
48.49999563449817
 20
-173.7999954747401
 30
0.0
 11
48.49999563449817
 21
-174.9999948845134
 31
0.0
  0
LINE
  5
6A06
330
1E
100
AcDbEntity
  8
18
 48
2.0
100
AcDbLine
 10
49.99998884088562
 20
-171.2019103964194
 30
0.0
 11
48.49999563449817
 21
-173.7999954747401
 31
0.0
  0
LINE
  5
6A07
330
1E
100
AcDbEntity
  8
18
 48
2.0
100
AcDbLine
 10
-18.49998957866771
 20
-173.8000075864038
 30
0.0
 11
-19.99999489671608
 21
-171.2019225080829
 31
0.0
  0
LINE
  5
6A08
330
1E
100
AcDbEntity
  8
18
 48
2.0
100
AcDbLine
 10
-44.99999471198679
 20
-178.3887535883494
 30
0.0
 11
-44.99999471198679
 21
-178.2830672114578
 31
0.0
  0
LINE
  5
6A09
330
1E
100
AcDbEntity
  8
18
 48
2.0
100
AcDbLine
 10
-11.49999302165815
 20
-173.8000075864038
 30
0.0
 11
-11.49999302165815
 21
-175.0000069961769
 31
0.0
  0
LINE
  5
6A0A
330
1E
100
AcDbEntity
  8
18
 48
2.0
100
AcDbLine
 10
18.50000130642001
 20
-173.8000015305724
 30
0.0
 11
18.50000130642001
 21
-175.0000009403456
 31
0.0
  0
LINE
  5
6A0B
330
1E
100
AcDbEntity
  8
18
 48
2.0
100
AcDbLine
 10
9.999999431362084
 20
-171.2019164522516
 30
0.0
 11
9.999999431362084
 21
-166.0000053670464
 31
0.0
  0
LINE
  5
6A0C
330
1E
100
AcDbEntity
  8
18
 48
2.0
100
AcDbLine
 10
-18.49998957866771
 20
-175.0000069961769
 30
0.0
 11
-18.49998957866771
 21
-173.8000075864038
 31
0.0
  0
LINE
  5
6A0D
330
1E
100
AcDbEntity
  8
18
 48
2.0
100
AcDbLine
 10
-44.99999471198679
 20
-178.0495301132195
 30
0.0
 11
-44.99999471198679
 21
-178.0125410924738
 31
0.0
  0
LINE
  5
6A0E
330
1E
100
AcDbEntity
  8
18
 48
2.0
100
AcDbLine
 10
19.99999451280746
 20
-171.2019164522516
 30
0.0
 11
18.50000130642001
 21
-173.8000015305724
 31
0.0
  0
LINE
  5
6A0F
330
1E
100
AcDbEntity
  8
18
 48
2.0
100
AcDbLine
 10
-44.49999495791415
 20
-175.0000069961769
 30
0.0
 11
-18.49998957866771
 21
-175.0000069961769
 31
0.0
  0
LINE
  5
6A10
330
1E
100
AcDbEntity
  8
18
 48
2.0
100
AcDbLine
 10
39.99999375944025
 20
-171.2019103964194
 30
0.0
 11
39.99999375944025
 21
-165.999999311214
 31
0.0
  0
LINE
  5
6A11
330
1E
100
AcDbEntity
  8
18
 48
2.0
100
AcDbLine
 10
41.49999907748861
 20
-174.9999948845134
 30
0.0
 11
41.49999907748861
 21
-173.7999954747401
 31
0.0
  0
LINE
  5
6A12
330
1E
100
AcDbEntity
  8
18
 48
2.0
100
AcDbLine
 10
-44.99999471198679
 20
-178.188269220175
 30
0.0
 11
-44.99999471198679
 21
-178.1090952749836
 31
0.0
  0
LINE
  5
6A13
330
1E
100
AcDbEntity
  8
18
 48
2.0
100
AcDbLine
 10
11.50000474941043
 20
-173.8000015305724
 30
0.0
 11
9.999999431362084
 21
-171.2019164522516
 31
0.0
  0
LINE
  5
6A14
330
1E
100
AcDbEntity
  8
18
 48
2.0
100
AcDbLine
 10
-44.99999471198679
 20
-178.0125410924738
 30
0.0
 11
-44.99999471198679
 21
-178.00000552061
 31
0.0
  0
LINE
  5
6A15
330
1E
100
AcDbEntity
  8
18
 48
2.0
100
AcDbLine
 10
-44.99999471198679
 20
-178.5000113305139
 30
0.0
 11
-44.99999471198679
 21
-178.3887535883494
 31
0.0
  0
LINE
  5
6A16
330
1E
100
AcDbEntity
  8
18
 48
2.0
100
AcDbLine
 10
-44.99999471198679
 20
-175.500012806081
 30
0.0
 11
-44.99999471198679
 21
-178.00000552061
 31
0.0
  0
LINE
  5
6A17
330
1E
100
AcDbEntity
  8
18
 48
2.0
100
AcDbLine
 10
-44.95047617521049
 20
-179.5000108386584
 30
0.0
 11
-44.98745914012395
 21
-179.5000108386584
 31
0.0
  0
LINE
  5
6A18
330
1E
100
AcDbEntity
  8
18
 48
2.0
100
AcDbLine
 10
-9.999999815270712
 20
-171.2019225080829
 30
0.0
 11
-11.49999302165815
 21
-173.8000075864038
 31
0.0
  0
LINE
  5
6A19
330
1E
100
AcDbEntity
  8
18
 48
2.0
100
AcDbLine
 10
-44.99999471198679
 20
-178.1090952749836
 30
0.0
 11
-44.99999471198679
 21
-178.0495301132195
 31
0.0
  0
LINE
  5
6A1A
330
1E
100
AcDbEntity
  8
18
 48
2.0
100
AcDbLine
 10
49.99998884088562
 20
-165.999999311214
 30
0.0
 11
49.99998884088562
 21
-171.2019103964194
 31
0.0
  0
LINE
  5
6A1B
330
1E
100
AcDbEntity
  8
18
 48
2.0
100
AcDbLine
 10
-18.99999538857082
 20
-164.9999998030698
 30
0.0
 11
-10.99999932341596
 21
-164.9999998030698
 31
0.0
  0
LINE
  5
6A1C
330
1E
100
AcDbEntity
  8
18
 48
2.0
100
AcDbLine
 10
19.99999451280746
 20
-166.0000053670464
 30
0.0
 11
19.99999451280746
 21
-171.2019164522516
 31
0.0
  0
LINE
  5
6A1D
330
1E
100
AcDbEntity
  8
18
 48
2.0
100
AcDbLine
 10
-44.99999471198679
 20
-179.5000108386584
 30
0.0
 11
-44.99999471198679
 21
-178.5000113305139
 31
0.0
  0
LINE
  5
6A1E
330
1E
100
AcDbEntity
  8
18
 48
2.0
100
AcDbLine
 10
-44.99999471198679
 20
-182.0000035531874
 30
0.0
 11
-44.99999471198679
 21
-179.5000108386584
 31
0.0
  0
LINE
  5
6A1F
330
1E
100
AcDbEntity
  8
18
 48
2.0
100
AcDbLine
 10
-44.98745914012395
 20
-179.5000108386584
 30
0.0
 11
-44.99999471198679
 21
-179.5000108386584
 31
0.0
  0
LINE
  5
6A20
330
1E
100
AcDbEntity
  8
18
 48
2.0
100
AcDbLine
 10
41.49999907748861
 20
-173.7999954747401
 30
0.0
 11
39.99999375944025
 21
-171.2019103964194
 31
0.0
  0
LINE
  5
6A21
330
1E
100
AcDbEntity
  8
18
 48
2.0
100
AcDbLine
 10
-19.99999489671608
 20
-171.2019225080829
 30
0.0
 11
-19.99999489671608
 21
-166.0000114228778
 31
0.0
  0
LINE
  5
6A22
330
1E
100
AcDbEntity
  8
18
 48
2.0
100
AcDbLine
 10
11.50000474941043
 20
-175.0000009403456
 30
0.0
 11
11.50000474941043
 21
-173.8000015305724
 31
0.0
  0
LINE
  5
6A23
330
1E
100
AcDbEntity
  8
18
 48
2.0
100
AcDbLine
 10
10.99999893950734
 20
-164.9999937472384
 30
0.0
 11
18.99999500466219
 21
-164.9999937472384
 31
0.0
  0
LINE
  5
6A24
330
1E
100
AcDbEntity
  8
18
 48
2.0
100
AcDbLine
 10
71.75001145010174
 20
-180.0000045368988
 30
0.0
 11
74.50001312541282
 21
-180.0000045368988
 31
0.0
  0
LINE
  5
6A25
330
1E
100
AcDbEntity
  8
18
 48
2.0
100
AcDbLine
 10
74.5
 20
-180.0000057030846
 30
0.0
 11
72.25
 21
-180.0000057030846
 31
0.0
  0
LINE
  5
6A26
330
1E
100
AcDbEntity
  8
18
 48
2.0
100
AcDbLine
 10
71.75001145010174
 20
-175.500012806081
 30
0.0
 11
71.75001145010174
 21
-180.0000045368988
 31
0.0
  0
LINE
  5
6A27
330
1E
100
AcDbEntity
  8
12
100
AcDbLine
 10
12.5
 20
-215.5
 30
0.0
 11
12.5
 21
-229.4999999999999
 31
0.0
  0
LINE
  5
6A28
330
1E
100
AcDbEntity
  8
12
100
AcDbLine
 10
5.5
 20
-222.5
 30
0.0
 11
19.5
 21
-222.5
 31
0.0
  0
LINE
  5
6A29
330
1E
100
AcDbEntity
  8
12
100
AcDbLine
 10
40.49999999999999
 20
-222.5
 30
0.0
 11
54.5
 21
-222.5
 31
0.0
  0
LINE
  5
6A2A
330
1E
100
AcDbEntity
  8
12
100
AcDbLine
 10
47.5
 20
-215.5
 30
0.0
 11
47.5
 21
-229.4999999999999
 31
0.0
  0
LINE
  5
6A2B
330
1E
100
AcDbEntity
  8
12
100
AcDbLine
 10
-29.5
 20
-222.5
 30
0.0
 11
-15.5
 21
-222.5
 31
0.0
  0
LINE
  5
6A2C
330
1E
100
AcDbEntity
  8
12
100
AcDbLine
 10
-22.5
 20
-215.5
 30
0.0
 11
-22.5
 21
-229.4999999999999
 31
0.0
  0
LINE
  5
6A2D
330
1E
100
AcDbEntity
  8
18
 48
2.0
100
AcDbLine
 10
-50.0
 20
-210.0
 30
0.0
 11
80.0
 21
-210.0
 31
0.0
  0
LINE
  5
6A2E
330
1E
100
AcDbEntity
  8
18
 48
2.0
100
AcDbLine
 10
-50.0
 20
-207.5
 30
0.0
 11
80.0
 21
-207.5
 31
0.0
  0
LINE
  5
6C88
330
1E
100
AcDbEntity
  8
17
100
AcDbLine
 10
253.0
 20
67.00000000000045
 30
0.0
 11
347.9999994458194
 21
67.00000000000045
 31
0.0
  0
DIMENSION
  5
6E43
330
1E
100
AcDbEntity
  8
30
100
AcDbDimension
280
     0
  2
*D22
 10
310.1041177097286
 20
-311.0
 30
0.0
 11
302.6041177097285
 21
-308.0
 31
0.0
 70
    32
 71
     5
 42
-1.0
 73
     0
 74
     0
 75
     0
  3
STANDARD
100
AcDbAlignedDimension
 13
295.1041177097286
 23
-294.8593533752837
 33
0.0
 14
310.1041177097286
 24
-294.8593533752837
 34
0.0
 50
180.0
100
AcDbRotatedDimension
  0
CIRCLE
  5
6E4D
330
1E
100
AcDbEntity
  8
24
100
AcDbCircle
 10
302.6041177097285
 20
-284.8593533752837
 30
0.0
 40
3.249999999999996
  0
LINE
  5
6E4E
330
1E
100
AcDbEntity
  8
17
100
AcDbLine
 10
302.6041177097285
 20
-278.6093533752837
 30
0.0
 11
302.6041177097285
 21
-291.1093533752837
 31
0.0
  0
LINE
  5
6E4F
330
1E
100
AcDbEntity
  8
17
100
AcDbLine
 10
296.3541177097285
 20
-284.8593533752837
 30
0.0
 11
308.8541177097285
 21
-284.8593533752837
 31
0.0
  0
LINE
  5
6E51
330
1E
100
AcDbEntity
  8
24
100
AcDbLine
 10
295.1041177097286
 20
-294.8593533752837
 30
0.0
 11
310.1041177097286
 21
-294.8593533752837
 31
0.0
  0
LINE
  5
6E52
330
1E
100
AcDbEntity
  8
24
100
AcDbLine
 10
295.1041177097286
 20
-260.3494691498834
 30
0.0
 11
295.1041177097286
 21
-294.8593533752837
 31
0.0
  0
LINE
  5
6E53
330
1E
100
AcDbEntity
  8
24
100
AcDbLine
 10
310.1041177097286
 20
-263.7959755142528
 30
0.0
 11
310.1041177097286
 21
-294.8593533752837
 31
0.0
  0
TEXT
  5
6EF7
330
1E
100
AcDbEntity
  8
30
100
AcDbText
 10
294.5025551324981
 20
-318.1348449698532
 30
0.0
 40
4.0
  1
(max.)
 41
0.8216911764705852
  7
UGMTXT
100
AcDbText
  0
SPLINE
  5
6F02
330
1E
100
AcDbEntity
  8
30
100
AcDbSpline
210
0.0
220
0.0
230
1.0
 70
  1064
 71
     3
 72
    11
 73
     7
 74
     5
 42
0.000000001
 43
0.0000000001
 44
0.0000000001
 40
0.0
 40
0.0
 40
0.0
 40
0.0
 40
7.615773105863908
 40
19.98508998271689
 40
38.58616522045517
 40
39.58616522045517
 40
39.58616522045517
 40
39.58616522045517
 40
39.58616522045517
 10
287.0
 20
-255.0
 30
0.0
 10
287.6686109302753
 20
-258.0741602048507
 30
0.0
 10
289.4231602608864
 20
-266.1412818826122
 30
0.0
 10
306.0288563545176
 20
-252.167522717557
 30
0.0
 10
311.0703768387907
 20
-270.2010342960016
 30
0.0
 10
317.6636280834256
 20
-270.0097584370563
 30
0.0
 10
318.0
 20
-270.0
 30
0.0
 11
287.0
 21
-255.0
 31
0.0
 11
290.0
 21
-262.0
 31
0.0
 11
302.0
 21
-259.0
 31
0.0
 11
317.0
 21
-270.0
 31
0.0
 11
318.0
 21
-270.0
 31
0.0
  0
LINE
  5
711A
330
1E
100
AcDbEntity
  8
12
100
AcDbLine
 10
211.7999941223398
 20
-269.2500149288448
 30
0.0
 11
211.7999941223398
 21
-256.7500143879009
 31
0.0
  0
LINE
  5
711B
330
1E
100
AcDbEntity
  8
12
100
AcDbLine
 10
213.299994187253
 20
-269.1000149223536
 30
0.0
 11
213.299994187253
 21
-256.9000143943923
 31
0.0
  0
LINE
  5
711C
330
1E
100
AcDbEntity
  8
12
100
AcDbLine
 10
207.6999992629589
 20
-256.9999996263454
 30
0.0
 11
207.6999992629589
 21
-269.0000001456513
 31
0.0
  0
LINE
  5
711D
330
1E
100
AcDbEntity
  8
12
100
AcDbLine
 10
202.599999042254
 20
-262.9999998859982
 30
0.0
 11
202.599999042254
 21
-256.9999996263449
 31
0.0
  0
LINE
  5
711E
330
1E
100
AcDbEntity
  8
12
100
AcDbLine
 10
203.699999089857
 20
-262.9999998859971
 30
0.0
 11
203.699999089857
 21
-256.9999996295579
 31
0.0
  0
LINE
  5
711F
330
1E
100
AcDbEntity
  8
18
100
AcDbLine
 10
207.6999939449103
 20
-257.00001439872
 30
0.0
 11
207.6999939449103
 21
-296.0000060479194
 31
0.0
  0
LINE
  5
7120
330
1E
100
AcDbEntity
  8
18
100
AcDbLine
 10
210.1999940530991
 20
-257.00001439872
 30
0.0
 11
210.1999940530991
 21
-296.0000060479194
 31
0.0
  0
LINE
  5
7121
330
1E
100
AcDbEntity
  8
10
100
AcDbLine
 10
202.4999937198777
 20
-247.1504788166158
 30
0.0
 11
202.4999937198777
 21
-276.0000004485799
 31
0.0
  0
LINE
  5
7122
330
1E
100
AcDbEntity
  8
10
100
AcDbLine
 10
196.4999964113586
 20
-275.5000067287022
 30
0.0
 11
196.4999964113586
 21
-251.8933338319231
 31
0.0
  0
ARC
  5
7123
330
1E
100
AcDbEntity
  8
10
100
AcDbCircle
 10
200.642747167588
 20
-258.1788163978298
 30
0.0
 40
7.500000324566334
100
AcDbArc
 50
128.325530952893
 51
173.565260848972
  0
LINE
  5
7124
330
1E
100
AcDbEntity
  8
10
100
AcDbLine
 10
229.4999937198777
 20
-274.0000013457403
 30
0.0
 11
229.4999937198777
 21
-251.9999991028395
 31
0.0
  0
LINE
  5
7125
330
1E
100
AcDbEntity
  8
12
100
AcDbLine
 10
203.699999089857
 20
-269.0000001456516
 30
0.0
 11
207.6999992629589
 21
-269.0000001456516
 31
0.0
  0
LINE
  5
7126
330
1E
100
AcDbEntity
  8
10
100
AcDbLine
 10
207.6999939449103
 20
-276.0000004485799
 30
0.0
 11
196.9999901312366
 21
-276.0000004485799
 31
0.0
  0
LINE
  5
7127
330
1E
100
AcDbEntity
  8
12
100
AcDbLine
 10
197.4999935035003
 20
-263.0000146583729
 30
0.0
 11
228.4999936766023
 21
-263.0000146583729
 31
0.0
  0
DIMENSION
  5
7128
330
1E
100
AcDbEntity
  8
30
100
AcDbDimension
280
     0
  2
*D24
 10
207.6999939449103
 20
-314.006570235929
 30
0.0
 11
216.6999939449103
 21
-311.006570235929
 31
0.0
 70
    32
 71
     5
 42
-1.0
 73
     0
 74
     0
 75
     0
  3
STANDARD
100
AcDbAlignedDimension
 13
202.4999937198777
 23
-276.0000004485799
 33
0.0
 14
207.6999939449103
 24
-296.0000060479194
 34
0.0
 50
180.0
100
AcDbRotatedDimension
  0
DIMENSION
  5
7129
330
1E
100
AcDbEntity
  8
30
100
AcDbDimension
280
     0
  2
*D25
 10
229.4999937198777
 20
-347.3399050117794
 30
0.0
 11
215.9999937198778
 21
-344.3399050117794
 31
0.0
 70
    32
 71
     5
 42
-1.0
 73
     0
 74
     0
 75
     0
  3
STANDARD
100
AcDbAlignedDimension
 13
202.4999937198777
 23
-276.0000004485799
 33
0.0
 14
229.4999937198777
 24
-275.5000067287022
 34
0.0
 50
180.0
100
AcDbRotatedDimension
  0
DIMENSION
  5
712A
330
1E
100
AcDbEntity
  8
30
100
AcDbDimension
280
     0
  2
*D26
 10
207.6999939449103
 20
-330.6732376238542
 30
0.0
 11
195.5999920380734
 21
-327.6732376238542
 31
0.0
 70
    32
 71
     5
 42
-1.0
 73
     0
 74
     0
 75
     0
  3
STANDARD
100
AcDbAlignedDimension
 13
183.4999901312366
 23
-290.0000062801217
 33
0.0
 14
207.6999939449103
 24
-296.0000060479194
 34
0.0
 50
180.0
100
AcDbRotatedDimension
  0
LINE
  5
712B
330
1E
100
AcDbEntity
  8
10
100
AcDbLine
 10
193.499985645435
 20
-290.0000062801217
 30
0.0
 11
193.499985645435
 21
-290.1423183340091
 31
0.0
  0
ARC
  5
712C
330
1E
100
AcDbEntity
  8
10
100
AcDbCircle
 10
184.5000017943206
 20
-290.0000062801217
 30
0.0
 40
1.000000024531727
100
AcDbArc
 50
180.0
 51
270.0
  0
LINE
  5
712D
330
1E
100
AcDbEntity
  8
10
100
AcDbLine
 10
193.499985645435
 20
-291.0000058315418
 30
0.0
 11
184.5000017943206
 21
-291.0000058315418
 31
0.0
  0
LINE
  5
712E
330
1E
100
AcDbEntity
  8
10
100
AcDbLine
 10
193.499985645435
 20
-290.4154121375023
 30
0.0
 11
193.499985645435
 21
-290.5406467449228
 31
0.0
  0
LINE
  5
712F
330
1E
100
AcDbEntity
  8
10
100
AcDbLine
 10
193.499985645435
 20
-290.9898199219828
 30
0.0
 11
193.499985645435
 21
-291.0000058315418
 31
0.0
  0
LINE
  5
7130
330
1E
100
AcDbEntity
  8
10
100
AcDbLine
 10
193.499985645435
 20
-290.755749900415
 30
0.0
 11
193.499985645435
 21
-290.8412582493888
 31
0.0
  0
LINE
  5
7131
330
1E
100
AcDbEntity
  8
10
100
AcDbLine
 10
193.499985645435
 20
-290.9096407052397
 30
0.0
 11
193.499985645435
 21
-290.9594923149247
 31
0.0
  0
LINE
  5
7132
330
1E
100
AcDbEntity
  8
10
100
AcDbLine
 10
193.499985645435
 20
-290.2817357001617
 30
0.0
 11
193.499985645435
 21
-290.4154121375023
 31
0.0
  0
LINE
  5
7133
330
1E
100
AcDbEntity
  8
10
100
AcDbLine
 10
193.499985645435
 20
-290.6548597379572
 30
0.0
 11
193.499985645435
 21
-290.755749900415
 31
0.0
  0
LINE
  5
7134
330
1E
100
AcDbEntity
  8
10
100
AcDbLine
 10
193.499985645435
 20
-290.9594923149247
 30
0.0
 11
193.499985645435
 21
-290.9898199219828
 31
0.0
  0
LINE
  5
7135
330
1E
100
AcDbEntity
  8
10
100
AcDbLine
 10
193.499985645435
 20
-290.8412582493888
 30
0.0
 11
193.499985645435
 21
-290.9096407052397
 31
0.0
  0
LINE
  5
7136
330
1E
100
AcDbEntity
  8
10
100
AcDbLine
 10
193.499985645435
 20
-290.1423183340091
 30
0.0
 11
193.499985645435
 21
-290.2817357001617
 31
0.0
  0
LINE
  5
7137
330
1E
100
AcDbEntity
  8
10
100
AcDbLine
 10
193.499985645435
 20
-290.5406467449228
 30
0.0
 11
193.499985645435
 21
-290.6548597379572
 31
0.0
  0
LINE
  5
7138
330
1E
100
AcDbEntity
  8
10
100
AcDbLine
 10
186.5000008971603
 20
-280.999998205679
 30
0.0
 11
183.4999901312366
 21
-280.999998205679
 31
0.0
  0
LINE
  5
7139
330
1E
100
AcDbEntity
  8
10
100
AcDbLine
 10
193.499985645435
 20
-284.7980828581373
 30
0.0
 11
184.5000017943206
 21
-284.7980828581373
 31
0.0
  0
LINE
  5
713A
330
1E
100
AcDbEntity
  8
10
100
AcDbLine
 10
193.499985645435
 20
-282.1999976673831
 30
0.0
 11
184.5000017943206
 21
-282.1999976673831
 31
0.0
  0
LINE
  5
713B
330
1E
100
AcDbEntity
  8
10
100
AcDbLine
 10
181.4224934057167
 20
-278.519784664774
 30
0.0
 11
189.2674949411745
 21
-272.3184977367428
 31
0.0
  0
LINE
  5
713C
330
1E
100
AcDbEntity
  8
10
100
AcDbLine
 10
183.4999901312366
 20
-278.5000053829617
 30
0.0
 11
183.4999901312366
 21
-280.5000044858014
 31
0.0
  0
LINE
  5
713D
330
1E
100
AcDbEntity
  8
10
100
AcDbLine
 10
183.7442339506992
 20
-284.8905554140035
 30
0.0
 11
183.845124113157
 21
-284.8635221795968
 31
0.0
  0
LINE
  5
713E
330
1E
100
AcDbEntity
  8
10
100
AcDbLine
 10
183.7442339506992
 20
-282.2924823349132
 30
0.0
 11
183.845124113157
 21
-282.2654491005069
 31
0.0
  0
LINE
  5
713F
330
1E
100
AcDbEntity
  8
10
100
AcDbLine
 10
183.4999901312366
 20
-285.0660292043621
 30
0.0
 11
183.4999901312366
 21
-282.4679561252722
 31
0.0
  0
LINE
  5
7140
330
1E
100
AcDbEntity
  8
10
100
AcDbLine
 10
183.6587256017254
 20
-282.3230885102473
 30
0.0
 11
183.7442339506992
 21
-282.2924823349132
 31
0.0
  0
LINE
  5
7141
330
1E
100
AcDbEntity
  8
10
100
AcDbLine
 10
183.590367369203
 20
-284.9547230107262
 30
0.0
 11
183.6587256017254
 21
-284.9211615893373
 31
0.0
  0
LINE
  5
7142
330
1E
100
AcDbEntity
  8
10
100
AcDbLine
 10
183.590367369203
 20
-282.356637819972
 30
0.0
 11
183.6587256017254
 21
-282.3230885102473
 31
0.0
  0
LINE
  5
7143
330
1E
100
AcDbEntity
  8
10
100
AcDbLine
 10
183.6587256017254
 20
-284.9211615893373
 30
0.0
 11
183.7442339506992
 21
-284.8905554140035
 31
0.0
  0
LINE
  5
7144
330
1E
100
AcDbEntity
  8
10
100
AcDbLine
 10
183.5101639291313
 20
-282.4298164948303
 30
0.0
 11
183.5404915361895
 21
-282.3924641225591
 31
0.0
  0
LINE
  5
7145
330
1E
100
AcDbEntity
  8
10
100
AcDbLine
 10
183.5404915361895
 20
-284.9905372016491
 30
0.0
 11
183.590367369203
 21
-284.9547230107262
 31
0.0
  0
LINE
  5
7146
330
1E
100
AcDbEntity
  8
10
100
AcDbLine
 10
183.4999901312366
 20
-282.4679561252722
 30
0.0
 11
183.4999901312366
 21
-280.999998205679
 31
0.0
  0
LINE
  5
7147
330
1E
100
AcDbEntity
  8
10
100
AcDbLine
 10
183.5404915361895
 20
-282.3924641225591
 30
0.0
 11
183.590367369203
 21
-282.356637819972
 31
0.0
  0
LINE
  5
7148
330
1E
100
AcDbEntity
  8
10
100
AcDbLine
 10
183.5101639291313
 20
-285.0278895739204
 30
0.0
 11
183.5404915361895
 21
-284.9905372016491
 31
0.0
  0
LINE
  5
7149
330
1E
100
AcDbEntity
  8
10
100
AcDbLine
 10
183.4999901312366
 20
-285.0660292043621
 30
0.0
 11
183.5101639291313
 21
-285.0278895739204
 31
0.0
  0
LINE
  5
714A
330
1E
100
AcDbEntity
  8
10
100
AcDbLine
 10
183.4999901312366
 20
-282.4679561252722
 30
0.0
 11
183.5101639291313
 21
-282.4298164948303
 31
0.0
  0
LINE
  5
714B
330
1E
100
AcDbEntity
  8
10
100
AcDbLine
 10
183.4999901312366
 20
-280.8117466096311
 30
0.0
 11
183.4999901312366
 21
-280.716948614246
 31
0.0
  0
LINE
  5
714C
330
1E
100
AcDbEntity
  8
10
100
AcDbLine
 10
183.4999901312366
 20
-280.6112622327806
 30
0.0
 11
183.4999901312366
 21
-280.5000044858014
 31
0.0
  0
LINE
  5
714D
330
1E
100
AcDbEntity
  8
10
100
AcDbLine
 10
183.4999901312366
 20
-280.8909205582489
 30
0.0
 11
183.4999901312366
 21
-280.8117466096311
 31
0.0
  0
LINE
  5
714E
330
1E
100
AcDbEntity
  8
10
100
AcDbLine
 10
183.4999901312366
 20
-280.9874626332728
 30
0.0
 11
183.4999901312366
 21
-280.9504857225906
 31
0.0
  0
LINE
  5
714F
330
1E
100
AcDbEntity
  8
10
100
AcDbLine
 10
183.4999901312366
 20
-280.9504857225906
 30
0.0
 11
183.4999901312366
 21
-280.8909205582489
 31
0.0
  0
LINE
  5
7150
330
1E
100
AcDbEntity
  8
10
100
AcDbLine
 10
183.4999901312366
 20
-280.999998205679
 30
0.0
 11
183.4999901312366
 21
-280.9874626332728
 31
0.0
  0
LINE
  5
7151
330
1E
100
AcDbEntity
  8
10
100
AcDbLine
 10
183.4999901312366
 20
-280.716948614246
 30
0.0
 11
183.4999901312366
 21
-280.6112622327806
 31
0.0
  0
LINE
  5
7152
330
1E
100
AcDbEntity
  8
10
100
AcDbLine
 10
183.845124113157
 20
-284.8635221795968
 30
0.0
 11
183.9593613295198
 21
-284.8406190226691
 31
0.0
  0
LINE
  5
7153
330
1E
100
AcDbEntity
  8
10
100
AcDbLine
 10
184.2182602626168
 20
-284.8089349092251
 30
0.0
 11
184.3576655171049
 21
-284.8008079825733
 31
0.0
  0
LINE
  5
7154
330
1E
100
AcDbEntity
  8
10
100
AcDbLine
 10
184.0845717136119
 20
-282.2242209957043
 30
0.0
 11
184.2182602626168
 21
-282.2108618301351
 31
0.0
  0
LINE
  5
7155
330
1E
100
AcDbEntity
  8
10
100
AcDbLine
 10
184.3576655171049
 20
-282.2027349034834
 30
0.0
 11
184.5000017943206
 21
-282.1999976673831
 31
0.0
  0
LINE
  5
7156
330
1E
100
AcDbEntity
  8
10
100
AcDbLine
 10
183.845124113157
 20
-282.2654491005069
 30
0.0
 11
183.9593613295198
 21
-282.2425338319151
 31
0.0
  0
LINE
  5
7157
330
1E
100
AcDbEntity
  8
10
100
AcDbLine
 10
184.2182602626168
 20
-282.2108618301351
 30
0.0
 11
184.3576655171049
 21
-282.2027349034834
 31
0.0
  0
LINE
  5
7158
330
1E
100
AcDbEntity
  8
10
100
AcDbLine
 10
183.9593613295198
 20
-282.2425338319151
 30
0.0
 11
184.0845717136119
 21
-282.2242209957043
 31
0.0
  0
LINE
  5
7159
330
1E
100
AcDbEntity
  8
10
100
AcDbLine
 10
184.0845717136119
 20
-284.8222940747941
 30
0.0
 11
184.2182602626168
 21
-284.8089349092251
 31
0.0
  0
LINE
  5
715A
330
1E
100
AcDbEntity
  8
10
100
AcDbLine
 10
184.3576655171049
 20
-284.8008079825733
 30
0.0
 11
184.5000017943206
 21
-284.7980828581373
 31
0.0
  0
LINE
  5
715B
330
1E
100
AcDbEntity
  8
10
100
AcDbLine
 10
183.9593613295198
 20
-284.8406190226691
 30
0.0
 11
184.0845717136119
 21
-284.8222940747941
 31
0.0
  0
LINE
  5
715C
330
1E
100
AcDbEntity
  8
10
100
AcDbLine
 10
183.4999901312366
 20
-278.5000053829617
 30
0.0
 11
181.4476253481126
 21
-278.5000053829617
 31
0.0
  0
LINE
  5
715D
330
1E
100
AcDbEntity
  8
10
100
AcDbLine
 10
183.4999901312366
 20
-290.0000062801217
 30
0.0
 11
183.4999901312366
 21
-285.0660292043621
 31
0.0
  0
LINE
  5
715E
330
1E
100
AcDbEntity
  8
10
100
AcDbLine
 10
193.499985645435
 20
-280.999998205679
 30
0.0
 11
203.9999991028397
 21
-276.0000004485799
 31
0.0
  0
LINE
  5
715F
330
1E
100
AcDbEntity
  8
10
100
AcDbLine
 10
186.5000008971603
 20
-276.0000004485799
 30
0.0
 11
196.9999901312366
 21
-276.0000004485799
 31
0.0
  0
LINE
  5
7160
330
1E
100
AcDbEntity
  8
10
100
AcDbLine
 10
193.499985645435
 20
-280.999998205679
 30
0.0
 11
193.499985645435
 21
-282.1999976673831
 31
0.0
  0
LINE
  5
7161
330
1E
100
AcDbEntity
  8
10
100
AcDbLine
 10
193.499985645435
 20
-282.1999976673831
 30
0.0
 11
193.499985645435
 21
-284.7980828581373
 31
0.0
  0
LINE
  5
7162
330
1E
100
AcDbEntity
  8
10
100
AcDbLine
 10
193.499985645435
 20
-290.0000062801217
 30
0.0
 11
193.499985645435
 21
-284.7980828581373
 31
0.0
  0
LINE
  5
7163
330
1E
100
AcDbEntity
  8
10
100
AcDbLine
 10
186.5000008971603
 20
-280.999998205679
 30
0.0
 11
186.5000008971603
 21
-276.0000004485799
 31
0.0
  0
ARC
  5
7164
330
1E
100
AcDbEntity
  8
10
100
AcDbCircle
 10
196.9999901312366
 20
-275.5000067287022
 30
0.0
 40
0.5000000122658636
100
AcDbArc
 50
180.0
 51
270.0
  0
LINE
  5
7165
330
1E
100
AcDbEntity
  8
10
100
AcDbLine
 10
192.0692812038375
 20
-267.2752824639474
 30
0.0
 11
193.1899957089013
 21
-257.3382805190326
 31
0.0
  0
ARC
  5
7166
330
1E
100
AcDbEntity
  8
10
100
AcDbCircle
 10
184.6165297451524
 20
-266.434746585149
 30
0.0
 40
7.500000324566334
100
AcDbArc
 50
308.3255309528932
 51
353.5652608489721
  0
LINE
  5
7167
330
1E
100
AcDbEntity
  8
12
100
AcDbLine
 10
202.599999042254
 20
-269.0000001456513
 30
0.0
 11
202.599999042254
 21
-262.9999998859958
 31
0.0
  0
LINE
  5
7168
330
1E
100
AcDbEntity
  8
12
100
AcDbLine
 10
203.699999089857
 20
-269.0000001328005
 30
0.0
 11
203.699999089857
 21
-262.9999998859971
 31
0.0
  0
LINE
  5
7169
330
1E
100
AcDbEntity
  8
12
100
AcDbLine
 10
202.4998881004218
 20
-269.0000001456516
 30
0.0
 11
202.599999042254
 21
-269.0000001456516
 31
0.0
  0
LINE
  5
716A
330
1E
100
AcDbEntity
  8
12
100
AcDbLine
 10
202.599999042254
 20
-268.7500001348325
 30
0.0
 11
203.699999089857
 21
-268.7500001348325
 31
0.0
  0
LINE
  5
716B
330
1E
100
AcDbEntity
  8
12
100
AcDbLine
 10
203.699999089857
 20
-257.2499996371642
 30
0.0
 11
202.599999042254
 21
-257.2499996371642
 31
0.0
  0
INSERT
  5
716C
330
1E
100
AcDbEntity
  8
30
100
AcDbBlockReference
  2
*U23
 10
-165.5084962014105
 20
-728.5899215074014
 30
0.0
 41
1.666666738792514
 42
1.666666738792514
 43
1.666666738792514
  0
ARC
  5
716D
330
1E
100
AcDbEntity
  8
3
100
AcDbCircle
 10
229.0
 20
-275.5000067287022
 30
0.0
 40
0.5000000122658636
100
AcDbArc
 50
270.0
 51
0.0
  0
LINE
  5
716E
330
1E
100
AcDbEntity
  8
10
100
AcDbLine
 10
229.0
 20
-276.0000004485799
 30
0.0
 11
210.1999940530991
 21
-276.0000004485799
 31
0.0
  0
LINE
  5
716F
330
1E
100
AcDbEntity
  8
12
100
AcDbLine
 10
218.4999944122859
 20
-265.8632634363335
 30
0.0
 11
213.299994187253
 21
-265.8632634363335
 31
0.0
  0
LINE
  5
7170
330
1E
100
AcDbEntity
  8
12
100
AcDbLine
 10
213.299994187253
 20
-268.7500149072071
 30
0.0
 11
218.4999944122859
 21
-268.7500149072071
 31
0.0
  0
LINE
  5
7171
330
1E
100
AcDbEntity
  8
12
100
AcDbLine
 10
213.299994187253
 20
-257.2500144095386
 30
0.0
 11
218.4999944122859
 21
-257.2500144095386
 31
0.0
  0
LINE
  5
7172
330
1E
100
AcDbEntity
  8
12
100
AcDbLine
 10
218.4999944122859
 20
-260.1367658804126
 30
0.0
 11
213.299994187253
 21
-260.1367658804126
 31
0.0
  0
LINE
  5
7173
330
1E
100
AcDbEntity
  8
12
100
AcDbLine
 10
211.7999941223398
 20
-263.5000146800106
 30
0.0
 11
213.299994187253
 21
-262.0000146150973
 31
0.0
  0
LINE
  5
7174
330
1E
100
AcDbEntity
  8
12
100
AcDbLine
 10
211.7999941223398
 20
-264.0000147016484
 30
0.0
 11
213.299994187253
 21
-262.5000146367353
 31
0.0
  0
LINE
  5
7175
330
1E
100
AcDbEntity
  8
12
100
AcDbLine
 10
211.7999941223398
 20
-269.2500149288448
 30
0.0
 11
210.1999940530991
 21
-269.2500149288448
 31
0.0
  0
LINE
  5
7176
330
1E
100
AcDbEntity
  8
12
100
AcDbLine
 10
213.299994187253
 20
-269.1000149223536
 30
0.0
 11
211.7999941223398
 21
-269.1000149223536
 31
0.0
  0
LINE
  5
7177
330
1E
100
AcDbEntity
  8
12
100
AcDbLine
 10
223.499999946713
 20
-262.3999998600335
 30
0.0
 11
223.499999946713
 21
-263.5999999119641
 31
0.0
  0
LINE
  5
7178
330
1E
100
AcDbEntity
  8
12
100
AcDbLine
 10
223.4999999467125
 20
-263.5999999119635
 30
0.0
 11
226.500000076539
 21
-263.5999999119635
 31
0.0
  0
LINE
  5
7179
330
1E
100
AcDbEntity
  8
12
100
AcDbLine
 10
226.5000000765396
 20
-263.5999999119641
 30
0.0
 11
226.5000000765396
 21
-265.39999998986
 31
0.0
  0
LINE
  5
717A
330
1E
100
AcDbEntity
  8
12
100
AcDbLine
 10
226.500000076539
 20
-263.5999999119635
 30
0.0
 11
227.6393878171862
 21
-263.5999999119635
 31
0.0
  0
ARC
  5
717B
330
1E
100
AcDbEntity
  8
12
100
AcDbCircle
 10
224.6999999986432
 20
-262.9999998859982
 30
0.0
 40
3.000000129826533
100
AcDbArc
 50
306.8698976458457
 51
348.463040967185
  0
LINE
  5
717C
330
1E
100
AcDbEntity
  8
12
100
AcDbLine
 10
223.4999999467125
 20
-262.3999998600331
 30
0.0
 11
226.500000076539
 21
-262.3999998600331
 31
0.0
  0
LINE
  5
717D
330
1E
100
AcDbEntity
  8
12
100
AcDbLine
 10
226.5000000765396
 20
-260.5999997821375
 30
0.0
 11
226.5000000765396
 21
-262.3999998600335
 31
0.0
  0
LINE
  5
717E
330
1E
100
AcDbEntity
  8
12
100
AcDbLine
 10
226.500000076539
 20
-262.3999998600331
 30
0.0
 11
227.6393878171862
 21
-262.3999998600331
 31
0.0
  0
ARC
  5
717F
330
1E
100
AcDbEntity
  8
12
100
AcDbCircle
 10
224.6999999986432
 20
-262.9999998859982
 30
0.0
 40
3.000000129826533
100
AcDbArc
 50
11.53695903281491
 51
53.13010235415434
  0
LINE
  5
7180
330
1E
100
AcDbEntity
  8
12
100
AcDbLine
 10
218.4999944122859
 20
-268.7500149072071
 30
0.0
 11
218.4999944122859
 21
-257.2500144095386
 31
0.0
  0
LINE
  5
7181
330
1E
100
AcDbEntity
  8
12
100
AcDbLine
 10
218.4996700428208
 20
-265.3999999898595
 30
0.0
 11
226.500000076539
 21
-265.3999999898595
 31
0.0
  0
LINE
  5
7182
330
1E
100
AcDbEntity
  8
12
100
AcDbLine
 10
226.500000076539
 20
-260.5999997821374
 30
0.0
 11
218.4996700428208
 21
-260.5999997821374
 31
0.0
  0
LINE
  5
7183
330
1E
100
AcDbEntity
  8
3
100
AcDbLine
 10
229.4999937198777
 20
-274.0000013457403
 30
0.0
 11
229.4999937198777
 21
-275.5000067287022
 31
0.0
  0
LINE
  5
7184
330
1E
100
AcDbEntity
  8
10
100
AcDbLine
 10
202.4999937198777
 20
-250.0
 30
0.0
 11
229.0
 21
-250.0
 31
0.0
  0
LINE
  5
7185
330
1E
100
AcDbEntity
  8
10
100
AcDbLine
 10
202.4999937198777
 20
-251.3214034493282
 30
0.0
 11
229.4999937198773
 21
-251.3214034493282
 31
0.0
  0
LINE
  5
7186
330
1E
100
AcDbEntity
  8
12
100
AcDbLine
 10
207.6999992629589
 20
-256.9999996263454
 30
0.0
 11
203.699999089857
 21
-256.9999996263454
 31
0.0
  0
LINE
  5
7187
330
1E
100
AcDbEntity
  8
10
100
AcDbLine
 10
195.9917819715643
 20
-252.2950652462369
 30
0.0
 11
202.4999937198777
 21
-247.1504788166162
 31
0.0
  0
LINE
  5
7188
330
1E
100
AcDbEntity
  8
12
100
AcDbLine
 10
202.599999042254
 20
-256.9999996263454
 30
0.0
 11
202.4998881004218
 21
-256.9999996263454
 31
0.0
  0
LINE
  5
7189
330
1E
100
AcDbEntity
  8
10
100
AcDbLine
 10
229.2499847482746
 20
-250.066989614472
 30
0.0
 11
229.1709924746193
 21
-250.0301580437599
 31
0.0
  0
LINE
  5
718A
330
1E
100
AcDbEntity
  8
12
100
AcDbLine
 10
211.7999941223398
 20
-256.7500143879009
 30
0.0
 11
210.1999940530991
 21
-256.7500143879009
 31
0.0
  0
LINE
  5
718B
330
1E
100
AcDbEntity
  8
12
100
AcDbLine
 10
213.299994187253
 20
-256.9000143943923
 30
0.0
 11
211.7999941223398
 21
-256.9000143943923
 31
0.0
  0
LINE
  5
718C
330
1E
100
AcDbEntity
  8
12
100
AcDbLine
 10
210.1999940530991
 20
-256.7500143879009
 30
0.0
 11
210.1999940530991
 21
-257.00001439872
 31
0.0
  0
LINE
  5
718D
330
1E
100
AcDbEntity
  8
12
100
AcDbLine
 10
206.9999939146175
 20
-256.7500143879009
 30
0.0
 11
206.9999939146175
 21
-257.00001439872
 31
0.0
  0
LINE
  5
718E
330
1E
100
AcDbEntity
  8
12
100
AcDbLine
 10
207.6999939449103
 20
-257.00001439872
 30
0.0
 11
210.1999940530991
 21
-257.00001439872
 31
0.0
  0
LINE
  5
718F
330
1E
100
AcDbEntity
  8
10
100
AcDbLine
 10
229.1709924746193
 20
-250.0301580437599
 30
0.0
 11
229.0868164087032
 21
-250.0075940134286
 31
0.0
  0
LINE
  5
7190
330
1E
100
AcDbEntity
  8
10
100
AcDbLine
 10
229.0868164087032
 20
-250.0075940134286
 30
0.0
 11
229.0
 21
-250.0
 31
0.0
  0
LINE
  5
7191
330
1E
100
AcDbEntity
  8
10
100
AcDbLine
 10
229.4698356761179
 20
-250.3289891335943
 30
0.0
 11
229.4330162170697
 21
-250.2499968599388
 31
0.0
  0
LINE
  5
7192
330
1E
100
AcDbEntity
  8
10
100
AcDbLine
 10
229.492387594785
 20
-250.4131773111744
 30
0.0
 11
229.4698356761179
 21
-250.3289891335943
 31
0.0
  0
LINE
  5
7193
330
1E
100
AcDbEntity
  8
10
100
AcDbLine
 10
229.4999937198777
 20
-250.5000058315419
 30
0.0
 11
229.492387594785
 21
-250.4131773111744
 31
0.0
  0
LINE
  5
7194
330
1E
100
AcDbEntity
  8
10
100
AcDbLine
 10
229.3830192674148
 20
-250.1786107113761
 30
0.0
 11
229.3213951201654
 21
-250.1169744524629
 31
0.0
  0
LINE
  5
7195
330
1E
100
AcDbEntity
  8
10
100
AcDbLine
 10
229.4999937198777
 20
-250.5000058315419
 30
0.0
 11
229.4999937198777
 21
-251.9999991028395
 31
0.0
  0
LINE
  5
7196
330
1E
100
AcDbEntity
  8
10
100
AcDbLine
 10
229.4330162170697
 20
-250.2499968599388
 30
0.0
 11
229.3830192674148
 21
-250.1786107113761
 31
0.0
  0
LINE
  5
7197
330
1E
100
AcDbEntity
  8
10
100
AcDbLine
 10
229.3213951201654
 20
-250.1169744524629
 30
0.0
 11
229.2499847482746
 21
-250.066989614472
 31
0.0
  0
MTEXT
  5
73BC
330
1E
100
AcDbEntity
  8
30
  6
Continuous
100
AcDbMText
 10
297.6535802710254
 20
-162.6186721020253
 30
0.0
 40
5.0
 41
116.5
 46
0.0
 71
     1
 72
     5
  1
S100-GF 4P PM\PS125-GF 4P PM
  7
STANDARD1
 73
     1
 44
1.0
  0
LINE
  5
73DE
330
1E
100
AcDbEntity
  8
30
  6
Continuous
100
AcDbLine
 10
61.5
 20
-283.4999999999999
 30
0.0
 11
61.5
 21
-283.4999999999999
 31
0.0
  0
LINE
  5
73DF
330
1E
100
AcDbEntity
  8
30
  6
Continuous
100
AcDbLine
 10
61.5
 20
-287.1103993171291
 30
0.0
 11
61.5
 21
-307.8896006828709
 31
0.0
  0
CIRCLE
  5
73E0
330
1E
100
AcDbEntity
  8
11
  6
DASHDOT
100
AcDbCircle
 10
61.5
 20
-297.5
 30
0.0
 40
9.0
  0
CIRCLE
  5
73EC
330
1E
100
AcDbEntity
  8
11
  6
DASHDOT
100
AcDbCircle
 10
61.5
 20
-222.5
 30
0.0
 40
9.0
  0
LINE
  5
73EF
330
1E
100
AcDbEntity
  8
30
  6
Continuous
100
AcDbLine
 10
61.5
 20
-232.8896006828709
 30
0.0
 11
61.5
 21
-212.1103993171291
 31
0.0
  0
LINE
  5
73F1
330
1E
100
AcDbEntity
  8
30
  6
Continuous
100
AcDbLine
 10
-1.5
 20
-212.1103993171291
 30
0.0
 11
-1.5
 21
-232.8896006828709
 31
0.0
  0
LINE
  5
73F2
330
1E
100
AcDbEntity
  8
30
  6
Continuous
100
AcDbLine
 10
-13.00687535364613
 20
-222.4999999999999
 30
0.0
 11
10.00687535364612
 21
-222.5
 31
0.0
  0
CIRCLE
  5
73F3
330
1E
100
AcDbEntity
  8
11
  6
DASHDOT
100
AcDbCircle
 10
-1.5
 20
-222.5
 30
0.0
 40
9.0
  0
CIRCLE
  5
7401
330
1E
100
AcDbEntity
  8
11
  6
DASHDOT
100
AcDbCircle
 10
-1.5
 20
-297.5
 30
0.0
 40
9.0
  0
LINE
  5
7404
330
1E
100
AcDbEntity
  8
30
  6
Continuous
100
AcDbLine
 10
-1.5
 20
-307.8896006828709
 30
0.0
 11
-1.5
 21
-287.1103993171291
 31
0.0
  0
LINE
  5
7405
330
1E
100
AcDbEntity
  8
30
  6
Continuous
100
AcDbLine
 10
-13.00687535364613
 20
-297.5
 30
0.0
 11
10.00687535364612
 21
-297.5
 31
0.0
  0
DIMENSION
  5
7406
330
1E
100
AcDbEntity
  8
30
  6
Continuous
100
AcDbDimension
280
     0
  2
*D30
 10
47.49999999999999
 20
-366.9730227387247
 30
0.0
 11
54.49999999999999
 21
-363.9730227387246
 31
0.0
 70
    32
 71
     5
 42
14.0
 73
     0
 74
     0
 75
     0
  3
STANDARD
100
AcDbAlignedDimension
 13
61.5
 23
-297.5
 33
0.0
 14
47.5
 24
-297.5
 34
0.0
100
AcDbRotatedDimension
1001
ACAD
1000
DSTYLE
1002
{
1070
    79
1070
     3
1002
}
  0
DIMENSION
  5
7413
330
1E
100
AcDbEntity
  8
30
  6
Continuous
100
AcDbDimension
280
     0
  2
*D31
 10
-22.5
 20
-362.4885239423087
 30
0.0
 11
-12.0
 21
-359.4885239423088
 31
0.0
 70
    32
 71
     5
 42
21.0
 73
     0
 74
     0
 75
     0
  3
STANDARD
100
AcDbAlignedDimension
 13
-1.5
 23
-297.5
 33
0.0
 14
-22.5
 24
-297.5
 34
0.0
100
AcDbRotatedDimension
1001
ACAD
1000
DSTYLE
1002
{
1070
    79
1070
     3
1002
}
  0
VIEWPORT
  5
9AC
330
1A
100
AcDbEntity
 67
     1
  8
0
  6
Continuous
100
AcDbViewport
 10
171.9995348790992
 20
144.1384735538403
 30
0.0
 40
488.8676857773511
 41
292.3514905034161
 68
     1
 69
     1
 12
171.9995348790992
 22
144.1384735538403
 13
0.0
 23
0.0
 14
10.0
 24
10.0
 15
10.0
 25
10.0
 16
0.0
 26
0.0
 36
1.0
 17
0.0
 27
0.0
 37
0.0
 42
50.0
 43
0.0
 44
0.0
 45
292.3514905034161
 50
0.0
 51
0.0
 72
   100
 90
    32800
  1

281
     0
 71
     1
 74
     0
110
0.0
120
0.0
130
0.0
111
1.0
121
0.0
131
0.0
112
0.0
122
1.0
132
0.0
 79
     0
146
0.0
170
     0
 61
     5
348
7452
292
     1
282
     1
141
0.0
142
0.0
 63
   250
421
  3355443
  0
ENDSEC
  0
SECTION
  2
OBJECTS
  0
DICTIONARY
  5
C
330
0
100
AcDbDictionary
281
     1
  3
ACAD_CIP_PREVIOUS_PRODUCT_INFO
350
7481
  3
ACAD_COLOR
350
7465
  3
ACAD_DETAILVIEWSTYLE
350
747E
  3
ACAD_GROUP
350
D
  3
ACAD_LAYOUT
350
19
  3
ACAD_MATERIAL
350
7433
  3
ACAD_MLEADERSTYLE
350
747A
  3
ACAD_MLINESTYLE
350
16
  3
ACAD_PLOTSETTINGS
350
18
  3
ACAD_PLOTSTYLENAME
350
E
  3
ACAD_SCALELIST
350
7468
  3
ACAD_SECTIONVIEWSTYLE
350
747C
  3
ACAD_TABLESTYLE
350
7466
  3
ACAD_VISUALSTYLE
350
744C
  3
ACDB_RECOMPOSE_DATA
350
74AE
  3
ACDBVARIABLEDICTIONARY
350
5E0C
  0
DICTIONARY
  5
7484
330
10
100
AcDbDictionary
280
     1
281
     1
  3
ADSK_XREC_LAYER_RECONCILED
360
7485
  0
DICTIONARY
  5
7486
330
2F
100
AcDbDictionary
280
     1
281
     1
  3
ADSK_XREC_LAYER_RECONCILED
360
7487
  0
DICTIONARY
  5
7488
330
31
100
AcDbDictionary
280
     1
281
     1
  3
ADSK_XREC_LAYER_RECONCILED
360
7489
  0
DICTIONARY
  5
748A
330
35
100
AcDbDictionary
280
     1
281
     1
  3
ADSK_XREC_LAYER_RECONCILED
360
748B
  0
DICTIONARY
  5
748C
330
36
100
AcDbDictionary
280
     1
281
     1
  3
ADSK_XREC_LAYER_RECONCILED
360
748D
  0
DICTIONARY
  5
748E
330
38
100
AcDbDictionary
280
     1
281
     1
  3
ADSK_XREC_LAYER_RECONCILED
360
748F
  0
DICTIONARY
  5
7490
330
3C
100
AcDbDictionary
280
     1
281
     1
  3
ADSK_XREC_LAYER_RECONCILED
360
7491
  0
DICTIONARY
  5
7492
330
3D
100
AcDbDictionary
280
     1
281
     1
  3
ADSK_XREC_LAYER_RECONCILED
360
7493
  0
DICTIONARY
  5
7494
330
3A2
100
AcDbDictionary
280
     1
281
     1
  3
ADSK_XREC_LAYER_RECONCILED
360
7495
  0
DICTIONARY
  5
7496
330
4C43
100
AcDbDictionary
280
     1
281
     1
  3
ADSK_XREC_LAYER_RECONCILED
360
7497
  0
DICTIONARY
  5
7498
330
5E73
100
AcDbDictionary
280
     1
281
     1
  3
ADSK_XREC_LAYER_RECONCILED
360
7499
  0
DICTIONARY
  5
749A
330
5E74
100
AcDbDictionary
280
     1
281
     1
  3
ADSK_XREC_LAYER_RECONCILED
360
749B
  0
DICTIONARY
  5
749C
330
7097
100
AcDbDictionary
280
     1
281
     1
  3
ADSK_XREC_LAYER_RECONCILED
360
749D
  0
DICTIONARY
  5
178
330
1E
100
AcDbDictionary
280
     1
281
     1
  3
ACAD_LAYOUTSELFREF
360
73B1
  0
DICTIONARY
  5
17A
330
1A
100
AcDbDictionary
280
     1
281
     1
  3
ACAD_LAYOUTSELFREF
360
73B0
  0
XRECORD
  5
7481
102
{ACAD_REACTORS
330
C
102
}
330
C
100
AcDbXrecord
280
     1
300
ACDLT
300
2014
300
ACDLT_F_S
  0
DICTIONARY
  5
7465
102
{ACAD_REACTORS
330
C
102
}
330
C
100
AcDbDictionary
281
     1
  0
DICTIONARY
  5
747E
102
{ACAD_REACTORS
330
C
102
}
330
C
100
AcDbDictionary
281
     1
  3
Imperial24
350
747F
  0
DICTIONARY
  5
D
102
{ACAD_REACTORS
330
C
102
}
330
C
100
AcDbDictionary
281
     1
  0
DICTIONARY
  5
19
102
{ACAD_REACTORS
330
C
102
}
330
C
100
AcDbDictionary
281
     1
  3
Model
350
73BA
  3
ﾚｲｱｳﾄ1
350
73BB
  0
DICTIONARY
  5
7433
102
{ACAD_REACTORS
330
C
102
}
330
C
100
AcDbDictionary
281
     1
  3
ByBlock
350
743C
  3
ByLayer
350
7434
  3
Global
350
7444
  0
DICTIONARY
  5
747A
102
{ACAD_REACTORS
330
C
102
}
330
C
100
AcDbDictionary
281
     1
  3
Standard
350
747B
  0
DICTIONARY
  5
16
102
{ACAD_REACTORS
330
C
102
}
330
C
100
AcDbDictionary
281
     1
  3
STANDARD
350
17
  0
DICTIONARY
  5
18
102
{ACAD_REACTORS
330
C
102
}
330
C
100
AcDbDictionary
281
     1
  0
ACDBDICTIONARYWDFLT
  5
E
102
{ACAD_REACTORS
330
C
102
}
330
C
100
AcDbDictionary
281
     1
  3
Normal
350
F
100
AcDbDictionaryWithDefault
340
F
  0
DICTIONARY
  5
7468
102
{ACAD_REACTORS
330
C
102
}
330
C
100
AcDbDictionary
281
     1
  3
A0
350
7469
  3
A1
350
746A
  3
A2
350
746B
  3
A3
350
746C
  3
A4
350
746D
  3
A5
350
746E
  3
A6
350
746F
  3
A7
350
7470
  3
A8
350
7471
  3
A9
350
7472
  3
B0
350
7473
  3
B1
350
7474
  3
B2
350
7475
  3
B3
350
7476
  3
B4
350
7477
  3
B5
350
7478
  3
B6
350
7479
  0
DICTIONARY
  5
747C
102
{ACAD_REACTORS
330
C
102
}
330
C
100
AcDbDictionary
281
     1
  3
Imperial24
350
747D
  0
DICTIONARY
  5
7466
102
{ACAD_REACTORS
330
C
102
}
330
C
100
AcDbDictionary
281
     1
  3
Standard
350
7467
  0
DICTIONARY
  5
744C
102
{ACAD_REACTORS
330
C
102
}
330
C
100
AcDbDictionary
281
     1
  3
2dWireframe
350
7452
  3
Basic
350
7451
  3
Brighten
350
7458
  3
ColorChange
350
745C
  3
Conceptual
350
7455
  3
Dim
350
7457
  3
EdgeColorOff
350
7464
  3
Facepattern
350
745B
  3
Flat
350
744D
  3
FlatWithEdges
350
744E
  3
Gouraud
350
744F
  3
GouraudWithEdges
350
7450
  3
Hidden
350
7454
  3
JitterOff
350
7462
  3
Linepattern
350
745A
  3
OverhangOff
350
7463
  3
Realistic
350
7456
  3
Shaded
350
7461
  3
Shaded with edges
350
7460
  3
Shades of Gray
350
745D
  3
Sketchy
350
745E
  3
Thicken
350
7459
  3
Wireframe
350
7453
  3
X-Ray
350
745F
  0
XRECORD
  5
74AE
102
{ACAD_REACTORS
330
C
102
}
330
C
100
AcDbXrecord
280
     1
 90
        1
330
7467
330
747D
330
747F
  0
DICTIONARY
  5
5E0C
102
{ACAD_REACTORS
330
C
102
}
330
C
100
AcDbDictionary
281
     1
  3
CANNOSCALE
350
74A3
  3
CMLEADERSTYLE
350
749F
  3
CTABLESTYLE
350
749E
  3
CVIEWDETAILSTYLE
350
74A0
  3
CVIEWSECTIONSTYLE
350
74A1
  3
DIMASSOC
350
5E0D
  3
LAYEREVAL
350
74A5
  3
LAYERNOTIFY
350
74A6
  3
LIGHTINGUNITS
350
74A4
  3
MSLTSCALE
350
74A2
  0
XRECORD
  5
7485
102
{ACAD_REACTORS
330
7484
102
}
330
7484
100
AcDbXrecord
280
     1
290
     1
  0
XRECORD
  5
7487
102
{ACAD_REACTORS
330
7486
102
}
330
7486
100
AcDbXrecord
280
     1
290
     1
  0
XRECORD
  5
7489
102
{ACAD_REACTORS
330
7488
102
}
330
7488
100
AcDbXrecord
280
     1
290
     1
  0
XRECORD
  5
748B
102
{ACAD_REACTORS
330
748A
102
}
330
748A
100
AcDbXrecord
280
     1
290
     1
  0
XRECORD
  5
748D
102
{ACAD_REACTORS
330
748C
102
}
330
748C
100
AcDbXrecord
280
     1
290
     1
  0
XRECORD
  5
748F
102
{ACAD_REACTORS
330
748E
102
}
330
748E
100
AcDbXrecord
280
     1
290
     1
  0
XRECORD
  5
7491
102
{ACAD_REACTORS
330
7490
102
}
330
7490
100
AcDbXrecord
280
     1
290
     1
  0
XRECORD
  5
7493
102
{ACAD_REACTORS
330
7492
102
}
330
7492
100
AcDbXrecord
280
     1
290
     1
  0
XRECORD
  5
7495
102
{ACAD_REACTORS
330
7494
102
}
330
7494
100
AcDbXrecord
280
     1
290
     1
  0
XRECORD
  5
7497
102
{ACAD_REACTORS
330
7496
102
}
330
7496
100
AcDbXrecord
280
     1
290
     1
  0
XRECORD
  5
7499
102
{ACAD_REACTORS
330
7498
102
}
330
7498
100
AcDbXrecord
280
     1
290
     1
  0
XRECORD
  5
749B
102
{ACAD_REACTORS
330
749A
102
}
330
749A
100
AcDbXrecord
280
     1
290
     1
  0
XRECORD
  5
749D
102
{ACAD_REACTORS
330
749C
102
}
330
749C
100
AcDbXrecord
280
     1
290
     1
  0
XRECORD
  5
73B1
102
{ACAD_REACTORS
330
178
102
}
330
178
100
AcDbXrecord
280
     1
340
1E
  0
XRECORD
  5
73B0
102
{ACAD_REACTORS
330
17A
102
}
330
17A
100
AcDbXrecord
280
     1
340
1A
  0
ACDBDETAILVIEWSTYLE
  5
747F
102
{ACAD_XDICTIONARY
360
74AC
102
}
102
{ACAD_REACTORS
330
747E
102
}
330
747E
100
AcDbModelDocViewStyle
 70
     0
  3
Imperial24
290
     0
100
AcDbDetailViewStyle
 70
     0
 71
     0
 90
        3
 71
     1
340
11
 62
   256
 40
0.24
340
0
 62
   256
 40
0.24
300

 40
0.36
280
     3
 71
     2
340
15
 90
       25
 62
   256
 71
     3
340
11
 62
   256
 40
0.24
 90
        1
 40
0.75
 90
        1
300
%<\AcVar ViewType \f "%tc1">% %<\AcVar ViewDetailId>%\PSCALE %<\AcVar ViewScale \f "%sn">%
 71
     4
340
15
 90
       25
 62
   256
340
15
 90
       25
 62
   256
280
     0
  0
LAYOUT
  5
73BA
102
{ACAD_REACTORS
330
19
102
}
330
19
100
AcDbPlotSettings
  1

  2
Canon LBP3800 LIPSLX
  4

  6

 40
0.0
 41
0.0
 42
0.0
 43
0.0
 44
0.0
 45
0.0
 46
0.0
 47
0.0
 48
0.0
 49
0.0
140
0.0
141
0.0
142
1.0
143
1.0
 70
  1712
 72
     0
 73
     0
 74
     0
  7
monochrome.ctb
 75
     0
147
1.0
 76
     0
 77
     2
 78
   300
148
0.0
149
0.0
100
AcDbLayout
  1
Model
 70
     1
 71
     0
 10
0.0
 20
0.0
 11
12.0
 21
9.0
 12
0.0
 22
0.0
 32
0.0
 14
0.0
 24
0.0
 34
0.0
 15
0.0
 25
0.0
 35
0.0
146
0.0
 13
0.0
 23
0.0
 33
0.0
 16
1.0
 26
0.0
 36
0.0
 17
0.0
 27
1.0
 37
0.0
 76
     0
330
1E
331
742B
  0
LAYOUT
  5
73BB
102
{ACAD_REACTORS
330
19
102
}
330
19
100
AcDbPlotSettings
  1

  2
Canon LBP3800 LIPSLX
  4

  6

 40
0.0
 41
0.0
 42
0.0
 43
0.0
 44
0.0
 45
0.0
 46
0.0
 47
0.0
 48
0.0
 49
0.0
140
0.0
141
0.0
142
1.0
143
1.0
 70
   688
 72
     0
 73
     0
 74
     5
  7
monochrome.ctb
 75
    16
147
1.0
 76
     0
 77
     2
 78
   300
148
0.0
149
0.0
100
AcDbLayout
  1
ﾚｲｱｳﾄ1
 70
     1
 71
     1
 10
-5.873748779296875
 20
-5.873749732971191
 11
204.0995788574218
 21
291.1369009017943
 12
0.0
 22
0.0
 32
0.0
 14
4.273573370203961
 24
5.205246163471485
 34
0.0
 15
194.6100952986349
 25
283.0697008572913
 35
0.0
146
0.0
 13
0.0
 23
0.0
 33
0.0
 16
1.0
 26
0.0
 36
0.0
 17
0.0
 27
1.0
 37
0.0
 76
     0
330
1A
331
9AC
  0
MATERIAL
  5
743C
102
{ACAD_XDICTIONARY
360
743D
102
}
102
{ACAD_REACTORS
330
7433
102
}
330
7433
100
AcDbMaterial
  1
ByBlock
 72
     0
 43
0.0208333333333333
 43
0.0
 43
0.0
 43
0.0
 43
0.0
 43
0.0208333333333333
 43
0.0
 43
0.0
 43
0.0
 43
0.0
 43
1.0
 43
0.0
 43
0.0
 43
0.0
 43
0.0
 43
1.0
 77
     0
 47
0.0208333333333333
 47
0.0
 47
0.0
 47
0.0
 47
0.0
 47
0.0208333333333333
 47
0.0
 47
0.0
 47
0.0
 47
0.0
 47
1.0
 47
0.0
 47
0.0
 47
0.0
 47
0.0
 47
1.0
171
     0
 49
0.0208333333333333
 49
0.0
 49
0.0
 49
0.0
 49
0.0
 49
0.0208333333333333
 49
0.0
 49
0.0
 49
0.0
 49
0.0
 49
1.0
 49
0.0
 49
0.0
 49
0.0
 49
0.0
 49
1.0
175
     0
142
0.0208333333333333
142
0.0
142
0.0
142
0.0
142
0.0
142
0.0208333333333333
142
0.0
142
0.0
142
0.0
142
0.0
142
1.0
142
0.0
142
0.0
142
0.0
142
0.0
142
1.0
179
     0
144
0.0208333333333333
144
0.0
144
0.0
144
0.0
144
0.0
144
0.0208333333333333
144
0.0
144
0.0
144
0.0
144
0.0
144
1.0
144
0.0
144
0.0
144
0.0
144
0.0
144
1.0
147
0.0208333333333333
147
0.0
147
0.0
147
0.0
147
0.0
147
0.0208333333333333
147
0.0
147
0.0
147
0.0
147
0.0
147
1.0
147
0.0
147
0.0
147
0.0
147
0.0
147
1.0
  0
MATERIAL
  5
7434
102
{ACAD_XDICTIONARY
360
7435
102
}
102
{ACAD_REACTORS
330
7433
102
}
330
7433
100
AcDbMaterial
  1
ByLayer
 72
     0
 43
0.0208333333333333
 43
0.0
 43
0.0
 43
0.0
 43
0.0
 43
0.0208333333333333
 43
0.0
 43
0.0
 43
0.0
 43
0.0
 43
1.0
 43
0.0
 43
0.0
 43
0.0
 43
0.0
 43
1.0
 77
     0
 47
0.0208333333333333
 47
0.0
 47
0.0
 47
0.0
 47
0.0
 47
0.0208333333333333
 47
0.0
 47
0.0
 47
0.0
 47
0.0
 47
1.0
 47
0.0
 47
0.0
 47
0.0
 47
0.0
 47
1.0
171
     0
 49
0.0208333333333333
 49
0.0
 49
0.0
 49
0.0
 49
0.0
 49
0.0208333333333333
 49
0.0
 49
0.0
 49
0.0
 49
0.0
 49
1.0
 49
0.0
 49
0.0
 49
0.0
 49
0.0
 49
1.0
175
     0
142
0.0208333333333333
142
0.0
142
0.0
142
0.0
142
0.0
142
0.0208333333333333
142
0.0
142
0.0
142
0.0
142
0.0
142
1.0
142
0.0
142
0.0
142
0.0
142
0.0
142
1.0
179
     0
144
0.0208333333333333
144
0.0
144
0.0
144
0.0
144
0.0
144
0.0208333333333333
144
0.0
144
0.0
144
0.0
144
0.0
144
1.0
144
0.0
144
0.0
144
0.0
144
0.0
144
1.0
147
0.0208333333333333
147
0.0
147
0.0
147
0.0
147
0.0
147
0.0208333333333333
147
0.0
147
0.0
147
0.0
147
0.0
147
1.0
147
0.0
147
0.0
147
0.0
147
0.0
147
1.0
  0
MATERIAL
  5
7444
102
{ACAD_XDICTIONARY
360
7445
102
}
102
{ACAD_REACTORS
330
7433
102
}
330
7433
100
AcDbMaterial
  1
Global
 72
     0
 43
0.0208333333333333
 43
0.0
 43
0.0
 43
0.0
 43
0.0
 43
0.0208333333333333
 43
0.0
 43
0.0
 43
0.0
 43
0.0
 43
1.0
 43
0.0
 43
0.0
 43
0.0
 43
0.0
 43
1.0
 77
     0
 47
0.0208333333333333
 47
0.0
 47
0.0
 47
0.0
 47
0.0
 47
0.0208333333333333
 47
0.0
 47
0.0
 47
0.0
 47
0.0
 47
1.0
 47
0.0
 47
0.0
 47
0.0
 47
0.0
 47
1.0
171
     0
 49
0.0208333333333333
 49
0.0
 49
0.0
 49
0.0
 49
0.0
 49
0.0208333333333333
 49
0.0
 49
0.0
 49
0.0
 49
0.0
 49
1.0
 49
0.0
 49
0.0
 49
0.0
 49
0.0
 49
1.0
175
     0
142
0.0208333333333333
142
0.0
142
0.0
142
0.0
142
0.0
142
0.0208333333333333
142
0.0
142
0.0
142
0.0
142
0.0
142
1.0
142
0.0
142
0.0
142
0.0
142
0.0
142
1.0
179
     0
144
0.0208333333333333
144
0.0
144
0.0
144
0.0
144
0.0
144
0.0208333333333333
144
0.0
144
0.0
144
0.0
144
0.0
144
1.0
144
0.0
144
0.0
144
0.0
144
0.0
144
1.0
147
0.0208333333333333
147
0.0
147
0.0
147
0.0
147
0.0
147
0.0208333333333333
147
0.0
147
0.0
147
0.0
147
0.0
147
1.0
147
0.0
147
0.0
147
0.0
147
0.0
147
1.0
  0
MLEADERSTYLE
  5
747B
102
{ACAD_REACTORS
330
747A
102
}
330
747A
100
AcDbMLeaderStyle
179
     2
170
     2
171
     1
172
     0
 90
        2
 40
0.0
 41
0.0
173
     1
 91
-1056964608
340
13
 92
       -2
290
     1
 42
0.09
291
     1
 43
0.36
  3
Standard
 44
0.18
300

342
11
174
     1
178
     6
175
     1
176
     0
 93
-1056964608
 45
0.18
292
     0
297
     0
 46
0.18
 94
-1056964608
 47
1.0
 49
1.0
140
1.0
293
     1
141
0.0
294
     1
177
     0
142
1.0
295
     0
296
     0
143
0.125
271
     0
272
     9
273
     9
298
     0
  0
MLINESTYLE
  5
17
102
{ACAD_REACTORS
330
16
102
}
330
16
100
AcDbMlineStyle
  2
STANDARD
 70
     0
  3

 62
   256
 51
90.0
 52
90.0
 71
     2
 49
0.5
 62
   256
  6
BYLAYER
 49
-0.5
 62
   256
  6
BYLAYER
  0
ACDBPLACEHOLDER
  5
F
102
{ACAD_REACTORS
330
E
102
}
330
E
  0
SCALE
  5
7469
102
{ACAD_REACTORS
330
7468
102
}
330
7468
100
AcDbScale
 70
     0
300
1:1
140
1.0
141
1.0
290
     1
  0
SCALE
  5
746A
102
{ACAD_REACTORS
330
7468
102
}
330
7468
100
AcDbScale
 70
     0
300
1/128" = 1'-0"
140
0.0078125
141
12.0
290
     0
  0
SCALE
  5
746B
102
{ACAD_REACTORS
330
7468
102
}
330
7468
100
AcDbScale
 70
     0
300
1/64" = 1'-0"
140
0.015625
141
12.0
290
     0
  0
SCALE
  5
746C
102
{ACAD_REACTORS
330
7468
102
}
330
7468
100
AcDbScale
 70
     0
300
1/32" = 1'-0"
140
0.03125
141
12.0
290
     0
  0
SCALE
  5
746D
102
{ACAD_REACTORS
330
7468
102
}
330
7468
100
AcDbScale
 70
     0
300
1/16" = 1'-0"
140
0.0625
141
12.0
290
     0
  0
SCALE
  5
746E
102
{ACAD_REACTORS
330
7468
102
}
330
7468
100
AcDbScale
 70
     0
300
3/32" = 1'-0"
140
0.09375
141
12.0
290
     0
  0
SCALE
  5
746F
102
{ACAD_REACTORS
330
7468
102
}
330
7468
100
AcDbScale
 70
     0
300
1/8" = 1'-0"
140
0.125
141
12.0
290
     0
  0
SCALE
  5
7470
102
{ACAD_REACTORS
330
7468
102
}
330
7468
100
AcDbScale
 70
     0
300
3/16" = 1'-0"
140
0.1875
141
12.0
290
     0
  0
SCALE
  5
7471
102
{ACAD_REACTORS
330
7468
102
}
330
7468
100
AcDbScale
 70
     0
300
1/4" = 1'-0"
140
0.25
141
12.0
290
     0
  0
SCALE
  5
7472
102
{ACAD_REACTORS
330
7468
102
}
330
7468
100
AcDbScale
 70
     0
300
3/8" = 1'-0"
140
0.375
141
12.0
290
     0
  0
SCALE
  5
7473
102
{ACAD_REACTORS
330
7468
102
}
330
7468
100
AcDbScale
 70
     0
300
1/2" = 1'-0"
140
0.5
141
12.0
290
     0
  0
SCALE
  5
7474
102
{ACAD_REACTORS
330
7468
102
}
330
7468
100
AcDbScale
 70
     0
300
3/4" = 1'-0"
140
0.75
141
12.0
290
     0
  0
SCALE
  5
7475
102
{ACAD_REACTORS
330
7468
102
}
330
7468
100
AcDbScale
 70
     0
300
1" = 1'-0"
140
1.0
141
12.0
290
     0
  0
SCALE
  5
7476
102
{ACAD_REACTORS
330
7468
102
}
330
7468
100
AcDbScale
 70
     0
300
1-1/2" = 1'-0"
140
1.5
141
12.0
290
     0
  0
SCALE
  5
7477
102
{ACAD_REACTORS
330
7468
102
}
330
7468
100
AcDbScale
 70
     0
300
3" = 1'-0"
140
3.0
141
12.0
290
     0
  0
SCALE
  5
7478
102
{ACAD_REACTORS
330
7468
102
}
330
7468
100
AcDbScale
 70
     0
300
6" = 1'-0"
140
6.0
141
12.0
290
     0
  0
SCALE
  5
7479
102
{ACAD_REACTORS
330
7468
102
}
330
7468
100
AcDbScale
 70
     0
300
1'-0" = 1'-0"
140
12.0
141
12.0
290
     0
  0
ACDBSECTIONVIEWSTYLE
  5
747D
102
{ACAD_XDICTIONARY
360
74AA
102
}
102
{ACAD_REACTORS
330
747C
102
}
330
747C
100
AcDbModelDocViewStyle
 70
     0
  3
Imperial24
290
     0
100
AcDbSectionViewStyle
 70
     0
 71
     0
 90
       78
 71
     1
340
11
 62
   256
 40
0.24
340
0
340
0
 62
   256
 40
0.24
300
I, O, Q, S, X, Z
 40
0.48
 90
        3
 40
0.18
 90
        1
 71
     2
340
15
 90
       25
 62
   256
340
15
 90
       50
 62
   256
 40
0.24
 40
0.0
 40
0.24
 71
     3
340
11
 62
   256
 40
0.24
 90
        1
 40
0.75
 90
        1
300
%<\AcVar ViewType \f "%tc1">% %<\AcVar ViewSectionStartId>%-%<\AcVar ViewSectionEndId>%\PSCALE %<\AcVar ViewScale \f "%sn">%
 71
     4
 62
   256
 62
   257
300
ANSI31
 40
1.0
 90
        0
290
     0
290
     0
 90
        6
 40
0.0
 40
1.570796326794896
 40
0.2617993877991494
 40
1.308996938995747
 40
-0.2617993877991494
 40
1.832595714594046
  0
TABLESTYLE
  5
7467
102
{ACAD_XDICTIONARY
360
74A8
102
}
102
{ACAD_REACTORS
330
7466
102
}
330
7466
100
AcDbTableStyle
280
     0
  3
Standard
 70
     0
 71
     0
 40
0.06
 41
0.06
280
     0
281
     0
  7
STANDARD
140
0.18
170
     2
 62
     0
 63
     7
283
     0
 90
      512
 91
        0
  1

274
    -2
284
     1
 64
     0
275
    -2
285
     1
 65
     0
276
    -2
286
     1
 66
     0
277
    -2
287
     1
 67
     0
278
    -2
288
     1
 68
     0
279
    -2
289
     1
 69
     0
  7
STANDARD
140
0.25
170
     5
 62
     0
 63
     7
283
     0
 90
      512
 91
        0
  1

274
    -2
284
     1
 64
     0
275
    -2
285
     1
 65
     0
276
    -2
286
     1
 66
     0
277
    -2
287
     1
 67
     0
278
    -2
288
     1
 68
     0
279
    -2
289
     1
 69
     0
  7
STANDARD
140
0.18
170
     5
 62
     0
 63
     7
283
     0
 90
      512
 91
        0
  1

274
    -2
284
     1
 64
     0
275
    -2
285
     1
 65
     0
276
    -2
286
     1
 66
     0
277
    -2
287
     1
 67
     0
278
    -2
288
     1
 68
     0
279
    -2
289
     1
 69
     0
  0
VISUALSTYLE
  5
7452
102
{ACAD_REACTORS
330
744C
102
}
330
744C
100
AcDbVisualStyle
  2
2dWireframe
 70
     4
177
     3
291
     0
 70
    58
 90
        0
176
     1
 90
        2
176
     1
 90
        0
176
     1
 90
        0
176
     1
 40
0.6
176
     1
 40
30.0
176
     1
 62
     7
420
 16777215
176
     1
 90
        1
176
     1
 90
        4
176
     1
 62
     7
176
     1
 62
   257
176
     1
 90
        1
176
     1
 90
        1
176
     1
 40
1.0
176
     1
 90
        0
176
     1
 62
   257
176
     1
 40
1.0
176
     1
 90
        1
176
     1
 90
        6
176
     1
 90
        2
176
     1
 62
     7
176
     1
 90
        5
176
     1
 90
        0
176
     1
 90
        0
176
     1
290
     0
176
     1
 90
        1
176
     1
 40
0.0
176
     1
 90
        0
176
     1
290
     1
176
     1
290
     1
176
     1
290
     0
176
     1
290
     0
176
     1
290
     0
176
     1
290
     0
176
     1
290
     0
176
     1
290
     0
176
     1
290
     0
176
     1
 90
       50
176
     1
 40
0.0
176
     1
 40
1.0
176
     1
 90
        0
176
     1
 62
    18
420
        0
176
     1
 90
       50
176
     1
 90
        3
176
     1
 62
     5
420
      255
176
     1
290
     0
176
     1
 90
       50
176
     1
 90
       50
176
     1
 90
       50
176
     1
290
     0
176
     1
 90
       50
176
     1
 62
   256
176
     0
 40
1.0
176
     0
 90
        2
176
     1
  1
strokes_ogs.tif
176
     1
290
     0
176
     1
 40
1.0
176
     1
 40
1.0
176
     1
  0
VISUALSTYLE
  5
7451
102
{ACAD_REACTORS
330
744C
102
}
330
744C
100
AcDbVisualStyle
  2
Basic
 70
     7
177
     3
291
     1
 70
    58
 90
        1
176
     1
 90
        0
176
     1
 90
        1
176
     1
 90
        0
176
     1
 40
0.6
176
     1
 40
30.0
176
     1
 62
     7
420
 16777215
176
     1
 90
        0
176
     1
 90
        4
176
     1
 62
     7
176
     1
 62
   257
176
     1
 90
        1
176
     1
 90
        1
176
     1
 40
1.0
176
     1
 90
        8
176
     1
 62
     7
176
     1
 40
1.0
176
     1
 90
        1
176
     1
 90
        6
176
     1
 90
        2
176
     1
 62
     7
176
     1
 90
        5
176
     1
 90
        0
176
     1
 90
        0
176
     1
290
     0
176
     1
 90
        1
176
     1
 40
0.0
176
     1
 90
        0
176
     1
290
     0
176
     1
290
     1
176
     1
290
     1
176
     1
290
     0
176
     1
290
     0
176
     1
290
     0
176
     1
290
     0
176
     1
290
     0
176
     1
290
     0
176
     1
 90
       50
176
     1
 40
0.0
176
     1
 40
1.0
176
     1
 90
        0
176
     1
 62
    18
420
        0
176
     1
 90
       50
176
     1
 90
        3
176
     1
 62
     5
420
      255
176
     1
290
     0
176
     1
 90
       50
176
     1
 90
       50
176
     1
 90
       50
176
     1
290
     0
176
     1
 90
       50
176
     1
 62
   256
176
     0
 40
1.0
176
     0
 90
        2
176
     1
  1
strokes_ogs.tif
176
     1
290
     0
176
     1
 40
1.0
176
     1
 40
1.0
176
     1
  0
VISUALSTYLE
  5
7458
102
{ACAD_REACTORS
330
744C
102
}
330
744C
100
AcDbVisualStyle
  2
Brighten
 70
    12
177
     3
291
     1
 70
    58
 90
        2
176
     1
 90
        2
176
     1
 90
        0
176
     1
 90
        0
176
     1
 40
0.6
176
     1
 40
30.0
176
     1
 62
     7
420
 16777215
176
     1
 90
        1
176
     1
 90
        4
176
     1
 62
     7
176
     1
 62
   257
176
     1
 90
        1
176
     1
 90
        1
176
     1
 40
1.0
176
     1
 90
        8
176
     1
 62
     7
176
     1
 40
1.0
176
     1
 90
        1
176
     1
 90
        6
176
     1
 90
        2
176
     1
 62
     7
176
     1
 90
        5
176
     1
 90
        0
176
     1
 90
        0
176
     1
290
     0
176
     1
 90
        1
176
     1
 40
50.0
176
     1
 90
        0
176
     1
290
     0
176
     1
290
     1
176
     1
290
     1
176
     1
290
     0
176
     1
290
     0
176
     1
290
     0
176
     1
290
     0
176
     1
290
     0
176
     1
290
     0
176
     1
 90
       50
176
     1
 40
0.0
176
     1
 40
1.0
176
     1
 90
        0
176
     1
 62
    18
420
        0
176
     1
 90
       50
176
     1
 90
        3
176
     1
 62
     5
420
      255
176
     1
290
     0
176
     1
 90
       50
176
     1
 90
       50
176
     1
 90
       50
176
     1
290
     0
176
     1
 90
       50
176
     1
 62
   256
176
     0
 40
1.0
176
     0
 90
        2
176
     1
  1
strokes_ogs.tif
176
     1
290
     0
176
     1
 40
1.0
176
     1
 40
1.0
176
     1
  0
VISUALSTYLE
  5
745C
102
{ACAD_REACTORS
330
744C
102
}
330
744C
100
AcDbVisualStyle
  2
ColorChange
 70
    16
177
     3
291
     1
 70
    58
 90
        2
176
     1
 90
        2
176
     1
 90
        3
176
     1
 90
        0
176
     1
 40
0.6
176
     1
 40
30.0
176
     1
 62
     8
420
  8421504
176
     1
 90
        1
176
     1
 90
        4
176
     1
 62
     7
176
     1
 62
   257
176
     1
 90
        1
176
     1
 90
        1
176
     1
 40
1.0
176
     1
 90
        8
176
     1
 62
     8
420
  8421504
176
     1
 40
1.0
176
     1
 90
        1
176
     1
 90
        6
176
     1
 90
        2
176
     1
 62
     7
176
     1
 90
        5
176
     1
 90
        0
176
     1
 90
        0
176
     1
290
     0
176
     1
 90
        1
176
     1
 40
0.0
176
     1
 90
        0
176
     1
290
     0
176
     1
290
     1
176
     1
290
     1
176
     1
290
     0
176
     1
290
     0
176
     1
290
     0
176
     1
290
     0
176
     1
290
     0
176
     1
290
     0
176
     1
 90
       50
176
     1
 40
0.0
176
     1
 40
1.0
176
     1
 90
        0
176
     1
 62
    18
420
        0
176
     1
 90
       50
176
     1
 90
        3
176
     1
 62
     5
420
      255
176
     1
290
     0
176
     1
 90
       50
176
     1
 90
       50
176
     1
 90
       50
176
     1
290
     0
176
     1
 90
       50
176
     1
 62
   256
176
     0
 40
1.0
176
     0
 90
        2
176
     1
  1
strokes_ogs.tif
176
     1
290
     0
176
     1
 40
1.0
176
     1
 40
1.0
176
     1
  0
VISUALSTYLE
  5
7455
102
{ACAD_REACTORS
330
744C
102
}
330
744C
100
AcDbVisualStyle
  2
Conceptual
 70
     9
177
     3
291
     0
 70
    58
 90
        3
176
     1
 90
        2
176
     1
 90
        0
176
     1
 90
        0
176
     1
 40
0.6
176
     1
 40
30.0
176
     1
 62
     7
420
 16777215
176
     1
 90
        2
176
     1
 90
        2
176
     1
 62
     7
176
     1
 62
   257
176
     1
 90
        1
176
     1
 90
        1
176
     1
 40
179.0
176
     1
 90
        8
176
     1
 62
     7
176
     1
 40
1.0
176
     1
 90
        1
176
     1
 90
        6
176
     1
 90
        2
176
     1
 62
     7
176
     1
 90
        3
176
     1
 90
        0
176
     1
 90
        0
176
     1
290
     0
176
     1
 90
        1
176
     1
 40
0.0
176
     1
 90
        0
176
     1
290
     0
176
     1
290
     1
176
     1
290
     1
176
     1
290
     0
176
     1
290
     0
176
     1
290
     0
176
     1
290
     0
176
     1
290
     0
176
     1
290
     0
176
     1
 90
       50
176
     1
 40
0.0
176
     1
 40
1.0
176
     1
 90
        0
176
     1
 62
    18
420
        0
176
     1
 90
       50
176
     1
 90
        3
176
     1
 62
     5
420
      255
176
     1
290
     0
176
     1
 90
       50
176
     1
 90
       50
176
     1
 90
       50
176
     1
290
     0
176
     1
 90
       50
176
     1
 62
   256
176
     0
 40
1.0
176
     0
 90
        2
176
     1
  1
strokes_ogs.tif
176
     1
290
     0
176
     1
 40
1.0
176
     1
 40
1.0
176
     1
  0
VISUALSTYLE
  5
7457
102
{ACAD_REACTORS
330
744C
102
}
330
744C
100
AcDbVisualStyle
  2
Dim
 70
    11
177
     3
291
     1
 70
    58
 90
        2
176
     1
 90
        2
176
     1
 90
        0
176
     1
 90
        0
176
     1
 40
0.6
176
     1
 40
30.0
176
     1
 62
     7
420
 16777215
176
     1
 90
        1
176
     1
 90
        4
176
     1
 62
     7
176
     1
 62
   257
176
     1
 90
        1
176
     1
 90
        1
176
     1
 40
1.0
176
     1
 90
        8
176
     1
 62
     7
176
     1
 40
1.0
176
     1
 90
        1
176
     1
 90
        6
176
     1
 90
        2
176
     1
 62
     7
176
     1
 90
        5
176
     1
 90
        0
176
     1
 90
        0
176
     1
290
     0
176
     1
 90
        1
176
     1
 40
-50.0
176
     1
 90
        0
176
     1
290
     0
176
     1
290
     1
176
     1
290
     1
176
     1
290
     0
176
     1
290
     0
176
     1
290
     0
176
     1
290
     0
176
     1
290
     0
176
     1
290
     0
176
     1
 90
       50
176
     1
 40
0.0
176
     1
 40
1.0
176
     1
 90
        0
176
     1
 62
    18
420
        0
176
     1
 90
       50
176
     1
 90
        3
176
     1
 62
     5
420
      255
176
     1
290
     0
176
     1
 90
       50
176
     1
 90
       50
176
     1
 90
       50
176
     1
290
     0
176
     1
 90
       50
176
     1
 62
   256
176
     0
 40
1.0
176
     0
 90
        2
176
     1
  1
strokes_ogs.tif
176
     1
290
     0
176
     1
 40
1.0
176
     1
 40
1.0
176
     1
  0
VISUALSTYLE
  5
7464
102
{ACAD_REACTORS
330
744C
102
}
330
744C
100
AcDbVisualStyle
  2
EdgeColorOff
 70
    22
177
     3
291
     1
 70
    58
 90
        2
176
     0
 90
        2
176
     0
 90
        0
176
     0
 90
        0
176
     0
 40
0.6
176
     0
 40
30.0
176
     0
 62
     7
420
 16777215
176
     0
 90
        1
176
     0
 90
        4
176
     0
 62
     7
176
     0
 62
   257
176
     0
 90
        1
176
     0
 90
        1
176
     0
 40
1.0
176
     0
 90
        8
176
     2
 62
     7
176
     0
 40
1.0
176
     0
 90
        1
176
     0
 90
        6
176
     0
 90
        2
176
     0
 62
     7
176
     0
 90
        5
176
     0
 90
        0
176
     0
 90
        0
176
     0
290
     0
176
     0
 90
        1
176
     0
 40
0.0
176
     0
 90
        0
176
     0
290
     0
176
     1
290
     1
176
     1
290
     1
176
     1
290
     0
176
     1
290
     0
176
     1
290
     0
176
     1
290
     0
176
     1
290
     0
176
     1
290
     0
176
     1
 90
       50
176
     0
 40
0.0
176
     0
 40
1.0
176
     0
 90
        0
176
     0
 62
    18
420
        0
176
     0
 90
       50
176
     0
 90
        3
176
     0
 62
     5
420
      255
176
     0
290
     0
176
     1
 90
       50
176
     0
 90
       50
176
     0
 90
       50
176
     0
290
     0
176
     1
 90
       50
176
     0
 62
   256
176
     0
 40
1.0
176
     0
 90
        2
176
     0
  1
strokes_ogs.tif
176
     0
290
     0
176
     1
 40
1.0
176
     0
 40
1.0
176
     0
  0
VISUALSTYLE
  5
745B
102
{ACAD_REACTORS
330
744C
102
}
330
744C
100
AcDbVisualStyle
  2
Facepattern
 70
    15
177
     3
291
     1
 70
    58
 90
        2
176
     1
 90
        2
176
     1
 90
        0
176
     1
 90
        0
176
     1
 40
0.6
176
     1
 40
30.0
176
     1
 62
     7
420
 16777215
176
     1
 90
        1
176
     1
 90
        4
176
     1
 62
     7
176
     1
 62
   257
176
     1
 90
        1
176
     1
 90
        1
176
     1
 40
1.0
176
     1
 90
        8
176
     1
 62
     7
176
     1
 40
1.0
176
     1
 90
        1
176
     1
 90
        6
176
     1
 90
        2
176
     1
 62
     7
176
     1
 90
        5
176
     1
 90
        0
176
     1
 90
        0
176
     1
290
     0
176
     1
 90
        1
176
     1
 40
0.0
176
     1
 90
        0
176
     1
290
     0
176
     1
290
     1
176
     1
290
     1
176
     1
290
     0
176
     1
290
     0
176
     1
290
     0
176
     1
290
     0
176
     1
290
     0
176
     1
290
     0
176
     1
 90
       50
176
     1
 40
0.0
176
     1
 40
1.0
176
     1
 90
        0
176
     1
 62
    18
420
        0
176
     1
 90
       50
176
     1
 90
        3
176
     1
 62
     5
420
      255
176
     1
290
     0
176
     1
 90
       50
176
     1
 90
       50
176
     1
 90
       50
176
     1
290
     0
176
     1
 90
       50
176
     1
 62
   256
176
     0
 40
1.0
176
     0
 90
        2
176
     1
  1
strokes_ogs.tif
176
     1
290
     0
176
     1
 40
1.0
176
     1
 40
1.0
176
     1
  0
VISUALSTYLE
  5
744D
102
{ACAD_REACTORS
330
744C
102
}
330
744C
100
AcDbVisualStyle
  2
Flat
 70
     0
177
     3
291
     1
 70
    58
 90
        2
176
     1
 90
        1
176
     1
 90
        1
176
     1
 90
        2
176
     1
 40
0.6
176
     1
 40
30.0
176
     1
 62
     7
420
 16777215
176
     1
 90
        0
176
     1
 90
        0
176
     1
 62
     7
176
     1
 62
   257
176
     1
 90
        1
176
     1
 90
        1
176
     1
 40
1.0
176
     1
 90
        8
176
     1
 62
     7
176
     1
 40
1.0
176
     1
 90
        1
176
     1
 90
        6
176
     1
 90
        2
176
     1
 62
     7
176
     1
 90
        5
176
     1
 90
        0
176
     1
 90
        0
176
     1
290
     0
176
     1
 90
       13
176
     1
 40
0.0
176
     1
 90
        0
176
     1
290
     0
176
     1
290
     1
176
     1
290
     1
176
     1
290
     0
176
     1
290
     0
176
     1
290
     0
176
     1
290
     0
176
     1
290
     0
176
     1
290
     0
176
     1
 90
       50
176
     1
 40
0.0
176
     1
 40
1.0
176
     1
 90
        0
176
     1
 62
    18
420
        0
176
     1
 90
       50
176
     1
 90
        3
176
     1
 62
     5
420
      255
176
     1
290
     0
176
     1
 90
       50
176
     1
 90
       50
176
     1
 90
       50
176
     1
290
     0
176
     1
 90
       50
176
     1
 62
   256
176
     0
 40
1.0
176
     0
 90
        2
176
     1
  1
strokes_ogs.tif
176
     1
290
     0
176
     1
 40
1.0
176
     1
 40
1.0
176
     1
  0
VISUALSTYLE
  5
744E
102
{ACAD_REACTORS
330
744C
102
}
330
744C
100
AcDbVisualStyle
  2
FlatWithEdges
 70
     1
177
     3
291
     1
 70
    58
 90
        2
176
     1
 90
        1
176
     1
 90
        1
176
     1
 90
        2
176
     1
 40
0.6
176
     1
 40
30.0
176
     1
 62
     7
420
 16777215
176
     1
 90
        1
176
     1
 90
        0
176
     1
 62
     7
176
     1
 62
   257
176
     1
 90
        1
176
     1
 90
        1
176
     1
 40
1.0
176
     1
 90
        0
176
     1
 62
   257
176
     1
 40
1.0
176
     1
 90
        1
176
     1
 90
        6
176
     1
 90
        2
176
     1
 62
     7
176
     1
 90
        5
176
     1
 90
        0
176
     1
 90
        0
176
     1
290
     0
176
     1
 90
       13
176
     1
 40
0.0
176
     1
 90
        0
176
     1
290
     0
176
     1
290
     1
176
     1
290
     1
176
     1
290
     0
176
     1
290
     0
176
     1
290
     0
176
     1
290
     0
176
     1
290
     0
176
     1
290
     0
176
     1
 90
       50
176
     1
 40
0.0
176
     1
 40
1.0
176
     1
 90
        0
176
     1
 62
    18
420
        0
176
     1
 90
       50
176
     1
 90
        3
176
     1
 62
     5
420
      255
176
     1
290
     0
176
     1
 90
       50
176
     1
 90
       50
176
     1
 90
       50
176
     1
290
     0
176
     1
 90
       50
176
     1
 62
   256
176
     0
 40
1.0
176
     0
 90
        2
176
     1
  1
strokes_ogs.tif
176
     1
290
     0
176
     1
 40
1.0
176
     1
 40
1.0
176
     1
  0
VISUALSTYLE
  5
744F
102
{ACAD_REACTORS
330
744C
102
}
330
744C
100
AcDbVisualStyle
  2
Gouraud
 70
     2
177
     3
291
     1
 70
    58
 90
        2
176
     1
 90
        2
176
     1
 90
        1
176
     1
 90
        2
176
     1
 40
0.6
176
     1
 40
30.0
176
     1
 62
     7
420
 16777215
176
     1
 90
        0
176
     1
 90
        0
176
     1
 62
     7
176
     1
 62
   257
176
     1
 90
        1
176
     1
 90
        1
176
     1
 40
1.0
176
     1
 90
        0
176
     1
 62
     7
176
     1
 40
1.0
176
     1
 90
        1
176
     1
 90
        6
176
     1
 90
        2
176
     1
 62
     7
176
     1
 90
        5
176
     1
 90
        0
176
     1
 90
        0
176
     1
290
     0
176
     1
 90
       13
176
     1
 40
0.0
176
     1
 90
        0
176
     1
290
     0
176
     1
290
     1
176
     1
290
     1
176
     1
290
     0
176
     1
290
     0
176
     1
290
     0
176
     1
290
     0
176
     1
290
     0
176
     1
290
     0
176
     1
 90
       50
176
     1
 40
0.0
176
     1
 40
1.0
176
     1
 90
        0
176
     1
 62
    18
420
        0
176
     1
 90
       50
176
     1
 90
        3
176
     1
 62
     5
420
      255
176
     1
290
     0
176
     1
 90
       50
176
     1
 90
       50
176
     1
 90
       50
176
     1
290
     0
176
     1
 90
       50
176
     1
 62
   256
176
     0
 40
1.0
176
     0
 90
        2
176
     1
  1
strokes_ogs.tif
176
     1
290
     0
176
     1
 40
1.0
176
     1
 40
1.0
176
     1
  0
VISUALSTYLE
  5
7450
102
{ACAD_REACTORS
330
744C
102
}
330
744C
100
AcDbVisualStyle
  2
GouraudWithEdges
 70
     3
177
     3
291
     1
 70
    58
 90
        2
176
     1
 90
        2
176
     1
 90
        1
176
     1
 90
        2
176
     1
 40
0.6
176
     1
 40
30.0
176
     1
 62
     7
420
 16777215
176
     1
 90
        1
176
     1
 90
        0
176
     1
 62
     7
176
     1
 62
   257
176
     1
 90
        1
176
     1
 90
        1
176
     1
 40
1.0
176
     1
 90
        0
176
     1
 62
   257
176
     1
 40
1.0
176
     1
 90
        1
176
     1
 90
        6
176
     1
 90
        2
176
     1
 62
     7
176
     1
 90
        5
176
     1
 90
        0
176
     1
 90
        0
176
     1
290
     0
176
     1
 90
       13
176
     1
 40
0.0
176
     1
 90
        0
176
     1
290
     0
176
     1
290
     1
176
     1
290
     1
176
     1
290
     0
176
     1
290
     0
176
     1
290
     0
176
     1
290
     0
176
     1
290
     0
176
     1
290
     0
176
     1
 90
       50
176
     1
 40
0.0
176
     1
 40
1.0
176
     1
 90
        0
176
     1
 62
    18
420
        0
176
     1
 90
       50
176
     1
 90
        3
176
     1
 62
     5
420
      255
176
     1
290
     0
176
     1
 90
       50
176
     1
 90
       50
176
     1
 90
       50
176
     1
290
     0
176
     1
 90
       50
176
     1
 62
   256
176
     0
 40
1.0
176
     0
 90
        2
176
     1
  1
strokes_ogs.tif
176
     1
290
     0
176
     1
 40
1.0
176
     1
 40
1.0
176
     1
  0
VISUALSTYLE
  5
7454
102
{ACAD_REACTORS
330
744C
102
}
330
744C
100
AcDbVisualStyle
  2
Hidden
 70
     6
177
     3
291
     0
 70
    58
 90
        1
176
     1
 90
        2
176
     1
 90
        2
176
     1
 90
        0
176
     1
 40
0.6
176
     1
 40
30.0
176
     1
 62
     7
420
 16777215
176
     1
 90
        2
176
     1
 90
        2
176
     1
 62
     7
176
     1
 62
   257
176
     1
 90
        2
176
     1
 90
        1
176
     1
 40
40.0
176
     1
 90
        0
176
     1
 62
   257
176
     1
 40
1.0
176
     1
 90
        1
176
     1
 90
        6
176
     1
 90
        2
176
     1
 62
     7
176
     1
 90
        3
176
     1
 90
        0
176
     1
 90
        0
176
     1
290
     0
176
     1
 90
        1
176
     1
 40
0.0
176
     1
 90
        0
176
     1
290
     0
176
     1
290
     1
176
     1
290
     1
176
     1
290
     0
176
     1
290
     0
176
     1
290
     0
176
     1
290
     0
176
     1
290
     0
176
     1
290
     0
176
     1
 90
       50
176
     1
 40
0.0
176
     1
 40
1.0
176
     1
 90
        0
176
     1
 62
    18
420
        0
176
     1
 90
       50
176
     1
 90
        3
176
     1
 62
     5
420
      255
176
     1
290
     0
176
     1
 90
       50
176
     1
 90
       50
176
     1
 90
       50
176
     1
290
     0
176
     1
 90
       50
176
     1
 62
   256
176
     0
 40
1.0
176
     0
 90
        2
176
     1
  1
strokes_ogs.tif
176
     1
290
     0
176
     1
 40
1.0
176
     1
 40
1.0
176
     1
  0
VISUALSTYLE
  5
7462
102
{ACAD_REACTORS
330
744C
102
}
330
744C
100
AcDbVisualStyle
  2
JitterOff
 70
    20
177
     3
291
     1
 70
    58
 90
        2
176
     0
 90
        2
176
     0
 90
        0
176
     0
 90
        0
176
     0
 40
0.6
176
     0
 40
30.0
176
     0
 62
     7
420
 16777215
176
     0
 90
        1
176
     0
 90
        4
176
     0
 62
     7
176
     0
 62
   257
176
     0
 90
        1
176
     0
 90
        1
176
     0
 40
1.0
176
     0
 90
       10
176
     2
 62
     7
176
     0
 40
1.0
176
     0
 90
        1
176
     0
 90
        6
176
     0
 90
        2
176
     0
 62
     7
176
     0
 90
        5
176
     0
 90
        0
176
     0
 90
        0
176
     0
290
     0
176
     0
 90
        1
176
     0
 40
0.0
176
     0
 90
        0
176
     0
290
     0
176
     1
290
     1
176
     1
290
     1
176
     1
290
     0
176
     1
290
     0
176
     1
290
     0
176
     1
290
     0
176
     1
290
     0
176
     1
290
     0
176
     1
 90
       50
176
     0
 40
0.0
176
     0
 40
1.0
176
     0
 90
        0
176
     0
 62
    18
420
        0
176
     0
 90
       50
176
     0
 90
        3
176
     0
 62
     5
420
      255
176
     0
290
     0
176
     1
 90
       50
176
     0
 90
       50
176
     0
 90
       50
176
     0
290
     0
176
     1
 90
       50
176
     0
 62
   256
176
     0
 40
1.0
176
     0
 90
        2
176
     0
  1
strokes_ogs.tif
176
     0
290
     0
176
     1
 40
1.0
176
     0
 40
1.0
176
     0
  0
VISUALSTYLE
  5
745A
102
{ACAD_REACTORS
330
744C
102
}
330
744C
100
AcDbVisualStyle
  2
Linepattern
 70
    14
177
     3
291
     1
 70
    58
 90
        2
176
     1
 90
        2
176
     1
 90
        0
176
     1
 90
        0
176
     1
 40
0.6
176
     1
 40
30.0
176
     1
 62
     7
420
 16777215
176
     1
 90
        1
176
     1
 90
        4
176
     1
 62
     7
176
     1
 62
   257
176
     1
 90
        7
176
     1
 90
        7
176
     1
 40
1.0
176
     1
 90
        8
176
     1
 62
     7
176
     1
 40
1.0
176
     1
 90
        1
176
     1
 90
        6
176
     1
 90
        2
176
     1
 62
     7
176
     1
 90
        5
176
     1
 90
        0
176
     1
 90
        0
176
     1
290
     0
176
     1
 90
        1
176
     1
 40
0.0
176
     1
 90
        0
176
     1
290
     0
176
     1
290
     1
176
     1
290
     1
176
     1
290
     0
176
     1
290
     0
176
     1
290
     0
176
     1
290
     0
176
     1
290
     0
176
     1
290
     0
176
     1
 90
       50
176
     1
 40
0.0
176
     1
 40
1.0
176
     1
 90
        0
176
     1
 62
    18
420
        0
176
     1
 90
       50
176
     1
 90
        3
176
     1
 62
     5
420
      255
176
     1
290
     0
176
     1
 90
       50
176
     1
 90
       50
176
     1
 90
       50
176
     1
290
     0
176
     1
 90
       50
176
     1
 62
   256
176
     0
 40
1.0
176
     0
 90
        2
176
     1
  1
strokes_ogs.tif
176
     1
290
     0
176
     1
 40
1.0
176
     1
 40
1.0
176
     1
  0
VISUALSTYLE
  5
7463
102
{ACAD_REACTORS
330
744C
102
}
330
744C
100
AcDbVisualStyle
  2
OverhangOff
 70
    21
177
     3
291
     1
 70
    58
 90
        2
176
     0
 90
        2
176
     0
 90
        0
176
     0
 90
        0
176
     0
 40
0.6
176
     0
 40
30.0
176
     0
 62
     7
420
 16777215
176
     0
 90
        1
176
     0
 90
        4
176
     0
 62
     7
176
     0
 62
   257
176
     0
 90
        1
176
     0
 90
        1
176
     0
 40
1.0
176
     0
 90
        9
176
     2
 62
     7
176
     0
 40
1.0
176
     0
 90
        1
176
     0
 90
        6
176
     0
 90
        2
176
     0
 62
     7
176
     0
 90
        5
176
     0
 90
        0
176
     0
 90
        0
176
     0
290
     0
176
     0
 90
        1
176
     0
 40
0.0
176
     0
 90
        0
176
     0
290
     0
176
     1
290
     1
176
     1
290
     1
176
     1
290
     0
176
     1
290
     0
176
     1
290
     0
176
     1
290
     0
176
     1
290
     0
176
     1
290
     0
176
     1
 90
       50
176
     0
 40
0.0
176
     0
 40
1.0
176
     0
 90
        0
176
     0
 62
    18
420
        0
176
     0
 90
       50
176
     0
 90
        3
176
     0
 62
     5
420
      255
176
     0
290
     0
176
     1
 90
       50
176
     0
 90
       50
176
     0
 90
       50
176
     0
290
     0
176
     1
 90
       50
176
     0
 62
   256
176
     0
 40
1.0
176
     0
 90
        2
176
     0
  1
strokes_ogs.tif
176
     0
290
     0
176
     1
 40
1.0
176
     0
 40
1.0
176
     0
  0
VISUALSTYLE
  5
7456
102
{ACAD_REACTORS
330
744C
102
}
330
744C
100
AcDbVisualStyle
  2
Realistic
 70
     8
177
     3
291
     0
 70
    58
 90
        2
176
     1
 90
        3
176
     1
 90
        0
176
     1
 90
        2
176
     1
 40
0.6
176
     1
 40
30.0
176
     1
 62
     7
420
 16777215
176
     1
 90
        0
176
     1
 90
        0
176
     1
 62
     7
176
     1
 62
   257
176
     1
 90
        1
176
     1
 90
        1
176
     1
 40
1.0
176
     1
 90
        8
176
     1
 62
   257
176
     1
 40
1.0
176
     1
 90
        1
176
     1
 90
        6
176
     1
 90
        2
176
     1
 62
     7
176
     1
 90
        3
176
     1
 90
        0
176
     1
 90
        0
176
     1
290
     0
176
     1
 90
       13
176
     1
 40
0.0
176
     1
 90
        0
176
     1
290
     0
176
     1
290
     1
176
     1
290
     1
176
     1
290
     0
176
     1
290
     0
176
     1
290
     0
176
     1
290
     0
176
     1
290
     0
176
     1
290
     0
176
     1
 90
       50
176
     1
 40
0.0
176
     1
 40
1.0
176
     1
 90
        0
176
     1
 62
    18
420
        0
176
     1
 90
       50
176
     1
 90
        3
176
     1
 62
     5
420
      255
176
     1
290
     0
176
     1
 90
       50
176
     1
 90
       50
176
     1
 90
       50
176
     1
290
     0
176
     1
 90
       50
176
     1
 62
   256
176
     0
 40
1.0
176
     0
 90
        2
176
     1
  1
strokes_ogs.tif
176
     1
290
     0
176
     1
 40
1.0
176
     1
 40
1.0
176
     1
  0
VISUALSTYLE
  5
7461
102
{ACAD_REACTORS
330
744C
102
}
330
744C
100
AcDbVisualStyle
  2
Shaded
 70
    27
177
     3
291
     0
 70
    58
 90
        2
176
     1
 90
        2
176
     1
 90
        1
176
     1
 90
        2
176
     1
 40
0.6
176
     1
 40
30.0
176
     1
 62
     7
420
 16777215
176
     1
 90
        0
176
     1
 90
        4
176
     1
 62
     7
176
     1
 62
   257
176
     1
 90
        1
176
     1
 90
        1
176
     1
 40
1.0
176
     1
 90
        8
176
     1
 62
   257
176
     1
 40
1.0
176
     1
 90
        1
176
     1
 90
        6
176
     1
 90
        2
176
     1
 62
     8
420
  7895160
176
     1
 90
        3
176
     1
 90
        0
176
     1
 90
        0
176
     1
290
     0
176
     1
 90
        5
176
     1
 40
0.0
176
     1
 90
        0
176
     1
290
     0
176
     1
290
     1
176
     1
290
     1
176
     1
290
     0
176
     1
290
     0
176
     1
290
     0
176
     1
290
     0
176
     1
290
     0
176
     1
290
     0
176
     1
 90
       50
176
     1
 40
0.0
176
     1
 40
1.0
176
     1
 90
        0
176
     1
 62
    18
420
        0
176
     1
 90
       50
176
     1
 90
        3
176
     1
 62
     5
420
      255
176
     1
290
     0
176
     1
 90
       50
176
     1
 90
       50
176
     1
 90
       50
176
     1
290
     0
176
     1
 90
       50
176
     1
 62
   256
176
     0
 40
1.0
176
     0
 90
        2
176
     1
  1
strokes_ogs.tif
176
     1
290
     0
176
     1
 40
1.0
176
     1
 40
1.0
176
     1
  0
VISUALSTYLE
  5
7460
102
{ACAD_REACTORS
330
744C
102
}
330
744C
100
AcDbVisualStyle
  2
Shaded with edges
 70
    26
177
     3
291
     0
 70
    58
 90
        2
176
     1
 90
        2
176
     1
 90
        1
176
     1
 90
        2
176
     1
 40
0.6
176
     1
 40
30.0
176
     1
 62
     7
420
 16777215
176
     1
 90
        1
176
     1
 90
       10
176
     1
 62
     7
176
     1
 62
   257
176
     1
 90
        2
176
     1
 90
        1
176
     1
 40
1.0
176
     1
 90
        8
176
     1
 62
   257
176
     1
 40
1.0
176
     1
 90
        1
176
     1
 90
        6
176
     1
 90
        2
176
     1
 62
     7
176
     1
 90
        3
176
     1
 90
        0
176
     1
 90
        0
176
     1
290
     0
176
     1
 90
        5
176
     1
 40
0.0
176
     1
 90
        0
176
     1
290
     0
176
     1
290
     1
176
     1
290
     1
176
     1
290
     0
176
     1
290
     0
176
     1
290
     0
176
     1
290
     0
176
     1
290
     0
176
     1
290
     0
176
     1
 90
       50
176
     1
 40
0.0
176
     1
 40
1.0
176
     1
 90
        0
176
     1
 62
    18
420
        0
176
     1
 90
       50
176
     1
 90
        3
176
     1
 62
     5
420
      255
176
     1
290
     0
176
     1
 90
       50
176
     1
 90
       50
176
     1
 90
       50
176
     1
290
     0
176
     1
 90
       50
176
     1
 62
   256
176
     0
 40
1.0
176
     0
 90
        2
176
     1
  1
strokes_ogs.tif
176
     1
290
     0
176
     1
 40
1.0
176
     1
 40
1.0
176
     1
  0
VISUALSTYLE
  5
745D
102
{ACAD_REACTORS
330
744C
102
}
330
744C
100
AcDbVisualStyle
  2
Shades of Gray
 70
    23
177
     3
291
     0
 70
    58
 90
        2
176
     1
 90
        2
176
     1
 90
        3
176
     1
 90
        0
176
     1
 40
0.6
176
     1
 40
30.0
176
     1
 62
     7
420
 16777215
176
     1
 90
        2
176
     1
 90
        2
176
     1
 62
     7
176
     1
 62
     7
176
     1
 90
        1
176
     1
 90
        1
176
     1
 40
40.0
176
     1
 90
        8
176
     1
 62
     7
176
     1
 40
1.0
176
     1
 90
        1
176
     1
 90
        6
176
     1
 90
        2
176
     1
 62
     7
176
     1
 90
        3
176
     1
 90
        0
176
     1
 90
        0
176
     1
290
     0
176
     1
 90
        1
176
     1
 40
0.0
176
     1
 90
        0
176
     1
290
     0
176
     1
290
     1
176
     1
290
     1
176
     1
290
     0
176
     1
290
     0
176
     1
290
     0
176
     1
290
     0
176
     1
290
     0
176
     1
290
     0
176
     1
 90
       50
176
     1
 40
0.0
176
     1
 40
1.0
176
     1
 90
        0
176
     1
 62
    18
420
        0
176
     1
 90
       50
176
     1
 90
        3
176
     1
 62
     5
420
      255
176
     1
290
     0
176
     1
 90
       50
176
     1
 90
       50
176
     1
 90
       50
176
     1
290
     0
176
     1
 90
       50
176
     1
 62
   256
176
     0
 40
1.0
176
     0
 90
        2
176
     1
  1
strokes_ogs.tif
176
     1
290
     0
176
     1
 40
1.0
176
     1
 40
1.0
176
     1
  0
VISUALSTYLE
  5
745E
102
{ACAD_REACTORS
330
744C
102
}
330
744C
100
AcDbVisualStyle
  2
Sketchy
 70
    24
177
     3
291
     0
 70
    58
 90
        1
176
     1
 90
        2
176
     1
 90
        2
176
     1
 90
        0
176
     1
 40
0.6
176
     1
 40
30.0
176
     1
 62
     7
420
 16777215
176
     1
 90
        2
176
     1
 90
        2
176
     1
 62
     7
176
     1
 62
     7
176
     1
 90
        1
176
     1
 90
        1
176
     1
 40
40.0
176
     1
 90
       11
176
     1
 62
     7
176
     1
 40
1.0
176
     1
 90
        1
176
     1
 90
        6
176
     1
 90
        2
176
     1
 62
     7
176
     1
 90
        6
176
     1
 90
        0
176
     1
 90
        0
176
     1
290
     0
176
     1
 90
        1
176
     1
 40
0.0
176
     1
 90
        0
176
     1
290
     0
176
     1
290
     1
176
     1
290
     1
176
     1
290
     0
176
     1
290
     0
176
     1
290
     0
176
     1
290
     0
176
     1
290
     0
176
     1
290
     0
176
     1
 90
       50
176
     1
 40
0.0
176
     1
 40
1.0
176
     1
 90
        0
176
     1
 62
    18
420
        0
176
     1
 90
       50
176
     1
 90
        3
176
     1
 62
     5
420
      255
176
     1
290
     0
176
     1
 90
       50
176
     1
 90
       50
176
     1
 90
       50
176
     1
290
     0
176
     1
 90
       50
176
     1
 62
   256
176
     0
 40
1.0
176
     0
 90
        2
176
     1
  1
strokes_ogs.tif
176
     1
290
     0
176
     1
 40
1.0
176
     1
 40
1.0
176
     1
  0
VISUALSTYLE
  5
7459
102
{ACAD_REACTORS
330
744C
102
}
330
744C
100
AcDbVisualStyle
  2
Thicken
 70
    13
177
     3
291
     1
 70
    58
 90
        2
176
     1
 90
        2
176
     1
 90
        0
176
     1
 90
        0
176
     1
 40
0.6
176
     1
 40
30.0
176
     1
 62
     7
420
 16777215
176
     1
 90
        1
176
     1
 90
        4
176
     1
 62
     7
176
     1
 62
   257
176
     1
 90
        1
176
     1
 90
        1
176
     1
 40
1.0
176
     1
 90
       12
176
     1
 62
     7
176
     1
 40
1.0
176
     1
 90
        1
176
     1
 90
        6
176
     1
 90
        2
176
     1
 62
     7
176
     1
 90
        5
176
     1
 90
        0
176
     1
 90
        0
176
     1
290
     0
176
     1
 90
        1
176
     1
 40
0.0
176
     1
 90
        0
176
     1
290
     0
176
     1
290
     1
176
     1
290
     1
176
     1
290
     0
176
     1
290
     0
176
     1
290
     0
176
     1
290
     0
176
     1
290
     0
176
     1
290
     0
176
     1
 90
       50
176
     1
 40
0.0
176
     1
 40
1.0
176
     1
 90
        0
176
     1
 62
    18
420
        0
176
     1
 90
       50
176
     1
 90
        3
176
     1
 62
     5
420
      255
176
     1
290
     0
176
     1
 90
       50
176
     1
 90
       50
176
     1
 90
       50
176
     1
290
     0
176
     1
 90
       50
176
     1
 62
   256
176
     0
 40
1.0
176
     0
 90
        2
176
     1
  1
strokes_ogs.tif
176
     1
290
     0
176
     1
 40
1.0
176
     1
 40
1.0
176
     1
  0
VISUALSTYLE
  5
7453
102
{ACAD_REACTORS
330
744C
102
}
330
744C
100
AcDbVisualStyle
  2
Wireframe
 70
     5
177
     3
291
     0
 70
    58
 90
        0
176
     1
 90
        2
176
     1
 90
        0
176
     1
 90
        0
176
     1
 40
0.6
176
     1
 40
30.0
176
     1
 62
     7
420
 16777215
176
     1
 90
        1
176
     1
 90
        4
176
     1
 62
     7
176
     1
 62
   257
176
     1
 90
        1
176
     1
 90
        1
176
     1
 40
1.0
176
     1
 90
        0
176
     1
 62
   257
176
     1
 40
1.0
176
     1
 90
        1
176
     1
 90
        6
176
     1
 90
        2
176
     1
 62
     7
176
     1
 90
        3
176
     1
 90
        0
176
     1
 90
        0
176
     1
290
     0
176
     1
 90
        1
176
     1
 40
0.0
176
     1
 90
        0
176
     1
290
     0
176
     1
290
     1
176
     1
290
     1
176
     1
290
     0
176
     1
290
     0
176
     1
290
     0
176
     1
290
     0
176
     1
290
     0
176
     1
290
     0
176
     1
 90
       50
176
     1
 40
0.0
176
     1
 40
1.0
176
     1
 90
        0
176
     1
 62
    18
420
        0
176
     1
 90
       50
176
     1
 90
        3
176
     1
 62
     5
420
      255
176
     1
290
     0
176
     1
 90
       50
176
     1
 90
       50
176
     1
 90
       50
176
     1
290
     0
176
     1
 90
       50
176
     1
 62
   256
176
     0
 40
1.0
176
     0
 90
        2
176
     1
  1
strokes_ogs.tif
176
     1
290
     0
176
     1
 40
1.0
176
     1
 40
1.0
176
     1
  0
VISUALSTYLE
  5
745F
102
{ACAD_REACTORS
330
744C
102
}
330
744C
100
AcDbVisualStyle
  2
X-Ray
 70
    25
177
     3
291
     0
 70
    58
 90
        2
176
     1
 90
        2
176
     1
 90
        1
176
     1
 90
        1
176
     1
 40
0.5
176
     1
 40
30.0
176
     1
 62
     7
420
 16777215
176
     1
 90
        1
176
     1
 90
        0
176
     1
 62
     7
176
     1
 62
   257
176
     1
 90
        1
176
     1
 90
        1
176
     1
 40
1.0
176
     1
 90
        8
176
     1
 62
     7
176
     1
 40
1.0
176
     1
 90
        1
176
     1
 90
        6
176
     1
 90
        2
176
     1
 62
     7
176
     1
 90
        3
176
     1
 90
        0
176
     1
 90
        0
176
     1
290
     0
176
     1
 90
       13
176
     1
 40
0.0
176
     1
 90
        0
176
     1
290
     0
176
     1
290
     1
176
     1
290
     1
176
     1
290
     0
176
     1
290
     0
176
     1
290
     0
176
     1
290
     0
176
     1
290
     0
176
     1
290
     0
176
     1
 90
       50
176
     1
 40
0.0
176
     1
 40
1.0
176
     1
 90
        0
176
     1
 62
    18
420
        0
176
     1
 90
       50
176
     1
 90
        3
176
     1
 62
     5
420
      255
176
     1
290
     0
176
     1
 90
       50
176
     1
 90
       50
176
     1
 90
       50
176
     1
290
     0
176
     1
 90
       50
176
     1
 62
   256
176
     0
 40
1.0
176
     0
 90
        2
176
     1
  1
strokes_ogs.tif
176
     1
290
     0
176
     1
 40
1.0
176
     1
 40
1.0
176
     1
  0
DICTIONARYVAR
  5
74A3
102
{ACAD_REACTORS
330
5E0C
102
}
330
5E0C
100
DictionaryVariables
280
     0
  1
1:1
  0
DICTIONARYVAR
  5
749F
102
{ACAD_REACTORS
330
5E0C
102
}
330
5E0C
100
DictionaryVariables
280
     0
  1
STANDARD
  0
DICTIONARYVAR
  5
749E
102
{ACAD_REACTORS
330
5E0C
102
}
330
5E0C
100
DictionaryVariables
280
     0
  1
STANDARD
  0
DICTIONARYVAR
  5
74A0
102
{ACAD_REACTORS
330
5E0C
102
}
330
5E0C
100
DictionaryVariables
280
     0
  1
Imperial24
  0
DICTIONARYVAR
  5
74A1
102
{ACAD_REACTORS
330
5E0C
102
}
330
5E0C
100
DictionaryVariables
280
     0
  1
Imperial24
  0
DICTIONARYVAR
  5
5E0D
102
{ACAD_REACTORS
330
5E0C
102
}
330
5E0C
100
DictionaryVariables
280
     0
  1
1
  0
DICTIONARYVAR
  5
74A5
102
{ACAD_REACTORS
330
5E0C
102
}
330
5E0C
100
DictionaryVariables
280
     0
  1
1
  0
DICTIONARYVAR
  5
74A6
102
{ACAD_REACTORS
330
5E0C
102
}
330
5E0C
100
DictionaryVariables
280
     0
  1
15
  0
DICTIONARYVAR
  5
74A4
102
{ACAD_REACTORS
330
5E0C
102
}
330
5E0C
100
DictionaryVariables
280
     0
  1
0
  0
DICTIONARYVAR
  5
74A2
102
{ACAD_REACTORS
330
5E0C
102
}
330
5E0C
100
DictionaryVariables
280
     0
  1
0
  0
DICTIONARY
  5
74AC
330
747F
100
AcDbDictionary
280
     1
281
     1
  3
ACAD_XREC_ROUNDTRIP
360
74AD
  0
DICTIONARY
  5
743D
330
743C
100
AcDbDictionary
280
     1
281
     1
  3
BUMPTILE
360
743F
  3
DIFFUSETILE
360
743E
  3
OPACITYTILE
360
7442
  3
REFLECTIONTILE
360
7441
  3
REFRACTIONTILE
360
7443
  3
SPECULARTILE
360
7440
  0
DICTIONARY
  5
7435
330
7434
100
AcDbDictionary
280
     1
281
     1
  3
BUMPTILE
360
7437
  3
DIFFUSETILE
360
7436
  3
OPACITYTILE
360
743A
  3
REFLECTIONTILE
360
7439
  3
REFRACTIONTILE
360
743B
  3
SPECULARTILE
360
7438
  0
DICTIONARY
  5
7445
330
7444
100
AcDbDictionary
280
     1
281
     1
  3
BUMPTILE
360
7447
  3
DIFFUSETILE
360
7446
  3
OPACITYTILE
360
744A
  3
REFLECTIONTILE
360
7449
  3
REFRACTIONTILE
360
744B
  3
SPECULARTILE
360
7448
  0
DICTIONARY
  5
74AA
330
747D
100
AcDbDictionary
280
     1
281
     1
  3
ACAD_XREC_ROUNDTRIP
360
74AB
  0
DICTIONARY
  5
74A8
330
7467
100
AcDbDictionary
280
     1
281
     1
  3
ACAD_ROUNDTRIP_2008_TABLESTYLE_CELLSTYLEMAP
360
74A9
  0
XRECORD
  5
74AD
102
{ACAD_REACTORS
330
74AC
102
}
330
74AC
100
AcDbXrecord
280
     1
102
DISPLAYNAME
  1
Imperial24
102
FLAGS
 90
        0
  0
XRECORD
  5
743F
102
{ACAD_REACTORS
330
743D
102
}
330
743D
100
AcDbXrecord
280
     1
270
     1
271
     1
  0
XRECORD
  5
743E
102
{ACAD_REACTORS
330
743D
102
}
330
743D
100
AcDbXrecord
280
     1
270
     1
271
     1
  0
XRECORD
  5
7442
102
{ACAD_REACTORS
330
743D
102
}
330
743D
100
AcDbXrecord
280
     1
270
     1
271
     1
  0
XRECORD
  5
7441
102
{ACAD_REACTORS
330
743D
102
}
330
743D
100
AcDbXrecord
280
     1
270
     1
271
     1
  0
XRECORD
  5
7443
102
{ACAD_REACTORS
330
743D
102
}
330
743D
100
AcDbXrecord
280
     1
270
     1
271
     1
  0
XRECORD
  5
7440
102
{ACAD_REACTORS
330
743D
102
}
330
743D
100
AcDbXrecord
280
     1
270
     1
271
     1
  0
XRECORD
  5
7437
102
{ACAD_REACTORS
330
7435
102
}
330
7435
100
AcDbXrecord
280
     1
270
     1
271
     1
  0
XRECORD
  5
7436
102
{ACAD_REACTORS
330
7435
102
}
330
7435
100
AcDbXrecord
280
     1
270
     1
271
     1
  0
XRECORD
  5
743A
102
{ACAD_REACTORS
330
7435
102
}
330
7435
100
AcDbXrecord
280
     1
270
     1
271
     1
  0
XRECORD
  5
7439
102
{ACAD_REACTORS
330
7435
102
}
330
7435
100
AcDbXrecord
280
     1
270
     1
271
     1
  0
XRECORD
  5
743B
102
{ACAD_REACTORS
330
7435
102
}
330
7435
100
AcDbXrecord
280
     1
270
     1
271
     1
  0
XRECORD
  5
7438
102
{ACAD_REACTORS
330
7435
102
}
330
7435
100
AcDbXrecord
280
     1
270
     1
271
     1
  0
XRECORD
  5
7447
102
{ACAD_REACTORS
330
7445
102
}
330
7445
100
AcDbXrecord
280
     1
270
     1
271
     1
  0
XRECORD
  5
7446
102
{ACAD_REACTORS
330
7445
102
}
330
7445
100
AcDbXrecord
280
     1
270
     1
271
     1
  0
XRECORD
  5
744A
102
{ACAD_REACTORS
330
7445
102
}
330
7445
100
AcDbXrecord
280
     1
270
     1
271
     1
  0
XRECORD
  5
7449
102
{ACAD_REACTORS
330
7445
102
}
330
7445
100
AcDbXrecord
280
     1
270
     1
271
     1
  0
XRECORD
  5
744B
102
{ACAD_REACTORS
330
7445
102
}
330
7445
100
AcDbXrecord
280
     1
270
     1
271
     1
  0
XRECORD
  5
7448
102
{ACAD_REACTORS
330
7445
102
}
330
7445
100
AcDbXrecord
280
     1
270
     1
271
     1
  0
XRECORD
  5
74AB
102
{ACAD_REACTORS
330
74AA
102
}
330
74AA
100
AcDbXrecord
280
     1
102
DISPLAYNAME
  1
Imperial24
102
FLAGS
 90
        0
  0
CELLSTYLEMAP
  5
74A9
102
{ACAD_REACTORS
330
74A8
102
}
330
74A8
100
AcDbCellStyleMap
 90
        3
300
CELLSTYLE
  1
TABLEFORMAT_BEGIN
 90
        5
170
     1
 91
        0
 92
    32768
 62
   257
 93
        1
300
CONTENTFORMAT
  1
CONTENTFORMAT_BEGIN
 90
        0
 91
        0
 92
      512
 93
        0
300

 40
0.0
140
1.0
 94
        5
 62
     0
340
11
144
0.25
309
CONTENTFORMAT_END
171
     0
 94
        0
309
TABLEFORMAT_END
  1
CELLSTYLE_BEGIN
 90
        1
 91
        1
300
_TITLE
309
CELLSTYLE_END
300
CELLSTYLE
  1
TABLEFORMAT_BEGIN
 90
        5
170
     1
 91
        0
 92
        0
 62
   257
 93
        1
300
CONTENTFORMAT
  1
CONTENTFORMAT_BEGIN
 90
        0
 91
        0
 92
      512
 93
        0
300

 40
0.0
140
1.0
 94
        5
 62
     0
340
11
144
0.18
309
CONTENTFORMAT_END
171
     0
 94
        0
309
TABLEFORMAT_END
  1
CELLSTYLE_BEGIN
 90
        2
 91
        1
300
_HEADER
309
CELLSTYLE_END
300
CELLSTYLE
  1
TABLEFORMAT_BEGIN
 90
        5
170
     1
 91
        0
 92
        0
 62
   257
 93
        1
300
CONTENTFORMAT
  1
CONTENTFORMAT_BEGIN
 90
        0
 91
        0
 92
      512
 93
        0
300

 40
0.0
140
1.0
 94
        2
 62
     0
340
11
144
0.18
309
CONTENTFORMAT_END
171
     0
 94
        0
309
TABLEFORMAT_END
  1
CELLSTYLE_BEGIN
 90
        3
 91
        2
300
_DATA
309
CELLSTYLE_END
  0
ENDSEC
  0
EOF
