  0
SECTION
  2
HEADER
  9
$ACADVER
  1
AC1027
  9
$ACADMAINTVER
 70
    55
  9
$DWGCODEPAGE
  3
ANSI_932
  9
$LASTSAVEDBY
  1
marketing
  9
$REQUIREDVERSIONS
160
                 0
  9
$INSBASE
 10
0.0
 20
0.0
 30
0.0
  9
$EXTMIN
 10
-83.96411608460175
 20
-369.1241318636983
 30
-0.0015258207003583
  9
$EXTMAX
 10
301.927922386476
 20
280.2548651933869
 30
0.0000000349246037
  9
$LIMMIN
 10
-296.316999476111
 20
-370.7034300441653
  9
$LIMMAX
 10
623.3128432133979
 20
328.6261559379898
  9
$ORTHOMODE
 70
     0
  9
$REGENMODE
 70
     1
  9
$FILLMODE
 70
     1
  9
$QTEXTMODE
 70
     0
  9
$MIRRTEXT
 70
     1
  9
$LTSCALE
 40
10.0
  9
$ATTMODE
 70
     1
  9
$TEXTSIZE
 40
5.0
  9
$TRACEWID
 40
0.05
  9
$TEXTSTYLE
  7
STANDARD1
  9
$CLAYER
  8
30
  9
$CELTYPE
  6
CONTINUOUS
  9
$CECOLOR
 62
   256
  9
$CELTSCALE
 40
1.0
  9
$DISPSILH
 70
     0
  9
$DIMSCALE
 40
1.0
  9
$DIMASZ
 40
2.0
  9
$DIMEXO
 40
1.0
  9
$DIMDLI
 40
0.5
  9
$DIMRND
 40
0.0
  9
$DIMDLE
 40
0.0
  9
$DIMEXE
 40
0.5
  9
$DIMTP
 40
0.0
  9
$DIMTM
 40
0.0
  9
$DIMTXT
 40
4.0
  9
$DIMCEN
 40
0.09
  9
$DIMTSZ
 40
0.0
  9
$DIMTOL
 70
     0
  9
$DIMLIM
 70
     0
  9
$DIMTIH
 70
     0
  9
$DIMTOH
 70
     1
  9
$DIMSE1
 70
     0
  9
$DIMSE2
 70
     0
  9
$DIMTAD
 70
     3
  9
$DIMZIN
 70
    12
  9
$DIMBLK
  1
OPEN
  9
$DIMASO
 70
     1
  9
$DIMSHO
 70
     1
  9
$DIMPOST
  1

  9
$DIMAPOST
  1

  9
$DIMALT
 70
     0
  9
$DIMALTD
 70
     2
  9
$DIMALTF
 40
25.4
  9
$DIMLFAC
 40
1.0
  9
$DIMTOFL
 70
     0
  9
$DIMTVP
 40
0.0
  9
$DIMTIX
 70
     0
  9
$DIMSOXD
 70
     0
  9
$DIMSAH
 70
     0
  9
$DIMBLK1
  1

  9
$DIMBLK2
  1

  9
$DIMSTYLE
  2
STANDARD
  9
$DIMCLRD
 70
     0
  9
$DIMCLRE
 70
     0
  9
$DIMCLRT
 70
     0
  9
$DIMTFAC
 40
1.0
  9
$DIMGAP
 40
1.0
  9
$DIMJUST
 70
     0
  9
$DIMSD1
 70
     0
  9
$DIMSD2
 70
     0
  9
$DIMTOLJ
 70
     1
  9
$DIMTZIN
 70
     0
  9
$DIMALTZ
 70
     0
  9
$DIMALTTZ
 70
     0
  9
$DIMUPT
 70
     0
  9
$DIMDEC
 70
     1
  9
$DIMTDEC
 70
     1
  9
$DIMALTU
 70
     2
  9
$DIMALTTD
 70
     2
  9
$DIMTXSTY
  7
STANDARD
  9
$DIMAUNIT
 70
     0
  9
$DIMADEC
 70
     0
  9
$DIMALTRND
 40
0.0
  9
$DIMAZIN
 70
     3
  9
$DIMDSEP
 70
    46
  9
$DIMATFIT
 70
     3
  9
$DIMFRAC
 70
     0
  9
$DIMLDRBLK
  1
OPEN
  9
$DIMLUNIT
 70
     2
  9
$DIMLWD
 70
    -2
  9
$DIMLWE
 70
    -2
  9
$DIMTMOVE
 70
     0
  9
$DIMFXL
 40
1.0
  9
$DIMFXLON
 70
     0
  9
$DIMJOGANG
 40
0.7853981633974483
  9
$DIMTFILL
 70
     0
  9
$DIMTFILLCLR
 70
     0
  9
$DIMARCSYM
 70
     0
  9
$DIMLTYPE
  6

  9
$DIMLTEX1
  6

  9
$DIMLTEX2
  6

  9
$DIMTXTDIRECTION
 70
     0
  9
$LUNITS
 70
     2
  9
$LUPREC
 70
     4
  9
$SKETCHINC
 40
0.1
  9
$FILLETRAD
 40
0.0
  9
$AUNITS
 70
     0
  9
$AUPREC
 70
     0
  9
$MENU
  1
.
  9
$ELEVATION
 40
0.0
  9
$PELEVATION
 40
0.0
  9
$THICKNESS
 40
0.0
  9
$LIMCHECK
 70
     0
  9
$CHAMFERA
 40
0.0
  9
$CHAMFERB
 40
0.0
  9
$CHAMFERC
 40
0.0
  9
$CHAMFERD
 40
0.0
  9
$SKPOLY
 70
     0
  9
$TDCREATE
 40
2452286.555658658
  9
$TDUCREATE
 40
2452286.180658658
  9
$TDUPDATE
 40
2459278.586130278
  9
$TDUUPDATE
 40
2459278.211130278
  9
$TDINDWG
 40
1.3328501968
  9
$TDUSRTIMER
 40
1.3328489120
  9
$USRTIMER
 70
     1
  9
$ANGBASE
 50
0.0
  9
$ANGDIR
 70
     0
  9
$PDMODE
 70
     0
  9
$PDSIZE
 40
0.0
  9
$PLINEWID
 40
0.0
  9
$SPLFRAME
 70
     0
  9
$SPLINETYPE
 70
     6
  9
$SPLINESEGS
 70
     8
  9
$HANDSEED
  5
6F77
  9
$SURFTAB1
 70
     6
  9
$SURFTAB2
 70
     6
  9
$SURFTYPE
 70
     6
  9
$SURFU
 70
     6
  9
$SURFV
 70
     6
  9
$UCSBASE
  2

  9
$UCSNAME
  2

  9
$UCSORG
 10
0.0
 20
0.0
 30
0.0
  9
$UCSXDIR
 10
1.0
 20
0.0
 30
0.0
  9
$UCSYDIR
 10
0.0
 20
1.0
 30
0.0
  9
$UCSORTHOREF
  2

  9
$UCSORTHOVIEW
 70
     0
  9
$UCSORGTOP
 10
0.0
 20
0.0
 30
0.0
  9
$UCSORGBOTTOM
 10
0.0
 20
0.0
 30
0.0
  9
$UCSORGLEFT
 10
0.0
 20
0.0
 30
0.0
  9
$UCSORGRIGHT
 10
0.0
 20
0.0
 30
0.0
  9
$UCSORGFRONT
 10
0.0
 20
0.0
 30
0.0
  9
$UCSORGBACK
 10
0.0
 20
0.0
 30
0.0
  9
$PUCSBASE
  2

  9
$PUCSNAME
  2

  9
$PUCSORG
 10
0.0
 20
0.0
 30
0.0
  9
$PUCSXDIR
 10
1.0
 20
0.0
 30
0.0
  9
$PUCSYDIR
 10
0.0
 20
1.0
 30
0.0
  9
$PUCSORTHOREF
  2

  9
$PUCSORTHOVIEW
 70
     0
  9
$PUCSORGTOP
 10
0.0
 20
0.0
 30
0.0
  9
$PUCSORGBOTTOM
 10
0.0
 20
0.0
 30
0.0
  9
$PUCSORGLEFT
 10
0.0
 20
0.0
 30
0.0
  9
$PUCSORGRIGHT
 10
0.0
 20
0.0
 30
0.0
  9
$PUCSORGFRONT
 10
0.0
 20
0.0
 30
0.0
  9
$PUCSORGBACK
 10
0.0
 20
0.0
 30
0.0
  9
$USERI1
 70
     0
  9
$USERI2
 70
     0
  9
$USERI3
 70
     0
  9
$USERI4
 70
     0
  9
$USERI5
 70
     0
  9
$USERR1
 40
0.0
  9
$USERR2
 40
0.0
  9
$USERR3
 40
0.0
  9
$USERR4
 40
0.0
  9
$USERR5
 40
0.0
  9
$WORLDVIEW
 70
     1
  9
$SHADEDGE
 70
     3
  9
$SHADEDIF
 70
    70
  9
$TILEMODE
 70
     1
  9
$MAXACTVP
 70
    48
  9
$PINSBASE
 10
0.0
 20
0.0
 30
0.0
  9
$PLIMCHECK
 70
     0
  9
$PEXTMIN
 10
4.273573
 20
5.205245999999998
 30
0.0
  9
$PEXTMAX
 10
194.610095
 20
283.0697009999996
 30
0.0
  9
$PLIMMIN
 10
-5.873749
 20
-5.87375
  9
$PLIMMAX
 10
204.099579
 20
291.1369009999999
  9
$UNITMODE
 70
     0
  9
$VISRETAIN
 70
     1
  9
$PLINEGEN
 70
     0
  9
$PSLTSCALE
 70
     1
  9
$TREEDEPTH
 70
  3020
  9
$CMLSTYLE
  2
STANDARD
  9
$CMLJUST
 70
     0
  9
$CMLSCALE
 40
1.0
  9
$PROXYGRAPHICS
 70
     1
  9
$MEASUREMENT
 70
     0
  9
$CELWEIGHT
370
    -1
  9
$ENDCAPS
280
     0
  9
$JOINSTYLE
280
     0
  9
$LWDISPLAY
290
     0
  9
$INSUNITS
 70
     0
  9
$HYPERLINKBASE
  1

  9
$STYLESHEET
  1
MONOCHROME.CTB
  9
$XEDIT
290
     1
  9
$CEPSNTYPE
380
     0
  9
$PSTYLEMODE
290
     1
  9
$FINGERPRINTGUID
  2

  9
$VERSIONGUID
  2
{69B58FB4-E0AA-462C-85EB-0BEAD1DFA526}
  9
$EXTNAMES
290
     1
  9
$PSVPSCALE
 40
0.0
  9
$OLESTARTUP
290
     0
  9
$SORTENTS
280
   127
  9
$INDEXCTL
280
     0
  9
$HIDETEXT
280
     0
  9
$XCLIPFRAME
280
     2
  9
$HALOGAP
280
     0
  9
$OBSCOLOR
 70
   257
  9
$OBSLTYPE
280
     0
  9
$INTERSECTIONDISPLAY
280
     0
  9
$INTERSECTIONCOLOR
 70
   257
  9
$DIMASSOC
280
     1
  9
$PROJECTNAME
  1

  9
$CAMERADISPLAY
290
     0
  9
$LENSLENGTH
 40
50.0
  9
$CAMERAHEIGHT
 40
0.0
  9
$STEPSPERSEC
 40
2.0
  9
$STEPSIZE
 40
6.0
  9
$3DDWFPREC
 40
2.0
  9
$PSOLWIDTH
 40
0.25
  9
$PSOLHEIGHT
 40
4.0
  9
$LOFTANG1
 40
1.570796326794896
  9
$LOFTANG2
 40
1.570796326794896
  9
$LOFTMAG1
 40
0.0
  9
$LOFTMAG2
 40
0.0
  9
$LOFTPARAM
 70
     7
  9
$LOFTNORMALS
280
     1
  9
$LATITUDE
 40
37.795
  9
$LONGITUDE
 40
-122.394
  9
$NORTHDIRECTION
 40
0.0
  9
$TIMEZONE
 70
 -8000
  9
$LIGHTGLYPHDISPLAY
280
     1
  9
$TILEMODELIGHTSYNCH
280
     1
  9
$CMATERIAL
347
6A49
  9
$SOLIDHIST
280
     0
  9
$SHOWHIST
280
     1
  9
$DWFFRAME
280
     2
  9
$DGNFRAME
280
     0
  9
$REALWORLDSCALE
290
     1
  9
$INTERFERECOLOR
 62
     1
  9
$INTERFEREOBJVS
345
6A6B
  9
$INTERFEREVPVS
346
6B3F
  9
$CSHADOW
280
     0
  9
$SHADOWPLANELOCATION
 40
0.0
  0
ENDSEC
  0
SECTION
  2
CLASSES
  0
CLASS
  1
ACDBDICTIONARYWDFLT
  2
AcDbDictionaryWithDefault
  3
ObjectDBX Classes
 90
        0
 91
        1
280
     0
281
     0
  0
CLASS
  1
DICTIONARYVAR
  2
AcDbDictionaryVar
  3
ObjectDBX Classes
 90
        0
 91
       13
280
     0
281
     0
  0
CLASS
  1
MATERIAL
  2
AcDbMaterial
  3
ObjectDBX Classes
 90
     1153
 91
        3
280
     0
281
     0
  0
CLASS
  1
VISUALSTYLE
  2
AcDbVisualStyle
  3
ObjectDBX Classes
 90
     4095
 91
       26
280
     0
281
     0
  0
CLASS
  1
TABLESTYLE
  2
AcDbTableStyle
  3
ObjectDBX Classes
 90
     4095
 91
        1
280
     0
281
     0
  0
CLASS
  1
SCALE
  2
AcDbScale
  3
ObjectDBX Classes
 90
     1153
 91
       33
280
     0
281
     0
  0
CLASS
  1
MLEADERSTYLE
  2
AcDbMLeaderStyle
  3
ACDB_MLEADERSTYLE_CLASS
 90
     4095
 91
        1
280
     0
281
     0
  0
CLASS
  1
CELLSTYLEMAP
  2
AcDbCellStyleMap
  3
ObjectDBX Classes
 90
     1152
 91
        2
280
     0
281
     0
  0
CLASS
  1
ACDBSECTIONVIEWSTYLE
  2
AcDbSectionViewStyle
  3
ObjectDBX Classes
 90
     1025
 91
        1
280
     0
281
     0
  0
CLASS
  1
ACDBDETAILVIEWSTYLE
  2
AcDbDetailViewStyle
  3
ObjectDBX Classes
 90
     1025
 91
        1
280
     0
281
     0
  0
ENDSEC
  0
SECTION
  2
TABLES
  0
TABLE
  2
VPORT
  5
8
330
0
100
AcDbSymbolTable
 70
     1
  0
VPORT
  5
6A40
330
8
100
AcDbSymbolTableRecord
100
AcDbViewportTableRecord
  2
*Active
 70
     0
 10
0.0
 20
0.0
 11
1.0
 21
1.0
 12
108.9819031509371
 22
-44.43463333515569
 13
0.0
 23
0.0
 14
1.0
 24
1.0
 15
10.0
 25
10.0
 16
0.0
 26
0.0
 36
1.0
 17
0.0
 27
0.0
 37
0.0
 40
654.0733030599073
 41
2.289505428226779
 42
50.0
 43
0.0
 44
0.0
 50
0.0
 51
0.0
 71
     0
 72
   100
 73
     1
 74
     1
 75
     1
 76
     0
 77
     0
 78
     0
281
     0
 65
     1
110
0.0
120
0.0
130
0.0
111
1.0
121
0.0
131
0.0
112
0.0
122
1.0
132
0.0
 79
     0
146
0.0
348
6A67
 60
     3
 61
     5
292
     1
282
     1
141
0.0
142
0.0
 63
   250
421
  3355443
1001
ACAD_NAV_VCDISPLAY
1070
     3
  0
ENDTAB
  0
TABLE
  2
LTYPE
  5
5
330
0
100
AcDbSymbolTable
 70
     6
  0
LTYPE
  5
13
330
5
100
AcDbSymbolTableRecord
100
AcDbLinetypeTableRecord
  2
BYBLOCK
 70
     0
  3

 72
    65
 73
     0
 40
0.0
  0
LTYPE
  5
14
330
5
100
AcDbSymbolTableRecord
100
AcDbLinetypeTableRecord
  2
BYLAYER
 70
     0
  3

 72
    65
 73
     0
 40
0.0
  0
LTYPE
  5
15
330
5
100
AcDbSymbolTableRecord
100
AcDbLinetypeTableRecord
  2
CONTINUOUS
 70
     0
  3
Solid line
 72
    65
 73
     0
 40
0.0
  0
LTYPE
  5
22
330
5
100
AcDbSymbolTableRecord
100
AcDbLinetypeTableRecord
  2
CONTINOUS
 70
     0
  3
Solid line
 72
    65
 73
     0
 40
0.0
  0
LTYPE
  5
23
330
5
100
AcDbSymbolTableRecord
100
AcDbLinetypeTableRecord
  2
DASHED
 70
     0
  3
__ __ __ __ __ __ __ __ __ __ __ __ __ __ __
 72
    65
 73
     2
 40
0.75
 49
0.5
 74
     0
 49
-0.25
 74
     0
  0
LTYPE
  5
24
330
5
100
AcDbSymbolTableRecord
100
AcDbLinetypeTableRecord
  2
DASHDOT
 70
     0
  3
__ . __ . __ . __ . __ . __ . __ . __ . __ . __
 72
    65
 73
     4
 40
1.0
 49
0.5
 74
     0
 49
-0.25
 74
     0
 49
0.0
 74
     0
 49
-0.25
 74
     0
  0
LTYPE
  5
4C47
330
5
100
AcDbSymbolTableRecord
100
AcDbLinetypeTableRecord
  2
DIVIDE
 70
     0
  3
Divide ____ . . ____ . . ____ . . ____ . . ____
 72
    65
 73
     6
 40
1.25
 49
0.5
 74
     0
 49
-0.25
 74
     0
 49
0.0
 74
     0
 49
-0.25
 74
     0
 49
0.0
 74
     0
 49
-0.25
 74
     0
  0
ENDTAB
  0
TABLE
  2
LAYER
  5
2
330
0
100
AcDbSymbolTable
 70
    13
  0
LAYER
  5
10
102
{ACAD_XDICTIONARY
360
6A9F
102
}
330
2
100
AcDbSymbolTableRecord
100
AcDbLayerTableRecord
  2
0
 70
     0
 62
     7
  6
CONTINOUS
370
    -3
390
F
347
6A59
348
0
  0
LAYER
  5
2F
102
{ACAD_XDICTIONARY
360
6AA1
102
}
330
2
100
AcDbSymbolTableRecord
100
AcDbLayerTableRecord
  2
10
 70
     0
 62
     4
  6
CONTINOUS
370
    -3
390
F
347
6A59
348
0
  0
LAYER
  5
31
102
{ACAD_XDICTIONARY
360
6AA3
102
}
330
2
100
AcDbSymbolTableRecord
100
AcDbLayerTableRecord
  2
12
 70
     0
 62
     3
  6
CONTINOUS
370
    -3
390
F
347
6A59
348
0
  0
LAYER
  5
35
102
{ACAD_XDICTIONARY
360
6AA5
102
}
330
2
100
AcDbSymbolTableRecord
100
AcDbLayerTableRecord
  2
16
 70
     0
 62
     6
  6
DASHDOT
370
    -3
390
F
347
6A59
348
0
  0
LAYER
  5
38
102
{ACAD_XDICTIONARY
360
6AA7
102
}
330
2
100
AcDbSymbolTableRecord
100
AcDbLayerTableRecord
  2
19
 70
     0
 62
     7
  6
CONTINOUS
370
    -3
390
F
347
6A59
348
0
  0
LAYER
  5
3C
102
{ACAD_XDICTIONARY
360
6AA9
102
}
330
2
100
AcDbSymbolTableRecord
100
AcDbLayerTableRecord
  2
11
 70
     0
 62
     1
  6
CONTINOUS
370
    -3
390
F
347
6A59
348
0
  0
LAYER
  5
3D
102
{ACAD_XDICTIONARY
360
6AAB
102
}
330
2
100
AcDbSymbolTableRecord
100
AcDbLayerTableRecord
  2
24
 70
     0
 62
     2
  6
CONTINOUS
370
    -3
390
F
347
6A59
348
0
  0
LAYER
  5
3A2
102
{ACAD_XDICTIONARY
360
6AAD
102
}
330
2
100
AcDbSymbolTableRecord
100
AcDbLayerTableRecord
  2
30
 70
     0
 62
     9
  6
CONTINUOUS
370
    -3
390
F
347
6A59
348
0
  0
LAYER
  5
3A4
330
2
100
AcDbSymbolTableRecord
100
AcDbLayerTableRecord
  2
DEFPOINTS
 70
     0
 62
     7
  6
CONTINUOUS
290
     0
370
    -3
390
F
347
6A59
348
0
  0
LAYER
  5
3BBA
102
{ACAD_XDICTIONARY
360
6AAF
102
}
330
2
100
AcDbSymbolTableRecord
100
AcDbLayerTableRecord
  2
18
 70
     0
 62
     5
  6
DIVIDE
370
    -3
390
F
347
6A59
348
0
  0
LAYER
  5
5116
102
{ACAD_XDICTIONARY
360
6AB1
102
}
330
2
100
AcDbSymbolTableRecord
100
AcDbLayerTableRecord
  2
1
 70
     0
 62
     7
  6
CONTINUOUS
370
    -3
390
F
347
6A59
348
0
  0
LAYER
  5
5117
102
{ACAD_XDICTIONARY
360
6AB3
102
}
330
2
100
AcDbSymbolTableRecord
100
AcDbLayerTableRecord
  2
TOP
 70
     0
 62
     7
  6
CONTINUOUS
370
    -3
390
F
347
6A59
348
0
  0
LAYER
  5
5C47
102
{ACAD_XDICTIONARY
360
6AB5
102
}
330
2
100
AcDbSymbolTableRecord
100
AcDbLayerTableRecord
  2
17
 70
     0
 62
     2
  6
DASHDOT
370
    -3
390
F
347
6A59
348
0
  0
ENDTAB
  0
TABLE
  2
STYLE
  5
3
330
0
100
AcDbSymbolTable
 70
     3
  0
STYLE
  5
11
330
3
100
AcDbSymbolTableRecord
100
AcDbTextStyleTableRecord
  2
STANDARD
 70
     0
 40
0.0
 41
1.0
 50
0.0
 71
     0
 42
2.0
  3
txt.shx
  4
bigfont.shx
  0
STYLE
  5
42
330
3
100
AcDbSymbolTableRecord
100
AcDbTextStyleTableRecord
  2
STANDARD1
 70
     0
 40
0.0
 41
1.0
 50
0.0
 71
     0
 42
5.0
  3
MONOTXT
  4
BIGFONT
  0
STYLE
  5
5016
330
3
100
AcDbSymbolTableRecord
100
AcDbTextStyleTableRecord
  2
UGMTXT
 70
     0
 40
0.0
 41
1.0
 50
0.0
 71
     0
 42
0.2
  3
ugmtxt
  4
bigfont
  0
ENDTAB
  0
TABLE
  2
VIEW
  5
6
330
0
100
AcDbSymbolTable
 70
     3
  0
VIEW
  5
230C
330
6
100
AcDbSymbolTableRecord
100
AcDbViewTableRecord
  2
OLE1
 70
     0
 40
148.912488
 10
429.497628
 20
2.560627
 41
103.145806
 11
0.0
 21
0.0
 31
1.0
 12
0.0
 22
0.0
 32
0.0
 42
50.0
 43
0.0
 44
0.0
 50
0.0
 71
     0
281
     0
 72
     0
 73
     0
348
6A67
  0
VIEW
  5
230E
330
6
100
AcDbSymbolTableRecord
100
AcDbViewTableRecord
  2
OLE2
 70
     0
 40
170.778692
 10
322.66497
 20
-5.978304
 41
102.467215
 11
0.0
 21
0.0
 31
1.0
 12
0.0
 22
0.0
 32
0.0
 42
50.0
 43
0.0
 44
0.0
 50
0.0
 71
     0
281
     0
 72
     0
 73
     0
348
6A67
  0
VIEW
  5
23AA
330
6
100
AcDbSymbolTableRecord
100
AcDbViewTableRecord
  2
OLE3
 70
     0
 40
591.7897389999998
 10
84.79698199999999
 20
-46.09335999999998
 41
388.792096
 11
0.0
 21
0.0
 31
1.0
 12
0.0
 22
0.0
 32
0.0
 42
50.0
 43
0.0
 44
0.0
 50
0.0
 71
     0
281
     0
 72
     0
 73
     0
348
6A67
  0
ENDTAB
  0
TABLE
  2
UCS
  5
7
330
0
100
AcDbSymbolTable
 70
     0
  0
ENDTAB
  0
TABLE
  2
APPID
  5
9
330
0
100
AcDbSymbolTable
 70
     7
  0
APPID
  5
12
330
9
100
AcDbSymbolTableRecord
100
AcDbRegAppTableRecord
  2
ACAD
 70
     0
  0
APPID
  5
ECD
330
9
100
AcDbSymbolTableRecord
100
AcDbRegAppTableRecord
  2
CONTENTBLOCKICON
 70
     0
  0
APPID
  5
6A9D
330
9
100
AcDbSymbolTableRecord
100
AcDbRegAppTableRecord
  2
ACAD_EXEMPT_FROM_CAD_STANDARDS
 70
     0
  0
APPID
  5
6AF1
330
9
100
AcDbSymbolTableRecord
100
AcDbRegAppTableRecord
  2
ACAD_MLEADERVER
 70
     0
  0
APPID
  5
6AFA
330
9
100
AcDbSymbolTableRecord
100
AcDbRegAppTableRecord
  2
ACAD_PSEXT
 70
     0
  0
APPID
  5
6B05
330
9
100
AcDbSymbolTableRecord
100
AcDbRegAppTableRecord
  2
DCO15
 70
     0
  0
APPID
  5
6BB0
330
9
100
AcDbSymbolTableRecord
100
AcDbRegAppTableRecord
  2
ACAD_NAV_VCDISPLAY
 70
     0
  0
ENDTAB
  0
TABLE
  2
DIMSTYLE
  5
A
330
0
100
AcDbSymbolTable
 70
     1
100
AcDbDimStyleTable
 71
     1
340
175
  0
DIMSTYLE
105
175
102
{ACAD_REACTORS
330
59D1
330
59D0
330
59B9
330
59D2
330
59C6
330
59BE
330
59FD
330
59F0
330
59BB
330
59BA
330
5E29
330
5E42
330
5E41
330
5E2A
330
5EF0
330
6157
330
619F
330
61AC
330
66A1
330
6780
330
676D
330
67E9
330
6B96
330
6BA3
330
6C66
330
6C73
330
6D35
330
6D42
330
6D4F
330
6D5C
102
}
330
A
100
AcDbSymbolTableRecord
100
AcDbDimStyleTableRecord
  2
STANDARD
 70
     0
 41
2.0
 42
1.0
 43
0.5
 44
0.5
 73
     0
 77
     3
 78
    12
140
4.0
147
1.0
271
     1
272
     1
340
11
341
3B2
342
3B2
  0
ENDTAB
  0
TABLE
  2
BLOCK_RECORD
  5
1
330
0
100
AcDbSymbolTable
 70
    68
  0
BLOCK_RECORD
  5
1E
102
{ACAD_XDICTIONARY
360
178
102
}
330
1
100
AcDbSymbolTableRecord
100
AcDbBlockTableRecord
  2
*MODEL_SPACE
340
6A3B
 70
     0
280
     1
281
     0
  0
BLOCK_RECORD
  5
1A
102
{ACAD_XDICTIONARY
360
17A
102
}
330
1
100
AcDbSymbolTableRecord
100
AcDbBlockTableRecord
  2
*PAPER_SPACE
340
6A3C
 70
     0
280
     1
281
     0
  0
BLOCK_RECORD
  5
3B2
330
1
100
AcDbSymbolTableRecord
100
AcDbBlockTableRecord
  2
_OPEN
340
0
102
{BLKREFS
331
6D49
331
6D4A
331
6B5C
331
6B5D
331
6B69
331
6B6A
331
6B76
331
6B77
331
6B83
331
6B84
331
6B9D
331
6B9E
331
6BAA
331
6BAB
331
6C88
331
6C94
331
6C95
331
6CA1
331
6CA2
331
6CAE
331
6CAF
331
6B90
331
6B91
331
6C60
331
6C61
331
67C0
331
67C1
331
67C9
331
67CA
331
695A
331
6951
331
6952
331
67E3
331
67E4
331
6936
331
6937
331
6CBB
331
6CBC
331
6CD5
331
6CD6
331
6CE2
331
6CE3
331
6E6B
331
6E6C
331
6D3C
331
6D3D
331
6D56
331
6D57
331
6DD6
331
6DD7
331
6901
331
6902
331
68F8
331
68F9
331
68EE
331
68EF
331
68E5
331
68E6
331
68DC
331
68DD
331
68D3
331
68D4
331
68CA
331
68CB
331
6BCF
331
6BD0
331
6BDD
331
6BDE
331
6BEA
331
6BEB
331
68A4
331
68A5
331
689B
331
689C
331
6892
331
6893
331
6889
331
688A
331
6948
331
6949
331
65B5
331
6877
331
6878
331
686E
331
686F
331
659A
331
659B
331
6D63
331
6D64
331
6D70
331
6D71
331
6D7D
331
6D7E
331
6591
331
6592
331
693F
331
6940
331
685C
331
685D
331
6A2E
331
6A2F
331
684A
331
684B
331
6C1F
331
6C20
331
6C2C
331
6C2D
331
6C39
331
6C3A
331
68C1
331
68C2
331
68B8
331
68B9
331
68AF
331
68B0
331
6C53
331
6C54
331
6C6D
331
6C6E
331
6C7A
331
6C7B
331
6C87
102
}
 70
     0
280
     1
281
     0
  0
BLOCK_RECORD
  5
58CA
330
1
100
AcDbSymbolTableRecord
100
AcDbBlockTableRecord
  2
*U1
340
0
102
{BLKREFS
331
59F3
102
}
 70
     0
280
     1
281
     0
  0
BLOCK_RECORD
  5
58CE
330
1
100
AcDbSymbolTableRecord
100
AcDbBlockTableRecord
  2
*U2
340
0
102
{BLKREFS
331
59F2
102
}
 70
     0
280
     1
281
     0
  0
BLOCK_RECORD
  5
58DA
330
1
100
AcDbSymbolTableRecord
100
AcDbBlockTableRecord
  2
*U3
340
0
 70
     0
280
     1
281
     0
  0
BLOCK_RECORD
  5
58DE
330
1
100
AcDbSymbolTableRecord
100
AcDbBlockTableRecord
  2
*U4
340
0
102
{BLKREFS
331
59F1
102
}
 70
     0
280
     1
281
     0
  0
BLOCK_RECORD
  5
58E2
330
1
100
AcDbSymbolTableRecord
100
AcDbBlockTableRecord
  2
*U5
340
0
 70
     0
280
     1
281
     0
  0
BLOCK_RECORD
  5
5A00
330
1
100
AcDbSymbolTableRecord
100
AcDbBlockTableRecord
  2
*D6
340
0
 70
     0
280
     1
281
     0
  0
BLOCK_RECORD
  5
5A0C
330
1
100
AcDbSymbolTableRecord
100
AcDbBlockTableRecord
  2
*D7
340
0
 70
     0
280
     1
281
     0
  0
BLOCK_RECORD
  5
5A19
330
1
100
AcDbSymbolTableRecord
100
AcDbBlockTableRecord
  2
*D8
340
0
 70
     0
280
     1
281
     0
  0
BLOCK_RECORD
  5
5A25
330
1
100
AcDbSymbolTableRecord
100
AcDbBlockTableRecord
  2
*D9
340
0
 70
     0
280
     1
281
     0
  0
BLOCK_RECORD
  5
5A31
330
1
100
AcDbSymbolTableRecord
100
AcDbBlockTableRecord
  2
*D10
340
0
 70
     0
280
     1
281
     0
  0
BLOCK_RECORD
  5
5A3D
330
1
100
AcDbSymbolTableRecord
100
AcDbBlockTableRecord
  2
*D11
340
0
 70
     0
280
     1
281
     0
  0
BLOCK_RECORD
  5
5A49
330
1
100
AcDbSymbolTableRecord
100
AcDbBlockTableRecord
  2
*D12
340
0
 70
     0
280
     1
281
     0
  0
BLOCK_RECORD
  5
5A55
330
1
100
AcDbSymbolTableRecord
100
AcDbBlockTableRecord
  2
*D13
340
0
 70
     0
280
     1
281
     0
  0
BLOCK_RECORD
  5
5A61
330
1
100
AcDbSymbolTableRecord
100
AcDbBlockTableRecord
  2
*D14
340
0
 70
     0
280
     1
281
     0
  0
BLOCK_RECORD
  5
5A6D
330
1
100
AcDbSymbolTableRecord
100
AcDbBlockTableRecord
  2
*D15
340
0
 70
     0
280
     1
281
     0
  0
BLOCK_RECORD
  5
5E7C
330
1
100
AcDbSymbolTableRecord
100
AcDbBlockTableRecord
  2
*D16
340
0
 70
     0
280
     1
281
     0
  0
BLOCK_RECORD
  5
5E88
330
1
100
AcDbSymbolTableRecord
100
AcDbBlockTableRecord
  2
*D17
340
0
 70
     0
280
     1
281
     0
  0
BLOCK_RECORD
  5
5E94
330
1
100
AcDbSymbolTableRecord
100
AcDbBlockTableRecord
  2
*D18
340
0
 70
     0
280
     1
281
     0
  0
BLOCK_RECORD
  5
5EA0
330
1
100
AcDbSymbolTableRecord
100
AcDbBlockTableRecord
  2
*D19
340
0
 70
     0
280
     1
281
     0
  0
BLOCK_RECORD
  5
5EF9
330
1
100
AcDbSymbolTableRecord
100
AcDbBlockTableRecord
  2
*D20
340
0
 70
     0
280
     1
281
     0
  0
BLOCK_RECORD
  5
5F2F
330
1
100
AcDbSymbolTableRecord
100
AcDbBlockTableRecord
  2
*D21
340
0
 70
     0
280
     1
281
     0
  0
BLOCK_RECORD
  5
5F6C
330
1
100
AcDbSymbolTableRecord
100
AcDbBlockTableRecord
  2
*D22
340
0
 70
     0
280
     1
281
     0
  0
BLOCK_RECORD
  5
5F79
330
1
100
AcDbSymbolTableRecord
100
AcDbBlockTableRecord
  2
*D23
340
0
 70
     0
280
     1
281
     0
  0
BLOCK_RECORD
  5
600C
330
1
100
AcDbSymbolTableRecord
100
AcDbBlockTableRecord
  2
*D24
340
0
 70
     0
280
     1
281
     0
  0
BLOCK_RECORD
  5
60BD
330
1
100
AcDbSymbolTableRecord
100
AcDbBlockTableRecord
  2
*D25
340
0
 70
     0
280
     1
281
     0
  0
BLOCK_RECORD
  5
6158
330
1
100
AcDbSymbolTableRecord
100
AcDbBlockTableRecord
  2
*D26
340
0
 70
     0
280
     1
281
     0
  0
BLOCK_RECORD
  5
61A0
330
1
100
AcDbSymbolTableRecord
100
AcDbBlockTableRecord
  2
*D27
340
0
 70
     0
280
     1
281
     0
  0
BLOCK_RECORD
  5
61AD
330
1
100
AcDbSymbolTableRecord
100
AcDbBlockTableRecord
  2
*D28
340
0
 70
     0
280
     1
281
     0
  0
BLOCK_RECORD
  5
66A2
330
1
100
AcDbSymbolTableRecord
100
AcDbBlockTableRecord
  2
*D29
340
0
 70
     0
280
     1
281
     0
  0
BLOCK_RECORD
  5
6782
330
1
100
AcDbSymbolTableRecord
100
AcDbBlockTableRecord
  2
*D30
340
0
 70
     0
280
     1
281
     0
  0
BLOCK_RECORD
  5
678E
330
1
100
AcDbSymbolTableRecord
100
AcDbBlockTableRecord
  2
*D31
340
0
 70
     0
280
     1
281
     0
  0
BLOCK_RECORD
  5
679A
330
1
100
AcDbSymbolTableRecord
100
AcDbBlockTableRecord
  2
*D32
340
0
 70
     0
280
     1
281
     0
  0
BLOCK_RECORD
  5
67A5
330
1
100
AcDbSymbolTableRecord
100
AcDbBlockTableRecord
  2
*D33
340
0
 70
     0
280
     1
281
     0
  0
BLOCK_RECORD
  5
67B1
330
1
100
AcDbSymbolTableRecord
100
AcDbBlockTableRecord
  2
*D34
340
0
 70
     0
280
     1
281
     0
  0
BLOCK_RECORD
  5
67EA
330
1
100
AcDbSymbolTableRecord
100
AcDbBlockTableRecord
  2
*D35
340
0
 70
     0
280
     1
281
     0
  0
BLOCK_RECORD
  5
6B56
330
1
100
AcDbSymbolTableRecord
100
AcDbBlockTableRecord
  2
*D36
340
0
 70
     0
280
     1
281
     0
  0
BLOCK_RECORD
  5
6B63
330
1
100
AcDbSymbolTableRecord
100
AcDbBlockTableRecord
  2
*D37
340
0
 70
     0
280
     1
281
     0
  0
BLOCK_RECORD
  5
6B70
330
1
100
AcDbSymbolTableRecord
100
AcDbBlockTableRecord
  2
*D38
340
0
 70
     0
280
     1
281
     0
  0
BLOCK_RECORD
  5
6B7D
330
1
100
AcDbSymbolTableRecord
100
AcDbBlockTableRecord
  2
*D39
340
0
 70
     0
280
     1
281
     0
  0
BLOCK_RECORD
  5
6B8A
330
1
100
AcDbSymbolTableRecord
100
AcDbBlockTableRecord
  2
*D40
340
0
 70
     0
280
     1
281
     0
  0
BLOCK_RECORD
  5
6B97
330
1
100
AcDbSymbolTableRecord
100
AcDbBlockTableRecord
  2
*D41
340
0
 70
     0
280
     1
281
     0
  0
BLOCK_RECORD
  5
6BA4
330
1
100
AcDbSymbolTableRecord
100
AcDbBlockTableRecord
  2
*D42
340
0
 70
     0
280
     1
281
     0
  0
BLOCK_RECORD
  5
6BC8
330
1
100
AcDbSymbolTableRecord
100
AcDbBlockTableRecord
  2
*D43
340
0
 70
     0
280
     1
281
     0
  0
BLOCK_RECORD
  5
6BD6
330
1
100
AcDbSymbolTableRecord
100
AcDbBlockTableRecord
  2
*D44
340
0
 70
     0
280
     1
281
     0
  0
BLOCK_RECORD
  5
6BE4
330
1
100
AcDbSymbolTableRecord
100
AcDbBlockTableRecord
  2
*D45
340
0
 70
     0
280
     1
281
     0
  0
BLOCK_RECORD
  5
6C19
330
1
100
AcDbSymbolTableRecord
100
AcDbBlockTableRecord
  2
*D46
340
0
 70
     0
280
     1
281
     0
  0
BLOCK_RECORD
  5
6C26
330
1
100
AcDbSymbolTableRecord
100
AcDbBlockTableRecord
  2
*D47
340
0
 70
     0
280
     1
281
     0
  0
BLOCK_RECORD
  5
6C33
330
1
100
AcDbSymbolTableRecord
100
AcDbBlockTableRecord
  2
*D48
340
0
 70
     0
280
     1
281
     0
  0
BLOCK_RECORD
  5
6C4C
330
1
100
AcDbSymbolTableRecord
100
AcDbBlockTableRecord
  2
*D49
340
0
 70
     0
280
     1
281
     0
  0
BLOCK_RECORD
  5
6C5A
330
1
100
AcDbSymbolTableRecord
100
AcDbBlockTableRecord
  2
*D50
340
0
 70
     0
280
     1
281
     0
  0
BLOCK_RECORD
  5
6C67
330
1
100
AcDbSymbolTableRecord
100
AcDbBlockTableRecord
  2
*D51
340
0
 70
     0
280
     1
281
     0
  0
BLOCK_RECORD
  5
6C74
330
1
100
AcDbSymbolTableRecord
100
AcDbBlockTableRecord
  2
*D52
340
0
 70
     0
280
     1
281
     0
  0
BLOCK_RECORD
  5
6C81
330
1
100
AcDbSymbolTableRecord
100
AcDbBlockTableRecord
  2
*D53
340
0
 70
     0
280
     1
281
     0
  0
BLOCK_RECORD
  5
6C8E
330
1
100
AcDbSymbolTableRecord
100
AcDbBlockTableRecord
  2
*D54
340
0
 70
     0
280
     1
281
     0
  0
BLOCK_RECORD
  5
6C9B
330
1
100
AcDbSymbolTableRecord
100
AcDbBlockTableRecord
  2
*D55
340
0
 70
     0
280
     1
281
     0
  0
BLOCK_RECORD
  5
6CA8
330
1
100
AcDbSymbolTableRecord
100
AcDbBlockTableRecord
  2
*D56
340
0
 70
     0
280
     1
281
     0
  0
BLOCK_RECORD
  5
6CB5
330
1
100
AcDbSymbolTableRecord
100
AcDbBlockTableRecord
  2
*D57
340
0
 70
     0
280
     1
281
     0
  0
BLOCK_RECORD
  5
6CCD
330
1
100
AcDbSymbolTableRecord
100
AcDbBlockTableRecord
  2
*D58
340
0
 70
     0
280
     1
281
     0
  0
BLOCK_RECORD
  5
6CDC
330
1
100
AcDbSymbolTableRecord
100
AcDbBlockTableRecord
  2
*D59
340
0
 70
     0
280
     1
281
     0
  0
BLOCK_RECORD
  5
6D36
330
1
100
AcDbSymbolTableRecord
100
AcDbBlockTableRecord
  2
*D60
340
0
 70
     0
280
     1
281
     0
  0
BLOCK_RECORD
  5
6D43
330
1
100
AcDbSymbolTableRecord
100
AcDbBlockTableRecord
  2
*D61
340
0
 70
     0
280
     1
281
     0
  0
BLOCK_RECORD
  5
6D50
330
1
100
AcDbSymbolTableRecord
100
AcDbBlockTableRecord
  2
*D62
340
0
 70
     0
280
     1
281
     0
  0
BLOCK_RECORD
  5
6D5D
330
1
100
AcDbSymbolTableRecord
100
AcDbBlockTableRecord
  2
*D63
340
0
 70
     0
280
     1
281
     0
  0
BLOCK_RECORD
  5
6D6A
330
1
100
AcDbSymbolTableRecord
100
AcDbBlockTableRecord
  2
*D64
340
0
 70
     0
280
     1
281
     0
  0
BLOCK_RECORD
  5
6D77
330
1
100
AcDbSymbolTableRecord
100
AcDbBlockTableRecord
  2
*D65
340
0
 70
     0
280
     1
281
     0
  0
BLOCK_RECORD
  5
6DD0
330
1
100
AcDbSymbolTableRecord
100
AcDbBlockTableRecord
  2
*D66
340
0
 70
     0
280
     1
281
     0
  0
BLOCK_RECORD
  5
6E65
330
1
100
AcDbSymbolTableRecord
100
AcDbBlockTableRecord
  2
*D67
340
0
 70
     0
280
     1
281
     0
  0
ENDTAB
  0
ENDSEC
  0
SECTION
  2
BLOCKS
  0
BLOCK
  5
1F
330
1E
100
AcDbEntity
  8
0
100
AcDbBlockBegin
  2
*MODEL_SPACE
 70
     0
 10
0.0
 20
0.0
 30
0.0
  3
*MODEL_SPACE
  1

  0
ENDBLK
  5
20
330
1E
100
AcDbEntity
  8
0
100
AcDbBlockEnd
  0
BLOCK
  5
1B
330
1A
100
AcDbEntity
 67
     1
  8
0
100
AcDbBlockBegin
  2
*PAPER_SPACE
 70
     0
 10
0.0
 20
0.0
 30
0.0
  3
*PAPER_SPACE
  1

  0
ENDBLK
  5
1C
330
1A
100
AcDbEntity
 67
     1
  8
0
100
AcDbBlockEnd
  0
BLOCK
  5
3B6
330
3B2
100
AcDbEntity
  8
0
100
AcDbBlockBegin
  2
_OPEN
 70
     0
 10
0.0
 20
0.0
 30
0.0
  3
_OPEN
  1

  0
LINE
  5
3B3
330
3B2
100
AcDbEntity
  8
30
  6
Continuous
 62
     0
100
AcDbLine
 10
-1.0
 20
0.166667
 30
0.0
 11
0.0
 21
0.0
 31
0.0
  0
LINE
  5
3B4
330
3B2
100
AcDbEntity
  8
30
  6
Continuous
 62
     0
100
AcDbLine
 10
-1.0
 20
-0.166667
 30
0.0
 11
0.0
 21
0.0
 31
0.0
  0
LINE
  5
3B5
330
3B2
100
AcDbEntity
  8
30
  6
Continuous
 62
     0
100
AcDbLine
 10
0.0
 20
0.0
 30
0.0
 11
-1.0
 21
0.0
 31
0.0
  0
ENDBLK
  5
3B7
330
3B2
100
AcDbEntity
  8
0
100
AcDbBlockEnd
  0
BLOCK
  5
58CC
330
58CA
100
AcDbEntity
  8
TOP
  6
Continuous
 62
     4
100
AcDbBlockBegin
  2
*U1
 70
     1
 10
0.0
 20
0.0
 30
0.0
  3
*U1
  1

  0
TEXT
  5
58CB
330
58CA
100
AcDbEntity
  8
TOP
  6
ByBlock
 62
     0
100
AcDbText
 10
249.4949984839538
 20
103.4999999999999
 30
0.0
 40
2.500000003799998
  1
17
 41
0.78325
  7
UGMTXT
100
AcDbText
  0
ENDBLK
  5
58CD
330
58CA
100
AcDbEntity
  8
0
100
AcDbBlockEnd
  0
BLOCK
  5
58D0
330
58CE
100
AcDbEntity
  8
TOP
  6
Continuous
 62
     4
100
AcDbBlockBegin
  2
*U2
 70
     1
 10
0.0
 20
0.0
 30
0.0
  3
*U2
  1

  0
TEXT
  5
58CF
330
58CE
100
AcDbEntity
  8
TOP
  6
ByBlock
 62
     0
100
AcDbText
 10
252.6153110179847
 20
103.4999999999999
 30
0.0
 40
2.500000003799998
  1
(max.)
 41
0.7263970588235275
  7
UGMTXT
100
AcDbText
  0
ENDBLK
  5
58D1
330
58CE
100
AcDbEntity
  8
0
100
AcDbBlockEnd
  0
BLOCK
  5
58DC
330
58DA
100
AcDbEntity
  8
TOP
  6
Continuous
 62
     4
100
AcDbBlockBegin
  2
*U3
 70
     1
 10
0.0
 20
0.0
 30
0.0
  3
*U3
  1

  0
TEXT
  5
58DB
330
58DA
100
AcDbEntity
  8
TOP
  6
ByBlock
 62
     0
100
AcDbText
 10
236.6619255869728
 20
58.26042938214733
 30
0.0
 40
2.500000003799998
  1
8
 41
1.054062499999999
  7
UGMTXT
100
AcDbText
  0
ENDBLK
  5
58DD
330
58DA
100
AcDbEntity
  8
0
100
AcDbBlockEnd
  0
BLOCK
  5
58E0
330
58DE
100
AcDbEntity
  8
TOP
  6
Continuous
 62
     4
100
AcDbBlockBegin
  2
*U4
 70
     1
 10
0.0
 20
0.0
 30
0.0
  3
*U4
  1

  0
TEXT
  5
58DF
330
58DE
100
AcDbEntity
  8
TOP
  6
ByBlock
 62
     0
100
AcDbText
 10
250.6153110179847
 20
99.29999999999997
 30
0.0
 40
2.500000003799998
  1
max.t5
 41
0.7263970588235275
  7
UGMTXT
100
AcDbText
  0
ENDBLK
  5
58E1
330
58DE
100
AcDbEntity
  8
0
100
AcDbBlockEnd
  0
BLOCK
  5
58E9
330
58E2
100
AcDbEntity
  8
TOP
  6
Continuous
 62
     4
100
AcDbBlockBegin
  2
*U5
 70
     1
 10
0.0
 20
0.0
 30
0.0
  3
*U5
  1

  0
LINE
  5
58E3
330
58E2
100
AcDbEntity
  8
1
  6
ByBlock
 62
     0
100
AcDbLine
 10
235.8153110047847
 20
66.71019663782792
 30
0.0
 11
235.8153110047847
 21
56.01042938024733
 31
0.0
  0
LINE
  5
58E4
330
58E2
100
AcDbEntity
  8
1
  6
ByBlock
 62
     0
100
AcDbLine
 10
239.0153110047847
 20
69.41019663122792
 30
0.0
 11
239.0153110047847
 21
56.01042938024733
 31
0.0
  0
LINE
  5
58E5
330
58E2
100
AcDbEntity
  8
1
  6
ByBlock
 62
     0
100
AcDbLine
 10
233.3153110047847
 20
57.01042938024731
 30
0.0
 11
241.5153110047846
 21
57.01042938024731
 31
0.0
  0
SOLID
  5
58E6
330
58E2
100
AcDbEntity
  8
1
  6
ByBlock
 62
     0
100
AcDbTrace
 10
235.8153110047847
 20
57.01042938024731
 30
0.0
 11
233.8153109915847
 21
56.67709604471401
 31
0.0
 12
233.8153109915847
 22
57.34376271578065
 32
0.0
 13
233.8153109915847
 23
57.34376271578065
 33
0.0
  0
SOLID
  5
58E7
330
58E2
100
AcDbEntity
  8
1
  6
ByBlock
 62
     0
100
AcDbTrace
 10
239.0153110047847
 20
57.01042938024731
 30
0.0
 11
241.0153110179845
 21
57.34376271578065
 31
0.0
 12
241.0153110179845
 22
56.67709604471401
 32
0.0
 13
241.0153110179845
 23
56.67709604471401
 33
0.0
  0
TEXT
  5
58E8
330
58E2
100
AcDbEntity
  8
TOP
  6
ByBlock
 62
     0
100
AcDbText
 10
237.1139568381178
 20
57.51042938024731
 30
0.0
 40
1.0
  1
 
 41
1.054062499999999
  7
UGMTXT
100
AcDbText
  0
ENDBLK
  5
58EA
330
58E2
100
AcDbEntity
  8
0
100
AcDbBlockEnd
  0
BLOCK
  5
5A0A
330
5A00
100
AcDbEntity
  8
0
100
AcDbBlockBegin
  2
*D6
 70
     1
 10
0.0
 20
0.0
 30
0.0
  3
*D6
  1

  0
LINE
  5
68FE
330
5A00
100
AcDbEntity
  8
30
  6
Continuous
 62
     0
440
 16777216
100
AcDbLine
 10
129.8144775593033
 20
-1.0
 30
0.0
 11
129.8144775593033
 21
-133.2494181439514
 31
0.0
  0
LINE
  5
68FF
330
5A00
100
AcDbEntity
  8
30
  6
Continuous
 62
     0
440
 16777216
100
AcDbLine
 10
221.8144775593031
 20
-78.50000000000003
 30
0.0
 11
221.8144775593031
 21
-133.2494181439514
 31
0.0
  0
LINE
  5
6900
330
5A00
100
AcDbEntity
  8
30
  6
Continuous
 62
     0
440
 16777216
100
AcDbLine
 10
131.8144775593033
 20
-132.7494181439514
 30
0.0
 11
219.8144775593031
 21
-132.7494181439514
 31
0.0
  0
INSERT
  5
6901
330
5A00
100
AcDbEntity
  8
30
  6
Continuous
 62
     0
440
 16777216
100
AcDbBlockReference
  2
_OPEN
 10
129.8144775593033
 20
-132.7494181439514
 30
0.0
 41
2.0
 42
2.0
 43
2.0
 50
180.0
  0
INSERT
  5
6902
330
5A00
100
AcDbEntity
  8
30
  6
Continuous
 62
     0
440
 16777216
100
AcDbBlockReference
  2
_OPEN
 10
221.8144775593031
 20
-132.7494181439514
 30
0.0
 41
2.0
 42
2.0
 43
2.0
  0
MTEXT
  5
6903
330
5A00
100
AcDbEntity
  8
30
  6
Continuous
 62
     0
440
 16777216
100
AcDbMText
 10
175.8144775593031
 20
-129.7494181439514
 30
0.0
 40
4.0
 41
0.0
 46
0.0
 71
     5
 72
     1
  1
\A1;92
 73
     1
 44
1.0
1001
ACAD
1000
MTEXTBEGIN
1070
    73
1070
     1
1070
    44
1040
1.0
1070
    74
1070
     0
1000
MTEXTEND
  0
POINT
  5
6904
330
5A00
100
AcDbEntity
  8
DEFPOINTS
  6
Continuous
 62
     0
440
 16777216
100
AcDbPoint
 10
129.8144775593033
 20
0.0
 30
0.0
  0
POINT
  5
6905
330
5A00
100
AcDbEntity
  8
DEFPOINTS
  6
Continuous
 62
     0
440
 16777216
100
AcDbPoint
 10
221.8144775593031
 20
-77.50000000000003
 30
0.0
  0
POINT
  5
6906
330
5A00
100
AcDbEntity
  8
DEFPOINTS
  6
Continuous
 62
     0
440
 16777216
100
AcDbPoint
 10
221.8144775593031
 20
-132.7494181439514
 30
0.0
  0
ENDBLK
  5
5A0B
330
5A00
100
AcDbEntity
  8
0
100
AcDbBlockEnd
  0
BLOCK
  5
5A17
330
5A0C
100
AcDbEntity
  8
0
100
AcDbBlockBegin
  2
*D7
 70
     1
 10
0.0
 20
0.0
 30
0.0
  3
*D7
  1

  0
LINE
  5
68F4
330
5A0C
100
AcDbEntity
  8
30
  6
Continuous
 62
     0
440
 16777216
100
AcDbLine
 10
145.8144775593031
 20
-26.0
 30
0.0
 11
145.8144775593031
 21
-121.2494181439514
 31
0.0
  0
LINE
  5
68F5
330
5A0C
100
AcDbEntity
  8
30
  6
Continuous
 62
     0
440
 16777216
100
AcDbLine
 10
149.8144775593031
 20
-26.0
 30
0.0
 11
149.8144775593031
 21
-121.2494181439514
 31
0.0
  0
LINE
  5
68F6
330
5A0C
100
AcDbEntity
  8
30
  6
Continuous
 62
     0
440
 16777216
100
AcDbLine
 10
143.8144775593029
 20
-120.7494181439514
 30
0.0
 11
141.8144775593028
 21
-120.7494181439514
 31
0.0
  0
LINE
  5
68F7
330
5A0C
100
AcDbEntity
  8
30
  6
Continuous
 62
     0
440
 16777216
100
AcDbLine
 10
151.8144775593031
 20
-120.7494181439514
 30
0.0
 11
158.4811442259697
 21
-120.7494181439514
 31
0.0
  0
INSERT
  5
68F8
330
5A0C
100
AcDbEntity
  8
30
  6
Continuous
 62
     0
440
 16777216
100
AcDbBlockReference
  2
_OPEN
 10
145.8144775593031
 20
-120.7494181439514
 30
0.0
 41
2.0
 42
2.0
 43
2.0
  0
INSERT
  5
68F9
330
5A0C
100
AcDbEntity
  8
30
  6
Continuous
 62
     0
440
 16777216
100
AcDbBlockReference
  2
_OPEN
 10
149.8144775593031
 20
-120.7494181439514
 30
0.0
 41
2.0
 42
2.0
 43
2.0
 50
180.0
  0
MTEXT
  5
68FA
330
5A0C
100
AcDbEntity
  8
30
  6
Continuous
 62
     0
440
 16777216
100
AcDbMText
 10
156.1478108926364
 20
-117.7494181439514
 30
0.0
 40
4.0
 41
0.0
 46
0.0
 71
     5
 72
     1
  1
\A1;4
 73
     1
 44
1.0
1001
ACAD
1000
MTEXTBEGIN
1070
    73
1070
     1
1070
    44
1040
1.0
1070
    74
1070
     0
1000
MTEXTEND
  0
POINT
  5
68FB
330
5A0C
100
AcDbEntity
  8
DEFPOINTS
  6
Continuous
 62
     0
440
 16777216
100
AcDbPoint
 10
145.8144775593031
 20
-25.0
 30
0.0
  0
POINT
  5
68FC
330
5A0C
100
AcDbEntity
  8
DEFPOINTS
  6
Continuous
 62
     0
440
 16777216
100
AcDbPoint
 10
149.8144775593031
 20
-25.0
 30
0.0
  0
POINT
  5
68FD
330
5A0C
100
AcDbEntity
  8
DEFPOINTS
  6
Continuous
 62
     0
440
 16777216
100
AcDbPoint
 10
149.8144775593031
 20
-120.7494181439514
 30
0.0
  0
ENDBLK
  5
5A18
330
5A0C
100
AcDbEntity
  8
0
100
AcDbBlockEnd
  0
BLOCK
  5
5A23
330
5A19
100
AcDbEntity
  8
0
100
AcDbBlockBegin
  2
*D8
 70
     1
 10
0.0
 20
0.0
 30
0.0
  3
*D8
  1

  0
LINE
  5
68EB
330
5A19
100
AcDbEntity
  8
30
  6
Continuous
 62
     0
440
 16777216
100
AcDbLine
 10
149.8144775593031
 20
-26.0
 30
0.0
 11
149.8144775593031
 21
-121.2494181439514
 31
0.0
  0
LINE
  5
68EC
330
5A19
100
AcDbEntity
  8
30
  6
Continuous
 62
     0
440
 16777216
100
AcDbLine
 10
221.8144775593031
 20
-78.50000000000003
 30
0.0
 11
221.8144775593031
 21
-121.2494181439514
 31
0.0
  0
LINE
  5
68ED
330
5A19
100
AcDbEntity
  8
30
  6
Continuous
 62
     0
440
 16777216
100
AcDbLine
 10
151.8144775593031
 20
-120.7494181439514
 30
0.0
 11
219.8144775593031
 21
-120.7494181439514
 31
0.0
  0
INSERT
  5
68EE
330
5A19
100
AcDbEntity
  8
30
  6
Continuous
 62
     0
440
 16777216
100
AcDbBlockReference
  2
_OPEN
 10
149.8144775593031
 20
-120.7494181439514
 30
0.0
 41
2.0
 42
2.0
 43
2.0
 50
180.0
  0
INSERT
  5
68EF
330
5A19
100
AcDbEntity
  8
30
  6
Continuous
 62
     0
440
 16777216
100
AcDbBlockReference
  2
_OPEN
 10
221.8144775593031
 20
-120.7494181439514
 30
0.0
 41
2.0
 42
2.0
 43
2.0
  0
MTEXT
  5
68F0
330
5A19
100
AcDbEntity
  8
30
  6
Continuous
 62
     0
440
 16777216
100
AcDbMText
 10
185.814477559303
 20
-117.7494181439514
 30
0.0
 40
4.0
 41
0.0
 46
0.0
 71
     5
 72
     1
  1
\A1;72
 73
     1
 44
1.0
1001
ACAD
1000
MTEXTBEGIN
1070
    73
1070
     1
1070
    44
1040
1.0
1070
    74
1070
     0
1000
MTEXTEND
  0
POINT
  5
68F1
330
5A19
100
AcDbEntity
  8
DEFPOINTS
  6
Continuous
 62
     0
440
 16777216
100
AcDbPoint
 10
149.8144775593031
 20
-25.0
 30
0.0
  0
POINT
  5
68F2
330
5A19
100
AcDbEntity
  8
DEFPOINTS
  6
Continuous
 62
     0
440
 16777216
100
AcDbPoint
 10
221.8144775593031
 20
-77.50000000000003
 30
0.0
  0
POINT
  5
68F3
330
5A19
100
AcDbEntity
  8
DEFPOINTS
  6
Continuous
 62
     0
440
 16777216
100
AcDbPoint
 10
221.8144775593031
 20
-120.7494181439514
 30
0.0
  0
ENDBLK
  5
5A24
330
5A19
100
AcDbEntity
  8
0
100
AcDbBlockEnd
  0
BLOCK
  5
5A2F
330
5A25
100
AcDbEntity
  8
0
100
AcDbBlockBegin
  2
*D9
 70
     1
 10
0.0
 20
0.0
 30
0.0
  3
*D9
  1

  0
LINE
  5
68E2
330
5A25
100
AcDbEntity
  8
30
  6
Continuous
 62
     0
440
 16777216
100
AcDbLine
 10
144.8144775593029
 20
-25.0
 30
0.0
 11
104.8588555544835
 21
-24.99999999999999
 31
0.0
  0
LINE
  5
68E3
330
5A25
100
AcDbEntity
  8
30
  6
Continuous
 62
     0
440
 16777216
100
AcDbLine
 10
144.8144775593029
 20
24.99999999999996
 30
0.0
 11
104.8588555544835
 21
24.99999999999996
 31
0.0
  0
LINE
  5
68E4
330
5A25
100
AcDbEntity
  8
30
  6
Continuous
 62
     0
440
 16777216
100
AcDbLine
 10
105.3588555544835
 20
-22.99999999999998
 30
0.0
 11
105.3588555544835
 21
22.99999999999996
 31
0.0
  0
INSERT
  5
68E5
330
5A25
100
AcDbEntity
  8
30
  6
Continuous
 62
     0
440
 16777216
100
AcDbBlockReference
  2
_OPEN
 10
105.3588555544835
 20
-24.99999999999999
 30
0.0
 41
2.0
 42
2.0
 43
2.0
 50
270.0
  0
INSERT
  5
68E6
330
5A25
100
AcDbEntity
  8
30
  6
Continuous
 62
     0
440
 16777216
100
AcDbBlockReference
  2
_OPEN
 10
105.3588555544835
 20
24.99999999999996
 30
0.0
 41
2.0
 42
2.0
 43
2.0
 50
90.0
  0
MTEXT
  5
68E7
330
5A25
100
AcDbEntity
  8
30
  6
Continuous
 62
     0
440
 16777216
100
AcDbMText
 10
102.3588555544835
 20
0.0000000000000099
 30
0.0
 40
4.0
 41
0.0
 46
0.0
 71
     5
 72
     1
  1
\A1;50
 11
0.0000000000000001
 21
1.0
 31
0.0
 73
     1
 44
1.0
1001
ACAD
1000
MTEXTBEGIN
1070
    73
1070
     1
1070
    44
1040
1.0
1070
    74
1070
     0
1000
MTEXTEND
  0
POINT
  5
68E8
330
5A25
100
AcDbEntity
  8
DEFPOINTS
  6
Continuous
 62
     0
440
 16777216
100
AcDbPoint
 10
145.8144775593031
 20
-25.0
 30
0.0
  0
POINT
  5
68E9
330
5A25
100
AcDbEntity
  8
DEFPOINTS
  6
Continuous
 62
     0
440
 16777216
100
AcDbPoint
 10
145.8144775593031
 20
24.99999999999996
 30
0.0
  0
POINT
  5
68EA
330
5A25
100
AcDbEntity
  8
DEFPOINTS
  6
Continuous
 62
     0
440
 16777216
100
AcDbPoint
 10
105.3588555544835
 20
24.99999999999996
 30
0.0
  0
ENDBLK
  5
5A30
330
5A25
100
AcDbEntity
  8
0
100
AcDbBlockEnd
  0
BLOCK
  5
5A3B
330
5A31
100
AcDbEntity
  8
0
100
AcDbBlockBegin
  2
*D10
 70
     1
 10
0.0
 20
0.0
 30
0.0
  3
*D10
  1

  0
LINE
  5
68D9
330
5A31
100
AcDbEntity
  8
30
  6
Continuous
 62
     0
440
 16777216
100
AcDbLine
 10
197.8144775593031
 20
78.50000000000001
 30
0.0
 11
197.8144775593031
 21
108.7505818560483
 31
0.0
  0
LINE
  5
68DA
330
5A31
100
AcDbEntity
  8
30
  6
Continuous
 62
     0
440
 16777216
100
AcDbLine
 10
221.8144775593031
 20
78.5000000000001
 30
0.0
 11
221.8144775593031
 21
108.7505818560483
 31
0.0
  0
LINE
  5
68DB
330
5A31
100
AcDbEntity
  8
30
  6
Continuous
 62
     0
440
 16777216
100
AcDbLine
 10
199.8144775593031
 20
108.2505818560482
 30
0.0
 11
219.8144775593031
 21
108.2505818560482
 31
0.0
  0
INSERT
  5
68DC
330
5A31
100
AcDbEntity
  8
30
  6
Continuous
 62
     0
440
 16777216
100
AcDbBlockReference
  2
_OPEN
 10
197.8144775593031
 20
108.2505818560482
 30
0.0
 41
2.0
 42
2.0
 43
2.0
 50
180.0
  0
INSERT
  5
68DD
330
5A31
100
AcDbEntity
  8
30
  6
Continuous
 62
     0
440
 16777216
100
AcDbBlockReference
  2
_OPEN
 10
221.8144775593031
 20
108.2505818560482
 30
0.0
 41
2.0
 42
2.0
 43
2.0
  0
MTEXT
  5
68DE
330
5A31
100
AcDbEntity
  8
30
  6
Continuous
 62
     0
440
 16777216
100
AcDbMText
 10
209.8144775593031
 20
111.2505818560483
 30
0.0
 40
4.0
 41
0.0
 46
0.0
 71
     5
 72
     1
  1
\A1;24
 73
     1
 44
1.0
1001
ACAD
1000
MTEXTBEGIN
1070
    73
1070
     1
1070
    44
1040
1.0
1070
    74
1070
     0
1000
MTEXTEND
  0
POINT
  5
68DF
330
5A31
100
AcDbEntity
  8
DEFPOINTS
  6
Continuous
 62
     0
440
 16777216
100
AcDbPoint
 10
197.8144775593031
 20
77.50000000000001
 30
0.0
  0
POINT
  5
68E0
330
5A31
100
AcDbEntity
  8
DEFPOINTS
  6
Continuous
 62
     0
440
 16777216
100
AcDbPoint
 10
221.8144775593031
 20
77.5000000000001
 30
0.0
  0
POINT
  5
68E1
330
5A31
100
AcDbEntity
  8
DEFPOINTS
  6
Continuous
 62
     0
440
 16777216
100
AcDbPoint
 10
221.8144775593031
 20
108.2505818560482
 30
0.0
  0
ENDBLK
  5
5A3C
330
5A31
100
AcDbEntity
  8
0
100
AcDbBlockEnd
  0
BLOCK
  5
5A47
330
5A3D
100
AcDbEntity
  8
0
100
AcDbBlockBegin
  2
*D11
 70
     1
 10
0.0
 20
0.0
 30
0.0
  3
*D11
  1

  0
LINE
  5
68D0
330
5A3D
100
AcDbEntity
  8
30
  6
Continuous
 62
     0
440
 16777216
100
AcDbLine
 10
153.8144775593031
 20
-52.0000000000001
 30
0.0
 11
153.8144775593031
 21
-111.2494181439513
 31
0.0
  0
LINE
  5
68D1
330
5A3D
100
AcDbEntity
  8
30
  6
Continuous
 62
     0
440
 16777216
100
AcDbLine
 10
221.8144775593031
 20
-78.50000000000003
 30
0.0
 11
221.8144775593031
 21
-111.2494181439513
 31
0.0
  0
LINE
  5
68D2
330
5A3D
100
AcDbEntity
  8
30
  6
Continuous
 62
     0
440
 16777216
100
AcDbLine
 10
155.8144775593031
 20
-110.7494181439514
 30
0.0
 11
219.8144775593031
 21
-110.7494181439514
 31
0.0
  0
INSERT
  5
68D3
330
5A3D
100
AcDbEntity
  8
30
  6
Continuous
 62
     0
440
 16777216
100
AcDbBlockReference
  2
_OPEN
 10
153.8144775593031
 20
-110.7494181439514
 30
0.0
 41
2.0
 42
2.0
 43
2.0
 50
180.0
  0
INSERT
  5
68D4
330
5A3D
100
AcDbEntity
  8
30
  6
Continuous
 62
     0
440
 16777216
100
AcDbBlockReference
  2
_OPEN
 10
221.8144775593031
 20
-110.7494181439514
 30
0.0
 41
2.0
 42
2.0
 43
2.0
  0
MTEXT
  5
68D5
330
5A3D
100
AcDbEntity
  8
30
  6
Continuous
 62
     0
440
 16777216
100
AcDbMText
 10
187.814477559303
 20
-107.7494181439514
 30
0.0
 40
4.0
 41
0.0
 46
0.0
 71
     5
 72
     1
  1
\A1;68
 73
     1
 44
1.0
1001
ACAD
1000
MTEXTBEGIN
1070
    73
1070
     1
1070
    44
1040
1.0
1070
    74
1070
     0
1000
MTEXTEND
  0
POINT
  5
68D6
330
5A3D
100
AcDbEntity
  8
DEFPOINTS
  6
Continuous
 62
     0
440
 16777216
100
AcDbPoint
 10
153.8144775593031
 20
-51.00000000000011
 30
0.0
  0
POINT
  5
68D7
330
5A3D
100
AcDbEntity
  8
DEFPOINTS
  6
Continuous
 62
     0
440
 16777216
100
AcDbPoint
 10
221.8144775593031
 20
-77.50000000000003
 30
0.0
  0
POINT
  5
68D8
330
5A3D
100
AcDbEntity
  8
DEFPOINTS
  6
Continuous
 62
     0
440
 16777216
100
AcDbPoint
 10
221.8144775593031
 20
-110.7494181439514
 30
0.0
  0
ENDBLK
  5
5A48
330
5A3D
100
AcDbEntity
  8
0
100
AcDbBlockEnd
  0
BLOCK
  5
5A53
330
5A49
100
AcDbEntity
  8
0
100
AcDbBlockBegin
  2
*D12
 70
     1
 10
0.0
 20
0.0
 30
0.0
  3
*D12
  1

  0
LINE
  5
68C7
330
5A49
100
AcDbEntity
  8
30
  6
Continuous
 62
     0
440
 16777216
100
AcDbLine
 10
160.8144775593029
 20
-78.50000000000003
 30
0.0
 11
160.8144775593029
 21
-100.2494181439514
 31
0.0
  0
LINE
  5
68C8
330
5A49
100
AcDbEntity
  8
30
  6
Continuous
 62
     0
440
 16777216
100
AcDbLine
 10
221.8144775593031
 20
-78.50000000000003
 30
0.0
 11
221.8144775593031
 21
-100.2494181439514
 31
0.0
  0
LINE
  5
68C9
330
5A49
100
AcDbEntity
  8
30
  6
Continuous
 62
     0
440
 16777216
100
AcDbLine
 10
162.8144775593028
 20
-99.74941814395144
 30
0.0
 11
219.8144775593031
 21
-99.74941814395144
 31
0.0
  0
INSERT
  5
68CA
330
5A49
100
AcDbEntity
  8
30
  6
Continuous
 62
     0
440
 16777216
100
AcDbBlockReference
  2
_OPEN
 10
160.8144775593029
 20
-99.74941814395144
 30
0.0
 41
2.0
 42
2.0
 43
2.0
 50
180.0
  0
INSERT
  5
68CB
330
5A49
100
AcDbEntity
  8
30
  6
Continuous
 62
     0
440
 16777216
100
AcDbBlockReference
  2
_OPEN
 10
221.8144775593031
 20
-99.74941814395144
 30
0.0
 41
2.0
 42
2.0
 43
2.0
  0
MTEXT
  5
68CC
330
5A49
100
AcDbEntity
  8
30
  6
Continuous
 62
     0
440
 16777216
100
AcDbMText
 10
191.314477559303
 20
-96.74941814395143
 30
0.0
 40
4.0
 41
0.0
 46
0.0
 71
     5
 72
     1
  1
\A1;61
 73
     1
 44
1.0
1001
ACAD
1000
MTEXTBEGIN
1070
    73
1070
     1
1070
    44
1040
1.0
1070
    74
1070
     0
1000
MTEXTEND
  0
POINT
  5
68CD
330
5A49
100
AcDbEntity
  8
DEFPOINTS
  6
Continuous
 62
     0
440
 16777216
100
AcDbPoint
 10
160.8144775593029
 20
-77.50000000000003
 30
0.0
  0
POINT
  5
68CE
330
5A49
100
AcDbEntity
  8
DEFPOINTS
  6
Continuous
 62
     0
440
 16777216
100
AcDbPoint
 10
221.8144775593031
 20
-77.50000000000003
 30
0.0
  0
POINT
  5
68CF
330
5A49
100
AcDbEntity
  8
DEFPOINTS
  6
Continuous
 62
     0
440
 16777216
100
AcDbPoint
 10
221.8144775593031
 20
-99.74941814395144
 30
0.0
  0
ENDBLK
  5
5A54
330
5A49
100
AcDbEntity
  8
0
100
AcDbBlockEnd
  0
BLOCK
  5
5A5F
330
5A55
100
AcDbEntity
  8
0
100
AcDbBlockBegin
  2
*D13
 70
     1
 10
0.0
 20
0.0
 30
0.0
  3
*D13
  1

  0
LINE
  5
68BE
330
5A55
100
AcDbEntity
  8
30
  6
Continuous
 62
     0
440
 16777216
100
AcDbLine
 10
176.8144775593031
 20
-71.25000000000001
 30
0.0
 11
176.8144775593031
 21
-90.24941814395143
 31
0.0
  0
LINE
  5
68BF
330
5A55
100
AcDbEntity
  8
30
  6
Continuous
 62
     0
440
 16777216
100
AcDbLine
 10
221.8144775593031
 20
-78.50000000000003
 30
0.0
 11
221.8144775593031
 21
-90.24941814395143
 31
0.0
  0
LINE
  5
68C0
330
5A55
100
AcDbEntity
  8
30
  6
Continuous
 62
     0
440
 16777216
100
AcDbLine
 10
178.8144775593031
 20
-89.74941814395142
 30
0.0
 11
219.8144775593031
 21
-89.74941814395142
 31
0.0
  0
INSERT
  5
68C1
330
5A55
100
AcDbEntity
  8
30
  6
Continuous
 62
     0
440
 16777216
100
AcDbBlockReference
  2
_OPEN
 10
176.8144775593031
 20
-89.74941814395142
 30
0.0
 41
2.0
 42
2.0
 43
2.0
 50
180.0
  0
INSERT
  5
68C2
330
5A55
100
AcDbEntity
  8
30
  6
Continuous
 62
     0
440
 16777216
100
AcDbBlockReference
  2
_OPEN
 10
221.8144775593031
 20
-89.74941814395142
 30
0.0
 41
2.0
 42
2.0
 43
2.0
  0
MTEXT
  5
68C3
330
5A55
100
AcDbEntity
  8
30
  6
Continuous
 62
     0
440
 16777216
100
AcDbMText
 10
199.314477559303
 20
-86.74941814395143
 30
0.0
 40
4.0
 41
0.0
 46
0.0
 71
     5
 72
     1
  1
\A1;45
 73
     1
 44
1.0
1001
ACAD
1000
MTEXTBEGIN
1070
    73
1070
     1
1070
    44
1040
1.0
1070
    74
1070
     0
1000
MTEXTEND
  0
POINT
  5
68C4
330
5A55
100
AcDbEntity
  8
DEFPOINTS
  6
Continuous
 62
     0
440
 16777216
100
AcDbPoint
 10
176.8144775593031
 20
-70.25000000000002
 30
0.0
  0
POINT
  5
68C5
330
5A55
100
AcDbEntity
  8
DEFPOINTS
  6
Continuous
 62
     0
440
 16777216
100
AcDbPoint
 10
221.8144775593031
 20
-77.50000000000003
 30
0.0
  0
POINT
  5
68C6
330
5A55
100
AcDbEntity
  8
DEFPOINTS
  6
Continuous
 62
     0
440
 16777216
100
AcDbPoint
 10
221.8144775593031
 20
-89.74941814395142
 30
0.0
  0
ENDBLK
  5
5A60
330
5A55
100
AcDbEntity
  8
0
100
AcDbBlockEnd
  0
BLOCK
  5
5A6B
330
5A61
100
AcDbEntity
  8
0
100
AcDbBlockBegin
  2
*D14
 70
     1
 10
0.0
 20
0.0
 30
0.0
  3
*D14
  1

  0
LINE
  5
68B5
330
5A61
100
AcDbEntity
  8
30
  6
Continuous
 62
     0
440
 16777216
100
AcDbLine
 10
261.3144775593033
 20
42.0
 30
0.0
 11
261.3144775593033
 21
27.09950840068014
 31
0.0
  0
LINE
  5
68B6
330
5A61
100
AcDbEntity
  8
30
  6
Continuous
 62
     0
440
 16777216
100
AcDbLine
 10
278.3144775593031
 20
42.0
 30
0.0
 11
278.3144775593031
 21
27.09950840068014
 31
0.0
  0
LINE
  5
68B7
330
5A61
100
AcDbEntity
  8
30
  6
Continuous
 62
     0
440
 16777216
100
AcDbLine
 10
263.3144775593033
 20
27.59950840068014
 30
0.0
 11
276.3144775593031
 21
27.59950840068014
 31
0.0
  0
INSERT
  5
68B8
330
5A61
100
AcDbEntity
  8
30
  6
Continuous
 62
     0
440
 16777216
100
AcDbBlockReference
  2
_OPEN
 10
261.3144775593033
 20
27.59950840068014
 30
0.0
 41
2.0
 42
2.0
 43
2.0
 50
180.0
  0
INSERT
  5
68B9
330
5A61
100
AcDbEntity
  8
30
  6
Continuous
 62
     0
440
 16777216
100
AcDbBlockReference
  2
_OPEN
 10
278.3144775593031
 20
27.59950840068014
 30
0.0
 41
2.0
 42
2.0
 43
2.0
  0
MTEXT
  5
68BA
330
5A61
100
AcDbEntity
  8
30
  6
Continuous
 62
     0
440
 16777216
100
AcDbMText
 10
269.8144775593031
 20
30.59950840068012
 30
0.0
 40
4.0
 41
0.0
 46
0.0
 71
     5
 72
     1
  1
\A1;17
 73
     1
 44
1.0
1001
ACAD
1000
MTEXTBEGIN
1070
    73
1070
     1
1070
    44
1040
1.0
1070
    74
1070
     0
1000
MTEXTEND
  0
POINT
  5
68BB
330
5A61
100
AcDbEntity
  8
DEFPOINTS
  6
Continuous
 62
     0
440
 16777216
100
AcDbPoint
 10
261.3144775593033
 20
43.0
 30
0.0
  0
POINT
  5
68BC
330
5A61
100
AcDbEntity
  8
DEFPOINTS
  6
Continuous
 62
     0
440
 16777216
100
AcDbPoint
 10
278.3144775593031
 20
43.0
 30
0.0
  0
POINT
  5
68BD
330
5A61
100
AcDbEntity
  8
DEFPOINTS
  6
Continuous
 62
     0
440
 16777216
100
AcDbPoint
 10
278.3144775593031
 20
27.59950840068014
 30
0.0
  0
ENDBLK
  5
5A6C
330
5A61
100
AcDbEntity
  8
0
100
AcDbBlockEnd
  0
BLOCK
  5
5A79
330
5A6D
100
AcDbEntity
  8
0
100
AcDbBlockBegin
  2
*D15
 70
     1
 10
0.0
 20
0.0
 30
0.0
  3
*D15
  1

  0
LINE
  5
68AA
330
5A6D
100
AcDbEntity
  8
30
  6
Continuous
 62
     0
440
 16777216
100
AcDbLine
 10
279.314477559303
 20
43.0
 30
0.0
 11
293.4012000520914
 21
43.0
 31
0.0
  0
LINE
  5
68AB
330
5A6D
100
AcDbEntity
  8
30
  6
Continuous
 62
     0
440
 16777216
100
AcDbLine
 10
273.314477575803
 20
51.49999999999997
 30
0.0
 11
293.4012000520914
 21
51.49999999999997
 31
0.0
  0
LINE
  5
68AC
330
5A6D
100
AcDbEntity
  8
30
  6
Continuous
 62
     0
440
 16777216
100
AcDbLine
 10
292.9012000520913
 20
45.0
 30
0.0
 11
292.9012000520913
 21
49.49999999999997
 31
0.0
  0
LINE
  5
68AD
330
5A6D
100
AcDbEntity
  8
30
  6
Continuous
 62
     0
440
 16777216
100
AcDbLine
 10
292.9012000520913
 20
51.49999999999997
 30
0.0
 11
292.9012000520913
 21
53.49999999999997
 31
0.0
  0
LINE
  5
68AE
330
5A6D
100
AcDbEntity
  8
30
  6
Continuous
 62
     0
440
 16777216
100
AcDbLine
 10
292.9012000520913
 20
53.49999999999997
 30
0.0
 11
301.9012000520914
 21
53.49999999999997
 31
0.0
  0
INSERT
  5
68AF
330
5A6D
100
AcDbEntity
  8
30
  6
Continuous
 62
     0
440
 16777216
100
AcDbBlockReference
  2
_OPEN
 10
292.9012000520913
 20
43.0
 30
0.0
 41
2.0
 42
2.0
 43
2.0
 50
270.0
  0
INSERT
  5
68B0
330
5A6D
100
AcDbEntity
  8
30
  6
Continuous
 62
     0
440
 16777216
100
AcDbBlockReference
  2
_OPEN
 10
292.9012000520913
 20
51.49999999999997
 30
0.0
 41
2.0
 42
2.0
 43
2.0
 50
90.0
  0
MTEXT
  5
68B1
330
5A6D
100
AcDbEntity
  8
30
  6
Continuous
 62
     0
440
 16777216
100
AcDbMText
 10
297.9012000520913
 20
56.50000000000002
 30
0.0
 40
4.0
 41
0.0
 46
0.0
 71
     5
 72
     1
  1
\A1;8.5
 73
     1
 44
1.0
1001
ACAD
1000
MTEXTBEGIN
1070
    73
1070
     1
1070
    44
1040
1.0
1070
    74
1070
     0
1000
MTEXTEND
  0
POINT
  5
68B2
330
5A6D
100
AcDbEntity
  8
DEFPOINTS
  6
Continuous
 62
     0
440
 16777216
100
AcDbPoint
 10
278.3144775593031
 20
43.0
 30
0.0
  0
POINT
  5
68B3
330
5A6D
100
AcDbEntity
  8
DEFPOINTS
  6
Continuous
 62
     0
440
 16777216
100
AcDbPoint
 10
272.3144775758031
 20
51.49999999999997
 30
0.0
  0
POINT
  5
68B4
330
5A6D
100
AcDbEntity
  8
DEFPOINTS
  6
Continuous
 62
     0
440
 16777216
100
AcDbPoint
 10
292.9012000520913
 20
51.49999999999997
 30
0.0
  0
ENDBLK
  5
5A7A
330
5A6D
100
AcDbEntity
  8
0
100
AcDbBlockEnd
  0
BLOCK
  5
5E86
330
5E7C
100
AcDbEntity
  8
0
100
AcDbBlockBegin
  2
*D16
 70
     1
 10
0.0
 20
0.0
 30
0.0
  3
*D16
  1

  0
LINE
  5
68A1
330
5E7C
100
AcDbEntity
  8
30
  6
Continuous
 62
     0
440
 16777216
100
AcDbLine
 10
-41.99999999999996
 20
25.99999999999996
 30
0.0
 11
-41.99999999999996
 21
33.09950840068013
 31
0.0
  0
LINE
  5
68A2
330
5E7C
100
AcDbEntity
  8
30
  6
Continuous
 62
     0
440
 16777216
100
AcDbLine
 10
42.00000000000001
 20
25.99999999999996
 30
0.0
 11
42.00000000000001
 21
33.09950840068013
 31
0.0
  0
LINE
  5
68A3
330
5E7C
100
AcDbEntity
  8
30
  6
Continuous
 62
     0
440
 16777216
100
AcDbLine
 10
-39.99999999999996
 20
32.59950840068013
 30
0.0
 11
40.0
 21
32.59950840068013
 31
0.0
  0
INSERT
  5
68A4
330
5E7C
100
AcDbEntity
  8
30
  6
Continuous
 62
     0
440
 16777216
100
AcDbBlockReference
  2
_OPEN
 10
-41.99999999999996
 20
32.59950840068013
 30
0.0
 41
2.0
 42
2.0
 43
2.0
 50
180.0
  0
INSERT
  5
68A5
330
5E7C
100
AcDbEntity
  8
30
  6
Continuous
 62
     0
440
 16777216
100
AcDbBlockReference
  2
_OPEN
 10
42.00000000000001
 20
32.59950840068013
 30
0.0
 41
2.0
 42
2.0
 43
2.0
  0
MTEXT
  5
68A6
330
5E7C
100
AcDbEntity
  8
30
  6
Continuous
 62
     0
440
 16777216
100
AcDbMText
 10
0.0000000000000215
 20
35.59950840068013
 30
0.0
 40
4.0
 41
0.0
 46
0.0
 71
     5
 72
     1
  1
\A1;84
 73
     1
 44
1.0
1001
ACAD
1000
MTEXTBEGIN
1070
    73
1070
     1
1070
    44
1040
1.0
1070
    74
1070
     0
1000
MTEXTEND
  0
POINT
  5
68A7
330
5E7C
100
AcDbEntity
  8
DEFPOINTS
  6
Continuous
 62
     0
440
 16777216
100
AcDbPoint
 10
-41.99999999999996
 20
24.99999999999996
 30
0.0
  0
POINT
  5
68A8
330
5E7C
100
AcDbEntity
  8
DEFPOINTS
  6
Continuous
 62
     0
440
 16777216
100
AcDbPoint
 10
42.00000000000001
 20
24.99999999999996
 30
0.0
  0
POINT
  5
68A9
330
5E7C
100
AcDbEntity
  8
DEFPOINTS
  6
Continuous
 62
     0
440
 16777216
100
AcDbPoint
 10
42.00000000000001
 20
32.59950840068013
 30
0.0
  0
ENDBLK
  5
5E87
330
5E7C
100
AcDbEntity
  8
0
100
AcDbBlockEnd
  0
BLOCK
  5
5E92
330
5E88
100
AcDbEntity
  8
0
100
AcDbBlockBegin
  2
*D17
 70
     1
 10
0.0
 20
0.0
 30
0.0
  3
*D17
  1

  0
LINE
  5
6898
330
5E88
100
AcDbEntity
  8
30
  6
Continuous
 62
     0
440
 16777216
100
AcDbLine
 10
-44.99999999999997
 20
-78.50000000000003
 30
0.0
 11
-44.99999999999997
 21
-122.2494181439514
 31
0.0
  0
LINE
  5
6899
330
5E88
100
AcDbEntity
  8
30
  6
Continuous
 62
     0
440
 16777216
100
AcDbLine
 10
45.0
 20
-78.50000000000003
 30
0.0
 11
45.0
 21
-122.2494181439514
 31
0.0
  0
LINE
  5
689A
330
5E88
100
AcDbEntity
  8
30
  6
Continuous
 62
     0
440
 16777216
100
AcDbLine
 10
-42.99999999999997
 20
-121.7494181439514
 30
0.0
 11
43.0
 21
-121.7494181439514
 31
0.0
  0
INSERT
  5
689B
330
5E88
100
AcDbEntity
  8
30
  6
Continuous
 62
     0
440
 16777216
100
AcDbBlockReference
  2
_OPEN
 10
-44.99999999999997
 20
-121.7494181439514
 30
0.0
 41
2.0
 42
2.0
 43
2.0
 50
180.0
  0
INSERT
  5
689C
330
5E88
100
AcDbEntity
  8
30
  6
Continuous
 62
     0
440
 16777216
100
AcDbBlockReference
  2
_OPEN
 10
45.0
 20
-121.7494181439514
 30
0.0
 41
2.0
 42
2.0
 43
2.0
  0
MTEXT
  5
689D
330
5E88
100
AcDbEntity
  8
30
  6
Continuous
 62
     0
440
 16777216
100
AcDbMText
 10
0.0000000000000144
 20
-118.7494181439514
 30
0.0
 40
4.0
 41
0.0
 46
0.0
 71
     5
 72
     1
  1
\A1;90
 73
     1
 44
1.0
1001
ACAD
1000
MTEXTBEGIN
1070
    73
1070
     1
1070
    44
1040
1.0
1070
    74
1070
     0
1000
MTEXTEND
  0
POINT
  5
689E
330
5E88
100
AcDbEntity
  8
DEFPOINTS
  6
Continuous
 62
     0
440
 16777216
100
AcDbPoint
 10
-44.99999999999997
 20
-77.50000000000003
 30
0.0
  0
POINT
  5
689F
330
5E88
100
AcDbEntity
  8
DEFPOINTS
  6
Continuous
 62
     0
440
 16777216
100
AcDbPoint
 10
45.0
 20
-77.50000000000003
 30
0.0
  0
POINT
  5
68A0
330
5E88
100
AcDbEntity
  8
DEFPOINTS
  6
Continuous
 62
     0
440
 16777216
100
AcDbPoint
 10
45.0
 20
-121.7494181439514
 30
0.0
  0
ENDBLK
  5
5E93
330
5E88
100
AcDbEntity
  8
0
100
AcDbBlockEnd
  0
BLOCK
  5
5E9E
330
5E94
100
AcDbEntity
  8
0
100
AcDbBlockBegin
  2
*D18
 70
     1
 10
0.0
 20
0.0
 30
0.0
  3
*D18
  1

  0
LINE
  5
688F
330
5E94
100
AcDbEntity
  8
30
  6
Continuous
 62
     0
440
 16777216
100
AcDbLine
 10
-29.99999999999995
 20
-70.50000001650004
 30
0.0
 11
-29.99999999999995
 21
-102.2494181439514
 31
0.0
  0
LINE
  5
6890
330
5E94
100
AcDbEntity
  8
30
  6
Continuous
 62
     0
440
 16777216
100
AcDbLine
 10
30.00000000000003
 20
-70.50000001650004
 30
0.0
 11
30.00000000000003
 21
-102.2494181439514
 31
0.0
  0
LINE
  5
6891
330
5E94
100
AcDbEntity
  8
30
  6
Continuous
 62
     0
440
 16777216
100
AcDbLine
 10
-27.99999999999994
 20
-101.7494181439513
 30
0.0
 11
28.00000000000002
 21
-101.7494181439513
 31
0.0
  0
INSERT
  5
6892
330
5E94
100
AcDbEntity
  8
30
  6
Continuous
 62
     0
440
 16777216
100
AcDbBlockReference
  2
_OPEN
 10
-29.99999999999995
 20
-101.7494181439513
 30
0.0
 41
2.0
 42
2.0
 43
2.0
 50
180.0
  0
INSERT
  5
6893
330
5E94
100
AcDbEntity
  8
30
  6
Continuous
 62
     0
440
 16777216
100
AcDbBlockReference
  2
_OPEN
 10
30.00000000000003
 20
-101.7494181439513
 30
0.0
 41
2.0
 42
2.0
 43
2.0
  0
MTEXT
  5
6894
330
5E94
100
AcDbEntity
  8
30
  6
Continuous
 62
     0
440
 16777216
100
AcDbMText
 10
0.000000000000041
 20
-98.7494181439515
 30
0.0
 40
4.0
 41
0.0
 46
0.0
 71
     5
 72
     1
  1
\A1;60
 73
     1
 44
1.0
1001
ACAD
1000
MTEXTBEGIN
1070
    73
1070
     1
1070
    44
1040
1.0
1070
    74
1070
     0
1000
MTEXTEND
  0
POINT
  5
6895
330
5E94
100
AcDbEntity
  8
DEFPOINTS
  6
Continuous
 62
     0
440
 16777216
100
AcDbPoint
 10
-29.99999999999995
 20
-69.50000001650003
 30
0.0
  0
POINT
  5
6896
330
5E94
100
AcDbEntity
  8
DEFPOINTS
  6
Continuous
 62
     0
440
 16777216
100
AcDbPoint
 10
30.00000000000003
 20
-69.50000001650003
 30
0.0
  0
POINT
  5
6897
330
5E94
100
AcDbEntity
  8
DEFPOINTS
  6
Continuous
 62
     0
440
 16777216
100
AcDbPoint
 10
30.00000000000003
 20
-101.7494181439513
 30
0.0
  0
ENDBLK
  5
5E9F
330
5E94
100
AcDbEntity
  8
0
100
AcDbBlockEnd
  0
BLOCK
  5
5EAA
330
5EA0
100
AcDbEntity
  8
0
100
AcDbBlockBegin
  2
*D19
 70
     1
 10
0.0
 20
0.0
 30
0.0
  3
*D19
  1

  0
LINE
  5
6886
330
5EA0
100
AcDbEntity
  8
30
  6
Continuous
 62
     0
440
 16777216
100
AcDbLine
 10
-10.99999999999999
 20
-26.0
 30
0.0
 11
-10.99999999999999
 21
-42.2494181439515
 31
0.0
  0
LINE
  5
6887
330
5EA0
100
AcDbEntity
  8
30
  6
Continuous
 62
     0
440
 16777216
100
AcDbLine
 10
11.00000000000002
 20
-26.0
 30
0.0
 11
11.00000000000002
 21
-42.2494181439515
 31
0.0
  0
LINE
  5
6888
330
5EA0
100
AcDbEntity
  8
30
  6
Continuous
 62
     0
440
 16777216
100
AcDbLine
 10
-8.999999999999991
 20
-41.74941814395149
 30
0.0
 11
9.000000000000046
 21
-41.74941814395149
 31
0.0
  0
INSERT
  5
6889
330
5EA0
100
AcDbEntity
  8
30
  6
Continuous
 62
     0
440
 16777216
100
AcDbBlockReference
  2
_OPEN
 10
-10.99999999999999
 20
-41.74941814395149
 30
0.0
 41
2.0
 42
2.0
 43
2.0
 50
180.0
  0
INSERT
  5
688A
330
5EA0
100
AcDbEntity
  8
30
  6
Continuous
 62
     0
440
 16777216
100
AcDbBlockReference
  2
_OPEN
 10
11.00000000000002
 20
-41.74941814395149
 30
0.0
 41
2.0
 42
2.0
 43
2.0
  0
MTEXT
  5
688B
330
5EA0
100
AcDbEntity
  8
30
  6
Continuous
 62
     0
440
 16777216
100
AcDbMText
 10
0.0000000000000277
 20
-38.7494181439515
 30
0.0
 40
4.0
 41
0.0
 46
0.0
 71
     5
 72
     1
  1
\A1;22
 73
     1
 44
1.0
1001
ACAD
1000
MTEXTBEGIN
1070
    73
1070
     1
1070
    44
1040
1.0
1070
    74
1070
     0
1000
MTEXTEND
  0
POINT
  5
688C
330
5EA0
100
AcDbEntity
  8
DEFPOINTS
  6
Continuous
 62
     0
440
 16777216
100
AcDbPoint
 10
-10.99999999999999
 20
-25.0
 30
0.0
  0
POINT
  5
688D
330
5EA0
100
AcDbEntity
  8
DEFPOINTS
  6
Continuous
 62
     0
440
 16777216
100
AcDbPoint
 10
11.00000000000002
 20
-25.0
 30
0.0
  0
POINT
  5
688E
330
5EA0
100
AcDbEntity
  8
DEFPOINTS
  6
Continuous
 62
     0
440
 16777216
100
AcDbPoint
 10
11.00000000000002
 20
-41.74941814395149
 30
0.0
  0
ENDBLK
  5
5EAB
330
5EA0
100
AcDbEntity
  8
0
100
AcDbBlockEnd
  0
BLOCK
  5
5F03
330
5EF9
100
AcDbEntity
  8
0
100
AcDbBlockBegin
  2
*D20
 70
     1
 10
0.0
 20
0.0
 30
0.0
  3
*D20
  1

  0
LINE
  5
6945
330
5EF9
100
AcDbEntity
  8
30
  6
Continuous
 62
     0
440
 16777216
100
AcDbLine
 10
-14.99999999999999
 20
-192.5000000165002
 30
0.0
 11
-15.0
 21
-357.2494181439513
 31
0.0
  0
LINE
  5
6946
330
5EF9
100
AcDbEntity
  8
30
  6
Continuous
 62
     0
440
 16777216
100
AcDbLine
 10
15.0
 20
-324.5000000165001
 30
0.0
 11
15.0
 21
-357.2494181439513
 31
0.0
  0
LINE
  5
6947
330
5EF9
100
AcDbEntity
  8
30
  6
Continuous
 62
     0
440
 16777216
100
AcDbLine
 10
-13.0
 20
-356.7494181439514
 30
0.0
 11
12.99999999999999
 21
-356.7494181439514
 31
0.0
  0
INSERT
  5
6948
330
5EF9
100
AcDbEntity
  8
30
  6
Continuous
 62
     0
440
 16777216
100
AcDbBlockReference
  2
_OPEN
 10
-15.0
 20
-356.7494181439514
 30
0.0
 41
2.0
 42
2.0
 43
2.0
 50
180.0
  0
INSERT
  5
6949
330
5EF9
100
AcDbEntity
  8
30
  6
Continuous
 62
     0
440
 16777216
100
AcDbBlockReference
  2
_OPEN
 10
15.0
 20
-356.7494181439514
 30
0.0
 41
2.0
 42
2.0
 43
2.0
  0
MTEXT
  5
694A
330
5EF9
100
AcDbEntity
  8
30
  6
Continuous
 62
     0
440
 16777216
100
AcDbMText
 10
-0.0000000000000016
 20
-353.7494181439513
 30
0.0
 40
4.0
 41
0.0
 46
0.0
 71
     5
 72
     1
  1
\A1;30
 73
     1
 44
1.0
1001
ACAD
1000
MTEXTBEGIN
1070
    73
1070
     1
1070
    44
1040
1.0
1070
    74
1070
     0
1000
MTEXTEND
  0
POINT
  5
694B
330
5EF9
100
AcDbEntity
  8
DEFPOINTS
  6
Continuous
 62
     0
440
 16777216
100
AcDbPoint
 10
-14.99999999999999
 20
-191.5000000165002
 30
0.0
  0
POINT
  5
694C
330
5EF9
100
AcDbEntity
  8
DEFPOINTS
  6
Continuous
 62
     0
440
 16777216
100
AcDbPoint
 10
15.0
 20
-323.5000000165001
 30
0.0
  0
POINT
  5
694D
330
5EF9
100
AcDbEntity
  8
DEFPOINTS
  6
Continuous
 62
     0
440
 16777216
100
AcDbPoint
 10
15.0
 20
-356.7494181439514
 30
0.0
  0
ENDBLK
  5
5F04
330
5EF9
100
AcDbEntity
  8
0
100
AcDbBlockEnd
  0
BLOCK
  5
5F38
330
5F2F
100
AcDbEntity
  8
0
100
AcDbBlockBegin
  2
*D21
 70
     1
 10
0.0
 20
0.0
 30
0.0
  3
*D21
  1

  0
LINE
  5
65B2
330
5F2F
100
AcDbEntity
  8
30
  6
Continuous
 62
     0
100
AcDbLine
 10
51.91960537553277
 20
-224.6187952184035
 30
0.0
 11
45.5862720421994
 21
-224.6187952184035
 31
0.0
  0
LINE
  5
65B3
330
5F2F
100
AcDbEntity
  8
30
  6
Continuous
 62
     0
100
AcDbLine
 10
45.5862720421994
 20
-224.6187952184035
 30
0.0
 11
43.99972541125129
 21
-225.8365266287836
 31
0.0
  0
MTEXT
  5
65B4
330
5F2F
100
AcDbEntity
  8
30
  6
Continuous
 62
     0
100
AcDbMText
 10
49.25293870886611
 20
-221.6187952184035
 30
0.0
 40
4.0
 41
0.0
 46
0.0
 71
     5
 72
     1
  1
\A1;R1
 73
     1
 44
1.0
1001
ACAD
1000
MTEXTBEGIN
1070
    73
1070
     1
1070
    44
1040
1.0
1070
    74
1070
     0
1000
MTEXTEND
  0
INSERT
  5
65B5
330
5F2F
100
AcDbEntity
  8
30
  6
Continuous
 62
     0
100
AcDbBlockReference
  2
_OPEN
 10
42.41317878030318
 20
-227.0542580391643
 30
0.0
 41
2.0
 42
2.0
 43
2.0
 50
217.5075311795294
  0
LINE
  5
65B6
330
5F2F
100
AcDbEntity
  8
30
  6
Continuous
 62
     0
100
AcDbLine
 10
41.52990546482917
 20
-227.6631237443545
 30
0.0
 11
41.70990546482918
 21
-227.6631237443547
 31
0.0
  0
LINE
  5
65B7
330
5F2F
100
AcDbEntity
  8
30
  6
Continuous
 62
     0
100
AcDbLine
 10
41.61990546482917
 20
-227.7531237443545
 30
0.0
 11
41.61990546482917
 21
-227.5731237443546
 31
0.0
  0
POINT
  5
65B8
330
5F2F
100
AcDbEntity
  8
DEFPOINTS
  6
Continuous
 62
     0
100
AcDbPoint
 10
42.41317878030318
 20
-227.0542580391643
 30
0.0
  0
POINT
  5
65B9
330
5F2F
100
AcDbEntity
  8
DEFPOINTS
  6
Continuous
 62
     0
100
AcDbPoint
 10
41.61990546482917
 20
-227.6631237443547
 30
0.0
  0
ENDBLK
  5
5F39
330
5F2F
100
AcDbEntity
  8
0
100
AcDbBlockEnd
  0
BLOCK
  5
5F76
330
5F6C
100
AcDbEntity
  8
0
100
AcDbBlockBegin
  2
*D22
 70
     1
 10
0.0
 20
0.0
 30
0.0
  3
*D22
  1

  0
LINE
  5
6874
330
5F6C
100
AcDbEntity
  8
30
  6
Continuous
 62
     0
100
AcDbLine
 10
-31.01790353517123
 20
217.1349134126129
 30
0.0
 11
-31.01790353517123
 21
257.4821974718418
 31
0.0
  0
LINE
  5
6875
330
5F6C
100
AcDbEntity
  8
30
  6
Continuous
 62
     0
100
AcDbLine
 10
-1.017903535171259
 20
217.1349134126129
 30
0.0
 11
-1.017903535171257
 21
257.4821974718418
 31
0.0
  0
LINE
  5
6876
330
5F6C
100
AcDbEntity
  8
30
  6
Continuous
 62
     0
100
AcDbLine
 10
-29.01790353517123
 20
256.9821974718418
 30
0.0
 11
-3.017903535171256
 21
256.9821974718418
 31
0.0
  0
INSERT
  5
6877
330
5F6C
100
AcDbEntity
  8
30
  6
Continuous
 62
     0
100
AcDbBlockReference
  2
_OPEN
 10
-31.01790353517123
 20
256.9821974718418
 30
0.0
 41
2.0
 42
2.0
 43
2.0
 50
180.0
  0
INSERT
  5
6878
330
5F6C
100
AcDbEntity
  8
30
  6
Continuous
 62
     0
100
AcDbBlockReference
  2
_OPEN
 10
-1.017903535171257
 20
256.9821974718418
 30
0.0
 41
2.0
 42
2.0
 43
2.0
  0
MTEXT
  5
6879
330
5F6C
100
AcDbEntity
  8
30
  6
Continuous
 62
     0
100
AcDbMText
 10
-16.01790353517124
 20
259.9821974718417
 30
0.0
 40
4.0
 41
0.0
 46
0.0
 71
     5
 72
     1
  1
\A1;30
 73
     1
 44
1.0
1001
ACAD
1000
MTEXTBEGIN
1070
    73
1070
     1
1070
    44
1040
1.0
1070
    74
1070
     0
1000
MTEXTEND
  0
POINT
  5
687A
330
5F6C
100
AcDbEntity
  8
DEFPOINTS
  6
Continuous
 62
     0
100
AcDbPoint
 10
-31.01790353517123
 20
216.1349134126129
 30
0.0
  0
POINT
  5
687B
330
5F6C
100
AcDbEntity
  8
DEFPOINTS
  6
Continuous
 62
     0
100
AcDbPoint
 10
-1.017903535171259
 20
216.1349134126129
 30
0.0
  0
POINT
  5
687C
330
5F6C
100
AcDbEntity
  8
DEFPOINTS
  6
Continuous
 62
     0
100
AcDbPoint
 10
-1.017903535171257
 20
256.9821974718418
 30
0.0
  0
ENDBLK
  5
5F77
330
5F6C
100
AcDbEntity
  8
0
100
AcDbBlockEnd
  0
BLOCK
  5
5F83
330
5F79
100
AcDbEntity
  8
0
100
AcDbBlockBegin
  2
*D23
 70
     1
 10
0.0
 20
0.0
 30
0.0
  3
*D23
  1

  0
LINE
  5
686B
330
5F79
100
AcDbEntity
  8
30
  6
Continuous
 62
     0
100
AcDbLine
 10
-1.017903535171259
 20
218.1349134126129
 30
0.0
 11
-1.017903535171257
 21
257.4821974718418
 31
0.0
  0
LINE
  5
686C
330
5F79
100
AcDbEntity
  8
30
  6
Continuous
 62
     0
100
AcDbLine
 10
28.98209646482873
 20
217.1349134126129
 30
0.0
 11
28.98209646482873
 21
257.4821974718418
 31
0.0
  0
LINE
  5
686D
330
5F79
100
AcDbEntity
  8
30
  6
Continuous
 62
     0
100
AcDbLine
 10
0.9820964648287423
 20
256.9821974718418
 30
0.0
 11
26.98209646482872
 21
256.9821974718418
 31
0.0
  0
INSERT
  5
686E
330
5F79
100
AcDbEntity
  8
30
  6
Continuous
 62
     0
100
AcDbBlockReference
  2
_OPEN
 10
-1.017903535171257
 20
256.9821974718418
 30
0.0
 41
2.0
 42
2.0
 43
2.0
 50
180.0
  0
INSERT
  5
686F
330
5F79
100
AcDbEntity
  8
30
  6
Continuous
 62
     0
100
AcDbBlockReference
  2
_OPEN
 10
28.98209646482873
 20
256.9821974718418
 30
0.0
 41
2.0
 42
2.0
 43
2.0
  0
MTEXT
  5
6870
330
5F79
100
AcDbEntity
  8
30
  6
Continuous
 62
     0
100
AcDbMText
 10
13.98209646482873
 20
259.9821974718417
 30
0.0
 40
4.0
 41
0.0
 46
0.0
 71
     5
 72
     1
  1
\A1;30
 73
     1
 44
1.0
1001
ACAD
1000
MTEXTBEGIN
1070
    73
1070
     1
1070
    44
1040
1.0
1070
    74
1070
     0
1000
MTEXTEND
  0
POINT
  5
6871
330
5F79
100
AcDbEntity
  8
DEFPOINTS
  6
Continuous
 62
     0
100
AcDbPoint
 10
-1.017903535171259
 20
217.1349134126129
 30
0.0
  0
POINT
  5
6872
330
5F79
100
AcDbEntity
  8
DEFPOINTS
  6
Continuous
 62
     0
100
AcDbPoint
 10
28.98209646482873
 20
216.1349134126129
 30
0.0
  0
POINT
  5
6873
330
5F79
100
AcDbEntity
  8
DEFPOINTS
  6
Continuous
 62
     0
100
AcDbPoint
 10
28.98209646482873
 20
256.9821974718418
 30
0.0
  0
ENDBLK
  5
5F84
330
5F79
100
AcDbEntity
  8
0
100
AcDbBlockEnd
  0
BLOCK
  5
6016
330
600C
100
AcDbEntity
  8
0
100
AcDbBlockBegin
  2
*D24
 70
     1
 10
0.0
 20
0.0
 30
0.0
  3
*D24
  1

  0
LINE
  5
6597
330
600C
100
AcDbEntity
  8
30
  6
Continuous
 62
     0
100
AcDbLine
 10
-43.38009453517117
 20
-278.6631237443549
 30
0.0
 11
-43.38009453517117
 21
-371.8804450066013
 31
0.0
  0
LINE
  5
6598
330
600C
100
AcDbEntity
  8
30
  6
Continuous
 62
     0
100
AcDbLine
 10
42.61990546482903
 20
-278.6631237443549
 30
0.0
 11
42.61990546482902
 21
-371.8804450066013
 31
0.0
  0
LINE
  5
6599
330
600C
100
AcDbEntity
  8
30
  6
Continuous
 62
     0
100
AcDbLine
 10
-41.3800945351712
 20
-371.3804450066013
 30
0.0
 11
40.61990546482902
 21
-371.3804450066013
 31
0.0
  0
INSERT
  5
659A
330
600C
100
AcDbEntity
  8
30
  6
Continuous
 62
     0
100
AcDbBlockReference
  2
_OPEN
 10
-43.38009453517117
 20
-371.3804450066013
 30
0.0
 41
2.0
 42
2.0
 43
2.0
 50
180.0
  0
INSERT
  5
659B
330
600C
100
AcDbEntity
  8
30
  6
Continuous
 62
     0
100
AcDbBlockReference
  2
_OPEN
 10
42.61990546482902
 20
-371.3804450066013
 30
0.0
 41
2.0
 42
2.0
 43
2.0
  0
MTEXT
  5
659C
330
600C
100
AcDbEntity
  8
30
  6
Continuous
 62
     0
100
AcDbMText
 10
-0.3800945351710856
 20
-368.3804450066014
 30
0.0
 40
4.0
 41
0.0
 46
0.0
 71
     5
 72
     1
  1
\A1;86
 73
     1
 44
1.0
1001
ACAD
1000
MTEXTBEGIN
1070
    73
1070
     1
1070
    44
1040
1.0
1070
    74
1070
     0
1000
MTEXTEND
  0
POINT
  5
659D
330
600C
100
AcDbEntity
  8
DEFPOINTS
  6
Continuous
 62
     0
100
AcDbPoint
 10
-43.38009453517117
 20
-277.6631237443548
 30
0.0
  0
POINT
  5
659E
330
600C
100
AcDbEntity
  8
DEFPOINTS
  6
Continuous
 62
     0
100
AcDbPoint
 10
42.61990546482903
 20
-277.6631237443548
 30
0.0
  0
POINT
  5
659F
330
600C
100
AcDbEntity
  8
DEFPOINTS
  6
Continuous
 62
     0
100
AcDbPoint
 10
42.61990546482902
 20
-371.3804450066013
 30
0.0
  0
ENDBLK
  5
6017
330
600C
100
AcDbEntity
  8
0
100
AcDbBlockEnd
  0
BLOCK
  5
60C7
330
60BD
100
AcDbEntity
  8
0
100
AcDbBlockBegin
  2
*D25
 70
     1
 10
0.0
 20
0.0
 30
0.0
  3
*D25
  1

  0
LINE
  5
658E
330
60BD
100
AcDbEntity
  8
30
  6
Continuous
 62
     0
100
AcDbLine
 10
42.61990546482879
 20
-226.6631237443549
 30
0.0
 11
76.13773581904563
 21
-226.6631237443549
 31
0.0
  0
LINE
  5
658F
330
60BD
100
AcDbEntity
  8
30
  6
Continuous
 62
     0
100
AcDbLine
 10
42.61990546482879
 20
-278.6631237443549
 30
0.0
 11
76.13773581904563
 21
-278.6631237443549
 31
0.0
  0
LINE
  5
6590
330
60BD
100
AcDbEntity
  8
30
  6
Continuous
 62
     0
100
AcDbLine
 10
75.63773581904563
 20
-228.6631237443549
 30
0.0
 11
75.63773581904563
 21
-276.6631237443549
 31
0.0
  0
INSERT
  5
6591
330
60BD
100
AcDbEntity
  8
30
  6
Continuous
 62
     0
100
AcDbBlockReference
  2
_OPEN
 10
75.63773581904563
 20
-226.6631237443549
 30
0.0
 41
2.0
 42
2.0
 43
2.0
 50
90.0
  0
INSERT
  5
6592
330
60BD
100
AcDbEntity
  8
30
  6
Continuous
 62
     0
100
AcDbBlockReference
  2
_OPEN
 10
75.63773581904563
 20
-278.6631237443549
 30
0.0
 41
2.0
 42
2.0
 43
2.0
 50
270.0
  0
MTEXT
  5
6593
330
60BD
100
AcDbEntity
  8
30
  6
Continuous
 62
     0
100
AcDbMText
 10
72.63773581904567
 20
-252.6631237443548
 30
0.0
 40
4.0
 41
0.0
 46
0.0
 71
     5
 72
     1
  1
\A1;52
 11
0.0000000000000001
 21
1.0
 31
0.0
 73
     1
 44
1.0
1001
ACAD
1000
MTEXTBEGIN
1070
    73
1070
     1
1070
    44
1040
1.0
1070
    74
1070
     0
1000
MTEXTEND
  0
POINT
  5
6594
330
60BD
100
AcDbEntity
  8
DEFPOINTS
  6
Continuous
 62
     0
100
AcDbPoint
 10
41.61990546482878
 20
-226.6631237443549
 30
0.0
  0
POINT
  5
6595
330
60BD
100
AcDbEntity
  8
DEFPOINTS
  6
Continuous
 62
     0
100
AcDbPoint
 10
41.61990546482878
 20
-278.6631237443549
 30
0.0
  0
POINT
  5
6596
330
60BD
100
AcDbEntity
  8
DEFPOINTS
  6
Continuous
 62
     0
100
AcDbPoint
 10
75.63773581904563
 20
-278.6631237443549
 30
0.0
  0
ENDBLK
  5
60C8
330
60BD
100
AcDbEntity
  8
0
100
AcDbBlockEnd
  0
BLOCK
  5
6162
330
6158
100
AcDbEntity
  8
0
100
AcDbBlockBegin
  2
*D26
 70
     1
 10
0.0
 20
0.0
 30
0.0
  3
*D26
  1

  0
LINE
  5
693C
330
6158
100
AcDbEntity
  8
30
  6
Continuous
 62
     0
440
 16777216
100
AcDbLine
 10
-8.499999999999998
 20
-189.0
 30
0.0
 11
88.41568416193036
 21
-189.0
 31
0.0
  0
LINE
  5
693D
330
6158
100
AcDbEntity
  8
30
  6
Continuous
 62
     0
440
 16777216
100
AcDbLine
 10
21.49999999999998
 20
-320.9999999999999
 30
0.0
 11
88.41568416193036
 21
-320.9999999999999
 31
0.0
  0
LINE
  5
693E
330
6158
100
AcDbEntity
  8
30
  6
Continuous
 62
     0
440
 16777216
100
AcDbLine
 10
87.91568416193035
 20
-191.0
 30
0.0
 11
87.91568416193033
 21
-318.9999999999999
 31
0.0
  0
INSERT
  5
693F
330
6158
100
AcDbEntity
  8
30
  6
Continuous
 62
     0
440
 16777216
100
AcDbBlockReference
  2
_OPEN
 10
87.91568416193035
 20
-189.0
 30
0.0
 41
2.0
 42
2.0
 43
2.0
 50
90.0
  0
INSERT
  5
6940
330
6158
100
AcDbEntity
  8
30
  6
Continuous
 62
     0
440
 16777216
100
AcDbBlockReference
  2
_OPEN
 10
87.91568416193033
 20
-320.9999999999999
 30
0.0
 41
2.0
 42
2.0
 43
2.0
 50
270.0
  0
MTEXT
  5
6941
330
6158
100
AcDbEntity
  8
30
  6
Continuous
 62
     0
440
 16777216
100
AcDbMText
 10
84.91568416193038
 20
-255.0
 30
0.0
 40
4.0
 41
0.0
 46
0.0
 71
     5
 72
     1
  1
\A1;132
 11
0.0000000000000001
 21
1.0
 31
0.0
 73
     1
 44
1.0
1001
ACAD
1000
MTEXTBEGIN
1070
    73
1070
     1
1070
    44
1040
1.0
1070
    74
1070
     0
1000
MTEXTEND
  0
POINT
  5
6942
330
6158
100
AcDbEntity
  8
DEFPOINTS
  6
Continuous
 62
     0
440
 16777216
100
AcDbPoint
 10
-9.499999999999998
 20
-189.0
 30
0.0
  0
POINT
  5
6943
330
6158
100
AcDbEntity
  8
DEFPOINTS
  6
Continuous
 62
     0
440
 16777216
100
AcDbPoint
 10
20.49999999999998
 20
-320.9999999999999
 30
0.0
  0
POINT
  5
6944
330
6158
100
AcDbEntity
  8
DEFPOINTS
  6
Continuous
 62
     0
440
 16777216
100
AcDbPoint
 10
87.91568416193033
 20
-320.9999999999999
 30
0.0
  0
ENDBLK
  5
6163
330
6158
100
AcDbEntity
  8
0
100
AcDbBlockEnd
  0
BLOCK
  5
61AA
330
61A0
100
AcDbEntity
  8
0
100
AcDbBlockBegin
  2
*D27
 70
     1
 10
0.0
 20
0.0
 30
0.0
  3
*D27
  1

  0
LINE
  5
6859
330
61A0
100
AcDbEntity
  8
30
  6
Continuous
 62
     0
440
 16777216
100
AcDbLine
 10
-17.5
 20
124.4999999999996
 30
0.0
 11
-68.68995837047084
 21
124.4999999999996
 31
0.0
  0
LINE
  5
685A
330
61A0
100
AcDbEntity
  8
30
  6
Continuous
 62
     0
440
 16777216
100
AcDbLine
 10
-45.99999999999996
 20
77.49999999999997
 30
0.0
 11
-68.68995837047086
 21
77.49999999999997
 31
0.0
  0
LINE
  5
685B
330
61A0
100
AcDbEntity
  8
30
  6
Continuous
 62
     0
440
 16777216
100
AcDbLine
 10
-68.18995837047085
 20
122.4999999999996
 30
0.0
 11
-68.18995837047086
 21
79.49999999999997
 31
0.0
  0
INSERT
  5
685C
330
61A0
100
AcDbEntity
  8
30
  6
Continuous
 62
     0
440
 16777216
100
AcDbBlockReference
  2
_OPEN
 10
-68.18995837047085
 20
124.4999999999996
 30
0.0
 41
2.0
 42
2.0
 43
2.0
 50
90.0
  0
INSERT
  5
685D
330
61A0
100
AcDbEntity
  8
30
  6
Continuous
 62
     0
440
 16777216
100
AcDbBlockReference
  2
_OPEN
 10
-68.18995837047086
 20
77.49999999999997
 30
0.0
 41
2.0
 42
2.0
 43
2.0
 50
270.0
  0
MTEXT
  5
685E
330
61A0
100
AcDbEntity
  8
30
  6
Continuous
 62
     0
440
 16777216
100
AcDbMText
 10
-71.18995837047087
 20
100.9999999999997
 30
0.0
 40
4.0
 41
0.0
 46
0.0
 71
     5
 72
     1
  1
\A1;47
 11
0.0000000000000001
 21
1.0
 31
0.0
 73
     1
 44
1.0
1001
ACAD
1000
MTEXTBEGIN
1070
    73
1070
     1
1070
    44
1040
1.0
1070
    74
1070
     0
1000
MTEXTEND
  0
POINT
  5
685F
330
61A0
100
AcDbEntity
  8
DEFPOINTS
  6
Continuous
 62
     0
440
 16777216
100
AcDbPoint
 10
-16.5
 20
124.4999999999996
 30
0.0
  0
POINT
  5
6860
330
61A0
100
AcDbEntity
  8
DEFPOINTS
  6
Continuous
 62
     0
440
 16777216
100
AcDbPoint
 10
-44.99999999999997
 20
77.49999999999997
 30
0.0
  0
POINT
  5
6861
330
61A0
100
AcDbEntity
  8
DEFPOINTS
  6
Continuous
 62
     0
440
 16777216
100
AcDbPoint
 10
-68.18995837047086
 20
77.49999999999997
 30
0.0
  0
ENDBLK
  5
61AB
330
61A0
100
AcDbEntity
  8
0
100
AcDbBlockEnd
  0
BLOCK
  5
61B7
330
61AD
100
AcDbEntity
  8
0
100
AcDbBlockBegin
  2
*D28
 70
     1
 10
0.0
 20
0.0
 30
0.0
  3
*D28
  1

  0
LINE
  5
6A2B
330
61AD
100
AcDbEntity
  8
30
  6
Continuous
 62
     0
440
 16777216
100
AcDbLine
 10
-45.99999999999996
 20
77.49999999999997
 30
0.0
 11
-68.68995837047086
 21
77.49999999999997
 31
0.0
  0
LINE
  5
6A2C
330
61AD
100
AcDbEntity
  8
30
  6
Continuous
 62
     0
440
 16777216
100
AcDbLine
 10
-45.99999999999996
 20
-77.50000000000003
 30
0.0
 11
-68.68995837047089
 21
-77.50000000000003
 31
0.0
  0
LINE
  5
6A2D
330
61AD
100
AcDbEntity
  8
30
  6
Continuous
 62
     0
440
 16777216
100
AcDbLine
 10
-68.18995837047086
 20
75.49999999999997
 30
0.0
 11
-68.18995837047089
 21
-75.50000000000003
 31
0.0
  0
INSERT
  5
6A2E
330
61AD
100
AcDbEntity
  8
30
  6
Continuous
 62
     0
440
 16777216
100
AcDbBlockReference
  2
_OPEN
 10
-68.18995837047086
 20
77.49999999999997
 30
0.0
 41
2.0
 42
2.0
 43
2.0
 50
90.0
  0
INSERT
  5
6A2F
330
61AD
100
AcDbEntity
  8
30
  6
Continuous
 62
     0
440
 16777216
100
AcDbBlockReference
  2
_OPEN
 10
-68.18995837047089
 20
-77.50000000000003
 30
0.0
 41
2.0
 42
2.0
 43
2.0
 50
270.0
  0
MTEXT
  5
6A30
330
61AD
100
AcDbEntity
  8
30
  6
Continuous
 62
     0
440
 16777216
100
AcDbMText
 10
-71.18995837047087
 20
-0.0000000000000381
 30
0.0
 40
4.0
 41
0.0
 46
0.0
 71
     5
 72
     1
  1
\A1;155
 11
0.0000000000000001
 21
1.0
 31
0.0
 73
     1
 44
1.0
1001
ACAD
1000
MTEXTBEGIN
1070
    73
1070
     1
1070
    44
1040
1.0
1070
    74
1070
     0
1000
MTEXTEND
  0
POINT
  5
6A31
330
61AD
100
AcDbEntity
  8
DEFPOINTS
  6
Continuous
 62
     0
440
 16777216
100
AcDbPoint
 10
-44.99999999999997
 20
77.49999999999997
 30
0.0
  0
POINT
  5
6A32
330
61AD
100
AcDbEntity
  8
DEFPOINTS
  6
Continuous
 62
     0
440
 16777216
100
AcDbPoint
 10
-44.99999999999997
 20
-77.50000000000003
 30
0.0
  0
POINT
  5
6A33
330
61AD
100
AcDbEntity
  8
DEFPOINTS
  6
Continuous
 62
     0
440
 16777216
100
AcDbPoint
 10
-68.18995837047089
 20
-77.50000000000003
 30
0.0
  0
ENDBLK
  5
61B8
330
61AD
100
AcDbEntity
  8
0
100
AcDbBlockEnd
  0
BLOCK
  5
66AC
330
66A2
100
AcDbEntity
  8
0
100
AcDbBlockBegin
  2
*D29
 70
     1
 10
0.0
 20
0.0
 30
0.0
  3
*D29
  1

  0
LINE
  5
6847
330
66A2
100
AcDbEntity
  8
30
  6
Continuous
 62
     0
440
 16777216
100
AcDbLine
 10
221.8144775593031
 20
-78.50000000000003
 30
0.0
 11
221.8144775593031
 21
-90.41608514395143
 31
0.0
  0
LINE
  5
6848
330
66A2
100
AcDbEntity
  8
30
  6
Continuous
 62
     0
440
 16777216
100
AcDbLine
 10
229.8144775593029
 20
-69.25000000000001
 30
0.0
 11
229.8144775593029
 21
-90.41608514395143
 31
0.0
  0
LINE
  5
6849
330
66A2
100
AcDbEntity
  8
30
  6
Continuous
 62
     0
440
 16777216
100
AcDbLine
 10
223.8144775593031
 20
-89.91608514395144
 30
0.0
 11
227.814477559303
 21
-89.91608514395144
 31
0.0
  0
INSERT
  5
684A
330
66A2
100
AcDbEntity
  8
30
  6
Continuous
 62
     0
440
 16777216
100
AcDbBlockReference
  2
_OPEN
 10
221.8144775593031
 20
-89.91608514395144
 30
0.0
 41
2.0
 42
2.0
 43
2.0
 50
180.0
  0
INSERT
  5
684B
330
66A2
100
AcDbEntity
  8
30
  6
Continuous
 62
     0
440
 16777216
100
AcDbBlockReference
  2
_OPEN
 10
229.8144775593029
 20
-89.91608514395144
 30
0.0
 41
2.0
 42
2.0
 43
2.0
  0
MTEXT
  5
684C
330
66A2
100
AcDbEntity
  8
30
  6
Continuous
 62
     0
440
 16777216
100
AcDbMText
 10
225.814477559303
 20
-86.91608514395143
 30
0.0
 40
4.0
 41
0.0
 46
0.0
 71
     5
 72
     1
  1
\A1;8
 73
     1
 44
1.0
1001
ACAD
1000
MTEXTBEGIN
1070
    73
1070
     1
1070
    44
1040
1.0
1070
    74
1070
     0
1000
MTEXTEND
  0
POINT
  5
684D
330
66A2
100
AcDbEntity
  8
DEFPOINTS
  6
Continuous
 62
     0
440
 16777216
100
AcDbPoint
 10
221.8144775593031
 20
-77.50000000000003
 30
0.0
  0
POINT
  5
684E
330
66A2
100
AcDbEntity
  8
DEFPOINTS
  6
Continuous
 62
     0
440
 16777216
100
AcDbPoint
 10
229.8144775593029
 20
-68.25000000000001
 30
0.0
  0
POINT
  5
684F
330
66A2
100
AcDbEntity
  8
DEFPOINTS
  6
Continuous
 62
     0
440
 16777216
100
AcDbPoint
 10
229.8144775593029
 20
-89.91608514395144
 30
0.0
  0
ENDBLK
  5
66AD
330
66A2
100
AcDbEntity
  8
0
100
AcDbBlockEnd
  0
BLOCK
  5
678C
330
6782
100
AcDbEntity
  8
0
100
AcDbBlockBegin
  2
*D30
 70
     1
 10
0.0
 20
0.0
 30
0.0
  3
*D30
  1

  0
LINE
  5
67BD
330
6782
100
AcDbEntity
  8
30
  6
Continuous
 62
     0
100
AcDbLine
 10
165.0
 20
-190.8833992259861
 30
0.0
 11
165.0
 21
-355.6328173534375
 31
0.0
  0
LINE
  5
67BE
330
6782
100
AcDbEntity
  8
30
  6
Continuous
 62
     0
100
AcDbLine
 10
195.0
 20
-322.883399225986
 30
0.0
 11
195.0
 21
-355.6328173534375
 31
0.0
  0
LINE
  5
67BF
330
6782
100
AcDbEntity
  8
30
  6
Continuous
 62
     0
100
AcDbLine
 10
167.0
 20
-355.1328173534374
 30
0.0
 11
193.0
 21
-355.1328173534374
 31
0.0
  0
INSERT
  5
67C0
330
6782
100
AcDbEntity
  8
30
  6
Continuous
 62
     0
100
AcDbBlockReference
  2
_OPEN
 10
165.0
 20
-355.1328173534374
 30
0.0
 41
2.0
 42
2.0
 43
2.0
 50
180.0
  0
INSERT
  5
67C1
330
6782
100
AcDbEntity
  8
30
  6
Continuous
 62
     0
100
AcDbBlockReference
  2
_OPEN
 10
195.0
 20
-355.1328173534374
 30
0.0
 41
2.0
 42
2.0
 43
2.0
  0
MTEXT
  5
67C2
330
6782
100
AcDbEntity
  8
30
  6
Continuous
 62
     0
100
AcDbMText
 10
180.0
 20
-352.1328173534373
 30
0.0
 40
4.0
 41
0.0
 46
0.0
 71
     5
 72
     1
  1
\A1;30
 73
     1
 44
1.0
1001
ACAD
1000
MTEXTBEGIN
1070
    73
1070
     1
1070
    44
1040
1.0
1070
    74
1070
     0
1000
MTEXTEND
  0
POINT
  5
67C3
330
6782
100
AcDbEntity
  8
DEFPOINTS
  6
Continuous
 62
     0
100
AcDbPoint
 10
165.0
 20
-189.8833992259856
 30
0.0
  0
POINT
  5
67C4
330
6782
100
AcDbEntity
  8
DEFPOINTS
  6
Continuous
 62
     0
100
AcDbPoint
 10
195.0
 20
-321.883399225986
 30
0.0
  0
POINT
  5
67C5
330
6782
100
AcDbEntity
  8
DEFPOINTS
  6
Continuous
 62
     0
100
AcDbPoint
 10
195.0
 20
-355.1328173534374
 30
0.0
  0
ENDBLK
  5
678D
330
6782
100
AcDbEntity
  8
0
100
AcDbBlockEnd
  0
BLOCK
  5
6798
330
678E
100
AcDbEntity
  8
0
100
AcDbBlockBegin
  2
*D31
 70
     1
 10
0.0
 20
0.0
 30
0.0
  3
*D31
  1

  0
LINE
  5
67C6
330
678E
100
AcDbEntity
  8
30
  6
Continuous
 62
     0
100
AcDbLine
 10
137.0
 20
-279.3833992094858
 30
0.0
 11
137.0
 21
-372.6007204717323
 31
0.0
  0
LINE
  5
67C7
330
678E
100
AcDbEntity
  8
30
  6
Continuous
 62
     0
100
AcDbLine
 10
223.0000000000002
 20
-279.3833992094858
 30
0.0
 11
223.0000000000002
 21
-372.6007204717323
 31
0.0
  0
LINE
  5
67C8
330
678E
100
AcDbEntity
  8
30
  6
Continuous
 62
     0
100
AcDbLine
 10
139.0
 20
-372.1007204717323
 30
0.0
 11
221.0000000000002
 21
-372.1007204717323
 31
0.0
  0
INSERT
  5
67C9
330
678E
100
AcDbEntity
  8
30
  6
Continuous
 62
     0
100
AcDbBlockReference
  2
_OPEN
 10
137.0
 20
-372.1007204717323
 30
0.0
 41
2.0
 42
2.0
 43
2.0
 50
180.0
  0
INSERT
  5
67CA
330
678E
100
AcDbEntity
  8
30
  6
Continuous
 62
     0
100
AcDbBlockReference
  2
_OPEN
 10
223.0000000000002
 20
-372.1007204717323
 30
0.0
 41
2.0
 42
2.0
 43
2.0
  0
MTEXT
  5
67CB
330
678E
100
AcDbEntity
  8
30
  6
Continuous
 62
     0
100
AcDbMText
 10
180.0
 20
-369.1007204717323
 30
0.0
 40
4.0
 41
0.0
 46
0.0
 71
     5
 72
     1
  1
\A1;86
 73
     1
 44
1.0
1001
ACAD
1000
MTEXTBEGIN
1070
    73
1070
     1
1070
    44
1040
1.0
1070
    74
1070
     0
1000
MTEXTEND
  0
POINT
  5
67CC
330
678E
100
AcDbEntity
  8
DEFPOINTS
  6
Continuous
 62
     0
100
AcDbPoint
 10
137.0
 20
-278.3833992094859
 30
0.0
  0
POINT
  5
67CD
330
678E
100
AcDbEntity
  8
DEFPOINTS
  6
Continuous
 62
     0
100
AcDbPoint
 10
223.0000000000002
 20
-278.3833992094859
 30
0.0
  0
POINT
  5
67CE
330
678E
100
AcDbEntity
  8
DEFPOINTS
  6
Continuous
 62
     0
100
AcDbPoint
 10
223.0000000000002
 20
-372.1007204717323
 30
0.0
  0
ENDBLK
  5
6799
330
678E
100
AcDbEntity
  8
0
100
AcDbBlockEnd
  0
BLOCK
  5
67A3
330
679A
100
AcDbEntity
  8
0
100
AcDbBlockBegin
  2
*D32
 70
     1
 10
0.0
 20
0.0
 30
0.0
  3
*D32
  1

  0
LINE
  5
6957
330
679A
100
AcDbEntity
  8
30
  6
Continuous
 62
     0
440
 16777216
100
AcDbLine
 10
232.299699910704
 20
-226.9556714740486
 30
0.0
 11
225.9663665773707
 21
-226.9556714740486
 31
0.0
  0
LINE
  5
6958
330
679A
100
AcDbEntity
  8
30
  6
Continuous
 62
     0
440
 16777216
100
AcDbLine
 10
225.9663665773707
 20
-226.9556714740486
 30
0.0
 11
224.3798199464225
 21
-228.173402884429
 31
0.0
  0
MTEXT
  5
6959
330
679A
100
AcDbEntity
  8
30
  6
Continuous
 62
     0
440
 16777216
100
AcDbMText
 10
229.6330332440374
 20
-223.9556714740487
 30
0.0
 40
4.0
 41
0.0
 46
0.0
 71
     5
 72
     1
  1
\A1;R1
 73
     1
 44
1.0
1001
ACAD
1000
MTEXTBEGIN
1070
    73
1070
     1
1070
    44
1040
1.0
1070
    74
1070
     0
1000
MTEXTEND
  0
INSERT
  5
695A
330
679A
100
AcDbEntity
  8
30
  6
Continuous
 62
     0
440
 16777216
100
AcDbBlockReference
  2
_OPEN
 10
222.7932733154744
 20
-229.3911342948093
 30
0.0
 41
2.0
 42
2.0
 43
2.0
 50
217.5075311795259
  0
LINE
  5
695B
330
679A
100
AcDbEntity
  8
30
  6
Continuous
 62
     0
440
 16777216
100
AcDbLine
 10
221.91
 20
-229.9999999999995
 30
0.0
 11
222.0900000000002
 21
-229.9999999999995
 31
0.0
  0
LINE
  5
695C
330
679A
100
AcDbEntity
  8
30
  6
Continuous
 62
     0
440
 16777216
100
AcDbLine
 10
222.0000000000001
 20
-230.0899999999995
 30
0.0
 11
222.0000000000001
 21
-229.9099999999995
 31
0.0
  0
POINT
  5
695D
330
679A
100
AcDbEntity
  8
DEFPOINTS
  6
Continuous
 62
     0
440
 16777216
100
AcDbPoint
 10
222.7932733154744
 20
-229.3911342948093
 30
0.0
  0
POINT
  5
695E
330
679A
100
AcDbEntity
  8
DEFPOINTS
  6
Continuous
 62
     0
440
 16777216
100
AcDbPoint
 10
222.0000000000001
 20
-229.9999999999995
 30
0.0
  0
ENDBLK
  5
67A4
330
679A
100
AcDbEntity
  8
0
100
AcDbBlockEnd
  0
BLOCK
  5
67AF
330
67A5
100
AcDbEntity
  8
0
100
AcDbBlockBegin
  2
*D33
 70
     1
 10
0.0
 20
0.0
 30
0.0
  3
*D33
  1

  0
LINE
  5
694E
330
67A5
100
AcDbEntity
  8
30
  6
Continuous
 62
     0
440
 16777216
100
AcDbLine
 10
223.0
 20
-228.9999999999998
 30
0.0
 11
256.5178303542168
 21
-228.9999999999998
 31
0.0
  0
LINE
  5
694F
330
67A5
100
AcDbEntity
  8
30
  6
Continuous
 62
     0
440
 16777216
100
AcDbLine
 10
223.0
 20
-280.9999999999998
 30
0.0
 11
256.5178303542168
 21
-280.9999999999998
 31
0.0
  0
LINE
  5
6950
330
67A5
100
AcDbEntity
  8
30
  6
Continuous
 62
     0
440
 16777216
100
AcDbLine
 10
256.0178303542168
 20
-230.9999999999998
 30
0.0
 11
256.0178303542168
 21
-278.9999999999998
 31
0.0
  0
INSERT
  5
6951
330
67A5
100
AcDbEntity
  8
30
  6
Continuous
 62
     0
440
 16777216
100
AcDbBlockReference
  2
_OPEN
 10
256.0178303542168
 20
-228.9999999999998
 30
0.0
 41
2.0
 42
2.0
 43
2.0
 50
90.0
  0
INSERT
  5
6952
330
67A5
100
AcDbEntity
  8
30
  6
Continuous
 62
     0
440
 16777216
100
AcDbBlockReference
  2
_OPEN
 10
256.0178303542168
 20
-280.9999999999998
 30
0.0
 41
2.0
 42
2.0
 43
2.0
 50
270.0
  0
MTEXT
  5
6953
330
67A5
100
AcDbEntity
  8
30
  6
Continuous
 62
     0
440
 16777216
100
AcDbMText
 10
253.0178303542168
 20
-254.9999999999998
 30
0.0
 40
4.0
 41
0.0
 46
0.0
 71
     5
 72
     1
  1
\A1;52
 11
0.0000000000000001
 21
1.0
 31
0.0
 73
     1
 44
1.0
1001
ACAD
1000
MTEXTBEGIN
1070
    73
1070
     1
1070
    44
1040
1.0
1070
    74
1070
     0
1000
MTEXTEND
  0
POINT
  5
6954
330
67A5
100
AcDbEntity
  8
DEFPOINTS
  6
Continuous
 62
     0
440
 16777216
100
AcDbPoint
 10
222.0
 20
-228.9999999999998
 30
0.0
  0
POINT
  5
6955
330
67A5
100
AcDbEntity
  8
DEFPOINTS
  6
Continuous
 62
     0
440
 16777216
100
AcDbPoint
 10
222.0
 20
-280.9999999999998
 30
0.0
  0
POINT
  5
6956
330
67A5
100
AcDbEntity
  8
DEFPOINTS
  6
Continuous
 62
     0
440
 16777216
100
AcDbPoint
 10
256.0178303542168
 20
-280.9999999999998
 30
0.0
  0
ENDBLK
  5
67B0
330
67A5
100
AcDbEntity
  8
0
100
AcDbBlockEnd
  0
BLOCK
  5
67BB
330
67B1
100
AcDbEntity
  8
0
100
AcDbBlockBegin
  2
*D34
 70
     1
 10
0.0
 20
0.0
 30
0.0
  3
*D34
  1

  0
LINE
  5
67E0
330
67B1
100
AcDbEntity
  8
30
  6
Continuous
 62
     0
100
AcDbLine
 10
171.5
 20
-187.383399209486
 30
0.0
 11
268.4156841619302
 21
-187.383399209486
 31
0.0
  0
LINE
  5
67E1
330
67B1
100
AcDbEntity
  8
30
  6
Continuous
 62
     0
100
AcDbLine
 10
201.5
 20
-319.3833992094859
 30
0.0
 11
268.4156841619302
 21
-319.3833992094859
 31
0.0
  0
LINE
  5
67E2
330
67B1
100
AcDbEntity
  8
30
  6
Continuous
 62
     0
100
AcDbLine
 10
267.9156841619303
 20
-189.383399209486
 30
0.0
 11
267.9156841619303
 21
-317.3833992094859
 31
0.0
  0
INSERT
  5
67E3
330
67B1
100
AcDbEntity
  8
30
  6
Continuous
 62
     0
100
AcDbBlockReference
  2
_OPEN
 10
267.9156841619303
 20
-187.383399209486
 30
0.0
 41
2.0
 42
2.0
 43
2.0
 50
90.0
  0
INSERT
  5
67E4
330
67B1
100
AcDbEntity
  8
30
  6
Continuous
 62
     0
100
AcDbBlockReference
  2
_OPEN
 10
267.9156841619303
 20
-319.3833992094859
 30
0.0
 41
2.0
 42
2.0
 43
2.0
 50
270.0
  0
MTEXT
  5
67E5
330
67B1
100
AcDbEntity
  8
30
  6
Continuous
 62
     0
100
AcDbMText
 10
264.9156841619304
 20
-253.383399209486
 30
0.0
 40
4.0
 41
0.0
 46
0.0
 71
     5
 72
     1
  1
\A1;132
 11
0.0000000000000001
 21
1.0
 31
0.0
 73
     1
 44
1.0
1001
ACAD
1000
MTEXTBEGIN
1070
    73
1070
     1
1070
    44
1040
1.0
1070
    74
1070
     0
1000
MTEXTEND
  0
POINT
  5
67E6
330
67B1
100
AcDbEntity
  8
DEFPOINTS
  6
Continuous
 62
     0
100
AcDbPoint
 10
170.5
 20
-187.383399209486
 30
0.0
  0
POINT
  5
67E7
330
67B1
100
AcDbEntity
  8
DEFPOINTS
  6
Continuous
 62
     0
100
AcDbPoint
 10
200.4999999999999
 20
-319.3833992094859
 30
0.0
  0
POINT
  5
67E8
330
67B1
100
AcDbEntity
  8
DEFPOINTS
  6
Continuous
 62
     0
100
AcDbPoint
 10
267.9156841619303
 20
-319.3833992094859
 30
0.0
  0
ENDBLK
  5
67BC
330
67B1
100
AcDbEntity
  8
0
100
AcDbBlockEnd
  0
BLOCK
  5
67F4
330
67EA
100
AcDbEntity
  8
0
100
AcDbBlockBegin
  2
*D35
 70
     1
 10
0.0
 20
0.0
 30
0.0
  3
*D35
  1

  0
LINE
  5
6933
330
67EA
100
AcDbEntity
  8
30
  6
Continuous
 62
     0
440
 16777216
100
AcDbLine
 10
137.0
 20
-256.0
 30
0.0
 11
137.0
 21
-369.116600790514
 31
0.0
  0
LINE
  5
6934
330
67EA
100
AcDbEntity
  8
30
  6
Continuous
 62
     0
440
 16777216
100
AcDbLine
 10
223.0000000000002
 20
-255.9999999999998
 30
0.0
 11
223.0000000000002
 21
-369.116600790514
 31
0.0
  0
LINE
  5
6935
330
67EA
100
AcDbEntity
  8
30
  6
Continuous
 62
     0
440
 16777216
100
AcDbLine
 10
139.0
 20
-368.6166007905138
 30
0.0
 11
221.0000000000002
 21
-368.6166007905138
 31
0.0
  0
INSERT
  5
6936
330
67EA
100
AcDbEntity
  8
30
  6
Continuous
 62
     0
440
 16777216
100
AcDbBlockReference
  2
_OPEN
 10
137.0
 20
-368.6166007905138
 30
0.0
 41
2.0
 42
2.0
 43
2.0
 50
180.0
  0
INSERT
  5
6937
330
67EA
100
AcDbEntity
  8
30
  6
Continuous
 62
     0
440
 16777216
100
AcDbBlockReference
  2
_OPEN
 10
223.0000000000002
 20
-368.6166007905138
 30
0.0
 41
2.0
 42
2.0
 43
2.0
  0
MTEXT
  5
6938
330
67EA
100
AcDbEntity
  8
30
  6
Continuous
 62
     0
440
 16777216
100
AcDbMText
 10
180.0
 20
-365.6166007905138
 30
0.0
 40
4.0
 41
0.0
 46
0.0
 71
     5
 72
     1
  1
\A1;86
 73
     1
 44
1.0
1001
ACAD
1000
MTEXTBEGIN
1070
    73
1070
     1
1070
    44
1040
1.0
1070
    74
1070
     0
1000
MTEXTEND
  0
POINT
  5
6939
330
67EA
100
AcDbEntity
  8
DEFPOINTS
  6
Continuous
 62
     0
440
 16777216
100
AcDbPoint
 10
137.0
 20
-255.0
 30
0.0
  0
POINT
  5
693A
330
67EA
100
AcDbEntity
  8
DEFPOINTS
  6
Continuous
 62
     0
440
 16777216
100
AcDbPoint
 10
223.0000000000002
 20
-254.9999999999998
 30
0.0
  0
POINT
  5
693B
330
67EA
100
AcDbEntity
  8
DEFPOINTS
  6
Continuous
 62
     0
440
 16777216
100
AcDbPoint
 10
223.0000000000002
 20
-368.6166007905138
 30
0.0
  0
ENDBLK
  5
67F5
330
67EA
100
AcDbEntity
  8
0
100
AcDbBlockEnd
  0
BLOCK
  5
6B57
330
6B56
100
AcDbEntity
  8
0
100
AcDbBlockBegin
  2
*D36
 70
     1
 10
0.0
 20
0.0
 30
0.0
  3
*D36
  1

  0
LINE
  5
6B59
330
6B56
100
AcDbEntity
  8
30
  6
Continuous
 62
     0
370
    -2
100
AcDbLine
 10
-45.99999999999996
 20
235.1349134126127
 30
0.0
 11
-66.49999999999998
 21
235.1349134126127
 31
0.0
  0
LINE
  5
6B5A
330
6B56
100
AcDbEntity
  8
30
  6
Continuous
 62
     0
370
    -2
100
AcDbLine
 10
-45.99999999999985
 20
174.1349134126129
 30
0.0
 11
-66.5
 21
174.1349134126129
 31
0.0
  0
LINE
  5
6B5B
330
6B56
100
AcDbEntity
  8
30
  6
Continuous
 62
     0
370
    -2
100
AcDbLine
 10
-65.99999999999998
 20
233.1349134126127
 30
0.0
 11
-66.0
 21
176.1349134126129
 31
0.0
  0
INSERT
  5
6B5C
330
6B56
100
AcDbEntity
  8
30
  6
Continuous
 62
     0
370
    -2
100
AcDbBlockReference
  2
_OPEN
 10
-65.99999999999998
 20
235.1349134126127
 30
0.0
 41
2.0
 42
2.0
 43
2.0
 50
90.0
  0
INSERT
  5
6B5D
330
6B56
100
AcDbEntity
  8
30
  6
Continuous
 62
     0
370
    -2
100
AcDbBlockReference
  2
_OPEN
 10
-66.0
 20
174.1349134126129
 30
0.0
 41
2.0
 42
2.0
 43
2.0
 50
270.0
  0
MTEXT
  5
6B5E
330
6B56
100
AcDbEntity
  8
30
  6
Continuous
 62
     0
100
AcDbMText
 10
-69.00000000000003
 20
204.6349134126128
 30
0.0
 40
4.0
 41
0.0
 46
0.0
 71
     5
 72
     1
  1
\A1;61
 11
0.0000000000000001
 21
1.0
 31
0.0
 73
     1
 44
1.0
1001
ACAD
1000
MTEXTBEGIN
1070
    73
1070
     1
1070
    44
1040
1.0
1070
    74
1070
     0
1000
MTEXTEND
  0
POINT
  5
6B5F
330
6B56
100
AcDbEntity
  8
DEFPOINTS
  6
Continuous
 62
     0
100
AcDbPoint
 10
-44.99999999999997
 20
235.1349134126127
 30
0.0
  0
POINT
  5
6B60
330
6B56
100
AcDbEntity
  8
DEFPOINTS
  6
Continuous
 62
     0
100
AcDbPoint
 10
-44.99999999999984
 20
174.1349134126129
 30
0.0
  0
POINT
  5
6B61
330
6B56
100
AcDbEntity
  8
DEFPOINTS
  6
Continuous
 62
     0
100
AcDbPoint
 10
-66.0
 20
174.1349134126129
 30
0.0
  0
ENDBLK
  5
6B58
330
6B56
100
AcDbEntity
  8
0
100
AcDbBlockEnd
  0
BLOCK
  5
6B64
330
6B63
100
AcDbEntity
  8
0
100
AcDbBlockBegin
  2
*D37
 70
     1
 10
0.0
 20
0.0
 30
0.0
  3
*D37
  1

  0
LINE
  5
6B66
330
6B63
100
AcDbEntity
  8
30
  6
Continuous
 62
     0
370
    -2
100
AcDbLine
 10
-45.99999999999996
 20
235.1349134126127
 30
0.0
 11
-84.49999999999999
 21
235.1349134126127
 31
0.0
  0
LINE
  5
6B67
330
6B63
100
AcDbEntity
  8
30
  6
Continuous
 62
     0
370
    -2
100
AcDbLine
 10
-45.99999999999996
 20
167.1349134126124
 30
0.0
 11
-84.50000000000001
 21
167.1349134126124
 31
0.0
  0
LINE
  5
6B68
330
6B63
100
AcDbEntity
  8
30
  6
Continuous
 62
     0
370
    -2
100
AcDbLine
 10
-83.99999999999998
 20
233.1349134126127
 30
0.0
 11
-84.0
 21
169.1349134126124
 31
0.0
  0
INSERT
  5
6B69
330
6B63
100
AcDbEntity
  8
30
  6
Continuous
 62
     0
370
    -2
100
AcDbBlockReference
  2
_OPEN
 10
-83.99999999999998
 20
235.1349134126127
 30
0.0
 41
2.0
 42
2.0
 43
2.0
 50
90.0
  0
INSERT
  5
6B6A
330
6B63
100
AcDbEntity
  8
30
  6
Continuous
 62
     0
370
    -2
100
AcDbBlockReference
  2
_OPEN
 10
-84.0
 20
167.1349134126124
 30
0.0
 41
2.0
 42
2.0
 43
2.0
 50
270.0
  0
MTEXT
  5
6B6B
330
6B63
100
AcDbEntity
  8
30
  6
Continuous
 62
     0
100
AcDbMText
 10
-87.00000000000001
 20
201.1349134126125
 30
0.0
 40
4.0
 41
0.0
 46
0.0
 71
     5
 72
     1
  1
\A1;68
 11
0.0000000000000001
 21
1.0
 31
0.0
 73
     1
 44
1.0
1001
ACAD
1000
MTEXTBEGIN
1070
    73
1070
     1
1070
    44
1040
1.0
1070
    74
1070
     0
1000
MTEXTEND
  0
POINT
  5
6B6C
330
6B63
100
AcDbEntity
  8
DEFPOINTS
  6
Continuous
 62
     0
100
AcDbPoint
 10
-44.99999999999997
 20
235.1349134126127
 30
0.0
  0
POINT
  5
6B6D
330
6B63
100
AcDbEntity
  8
DEFPOINTS
  6
Continuous
 62
     0
100
AcDbPoint
 10
-44.99999999999997
 20
167.1349134126124
 30
0.0
  0
POINT
  5
6B6E
330
6B63
100
AcDbEntity
  8
DEFPOINTS
  6
Continuous
 62
     0
100
AcDbPoint
 10
-84.0
 20
167.1349134126124
 30
0.0
  0
ENDBLK
  5
6B65
330
6B63
100
AcDbEntity
  8
0
100
AcDbBlockEnd
  0
BLOCK
  5
6B71
330
6B70
100
AcDbEntity
  8
0
100
AcDbBlockBegin
  2
*D38
 70
     1
 10
0.0
 20
0.0
 30
0.0
  3
*D38
  1

  0
LINE
  5
6B73
330
6B70
100
AcDbEntity
  8
30
  6
Continuous
 62
     0
370
    -2
100
AcDbLine
 10
-45.99999999999996
 20
235.1349134126127
 30
0.0
 11
-101.4999999999999
 21
235.1349134126127
 31
0.0
  0
LINE
  5
6B74
330
6B70
100
AcDbEntity
  8
30
  6
Continuous
 62
     0
370
    -2
100
AcDbLine
 10
-43.49999999999985
 20
163.2698268252254
 30
0.0
 11
-101.5
 21
163.2698268252254
 31
0.0
  0
LINE
  5
6B75
330
6B70
100
AcDbEntity
  8
30
  6
Continuous
 62
     0
370
    -2
100
AcDbLine
 10
-101.0
 20
233.1349134126127
 30
0.0
 11
-101.0
 21
165.2698268252254
 31
0.0
  0
INSERT
  5
6B76
330
6B70
100
AcDbEntity
  8
30
  6
Continuous
 62
     0
370
    -2
100
AcDbBlockReference
  2
_OPEN
 10
-101.0
 20
235.1349134126127
 30
0.0
 41
2.0
 42
2.0
 43
2.0
 50
90.0
  0
INSERT
  5
6B77
330
6B70
100
AcDbEntity
  8
30
  6
Continuous
 62
     0
370
    -2
100
AcDbBlockReference
  2
_OPEN
 10
-101.0
 20
163.2698268252254
 30
0.0
 41
2.0
 42
2.0
 43
2.0
 50
270.0
  0
MTEXT
  5
6B78
330
6B70
100
AcDbEntity
  8
30
  6
Continuous
 62
     0
100
AcDbMText
 10
-104.0
 20
199.202370118919
 30
0.0
 40
4.0
 41
0.0
 46
0.0
 71
     5
 72
     1
  1
\A1;71.9
 11
0.0000000000000001
 21
1.0
 31
0.0
 73
     1
 44
1.0
1001
ACAD
1000
MTEXTBEGIN
1070
    73
1070
     1
1070
    44
1040
1.0
1070
    74
1070
     0
1000
MTEXTEND
  0
POINT
  5
6B79
330
6B70
100
AcDbEntity
  8
DEFPOINTS
  6
Continuous
 62
     0
100
AcDbPoint
 10
-44.99999999999997
 20
235.1349134126127
 30
0.0
  0
POINT
  5
6B7A
330
6B70
100
AcDbEntity
  8
DEFPOINTS
  6
Continuous
 62
     0
100
AcDbPoint
 10
-42.49999999999984
 20
163.2698268252254
 30
0.0
  0
POINT
  5
6B7B
330
6B70
100
AcDbEntity
  8
DEFPOINTS
  6
Continuous
 62
     0
100
AcDbPoint
 10
-101.0
 20
163.2698268252254
 30
0.0
  0
ENDBLK
  5
6B72
330
6B70
100
AcDbEntity
  8
0
100
AcDbBlockEnd
  0
BLOCK
  5
6B7E
330
6B7D
100
AcDbEntity
  8
0
100
AcDbBlockBegin
  2
*D39
 70
     1
 10
0.0
 20
0.0
 30
0.0
  3
*D39
  1

  0
LINE
  5
6B80
330
6B7D
100
AcDbEntity
  8
30
  6
Continuous
 62
     0
370
    -2
100
AcDbLine
 10
-45.99999999999996
 20
235.1349134126127
 30
0.0
 11
-114.5
 21
235.1349134126127
 31
0.0
  0
LINE
  5
6B81
330
6B7D
100
AcDbEntity
  8
30
  6
Continuous
 62
     0
370
    -2
100
AcDbLine
 10
-13.03580707034253
 20
159.1349134126128
 30
0.0
 11
-114.5
 21
159.1349134126128
 31
0.0
  0
LINE
  5
6B82
330
6B7D
100
AcDbEntity
  8
30
  6
Continuous
 62
     0
370
    -2
100
AcDbLine
 10
-114.0
 20
233.1349134126127
 30
0.0
 11
-114.0
 21
161.1349134126128
 31
0.0
  0
INSERT
  5
6B83
330
6B7D
100
AcDbEntity
  8
30
  6
Continuous
 62
     0
370
    -2
100
AcDbBlockReference
  2
_OPEN
 10
-114.0
 20
235.1349134126127
 30
0.0
 41
2.0
 42
2.0
 43
2.0
 50
90.0
  0
INSERT
  5
6B84
330
6B7D
100
AcDbEntity
  8
30
  6
Continuous
 62
     0
370
    -2
100
AcDbBlockReference
  2
_OPEN
 10
-114.0
 20
159.1349134126128
 30
0.0
 41
2.0
 42
2.0
 43
2.0
 50
270.0
  0
MTEXT
  5
6B85
330
6B7D
100
AcDbEntity
  8
30
  6
Continuous
 62
     0
100
AcDbMText
 10
-117.0
 20
197.1349134126127
 30
0.0
 40
4.0
 41
0.0
 46
0.0
 71
     5
 72
     1
  1
\A1;76
 11
0.0000000000000001
 21
1.0
 31
0.0
 73
     1
 44
1.0
1001
ACAD
1000
MTEXTBEGIN
1070
    73
1070
     1
1070
    44
1040
1.0
1070
    74
1070
     0
1000
MTEXTEND
  0
POINT
  5
6B86
330
6B7D
100
AcDbEntity
  8
DEFPOINTS
  6
Continuous
 62
     0
100
AcDbPoint
 10
-44.99999999999997
 20
235.1349134126127
 30
0.0
  0
POINT
  5
6B87
330
6B7D
100
AcDbEntity
  8
DEFPOINTS
  6
Continuous
 62
     0
100
AcDbPoint
 10
-12.03580707034253
 20
159.1349134126128
 30
0.0
  0
POINT
  5
6B88
330
6B7D
100
AcDbEntity
  8
DEFPOINTS
  6
Continuous
 62
     0
100
AcDbPoint
 10
-114.0
 20
159.1349134126128
 30
0.0
  0
ENDBLK
  5
6B7F
330
6B7D
100
AcDbEntity
  8
0
100
AcDbBlockEnd
  0
BLOCK
  5
6B8B
330
6B8A
100
AcDbEntity
  8
0
100
AcDbBlockBegin
  2
*D40
 70
     1
 10
0.0
 20
0.0
 30
0.0
  3
*D40
  1

  0
LINE
  5
6B8D
330
6B8A
100
AcDbEntity
  8
30
  6
Continuous
 62
     0
370
    -2
100
AcDbLine
 10
-45.99999999999996
 20
235.1349134126127
 30
0.0
 11
-123.4999999999999
 21
235.1349134126127
 31
0.0
  0
LINE
  5
6B8E
330
6B8A
100
AcDbEntity
  8
30
  6
Continuous
 62
     0
370
    -2
100
AcDbLine
 10
-9.017903535171241
 20
151.0628919969166
 30
0.0
 11
-123.5
 21
151.0628919969166
 31
0.0
  0
LINE
  5
6B8F
330
6B8A
100
AcDbEntity
  8
30
  6
Continuous
 62
     0
370
    -2
100
AcDbLine
 10
-122.9999999999999
 20
233.1349134126127
 30
0.0
 11
-123.0
 21
153.0628919969166
 31
0.0
  0
INSERT
  5
6B90
330
6B8A
100
AcDbEntity
  8
30
  6
Continuous
 62
     0
370
    -2
100
AcDbBlockReference
  2
_OPEN
 10
-122.9999999999999
 20
235.1349134126127
 30
0.0
 41
2.0
 42
2.0
 43
2.0
 50
90.0
  0
INSERT
  5
6B91
330
6B8A
100
AcDbEntity
  8
30
  6
Continuous
 62
     0
370
    -2
100
AcDbBlockReference
  2
_OPEN
 10
-123.0
 20
151.0628919969166
 30
0.0
 41
2.0
 42
2.0
 43
2.0
 50
270.0
  0
MTEXT
  5
6B92
330
6B8A
100
AcDbEntity
  8
30
  6
Continuous
 62
     0
100
AcDbMText
 10
-126.0
 20
193.0989027047646
 30
0.0
 40
4.0
 41
0.0
 46
0.0
 71
     5
 72
     1
  1
\A1;84.1
 11
0.0000000000000001
 21
1.0
 31
0.0
 73
     1
 44
1.0
1001
ACAD
1000
MTEXTBEGIN
1070
    73
1070
     1
1070
    44
1040
1.0
1070
    74
1070
     0
1000
MTEXTEND
  0
POINT
  5
6B93
330
6B8A
100
AcDbEntity
  8
DEFPOINTS
  6
Continuous
 62
     0
100
AcDbPoint
 10
-44.99999999999997
 20
235.1349134126127
 30
0.0
  0
POINT
  5
6B94
330
6B8A
100
AcDbEntity
  8
DEFPOINTS
  6
Continuous
 62
     0
100
AcDbPoint
 10
-8.017903535171237
 20
151.0628919969166
 30
0.0
  0
POINT
  5
6B95
330
6B8A
100
AcDbEntity
  8
DEFPOINTS
  6
Continuous
 62
     0
100
AcDbPoint
 10
-123.0
 20
151.0628919969166
 30
0.0
  0
ENDBLK
  5
6B8C
330
6B8A
100
AcDbEntity
  8
0
100
AcDbBlockEnd
  0
BLOCK
  5
6B98
330
6B97
100
AcDbEntity
  8
0
100
AcDbBlockBegin
  2
*D41
 70
     1
 10
0.0
 20
0.0
 30
0.0
  3
*D41
  1

  0
LINE
  5
6B9A
330
6B97
100
AcDbEntity
  8
30
  6
Continuous
 62
     0
440
 16777216
370
    -2
100
AcDbLine
 10
221.8144775593031
 20
78.5000000000001
 30
0.0
 11
221.8144775593031
 21
121.5
 31
0.0
  0
LINE
  5
6B9B
330
6B97
100
AcDbEntity
  8
30
  6
Continuous
 62
     0
440
 16777216
370
    -2
100
AcDbLine
 10
149.8144775593031
 20
25.99999999999998
 30
0.0
 11
149.8144775593031
 21
121.5
 31
0.0
  0
LINE
  5
6B9C
330
6B97
100
AcDbEntity
  8
30
  6
Continuous
 62
     0
440
 16777216
370
    -2
100
AcDbLine
 10
219.8144775593031
 20
121.0
 30
0.0
 11
151.8144775593031
 21
121.0
 31
0.0
  0
INSERT
  5
6B9D
330
6B97
100
AcDbEntity
  8
30
  6
Continuous
 62
     0
440
 16777216
370
    -2
100
AcDbBlockReference
  2
_OPEN
 10
221.8144775593031
 20
121.0
 30
0.0
 41
2.0
 42
2.0
 43
2.0
  0
INSERT
  5
6B9E
330
6B97
100
AcDbEntity
  8
30
  6
Continuous
 62
     0
440
 16777216
370
    -2
100
AcDbBlockReference
  2
_OPEN
 10
149.8144775593031
 20
121.0
 30
0.0
 41
2.0
 42
2.0
 43
2.0
 50
180.0
  0
MTEXT
  5
6B9F
330
6B97
100
AcDbEntity
  8
30
  6
Continuous
 62
     0
440
 16777216
100
AcDbMText
 10
185.8144775593031
 20
124.0
 30
0.0
 40
4.0
 41
0.0
 46
0.0
 71
     5
 72
     1
  1
\A1;72
 73
     1
 44
1.0
1001
ACAD
1000
MTEXTBEGIN
1070
    73
1070
     1
1070
    44
1040
1.0
1070
    74
1070
     0
1000
MTEXTEND
  0
POINT
  5
6BA0
330
6B97
100
AcDbEntity
  8
DEFPOINTS
  6
Continuous
 62
     0
440
 16777216
100
AcDbPoint
 10
221.8144775593031
 20
77.5000000000001
 30
0.0
  0
POINT
  5
6BA1
330
6B97
100
AcDbEntity
  8
DEFPOINTS
  6
Continuous
 62
     0
440
 16777216
100
AcDbPoint
 10
149.8144775593031
 20
24.99999999999998
 30
0.0
  0
POINT
  5
6BA2
330
6B97
100
AcDbEntity
  8
DEFPOINTS
  6
Continuous
 62
     0
440
 16777216
100
AcDbPoint
 10
149.8144775593031
 20
121.0
 30
0.0
  0
ENDBLK
  5
6B99
330
6B97
100
AcDbEntity
  8
0
100
AcDbBlockEnd
  0
BLOCK
  5
6BA5
330
6BA4
100
AcDbEntity
  8
0
100
AcDbBlockBegin
  2
*D42
 70
     1
 10
0.0
 20
0.0
 30
0.0
  3
*D42
  1

  0
LINE
  5
6BA7
330
6BA4
100
AcDbEntity
  8
30
  6
Continuous
 62
     0
440
 16777216
370
    -2
100
AcDbLine
 10
221.8144775593031
 20
78.5000000000001
 30
0.0
 11
221.8144775593031
 21
133.5
 31
0.0
  0
LINE
  5
6BA8
330
6BA4
100
AcDbEntity
  8
30
  6
Continuous
 62
     0
440
 16777216
370
    -2
100
AcDbLine
 10
145.8144775593031
 20
25.99999999999998
 30
0.0
 11
145.8144775593031
 21
133.5
 31
0.0
  0
LINE
  5
6BA9
330
6BA4
100
AcDbEntity
  8
30
  6
Continuous
 62
     0
440
 16777216
370
    -2
100
AcDbLine
 10
219.8144775593031
 20
133.0
 30
0.0
 11
147.8144775593031
 21
133.0
 31
0.0
  0
INSERT
  5
6BAA
330
6BA4
100
AcDbEntity
  8
30
  6
Continuous
 62
     0
440
 16777216
370
    -2
100
AcDbBlockReference
  2
_OPEN
 10
221.8144775593031
 20
133.0
 30
0.0
 41
2.0
 42
2.0
 43
2.0
  0
INSERT
  5
6BAB
330
6BA4
100
AcDbEntity
  8
30
  6
Continuous
 62
     0
440
 16777216
370
    -2
100
AcDbBlockReference
  2
_OPEN
 10
145.8144775593031
 20
133.0
 30
0.0
 41
2.0
 42
2.0
 43
2.0
 50
180.0
  0
MTEXT
  5
6BAC
330
6BA4
100
AcDbEntity
  8
30
  6
Continuous
 62
     0
440
 16777216
100
AcDbMText
 10
183.8144775593031
 20
136.0
 30
0.0
 40
4.0
 41
0.0
 46
0.0
 71
     5
 72
     1
  1
\A1;76
 73
     1
 44
1.0
1001
ACAD
1000
MTEXTBEGIN
1070
    73
1070
     1
1070
    44
1040
1.0
1070
    74
1070
     0
1000
MTEXTEND
  0
POINT
  5
6BAD
330
6BA4
100
AcDbEntity
  8
DEFPOINTS
  6
Continuous
 62
     0
440
 16777216
100
AcDbPoint
 10
221.8144775593031
 20
77.5000000000001
 30
0.0
  0
POINT
  5
6BAE
330
6BA4
100
AcDbEntity
  8
DEFPOINTS
  6
Continuous
 62
     0
440
 16777216
100
AcDbPoint
 10
145.8144775593031
 20
24.99999999999998
 30
0.0
  0
POINT
  5
6BAF
330
6BA4
100
AcDbEntity
  8
DEFPOINTS
  6
Continuous
 62
     0
440
 16777216
100
AcDbPoint
 10
145.8144775593031
 20
133.0
 30
0.0
  0
ENDBLK
  5
6BA6
330
6BA4
100
AcDbEntity
  8
0
100
AcDbBlockEnd
  0
BLOCK
  5
6BC9
330
6BC8
100
AcDbEntity
  8
0
100
AcDbBlockBegin
  2
*D43
 70
     1
 10
0.0
 20
0.0
 30
0.0
  3
*D43
  1

  0
LINE
  5
6BCB
330
6BC8
100
AcDbEntity
  8
30
  6
Continuous
 62
     0
370
    -2
100
AcDbLine
 10
-44.99999999999975
 20
168.1349134126124
 30
0.0
 11
-44.99999999999975
 21
179.5
 31
0.0
  0
LINE
  5
6BCC
330
6BC8
100
AcDbEntity
  8
30
  6
Continuous
 62
     0
370
    -2
100
AcDbLine
 10
-42.49999999999984
 20
168.1349134126124
 30
0.0
 11
-42.49999999999984
 21
179.5
 31
0.0
  0
LINE
  5
6BCD
330
6BC8
100
AcDbEntity
  8
30
  6
Continuous
 62
     0
370
    -2
100
AcDbLine
 10
-46.99999999999975
 20
179.0
 30
0.0
 11
-48.99999999999975
 21
179.0
 31
0.0
  0
LINE
  5
6BCE
330
6BC8
100
AcDbEntity
  8
30
  6
Continuous
 62
     0
370
    -2
100
AcDbLine
 10
-40.49999999999984
 20
179.0
 30
0.0
 11
-28.49999999999985
 21
179.0
 31
0.0
  0
INSERT
  5
6BCF
330
6BC8
100
AcDbEntity
  8
30
  6
Continuous
 62
     0
370
    -2
100
AcDbBlockReference
  2
_OPEN
 10
-44.99999999999975
 20
179.0
 30
0.0
 41
2.0
 42
2.0
 43
2.0
  0
INSERT
  5
6BD0
330
6BC8
100
AcDbEntity
  8
30
  6
Continuous
 62
     0
370
    -2
100
AcDbBlockReference
  2
_OPEN
 10
-42.49999999999984
 20
179.0
 30
0.0
 41
2.0
 42
2.0
 43
2.0
 50
180.0
  0
MTEXT
  5
6BD1
330
6BC8
100
AcDbEntity
  8
30
  6
Continuous
 62
     0
100
AcDbMText
 10
-33.49999999999984
 20
182.0
 30
0.0
 40
4.0
 41
0.0
 46
0.0
 71
     5
 72
     1
  1
\A1;2.5
 73
     1
 44
1.0
1001
ACAD
1000
MTEXTBEGIN
1070
    73
1070
     1
1070
    44
1040
1.0
1070
    74
1070
     0
1000
MTEXTEND
  0
POINT
  5
6BD2
330
6BC8
100
AcDbEntity
  8
DEFPOINTS
  6
Continuous
 62
     0
100
AcDbPoint
 10
-44.99999999999975
 20
167.1349134126124
 30
0.0
  0
POINT
  5
6BD3
330
6BC8
100
AcDbEntity
  8
DEFPOINTS
  6
Continuous
 62
     0
100
AcDbPoint
 10
-42.49999999999984
 20
167.1349134126124
 30
0.0
  0
POINT
  5
6BD4
330
6BC8
100
AcDbEntity
  8
DEFPOINTS
  6
Continuous
 62
     0
100
AcDbPoint
 10
-42.49999999999984
 20
179.0
 30
0.0
  0
ENDBLK
  5
6BCA
330
6BC8
100
AcDbEntity
  8
0
100
AcDbBlockEnd
  0
BLOCK
  5
6BD7
330
6BD6
100
AcDbEntity
  8
0
100
AcDbBlockBegin
  2
*D44
 70
     1
 10
0.0
 20
0.0
 30
0.0
  3
*D44
  1

  0
LINE
  5
6BD9
330
6BD6
100
AcDbEntity
  8
30
  6
Continuous
 62
     0
370
    -2
100
AcDbLine
 10
41.4820964648287
 20
168.1349134126126
 30
0.0
 11
41.4820964648287
 21
180.5
 31
0.0
  0
LINE
  5
6BDA
330
6BD6
100
AcDbEntity
  8
30
  6
Continuous
 62
     0
370
    -2
100
AcDbLine
 10
45.0
 20
168.1349134126126
 30
0.0
 11
45.0
 21
180.5
 31
0.0
  0
LINE
  5
6BDB
330
6BD6
100
AcDbEntity
  8
30
  6
Continuous
 62
     0
370
    -2
100
AcDbLine
 10
39.4820964648287
 20
180.0
 30
0.0
 11
37.4820964648287
 21
180.0
 31
0.0
  0
LINE
  5
6BDC
330
6BD6
100
AcDbEntity
  8
30
  6
Continuous
 62
     0
370
    -2
100
AcDbLine
 10
47.0
 20
180.0
 30
0.0
 11
59.0
 21
180.0
 31
0.0
  0
INSERT
  5
6BDD
330
6BD6
100
AcDbEntity
  8
30
  6
Continuous
 62
     0
370
    -2
100
AcDbBlockReference
  2
_OPEN
 10
41.4820964648287
 20
180.0
 30
0.0
 41
2.0
 42
2.0
 43
2.0
  0
INSERT
  5
6BDE
330
6BD6
100
AcDbEntity
  8
30
  6
Continuous
 62
     0
370
    -2
100
AcDbBlockReference
  2
_OPEN
 10
45.0
 20
180.0
 30
0.0
 41
2.0
 42
2.0
 43
2.0
 50
180.0
  0
MTEXT
  5
6BDF
330
6BD6
100
AcDbEntity
  8
30
  6
Continuous
 62
     0
100
AcDbMText
 10
54.0
 20
183.0
 30
0.0
 40
4.0
 41
0.0
 46
0.0
 71
     5
 72
     1
  1
\A1;3.5
 73
     1
 44
1.0
1001
ACAD
1000
MTEXTBEGIN
1070
    73
1070
     1
1070
    44
1040
1.0
1070
    74
1070
     0
1000
MTEXTEND
  0
POINT
  5
6BE0
330
6BD6
100
AcDbEntity
  8
DEFPOINTS
  6
Continuous
 62
     0
100
AcDbPoint
 10
41.4820964648287
 20
167.1349134126126
 30
0.0
  0
POINT
  5
6BE1
330
6BD6
100
AcDbEntity
  8
DEFPOINTS
  6
Continuous
 62
     0
100
AcDbPoint
 10
45.0
 20
167.1349134126126
 30
0.0
  0
POINT
  5
6BE2
330
6BD6
100
AcDbEntity
  8
DEFPOINTS
  6
Continuous
 62
     0
100
AcDbPoint
 10
45.0
 20
180.0
 30
0.0
  0
ENDBLK
  5
6BD8
330
6BD6
100
AcDbEntity
  8
0
100
AcDbBlockEnd
  0
BLOCK
  5
6BE5
330
6BE4
100
AcDbEntity
  8
0
100
AcDbBlockBegin
  2
*D45
 70
     1
 10
0.0
 20
0.0
 30
0.0
  3
*D45
  1

  0
LINE
  5
6BE7
330
6BE4
100
AcDbEntity
  8
30
  6
Continuous
 62
     0
370
    -2
100
AcDbLine
 10
-42.49999999999984
 20
164.2698268252254
 30
0.0
 11
-42.49999999999984
 21
189.5
 31
0.0
  0
LINE
  5
6BE8
330
6BE4
100
AcDbEntity
  8
30
  6
Continuous
 62
     0
370
    -2
100
AcDbLine
 10
41.4820964648287
 20
164.2698268252254
 30
0.0
 11
41.4820964648287
 21
189.5
 31
0.0
  0
LINE
  5
6BE9
330
6BE4
100
AcDbEntity
  8
30
  6
Continuous
 62
     0
370
    -2
100
AcDbLine
 10
-40.49999999999984
 20
189.0
 30
0.0
 11
39.4820964648287
 21
189.0
 31
0.0
  0
INSERT
  5
6BEA
330
6BE4
100
AcDbEntity
  8
30
  6
Continuous
 62
     0
370
    -2
100
AcDbBlockReference
  2
_OPEN
 10
-42.49999999999984
 20
189.0
 30
0.0
 41
2.0
 42
2.0
 43
2.0
 50
180.0
  0
INSERT
  5
6BEB
330
6BE4
100
AcDbEntity
  8
30
  6
Continuous
 62
     0
370
    -2
100
AcDbBlockReference
  2
_OPEN
 10
41.4820964648287
 20
189.0
 30
0.0
 41
2.0
 42
2.0
 43
2.0
  0
MTEXT
  5
6BEC
330
6BE4
100
AcDbEntity
  8
30
  6
Continuous
 62
     0
100
AcDbMText
 10
-0.5089517675855717
 20
192.0
 30
0.0
 40
4.0
 41
0.0
 46
0.0
 71
     5
 72
     1
  1
\A1;84
 73
     1
 44
1.0
1001
ACAD
1000
MTEXTBEGIN
1070
    73
1070
     1
1070
    44
1040
1.0
1070
    74
1070
     0
1000
MTEXTEND
  0
POINT
  5
6BED
330
6BE4
100
AcDbEntity
  8
DEFPOINTS
  6
Continuous
 62
     0
100
AcDbPoint
 10
-42.49999999999984
 20
163.2698268252254
 30
0.0
  0
POINT
  5
6BEE
330
6BE4
100
AcDbEntity
  8
DEFPOINTS
  6
Continuous
 62
     0
100
AcDbPoint
 10
41.4820964648287
 20
163.2698268252254
 30
0.0
  0
POINT
  5
6BEF
330
6BE4
100
AcDbEntity
  8
DEFPOINTS
  6
Continuous
 62
     0
100
AcDbPoint
 10
41.4820964648287
 20
189.0
 30
0.0
  0
ENDBLK
  5
6BE6
330
6BE4
100
AcDbEntity
  8
0
100
AcDbBlockEnd
  0
BLOCK
  5
6C1A
330
6C19
100
AcDbEntity
  8
0
100
AcDbBlockBegin
  2
*D46
 70
     1
 10
0.0
 20
0.0
 30
0.0
  3
*D46
  1

  0
LINE
  5
6C1C
330
6C19
100
AcDbEntity
  8
30
  6
Continuous
 62
     0
370
    -2
100
AcDbLine
 10
9.982096464828707
 20
158.1349134126128
 30
0.0
 11
9.982096464828707
 21
151.5
 31
0.0
  0
LINE
  5
6C1D
330
6C19
100
AcDbEntity
  8
30
  6
Continuous
 62
     0
370
    -2
100
AcDbLine
 10
45.0
 20
166.1349134126126
 30
0.0
 11
45.0
 21
151.5
 31
0.0
  0
LINE
  5
6C1E
330
6C19
100
AcDbEntity
  8
30
  6
Continuous
 62
     0
370
    -2
100
AcDbLine
 10
11.98209646482871
 20
152.0
 30
0.0
 11
43.0
 21
152.0
 31
0.0
  0
INSERT
  5
6C1F
330
6C19
100
AcDbEntity
  8
30
  6
Continuous
 62
     0
370
    -2
100
AcDbBlockReference
  2
_OPEN
 10
9.982096464828707
 20
152.0
 30
0.0
 41
2.0
 42
2.0
 43
2.0
 50
180.0
  0
INSERT
  5
6C20
330
6C19
100
AcDbEntity
  8
30
  6
Continuous
 62
     0
370
    -2
100
AcDbBlockReference
  2
_OPEN
 10
45.0
 20
152.0
 30
0.0
 41
2.0
 42
2.0
 43
2.0
  0
MTEXT
  5
6C21
330
6C19
100
AcDbEntity
  8
30
  6
Continuous
 62
     0
100
AcDbMText
 10
27.49104823241435
 20
155.0
 30
0.0
 40
4.0
 41
0.0
 46
0.0
 71
     5
 72
     1
  1
\A1;35
 73
     1
 44
1.0
1001
ACAD
1000
MTEXTBEGIN
1070
    73
1070
     1
1070
    44
1040
1.0
1070
    74
1070
     0
1000
MTEXTEND
  0
POINT
  5
6C22
330
6C19
100
AcDbEntity
  8
DEFPOINTS
  6
Continuous
 62
     0
100
AcDbPoint
 10
9.982096464828707
 20
159.1349134126128
 30
0.0
  0
POINT
  5
6C23
330
6C19
100
AcDbEntity
  8
DEFPOINTS
  6
Continuous
 62
     0
100
AcDbPoint
 10
45.0
 20
167.1349134126126
 30
0.0
  0
POINT
  5
6C24
330
6C19
100
AcDbEntity
  8
DEFPOINTS
  6
Continuous
 62
     0
100
AcDbPoint
 10
45.0
 20
152.0
 30
0.0
  0
ENDBLK
  5
6C1B
330
6C19
100
AcDbEntity
  8
0
100
AcDbBlockEnd
  0
BLOCK
  5
6C27
330
6C26
100
AcDbEntity
  8
0
100
AcDbBlockBegin
  2
*D47
 70
     1
 10
0.0
 20
0.0
 30
0.0
  3
*D47
  1

  0
LINE
  5
6C29
330
6C26
100
AcDbEntity
  8
30
  6
Continuous
 62
     0
370
    -2
100
AcDbLine
 10
-12.03580707034253
 20
158.1349134126128
 30
0.0
 11
-12.03580707034253
 21
145.5
 31
0.0
  0
LINE
  5
6C2A
330
6C26
100
AcDbEntity
  8
30
  6
Continuous
 62
     0
370
    -2
100
AcDbLine
 10
-44.99999999999997
 20
158.1349134126128
 30
0.0
 11
-44.99999999999997
 21
145.5
 31
0.0
  0
LINE
  5
6C2B
330
6C26
100
AcDbEntity
  8
30
  6
Continuous
 62
     0
370
    -2
100
AcDbLine
 10
-14.03580707034253
 20
146.0
 30
0.0
 11
-42.99999999999997
 21
146.0
 31
0.0
  0
INSERT
  5
6C2C
330
6C26
100
AcDbEntity
  8
30
  6
Continuous
 62
     0
370
    -2
100
AcDbBlockReference
  2
_OPEN
 10
-12.03580707034253
 20
146.0
 30
0.0
 41
2.0
 42
2.0
 43
2.0
  0
INSERT
  5
6C2D
330
6C26
100
AcDbEntity
  8
30
  6
Continuous
 62
     0
370
    -2
100
AcDbBlockReference
  2
_OPEN
 10
-44.99999999999997
 20
146.0
 30
0.0
 41
2.0
 42
2.0
 43
2.0
 50
180.0
  0
MTEXT
  5
6C2E
330
6C26
100
AcDbEntity
  8
30
  6
Continuous
 62
     0
100
AcDbMText
 10
-28.51790353517125
 20
149.0
 30
0.0
 40
4.0
 41
0.0
 46
0.0
 71
     5
 72
     1
  1
\A1;33
 73
     1
 44
1.0
1001
ACAD
1000
MTEXTBEGIN
1070
    73
1070
     1
1070
    44
1040
1.0
1070
    74
1070
     0
1000
MTEXTEND
  0
POINT
  5
6C2F
330
6C26
100
AcDbEntity
  8
DEFPOINTS
  6
Continuous
 62
     0
100
AcDbPoint
 10
-12.03580707034253
 20
159.1349134126128
 30
0.0
  0
POINT
  5
6C30
330
6C26
100
AcDbEntity
  8
DEFPOINTS
  6
Continuous
 62
     0
100
AcDbPoint
 10
-44.99999999999997
 20
159.1349134126128
 30
0.0
  0
POINT
  5
6C31
330
6C26
100
AcDbEntity
  8
DEFPOINTS
  6
Continuous
 62
     0
100
AcDbPoint
 10
-44.99999999999997
 20
146.0
 30
0.0
  0
ENDBLK
  5
6C28
330
6C26
100
AcDbEntity
  8
0
100
AcDbBlockEnd
  0
BLOCK
  5
6C34
330
6C33
100
AcDbEntity
  8
0
100
AcDbBlockBegin
  2
*D48
 70
     1
 10
0.0
 20
0.0
 30
0.0
  3
*D48
  1

  0
LINE
  5
6C36
330
6C33
100
AcDbEntity
  8
30
  6
Continuous
 62
     0
370
    -2
100
AcDbLine
 10
-12.03580707034253
 20
158.1349134126128
 30
0.0
 11
-12.03580707034253
 21
138.5
 31
0.0
  0
LINE
  5
6C37
330
6C33
100
AcDbEntity
  8
30
  6
Continuous
 62
     0
370
    -2
100
AcDbLine
 10
9.982096464828707
 20
158.1349134126128
 30
0.0
 11
9.982096464828703
 21
138.5
 31
0.0
  0
LINE
  5
6C38
330
6C33
100
AcDbEntity
  8
30
  6
Continuous
 62
     0
370
    -2
100
AcDbLine
 10
-10.03580707034253
 20
139.0
 30
0.0
 11
7.982096464828704
 21
139.0
 31
0.0
  0
INSERT
  5
6C39
330
6C33
100
AcDbEntity
  8
30
  6
Continuous
 62
     0
370
    -2
100
AcDbBlockReference
  2
_OPEN
 10
-12.03580707034253
 20
139.0
 30
0.0
 41
2.0
 42
2.0
 43
2.0
 50
180.0
  0
INSERT
  5
6C3A
330
6C33
100
AcDbEntity
  8
30
  6
Continuous
 62
     0
370
    -2
100
AcDbBlockReference
  2
_OPEN
 10
9.982096464828703
 20
139.0
 30
0.0
 41
2.0
 42
2.0
 43
2.0
  0
MTEXT
  5
6C3B
330
6C33
100
AcDbEntity
  8
30
  6
Continuous
 62
     0
100
AcDbMText
 10
-1.026855302756912
 20
142.0
 30
0.0
 40
4.0
 41
0.0
 46
0.0
 71
     5
 72
     1
  1
\A1;22
 73
     1
 44
1.0
1001
ACAD
1000
MTEXTBEGIN
1070
    73
1070
     1
1070
    44
1040
1.0
1070
    74
1070
     0
1000
MTEXTEND
  0
POINT
  5
6C3C
330
6C33
100
AcDbEntity
  8
DEFPOINTS
  6
Continuous
 62
     0
100
AcDbPoint
 10
-12.03580707034253
 20
159.1349134126128
 30
0.0
  0
POINT
  5
6C3D
330
6C33
100
AcDbEntity
  8
DEFPOINTS
  6
Continuous
 62
     0
100
AcDbPoint
 10
9.982096464828707
 20
159.1349134126128
 30
0.0
  0
POINT
  5
6C3E
330
6C33
100
AcDbEntity
  8
DEFPOINTS
  6
Continuous
 62
     0
100
AcDbPoint
 10
9.982096464828703
 20
139.0
 30
0.0
  0
ENDBLK
  5
6C35
330
6C33
100
AcDbEntity
  8
0
100
AcDbBlockEnd
  0
BLOCK
  5
6C4D
330
6C4C
100
AcDbEntity
  8
0
100
AcDbBlockBegin
  2
*D49
 70
     1
 10
0.0
 20
0.0
 30
0.0
  3
*D49
  1

  0
LINE
  5
6C4F
330
6C4C
100
AcDbEntity
  8
30
  6
Continuous
 62
     0
370
    -2
100
AcDbLine
 10
-1.017903535171257
 20
236.1349134126127
 30
0.0
 11
-1.017903535171255
 21
256.1073578546832
 31
0.0
  0
LINE
  5
6C50
330
6C4C
100
AcDbEntity
  8
30
  6
Continuous
 62
     0
370
    -2
100
AcDbLine
 10
0.0000000000000001
 20
236.1349134126127
 30
0.0
 11
0.0000000000000013
 21
256.1073578546832
 31
0.0
  0
LINE
  5
6C51
330
6C4C
100
AcDbEntity
  8
30
  6
Continuous
 62
     0
370
    -2
100
AcDbLine
 10
-3.017903535171256
 20
255.6073578546832
 30
0.0
 11
-5.017903535171257
 21
255.6073578546832
 31
0.0
  0
LINE
  5
6C52
330
6C4C
100
AcDbEntity
  8
30
  6
Continuous
 62
     0
370
    -2
100
AcDbLine
 10
2.0
 20
255.6073578546832
 30
0.0
 11
7.333333333333332
 21
255.6073578546832
 31
0.0
  0
INSERT
  5
6C53
330
6C4C
100
AcDbEntity
  8
30
  6
Continuous
 62
     0
370
    -2
100
AcDbBlockReference
  2
_OPEN
 10
-1.017903535171255
 20
255.6073578546832
 30
0.0
 41
2.0
 42
2.0
 43
2.0
  0
INSERT
  5
6C54
330
6C4C
100
AcDbEntity
  8
30
  6
Continuous
 62
     0
370
    -2
100
AcDbBlockReference
  2
_OPEN
 10
0.0000000000000013
 20
255.6073578546832
 30
0.0
 41
2.0
 42
2.0
 43
2.0
 50
180.0
  0
MTEXT
  5
6C55
330
6C4C
100
AcDbEntity
  8
30
  6
Continuous
 62
     0
100
AcDbMText
 10
5.666666666666666
 20
258.6073578546832
 30
0.0
 40
4.0
 41
0.0
 46
0.0
 71
     5
 72
     1
  1
\A1;1
 73
     1
 44
1.0
1001
ACAD
1000
MTEXTBEGIN
1070
    73
1070
     1
1070
    44
1040
1.0
1070
    74
1070
     0
1000
MTEXTEND
  0
POINT
  5
6C56
330
6C4C
100
AcDbEntity
  8
DEFPOINTS
  6
Continuous
 62
     0
100
AcDbPoint
 10
-1.017903535171257
 20
235.1349134126127
 30
0.0
  0
POINT
  5
6C57
330
6C4C
100
AcDbEntity
  8
DEFPOINTS
  6
Continuous
 62
     0
100
AcDbPoint
 10
0.0
 20
235.1349134126127
 30
0.0
  0
POINT
  5
6C58
330
6C4C
100
AcDbEntity
  8
DEFPOINTS
  6
Continuous
 62
     0
100
AcDbPoint
 10
0.0000000000000013
 20
255.6073578546832
 30
0.0
  0
ENDBLK
  5
6C4E
330
6C4C
100
AcDbEntity
  8
0
100
AcDbBlockEnd
  0
BLOCK
  5
6C5B
330
6C5A
100
AcDbEntity
  8
0
100
AcDbBlockBegin
  2
*D50
 70
     1
 10
0.0
 20
0.0
 30
0.0
  3
*D50
  1

  0
LINE
  5
6C5D
330
6C5A
100
AcDbEntity
  8
30
  6
Continuous
 62
     0
370
    -2
100
AcDbLine
 10
-44.99999999999997
 20
236.1349134126127
 30
0.0
 11
-44.99999999999997
 21
265.5
 31
0.0
  0
LINE
  5
6C5E
330
6C5A
100
AcDbEntity
  8
30
  6
Continuous
 62
     0
370
    -2
100
AcDbLine
 10
45.0
 20
236.1349134126128
 30
0.0
 11
45.0
 21
265.5
 31
0.0
  0
LINE
  5
6C5F
330
6C5A
100
AcDbEntity
  8
30
  6
Continuous
 62
     0
370
    -2
100
AcDbLine
 10
-42.99999999999997
 20
265.0
 30
0.0
 11
43.0
 21
265.0
 31
0.0
  0
INSERT
  5
6C60
330
6C5A
100
AcDbEntity
  8
30
  6
Continuous
 62
     0
370
    -2
100
AcDbBlockReference
  2
_OPEN
 10
-44.99999999999997
 20
265.0
 30
0.0
 41
2.0
 42
2.0
 43
2.0
 50
180.0
  0
INSERT
  5
6C61
330
6C5A
100
AcDbEntity
  8
30
  6
Continuous
 62
     0
370
    -2
100
AcDbBlockReference
  2
_OPEN
 10
45.0
 20
265.0
 30
0.0
 41
2.0
 42
2.0
 43
2.0
  0
MTEXT
  5
6C62
330
6C5A
100
AcDbEntity
  8
30
  6
Continuous
 62
     0
100
AcDbMText
 10
0.0000000000000144
 20
268.0
 30
0.0
 40
4.0
 41
0.0
 46
0.0
 71
     5
 72
     1
  1
\A1;90
 73
     1
 44
1.0
1001
ACAD
1000
MTEXTBEGIN
1070
    73
1070
     1
1070
    44
1040
1.0
1070
    74
1070
     0
1000
MTEXTEND
  0
POINT
  5
6C63
330
6C5A
100
AcDbEntity
  8
DEFPOINTS
  6
Continuous
 62
     0
100
AcDbPoint
 10
-44.99999999999997
 20
235.1349134126127
 30
0.0
  0
POINT
  5
6C64
330
6C5A
100
AcDbEntity
  8
DEFPOINTS
  6
Continuous
 62
     0
100
AcDbPoint
 10
45.0
 20
235.1349134126127
 30
0.0
  0
POINT
  5
6C65
330
6C5A
100
AcDbEntity
  8
DEFPOINTS
  6
Continuous
 62
     0
100
AcDbPoint
 10
45.0
 20
265.0
 30
0.0
  0
ENDBLK
  5
6C5C
330
6C5A
100
AcDbEntity
  8
0
100
AcDbBlockEnd
  0
BLOCK
  5
6C68
330
6C67
100
AcDbEntity
  8
0
100
AcDbBlockBegin
  2
*D51
 70
     1
 10
0.0
 20
0.0
 30
0.0
  3
*D51
  1

  0
LINE
  5
6C6A
330
6C67
100
AcDbEntity
  8
30
  6
Continuous
 62
     0
440
 16777216
370
    -2
100
AcDbLine
 10
-30.01790353517123
 20
219.0
 30
0.0
 11
-30.01790353517123
 21
256.1073578546832
 31
0.0
  0
LINE
  5
6C6B
330
6C67
100
AcDbEntity
  8
30
  6
Continuous
 62
     0
440
 16777216
370
    -2
100
AcDbLine
 10
0.0000000000000001
 20
256.6073578546832
 30
0.0
 11
0.0
 21
256.1073578546832
 31
0.0
  0
LINE
  5
6C6C
330
6C67
100
AcDbEntity
  8
30
  6
Continuous
 62
     0
440
 16777216
370
    -2
100
AcDbLine
 10
-28.01790353517123
 20
255.6073578546832
 30
0.0
 11
-2.0
 21
255.6073578546832
 31
0.0
  0
INSERT
  5
6C6D
330
6C67
100
AcDbEntity
  8
30
  6
Continuous
 62
     0
440
 16777216
370
    -2
100
AcDbBlockReference
  2
_OPEN
 10
-30.01790353517123
 20
255.6073578546832
 30
0.0
 41
2.0
 42
2.0
 43
2.0
 50
180.0
  0
INSERT
  5
6C6E
330
6C67
100
AcDbEntity
  8
30
  6
Continuous
 62
     0
440
 16777216
370
    -2
100
AcDbBlockReference
  2
_OPEN
 10
0.0
 20
255.6073578546832
 30
0.0
 41
2.0
 42
2.0
 43
2.0
  0
MTEXT
  5
6C6F
330
6C67
100
AcDbEntity
  8
30
  6
Continuous
 62
     0
440
 16777216
100
AcDbMText
 10
-15.00895176758561
 20
258.6073578546832
 30
0.0
 40
4.0
 41
0.0
 46
0.0
 71
     5
 72
     1
  1
\A1;30
 73
     1
 44
1.0
1001
ACAD
1000
MTEXTBEGIN
1070
    73
1070
     1
1070
    44
1040
1.0
1070
    74
1070
     0
1000
MTEXTEND
  0
POINT
  5
6C70
330
6C67
100
AcDbEntity
  8
DEFPOINTS
  6
Continuous
 62
     0
440
 16777216
100
AcDbPoint
 10
-30.01790353517123
 20
218.0
 30
0.0
  0
POINT
  5
6C71
330
6C67
100
AcDbEntity
  8
DEFPOINTS
  6
Continuous
 62
     0
440
 16777216
100
AcDbPoint
 10
0.0
 20
255.6073578546832
 30
0.0
  0
POINT
  5
6C72
330
6C67
100
AcDbEntity
  8
DEFPOINTS
  6
Continuous
 62
     0
440
 16777216
100
AcDbPoint
 10
0.0
 20
255.6073578546832
 30
0.0
  0
ENDBLK
  5
6C69
330
6C67
100
AcDbEntity
  8
0
100
AcDbBlockEnd
  0
BLOCK
  5
6C75
330
6C74
100
AcDbEntity
  8
0
100
AcDbBlockBegin
  2
*D52
 70
     1
 10
0.0
 20
0.0
 30
0.0
  3
*D52
  1

  0
LINE
  5
6C77
330
6C74
100
AcDbEntity
  8
30
  6
Continuous
 62
     0
440
 16777216
370
    -2
100
AcDbLine
 10
29.98209646482873
 20
219.0
 30
0.0
 11
29.98209646482873
 21
256.5
 31
0.0
  0
LINE
  5
6C78
330
6C74
100
AcDbEntity
  8
30
  6
Continuous
 62
     0
440
 16777216
370
    -2
100
AcDbLine
 10
0.0000000000000001
 20
256.6073578546832
 30
0.0
 11
0.0000000000000001
 21
256.5
 31
0.0
  0
LINE
  5
6C79
330
6C74
100
AcDbEntity
  8
30
  6
Continuous
 62
     0
440
 16777216
370
    -2
100
AcDbLine
 10
27.98209646482873
 20
256.0
 30
0.0
 11
2.0
 21
256.0
 31
0.0
  0
INSERT
  5
6C7A
330
6C74
100
AcDbEntity
  8
30
  6
Continuous
 62
     0
440
 16777216
370
    -2
100
AcDbBlockReference
  2
_OPEN
 10
29.98209646482873
 20
256.0
 30
0.0
 41
2.0
 42
2.0
 43
2.0
  0
INSERT
  5
6C7B
330
6C74
100
AcDbEntity
  8
30
  6
Continuous
 62
     0
440
 16777216
370
    -2
100
AcDbBlockReference
  2
_OPEN
 10
0.0
 20
256.0
 30
0.0
 41
2.0
 42
2.0
 43
2.0
 50
180.0
  0
MTEXT
  5
6C7C
330
6C74
100
AcDbEntity
  8
30
  6
Continuous
 62
     0
440
 16777216
100
AcDbMText
 10
14.99104823241436
 20
259.0
 30
0.0
 40
4.0
 41
0.0
 46
0.0
 71
     5
 72
     1
  1
\A1;30
 73
     1
 44
1.0
1001
ACAD
1000
MTEXTBEGIN
1070
    73
1070
     1
1070
    44
1040
1.0
1070
    74
1070
     0
1000
MTEXTEND
  0
POINT
  5
6C7D
330
6C74
100
AcDbEntity
  8
DEFPOINTS
  6
Continuous
 62
     0
440
 16777216
100
AcDbPoint
 10
29.98209646482873
 20
218.0
 30
0.0
  0
POINT
  5
6C7E
330
6C74
100
AcDbEntity
  8
DEFPOINTS
  6
Continuous
 62
     0
440
 16777216
100
AcDbPoint
 10
0.0
 20
255.6073578546832
 30
0.0
  0
POINT
  5
6C7F
330
6C74
100
AcDbEntity
  8
DEFPOINTS
  6
Continuous
 62
     0
440
 16777216
100
AcDbPoint
 10
0.0
 20
256.0
 30
0.0
  0
ENDBLK
  5
6C76
330
6C74
100
AcDbEntity
  8
0
100
AcDbBlockEnd
  0
BLOCK
  5
6C82
330
6C81
100
AcDbEntity
  8
0
100
AcDbBlockBegin
  2
*D53
 70
     1
 10
0.0
 20
0.0
 30
0.0
  3
*D53
  1

  0
LINE
  5
6C84
330
6C81
100
AcDbEntity
  8
30
  6
Continuous
 62
     0
370
    -2
100
AcDbLine
 10
10.98209646482871
 20
158.1349134126128
 30
0.0
 11
10.98209646482871
 21
153.5
 31
0.0
  0
LINE
  5
6C85
330
6C81
100
AcDbEntity
  8
30
  6
Continuous
 62
     0
370
    -2
100
AcDbLine
 10
45.0
 20
166.1349134126126
 30
0.0
 11
45.0
 21
153.5
 31
0.0
  0
LINE
  5
6C86
330
6C81
100
AcDbEntity
  8
30
  6
Continuous
 62
     0
370
    -2
100
AcDbLine
 10
12.9820964648287
 20
154.0
 30
0.0
 11
43.0
 21
154.0
 31
0.0
  0
INSERT
  5
6C87
330
6C81
100
AcDbEntity
  8
30
  6
Continuous
 62
     0
370
    -2
100
AcDbBlockReference
  2
_OPEN
 10
10.98209646482871
 20
154.0
 30
0.0
 41
2.0
 42
2.0
 43
2.0
 50
180.0
  0
INSERT
  5
6C88
330
6C81
100
AcDbEntity
  8
30
  6
Continuous
 62
     0
370
    -2
100
AcDbBlockReference
  2
_OPEN
 10
45.0
 20
154.0
 30
0.0
 41
2.0
 42
2.0
 43
2.0
  0
MTEXT
  5
6C89
330
6C81
100
AcDbEntity
  8
30
  6
Continuous
 62
     0
100
AcDbMText
 10
27.99104823241436
 20
157.0
 30
0.0
 40
4.0
 41
0.0
 46
0.0
 71
     5
 72
     1
  1
\A1;34
 73
     1
 44
1.0
1001
ACAD
1000
MTEXTBEGIN
1070
    73
1070
     1
1070
    44
1040
1.0
1070
    74
1070
     0
1000
MTEXTEND
  0
POINT
  5
6C8A
330
6C81
100
AcDbEntity
  8
DEFPOINTS
  6
Continuous
 62
     0
100
AcDbPoint
 10
10.98209646482871
 20
159.1349134126128
 30
0.0
  0
POINT
  5
6C8B
330
6C81
100
AcDbEntity
  8
DEFPOINTS
  6
Continuous
 62
     0
100
AcDbPoint
 10
45.0
 20
167.1349134126126
 30
0.0
  0
POINT
  5
6C8C
330
6C81
100
AcDbEntity
  8
DEFPOINTS
  6
Continuous
 62
     0
100
AcDbPoint
 10
45.0
 20
154.0
 30
0.0
  0
ENDBLK
  5
6C83
330
6C81
100
AcDbEntity
  8
0
100
AcDbBlockEnd
  0
BLOCK
  5
6C8F
330
6C8E
100
AcDbEntity
  8
0
100
AcDbBlockBegin
  2
*D54
 70
     1
 10
0.0
 20
0.0
 30
0.0
  3
*D54
  1

  0
LINE
  5
6C91
330
6C8E
100
AcDbEntity
  8
30
  6
Continuous
 62
     0
370
    -2
100
AcDbLine
 10
-11.03580707034253
 20
158.1349134126128
 30
0.0
 11
-11.03580707034253
 21
152.5
 31
0.0
  0
LINE
  5
6C92
330
6C8E
100
AcDbEntity
  8
30
  6
Continuous
 62
     0
370
    -2
100
AcDbLine
 10
-44.99999999999997
 20
166.1349134126124
 30
0.0
 11
-44.99999999999997
 21
152.5
 31
0.0
  0
LINE
  5
6C93
330
6C8E
100
AcDbEntity
  8
30
  6
Continuous
 62
     0
370
    -2
100
AcDbLine
 10
-13.03580707034253
 20
153.0
 30
0.0
 11
-42.99999999999997
 21
153.0
 31
0.0
  0
INSERT
  5
6C94
330
6C8E
100
AcDbEntity
  8
30
  6
Continuous
 62
     0
370
    -2
100
AcDbBlockReference
  2
_OPEN
 10
-11.03580707034253
 20
153.0
 30
0.0
 41
2.0
 42
2.0
 43
2.0
  0
INSERT
  5
6C95
330
6C8E
100
AcDbEntity
  8
30
  6
Continuous
 62
     0
370
    -2
100
AcDbBlockReference
  2
_OPEN
 10
-44.99999999999997
 20
153.0
 30
0.0
 41
2.0
 42
2.0
 43
2.0
 50
180.0
  0
MTEXT
  5
6C96
330
6C8E
100
AcDbEntity
  8
30
  6
Continuous
 62
     0
100
AcDbMText
 10
-28.01790353517125
 20
156.0
 30
0.0
 40
4.0
 41
0.0
 46
0.0
 71
     5
 72
     1
  1
\A1;34
 73
     1
 44
1.0
1001
ACAD
1000
MTEXTBEGIN
1070
    73
1070
     1
1070
    44
1040
1.0
1070
    74
1070
     0
1000
MTEXTEND
  0
POINT
  5
6C97
330
6C8E
100
AcDbEntity
  8
DEFPOINTS
  6
Continuous
 62
     0
100
AcDbPoint
 10
-11.03580707034253
 20
159.1349134126128
 30
0.0
  0
POINT
  5
6C98
330
6C8E
100
AcDbEntity
  8
DEFPOINTS
  6
Continuous
 62
     0
100
AcDbPoint
 10
-44.99999999999997
 20
167.1349134126124
 30
0.0
  0
POINT
  5
6C99
330
6C8E
100
AcDbEntity
  8
DEFPOINTS
  6
Continuous
 62
     0
100
AcDbPoint
 10
-44.99999999999997
 20
153.0
 30
0.0
  0
ENDBLK
  5
6C90
330
6C8E
100
AcDbEntity
  8
0
100
AcDbBlockEnd
  0
BLOCK
  5
6C9C
330
6C9B
100
AcDbEntity
  8
0
100
AcDbBlockBegin
  2
*D55
 70
     1
 10
0.0
 20
0.0
 30
0.0
  3
*D55
  1

  0
LINE
  5
6C9E
330
6C9B
100
AcDbEntity
  8
30
  6
Continuous
 62
     0
370
    -2
100
AcDbLine
 10
45.0
 20
166.1349134126126
 30
0.0
 11
45.0
 21
141.5
 31
0.0
  0
LINE
  5
6C9F
330
6C9B
100
AcDbEntity
  8
30
  6
Continuous
 62
     0
370
    -2
100
AcDbLine
 10
6.982096464828722
 20
150.0628919969166
 30
0.0
 11
6.982096464828721
 21
141.5
 31
0.0
  0
LINE
  5
6CA0
330
6C9B
100
AcDbEntity
  8
30
  6
Continuous
 62
     0
370
    -2
100
AcDbLine
 10
43.0
 20
142.0
 30
0.0
 11
8.982096464828721
 21
142.0
 31
0.0
  0
INSERT
  5
6CA1
330
6C9B
100
AcDbEntity
  8
30
  6
Continuous
 62
     0
370
    -2
100
AcDbBlockReference
  2
_OPEN
 10
45.0
 20
142.0
 30
0.0
 41
2.0
 42
2.0
 43
2.0
  0
INSERT
  5
6CA2
330
6C9B
100
AcDbEntity
  8
30
  6
Continuous
 62
     0
370
    -2
100
AcDbBlockReference
  2
_OPEN
 10
6.982096464828721
 20
142.0
 30
0.0
 41
2.0
 42
2.0
 43
2.0
 50
180.0
  0
MTEXT
  5
6CA3
330
6C9B
100
AcDbEntity
  8
30
  6
Continuous
 62
     0
100
AcDbMText
 10
25.99104823241436
 20
145.0
 30
0.0
 40
4.0
 41
0.0
 46
0.0
 71
     5
 72
     1
  1
\A1;38
 73
     1
 44
1.0
1001
ACAD
1000
MTEXTBEGIN
1070
    73
1070
     1
1070
    44
1040
1.0
1070
    74
1070
     0
1000
MTEXTEND
  0
POINT
  5
6CA4
330
6C9B
100
AcDbEntity
  8
DEFPOINTS
  6
Continuous
 62
     0
100
AcDbPoint
 10
45.0
 20
167.1349134126126
 30
0.0
  0
POINT
  5
6CA5
330
6C9B
100
AcDbEntity
  8
DEFPOINTS
  6
Continuous
 62
     0
100
AcDbPoint
 10
6.982096464828722
 20
151.0628919969166
 30
0.0
  0
POINT
  5
6CA6
330
6C9B
100
AcDbEntity
  8
DEFPOINTS
  6
Continuous
 62
     0
100
AcDbPoint
 10
6.982096464828721
 20
142.0
 30
0.0
  0
ENDBLK
  5
6C9D
330
6C9B
100
AcDbEntity
  8
0
100
AcDbBlockEnd
  0
BLOCK
  5
6CA9
330
6CA8
100
AcDbEntity
  8
0
100
AcDbBlockBegin
  2
*D56
 70
     1
 10
0.0
 20
0.0
 30
0.0
  3
*D56
  1

  0
LINE
  5
6CAB
330
6CA8
100
AcDbEntity
  8
30
  6
Continuous
 62
     0
370
    -2
100
AcDbLine
 10
-7.017903535171235
 20
150.0628919969166
 30
0.0
 11
-7.017903535171235
 21
141.5
 31
0.0
  0
LINE
  5
6CAC
330
6CA8
100
AcDbEntity
  8
30
  6
Continuous
 62
     0
370
    -2
100
AcDbLine
 10
-44.99999999999997
 20
166.1349134126124
 30
0.0
 11
-44.99999999999997
 21
141.5
 31
0.0
  0
LINE
  5
6CAD
330
6CA8
100
AcDbEntity
  8
30
  6
Continuous
 62
     0
370
    -2
100
AcDbLine
 10
-9.017903535171241
 20
142.0
 30
0.0
 11
-42.99999999999997
 21
142.0
 31
0.0
  0
INSERT
  5
6CAE
330
6CA8
100
AcDbEntity
  8
30
  6
Continuous
 62
     0
370
    -2
100
AcDbBlockReference
  2
_OPEN
 10
-7.017903535171235
 20
142.0
 30
0.0
 41
2.0
 42
2.0
 43
2.0
  0
INSERT
  5
6CAF
330
6CA8
100
AcDbEntity
  8
30
  6
Continuous
 62
     0
370
    -2
100
AcDbBlockReference
  2
_OPEN
 10
-44.99999999999997
 20
142.0
 30
0.0
 41
2.0
 42
2.0
 43
2.0
 50
180.0
  0
MTEXT
  5
6CB0
330
6CA8
100
AcDbEntity
  8
30
  6
Continuous
 62
     0
100
AcDbMText
 10
-26.00895176758561
 20
145.0
 30
0.0
 40
4.0
 41
0.0
 46
0.0
 71
     5
 72
     1
  1
\A1;38
 73
     1
 44
1.0
1001
ACAD
1000
MTEXTBEGIN
1070
    73
1070
     1
1070
    44
1040
1.0
1070
    74
1070
     0
1000
MTEXTEND
  0
POINT
  5
6CB1
330
6CA8
100
AcDbEntity
  8
DEFPOINTS
  6
Continuous
 62
     0
100
AcDbPoint
 10
-7.017903535171235
 20
151.0628919969166
 30
0.0
  0
POINT
  5
6CB2
330
6CA8
100
AcDbEntity
  8
DEFPOINTS
  6
Continuous
 62
     0
100
AcDbPoint
 10
-44.99999999999997
 20
167.1349134126124
 30
0.0
  0
POINT
  5
6CB3
330
6CA8
100
AcDbEntity
  8
DEFPOINTS
  6
Continuous
 62
     0
100
AcDbPoint
 10
-44.99999999999997
 20
142.0
 30
0.0
  0
ENDBLK
  5
6CAA
330
6CA8
100
AcDbEntity
  8
0
100
AcDbBlockEnd
  0
BLOCK
  5
6CB6
330
6CB5
100
AcDbEntity
  8
0
100
AcDbBlockBegin
  2
*D57
 70
     1
 10
0.0
 20
0.0
 30
0.0
  3
*D57
  1

  0
LINE
  5
6CB8
330
6CB5
100
AcDbEntity
  8
30
  6
Continuous
 62
     0
370
    -2
100
AcDbLine
 10
6.982096464828722
 20
150.0628919969166
 30
0.0
 11
6.982096464828718
 21
105.1073578546832
 31
0.0
  0
LINE
  5
6CB9
330
6CB5
100
AcDbEntity
  8
30
  6
Continuous
 62
     0
370
    -2
100
AcDbLine
 10
-0.0000000000000001
 20
150.0628919969166
 30
0.0
 11
-0.0000000000000028
 21
105.1073578546832
 31
0.0
  0
LINE
  5
6CBA
330
6CB5
100
AcDbEntity
  8
30
  6
Continuous
 62
     0
370
    -2
100
AcDbLine
 10
4.982096464828718
 20
105.6073578546832
 30
0.0
 11
1.999999999999995
 21
105.6073578546832
 31
0.0
  0
INSERT
  5
6CBB
330
6CB5
100
AcDbEntity
  8
30
  6
Continuous
 62
     0
370
    -2
100
AcDbBlockReference
  2
_OPEN
 10
6.982096464828718
 20
105.6073578546832
 30
0.0
 41
2.0
 42
2.0
 43
2.0
  0
INSERT
  5
6CBC
330
6CB5
100
AcDbEntity
  8
30
  6
Continuous
 62
     0
370
    -2
100
AcDbBlockReference
  2
_OPEN
 10
-0.0000000000000028
 20
105.6073578546832
 30
0.0
 41
2.0
 42
2.0
 43
2.0
 50
180.0
  0
MTEXT
  5
6CBD
330
6CB5
100
AcDbEntity
  8
30
  6
Continuous
 62
     0
100
AcDbMText
 10
3.491048232414357
 20
108.6073578546832
 30
0.0
 40
4.0
 41
0.0
 46
0.0
 71
     5
 72
     1
  1
\A1;7
 73
     1
 44
1.0
1001
ACAD
1000
MTEXTBEGIN
1070
    73
1070
     1
1070
    44
1040
1.0
1070
    74
1070
     0
1000
MTEXTEND
  0
POINT
  5
6CBE
330
6CB5
100
AcDbEntity
  8
DEFPOINTS
  6
Continuous
 62
     0
100
AcDbPoint
 10
6.982096464828722
 20
151.0628919969166
 30
0.0
  0
POINT
  5
6CBF
330
6CB5
100
AcDbEntity
  8
DEFPOINTS
  6
Continuous
 62
     0
100
AcDbPoint
 10
0.0
 20
151.0628919969166
 30
0.0
  0
POINT
  5
6CC0
330
6CB5
100
AcDbEntity
  8
DEFPOINTS
  6
Continuous
 62
     0
100
AcDbPoint
 10
-0.0000000000000028
 20
105.6073578546832
 30
0.0
  0
ENDBLK
  5
6CB7
330
6CB5
100
AcDbEntity
  8
0
100
AcDbBlockEnd
  0
BLOCK
  5
6CCE
330
6CCD
100
AcDbEntity
  8
0
100
AcDbBlockBegin
  2
*D58
 70
     1
 10
0.0
 20
0.0
 30
0.0
  3
*D58
  1

  0
LINE
  5
6CD0
330
6CCD
100
AcDbEntity
  8
30
  6
Continuous
 62
     0
370
    -2
100
AcDbLine
 10
42.98209646482869
 20
167.1349134126126
 30
0.0
 11
48.5
 21
167.1349134126126
 31
0.0
  0
LINE
  5
6CD1
330
6CCD
100
AcDbEntity
  8
30
  6
Continuous
 62
     0
370
    -2
100
AcDbLine
 10
11.98209646482871
 20
163.1349134126127
 30
0.0
 11
48.5
 21
163.1349134126127
 31
0.0
  0
LINE
  5
6CD2
330
6CCD
100
AcDbEntity
  8
30
  6
Continuous
 62
     0
370
    -2
100
AcDbLine
 10
48.0
 20
169.1349134126126
 30
0.0
 11
48.0
 21
171.1349134126126
 31
0.0
  0
LINE
  5
6CD3
330
6CCD
100
AcDbEntity
  8
30
  6
Continuous
 62
     0
370
    -2
100
AcDbLine
 10
48.0
 20
161.1349134126127
 30
0.0
 11
48.0
 21
159.1349134126127
 31
0.0
  0
LINE
  5
6CD4
330
6CCD
100
AcDbEntity
  8
30
  6
Continuous
 62
     0
370
    -2
100
AcDbLine
 10
48.0
 20
159.1349134126127
 30
0.0
 11
44.33333333333332
 21
159.1349134126127
 31
0.0
  0
INSERT
  5
6CD5
330
6CCD
100
AcDbEntity
  8
30
  6
Continuous
 62
     0
370
    -2
100
AcDbBlockReference
  2
_OPEN
 10
48.0
 20
167.1349134126126
 30
0.0
 41
2.0
 42
2.0
 43
2.0
 50
270.0
  0
INSERT
  5
6CD6
330
6CCD
100
AcDbEntity
  8
30
  6
Continuous
 62
     0
370
    -2
100
AcDbBlockReference
  2
_OPEN
 10
48.0
 20
163.1349134126127
 30
0.0
 41
2.0
 42
2.0
 43
2.0
 50
90.0
  0
MTEXT
  5
6CD7
330
6CCD
100
AcDbEntity
  8
30
  6
Continuous
 62
     0
100
AcDbMText
 10
45.66666666666661
 20
162.1349134126127
 30
0.0
 40
4.0
 41
0.0
 46
0.0
 71
     5
 72
     1
  1
\A1;4
 73
     1
 44
1.0
1001
ACAD
1000
MTEXTBEGIN
1070
    73
1070
     1
1070
    44
1040
1.0
1070
    74
1070
     0
1000
MTEXTEND
  0
POINT
  5
6CD8
330
6CCD
100
AcDbEntity
  8
DEFPOINTS
  6
Continuous
 62
     0
100
AcDbPoint
 10
41.9820964648287
 20
167.1349134126126
 30
0.0
  0
POINT
  5
6CD9
330
6CCD
100
AcDbEntity
  8
DEFPOINTS
  6
Continuous
 62
     0
100
AcDbPoint
 10
10.98209646482871
 20
163.1349134126127
 30
0.0
  0
POINT
  5
6CDA
330
6CCD
100
AcDbEntity
  8
DEFPOINTS
  6
Continuous
 62
     0
100
AcDbPoint
 10
48.0
 20
163.1349134126127
 30
0.0
  0
ENDBLK
  5
6CCF
330
6CCD
100
AcDbEntity
  8
0
100
AcDbBlockEnd
  0
BLOCK
  5
6CDD
330
6CDC
100
AcDbEntity
  8
0
100
AcDbBlockBegin
  2
*D59
 70
     1
 10
0.0
 20
0.0
 30
0.0
  3
*D59
  1

  0
LINE
  5
6CDF
330
6CDC
100
AcDbEntity
  8
30
  6
Continuous
 62
     0
370
    -2
100
AcDbLine
 10
-45.99999999999996
 20
235.1349134126127
 30
0.0
 11
-94.50000000000001
 21
235.1349134126127
 31
0.0
  0
LINE
  5
6CE0
330
6CDC
100
AcDbEntity
  8
30
  6
Continuous
 62
     0
370
    -2
100
AcDbLine
 10
-42.99999999999985
 20
163.1698268252254
 30
0.0
 11
-94.50000000000001
 21
163.1698268252254
 31
0.0
  0
LINE
  5
6CE1
330
6CDC
100
AcDbEntity
  8
30
  6
Continuous
 62
     0
370
    -2
100
AcDbLine
 10
-94.0
 20
233.1349134126127
 30
0.0
 11
-94.00000000000002
 21
165.1698268252254
 31
0.0
  0
INSERT
  5
6CE2
330
6CDC
100
AcDbEntity
  8
30
  6
Continuous
 62
     0
370
    -2
100
AcDbBlockReference
  2
_OPEN
 10
-94.0
 20
235.1349134126127
 30
0.0
 41
2.0
 42
2.0
 43
2.0
 50
90.0
  0
INSERT
  5
6CE3
330
6CDC
100
AcDbEntity
  8
30
  6
Continuous
 62
     0
370
    -2
100
AcDbBlockReference
  2
_OPEN
 10
-94.00000000000002
 20
163.1698268252254
 30
0.0
 41
2.0
 42
2.0
 43
2.0
 50
270.0
  0
MTEXT
  5
6CE4
330
6CDC
100
AcDbEntity
  8
30
  6
Continuous
 62
     0
100
AcDbMText
 10
-97.00000000000004
 20
199.152370118919
 30
0.0
 40
4.0
 41
0.0
 46
0.0
 71
     5
 72
     1
  1
\A1;72
 11
0.0000000000000001
 21
1.0
 31
0.0
 73
     1
 44
1.0
1001
ACAD
1000
MTEXTBEGIN
1070
    73
1070
     1
1070
    44
1040
1.0
1070
    74
1070
     0
1000
MTEXTEND
  0
POINT
  5
6CE5
330
6CDC
100
AcDbEntity
  8
DEFPOINTS
  6
Continuous
 62
     0
100
AcDbPoint
 10
-44.99999999999997
 20
235.1349134126127
 30
0.0
  0
POINT
  5
6CE6
330
6CDC
100
AcDbEntity
  8
DEFPOINTS
  6
Continuous
 62
     0
100
AcDbPoint
 10
-41.99999999999984
 20
163.1698268252254
 30
0.0
  0
POINT
  5
6CE7
330
6CDC
100
AcDbEntity
  8
DEFPOINTS
  6
Continuous
 62
     0
100
AcDbPoint
 10
-94.00000000000002
 20
163.1698268252254
 30
0.0
  0
ENDBLK
  5
6CDE
330
6CDC
100
AcDbEntity
  8
0
100
AcDbBlockEnd
  0
BLOCK
  5
6D37
330
6D36
100
AcDbEntity
  8
0
100
AcDbBlockBegin
  2
*D60
 70
     1
 10
0.0
 20
0.0
 30
0.0
  3
*D60
  1

  0
LINE
  5
6D39
330
6D36
100
AcDbEntity
  8
30
  6
Continuous
 62
     0
440
 16777216
370
    -2
100
AcDbLine
 10
46.0
 20
235.1349134126127
 30
0.0
 11
54.50000000000001
 21
235.1349134126127
 31
0.0
  0
LINE
  5
6D3A
330
6D36
100
AcDbEntity
  8
30
  6
Continuous
 62
     0
440
 16777216
370
    -2
100
AcDbLine
 10
46.0
 20
174.134913412613
 30
0.0
 11
54.49999999999999
 21
174.134913412613
 31
0.0
  0
LINE
  5
6D3B
330
6D36
100
AcDbEntity
  8
30
  6
Continuous
 62
     0
440
 16777216
370
    -2
100
AcDbLine
 10
54.00000000000001
 20
233.1349134126127
 30
0.0
 11
54.0
 21
176.134913412613
 31
0.0
  0
INSERT
  5
6D3C
330
6D36
100
AcDbEntity
  8
30
  6
Continuous
 62
     0
440
 16777216
370
    -2
100
AcDbBlockReference
  2
_OPEN
 10
54.00000000000001
 20
235.1349134126127
 30
0.0
 41
2.0
 42
2.0
 43
2.0
 50
90.0
  0
INSERT
  5
6D3D
330
6D36
100
AcDbEntity
  8
30
  6
Continuous
 62
     0
440
 16777216
370
    -2
100
AcDbBlockReference
  2
_OPEN
 10
53.99999999999999
 20
174.134913412613
 30
0.0
 41
2.0
 42
2.0
 43
2.0
 50
270.0
  0
MTEXT
  5
6D3E
330
6D36
100
AcDbEntity
  8
30
  6
Continuous
 62
     0
440
 16777216
100
AcDbMText
 10
50.99999999999997
 20
204.6349134126128
 30
0.0
 40
4.0
 41
0.0
 46
0.0
 71
     5
 72
     1
  1
\A1;61
 11
0.0000000000000001
 21
1.0
 31
0.0
 73
     1
 44
1.0
1001
ACAD
1000
MTEXTBEGIN
1070
    73
1070
     1
1070
    44
1040
1.0
1070
    74
1070
     0
1000
MTEXTEND
  0
POINT
  5
6D3F
330
6D36
100
AcDbEntity
  8
DEFPOINTS
  6
Continuous
 62
     0
440
 16777216
100
AcDbPoint
 10
45.0
 20
235.1349134126127
 30
0.0
  0
POINT
  5
6D40
330
6D36
100
AcDbEntity
  8
DEFPOINTS
  6
Continuous
 62
     0
440
 16777216
100
AcDbPoint
 10
45.0
 20
174.134913412613
 30
0.0
  0
POINT
  5
6D41
330
6D36
100
AcDbEntity
  8
DEFPOINTS
  6
Continuous
 62
     0
440
 16777216
100
AcDbPoint
 10
53.99999999999999
 20
174.134913412613
 30
0.0
  0
ENDBLK
  5
6D38
330
6D36
100
AcDbEntity
  8
0
100
AcDbBlockEnd
  0
BLOCK
  5
6D44
330
6D43
100
AcDbEntity
  8
0
100
AcDbBlockBegin
  2
*D61
 70
     1
 10
0.0
 20
0.0
 30
0.0
  3
*D61
  1

  0
LINE
  5
6D46
330
6D43
100
AcDbEntity
  8
30
  6
Continuous
 62
     0
440
 16777216
370
    -2
100
AcDbLine
 10
46.0
 20
235.1349134126127
 30
0.0
 11
61.50000000000002
 21
235.1349134126127
 31
0.0
  0
LINE
  5
6D47
330
6D43
100
AcDbEntity
  8
30
  6
Continuous
 62
     0
440
 16777216
370
    -2
100
AcDbLine
 10
46.0
 20
167.1349134126126
 30
0.0
 11
61.5
 21
167.1349134126126
 31
0.0
  0
LINE
  5
6D48
330
6D43
100
AcDbEntity
  8
30
  6
Continuous
 62
     0
440
 16777216
370
    -2
100
AcDbLine
 10
61.00000000000001
 20
233.1349134126127
 30
0.0
 11
61.0
 21
169.1349134126126
 31
0.0
  0
INSERT
  5
6D49
330
6D43
100
AcDbEntity
  8
30
  6
Continuous
 62
     0
440
 16777216
370
    -2
100
AcDbBlockReference
  2
_OPEN
 10
61.00000000000001
 20
235.1349134126127
 30
0.0
 41
2.0
 42
2.0
 43
2.0
 50
90.0
  0
INSERT
  5
6D4A
330
6D43
100
AcDbEntity
  8
30
  6
Continuous
 62
     0
440
 16777216
370
    -2
100
AcDbBlockReference
  2
_OPEN
 10
61.0
 20
167.1349134126126
 30
0.0
 41
2.0
 42
2.0
 43
2.0
 50
270.0
  0
MTEXT
  5
6D4B
330
6D43
100
AcDbEntity
  8
30
  6
Continuous
 62
     0
440
 16777216
100
AcDbMText
 10
57.99999999999998
 20
201.1349134126127
 30
0.0
 40
4.0
 41
0.0
 46
0.0
 71
     5
 72
     1
  1
\A1;68
 11
0.0000000000000001
 21
1.0
 31
0.0
 73
     1
 44
1.0
1001
ACAD
1000
MTEXTBEGIN
1070
    73
1070
     1
1070
    44
1040
1.0
1070
    74
1070
     0
1000
MTEXTEND
  0
POINT
  5
6D4C
330
6D43
100
AcDbEntity
  8
DEFPOINTS
  6
Continuous
 62
     0
440
 16777216
100
AcDbPoint
 10
45.0
 20
235.1349134126127
 30
0.0
  0
POINT
  5
6D4D
330
6D43
100
AcDbEntity
  8
DEFPOINTS
  6
Continuous
 62
     0
440
 16777216
100
AcDbPoint
 10
45.0
 20
167.1349134126126
 30
0.0
  0
POINT
  5
6D4E
330
6D43
100
AcDbEntity
  8
DEFPOINTS
  6
Continuous
 62
     0
440
 16777216
100
AcDbPoint
 10
61.0
 20
167.1349134126126
 30
0.0
  0
ENDBLK
  5
6D45
330
6D43
100
AcDbEntity
  8
0
100
AcDbBlockEnd
  0
BLOCK
  5
6D51
330
6D50
100
AcDbEntity
  8
0
100
AcDbBlockBegin
  2
*D62
 70
     1
 10
0.0
 20
0.0
 30
0.0
  3
*D62
  1

  0
LINE
  5
6D53
330
6D50
100
AcDbEntity
  8
30
  6
Continuous
 62
     0
440
 16777216
370
    -2
100
AcDbLine
 10
46.0
 20
235.1349134126127
 30
0.0
 11
69.50000000000001
 21
235.1349134126127
 31
0.0
  0
LINE
  5
6D54
330
6D50
100
AcDbEntity
  8
30
  6
Continuous
 62
     0
440
 16777216
370
    -2
100
AcDbLine
 10
42.98209646482869
 20
163.1698268252254
 30
0.0
 11
69.5
 21
163.1698268252254
 31
0.0
  0
LINE
  5
6D55
330
6D50
100
AcDbEntity
  8
30
  6
Continuous
 62
     0
440
 16777216
370
    -2
100
AcDbLine
 10
69.00000000000002
 20
233.1349134126126
 30
0.0
 11
69.0
 21
165.1698268252254
 31
0.0
  0
INSERT
  5
6D56
330
6D50
100
AcDbEntity
  8
30
  6
Continuous
 62
     0
440
 16777216
370
    -2
100
AcDbBlockReference
  2
_OPEN
 10
69.00000000000002
 20
235.1349134126127
 30
0.0
 41
2.0
 42
2.0
 43
2.0
 50
90.0
  0
INSERT
  5
6D57
330
6D50
100
AcDbEntity
  8
30
  6
Continuous
 62
     0
440
 16777216
370
    -2
100
AcDbBlockReference
  2
_OPEN
 10
69.0
 20
163.1698268252254
 30
0.0
 41
2.0
 42
2.0
 43
2.0
 50
270.0
  0
MTEXT
  5
6D58
330
6D50
100
AcDbEntity
  8
30
  6
Continuous
 62
     0
440
 16777216
100
AcDbMText
 10
65.99999999999997
 20
199.152370118919
 30
0.0
 40
4.0
 41
0.0
 46
0.0
 71
     5
 72
     1
  1
\A1;72
 11
0.0000000000000001
 21
1.0
 31
0.0
 73
     1
 44
1.0
1001
ACAD
1000
MTEXTBEGIN
1070
    73
1070
     1
1070
    44
1040
1.0
1070
    74
1070
     0
1000
MTEXTEND
  0
POINT
  5
6D59
330
6D50
100
AcDbEntity
  8
DEFPOINTS
  6
Continuous
 62
     0
440
 16777216
100
AcDbPoint
 10
45.0
 20
235.1349134126127
 30
0.0
  0
POINT
  5
6D5A
330
6D50
100
AcDbEntity
  8
DEFPOINTS
  6
Continuous
 62
     0
440
 16777216
100
AcDbPoint
 10
41.98209646482871
 20
163.1698268252254
 30
0.0
  0
POINT
  5
6D5B
330
6D50
100
AcDbEntity
  8
DEFPOINTS
  6
Continuous
 62
     0
440
 16777216
100
AcDbPoint
 10
69.0
 20
163.1698268252254
 30
0.0
  0
ENDBLK
  5
6D52
330
6D50
100
AcDbEntity
  8
0
100
AcDbBlockEnd
  0
BLOCK
  5
6D5E
330
6D5D
100
AcDbEntity
  8
0
100
AcDbBlockBegin
  2
*D63
 70
     1
 10
0.0
 20
0.0
 30
0.0
  3
*D63
  1

  0
LINE
  5
6D60
330
6D5D
100
AcDbEntity
  8
30
  6
Continuous
 62
     0
440
 16777216
370
    -2
100
AcDbLine
 10
46.0
 20
235.1349134126127
 30
0.0
 11
77.50000000000001
 21
235.1349134126127
 31
0.0
  0
LINE
  5
6D61
330
6D5D
100
AcDbEntity
  8
30
  6
Continuous
 62
     0
440
 16777216
370
    -2
100
AcDbLine
 10
11.98209646482871
 20
159.1349134126128
 30
0.0
 11
77.49999999999999
 21
159.1349134126128
 31
0.0
  0
LINE
  5
6D62
330
6D5D
100
AcDbEntity
  8
30
  6
Continuous
 62
     0
440
 16777216
370
    -2
100
AcDbLine
 10
77.00000000000001
 20
233.1349134126126
 30
0.0
 11
77.0
 21
161.1349134126128
 31
0.0
  0
INSERT
  5
6D63
330
6D5D
100
AcDbEntity
  8
30
  6
Continuous
 62
     0
440
 16777216
370
    -2
100
AcDbBlockReference
  2
_OPEN
 10
77.00000000000001
 20
235.1349134126127
 30
0.0
 41
2.0
 42
2.0
 43
2.0
 50
90.0
  0
INSERT
  5
6D64
330
6D5D
100
AcDbEntity
  8
30
  6
Continuous
 62
     0
440
 16777216
370
    -2
100
AcDbBlockReference
  2
_OPEN
 10
76.99999999999999
 20
159.1349134126128
 30
0.0
 41
2.0
 42
2.0
 43
2.0
 50
270.0
  0
MTEXT
  5
6D65
330
6D5D
100
AcDbEntity
  8
30
  6
Continuous
 62
     0
440
 16777216
100
AcDbMText
 10
73.99999999999997
 20
197.1349134126127
 30
0.0
 40
4.0
 41
0.0
 46
0.0
 71
     5
 72
     1
  1
\A1;76
 11
0.0000000000000001
 21
1.0
 31
0.0
 73
     1
 44
1.0
1001
ACAD
1000
MTEXTBEGIN
1070
    73
1070
     1
1070
    44
1040
1.0
1070
    74
1070
     0
1000
MTEXTEND
  0
POINT
  5
6D66
330
6D5D
100
AcDbEntity
  8
DEFPOINTS
  6
Continuous
 62
     0
440
 16777216
100
AcDbPoint
 10
45.0
 20
235.1349134126127
 30
0.0
  0
POINT
  5
6D67
330
6D5D
100
AcDbEntity
  8
DEFPOINTS
  6
Continuous
 62
     0
440
 16777216
100
AcDbPoint
 10
10.98209646482871
 20
159.1349134126128
 30
0.0
  0
POINT
  5
6D68
330
6D5D
100
AcDbEntity
  8
DEFPOINTS
  6
Continuous
 62
     0
440
 16777216
100
AcDbPoint
 10
76.99999999999999
 20
159.1349134126128
 30
0.0
  0
ENDBLK
  5
6D5F
330
6D5D
100
AcDbEntity
  8
0
100
AcDbBlockEnd
  0
BLOCK
  5
6D6B
330
6D6A
100
AcDbEntity
  8
0
100
AcDbBlockBegin
  2
*D64
 70
     1
 10
0.0
 20
0.0
 30
0.0
  3
*D64
  1

  0
LINE
  5
6D6D
330
6D6A
100
AcDbEntity
  8
30
  6
Continuous
 62
     0
370
    -2
100
AcDbLine
 10
46.0
 20
235.1349134126127
 30
0.0
 11
85.50000000000002
 21
235.1349134126127
 31
0.0
  0
LINE
  5
6D6E
330
6D6A
100
AcDbEntity
  8
30
  6
Continuous
 62
     0
370
    -2
100
AcDbLine
 10
7.982096464828722
 20
151.0628919969166
 30
0.0
 11
85.5
 21
151.0628919969165
 31
0.0
  0
LINE
  5
6D6F
330
6D6A
100
AcDbEntity
  8
30
  6
Continuous
 62
     0
370
    -2
100
AcDbLine
 10
85.00000000000003
 20
233.1349134126126
 30
0.0
 11
85.0
 21
153.0628919969165
 31
0.0
  0
INSERT
  5
6D70
330
6D6A
100
AcDbEntity
  8
30
  6
Continuous
 62
     0
370
    -2
100
AcDbBlockReference
  2
_OPEN
 10
85.00000000000003
 20
235.1349134126127
 30
0.0
 41
2.0
 42
2.0
 43
2.0
 50
90.0
  0
INSERT
  5
6D71
330
6D6A
100
AcDbEntity
  8
30
  6
Continuous
 62
     0
370
    -2
100
AcDbBlockReference
  2
_OPEN
 10
85.0
 20
151.0628919969165
 30
0.0
 41
2.0
 42
2.0
 43
2.0
 50
270.0
  0
MTEXT
  5
6D72
330
6D6A
100
AcDbEntity
  8
30
  6
Continuous
 62
     0
100
AcDbMText
 10
81.99999999999999
 20
193.0989027047646
 30
0.0
 40
4.0
 41
0.0
 46
0.0
 71
     5
 72
     1
  1
\A1;84.1
 11
0.0000000000000001
 21
1.0
 31
0.0
 73
     1
 44
1.0
1001
ACAD
1000
MTEXTBEGIN
1070
    73
1070
     1
1070
    44
1040
1.0
1070
    74
1070
     0
1000
MTEXTEND
  0
POINT
  5
6D73
330
6D6A
100
AcDbEntity
  8
DEFPOINTS
  6
Continuous
 62
     0
100
AcDbPoint
 10
45.0
 20
235.1349134126127
 30
0.0
  0
POINT
  5
6D74
330
6D6A
100
AcDbEntity
  8
DEFPOINTS
  6
Continuous
 62
     0
100
AcDbPoint
 10
6.982096464828722
 20
151.0628919969166
 30
0.0
  0
POINT
  5
6D75
330
6D6A
100
AcDbEntity
  8
DEFPOINTS
  6
Continuous
 62
     0
100
AcDbPoint
 10
85.0
 20
151.0628919969165
 30
0.0
  0
ENDBLK
  5
6D6C
330
6D6A
100
AcDbEntity
  8
0
100
AcDbBlockEnd
  0
BLOCK
  5
6D78
330
6D77
100
AcDbEntity
  8
0
100
AcDbBlockBegin
  2
*D65
 70
     1
 10
0.0
 20
0.0
 30
0.0
  3
*D65
  1

  0
LINE
  5
6D7A
330
6D77
100
AcDbEntity
  8
30
  6
Continuous
 62
     0
370
    -2
100
AcDbLine
 10
137.2606823778141
 20
21.1548687058105
 30
0.0
 11
137.2606823778141
 21
143.5
 31
0.0
  0
LINE
  5
6D7B
330
6D77
100
AcDbEntity
  8
30
  6
Continuous
 62
     0
370
    -2
100
AcDbLine
 10
221.8144775593031
 20
78.5000000000001
 30
0.0
 11
221.8144775593031
 21
143.5
 31
0.0
  0
LINE
  5
6D7C
330
6D77
100
AcDbEntity
  8
30
  6
Continuous
 62
     0
370
    -2
100
AcDbLine
 10
139.2606823778141
 20
143.0
 30
0.0
 11
219.8144775593031
 21
143.0
 31
0.0
  0
INSERT
  5
6D7D
330
6D77
100
AcDbEntity
  8
30
  6
Continuous
 62
     0
370
    -2
100
AcDbBlockReference
  2
_OPEN
 10
137.2606823778141
 20
143.0
 30
0.0
 41
2.0
 42
2.0
 43
2.0
 50
180.0
  0
INSERT
  5
6D7E
330
6D77
100
AcDbEntity
  8
30
  6
Continuous
 62
     0
370
    -2
100
AcDbBlockReference
  2
_OPEN
 10
221.8144775593031
 20
143.0
 30
0.0
 41
2.0
 42
2.0
 43
2.0
  0
MTEXT
  5
6D7F
330
6D77
100
AcDbEntity
  8
30
  6
Continuous
 62
     0
100
AcDbMText
 10
179.5375799685586
 20
146.0
 30
0.0
 40
4.0
 41
0.0
 46
0.0
 71
     5
 72
     1
  1
\A1;84.6
 73
     1
 44
1.0
1001
ACAD
1000
MTEXTBEGIN
1070
    73
1070
     1
1070
    44
1040
1.0
1070
    74
1070
     0
1000
MTEXTEND
  0
POINT
  5
6D80
330
6D77
100
AcDbEntity
  8
DEFPOINTS
  6
Continuous
 62
     0
100
AcDbPoint
 10
137.2606823778141
 20
20.1548687058105
 30
0.0
  0
POINT
  5
6D81
330
6D77
100
AcDbEntity
  8
DEFPOINTS
  6
Continuous
 62
     0
100
AcDbPoint
 10
221.8144775593031
 20
77.5000000000001
 30
0.0
  0
POINT
  5
6D82
330
6D77
100
AcDbEntity
  8
DEFPOINTS
  6
Continuous
 62
     0
100
AcDbPoint
 10
221.8144775593031
 20
143.0
 30
0.0
  0
ENDBLK
  5
6D79
330
6D77
100
AcDbEntity
  8
0
100
AcDbBlockEnd
  0
BLOCK
  5
6DD1
330
6DD0
100
AcDbEntity
  8
0
100
AcDbBlockBegin
  2
*D66
 70
     1
 10
0.0
 20
0.0
 30
0.0
  3
*D66
  1

  0
LINE
  5
6DD3
330
6DD0
100
AcDbEntity
  8
30
  6
Continuous
 62
     0
370
    -2
100
AcDbLine
 10
133.819223759708
 20
16.23995644007674
 30
0.0
 11
133.819223759708
 21
146.5
 31
0.0
  0
LINE
  5
6DD4
330
6DD0
100
AcDbEntity
  8
30
  6
Continuous
 62
     0
370
    -2
100
AcDbLine
 10
221.8144775593031
 20
78.5000000000001
 30
0.0
 11
221.8144775593031
 21
146.5
 31
0.0
  0
LINE
  5
6DD5
330
6DD0
100
AcDbEntity
  8
30
  6
Continuous
 62
     0
370
    -2
100
AcDbLine
 10
135.819223759708
 20
146.0
 30
0.0
 11
219.8144775593031
 21
146.0
 31
0.0
  0
INSERT
  5
6DD6
330
6DD0
100
AcDbEntity
  8
30
  6
Continuous
 62
     0
370
    -2
100
AcDbBlockReference
  2
_OPEN
 10
133.819223759708
 20
146.0
 30
0.0
 41
2.0
 42
2.0
 43
2.0
 50
180.0
  0
INSERT
  5
6DD7
330
6DD0
100
AcDbEntity
  8
30
  6
Continuous
 62
     0
370
    -2
100
AcDbBlockReference
  2
_OPEN
 10
221.8144775593031
 20
146.0
 30
0.0
 41
2.0
 42
2.0
 43
2.0
  0
MTEXT
  5
6DD8
330
6DD0
100
AcDbEntity
  8
30
  6
Continuous
 62
     0
100
AcDbMText
 10
177.8168506595056
 20
149.0
 30
0.0
 40
4.0
 41
0.0
 46
0.0
 71
     5
 72
     1
  1
\A1;88
 73
     1
 44
1.0
1001
ACAD
1000
MTEXTBEGIN
1070
    73
1070
     1
1070
    44
1040
1.0
1070
    74
1070
     0
1000
MTEXTEND
  0
POINT
  5
6DD9
330
6DD0
100
AcDbEntity
  8
DEFPOINTS
  6
Continuous
 62
     0
100
AcDbPoint
 10
133.819223759708
 20
15.23995644007674
 30
0.0
  0
POINT
  5
6DDA
330
6DD0
100
AcDbEntity
  8
DEFPOINTS
  6
Continuous
 62
     0
100
AcDbPoint
 10
221.8144775593031
 20
77.5000000000001
 30
0.0
  0
POINT
  5
6DDB
330
6DD0
100
AcDbEntity
  8
DEFPOINTS
  6
Continuous
 62
     0
100
AcDbPoint
 10
221.8144775593031
 20
146.0
 30
0.0
  0
ENDBLK
  5
6DD2
330
6DD0
100
AcDbEntity
  8
0
100
AcDbBlockEnd
  0
BLOCK
  5
6E66
330
6E65
100
AcDbEntity
  8
0
100
AcDbBlockBegin
  2
*D67
 70
     1
 10
0.0
 20
0.0
 30
0.0
  3
*D67
  1

  0
LINE
  5
6E68
330
6E65
100
AcDbEntity
  8
30
  6
Continuous
 62
     0
370
    -2
100
AcDbLine
 10
46.0
 20
235.1349134126127
 30
0.0
 11
87.50000000000005
 21
235.1349134126127
 31
0.0
  0
LINE
  5
6E69
330
6E65
100
AcDbEntity
  8
30
  6
Continuous
 62
     0
370
    -2
100
AcDbLine
 10
7.982096464828763
 20
147.1349134126128
 30
0.0
 11
87.5
 21
147.1349134126128
 31
0.0
  0
LINE
  5
6E6A
330
6E65
100
AcDbEntity
  8
30
  6
Continuous
 62
     0
370
    -2
100
AcDbLine
 10
87.00000000000001
 20
233.1349134126126
 30
0.0
 11
87.0
 21
149.1349134126128
 31
0.0
  0
INSERT
  5
6E6B
330
6E65
100
AcDbEntity
  8
30
  6
Continuous
 62
     0
370
    -2
100
AcDbBlockReference
  2
_OPEN
 10
87.00000000000001
 20
235.1349134126127
 30
0.0
 41
2.0
 42
2.0
 43
2.0
 50
90.0
  0
INSERT
  5
6E6C
330
6E65
100
AcDbEntity
  8
30
  6
Continuous
 62
     0
370
    -2
100
AcDbBlockReference
  2
_OPEN
 10
87.0
 20
147.1349134126128
 30
0.0
 41
2.0
 42
2.0
 43
2.0
 50
270.0
  0
MTEXT
  5
6E6D
330
6E65
100
AcDbEntity
  8
30
  6
Continuous
 62
     0
100
AcDbMText
 10
83.99999999999998
 20
191.1349134126128
 30
0.0
 40
4.0
 41
0.0
 46
0.0
 71
     5
 72
     1
  1
\A1;88
 11
0.0000000000000001
 21
1.0
 31
0.0
 73
     1
 44
1.0
1001
ACAD
1000
MTEXTBEGIN
1070
    73
1070
     1
1070
    44
1040
1.0
1070
    74
1070
     0
1000
MTEXTEND
  0
POINT
  5
6E6E
330
6E65
100
AcDbEntity
  8
DEFPOINTS
  6
Continuous
 62
     0
100
AcDbPoint
 10
45.0
 20
235.1349134126127
 30
0.0
  0
POINT
  5
6E6F
330
6E65
100
AcDbEntity
  8
DEFPOINTS
  6
Continuous
 62
     0
100
AcDbPoint
 10
6.982096464828763
 20
147.1349134126128
 30
0.0
  0
POINT
  5
6E70
330
6E65
100
AcDbEntity
  8
DEFPOINTS
  6
Continuous
 62
     0
100
AcDbPoint
 10
87.0
 20
147.1349134126128
 30
0.0
  0
ENDBLK
  5
6E67
330
6E65
100
AcDbEntity
  8
0
100
AcDbBlockEnd
  0
ENDSEC
  0
SECTION
  2
ENTITIES
  0
LINE
  5
B4
330
1E
100
AcDbEntity
  8
16
100
AcDbLine
 10
0.0
 20
-101.8246001220914
 30
0.0
 11
0.0
 21
105.6073578546832
 31
0.0
  0
LINE
  5
B5
330
1E
100
AcDbEntity
  8
16
100
AcDbLine
 10
71.77465564206305
 20
-0.0000000000000027
 30
0.0
 11
-83.90588178115756
 21
-0.0000000000000027
 31
0.0
  0
MTEXT
  5
BF3
330
1E
100
AcDbEntity
  8
24
  6
Continuous
100
AcDbMText
 10
140.9820964648283
 20
176.3476821548369
 30
0.0
 40
3.0
 41
0.0
 46
0.0
 71
     1
 72
     1
  1
\A1;
 73
     1
 44
1.0
1001
ACAD
1000
MTEXTBEGIN
1070
    73
1070
     1
1070
    44
1040
1.0
1070
    74
1070
     0
1000
MTEXTEND
  0
LINE
  5
1C9A
330
1E
100
AcDbEntity
  8
16
100
AcDbLine
 10
-0.0179035351712551
 20
137.7384784421552
 30
0.0
 11
-0.0179035351712551
 21
280.2384784421551
 31
0.0
  0
LINE
  5
1C9B
330
1E
100
AcDbEntity
  8
16
100
AcDbLine
 10
256.0826238060848
 20
0.0
 30
0.0
 11
123.917376193915
 21
0.0
 31
0.0
  0
LINE
  5
2260
330
1E
100
AcDbEntity
  8
16
100
AcDbLine
 10
68.90389754940699
 20
-255.0
 30
0.0
 11
-80.54991320158091
 21
-255.0
 31
0.0
  0
LINE
  5
2261
330
1E
100
AcDbEntity
  8
16
100
AcDbLine
 10
0.0
 20
-352.7519397628458
 30
0.0
 11
0.0
 21
-153.6166007905139
 31
0.0
  0
LINE
  5
4C5A
330
1E
100
AcDbEntity
  8
16
100
AcDbLine
 10
88.49441808474184
 20
-0.0000000000000027
 30
0.0
 11
-83.90588178115756
 21
-0.0000000000000027
 31
0.0
  0
DIMENSION
  5
59B9
330
1E
100
AcDbEntity
  8
30
  6
Continuous
100
AcDbDimension
280
     0
  2
*D6
 10
221.8144775593031
 20
-132.7494181439514
 30
0.0
 11
175.8144775593031
 21
-129.7494181439514
 31
0.0
 70
    32
 71
     5
 42
-1.0
 73
     0
 74
     0
 75
     0
  3
STANDARD
100
AcDbAlignedDimension
 13
129.8144775593033
 23
0.0
 33
0.0
 14
221.8144775593031
 24
-77.50000000000003
 34
0.0
 50
180.0
100
AcDbRotatedDimension
1001
ACAD
1000
DSTYLE
1002
{
1070
    79
1070
     3
1002
}
  0
DIMENSION
  5
59BA
330
1E
100
AcDbEntity
  8
30
  6
Continuous
100
AcDbDimension
280
     0
  2
*D7
 10
149.8144775593031
 20
-120.7494181439514
 30
0.0
 11
156.1478108926364
 21
-117.7494181439514
 31
0.0
 70
    32
 71
     5
 42
-1.0
 73
     0
 74
     0
 75
     0
  3
STANDARD
100
AcDbAlignedDimension
 13
145.8144775593031
 23
-25.0
 33
0.0
 14
149.8144775593031
 24
-25.0
 34
0.0
 50
180.0
100
AcDbRotatedDimension
1001
ACAD
1000
DSTYLE
1002
{
1070
    79
1070
     3
1002
}
  0
DIMENSION
  5
59BB
330
1E
100
AcDbEntity
  8
30
  6
Continuous
100
AcDbDimension
280
     0
  2
*D8
 10
221.8144775593031
 20
-120.7494181439514
 30
0.0
 11
185.814477559303
 21
-117.7494181439514
 31
0.0
 70
    32
 71
     5
 42
-1.0
 73
     0
 74
     0
 75
     0
  3
STANDARD
100
AcDbAlignedDimension
 13
149.8144775593031
 23
-25.0
 33
0.0
 14
221.8144775593031
 24
-77.50000000000003
 34
0.0
 50
180.0
100
AcDbRotatedDimension
1001
ACAD
1000
DSTYLE
1002
{
1070
    79
1070
     3
1002
}
  0
DIMENSION
  5
59BE
330
1E
100
AcDbEntity
  8
30
  6
Continuous
100
AcDbDimension
280
     0
  2
*D9
 10
105.3588555544835
 20
24.99999999999996
 30
0.0
 11
102.3588555544835
 21
0.0000000000000099
 31
0.0
 70
    32
 71
     5
 42
-1.0
 73
     0
 74
     0
 75
     0
  3
STANDARD
100
AcDbAlignedDimension
 13
145.8144775593031
 23
-25.0
 33
0.0
 14
145.8144775593031
 24
24.99999999999996
 34
0.0
 50
90.0
100
AcDbRotatedDimension
1001
ACAD
1000
DSTYLE
1002
{
1070
    79
1070
     3
1002
}
  0
LINE
  5
59BF
330
1E
100
AcDbEntity
  8
10
  6
CONTINOUS
100
AcDbLine
 10
145.8144775593031
 20
14.16543683942991
 30
0.0
 11
137.2606823778141
 21
20.1548687058105
 31
0.0
  0
LINE
  5
59C0
330
1E
100
AcDbEntity
  8
10
  6
CONTINOUS
100
AcDbLine
 10
145.8144775593031
 20
6.840789306861235
 30
0.0
 11
133.8192237597079
 21
15.23995644007658
 31
0.0
  0
ARC
  5
59C2
330
1E
100
AcDbEntity
  8
30
  6
Continuous
100
AcDbCircle
 10
160.8144775593033
 20
0.0
 30
0.0
 40
31.0
100
AcDbArc
 50
150.5534441956585
 51
180.0
  0
LINE
  5
59C5
330
1E
100
AcDbEntity
  8
10
  6
CONTINOUS
100
AcDbLine
 10
133.8192237597079
 20
15.23995644007658
 30
0.0
 11
137.2606823778141
 21
20.1548687058105
 31
0.0
  0
DIMENSION
  5
59C6
330
1E
100
AcDbEntity
  8
30
  6
Continuous
100
AcDbDimension
280
     0
  2
*D10
 10
221.8144775593031
 20
108.2505818560482
 30
0.0
 11
209.8144775593031
 21
111.2505818560483
 31
0.0
 70
    32
 71
     5
 42
-1.0
 73
     0
 74
     0
 75
     0
  3
STANDARD
100
AcDbAlignedDimension
 13
197.8144775593031
 23
77.50000000000001
 33
0.0
 14
221.8144775593031
 24
77.5000000000001
 34
0.0
100
AcDbRotatedDimension
1001
ACAD
1000
DSTYLE
1002
{
1070
    79
1070
     3
1002
}
  0
LINE
  5
59C7
330
1E
100
AcDbEntity
  8
10
  6
CONTINOUS
100
AcDbLine
 10
153.8144775593031
 20
50.99999999999989
 30
0.0
 11
153.8144775593031
 21
-51.00000000000011
 31
0.0
  0
LINE
  5
59C8
330
1E
100
AcDbEntity
  8
10
  6
CONTINOUS
100
AcDbLine
 10
149.8144775593031
 20
24.99999999999998
 30
0.0
 11
149.8144775593031
 21
-25.0
 31
0.0
  0
LINE
  5
59C9
330
1E
100
AcDbEntity
  8
10
  6
CONTINOUS
100
AcDbLine
 10
221.8144775593031
 20
77.5000000000001
 30
0.0
 11
221.8144775593031
 21
-77.50000000000003
 31
0.0
  0
LINE
  5
59CA
330
1E
100
AcDbEntity
  8
10
  6
CONTINOUS
100
AcDbLine
 10
145.8144775593031
 20
24.99999999999998
 30
0.0
 11
145.8144775593031
 21
-25.0
 31
0.0
  0
LINE
  5
59CD
330
1E
100
AcDbEntity
  8
12
  6
DASHED
100
AcDbLine
 10
221.8144775593031
 20
-63.75000000000003
 30
0.0
 11
229.8144775593029
 21
-63.75000000000003
 31
0.0
  0
LINE
  5
59CE
330
1E
100
AcDbEntity
  8
12
  6
DASHED
100
AcDbLine
 10
150.8144775593035
 20
-66.00000000000004
 30
0.0
 11
239.814477559303
 21
-66.00000000000004
 31
0.0
  0
LINE
  5
59CF
330
1E
100
AcDbEntity
  8
12
  6
DASHED
100
AcDbLine
 10
221.8144775593031
 20
-68.25000000000001
 30
0.0
 11
229.8144775593029
 21
-68.25000000000001
 31
0.0
  0
DIMENSION
  5
59D0
330
1E
100
AcDbEntity
  8
30
  6
Continuous
100
AcDbDimension
280
     0
  2
*D11
 10
221.8144775593031
 20
-110.7494181439514
 30
0.0
 11
187.814477559303
 21
-107.7494181439514
 31
0.0
 70
    32
 71
     5
 42
-1.0
 73
     0
 74
     0
 75
     0
  3
STANDARD
100
AcDbAlignedDimension
 13
153.8144775593031
 23
-51.00000000000011
 33
0.0
 14
221.8144775593031
 24
-77.50000000000003
 34
0.0
 50
180.0
100
AcDbRotatedDimension
1001
ACAD
1000
DSTYLE
1002
{
1070
    79
1070
     3
1002
}
  0
DIMENSION
  5
59D1
330
1E
100
AcDbEntity
  8
30
  6
Continuous
100
AcDbDimension
280
     0
  2
*D12
 10
221.8144775593031
 20
-99.74941814395144
 30
0.0
 11
191.314477559303
 21
-96.74941814395143
 31
0.0
 70
    32
 71
     5
 42
-1.0
 73
     0
 74
     0
 75
     0
  3
STANDARD
100
AcDbAlignedDimension
 13
160.8144775593029
 23
-77.50000000000003
 33
0.0
 14
221.8144775593031
 24
-77.50000000000003
 34
0.0
 50
180.0
100
AcDbRotatedDimension
1001
ACAD
1000
DSTYLE
1002
{
1070
    79
1070
     3
1002
}
  0
DIMENSION
  5
59D2
330
1E
100
AcDbEntity
  8
30
  6
Continuous
100
AcDbDimension
280
     0
  2
*D13
 10
221.8144775593031
 20
-89.74941814395142
 30
0.0
 11
199.314477559303
 21
-86.74941814395143
 31
0.0
 70
    32
 71
     5
 42
-1.0
 73
     0
 74
     0
 75
     0
  3
STANDARD
100
AcDbAlignedDimension
 13
176.8144775593031
 23
-70.25000000000002
 33
0.0
 14
221.8144775593031
 24
-77.50000000000003
 34
0.0
 50
180.0
100
AcDbRotatedDimension
1001
ACAD
1000
DSTYLE
1002
{
1070
    79
1070
     3
1002
}
  0
LINE
  5
59D3
330
1E
100
AcDbEntity
  8
12
  6
DASHED
100
AcDbLine
 10
176.8144775593031
 20
-68.25000000000001
 30
0.0
 11
221.8144775593031
 21
-68.25000000000001
 31
0.0
  0
LINE
  5
59D4
330
1E
100
AcDbEntity
  8
12
  6
DASHED
100
AcDbLine
 10
176.8144775593031
 20
-63.75000000000003
 30
0.0
 11
221.8144775593031
 21
-63.75000000000003
 31
0.0
  0
LINE
  5
59D5
330
1E
100
AcDbEntity
  8
10
  6
CONTINOUS
100
AcDbLine
 10
160.8144775593033
 20
-77.50000000000003
 30
0.0
 11
221.8144775593031
 21
-77.50000000000003
 31
0.0
  0
LINE
  5
59D6
330
1E
100
AcDbEntity
  8
10
  6
CONTINOUS
100
AcDbLine
 10
160.8144775593033
 20
-50.99999999999996
 30
0.0
 11
160.8144775593033
 21
-77.50000000000003
 31
0.0
  0
LINE
  5
59D7
330
1E
100
AcDbEntity
  8
12
  6
DASHED
100
AcDbLine
 10
160.8144775593033
 20
-70.25000000000002
 30
0.0
 11
176.8144775593031
 21
-70.25000000000002
 31
0.0
  0
LINE
  5
59D8
330
1E
100
AcDbEntity
  8
12
  6
DASHED
100
AcDbLine
 10
160.8144775593033
 20
-61.74999999999997
 30
0.0
 11
176.8144775593031
 21
-61.74999999999997
 31
0.0
  0
LINE
  5
59D9
330
1E
100
AcDbEntity
  8
12
  6
DASHED
100
AcDbLine
 10
176.8144775593031
 20
-61.74999999999997
 30
0.0
 11
176.8144775593031
 21
-70.25000000000002
 31
0.0
  0
LINE
  5
59DA
330
1E
100
AcDbEntity
  8
12
  6
DASHED
100
AcDbLine
 10
170.8144775593031
 20
-61.74999999999997
 30
0.0
 11
170.8144775593031
 21
-70.25000000000002
 31
0.0
  0
LINE
  5
59DB
330
1E
100
AcDbEntity
  8
12
  6
DASHED
100
AcDbLine
 10
176.8144775593031
 20
-68.25
 30
0.0
 11
176.8144775593031
 21
-70.25000000000002
 31
0.0
  0
LINE
  5
59DC
330
1E
100
AcDbEntity
  8
12
  6
DASHED
100
AcDbLine
 10
176.8144775593031
 20
-61.74999999999997
 30
0.0
 11
176.8144775593031
 21
-63.75000000000003
 31
0.0
  0
LINE
  5
59DD
330
1E
100
AcDbEntity
  8
10
  6
CONTINOUS
100
AcDbLine
 10
153.8144775593031
 20
-51.00000000000011
 30
0.0
 11
160.8144775593033
 21
-51.00000000000011
 31
0.0
  0
LINE
  5
59DE
330
1E
100
AcDbEntity
  8
10
  6
CONTINOUS
100
AcDbLine
 10
145.8144775593031
 20
-25.0
 30
0.0
 11
153.8144775593031
 21
-25.0
 31
0.0
  0
LINE
  5
59DF
330
1E
100
AcDbEntity
  8
12
  6
DASHED
100
AcDbLine
 10
229.8144775593029
 20
-63.75
 30
0.0
 11
229.8144775593029
 21
-68.25
 31
0.0
  0
LINE
  5
59E0
330
1E
100
AcDbEntity
  8
10
  6
CONTINOUS
100
AcDbLine
 10
145.8144775593031
 20
24.99999999999998
 30
0.0
 11
153.8144775593031
 21
24.99999999999998
 31
0.0
  0
LINE
  5
59E1
330
1E
100
AcDbEntity
  8
10
  6
CONTINOUS
100
AcDbLine
 10
160.8144775593033
 20
77.50000000000001
 30
0.0
 11
221.8144775593031
 21
77.5000000000001
 31
0.0
  0
LINE
  5
59E2
330
1E
100
AcDbEntity
  8
10
  6
CONTINOUS
100
AcDbLine
 10
160.8144775593033
 20
77.50000000000001
 30
0.0
 11
160.8144775593033
 21
50.99999999999997
 31
0.0
  0
LINE
  5
59E3
330
1E
100
AcDbEntity
  8
10
  6
CONTINOUS
100
AcDbLine
 10
153.8144775593031
 20
50.99999999999997
 30
0.0
 11
160.8144775593033
 21
50.99999999999997
 31
0.0
  0
LINE
  5
59E4
330
1E
100
AcDbEntity
  8
24
  6
CONTINOUS
100
AcDbLine
 10
199.8144775593031
 20
77.50000000000001
 30
0.0
 11
199.8144775593031
 21
56.49999999999989
 31
0.0
  0
LINE
  5
59E5
330
1E
100
AcDbEntity
  8
24
  6
CONTINOUS
100
AcDbLine
 10
190.614477559303
 20
71.99999999999997
 30
0.0
 11
190.614477559303
 21
61.99999999999997
 31
0.0
  0
LINE
  5
59E6
330
1E
100
AcDbEntity
  8
24
  6
CONTINOUS
100
AcDbLine
 10
195.814477559303
 20
74.69999999999995
 30
0.0
 11
195.814477559303
 21
59.29999999999999
 31
0.0
  0
LINE
  5
59E7
330
1E
100
AcDbEntity
  8
24
  6
CONTINOUS
100
AcDbLine
 10
197.8144775593031
 20
77.50000000000001
 30
0.0
 11
197.8144775593031
 21
56.49999999999989
 31
0.0
  0
LINE
  5
59E8
330
1E
100
AcDbEntity
  8
24
  6
CONTINOUS
100
AcDbLine
 10
192.6144775593033
 20
59.99999999999997
 30
0.0
 11
195.814477559303
 21
59.99999999999997
 31
0.0
  0
LINE
  5
59E9
330
1E
100
AcDbEntity
  8
24
  6
CONTINOUS
100
AcDbLine
 10
185.614477559303
 20
66.99999999999997
 30
0.0
 11
202.8144775593029
 21
66.99999999999997
 31
0.0
  0
ARC
  5
59EA
330
1E
100
AcDbEntity
  8
24
  6
CONTINOUS
100
AcDbCircle
 10
192.6144775593033
 20
61.99999999999997
 30
0.0
 40
2.0
100
AcDbArc
 50
180.0
 51
270.0
  0
LINE
  5
59EB
330
1E
100
AcDbEntity
  8
24
  6
CONTINOUS
100
AcDbLine
 10
197.8144775593031
 20
56.49999999999989
 30
0.0
 11
199.8144775593031
 21
56.49999999999989
 31
0.0
  0
LINE
  5
59EC
330
1E
100
AcDbEntity
  8
24
  6
CONTINOUS
100
AcDbLine
 10
195.814477559303
 20
59.29999999999999
 30
0.0
 11
197.8144775593031
 21
59.29999999999999
 31
0.0
  0
LINE
  5
59ED
330
1E
100
AcDbEntity
  8
24
  6
CONTINOUS
100
AcDbLine
 10
192.6144775593033
 20
73.99999999999997
 30
0.0
 11
195.814477559303
 21
73.99999999999997
 31
0.0
  0
ARC
  5
59EE
330
1E
100
AcDbEntity
  8
24
  6
CONTINOUS
100
AcDbCircle
 10
192.6144775593033
 20
71.99999999999997
 30
0.0
 40
2.0
100
AcDbArc
 50
90.0
 51
180.0
  0
LINE
  5
59EF
330
1E
100
AcDbEntity
  8
24
  6
CONTINOUS
100
AcDbLine
 10
195.814477559303
 20
74.69999999999995
 30
0.0
 11
197.8144775593031
 21
74.69999999999995
 31
0.0
  0
DIMENSION
  5
59F0
330
1E
100
AcDbEntity
  8
30
  6
Continuous
100
AcDbDimension
280
     0
  2
*D14
 10
278.3144775593031
 20
27.59950840068014
 30
0.0
 11
269.8144775593031
 21
30.59950840068012
 31
0.0
 70
    32
 71
     5
 42
-1.0
 73
     0
 74
     0
 75
     0
  3
STANDARD
100
AcDbAlignedDimension
 13
261.3144775593033
 23
43.0
 33
0.0
 14
278.3144775593031
 24
43.0
 34
0.0
 50
180.0
100
AcDbRotatedDimension
1001
ACAD
1000
DSTYLE
1002
{
1070
    79
1070
     3
1002
}
  0
INSERT
  5
59F1
330
1E
100
AcDbEntity
  8
30
  6
Continuous
100
AcDbBlockReference
  2
*U4
 10
-367.7237999526582
 20
-244.2754915945696
 30
0.0
 41
2.5
 42
2.5
 43
2.5
  0
INSERT
  5
59F2
330
1E
100
AcDbEntity
  8
30
  6
Continuous
100
AcDbBlockReference
  2
*U2
 10
-367.7237999526582
 20
-244.2754915945696
 30
0.0
 41
2.5
 42
2.5
 43
2.5
  0
INSERT
  5
59F3
330
1E
100
AcDbEntity
  8
30
  6
Continuous
100
AcDbBlockReference
  2
*U1
 10
-367.7237999526582
 20
-244.2754915945696
 30
0.0
 41
2.5
 42
2.5
 43
2.5
  0
ARC
  5
59F4
330
1E
100
AcDbEntity
  8
24
  6
Continuous
100
AcDbCircle
 10
265.4394775593033
 20
68.64548506457246
 30
0.0
 40
8.0
100
AcDbArc
 50
58.9607599896022
 51
121.0392400103977
  0
CIRCLE
  5
59F5
330
1E
100
AcDbEntity
  8
17
  6
DASHDOT
100
AcDbCircle
 10
269.8144775593033
 20
51.49999999999997
 30
0.0
 40
4.5
  0
LINE
  5
59F6
330
1E
100
AcDbEntity
  8
24
  6
Continuous
100
AcDbLine
 10
269.1390335891645
 20
75.73867089196451
 30
0.0
 11
273.6099195278402
 21
73.40681417260779
 31
0.0
  0
LINE
  5
59F7
330
1E
100
AcDbEntity
  8
17
  6
DASHDOT
100
AcDbLine
 10
263.5644775593033
 20
51.49999999999997
 30
0.0
 11
276.0644775593033
 21
51.49999999999997
 31
0.0
  0
LINE
  5
59F8
330
1E
100
AcDbEntity
  8
24
  6
Continuous
100
AcDbLine
 10
261.3144775593033
 20
43.0
 30
0.0
 11
278.3144775593031
 21
43.0
 31
0.0
  0
LINE
  5
59FA
330
1E
100
AcDbEntity
  8
24
  6
Continuous
100
AcDbLine
 10
261.3144775593033
 20
75.50000000000003
 30
0.0
 11
261.3144775593033
 21
43.0
 31
0.0
  0
LINE
  5
59FC
330
1E
100
AcDbEntity
  8
24
  6
Continuous
100
AcDbLine
 10
278.3144775593031
 20
72.5633778610307
 30
0.0
 11
278.3144775593031
 21
43.0
 31
0.0
  0
DIMENSION
  5
59FD
330
1E
100
AcDbEntity
  8
30
  6
Continuous
100
AcDbDimension
280
     0
  2
*D15
 10
292.9012000520913
 20
51.49999999999997
 30
0.0
 11
297.9012000520913
 21
56.50000000000002
 31
0.0
 70
    32
 71
     5
 42
-1.0
 73
     0
 74
     0
 75
     0
  3
STANDARD
100
AcDbAlignedDimension
 13
278.3144775593031
 23
43.0
 33
0.0
 14
272.3144775758031
 24
51.49999999999997
 34
0.0
 50
270.0
100
AcDbRotatedDimension
1001
ACAD
1000
DSTYLE
1002
{
1070
    79
1070
     3
1002
}
  0
LINE
  5
59FE
330
1E
100
AcDbEntity
  8
17
  6
DASHDOT
100
AcDbLine
 10
269.8144775593033
 20
57.74999999999997
 30
0.0
 11
269.8144775593035
 21
45.24999999999997
 31
0.0
  0
ARC
  5
59FF
330
1E
100
AcDbEntity
  8
24
  6
Continuous
100
AcDbCircle
 10
277.3094755577016
 20
80.50000000000002
 30
0.0
 40
8.0
100
AcDbArc
 50
242.4550403035893
 51
277.2168646146247
  0
TEXT
  5
5C38
330
1E
100
AcDbEntity
  8
30
  6
Continuous
100
AcDbText
 10
169.4285447303399
 20
94.039817676845
 30
0.0
 40
5.0
  1
M8
  7
STANDARD1
100
AcDbText
  0
TEXT
  5
5C39
330
1E
100
AcDbEntity
  8
30
  6
Continuous
100
AcDbText
 10
244.3526601839093
 20
76.11649607392563
 30
0.0
 40
5.0
  1
%%c9
  7
STANDARD1
100
AcDbText
  0
MTEXT
  5
5C78
330
1E
100
AcDbEntity
  8
30
  6
Continuous
100
AcDbMText
 10
162.3297648581359
 20
88.99793930010117
 30
0.0
 40
4.0
 41
0.0
 46
0.0
 71
     9
 72
     1
  1

 73
     1
 44
1.0
1001
ACAD
1000
MTEXTBEGIN
1070
    73
1070
     1
1070
    44
1040
1.0
1070
    74
1070
     0
1000
MTEXTEND
  0
LEADER
  5
5C79
330
1E
100
AcDbEntity
  8
30
  6
Continuous
100
AcDbLeader
  3
STANDARD
 76
     3
 10
265.6523482107051
 20
55.11720759482259
 30
0.0
 10
256.3163505821476
 20
74.22421373062309
 30
0.0
 10
242.97920705688
 20
74.66856214966412
 30
0.0
213
0.0
223
2.0
233
0.0
1001
ACAD
1000
DSTYLE
1002
{
1070
     5
1000
OPEN
1070
    77
1070
     0
1070
    79
1070
     3
1070
   147
1040
1.0
1070
   342
1005
3B2
1002
}
  0
LINE
  5
5C86
330
1E
100
AcDbEntity
  8
10
  6
CONTINOUS
100
AcDbLine
 10
-44.99999999999984
 20
174.1349134126129
 30
0.0
 11
-44.99999999999997
 21
235.1349134126127
 31
0.0
  0
LINE
  5
5C8A
330
1E
100
AcDbEntity
  8
10
  6
CONTINOUS
100
AcDbLine
 10
45.0
 20
174.134913412613
 30
0.0
 11
45.0
 21
235.1349134126127
 31
0.0
  0
LINE
  5
5C8B
330
1E
100
AcDbEntity
  8
10
  6
CONTINOUS
100
AcDbLine
 10
-44.99999999999975
 20
167.1349134126124
 30
0.0
 11
45.0
 21
167.1349134126126
 31
0.0
  0
LINE
  5
5C8C
330
1E
100
AcDbEntity
  8
10
  6
CONTINOUS
100
AcDbLine
 10
-44.99999999999984
 20
174.1349134126124
 30
0.0
 11
45.0
 21
174.1349134126129
 31
0.0
  0
LINE
  5
5C8D
330
1E
100
AcDbEntity
  8
10
  6
CONTINOUS
100
AcDbLine
 10
45.0
 20
167.1349134126126
 30
0.0
 11
45.0
 21
174.1349134126129
 31
0.0
  0
LINE
  5
5C8E
330
1E
100
AcDbEntity
  8
10
  6
CONTINOUS
100
AcDbLine
 10
-11.03580707034253
 20
159.1349134126128
 30
0.0
 11
10.98209646482871
 21
159.1349134126128
 31
0.0
  0
LINE
  5
5C91
330
1E
100
AcDbEntity
  8
10
  6
CONTINOUS
100
AcDbLine
 10
10.98209646482871
 20
159.1349134126128
 30
0.0
 11
10.98209646482871
 21
163.1349134126127
 31
0.0
  0
LINE
  5
5C96
330
1E
100
AcDbEntity
  8
10
  6
CONTINOUS
100
AcDbLine
 10
-11.03580707034253
 20
159.1349134126128
 30
0.0
 11
-11.03580707034253
 21
163.1349134126127
 31
0.0
  0
LINE
  5
5C97
330
1E
100
AcDbEntity
  8
10
  6
CONTINOUS
100
AcDbLine
 10
-44.99999999999984
 20
167.1349134126124
 30
0.0
 11
-44.99999999999984
 21
174.1349134126124
 31
0.0
  0
LINE
  5
5C98
330
1E
100
AcDbEntity
  8
10
  6
CONTINOUS
100
AcDbLine
 10
-44.99999999999997
 20
235.1349134126127
 30
0.0
 11
45.0
 21
235.1349134126127
 31
0.0
  0
LINE
  5
5CA2
330
1E
100
AcDbEntity
  8
24
  6
CONTINOUS
100
AcDbLine
 10
29.98209646482873
 20
198.9349134126126
 30
0.0
 11
29.98209646482873
 21
216.1349134126129
 31
0.0
  0
LINE
  5
5CA3
330
1E
100
AcDbEntity
  8
24
  6
CONTINOUS
100
AcDbLine
 10
19.48209646482874
 20
211.1349134126129
 30
0.0
 11
40.48209646482885
 21
211.1349134126129
 31
0.0
  0
LINE
  5
5CA4
330
1E
100
AcDbEntity
  8
24
  6
CONTINOUS
100
AcDbLine
 10
22.28209646482881
 20
209.1349134126128
 30
0.0
 11
37.68209646482878
 21
209.1349134126128
 31
0.0
  0
LINE
  5
5CA5
330
1E
100
AcDbEntity
  8
24
  6
CONTINOUS
100
AcDbLine
 10
24.98209646482873
 20
203.9349134126128
 30
0.0
 11
34.98209646482873
 21
203.9349134126128
 31
0.0
  0
LINE
  5
5CA6
330
1E
100
AcDbEntity
  8
24
  6
CONTINOUS
100
AcDbLine
 10
19.48209646482874
 20
213.1349134126129
 30
0.0
 11
40.48209646482885
 21
213.1349134126129
 31
0.0
  0
LINE
  5
5CA7
330
1E
100
AcDbEntity
  8
24
  6
CONTINOUS
100
AcDbLine
 10
37.68209646482878
 20
209.1349134126128
 30
0.0
 11
37.68209646482878
 21
211.1349134126129
 31
0.0
  0
ARC
  5
5CA8
330
1E
100
AcDbEntity
  8
24
  6
CONTINOUS
100
AcDbCircle
 10
34.98209646482877
 20
205.9349134126128
 30
0.0
 40
2.0
100
AcDbArc
 50
270.0
 51
0.0
  0
LINE
  5
5CA9
330
1E
100
AcDbEntity
  8
24
  6
CONTINOUS
100
AcDbLine
 10
36.98209646482875
 20
205.9349134126128
 30
0.0
 11
36.98209646482875
 21
209.1349134126128
 31
0.0
  0
LINE
  5
5CAB
330
1E
100
AcDbEntity
  8
24
  6
CONTINOUS
100
AcDbLine
 10
22.28209646482881
 20
209.1349134126128
 30
0.0
 11
22.28209646482881
 21
211.1349134126129
 31
0.0
  0
ARC
  5
5CAC
330
1E
100
AcDbEntity
  8
24
  6
CONTINOUS
100
AcDbCircle
 10
24.98209646482877
 20
205.9349134126128
 30
0.0
 40
2.0
100
AcDbArc
 50
180.0
 51
270.0
  0
LINE
  5
5CAD
330
1E
100
AcDbEntity
  8
24
  6
CONTINOUS
100
AcDbLine
 10
22.98209646482874
 20
205.9349134126128
 30
0.0
 11
22.98209646482874
 21
209.1349134126128
 31
0.0
  0
DIMENSION
  5
5E29
330
1E
100
AcDbEntity
  8
30
  6
Continuous
100
AcDbDimension
280
     0
  2
*D16
 10
42.00000000000001
 20
32.59950840068013
 30
0.0
 11
0.0000000000000215
 21
35.59950840068013
 31
0.0
 70
    32
 71
     5
 42
-1.0
 73
     0
 74
     0
 75
     0
  3
STANDARD
100
AcDbAlignedDimension
 13
-41.99999999999996
 23
24.99999999999996
 33
0.0
 14
42.00000000000001
 24
24.99999999999996
 34
0.0
100
AcDbRotatedDimension
1001
ACAD
1000
DSTYLE
1002
{
1070
    79
1070
     3
1002
}
  0
DIMENSION
  5
5E2A
330
1E
100
AcDbEntity
  8
30
  6
Continuous
100
AcDbDimension
280
     0
  2
*D17
 10
45.0
 20
-121.7494181439514
 30
0.0
 11
0.0000000000000144
 21
-118.7494181439514
 31
0.0
 70
    32
 71
     5
 42
-1.0
 73
     0
 74
     0
 75
     0
  3
STANDARD
100
AcDbAlignedDimension
 13
-44.99999999999997
 23
-77.50000000000003
 33
0.0
 14
45.0
 24
-77.50000000000003
 34
0.0
 50
180.0
100
AcDbRotatedDimension
1001
ACAD
1000
DSTYLE
1002
{
1070
    79
1070
     3
1002
}
  0
ARC
  5
5E2B
330
1E
100
AcDbEntity
  8
10
  6
CONTINOUS
100
AcDbCircle
 10
-33.74999999999992
 20
-66.00000000000004
 30
0.0
 40
5.0
100
AcDbArc
 50
90.0
 51
180.0
  0
ARC
  5
5E2C
330
1E
100
AcDbEntity
  8
10
  6
CONTINOUS
100
AcDbCircle
 10
33.74999999999992
 20
65.99999999999997
 30
0.0
 40
5.0
210
0.0
220
0.0
230
-1.0
100
AcDbArc
 50
270.0
 51
0.0
  0
LINE
  5
5E2D
330
1E
100
AcDbEntity
  8
10
  6
CONTINOUS
100
AcDbLine
 10
-41.99999999999996
 20
-25.0
 30
0.0
 11
42.00000000000001
 21
-25.0
 31
0.0
  0
LINE
  5
5E2E
330
1E
100
AcDbEntity
  8
10
  6
CONTINOUS
100
AcDbLine
 10
-44.99999999999997
 20
-51.00000000000008
 30
0.0
 11
45.0
 21
-51.00000000000008
 31
0.0
  0
LINE
  5
5E2F
330
1E
100
AcDbEntity
  8
10
  6
CONTINOUS
100
AcDbLine
 10
-44.99999999999997
 20
50.99999999999996
 30
0.0
 11
45.0
 21
50.99999999999996
 31
0.0
  0
LINE
  5
5E30
330
1E
100
AcDbEntity
  8
10
  6
CONTINOUS
100
AcDbLine
 10
45.0
 20
77.49999999999997
 30
0.0
 11
-44.99999999999997
 21
77.49999999999997
 31
0.0
  0
LINE
  5
5E31
330
1E
100
AcDbEntity
  8
10
  6
CONTINOUS
100
AcDbLine
 10
-44.99999999999997
 20
-77.50000000000003
 30
0.0
 11
45.0
 21
-77.50000000000003
 31
0.0
  0
LINE
  5
5E32
330
1E
100
AcDbEntity
  8
10
  6
CONTINOUS
100
AcDbLine
 10
-41.99999999999996
 20
25.0
 30
0.0
 11
42.00000000000001
 21
25.0
 31
0.0
  0
LINE
  5
5E33
330
1E
100
AcDbEntity
  8
10
  6
CONTINOUS
100
AcDbLine
 10
-41.99999999999996
 20
25.0
 30
0.0
 11
-41.99999999999996
 21
-25.0
 31
0.0
  0
LINE
  5
5E34
330
1E
100
AcDbEntity
  8
10
  6
CONTINOUS
100
AcDbLine
 10
-44.99999999999997
 20
77.49999999999997
 30
0.0
 11
-44.99999999999997
 21
-77.50000000000003
 31
0.0
  0
LINE
  5
5E35
330
1E
100
AcDbEntity
  8
10
  6
CONTINOUS
100
AcDbLine
 10
-38.74999999999996
 20
-66.00000000000004
 30
0.0
 11
-38.74999999999996
 21
-77.50000000000003
 31
0.0
  0
LINE
  5
5E36
330
1E
100
AcDbEntity
  8
10
  6
CONTINOUS
100
AcDbLine
 10
-38.74999999999996
 20
65.99999999999997
 30
0.0
 11
-38.74999999999996
 21
77.49999999999997
 31
0.0
  0
LINE
  5
5E38
330
1E
100
AcDbEntity
  8
18
100
AcDbLine
 10
13.50000000000002
 20
124.4999999999996
 30
0.0
 11
13.50000000000002
 21
77.49999999999973
 31
0.0
  0
LINE
  5
5E39
330
1E
100
AcDbEntity
  8
18
100
AcDbLine
 10
16.5
 20
124.4999999999996
 30
0.0
 11
16.5
 21
77.49999999999973
 31
0.0
  0
LINE
  5
5E3A
330
1E
100
AcDbEntity
  8
18
100
AcDbLine
 10
-13.49999999999999
 20
124.4999999999996
 30
0.0
 11
-13.49999999999999
 21
77.49999999999973
 31
0.0
  0
LINE
  5
5E3B
330
1E
100
AcDbEntity
  8
18
100
AcDbLine
 10
-16.5
 20
124.4999999999996
 30
0.0
 11
-16.5
 21
77.49999999999973
 31
0.0
  0
LINE
  5
5E3C
330
1E
100
AcDbEntity
  8
10
  6
CONTINOUS
100
AcDbLine
 10
42.00000000000001
 20
25.0
 30
0.0
 11
42.00000000000001
 21
-25.0
 31
0.0
  0
LINE
  5
5E3E
330
1E
100
AcDbEntity
  8
10
  6
CONTINOUS
100
AcDbLine
 10
11.00000000000002
 20
25.0
 30
0.0
 11
11.00000000000002
 21
-25.0
 31
0.0
  0
LINE
  5
5E3F
330
1E
100
AcDbEntity
  8
10
  6
CONTINOUS
100
AcDbLine
 10
-10.99999999999999
 20
25.0
 30
0.0
 11
-10.99999999999999
 21
-25.0
 31
0.0
  0
LINE
  5
5E40
330
1E
100
AcDbEntity
  8
10
  6
CONTINOUS
100
AcDbLine
 10
45.0
 20
-77.50000000000003
 30
0.0
 11
45.0
 21
77.49999999999997
 31
0.0
  0
DIMENSION
  5
5E41
330
1E
100
AcDbEntity
  8
30
  6
Continuous
100
AcDbDimension
280
     0
  2
*D18
 10
30.00000000000003
 20
-101.7494181439513
 30
0.0
 11
0.000000000000041
 21
-98.7494181439515
 31
0.0
 70
    32
 71
     5
 42
-1.0
 73
     0
 74
     0
 75
     0
  3
STANDARD
100
AcDbAlignedDimension
 13
-29.99999999999995
 23
-69.50000001650003
 33
0.0
 14
30.00000000000003
 24
-69.50000001650003
 34
0.0
 50
180.0
100
AcDbRotatedDimension
1001
ACAD
1000
DSTYLE
1002
{
1070
    79
1070
     3
1002
}
  0
DIMENSION
  5
5E42
330
1E
100
AcDbEntity
  8
30
  6
Continuous
100
AcDbDimension
280
     0
  2
*D19
 10
11.00000000000002
 20
-41.74941814395149
 30
0.0
 11
0.0000000000000277
 21
-38.7494181439515
 31
0.0
 70
    32
 71
     5
 42
-1.0
 73
     0
 74
     0
 75
     0
  3
STANDARD
100
AcDbAlignedDimension
 13
-10.99999999999999
 23
-25.0
 33
0.0
 14
11.00000000000002
 24
-25.0
 34
0.0
 50
180.0
100
AcDbRotatedDimension
1001
ACAD
1000
DSTYLE
1002
{
1070
    79
1070
     3
1002
}
  0
ARC
  5
5E43
330
1E
100
AcDbEntity
  8
10
  6
CONTINOUS
100
AcDbCircle
 10
-3.75
 20
-66.00000000000004
 30
0.0
 40
5.0
210
0.0
220
0.0
230
-1.0
100
AcDbArc
 50
90.0
 51
180.0
  0
CIRCLE
  5
5E44
330
1E
100
AcDbEntity
  8
24
  6
CONTINOUS
100
AcDbCircle
 10
0.0
 20
-67.00000000000001
 30
0.0
 40
5.0
  0
LINE
  5
5E45
330
1E
100
AcDbEntity
  8
24
  6
CONTINOUS
100
AcDbLine
 10
-6.999999999999997
 20
-67.00000000000001
 30
0.0
 11
7.000000000000026
 21
-67.00000000000001
 31
0.0
  0
CIRCLE
  5
5E46
330
1E
100
AcDbEntity
  8
24
  6
CONTINOUS
100
AcDbCircle
 10
-29.99999999999995
 20
-67.00000000000009
 30
0.0
 40
5.0
  0
LINE
  5
5E47
330
1E
100
AcDbEntity
  8
10
  6
CONTINOUS
100
AcDbLine
 10
-21.24999999999999
 20
-66.00000000000004
 30
0.0
 11
-21.24999999999999
 21
-77.50000000000003
 31
0.0
  0
LINE
  5
5E48
330
1E
100
AcDbEntity
  8
24
  6
CONTINOUS
100
AcDbLine
 10
-29.99999999999995
 20
-74.00000000000003
 30
0.0
 11
-29.99999999999995
 21
-60.00000000000003
 31
0.0
  0
LINE
  5
5E49
330
1E
100
AcDbEntity
  8
10
  6
CONTINOUS
100
AcDbLine
 10
-33.74999999999992
 20
-61.00000000000008
 30
0.0
 11
-26.24999999999999
 21
-61.00000000000008
 31
0.0
  0
LINE
  5
5E4A
330
1E
100
AcDbEntity
  8
24
  6
CONTINOUS
100
AcDbLine
 10
-22.99999999999996
 20
-67.00000000000001
 30
0.0
 11
-36.99999999999997
 21
-67.00000000000001
 31
0.0
  0
ARC
  5
5E4B
330
1E
100
AcDbEntity
  8
10
  6
CONTINOUS
100
AcDbCircle
 10
-26.24999999999999
 20
-66.00000000000004
 30
0.0
 40
5.0
100
AcDbArc
 50
0.0
 51
90.0
  0
LINE
  5
5E4C
330
1E
100
AcDbEntity
  8
10
  6
CONTINOUS
100
AcDbLine
 10
-8.749999999999998
 20
-66.00000000000004
 30
0.0
 11
-8.749999999999998
 21
-77.50000000000003
 31
0.0
  0
ARC
  5
5E4D
330
1E
100
AcDbEntity
  8
10
  6
CONTINOUS
100
AcDbCircle
 10
3.749999999999998
 20
-66.00000000000004
 30
0.0
 40
5.0
210
0.0
220
0.0
230
-1.0
100
AcDbArc
 50
0.0
 51
90.0
  0
LINE
  5
5E4E
330
1E
100
AcDbEntity
  8
10
  6
CONTINOUS
100
AcDbLine
 10
3.75
 20
-61.00000000000008
 30
0.0
 11
-3.749999999999998
 21
-61.00000000000008
 31
0.0
  0
ARC
  5
5E4F
330
1E
100
AcDbEntity
  8
10
  6
CONTINOUS
100
AcDbCircle
 10
-26.25000000000003
 20
-66.00000000000004
 30
0.0
 40
5.0
210
0.0
220
0.0
230
-1.0
100
AcDbArc
 50
0.0
 51
90.0
  0
CIRCLE
  5
5E50
330
1E
100
AcDbEntity
  8
24
  6
CONTINOUS
100
AcDbCircle
 10
30.00000000000003
 20
-67.00000000000001
 30
0.0
 40
5.0
  0
LINE
  5
5E51
330
1E
100
AcDbEntity
  8
24
  6
CONTINOUS
100
AcDbLine
 10
23.00000000000002
 20
-67.00000000000001
 30
0.0
 11
37.00000000000001
 21
-67.00000000000001
 31
0.0
  0
CIRCLE
  5
5E52
330
1E
100
AcDbEntity
  8
12
  6
DASHED
100
AcDbCircle
 10
15.00000000000005
 20
-66.00000000000004
 30
0.0
 40
4.0
  0
LINE
  5
5E53
330
1E
100
AcDbEntity
  8
12
  6
DASHED
100
AcDbLine
 10
15.00000000000005
 20
-71.50000000000003
 30
0.0
 11
15.00000000000005
 21
-60.49999999999998
 31
0.0
  0
LINE
  5
5E54
330
1E
100
AcDbEntity
  8
10
  6
CONTINOUS
100
AcDbLine
 10
21.25000000000003
 20
-66.00000000000004
 30
0.0
 11
21.25000000000003
 21
-77.50000000000003
 31
0.0
  0
LINE
  5
5E55
330
1E
100
AcDbEntity
  8
10
  6
CONTINOUS
100
AcDbLine
 10
8.750000000000023
 20
-66.00000000000004
 30
0.0
 11
8.750000000000023
 21
-77.50000000000003
 31
0.0
  0
LINE
  5
5E56
330
1E
100
AcDbEntity
  8
12
  6
DASHED
100
AcDbLine
 10
9.500000000000078
 20
-66.00000000000004
 30
0.0
 11
20.50000000000014
 21
-66.00000000000004
 31
0.0
  0
LINE
  5
5E57
330
1E
100
AcDbEntity
  8
24
  6
CONTINOUS
100
AcDbLine
 10
30.00000000000003
 20
-74.00000000000003
 30
0.0
 11
30.00000000000003
 21
-60.00000000000003
 31
0.0
  0
LINE
  5
5E58
330
1E
100
AcDbEntity
  8
10
  6
CONTINOUS
100
AcDbLine
 10
38.75000000000003
 20
-66.00000000000004
 30
0.0
 11
38.75000000000003
 21
-77.50000000000003
 31
0.0
  0
ARC
  5
5E59
330
1E
100
AcDbEntity
  8
10
  6
CONTINOUS
100
AcDbCircle
 10
-33.75000000000003
 20
-66.00000000000004
 30
0.0
 40
5.0
210
0.0
220
0.0
230
-1.0
100
AcDbArc
 50
90.0
 51
180.0
  0
LINE
  5
5E5A
330
1E
100
AcDbEntity
  8
10
  6
CONTINOUS
100
AcDbLine
 10
33.75000000000003
 20
-61.00000000000008
 30
0.0
 11
26.25000000000003
 21
-61.00000000000008
 31
0.0
  0
LINE
  5
5E5B
330
1E
100
AcDbEntity
  8
10
  6
CONTINOUS
100
AcDbLine
 10
7.000000000000026
 20
20.15486870581028
 30
0.0
 11
-7.000000000000909
 21
20.15486870581028
 31
0.0
  0
LINE
  5
5E5C
330
1E
100
AcDbEntity
  8
10
  6
CONTINOUS
100
AcDbLine
 10
7.000000000000026
 20
15.23995644007658
 30
0.0
 11
-6.999999999999997
 21
15.23995644007658
 31
0.0
  0
LINE
  5
5E5D
330
1E
100
AcDbEntity
  8
10
  6
CONTINOUS
100
AcDbLine
 10
7.000000000000026
 20
6.840789306861434
 30
0.0
 11
-6.99999999999903
 21
6.840789306861521
 31
0.0
  0
LINE
  5
5E5E
330
1E
100
AcDbEntity
  8
10
  6
CONTINOUS
100
AcDbLine
 10
-6.999999999999997
 20
-18.50000000000001
 30
0.0
 11
7.000000000000026
 21
-18.50000000000001
 31
0.0
  0
LINE
  5
5E5F
330
1E
100
AcDbEntity
  8
10
  6
CONTINOUS
100
AcDbLine
 10
-6.999999999999997
 20
-18.50000000000001
 30
0.0
 11
-6.999999999999857
 21
20.15486870581028
 31
0.0
  0
LINE
  5
5E60
330
1E
100
AcDbEntity
  8
10
  6
CONTINOUS
100
AcDbLine
 10
7.000000000000026
 20
-18.50000000000001
 30
0.0
 11
7.000000000000079
 21
20.15486870581028
 31
0.0
  0
ARC
  5
5E62
330
1E
100
AcDbEntity
  8
10
  6
CONTINOUS
100
AcDbCircle
 10
3.75
 20
65.99999999999997
 30
0.0
 40
5.0
100
AcDbArc
 50
270.0
 51
0.0
  0
CIRCLE
  5
5E63
330
1E
100
AcDbEntity
  8
24
  6
CONTINOUS
100
AcDbCircle
 10
0.0
 20
66.99999999999997
 30
0.0
 40
5.0
  0
LINE
  5
5E64
330
1E
100
AcDbEntity
  8
24
  6
CONTINOUS
100
AcDbLine
 10
-6.999999999999997
 20
66.99999999999997
 30
0.0
 11
7.000000000000026
 21
66.99999999999997
 31
0.0
  0
CIRCLE
  5
5E65
330
1E
100
AcDbEntity
  8
24
  6
CONTINOUS
100
AcDbCircle
 10
-29.99999999999995
 20
66.99999999999997
 30
0.0
 40
5.0
  0
LINE
  5
5E66
330
1E
100
AcDbEntity
  8
10
  6
CONTINOUS
100
AcDbLine
 10
-21.24999999999999
 20
65.99999999999997
 30
0.0
 11
-21.24999999999999
 21
77.49999999999997
 31
0.0
  0
LINE
  5
5E67
330
1E
100
AcDbEntity
  8
24
  6
CONTINOUS
100
AcDbLine
 10
-29.99999999999995
 20
73.99999999999997
 30
0.0
 11
-29.99999999999995
 21
59.99999999999996
 31
0.0
  0
LINE
  5
5E68
330
1E
100
AcDbEntity
  8
10
  6
CONTINOUS
100
AcDbLine
 10
-8.749999999999998
 20
65.99999999999997
 30
0.0
 11
-8.749999999999998
 21
77.49999999999997
 31
0.0
  0
CIRCLE
  5
5E69
330
1E
100
AcDbEntity
  8
12
  6
DASHED
100
AcDbCircle
 10
-14.99999999999998
 20
65.99999999999974
 30
0.0
 40
4.0
  0
LINE
  5
5E6A
330
1E
100
AcDbEntity
  8
12
  6
DASHED
100
AcDbLine
 10
-20.49999999999996
 20
65.99999999999974
 30
0.0
 11
-9.5
 21
65.99999999999974
 31
0.0
  0
LINE
  5
5E6B
330
1E
100
AcDbEntity
  8
10
  6
CONTINOUS
100
AcDbLine
 10
-33.74999999999992
 20
60.99999999999996
 30
0.0
 11
-26.24999999999999
 21
60.99999999999996
 31
0.0
  0
LINE
  5
5E6C
330
1E
100
AcDbEntity
  8
24
  6
CONTINOUS
100
AcDbLine
 10
-22.99999999999996
 20
66.99999999999997
 30
0.0
 11
-36.99999999999997
 21
66.99999999999997
 31
0.0
  0
ARC
  5
5E6D
330
1E
100
AcDbEntity
  8
10
  6
CONTINOUS
100
AcDbCircle
 10
26.24999999999999
 20
65.99999999999997
 30
0.0
 40
5.0
210
0.0
220
0.0
230
-1.0
100
AcDbArc
 50
180.0
 51
270.0
  0
ARC
  5
5E6E
330
1E
100
AcDbEntity
  8
10
  6
CONTINOUS
100
AcDbCircle
 10
-3.749999999999998
 20
65.99999999999997
 30
0.0
 40
5.0
100
AcDbArc
 50
180.0
 51
270.0
  0
LINE
  5
5E6F
330
1E
100
AcDbEntity
  8
12
  6
DASHED
100
AcDbLine
 10
-14.99999999999998
 20
60.49999999999974
 30
0.0
 11
-14.99999999999998
 21
71.49999999999973
 31
0.0
  0
LINE
  5
5E70
330
1E
100
AcDbEntity
  8
10
  6
CONTINOUS
100
AcDbLine
 10
3.75
 20
60.99999999999996
 30
0.0
 11
-3.749999999999998
 21
60.99999999999996
 31
0.0
  0
CIRCLE
  5
5E71
330
1E
100
AcDbEntity
  8
24
  6
CONTINOUS
100
AcDbCircle
 10
30.00000000000003
 20
66.99999999999997
 30
0.0
 40
5.0
  0
LINE
  5
5E72
330
1E
100
AcDbEntity
  8
10
  6
CONTINOUS
100
AcDbLine
 10
38.75000000000003
 20
65.99999999999997
 30
0.0
 11
38.75000000000003
 21
77.49999999999997
 31
0.0
  0
LINE
  5
5E73
330
1E
100
AcDbEntity
  8
10
  6
CONTINOUS
100
AcDbLine
 10
21.25000000000003
 20
65.99999999999997
 30
0.0
 11
21.25000000000003
 21
77.49999999999997
 31
0.0
  0
LINE
  5
5E74
330
1E
100
AcDbEntity
  8
24
  6
CONTINOUS
100
AcDbLine
 10
30.00000000000003
 20
73.99999999999997
 30
0.0
 11
30.00000000000003
 21
59.99999999999996
 31
0.0
  0
LINE
  5
5E75
330
1E
100
AcDbEntity
  8
10
  6
CONTINOUS
100
AcDbLine
 10
8.750000000000023
 20
65.99999999999997
 30
0.0
 11
8.750000000000023
 21
77.49999999999997
 31
0.0
  0
ARC
  5
5E76
330
1E
100
AcDbEntity
  8
10
  6
CONTINOUS
100
AcDbCircle
 10
26.25000000000003
 20
65.99999999999997
 30
0.0
 40
5.0
100
AcDbArc
 50
180.0
 51
270.0
  0
LINE
  5
5E77
330
1E
100
AcDbEntity
  8
24
  6
CONTINOUS
100
AcDbLine
 10
23.00000000000002
 20
66.99999999999997
 30
0.0
 11
37.00000000000001
 21
66.99999999999997
 31
0.0
  0
ARC
  5
5E78
330
1E
100
AcDbEntity
  8
10
  6
CONTINOUS
100
AcDbCircle
 10
33.75000000000003
 20
65.99999999999997
 30
0.0
 40
5.0
100
AcDbArc
 50
270.0
 51
0.0
  0
LINE
  5
5E79
330
1E
100
AcDbEntity
  8
10
  6
CONTINOUS
100
AcDbLine
 10
33.75000000000003
 20
60.99999999999996
 30
0.0
 11
26.25000000000003
 21
60.99999999999996
 31
0.0
  0
LINE
  5
5E7A
330
1E
100
AcDbEntity
  8
18
100
AcDbLine
 10
-13.49999999999999
 20
124.4999999999996
 30
0.0
 11
-16.5
 21
124.4999999999996
 31
0.0
  0
LINE
  5
5E7B
330
1E
100
AcDbEntity
  8
18
100
AcDbLine
 10
13.50000000000002
 20
124.4999999999996
 30
0.0
 11
16.5
 21
124.4999999999996
 31
0.0
  0
LINE
  5
5EEE
330
1E
100
AcDbEntity
  8
18
  6
DIVIDE
100
AcDbLine
 10
45.0
 20
-177.4999999999999
 30
0.0
 11
-44.99999999999999
 21
-177.4999999999999
 31
0.0
  0
LINE
  5
5EEF
330
1E
100
AcDbEntity
  8
18
  6
DIVIDE
100
AcDbLine
 10
-44.99999999999999
 20
-332.4999999999998
 30
0.0
 11
45.0
 21
-332.4999999999998
 31
0.0
  0
DIMENSION
  5
5EF0
330
1E
100
AcDbEntity
  8
30
  6
Continuous
100
AcDbDimension
280
     0
  2
*D20
 10
15.0
 20
-356.7494181439514
 30
0.0
 11
-0.0000000000000016
 21
-353.7494181439513
 31
0.0
 70
    32
 71
     5
 42
-1.0
 73
     0
 74
     0
 75
     0
  3
STANDARD
100
AcDbAlignedDimension
 13
-14.99999999999999
 23
-191.5000000165002
 33
0.0
 14
15.0
 24
-323.5000000165001
 34
0.0
 50
180.0
100
AcDbRotatedDimension
1001
ACAD
1000
DSTYLE
1002
{
1070
    79
1070
     3
1002
}
  0
LINE
  5
5EF1
330
1E
100
AcDbEntity
  8
18
  6
DIVIDE
100
AcDbLine
 10
-44.99999999999999
 20
-177.4999999999999
 30
0.0
 11
-44.99999999999999
 21
-332.4999999999998
 31
0.0
  0
LINE
  5
5EF2
330
1E
100
AcDbEntity
  8
12
  6
Continuous
 62
     3
100
AcDbLine
 10
9.499999999999984
 20
-320.9999999999999
 30
0.0
 11
20.49999999999998
 21
-320.9999999999999
 31
0.0
  0
LINE
  5
5EF3
330
1E
100
AcDbEntity
  8
12
  6
Continuous
 62
     3
100
AcDbLine
 10
15.0
 20
-326.4999999999998
 30
0.0
 11
15.0
 21
-315.4999999999998
 31
0.0
  0
CIRCLE
  5
5EF4
330
1E
100
AcDbEntity
  8
12
  6
Continuous
 62
     3
100
AcDbCircle
 10
15.0
 20
-320.9999999999999
 30
0.0
 40
2.0
  0
CIRCLE
  5
5EF5
330
1E
100
AcDbEntity
  8
12
  6
Continuous
 62
     3
100
AcDbCircle
 10
-14.99999999999999
 20
-189.0
 30
0.0
 40
2.0
  0
LINE
  5
5EF6
330
1E
100
AcDbEntity
  8
12
  6
Continuous
 62
     3
100
AcDbLine
 10
-20.49999999999998
 20
-189.0
 30
0.0
 11
-9.499999999999998
 21
-189.0
 31
0.0
  0
LINE
  5
5EF7
330
1E
100
AcDbEntity
  8
12
  6
Continuous
 62
     3
100
AcDbLine
 10
-14.99999999999999
 20
-194.5
 30
0.0
 11
-14.99999999999999
 21
-183.4999999999999
 31
0.0
  0
LINE
  5
5EF8
330
1E
100
AcDbEntity
  8
18
  6
DIVIDE
100
AcDbLine
 10
45.0
 20
-332.4999999999998
 30
0.0
 11
45.0
 21
-177.4999999999999
 31
0.0
  0
LINE
  5
5F54
330
1E
100
AcDbEntity
  8
24
  6
CONTINOUS
100
AcDbLine
 10
-10.51790353517123
 20
213.1349134126129
 30
0.0
 11
10.48209646482884
 21
213.1349134126129
 31
0.0
  0
LINE
  5
5F55
330
1E
100
AcDbEntity
  8
24
  6
CONTINOUS
100
AcDbLine
 10
-7.717903535171193
 20
209.1349134126128
 30
0.0
 11
7.682096464828785
 21
209.1349134126128
 31
0.0
  0
LINE
  5
5F56
330
1E
100
AcDbEntity
  8
24
  6
CONTINOUS
100
AcDbLine
 10
-10.51790353517123
 20
211.1349134126129
 30
0.0
 11
10.48209646482884
 21
211.1349134126129
 31
0.0
  0
ARC
  5
5F57
330
1E
100
AcDbEntity
  8
24
  6
CONTINOUS
100
AcDbCircle
 10
4.982096464828766
 20
205.9349134126128
 30
0.0
 40
2.0
100
AcDbArc
 50
270.0
 51
0.0
  0
LINE
  5
5F58
330
1E
100
AcDbEntity
  8
24
  6
CONTINOUS
100
AcDbLine
 10
-7.017903535171257
 20
205.9349134126128
 30
0.0
 11
-7.017903535171257
 21
209.1349134126128
 31
0.0
  0
LINE
  5
5F59
330
1E
100
AcDbEntity
  8
24
  6
CONTINOUS
100
AcDbLine
 10
-0.0179035351712591
 20
198.9349134126126
 30
0.0
 11
-0.0179035351712591
 21
216.1349134126129
 31
0.0
  0
LINE
  5
5F5A
330
1E
100
AcDbEntity
  8
24
  6
CONTINOUS
100
AcDbLine
 10
-5.017903535171257
 20
203.9349134126128
 30
0.0
 11
4.982096464828741
 21
203.9349134126128
 31
0.0
  0
ARC
  5
5F5B
330
1E
100
AcDbEntity
  8
24
  6
CONTINOUS
100
AcDbCircle
 10
-5.017903535171231
 20
205.9349134126128
 30
0.0
 40
2.0
100
AcDbArc
 50
180.0
 51
270.0
  0
LINE
  5
5F5C
330
1E
100
AcDbEntity
  8
24
  6
CONTINOUS
100
AcDbLine
 10
-7.717903535171193
 20
209.1349134126128
 30
0.0
 11
-7.717903535171193
 21
211.1349134126129
 31
0.0
  0
LINE
  5
5F5D
330
1E
100
AcDbEntity
  8
24
  6
CONTINOUS
100
AcDbLine
 10
6.982096464828741
 20
205.9349134126128
 30
0.0
 11
6.982096464828741
 21
209.1349134126128
 31
0.0
  0
LINE
  5
5F5E
330
1E
100
AcDbEntity
  8
24
  6
CONTINOUS
100
AcDbLine
 10
7.682096464828785
 20
209.1349134126128
 30
0.0
 11
7.682096464828785
 21
211.1349134126129
 31
0.0
  0
LINE
  5
5F60
330
1E
100
AcDbEntity
  8
24
  6
CONTINOUS
100
AcDbLine
 10
-35.01790353517125
 20
203.9349134126128
 30
0.0
 11
-25.01790353517123
 21
203.9349134126128
 31
0.0
  0
LINE
  5
5F61
330
1E
100
AcDbEntity
  8
24
  6
CONTINOUS
100
AcDbLine
 10
-40.51790353517124
 20
211.1349134126129
 30
0.0
 11
-19.51790353517112
 21
211.1349134126129
 31
0.0
  0
LINE
  5
5F62
330
1E
100
AcDbEntity
  8
24
  6
CONTINOUS
100
AcDbLine
 10
-37.71790353517118
 20
209.1349134126128
 30
0.0
 11
-22.31790353517118
 21
209.1349134126128
 31
0.0
  0
LINE
  5
5F63
330
1E
100
AcDbEntity
  8
24
  6
CONTINOUS
100
AcDbLine
 10
-40.51790353517124
 20
213.1349134126129
 30
0.0
 11
-19.51790353517112
 21
213.1349134126129
 31
0.0
  0
LINE
  5
5F64
330
1E
100
AcDbEntity
  8
24
  6
CONTINOUS
100
AcDbLine
 10
-30.01790353517123
 20
198.9349134126126
 30
0.0
 11
-30.01790353517123
 21
216.1349134126129
 31
0.0
  0
LINE
  5
5F65
330
1E
100
AcDbEntity
  8
24
  6
CONTINOUS
100
AcDbLine
 10
-37.01790353517125
 20
205.9349134126128
 30
0.0
 11
-37.01790353517125
 21
209.1349134126128
 31
0.0
  0
ARC
  5
5F66
330
1E
100
AcDbEntity
  8
24
  6
CONTINOUS
100
AcDbCircle
 10
-35.01790353517121
 20
205.9349134126128
 30
0.0
 40
2.0
100
AcDbArc
 50
180.0
 51
270.0
  0
LINE
  5
5F67
330
1E
100
AcDbEntity
  8
24
  6
CONTINOUS
100
AcDbLine
 10
-37.71790353517118
 20
209.1349134126128
 30
0.0
 11
-37.71790353517118
 21
211.1349134126129
 31
0.0
  0
LINE
  5
5F68
330
1E
100
AcDbEntity
  8
24
  6
CONTINOUS
100
AcDbLine
 10
-23.01790353517123
 20
205.9349134126128
 30
0.0
 11
-23.01790353517123
 21
209.1349134126128
 31
0.0
  0
ARC
  5
5F69
330
1E
100
AcDbEntity
  8
24
  6
CONTINOUS
100
AcDbCircle
 10
-25.01790353517122
 20
205.9349134126128
 30
0.0
 40
2.0
100
AcDbArc
 50
270.0
 51
0.0
  0
LINE
  5
5F6A
330
1E
100
AcDbEntity
  8
24
  6
CONTINOUS
100
AcDbLine
 10
-22.31790353517118
 20
209.1349134126128
 30
0.0
 11
-22.31790353517118
 21
211.1349134126129
 31
0.0
  0
LEADER
  5
6067
330
1E
100
AcDbEntity
  8
30
  6
Continuous
100
AcDbLeader
  3
STANDARD
 76
     3
 10
-14.99999999999999
 20
-189.0
 30
0.0
 10
-24.14302787963855
 20
-165.368371608535
 30
0.0
 10
-45.6199054648288
 20
-165.3368762556449
 30
0.0
213
-12.87672171467731
223
1.90869741556051
233
0.0
1001
ACAD
1000
DSTYLE
1002
{
1070
     5
1000
OPEN
1070
    77
1070
     0
1070
    79
1070
     3
1070
   147
1040
1.0
1070
   342
1005
3B2
1002
}
  0
MTEXT
  5
6068
330
1E
100
AcDbEntity
  8
30
  6
Continuous
100
AcDbMText
 10
-34.12327828532269
 20
-164.9086974155603
 30
0.0
 40
4.0
 41
0.0
 46
0.0
 71
     9
 72
     1
  1

 73
     1
 44
1.0
1001
ACAD
1000
MTEXTBEGIN
1070
    73
1070
     1
1070
    44
1040
1.0
1070
    74
1070
     0
1000
MTEXTEND
  0
MTEXT
  5
606B
330
1E
100
AcDbEntity
  8
30
  6
Continuous
100
AcDbMText
 10
-34.17173218180357
 20
-162.1570239285006
 30
0.0
 40
4.0
 41
0.0
 46
0.0
 71
     5
 72
     1
  1
M4×0.7
 73
     1
 44
1.0
1001
ACAD
1000
MTEXTBEGIN
1070
    73
1070
     1
1070
    44
1040
1.0
1070
    74
1070
     0
1000
MTEXTEND
  0
DIMENSION
  5
6157
330
1E
100
AcDbEntity
  8
30
  6
Continuous
100
AcDbDimension
280
     0
  2
*D26
 10
87.91568416193033
 20
-320.9999999999999
 30
0.0
 11
84.91568416193038
 21
-255.0
 31
0.0
 70
    32
 71
     5
 42
-1.0
 73
     0
 74
     0
 75
     0
  3
STANDARD
100
AcDbAlignedDimension
 13
-9.499999999999998
 23
-189.0
 33
0.0
 14
20.49999999999998
 24
-320.9999999999999
 34
0.0
 50
90.0
100
AcDbRotatedDimension
1001
ACAD
1000
DSTYLE
1002
{
1070
    79
1070
     3
1002
}
  0
DIMENSION
  5
619F
330
1E
100
AcDbEntity
  8
30
  6
Continuous
100
AcDbDimension
280
     0
  2
*D27
 10
-68.18995837047086
 20
77.49999999999997
 30
0.0
 11
-71.18995837047087
 21
100.9999999999997
 31
0.0
 70
    32
 71
     5
 42
-1.0
 73
     0
 74
     0
 75
     0
  3
STANDARD
100
AcDbAlignedDimension
 13
-16.5
 23
124.4999999999996
 33
0.0
 14
-44.99999999999997
 24
77.49999999999997
 34
0.0
 50
90.0
100
AcDbRotatedDimension
1001
ACAD
1000
DSTYLE
1002
{
1070
    79
1070
     3
1002
}
  0
DIMENSION
  5
61AC
330
1E
100
AcDbEntity
  8
30
  6
Continuous
100
AcDbDimension
280
     0
  2
*D28
 10
-68.18995837047089
 20
-77.50000000000003
 30
0.0
 11
-71.18995837047087
 21
-0.0000000000000381
 31
0.0
 70
    32
 71
     5
 42
-1.0
 73
     0
 74
     0
 75
     0
  3
STANDARD
100
AcDbAlignedDimension
 13
-44.99999999999997
 23
77.49999999999997
 33
0.0
 14
-44.99999999999997
 24
-77.50000000000003
 34
0.0
 50
90.0
100
AcDbRotatedDimension
1001
ACAD
1000
DSTYLE
1002
{
1070
   287
1070
     4
1070
   287
1070
     4
1070
   287
1070
     4
1070
   287
1070
     4
1070
   287
1070
     4
1070
   287
1070
     4
1070
   279
1070
     1
1070
    79
1070
     3
1002
}
  0
DIMENSION
  5
66A1
330
1E
100
AcDbEntity
  8
30
  6
Continuous
100
AcDbDimension
280
     0
  2
*D29
 10
229.8144775593029
 20
-89.91608514395144
 30
0.0
 11
225.814477559303
 21
-86.91608514395143
 31
0.0
 70
    32
 71
     5
 42
-1.0
 73
     0
 74
     0
 75
     0
  3
STANDARD
100
AcDbAlignedDimension
 13
221.8144775593031
 23
-77.50000000000003
 33
0.0
 14
229.8144775593029
 24
-68.25000000000001
 34
0.0
100
AcDbRotatedDimension
1001
ACAD
1000
DSTYLE
1002
{
1070
    79
1070
     3
1002
}
  0
LEADER
  5
6766
330
1E
100
AcDbEntity
  8
30
  6
Continuous
100
AcDbLeader
  3
STANDARD
 76
     3
 10
190.9105529131242
 20
73.04720618797992
 30
0.0
 10
183.0
 20
91.0
 30
0.0
 10
155.0
 20
91.0
 30
0.0
1001
ACAD
1000
DSTYLE
1002
{
1070
     5
1000
OPEN
1070
    77
1070
     0
1070
    79
1070
     3
1070
   147
1040
1.0
1070
   342
1005
3B2
1002
}
  0
LINE
  5
6767
330
1E
100
AcDbEntity
  8
16
100
AcDbLine
 10
180.0
 20
-352.7519397628458
 30
0.0
 11
180.0
 21
-153.6166007905139
 31
0.0
  0
LINE
  5
6769
330
1E
100
AcDbEntity
  8
18
  6
DIVIDE
100
AcDbLine
 10
135.0
 20
-177.4999999999998
 30
0.0
 11
135.0
 21
-332.4999999999998
 31
0.0
  0
LINE
  5
676A
330
1E
100
AcDbEntity
  8
18
  6
DIVIDE
100
AcDbLine
 10
225.0
 20
-332.4999999999998
 30
0.0
 11
225.0
 21
-177.4999999999998
 31
0.0
  0
LINE
  5
676B
330
1E
100
AcDbEntity
  8
11
 48
2.0
100
AcDbLine
 10
137.0
 20
-230.0
 30
0.0
 11
137.0
 21
-279.9999999999998
 31
0.0
  0
LINE
  5
676C
330
1E
100
AcDbEntity
  8
11
 48
2.0
100
AcDbLine
 10
223.0000000000002
 20
-230.0
 30
0.0
 11
223.0000000000002
 21
-279.9999999999998
 31
0.0
  0
DIMENSION
  5
676D
330
1E
100
AcDbEntity
  8
30
  6
Continuous
100
AcDbDimension
280
     0
  2
*D33
 10
256.0178303542168
 20
-280.9999999999998
 30
0.0
 11
253.0178303542168
 21
-254.9999999999998
 31
0.0
 70
    32
 71
     5
 42
-1.0
 73
     0
 74
     0
 75
     0
  3
STANDARD
100
AcDbAlignedDimension
 13
222.0
 23
-228.9999999999998
 33
0.0
 14
222.0
 24
-280.9999999999998
 34
0.0
 50
90.0
100
AcDbRotatedDimension
1001
ACAD
1000
DSTYLE
1002
{
1070
    79
1070
     3
1002
}
  0
LINE
  5
676F
330
1E
100
AcDbEntity
  8
16
100
AcDbLine
 10
248.9038975494068
 20
-255.0
 30
0.0
 11
99.45008679841913
 21
-255.0
 31
0.0
  0
LINE
  5
6770
330
1E
100
AcDbEntity
  8
18
  6
DIVIDE
100
AcDbLine
 10
135.0
 20
-332.4999999999998
 30
0.0
 11
225.0
 21
-332.4999999999998
 31
0.0
  0
LINE
  5
6772
330
1E
100
AcDbEntity
  8
11
 48
2.0
100
AcDbLine
 10
138.0
 20
-280.9999999999998
 30
0.0
 11
222.0
 21
-280.9999999999998
 31
0.0
  0
ARC
  5
6776
330
1E
100
AcDbEntity
  8
11
 48
2.0
100
AcDbCircle
 10
138.0
 20
-279.9999999999998
 30
0.0
 40
1.0
100
AcDbArc
 50
180.0
 51
270.0
  0
ARC
  5
6777
330
1E
100
AcDbEntity
  8
11
 48
2.0
100
AcDbCircle
 10
222.0
 20
-279.9999999999998
 30
0.0
 40
1.0
100
AcDbArc
 50
270.0
 51
0.0
  0
LINE
  5
6778
330
1E
100
AcDbEntity
  8
18
  6
DIVIDE
100
AcDbLine
 10
225.0
 20
-177.4999999999998
 30
0.0
 11
135.0
 21
-177.4999999999998
 31
0.0
  0
LINE
  5
6779
330
1E
100
AcDbEntity
  8
11
 48
2.0
100
AcDbLine
 10
138.0
 20
-228.9999999999998
 30
0.0
 11
222.0
 21
-228.9999999999998
 31
0.0
  0
ARC
  5
677E
330
1E
100
AcDbEntity
  8
11
 48
2.0
100
AcDbCircle
 10
138.0
 20
-230.0
 30
0.0
 40
1.0
100
AcDbArc
 50
90.0
 51
180.0
  0
DIMENSION
  5
6780
330
1E
100
AcDbEntity
  8
30
  6
Continuous
100
AcDbDimension
280
     0
  2
*D32
 10
222.0000000000001
 20
-229.9999999999995
 30
0.0
 11
229.6330332440374
 21
-223.9556714740487
 31
0.0
 70
    36
 71
     5
 42
-1.0
 73
     0
 74
     0
 75
     0
  3
STANDARD
100
AcDbRadialDimension
 15
222.7932733154744
 25
-229.3911342948093
 35
0.0
 40
0.0
1001
ACAD
1000
DSTYLE
1002
{
1070
   288
1070
     1
1002
}
  0
ARC
  5
6781
330
1E
100
AcDbEntity
  8
11
 48
2.0
100
AcDbCircle
 10
222.0
 20
-230.0
 30
0.0
 40
1.0
100
AcDbArc
 50
0.0
 51
90.0
  0
DIMENSION
  5
67E9
330
1E
100
AcDbEntity
  8
30
  6
Continuous
100
AcDbDimension
280
     0
  2
*D35
 10
223.0000000000002
 20
-368.6166007905138
 30
0.0
 11
180.0
 21
-365.6166007905138
 31
0.0
 70
    32
 71
     5
 42
-1.0
 73
     0
 74
     0
 75
     0
  3
STANDARD
100
AcDbAlignedDimension
 13
137.0
 23
-255.0
 33
0.0
 14
223.0000000000002
 24
-254.9999999999998
 34
0.0
100
AcDbRotatedDimension
1001
ACAD
1000
DSTYLE
1002
{
1070
    79
1070
     3
1002
}
  0
LINE
  5
6996
330
1E
100
AcDbEntity
  8
10
  6
CONTINOUS
100
AcDbLine
 10
-41.99999999999984
 20
163.1698268252254
 30
0.0
 11
41.98209646482871
 21
163.1698268252254
 31
0.0
  0
LINE
  5
6997
330
1E
100
AcDbEntity
  8
10
  6
CONTINOUS
100
AcDbLine
 10
41.9820964648287
 20
163.1698268252254
 30
0.0
 11
41.9820964648287
 21
167.1349134126126
 31
0.0
  0
LINE
  5
6998
330
1E
100
AcDbEntity
  8
10
  6
CONTINOUS
100
AcDbLine
 10
-41.99999999999984
 20
163.1698268252254
 30
0.0
 11
-41.99999999999984
 21
167.1349134126124
 31
0.0
  0
MTEXT
  5
6A3E
330
1E
100
AcDbEntity
  8
30
  6
Continuous
100
AcDbMText
 10
120.0823593113523
 20
238.0483254374242
 30
0.0
 40
5.0
 41
95.0
 46
0.0
 71
     1
 72
     5
  1
S100-GF 3P FC\PS125-GF 3P FC
  7
STANDARD1
 73
     1
 44
1.0
1001
ACAD
1000
MTEXTBEGIN
1070
    73
1070
     1
1070
    44
1040
1.0
1070
    74
1070
     0
1000
MTEXTEND
  0
DIMENSION
  5
6B96
330
1E
100
AcDbEntity
  8
30
  6
Continuous
100
AcDbDimension
280
     0
  2
*D41
 10
149.8144775593031
 20
121.0
 30
0.0
 11
185.8144775593031
 21
124.0
 31
0.0
 70
    32
 71
     5
 42
72.0
 73
     0
 74
     0
 75
     0
  3
STANDARD
100
AcDbAlignedDimension
 13
221.8144775593031
 23
77.5000000000001
 33
0.0
 14
149.8144775593031
 24
24.99999999999998
 34
0.0
100
AcDbRotatedDimension
1001
ACAD
1000
DSTYLE
1002
{
1070
    79
1070
     3
1002
}
  0
DIMENSION
  5
6BA3
330
1E
100
AcDbEntity
  8
30
  6
Continuous
100
AcDbDimension
280
     0
  2
*D42
 10
145.8144775593031
 20
133.0
 30
0.0
 11
183.8144775593031
 21
136.0
 31
0.0
 70
    32
 71
     5
 42
76.0
 73
     0
 74
     0
 75
     0
  3
STANDARD
100
AcDbAlignedDimension
 13
221.8144775593031
 23
77.5000000000001
 33
0.0
 14
145.8144775593031
 24
24.99999999999998
 34
0.0
100
AcDbRotatedDimension
1001
ACAD
1000
DSTYLE
1002
{
1070
    79
1070
     3
1002
}
  0
DIMENSION
  5
6C66
330
1E
100
AcDbEntity
  8
30
  6
Continuous
100
AcDbDimension
280
     0
  2
*D51
 10
0.0
 20
255.6073578546832
 30
0.0
 11
-15.00895176758561
 21
258.6073578546832
 31
0.0
 70
    32
 71
     5
 42
30.01790353517123
 73
     0
 74
     0
 75
     0
  3
STANDARD
100
AcDbAlignedDimension
 13
-30.01790353517123
 23
218.0
 33
0.0
 14
0.0
 24
255.6073578546832
 34
0.0
100
AcDbRotatedDimension
1001
ACAD
1000
DSTYLE
1002
{
1070
    79
1070
     3
1002
}
  0
DIMENSION
  5
6C73
330
1E
100
AcDbEntity
  8
30
  6
Continuous
100
AcDbDimension
280
     0
  2
*D52
 10
0.0
 20
256.0
 30
0.0
 11
14.99104823241436
 21
259.0
 31
0.0
 70
    32
 71
     5
 42
29.98209646482873
 73
     0
 74
     0
 75
     0
  3
STANDARD
100
AcDbAlignedDimension
 13
29.98209646482873
 23
218.0
 33
0.0
 14
0.0
 24
255.6073578546832
 34
0.0
100
AcDbRotatedDimension
1001
ACAD
1000
DSTYLE
1002
{
1070
    79
1070
     3
1002
}
  0
DIMENSION
  5
6D35
330
1E
100
AcDbEntity
  8
30
  6
Continuous
100
AcDbDimension
280
     0
  2
*D60
 10
53.99999999999999
 20
174.134913412613
 30
0.0
 11
50.99999999999997
 21
204.6349134126128
 31
0.0
 70
    32
 71
     5
 42
60.99999999999969
 73
     0
 74
     0
 75
     0
  3
STANDARD
100
AcDbAlignedDimension
 13
45.0
 23
235.1349134126127
 33
0.0
 14
45.0
 24
174.134913412613
 34
0.0
 50
90.0
100
AcDbRotatedDimension
1001
ACAD
1000
DSTYLE
1002
{
1070
    79
1070
     3
1002
}
  0
DIMENSION
  5
6D42
330
1E
100
AcDbEntity
  8
30
  6
Continuous
100
AcDbDimension
280
     0
  2
*D61
 10
61.0
 20
167.1349134126126
 30
0.0
 11
57.99999999999998
 21
201.1349134126127
 31
0.0
 70
    32
 71
     5
 42
68.00000000000007
 73
     0
 74
     0
 75
     0
  3
STANDARD
100
AcDbAlignedDimension
 13
45.0
 23
235.1349134126127
 33
0.0
 14
45.0
 24
167.1349134126126
 34
0.0
 50
90.0
100
AcDbRotatedDimension
1001
ACAD
1000
DSTYLE
1002
{
1070
    79
1070
     3
1002
}
  0
DIMENSION
  5
6D4F
330
1E
100
AcDbEntity
  8
30
  6
Continuous
100
AcDbDimension
280
     0
  2
*D62
 10
69.0
 20
163.1698268252254
 30
0.0
 11
65.99999999999997
 21
199.152370118919
 31
0.0
 70
    32
 71
     5
 42
71.96508658738729
 73
     0
 74
     0
 75
     0
  3
STANDARD
100
AcDbAlignedDimension
 13
45.0
 23
235.1349134126127
 33
0.0
 14
41.98209646482871
 24
163.1698268252254
 34
0.0
 50
90.0
100
AcDbRotatedDimension
1001
ACAD
1000
DSTYLE
1002
{
1070
    79
1070
     3
1002
}
  0
DIMENSION
  5
6D5C
330
1E
100
AcDbEntity
  8
30
  6
Continuous
100
AcDbDimension
280
     0
  2
*D63
 10
76.99999999999999
 20
159.1349134126128
 30
0.0
 11
73.99999999999997
 21
197.1349134126127
 31
0.0
 70
    32
 71
     5
 42
75.99999999999986
 73
     0
 74
     0
 75
     0
  3
STANDARD
100
AcDbAlignedDimension
 13
45.0
 23
235.1349134126127
 33
0.0
 14
10.98209646482871
 24
159.1349134126128
 34
0.0
 50
90.0
100
AcDbRotatedDimension
1001
ACAD
1000
DSTYLE
1002
{
1070
    79
1070
     3
1002
}
  0
LINE
  5
6DDD
330
1E
100
AcDbEntity
  8
10
  6
CONTINOUS
100
AcDbLine
 10
-7.017903535171235
 20
159.1349134126128
 30
0.0
 11
-7.017903535171235
 21
147.1349134126128
 31
0.0
  0
LINE
  5
6DDE
330
1E
100
AcDbEntity
  8
10
  6
CONTINOUS
100
AcDbLine
 10
-7.017903535171235
 20
147.1349134126128
 30
0.0
 11
6.982096464828763
 21
147.1349134126128
 31
0.0
  0
LINE
  5
6DDF
330
1E
100
AcDbEntity
  8
10
  6
CONTINOUS
100
AcDbLine
 10
6.982096464828763
 20
147.1349134126128
 30
0.0
 11
6.982096464828763
 21
159.1349134126128
 31
0.0
  0
VIEWPORT
  5
9AC
330
1A
100
AcDbEntity
 67
     1
  8
0
  6
Continuous
100
AcDbViewport
 10
171.999535
 20
144.1384739999999
 30
0.0
 40
488.867686
 41
292.351491
 68
    -1
 69
     1
 12
171.999535
 22
144.1384739999999
 13
0.0
 23
0.0
 14
10.0
 24
10.0
 15
10.0
 25
10.0
 16
0.0
 26
0.0
 36
1.0
 17
0.0
 27
0.0
 37
0.0
 42
50.0
 43
0.0
 44
0.0
 45
292.351491
 50
0.0
 51
0.0
 72
   100
 90
    32800
  1

281
     0
 71
     1
 74
     0
110
0.0
120
0.0
130
0.0
111
1.0
121
0.0
131
0.0
112
0.0
122
1.0
132
0.0
 79
     0
146
0.0
170
     0
 61
     5
348
6A67
292
     1
282
     1
141
0.0
142
0.0
 63
   250
421
  3355443
  0
ENDSEC
  0
SECTION
  2
OBJECTS
  0
DICTIONARY
  5
C
330
0
100
AcDbDictionary
281
     1
  3
ACAD_CIP_PREVIOUS_PRODUCT_INFO
350
6B4B
  3
ACAD_COLOR
350
6A75
  3
ACAD_DETAILVIEWSTYLE
350
6B48
  3
ACAD_GROUP
350
D
  3
ACAD_LAYOUT
350
19
  3
ACAD_MATERIAL
350
6A48
  3
ACAD_MLEADERSTYLE
350
6A9A
  3
ACAD_MLINESTYLE
350
16
  3
ACAD_PLOTSETTINGS
350
18
  3
ACAD_PLOTSTYLENAME
350
E
  3
ACAD_SCALELIST
350
6A78
  3
ACAD_SECTIONVIEWSTYLE
350
6B46
  3
ACAD_TABLESTYLE
350
6A76
  3
ACAD_VISUALSTYLE
350
6A61
  3
ACADDIM
350
5C76
  3
ACDB_RECOMPOSE_DATA
350
6F76
  3
ACDBVARIABLEDICTIONARY
350
5697
  3
ASE_INDEX_DICTIONARY
350
6B04
  0
DICTIONARY
  5
6A9F
330
10
100
AcDbDictionary
280
     1
281
     1
  3
ADSK_XREC_LAYER_RECONCILED
360
6AA0
  0
DICTIONARY
  5
6AA1
330
2F
100
AcDbDictionary
280
     1
281
     1
  3
ADSK_XREC_LAYER_RECONCILED
360
6AA2
  0
DICTIONARY
  5
6AA3
330
31
100
AcDbDictionary
280
     1
281
     1
  3
ADSK_XREC_LAYER_RECONCILED
360
6AA4
  0
DICTIONARY
  5
6AA5
330
35
100
AcDbDictionary
280
     1
281
     1
  3
ADSK_XREC_LAYER_RECONCILED
360
6AA6
  0
DICTIONARY
  5
6AA7
330
38
100
AcDbDictionary
280
     1
281
     1
  3
ADSK_XREC_LAYER_RECONCILED
360
6AA8
  0
DICTIONARY
  5
6AA9
330
3C
100
AcDbDictionary
280
     1
281
     1
  3
ADSK_XREC_LAYER_RECONCILED
360
6AAA
  0
DICTIONARY
  5
6AAB
330
3D
100
AcDbDictionary
280
     1
281
     1
  3
ADSK_XREC_LAYER_RECONCILED
360
6AAC
  0
DICTIONARY
  5
6AAD
330
3A2
100
AcDbDictionary
280
     1
281
     1
  3
ADSK_XREC_LAYER_RECONCILED
360
6AAE
  0
DICTIONARY
  5
6AAF
330
3BBA
100
AcDbDictionary
280
     1
281
     1
  3
ADSK_XREC_LAYER_RECONCILED
360
6AB0
  0
DICTIONARY
  5
6AB1
330
5116
100
AcDbDictionary
280
     1
281
     1
  3
ADSK_XREC_LAYER_RECONCILED
360
6AB2
  0
DICTIONARY
  5
6AB3
330
5117
100
AcDbDictionary
280
     1
281
     1
  3
ADSK_XREC_LAYER_RECONCILED
360
6AB4
  0
DICTIONARY
  5
6AB5
330
5C47
100
AcDbDictionary
280
     1
281
     1
  3
ADSK_XREC_LAYER_RECONCILED
360
6AB6
  0
DICTIONARY
  5
178
330
1E
100
AcDbDictionary
280
     1
281
     1
  3
ACAD_LAYOUTSELFREF
360
6A2A
  0
DICTIONARY
  5
17A
330
1A
100
AcDbDictionary
280
     1
281
     1
  3
ACAD_LAYOUTSELFREF
360
6A29
  0
XRECORD
  5
6B4B
102
{ACAD_REACTORS
330
C
102
}
330
C
100
AcDbXrecord
280
     1
300
ACDLT
300
2014
300
ACDLT_F_S
  0
DICTIONARY
  5
6A75
102
{ACAD_REACTORS
330
C
102
}
330
C
100
AcDbDictionary
281
     1
  0
DICTIONARY
  5
6B48
102
{ACAD_REACTORS
330
C
102
}
330
C
100
AcDbDictionary
281
     1
  3
Imperial24
350
6B49
  0
DICTIONARY
  5
D
102
{ACAD_REACTORS
330
C
102
}
330
C
100
AcDbDictionary
281
     1
  0
DICTIONARY
  5
19
102
{ACAD_REACTORS
330
C
102
}
330
C
100
AcDbDictionary
281
     1
  3
Model
350
6A3B
  3
ﾚｲｱｳﾄ1
350
6A3C
  0
DICTIONARY
  5
6A48
102
{ACAD_REACTORS
330
C
102
}
330
C
100
AcDbDictionary
281
     1
  3
ByBlock
350
6A51
  3
ByLayer
350
6A49
  3
Global
350
6A59
  0
DICTIONARY
  5
6A9A
102
{ACAD_REACTORS
330
C
102
}
330
C
100
AcDbDictionary
281
     1
  3
Standard
350
6A9B
  0
DICTIONARY
  5
16
102
{ACAD_REACTORS
330
C
102
}
330
C
100
AcDbDictionary
281
     1
  3
STANDARD
350
17
  0
DICTIONARY
  5
18
102
{ACAD_REACTORS
330
C
102
}
330
C
100
AcDbDictionary
281
     1
  0
ACDBDICTIONARYWDFLT
  5
E
102
{ACAD_REACTORS
330
C
102
}
330
C
100
AcDbDictionary
281
     1
  3
Normal
350
F
100
AcDbDictionaryWithDefault
340
F
  0
DICTIONARY
  5
6A78
102
{ACAD_REACTORS
330
C
102
}
330
C
100
AcDbDictionary
281
     1
  3
A0
350
6A79
  3
A1
350
6A7A
  3
A2
350
6A7B
  3
A3
350
6A7C
  3
A4
350
6A7D
  3
A5
350
6A7E
  3
A6
350
6A7F
  3
A7
350
6A80
  3
A8
350
6A81
  3
A9
350
6A82
  3
B0
350
6A83
  3
B1
350
6A84
  3
B2
350
6A85
  3
B3
350
6A86
  3
B4
350
6A87
  3
B5
350
6A88
  3
B6
350
6A89
  3
B7
350
6A8A
  3
B8
350
6A8B
  3
B9
350
6A8C
  3
C0
350
6A8D
  3
C1
350
6A8E
  3
C2
350
6A8F
  3
C3
350
6A90
  3
C4
350
6A91
  3
C5
350
6A92
  3
C6
350
6A93
  3
C7
350
6A94
  3
C8
350
6A95
  3
C9
350
6A96
  3
D0
350
6A97
  3
D1
350
6A98
  3
D2
350
6A99
  0
DICTIONARY
  5
6B46
102
{ACAD_REACTORS
330
C
102
}
330
C
100
AcDbDictionary
281
     1
  3
Imperial24
350
6B47
  0
DICTIONARY
  5
6A76
102
{ACAD_REACTORS
330
C
102
}
330
C
100
AcDbDictionary
281
     1
  3
Standard
350
6A77
  0
DICTIONARY
  5
6A61
102
{ACAD_REACTORS
330
C
102
}
330
C
100
AcDbDictionary
281
     1
  3
2dWireframe
350
6A67
  3
3D Hidden
350
6A69
  3
3dWireframe
350
6A68
  3
Basic
350
6A66
  3
Brighten
350
6A6D
  3
ColorChange
350
6A71
  3
Conceptual
350
6A6A
  3
Dim
350
6A6C
  3
EdgeColorOff
350
6A74
  3
Facepattern
350
6A70
  3
Flat
350
6A62
  3
FlatWithEdges
350
6A63
  3
Gouraud
350
6A64
  3
GouraudWithEdges
350
6A65
  3
Hidden
350
6B40
  3
JitterOff
350
6A72
  3
Linepattern
350
6A6F
  3
OverhangOff
350
6A73
  3
Realistic
350
6A6B
  3
Shaded
350
6B45
  3
Shaded with edges
350
6B44
  3
Shades of Gray
350
6B41
  3
Sketchy
350
6B42
  3
Thicken
350
6A6E
  3
Wireframe
350
6B3F
  3
X-Ray
350
6B43
  0
XRECORD
  5
5C76
102
{ACAD_REACTORS
330
C
102
}
330
C
100
AcDbXrecord
280
     1
 90
   990106
  3

 60
     0
 61
     0
 62
     1
 63
     3
 64
     0
 65
     0
 66
     0
 67
     3
 68
     1
 69
     0
 70
     0
 71
     0
 72
     0
 40
0.0
170
     0
340
6068
  0
XRECORD
  5
6F76
102
{ACAD_REACTORS
330
C
102
}
330
C
100
AcDbXrecord
280
     1
 90
        1
330
6A77
330
6B47
330
6B49
  0
DICTIONARY
  5
5697
102
{ACAD_REACTORS
330
C
102
}
330
C
100
AcDbDictionary
281
     1
  3
CANNOSCALE
350
6AB9
  3
CMLEADERSTYLE
350
6AB8
  3
CTABLESTYLE
350
6AB7
  3
CVIEWDETAILSTYLE
350
6CE8
  3
CVIEWSECTIONSTYLE
350
6CE9
  3
DIMASSOC
350
5698
  3
INDEXCTL
350
6ABB
  3
LAYEREVAL
350
6F6F
  3
LAYERNOTIFY
350
6F70
  3
LIGHTINGUNITS
350
6F6E
  3
MSLTSCALE
350
6F6D
  3
SORTENTS
350
6ABA
  0
DICTIONARY
  5
6B04
102
{ACAD_REACTORS
330
C
102
}
330
C
100
AcDbDictionary
281
     1
  3
ASEBlockHierarchyIndexRecord
350
6B06
1001
DCO15
1040
1734070609.921
  0
XRECORD
  5
6AA0
102
{ACAD_REACTORS
330
6A9F
102
}
330
6A9F
100
AcDbXrecord
280
     1
290
     1
  0
XRECORD
  5
6AA2
102
{ACAD_REACTORS
330
6AA1
102
}
330
6AA1
100
AcDbXrecord
280
     1
290
     1
  0
XRECORD
  5
6AA4
102
{ACAD_REACTORS
330
6AA3
102
}
330
6AA3
100
AcDbXrecord
280
     1
290
     1
  0
XRECORD
  5
6AA6
102
{ACAD_REACTORS
330
6AA5
102
}
330
6AA5
100
AcDbXrecord
280
     1
290
     1
  0
XRECORD
  5
6AA8
102
{ACAD_REACTORS
330
6AA7
102
}
330
6AA7
100
AcDbXrecord
280
     1
290
     1
  0
XRECORD
  5
6AAA
102
{ACAD_REACTORS
330
6AA9
102
}
330
6AA9
100
AcDbXrecord
280
     1
290
     1
  0
XRECORD
  5
6AAC
102
{ACAD_REACTORS
330
6AAB
102
}
330
6AAB
100
AcDbXrecord
280
     1
290
     1
  0
XRECORD
  5
6AAE
102
{ACAD_REACTORS
330
6AAD
102
}
330
6AAD
100
AcDbXrecord
280
     1
290
     1
  0
XRECORD
  5
6AB0
102
{ACAD_REACTORS
330
6AAF
102
}
330
6AAF
100
AcDbXrecord
280
     1
290
     1
  0
XRECORD
  5
6AB2
102
{ACAD_REACTORS
330
6AB1
102
}
330
6AB1
100
AcDbXrecord
280
     1
290
     1
  0
XRECORD
  5
6AB4
102
{ACAD_REACTORS
330
6AB3
102
}
330
6AB3
100
AcDbXrecord
280
     1
290
     1
  0
XRECORD
  5
6AB6
102
{ACAD_REACTORS
330
6AB5
102
}
330
6AB5
100
AcDbXrecord
280
     1
290
     1
  0
XRECORD
  5
6A2A
102
{ACAD_REACTORS
330
178
102
}
330
178
100
AcDbXrecord
280
     1
340
1E
  0
XRECORD
  5
6A29
102
{ACAD_REACTORS
330
17A
102
}
330
17A
100
AcDbXrecord
280
     1
340
1A
  0
ACDBDETAILVIEWSTYLE
  5
6B49
102
{ACAD_XDICTIONARY
360
6F74
102
}
102
{ACAD_REACTORS
330
6B48
102
}
330
6B48
100
AcDbModelDocViewStyle
 70
     0
  3
Imperial24
290
     0
100
AcDbDetailViewStyle
 70
     0
 71
     0
 90
        3
 71
     1
340
11
 62
   256
 40
0.24
340
0
 62
   256
 40
0.24
300

 40
0.36
280
     3
 71
     2
340
15
 90
       25
 62
   256
 71
     3
340
11
 62
   256
 40
0.24
 90
        1
 40
0.75
 90
        1
300
%<\AcVar ViewType \f "%tc1">% %<\AcVar ViewDetailId>%\PSCALE %<\AcVar ViewScale \f "%sn">%
 71
     4
340
15
 90
       25
 62
   256
340
15
 90
       25
 62
   256
280
     0
  0
LAYOUT
  5
6A3B
102
{ACAD_REACTORS
330
19
102
}
330
19
100
AcDbPlotSettings
  1

  2
Canon LBP3800 LIPSLX
  4
A4
  6

 40
5.873749732971191
 41
5.873747825622557
 42
5.873748779296875
 43
5.873748779296875
 44
209.9733276367186
 45
296.9259948730469
 46
21.93450686800979
 47
12.71344972264669
 48
0.0
 49
0.0
140
0.0
141
0.0
142
1.0
143
2.5
 70
 11940
 72
     1
 73
     0
 74
     1
  7
monochrome.ctb
 75
     0
147
0.4391557157846579
 76
     0
 77
     2
 78
   300
148
83.96411608460175
149
369.1241318636983
100
AcDbLayout
  1
Model
 70
     1
 71
     0
 10
0.0
 20
0.0
 11
12.0
 21
9.0
 12
0.0
 22
0.0
 32
0.0
 14
0.0
 24
0.0
 34
0.0
 15
0.0
 25
0.0
 35
0.0
146
0.0
 13
0.0
 23
0.0
 33
0.0
 16
1.0
 26
0.0
 36
0.0
 17
0.0
 27
1.0
 37
0.0
 76
     0
330
1E
331
6A40
1001
ACAD_PSEXT
1000
Canon LBP3800 LIPSLX
1000
Canon LBP3800 LIPSLX
1000
IP_192.168.54.50
1000

1070
     0
  0
LAYOUT
  5
6A3C
102
{ACAD_REACTORS
330
19
102
}
330
19
100
AcDbPlotSettings
  1

  2
Canon LBP3800 LIPSLX
  4

  6

 40
0.0
 41
0.0
 42
0.0
 43
0.0
 44
0.0
 45
0.0
 46
0.0
 47
0.0
 48
0.0
 49
0.0
140
0.0
141
0.0
142
1.0
143
1.0
 70
   688
 72
     0
 73
     0
 74
     5
  7
monochrome.ctb
 75
    16
147
1.0
 76
     0
 77
     2
 78
   300
148
0.0
149
0.0
100
AcDbLayout
  1
ﾚｲｱｳﾄ1
 70
     1
 71
     1
 10
-5.873749
 20
-5.87375
 11
204.099579
 21
291.1369009999999
 12
0.0
 22
0.0
 32
0.0
 14
4.273573
 24
5.205245999999998
 34
0.0
 15
194.610095
 25
283.0697009999996
 35
0.0
146
0.0
 13
0.0
 23
0.0
 33
0.0
 16
1.0
 26
0.0
 36
0.0
 17
0.0
 27
1.0
 37
0.0
 76
     0
330
1A
  0
MATERIAL
  5
6A51
102
{ACAD_XDICTIONARY
360
6A52
102
}
102
{ACAD_REACTORS
330
6A48
102
}
330
6A48
100
AcDbMaterial
  1
ByBlock
 72
     0
 43
0.0208333333333333
 43
0.0
 43
0.0
 43
0.0
 43
0.0
 43
0.0208333333333333
 43
0.0
 43
0.0
 43
0.0
 43
0.0
 43
1.0
 43
0.0
 43
0.0
 43
0.0
 43
0.0
 43
1.0
 77
     0
 47
0.0208333333333333
 47
0.0
 47
0.0
 47
0.0
 47
0.0
 47
0.0208333333333333
 47
0.0
 47
0.0
 47
0.0
 47
0.0
 47
1.0
 47
0.0
 47
0.0
 47
0.0
 47
0.0
 47
1.0
171
     0
 49
0.0208333333333333
 49
0.0
 49
0.0
 49
0.0
 49
0.0
 49
0.0208333333333333
 49
0.0
 49
0.0
 49
0.0
 49
0.0
 49
1.0
 49
0.0
 49
0.0
 49
0.0
 49
0.0
 49
1.0
175
     0
142
0.0208333333333333
142
0.0
142
0.0
142
0.0
142
0.0
142
0.0208333333333333
142
0.0
142
0.0
142
0.0
142
0.0
142
1.0
142
0.0
142
0.0
142
0.0
142
0.0
142
1.0
179
     0
144
0.0208333333333333
144
0.0
144
0.0
144
0.0
144
0.0
144
0.0208333333333333
144
0.0
144
0.0
144
0.0
144
0.0
144
1.0
144
0.0
144
0.0
144
0.0
144
0.0
144
1.0
147
0.0208333333333333
147
0.0
147
0.0
147
0.0
147
0.0
147
0.0208333333333333
147
0.0
147
0.0
147
0.0
147
0.0
147
1.0
147
0.0
147
0.0
147
0.0
147
0.0
147
1.0
  0
MATERIAL
  5
6A49
102
{ACAD_XDICTIONARY
360
6A4A
102
}
102
{ACAD_REACTORS
330
6A48
102
}
330
6A48
100
AcDbMaterial
  1
ByLayer
 72
     0
 43
0.0208333333333333
 43
0.0
 43
0.0
 43
0.0
 43
0.0
 43
0.0208333333333333
 43
0.0
 43
0.0
 43
0.0
 43
0.0
 43
1.0
 43
0.0
 43
0.0
 43
0.0
 43
0.0
 43
1.0
 77
     0
 47
0.0208333333333333
 47
0.0
 47
0.0
 47
0.0
 47
0.0
 47
0.0208333333333333
 47
0.0
 47
0.0
 47
0.0
 47
0.0
 47
1.0
 47
0.0
 47
0.0
 47
0.0
 47
0.0
 47
1.0
171
     0
 49
0.0208333333333333
 49
0.0
 49
0.0
 49
0.0
 49
0.0
 49
0.0208333333333333
 49
0.0
 49
0.0
 49
0.0
 49
0.0
 49
1.0
 49
0.0
 49
0.0
 49
0.0
 49
0.0
 49
1.0
175
     0
142
0.0208333333333333
142
0.0
142
0.0
142
0.0
142
0.0
142
0.0208333333333333
142
0.0
142
0.0
142
0.0
142
0.0
142
1.0
142
0.0
142
0.0
142
0.0
142
0.0
142
1.0
179
     0
144
0.0208333333333333
144
0.0
144
0.0
144
0.0
144
0.0
144
0.0208333333333333
144
0.0
144
0.0
144
0.0
144
0.0
144
1.0
144
0.0
144
0.0
144
0.0
144
0.0
144
1.0
147
0.0208333333333333
147
0.0
147
0.0
147
0.0
147
0.0
147
0.0208333333333333
147
0.0
147
0.0
147
0.0
147
0.0
147
1.0
147
0.0
147
0.0
147
0.0
147
0.0
147
1.0
  0
MATERIAL
  5
6A59
102
{ACAD_XDICTIONARY
360
6A5A
102
}
102
{ACAD_REACTORS
330
6A48
102
}
330
6A48
100
AcDbMaterial
  1
Global
 72
     0
 43
0.0208333333333333
 43
0.0
 43
0.0
 43
0.0
 43
0.0
 43
0.0208333333333333
 43
0.0
 43
0.0
 43
0.0
 43
0.0
 43
1.0
 43
0.0
 43
0.0
 43
0.0
 43
0.0
 43
1.0
 77
     0
 47
0.0208333333333333
 47
0.0
 47
0.0
 47
0.0
 47
0.0
 47
0.0208333333333333
 47
0.0
 47
0.0
 47
0.0
 47
0.0
 47
1.0
 47
0.0
 47
0.0
 47
0.0
 47
0.0
 47
1.0
171
     0
 49
0.0208333333333333
 49
0.0
 49
0.0
 49
0.0
 49
0.0
 49
0.0208333333333333
 49
0.0
 49
0.0
 49
0.0
 49
0.0
 49
1.0
 49
0.0
 49
0.0
 49
0.0
 49
0.0
 49
1.0
175
     0
142
0.0208333333333333
142
0.0
142
0.0
142
0.0
142
0.0
142
0.0208333333333333
142
0.0
142
0.0
142
0.0
142
0.0
142
1.0
142
0.0
142
0.0
142
0.0
142
0.0
142
1.0
179
     0
144
0.0208333333333333
144
0.0
144
0.0
144
0.0
144
0.0
144
0.0208333333333333
144
0.0
144
0.0
144
0.0
144
0.0
144
1.0
144
0.0
144
0.0
144
0.0
144
0.0
144
1.0
147
0.0208333333333333
147
0.0
147
0.0
147
0.0
147
0.0
147
0.0208333333333333
147
0.0
147
0.0
147
0.0
147
0.0
147
1.0
147
0.0
147
0.0
147
0.0
147
0.0
147
1.0
  0
MLEADERSTYLE
  5
6A9B
102
{ACAD_REACTORS
330
6A9A
102
}
330
6A9A
100
AcDbMLeaderStyle
179
     2
170
     2
171
     1
172
     0
 90
        2
 40
0.0
 41
0.0
173
     1
 91
-1056964608
340
13
 92
       -2
290
     1
 42
0.09
291
     1
 43
0.36
  3
Standard
 44
0.18
300

342
11
174
     1
178
     6
175
     1
176
     0
 93
-1056964608
 45
0.18
292
     0
297
     0
 46
0.18
 94
-1056964608
 47
1.0
 49
1.0
140
1.0
293
     1
141
0.0
294
     1
177
     0
142
1.0
295
     0
296
     0
143
0.125
271
     0
272
     9
273
     9
298
     0
1001
ACAD_MLEADERVER
1070
     2
  0
MLINESTYLE
  5
17
102
{ACAD_REACTORS
330
16
102
}
330
16
100
AcDbMlineStyle
  2
STANDARD
 70
     0
  3

 62
   256
 51
90.0
 52
90.0
 71
     2
 49
0.5
 62
   256
  6
BYLAYER
 49
-0.5
 62
   256
  6
BYLAYER
  0
ACDBPLACEHOLDER
  5
F
102
{ACAD_REACTORS
330
E
102
}
330
E
  0
SCALE
  5
6A79
102
{ACAD_REACTORS
330
6A78
102
}
330
6A78
100
AcDbScale
 70
     0
300
1:1
140
1.0
141
1.0
290
     1
  0
SCALE
  5
6A7A
102
{ACAD_REACTORS
330
6A78
102
}
330
6A78
100
AcDbScale
 70
     0
300
1:2
140
1.0
141
2.0
290
     0
  0
SCALE
  5
6A7B
102
{ACAD_REACTORS
330
6A78
102
}
330
6A78
100
AcDbScale
 70
     0
300
1:4
140
1.0
141
4.0
290
     0
  0
SCALE
  5
6A7C
102
{ACAD_REACTORS
330
6A78
102
}
330
6A78
100
AcDbScale
 70
     0
300
1:5
140
1.0
141
5.0
290
     0
  0
SCALE
  5
6A7D
102
{ACAD_REACTORS
330
6A78
102
}
330
6A78
100
AcDbScale
 70
     0
300
1:8
140
1.0
141
8.0
290
     0
  0
SCALE
  5
6A7E
102
{ACAD_REACTORS
330
6A78
102
}
330
6A78
100
AcDbScale
 70
     0
300
1:10
140
1.0
141
10.0
290
     0
  0
SCALE
  5
6A7F
102
{ACAD_REACTORS
330
6A78
102
}
330
6A78
100
AcDbScale
 70
     0
300
1:16
140
1.0
141
16.0
290
     0
  0
SCALE
  5
6A80
102
{ACAD_REACTORS
330
6A78
102
}
330
6A78
100
AcDbScale
 70
     0
300
1:20
140
1.0
141
20.0
290
     0
  0
SCALE
  5
6A81
102
{ACAD_REACTORS
330
6A78
102
}
330
6A78
100
AcDbScale
 70
     0
300
1:30
140
1.0
141
30.0
290
     0
  0
SCALE
  5
6A82
102
{ACAD_REACTORS
330
6A78
102
}
330
6A78
100
AcDbScale
 70
     0
300
1:40
140
1.0
141
40.0
290
     0
  0
SCALE
  5
6A83
102
{ACAD_REACTORS
330
6A78
102
}
330
6A78
100
AcDbScale
 70
     0
300
1:50
140
1.0
141
50.0
290
     0
  0
SCALE
  5
6A84
102
{ACAD_REACTORS
330
6A78
102
}
330
6A78
100
AcDbScale
 70
     0
300
1:100
140
1.0
141
100.0
290
     0
  0
SCALE
  5
6A85
102
{ACAD_REACTORS
330
6A78
102
}
330
6A78
100
AcDbScale
 70
     0
300
2:1
140
2.0
141
1.0
290
     0
  0
SCALE
  5
6A86
102
{ACAD_REACTORS
330
6A78
102
}
330
6A78
100
AcDbScale
 70
     0
300
4:1
140
4.0
141
1.0
290
     0
  0
SCALE
  5
6A87
102
{ACAD_REACTORS
330
6A78
102
}
330
6A78
100
AcDbScale
 70
     0
300
8:1
140
8.0
141
1.0
290
     0
  0
SCALE
  5
6A88
102
{ACAD_REACTORS
330
6A78
102
}
330
6A78
100
AcDbScale
 70
     0
300
10:1
140
10.0
141
1.0
290
     0
  0
SCALE
  5
6A89
102
{ACAD_REACTORS
330
6A78
102
}
330
6A78
100
AcDbScale
 70
     0
300
100:1
140
100.0
141
1.0
290
     0
  0
SCALE
  5
6A8A
102
{ACAD_REACTORS
330
6A78
102
}
330
6A78
100
AcDbScale
 70
     0
300
1/128" = 1'-0"
140
0.0078125
141
12.0
290
     0
  0
SCALE
  5
6A8B
102
{ACAD_REACTORS
330
6A78
102
}
330
6A78
100
AcDbScale
 70
     0
300
1/64" = 1'-0"
140
0.015625
141
12.0
290
     0
  0
SCALE
  5
6A8C
102
{ACAD_REACTORS
330
6A78
102
}
330
6A78
100
AcDbScale
 70
     0
300
1/32" = 1'-0"
140
0.03125
141
12.0
290
     0
  0
SCALE
  5
6A8D
102
{ACAD_REACTORS
330
6A78
102
}
330
6A78
100
AcDbScale
 70
     0
300
1/16" = 1'-0"
140
0.0625
141
12.0
290
     0
  0
SCALE
  5
6A8E
102
{ACAD_REACTORS
330
6A78
102
}
330
6A78
100
AcDbScale
 70
     0
300
3/32" = 1'-0"
140
0.09375
141
12.0
290
     0
  0
SCALE
  5
6A8F
102
{ACAD_REACTORS
330
6A78
102
}
330
6A78
100
AcDbScale
 70
     0
300
1/8" = 1'-0"
140
0.125
141
12.0
290
     0
  0
SCALE
  5
6A90
102
{ACAD_REACTORS
330
6A78
102
}
330
6A78
100
AcDbScale
 70
     0
300
3/16" = 1'-0"
140
0.1875
141
12.0
290
     0
  0
SCALE
  5
6A91
102
{ACAD_REACTORS
330
6A78
102
}
330
6A78
100
AcDbScale
 70
     0
300
1/4" = 1'-0"
140
0.25
141
12.0
290
     0
  0
SCALE
  5
6A92
102
{ACAD_REACTORS
330
6A78
102
}
330
6A78
100
AcDbScale
 70
     0
300
3/8" = 1'-0"
140
0.375
141
12.0
290
     0
  0
SCALE
  5
6A93
102
{ACAD_REACTORS
330
6A78
102
}
330
6A78
100
AcDbScale
 70
     0
300
1/2" = 1'-0"
140
0.5
141
12.0
290
     0
  0
SCALE
  5
6A94
102
{ACAD_REACTORS
330
6A78
102
}
330
6A78
100
AcDbScale
 70
     0
300
3/4" = 1'-0"
140
0.75
141
12.0
290
     0
  0
SCALE
  5
6A95
102
{ACAD_REACTORS
330
6A78
102
}
330
6A78
100
AcDbScale
 70
     0
300
1" = 1'-0"
140
1.0
141
12.0
290
     0
  0
SCALE
  5
6A96
102
{ACAD_REACTORS
330
6A78
102
}
330
6A78
100
AcDbScale
 70
     0
300
1-1/2" = 1'-0"
140
1.5
141
12.0
290
     0
  0
SCALE
  5
6A97
102
{ACAD_REACTORS
330
6A78
102
}
330
6A78
100
AcDbScale
 70
     0
300
3" = 1'-0"
140
3.0
141
12.0
290
     0
  0
SCALE
  5
6A98
102
{ACAD_REACTORS
330
6A78
102
}
330
6A78
100
AcDbScale
 70
     0
300
6" = 1'-0"
140
6.0
141
12.0
290
     0
  0
SCALE
  5
6A99
102
{ACAD_REACTORS
330
6A78
102
}
330
6A78
100
AcDbScale
 70
     0
300
1'-0" = 1'-0"
140
12.0
141
12.0
290
     0
  0
ACDBSECTIONVIEWSTYLE
  5
6B47
102
{ACAD_XDICTIONARY
360
6F72
102
}
102
{ACAD_REACTORS
330
6B46
102
}
330
6B46
100
AcDbModelDocViewStyle
 70
     0
  3
Imperial24
290
     0
100
AcDbSectionViewStyle
 70
     0
 71
     0
 90
       78
 71
     1
340
11
 62
   256
 40
0.24
340
0
340
0
 62
   256
 40
0.24
300
I, O, Q, S, X, Z
 40
0.48
 90
        3
 40
0.18
 90
        1
 71
     2
340
15
 90
       25
 62
   256
340
15
 90
       50
 62
   256
 40
0.24
 40
0.0
 40
0.24
 71
     3
340
11
 62
   256
 40
0.24
 90
        1
 40
0.75
 90
        1
300
%<\AcVar ViewType \f "%tc1">% %<\AcVar ViewSectionStartId>%-%<\AcVar ViewSectionEndId>%\PSCALE %<\AcVar ViewScale \f "%sn">%
 71
     4
 62
   256
 62
   257
300
ANSI31
 40
1.0
 90
        0
290
     0
290
     0
 90
        6
 40
0.0
 40
1.570796326794896
 40
0.2617993877991494
 40
1.308996938995747
 40
-0.2617993877991494
 40
1.832595714594044
  0
TABLESTYLE
  5
6A77
102
{ACAD_XDICTIONARY
360
6ABD
102
}
102
{ACAD_REACTORS
330
6A76
102
}
330
6A76
100
AcDbTableStyle
280
     0
  3
Standard
 70
     0
 71
     0
 40
0.06
 41
0.06
280
     0
281
     0
  7
STANDARD
140
0.18
170
     2
 62
     0
 63
     7
283
     0
 90
      512
 91
        0
  1

274
    -2
284
     1
 64
     0
275
    -2
285
     1
 65
     0
276
    -2
286
     1
 66
     0
277
    -2
287
     1
 67
     0
278
    -2
288
     1
 68
     0
279
    -2
289
     1
 69
     0
  7
STANDARD
140
0.25
170
     5
 62
     0
 63
     7
283
     0
 90
      512
 91
        0
  1

274
    -2
284
     1
 64
     0
275
    -2
285
     1
 65
     0
276
    -2
286
     1
 66
     0
277
    -2
287
     1
 67
     0
278
    -2
288
     1
 68
     0
279
    -2
289
     1
 69
     0
  7
STANDARD
140
0.18
170
     5
 62
     0
 63
     7
283
     0
 90
      512
 91
        0
  1

274
    -2
284
     1
 64
     0
275
    -2
285
     1
 65
     0
276
    -2
286
     1
 66
     0
277
    -2
287
     1
 67
     0
278
    -2
288
     1
 68
     0
279
    -2
289
     1
 69
     0
  0
VISUALSTYLE
  5
6A67
102
{ACAD_REACTORS
330
6A61
102
}
330
6A61
100
AcDbVisualStyle
  2

 70
     4
177
     3
291
     0
 70
    58
 90
        0
176
     1
 90
        2
176
     1
 90
        0
176
     1
 90
        0
176
     1
 40
0.6
176
     1
 40
30.0
176
     1
 62
     7
176
     1
 90
        1
176
     1
 90
        4
176
     1
 62
     7
176
     1
 62
   257
176
     1
 90
        1
176
     1
 90
        1
176
     1
 40
1.0
176
     1
 90
        0
176
     1
 62
   257
176
     1
 40
1.0
176
     1
 90
        1
176
     1
 90
        6
176
     1
 90
        2
176
     1
 62
     7
176
     1
 90
        5
176
     1
 90
        0
176
     1
 90
        0
176
     1
290
     0
176
     1
 90
        1
176
     1
 40
0.0
176
     1
 90
        0
176
     1
290
     1
176
     1
290
     1
176
     1
290
     0
176
     1
290
     0
176
     1
290
     0
176
     1
290
     0
176
     1
290
     0
176
     1
290
     0
176
     1
290
     0
176
     1
 90
       50
176
     1
 40
0.0
176
     1
 40
1.0
176
     1
 90
        0
176
     1
 62
    18
420
        0
176
     1
 90
       50
176
     1
 90
        3
176
     1
 62
     5
420
      255
176
     1
290
     0
176
     1
 90
       50
176
     1
 90
       50
176
     1
 90
       50
176
     1
290
     0
176
     1
 90
       50
176
     1
 62
   256
176
     0
 40
1.0
176
     0
 90
        2
176
     1
  1
strokes_ogs.tif
176
     1
290
     0
176
     1
 40
1.0
176
     1
 40
1.0
176
     1
1001
ACAD
1000
AcDbSavedByObjectVersion
1070
     0
  0
VISUALSTYLE
  5
6A69
102
{ACAD_REACTORS
330
6A61
102
}
330
6A61
100
AcDbVisualStyle
  2

 70
     6
177
     3
291
     0
 70
    58
 90
        1
176
     1
 90
        2
176
     1
 90
        2
176
     1
 90
        0
176
     1
 40
0.6
176
     1
 40
30.0
176
     1
 62
     7
176
     1
 90
        2
176
     1
 90
        2
176
     1
 62
     7
176
     1
 62
   257
176
     1
 90
        2
176
     1
 90
        1
176
     1
 40
179.0
176
     1
 90
        0
176
     1
 62
   257
176
     1
 40
1.0
176
     1
 90
        1
176
     1
 90
        6
176
     1
 90
        2
176
     1
 62
     7
176
     1
 90
        3
176
     1
 90
        0
176
     1
 90
        0
176
     1
290
     0
176
     1
 90
        1
176
     1
 40
0.0
176
     1
 90
        0
176
     1
290
     0
176
     1
290
     1
176
     1
290
     1
176
     1
290
     0
176
     1
290
     0
176
     1
290
     0
176
     1
290
     0
176
     1
290
     0
176
     1
290
     0
176
     1
 90
       50
176
     1
 40
0.0
176
     1
 40
1.0
176
     1
 90
        0
176
     1
 62
    18
420
        0
176
     1
 90
       50
176
     1
 90
        3
176
     1
 62
     5
420
      255
176
     1
290
     0
176
     1
 90
       50
176
     1
 90
       50
176
     1
 90
       50
176
     1
290
     0
176
     1
 90
       50
176
     1
 62
   256
176
     0
 40
1.0
176
     0
 90
        2
176
     1
  1
strokes_ogs.tif
176
     1
290
     0
176
     1
 40
1.0
176
     1
 40
1.0
176
     1
1001
ACAD
1000
AcDbSavedByObjectVersion
1070
     0
  0
VISUALSTYLE
  5
6A68
102
{ACAD_REACTORS
330
6A61
102
}
330
6A61
100
AcDbVisualStyle
  2

 70
     5
177
     3
291
     0
 70
    58
 90
        0
176
     1
 90
        2
176
     1
 90
        0
176
     1
 90
        0
176
     1
 40
0.6
176
     1
 40
30.0
176
     1
 62
     7
176
     1
 90
        1
176
     1
 90
        4
176
     1
 62
     7
176
     1
 62
   257
176
     1
 90
        1
176
     1
 90
        1
176
     1
 40
1.0
176
     1
 90
        0
176
     1
 62
   257
176
     1
 40
1.0
176
     1
 90
        1
176
     1
 90
        6
176
     1
 90
        2
176
     1
 62
     7
176
     1
 90
        5
176
     1
 90
        0
176
     1
 90
        0
176
     1
290
     0
176
     1
 90
        1
176
     1
 40
0.0
176
     1
 90
        0
176
     1
290
     0
176
     1
290
     1
176
     1
290
     1
176
     1
290
     0
176
     1
290
     0
176
     1
290
     0
176
     1
290
     0
176
     1
290
     0
176
     1
290
     0
176
     1
 90
       50
176
     1
 40
0.0
176
     1
 40
1.0
176
     1
 90
        0
176
     1
 62
    18
420
        0
176
     1
 90
       50
176
     1
 90
        3
176
     1
 62
     5
420
      255
176
     1
290
     0
176
     1
 90
       50
176
     1
 90
       50
176
     1
 90
       50
176
     1
290
     0
176
     1
 90
       50
176
     1
 62
   256
176
     0
 40
1.0
176
     0
 90
        2
176
     1
  1
strokes_ogs.tif
176
     1
290
     0
176
     1
 40
1.0
176
     1
 40
1.0
176
     1
1001
ACAD
1000
AcDbSavedByObjectVersion
1070
     0
  0
VISUALSTYLE
  5
6A66
102
{ACAD_REACTORS
330
6A61
102
}
330
6A61
100
AcDbVisualStyle
  2

 70
     7
177
     3
291
     1
 70
    58
 90
        1
176
     1
 90
        0
176
     1
 90
        1
176
     1
 90
        0
176
     1
 40
0.6
176
     1
 40
30.0
176
     1
 62
     7
176
     1
 90
        0
176
     1
 90
        4
176
     1
 62
     7
176
     1
 62
   257
176
     1
 90
        1
176
     1
 90
        1
176
     1
 40
1.0
176
     1
 90
        8
176
     1
 62
     7
176
     1
 40
1.0
176
     1
 90
        1
176
     1
 90
        6
176
     1
 90
        2
176
     1
 62
     7
176
     1
 90
        5
176
     1
 90
        0
176
     1
 90
        0
176
     1
290
     0
176
     1
 90
        1
176
     1
 40
0.0
176
     1
 90
        0
176
     1
290
     0
176
     1
290
     1
176
     1
290
     1
176
     1
290
     0
176
     1
290
     0
176
     1
290
     0
176
     1
290
     0
176
     1
290
     0
176
     1
290
     0
176
     1
 90
       50
176
     1
 40
0.0
176
     1
 40
1.0
176
     1
 90
        0
176
     1
 62
    18
420
        0
176
     1
 90
       50
176
     1
 90
        3
176
     1
 62
     5
420
      255
176
     1
290
     0
176
     1
 90
       50
176
     1
 90
       50
176
     1
 90
       50
176
     1
290
     0
176
     1
 90
       50
176
     1
 62
   256
176
     0
 40
1.0
176
     0
 90
        2
176
     1
  1
strokes_ogs.tif
176
     1
290
     0
176
     1
 40
1.0
176
     1
 40
1.0
176
     1
1001
ACAD
1000
AcDbSavedByObjectVersion
1070
     0
  0
VISUALSTYLE
  5
6A6D
102
{ACAD_REACTORS
330
6A61
102
}
330
6A61
100
AcDbVisualStyle
  2

 70
    12
177
     3
291
     1
 70
    58
 90
        2
176
     1
 90
        2
176
     1
 90
        0
176
     1
 90
        0
176
     1
 40
0.6
176
     1
 40
30.0
176
     1
 62
     7
176
     1
 90
        1
176
     1
 90
        4
176
     1
 62
     7
176
     1
 62
   257
176
     1
 90
        1
176
     1
 90
        1
176
     1
 40
1.0
176
     1
 90
        8
176
     1
 62
     7
176
     1
 40
1.0
176
     1
 90
        1
176
     1
 90
        6
176
     1
 90
        2
176
     1
 62
     7
176
     1
 90
        5
176
     1
 90
        0
176
     1
 90
        0
176
     1
290
     0
176
     1
 90
        1
176
     1
 40
50.0
176
     1
 90
        0
176
     1
290
     0
176
     1
290
     1
176
     1
290
     1
176
     1
290
     0
176
     1
290
     0
176
     1
290
     0
176
     1
290
     0
176
     1
290
     0
176
     1
290
     0
176
     1
 90
       50
176
     1
 40
0.0
176
     1
 40
1.0
176
     1
 90
        0
176
     1
 62
    18
420
        0
176
     1
 90
       50
176
     1
 90
        3
176
     1
 62
     5
420
      255
176
     1
290
     0
176
     1
 90
       50
176
     1
 90
       50
176
     1
 90
       50
176
     1
290
     0
176
     1
 90
       50
176
     1
 62
   256
176
     0
 40
1.0
176
     0
 90
        2
176
     1
  1
strokes_ogs.tif
176
     1
290
     0
176
     1
 40
1.0
176
     1
 40
1.0
176
     1
1001
ACAD
1000
AcDbSavedByObjectVersion
1070
     0
  0
VISUALSTYLE
  5
6A71
102
{ACAD_REACTORS
330
6A61
102
}
330
6A61
100
AcDbVisualStyle
  2

 70
    16
177
     3
291
     1
 70
    58
 90
        2
176
     1
 90
        2
176
     1
 90
        3
176
     1
 90
        0
176
     1
 40
0.6
176
     1
 40
30.0
176
     1
 62
     8
176
     1
 90
        1
176
     1
 90
        4
176
     1
 62
     7
176
     1
 62
   257
176
     1
 90
        1
176
     1
 90
        1
176
     1
 40
1.0
176
     1
 90
        8
176
     1
 62
     8
176
     1
 40
1.0
176
     1
 90
        1
176
     1
 90
        6
176
     1
 90
        2
176
     1
 62
     7
176
     1
 90
        5
176
     1
 90
        0
176
     1
 90
        0
176
     1
290
     0
176
     1
 90
        1
176
     1
 40
0.0
176
     1
 90
        0
176
     1
290
     0
176
     1
290
     1
176
     1
290
     1
176
     1
290
     0
176
     1
290
     0
176
     1
290
     0
176
     1
290
     0
176
     1
290
     0
176
     1
290
     0
176
     1
 90
       50
176
     1
 40
0.0
176
     1
 40
1.0
176
     1
 90
        0
176
     1
 62
    18
420
        0
176
     1
 90
       50
176
     1
 90
        3
176
     1
 62
     5
420
      255
176
     1
290
     0
176
     1
 90
       50
176
     1
 90
       50
176
     1
 90
       50
176
     1
290
     0
176
     1
 90
       50
176
     1
 62
   256
176
     0
 40
1.0
176
     0
 90
        2
176
     1
  1
strokes_ogs.tif
176
     1
290
     0
176
     1
 40
1.0
176
     1
 40
1.0
176
     1
1001
ACAD
1000
AcDbSavedByObjectVersion
1070
     0
  0
VISUALSTYLE
  5
6A6A
102
{ACAD_REACTORS
330
6A61
102
}
330
6A61
100
AcDbVisualStyle
  2

 70
     9
177
     3
291
     0
 70
    58
 90
        3
176
     1
 90
        2
176
     1
 90
        0
176
     1
 90
        0
176
     1
 40
0.6
176
     1
 40
30.0
176
     1
 62
     7
176
     1
 90
        2
176
     1
 90
        2
176
     1
 62
     7
176
     1
 62
   257
176
     1
 90
        1
176
     1
 90
        1
176
     1
 40
179.0
176
     1
 90
        8
176
     1
 62
     7
176
     1
 40
1.0
176
     1
 90
        1
176
     1
 90
        6
176
     1
 90
        2
176
     1
 62
     7
176
     1
 90
        3
176
     1
 90
        0
176
     1
 90
        0
176
     1
290
     0
176
     1
 90
        1
176
     1
 40
0.0
176
     1
 90
        0
176
     1
290
     0
176
     1
290
     1
176
     1
290
     1
176
     1
290
     0
176
     1
290
     0
176
     1
290
     0
176
     1
290
     0
176
     1
290
     0
176
     1
290
     0
176
     1
 90
       50
176
     1
 40
0.0
176
     1
 40
1.0
176
     1
 90
        0
176
     1
 62
    18
420
        0
176
     1
 90
       50
176
     1
 90
        3
176
     1
 62
     5
420
      255
176
     1
290
     0
176
     1
 90
       50
176
     1
 90
       50
176
     1
 90
       50
176
     1
290
     0
176
     1
 90
       50
176
     1
 62
   256
176
     0
 40
1.0
176
     0
 90
        2
176
     1
  1
strokes_ogs.tif
176
     1
290
     0
176
     1
 40
1.0
176
     1
 40
1.0
176
     1
1001
ACAD
1000
AcDbSavedByObjectVersion
1070
     0
  0
VISUALSTYLE
  5
6A6C
102
{ACAD_REACTORS
330
6A61
102
}
330
6A61
100
AcDbVisualStyle
  2

 70
    11
177
     3
291
     1
 70
    58
 90
        2
176
     1
 90
        2
176
     1
 90
        0
176
     1
 90
        0
176
     1
 40
0.6
176
     1
 40
30.0
176
     1
 62
     7
176
     1
 90
        1
176
     1
 90
        4
176
     1
 62
     7
176
     1
 62
   257
176
     1
 90
        1
176
     1
 90
        1
176
     1
 40
1.0
176
     1
 90
        8
176
     1
 62
     7
176
     1
 40
1.0
176
     1
 90
        1
176
     1
 90
        6
176
     1
 90
        2
176
     1
 62
     7
176
     1
 90
        5
176
     1
 90
        0
176
     1
 90
        0
176
     1
290
     0
176
     1
 90
        1
176
     1
 40
-50.0
176
     1
 90
        0
176
     1
290
     0
176
     1
290
     1
176
     1
290
     1
176
     1
290
     0
176
     1
290
     0
176
     1
290
     0
176
     1
290
     0
176
     1
290
     0
176
     1
290
     0
176
     1
 90
       50
176
     1
 40
0.0
176
     1
 40
1.0
176
     1
 90
        0
176
     1
 62
    18
420
        0
176
     1
 90
       50
176
     1
 90
        3
176
     1
 62
     5
420
      255
176
     1
290
     0
176
     1
 90
       50
176
     1
 90
       50
176
     1
 90
       50
176
     1
290
     0
176
     1
 90
       50
176
     1
 62
   256
176
     0
 40
1.0
176
     0
 90
        2
176
     1
  1
strokes_ogs.tif
176
     1
290
     0
176
     1
 40
1.0
176
     1
 40
1.0
176
     1
1001
ACAD
1000
AcDbSavedByObjectVersion
1070
     0
  0
VISUALSTYLE
  5
6A74
102
{ACAD_REACTORS
330
6A61
102
}
330
6A61
100
AcDbVisualStyle
  2

 70
    22
177
     3
291
     1
 70
    58
 90
        2
176
     0
 90
        2
176
     0
 90
        0
176
     0
 90
        0
176
     0
 40
0.6
176
     0
 40
30.0
176
     0
 62
     7
176
     0
 90
        1
176
     0
 90
        4
176
     0
 62
     7
176
     0
 62
   257
176
     0
 90
        1
176
     0
 90
        1
176
     0
 40
1.0
176
     0
 90
        8
176
     2
 62
     7
176
     0
 40
1.0
176
     0
 90
        1
176
     0
 90
        6
176
     0
 90
        2
176
     0
 62
     7
176
     0
 90
        5
176
     0
 90
        0
176
     0
 90
        0
176
     0
290
     0
176
     0
 90
        1
176
     0
 40
0.0
176
     0
 90
        0
176
     0
290
     0
176
     1
290
     1
176
     1
290
     1
176
     1
290
     0
176
     1
290
     0
176
     1
290
     0
176
     1
290
     0
176
     1
290
     0
176
     1
290
     0
176
     1
 90
       50
176
     1
 40
0.0
176
     1
 40
1.0
176
     1
 90
        0
176
     1
 62
    18
420
        0
176
     1
 90
       50
176
     1
 90
        3
176
     1
 62
     5
420
      255
176
     1
290
     0
176
     1
 90
       50
176
     1
 90
       50
176
     1
 90
       50
176
     1
290
     0
176
     1
 90
       50
176
     1
 62
   256
176
     0
 40
1.0
176
     0
 90
        2
176
     1
  1
strokes_ogs.tif
176
     1
290
     0
176
     1
 40
1.0
176
     1
 40
1.0
176
     1
1001
ACAD
1000
AcDbSavedByObjectVersion
1070
     0
  0
VISUALSTYLE
  5
6A70
102
{ACAD_REACTORS
330
6A61
102
}
330
6A61
100
AcDbVisualStyle
  2

 70
    15
177
     3
291
     1
 70
    58
 90
        2
176
     1
 90
        2
176
     1
 90
        0
176
     1
 90
        0
176
     1
 40
0.6
176
     1
 40
30.0
176
     1
 62
     7
176
     1
 90
        1
176
     1
 90
        4
176
     1
 62
     7
176
     1
 62
   257
176
     1
 90
        1
176
     1
 90
        1
176
     1
 40
1.0
176
     1
 90
        8
176
     1
 62
     7
176
     1
 40
1.0
176
     1
 90
        1
176
     1
 90
        6
176
     1
 90
        2
176
     1
 62
     7
176
     1
 90
        5
176
     1
 90
        0
176
     1
 90
        0
176
     1
290
     0
176
     1
 90
        1
176
     1
 40
0.0
176
     1
 90
        0
176
     1
290
     0
176
     1
290
     1
176
     1
290
     1
176
     1
290
     0
176
     1
290
     0
176
     1
290
     0
176
     1
290
     0
176
     1
290
     0
176
     1
290
     0
176
     1
 90
       50
176
     1
 40
0.0
176
     1
 40
1.0
176
     1
 90
        0
176
     1
 62
    18
420
        0
176
     1
 90
       50
176
     1
 90
        3
176
     1
 62
     5
420
      255
176
     1
290
     0
176
     1
 90
       50
176
     1
 90
       50
176
     1
 90
       50
176
     1
290
     0
176
     1
 90
       50
176
     1
 62
   256
176
     0
 40
1.0
176
     0
 90
        2
176
     1
  1
strokes_ogs.tif
176
     1
290
     0
176
     1
 40
1.0
176
     1
 40
1.0
176
     1
1001
ACAD
1000
AcDbSavedByObjectVersion
1070
     0
  0
VISUALSTYLE
  5
6A62
102
{ACAD_REACTORS
330
6A61
102
}
330
6A61
100
AcDbVisualStyle
  2

 70
     0
177
     3
291
     1
 70
    58
 90
        2
176
     1
 90
        1
176
     1
 90
        1
176
     1
 90
        2
176
     1
 40
0.6
176
     1
 40
30.0
176
     1
 62
     7
176
     1
 90
        0
176
     1
 90
        4
176
     1
 62
     7
176
     1
 62
   257
176
     1
 90
        1
176
     1
 90
        1
176
     1
 40
1.0
176
     1
 90
        8
176
     1
 62
     7
176
     1
 40
1.0
176
     1
 90
        1
176
     1
 90
        6
176
     1
 90
        2
176
     1
 62
     7
176
     1
 90
        5
176
     1
 90
        0
176
     1
 90
        0
176
     1
290
     0
176
     1
 90
       13
176
     1
 40
0.0
176
     1
 90
        0
176
     1
290
     0
176
     1
290
     1
176
     1
290
     1
176
     1
290
     0
176
     1
290
     0
176
     1
290
     0
176
     1
290
     0
176
     1
290
     0
176
     1
290
     0
176
     1
 90
       50
176
     1
 40
0.0
176
     1
 40
1.0
176
     1
 90
        0
176
     1
 62
    18
420
        0
176
     1
 90
       50
176
     1
 90
        3
176
     1
 62
     5
420
      255
176
     1
290
     0
176
     1
 90
       50
176
     1
 90
       50
176
     1
 90
       50
176
     1
290
     0
176
     1
 90
       50
176
     1
 62
   256
176
     0
 40
1.0
176
     0
 90
        2
176
     1
  1
strokes_ogs.tif
176
     1
290
     0
176
     1
 40
1.0
176
     1
 40
1.0
176
     1
1001
ACAD
1000
AcDbSavedByObjectVersion
1070
     0
  0
VISUALSTYLE
  5
6A63
102
{ACAD_REACTORS
330
6A61
102
}
330
6A61
100
AcDbVisualStyle
  2

 70
     1
177
     3
291
     1
 70
    58
 90
        2
176
     1
 90
        1
176
     1
 90
        1
176
     1
 90
        2
176
     1
 40
0.6
176
     1
 40
30.0
176
     1
 62
     7
176
     1
 90
        1
176
     1
 90
        4
176
     1
 62
     7
176
     1
 62
   257
176
     1
 90
        1
176
     1
 90
        1
176
     1
 40
1.0
176
     1
 90
        0
176
     1
 62
   257
176
     1
 40
1.0
176
     1
 90
        1
176
     1
 90
        6
176
     1
 90
        2
176
     1
 62
     7
176
     1
 90
        5
176
     1
 90
        0
176
     1
 90
        0
176
     1
290
     0
176
     1
 90
       13
176
     1
 40
0.0
176
     1
 90
        0
176
     1
290
     0
176
     1
290
     1
176
     1
290
     1
176
     1
290
     0
176
     1
290
     0
176
     1
290
     0
176
     1
290
     0
176
     1
290
     0
176
     1
290
     0
176
     1
 90
       50
176
     1
 40
0.0
176
     1
 40
1.0
176
     1
 90
        0
176
     1
 62
    18
420
        0
176
     1
 90
       50
176
     1
 90
        3
176
     1
 62
     5
420
      255
176
     1
290
     0
176
     1
 90
       50
176
     1
 90
       50
176
     1
 90
       50
176
     1
290
     0
176
     1
 90
       50
176
     1
 62
   256
176
     0
 40
1.0
176
     0
 90
        2
176
     1
  1
strokes_ogs.tif
176
     1
290
     0
176
     1
 40
1.0
176
     1
 40
1.0
176
     1
1001
ACAD
1000
AcDbSavedByObjectVersion
1070
     0
  0
VISUALSTYLE
  5
6A64
102
{ACAD_REACTORS
330
6A61
102
}
330
6A61
100
AcDbVisualStyle
  2

 70
     2
177
     3
291
     1
 70
    58
 90
        2
176
     1
 90
        2
176
     1
 90
        1
176
     1
 90
        2
176
     1
 40
0.6
176
     1
 40
30.0
176
     1
 62
     7
176
     1
 90
        0
176
     1
 90
        4
176
     1
 62
     7
176
     1
 62
   257
176
     1
 90
        1
176
     1
 90
        1
176
     1
 40
1.0
176
     1
 90
        0
176
     1
 62
     7
176
     1
 40
1.0
176
     1
 90
        1
176
     1
 90
        6
176
     1
 90
        2
176
     1
 62
     7
176
     1
 90
        5
176
     1
 90
        0
176
     1
 90
        0
176
     1
290
     0
176
     1
 90
       13
176
     1
 40
0.0
176
     1
 90
        0
176
     1
290
     0
176
     1
290
     1
176
     1
290
     1
176
     1
290
     0
176
     1
290
     0
176
     1
290
     0
176
     1
290
     0
176
     1
290
     0
176
     1
290
     0
176
     1
 90
       50
176
     1
 40
0.0
176
     1
 40
1.0
176
     1
 90
        0
176
     1
 62
    18
420
        0
176
     1
 90
       50
176
     1
 90
        3
176
     1
 62
     5
420
      255
176
     1
290
     0
176
     1
 90
       50
176
     1
 90
       50
176
     1
 90
       50
176
     1
290
     0
176
     1
 90
       50
176
     1
 62
   256
176
     0
 40
1.0
176
     0
 90
        2
176
     1
  1
strokes_ogs.tif
176
     1
290
     0
176
     1
 40
1.0
176
     1
 40
1.0
176
     1
1001
ACAD
1000
AcDbSavedByObjectVersion
1070
     0
  0
VISUALSTYLE
  5
6A65
102
{ACAD_REACTORS
330
6A61
102
}
330
6A61
100
AcDbVisualStyle
  2

 70
     3
177
     3
291
     1
 70
    58
 90
        2
176
     1
 90
        2
176
     1
 90
        1
176
     1
 90
        2
176
     1
 40
0.6
176
     1
 40
30.0
176
     1
 62
     7
176
     1
 90
        1
176
     1
 90
        4
176
     1
 62
     7
176
     1
 62
   257
176
     1
 90
        1
176
     1
 90
        1
176
     1
 40
1.0
176
     1
 90
        0
176
     1
 62
   257
176
     1
 40
1.0
176
     1
 90
        1
176
     1
 90
        6
176
     1
 90
        2
176
     1
 62
     7
176
     1
 90
        5
176
     1
 90
        0
176
     1
 90
        0
176
     1
290
     0
176
     1
 90
       13
176
     1
 40
0.0
176
     1
 90
        0
176
     1
290
     0
176
     1
290
     1
176
     1
290
     1
176
     1
290
     0
176
     1
290
     0
176
     1
290
     0
176
     1
290
     0
176
     1
290
     0
176
     1
290
     0
176
     1
 90
       50
176
     1
 40
0.0
176
     1
 40
1.0
176
     1
 90
        0
176
     1
 62
    18
420
        0
176
     1
 90
       50
176
     1
 90
        3
176
     1
 62
     5
420
      255
176
     1
290
     0
176
     1
 90
       50
176
     1
 90
       50
176
     1
 90
       50
176
     1
290
     0
176
     1
 90
       50
176
     1
 62
   256
176
     0
 40
1.0
176
     0
 90
        2
176
     1
  1
strokes_ogs.tif
176
     1
290
     0
176
     1
 40
1.0
176
     1
 40
1.0
176
     1
1001
ACAD
1000
AcDbSavedByObjectVersion
1070
     0
  0
VISUALSTYLE
  5
6B40
102
{ACAD_REACTORS
330
6A61
102
}
330
6A61
100
AcDbVisualStyle
  2

 70
     6
177
     3
291
     0
 70
    58
 90
        1
176
     1
 90
        2
176
     1
 90
        2
176
     1
 90
        0
176
     1
 40
0.6
176
     1
 40
30.0
176
     1
 62
     7
176
     1
 90
        2
176
     1
 90
        2
176
     1
 62
     7
176
     1
 62
   257
176
     1
 90
        2
176
     1
 90
        1
176
     1
 40
40.0
176
     1
 90
        0
176
     1
 62
   257
176
     1
 40
1.0
176
     1
 90
        1
176
     1
 90
        6
176
     1
 90
        2
176
     1
 62
     7
176
     1
 90
        3
176
     1
 90
        0
176
     1
 90
        0
176
     1
290
     0
176
     1
 90
        1
176
     1
 40
0.0
176
     1
 90
        0
176
     1
290
     0
176
     1
290
     1
176
     1
290
     1
176
     1
290
     0
176
     1
290
     0
176
     1
290
     0
176
     1
290
     0
176
     1
290
     0
176
     1
290
     0
176
     1
 90
       50
176
     1
 40
0.0
176
     1
 40
1.0
176
     1
 90
        0
176
     1
 62
    18
420
        0
176
     1
 90
       50
176
     1
 90
        3
176
     1
 62
     5
420
      255
176
     1
290
     0
176
     1
 90
       50
176
     1
 90
       50
176
     1
 90
       50
176
     1
290
     0
176
     1
 90
       50
176
     1
 62
   256
176
     0
 40
1.0
176
     0
 90
        2
176
     1
  1
strokes_ogs.tif
176
     1
290
     0
176
     1
 40
1.0
176
     1
 40
1.0
176
     1
1001
ACAD
1000
AcDbSavedByObjectVersion
1070
     0
  0
VISUALSTYLE
  5
6A72
102
{ACAD_REACTORS
330
6A61
102
}
330
6A61
100
AcDbVisualStyle
  2

 70
    20
177
     3
291
     1
 70
    58
 90
        2
176
     0
 90
        2
176
     0
 90
        0
176
     0
 90
        0
176
     0
 40
0.6
176
     0
 40
30.0
176
     0
 62
     7
176
     0
 90
        1
176
     0
 90
        4
176
     0
 62
     7
176
     0
 62
   257
176
     0
 90
        1
176
     0
 90
        1
176
     0
 40
1.0
176
     0
 90
       10
176
     2
 62
     7
176
     0
 40
1.0
176
     0
 90
        1
176
     0
 90
        6
176
     0
 90
        2
176
     0
 62
     7
176
     0
 90
        5
176
     0
 90
        0
176
     0
 90
        0
176
     0
290
     0
176
     0
 90
        1
176
     0
 40
0.0
176
     0
 90
        0
176
     0
290
     0
176
     1
290
     1
176
     1
290
     1
176
     1
290
     0
176
     1
290
     0
176
     1
290
     0
176
     1
290
     0
176
     1
290
     0
176
     1
290
     0
176
     1
 90
       50
176
     1
 40
0.0
176
     1
 40
1.0
176
     1
 90
        0
176
     1
 62
    18
420
        0
176
     1
 90
       50
176
     1
 90
        3
176
     1
 62
     5
420
      255
176
     1
290
     0
176
     1
 90
       50
176
     1
 90
       50
176
     1
 90
       50
176
     1
290
     0
176
     1
 90
       50
176
     1
 62
   256
176
     0
 40
1.0
176
     0
 90
        2
176
     1
  1
strokes_ogs.tif
176
     1
290
     0
176
     1
 40
1.0
176
     1
 40
1.0
176
     1
1001
ACAD
1000
AcDbSavedByObjectVersion
1070
     0
  0
VISUALSTYLE
  5
6A6F
102
{ACAD_REACTORS
330
6A61
102
}
330
6A61
100
AcDbVisualStyle
  2

 70
    14
177
     3
291
     1
 70
    58
 90
        2
176
     1
 90
        2
176
     1
 90
        0
176
     1
 90
        0
176
     1
 40
0.6
176
     1
 40
30.0
176
     1
 62
     7
176
     1
 90
        1
176
     1
 90
        4
176
     1
 62
     7
176
     1
 62
   257
176
     1
 90
        7
176
     1
 90
        7
176
     1
 40
1.0
176
     1
 90
        8
176
     1
 62
     7
176
     1
 40
1.0
176
     1
 90
        1
176
     1
 90
        6
176
     1
 90
        2
176
     1
 62
     7
176
     1
 90
        5
176
     1
 90
        0
176
     1
 90
        0
176
     1
290
     0
176
     1
 90
        1
176
     1
 40
0.0
176
     1
 90
        0
176
     1
290
     0
176
     1
290
     1
176
     1
290
     1
176
     1
290
     0
176
     1
290
     0
176
     1
290
     0
176
     1
290
     0
176
     1
290
     0
176
     1
290
     0
176
     1
 90
       50
176
     1
 40
0.0
176
     1
 40
1.0
176
     1
 90
        0
176
     1
 62
    18
420
        0
176
     1
 90
       50
176
     1
 90
        3
176
     1
 62
     5
420
      255
176
     1
290
     0
176
     1
 90
       50
176
     1
 90
       50
176
     1
 90
       50
176
     1
290
     0
176
     1
 90
       50
176
     1
 62
   256
176
     0
 40
1.0
176
     0
 90
        2
176
     1
  1
strokes_ogs.tif
176
     1
290
     0
176
     1
 40
1.0
176
     1
 40
1.0
176
     1
1001
ACAD
1000
AcDbSavedByObjectVersion
1070
     0
  0
VISUALSTYLE
  5
6A73
102
{ACAD_REACTORS
330
6A61
102
}
330
6A61
100
AcDbVisualStyle
  2

 70
    21
177
     3
291
     1
 70
    58
 90
        2
176
     0
 90
        2
176
     0
 90
        0
176
     0
 90
        0
176
     0
 40
0.6
176
     0
 40
30.0
176
     0
 62
     7
176
     0
 90
        1
176
     0
 90
        4
176
     0
 62
     7
176
     0
 62
   257
176
     0
 90
        1
176
     0
 90
        1
176
     0
 40
1.0
176
     0
 90
        9
176
     2
 62
     7
176
     0
 40
1.0
176
     0
 90
        1
176
     0
 90
        6
176
     0
 90
        2
176
     0
 62
     7
176
     0
 90
        5
176
     0
 90
        0
176
     0
 90
        0
176
     0
290
     0
176
     0
 90
        1
176
     0
 40
0.0
176
     0
 90
        0
176
     0
290
     0
176
     1
290
     1
176
     1
290
     1
176
     1
290
     0
176
     1
290
     0
176
     1
290
     0
176
     1
290
     0
176
     1
290
     0
176
     1
290
     0
176
     1
 90
       50
176
     1
 40
0.0
176
     1
 40
1.0
176
     1
 90
        0
176
     1
 62
    18
420
        0
176
     1
 90
       50
176
     1
 90
        3
176
     1
 62
     5
420
      255
176
     1
290
     0
176
     1
 90
       50
176
     1
 90
       50
176
     1
 90
       50
176
     1
290
     0
176
     1
 90
       50
176
     1
 62
   256
176
     0
 40
1.0
176
     0
 90
        2
176
     1
  1
strokes_ogs.tif
176
     1
290
     0
176
     1
 40
1.0
176
     1
 40
1.0
176
     1
1001
ACAD
1000
AcDbSavedByObjectVersion
1070
     0
  0
VISUALSTYLE
  5
6A6B
102
{ACAD_REACTORS
330
6A61
102
}
330
6A61
100
AcDbVisualStyle
  2

 70
     8
177
     3
291
     0
 70
    58
 90
        2
176
     1
 90
        2
176
     1
 90
        0
176
     1
 90
        0
176
     1
 40
0.6
176
     1
 40
30.0
176
     1
 62
     7
176
     1
 90
        1
176
     1
 90
        0
176
     1
 62
     7
176
     1
 62
   257
176
     1
 90
        1
176
     1
 90
        1
176
     1
 40
1.0
176
     1
 90
        8
176
     1
 62
     8
176
     1
 40
1.0
176
     1
 90
        1
176
     1
 90
        6
176
     1
 90
        2
176
     1
 62
     7
176
     1
 90
        5
176
     1
 90
        0
176
     1
 90
        0
176
     1
290
     0
176
     1
 90
       13
176
     1
 40
0.0
176
     1
 90
        0
176
     1
290
     0
176
     1
290
     1
176
     1
290
     1
176
     1
290
     0
176
     1
290
     0
176
     1
290
     0
176
     1
290
     0
176
     1
290
     0
176
     1
290
     0
176
     1
 90
       50
176
     1
 40
0.0
176
     1
 40
1.0
176
     1
 90
        0
176
     1
 62
    18
420
        0
176
     1
 90
       50
176
     1
 90
        3
176
     1
 62
     5
420
      255
176
     1
290
     0
176
     1
 90
       50
176
     1
 90
       50
176
     1
 90
       50
176
     1
290
     0
176
     1
 90
       50
176
     1
 62
   256
176
     0
 40
1.0
176
     0
 90
        2
176
     1
  1
strokes_ogs.tif
176
     1
290
     0
176
     1
 40
1.0
176
     1
 40
1.0
176
     1
1001
ACAD
1000
AcDbSavedByObjectVersion
1070
     0
  0
VISUALSTYLE
  5
6B45
102
{ACAD_REACTORS
330
6A61
102
}
330
6A61
100
AcDbVisualStyle
  2

 70
    27
177
     3
291
     0
 70
    58
 90
        2
176
     1
 90
        2
176
     1
 90
        1
176
     1
 90
        2
176
     1
 40
0.6
176
     1
 40
30.0
176
     1
 62
     7
176
     1
 90
        0
176
     1
 90
        4
176
     1
 62
     7
176
     1
 62
   257
176
     1
 90
        1
176
     1
 90
        1
176
     1
 40
1.0
176
     1
 90
        8
176
     1
 62
   257
176
     1
 40
1.0
176
     1
 90
        1
176
     1
 90
        6
176
     1
 90
        2
176
     1
 62
     8
176
     1
 90
        3
176
     1
 90
        0
176
     1
 90
        0
176
     1
290
     0
176
     1
 90
        5
176
     1
 40
0.0
176
     1
 90
        0
176
     1
290
     0
176
     1
290
     1
176
     1
290
     1
176
     1
290
     0
176
     1
290
     0
176
     1
290
     0
176
     1
290
     0
176
     1
290
     0
176
     1
290
     0
176
     1
 90
       50
176
     1
 40
0.0
176
     1
 40
1.0
176
     1
 90
        0
176
     1
 62
    18
420
        0
176
     1
 90
       50
176
     1
 90
        3
176
     1
 62
     5
420
      255
176
     1
290
     0
176
     1
 90
       50
176
     1
 90
       50
176
     1
 90
       50
176
     1
290
     0
176
     1
 90
       50
176
     1
 62
   256
176
     0
 40
1.0
176
     0
 90
        2
176
     1
  1
strokes_ogs.tif
176
     1
290
     0
176
     1
 40
1.0
176
     1
 40
1.0
176
     1
1001
ACAD
1000
AcDbSavedByObjectVersion
1070
     0
  0
VISUALSTYLE
  5
6B44
102
{ACAD_REACTORS
330
6A61
102
}
330
6A61
100
AcDbVisualStyle
  2

 70
    26
177
     3
291
     0
 70
    58
 90
        2
176
     1
 90
        2
176
     1
 90
        1
176
     1
 90
        2
176
     1
 40
0.6
176
     1
 40
30.0
176
     1
 62
     7
176
     1
 90
        1
176
     1
 90
       10
176
     1
 62
     7
176
     1
 62
   257
176
     1
 90
        2
176
     1
 90
        1
176
     1
 40
1.0
176
     1
 90
        8
176
     1
 62
   257
176
     1
 40
1.0
176
     1
 90
        1
176
     1
 90
        6
176
     1
 90
        2
176
     1
 62
     7
176
     1
 90
        3
176
     1
 90
        0
176
     1
 90
        0
176
     1
290
     0
176
     1
 90
        5
176
     1
 40
0.0
176
     1
 90
        0
176
     1
290
     0
176
     1
290
     1
176
     1
290
     1
176
     1
290
     0
176
     1
290
     0
176
     1
290
     0
176
     1
290
     0
176
     1
290
     0
176
     1
290
     0
176
     1
 90
       50
176
     1
 40
0.0
176
     1
 40
1.0
176
     1
 90
        0
176
     1
 62
    18
420
        0
176
     1
 90
       50
176
     1
 90
        3
176
     1
 62
     5
420
      255
176
     1
290
     0
176
     1
 90
       50
176
     1
 90
       50
176
     1
 90
       50
176
     1
290
     0
176
     1
 90
       50
176
     1
 62
   256
176
     0
 40
1.0
176
     0
 90
        2
176
     1
  1
strokes_ogs.tif
176
     1
290
     0
176
     1
 40
1.0
176
     1
 40
1.0
176
     1
1001
ACAD
1000
AcDbSavedByObjectVersion
1070
     0
  0
VISUALSTYLE
  5
6B41
102
{ACAD_REACTORS
330
6A61
102
}
330
6A61
100
AcDbVisualStyle
  2

 70
    23
177
     3
291
     0
 70
    58
 90
        2
176
     1
 90
        2
176
     1
 90
        3
176
     1
 90
        0
176
     1
 40
0.6
176
     1
 40
30.0
176
     1
 62
     7
176
     1
 90
        2
176
     1
 90
        2
176
     1
 62
     7
176
     1
 62
     7
176
     1
 90
        1
176
     1
 90
        1
176
     1
 40
40.0
176
     1
 90
        8
176
     1
 62
     7
176
     1
 40
1.0
176
     1
 90
        1
176
     1
 90
        6
176
     1
 90
        2
176
     1
 62
     7
176
     1
 90
        3
176
     1
 90
        0
176
     1
 90
        0
176
     1
290
     0
176
     1
 90
        1
176
     1
 40
0.0
176
     1
 90
        0
176
     1
290
     0
176
     1
290
     1
176
     1
290
     1
176
     1
290
     0
176
     1
290
     0
176
     1
290
     0
176
     1
290
     0
176
     1
290
     0
176
     1
290
     0
176
     1
 90
       50
176
     1
 40
0.0
176
     1
 40
1.0
176
     1
 90
        0
176
     1
 62
    18
420
        0
176
     1
 90
       50
176
     1
 90
        3
176
     1
 62
     5
420
      255
176
     1
290
     0
176
     1
 90
       50
176
     1
 90
       50
176
     1
 90
       50
176
     1
290
     0
176
     1
 90
       50
176
     1
 62
   256
176
     0
 40
1.0
176
     0
 90
        2
176
     1
  1
strokes_ogs.tif
176
     1
290
     0
176
     1
 40
1.0
176
     1
 40
1.0
176
     1
1001
ACAD
1000
AcDbSavedByObjectVersion
1070
     0
  0
VISUALSTYLE
  5
6B42
102
{ACAD_REACTORS
330
6A61
102
}
330
6A61
100
AcDbVisualStyle
  2

 70
    24
177
     3
291
     0
 70
    58
 90
        1
176
     1
 90
        2
176
     1
 90
        2
176
     1
 90
        0
176
     1
 40
0.6
176
     1
 40
30.0
176
     1
 62
     7
176
     1
 90
        2
176
     1
 90
        2
176
     1
 62
     7
176
     1
 62
     7
176
     1
 90
        1
176
     1
 90
        1
176
     1
 40
40.0
176
     1
 90
       11
176
     1
 62
     7
176
     1
 40
1.0
176
     1
 90
        1
176
     1
 90
        6
176
     1
 90
        2
176
     1
 62
     7
176
     1
 90
        6
176
     1
 90
        0
176
     1
 90
        0
176
     1
290
     0
176
     1
 90
        1
176
     1
 40
0.0
176
     1
 90
        0
176
     1
290
     0
176
     1
290
     1
176
     1
290
     1
176
     1
290
     0
176
     1
290
     0
176
     1
290
     0
176
     1
290
     0
176
     1
290
     0
176
     1
290
     0
176
     1
 90
       50
176
     1
 40
0.0
176
     1
 40
1.0
176
     1
 90
        0
176
     1
 62
    18
420
        0
176
     1
 90
       50
176
     1
 90
        3
176
     1
 62
     5
420
      255
176
     1
290
     0
176
     1
 90
       50
176
     1
 90
       50
176
     1
 90
       50
176
     1
290
     0
176
     1
 90
       50
176
     1
 62
   256
176
     0
 40
1.0
176
     0
 90
        2
176
     1
  1
strokes_ogs.tif
176
     1
290
     0
176
     1
 40
1.0
176
     1
 40
1.0
176
     1
1001
ACAD
1000
AcDbSavedByObjectVersion
1070
     0
  0
VISUALSTYLE
  5
6A6E
102
{ACAD_REACTORS
330
6A61
102
}
330
6A61
100
AcDbVisualStyle
  2

 70
    13
177
     3
291
     1
 70
    58
 90
        2
176
     1
 90
        2
176
     1
 90
        0
176
     1
 90
        0
176
     1
 40
0.6
176
     1
 40
30.0
176
     1
 62
     7
176
     1
 90
        1
176
     1
 90
        4
176
     1
 62
     7
176
     1
 62
   257
176
     1
 90
        1
176
     1
 90
        1
176
     1
 40
1.0
176
     1
 90
       12
176
     1
 62
     7
176
     1
 40
1.0
176
     1
 90
        1
176
     1
 90
        6
176
     1
 90
        2
176
     1
 62
     7
176
     1
 90
        5
176
     1
 90
        0
176
     1
 90
        0
176
     1
290
     0
176
     1
 90
        1
176
     1
 40
0.0
176
     1
 90
        0
176
     1
290
     0
176
     1
290
     1
176
     1
290
     1
176
     1
290
     0
176
     1
290
     0
176
     1
290
     0
176
     1
290
     0
176
     1
290
     0
176
     1
290
     0
176
     1
 90
       50
176
     1
 40
0.0
176
     1
 40
1.0
176
     1
 90
        0
176
     1
 62
    18
420
        0
176
     1
 90
       50
176
     1
 90
        3
176
     1
 62
     5
420
      255
176
     1
290
     0
176
     1
 90
       50
176
     1
 90
       50
176
     1
 90
       50
176
     1
290
     0
176
     1
 90
       50
176
     1
 62
   256
176
     0
 40
1.0
176
     0
 90
        2
176
     1
  1
strokes_ogs.tif
176
     1
290
     0
176
     1
 40
1.0
176
     1
 40
1.0
176
     1
1001
ACAD
1000
AcDbSavedByObjectVersion
1070
     0
  0
VISUALSTYLE
  5
6B3F
102
{ACAD_REACTORS
330
6A61
102
}
330
6A61
100
AcDbVisualStyle
  2

 70
     5
177
     3
291
     0
 70
    58
 90
        0
176
     1
 90
        2
176
     1
 90
        0
176
     1
 90
        0
176
     1
 40
0.6
176
     1
 40
30.0
176
     1
 62
     7
176
     1
 90
        1
176
     1
 90
        4
176
     1
 62
     7
176
     1
 62
   257
176
     1
 90
        1
176
     1
 90
        1
176
     1
 40
1.0
176
     1
 90
        0
176
     1
 62
   257
176
     1
 40
1.0
176
     1
 90
        1
176
     1
 90
        6
176
     1
 90
        2
176
     1
 62
     7
176
     1
 90
        3
176
     1
 90
        0
176
     1
 90
        0
176
     1
290
     0
176
     1
 90
        1
176
     1
 40
0.0
176
     1
 90
        0
176
     1
290
     0
176
     1
290
     1
176
     1
290
     1
176
     1
290
     0
176
     1
290
     0
176
     1
290
     0
176
     1
290
     0
176
     1
290
     0
176
     1
290
     0
176
     1
 90
       50
176
     1
 40
0.0
176
     1
 40
1.0
176
     1
 90
        0
176
     1
 62
    18
420
        0
176
     1
 90
       50
176
     1
 90
        3
176
     1
 62
     5
420
      255
176
     1
290
     0
176
     1
 90
       50
176
     1
 90
       50
176
     1
 90
       50
176
     1
290
     0
176
     1
 90
       50
176
     1
 62
   256
176
     0
 40
1.0
176
     0
 90
        2
176
     1
  1
strokes_ogs.tif
176
     1
290
     0
176
     1
 40
1.0
176
     1
 40
1.0
176
     1
1001
ACAD
1000
AcDbSavedByObjectVersion
1070
     0
  0
VISUALSTYLE
  5
6B43
102
{ACAD_REACTORS
330
6A61
102
}
330
6A61
100
AcDbVisualStyle
  2

 70
    25
177
     3
291
     0
 70
    58
 90
        2
176
     1
 90
        2
176
     1
 90
        1
176
     1
 90
        1
176
     1
 40
0.5
176
     1
 40
30.0
176
     1
 62
     7
176
     1
 90
        1
176
     1
 90
        0
176
     1
 62
     7
176
     1
 62
   257
176
     1
 90
        1
176
     1
 90
        1
176
     1
 40
1.0
176
     1
 90
        8
176
     1
 62
     7
176
     1
 40
1.0
176
     1
 90
        1
176
     1
 90
        6
176
     1
 90
        2
176
     1
 62
     7
176
     1
 90
        3
176
     1
 90
        0
176
     1
 90
        0
176
     1
290
     0
176
     1
 90
       13
176
     1
 40
0.0
176
     1
 90
        0
176
     1
290
     0
176
     1
290
     1
176
     1
290
     1
176
     1
290
     0
176
     1
290
     0
176
     1
290
     0
176
     1
290
     0
176
     1
290
     0
176
     1
290
     0
176
     1
 90
       50
176
     1
 40
0.0
176
     1
 40
1.0
176
     1
 90
        0
176
     1
 62
    18
420
        0
176
     1
 90
       50
176
     1
 90
        3
176
     1
 62
     5
420
      255
176
     1
290
     0
176
     1
 90
       50
176
     1
 90
       50
176
     1
 90
       50
176
     1
290
     0
176
     1
 90
       50
176
     1
 62
   256
176
     0
 40
1.0
176
     0
 90
        2
176
     1
  1
strokes_ogs.tif
176
     1
290
     0
176
     1
 40
1.0
176
     1
 40
1.0
176
     1
1001
ACAD
1000
AcDbSavedByObjectVersion
1070
     0
  0
DICTIONARYVAR
  5
6AB9
102
{ACAD_REACTORS
330
5697
102
}
330
5697
100
DictionaryVariables
280
     0
  1
1:1
  0
DICTIONARYVAR
  5
6AB8
102
{ACAD_REACTORS
330
5697
102
}
330
5697
100
DictionaryVariables
280
     0
  1
STANDARD
  0
DICTIONARYVAR
  5
6AB7
102
{ACAD_REACTORS
330
5697
102
}
330
5697
100
DictionaryVariables
280
     0
  1
STANDARD
  0
DICTIONARYVAR
  5
6CE8
102
{ACAD_REACTORS
330
5697
102
}
330
5697
100
DictionaryVariables
280
     0
  1
Imperial24
  0
DICTIONARYVAR
  5
6CE9
102
{ACAD_REACTORS
330
5697
102
}
330
5697
100
DictionaryVariables
280
     0
  1
Imperial24
  0
DICTIONARYVAR
  5
5698
102
{ACAD_REACTORS
330
5697
102
}
330
5697
100
DictionaryVariables
280
     0
  1
1
  0
DICTIONARYVAR
  5
6ABB
102
{ACAD_REACTORS
330
5697
102
}
330
5697
100
DictionaryVariables
280
     0
  1
0
  0
DICTIONARYVAR
  5
6F6F
102
{ACAD_REACTORS
330
5697
102
}
330
5697
100
DictionaryVariables
280
     0
  1
1
  0
DICTIONARYVAR
  5
6F70
102
{ACAD_REACTORS
330
5697
102
}
330
5697
100
DictionaryVariables
280
     0
  1
15
  0
DICTIONARYVAR
  5
6F6E
102
{ACAD_REACTORS
330
5697
102
}
330
5697
100
DictionaryVariables
280
     0
  1
0
  0
DICTIONARYVAR
  5
6F6D
102
{ACAD_REACTORS
330
5697
102
}
330
5697
100
DictionaryVariables
280
     0
  1
0
  0
DICTIONARYVAR
  5
6ABA
102
{ACAD_REACTORS
330
5697
102
}
330
5697
100
DictionaryVariables
280
     0
  1
127
  0
XRECORD
  5
6B06
102
{ACAD_REACTORS
330
6B04
102
}
330
6B04
100
AcDbXrecord
280
     1
330
59F1
330
59F2
330
59F3
330
6901
330
6902
330
68F8
330
68F9
330
68EE
330
68EF
330
68E5
330
68E6
330
68DC
330
68DD
330
68D3
330
68D4
330
68CA
330
68CB
330
68C1
330
68C2
330
68B8
330
68B9
330
68AF
330
68B0
330
68A4
330
68A5
330
689B
330
689C
330
6892
330
6893
330
6889
330
688A
330
6948
330
6949
330
65B5
330
6877
330
6878
330
686E
330
686F
330
659A
330
659B
330
6591
330
6592
330
693F
330
6940
330
685C
330
685D
330
6A2E
330
6A2F
330
684A
330
684B
330
67C0
330
67C1
330
67C9
330
67CA
330
695A
330
6951
330
6952
330
67E3
330
67E4
330
6936
330
6937
  0
DICTIONARY
  5
6F74
330
6B49
100
AcDbDictionary
280
     1
281
     1
  3
ACAD_XREC_ROUNDTRIP
360
6F75
  0
DICTIONARY
  5
6A52
330
6A51
100
AcDbDictionary
280
     1
281
     1
  3
ACAD_XREC_ROUNDTRIP
360
6AC8
  3
BUMPTILE
360
6A54
  3
DIFFUSETILE
360
6A53
  3
OPACITYTILE
360
6A57
  3
REFLECTIONTILE
360
6A56
  3
REFRACTIONTILE
360
6A58
  3
SPECULARTILE
360
6A55
  0
DICTIONARY
  5
6A4A
330
6A49
100
AcDbDictionary
280
     1
281
     1
  3
ACAD_XREC_ROUNDTRIP
360
6AC7
  3
BUMPTILE
360
6A4C
  3
DIFFUSETILE
360
6A4B
  3
OPACITYTILE
360
6A4F
  3
REFLECTIONTILE
360
6A4E
  3
REFRACTIONTILE
360
6A50
  3
SPECULARTILE
360
6A4D
  0
DICTIONARY
  5
6A5A
330
6A59
100
AcDbDictionary
280
     1
281
     1
  3
ACAD_XREC_ROUNDTRIP
360
6AC9
  3
BUMPTILE
360
6A5C
  3
DIFFUSETILE
360
6A5B
  3
FBXASSET
360
6E79
  3
OPACITYTILE
360
6A5F
  3
REFLECTIONTILE
360
6A5E
  3
REFRACTIONTILE
360
6A60
  3
SPECULARTILE
360
6A5D
  0
DICTIONARY
  5
6F72
330
6B47
100
AcDbDictionary
280
     1
281
     1
  3
ACAD_XREC_ROUNDTRIP
360
6F73
  0
DICTIONARY
  5
6ABD
330
6A77
100
AcDbDictionary
280
     1
281
     1
  3
ACAD_ROUNDTRIP_2008_TABLESTYLE_CELLSTYLEMAP
360
6F71
  0
XRECORD
  5
6F75
102
{ACAD_REACTORS
330
6F74
102
}
330
6F74
100
AcDbXrecord
280
     1
102
DISPLAYNAME
  1
Imperial24
102
FLAGS
 90
        0
  0
XRECORD
  5
6AC8
102
{ACAD_REACTORS
330
6A52
102
}
330
6A52
100
AcDbXrecord
280
     1
102
MATERIAL
148
0.0
149
0.0
149
0.0
 93
        0
 94
      127
282
     0
 72
     0
 77
     0
171
     0
175
     0
179
     0
273
     0
  0
XRECORD
  5
6A54
102
{ACAD_REACTORS
330
6A52
102
}
330
6A52
100
AcDbXrecord
280
     1
270
     1
271
     1
  0
XRECORD
  5
6A53
102
{ACAD_REACTORS
330
6A52
102
}
330
6A52
100
AcDbXrecord
280
     1
270
     1
271
     1
  0
XRECORD
  5
6A57
102
{ACAD_REACTORS
330
6A52
102
}
330
6A52
100
AcDbXrecord
280
     1
270
     1
271
     1
  0
XRECORD
  5
6A56
102
{ACAD_REACTORS
330
6A52
102
}
330
6A52
100
AcDbXrecord
280
     1
270
     1
271
     1
  0
XRECORD
  5
6A58
102
{ACAD_REACTORS
330
6A52
102
}
330
6A52
100
AcDbXrecord
280
     1
270
     1
271
     1
  0
XRECORD
  5
6A55
102
{ACAD_REACTORS
330
6A52
102
}
330
6A52
100
AcDbXrecord
280
     1
270
     1
271
     1
  0
XRECORD
  5
6AC7
102
{ACAD_REACTORS
330
6A4A
102
}
330
6A4A
100
AcDbXrecord
280
     1
102
MATERIAL
148
0.0
149
0.0
149
0.0
 93
        0
 94
      127
282
     0
 72
     0
 77
     0
171
     0
175
     0
179
     0
273
     0
  0
XRECORD
  5
6A4C
102
{ACAD_REACTORS
330
6A4A
102
}
330
6A4A
100
AcDbXrecord
280
     1
270
     1
271
     1
  0
XRECORD
  5
6A4B
102
{ACAD_REACTORS
330
6A4A
102
}
330
6A4A
100
AcDbXrecord
280
     1
270
     1
271
     1
  0
XRECORD
  5
6A4F
102
{ACAD_REACTORS
330
6A4A
102
}
330
6A4A
100
AcDbXrecord
280
     1
270
     1
271
     1
  0
XRECORD
  5
6A4E
102
{ACAD_REACTORS
330
6A4A
102
}
330
6A4A
100
AcDbXrecord
280
     1
270
     1
271
     1
  0
XRECORD
  5
6A50
102
{ACAD_REACTORS
330
6A4A
102
}
330
6A4A
100
AcDbXrecord
280
     1
270
     1
271
     1
  0
XRECORD
  5
6A4D
102
{ACAD_REACTORS
330
6A4A
102
}
330
6A4A
100
AcDbXrecord
280
     1
270
     1
271
     1
  0
XRECORD
  5
6AC9
102
{ACAD_REACTORS
330
6A5A
102
}
330
6A5A
100
AcDbXrecord
280
     1
102
MATERIAL
148
0.0
149
0.0
149
0.0
 93
        0
 94
      127
282
     0
 72
     0
 77
     0
171
     0
175
     0
179
     0
273
     0
  0
XRECORD
  5
6A5C
102
{ACAD_REACTORS
330
6A5A
102
}
330
6A5A
100
AcDbXrecord
280
     1
270
     1
271
     1
  0
XRECORD
  5
6A5B
102
{ACAD_REACTORS
330
6A5A
102
}
330
6A5A
100
AcDbXrecord
280
     1
270
     1
271
     1
  0
XRECORD
  5
6E79
102
{ACAD_REACTORS
330
6A5A
102
}
330
6A5A
100
AcDbXrecord
280
     1
 70
     1
 90
652598616
 71
     1
  1
C77938AB-B958-40E5-BAD0-717E133070F0
311
504B0304140006080800EE746A48D130AAF1DB000000200100004F00000041353941373432322D434135442D344637462D413946392D4344414143384432374346372F4173736574446174612F446566696E6974696F6E4974657261746F7250726F706572746965732E62696E454E3D6FC23010753BB4EAD0817F80D88D3F
311
88D224022A02A4132C74EA828C394224C741B62375ECD87FDD9E552A4E7AF7EEF3DD7D13427EAE8621B9437CA17F467E030BAED13B7D865691875831DD4199C75BEF1EC398AEE0A47A13E2D6A6F11A8C5116BADE0F6EA3C356059453661C979E10FF051F15EABF63F1FE16115F8AAC8E97E255790F61C64E874FB65E9472F5
311
52953417D58226A914344B976B9A64D592E75C489194CC81EF7AA7C133C9F8FEAABCBFD81A6623ED00FF388EE6928B94F20915FC5D24C5242F64F63165A169613EF5C135B61E5AD5FE02504B0304140006080800EE746A483DC33AA010010000300200004500000041353941373432322D434135442D344637462D41394639
311
2D4344414143384432374346372F4173736574446174612F496E7374616E636550726F706572746965732E62696EEB606060F80F0540260323103700495E20ED9E9A975A94991C9C9C919A9BA80214703637B734B67074D275B234B5D035317035D575727431D0353734773534363630377033604768046931363471713532
311
B5D435353131D635313332D475727372D13534373670367376B67474B5042A03DBCBA019D37FE8ABC6157B20CD04146B0062181F4C03F940F0C11EA29A8141C08141002C0426541C106CAC2CA046088033B02A030AC2157C6006F21A8018AAF50194E6010A610250382264E08660284CD9E98021862280A91564B406929A0F
311
F62C401E28B6F88038B83CB1243943D7A928312F25350524830C049039686CA365354AF9402FFEFF3F8F0F6407481A642A182CDBC10AA275FE4CB20561101B00504B0304140006080800EE746A4828BB58AF800100009E0500003D00000041353941373432322D434135442D344637462D413946392D434441414338443237
311
4346372F536368656D61732F436F6D6D6F6E536368656D612E786D6CBD544D4FC23018BEFB2B96DE15493C78601010A34B880709DEDFB52FD0D8B54BD70DF6EFED3AC0B12E6442E2716BFB3CEFF3D18E26FB440405EA8C2B1992E1C323095052C5B8DC842437EBFB673219DF8DA659866649B798C078B48AE6410122242F2A
311
4994AC7F93815DF85C049C8564CA0A901499DD886B2EB9B1E02448F358701A9235880C49A0119892A20C89D1B9FD768815CAD268CB5E0355B40B1E47F3E37A2020464BED06AA57CE8FCC20C3C3446D46761A2632A8C1283D07031EFF2AE7CCB1BFEEE916E406DFAC8E36FFD99A9D60A6944090EEDC3B670C7DC13DE86B6B2C
311
5C240D6E503BB85ACD579D513F1B9F9A69DC9CC22AFA80C426D40AF0B21EA168559156B6276F0F726A6BFF04DCD513A87A62CAD41FB24FCB2858B3952E3D852084DA25B9303C15687973CC8E8AAE11DF2836C38C6A9E765E8C1BA1BFB1DC29CDFE518C8B5A7655A4ED7E77291ABEB80DBD82EC866ADE1B8D05AF9E35CF09D7
311
A061F38A986D9EC412B8F0F65E5D81534D9B231D1E5A8FE577A241F3A5FD01504B0304140006080800EE746A482CCEBD668A040000E01200003E00000041353941373432322D434135442D344637462D413946392D4344414143384432374346372F536368656D61732F47656E65726963536368656D612E786D6CD5586D6F
311
DB380CFE7EBF42F0F7A649B70E1B90744856B4970F450FCD7A5F05459613EDE4174872DADCAF3F522F8ED3B88D2F1D06AC4050DBA2493EE4438AF2F8EB73AEC8466823CB62928C06C384888297A92C5693A4B6D9D9E7E4EBD51FE3A931C22EF85AE4EC6AFC38BF261BA626C9AD288496DC3F4FCEAFC63366845F7A10452AF4
311
1DB320C0D44EC26EAB20918735565582695670811A6A49643A49A6E9069FA4604A64B29016DC4B48552F95E4932463CA888468C1D2B250DB4962750DF7CE273069CE8363F1FF4EDB00E0A21999574AE4A2B00C353B93F3BD4777B8A61ED8F604ABFEDD79CE56A2B7BDFBDBC50996E0ADDE16FED26223C5D30956C29BDF4A55
311
EA686E5E58B112DA45CE67F76F4FA27EFA3FB672FD7372FC388FAECDCA5209E693CAD167BADCD272F943701B3812F8A3D852008B1D2E32DB927B2F833C6EA95879925356D254582695095A3CE982924720BE5774A3CB9CDCDB350427D2DF20DA1B5532EBE2D5D6288D75D4F7E4FD9890A0EF8E3D93EBB8F8BA4758158EF6FB
311
90A6F9520281C93DE7AAC6D24607DA296BB96018123F821A7D6A5C5884050C475DA4865442732C8B95684A50165CBB3A32F25F783A4A480ED59AD7F924B968AEA50131F46303223E6A397B0E52976030DC1DCA81D7E7C1EDEEA42C19FF27635C505E2BD5198A599020DF50A2330FCB3AAF28CB0124108429553EF1B228802E
311
2265D8F7CC2401042B155BCC7070F1E5C55F13B4A9577362CCCE46C32174E010C3C378C44841A4BDA00FE3A12006CE11EE6AEC59894D3526DDE1CD59D503ECC324017F8061B7F162162FA62EDD81AE3308617770796DCBDAD2B2625C5AE8A63DE20B2C8AA5E95E76E5730823955956E33E705425A2187C185D36489A1B44D3
311
DCEC2172F6BA2105C3546287A7194B2331768EBBE64F6E70A9930ABE0ADEA89E9E2C38523B810287AD67A54A039C1606EAFE68F8304610BB9093DBDDABC0B2AE4E290DCDA15376D7E39F72B556F0B32EAB5D3D498B4C41ABADEC3A1434C422D87E8025A84BDCB2B1417ED750FAE4DA8976863974C577C7F902D3F156AD354D
311
EA3540DE6BEAE2BEA52F7A2EB4CA43802ECE5BF2CE2EDC9347179FFB023CE412E60BE16DA0BE29B374988A553F561DC04615DD35F7D2C8979F60E5955CE93DF29DED8AFA1EE6642D53418086C03C47C377910F75F7E8F5EF665F70B60FFB22AEDF897D119E8423C773E819A3C1E55E550599EE6EDCA34D0C86FD72057DF2CD
311
46F16A470682471C164E4346D5306BF12D7D12D82CFF673D41636C347443FEB51B50D72EA171A8E4A58623A4A16E0FA2B8B10A0D23268D87C33896EE8FB73305A74BF224EDBADFA0BD674AB354D63DB7BD5D83426761C077DE767728235446A552754EB93B755891C3C4CC6CADE37CF0E912A7BB38DBA010F9DE1282EDF470
311
CA69A9CDA482E334C4A6EA4107987980B17E72F31730EBF88BBD39E7C629F56797A3C0009C2C5AE7951D9A05A02773440F02EEB4DE396A3B6A570C72CCFBCD823B0B8ED3F1D5CEDDFED772FA70236C83FB7D86C385D570B87107535572A60A96035F8F7C6A7192F13007246BBE0521855E6AC46F3E27689CEE7D186A6FD679
311
D98CDCAD13333E04EBE7ED6F55FF01504B0304140006080800EE746A486180134D5F0100006B0300004500000041353941373432322D434135442D344637462D413946392D4344414143384432374346372F536368656D61732F52656E6465724D6174657269616C536368656D612E786D6CA5934D6FC2300C86EFFB1551EE
311
E343DBA41D1A103009551ADAD40EAE28A4A68D9426284961FCFBE5A340113B2071746D3F765EBF4DC6BFB5407BD0862B49F0B037C0082453059725C18DDD3EBFE3F1E829991803366715D474942CD30FB4A782E00C64017A412D684E454CE3FE28995203B162A6EA5AC94B66997D225E109CD63B0135484BAD1B3C07E9080C
311
A35DB3119C11BCA5C200461A68A1A438126C75E3E230D40FF81FB3F03C91D1E3A3A0AF79FE28E25BC39EC3E17E4C2A2D94A0833A51AF55BCCA7D88572FCBAC529C4140B020FC3AAFA886621DCED7EAD7664CC86024E806DC297DA1BB393E4156543457A4537DB8817349A70F8ACBF09B3EEE2CB2F33E91B65D60786E4E3B39
311
B77E3FEEEF5650424525DA657FB8B46BE6BF064646F0A0F7327C0BC1BC1B4CBBC1C419FA3CCB23500007872A2580CAAE5461865565294E4EDB4617B62FF579DF9A5B2F54E834076A597573A020912FED777F9B3F504B0304140006080800EE746A484C86415551000000570000004700000041353941373432322D43413544
311
2D344637462D413946392D4344414143384432374346372F4173736574446174612F41737365745461626C654F66436F6E74656E74732E62696E53616060703637B734B67074D275B234B5D035317035D575727431D03537347735343636303770331002AACB4D2C492DCA4CCC492C28484D2C4ACC4B4E050A82012F90744F
311
CD03CA26072767A4E6260200504B0304140006080800EE746A48F865834058000000680000004500000041353941373432322D434135442D344637462D413946392D4344414143384432374346372F4173736574446174612F53747265616D56657273696F6E5461626C652E696E66558CBD0A80300C06F73E4B117FB66E45
311
1741D041DC5BF98480A492E4FDD18EAEC7DD4555D89EF28DF51A0B1BD8340C4DE7DD848B988C0ACF0649566493F2408C508DDEBB99D5129FF8F1AF8CF5B9503E20FAE5A16B5AF702504B0304140006080800EE746A48248AD035350100009A0400003600000041353941373432322D434135442D344637462D413946392D43
311
44414143384432374346372F4173736574446174612F636E782E786D6CCD94314FC3301085FF4AE43D76D222542AC71582A51348540C6C57E752AC3A76645F10FC7BEC3403A888A943D7F3BBF3F327BF939BCFDE161F18A2F1AE6135AF58814EFBD6B843C346EACA152B364A06EFE9878C150E7A6C582E33250FC18FC35C6A
311
B183D1E6AA35EE3817EF6344DAC1DEE253F7E01DA1A3C80A6D21C68645FD8E3D7018C9B7188FBC05025EF380D18F41639A44A6C779920E08842D538BAABE2DAB655957BBFA66BDBC5B2F566F5264A5927BEFEDAC37E9B2E087429F6E65AA92221F2B3906336BF25B98FACB23DF1B2745522A1929242673077D0DA90386C11A
311
0D94D009AF09A94C22845E8A9358499119FC22F1889D7126B76C9331201F9E933D0C64F0EA88FCE7F5F264B62E12388DD7CBE3DCE1E529BC4C3FE8F514C82931D796937387DCB8EE022911D31A49A1C95B457D03504B0304140006080800EE746A487444B9BD080100004F0300003400000041353941373432322D43413544
311
2D344637462D413946392D4344414143384432374346372F536368656D61732F636E782E786D6CCD933F4F432114C5BF0A612FBCD71A531B1E1D1C9C5CD4C90DE1B69202F7853F46BFBDF0646813371DBAC1E11772CEE122F69FDE910F88C96298E8C8064A206834361C275AF261B5A5642F4544CC6718254179986893A914
311
C78865EE9281832AAEA9CE865317EFD17B0CCFFA1DBCA2443B95D244D3B265AA6434904ECCA8ACD8C822242C5143BD215B0FFD061D41653054AE87F176356C56E3F032DEEC3677BBF5F655F0464AF186E83A6F43868833D15817A1DA19046FC75294683BD3325079EE8DD53604AF841429C7DA4127F3D75C4935CFCE6A956B
311
557C017F1829788B7A11F8010244ABAF33F185B97F8BFC04C1407CACAF14AD72D799FC378F7F2B802FB35F47A07D05F90D504B0304140006080800EE746A48410A3D5871000000A40000002C00000041353941373432322D434135442D344637462D413946392D4344414143384432374346372F636E782E786D6C55CC4D0E
311
82301086E1AB34B31774E7A22D31F1069E60020334B633A63FC6E34B0909B07DDE2F9FEE7EC1AB2FC5E4840DDC9A2B28E25E06C7938192C7CB1D54677514C9871928C640062A83D55394F2D968A0118BAFEA1DBF377CA444F98919176EAB9FEAAB9F2960DA5BBB1E2ED3FA6FFF504B0304140006080800EE746A488010F683
311
7D000000A300000007000000636E782E786D6C4D8C4D0AC3201805AF22DFDEFE488211D4208AF7088D0952A3C1C6D2E3574B165D3D18DE0C1F3F5B406F975F3E4501F7CB0D908B8F34FBB80A28C7820740A3E439A5E3EF06284E9B13D03048BEE654F613CD6E994A6834F8F83CA1EA99A21D2158ABDEE0CE528B15B30C6BA3
311
941E0CA1DAD26A5C9B52E7D7ABDBF2F20B504B0304140006080800EE746A4816E99B5DA600000035010000130000005B436F6E74656E745F54797065735D2E786D6C9590410E82301045AFD2740F4517C6180A0BF5065E60AC53688469D30E066F6F91AD9AB89CF9FFFD3F99BA9DC7413C3026E749CB4D59498164FCCD51A7
311
E5C4B6D84BD136F5E5193089ECA5A465CF1C0E4A25D3E308A9F401292BD6C711388FB15301CC1D3A54DBAADA29E38991B8E0254336F5092D4C038BF39CD76B6FC6A538AEBEA54A4B08617006389FA516557DE4AE8E7E70DE30729138228C5F021CD93F02D4FB0DCD0B504B0304140006080800EE746A483DEE336E64000000
311
790000001B0000006175746F6465736B2D64657369676E2D7061636B6167652E786D6C35CBC10E83200C00D05F21DCA56CA76D41FC96062B120735B69A7DBE268BB7777961F8D5AF396893C2ADB70FE7ADA196782C2DF776D7A97B5933C430F15651E5469C55D70F80A4992A3ADC954792C525AE70A1E4D6AD9816CC044FEF
311
DF01FE3FDE907802504B0304140006080800EE746A487390CD22F8000000960100003700000041353941373432322D434135442D344637462D413946392D4344414143384432374346372F4173736574446174612F636F72652E786D6C8550CB6E833010FC15B477836D1082C8380A827E414FBD59C62156828DFCA8FAF9B5
311
132AB5A79E76353B33BB3BECFCB53D8A4FE5BCB66600526228949176D1661D20862BEAA03873E6AC0DBF685018B1A901320C9CADCEC6FD80A43541998C1ABBA80314DEAB00857CA466002F6F6A13A5882131FCBDDC85BC8B5595A47CF1388B512F87542FC94D5FB572C0A796E2A99E7AD45CC61135CD88514FBB19B594E0B7
311
769C47DACEACCA62CE82DE7EB64BA744500B708A498B708D087E27CDA9EE4FB4FB60556672E6834B3F1F4BF377C02FF9EA4904C1AAD7F48F6BDC97FF5DA336A1A687EB4BE1819374E473C05995534AE51961AA3951FE0D504B0304140006080800EE746A48A5DB19CAF6000000940100003500000041353941373432322D43
311
4135442D344637462D413946392D4344414143384432374346372F536368656D61732F636F72652E786D6C8550CB6E84300CFC15E47B200908C12A645504FD81F6D45B045936DA25417954FDFC2640A5F6D493ADF1CCD81E76FD5A9FD9A7B44E19DD01C93164524F66567AE920F81B6A20BB72668DF1BF689069B1CA0E120C
311
9C2DD684ED8426A3BDD409D5669627289C931EB2E9199B0EDC7497ABC845F091E11EF926A68758644EF283C759086A3EA56A8E6EEAA6A4053ED4140FE5D0A2EAA5EF5155F518B5B419514D097EADFBB1A7F5C88A24E6CCABF567FB64A5F072064E31A9112E11C1EFA4BA94ED85361FAC484CCE9CB7F1E77369FA0EF8DB7EA7
311
63C531FBE319B6F97FCFA0B42FE9E979281C70124FDC079C1529A358F600634D79F26F504B0304140006080800EE746A48AD9FB5E501010000D70100002D00000041353941373432322D434135442D344637462D413946392D4344414143384432374346372F636F72652E786D6C9591DD6E842010855FC5CC3DFE5BD70DB2
311
311A9FA057BDA332EB925DC100367DFC42B5697BD75E410EDF99E1CCD0CBFBF288DED058A9550B599C42846AD242AAB985CD5DC909A20BA3466BF7038348F1055B0832303A1BBDAD873469E5500555698187C8AD4507D1F4F09716EC74C385C77C739EB0F778E5D39DCF1867F1CE31EAE4F2659D0C728702589E664F242D48
311
963E67E5B968CEF9E9852681647493CA15F9D10C975714915E9D8F04ACA2C9FEEAA94D8A8391C2FF515E251A605DD5747599E7A4EFAA8194633D92AE191BD20F5DD79F86BCEEC7DA17F16646AD337E3247913083BFDA77E3AF64DB2AFE996C775860D977A8248C99D1E47307FE0C2B611F504B0304140006080800EE746A48
311
4001861306010000B201000008000000636F72652E786D6C8D50C16E842014FC15F2EE28A031EE06D9D468BFA0A7DEA8B02E590523B869FFBEB0DAA4BDF5F4C8CCBC37C3F0CBE73CA1875EBD71B6019A1140DA0E4E193B36B0852BAE015D045F9D0BBF6480AC9C75030906C1C7D56DCB010DCE066D136A9DD20728BDD701D0
311
30C547037EB8E95966720B51E1EFD92287BB1C7546B35D277830F3CFEAB06A19B402C108AD302930256FB43C17A733ABDF799E94826F9B51879551D1DD5C8D5E417415235DD19D70F9D2B6B82C5B824FACEE71C52879ADDABE6555CFF3B42CB80F6BFCF37124E60CC8CB47F2E5F94E09FEE1DC74086228859C9DBE40109E27
311
E24FE86D51FF086D6C28D87170DFF020680CF424A2716A308E67BD71A6B6C537504B01021400140006080800EE746A48D130AAF1DB000000200100004F000000000000000000000000000000000041353941373432322D434135442D344637462D413946392D4344414143384432374346372F4173736574446174612F4465
311
66696E6974696F6E4974657261746F7250726F706572746965732E62696E504B01021400140006080800EE746A483DC33AA0100100003002000045000000000000000000000000004801000041353941373432322D434135442D344637462D413946392D4344414143384432374346372F4173736574446174612F496E7374
311
616E636550726F706572746965732E62696E504B01021400140006080800EE746A4828BB58AF800100009E0500003D00000000000000000000000000BB02000041353941373432322D434135442D344637462D413946392D4344414143384432374346372F536368656D61732F436F6D6D6F6E536368656D612E786D6C504B
311
01021400140006080800EE746A482CCEBD668A040000E01200003E000000000000000000000000009604000041353941373432322D434135442D344637462D413946392D4344414143384432374346372F536368656D61732F47656E65726963536368656D612E786D6C504B01021400140006080800EE746A486180134D5F
311
0100006B03000045000000000000000000000000007C09000041353941373432322D434135442D344637462D413946392D4344414143384432374346372F536368656D61732F52656E6465724D6174657269616C536368656D612E786D6C504B01021400140006080800EE746A484C86415551000000570000004700000000
311
0000000000000000003E0B000041353941373432322D434135442D344637462D413946392D4344414143384432374346372F4173736574446174612F41737365745461626C654F66436F6E74656E74732E62696E504B01021400140006080800EE746A48F865834058000000680000004500000000000000000000000000F4
311
0B000041353941373432322D434135442D344637462D413946392D4344414143384432374346372F4173736574446174612F53747265616D56657273696F6E5461626C652E696E66504B01021400140006080800EE746A48248AD035350100009A0400003600000000000000000000000000AF0C000041353941373432322D
311
434135442D344637462D413946392D4344414143384432374346372F4173736574446174612F636E782E786D6C504B01021400140006080800EE746A487444B9BD080100004F0300003400000000000000000000000000380E000041353941373432322D434135442D344637462D413946392D434441414338443237434637
311
2F536368656D61732F636E782E786D6C504B01021400140006080800EE746A48410A3D5871000000A40000002C00000000000000000000000000920F000041353941373432322D434135442D344637462D413946392D4344414143384432374346372F636E782E786D6C504B01021400140006080800EE746A488010F6837D
311
000000A300000007000000000000000000000000004D100000636E782E786D6C504B01021400140006080800EE746A4816E99B5DA6000000350100001300000000000000000000000000EF1000005B436F6E74656E745F54797065735D2E786D6C504B01021400140006080800EE746A483DEE336E64000000790000001B00
311
000000000000000000000000C61100006175746F6465736B2D64657369676E2D7061636B6167652E786D6C504B01021400140006080800EE746A487390CD22F80000009601000037000000000000000000000000006312000041353941373432322D434135442D344637462D413946392D4344414143384432374346372F41
311
73736574446174612F636F72652E786D6C504B01021400140006080800EE746A48A5DB19CAF6000000940100003500000000000000000000000000B013000041353941373432322D434135442D344637462D413946392D4344414143384432374346372F536368656D61732F636F72652E786D6C504B010214001400060808
311
00EE746A48AD9FB5E501010000D70100002D00000000000000000000000000F914000041353941373432322D434135442D344637462D413946392D4344414143384432374346372F636F72652E786D6C504B01021400140006080800EE746A484001861306010000B201000008000000000000000000000000004516000063
311
6F72652E786D6C504B050600000000110011005A060000711700000000
310
504B0304140006080800EE746A48000000000000000000000000370000006662782F46383443323939452D333241412D343746412D424537462D3638324243313845344145352F617474726962757465732E62696E504B0304140006080800EE746A48000000000000000000000000350000006662782F4638344332393945
310
2D333241412D343746412D424537462D3638324243313845344145352F76657274696365732E62696E504B0304140006080800EE746A48F270F1330600000004000000360000006662782F46383443323939452D333241412D343746412D424537462D3638324243313845344145352F747269616E676C65732E62696E6366
310
60600000504B0304140006080800EE746A4851464CB48900000043010000360000006662782F46383443323939452D333241412D343746412D424537462D3638324243313845344145352F6469726563746F72792E786D6C9D8F310EC2300C45AF127987122606C71DD918B841D4B851A43646695A717C52A85029031293A5
310
A76FBF6FACEF7DA7264E43906840EF0FA03836E242F406C6DCEE4EA06AC22492573150D1F66C60C640E8938CB705396EEDD86DE9B5042FE27813D640EA63BB001C722AF6E55CB61E4863F58284D5D3F53DD715CE1C3985E63FD7F1B7EBDD617E9F1E504B0304140006080800EE746A48D50ADCFC310700001A1C0000340000
310
006662782F46383443323939452D333241412D343746412D424537462D3638324243313845344145352F6F626A656374732E786D6CDD59598FE23810FE2B56F6991C1C0D8C801147D342AB9E190D9AD5BE452618DADBCE2127E9637FFD961D3BC4E900E939A4D1D252131CA75CF5D55D997C7C09197A223CA57134B53CDBB5
310
108982784FA3E3D4CAB3436764A18F3334E1719C55F65928C221995A62D99A4D8E3CCE13B5B427079CB3FAEA7AF1374A0312110B050CA7E9D44A830712621BE759BC27E9A3BDC719B68F8717DBB38B8D26D923C7C943EDA804731265C02AAC47404571E0993F4124673671C406635BAFDDB6EE856D8E14DC6494466986A3E0
310
0D57B5E3BA67B8AA1DD7F3FAABDBEE60DC19F4FBBD4EFFA6EB7516EBC5AAE30D7BEEF266B91CCF6FC7169A4D7671CC4A052424DA83165FAD993771C49D527C854213DF411C45245068366DD813459792B48E8901AC2745AB28A490B5B2D06B29FC996DAD40315832D0D6C2E9EFAAF5C6BB7F0084B48D95F294082B4F330EBA
310
56D817FEE04E9C62D5D00B4D518833C2296688D11DC71C14045B0B05196484B70852486026B5A8E9557905C3BEEE4B4D5C1E72C684FF5A33E9693EF823C952C919FD97F013F7D5D380279036A7513652C266AF0990184F1CB958DCEB75D5CD02487460F808D602628A4DBD6E0DAFA588059B9535FB73BD7BD98AF8D07C78C2
310
E384F04C589E7466E5775A8315D302E36B014A81ABA9BB132A5F01FA4F807CC90B9A80E6387DE9BFF4B5EC1C47E921E6216807B9A8E3C23F1789CB375713A77C788690112BCF610A6EFB933035C430CEAE403A9B3C81D1C7BCA784DB0698814DDFD348F839180A62312C41BC3FEC5EACD90682292CC2539881F4F03771C425
310
82AF820EC49B9A869AC26F0B456987A9FBD949577760339C06A5AA0C19CFE13BF829F8CE57DB3FB7393FE080DC2BC75E91038D6806C9B499210374C3E5BF6D3E498FBC63F10EB3D3D3C6A6008E39C6226E34A865ABD482A45E801391860BCDC8957B0ADECE188E489CA76ABD294E05318BB9BF7BF50B176E3CEB2F6D03C561
310
CA001A631924F780D3446062CD94B6CA40685704050BC35C59E0B1D0AABFCBC3C4C7619C4722D4BE35C53A1F106784250255494D1BB6F65A4D764F0F873C85E0D548726900A9FC59132E2CBC0F71AC895F4E0E1C43128D239F420E0667693CC138A004EF32CF2961079F329687FE8132C8237E889333F45B4A50CD5C8FE4F5
310
39E6FB4682A665699FD436240057C06A9074B62A62BED229274F549499329FE96C60EC5075A835EB9F491722533400AA8D519AF972381CF746F34567311E8C3A7DF776D059CC576E67E80D6FBD5ECF1DBAEB939548044ED1AA9AEF4095A2CC31FC2F7BC8C35D8429831B426CBC4F3E7C94D973EA4068746EE78BEE6AB85E74
310
C6DE7A5E546BA39BE56DA73F5A2FDDB1EB75BDFEC2E1248D731E90D4E93AAEAF4D32898E75F4AEC750286BAE273BADAFBA30FFE3185ACF0986127FD7205A5A654341D836888A47EB2114078F2245F901547D8DEE530BA2753E9AE2DC3BE3B26BF75CF9F1BC71D71D7747E39BD2D82F066A79CE0FC7B9260902E83BF3CC8F13
310
1CD0AC39A1D6706919A7DF955BEC9E3740804EF9BF3CE4729E5187F834C447E21FB0E8121A02E335091A73D891C5694A2392CA2EEF4DF557A3E9DA504C9939B7C10869EA8724C3DF637FB26DA8D934C466E6433F9A8989C0D5AAA03468D5819CA328BA5F48DC52FE573FC561C28A4EF71A065E5743A07B9C268B134C8B239E
310
C0DE7C9CF9EE9EC8C1C535EA25FBBA3E68D45A9DFAF8BBC99F8147D735BF101E7D44FBD2C91E7863F1194150B91978BDA156C435ACF45199E8E3580E9D67F0EA3F137A7C685568B6D349A5642B8AEA8C84D0C6E22CE7ADFCF566E0BE3948C5859A43544E7A677128FB37DDC1017AB2813B57DE568E813A944630E76A25C81B
310
291A4D58EA42CEF4C4E8EA1D7E7D51D955AA3F1C2F7F79C55C75BE500E7FAEE300D572118055F4316AEAC6AADBA887D2679C051048B7F2BBB3008FD893FDA93133C83595E8BA4EBD563D6F44400D61628B459CBD1717EC2B065543F79C3A7745D1E614EB1B91D86C184E9FF8309836697DBEDBD6A8C04AEBA7BF088CC8738D
310
825A5D8A6EF802A96F9B53CF5FA3A024FAB6B9F0F86FD151680556C668300D4E634661284FF6E84862C8DE307668D16DF090A4322B83F1AA20A5DF08B478FAA998A96678C7F4D3C10386C13453BD581EC0501432E6D452EBE80F18838A49A41C4ED98FD086A91866A19CD3A905169B51E8B6EC1D8CB3E4F05052AF8D2BC1B1
310
717414F9BE78AAFC7D7A4CA00351E92457B9A70D2E4A32C399A0B04DE47B02A8FA8A1BB3C9F78BAED9413883CB5D9E95C29C164ED22810F40B81423898FA3D2A785FA0A0B82C9767CB3D0624AD26F317EDA0A0DAC9303FCAF17A05EFF9EA8B2326E39BCF2861F951A8F352F76B50EA88AE9BE5C5146A0286A1C44CB0A82197
310
1F9C2F3C86574C215A533002671987611CA91F73F58A0A6D1FE085D3DED1C33E68E05D6FE0C8FE5F0DF4FD1D4E898DF7E9232C8052391553D1025C43F5651CADA85EEB4268011E33F66F5648554595D94835E00A60E4341F810B89B738C261AA1B2AA347F002E04ADE3C5DE88589C361FC3DFB0F504B0304140006080800EE
310
746A48DD775D3C3F01000046050000300000006662782F46383443323939452D333241412D343746412D424537462D3638324243313845344145352F636E782E786D6CCD94414EC3301045AF12791F2769112A95E34A2C38010BC4CE71A6C1D4B1237B8CE8EDB18B5340A88845A576678DFF48FFCD7C0DDBBC8FBA7803E795
310
352D69684D0A30D2F6CA0C2D09B82D57A4D870E6ACC56F32521831424B52997036381BA65CEA612B824E55ADCC2E1705A2535D40F0A4905A78DF122F5F60145404B43DF81DED050ADA5007DE062721F6A31A21F74B0702A1277C5137B765BD2C9BFAB1B9592FEFD68BD533AB9292B3CE5A9DF5CA20383B15D2C68789666A56
310
A56FCE825359930808FF72463B655815FF39F3D1AD19B20EF753D24D935652601C536525029651046264D5A798B32AF1FEA07EB87F9A1D14BD7220D1BAFD8506D09C1AC0D1188D49F81FFF41F837B6ED5E23EEA5B67D1236DB3A1BEA9C561FE3FA7BFF3145C20CFAFA427F3476FECCC753824A5E1FF2ECEB4CC4D5E1E4C5A5
310
A70BC83F00504B0304140006080800EE746A48454A7DC77F000000A30000000B0000006662782F636E782E786D6C4D8CD10E822018465F85FDF75412256E824307EFE1121D13A191B41E3F685E74F56D67DF396DF7D91C7A9BF8B2C173A84E1740C63FC264FDC221ED3366803AD1C610F6BF1B203F6E8643C120DA2586F43C
310
D064E631B9429DF5EB0135A303691A85AF444A4C6B2D71AF6A8DEF8CF443C51495EA968D7351F2FC7A794B5E7C01504B0304140006080800EE746A48A6D797065F0000008200000007000000636E782E786D6C4DCB3B0E80201045D1AD90E9FD7516806B51190811670C8A61F982B1B0BAC9C97B72CA7B1037C6D3332918DA
310
1E04D2CAC69353902EDB8C20262D23F3F59B81A079470595414B17391D1F19B4730A5583A7ED43BBE4025D9592775E5ADFFA01504B0304140006080800EE746A484FEB6A7CA0000000F4000000130000005B436F6E74656E745F54797065735D2E786D6C7D8F4B0EC2300C44AF1279DFA6B0400835ED02B8011730C16D239A
310
8F121795DB93D02D6269CFBC19BBED573B8B17C564BC53B0AB1B10E4B47F18372A5878A88E20FAAEBDBD032591BD2E299898C349CAA427B2986A1FC86565F0D122E7318E32A07EE24872DF3407A9BD63725C71C980AEBDD080CBCCE2BAE6F5D69B7110E7CD57AA146008B3D1C8F92C5954F993BB1BF787F39A89ABC491D096
310
00F9FDA2FB00504B0304140006080800EE746A483DEE336E64000000790000001B0000006175746F6465736B2D64657369676E2D7061636B6167652E786D6C35CBC10E83200C00D05F21DCA56CA76D41FC96062B120735B69A7DBE268BB7777961F8D5AF396893C2ADB70FE7ADA196782C2DF776D7A97B5933C430F15651E5
310
469C55D70F80A4992A3ADC954792C525AE70A1E4D6AD9816CC044FEFDF01FE3FDE907802504B0304140006080800EE746A4817672C5DF9000000960100003B0000006662782F46383443323939452D333241412D343746412D424537462D3638324243313845344145352F7265736F75726365732F636F72652E786D6C8550
310
CB6E833010FC15B47703369484C8388A10FD829E7AB3CC865A0936F2A3EAE7D74EA8D49E7ADAD5ECCCECEEF0F3D77A2F3ED1796DCD00B4ACA140A3ECACCD32400C577284E22CB8B336FCA24161E48A036418045F9C8DDB0E296B029A8C1A3BE30E4AEF3140A1EEA919C0AB0F5C652963480C7F2B37A96E72C192964F9EE031
310
EA7997EA39B9E9AB460762642F53DF8E94D07EAA49DB4D8C5C3AD693E6F570393463D34DE3C4AB2C163CE8F567BB722803CE20584D3B523784D66FB43D35FD891DDF79959982FBE0D2CFFBD2FC1D0887DE46A7D0F3EA39FDE31AB7F97FD7A84D68D8EEFA547810341DF918085EE594527944986A4E547C03504B0304140006
310
080800EE746A48683D6E8AF3000000B1010000310000006662782F46383443323939452D333241412D343746412D424537462D3638324243313845344145352F636F72652E786D6C8D50CB6E833010FC15B47703363481C83822117C414FBD59C6A156828DFCA8FAF9B50395DA5B4E6BCDCE7866879EBF9747F625AD534677
310
80F31232A98599949E3B08FE861AC8CE8C5A63FC1F1A649A2FB2830403A3B33561DD2161B4973AA1DA4C7207B973D243261EF1D181139F72E1390F3E32DC3D5FB9B8F359E638DF788C7AB5FC4A8595DCCB091829F1019515C2E53BAE4F557B22CD072D1293D110D4B45BA929BAAB9B9216D8D8D457D2B603AA48DFA3FA38F6
310
E8321C477468C8E58A9BA1EE87375A2431A3CEDB78F3FE49BAEE55F926FC9739ACD30B9995F615D90D37850386639EE782D1221518C7B3DD3853D9EC07504B0304140006080800EE746A48FA1834F753010000DD0200000C0000006662782F636F72652E786D6C8D52DB6E842014FC15C33B2A6ADD4B90CDC6D82FE853DF58
310
642D59058360F6F30B5E627DE8B6314132E79C993313F0E5D9B5C1C8F520942C000A631070C9542D6453006BEEF008820BC15A29F3A30D049276BC001E0604375AD97E819892864B8F4A55F305A4C3C00D0858EB2E0518D817EF6848AD711DC323EC297BD08687289CFB08B656D4CBA8A81D9BB80BAE012993B7EA949508A2
310
5315C32CAF1278CD93134CDF0FD7435AA679555638F2C3041BD1ADEA4C736A780D4812A31CC62944F107CACEE9E99C1C3F71E43B091E8C769E1751EF0E90FBED89A319DFF1D9BEFE9BCF0A69D264E19B270640905B6F2A101CF97CDC6F0A6F9FA11376F9197A6B570B0F078D9C19A53357A995DD4A236D2D77D471307D389A
310
AB8E7922F88D2779C1F39AC3054565E356A3C65D6FD678F5FD4E3DD77034CF402ADDD1765B6E5E713B37A19DA5759CA956E9FF4CAF56D73023FF30C937504B0304140006080800EE746A4815CE980D08010000B201000008000000636F72652E786D6C8D50CB6E833010FC156BEF060C9484C8388A10FD829E7A73B143AC80
310
8DFC88DABFAF1DA8D4DE7A5A6B6676673CF4FCB9CCE821AD53467740B20290D4A3114A4F1D047FC547406746AD31FE970C90E68BEC20C1C0E8644D58776834DA4B9D506D84DC41EE9CF480C6393E3A70E34D2E3CE3C14785BB672B1FEF7C9219C9361DA35E2D3FABA395DC4B01AC2C48838B0A93E28DD4A7AA3D95C7779A27
310
25A32128B15B2911DDD555490BAC2F5F86B6EE0926ED50E0BA194A7C69CA1657AF87CBA1EAAB66E8079AA765469DB7F1CFFB9198D323C71FC997E61BC5E88731F32E88A104327AFE0256D03C117F428755FC23B4D2BE2AF783DB86034662A027118D5383713CEB8D33B5CDBE01504B01021400140006080800EE746A480000
310
000000000000000000003700000000000000000000000000000000006662782F46383443323939452D333241412D343746412D424537462D3638324243313845344145352F617474726962757465732E62696E504B01021400140006080800EE746A4800000000000000000000000035000000000000000000000000005500
310
00006662782F46383443323939452D333241412D343746412D424537462D3638324243313845344145352F76657274696365732E62696E504B01021400140006080800EE746A48F270F13306000000040000003600000000000000000000000000A80000006662782F46383443323939452D333241412D343746412D424537
310
462D3638324243313845344145352F747269616E676C65732E62696E504B01021400140006080800EE746A4851464CB489000000430100003600000000000000000000000000020100006662782F46383443323939452D333241412D343746412D424537462D3638324243313845344145352F6469726563746F72792E786D
310
6C504B01021400140006080800EE746A48D50ADCFC310700001A1C00003400000000000000000000000000DF0100006662782F46383443323939452D333241412D343746412D424537462D3638324243313845344145352F6F626A656374732E786D6C504B01021400140006080800EE746A48DD775D3C3F01000046050000
310
3000000000000000000000000000620900006662782F46383443323939452D333241412D343746412D424537462D3638324243313845344145352F636E782E786D6C504B01021400140006080800EE746A48454A7DC77F000000A30000000B00000000000000000000000000EF0A00006662782F636E782E786D6C504B0102
310
1400140006080800EE746A48A6D797065F000000820000000700000000000000000000000000970B0000636E782E786D6C504B01021400140006080800EE746A484FEB6A7CA0000000F400000013000000000000000000000000001B0C00005B436F6E74656E745F54797065735D2E786D6C504B01021400140006080800EE
310
746A483DEE336E64000000790000001B00000000000000000000000000EC0C00006175746F6465736B2D64657369676E2D7061636B6167652E786D6C504B01021400140006080800EE746A4817672C5DF9000000960100003B00000000000000000000000000890D00006662782F46383443323939452D333241412D343746
310
412D424537462D3638324243313845344145352F7265736F75726365732F636F72652E786D6C504B01021400140006080800EE746A48683D6E8AF3000000B10100003100000000000000000000000000DB0E00006662782F46383443323939452D333241412D343746412D424537462D3638324243313845344145352F636F
310
72652E786D6C504B01021400140006080800EE746A48FA1834F753010000DD0200000C000000000000000000000000001D1000006662782F636F72652E786D6C504B01021400140006080800EE746A4815CE980D08010000B201000008000000000000000000000000009A110000636F72652E786D6C504B0506000000000E
310
000E0080040000C81200000000
  0
XRECORD
  5
6A5F
102
{ACAD_REACTORS
330
6A5A
102
}
330
6A5A
100
AcDbXrecord
280
     1
270
     1
271
     1
  0
XRECORD
  5
6A5E
102
{ACAD_REACTORS
330
6A5A
102
}
330
6A5A
100
AcDbXrecord
280
     1
270
     1
271
     1
  0
XRECORD
  5
6A60
102
{ACAD_REACTORS
330
6A5A
102
}
330
6A5A
100
AcDbXrecord
280
     1
270
     1
271
     1
  0
XRECORD
  5
6A5D
102
{ACAD_REACTORS
330
6A5A
102
}
330
6A5A
100
AcDbXrecord
280
     1
270
     1
271
     1
  0
XRECORD
  5
6F73
102
{ACAD_REACTORS
330
6F72
102
}
330
6F72
100
AcDbXrecord
280
     1
102
DISPLAYNAME
  1
Imperial24
102
FLAGS
 90
        0
  0
CELLSTYLEMAP
  5
6F71
102
{ACAD_REACTORS
330
6ABD
102
}
330
6ABD
100
AcDbCellStyleMap
 90
        3
300
CELLSTYLE
  1
TABLEFORMAT_BEGIN
 90
        5
170
     1
 91
        0
 92
    32768
 62
   257
 93
        1
300
CONTENTFORMAT
  1
CONTENTFORMAT_BEGIN
 90
        0
 91
        0
 92
      512
 93
        0
300

 40
0.0
140
1.0
 94
        5
 62
     0
340
11
144
0.25
309
CONTENTFORMAT_END
171
     1
301
MARGIN
  1
CELLMARGIN_BEGIN
 40
0.06
 40
0.06
 40
0.06
 40
0.06
 40
0.18
 40
0.18
309
CELLMARGIN_END
 94
        6
 95
        1
302
GRIDFORMAT
  1
GRIDFORMAT_BEGIN
 90
        0
 91
        1
 62
     0
 92
       -2
340
0
 93
        0
 40
0.045
309
GRIDFORMAT_END
 95
        2
302
GRIDFORMAT
  1
GRIDFORMAT_BEGIN
 90
        0
 91
        1
 62
     0
 92
       -2
340
0
 93
        0
 40
0.045
309
GRIDFORMAT_END
 95
        4
302
GRIDFORMAT
  1
GRIDFORMAT_BEGIN
 90
        0
 91
        1
 62
     0
 92
       -2
340
0
 93
        0
 40
0.045
309
GRIDFORMAT_END
 95
        8
302
GRIDFORMAT
  1
GRIDFORMAT_BEGIN
 90
        0
 91
        1
 62
     0
 92
       -2
340
0
 93
        0
 40
0.045
309
GRIDFORMAT_END
 95
       16
302
GRIDFORMAT
  1
GRIDFORMAT_BEGIN
 90
        0
 91
        1
 62
     0
 92
       -2
340
0
 93
        0
 40
0.045
309
GRIDFORMAT_END
 95
       32
302
GRIDFORMAT
  1
GRIDFORMAT_BEGIN
 90
        0
 91
        1
 62
     0
 92
       -2
340
0
 93
        0
 40
0.045
309
GRIDFORMAT_END
309
TABLEFORMAT_END
  1
CELLSTYLE_BEGIN
 90
        1
 91
        1
300
_TITLE
309
CELLSTYLE_END
300
CELLSTYLE
  1
TABLEFORMAT_BEGIN
 90
        5
170
     1
 91
        0
 92
        0
 62
   257
 93
        1
300
CONTENTFORMAT
  1
CONTENTFORMAT_BEGIN
 90
        0
 91
        0
 92
      512
 93
        0
300

 40
0.0
140
1.0
 94
        5
 62
     0
340
11
144
0.18
309
CONTENTFORMAT_END
171
     1
301
MARGIN
  1
CELLMARGIN_BEGIN
 40
0.06
 40
0.06
 40
0.06
 40
0.06
 40
0.18
 40
0.18
309
CELLMARGIN_END
 94
        6
 95
        1
302
GRIDFORMAT
  1
GRIDFORMAT_BEGIN
 90
        0
 91
        1
 62
     0
 92
       -2
340
0
 93
        0
 40
0.045
309
GRIDFORMAT_END
 95
        2
302
GRIDFORMAT
  1
GRIDFORMAT_BEGIN
 90
        0
 91
        1
 62
     0
 92
       -2
340
0
 93
        0
 40
0.045
309
GRIDFORMAT_END
 95
        4
302
GRIDFORMAT
  1
GRIDFORMAT_BEGIN
 90
        0
 91
        1
 62
     0
 92
       -2
340
0
 93
        0
 40
0.045
309
GRIDFORMAT_END
 95
        8
302
GRIDFORMAT
  1
GRIDFORMAT_BEGIN
 90
        0
 91
        1
 62
     0
 92
       -2
340
0
 93
        0
 40
0.045
309
GRIDFORMAT_END
 95
       16
302
GRIDFORMAT
  1
GRIDFORMAT_BEGIN
 90
        0
 91
        1
 62
     0
 92
       -2
340
0
 93
        0
 40
0.045
309
GRIDFORMAT_END
 95
       32
302
GRIDFORMAT
  1
GRIDFORMAT_BEGIN
 90
        0
 91
        1
 62
     0
 92
       -2
340
0
 93
        0
 40
0.045
309
GRIDFORMAT_END
309
TABLEFORMAT_END
  1
CELLSTYLE_BEGIN
 90
        2
 91
        1
300
_HEADER
309
CELLSTYLE_END
300
CELLSTYLE
  1
TABLEFORMAT_BEGIN
 90
        5
170
     1
 91
        0
 92
        0
 62
   257
 93
        1
300
CONTENTFORMAT
  1
CONTENTFORMAT_BEGIN
 90
        0
 91
        0
 92
      512
 93
        0
300

 40
0.0
140
1.0
 94
        2
 62
     0
340
11
144
0.18
309
CONTENTFORMAT_END
171
     1
301
MARGIN
  1
CELLMARGIN_BEGIN
 40
0.06
 40
0.06
 40
0.06
 40
0.06
 40
0.18
 40
0.18
309
CELLMARGIN_END
 94
        6
 95
        1
302
GRIDFORMAT
  1
GRIDFORMAT_BEGIN
 90
        0
 91
        1
 62
     0
 92
       -2
340
0
 93
        0
 40
0.045
309
GRIDFORMAT_END
 95
        2
302
GRIDFORMAT
  1
GRIDFORMAT_BEGIN
 90
        0
 91
        1
 62
     0
 92
       -2
340
0
 93
        0
 40
0.045
309
GRIDFORMAT_END
 95
        4
302
GRIDFORMAT
  1
GRIDFORMAT_BEGIN
 90
        0
 91
        1
 62
     0
 92
       -2
340
0
 93
        0
 40
0.045
309
GRIDFORMAT_END
 95
        8
302
GRIDFORMAT
  1
GRIDFORMAT_BEGIN
 90
        0
 91
        1
 62
     0
 92
       -2
340
0
 93
        0
 40
0.045
309
GRIDFORMAT_END
 95
       16
302
GRIDFORMAT
  1
GRIDFORMAT_BEGIN
 90
        0
 91
        1
 62
     0
 92
       -2
340
0
 93
        0
 40
0.045
309
GRIDFORMAT_END
 95
       32
302
GRIDFORMAT
  1
GRIDFORMAT_BEGIN
 90
        0
 91
        1
 62
     0
 92
       -2
340
0
 93
        0
 40
0.045
309
GRIDFORMAT_END
309
TABLEFORMAT_END
  1
CELLSTYLE_BEGIN
 90
        3
 91
        2
300
_DATA
309
CELLSTYLE_END
  0
ENDSEC
  0
EOF
