  0
SECTION
  2
HEADER
  9
$ACADVER
  1
AC1027
  9
$ACADMAINTVER
 70
    55
  9
$DWGCODEPAGE
  3
ANSI_932
  9
$LASTSAVEDBY
  1
marketing
  9
$REQUIREDVERSIONS
160
                 0
  9
$INSBASE
 10
0.0
 20
0.0
 30
0.0
  9
$EXTMIN
 10
-44.23493643574784
 20
-368.5386941488118
 30
-0.0015258207003583
  9
$EXTMAX
 10
358.9000572121004
 20
155.307741030012
 30
0.0000000349246037
  9
$LIMMIN
 10
-459.0
 20
-527.0
  9
$LIMMAX
 10
682.0
 20
313.0
  9
$ORTHOMODE
 70
     1
  9
$REGENMODE
 70
     1
  9
$FILLMODE
 70
     1
  9
$QTEXTMODE
 70
     0
  9
$MIRRTEXT
 70
     1
  9
$LTSCALE
 40
5.0
  9
$ATTMODE
 70
     1
  9
$TEXTSIZE
 40
5.0
  9
$TRACEWID
 40
0.05
  9
$TEXTSTYLE
  7
STANDARD1
  9
$CLAYER
  8
30
  9
$CELTYPE
  6
CONTINUOUS
  9
$CECOLOR
 62
   256
  9
$CELTSCALE
 40
1.0
  9
$DISPSILH
 70
     0
  9
$DIMSCALE
 40
1.0
  9
$DIMASZ
 40
2.0
  9
$DIMEXO
 40
1.0
  9
$DIMDLI
 40
0.5
  9
$DIMRND
 40
0.0
  9
$DIMDLE
 40
0.0
  9
$DIMEXE
 40
0.5
  9
$DIMTP
 40
0.0
  9
$DIMTM
 40
0.0
  9
$DIMTXT
 40
4.0
  9
$DIMCEN
 40
0.09
  9
$DIMTSZ
 40
0.0
  9
$DIMTOL
 70
     0
  9
$DIMLIM
 70
     0
  9
$DIMTIH
 70
     0
  9
$DIMTOH
 70
     0
  9
$DIMSE1
 70
     0
  9
$DIMSE2
 70
     0
  9
$DIMTAD
 70
     3
  9
$DIMZIN
 70
    12
  9
$DIMBLK
  1
OPEN
  9
$DIMASO
 70
     1
  9
$DIMSHO
 70
     1
  9
$DIMPOST
  1

  9
$DIMAPOST
  1

  9
$DIMALT
 70
     0
  9
$DIMALTD
 70
     2
  9
$DIMALTF
 40
25.4
  9
$DIMLFAC
 40
1.0
  9
$DIMTOFL
 70
     0
  9
$DIMTVP
 40
0.0
  9
$DIMTIX
 70
     0
  9
$DIMSOXD
 70
     0
  9
$DIMSAH
 70
     0
  9
$DIMBLK1
  1

  9
$DIMBLK2
  1

  9
$DIMSTYLE
  2
STANDARD
  9
$DIMCLRD
 70
     0
  9
$DIMCLRE
 70
     0
  9
$DIMCLRT
 70
     0
  9
$DIMTFAC
 40
1.0
  9
$DIMGAP
 40
1.0
  9
$DIMJUST
 70
     0
  9
$DIMSD1
 70
     0
  9
$DIMSD2
 70
     0
  9
$DIMTOLJ
 70
     1
  9
$DIMTZIN
 70
     0
  9
$DIMALTZ
 70
     0
  9
$DIMALTTZ
 70
     0
  9
$DIMUPT
 70
     0
  9
$DIMDEC
 70
     1
  9
$DIMTDEC
 70
     1
  9
$DIMALTU
 70
     2
  9
$DIMALTTD
 70
     2
  9
$DIMTXSTY
  7
STANDARD
  9
$DIMAUNIT
 70
     0
  9
$DIMADEC
 70
     0
  9
$DIMALTRND
 40
0.0
  9
$DIMAZIN
 70
     3
  9
$DIMDSEP
 70
    46
  9
$DIMATFIT
 70
     3
  9
$DIMFRAC
 70
     0
  9
$DIMLDRBLK
  1
OPEN
  9
$DIMLUNIT
 70
     2
  9
$DIMLWD
 70
    -2
  9
$DIMLWE
 70
    -2
  9
$DIMTMOVE
 70
     0
  9
$DIMFXL
 40
1.0
  9
$DIMFXLON
 70
     0
  9
$DIMJOGANG
 40
0.7853981633974483
  9
$DIMTFILL
 70
     0
  9
$DIMTFILLCLR
 70
     0
  9
$DIMARCSYM
 70
     0
  9
$DIMLTYPE
  6

  9
$DIMLTEX1
  6

  9
$DIMLTEX2
  6

  9
$DIMTXTDIRECTION
 70
     0
  9
$LUNITS
 70
     2
  9
$LUPREC
 70
     4
  9
$SKETCHINC
 40
0.1
  9
$FILLETRAD
 40
0.0
  9
$AUNITS
 70
     0
  9
$AUPREC
 70
     0
  9
$MENU
  1
.
  9
$ELEVATION
 40
0.0
  9
$PELEVATION
 40
0.0
  9
$THICKNESS
 40
0.0
  9
$LIMCHECK
 70
     0
  9
$CHAMFERA
 40
0.0
  9
$CHAMFERB
 40
0.0
  9
$CHAMFERC
 40
0.0
  9
$CHAMFERD
 40
0.0
  9
$SKPOLY
 70
     0
  9
$TDCREATE
 40
2452286.555658658
  9
$TDUCREATE
 40
2452286.180658658
  9
$TDUPDATE
 40
2459278.582912801
  9
$TDUUPDATE
 40
2459278.207912801
  9
$TDINDWG
 40
1.2772845255
  9
$TDUSRTIMER
 40
1.2772845255
  9
$USRTIMER
 70
     1
  9
$ANGBASE
 50
0.0
  9
$ANGDIR
 70
     0
  9
$PDMODE
 70
     0
  9
$PDSIZE
 40
0.0
  9
$PLINEWID
 40
0.0
  9
$SPLFRAME
 70
     0
  9
$SPLINETYPE
 70
     6
  9
$SPLINESEGS
 70
     8
  9
$HANDSEED
  5
7710
  9
$SURFTAB1
 70
     6
  9
$SURFTAB2
 70
     6
  9
$SURFTYPE
 70
     6
  9
$SURFU
 70
     6
  9
$SURFV
 70
     6
  9
$UCSBASE
  2

  9
$UCSNAME
  2

  9
$UCSORG
 10
0.0
 20
0.0
 30
0.0
  9
$UCSXDIR
 10
1.0
 20
0.0
 30
0.0
  9
$UCSYDIR
 10
0.0
 20
1.0
 30
0.0
  9
$UCSORTHOREF
  2

  9
$UCSORTHOVIEW
 70
     0
  9
$UCSORGTOP
 10
0.0
 20
0.0
 30
0.0
  9
$UCSORGBOTTOM
 10
0.0
 20
0.0
 30
0.0
  9
$UCSORGLEFT
 10
0.0
 20
0.0
 30
0.0
  9
$UCSORGRIGHT
 10
0.0
 20
0.0
 30
0.0
  9
$UCSORGFRONT
 10
0.0
 20
0.0
 30
0.0
  9
$UCSORGBACK
 10
0.0
 20
0.0
 30
0.0
  9
$PUCSBASE
  2

  9
$PUCSNAME
  2

  9
$PUCSORG
 10
0.0
 20
0.0
 30
0.0
  9
$PUCSXDIR
 10
1.0
 20
0.0
 30
0.0
  9
$PUCSYDIR
 10
0.0
 20
1.0
 30
0.0
  9
$PUCSORTHOREF
  2

  9
$PUCSORTHOVIEW
 70
     0
  9
$PUCSORGTOP
 10
0.0
 20
0.0
 30
0.0
  9
$PUCSORGBOTTOM
 10
0.0
 20
0.0
 30
0.0
  9
$PUCSORGLEFT
 10
0.0
 20
0.0
 30
0.0
  9
$PUCSORGRIGHT
 10
0.0
 20
0.0
 30
0.0
  9
$PUCSORGFRONT
 10
0.0
 20
0.0
 30
0.0
  9
$PUCSORGBACK
 10
0.0
 20
0.0
 30
0.0
  9
$USERI1
 70
     0
  9
$USERI2
 70
     0
  9
$USERI3
 70
     0
  9
$USERI4
 70
     0
  9
$USERI5
 70
     0
  9
$USERR1
 40
0.0
  9
$USERR2
 40
0.0
  9
$USERR3
 40
0.0
  9
$USERR4
 40
0.0
  9
$USERR5
 40
0.0
  9
$WORLDVIEW
 70
     1
  9
$SHADEDGE
 70
     3
  9
$SHADEDIF
 70
    70
  9
$TILEMODE
 70
     1
  9
$MAXACTVP
 70
    48
  9
$PINSBASE
 10
0.0
 20
0.0
 30
0.0
  9
$PLIMCHECK
 70
     0
  9
$PEXTMIN
 10
4.273573370203961
 20
5.205246163471485
 30
0.0
  9
$PEXTMAX
 10
194.6100952986349
 20
283.0697008572913
 30
0.0
  9
$PLIMMIN
 10
-5.873748779296875
 20
-5.873749732971191
  9
$PLIMMAX
 10
204.0995788574218
 20
291.1369009017943
  9
$UNITMODE
 70
     0
  9
$VISRETAIN
 70
     1
  9
$PLINEGEN
 70
     0
  9
$PSLTSCALE
 70
     1
  9
$TREEDEPTH
 70
  3020
  9
$CMLSTYLE
  2
STANDARD
  9
$CMLJUST
 70
     0
  9
$CMLSCALE
 40
1.0
  9
$PROXYGRAPHICS
 70
     1
  9
$MEASUREMENT
 70
     0
  9
$CELWEIGHT
370
    -1
  9
$ENDCAPS
280
     0
  9
$JOINSTYLE
280
     0
  9
$LWDISPLAY
290
     0
  9
$INSUNITS
 70
     0
  9
$HYPERLINKBASE
  1

  9
$STYLESHEET
  1
KIKI.CTB
  9
$XEDIT
290
     1
  9
$CEPSNTYPE
380
     0
  9
$PSTYLEMODE
290
     1
  9
$FINGERPRINTGUID
  2

  9
$VERSIONGUID
  2
{C49B7BF6-9DA9-400C-B227-ED096AA0A761}
  9
$EXTNAMES
290
     1
  9
$PSVPSCALE
 40
0.0
  9
$OLESTARTUP
290
     0
  9
$SORTENTS
280
   127
  9
$INDEXCTL
280
     0
  9
$HIDETEXT
280
     0
  9
$XCLIPFRAME
280
     2
  9
$HALOGAP
280
     0
  9
$OBSCOLOR
 70
   257
  9
$OBSLTYPE
280
     0
  9
$INTERSECTIONDISPLAY
280
     0
  9
$INTERSECTIONCOLOR
 70
   257
  9
$DIMASSOC
280
     1
  9
$PROJECTNAME
  1

  9
$CAMERADISPLAY
290
     0
  9
$LENSLENGTH
 40
50.0
  9
$CAMERAHEIGHT
 40
0.0
  9
$STEPSPERSEC
 40
2.0
  9
$STEPSIZE
 40
6.0
  9
$3DDWFPREC
 40
2.0
  9
$PSOLWIDTH
 40
0.25
  9
$PSOLHEIGHT
 40
4.0
  9
$LOFTANG1
 40
1.570796326794896
  9
$LOFTANG2
 40
1.570796326794896
  9
$LOFTMAG1
 40
0.0
  9
$LOFTMAG2
 40
0.0
  9
$LOFTPARAM
 70
     7
  9
$LOFTNORMALS
280
     1
  9
$LATITUDE
 40
37.795
  9
$LONGITUDE
 40
-122.394
  9
$NORTHDIRECTION
 40
0.0
  9
$TIMEZONE
 70
 -8000
  9
$LIGHTGLYPHDISPLAY
280
     1
  9
$TILEMODELIGHTSYNCH
280
     1
  9
$CMATERIAL
347
7695
  9
$SOLIDHIST
280
     0
  9
$SHOWHIST
280
     1
  9
$DWFFRAME
280
     2
  9
$DGNFRAME
280
     0
  9
$REALWORLDSCALE
290
     1
  9
$INTERFERECOLOR
 62
     1
  9
$INTERFEREOBJVS
345
76B7
  9
$INTERFEREVPVS
346
76B4
  9
$CSHADOW
280
     0
  9
$SHADOWPLANELOCATION
 40
0.0
  0
ENDSEC
  0
SECTION
  2
CLASSES
  0
CLASS
  1
ACDBDICTIONARYWDFLT
  2
AcDbDictionaryWithDefault
  3
ObjectDBX Classes
 90
        0
 91
        1
280
     0
281
     0
  0
CLASS
  1
DICTIONARYVAR
  2
AcDbDictionaryVar
  3
ObjectDBX Classes
 90
        0
 91
       10
280
     0
281
     0
  0
CLASS
  1
MATERIAL
  2
AcDbMaterial
  3
ObjectDBX Classes
 90
     1153
 91
        3
280
     0
281
     0
  0
CLASS
  1
VISUALSTYLE
  2
AcDbVisualStyle
  3
ObjectDBX Classes
 90
     4095
 91
       24
280
     0
281
     0
  0
CLASS
  1
TABLESTYLE
  2
AcDbTableStyle
  3
ObjectDBX Classes
 90
     4095
 91
        1
280
     0
281
     0
  0
CLASS
  1
SCALE
  2
AcDbScale
  3
ObjectDBX Classes
 90
     1153
 91
       17
280
     0
281
     0
  0
CLASS
  1
MLEADERSTYLE
  2
AcDbMLeaderStyle
  3
ACDB_MLEADERSTYLE_CLASS
 90
     4095
 91
        1
280
     0
281
     0
  0
CLASS
  1
ACDBSECTIONVIEWSTYLE
  2
AcDbSectionViewStyle
  3
ObjectDBX Classes
 90
     1025
 91
        1
280
     0
281
     0
  0
CLASS
  1
ACDBDETAILVIEWSTYLE
  2
AcDbDetailViewStyle
  3
ObjectDBX Classes
 90
     1025
 91
        1
280
     0
281
     0
  0
CLASS
  1
CELLSTYLEMAP
  2
AcDbCellStyleMap
  3
ObjectDBX Classes
 90
     1152
 91
        1
280
     0
281
     0
  0
ENDSEC
  0
SECTION
  2
TABLES
  0
TABLE
  2
VPORT
  5
8
330
0
100
AcDbSymbolTable
 70
     1
  0
VPORT
  5
768C
330
8
100
AcDbSymbolTableRecord
100
AcDbViewportTableRecord
  2
*Active
 70
     0
 10
0.0
 20
0.0
 11
1.0
 21
1.0
 12
157.3325603881761
 22
-106.6154765593999
 13
0.0
 23
0.0
 14
1.0
 24
1.0
 15
10.0
 25
10.0
 16
0.0
 26
0.0
 36
1.0
 17
0.0
 27
0.0
 37
0.0
 40
527.6332768789116
 41
2.289505428226779
 42
50.0
 43
0.0
 44
0.0
 50
0.0
 51
0.0
 71
     0
 72
   100
 73
     1
 74
     1
 75
     1
 76
     0
 77
     0
 78
     0
281
     0
 65
     1
110
0.0
120
0.0
130
0.0
111
1.0
121
0.0
131
0.0
112
0.0
122
1.0
132
0.0
 79
     0
146
0.0
348
76B3
 60
     3
 61
     5
292
     1
282
     1
141
0.0
142
0.0
 63
   250
421
  3355443
1001
ACAD_NAV_VCDISPLAY
1070
     3
  0
ENDTAB
  0
TABLE
  2
LTYPE
  5
5
330
0
100
AcDbSymbolTable
 70
     5
  0
LTYPE
  5
13
330
5
100
AcDbSymbolTableRecord
100
AcDbLinetypeTableRecord
  2
BYBLOCK
 70
     0
  3

 72
    65
 73
     0
 40
0.0
  0
LTYPE
  5
14
330
5
100
AcDbSymbolTableRecord
100
AcDbLinetypeTableRecord
  2
BYLAYER
 70
     0
  3

 72
    65
 73
     0
 40
0.0
  0
LTYPE
  5
15
330
5
100
AcDbSymbolTableRecord
100
AcDbLinetypeTableRecord
  2
CONTINUOUS
 70
     0
  3
Solid line
 72
    65
 73
     0
 40
0.0
  0
LTYPE
  5
22
330
5
100
AcDbSymbolTableRecord
100
AcDbLinetypeTableRecord
  2
CONTINOUS
 70
     0
  3
Solid line
 72
    65
 73
     0
 40
0.0
  0
LTYPE
  5
24
330
5
100
AcDbSymbolTableRecord
100
AcDbLinetypeTableRecord
  2
DASHDOT
 70
     0
  3
__ . __ . __ . __ . __ . __ . __ . __ . __ . __
 72
    65
 73
     4
 40
1.0
 49
0.5
 74
     0
 49
-0.25
 74
     0
 49
0.0
 74
     0
 49
-0.25
 74
     0
  0
LTYPE
  5
392A
330
5
100
AcDbSymbolTableRecord
100
AcDbLinetypeTableRecord
  2
DIVIDE
 70
     0
  3
Divide ____ . . ____ . . ____ . . ____ . . ____
 72
    65
 73
     6
 40
1.25
 49
0.5
 74
     0
 49
-0.25
 74
     0
 49
0.0
 74
     0
 49
-0.25
 74
     0
 49
0.0
 74
     0
 49
-0.25
 74
     0
  0
ENDTAB
  0
TABLE
  2
LAYER
  5
2
330
0
100
AcDbSymbolTable
 70
    14
  0
LAYER
  5
10
102
{ACAD_XDICTIONARY
360
76E5
102
}
330
2
100
AcDbSymbolTableRecord
100
AcDbLayerTableRecord
  2
0
 70
     0
 62
     7
  6
CONTINOUS
370
    -3
390
F
347
76A5
348
0
  0
LAYER
  5
2F
102
{ACAD_XDICTIONARY
360
76E7
102
}
330
2
100
AcDbSymbolTableRecord
100
AcDbLayerTableRecord
  2
10
 70
     0
 62
     4
  6
CONTINOUS
370
    -3
390
F
347
76A5
348
0
  0
LAYER
  5
31
102
{ACAD_XDICTIONARY
360
76E9
102
}
330
2
100
AcDbSymbolTableRecord
100
AcDbLayerTableRecord
  2
12
 70
     0
 62
     3
  6
CONTINOUS
370
    -3
390
F
347
76A5
348
0
  0
LAYER
  5
35
102
{ACAD_XDICTIONARY
360
76EB
102
}
330
2
100
AcDbSymbolTableRecord
100
AcDbLayerTableRecord
  2
16
 70
     0
 62
     6
  6
DASHDOT
370
    -3
390
F
347
76A5
348
0
  0
LAYER
  5
36
102
{ACAD_XDICTIONARY
360
76ED
102
}
330
2
100
AcDbSymbolTableRecord
100
AcDbLayerTableRecord
  2
17
 70
     0
 62
     2
  6
DASHDOT
370
    -3
390
F
347
76A5
348
0
  0
LAYER
  5
38
102
{ACAD_XDICTIONARY
360
76EF
102
}
330
2
100
AcDbSymbolTableRecord
100
AcDbLayerTableRecord
  2
19
 70
     0
 62
     7
  6
CONTINOUS
370
    -3
390
F
347
76A5
348
0
  0
LAYER
  5
3C
102
{ACAD_XDICTIONARY
360
76F1
102
}
330
2
100
AcDbSymbolTableRecord
100
AcDbLayerTableRecord
  2
11
 70
     0
 62
     1
  6
CONTINOUS
370
    -3
390
F
347
76A5
348
0
  0
LAYER
  5
3D
102
{ACAD_XDICTIONARY
360
76F3
102
}
330
2
100
AcDbSymbolTableRecord
100
AcDbLayerTableRecord
  2
24
 70
     0
 62
     2
  6
CONTINOUS
370
    -3
390
F
347
76A5
348
0
  0
LAYER
  5
3A2
102
{ACAD_XDICTIONARY
360
76F5
102
}
330
2
100
AcDbSymbolTableRecord
100
AcDbLayerTableRecord
  2
30
 70
     0
 62
     9
  6
CONTINUOUS
370
    -3
390
F
347
76A5
348
0
  0
LAYER
  5
3A4
330
2
100
AcDbSymbolTableRecord
100
AcDbLayerTableRecord
  2
DEFPOINTS
 70
     0
 62
     7
  6
CONTINUOUS
290
     0
370
    -3
390
F
347
76A5
348
0
  0
LAYER
  5
4C43
102
{ACAD_XDICTIONARY
360
76F7
102
}
330
2
100
AcDbSymbolTableRecord
100
AcDbLayerTableRecord
  2
18
 70
     0
 62
     5
  6
DIVIDE
370
    -3
390
F
347
76A5
348
0
  0
LAYER
  5
5E73
102
{ACAD_XDICTIONARY
360
76F9
102
}
330
2
100
AcDbSymbolTableRecord
100
AcDbLayerTableRecord
  2
1
 70
     0
 62
     7
  6
CONTINUOUS
370
    -3
390
F
347
76A5
348
0
  0
LAYER
  5
5E74
102
{ACAD_XDICTIONARY
360
76FB
102
}
330
2
100
AcDbSymbolTableRecord
100
AcDbLayerTableRecord
  2
TOP
 70
     0
 62
     7
  6
CONTINUOUS
370
    -3
390
F
347
76A5
348
0
  0
LAYER
  5
723F
102
{ACAD_XDICTIONARY
360
76FD
102
}
330
2
100
AcDbSymbolTableRecord
100
AcDbLayerTableRecord
  2
3
 70
     0
 62
     7
  6
CONTINUOUS
370
    -3
390
F
347
76A5
348
0
  0
ENDTAB
  0
TABLE
  2
STYLE
  5
3
330
0
100
AcDbSymbolTable
 70
     3
  0
STYLE
  5
11
330
3
100
AcDbSymbolTableRecord
100
AcDbTextStyleTableRecord
  2
STANDARD
 70
     0
 40
0.0
 41
1.0
 50
0.0
 71
     0
 42
2.0
  3
txt.shx
  4
bigfont.shx
  0
STYLE
  5
42
330
3
100
AcDbSymbolTableRecord
100
AcDbTextStyleTableRecord
  2
STANDARD1
 70
     0
 40
0.0
 41
1.0
 50
0.0
 71
     0
 42
5.0
  3
MONOTXT
  4
BIGFONT
  0
STYLE
  5
5E75
330
3
100
AcDbSymbolTableRecord
100
AcDbTextStyleTableRecord
  2
UGMTXT
 70
     0
 40
0.0
 41
1.0
 50
0.0
 71
     0
 42
0.2
  3
ugmtxt
  4
bigfont
  0
ENDTAB
  0
TABLE
  2
VIEW
  5
6
330
0
100
AcDbSymbolTable
 70
     3
  0
VIEW
  5
230C
330
6
100
AcDbSymbolTableRecord
100
AcDbViewTableRecord
  2
OLE1
 70
     0
 40
148.9124878027714
 10
429.4976280407222
 20
2.560626997828478
 41
103.1458057716444
 11
0.0
 21
0.0
 31
1.0
 12
0.0
 22
0.0
 32
0.0
 42
50.0
 43
0.0
 44
0.0
 50
0.0
 71
     0
281
     0
 72
     0
 73
     0
348
76B3
  0
VIEW
  5
230E
330
6
100
AcDbSymbolTableRecord
100
AcDbViewTableRecord
  2
OLE2
 70
     0
 40
170.7786920545775
 10
322.664969958371
 20
-5.978304054290276
 41
102.4672152327465
 11
0.0
 21
0.0
 31
1.0
 12
0.0
 22
0.0
 32
0.0
 42
50.0
 43
0.0
 44
0.0
 50
0.0
 71
     0
281
     0
 72
     0
 73
     0
348
76B3
  0
VIEW
  5
23AA
330
6
100
AcDbSymbolTableRecord
100
AcDbViewTableRecord
  2
OLE3
 70
     0
 40
591.7897393182231
 10
84.79698158148218
 20
-46.09336010803995
 41
388.7920961799953
 11
0.0
 21
0.0
 31
1.0
 12
0.0
 22
0.0
 32
0.0
 42
50.0
 43
0.0
 44
0.0
 50
0.0
 71
     0
281
     0
 72
     0
 73
     0
348
76B3
  0
ENDTAB
  0
TABLE
  2
UCS
  5
7
330
0
100
AcDbSymbolTable
 70
     0
  0
ENDTAB
  0
TABLE
  2
APPID
  5
9
330
0
100
AcDbSymbolTable
 70
     4
  0
APPID
  5
12
330
9
100
AcDbSymbolTableRecord
100
AcDbRegAppTableRecord
  2
ACAD
 70
     0
  0
APPID
  5
ECD
330
9
100
AcDbSymbolTableRecord
100
AcDbRegAppTableRecord
  2
CONTENTBLOCKICON
 70
     0
  0
APPID
  5
76E3
330
9
100
AcDbSymbolTableRecord
100
AcDbRegAppTableRecord
  2
ACAD_EXEMPT_FROM_CAD_STANDARDS
 70
     0
  0
APPID
  5
7708
330
9
100
AcDbSymbolTableRecord
100
AcDbRegAppTableRecord
  2
ACAD_NAV_VCDISPLAY
 70
     0
  0
ENDTAB
  0
TABLE
  2
DIMSTYLE
  5
A
330
0
100
AcDbSymbolTable
 70
     1
100
AcDbDimStyleTable
 71
     0
  0
DIMSTYLE
105
175
102
{ACAD_REACTORS
330
C4F
330
BD8
330
608C
330
608B
330
6056
330
6116
330
65C7
330
65C8
330
65A1
330
65A4
330
65A0
330
65A3
330
65A5
330
65A2
330
65CD
330
65CC
330
697D
330
697B
330
6998
330
699D
330
6997
330
6E43
330
716D
330
71BB
330
71C8
330
71E7
330
71F4
330
72CA
330
72F4
330
72F8
102
}
330
A
100
AcDbSymbolTableRecord
100
AcDbDimStyleTableRecord
  2
STANDARD
 70
     0
 41
2.0
 42
1.0
 43
0.5
 44
0.5
 73
     0
 74
     0
 77
     3
 78
    12
140
4.0
147
1.0
271
     1
272
     1
340
11
341
3B2
342
3B2
  0
ENDTAB
  0
TABLE
  2
BLOCK_RECORD
  5
1
330
0
100
AcDbSymbolTable
 70
    31
  0
BLOCK_RECORD
  5
1E
102
{ACAD_XDICTIONARY
360
178
102
}
330
1
100
AcDbSymbolTableRecord
100
AcDbBlockTableRecord
  2
*MODEL_SPACE
340
767E
 70
     0
280
     1
281
     0
  0
BLOCK_RECORD
  5
1A
102
{ACAD_XDICTIONARY
360
17A
102
}
330
1
100
AcDbSymbolTableRecord
100
AcDbBlockTableRecord
  2
*PAPER_SPACE
340
767F
 70
     0
280
     1
281
     0
  0
BLOCK_RECORD
  5
3B2
330
1
100
AcDbSymbolTableRecord
100
AcDbBlockTableRecord
  2
_OPEN
340
0
102
{BLKREFS
331
7602
331
7603
331
75F9
331
75FA
331
7543
331
7544
331
753A
331
753B
331
751F
331
7520
331
7516
331
7517
331
7531
331
7532
331
75B1
331
75B2
331
7528
331
7529
331
75D5
331
75D6
331
75CC
331
75CD
331
75BA
331
75BB
331
750D
331
750E
331
7555
331
7556
331
754C
331
754D
331
755E
331
755F
331
758C
331
758D
331
75F0
331
75F1
331
7583
331
7584
331
757A
331
757B
331
7571
331
7572
331
7568
331
7569
331
75E7
331
75E8
331
75DE
331
75DF
331
75C3
331
75C4
331
7504
331
7505
331
75A8
331
75A9
331
759F
331
75A0
331
7596
331
7597
102
}
 70
     0
280
     1
281
     0
  0
BLOCK_RECORD
  5
BD9
330
1
100
AcDbSymbolTableRecord
100
AcDbBlockTableRecord
  2
*D1
340
0
 70
     0
280
     1
281
     0
  0
BLOCK_RECORD
  5
622C
330
1
100
AcDbSymbolTableRecord
100
AcDbBlockTableRecord
  2
*D2
340
0
 70
     0
280
     1
281
     0
  0
BLOCK_RECORD
  5
6244
330
1
100
AcDbSymbolTableRecord
100
AcDbBlockTableRecord
  2
*D3
340
0
 70
     0
280
     1
281
     0
  0
BLOCK_RECORD
  5
6250
330
1
100
AcDbSymbolTableRecord
100
AcDbBlockTableRecord
  2
*D4
340
0
 70
     0
280
     1
281
     0
  0
BLOCK_RECORD
  5
6268
330
1
100
AcDbSymbolTableRecord
100
AcDbBlockTableRecord
  2
*D5
340
0
 70
     0
280
     1
281
     0
  0
BLOCK_RECORD
  5
6735
330
1
100
AcDbSymbolTableRecord
100
AcDbBlockTableRecord
  2
*D6
340
0
 70
     0
280
     1
281
     0
  0
BLOCK_RECORD
  5
6741
330
1
100
AcDbSymbolTableRecord
100
AcDbBlockTableRecord
  2
*D7
340
0
 70
     0
280
     1
281
     0
  0
BLOCK_RECORD
  5
674D
330
1
100
AcDbSymbolTableRecord
100
AcDbBlockTableRecord
  2
*D8
340
0
 70
     0
280
     1
281
     0
  0
BLOCK_RECORD
  5
6759
330
1
100
AcDbSymbolTableRecord
100
AcDbBlockTableRecord
  2
*D9
340
0
 70
     0
280
     1
281
     0
  0
BLOCK_RECORD
  5
6765
330
1
100
AcDbSymbolTableRecord
100
AcDbBlockTableRecord
  2
*D10
340
0
 70
     0
280
     1
281
     0
  0
BLOCK_RECORD
  5
6771
330
1
100
AcDbSymbolTableRecord
100
AcDbBlockTableRecord
  2
*D11
340
0
 70
     0
280
     1
281
     0
  0
BLOCK_RECORD
  5
678A
330
1
100
AcDbSymbolTableRecord
100
AcDbBlockTableRecord
  2
*D12
340
0
 70
     0
280
     1
281
     0
  0
BLOCK_RECORD
  5
6796
330
1
100
AcDbSymbolTableRecord
100
AcDbBlockTableRecord
  2
*D13
340
0
 70
     0
280
     1
281
     0
  0
BLOCK_RECORD
  5
67A2
330
1
100
AcDbSymbolTableRecord
100
AcDbBlockTableRecord
  2
*D14
340
0
 70
     0
280
     1
281
     0
  0
BLOCK_RECORD
  5
67AE
330
1
100
AcDbSymbolTableRecord
100
AcDbBlockTableRecord
  2
*D15
340
0
 70
     0
280
     1
281
     0
  0
BLOCK_RECORD
  5
6A31
330
1
100
AcDbSymbolTableRecord
100
AcDbBlockTableRecord
  2
*D16
340
0
 70
     0
280
     1
281
     0
  0
BLOCK_RECORD
  5
6A3D
330
1
100
AcDbSymbolTableRecord
100
AcDbBlockTableRecord
  2
*D17
340
0
 70
     0
280
     1
281
     0
  0
BLOCK_RECORD
  5
6A49
330
1
100
AcDbSymbolTableRecord
100
AcDbBlockTableRecord
  2
*D18
340
0
 70
     0
280
     1
281
     0
  0
BLOCK_RECORD
  5
6A55
330
1
100
AcDbSymbolTableRecord
100
AcDbBlockTableRecord
  2
*D19
340
0
 70
     0
280
     1
281
     0
  0
BLOCK_RECORD
  5
6A61
330
1
100
AcDbSymbolTableRecord
100
AcDbBlockTableRecord
  2
*D20
340
0
 70
     0
280
     1
281
     0
  0
BLOCK_RECORD
  5
6E79
330
1
100
AcDbSymbolTableRecord
100
AcDbBlockTableRecord
  2
*D21
340
0
 70
     0
280
     1
281
     0
  0
BLOCK_RECORD
  5
716E
330
1
100
AcDbSymbolTableRecord
100
AcDbBlockTableRecord
  2
*D22
340
0
 70
     0
280
     1
281
     0
  0
BLOCK_RECORD
  5
71BC
330
1
100
AcDbSymbolTableRecord
100
AcDbBlockTableRecord
  2
*D23
340
0
 70
     0
280
     1
281
     0
  0
BLOCK_RECORD
  5
71C9
330
1
100
AcDbSymbolTableRecord
100
AcDbBlockTableRecord
  2
*D24
340
0
 70
     0
280
     1
281
     0
  0
BLOCK_RECORD
  5
71E8
330
1
100
AcDbSymbolTableRecord
100
AcDbBlockTableRecord
  2
*D25
340
0
 70
     0
280
     1
281
     0
  0
BLOCK_RECORD
  5
71F5
330
1
100
AcDbSymbolTableRecord
100
AcDbBlockTableRecord
  2
*D26
340
0
 70
     0
280
     1
281
     0
  0
BLOCK_RECORD
  5
7238
330
1
100
AcDbSymbolTableRecord
100
AcDbBlockTableRecord
  2
*U27
340
0
102
{BLKREFS
331
72F5
102
}
 70
     0
280
     1
281
     0
  0
BLOCK_RECORD
  5
7345
330
1
100
AcDbSymbolTableRecord
100
AcDbBlockTableRecord
  2
*D28
340
0
 70
     0
280
     1
281
     0
  0
BLOCK_RECORD
  5
7351
330
1
100
AcDbSymbolTableRecord
100
AcDbBlockTableRecord
  2
*D29
340
0
 70
     0
280
     1
281
     0
  0
BLOCK_RECORD
  5
735D
330
1
100
AcDbSymbolTableRecord
100
AcDbBlockTableRecord
  2
*D30
340
0
 70
     0
280
     1
281
     0
  0
ENDTAB
  0
ENDSEC
  0
SECTION
  2
BLOCKS
  0
BLOCK
  5
1F
330
1E
100
AcDbEntity
  8
0
100
AcDbBlockBegin
  2
*MODEL_SPACE
 70
     0
 10
0.0
 20
0.0
 30
0.0
  3
*MODEL_SPACE
  1

  0
ENDBLK
  5
20
330
1E
100
AcDbEntity
  8
0
100
AcDbBlockEnd
  0
BLOCK
  5
1B
330
1A
100
AcDbEntity
 67
     1
  8
0
100
AcDbBlockBegin
  2
*PAPER_SPACE
 70
     0
 10
0.0
 20
0.0
 30
0.0
  3
*PAPER_SPACE
  1

  0
ENDBLK
  5
1C
330
1A
100
AcDbEntity
 67
     1
  8
0
100
AcDbBlockEnd
  0
BLOCK
  5
3B6
330
3B2
100
AcDbEntity
  8
0
100
AcDbBlockBegin
  2
_OPEN
 70
     0
 10
0.0
 20
0.0
 30
0.0
  3
_OPEN
  1

  0
LINE
  5
3B3
330
3B2
100
AcDbEntity
  8
30
  6
Continuous
 62
     0
100
AcDbLine
 10
-1.0
 20
0.1666666666666666
 30
0.0
 11
0.0
 21
0.0
 31
0.0
  0
LINE
  5
3B4
330
3B2
100
AcDbEntity
  8
30
  6
Continuous
 62
     0
100
AcDbLine
 10
-1.0
 20
-0.1666666666666666
 30
0.0
 11
0.0
 21
0.0
 31
0.0
  0
LINE
  5
3B5
330
3B2
100
AcDbEntity
  8
30
  6
Continuous
 62
     0
100
AcDbLine
 10
0.0
 20
0.0
 30
0.0
 11
-1.0
 21
0.0
 31
0.0
  0
ENDBLK
  5
3B7
330
3B2
100
AcDbEntity
  8
0
100
AcDbBlockEnd
  0
BLOCK
  5
BE3
330
BD9
100
AcDbEntity
  8
0
100
AcDbBlockBegin
  2
*D1
 70
     1
 10
0.0
 20
0.0
 30
0.0
  3
*D1
  1

  0
LINE
  5
75B7
330
BD9
100
AcDbEntity
  8
30
 62
     0
440
 16777216
100
AcDbLine
 10
315.1041177097285
 20
-294.8593533752837
 30
0.0
 11
323.7021826079416
 21
-294.8593533752837
 31
0.0
  0
LINE
  5
75B8
330
BD9
100
AcDbEntity
  8
30
 62
     0
440
 16777216
100
AcDbLine
 10
316.1041177097286
 20
-284.8593533752837
 30
0.0
 11
323.7021826079416
 21
-284.8593533752837
 31
0.0
  0
LINE
  5
75B9
330
BD9
100
AcDbEntity
  8
30
 62
     0
440
 16777216
100
AcDbLine
 10
323.2021826079416
 20
-292.8593533752837
 30
0.0
 11
323.2021826079416
 21
-286.8593533752837
 31
0.0
  0
INSERT
  5
75BA
330
BD9
100
AcDbEntity
  8
30
 62
     0
440
 16777216
100
AcDbBlockReference
  2
_OPEN
 10
323.2021826079416
 20
-294.8593533752837
 30
0.0
 41
2.0
 42
2.0
 43
2.0
 50
270.0
  0
INSERT
  5
75BB
330
BD9
100
AcDbEntity
  8
30
 62
     0
440
 16777216
100
AcDbBlockReference
  2
_OPEN
 10
323.2021826079416
 20
-284.8593533752837
 30
0.0
 41
2.0
 42
2.0
 43
2.0
 50
90.0
  0
MTEXT
  5
75BC
330
BD9
100
AcDbEntity
  8
30
 62
     0
440
 16777216
100
AcDbMText
 10
320.2021826079417
 20
-284.8593533752837
 30
0.0
 40
4.0
 41
0.0
 46
0.0
 71
     5
 72
     1
  1
\A1;max10
 11
0.0000000000000001
 21
1.0
 31
0.0
 73
     1
 44
1.0
1001
ACAD
1000
MTEXTBEGIN
1070
    73
1070
     1
1070
    44
1040
1.0
1070
    74
1070
     0
1000
MTEXTEND
  0
POINT
  5
75BD
330
BD9
100
AcDbEntity
  8
DEFPOINTS
 62
     0
440
 16777216
100
AcDbPoint
 10
314.1041177097286
 20
-294.8593533752837
 30
0.0
  0
POINT
  5
75BE
330
BD9
100
AcDbEntity
  8
DEFPOINTS
 62
     0
440
 16777216
100
AcDbPoint
 10
315.1041177097285
 20
-284.8593533752837
 30
0.0
  0
POINT
  5
75BF
330
BD9
100
AcDbEntity
  8
DEFPOINTS
 62
     0
440
 16777216
100
AcDbPoint
 10
323.2021826079416
 20
-284.8593533752837
 30
0.0
  0
ENDBLK
  5
BE4
330
BD9
100
AcDbEntity
  8
0
100
AcDbBlockEnd
  0
BLOCK
  5
6236
330
622C
100
AcDbEntity
  8
0
100
AcDbBlockBegin
  2
*D2
 70
     1
 10
0.0
 20
0.0
 30
0.0
  3
*D2
  1

  0
LINE
  5
750A
330
622C
100
AcDbEntity
  8
30
 62
     0
440
 16777216
100
AcDbLine
 10
-15.0
 20
-78.5
 30
0.0
 11
-15.0
 21
-110.4999999999999
 31
0.0
  0
LINE
  5
750B
330
622C
100
AcDbEntity
  8
30
 62
     0
440
 16777216
100
AcDbLine
 10
45.0
 20
-78.5
 30
0.0
 11
45.0
 21
-110.4999999999999
 31
0.0
  0
LINE
  5
750C
330
622C
100
AcDbEntity
  8
30
 62
     0
440
 16777216
100
AcDbLine
 10
-13.0
 20
-110.0
 30
0.0
 11
43.0
 21
-110.0
 31
0.0
  0
INSERT
  5
750D
330
622C
100
AcDbEntity
  8
30
 62
     0
440
 16777216
100
AcDbBlockReference
  2
_OPEN
 10
-15.0
 20
-110.0
 30
0.0
 41
2.0
 42
2.0
 43
2.0
 50
180.0
  0
INSERT
  5
750E
330
622C
100
AcDbEntity
  8
30
 62
     0
440
 16777216
100
AcDbBlockReference
  2
_OPEN
 10
45.0
 20
-110.0
 30
0.0
 41
2.0
 42
2.0
 43
2.0
  0
MTEXT
  5
750F
330
622C
100
AcDbEntity
  8
30
 62
     0
440
 16777216
100
AcDbMText
 10
15.0
 20
-107.0
 30
0.0
 40
4.0
 41
0.0
 46
0.0
 71
     5
 72
     1
  1
\A1;60
 73
     1
 44
1.0
1001
ACAD
1000
MTEXTBEGIN
1070
    73
1070
     1
1070
    44
1040
1.0
1070
    74
1070
     0
1000
MTEXTEND
  0
POINT
  5
7510
330
622C
100
AcDbEntity
  8
DEFPOINTS
 62
     0
440
 16777216
100
AcDbPoint
 10
-15.0
 20
-77.5
 30
0.0
  0
POINT
  5
7511
330
622C
100
AcDbEntity
  8
DEFPOINTS
 62
     0
440
 16777216
100
AcDbPoint
 10
45.0
 20
-77.5
 30
0.0
  0
POINT
  5
7512
330
622C
100
AcDbEntity
  8
DEFPOINTS
 62
     0
440
 16777216
100
AcDbPoint
 10
45.0
 20
-110.0
 30
0.0
  0
ENDBLK
  5
6237
330
622C
100
AcDbEntity
  8
0
100
AcDbBlockEnd
  0
BLOCK
  5
624E
330
6244
100
AcDbEntity
  8
0
100
AcDbBlockBegin
  2
*D3
 70
     1
 10
0.0
 20
0.0
 30
0.0
  3
*D3
  1

  0
LINE
  5
7552
330
6244
100
AcDbEntity
  8
30
 62
     0
440
 16777216
100
AcDbLine
 10
42.24999143870809
 20
-84.99999488000776
 30
0.0
 11
77.29437799518198
 21
-84.99999488000776
 31
0.0
  0
LINE
  5
7553
330
6244
100
AcDbEntity
  8
30
 62
     0
440
 16777216
100
AcDbLine
 10
42.24999143870809
 20
85.00000325826205
 30
0.0
 11
77.294377995182
 21
85.00000325826205
 31
0.0
  0
LINE
  5
7554
330
6244
100
AcDbEntity
  8
30
 62
     0
440
 16777216
100
AcDbLine
 10
76.79437799518197
 20
-82.99999488000777
 30
0.0
 11
76.79437799518201
 21
83.00000325826204
 31
0.0
  0
INSERT
  5
7555
330
6244
100
AcDbEntity
  8
30
 62
     0
440
 16777216
100
AcDbBlockReference
  2
_OPEN
 10
76.79437799518197
 20
-84.99999488000776
 30
0.0
 41
2.0
 42
2.0
 43
2.0
 50
270.0
  0
INSERT
  5
7556
330
6244
100
AcDbEntity
  8
30
 62
     0
440
 16777216
100
AcDbBlockReference
  2
_OPEN
 10
76.79437799518201
 20
85.00000325826205
 30
0.0
 41
2.0
 42
2.0
 43
2.0
 50
90.0
  0
MTEXT
  5
7557
330
6244
100
AcDbEntity
  8
30
 62
     0
440
 16777216
100
AcDbMText
 10
73.79437799518197
 20
0.0000041891271493
 30
0.0
 40
4.0
 41
0.0
 46
0.0
 71
     5
 72
     1
  1
\A1;170
 11
0.0000000000000001
 21
1.0
 31
0.0
 73
     1
 44
1.0
1001
ACAD
1000
MTEXTBEGIN
1070
    73
1070
     1
1070
    44
1040
1.0
1070
    74
1070
     0
1000
MTEXTEND
  0
POINT
  5
7558
330
6244
100
AcDbEntity
  8
DEFPOINTS
 62
     0
440
 16777216
100
AcDbPoint
 10
41.24999143870809
 20
-84.99999488000776
 30
0.0
  0
POINT
  5
7559
330
6244
100
AcDbEntity
  8
DEFPOINTS
 62
     0
440
 16777216
100
AcDbPoint
 10
41.24999143870809
 20
85.00000325826205
 30
0.0
  0
POINT
  5
755A
330
6244
100
AcDbEntity
  8
DEFPOINTS
 62
     0
440
 16777216
100
AcDbPoint
 10
76.79437799518201
 20
85.00000325826205
 30
0.0
  0
ENDBLK
  5
624F
330
6244
100
AcDbEntity
  8
0
100
AcDbBlockEnd
  0
BLOCK
  5
625A
330
6250
100
AcDbEntity
  8
0
100
AcDbBlockBegin
  2
*D4
 70
     1
 10
0.0
 20
0.0
 30
0.0
  3
*D4
  1

  0
LINE
  5
7549
330
6250
100
AcDbEntity
  8
30
 62
     0
440
 16777216
100
AcDbLine
 10
46.0
 20
-77.5
 30
0.0
 11
64.79437799518198
 21
-77.5
 31
0.0
  0
LINE
  5
754A
330
6250
100
AcDbEntity
  8
30
 62
     0
440
 16777216
100
AcDbLine
 10
46.0
 20
77.5
 30
0.0
 11
64.794377995182
 21
77.5
 31
0.0
  0
LINE
  5
754B
330
6250
100
AcDbEntity
  8
30
 62
     0
440
 16777216
100
AcDbLine
 10
64.29437799518197
 20
-75.5
 30
0.0
 11
64.29437799518201
 21
75.5
 31
0.0
  0
INSERT
  5
754C
330
6250
100
AcDbEntity
  8
30
 62
     0
440
 16777216
100
AcDbBlockReference
  2
_OPEN
 10
64.29437799518197
 20
-77.5
 30
0.0
 41
2.0
 42
2.0
 43
2.0
 50
270.0
  0
INSERT
  5
754D
330
6250
100
AcDbEntity
  8
30
 62
     0
440
 16777216
100
AcDbBlockReference
  2
_OPEN
 10
64.29437799518201
 20
77.5
 30
0.0
 41
2.0
 42
2.0
 43
2.0
 50
90.0
  0
MTEXT
  5
754E
330
6250
100
AcDbEntity
  8
30
 62
     0
440
 16777216
100
AcDbMText
 10
61.29437799518199
 20
0.0000000000000106
 30
0.0
 40
4.0
 41
0.0
 46
0.0
 71
     5
 72
     1
  1
\A1;155
 11
0.0000000000000001
 21
1.0
 31
0.0
 73
     1
 44
1.0
1001
ACAD
1000
MTEXTBEGIN
1070
    73
1070
     1
1070
    44
1040
1.0
1070
    74
1070
     0
1000
MTEXTEND
  0
POINT
  5
754F
330
6250
100
AcDbEntity
  8
DEFPOINTS
 62
     0
440
 16777216
100
AcDbPoint
 10
45.0
 20
-77.5
 30
0.0
  0
POINT
  5
7550
330
6250
100
AcDbEntity
  8
DEFPOINTS
 62
     0
440
 16777216
100
AcDbPoint
 10
45.0
 20
77.5
 30
0.0
  0
POINT
  5
7551
330
6250
100
AcDbEntity
  8
DEFPOINTS
 62
     0
440
 16777216
100
AcDbPoint
 10
64.29437799518201
 20
77.5
 30
0.0
  0
ENDBLK
  5
625B
330
6250
100
AcDbEntity
  8
0
100
AcDbBlockEnd
  0
BLOCK
  5
6272
330
6268
100
AcDbEntity
  8
0
100
AcDbBlockBegin
  2
*D5
 70
     1
 10
0.0
 20
0.0
 30
0.0
  3
*D5
  1

  0
LINE
  5
755B
330
6268
100
AcDbEntity
  8
30
 62
     0
440
 16777216
100
AcDbLine
 10
-12.0
 20
26.0
 30
0.0
 11
-12.0
 21
33.09950840067995
 31
0.0
  0
LINE
  5
755C
330
6268
100
AcDbEntity
  8
30
 62
     0
440
 16777216
100
AcDbLine
 10
42.0
 20
26.0
 30
0.0
 11
42.0
 21
33.09950840067995
 31
0.0
  0
LINE
  5
755D
330
6268
100
AcDbEntity
  8
30
 62
     0
440
 16777216
100
AcDbLine
 10
-10.0
 20
32.59950840067995
 30
0.0
 11
40.0
 21
32.59950840067995
 31
0.0
  0
INSERT
  5
755E
330
6268
100
AcDbEntity
  8
30
 62
     0
440
 16777216
100
AcDbBlockReference
  2
_OPEN
 10
-12.0
 20
32.59950840067995
 30
0.0
 41
2.0
 42
2.0
 43
2.0
 50
180.0
  0
INSERT
  5
755F
330
6268
100
AcDbEntity
  8
30
 62
     0
440
 16777216
100
AcDbBlockReference
  2
_OPEN
 10
42.0
 20
32.59950840067995
 30
0.0
 41
2.0
 42
2.0
 43
2.0
  0
MTEXT
  5
7560
330
6268
100
AcDbEntity
  8
30
 62
     0
440
 16777216
100
AcDbMText
 10
15.0
 20
35.59950840067996
 30
0.0
 40
4.0
 41
0.0
 46
0.0
 71
     5
 72
     1
  1
\A1;54
 73
     1
 44
1.0
1001
ACAD
1000
MTEXTBEGIN
1070
    73
1070
     1
1070
    44
1040
1.0
1070
    74
1070
     0
1000
MTEXTEND
  0
POINT
  5
7561
330
6268
100
AcDbEntity
  8
DEFPOINTS
 62
     0
440
 16777216
100
AcDbPoint
 10
-12.0
 20
25.0
 30
0.0
  0
POINT
  5
7562
330
6268
100
AcDbEntity
  8
DEFPOINTS
 62
     0
440
 16777216
100
AcDbPoint
 10
42.0
 20
25.0
 30
0.0
  0
POINT
  5
7563
330
6268
100
AcDbEntity
  8
DEFPOINTS
 62
     0
440
 16777216
100
AcDbPoint
 10
42.0
 20
32.59950840067995
 30
0.0
  0
ENDBLK
  5
6273
330
6268
100
AcDbEntity
  8
0
100
AcDbBlockEnd
  0
BLOCK
  5
673F
330
6735
100
AcDbEntity
  8
0
100
AcDbBlockBegin
  2
*D6
 70
     1
 10
0.0
 20
0.0
 30
0.0
  3
*D6
  1

  0
LINE
  5
7589
330
6735
100
AcDbEntity
  8
30
 62
     0
440
 16777216
100
AcDbLine
 10
311.000000614258
 20
-54.9999859042091
 30
0.0
 11
311.000000614258
 21
-110.4999999999999
 31
0.0
  0
LINE
  5
758A
330
6735
100
AcDbEntity
  8
30
 62
     0
440
 16777216
100
AcDbLine
 10
337.9999994458192
 20
-78.99998621133725
 30
0.0
 11
337.9999994458192
 21
-110.4999999999999
 31
0.0
  0
LINE
  5
758B
330
6735
100
AcDbEntity
  8
30
 62
     0
440
 16777216
100
AcDbLine
 10
313.0000006142581
 20
-110.0
 30
0.0
 11
335.9999994458192
 21
-110.0
 31
0.0
  0
INSERT
  5
758C
330
6735
100
AcDbEntity
  8
30
 62
     0
440
 16777216
100
AcDbBlockReference
  2
_OPEN
 10
311.000000614258
 20
-110.0
 30
0.0
 41
2.0
 42
2.0
 43
2.0
 50
180.0
  0
INSERT
  5
758D
330
6735
100
AcDbEntity
  8
30
 62
     0
440
 16777216
100
AcDbBlockReference
  2
_OPEN
 10
337.9999994458192
 20
-110.0
 30
0.0
 41
2.0
 42
2.0
 43
2.0
  0
MTEXT
  5
758E
330
6735
100
AcDbEntity
  8
30
 62
     0
440
 16777216
100
AcDbMText
 10
324.5000000300386
 20
-107.0
 30
0.0
 40
4.0
 41
0.0
 46
0.0
 71
     5
 72
     1
  1
\A1;27
 73
     1
 44
1.0
1001
ACAD
1000
MTEXTBEGIN
1070
    73
1070
     1
1070
    44
1040
1.0
1070
    74
1070
     0
1000
MTEXTEND
  0
POINT
  5
758F
330
6735
100
AcDbEntity
  8
DEFPOINTS
 62
     0
440
 16777216
100
AcDbPoint
 10
311.000000614258
 20
-53.9999859042091
 30
0.0
  0
POINT
  5
7590
330
6735
100
AcDbEntity
  8
DEFPOINTS
 62
     0
440
 16777216
100
AcDbPoint
 10
337.9999994458192
 20
-77.99998621133726
 30
0.0
  0
POINT
  5
7591
330
6735
100
AcDbEntity
  8
DEFPOINTS
 62
     0
440
 16777216
100
AcDbPoint
 10
337.9999994458192
 20
-110.0
 30
0.0
  0
ENDBLK
  5
6740
330
6735
100
AcDbEntity
  8
0
100
AcDbBlockEnd
  0
BLOCK
  5
674B
330
6741
100
AcDbEntity
  8
0
100
AcDbBlockBegin
  2
*D7
 70
     1
 10
0.0
 20
0.0
 30
0.0
  3
*D7
  1

  0
LINE
  5
75ED
330
6741
100
AcDbEntity
  8
30
 62
     0
440
 16777216
100
AcDbLine
 10
202.0000000000071
 20
-78.5
 30
0.0
 11
202.0000000000071
 21
-100.5
 31
0.0
  0
LINE
  5
75EE
330
6741
100
AcDbEntity
  8
30
 62
     0
440
 16777216
100
AcDbLine
 10
263.000000000007
 20
-83.49999005381867
 30
0.0
 11
263.000000000007
 21
-100.5
 31
0.0
  0
LINE
  5
75EF
330
6741
100
AcDbEntity
  8
30
 62
     0
440
 16777216
100
AcDbLine
 10
204.0000000000071
 20
-100.0
 30
0.0
 11
261.000000000007
 21
-100.0
 31
0.0
  0
INSERT
  5
75F0
330
6741
100
AcDbEntity
  8
30
 62
     0
440
 16777216
100
AcDbBlockReference
  2
_OPEN
 10
202.0000000000071
 20
-100.0
 30
0.0
 41
2.0
 42
2.0
 43
2.0
 50
180.0
  0
INSERT
  5
75F1
330
6741
100
AcDbEntity
  8
30
 62
     0
440
 16777216
100
AcDbBlockReference
  2
_OPEN
 10
263.000000000007
 20
-100.0
 30
0.0
 41
2.0
 42
2.0
 43
2.0
  0
MTEXT
  5
75F2
330
6741
100
AcDbEntity
  8
30
 62
     0
440
 16777216
100
AcDbMText
 10
232.5000000000073
 20
-97.0
 30
0.0
 40
4.0
 41
0.0
 46
0.0
 71
     5
 72
     1
  1
\A1;61
 73
     1
 44
1.0
1001
ACAD
1000
MTEXTBEGIN
1070
    73
1070
     1
1070
    44
1040
1.0
1070
    74
1070
     0
1000
MTEXTEND
  0
POINT
  5
75F3
330
6741
100
AcDbEntity
  8
DEFPOINTS
 62
     0
440
 16777216
100
AcDbPoint
 10
202.0000000000071
 20
-77.5
 30
0.0
  0
POINT
  5
75F4
330
6741
100
AcDbEntity
  8
DEFPOINTS
 62
     0
440
 16777216
100
AcDbPoint
 10
263.000000000007
 20
-82.49999005381868
 30
0.0
  0
POINT
  5
75F5
330
6741
100
AcDbEntity
  8
DEFPOINTS
 62
     0
440
 16777216
100
AcDbPoint
 10
263.000000000007
 20
-100.0
 30
0.0
  0
ENDBLK
  5
674C
330
6741
100
AcDbEntity
  8
0
100
AcDbBlockEnd
  0
BLOCK
  5
6757
330
674D
100
AcDbEntity
  8
0
100
AcDbBlockBegin
  2
*D8
 70
     1
 10
0.0
 20
0.0
 30
0.0
  3
*D8
  1

  0
LINE
  5
7580
330
674D
100
AcDbEntity
  8
30
 62
     0
440
 16777216
100
AcDbLine
 10
171.0000000000071
 20
-3.500000016500051
 30
0.0
 11
171.0000000000071
 21
-130.4999999999999
 31
0.0
  0
LINE
  5
7581
330
674D
100
AcDbEntity
  8
30
 62
     0
440
 16777216
100
AcDbLine
 10
311.000000614258
 20
-54.9999859042091
 30
0.0
 11
311.000000614258
 21
-130.4999999999999
 31
0.0
  0
LINE
  5
7582
330
674D
100
AcDbEntity
  8
30
 62
     0
440
 16777216
100
AcDbLine
 10
173.0000000000071
 20
-130.0
 30
0.0
 11
309.0000006142581
 21
-130.0
 31
0.0
  0
INSERT
  5
7583
330
674D
100
AcDbEntity
  8
30
 62
     0
440
 16777216
100
AcDbBlockReference
  2
_OPEN
 10
171.0000000000071
 20
-130.0
 30
0.0
 41
2.0
 42
2.0
 43
2.0
 50
180.0
  0
INSERT
  5
7584
330
674D
100
AcDbEntity
  8
30
 62
     0
440
 16777216
100
AcDbBlockReference
  2
_OPEN
 10
311.000000614258
 20
-130.0
 30
0.0
 41
2.0
 42
2.0
 43
2.0
  0
MTEXT
  5
7585
330
674D
100
AcDbEntity
  8
30
 62
     0
440
 16777216
100
AcDbMText
 10
241.0000003071326
 20
-127.0
 30
0.0
 40
4.0
 41
0.0
 46
0.0
 71
     5
 72
     1
  1
\A1;140
 73
     1
 44
1.0
1001
ACAD
1000
MTEXTBEGIN
1070
    73
1070
     1
1070
    44
1040
1.0
1070
    74
1070
     0
1000
MTEXTEND
  0
POINT
  5
7586
330
674D
100
AcDbEntity
  8
DEFPOINTS
 62
     0
440
 16777216
100
AcDbPoint
 10
171.0000000000071
 20
-2.500000016500049
 30
0.0
  0
POINT
  5
7587
330
674D
100
AcDbEntity
  8
DEFPOINTS
 62
     0
440
 16777216
100
AcDbPoint
 10
311.000000614258
 20
-53.9999859042091
 30
0.0
  0
POINT
  5
7588
330
674D
100
AcDbEntity
  8
DEFPOINTS
 62
     0
440
 16777216
100
AcDbPoint
 10
311.000000614258
 20
-130.0
 30
0.0
  0
ENDBLK
  5
6758
330
674D
100
AcDbEntity
  8
0
100
AcDbBlockEnd
  0
BLOCK
  5
6763
330
6759
100
AcDbEntity
  8
0
100
AcDbBlockBegin
  2
*D9
 70
     1
 10
0.0
 20
0.0
 30
0.0
  3
*D9
  1

  0
LINE
  5
7577
330
6759
100
AcDbEntity
  8
30
 62
     0
440
 16777216
100
AcDbLine
 10
191.0000000000071
 20
-26.0
 30
0.0
 11
191.0000000000071
 21
-120.5
 31
0.0
  0
LINE
  5
7578
330
6759
100
AcDbEntity
  8
30
 62
     0
440
 16777216
100
AcDbLine
 10
311.000000614258
 20
-54.9999859042091
 30
0.0
 11
311.000000614258
 21
-120.5
 31
0.0
  0
LINE
  5
7579
330
6759
100
AcDbEntity
  8
30
 62
     0
440
 16777216
100
AcDbLine
 10
193.000000000007
 20
-120.0
 30
0.0
 11
309.0000006142581
 21
-120.0
 31
0.0
  0
INSERT
  5
757A
330
6759
100
AcDbEntity
  8
30
 62
     0
440
 16777216
100
AcDbBlockReference
  2
_OPEN
 10
191.0000000000071
 20
-120.0
 30
0.0
 41
2.0
 42
2.0
 43
2.0
 50
180.0
  0
INSERT
  5
757B
330
6759
100
AcDbEntity
  8
30
 62
     0
440
 16777216
100
AcDbBlockReference
  2
_OPEN
 10
311.000000614258
 20
-120.0
 30
0.0
 41
2.0
 42
2.0
 43
2.0
  0
MTEXT
  5
757C
330
6759
100
AcDbEntity
  8
30
 62
     0
440
 16777216
100
AcDbMText
 10
251.0000003071326
 20
-117.0
 30
0.0
 40
4.0
 41
0.0
 46
0.0
 71
     5
 72
     1
  1
\A1;120
 73
     1
 44
1.0
1001
ACAD
1000
MTEXTBEGIN
1070
    73
1070
     1
1070
    44
1040
1.0
1070
    74
1070
     0
1000
MTEXTEND
  0
POINT
  5
757D
330
6759
100
AcDbEntity
  8
DEFPOINTS
 62
     0
440
 16777216
100
AcDbPoint
 10
191.0000000000071
 20
-25.0
 30
0.0
  0
POINT
  5
757E
330
6759
100
AcDbEntity
  8
DEFPOINTS
 62
     0
440
 16777216
100
AcDbPoint
 10
311.000000614258
 20
-53.9999859042091
 30
0.0
  0
POINT
  5
757F
330
6759
100
AcDbEntity
  8
DEFPOINTS
 62
     0
440
 16777216
100
AcDbPoint
 10
311.000000614258
 20
-120.0
 30
0.0
  0
ENDBLK
  5
6764
330
6759
100
AcDbEntity
  8
0
100
AcDbBlockEnd
  0
BLOCK
  5
676F
330
6765
100
AcDbEntity
  8
0
100
AcDbBlockBegin
  2
*D10
 70
     1
 10
0.0
 20
0.0
 30
0.0
  3
*D10
  1

  0
LINE
  5
756E
330
6765
100
AcDbEntity
  8
30
 62
     0
440
 16777216
100
AcDbLine
 10
195.0000000000071
 20
-52.0
 30
0.0
 11
195.0000000000071
 21
-110.4999999999999
 31
0.0
  0
LINE
  5
756F
330
6765
100
AcDbEntity
  8
30
 62
     0
440
 16777216
100
AcDbLine
 10
311.000000614258
 20
-54.9999859042091
 30
0.0
 11
311.000000614258
 21
-110.4999999999999
 31
0.0
  0
LINE
  5
7570
330
6765
100
AcDbEntity
  8
30
 62
     0
440
 16777216
100
AcDbLine
 10
197.000000000007
 20
-110.0
 30
0.0
 11
309.0000006142581
 21
-110.0
 31
0.0
  0
INSERT
  5
7571
330
6765
100
AcDbEntity
  8
30
 62
     0
440
 16777216
100
AcDbBlockReference
  2
_OPEN
 10
195.0000000000071
 20
-110.0
 30
0.0
 41
2.0
 42
2.0
 43
2.0
 50
180.0
  0
INSERT
  5
7572
330
6765
100
AcDbEntity
  8
30
 62
     0
440
 16777216
100
AcDbBlockReference
  2
_OPEN
 10
311.000000614258
 20
-110.0
 30
0.0
 41
2.0
 42
2.0
 43
2.0
  0
MTEXT
  5
7573
330
6765
100
AcDbEntity
  8
30
 62
     0
440
 16777216
100
AcDbMText
 10
253.0000003071326
 20
-107.0
 30
0.0
 40
4.0
 41
0.0
 46
0.0
 71
     5
 72
     1
  1
\A1;116
 73
     1
 44
1.0
1001
ACAD
1000
MTEXTBEGIN
1070
    73
1070
     1
1070
    44
1040
1.0
1070
    74
1070
     0
1000
MTEXTEND
  0
POINT
  5
7574
330
6765
100
AcDbEntity
  8
DEFPOINTS
 62
     0
440
 16777216
100
AcDbPoint
 10
195.0000000000071
 20
-51.0
 30
0.0
  0
POINT
  5
7575
330
6765
100
AcDbEntity
  8
DEFPOINTS
 62
     0
440
 16777216
100
AcDbPoint
 10
311.000000614258
 20
-53.9999859042091
 30
0.0
  0
POINT
  5
7576
330
6765
100
AcDbEntity
  8
DEFPOINTS
 62
     0
440
 16777216
100
AcDbPoint
 10
311.000000614258
 20
-110.0
 30
0.0
  0
ENDBLK
  5
6770
330
6765
100
AcDbEntity
  8
0
100
AcDbBlockEnd
  0
BLOCK
  5
677C
330
6771
100
AcDbEntity
  8
0
100
AcDbBlockBegin
  2
*D11
 70
     1
 10
0.0
 20
0.0
 30
0.0
  3
*D11
  1

  0
LINE
  5
7564
330
6771
100
AcDbEntity
  8
30
 62
     0
440
 16777216
100
AcDbLine
 10
187.0000000000071
 20
-26.0
 30
0.0
 11
187.0000000000071
 21
-120.5
 31
0.0
  0
LINE
  5
7565
330
6771
100
AcDbEntity
  8
30
 62
     0
440
 16777216
100
AcDbLine
 10
191.0000000000071
 20
-26.0
 30
0.0
 11
191.0000000000071
 21
-120.5
 31
0.0
  0
LINE
  5
7566
330
6771
100
AcDbEntity
  8
30
 62
     0
440
 16777216
100
AcDbLine
 10
185.0000000000071
 20
-120.0
 30
0.0
 11
183.0000000000071
 21
-120.0
 31
0.0
  0
LINE
  5
7567
330
6771
100
AcDbEntity
  8
30
 62
     0
440
 16777216
100
AcDbLine
 10
193.000000000007
 20
-120.0
 30
0.0
 11
199.6666666666738
 21
-120.0
 31
0.0
  0
INSERT
  5
7568
330
6771
100
AcDbEntity
  8
30
 62
     0
440
 16777216
100
AcDbBlockReference
  2
_OPEN
 10
187.0000000000071
 20
-120.0
 30
0.0
 41
2.0
 42
2.0
 43
2.0
  0
INSERT
  5
7569
330
6771
100
AcDbEntity
  8
30
 62
     0
440
 16777216
100
AcDbBlockReference
  2
_OPEN
 10
191.0000000000071
 20
-120.0
 30
0.0
 41
2.0
 42
2.0
 43
2.0
 50
180.0
  0
MTEXT
  5
756A
330
6771
100
AcDbEntity
  8
30
 62
     0
440
 16777216
100
AcDbMText
 10
197.3333333333406
 20
-117.0
 30
0.0
 40
4.0
 41
0.0
 46
0.0
 71
     5
 72
     1
  1
\A1;4
 73
     1
 44
1.0
1001
ACAD
1000
MTEXTBEGIN
1070
    73
1070
     1
1070
    44
1040
1.0
1070
    74
1070
     0
1000
MTEXTEND
  0
POINT
  5
756B
330
6771
100
AcDbEntity
  8
DEFPOINTS
 62
     0
440
 16777216
100
AcDbPoint
 10
187.0000000000071
 20
-25.0
 30
0.0
  0
POINT
  5
756C
330
6771
100
AcDbEntity
  8
DEFPOINTS
 62
     0
440
 16777216
100
AcDbPoint
 10
191.0000000000071
 20
-25.0
 30
0.0
  0
POINT
  5
756D
330
6771
100
AcDbEntity
  8
DEFPOINTS
 62
     0
440
 16777216
100
AcDbPoint
 10
191.0000000000071
 20
-120.0
 30
0.0
  0
ENDBLK
  5
677D
330
6771
100
AcDbEntity
  8
0
100
AcDbBlockEnd
  0
BLOCK
  5
6794
330
678A
100
AcDbEntity
  8
0
100
AcDbBlockBegin
  2
*D12
 70
     1
 10
0.0
 20
0.0
 30
0.0
  3
*D12
  1

  0
LINE
  5
75E4
330
678A
100
AcDbEntity
  8
30
 62
     0
440
 16777216
100
AcDbLine
 10
194.000000000007
 20
51.0
 30
0.0
 11
139.0867219386125
 21
51.00000000000001
 31
0.0
  0
LINE
  5
75E5
330
678A
100
AcDbEntity
  8
30
 62
     0
440
 16777216
100
AcDbLine
 10
194.000000000007
 20
-51.0
 30
0.0
 11
139.0867219386125
 21
-50.99999999999997
 31
0.0
  0
LINE
  5
75E6
330
678A
100
AcDbEntity
  8
30
 62
     0
440
 16777216
100
AcDbLine
 10
139.5867219386127
 20
49.00000000000002
 30
0.0
 11
139.5867219386127
 21
-48.99999999999998
 31
0.0
  0
INSERT
  5
75E7
330
678A
100
AcDbEntity
  8
30
 62
     0
440
 16777216
100
AcDbBlockReference
  2
_OPEN
 10
139.5867219386127
 20
51.00000000000001
 30
0.0
 41
2.0
 42
2.0
 43
2.0
 50
90.0
  0
INSERT
  5
75E8
330
678A
100
AcDbEntity
  8
30
 62
     0
440
 16777216
100
AcDbBlockReference
  2
_OPEN
 10
139.5867219386127
 20
-50.99999999999997
 30
0.0
 41
2.0
 42
2.0
 43
2.0
 50
270.0
  0
MTEXT
  5
75E9
330
678A
100
AcDbEntity
  8
30
 62
     0
440
 16777216
100
AcDbMText
 10
136.5867219386125
 20
0.0000000000000345
 30
0.0
 40
4.0
 41
0.0
 46
0.0
 71
     5
 72
     1
  1
\A1;102
 11
0.0000000000000001
 21
1.0
 31
0.0
 73
     1
 44
1.0
1001
ACAD
1000
MTEXTBEGIN
1070
    73
1070
     1
1070
    44
1040
1.0
1070
    74
1070
     0
1000
MTEXTEND
  0
POINT
  5
75EA
330
678A
100
AcDbEntity
  8
DEFPOINTS
 62
     0
440
 16777216
100
AcDbPoint
 10
195.0000000000071
 20
51.0
 30
0.0
  0
POINT
  5
75EB
330
678A
100
AcDbEntity
  8
DEFPOINTS
 62
     0
440
 16777216
100
AcDbPoint
 10
195.0000000000071
 20
-51.0
 30
0.0
  0
POINT
  5
75EC
330
678A
100
AcDbEntity
  8
DEFPOINTS
 62
     0
440
 16777216
100
AcDbPoint
 10
139.5867219386127
 20
-50.99999999999997
 30
0.0
  0
ENDBLK
  5
6795
330
678A
100
AcDbEntity
  8
0
100
AcDbBlockEnd
  0
BLOCK
  5
67A0
330
6796
100
AcDbEntity
  8
0
100
AcDbBlockBegin
  2
*D13
 70
     1
 10
0.0
 20
0.0
 30
0.0
  3
*D13
  1

  0
LINE
  5
75DB
330
6796
100
AcDbEntity
  8
30
 62
     0
440
 16777216
100
AcDbLine
 10
186.0000000000071
 20
-25.0
 30
0.0
 11
151.5867219386127
 21
-24.99999999999998
 31
0.0
  0
LINE
  5
75DC
330
6796
100
AcDbEntity
  8
30
 62
     0
440
 16777216
100
AcDbLine
 10
186.0000000000071
 20
25.0
 30
0.0
 11
151.5867219386127
 21
25.00000000000001
 31
0.0
  0
LINE
  5
75DD
330
6796
100
AcDbEntity
  8
30
 62
     0
440
 16777216
100
AcDbLine
 10
152.0867219386127
 20
-22.99999999999998
 30
0.0
 11
152.0867219386127
 21
23.00000000000001
 31
0.0
  0
INSERT
  5
75DE
330
6796
100
AcDbEntity
  8
30
 62
     0
440
 16777216
100
AcDbBlockReference
  2
_OPEN
 10
152.0867219386127
 20
-24.99999999999999
 30
0.0
 41
2.0
 42
2.0
 43
2.0
 50
270.0
  0
INSERT
  5
75DF
330
6796
100
AcDbEntity
  8
30
 62
     0
440
 16777216
100
AcDbBlockReference
  2
_OPEN
 10
152.0867219386127
 20
25.00000000000001
 30
0.0
 41
2.0
 42
2.0
 43
2.0
 50
90.0
  0
MTEXT
  5
75E0
330
6796
100
AcDbEntity
  8
30
 62
     0
440
 16777216
100
AcDbMText
 10
149.0867219386125
 20
0.0000000000000372
 30
0.0
 40
4.0
 41
0.0
 46
0.0
 71
     5
 72
     1
  1
\A1;50
 11
0.0000000000000001
 21
1.0
 31
0.0
 73
     1
 44
1.0
1001
ACAD
1000
MTEXTBEGIN
1070
    73
1070
     1
1070
    44
1040
1.0
1070
    74
1070
     0
1000
MTEXTEND
  0
POINT
  5
75E1
330
6796
100
AcDbEntity
  8
DEFPOINTS
 62
     0
440
 16777216
100
AcDbPoint
 10
187.0000000000071
 20
-25.0
 30
0.0
  0
POINT
  5
75E2
330
6796
100
AcDbEntity
  8
DEFPOINTS
 62
     0
440
 16777216
100
AcDbPoint
 10
187.0000000000071
 20
25.0
 30
0.0
  0
POINT
  5
75E3
330
6796
100
AcDbEntity
  8
DEFPOINTS
 62
     0
440
 16777216
100
AcDbPoint
 10
152.0867219386127
 20
25.00000000000001
 30
0.0
  0
ENDBLK
  5
67A1
330
6796
100
AcDbEntity
  8
0
100
AcDbBlockEnd
  0
BLOCK
  5
67AC
330
67A2
100
AcDbEntity
  8
0
100
AcDbBlockBegin
  2
*D14
 70
     1
 10
0.0
 20
0.0
 30
0.0
  3
*D14
  1

  0
LINE
  5
75FF
330
67A2
100
AcDbEntity
  8
30
 62
     0
440
 16777216
100
AcDbLine
 10
338.5000057475845
 20
-79.99998522762599
 30
0.0
 11
358.8367219386126
 21
-79.999985227626
 31
0.0
  0
LINE
  5
7600
330
67A2
100
AcDbEntity
  8
30
 62
     0
440
 16777216
100
AcDbLine
 10
338.5000057475845
 20
80.0000208571164
 30
0.0
 11
358.8367219386126
 21
80.00002085711637
 31
0.0
  0
LINE
  5
7601
330
67A2
100
AcDbEntity
  8
30
 62
     0
440
 16777216
100
AcDbLine
 10
358.3367219386127
 20
-77.99998522762598
 30
0.0
 11
358.3367219386127
 21
78.00002085711637
 31
0.0
  0
INSERT
  5
7602
330
67A2
100
AcDbEntity
  8
30
 62
     0
440
 16777216
100
AcDbBlockReference
  2
_OPEN
 10
358.3367219386127
 20
-79.999985227626
 30
0.0
 41
2.0
 42
2.0
 43
2.0
 50
270.0
  0
INSERT
  5
7603
330
67A2
100
AcDbEntity
  8
30
 62
     0
440
 16777216
100
AcDbBlockReference
  2
_OPEN
 10
358.3367219386127
 20
80.00002085711637
 30
0.0
 41
2.0
 42
2.0
 43
2.0
 50
90.0
  0
MTEXT
  5
7604
330
67A2
100
AcDbEntity
  8
30
 62
     0
440
 16777216
100
AcDbMText
 10
355.3367219386127
 20
0.0000178147452556
 30
0.0
 40
4.0
 41
0.0
 46
0.0
 71
     5
 72
     1
  1
\A1;160
 11
0.0000000000000001
 21
1.0
 31
0.0
 73
     1
 44
1.0
1001
ACAD
1000
MTEXTBEGIN
1070
    73
1070
     1
1070
    44
1040
1.0
1070
    74
1070
     0
1000
MTEXTEND
  0
POINT
  5
7605
330
67A2
100
AcDbEntity
  8
DEFPOINTS
 62
     0
440
 16777216
100
AcDbPoint
 10
337.5000057475844
 20
-79.99998522762599
 30
0.0
  0
POINT
  5
7606
330
67A2
100
AcDbEntity
  8
DEFPOINTS
 62
     0
440
 16777216
100
AcDbPoint
 10
337.5000057475844
 20
80.0000208571164
 30
0.0
  0
POINT
  5
7607
330
67A2
100
AcDbEntity
  8
DEFPOINTS
 62
     0
440
 16777216
100
AcDbPoint
 10
358.3367219386127
 20
80.00002085711637
 30
0.0
  0
ENDBLK
  5
67AD
330
67A2
100
AcDbEntity
  8
0
100
AcDbBlockEnd
  0
BLOCK
  5
67B8
330
67AE
100
AcDbEntity
  8
0
100
AcDbBlockBegin
  2
*D15
 70
     1
 10
0.0
 20
0.0
 30
0.0
  3
*D15
  1

  0
LINE
  5
75F6
330
67AE
100
AcDbEntity
  8
30
 62
     0
440
 16777216
100
AcDbLine
 10
338.5000057475845
 20
-53.9999859042091
 30
0.0
 11
346.3367219386126
 21
-53.9999859042091
 31
0.0
  0
LINE
  5
75F7
330
67AE
100
AcDbEntity
  8
30
 62
     0
440
 16777216
100
AcDbLine
 10
338.5000057475845
 20
54.00000942203586
 30
0.0
 11
346.3367219386126
 21
54.00000942203586
 31
0.0
  0
LINE
  5
75F8
330
67AE
100
AcDbEntity
  8
30
 62
     0
440
 16777216
100
AcDbLine
 10
345.8367219386127
 20
-51.9999859042091
 30
0.0
 11
345.8367219386127
 21
52.00000942203587
 31
0.0
  0
INSERT
  5
75F9
330
67AE
100
AcDbEntity
  8
30
 62
     0
440
 16777216
100
AcDbBlockReference
  2
_OPEN
 10
345.8367219386127
 20
-53.9999859042091
 30
0.0
 41
2.0
 42
2.0
 43
2.0
 50
270.0
  0
INSERT
  5
75FA
330
67AE
100
AcDbEntity
  8
30
 62
     0
440
 16777216
100
AcDbBlockReference
  2
_OPEN
 10
345.8367219386127
 20
54.00000942203586
 30
0.0
 41
2.0
 42
2.0
 43
2.0
 50
90.0
  0
MTEXT
  5
75FB
330
67AE
100
AcDbEntity
  8
30
 62
     0
440
 16777216
100
AcDbMText
 10
342.8367219386127
 20
0.0000117589134452
 30
0.0
 40
4.0
 41
0.0
 46
0.0
 71
     5
 72
     1
  1
\A1;108
 11
0.0000000000000001
 21
1.0
 31
0.0
 73
     1
 44
1.0
1001
ACAD
1000
MTEXTBEGIN
1070
    73
1070
     1
1070
    44
1040
1.0
1070
    74
1070
     0
1000
MTEXTEND
  0
POINT
  5
75FC
330
67AE
100
AcDbEntity
  8
DEFPOINTS
 62
     0
440
 16777216
100
AcDbPoint
 10
337.5000057475844
 20
-53.9999859042091
 30
0.0
  0
POINT
  5
75FD
330
67AE
100
AcDbEntity
  8
DEFPOINTS
 62
     0
440
 16777216
100
AcDbPoint
 10
337.5000057475844
 20
54.00000942203586
 30
0.0
  0
POINT
  5
75FE
330
67AE
100
AcDbEntity
  8
DEFPOINTS
 62
     0
440
 16777216
100
AcDbPoint
 10
345.8367219386127
 20
54.00000942203586
 30
0.0
  0
ENDBLK
  5
67B9
330
67AE
100
AcDbEntity
  8
0
100
AcDbBlockEnd
  0
BLOCK
  5
6A3B
330
6A31
100
AcDbEntity
  8
0
100
AcDbBlockBegin
  2
*D16
 70
     1
 10
0.0
 20
0.0
 30
0.0
  3
*D16
  1

  0
LINE
  5
7540
330
6A31
100
AcDbEntity
  8
30
 62
     0
440
 16777216
100
AcDbLine
 10
30.0
 20
-286.0
 30
0.0
 11
30.0
 21
-368.4994181439515
 31
0.0
  0
LINE
  5
7541
330
6A31
100
AcDbEntity
  8
30
 62
     0
440
 16777216
100
AcDbLine
 10
40.0
 20
-286.0
 30
0.0
 11
40.0
 21
-368.4994181439515
 31
0.0
  0
LINE
  5
7542
330
6A31
100
AcDbEntity
  8
30
 62
     0
440
 16777216
100
AcDbLine
 10
31.99999999999999
 20
-367.9994181439515
 30
0.0
 11
37.99999999999999
 21
-367.9994181439515
 31
0.0
  0
INSERT
  5
7543
330
6A31
100
AcDbEntity
  8
30
 62
     0
440
 16777216
100
AcDbBlockReference
  2
_OPEN
 10
30.0
 20
-367.9994181439515
 30
0.0
 41
2.0
 42
2.0
 43
2.0
 50
180.0
  0
INSERT
  5
7544
330
6A31
100
AcDbEntity
  8
30
 62
     0
440
 16777216
100
AcDbBlockReference
  2
_OPEN
 10
40.0
 20
-367.9994181439515
 30
0.0
 41
2.0
 42
2.0
 43
2.0
  0
MTEXT
  5
7545
330
6A31
100
AcDbEntity
  8
30
 62
     0
440
 16777216
100
AcDbMText
 10
35.0
 20
-364.9994181439515
 30
0.0
 40
4.0
 41
0.0
 46
0.0
 71
     5
 72
     1
  1
\A1;10
 73
     1
 44
1.0
1001
ACAD
1000
MTEXTBEGIN
1070
    73
1070
     1
1070
    44
1040
1.0
1070
    74
1070
     0
1000
MTEXTEND
  0
POINT
  5
7546
330
6A31
100
AcDbEntity
  8
DEFPOINTS
 62
     0
440
 16777216
100
AcDbPoint
 10
30.0
 20
-285.0
 30
0.0
  0
POINT
  5
7547
330
6A31
100
AcDbEntity
  8
DEFPOINTS
 62
     0
440
 16777216
100
AcDbPoint
 10
40.0
 20
-285.0
 30
0.0
  0
POINT
  5
7548
330
6A31
100
AcDbEntity
  8
DEFPOINTS
 62
     0
440
 16777216
100
AcDbPoint
 10
40.0
 20
-367.9994181439515
 30
0.0
  0
ENDBLK
  5
6A3C
330
6A31
100
AcDbEntity
  8
0
100
AcDbBlockEnd
  0
BLOCK
  5
6A47
330
6A3D
100
AcDbEntity
  8
0
100
AcDbBlockBegin
  2
*D17
 70
     1
 10
0.0
 20
0.0
 30
0.0
  3
*D17
  1

  0
LINE
  5
7537
330
6A3D
100
AcDbEntity
  8
30
 62
     0
440
 16777216
100
AcDbLine
 10
-0.0000000000000001
 20
-319.4411051697095
 30
0.0
 11
-0.0000000000000031
 21
-368.4994181439515
 31
0.0
  0
LINE
  5
7538
330
6A3D
100
AcDbEntity
  8
30
 62
     0
440
 16777216
100
AcDbLine
 10
15.0
 20
-301.0000000164997
 30
0.0
 11
14.99999999999999
 21
-368.4994181439515
 31
0.0
  0
LINE
  5
7539
330
6A3D
100
AcDbEntity
  8
30
 62
     0
440
 16777216
100
AcDbLine
 10
1.999999999999995
 20
-367.9994181439515
 30
0.0
 11
12.99999999999999
 21
-367.9994181439515
 31
0.0
  0
INSERT
  5
753A
330
6A3D
100
AcDbEntity
  8
30
 62
     0
440
 16777216
100
AcDbBlockReference
  2
_OPEN
 10
-0.000000000000003
 20
-367.9994181439515
 30
0.0
 41
2.0
 42
2.0
 43
2.0
 50
180.0
  0
INSERT
  5
753B
330
6A3D
100
AcDbEntity
  8
30
 62
     0
440
 16777216
100
AcDbBlockReference
  2
_OPEN
 10
14.99999999999999
 20
-367.9994181439515
 30
0.0
 41
2.0
 42
2.0
 43
2.0
  0
MTEXT
  5
753C
330
6A3D
100
AcDbEntity
  8
30
 62
     0
440
 16777216
100
AcDbMText
 10
7.999999999999997
 20
-364.9994181439515
 30
0.0
 40
4.0
 41
0.0
 46
0.0
 71
     5
 72
     1
  1
\A1;15
 73
     1
 44
1.0
1001
ACAD
1000
MTEXTBEGIN
1070
    73
1070
     1
1070
    44
1040
1.0
1070
    74
1070
     0
1000
MTEXTEND
  0
POINT
  5
753D
330
6A3D
100
AcDbEntity
  8
DEFPOINTS
 62
     0
440
 16777216
100
AcDbPoint
 10
0.0
 20
-318.4411051697093
 30
0.0
  0
POINT
  5
753E
330
6A3D
100
AcDbEntity
  8
DEFPOINTS
 62
     0
440
 16777216
100
AcDbPoint
 10
15.0
 20
-300.0000000164996
 30
0.0
  0
POINT
  5
753F
330
6A3D
100
AcDbEntity
  8
DEFPOINTS
 62
     0
440
 16777216
100
AcDbPoint
 10
14.99999999999999
 20
-367.9994181439515
 30
0.0
  0
ENDBLK
  5
6A48
330
6A3D
100
AcDbEntity
  8
0
100
AcDbBlockEnd
  0
BLOCK
  5
6A53
330
6A49
100
AcDbEntity
  8
0
100
AcDbBlockBegin
  2
*D18
 70
     1
 10
0.0
 20
0.0
 30
0.0
  3
*D18
  1

  0
LINE
  5
751C
330
6A49
100
AcDbEntity
  8
30
 62
     0
440
 16777216
100
AcDbLine
 10
41.0
 20
-285.0
 30
0.0
 11
53.99898166797354
 21
-285.0
 31
0.0
  0
LINE
  5
751D
330
6A49
100
AcDbEntity
  8
30
 62
     0
440
 16777216
100
AcDbLine
 10
41.0
 20
-235.0
 30
0.0
 11
53.99898166797356
 21
-235.0
 31
0.0
  0
LINE
  5
751E
330
6A49
100
AcDbEntity
  8
30
 62
     0
440
 16777216
100
AcDbLine
 10
53.49898166797355
 20
-283.0
 30
0.0
 11
53.49898166797356
 21
-237.0
 31
0.0
  0
INSERT
  5
751F
330
6A49
100
AcDbEntity
  8
30
 62
     0
440
 16777216
100
AcDbBlockReference
  2
_OPEN
 10
53.49898166797355
 20
-285.0
 30
0.0
 41
2.0
 42
2.0
 43
2.0
 50
270.0
  0
INSERT
  5
7520
330
6A49
100
AcDbEntity
  8
30
 62
     0
440
 16777216
100
AcDbBlockReference
  2
_OPEN
 10
53.49898166797356
 20
-235.0
 30
0.0
 41
2.0
 42
2.0
 43
2.0
 50
90.0
  0
MTEXT
  5
7521
330
6A49
100
AcDbEntity
  8
30
 62
     0
440
 16777216
100
AcDbMText
 10
50.4989816679736
 20
-260.0
 30
0.0
 40
4.0
 41
0.0
 46
0.0
 71
     5
 72
     1
  1
\A1;50
 11
0.0000000000000001
 21
1.0
 31
0.0
 73
     1
 44
1.0
1001
ACAD
1000
MTEXTBEGIN
1070
    73
1070
     1
1070
    44
1040
1.0
1070
    74
1070
     0
1000
MTEXTEND
  0
POINT
  5
7522
330
6A49
100
AcDbEntity
  8
DEFPOINTS
 62
     0
440
 16777216
100
AcDbPoint
 10
40.0
 20
-285.0
 30
0.0
  0
POINT
  5
7523
330
6A49
100
AcDbEntity
  8
DEFPOINTS
 62
     0
440
 16777216
100
AcDbPoint
 10
40.0
 20
-235.0
 30
0.0
  0
POINT
  5
7524
330
6A49
100
AcDbEntity
  8
DEFPOINTS
 62
     0
440
 16777216
100
AcDbPoint
 10
53.49898166797356
 20
-235.0
 30
0.0
  0
ENDBLK
  5
6A54
330
6A49
100
AcDbEntity
  8
0
100
AcDbBlockEnd
  0
BLOCK
  5
6A5F
330
6A55
100
AcDbEntity
  8
0
100
AcDbBlockBegin
  2
*D19
 70
     1
 10
0.0
 20
0.0
 30
0.0
  3
*D19
  1

  0
LINE
  5
7513
330
6A55
100
AcDbEntity
  8
30
 62
     0
440
 16777216
100
AcDbLine
 10
18.50000001650187
 20
-297.5
 30
0.0
 11
69.58672249279331
 21
-297.5
 31
0.0
  0
LINE
  5
7514
330
6A55
100
AcDbEntity
  8
30
 62
     0
440
 16777216
100
AcDbLine
 10
18.50000001650187
 20
-222.5
 30
0.0
 11
69.58672249279334
 21
-222.5
 31
0.0
  0
LINE
  5
7515
330
6A55
100
AcDbEntity
  8
30
 62
     0
440
 16777216
100
AcDbLine
 10
69.08672249279331
 20
-295.5
 30
0.0
 11
69.08672249279333
 21
-224.5
 31
0.0
  0
INSERT
  5
7516
330
6A55
100
AcDbEntity
  8
30
 62
     0
440
 16777216
100
AcDbBlockReference
  2
_OPEN
 10
69.08672249279331
 20
-297.5
 30
0.0
 41
2.0
 42
2.0
 43
2.0
 50
270.0
  0
INSERT
  5
7517
330
6A55
100
AcDbEntity
  8
30
 62
     0
440
 16777216
100
AcDbBlockReference
  2
_OPEN
 10
69.08672249279334
 20
-222.5
 30
0.0
 41
2.0
 42
2.0
 43
2.0
 50
90.0
  0
MTEXT
  5
7518
330
6A55
100
AcDbEntity
  8
30
 62
     0
440
 16777216
100
AcDbMText
 10
66.08672249279337
 20
-260.0
 30
0.0
 40
4.0
 41
0.0
 46
0.0
 71
     5
 72
     1
  1
\A1;75
 11
0.0000000000000001
 21
1.0
 31
0.0
 73
     1
 44
1.0
1001
ACAD
1000
MTEXTBEGIN
1070
    73
1070
     1
1070
    44
1040
1.0
1070
    74
1070
     0
1000
MTEXTEND
  0
POINT
  5
7519
330
6A55
100
AcDbEntity
  8
DEFPOINTS
 62
     0
440
 16777216
100
AcDbPoint
 10
17.50000001650187
 20
-297.5
 30
0.0
  0
POINT
  5
751A
330
6A55
100
AcDbEntity
  8
DEFPOINTS
 62
     0
440
 16777216
100
AcDbPoint
 10
17.50000001650187
 20
-222.5
 30
0.0
  0
POINT
  5
751B
330
6A55
100
AcDbEntity
  8
DEFPOINTS
 62
     0
440
 16777216
100
AcDbPoint
 10
69.08672249279334
 20
-222.5
 30
0.0
  0
ENDBLK
  5
6A60
330
6A55
100
AcDbEntity
  8
0
100
AcDbBlockEnd
  0
BLOCK
  5
6A6B
330
6A61
100
AcDbEntity
  8
0
100
AcDbBlockBegin
  2
*D20
 70
     1
 10
0.0
 20
0.0
 30
0.0
  3
*D20
  1

  0
LINE
  5
752E
330
6A61
100
AcDbEntity
  8
30
 62
     0
440
 16777216
100
AcDbLine
 10
18.50000001650187
 20
-297.5
 30
0.0
 11
57.08672249279334
 21
-297.5
 31
0.0
  0
LINE
  5
752F
330
6A61
100
AcDbEntity
  8
30
 62
     0
440
 16777216
100
AcDbLine
 10
46.0
 20
-260.0
 30
0.0
 11
57.08672249279334
 21
-260.0
 31
0.0
  0
LINE
  5
7530
330
6A61
100
AcDbEntity
  8
30
 62
     0
440
 16777216
100
AcDbLine
 10
56.58672249279334
 20
-295.5
 30
0.0
 11
56.58672249279334
 21
-262.0
 31
0.0
  0
INSERT
  5
7531
330
6A61
100
AcDbEntity
  8
30
 62
     0
440
 16777216
100
AcDbBlockReference
  2
_OPEN
 10
56.58672249279334
 20
-297.5
 30
0.0
 41
2.0
 42
2.0
 43
2.0
 50
270.0
  0
INSERT
  5
7532
330
6A61
100
AcDbEntity
  8
30
 62
     0
440
 16777216
100
AcDbBlockReference
  2
_OPEN
 10
56.58672249279334
 20
-260.0
 30
0.0
 41
2.0
 42
2.0
 43
2.0
 50
90.0
  0
MTEXT
  5
7533
330
6A61
100
AcDbEntity
  8
30
 62
     0
440
 16777216
100
AcDbMText
 10
53.58672249279337
 20
-278.75
 30
0.0
 40
4.0
 41
0.0
 46
0.0
 71
     5
 72
     1
  1
\A1;37.5
 11
0.0000000000000001
 21
1.0
 31
0.0
 73
     1
 44
1.0
1001
ACAD
1000
MTEXTBEGIN
1070
    73
1070
     1
1070
    44
1040
1.0
1070
    74
1070
     0
1000
MTEXTEND
  0
POINT
  5
7534
330
6A61
100
AcDbEntity
  8
DEFPOINTS
 62
     0
440
 16777216
100
AcDbPoint
 10
17.50000001650187
 20
-297.5
 30
0.0
  0
POINT
  5
7535
330
6A61
100
AcDbEntity
  8
DEFPOINTS
 62
     0
440
 16777216
100
AcDbPoint
 10
45.0
 20
-260.0
 30
0.0
  0
POINT
  5
7536
330
6A61
100
AcDbEntity
  8
DEFPOINTS
 62
     0
440
 16777216
100
AcDbPoint
 10
56.58672249279334
 20
-260.0
 30
0.0
  0
ENDBLK
  5
6A6C
330
6A61
100
AcDbEntity
  8
0
100
AcDbBlockEnd
  0
BLOCK
  5
6E83
330
6E79
100
AcDbEntity
  8
0
100
AcDbBlockBegin
  2
*D21
 70
     1
 10
0.0
 20
0.0
 30
0.0
  3
*D21
  1

  0
LINE
  5
75AE
330
6E79
100
AcDbEntity
  8
30
 62
     0
440
 16777216
100
AcDbLine
 10
299.1041177097286
 20
-295.8593533752837
 30
0.0
 11
299.1041177097286
 21
-311.5
 31
0.0
  0
LINE
  5
75AF
330
6E79
100
AcDbEntity
  8
30
 62
     0
440
 16777216
100
AcDbLine
 10
314.1041177097286
 20
-295.8593533752837
 30
0.0
 11
314.1041177097286
 21
-311.5
 31
0.0
  0
LINE
  5
75B0
330
6E79
100
AcDbEntity
  8
30
 62
     0
440
 16777216
100
AcDbLine
 10
301.1041177097286
 20
-311.0
 30
0.0
 11
312.1041177097286
 21
-311.0
 31
0.0
  0
INSERT
  5
75B1
330
6E79
100
AcDbEntity
  8
30
 62
     0
440
 16777216
100
AcDbBlockReference
  2
_OPEN
 10
299.1041177097286
 20
-311.0
 30
0.0
 41
2.0
 42
2.0
 43
2.0
 50
180.0
  0
INSERT
  5
75B2
330
6E79
100
AcDbEntity
  8
30
 62
     0
440
 16777216
100
AcDbBlockReference
  2
_OPEN
 10
314.1041177097286
 20
-311.0
 30
0.0
 41
2.0
 42
2.0
 43
2.0
  0
MTEXT
  5
75B3
330
6E79
100
AcDbEntity
  8
30
 62
     0
440
 16777216
100
AcDbMText
 10
306.6041177097285
 20
-308.0
 30
0.0
 40
4.0
 41
0.0
 46
0.0
 71
     5
 72
     1
  1
\A1;15
 73
     1
 44
1.0
1001
ACAD
1000
MTEXTBEGIN
1070
    73
1070
     1
1070
    44
1040
1.0
1070
    74
1070
     0
1000
MTEXTEND
  0
POINT
  5
75B4
330
6E79
100
AcDbEntity
  8
DEFPOINTS
 62
     0
440
 16777216
100
AcDbPoint
 10
299.1041177097286
 20
-294.8593533752837
 30
0.0
  0
POINT
  5
75B5
330
6E79
100
AcDbEntity
  8
DEFPOINTS
 62
     0
440
 16777216
100
AcDbPoint
 10
314.1041177097286
 20
-294.8593533752837
 30
0.0
  0
POINT
  5
75B6
330
6E79
100
AcDbEntity
  8
DEFPOINTS
 62
     0
440
 16777216
100
AcDbPoint
 10
314.1041177097286
 20
-311.0
 30
0.0
  0
ENDBLK
  5
6E84
330
6E79
100
AcDbEntity
  8
0
100
AcDbBlockEnd
  0
BLOCK
  5
7178
330
716E
100
AcDbEntity
  8
0
100
AcDbBlockBegin
  2
*D22
 70
     1
 10
0.0
 20
0.0
 30
0.0
  3
*D22
  1

  0
LINE
  5
7525
330
716E
100
AcDbEntity
  8
30
 62
     0
440
 16777216
100
AcDbLine
 10
15.0
 20
-311.0
 30
0.0
 11
14.99999999999999
 21
-368.4994181439515
 31
0.0
  0
LINE
  5
7526
330
716E
100
AcDbEntity
  8
30
 62
     0
440
 16777216
100
AcDbLine
 10
30.0
 20
-286.0
 30
0.0
 11
30.0
 21
-368.4994181439515
 31
0.0
  0
LINE
  5
7527
330
716E
100
AcDbEntity
  8
30
 62
     0
440
 16777216
100
AcDbLine
 10
16.99999999999999
 20
-367.9994181439515
 30
0.0
 11
27.99999999999998
 21
-367.9994181439515
 31
0.0
  0
INSERT
  5
7528
330
716E
100
AcDbEntity
  8
30
 62
     0
440
 16777216
100
AcDbBlockReference
  2
_OPEN
 10
14.99999999999999
 20
-367.9994181439515
 30
0.0
 41
2.0
 42
2.0
 43
2.0
 50
180.0
  0
INSERT
  5
7529
330
716E
100
AcDbEntity
  8
30
 62
     0
440
 16777216
100
AcDbBlockReference
  2
_OPEN
 10
30.0
 20
-367.9994181439515
 30
0.0
 41
2.0
 42
2.0
 43
2.0
  0
MTEXT
  5
752A
330
716E
100
AcDbEntity
  8
30
 62
     0
440
 16777216
100
AcDbMText
 10
22.49999999999999
 20
-364.9994181439515
 30
0.0
 40
4.0
 41
0.0
 46
0.0
 71
     5
 72
     1
  1
\A1;15
 73
     1
 44
1.0
1001
ACAD
1000
MTEXTBEGIN
1070
    73
1070
     1
1070
    44
1040
1.0
1070
    74
1070
     0
1000
MTEXTEND
  0
POINT
  5
752B
330
716E
100
AcDbEntity
  8
DEFPOINTS
 62
     0
440
 16777216
100
AcDbPoint
 10
15.0
 20
-310.0
 30
0.0
  0
POINT
  5
752C
330
716E
100
AcDbEntity
  8
DEFPOINTS
 62
     0
440
 16777216
100
AcDbPoint
 10
30.0
 20
-285.0
 30
0.0
  0
POINT
  5
752D
330
716E
100
AcDbEntity
  8
DEFPOINTS
 62
     0
440
 16777216
100
AcDbPoint
 10
30.0
 20
-367.9994181439515
 30
0.0
  0
ENDBLK
  5
7179
330
716E
100
AcDbEntity
  8
0
100
AcDbBlockEnd
  0
BLOCK
  5
71C6
330
71BC
100
AcDbEntity
  8
0
100
AcDbBlockBegin
  2
*D23
 70
     1
 10
0.0
 20
0.0
 30
0.0
  3
*D23
  1

  0
LINE
  5
75D2
330
71BC
100
AcDbEntity
  8
30
 62
     0
440
 16777216
100
AcDbLine
 10
241.0000033600013
 20
17.0
 30
0.0
 11
241.0000033600013
 21
103.4999999999999
 31
0.0
  0
LINE
  5
75D3
330
71BC
100
AcDbEntity
  8
30
 62
     0
440
 16777216
100
AcDbLine
 10
267.9999917214511
 20
82.99998424391469
 30
0.0
 11
267.9999917214511
 21
103.4999999999999
 31
0.0
  0
LINE
  5
75D4
330
71BC
100
AcDbEntity
  8
30
 62
     0
440
 16777216
100
AcDbLine
 10
243.0000033600013
 20
103.0
 30
0.0
 11
265.9999917214511
 21
103.0
 31
0.0
  0
INSERT
  5
75D5
330
71BC
100
AcDbEntity
  8
30
 62
     0
440
 16777216
100
AcDbBlockReference
  2
_OPEN
 10
241.0000033600013
 20
103.0
 30
0.0
 41
2.0
 42
2.0
 43
2.0
 50
180.0
  0
INSERT
  5
75D6
330
71BC
100
AcDbEntity
  8
30
 62
     0
440
 16777216
100
AcDbBlockReference
  2
_OPEN
 10
267.9999917214511
 20
103.0
 30
0.0
 41
2.0
 42
2.0
 43
2.0
  0
MTEXT
  5
75D7
330
71BC
100
AcDbEntity
  8
30
 62
     0
440
 16777216
100
AcDbMText
 10
254.4999975407263
 20
106.0
 30
0.0
 40
4.0
 41
0.0
 46
0.0
 71
     5
 72
     1
  1
\A1;27
 73
     1
 44
1.0
1001
ACAD
1000
MTEXTBEGIN
1070
    73
1070
     1
1070
    44
1040
1.0
1070
    74
1070
     0
1000
MTEXTEND
  0
POINT
  5
75D8
330
71BC
100
AcDbEntity
  8
DEFPOINTS
 62
     0
440
 16777216
100
AcDbPoint
 10
241.0000033600013
 20
16.0
 30
0.0
  0
POINT
  5
75D9
330
71BC
100
AcDbEntity
  8
DEFPOINTS
 62
     0
440
 16777216
100
AcDbPoint
 10
267.9999917214511
 20
81.9999842439147
 30
0.0
  0
POINT
  5
75DA
330
71BC
100
AcDbEntity
  8
DEFPOINTS
 62
     0
440
 16777216
100
AcDbPoint
 10
267.9999917214511
 20
103.0
 30
0.0
  0
ENDBLK
  5
71C7
330
71BC
100
AcDbEntity
  8
0
100
AcDbBlockEnd
  0
BLOCK
  5
71D3
330
71C9
100
AcDbEntity
  8
0
100
AcDbBlockBegin
  2
*D24
 70
     1
 10
0.0
 20
0.0
 30
0.0
  3
*D24
  1

  0
LINE
  5
75C9
330
71C9
100
AcDbEntity
  8
30
 62
     0
440
 16777216
100
AcDbLine
 10
311.000000614258
 20
55.00000942203588
 30
0.0
 11
311.000000614258
 21
103.4999999999999
 31
0.0
  0
LINE
  5
75CA
330
71C9
100
AcDbEntity
  8
30
 62
     0
440
 16777216
100
AcDbLine
 10
267.9999917214511
 20
82.99998424391469
 30
0.0
 11
267.9999917214511
 21
103.4999999999999
 31
0.0
  0
LINE
  5
75CB
330
71C9
100
AcDbEntity
  8
30
 62
     0
440
 16777216
100
AcDbLine
 10
309.0000006142581
 20
103.0
 30
0.0
 11
269.9999917214511
 21
103.0
 31
0.0
  0
INSERT
  5
75CC
330
71C9
100
AcDbEntity
  8
30
 62
     0
440
 16777216
100
AcDbBlockReference
  2
_OPEN
 10
311.000000614258
 20
103.0
 30
0.0
 41
2.0
 42
2.0
 43
2.0
  0
INSERT
  5
75CD
330
71C9
100
AcDbEntity
  8
30
 62
     0
440
 16777216
100
AcDbBlockReference
  2
_OPEN
 10
267.9999917214511
 20
103.0
 30
0.0
 41
2.0
 42
2.0
 43
2.0
 50
180.0
  0
MTEXT
  5
75CE
330
71C9
100
AcDbEntity
  8
30
 62
     0
440
 16777216
100
AcDbMText
 10
289.4999961678546
 20
106.0
 30
0.0
 40
4.0
 41
0.0
 46
0.0
 71
     5
 72
     1
  1
\A1;43
 73
     1
 44
1.0
1001
ACAD
1000
MTEXTBEGIN
1070
    73
1070
     1
1070
    44
1040
1.0
1070
    74
1070
     0
1000
MTEXTEND
  0
POINT
  5
75CF
330
71C9
100
AcDbEntity
  8
DEFPOINTS
 62
     0
440
 16777216
100
AcDbPoint
 10
311.000000614258
 20
54.00000942203586
 30
0.0
  0
POINT
  5
75D0
330
71C9
100
AcDbEntity
  8
DEFPOINTS
 62
     0
440
 16777216
100
AcDbPoint
 10
267.9999917214511
 20
81.9999842439147
 30
0.0
  0
POINT
  5
75D1
330
71C9
100
AcDbEntity
  8
DEFPOINTS
 62
     0
440
 16777216
100
AcDbPoint
 10
267.9999917214511
 20
103.0
 30
0.0
  0
ENDBLK
  5
71D4
330
71C9
100
AcDbEntity
  8
0
100
AcDbBlockEnd
  0
BLOCK
  5
71F2
330
71E8
100
AcDbEntity
  8
0
100
AcDbBlockBegin
  2
*D25
 70
     1
 10
0.0
 20
0.0
 30
0.0
  3
*D25
  1

  0
LINE
  5
75C0
330
71E8
100
AcDbEntity
  8
30
 62
     0
440
 16777216
100
AcDbLine
 10
269.0000033600012
 20
20.0
 30
0.0
 11
336.5
 21
19.99999999999998
 31
0.0
  0
LINE
  5
75C1
330
71E8
100
AcDbEntity
  8
30
 62
     0
440
 16777216
100
AcDbLine
 10
269.0000033600012
 20
-20.0
 30
0.0
 11
336.5
 21
-20.00000000000001
 31
0.0
  0
LINE
  5
75C2
330
71E8
100
AcDbEntity
  8
30
 62
     0
440
 16777216
100
AcDbLine
 10
336.0
 20
17.99999999999998
 30
0.0
 11
336.0
 21
-18.00000000000001
 31
0.0
  0
INSERT
  5
75C3
330
71E8
100
AcDbEntity
  8
30
 62
     0
440
 16777216
100
AcDbBlockReference
  2
_OPEN
 10
336.0
 20
19.99999999999998
 30
0.0
 41
2.0
 42
2.0
 43
2.0
 50
90.0
  0
INSERT
  5
75C4
330
71E8
100
AcDbEntity
  8
30
 62
     0
440
 16777216
100
AcDbBlockReference
  2
_OPEN
 10
336.0
 20
-20.00000000000001
 30
0.0
 41
2.0
 42
2.0
 43
2.0
 50
270.0
  0
MTEXT
  5
75C5
330
71E8
100
AcDbEntity
  8
30
 62
     0
440
 16777216
100
AcDbMText
 10
333.0
 20
0.0000000000000366
 30
0.0
 40
4.0
 41
0.0
 46
0.0
 71
     5
 72
     1
  1
\A1;40
 11
0.0000000000000001
 21
1.0
 31
0.0
 73
     1
 44
1.0
1001
ACAD
1000
MTEXTBEGIN
1070
    73
1070
     1
1070
    44
1040
1.0
1070
    74
1070
     0
1000
MTEXTEND
  0
POINT
  5
75C6
330
71E8
100
AcDbEntity
  8
DEFPOINTS
 62
     0
440
 16777216
100
AcDbPoint
 10
268.0000033600013
 20
20.0
 30
0.0
  0
POINT
  5
75C7
330
71E8
100
AcDbEntity
  8
DEFPOINTS
 62
     0
440
 16777216
100
AcDbPoint
 10
268.0000033600013
 20
-20.0
 30
0.0
  0
POINT
  5
75C8
330
71E8
100
AcDbEntity
  8
DEFPOINTS
 62
     0
440
 16777216
100
AcDbPoint
 10
336.0
 20
-20.00000000000001
 30
0.0
  0
ENDBLK
  5
71F3
330
71E8
100
AcDbEntity
  8
0
100
AcDbBlockEnd
  0
BLOCK
  5
7200
330
71F5
100
AcDbEntity
  8
0
100
AcDbBlockBegin
  2
*D26
 70
     1
 10
0.0
 20
0.0
 30
0.0
  3
*D26
  1

  0
LINE
  5
74FF
330
71F5
100
AcDbEntity
  8
30
 62
     0
440
 16777216
100
AcDbLine
 10
45.0
 20
-21.0
 30
0.0
 11
44.99999999999999
 21
-110.4999999999999
 31
0.0
  0
LINE
  5
7500
330
71F5
100
AcDbEntity
  8
30
 62
     0
440
 16777216
100
AcDbLine
 10
49.5
 20
-21.0
 30
0.0
 11
49.49999999999999
 21
-110.4999999999999
 31
0.0
  0
LINE
  5
7501
330
71F5
100
AcDbEntity
  8
30
 62
     0
440
 16777216
100
AcDbLine
 10
42.99999999999999
 20
-110.0
 30
0.0
 11
40.99999999999999
 21
-110.0
 31
0.0
  0
LINE
  5
7502
330
71F5
100
AcDbEntity
  8
30
 62
     0
440
 16777216
100
AcDbLine
 10
51.49999999999999
 20
-110.0
 30
0.0
 11
63.49999999999999
 21
-110.0
 31
0.0
  0
LINE
  5
7503
330
71F5
100
AcDbEntity
  8
30
 62
     0
440
 16777216
100
AcDbLine
 10
44.99999999999999
 20
-110.0
 30
0.0
 11
49.49999999999999
 21
-110.0
 31
0.0
  0
INSERT
  5
7504
330
71F5
100
AcDbEntity
  8
30
 62
     0
440
 16777216
100
AcDbBlockReference
  2
_OPEN
 10
44.99999999999999
 20
-110.0
 30
0.0
 41
2.0
 42
2.0
 43
2.0
  0
INSERT
  5
7505
330
71F5
100
AcDbEntity
  8
30
 62
     0
440
 16777216
100
AcDbBlockReference
  2
_OPEN
 10
49.49999999999999
 20
-110.0
 30
0.0
 41
2.0
 42
2.0
 43
2.0
 50
180.0
  0
MTEXT
  5
7506
330
71F5
100
AcDbEntity
  8
30
 62
     0
440
 16777216
100
AcDbMText
 10
58.49999999999999
 20
-107.0
 30
0.0
 40
4.0
 41
0.0
 46
0.0
 71
     5
 72
     1
  1
\A1;4.5
 73
     1
 44
1.0
1001
ACAD
1000
MTEXTBEGIN
1070
    73
1070
     1
1070
    44
1040
1.0
1070
    74
1070
     0
1000
MTEXTEND
  0
POINT
  5
7507
330
71F5
100
AcDbEntity
  8
DEFPOINTS
 62
     0
440
 16777216
100
AcDbPoint
 10
45.0
 20
-20.0
 30
0.0
  0
POINT
  5
7508
330
71F5
100
AcDbEntity
  8
DEFPOINTS
 62
     0
440
 16777216
100
AcDbPoint
 10
49.5
 20
-20.0
 30
0.0
  0
POINT
  5
7509
330
71F5
100
AcDbEntity
  8
DEFPOINTS
 62
     0
440
 16777216
100
AcDbPoint
 10
49.49999999999999
 20
-110.0
 30
0.0
  0
ENDBLK
  5
7201
330
71F5
100
AcDbEntity
  8
0
100
AcDbBlockEnd
  0
BLOCK
  5
723D
330
7238
100
AcDbEntity
  8
TOP
  6
Continuous
 62
     5
100
AcDbBlockBegin
  2
*U27
 70
     1
 10
0.0
 20
0.0
 30
0.0
  3
*U27
  1

  0
LINE
  5
7239
330
7238
100
AcDbEntity
  8
1
  6
ByBlock
 62
     0
100
AcDbLine
 10
254.3376338823787
 20
261.5236736210198
 30
0.0
 11
242.6970088823785
 21
261.5236736210198
 31
0.0
  0
LINE
  5
723A
330
7238
100
AcDbEntity
  8
1
  6
ByBlock
 62
     0
100
AcDbLine
 10
230.4050843973201
 20
276.8009320202328
 30
0.0
 11
242.6970088823785
 21
261.5236736210198
 31
0.0
  0
SOLID
  5
723B
330
7238
100
AcDbEntity
  8
1
  6
ByBlock
 62
     0
100
AcDbTrace
 10
230.4050843973201
 20
276.8009320202328
 30
0.0
 11
231.9185376475764
 21
275.4516468670254
 31
0.0
 12
231.399123368144
 22
275.0337314968454
 32
0.0
 13
231.399123368144
 23
275.0337314968454
 33
0.0
  0
TEXT
  5
723C
330
7238
100
AcDbEntity
  8
TOP
  6
ByBlock
 62
     0
100
AcDbText
 10
242.6970088823785
 20
261.7736736210198
 30
0.0
 40
2.5
  1
M6 nut
 41
0.8216911764705923
  7
UGMTXT
100
AcDbText
  0
ENDBLK
  5
723E
330
7238
100
AcDbEntity
  8
0
100
AcDbBlockEnd
  0
BLOCK
  5
734F
330
7345
100
AcDbEntity
  8
0
100
AcDbBlockBegin
  2
*D28
 70
     1
 10
0.0
 20
0.0
 30
0.0
  3
*D28
  1

  0
LINE
  5
75A5
330
7345
100
AcDbEntity
  8
30
 62
     0
440
 16777216
100
AcDbLine
 10
177.197397149971
 20
-272.0459469224769
 30
0.0
 11
177.197397149971
 21
-312.2191782662091
 31
0.0
  0
LINE
  5
75A6
330
7345
100
AcDbEntity
  8
30
 62
     0
440
 16777216
100
AcDbLine
 10
201.3974009636449
 20
-278.0459466902744
 30
0.0
 11
201.3974009636449
 21
-312.2191782662091
 31
0.0
  0
LINE
  5
75A7
330
7345
100
AcDbEntity
  8
30
 62
     0
440
 16777216
100
AcDbLine
 10
179.1973971499712
 20
-311.7191782662091
 30
0.0
 11
199.3974009636449
 21
-311.7191782662091
 31
0.0
  0
INSERT
  5
75A8
330
7345
100
AcDbEntity
  8
30
 62
     0
440
 16777216
100
AcDbBlockReference
  2
_OPEN
 10
177.197397149971
 20
-311.7191782662091
 30
0.0
 41
2.0
 42
2.0
 43
2.0
 50
180.0
  0
INSERT
  5
75A9
330
7345
100
AcDbEntity
  8
30
 62
     0
440
 16777216
100
AcDbBlockReference
  2
_OPEN
 10
201.3974009636449
 20
-311.7191782662091
 30
0.0
 41
2.0
 42
2.0
 43
2.0
  0
MTEXT
  5
75AA
330
7345
100
AcDbEntity
  8
30
 62
     0
440
 16777216
100
AcDbMText
 10
189.2973990568081
 20
-308.719178266209
 30
0.0
 40
4.0
 41
0.0
 46
0.0
 71
     5
 72
     1
  1
\A1;24.2
 73
     1
 44
1.0
1001
ACAD
1000
MTEXTBEGIN
1070
    73
1070
     1
1070
    44
1040
1.0
1070
    74
1070
     0
1000
MTEXTEND
  0
POINT
  5
75AB
330
7345
100
AcDbEntity
  8
DEFPOINTS
 62
     0
440
 16777216
100
AcDbPoint
 10
177.197397149971
 20
-271.0459469224768
 30
0.0
  0
POINT
  5
75AC
330
7345
100
AcDbEntity
  8
DEFPOINTS
 62
     0
440
 16777216
100
AcDbPoint
 10
201.3974009636449
 20
-277.0459466902745
 30
0.0
  0
POINT
  5
75AD
330
7345
100
AcDbEntity
  8
DEFPOINTS
 62
     0
440
 16777216
100
AcDbPoint
 10
201.3974009636449
 20
-311.7191782662091
 30
0.0
  0
ENDBLK
  5
7350
330
7345
100
AcDbEntity
  8
0
100
AcDbBlockEnd
  0
BLOCK
  5
735B
330
7351
100
AcDbEntity
  8
0
100
AcDbBlockBegin
  2
*D29
 70
     1
 10
0.0
 20
0.0
 30
0.0
  3
*D29
  1

  0
LINE
  5
759C
330
7351
100
AcDbEntity
  8
30
 62
     0
440
 16777216
100
AcDbLine
 10
196.1974007386124
 20
-258.0459410909349
 30
0.0
 11
196.1974007386124
 21
-328.8858456541344
 31
0.0
  0
LINE
  5
759D
330
7351
100
AcDbEntity
  8
30
 62
     0
440
 16777216
100
AcDbLine
 10
223.1974007386124
 20
-257.5459473710572
 30
0.0
 11
223.1974007386124
 21
-328.8858456541344
 31
0.0
  0
LINE
  5
759E
330
7351
100
AcDbEntity
  8
30
 62
     0
440
 16777216
100
AcDbLine
 10
198.1974007386124
 20
-328.3858456541344
 30
0.0
 11
221.1974007386124
 21
-328.3858456541344
 31
0.0
  0
INSERT
  5
759F
330
7351
100
AcDbEntity
  8
30
 62
     0
440
 16777216
100
AcDbBlockReference
  2
_OPEN
 10
196.1974007386124
 20
-328.3858456541344
 30
0.0
 41
2.0
 42
2.0
 43
2.0
 50
180.0
  0
INSERT
  5
75A0
330
7351
100
AcDbEntity
  8
30
 62
     0
440
 16777216
100
AcDbBlockReference
  2
_OPEN
 10
223.1974007386124
 20
-328.3858456541344
 30
0.0
 41
2.0
 42
2.0
 43
2.0
  0
MTEXT
  5
75A1
330
7351
100
AcDbEntity
  8
30
 62
     0
440
 16777216
100
AcDbMText
 10
209.6974007386124
 20
-325.3858456541343
 30
0.0
 40
4.0
 41
0.0
 46
0.0
 71
     5
 72
     1
  1
\A1;27
 73
     1
 44
1.0
1001
ACAD
1000
MTEXTBEGIN
1070
    73
1070
     1
1070
    44
1040
1.0
1070
    74
1070
     0
1000
MTEXTEND
  0
POINT
  5
75A2
330
7351
100
AcDbEntity
  8
DEFPOINTS
 62
     0
440
 16777216
100
AcDbPoint
 10
196.1974007386124
 20
-257.045941090935
 30
0.0
  0
POINT
  5
75A3
330
7351
100
AcDbEntity
  8
DEFPOINTS
 62
     0
440
 16777216
100
AcDbPoint
 10
223.1974007386124
 20
-256.545947371057
 30
0.0
  0
POINT
  5
75A4
330
7351
100
AcDbEntity
  8
DEFPOINTS
 62
     0
440
 16777216
100
AcDbPoint
 10
223.1974007386124
 20
-328.3858456541344
 30
0.0
  0
ENDBLK
  5
735C
330
7351
100
AcDbEntity
  8
0
100
AcDbBlockEnd
  0
BLOCK
  5
7368
330
735D
100
AcDbEntity
  8
0
100
AcDbBlockBegin
  2
*D30
 70
     1
 10
0.0
 20
0.0
 30
0.0
  3
*D30
  1

  0
LINE
  5
7592
330
735D
100
AcDbEntity
  8
30
 62
     0
440
 16777216
100
AcDbLine
 10
196.1974007386124
 20
-258.0459410909349
 30
0.0
 11
196.1974007386124
 21
-295.552510878284
 31
0.0
  0
LINE
  5
7593
330
735D
100
AcDbEntity
  8
30
 62
     0
440
 16777216
100
AcDbLine
 10
201.3974009636449
 20
-278.0459466902744
 30
0.0
 11
201.3974009636449
 21
-295.552510878284
 31
0.0
  0
LINE
  5
7594
330
735D
100
AcDbEntity
  8
30
 62
     0
440
 16777216
100
AcDbLine
 10
194.1974007386123
 20
-295.052510878284
 30
0.0
 11
192.1974007386124
 21
-295.052510878284
 31
0.0
  0
LINE
  5
7595
330
735D
100
AcDbEntity
  8
30
 62
     0
440
 16777216
100
AcDbLine
 10
203.3974009636449
 20
-295.052510878284
 30
0.0
 11
215.3974009636449
 21
-295.052510878284
 31
0.0
  0
INSERT
  5
7596
330
735D
100
AcDbEntity
  8
30
 62
     0
440
 16777216
100
AcDbBlockReference
  2
_OPEN
 10
196.1974007386124
 20
-295.052510878284
 30
0.0
 41
2.0
 42
2.0
 43
2.0
  0
INSERT
  5
7597
330
735D
100
AcDbEntity
  8
30
 62
     0
440
 16777216
100
AcDbBlockReference
  2
_OPEN
 10
201.3974009636449
 20
-295.052510878284
 30
0.0
 41
2.0
 42
2.0
 43
2.0
 50
180.0
  0
MTEXT
  5
7598
330
735D
100
AcDbEntity
  8
30
 62
     0
440
 16777216
100
AcDbMText
 10
210.3974009636448
 20
-292.052510878284
 30
0.0
 40
4.0
 41
0.0
 46
0.0
 71
     5
 72
     1
  1
\A1;5.2
 73
     1
 44
1.0
1001
ACAD
1000
MTEXTBEGIN
1070
    73
1070
     1
1070
    44
1040
1.0
1070
    74
1070
     0
1000
MTEXTEND
  0
POINT
  5
7599
330
735D
100
AcDbEntity
  8
DEFPOINTS
 62
     0
440
 16777216
100
AcDbPoint
 10
196.1974007386124
 20
-257.045941090935
 30
0.0
  0
POINT
  5
759A
330
735D
100
AcDbEntity
  8
DEFPOINTS
 62
     0
440
 16777216
100
AcDbPoint
 10
201.3974009636449
 20
-277.0459466902745
 30
0.0
  0
POINT
  5
759B
330
735D
100
AcDbEntity
  8
DEFPOINTS
 62
     0
440
 16777216
100
AcDbPoint
 10
201.3974009636449
 20
-295.052510878284
 30
0.0
  0
ENDBLK
  5
7369
330
735D
100
AcDbEntity
  8
0
100
AcDbBlockEnd
  0
ENDSEC
  0
SECTION
  2
ENTITIES
  0
DIMENSION
  5
BD8
330
1E
100
AcDbEntity
  8
30
100
AcDbDimension
280
     0
  2
*D1
 10
323.2021826079416
 20
-284.8593533752837
 30
0.0
 11
323.2021826079417
 21
-284.8593533752837
 31
0.0
 70
   160
  1
max10
 71
     5
 42
-1.0
 73
     0
 74
     0
 75
     0
  3
STANDARD
100
AcDbAlignedDimension
 13
314.1041177097286
 23
-294.8593533752837
 33
0.0
 14
315.1041177097285
 24
-284.8593533752837
 34
0.0
 50
90.0
100
AcDbRotatedDimension
  0
MTEXT
  5
BF3
330
1E
100
AcDbEntity
  8
24
  6
Continuous
100
AcDbMText
 10
142.1181906098743
 20
177.5
 30
0.0
 40
3.0
 41
0.0
 46
0.0
 71
     1
 72
     1
  1
\A1;
 73
     1
 44
1.0
1001
ACAD
1000
MTEXTBEGIN
1070
    73
1070
     1
1070
    44
1040
1.0
1070
    74
1070
     0
1000
MTEXTEND
  0
TEXT
  5
BF4
330
1E
100
AcDbEntity
  8
30
100
AcDbText
 10
320.0978220781312
 20
-306.3032880643961
 30
0.0
 40
4.0
  1
%%C6.5
100
AcDbText
  0
LEADER
  5
C4F
330
1E
100
AcDbEntity
  8
30
100
AcDbLeader
  3
STANDARD
 76
     3
 10
306.8541177097285
 20
-285.8593533752837
 30
0.0
 10
317.8541177097286
 20
-307.8593533752837
 30
0.0
 10
329.8541177097285
 20
-307.8593533752837
 30
0.0
1001
ACAD
1000
DSTYLE
1002
{
1070
     5
1000
OPEN
1070
   342
1005
3B2
1002
}
  0
LINE
  5
2260
330
1E
100
AcDbEntity
  8
16
100
AcDbLine
 10
92.26416272116694
 20
-260.0
 30
0.0
 11
-31.60868885537144
 21
-260.0
 31
0.0
  0
LINE
  5
2261
330
1E
100
AcDbEntity
  8
16
100
AcDbLine
 10
0.0
 20
-318.4411051697093
 30
0.0
 11
0.0
 21
-177.2499999999799
 31
0.0
  0
TEXT
  5
4977
330
1E
100
AcDbEntity
  8
30
100
AcDbText
 10
24.30990602563986
 20
-202.6896589982217
 30
0.0
 40
5.0
  1
%%c6
100
AcDbText
  0
MTEXT
  5
4B2E
330
1E
100
AcDbEntity
  8
30
  6
Continuous
 62
     2
100
AcDbMText
 10
268.061460244221
 20
-10.61653703766022
 30
0.0
 40
4.0
 41
0.0
 46
0.0
 71
     1
 72
     1
  1
 
 73
     1
 44
1.0
1001
ACAD
1000
MTEXTBEGIN
1070
    73
1070
     1
1070
    44
1040
1.0
1070
    74
1070
     0
1000
MTEXTEND
  0
LWPOLYLINE
  5
5803
330
1E
100
AcDbEntity
  8
16
100
AcDbPolyline
 90
        2
 70
     0
 43
0.001
 10
0.0
 20
109.9505615234199
 10
0.0
 20
-121.91400146485
  0
LINE
  5
5938
330
1E
100
AcDbEntity
  8
16
100
AcDbLine
 10
73.58329095406677
 20
0.0
 30
0.0
 11
-44.17658291715567
 21
0.0
 31
0.0
  0
LEADER
  5
5DE5
330
1E
100
AcDbEntity
  8
30
100
AcDbLeader
  3
STANDARD
 76
     3
 10
18.33250471314653
 20
-219.819579491114
 30
0.0
 10
21.07653568015297
 20
-205.0302348442181
 30
0.0
 10
34.64932376570499
 20
-205.0302348442181
 30
0.0
1001
ACAD
1000
DSTYLE
1002
{
1070
     5
1000
OPEN
1070
    77
1070
     0
1070
   147
1040
1.0
1002
}
  0
LINE
  5
5E0A
330
1E
100
AcDbEntity
  8
16
100
AcDbLine
 10
304.5913216207948
 20
0.0
 30
0.0
 11
126.8314477495726
 21
0.0
 31
0.0
  0
DIMENSION
  5
6056
330
1E
100
AcDbEntity
  8
30
100
AcDbDimension
280
     0
  2
*D2
 10
45.0
 20
-110.0
 30
0.0
 11
15.0
 21
-107.0
 31
0.0
 70
    32
 71
     5
 42
-1.0
 73
     0
 74
     0
 75
     0
  3
STANDARD
100
AcDbAlignedDimension
 13
-15.0
 23
-77.5
 33
0.0
 14
45.0
 24
-77.5
 34
0.0
 50
180.0
100
AcDbRotatedDimension
  0
LINE
  5
605E
330
1E
100
AcDbEntity
  8
10
100
AcDbLine
 10
18.50000224451648
 20
-86.19999731769713
 30
0.0
 11
20.00000756256486
 21
-88.79807331226993
 31
0.0
  0
LINE
  5
605F
330
1E
100
AcDbEntity
  8
10
100
AcDbLine
 10
10.00000036945857
 20
-88.79807331226993
 30
0.0
 11
11.50000568750692
 21
-86.19999731769713
 31
0.0
  0
CIRCLE
  5
606C
330
1E
100
AcDbEntity
  8
10
100
AcDbCircle
 10
14.99999791017762
 20
-89.9999954486457
 30
0.0
 40
2.250000028793264
  0
ARC
  5
606D
330
1E
100
AcDbEntity
  8
10
100
AcDbCircle
 10
19.00000805441957
 20
-93.99999499518072
 30
0.0
 40
0.9999999812562155
100
AcDbArc
 50
270.0
 51
0.0
  0
ARC
  5
606E
330
1E
100
AcDbEntity
  8
10
100
AcDbCircle
 10
10.99999987759656
 20
-93.99999499518072
 30
0.0
 40
0.9999999812562155
100
AcDbArc
 50
180.0
 51
270.0
  0
LINE
  5
6073
330
1E
100
AcDbEntity
  8
10
100
AcDbLine
 10
11.75000999304756
 20
-89.9999954486457
 30
0.0
 11
18.25001005063676
 21
-89.9999954486457
 31
0.0
  0
LINE
  5
6074
330
1E
100
AcDbEntity
  8
10
100
AcDbLine
 10
15.00001002183853
 20
-86.74999541985242
 30
0.0
 11
15.00001002183853
 21
-93.24999547743892
 31
0.0
  0
LINE
  5
6081
330
1E
100
AcDbEntity
  8
10
100
AcDbLine
 10
19.00000805441957
 20
-94.99999601728314
 30
0.0
 11
10.99999987759656
 21
-94.99999601728314
 31
0.0
  0
LINE
  5
6085
330
1E
100
AcDbEntity
  8
10
100
AcDbLine
 10
20.00000756256486
 20
-88.79807331226993
 30
0.0
 11
20.00000756256486
 21
-93.99999499518072
 31
0.0
  0
LINE
  5
6086
330
1E
100
AcDbEntity
  8
10
100
AcDbLine
 10
10.00000036945857
 20
-93.99999499518072
 30
0.0
 11
10.00000036945857
 21
-88.79807331226993
 31
0.0
  0
LINE
  5
6087
330
1E
100
AcDbEntity
  8
10
100
AcDbLine
 10
10.0101862785741
 20
-88.8007984365886
 30
0.0
 11
10.00000036945857
 21
-88.79807331226993
 31
0.0
  0
DIMENSION
  5
608B
330
1E
100
AcDbEntity
  8
30
100
AcDbDimension
280
     0
  2
*D3
 10
76.79437799518201
 20
85.00000325826205
 30
0.0
 11
73.79437799518197
 21
0.0000041891271493
 31
0.0
 70
    32
 71
     5
 42
-1.0
 73
     0
 74
     0
 75
     0
  3
STANDARD
100
AcDbAlignedDimension
 13
41.24999143870809
 23
-84.99999488000776
 33
0.0
 14
41.24999143870809
 24
85.00000325826205
 34
0.0
 50
270.0
100
AcDbRotatedDimension
  0
DIMENSION
  5
608C
330
1E
100
AcDbEntity
  8
30
100
AcDbDimension
280
     0
  2
*D4
 10
64.29437799518201
 20
77.5
 30
0.0
 11
61.29437799518199
 21
0.0000000000000106
 31
0.0
 70
    32
 71
     5
 42
-1.0
 73
     0
 74
     0
 75
     0
  3
STANDARD
100
AcDbAlignedDimension
 13
45.0
 23
-77.5
 33
0.0
 14
45.0
 24
77.5
 34
0.0
 50
270.0
100
AcDbRotatedDimension
  0
LINE
  5
608D
330
1E
100
AcDbEntity
  8
10
100
AcDbLine
 10
42.0
 20
25.0
 30
0.0
 11
42.0
 21
-25.0
 31
0.0
  0
LINE
  5
608E
330
1E
100
AcDbEntity
  8
10
100
AcDbLine
 10
-12.0
 20
25.0
 30
0.0
 11
-12.0
 21
-25.0
 31
0.0
  0
LINE
  5
6090
330
1E
100
AcDbEntity
  8
10
100
AcDbLine
 10
7.0
 20
-18.5
 30
0.0
 11
7.0
 21
20.15486870581026
 31
0.0
  0
LINE
  5
6091
330
1E
100
AcDbEntity
  8
10
100
AcDbLine
 10
-7.0
 20
-18.5
 30
0.0
 11
-7.0
 21
20.15486870581026
 31
0.0
  0
LINE
  5
6094
330
1E
100
AcDbEntity
  8
10
100
AcDbLine
 10
-11.0
 20
25.0
 30
0.0
 11
-11.0
 21
-25.0
 31
0.0
  0
LINE
  5
6095
330
1E
100
AcDbEntity
  8
10
100
AcDbLine
 10
11.0
 20
25.0
 30
0.0
 11
11.0
 21
-25.0
 31
0.0
  0
LINE
  5
6099
330
1E
100
AcDbEntity
  8
10
100
AcDbLine
 10
45.0
 20
-77.5
 30
0.0
 11
45.0
 21
77.5
 31
0.0
  0
LINE
  5
609A
330
1E
100
AcDbEntity
  8
10
100
AcDbLine
 10
-15.0
 20
77.5
 30
0.0
 11
-15.0
 21
-77.5
 31
0.0
  0
ARC
  5
60A3
330
1E
100
AcDbEntity
  8
10
100
AcDbCircle
 10
-14.49999704773654
 20
-84.49999512593556
 30
0.0
 40
0.499999990628108
100
AcDbArc
 50
180.0
 51
270.0
  0
CIRCLE
  5
60A4
330
1E
100
AcDbEntity
  8
12
100
AcDbCircle
 10
-15.0
 20
-65.99999999999955
 30
0.0
 40
3.999999999999996
210
0.0
220
0.0
230
-1.0
  0
ARC
  5
60AA
330
1E
100
AcDbEntity
  8
10
100
AcDbCircle
 10
-33.75
 20
-66.0
 30
0.0
 40
4.999999999999995
210
0.0
220
0.0
230
-1.0
100
AcDbArc
 50
90.0
 51
180.0
  0
ARC
  5
60AB
330
1E
100
AcDbEntity
  8
10
100
AcDbCircle
 10
-26.25
 20
-66.0
 30
0.0
 40
4.999999999999995
210
0.0
220
0.0
230
-1.0
100
AcDbArc
 50
0.0
 51
90.0
  0
CIRCLE
  5
60AC
330
1E
100
AcDbEntity
  8
24
100
AcDbCircle
 10
30.0
 20
-67.0
 30
0.0
 40
4.999999999999995
  0
ARC
  5
60AF
330
1E
100
AcDbEntity
  8
10
100
AcDbCircle
 10
-3.75
 20
-66.0
 30
0.0
 40
4.999999999999995
210
0.0
220
0.0
230
-1.0
100
AcDbArc
 50
90.0
 51
180.0
  0
ARC
  5
60B0
330
1E
100
AcDbEntity
  8
10
100
AcDbCircle
 10
3.75
 20
-66.0
 30
0.0
 40
4.999999999999995
210
0.0
220
0.0
230
-1.0
100
AcDbArc
 50
0.0
 51
90.0
  0
CIRCLE
  5
60B1
330
1E
100
AcDbEntity
  8
24
100
AcDbCircle
 10
0.0
 20
-67.0
 30
0.0
 40
4.999999999999995
  0
LINE
  5
60CB
330
1E
100
AcDbEntity
  8
10
100
AcDbLine
 10
-11.74999537242547
 20
-77.99999529508159
 30
0.0
 11
-11.74999537242547
 21
-77.50000035274661
 31
0.0
  0
LINE
  5
60D6
330
1E
100
AcDbEntity
  8
10
100
AcDbLine
 10
17.50000273637124
 20
-84.99999488000776
 30
0.0
 11
42.50000255164195
 21
-84.99999488000776
 31
0.0
  0
LINE
  5
60D9
330
1E
100
AcDbEntity
  8
10
100
AcDbLine
 10
18.48982844706188
 20
-86.20272244201533
 30
0.0
 11
18.50000224451648
 21
-86.19999731769713
 31
0.0
  0
LINE
  5
60DA
330
1E
100
AcDbEntity
  8
10
100
AcDbLine
 10
18.50000224451648
 20
-84.99999488000776
 30
0.0
 11
18.50000224451648
 21
-86.19999731769713
 31
0.0
  0
LINE
  5
60DB
330
1E
100
AcDbEntity
  8
10
100
AcDbLine
 10
11.51017948496155
 20
-86.20272244201533
 30
0.0
 11
11.50000568750692
 21
-86.19999731769713
 31
0.0
  0
LINE
  5
60DC
330
1E
100
AcDbEntity
  8
10
100
AcDbLine
 10
11.50000568750692
 20
-86.19999731769713
 30
0.0
 11
11.50000568750692
 21
-84.99999488000776
 31
0.0
  0
LINE
  5
60DD
330
1E
100
AcDbEntity
  8
10
100
AcDbLine
 10
-14.99999680180916
 20
-84.49950875583999
 30
0.0
 11
-14.99999680180916
 21
-77.99999529508159
 31
0.0
  0
LINE
  5
60DF
330
1E
100
AcDbEntity
  8
10
100
AcDbLine
 10
-14.49999704773654
 20
-84.99999488000776
 30
0.0
 11
12.50000783965515
 21
-84.99999488000776
 31
0.0
  0
LINE
  5
60E1
330
1E
100
AcDbEntity
  8
10
100
AcDbLine
 10
-14.99999680180916
 20
-77.99999529508159
 30
0.0
 11
-11.74999537242547
 21
-77.99999529508159
 31
0.0
  0
LINE
  5
60E2
330
1E
100
AcDbEntity
  8
10
100
AcDbLine
 10
-12.0
 20
-25.0
 30
0.0
 11
42.0
 21
-25.0
 31
0.0
  0
LINE
  5
60E3
330
1E
100
AcDbEntity
  8
12
100
AcDbLine
 10
15.0
 20
-60.5
 30
0.0
 11
15.0
 21
-71.49999999999955
 31
0.0
  0
LINE
  5
60E5
330
1E
100
AcDbEntity
  8
10
100
AcDbLine
 10
7.0
 20
6.840789306861553
 30
0.0
 11
-7.0
 21
6.840789306861553
 31
0.0
  0
LINE
  5
60E6
330
1E
100
AcDbEntity
  8
10
100
AcDbLine
 10
-7.0
 20
-18.5
 30
0.0
 11
7.0
 21
-18.5
 31
0.0
  0
LINE
  5
60E8
330
1E
100
AcDbEntity
  8
12
100
AcDbLine
 10
9.5
 20
-65.99999999999955
 30
0.0
 11
20.5
 21
-65.99999999999955
 31
0.0
  0
LINE
  5
60F3
330
1E
100
AcDbEntity
  8
10
100
AcDbLine
 10
-15.0
 20
-51.0
 30
0.0
 11
45.0
 21
-51.0
 31
0.0
  0
LINE
  5
60F4
330
1E
100
AcDbEntity
  8
17
100
AcDbLine
 10
23.0
 20
-67.0
 30
0.0
 11
37.0
 21
-67.0
 31
0.0
  0
LINE
  5
60F5
330
1E
100
AcDbEntity
  8
17
100
AcDbLine
 10
30.0
 20
-74.0
 30
0.0
 11
30.0
 21
-60.0
 31
0.0
  0
LINE
  5
60F6
330
1E
100
AcDbEntity
  8
10
100
AcDbLine
 10
38.75
 20
-66.0
 30
0.0
 11
38.75
 21
-77.5
 31
0.0
  0
LINE
  5
60F7
330
1E
100
AcDbEntity
  8
10
100
AcDbLine
 10
33.75
 20
-61.0
 30
0.0
 11
26.25
 21
-61.0
 31
0.0
  0
LINE
  5
60F8
330
1E
100
AcDbEntity
  8
10
100
AcDbLine
 10
21.25
 20
-66.0
 30
0.0
 11
21.25
 21
-77.5
 31
0.0
  0
LINE
  5
60FE
330
1E
100
AcDbEntity
  8
17
100
AcDbLine
 10
-7.0
 20
-67.0
 30
0.0
 11
7.0
 21
-67.0
 31
0.0
  0
LINE
  5
60FF
330
1E
100
AcDbEntity
  8
10
100
AcDbLine
 10
8.75
 20
-66.0
 30
0.0
 11
8.75
 21
-77.5
 31
0.0
  0
LINE
  5
6100
330
1E
100
AcDbEntity
  8
10
100
AcDbLine
 10
3.75
 20
-61.0
 30
0.0
 11
-3.75
 21
-61.0
 31
0.0
  0
LINE
  5
6101
330
1E
100
AcDbEntity
  8
10
100
AcDbLine
 10
-8.75
 20
-66.0
 30
0.0
 11
-8.75
 21
-77.5
 31
0.0
  0
LINE
  5
6115
330
1E
100
AcDbEntity
  8
10
100
AcDbLine
 10
-15.0
 20
-77.5
 30
0.0
 11
45.0
 21
-77.5
 31
0.0
  0
DIMENSION
  5
6116
330
1E
100
AcDbEntity
  8
30
100
AcDbDimension
280
     0
  2
*D5
 10
42.0
 20
32.59950840067995
 30
0.0
 11
15.0
 21
35.59950840067996
 31
0.0
 70
    32
 71
     5
 42
-1.0
 73
     0
 74
     0
 75
     0
  3
STANDARD
100
AcDbAlignedDimension
 13
-12.0
 23
25.0
 33
0.0
 14
42.0
 24
25.0
 34
0.0
100
AcDbRotatedDimension
  0
ARC
  5
6122
330
1E
100
AcDbEntity
  8
10
100
AcDbCircle
 10
44.50001103559043
 20
79.49999990763626
 30
0.0
 40
0.499999990628108
100
AcDbArc
 50
0.0
 51
90.0
  0
ARC
  5
6126
330
1E
100
AcDbEntity
  8
10
100
AcDbCircle
 10
19.00000805441957
 20
93.99999883156125
 30
0.0
 40
0.9999999812562155
100
AcDbArc
 50
0.0
 51
90.0
  0
CIRCLE
  5
6127
330
1E
100
AcDbEntity
  8
10
100
AcDbCircle
 10
14.99999791017762
 20
90.00000079898383
 30
0.0
 40
2.250000028793264
  0
ARC
  5
6129
330
1E
100
AcDbEntity
  8
10
100
AcDbCircle
 10
10.99999987759656
 20
93.99999883156125
 30
0.0
 40
0.9999999812562155
100
AcDbArc
 50
90.0
 51
180.0
  0
ARC
  5
612C
330
1E
100
AcDbEntity
  8
10
100
AcDbCircle
 10
-14.49999704773654
 20
84.49999744835805
 30
0.0
 40
0.499999990628108
100
AcDbArc
 50
90.0
 51
180.0
  0
CIRCLE
  5
612E
330
1E
100
AcDbEntity
  8
12
100
AcDbCircle
 10
15.0
 20
66.0
 30
0.0
 40
3.999999999999996
  0
ARC
  5
6133
330
1E
100
AcDbEntity
  8
10
100
AcDbCircle
 10
33.75
 20
66.0
 30
0.0
 40
4.999999999999995
100
AcDbArc
 50
270.0
 51
0.0
  0
ARC
  5
6134
330
1E
100
AcDbEntity
  8
10
100
AcDbCircle
 10
26.25
 20
66.0
 30
0.0
 40
4.999999999999995
100
AcDbArc
 50
180.0
 51
270.0
  0
CIRCLE
  5
6135
330
1E
100
AcDbEntity
  8
24
100
AcDbCircle
 10
30.0
 20
67.0
 30
0.0
 40
4.999999999999995
  0
ARC
  5
6138
330
1E
100
AcDbEntity
  8
10
100
AcDbCircle
 10
3.75
 20
66.0
 30
0.0
 40
4.999999999999995
100
AcDbArc
 50
270.0
 51
0.0
  0
ARC
  5
6139
330
1E
100
AcDbEntity
  8
10
100
AcDbCircle
 10
-3.75
 20
66.0
 30
0.0
 40
4.999999999999995
100
AcDbArc
 50
180.0
 51
270.0
  0
CIRCLE
  5
613A
330
1E
100
AcDbEntity
  8
24
100
AcDbCircle
 10
0.0
 20
67.0
 30
0.0
 40
4.999999999999995
  0
LINE
  5
6147
330
1E
100
AcDbEntity
  8
10
100
AcDbLine
 10
15.00001002183853
 20
93.25000082777659
 30
0.0
 11
15.00001002183853
 21
86.75000077019012
 31
0.0
  0
LINE
  5
614C
330
1E
100
AcDbEntity
  8
10
100
AcDbLine
 10
11.75000999304756
 20
90.00000079898383
 30
0.0
 11
18.25001005063676
 21
90.00000079898383
 31
0.0
  0
LINE
  5
6169
330
1E
100
AcDbEntity
  8
10
100
AcDbLine
 10
45.00000473383259
 20
79.49999990763626
 30
0.0
 11
45.00000473383259
 21
77.49999964725339
 31
0.0
  0
LINE
  5
616A
330
1E
100
AcDbEntity
  8
10
100
AcDbLine
 10
-11.74999537242547
 20
77.49999964725339
 30
0.0
 11
-11.74999537242547
 21
78.00000670125155
 31
0.0
  0
LINE
  5
616B
330
1E
100
AcDbEntity
  8
10
100
AcDbLine
 10
41.75000936027934
 20
81.61125666608951
 30
0.0
 11
41.75000936027934
 21
81.49999892392498
 31
0.0
  0
LINE
  5
616D
330
1E
100
AcDbEntity
  8
10
100
AcDbLine
 10
41.75000936027934
 20
80.00000571754027
 30
0.0
 11
44.50001103559043
 21
80.00000571754027
 31
0.0
  0
LINE
  5
616E
330
1E
100
AcDbEntity
  8
10
100
AcDbLine
 10
-14.99999680180916
 20
78.00000670125155
 30
0.0
 11
-11.74999537242547
 21
78.00000670125155
 31
0.0
  0
LINE
  5
616F
330
1E
100
AcDbEntity
  8
10
100
AcDbLine
 10
41.75000936027934
 20
81.95048014121949
 30
0.0
 11
41.75000936027934
 21
81.89091497945538
 31
0.0
  0
LINE
  5
6170
330
1E
100
AcDbEntity
  8
10
100
AcDbLine
 10
41.75000936027934
 20
81.71694304298126
 30
0.0
 11
41.75000936027934
 21
80.00000571754027
 31
0.0
  0
LINE
  5
6171
330
1E
100
AcDbEntity
  8
10
100
AcDbLine
 10
41.75000936027934
 20
81.81174103426384
 30
0.0
 11
41.75000936027934
 21
81.71694304298126
 31
0.0
  0
LINE
  5
6172
330
1E
100
AcDbEntity
  8
10
100
AcDbLine
 10
41.75000936027934
 20
84.49999744835805
 30
0.0
 11
41.75000936027934
 21
82.00000473382898
 31
0.0
  0
LINE
  5
6173
330
1E
100
AcDbEntity
  8
10
100
AcDbLine
 10
41.75000936027934
 20
81.89091497945538
 30
0.0
 11
41.75000936027934
 21
81.81174103426384
 31
0.0
  0
LINE
  5
6174
330
1E
100
AcDbEntity
  8
10
100
AcDbLine
 10
41.75000936027934
 20
82.00000473382898
 30
0.0
 11
41.75000936027934
 21
81.98746916196524
 31
0.0
  0
LINE
  5
6175
330
1E
100
AcDbEntity
  8
10
100
AcDbLine
 10
41.75000936027934
 20
81.98746916196524
 30
0.0
 11
41.75000936027934
 21
81.95048014121949
 31
0.0
  0
LINE
  5
6179
330
1E
100
AcDbEntity
  8
10
100
AcDbLine
 10
10.99999987759656
 20
95.00001045136924
 30
0.0
 11
19.00000805441957
 21
95.00001045136924
 31
0.0
  0
LINE
  5
617A
330
1E
100
AcDbEntity
  8
10
100
AcDbLine
 10
41.50000304349669
 20
85.00000325826205
 30
0.0
 11
18.50000224451648
 21
85.00000325826205
 31
0.0
  0
LINE
  5
617E
330
1E
100
AcDbEntity
  8
10
100
AcDbLine
 10
20.00000756256486
 20
93.99999883156125
 30
0.0
 11
20.00000756256486
 21
88.79808774635604
 31
0.0
  0
LINE
  5
617F
330
1E
100
AcDbEntity
  8
10
100
AcDbLine
 10
20.00000756256486
 20
88.79808774635604
 30
0.0
 11
18.50000224451648
 21
86.20000266803526
 31
0.0
  0
LINE
  5
6180
330
1E
100
AcDbEntity
  8
10
100
AcDbLine
 10
18.50000224451648
 20
86.20000266803526
 30
0.0
 11
18.50000224451648
 21
85.00000325826205
 31
0.0
  0
LINE
  5
6183
330
1E
100
AcDbEntity
  8
10
100
AcDbLine
 10
10.00000036945857
 20
88.79808774635604
 30
0.0
 11
10.00000036945857
 21
93.99999883156125
 31
0.0
  0
LINE
  5
6184
330
1E
100
AcDbEntity
  8
10
100
AcDbLine
 10
11.50000568750692
 20
85.00000325826205
 30
0.0
 11
11.50000568750692
 21
86.20000266803526
 31
0.0
  0
LINE
  5
6185
330
1E
100
AcDbEntity
  8
10
100
AcDbLine
 10
11.50000568750692
 20
86.20000266803526
 30
0.0
 11
10.00000036945857
 21
88.79808774635604
 31
0.0
  0
LINE
  5
6189
330
1E
100
AcDbEntity
  8
10
100
AcDbLine
 10
-14.49999704773654
 20
85.00000325826205
 30
0.0
 11
11.50000833150988
 21
85.00000325826205
 31
0.0
  0
LINE
  5
618D
330
1E
100
AcDbEntity
  8
10
100
AcDbLine
 10
-14.99999680180916
 20
84.49999744835805
 30
0.0
 11
-14.99999680180916
 21
78.00000670125155
 31
0.0
  0
LINE
  5
619B
330
1E
100
AcDbEntity
  8
12
100
AcDbLine
 10
15.0
 20
71.5
 30
0.0
 11
15.0
 21
60.5
 31
0.0
  0
LINE
  5
619E
330
1E
100
AcDbEntity
  8
10
100
AcDbLine
 10
7.0
 20
15.23995644007664
 30
0.0
 11
-7.0
 21
15.23995644007664
 31
0.0
  0
LINE
  5
619F
330
1E
100
AcDbEntity
  8
10
100
AcDbLine
 10
7.0
 20
20.15486870581026
 30
0.0
 11
-7.0
 21
20.15486870581026
 31
0.0
  0
LINE
  5
61F8
330
1E
100
AcDbEntity
  8
12
100
AcDbLine
 10
9.5
 20
66.0
 30
0.0
 11
20.5
 21
66.0
 31
0.0
  0
LINE
  5
6202
330
1E
100
AcDbEntity
  8
10
100
AcDbLine
 10
-15.0
 20
51.0
 30
0.0
 11
45.0
 21
51.0
 31
0.0
  0
LINE
  5
6203
330
1E
100
AcDbEntity
  8
10
100
AcDbLine
 10
38.75
 20
66.0
 30
0.0
 11
38.75
 21
77.5
 31
0.0
  0
LINE
  5
6204
330
1E
100
AcDbEntity
  8
10
100
AcDbLine
 10
21.25
 20
66.0
 30
0.0
 11
21.25
 21
77.5
 31
0.0
  0
LINE
  5
6205
330
1E
100
AcDbEntity
  8
10
100
AcDbLine
 10
33.75
 20
61.0
 30
0.0
 11
26.25
 21
61.0
 31
0.0
  0
LINE
  5
6206
330
1E
100
AcDbEntity
  8
17
100
AcDbLine
 10
23.0
 20
67.0
 30
0.0
 11
37.0
 21
67.0
 31
0.0
  0
LINE
  5
6207
330
1E
100
AcDbEntity
  8
17
100
AcDbLine
 10
30.0
 20
74.0
 30
0.0
 11
30.0
 21
60.0
 31
0.0
  0
LINE
  5
620D
330
1E
100
AcDbEntity
  8
10
100
AcDbLine
 10
8.75
 20
66.0
 30
0.0
 11
8.75
 21
77.5
 31
0.0
  0
LINE
  5
620E
330
1E
100
AcDbEntity
  8
10
100
AcDbLine
 10
-8.75
 20
66.0
 30
0.0
 11
-8.75
 21
77.5
 31
0.0
  0
LINE
  5
620F
330
1E
100
AcDbEntity
  8
10
100
AcDbLine
 10
3.75
 20
61.0
 30
0.0
 11
-3.75
 21
61.0
 31
0.0
  0
LINE
  5
6210
330
1E
100
AcDbEntity
  8
17
100
AcDbLine
 10
-7.0
 20
67.0
 30
0.0
 11
7.0
 21
67.0
 31
0.0
  0
LINE
  5
6222
330
1E
100
AcDbEntity
  8
10
100
AcDbLine
 10
-12.0
 20
25.0
 30
0.0
 11
42.0
 21
25.0
 31
0.0
  0
LINE
  5
6224
330
1E
100
AcDbEntity
  8
10
100
AcDbLine
 10
45.0
 20
77.5
 30
0.0
 11
-15.0
 21
77.5
 31
0.0
  0
DIMENSION
  5
65A0
330
1E
100
AcDbEntity
  8
30
100
AcDbDimension
280
     0
  2
*D6
 10
337.9999994458192
 20
-110.0
 30
0.0
 11
324.5000000300386
 21
-107.0
 31
0.0
 70
    32
 71
     5
 42
-1.0
 73
     0
 74
     0
 75
     0
  3
STANDARD
100
AcDbAlignedDimension
 13
311.000000614258
 23
-53.9999859042091
 33
0.0
 14
337.9999994458192
 24
-77.99998621133726
 34
0.0
 50
180.0
100
AcDbRotatedDimension
  0
DIMENSION
  5
65A1
330
1E
100
AcDbEntity
  8
30
100
AcDbDimension
280
     0
  2
*D7
 10
263.000000000007
 20
-100.0
 30
0.0
 11
232.5000000000073
 21
-97.0
 31
0.0
 70
    32
 71
     5
 42
-1.0
 73
     0
 74
     0
 75
     0
  3
STANDARD
100
AcDbAlignedDimension
 13
202.0000000000071
 23
-77.5
 33
0.0
 14
263.000000000007
 24
-82.49999005381868
 34
0.0
 50
180.0
100
AcDbRotatedDimension
  0
DIMENSION
  5
65A2
330
1E
100
AcDbEntity
  8
30
100
AcDbDimension
280
     0
  2
*D8
 10
311.000000614258
 20
-130.0
 30
0.0
 11
241.0000003071326
 21
-127.0
 31
0.0
 70
    32
 71
     5
 42
-1.0
 73
     0
 74
     0
 75
     0
  3
STANDARD
100
AcDbAlignedDimension
 13
171.0000000000071
 23
-2.500000016500049
 33
0.0
 14
311.000000614258
 24
-53.9999859042091
 34
0.0
 50
180.0
100
AcDbRotatedDimension
  0
DIMENSION
  5
65A3
330
1E
100
AcDbEntity
  8
30
100
AcDbDimension
280
     0
  2
*D9
 10
311.000000614258
 20
-120.0
 30
0.0
 11
251.0000003071326
 21
-117.0
 31
0.0
 70
    32
 71
     5
 42
-1.0
 73
     0
 74
     0
 75
     0
  3
STANDARD
100
AcDbAlignedDimension
 13
191.0000000000071
 23
-25.0
 33
0.0
 14
311.000000614258
 24
-53.9999859042091
 34
0.0
 50
180.0
100
AcDbRotatedDimension
  0
DIMENSION
  5
65A4
330
1E
100
AcDbEntity
  8
30
100
AcDbDimension
280
     0
  2
*D10
 10
311.000000614258
 20
-110.0
 30
0.0
 11
253.0000003071326
 21
-107.0
 31
0.0
 70
    32
 71
     5
 42
-1.0
 73
     0
 74
     0
 75
     0
  3
STANDARD
100
AcDbAlignedDimension
 13
195.0000000000071
 23
-51.0
 33
0.0
 14
311.000000614258
 24
-53.9999859042091
 34
0.0
 50
180.0
100
AcDbRotatedDimension
  0
DIMENSION
  5
65A5
330
1E
100
AcDbEntity
  8
30
100
AcDbDimension
280
     0
  2
*D11
 10
191.0000000000071
 20
-120.0
 30
0.0
 11
197.3333333333406
 21
-117.0
 31
0.0
 70
    32
 71
     5
 42
-1.0
 73
     0
 74
     0
 75
     0
  3
STANDARD
100
AcDbAlignedDimension
 13
187.0000000000071
 23
-25.0
 33
0.0
 14
191.0000000000071
 24
-25.0
 34
0.0
 50
180.0
100
AcDbRotatedDimension
  0
LINE
  5
65A7
330
1E
100
AcDbEntity
  8
10
100
AcDbLine
 10
291.9999978478518
 20
-86.46794062441404
 30
0.0
 11
291.9999978478518
 21
-84.99998276834777
 31
0.0
  0
LINE
  5
65A8
330
1E
100
AcDbEntity
  8
10
100
AcDbLine
 10
292.0101716453063
 20
-86.42980099562283
 30
0.0
 11
292.040499251052
 21
-86.39244862496797
 31
0.0
  0
LINE
  5
65A9
330
1E
100
AcDbEntity
  8
10
100
AcDbLine
 10
301.9999929292972
 20
-86.19998217812097
 30
0.0
 11
301.9999929292972
 21
-88.79806725644177
 31
0.0
  0
ARC
  5
65AA
330
1E
100
AcDbEntity
  8
10
100
AcDbCircle
 10
293.0000094676578
 20
-93.99999045331059
 30
0.0
 40
0.9999999812562155
100
AcDbArc
 50
180.0
 51
270.0
  0
LINE
  5
65AB
330
1E
100
AcDbEntity
  8
10
100
AcDbLine
 10
291.9999978478518
 20
-86.46794062441404
 30
0.0
 11
292.0101716453063
 21
-86.42980099562283
 31
0.0
  0
LINE
  5
65AC
330
1E
100
AcDbEntity
  8
10
100
AcDbLine
 10
291.9999978478518
 20
-89.06601359107117
 30
0.0
 11
292.0101716453063
 21
-89.02787396227996
 31
0.0
  0
LINE
  5
65AD
330
1E
100
AcDbEntity
  8
10
100
AcDbLine
 10
292.4593690262554
 20
-88.84060341913302
 30
0.0
 11
292.584579404931
 21
-88.82227847205106
 31
0.0
  0
LINE
  5
65AE
330
1E
100
AcDbEntity
  8
10
100
AcDbLine
 10
292.0101716453063
 20
-89.02787396227996
 30
0.0
 11
292.040499251052
 21
-88.99052159162513
 31
0.0
  0
LINE
  5
65AF
330
1E
100
AcDbEntity
  8
10
100
AcDbLine
 10
301.9999929292972
 20
-94.54063089471492
 30
0.0
 11
301.9999929292972
 21
-94.65484388280676
 31
0.0
  0
LINE
  5
65B0
330
1E
100
AcDbEntity
  8
10
100
AcDbLine
 10
301.9999929292972
 20
-94.14230250103901
 30
0.0
 11
301.9999929292972
 21
-94.28171986115831
 31
0.0
  0
LINE
  5
65B1
330
1E
100
AcDbEntity
  8
10
100
AcDbLine
 10
292.8576731966021
 20
-88.80079238075994
 30
0.0
 11
293.0000094676578
 21
-88.79806725644177
 31
0.0
  0
LINE
  5
65B2
330
1E
100
AcDbEntity
  8
10
100
AcDbLine
 10
292.040499251052
 20
-88.99052159162513
 30
0.0
 11
292.090375081905
 21
-88.9547074022521
 31
0.0
  0
LINE
  5
65B3
330
1E
100
AcDbEntity
  8
10
100
AcDbLine
 10
301.9999929292972
 20
-94.84124238617187
 30
0.0
 11
301.9999929292972
 21
-94.90962483906333
 31
0.0
  0
LINE
  5
65B4
330
1E
100
AcDbEntity
  8
10
100
AcDbLine
 10
292.584579404931
 20
-88.82227847205106
 30
0.0
 11
292.7182679481483
 21
-88.80891930706004
 31
0.0
  0
LINE
  5
65B5
330
1E
100
AcDbEntity
  8
10
100
AcDbLine
 10
301.9999929292972
 20
-93.99999045331059
 30
0.0
 11
301.9999929292972
 21
-94.14230250103901
 31
0.0
  0
LINE
  5
65B6
330
1E
100
AcDbEntity
  8
10
100
AcDbLine
 10
291.9999978478518
 20
-93.99999045331059
 30
0.0
 11
291.9999978478518
 21
-89.06601359107117
 31
0.0
  0
LINE
  5
65B7
330
1E
100
AcDbEntity
  8
10
100
AcDbLine
 10
301.9999929292972
 20
-94.959476446591
 30
0.0
 11
301.9999929292972
 21
-94.98980405233671
 31
0.0
  0
LINE
  5
65B8
330
1E
100
AcDbEntity
  8
10
100
AcDbLine
 10
292.1587333114728
 20
-88.92114598231547
 30
0.0
 11
292.2442416567428
 21
-88.8905398083061
 31
0.0
  0
LINE
  5
65B9
330
1E
100
AcDbEntity
  8
10
100
AcDbLine
 10
301.9999929292972
 20
-94.65484388280676
 30
0.0
 11
301.9999929292972
 21
-94.75573404089846
 31
0.0
  0
LINE
  5
65BA
330
1E
100
AcDbEntity
  8
10
100
AcDbLine
 10
301.9999929292972
 20
-94.99998996145494
 30
0.0
 11
293.0000094676578
 21
-94.99998996145494
 31
0.0
  0
LINE
  5
65BB
330
1E
100
AcDbEntity
  8
10
100
AcDbLine
 10
301.9999929292972
 20
-94.28171986115831
 30
0.0
 11
301.9999929292972
 21
-94.41539629271392
 31
0.0
  0
LINE
  5
65BC
330
1E
100
AcDbEntity
  8
10
100
AcDbLine
 10
292.7182679481483
 20
-88.80891930706004
 30
0.0
 11
292.8576731966021
 21
-88.80079238075994
 31
0.0
  0
LINE
  5
65BD
330
1E
100
AcDbEntity
  8
10
100
AcDbLine
 10
292.2442416567428
 20
-88.8905398083061
 30
0.0
 11
292.3451318148361
 21
-88.86350657506952
 31
0.0
  0
LINE
  5
65BE
330
1E
100
AcDbEntity
  8
10
100
AcDbLine
 10
301.9999929292972
 20
-94.90962483906333
 30
0.0
 11
301.9999929292972
 21
-94.959476446591
 31
0.0
  0
LINE
  5
65BF
330
1E
100
AcDbEntity
  8
10
100
AcDbLine
 10
301.9999929292972
 20
-94.75573404089846
 30
0.0
 11
301.9999929292972
 21
-94.84124238617187
 31
0.0
  0
LINE
  5
65C0
330
1E
100
AcDbEntity
  8
10
100
AcDbLine
 10
292.090375081905
 20
-88.9547074022521
 30
0.0
 11
292.1587333114728
 21
-88.92114598231547
 31
0.0
  0
LINE
  5
65C1
330
1E
100
AcDbEntity
  8
10
100
AcDbLine
 10
301.9999929292972
 20
-88.79806725644177
 30
0.0
 11
293.0000094676578
 21
-88.79806725644177
 31
0.0
  0
LINE
  5
65C2
330
1E
100
AcDbEntity
  8
10
100
AcDbLine
 10
292.3451318148361
 20
-88.86350657506952
 30
0.0
 11
292.4593690262554
 21
-88.84060341913302
 31
0.0
  0
LINE
  5
65C3
330
1E
100
AcDbEntity
  8
10
100
AcDbLine
 10
291.9999978478518
 20
-89.06601359107117
 30
0.0
 11
291.9999978478518
 21
-86.46794062441404
 31
0.0
  0
LINE
  5
65C4
330
1E
100
AcDbEntity
  8
10
100
AcDbLine
 10
301.9999929292972
 20
-93.99999045331059
 30
0.0
 11
301.9999929292972
 21
-88.79806725644177
 31
0.0
  0
LINE
  5
65C5
330
1E
100
AcDbEntity
  8
10
100
AcDbLine
 10
301.9999929292972
 20
-94.98980405233671
 30
0.0
 11
301.9999929292972
 21
-94.99998996145494
 31
0.0
  0
LINE
  5
65C6
330
1E
100
AcDbEntity
  8
10
100
AcDbLine
 10
301.9999929292972
 20
-94.41539629271392
 30
0.0
 11
301.9999929292972
 21
-94.54063089471492
 31
0.0
  0
DIMENSION
  5
65C7
330
1E
100
AcDbEntity
  8
30
100
AcDbDimension
280
     0
  2
*D12
 10
139.5867219386127
 20
-50.99999999999997
 30
0.0
 11
136.5867219386125
 21
0.0000000000000345
 31
0.0
 70
    32
 71
     5
 42
-1.0
 73
     0
 74
     0
 75
     0
  3
STANDARD
100
AcDbAlignedDimension
 13
195.0000000000071
 23
51.0
 33
0.0
 14
195.0000000000071
 24
-51.0
 34
0.0
 50
90.0
100
AcDbRotatedDimension
  0
DIMENSION
  5
65C8
330
1E
100
AcDbEntity
  8
30
100
AcDbDimension
280
     0
  2
*D13
 10
152.0867219386127
 20
25.00000000000001
 30
0.0
 11
149.0867219386125
 21
0.0000000000000372
 31
0.0
 70
    32
 71
     5
 42
-1.0
 73
     0
 74
     0
 75
     0
  3
STANDARD
100
AcDbAlignedDimension
 13
187.0000000000071
 23
-25.0
 33
0.0
 14
187.0000000000071
 24
25.0
 34
0.0
 50
90.0
100
AcDbRotatedDimension
  0
DIMENSION
  5
65CC
330
1E
100
AcDbEntity
  8
30
100
AcDbDimension
280
     0
  2
*D14
 10
358.3367219386127
 20
80.00002085711637
 30
0.0
 11
355.3367219386127
 21
0.0000178147452556
 31
0.0
 70
    32
 71
     5
 42
-1.0
 73
     0
 74
     0
 75
     0
  3
STANDARD
100
AcDbAlignedDimension
 13
337.5000057475844
 23
-79.99998522762599
 33
0.0
 14
337.5000057475844
 24
80.0000208571164
 34
0.0
 50
270.0
100
AcDbRotatedDimension
  0
DIMENSION
  5
65CD
330
1E
100
AcDbEntity
  8
30
100
AcDbDimension
280
     0
  2
*D15
 10
345.8367219386127
 20
54.00000942203586
 30
0.0
 11
342.8367219386127
 21
0.0000117589134452
 31
0.0
 70
    32
 71
     5
 42
-1.0
 73
     0
 74
     0
 75
     0
  3
STANDARD
100
AcDbAlignedDimension
 13
337.5000057475844
 23
-53.9999859042091
 33
0.0
 14
337.5000057475844
 24
54.00000942203586
 34
0.0
 50
270.0
100
AcDbRotatedDimension
  0
ARC
  5
65CE
330
1E
100
AcDbEntity
  8
0
100
AcDbCircle
 10
202.0000000000071
 20
-3.500000016500056
 30
0.0
 40
30.99999999999996
100
AcDbArc
 50
150.5534441957493
 51
180.0
  0
LINE
  5
65CF
330
1E
100
AcDbEntity
  8
18
100
AcDbLine
 10
313.5000006142581
 20
49.00000570308474
 30
0.0
 11
313.5000006142581
 21
-48.99999429691526
 31
0.0
  0
LINE
  5
65D0
330
1E
100
AcDbEntity
  8
10
100
AcDbLine
 10
187.0
 20
6.840789306860642
 30
0.0
 11
175.0047462004076
 21
15.23995644007664
 31
0.0
  0
LINE
  5
65D1
330
1E
100
AcDbEntity
  8
10
100
AcDbLine
 10
263.0
 20
77.5
 30
0.0
 11
263.0
 21
-77.5
 31
0.0
  0
LINE
  5
65D2
330
1E
100
AcDbEntity
  8
10
100
AcDbLine
 10
291.5000041496096
 20
-45.49999614081388
 30
0.0
 11
291.5000041496096
 21
45.50001965864065
 31
0.0
  0
LINE
  5
65D3
330
1E
100
AcDbEntity
  8
10
100
AcDbLine
 10
291.0000104513747
 20
45.76386013929732
 30
0.0
 11
291.0000104513747
 21
-45.76383662147054
 31
0.0
  0
LINE
  5
65D4
330
1E
100
AcDbEntity
  8
10
100
AcDbLine
 10
263.0
 20
-9.999983322530168
 30
0.0
 11
263.0
 21
82.49999005381868
 31
0.0
  0
LINE
  5
65D5
330
1E
100
AcDbEntity
  8
10
100
AcDbLine
 10
311.000000614258
 20
54.00000942203586
 30
0.0
 11
311.000000614258
 21
-53.9999859042091
 31
0.0
  0
LINE
  5
65D6
330
1E
100
AcDbEntity
  8
10
100
AcDbLine
 10
191.0
 20
25.0
 30
0.0
 11
191.0
 21
-25.0
 31
0.0
  0
LINE
  5
65D7
330
1E
100
AcDbEntity
  8
10
100
AcDbLine
 10
187.0
 20
25.0
 30
0.0
 11
187.0
 21
-25.0
 31
0.0
  0
LINE
  5
65D8
330
1E
100
AcDbEntity
  8
10
100
AcDbLine
 10
195.0
 20
51.0
 30
0.0
 11
195.0
 21
-51.0
 31
0.0
  0
ARC
  5
65D9
330
1E
100
AcDbEntity
  8
18
100
AcDbCircle
 10
314.5000006142581
 20
-48.99999429691526
 30
0.0
 40
3.499999999999996
100
AcDbArc
 50
180.0
 51
270.0
  0
ARC
  5
65DA
330
1E
100
AcDbEntity
  8
18
100
AcDbCircle
 10
314.5000006142581
 20
-48.99999429691526
 30
0.0
 40
0.9999999999999992
100
AcDbArc
 50
180.0
 51
270.0
  0
ARC
  5
65DB
330
1E
100
AcDbEntity
  8
10
100
AcDbCircle
 10
303.0000045491033
 20
-49.49998206172768
 30
0.0
 40
1.999999962512431
100
AcDbArc
 50
0.0
 51
90.0
  0
ARC
  5
65DC
330
1E
100
AcDbEntity
  8
10
100
AcDbCircle
 10
337.5000057475771
 20
-79.49999152938563
 30
0.0
 40
0.499999990628108
100
AcDbArc
 50
270.0
 51
0.0
  0
ARC
  5
65DD
330
1E
100
AcDbEntity
  8
10
100
AcDbCircle
 10
293.5000031659001
 20
-45.49999614081388
 30
0.0
 40
1.999999962512431
100
AcDbArc
 50
180.0
 51
270.0
  0
ARC
  5
65DE
330
1E
100
AcDbEntity
  8
10
100
AcDbCircle
 10
268.5000033506294
 20
-81.9999842439147
 30
0.0
 40
0.499999990628108
100
AcDbArc
 50
180.0
 51
270.0
  0
ARC
  5
65DF
330
1E
100
AcDbEntity
  8
10
100
AcDbCircle
 10
268.5000033506294
 20
-50.49999368153567
 30
0.0
 40
0.499999990628108
100
AcDbArc
 50
90.0
 51
180.0
  0
ARC
  5
65E0
330
1E
100
AcDbEntity
  8
10
100
AcDbCircle
 10
288.999987211755
 20
-45.76383662147054
 30
0.0
 40
1.999999962512431
100
AcDbArc
 50
280.000000361147
 51
0.0
  0
ARC
  5
65E1
330
1E
100
AcDbEntity
  8
10
100
AcDbCircle
 10
305.499997263636
 20
-79.49999152938563
 30
0.0
 40
0.499999990628108
100
AcDbArc
 50
180.0
 51
270.0
  0
ARC
  5
65E2
330
1E
100
AcDbEntity
  8
10
100
AcDbCircle
 10
267.4999917308229
 20
-81.9999842439147
 30
0.0
 40
0.499999990628108
100
AcDbArc
 50
270.0
 51
0.0
  0
LINE
  5
65E3
330
1E
100
AcDbEntity
  8
12
100
AcDbLine
 10
315.800000614261
 20
-35.41439537367387
 30
0.0
 11
320.5000006142581
 21
-35.41439537367387
 31
0.0
  0
LINE
  5
65E4
330
1E
100
AcDbEntity
  8
12
100
AcDbLine
 10
313.5000006142581
 20
-42.49999429691523
 30
0.0
 11
314.5000006142581
 21
-42.49999429691523
 31
0.0
  0
LINE
  5
65E5
330
1E
100
AcDbEntity
  8
12
100
AcDbLine
 10
314.5000006142581
 20
-32.89999429691488
 30
0.0
 11
315.800000614261
 21
-32.89999429691488
 31
0.0
  0
LINE
  5
65E6
330
1E
100
AcDbEntity
  8
12
100
AcDbLine
 10
320.5000006142581
 20
-33.10499429691481
 30
0.0
 11
320.5000006142581
 21
-41.89499429691522
 31
0.0
  0
LINE
  5
65E7
330
1E
100
AcDbEntity
  8
12
100
AcDbLine
 10
326.0000006142581
 20
-34.99999429691523
 30
0.0
 11
326.0000006142581
 21
-39.99999429691522
 31
0.0
  0
LINE
  5
65E8
330
1E
100
AcDbEntity
  8
12
100
AcDbLine
 10
315.800000614261
 20
-39.58559322015661
 30
0.0
 11
320.5000006142581
 21
-39.58559322015661
 31
0.0
  0
LINE
  5
65E9
330
1E
100
AcDbEntity
  8
12
100
AcDbLine
 10
302.5000006142581
 20
-37.49999429691522
 30
0.0
 11
331.0000006142581
 21
-37.49999429691522
 31
0.0
  0
LINE
  5
65EA
330
1E
100
AcDbEntity
  8
12
100
AcDbLine
 10
314.5000006142581
 20
-32.49999429691523
 30
0.0
 11
314.5000006142581
 21
-42.49999429691523
 31
0.0
  0
LINE
  5
65EB
330
1E
100
AcDbEntity
  8
12
100
AcDbLine
 10
315.800000614261
 20
-41.89499429691522
 30
0.0
 11
320.5000006142581
 21
-41.89499429691522
 31
0.0
  0
LINE
  5
65EC
330
1E
100
AcDbEntity
  8
12
100
AcDbLine
 10
315.800000614261
 20
-33.10499429691481
 30
0.0
 11
320.5000006142581
 21
-33.10499429691481
 31
0.0
  0
LINE
  5
65ED
330
1E
100
AcDbEntity
  8
12
100
AcDbLine
 10
320.5000006142581
 20
-34.99999429691523
 30
0.0
 11
326.0000006142581
 21
-34.99999429691523
 31
0.0
  0
LINE
  5
65EE
330
1E
100
AcDbEntity
  8
12
100
AcDbLine
 10
313.5000006142581
 20
-32.49999429691523
 30
0.0
 11
314.5000006142581
 21
-32.49999429691523
 31
0.0
  0
LINE
  5
65EF
330
1E
100
AcDbEntity
  8
12
100
AcDbLine
 10
315.800000614261
 20
-32.89999429691488
 30
0.0
 11
315.800000614261
 21
-42.09999429691515
 31
0.0
  0
LINE
  5
65F0
330
1E
100
AcDbEntity
  8
12
100
AcDbLine
 10
314.5000006142581
 20
-42.09999429691515
 30
0.0
 11
315.800000614261
 21
-42.09999429691515
 31
0.0
  0
LINE
  5
65F1
330
1E
100
AcDbEntity
  8
18
100
AcDbLine
 10
326.0000006142581
 20
-52.49999429691524
 30
0.0
 11
326.0000006142581
 21
-49.99999429691524
 31
0.0
  0
LINE
  5
65F2
330
1E
100
AcDbEntity
  8
18
100
AcDbLine
 10
314.5000006142581
 20
-49.99999429691524
 30
0.0
 11
326.0000006142581
 21
-49.99999429691524
 31
0.0
  0
LINE
  5
65F3
330
1E
100
AcDbEntity
  8
18
100
AcDbLine
 10
314.5000006142581
 20
-52.49999429691524
 30
0.0
 11
326.0000006142581
 21
-52.49999429691524
 31
0.0
  0
LINE
  5
65F4
330
1E
100
AcDbEntity
  8
10
100
AcDbLine
 10
195.0
 20
-51.0
 30
0.0
 11
202.0
 21
-51.0
 31
0.0
  0
LINE
  5
65F5
330
1E
100
AcDbEntity
  8
17
100
AcDbLine
 10
253.0
 20
-67.00000000000045
 30
0.0
 11
347.9999994458194
 21
-67.00000000000045
 31
0.0
  0
LINE
  5
65F6
330
1E
100
AcDbEntity
  8
10
100
AcDbLine
 10
267.5868323590912
 20
-48.08681737195275
 30
0.0
 11
267.4999917308229
 21
-47.99998885534296
 31
0.0
  0
LINE
  5
65F7
330
1E
100
AcDbEntity
  8
10
100
AcDbLine
 10
268.5974780195754
 20
-49.99998787163168
 30
0.0
 11
268.671819410978
 21
-49.99998787163168
 31
0.0
  0
LINE
  5
65F8
330
1E
100
AcDbEntity
  8
10
100
AcDbLine
 10
269.790937130987
 20
-51.99998688792039
 30
0.0
 11
269.5841668093851
 21
-51.99998688792039
 31
0.0
  0
LINE
  5
65F9
330
1E
100
AcDbEntity
  8
10
100
AcDbLine
 10
263.0
 20
-82.45627905975471
 30
0.0
 11
263.0
 21
-82.40210358830879
 31
0.0
  0
LINE
  5
65FA
330
1E
100
AcDbEntity
  8
10
100
AcDbLine
 10
263.0
 20
-82.23204371918928
 30
0.0
 11
263.0
 21
-82.11802451771564
 31
0.0
  0
LINE
  5
65FB
330
1E
100
AcDbEntity
  8
10
100
AcDbLine
 10
268.000009652387
 20
-80.50000314919362
 30
0.0
 11
268.000009652387
 21
-80.25940495105533
 31
0.0
  0
LINE
  5
65FC
330
1E
100
AcDbEntity
  8
10
100
AcDbLine
 10
268.000009652387
 20
-79.75673457515132
 30
0.0
 11
268.000009652387
 21
-79.49999152938563
 31
0.0
  0
LINE
  5
65FD
330
1E
100
AcDbEntity
  8
10
100
AcDbLine
 10
268.172915762465
 20
-51.99998688792039
 30
0.0
 11
268.0978961178989
 21
-51.99998688792039
 31
0.0
  0
LINE
  5
65FE
330
1E
100
AcDbEntity
  8
10
100
AcDbLine
 10
268.049522133333
 20
-55.24998226147364
 30
0.0
 11
268.1090872950953
 21
-55.24998226147364
 31
0.0
  0
LINE
  5
65FF
330
1E
100
AcDbEntity
  8
10
100
AcDbLine
 10
263.0
 20
-81.67556122174847
 30
0.0
 11
263.0
 21
-81.49999054567434
 31
0.0
  0
LINE
  5
6600
330
1E
100
AcDbEntity
  8
10
100
AcDbLine
 10
337.6709982148021
 20
-54.03014394666389
 30
0.0
 11
337.5868221525233
 21
-54.00757991730916
 31
0.0
  0
LINE
  5
6601
330
1E
100
AcDbEntity
  8
10
100
AcDbLine
 10
291.9999978478518
 20
-82.49999005381868
 30
0.0
 11
291.9999978478518
 21
-84.49998907010741
 31
0.0
  0
LINE
  5
6602
330
1E
100
AcDbEntity
  8
10
100
AcDbLine
 10
268.000009652387
 20
-81.49467352533793
 30
0.0
 11
268.000009652387
 21
-81.6227543682935
 31
0.0
  0
LINE
  5
6603
330
1E
100
AcDbEntity
  8
10
100
AcDbLine
 10
263.0
 20
-80.91580867349692
 30
0.0
 11
263.0
 21
-80.70903835189529
 31
0.0
  0
LINE
  5
6604
330
1E
100
AcDbEntity
  8
10
100
AcDbLine
 10
269.1479046851964
 20
-49.99998787163168
 30
0.0
 11
269.3029097564139
 21
-49.99998787163168
 31
0.0
  0
LINE
  5
6605
330
1E
100
AcDbEntity
  8
10
100
AcDbLine
 10
268.000009652387
 20
-81.95639436648708
 30
0.0
 11
268.000009652387
 21
-81.98904741165097
 31
0.0
  0
LINE
  5
6606
330
1E
100
AcDbEntity
  8
10
100
AcDbLine
 10
270.0000086686776
 20
-51.99998688792039
 30
0.0
 11
269.790937130987
 21
-51.99998688792039
 31
0.0
  0
LINE
  5
6607
330
1E
100
AcDbEntity
  8
10
100
AcDbLine
 10
303.9725953624365
 20
-47.75144540585913
 30
0.0
 11
303.9876622720039
 21
-47.83003799119613
 31
0.0
  0
LINE
  5
6608
330
1E
100
AcDbEntity
  8
10
100
AcDbLine
 10
267.6710084213699
 20
-48.17099343422615
 30
0.0
 11
267.5868323590912
 21
-48.08681737195275
 31
0.0
  0
LINE
  5
6609
330
1E
100
AcDbEntity
  8
10
100
AcDbLine
 10
292.040499251052
 20
-86.39244862496797
 30
0.0
 11
292.090375081905
 21
-86.35662232393135
 31
0.0
  0
LINE
  5
660A
330
1E
100
AcDbEntity
  8
10
100
AcDbLine
 10
295.0000084839483
 20
-84.71693318916369
 30
0.0
 11
295.0000084839483
 21
-84.81173118044626
 31
0.0
  0
LINE
  5
660B
330
1E
100
AcDbEntity
  8
10
100
AcDbLine
 10
291.9999978478518
 20
-84.71693318916369
 30
0.0
 11
291.9999978478518
 21
-84.61124681227195
 31
0.0
  0
LINE
  5
660C
330
1E
100
AcDbEntity
  8
10
100
AcDbLine
 10
295.0000084839483
 20
-84.49998907010741
 30
0.0
 11
295.0000084839483
 21
-84.61124681227195
 31
0.0
  0
LINE
  5
660D
330
1E
100
AcDbEntity
  8
10
100
AcDbLine
 10
295.0000084839483
 20
-84.99998276834777
 30
0.0
 11
291.9999978478518
 21
-84.99998276834777
 31
0.0
  0
LINE
  5
660E
330
1E
100
AcDbEntity
  8
10
100
AcDbLine
 10
263.0
 20
-82.11802451771564
 30
0.0
 11
263.0
 21
-81.98627384067821
 31
0.0
  0
LINE
  5
660F
330
1E
100
AcDbEntity
  8
10
100
AcDbLine
 10
263.0
 20
-82.3270839437446
 30
0.0
 11
263.0
 21
-82.23204371918928
 31
0.0
  0
LINE
  5
6610
330
1E
100
AcDbEntity
  8
10
100
AcDbLine
 10
303.9842225595275
 20
-49.19132842561612
 30
0.0
 11
303.9650861309853
 21
-49.27776936898953
 31
0.0
  0
LINE
  5
6611
330
1E
100
AcDbEntity
  8
10
100
AcDbLine
 10
269.8192057539125
 20
-49.99998787163168
 30
0.0
 11
270.0000086686776
 21
-49.99998787163168
 31
0.0
  0
LINE
  5
6612
330
1E
100
AcDbEntity
  8
10
100
AcDbLine
 10
337.9999994458192
 20
-54.4999917141131
 30
0.0
 11
337.9999994458192
 21
-55.99998492049781
 31
0.0
  0
LINE
  5
6613
330
1E
100
AcDbEntity
  8
10
100
AcDbLine
 10
269.641018958493
 20
-49.99998787163168
 30
0.0
 11
269.8192057539125
 21
-49.99998787163168
 31
0.0
  0
LINE
  5
6614
330
1E
100
AcDbEntity
  8
10
100
AcDbLine
 10
305.0000035653939
 20
-51.99998688792039
 30
0.0
 11
270.0000086686776
 21
-51.99998688792039
 31
0.0
  0
LINE
  5
6615
330
1E
100
AcDbEntity
  8
10
100
AcDbLine
 10
268.000009652387
 20
-81.6227543682935
 30
0.0
 11
268.000009652387
 21
-81.73446024201258
 31
0.0
  0
LINE
  5
6616
330
1E
100
AcDbEntity
  8
10
100
AcDbLine
 10
337.9923933210593
 20
-54.41316319750331
 30
0.0
 11
337.9698414033628
 21
-54.32897502356627
 31
0.0
  0
LINE
  5
6617
330
1E
100
AcDbEntity
  8
10
100
AcDbLine
 10
268.0109585963143
 20
-51.99998688792039
 30
0.0
 11
268.000009652387
 21
-51.99998688792039
 31
0.0
  0
LINE
  5
6618
330
1E
100
AcDbEntity
  8
10
100
AcDbLine
 10
268.6617425068325
 20
-51.99998688792039
 30
0.0
 11
268.5137137538621
 21
-51.99998688792039
 31
0.0
  0
LINE
  5
6619
330
1E
100
AcDbEntity
  8
10
100
AcDbLine
 10
268.1882491286232
 20
-55.24998226147364
 30
0.0
 11
268.2830592315729
 21
-55.24998226147364
 31
0.0
  0
LINE
  5
661A
330
1E
100
AcDbEntity
  8
10
100
AcDbLine
 10
337.9999994458192
 20
-77.99998621133726
 30
0.0
 11
337.9999994458192
 21
-79.49999152938563
 31
0.0
  0
LINE
  5
661B
330
1E
100
AcDbEntity
  8
10
100
AcDbLine
 10
268.000009652387
 20
-81.82816818356789
 30
0.0
 11
268.000009652387
 21
-81.90250957496845
 31
0.0
  0
LINE
  5
661C
330
1E
100
AcDbEntity
  8
10
100
AcDbLine
 10
303.8332870072918
 20
-49.49037751246397
 30
0.0
 11
303.7928824974005
 21
-49.49998206172768
 31
0.0
  0
LINE
  5
661D
330
1E
100
AcDbEntity
  8
10
100
AcDbLine
 10
263.0
 20
-82.49999005381868
 30
0.0
 11
263.0
 21
-82.4890289982277
 31
0.0
  0
LINE
  5
661E
330
1E
100
AcDbEntity
  8
10
100
AcDbLine
 10
269.3819746966328
 20
-51.99998688792039
 30
0.0
 11
269.1865166688728
 21
-51.99998688792039
 31
0.0
  0
LINE
  5
661F
330
1E
100
AcDbEntity
  8
10
100
AcDbLine
 10
267.7500006916015
 20
-48.24998570446314
 30
0.0
 11
267.6710084213699
 21
-48.17099343422615
 31
0.0
  0
LINE
  5
6620
330
1E
100
AcDbEntity
  8
10
100
AcDbLine
 10
268.8244263727974
 20
-51.99998688792039
 30
0.0
 11
268.6617425068325
 21
-51.99998688792039
 31
0.0
  0
LINE
  5
6621
330
1E
100
AcDbEntity
  8
10
100
AcDbLine
 10
268.5109280712276
 20
-49.99998787163168
 30
0.0
 11
268.5435811163916
 21
-49.99998787163168
 31
0.0
  0
LINE
  5
6622
330
1E
100
AcDbEntity
  8
10
100
AcDbLine
 10
268.1090872950953
 20
-55.24998226147364
 30
0.0
 11
268.1882491286232
 21
-55.24998226147364
 31
0.0
  0
LINE
  5
6623
330
1E
100
AcDbEntity
  8
10
100
AcDbLine
 10
268.0978961178989
 20
-51.99998688792039
 30
0.0
 11
268.0437085347874
 21
-51.99998688792039
 31
0.0
  0
LINE
  5
6624
330
1E
100
AcDbEntity
  8
10
100
AcDbLine
 10
303.9650861309853
 20
-49.27776936898953
 30
0.0
 11
303.9393367340961
 21
-49.35353993669924
 31
0.0
  0
LINE
  5
6625
330
1E
100
AcDbEntity
  8
10
100
AcDbLine
 10
303.0000045491033
 20
-47.49998304543896
 30
0.0
 11
293.5000031659001
 21
-47.49998304543896
 31
0.0
  0
LINE
  5
6626
330
1E
100
AcDbEntity
  8
10
100
AcDbLine
 10
292.4593690262554
 20
-86.24251834081222
 30
0.0
 11
292.584579404931
 21
-86.22420550539391
 31
0.0
  0
LINE
  5
6627
330
1E
100
AcDbEntity
  8
10
100
AcDbLine
 10
301.9999929292972
 20
-86.19998217812097
 30
0.0
 11
293.0000094676578
 21
-86.19998217812097
 31
0.0
  0
LINE
  5
6628
330
1E
100
AcDbEntity
  8
10
100
AcDbLine
 10
337.8830249984166
 20
-54.17859660785598
 30
0.0
 11
337.8214008538343
 21
-54.11696035161003
 31
0.0
  0
LINE
  5
6629
330
1E
100
AcDbEntity
  8
10
100
AcDbLine
 10
263.0
 20
-82.40210358830879
 30
0.0
 11
263.0
 21
-82.3270839437446
 31
0.0
  0
LINE
  5
662A
330
1E
100
AcDbEntity
  8
10
100
AcDbLine
 10
291.9999978478518
 20
-84.99998276834777
 30
0.0
 11
291.9999978478518
 21
-84.98744719648403
 31
0.0
  0
LINE
  5
662B
330
1E
100
AcDbEntity
  8
10
100
AcDbLine
 10
291.9999978478518
 20
-84.8909051256378
 30
0.0
 11
291.9999978478518
 21
-84.81173118044626
 31
0.0
  0
LINE
  5
662C
330
1E
100
AcDbEntity
  8
10
100
AcDbLine
 10
292.090375081905
 20
-86.35662232393135
 30
0.0
 11
292.1587333114728
 21
-86.32307301565834
 31
0.0
  0
LINE
  5
662D
330
1E
100
AcDbEntity
  8
10
100
AcDbLine
 10
295.0000084839483
 20
-84.8909051256378
 30
0.0
 11
295.0000084839483
 21
-84.95047028740193
 31
0.0
  0
LINE
  5
662E
330
1E
100
AcDbEntity
  8
10
100
AcDbLine
 10
268.000009652387
 20
-80.49999103752998
 30
0.0
 11
268.000009652387
 21
-80.68079395229506
 31
0.0
  0
LINE
  5
662F
330
1E
100
AcDbEntity
  8
10
100
AcDbLine
 10
303.9968913596966
 20
-47.91371747526045
 30
0.0
 11
303.9999919455876
 21
-47.99998885534296
 31
0.0
  0
LINE
  5
6630
330
1E
100
AcDbEntity
  8
10
100
AcDbLine
 10
269.4680886250935
 20
-49.99998787163168
 30
0.0
 11
269.641018958493
 21
-49.99998787163168
 31
0.0
  0
LINE
  5
6631
330
1E
100
AcDbEntity
  8
10
100
AcDbLine
 10
292.2442416567428
 20
-86.292466841649
 30
0.0
 11
292.3451318148361
 21
-86.26543360841242
 31
0.0
  0
LINE
  5
6632
330
1E
100
AcDbEntity
  8
10
100
AcDbLine
 10
263.0
 20
-80.70903835189529
 30
0.0
 11
263.0
 21
-77.5
 31
0.0
  0
LINE
  5
6633
330
1E
100
AcDbEntity
  8
10
100
AcDbLine
 10
268.7655152408696
 20
-49.99998787163168
 30
0.0
 11
268.8772332262524
 21
-49.99998787163168
 31
0.0
  0
LINE
  5
6634
330
1E
100
AcDbEntity
  8
10
100
AcDbLine
 10
291.9999978478518
 20
-84.95047028740193
 30
0.0
 11
291.9999978478518
 21
-84.8909051256378
 31
0.0
  0
LINE
  5
6635
330
1E
100
AcDbEntity
  8
10
100
AcDbLine
 10
295.0000084839483
 20
-84.98744719648403
 30
0.0
 11
295.0000084839483
 21
-84.99998276834777
 31
0.0
  0
LINE
  5
6636
330
1E
100
AcDbEntity
  8
10
100
AcDbLine
 10
295.0000084839483
 20
-84.95047028740193
 30
0.0
 11
295.0000084839483
 21
-84.98744719648403
 31
0.0
  0
LINE
  5
6637
330
1E
100
AcDbEntity
  8
10
100
AcDbLine
 10
303.9079433019503
 20
-49.41572121780883
 30
0.0
 11
303.8721412242375
 21
-49.46192721458192
 31
0.0
  0
LINE
  5
6638
330
1E
100
AcDbEntity
  8
10
100
AcDbLine
 10
292.7182679481483
 20
-86.21084634040292
 30
0.0
 11
292.8576731966021
 21
-86.20271941410281
 31
0.0
  0
LINE
  5
6639
330
1E
100
AcDbEntity
  8
10
100
AcDbLine
 10
269.0053261808715
 20
-49.99998787163168
 30
0.0
 11
269.1479046851964
 21
-49.99998787163168
 31
0.0
  0
LINE
  5
663A
330
1E
100
AcDbEntity
  8
10
100
AcDbLine
 10
268.000009652387
 20
-81.19707783812645
 30
0.0
 11
268.000009652387
 21
-81.35208290934588
 31
0.0
  0
LINE
  5
663B
330
1E
100
AcDbEntity
  8
10
100
AcDbLine
 10
303.9999919455876
 20
-48.99998836348732
 30
0.0
 11
303.9999919455876
 21
-47.99998885534296
 31
0.0
  0
LINE
  5
663C
330
1E
100
AcDbEntity
  8
10
100
AcDbLine
 10
268.2679438753548
 20
-51.99998688792039
 30
0.0
 11
268.172915762465
 21
-51.99998688792039
 31
0.0
  0
LINE
  5
663D
330
1E
100
AcDbEntity
  8
10
100
AcDbLine
 10
268.000009652387
 20
-81.35208290934588
 30
0.0
 11
268.000009652387
 21
-81.49467352533793
 31
0.0
  0
LINE
  5
663E
330
1E
100
AcDbEntity
  8
10
100
AcDbLine
 10
291.9999978478518
 20
-82.49999005381868
 30
0.0
 11
268.5000033506294
 21
-82.49999005381868
 31
0.0
  0
LINE
  5
663F
330
1E
100
AcDbEntity
  8
10
100
AcDbLine
 10
268.3819630768265
 20
-51.99998688792039
 30
0.0
 11
268.2679438753548
 21
-51.99998688792039
 31
0.0
  0
LINE
  5
6640
330
1E
100
AcDbEntity
  8
10
100
AcDbLine
 10
268.000009652387
 20
-81.03189896945242
 30
0.0
 11
268.000009652387
 21
-81.19707783812645
 31
0.0
  0
LINE
  5
6641
330
1E
100
AcDbEntity
  8
10
100
AcDbLine
 10
268.000009652387
 20
-80.25940495105533
 30
0.0
 11
268.000009652387
 21
-80.01076460826244
 31
0.0
  0
LINE
  5
6642
330
1E
100
AcDbEntity
  8
10
100
AcDbLine
 10
303.2679387720708
 20
-50.00004842994986
 30
0.0
 11
303.2679387720708
 21
-49.49998206172768
 31
0.0
  0
LINE
  5
6643
330
1E
100
AcDbEntity
  8
10
100
AcDbLine
 10
337.5868221525233
 20
-54.00757991730916
 30
0.0
 11
337.5000057475771
 21
-53.9999859042091
 31
0.0
  0
LINE
  5
6644
330
1E
100
AcDbEntity
  8
10
100
AcDbLine
 10
303.7928824974005
 20
-49.49998206172768
 30
0.0
 11
268.000009652387
 21
-49.49998206172768
 31
0.0
  0
LINE
  5
6645
330
1E
100
AcDbEntity
  8
10
100
AcDbLine
 10
337.9999994458192
 20
-54.4999917141131
 30
0.0
 11
337.9923933210593
 21
-54.41316319750331
 31
0.0
  0
LINE
  5
6646
330
1E
100
AcDbEntity
  8
10
100
AcDbLine
 10
291.9999978478518
 20
-84.61124681227195
 30
0.0
 11
291.9999978478518
 21
-84.49998907010741
 31
0.0
  0
LINE
  5
6647
330
1E
100
AcDbEntity
  8
10
100
AcDbLine
 10
289.9924896001101
 20
-47.49998304543896
 30
0.0
 11
293.4996398159928
 21
-47.49998304543896
 31
0.0
  0
LINE
  5
6648
330
1E
100
AcDbEntity
  8
10
100
AcDbLine
 10
292.3451318148361
 20
-86.26543360841242
 30
0.0
 11
292.4593690262554
 21
-86.24251834081222
 31
0.0
  0
LINE
  5
6649
330
1E
100
AcDbEntity
  8
10
100
AcDbLine
 10
263.0
 20
-82.4890289982277
 30
0.0
 11
263.0
 21
-82.45627905975471
 31
0.0
  0
LINE
  5
664A
330
1E
100
AcDbEntity
  8
10
100
AcDbLine
 10
292.8576731966021
 20
-86.20271941410281
 30
0.0
 11
293.0000094676578
 21
-86.19998217812097
 31
0.0
  0
LINE
  5
664B
330
1E
100
AcDbEntity
  8
10
100
AcDbLine
 10
267.9698516099306
 20
-48.46983662279217
 30
0.0
 11
267.9330079291539
 21
-48.4330050536737
 31
0.0
  0
LINE
  5
664C
330
1E
100
AcDbEntity
  8
10
100
AcDbLine
 10
268.000009652387
 20
-55.24998226147364
 30
0.0
 11
268.0125331125891
 21
-55.24998226147364
 31
0.0
  0
LINE
  5
664D
330
1E
100
AcDbEntity
  8
10
100
AcDbLine
 10
270.0000086686776
 20
-49.99998787163168
 30
0.0
 11
305.0000035653939
 21
-49.99998787163168
 31
0.0
  0
LINE
  5
664E
330
1E
100
AcDbEntity
  8
10
100
AcDbLine
 10
295.0000084839483
 20
-79.99998522762599
 30
0.0
 11
305.499997263636
 21
-79.99998522762599
 31
0.0
  0
LINE
  5
664F
330
1E
100
AcDbEntity
  8
10
100
AcDbLine
 10
269.3029097564139
 20
-49.99998787163168
 30
0.0
 11
269.4680886250935
 21
-49.99998787163168
 31
0.0
  0
LINE
  5
6650
330
1E
100
AcDbEntity
  8
10
100
AcDbLine
 10
268.5435811163916
 20
-49.99998787163168
 30
0.0
 11
268.5974780195754
 21
-49.99998787163168
 31
0.0
  0
LINE
  5
6651
330
1E
100
AcDbEntity
  8
10
100
AcDbLine
 10
292.584579404931
 20
-86.22420550539391
 30
0.0
 11
292.7182679481483
 21
-86.21084634040292
 31
0.0
  0
LINE
  5
6652
330
1E
100
AcDbEntity
  8
10
100
AcDbLine
 10
295.0000084839483
 20
-84.81173118044626
 30
0.0
 11
295.0000084839483
 21
-84.8909051256378
 31
0.0
  0
LINE
  5
6653
330
1E
100
AcDbEntity
  8
10
100
AcDbLine
 10
305.0000035653939
 20
-49.49998206172768
 30
0.0
 11
303.7928824974005
 21
-49.49998206172768
 31
0.0
  0
LINE
  5
6654
330
1E
100
AcDbEntity
  8
10
100
AcDbLine
 10
269.5841668093851
 20
-51.99998688792039
 30
0.0
 11
269.3819746966328
 21
-51.99998688792039
 31
0.0
  0
LINE
  5
6655
330
1E
100
AcDbEntity
  8
10
100
AcDbLine
 10
268.000009652387
 20
-80.85895652438741
 30
0.0
 11
268.000009652387
 21
-81.03189896945242
 31
0.0
  0
LINE
  5
6656
330
1E
100
AcDbEntity
  8
10
100
AcDbLine
 10
303.9999919455876
 20
-48.99998836348732
 30
0.0
 11
303.9960193199148
 21
-49.09753570241537
 31
0.0
  0
LINE
  5
6657
330
1E
100
AcDbEntity
  8
10
100
AcDbLine
 10
268.2830592315729
 20
-55.24998226147364
 30
0.0
 11
268.3887456084629
 21
-55.24998226147364
 31
0.0
  0
LINE
  5
6658
330
1E
100
AcDbEntity
  8
10
100
AcDbLine
 10
268.9999970488714
 20
-51.99998688792039
 30
0.0
 11
268.8244263727974
 21
-51.99998688792039
 31
0.0
  0
LINE
  5
6659
330
1E
100
AcDbEntity
  8
10
100
AcDbLine
 10
268.8772332262524
 20
-49.99998787163168
 30
0.0
 11
269.0053261808715
 21
-49.99998787163168
 31
0.0
  0
LINE
  5
665A
330
1E
100
AcDbEntity
  8
10
100
AcDbLine
 10
268.000009652387
 20
-81.90250957496845
 30
0.0
 11
268.000009652387
 21
-81.95639436648708
 31
0.0
  0
LINE
  5
665B
330
1E
100
AcDbEntity
  8
10
100
AcDbLine
 10
268.000009652387
 20
-81.73446024201258
 30
0.0
 11
268.000009652387
 21
-81.82816818356789
 31
0.0
  0
LINE
  5
665C
330
1E
100
AcDbEntity
  8
10
100
AcDbLine
 10
295.0000084839483
 20
-84.61124681227195
 30
0.0
 11
295.0000084839483
 21
-84.71693318916369
 31
0.0
  0
LINE
  5
665D
330
1E
100
AcDbEntity
  8
10
100
AcDbLine
 10
337.8214008538343
 20
-54.11696035161003
 30
0.0
 11
337.7499904850338
 21
-54.06697551578235
 31
0.0
  0
LINE
  5
665E
330
1E
100
AcDbEntity
  8
10
100
AcDbLine
 10
301.9999929292972
 20
-84.99998276834777
 30
0.0
 11
301.9999929292972
 21
-86.19998217812097
 31
0.0
  0
LINE
  5
665F
330
1E
100
AcDbEntity
  8
10
100
AcDbLine
 10
268.000009652387
 20
-48.49998255358332
 30
0.0
 11
267.9924035276271
 21
-48.49238854048325
 31
0.0
  0
LINE
  5
6660
330
1E
100
AcDbEntity
  8
10
100
AcDbLine
 10
305.0000035653939
 20
-55.24998226147364
 30
0.0
 11
268.5000033506294
 21
-55.24998226147364
 31
0.0
  0
LINE
  5
6661
330
1E
100
AcDbEntity
  8
10
100
AcDbLine
 10
337.7499904850338
 20
-54.06697551578235
 30
0.0
 11
337.6709982148021
 21
-54.03014394666389
 31
0.0
  0
LINE
  5
6662
330
1E
100
AcDbEntity
  8
10
100
AcDbLine
 10
292.1587333114728
 20
-86.32307301565834
 30
0.0
 11
292.2442416567428
 21
-86.292466841649
 31
0.0
  0
LINE
  5
6663
330
1E
100
AcDbEntity
  8
10
100
AcDbLine
 10
267.8213868370803
 20
-48.32138396160008
 30
0.0
 11
267.7500006916015
 21
-48.24998570446314
 31
0.0
  0
LINE
  5
6664
330
1E
100
AcDbEntity
  8
10
100
AcDbLine
 10
284.999989179181
 20
-48.49998255358332
 30
0.0
 11
268.000009652387
 21
-48.49998255358332
 31
0.0
  0
LINE
  5
6665
330
1E
100
AcDbEntity
  8
10
100
AcDbLine
 10
269.1865166688728
 20
-51.99998688792039
 30
0.0
 11
268.9999970488714
 21
-51.99998688792039
 31
0.0
  0
LINE
  5
6666
330
1E
100
AcDbEntity
  8
10
100
AcDbLine
 10
305.0000035653939
 20
-79.49999152938563
 30
0.0
 11
305.0000035653939
 21
-49.49998206172768
 31
0.0
  0
LINE
  5
6667
330
1E
100
AcDbEntity
  8
10
100
AcDbLine
 10
268.0125331125891
 20
-55.24998226147364
 30
0.0
 11
268.049522133333
 21
-55.24998226147364
 31
0.0
  0
LINE
  5
6668
330
1E
100
AcDbEntity
  8
10
100
AcDbLine
 10
268.5137137538621
 20
-51.99998688792039
 30
0.0
 11
268.3819630768265
 21
-51.99998688792039
 31
0.0
  0
LINE
  5
6669
330
1E
100
AcDbEntity
  8
10
100
AcDbLine
 10
268.671819410978
 20
-49.99998787163168
 30
0.0
 11
268.7655152408696
 21
-49.99998787163168
 31
0.0
  0
LINE
  5
666A
330
1E
100
AcDbEntity
  8
10
100
AcDbLine
 10
289.3473012781978
 20
-47.73344747369536
 30
0.0
 11
284.999989179181
 21
-48.49998255358332
 31
0.0
  0
LINE
  5
666B
330
1E
100
AcDbEntity
  8
10
100
AcDbLine
 10
267.9924035276271
 20
-48.49238854048325
 30
0.0
 11
267.9698516099306
 21
-48.46983662279217
 31
0.0
  0
LINE
  5
666C
330
1E
100
AcDbEntity
  8
10
100
AcDbLine
 10
303.9876622720039
 20
-47.83003799119613
 30
0.0
 11
303.9968913596966
 21
-47.91371747526045
 31
0.0
  0
LINE
  5
666D
330
1E
100
AcDbEntity
  8
10
100
AcDbLine
 10
268.000009652387
 20
-48.49998255358332
 30
0.0
 11
268.000009652387
 21
-80.49999103752998
 31
0.0
  0
LINE
  5
666E
330
1E
100
AcDbEntity
  8
10
100
AcDbLine
 10
337.9698414033628
 20
-54.32897502356627
 30
0.0
 11
337.9330219459077
 21
-54.24998275332928
 31
0.0
  0
LINE
  5
666F
330
1E
100
AcDbEntity
  8
10
100
AcDbLine
 10
263.0
 20
-81.98627384067821
 30
0.0
 11
263.0
 21
-81.83824508771341
 31
0.0
  0
LINE
  5
6670
330
1E
100
AcDbEntity
  8
10
100
AcDbLine
 10
263.0
 20
-81.31345881400919
 30
0.0
 11
263.0
 21
-81.1180250095713
 31
0.0
  0
LINE
  5
6671
330
1E
100
AcDbEntity
  8
10
100
AcDbLine
 10
301.9999929292972
 20
-84.99998276834777
 30
0.0
 11
312.5000059323065
 21
-79.99998522762599
 31
0.0
  0
LINE
  5
6672
330
1E
100
AcDbEntity
  8
10
100
AcDbLine
 10
267.9330079291539
 20
-48.4330050536737
 30
0.0
 11
267.8830109816626
 21
-48.38300810618239
 31
0.0
  0
LINE
  5
6673
330
1E
100
AcDbEntity
  8
10
100
AcDbLine
 10
267.8830109816626
 20
-48.38300810618239
 30
0.0
 11
267.8213868370803
 21
-48.32138396160008
 31
0.0
  0
LINE
  5
6674
330
1E
100
AcDbEntity
  8
10
100
AcDbLine
 10
337.9330219459077
 20
-54.24998275332928
 30
0.0
 11
337.8830249984166
 21
-54.17859660785598
 31
0.0
  0
LINE
  5
6675
330
1E
100
AcDbEntity
  8
10
100
AcDbLine
 10
263.0
 20
-81.1180250095713
 30
0.0
 11
263.0
 21
-80.91580867349692
 31
0.0
  0
LINE
  5
6676
330
1E
100
AcDbEntity
  8
10
100
AcDbLine
 10
268.0437085347874
 20
-51.99998688792039
 30
0.0
 11
268.0109585963143
 21
-51.99998688792039
 31
0.0
  0
LINE
  5
6677
330
1E
100
AcDbEntity
  8
10
100
AcDbLine
 10
268.000009652387
 20
-81.98904741165097
 30
0.0
 11
268.000009652387
 21
-81.9999842439147
 31
0.0
  0
LINE
  5
6678
330
1E
100
AcDbEntity
  8
10
100
AcDbLine
 10
303.9393367340961
 20
-49.35353993669924
 30
0.0
 11
303.9079433019503
 21
-49.41572121780883
 31
0.0
  0
LINE
  5
6679
330
1E
100
AcDbEntity
  8
10
100
AcDbLine
 10
268.5000033506294
 20
-49.99998787163168
 30
0.0
 11
268.5109280712276
 21
-49.99998787163168
 31
0.0
  0
LINE
  5
667A
330
1E
100
AcDbEntity
  8
10
100
AcDbLine
 10
291.9999978478518
 20
-84.81173118044626
 30
0.0
 11
291.9999978478518
 21
-84.71693318916369
 31
0.0
  0
LINE
  5
667B
330
1E
100
AcDbEntity
  8
10
100
AcDbLine
 10
303.8721412242375
 20
-49.46192721458192
 30
0.0
 11
303.8332870072918
 21
-49.49037751246397
 31
0.0
  0
LINE
  5
667C
330
1E
100
AcDbEntity
  8
10
100
AcDbLine
 10
303.9960193199148
 20
-49.09753570241537
 30
0.0
 11
303.9842225595275
 21
-49.19132842561612
 31
0.0
  0
LINE
  5
667D
330
1E
100
AcDbEntity
  8
10
100
AcDbLine
 10
291.9999978478518
 20
-84.98744719648403
 30
0.0
 11
291.9999978478518
 21
-84.95047028740193
 31
0.0
  0
LINE
  5
667E
330
1E
100
AcDbEntity
  8
10
100
AcDbLine
 10
268.000009652387
 20
-80.68079395229506
 30
0.0
 11
268.000009652387
 21
-80.85895652438741
 31
0.0
  0
LINE
  5
667F
330
1E
100
AcDbEntity
  8
10
100
AcDbLine
 10
295.0000084839483
 20
-84.49998907010741
 30
0.0
 11
295.0000084839483
 21
-79.99998522762599
 31
0.0
  0
LINE
  5
6680
330
1E
100
AcDbEntity
  8
10
100
AcDbLine
 10
263.0
 20
-81.49999054567434
 30
0.0
 11
263.0
 21
-81.31345881400919
 31
0.0
  0
LINE
  5
6681
330
1E
100
AcDbEntity
  8
10
100
AcDbLine
 10
268.3887456084629
 20
-55.24998226147364
 30
0.0
 11
268.5000033506294
 21
-55.24998226147364
 31
0.0
  0
LINE
  5
6682
330
1E
100
AcDbEntity
  8
10
100
AcDbLine
 10
263.0
 20
-81.83824508771341
 30
0.0
 11
263.0
 21
-81.67556122174847
 31
0.0
  0
LINE
  5
6683
330
1E
100
AcDbEntity
  8
12
100
AcDbLine
 10
320.5000006142581
 20
-39.99999429691522
 30
0.0
 11
326.0000006142581
 21
-39.99999429691522
 31
0.0
  0
LINE
  5
6684
330
1E
100
AcDbEntity
  8
10
100
AcDbLine
 10
337.9999994458192
 20
-77.99998621133726
 30
0.0
 11
337.9999994458192
 21
-55.99998492049781
 31
0.0
  0
LINE
  5
6685
330
1E
100
AcDbEntity
  8
10
100
AcDbLine
 10
337.5000057475771
 20
-79.99998522762599
 30
0.0
 11
305.499997263636
 21
-79.99998522762599
 31
0.0
  0
LINE
  5
6686
330
1E
100
AcDbEntity
  8
10
100
AcDbLine
 10
311.000000614258
 20
-53.9999859042091
 30
0.0
 11
337.5000057475771
 21
-53.9999859042091
 31
0.0
  0
LINE
  5
6687
330
1E
100
AcDbEntity
  8
10
100
AcDbLine
 10
267.4999917308229
 20
-82.49999005381868
 30
0.0
 11
263.0
 21
-82.49999005381868
 31
0.0
  0
LINE
  5
6688
330
1E
100
AcDbEntity
  8
10
100
AcDbLine
 10
202.0
 20
-51.0
 30
0.0
 11
202.0
 21
-77.5
 31
0.0
  0
LINE
  5
6689
330
1E
100
AcDbEntity
  8
10
100
AcDbLine
 10
202.0
 20
-77.5
 30
0.0
 11
263.0
 21
-77.5
 31
0.0
  0
LINE
  5
668A
330
1E
100
AcDbEntity
  8
10
100
AcDbLine
 10
187.0
 20
-25.0
 30
0.0
 11
195.0
 21
-25.0
 31
0.0
  0
ARC
  5
668B
330
1E
100
AcDbEntity
  8
10
100
AcDbCircle
 10
-267.4999917308229
 20
81.9999842439147
 30
0.0
 40
0.499999990628108
210
0.0
220
0.0
230
-1.0
100
AcDbArc
 50
90.0
 51
180.0
  0
ARC
  5
668C
330
1E
100
AcDbEntity
  8
18
100
AcDbCircle
 10
314.5000006142581
 20
49.00000570308474
 30
0.0
 40
3.499999999999996
100
AcDbArc
 50
90.0
 51
180.0
  0
ARC
  5
668D
330
1E
100
AcDbEntity
  8
18
100
AcDbCircle
 10
314.5000006142581
 20
49.00000570308474
 30
0.0
 40
0.9999999999999992
100
AcDbArc
 50
90.0
 51
180.0
  0
ARC
  5
668E
330
1E
100
AcDbEntity
  8
10
100
AcDbCircle
 10
293.5000031659001
 20
45.50001965864065
 30
0.0
 40
1.999999962512431
100
AcDbArc
 50
90.0
 51
180.0
  0
ARC
  5
668F
330
1E
100
AcDbEntity
  8
0
100
AcDbCircle
 10
337.5000057475771
 20
79.50000293554876
 30
0.0
 40
0.499999990628108
100
AcDbArc
 50
0.0
 51
90.0
  0
ARC
  5
6690
330
1E
100
AcDbEntity
  8
10
100
AcDbCircle
 10
268.5000033506294
 20
82.00001987340511
 30
0.0
 40
0.499999990628108
100
AcDbArc
 50
90.0
 51
180.0
  0
ARC
  5
6691
330
1E
100
AcDbEntity
  8
10
100
AcDbCircle
 10
305.499997263636
 20
79.50000293554876
 30
0.0
 40
0.499999990628108
100
AcDbArc
 50
90.0
 51
180.0
  0
ARC
  5
6692
330
1E
100
AcDbEntity
  8
10
100
AcDbCircle
 10
268.5000033506294
 20
50.50000508769881
 30
0.0
 40
0.499999990628108
100
AcDbArc
 50
180.0
 51
270.0
  0
ARC
  5
6693
330
1E
100
AcDbEntity
  8
10
100
AcDbCircle
 10
293.0000094676578
 20
94.00001397113738
 30
0.0
 40
0.9999999812562155
100
AcDbArc
 50
90.0
 51
180.0
  0
ARC
  5
6694
330
1E
100
AcDbEntity
  8
10
100
AcDbCircle
 10
270.0000086686776
 20
52.00001040574715
 30
0.0
 40
1.999999962512431
100
AcDbArc
 50
180.0
 51
270.0
  0
ARC
  5
6695
330
1E
100
AcDbEntity
  8
10
100
AcDbCircle
 10
288.999987211755
 20
45.76386013929732
 30
0.0
 40
1.999999962512431
100
AcDbArc
 50
0.0
 51
79.99999963885284
  0
ARC
  5
6696
330
1E
100
AcDbEntity
  8
10
100
AcDbCircle
 10
268.5000033506294
 20
55.74999947754077
 30
0.0
 40
0.499999990628108
100
AcDbArc
 50
180.0
 51
270.0
  0
ARC
  5
6697
330
1E
100
AcDbEntity
  8
10
100
AcDbCircle
 10
303.0000045491033
 20
49.50001769121809
 30
0.0
 40
1.999999962512431
100
AcDbArc
 50
270.0
 51
0.0
  0
LINE
  5
6698
330
1E
100
AcDbEntity
  8
10
100
AcDbLine
 10
267.4999917308229
 20
82.49999005381868
 30
0.0
 11
263.0
 21
82.49999005381868
 31
0.0
  0
LINE
  5
6699
330
1E
100
AcDbEntity
  8
10
100
AcDbLine
 10
293.5000031659001
 20
47.50001867492938
 30
0.0
 11
289.9924896001101
 21
47.50001867492938
 31
0.0
  0
LINE
  5
669A
330
1E
100
AcDbEntity
  8
10
100
AcDbLine
 10
268.000009652387
 20
49.50001769121809
 30
0.0
 11
305.0000035653939
 21
49.50001769121809
 31
0.0
  0
LINE
  5
669B
330
1E
100
AcDbEntity
  8
10
100
AcDbLine
 10
305.0000035653939
 20
50.00001138945846
 30
0.0
 11
270.0000086686776
 21
50.00001138945846
 31
0.0
  0
LINE
  5
669C
330
1E
100
AcDbEntity
  8
10
100
AcDbLine
 10
305.0000035653939
 20
55.2500057793004
 30
0.0
 11
268.5000033506294
 21
55.2500057793004
 31
0.0
  0
LINE
  5
669D
330
1E
100
AcDbEntity
  8
10
100
AcDbLine
 10
268.5000033506294
 20
82.50001357164547
 30
0.0
 11
291.9999978478518
 21
82.50001357164547
 31
0.0
  0
LINE
  5
669E
330
1E
100
AcDbEntity
  8
12
100
AcDbLine
 10
320.5000006142581
 20
40.00000570308475
 30
0.0
 11
326.0000006142581
 21
40.00000570308475
 31
0.0
  0
LINE
  5
669F
330
1E
100
AcDbEntity
  8
12
100
AcDbLine
 10
314.5000006142581
 20
42.50000570308475
 30
0.0
 11
314.5000006142581
 21
32.50000570308476
 31
0.0
  0
LINE
  5
66A0
330
1E
100
AcDbEntity
  8
12
100
AcDbLine
 10
326.0000006142581
 20
40.00000570308475
 30
0.0
 11
326.0000006142581
 21
35.00000570308476
 31
0.0
  0
LINE
  5
66A1
330
1E
100
AcDbEntity
  8
12
100
AcDbLine
 10
315.800000614261
 20
39.58560462632613
 30
0.0
 11
320.5000006142581
 21
39.58560462632613
 31
0.0
  0
LINE
  5
66A2
330
1E
100
AcDbEntity
  8
12
100
AcDbLine
 10
315.800000614261
 20
42.10000570308511
 30
0.0
 11
315.800000614261
 21
32.90000570308439
 31
0.0
  0
LINE
  5
66A3
330
1E
100
AcDbEntity
  8
12
100
AcDbLine
 10
313.5000006142581
 20
42.50000570308475
 30
0.0
 11
314.5000006142581
 21
42.50000570308475
 31
0.0
  0
LINE
  5
66A4
330
1E
100
AcDbEntity
  8
12
100
AcDbLine
 10
314.5000006142581
 20
32.90000570308439
 30
0.0
 11
315.800000614261
 21
32.90000570308439
 31
0.0
  0
LINE
  5
66A5
330
1E
100
AcDbEntity
  8
12
100
AcDbLine
 10
302.5000006142581
 20
37.50000570308476
 30
0.0
 11
331.0000006142581
 21
37.50000570308476
 31
0.0
  0
LINE
  5
66A6
330
1E
100
AcDbEntity
  8
12
100
AcDbLine
 10
315.800000614261
 20
33.10500570308521
 30
0.0
 11
320.5000006142581
 21
33.10500570308521
 31
0.0
  0
LINE
  5
66A7
330
1E
100
AcDbEntity
  8
12
100
AcDbLine
 10
313.5000006142581
 20
32.50000570308476
 30
0.0
 11
314.5000006142581
 21
32.50000570308476
 31
0.0
  0
LINE
  5
66A8
330
1E
100
AcDbEntity
  8
12
100
AcDbLine
 10
315.800000614261
 20
35.41440677984336
 30
0.0
 11
320.5000006142581
 21
35.41440677984336
 31
0.0
  0
LINE
  5
66A9
330
1E
100
AcDbEntity
  8
12
100
AcDbLine
 10
314.5000006142581
 20
42.10000570308511
 30
0.0
 11
315.800000614261
 21
42.10000570308511
 31
0.0
  0
LINE
  5
66AA
330
1E
100
AcDbEntity
  8
12
100
AcDbLine
 10
320.5000006142581
 20
41.89500570308519
 30
0.0
 11
320.5000006142581
 21
33.10500570308521
 31
0.0
  0
LINE
  5
66AB
330
1E
100
AcDbEntity
  8
12
100
AcDbLine
 10
315.800000614261
 20
41.89500570308519
 30
0.0
 11
320.5000006142581
 21
41.89500570308519
 31
0.0
  0
LINE
  5
66AC
330
1E
100
AcDbEntity
  8
12
100
AcDbLine
 10
320.5000006142581
 20
35.00000570308476
 30
0.0
 11
326.0000006142581
 21
35.00000570308476
 31
0.0
  0
LINE
  5
66AD
330
1E
100
AcDbEntity
  8
18
100
AcDbLine
 10
326.0000006142581
 20
50.00000570308476
 30
0.0
 11
326.0000006142581
 21
52.50000570308476
 31
0.0
  0
LINE
  5
66AE
330
1E
100
AcDbEntity
  8
18
100
AcDbLine
 10
314.5000006142581
 20
50.00000570308476
 30
0.0
 11
326.0000006142581
 21
50.00000570308476
 31
0.0
  0
LINE
  5
66AF
330
1E
100
AcDbEntity
  8
18
100
AcDbLine
 10
314.5000006142581
 20
52.50000570308476
 30
0.0
 11
326.0000006142581
 21
52.50000570308476
 31
0.0
  0
LINE
  5
66B0
330
1E
100
AcDbEntity
  8
10
100
AcDbLine
 10
195.0
 20
51.0
 30
0.0
 11
202.0
 21
51.0
 31
0.0
  0
LINE
  5
66B1
330
1E
100
AcDbEntity
  8
10
100
AcDbLine
 10
202.0
 20
77.5
 30
0.0
 11
263.0
 21
77.5
 31
0.0
  0
LINE
  5
66B2
330
1E
100
AcDbEntity
  8
10
100
AcDbLine
 10
175.0047462004076
 20
15.23995644007664
 30
0.0
 11
178.4462048185158
 21
20.15486870581026
 31
0.0
  0
LINE
  5
66B3
330
1E
100
AcDbEntity
  8
10
100
AcDbLine
 10
202.0
 20
77.5
 30
0.0
 11
202.0
 21
51.0
 31
0.0
  0
LINE
  5
66B4
330
1E
100
AcDbEntity
  8
10
100
AcDbLine
 10
187.0
 20
14.16543683943018
 30
0.0
 11
178.4462048185158
 21
20.15486870581026
 31
0.0
  0
LINE
  5
66B6
330
1E
100
AcDbEntity
  8
10
100
AcDbLine
 10
292.0173901968373
 20
90.73381319163855
 30
0.0
 11
292.0061021263243
 21
91.08095769478678
 31
0.0
  0
LINE
  5
66B7
330
1E
100
AcDbEntity
  8
10
100
AcDbLine
 10
301.9999929292972
 20
94.14232601886579
 30
0.0
 11
301.9999929292972
 21
94.00001397113738
 31
0.0
  0
LINE
  5
66B8
330
1E
100
AcDbEntity
  8
10
100
AcDbLine
 10
301.9999929292972
 20
86.20000569594777
 30
0.0
 11
293.0000094676578
 21
86.20000569594777
 31
0.0
  0
LINE
  5
66B9
330
1E
100
AcDbEntity
  8
10
100
AcDbLine
 10
291.9999978478518
 20
86.46796414224082
 30
0.0
 11
291.9999978478518
 21
86.63561379029671
 31
0.0
  0
LINE
  5
66BA
330
1E
100
AcDbEntity
  8
10
100
AcDbLine
 10
292.0516177582685
 20
87.78130450032405
 30
0.0
 11
292.0500674653228
 21
88.08121351529008
 31
0.0
  0
LINE
  5
66BB
330
1E
100
AcDbEntity
  8
10
100
AcDbLine
 10
291.9999978478518
 20
86.63561379029671
 30
0.0
 11
292.0053269798518
 21
86.82593647268005
 31
0.0
  0
LINE
  5
66BC
330
1E
100
AcDbEntity
  8
10
100
AcDbLine
 10
301.9999929292972
 20
88.7980786626049
 30
0.0
 11
293.0000094676578
 21
88.7980786626049
 31
0.0
  0
LINE
  5
66BD
330
1E
100
AcDbEntity
  8
10
100
AcDbLine
 10
292.3451318148361
 20
86.2654571262392
 30
0.0
 11
292.4593690262554
 21
86.24254185863902
 31
0.0
  0
LINE
  5
66BE
330
1E
100
AcDbEntity
  8
10
100
AcDbLine
 10
291.9999978478518
 20
84.50001258793419
 30
0.0
 11
291.9999978478518
 21
82.00001987340511
 31
0.0
  0
LINE
  5
66BF
330
1E
100
AcDbEntity
  8
10
100
AcDbLine
 10
292.0053269798518
 20
86.82593647268005
 30
0.0
 11
292.0176808767646
 21
87.03171363786351
 31
0.0
  0
LINE
  5
66C0
330
1E
100
AcDbEntity
  8
10
100
AcDbLine
 10
303.9393367340961
 20
49.353563454526
 30
0.0
 11
303.9650861309853
 21
49.27779288681631
 31
0.0
  0
LINE
  5
66C1
330
1E
100
AcDbEntity
  8
10
100
AcDbLine
 10
292.0176808767646
 20
87.03171363786351
 30
0.0
 11
292.0321422031411
 21
87.25677257155622
 31
0.0
  0
LINE
  5
66C2
330
1E
100
AcDbEntity
  8
10
100
AcDbLine
 10
337.9999994458192
 20
56.00000843832456
 30
0.0
 11
337.9999994458192
 21
54.50000312027622
 31
0.0
  0
LINE
  5
66C3
330
1E
100
AcDbEntity
  8
10
100
AcDbLine
 10
292.0888005656379
 20
88.95565140651525
 30
0.0
 11
292.1569650085803
 21
88.92190831162407
 31
0.0
  0
LINE
  5
66C4
330
1E
100
AcDbEntity
  8
10
100
AcDbLine
 10
301.9999929292972
 20
94.98982757016348
 30
0.0
 11
301.9999929292972
 21
94.95949996441778
 31
0.0
  0
LINE
  5
66C5
330
1E
100
AcDbEntity
  8
10
100
AcDbLine
 10
301.9999929292972
 20
94.95949996441778
 30
0.0
 11
301.9999929292972
 21
94.90964835689013
 31
0.0
  0
LINE
  5
66C6
330
1E
100
AcDbEntity
  8
10
100
AcDbLine
 10
292.0274913243047
 20
90.38153334310845
 30
0.0
 11
292.0173901968373
 21
90.73381319163855
 31
0.0
  0
LINE
  5
66C7
330
1E
100
AcDbEntity
  8
10
100
AcDbLine
 10
303.2679387720708
 20
49.50001769121809
 30
0.0
 11
303.2679387720708
 21
50.00008405944027
 31
0.0
  0
LINE
  5
66C8
330
1E
100
AcDbEntity
  8
10
100
AcDbLine
 10
291.9999978478518
 20
89.06603710889795
 30
0.0
 11
291.9999978478518
 21
91.14323586920546
 31
0.0
  0
LINE
  5
66C9
330
1E
100
AcDbEntity
  8
10
100
AcDbLine
 10
292.0444476533957
 20
87.49590525839449
 30
0.0
 11
292.0516177582685
 21
87.78130450032405
 31
0.0
  0
LINE
  5
66CA
330
1E
100
AcDbEntity
  8
10
100
AcDbLine
 10
292.7173474617156
 20
88.80900338320499
 30
0.0
 11
292.8572129533859
 21
88.80084012191401
 31
0.0
  0
LINE
  5
66CB
330
1E
100
AcDbEntity
  8
10
100
AcDbLine
 10
291.9999978478518
 20
85.00000628617454
 30
0.0
 11
295.0000084839483
 21
85.00000628617454
 31
0.0
  0
LINE
  5
66CC
330
1E
100
AcDbEntity
  8
10
100
AcDbLine
 10
292.5832955685836
 20
88.82244732984146
 30
0.0
 11
292.7173474617156
 21
88.80900338320499
 31
0.0
  0
LINE
  5
66CD
330
1E
100
AcDbEntity
  8
10
100
AcDbLine
 10
292.0101716453063
 20
86.42983662511324
 30
0.0
 11
292.040499251052
 21
86.39246003113113
 31
0.0
  0
LINE
  5
66CE
330
1E
100
AcDbEntity
  8
10
100
AcDbLine
 10
337.8830249984166
 20
54.17860801401912
 30
0.0
 11
337.9330219459077
 21
54.25001838281969
 31
0.0
  0
LINE
  5
66D0
330
1E
100
AcDbEntity
  8
10
100
AcDbLine
 10
301.9999929292972
 20
94.75575755872524
 30
0.0
 11
301.9999929292972
 21
94.65486740063351
 31
0.0
  0
LINE
  5
66D1
330
1E
100
AcDbEntity
  8
10
100
AcDbLine
 10
270.0000086686776
 20
50.00001138945846
 30
0.0
 11
269.8192057539125
 21
50.00001138945846
 31
0.0
  0
LINE
  5
66D2
330
1E
100
AcDbEntity
  8
10
100
AcDbLine
 10
295.0000084839483
 20
85.00000628617454
 30
0.0
 11
295.0000084839483
 21
84.98748282597444
 31
0.0
  0
LINE
  5
66D3
330
1E
100
AcDbEntity
  8
10
100
AcDbLine
 10
291.9999978478518
 20
84.50001258793419
 30
0.0
 11
291.9999978478518
 21
84.61127033009871
 31
0.0
  0
LINE
  5
66D4
330
1E
100
AcDbEntity
  8
10
100
AcDbLine
 10
301.9999929292972
 20
94.28173126732144
 30
0.0
 11
301.9999929292972
 21
94.14232601886579
 31
0.0
  0
LINE
  5
66D5
330
1E
100
AcDbEntity
  8
10
100
AcDbLine
 10
303.9842225595275
 20
49.19136405510653
 30
0.0
 11
303.9960193199148
 21
49.09754710857851
 31
0.0
  0
LINE
  5
66D6
330
1E
100
AcDbEntity
  8
10
100
AcDbLine
 10
269.1479046851964
 20
50.00001138945846
 30
0.0
 11
269.0053261808715
 21
50.00001138945846
 31
0.0
  0
LINE
  5
66D7
330
1E
100
AcDbEntity
  8
10
100
AcDbLine
 10
301.9999929292972
 20
94.5406544125417
 30
0.0
 11
301.9999929292972
 21
94.4154198105407
 31
0.0
  0
LINE
  5
66D8
330
1E
100
AcDbEntity
  8
10
100
AcDbLine
 10
292.090375081905
 20
86.35665795342175
 30
0.0
 11
292.1587333114728
 21
86.32308442182148
 31
0.0
  0
LINE
  5
66D9
330
1E
100
AcDbEntity
  8
10
100
AcDbLine
 10
284.999989179181
 20
48.5000060714101
 30
0.0
 11
289.3473012781978
 21
47.7334588798585
 31
0.0
  0
LINE
  5
66DA
330
1E
100
AcDbEntity
  8
10
100
AcDbLine
 10
292.020418112741
 20
89.35700771610028
 30
0.0
 11
292.0289205006192
 21
89.69097472921205
 31
0.0
  0
LINE
  5
66DB
330
1E
100
AcDbEntity
  8
10
100
AcDbLine
 10
291.9999978478518
 20
91.43614434258962
 30
0.0
 11
291.9999978478518
 21
94.00001397113738
 31
0.0
  0
LINE
  5
66DC
330
1E
100
AcDbEntity
  8
10
100
AcDbLine
 10
292.2442416567428
 20
86.29249035947578
 30
0.0
 11
292.3451318148361
 21
86.2654571262392
 31
0.0
  0
LINE
  5
66DD
330
1E
100
AcDbEntity
  8
10
100
AcDbLine
 10
303.7928824974005
 20
49.50001769121809
 30
0.0
 11
303.8332870072918
 21
49.49040103029075
 31
0.0
  0
LINE
  5
66DE
330
1E
100
AcDbEntity
  8
10
100
AcDbLine
 10
305.499997263636
 20
80.0000208571164
 30
0.0
 11
295.0000084839483
 21
80.0000208571164
 31
0.0
  0
LINE
  5
66DF
330
1E
100
AcDbEntity
  8
10
100
AcDbLine
 10
301.9999929292972
 20
95.0000013676181
 30
0.0
 11
301.9999929292972
 21
94.98982757016348
 31
0.0
  0
LINE
  5
66E0
330
1E
100
AcDbEntity
  8
10
100
AcDbLine
 10
303.9969640296766
 20
47.91489160113266
 30
0.0
 11
303.9999919455876
 21
48.00001237316974
 31
0.0
  0
LINE
  5
66E1
330
1E
100
AcDbEntity
  8
10
100
AcDbLine
 10
301.9999929292972
 20
85.00000628617454
 30
0.0
 11
301.9999929292972
 21
86.20000569594777
 31
0.0
  0
LINE
  5
66E2
330
1E
100
AcDbEntity
  8
10
100
AcDbLine
 10
295.0000084839483
 20
84.89092864346458
 30
0.0
 11
295.0000084839483
 21
84.81176680993668
 31
0.0
  0
LINE
  5
66E3
330
1E
100
AcDbEntity
  8
10
100
AcDbLine
 10
269.0053261808715
 20
50.00001138945846
 30
0.0
 11
268.8772332262524
 21
50.00001138945846
 31
0.0
  0
LINE
  5
66E4
330
1E
100
AcDbEntity
  8
10
100
AcDbLine
 10
291.9999978478518
 20
84.98748282597444
 30
0.0
 11
291.9999978478518
 21
85.00000628617454
 31
0.0
  0
LINE
  5
66E5
330
1E
100
AcDbEntity
  8
10
100
AcDbLine
 10
268.5109280712276
 20
50.00001138945846
 30
0.0
 11
268.5000033506294
 21
50.00001138945846
 31
0.0
  0
LINE
  5
66E6
330
1E
100
AcDbEntity
  8
10
100
AcDbLine
 10
292.0500674653228
 20
88.08121351529008
 30
0.0
 11
292.0394092013228
 21
88.40294774812901
 31
0.0
  0
LINE
  5
66E7
330
1E
100
AcDbEntity
  8
10
100
AcDbLine
 10
292.584579404931
 20
86.22422902322069
 30
0.0
 11
292.7182679481483
 21
86.21085774656604
 31
0.0
  0
LINE
  5
66E8
330
1E
100
AcDbEntity
  8
10
100
AcDbLine
 10
268.5974780195754
 20
50.00001138945846
 30
0.0
 11
268.5435811163916
 21
50.00001138945846
 31
0.0
  0
LINE
  5
66E9
330
1E
100
AcDbEntity
  8
10
100
AcDbLine
 10
303.9733220622583
 20
47.75450895125866
 30
0.0
 11
303.9880013985821
 21
47.83224160847749
 31
0.0
  0
LINE
  5
66EA
330
1E
100
AcDbEntity
  8
10
100
AcDbLine
 10
337.9698414033628
 20
54.32901065305667
 30
0.0
 11
337.9923933210593
 21
54.41318671533006
 31
0.0
  0
LINE
  5
66EB
330
1E
100
AcDbEntity
  8
10
100
AcDbLine
 10
295.0000084839483
 20
84.71695670699046
 30
0.0
 11
295.0000084839483
 21
84.61127033009871
 31
0.0
  0
LINE
  5
66EC
330
1E
100
AcDbEntity
  8
10
100
AcDbLine
 10
291.9999978478518
 20
86.46796414224082
 30
0.0
 11
292.0101716453063
 21
86.42983662511324
 31
0.0
  0
LINE
  5
66ED
330
1E
100
AcDbEntity
  8
10
100
AcDbLine
 10
291.9999978478518
 20
89.06603710889795
 30
0.0
 11
292.0056418831082
 21
89.03759892267954
 31
0.0
  0
LINE
  5
66EE
330
1E
100
AcDbEntity
  8
10
100
AcDbLine
 10
337.9923933210593
 20
54.41318671533006
 30
0.0
 11
337.9999994458192
 21
54.50000312027622
 31
0.0
  0
LINE
  5
66EF
330
1E
100
AcDbEntity
  8
10
100
AcDbLine
 10
301.9999929292972
 20
94.90964835689013
 30
0.0
 11
301.9999929292972
 21
94.84126590399865
 31
0.0
  0
LINE
  5
66F0
330
1E
100
AcDbEntity
  8
10
100
AcDbLine
 10
292.0394092013228
 20
88.40294774812901
 30
0.0
 11
292.023397582001
 21
88.73555825491349
 31
0.0
  0
LINE
  5
66F1
330
1E
100
AcDbEntity
  8
10
100
AcDbLine
 10
292.0095176154717
 20
89.02916920478856
 30
0.0
 11
292.020418112741
 21
89.35700771610028
 31
0.0
  0
LINE
  5
66F2
330
1E
100
AcDbEntity
  8
10
100
AcDbLine
 10
303.9079433019503
 20
49.4157447356356
 30
0.0
 11
303.9393367340961
 21
49.353563454526
 31
0.0
  0
LINE
  5
66F3
330
1E
100
AcDbEntity
  8
10
100
AcDbLine
 10
291.9999978478518
 20
85.00000628617454
 30
0.0
 11
291.9999978478518
 21
86.46796414224082
 31
0.0
  0
LINE
  5
66F4
330
1E
100
AcDbEntity
  8
10
100
AcDbLine
 10
293.5000031659001
 20
47.50001867492938
 30
0.0
 11
303.0000045491033
 21
47.50001867492938
 31
0.0
  0
LINE
  5
66F5
330
1E
100
AcDbEntity
  8
10
100
AcDbLine
 10
268.000009652387
 20
48.5000060714101
 30
0.0
 11
284.999989179181
 21
48.5000060714101
 31
0.0
  0
LINE
  5
66F6
330
1E
100
AcDbEntity
  8
10
100
AcDbLine
 10
337.9330219459077
 20
54.25001838281969
 30
0.0
 11
337.9698414033628
 21
54.32901065305667
 31
0.0
  0
LINE
  5
66F7
330
1E
100
AcDbEntity
  8
10
100
AcDbLine
 10
312.5000059323065
 20
80.0000208571164
 30
0.0
 11
301.9999929292972
 21
85.00000628617454
 31
0.0
  0
LINE
  5
66F8
330
1E
100
AcDbEntity
  8
10
100
AcDbLine
 10
303.9999919455876
 20
48.00001237316974
 30
0.0
 11
303.9999919455876
 21
48.99999976965045
 31
0.0
  0
LINE
  5
66F9
330
1E
100
AcDbEntity
  8
0
100
AcDbLine
 10
337.9999994458192
 20
79.50000293554876
 30
0.0
 11
337.9999994458192
 21
78.00002184082768
 31
0.0
  0
LINE
  5
66FA
330
1E
100
AcDbEntity
  8
10
100
AcDbLine
 10
295.0000084839483
 20
84.95049380522869
 30
0.0
 11
295.0000084839483
 21
84.89092864346458
 31
0.0
  0
LINE
  5
66FB
330
1E
100
AcDbEntity
  8
10
100
AcDbLine
 10
303.8721412242375
 20
49.46193862074506
 30
0.0
 11
303.9079433019503
 21
49.4157447356356
 31
0.0
  0
LINE
  5
66FC
330
1E
100
AcDbEntity
  8
10
100
AcDbLine
 10
303.9650861309853
 20
49.27779288681631
 30
0.0
 11
303.9842225595275
 21
49.19136405510653
 31
0.0
  0
LINE
  5
66FD
330
1E
100
AcDbEntity
  8
10
100
AcDbLine
 10
337.7499904850338
 20
54.06698692194549
 30
0.0
 11
337.8214008538343
 21
54.1169838694368
 31
0.0
  0
LINE
  5
66FE
330
1E
100
AcDbEntity
  8
10
100
AcDbLine
 10
292.0095176154717
 20
89.02916920478856
 30
0.0
 11
292.0393123080139
 21
88.99164727084281
 31
0.0
  0
LINE
  5
66FF
330
1E
100
AcDbEntity
  8
10
100
AcDbLine
 10
268.7655152408696
 20
50.00001138945846
 30
0.0
 11
268.671819410978
 21
50.00001138945846
 31
0.0
  0
LINE
  5
6700
330
1E
100
AcDbEntity
  8
10
100
AcDbLine
 10
292.457770286659
 20
88.84090550522342
 30
0.0
 11
292.5832955685836
 21
88.82244732984146
 31
0.0
  0
LINE
  5
6701
330
1E
100
AcDbEntity
  8
10
100
AcDbLine
 10
292.4593690262554
 20
86.24254185863902
 30
0.0
 11
292.584579404931
 21
86.22422902322069
 31
0.0
  0
LINE
  5
6702
330
1E
100
AcDbEntity
  8
10
100
AcDbLine
 10
301.9999929292972
 20
86.20000569594777
 30
0.0
 11
301.9999929292972
 21
88.7980786626049
 31
0.0
  0
LINE
  5
6703
330
1E
100
AcDbEntity
  8
10
100
AcDbLine
 10
269.3029097564139
 20
50.00001138945846
 30
0.0
 11
269.1479046851964
 21
50.00001138945846
 31
0.0
  0
LINE
  5
6704
330
1E
100
AcDbEntity
  8
10
100
AcDbLine
 10
291.9999978478518
 20
84.95049380522869
 30
0.0
 11
291.9999978478518
 21
84.98748282597444
 31
0.0
  0
LINE
  5
6705
330
1E
100
AcDbEntity
  8
10
100
AcDbLine
 10
295.0000084839483
 20
80.0000208571164
 30
0.0
 11
295.0000084839483
 21
84.50001258793419
 31
0.0
  0
LINE
  5
6706
330
1E
100
AcDbEntity
  8
10
100
AcDbLine
 10
337.8214008538343
 20
54.1169838694368
 30
0.0
 11
337.8830249984166
 21
54.17860801401912
 31
0.0
  0
LINE
  5
6707
330
1E
100
AcDbEntity
  8
10
100
AcDbLine
 10
269.4680886250935
 20
50.00001138945846
 30
0.0
 11
269.3029097564139
 21
50.00001138945846
 31
0.0
  0
LINE
  5
6708
330
1E
100
AcDbEntity
  8
10
100
AcDbLine
 10
337.6709982148021
 20
54.03016746449065
 30
0.0
 11
337.7499904850338
 21
54.06698692194549
 31
0.0
  0
LINE
  5
6709
330
1E
100
AcDbEntity
  8
10
100
AcDbLine
 10
292.0321422031411
 20
87.25677257155622
 30
0.0
 11
292.0444476533957
 21
87.49590525839449
 31
0.0
  0
LINE
  5
670A
330
1E
100
AcDbEntity
  8
10
100
AcDbLine
 10
303.0815160453785
 20
49.50001769121809
 30
0.0
 11
303.7928824974005
 21
49.50001769121809
 31
0.0
  0
LINE
  5
670B
330
1E
100
AcDbEntity
  8
10
100
AcDbLine
 10
292.3433392886216
 20
88.86394188945997
 30
0.0
 11
292.457770286659
 21
88.84090550522342
 31
0.0
  0
LINE
  5
670C
330
1E
100
AcDbEntity
  8
10
100
AcDbLine
 10
303.8332870072918
 20
49.49040103029075
 30
0.0
 11
303.8721412242375
 21
49.46193862074506
 31
0.0
  0
LINE
  5
670D
330
1E
100
AcDbEntity
  8
10
100
AcDbLine
 10
268.671819410978
 20
50.00001138945846
 30
0.0
 11
268.5974780195754
 21
50.00001138945846
 31
0.0
  0
LINE
  5
670E
330
1E
100
AcDbEntity
  8
10
100
AcDbLine
 10
291.9999978478518
 20
86.79965416258893
 30
0.0
 11
291.9999978478518
 21
89.06603710889795
 31
0.0
  0
LINE
  5
670F
330
1E
100
AcDbEntity
  8
10
100
AcDbLine
 10
301.9999929292972
 20
88.7980786626049
 30
0.0
 11
301.9999929292972
 21
94.00001397113738
 31
0.0
  0
LINE
  5
6710
330
1E
100
AcDbEntity
  8
10
100
AcDbLine
 10
295.0000084839483
 20
84.98748282597444
 30
0.0
 11
295.0000084839483
 21
84.95049380522869
 31
0.0
  0
LINE
  5
6711
330
1E
100
AcDbEntity
  8
10
100
AcDbLine
 10
292.8576731966021
 20
86.20274293192961
 30
0.0
 11
293.0000094676578
 21
86.20000569594777
 31
0.0
  0
LINE
  5
6712
330
1E
100
AcDbEntity
  8
10
100
AcDbLine
 10
292.7182679481483
 20
86.21085774656604
 30
0.0
 11
292.8576731966021
 21
86.20274293192961
 31
0.0
  0
LINE
  5
6713
330
1E
100
AcDbEntity
  8
10
100
AcDbLine
 10
268.5435811163916
 20
50.00001138945846
 30
0.0
 11
268.5109280712276
 21
50.00001138945846
 31
0.0
  0
LINE
  5
6714
330
1E
100
AcDbEntity
  8
10
100
AcDbLine
 10
291.9999978478518
 20
84.71695670699046
 30
0.0
 11
291.9999978478518
 21
84.81176680993668
 31
0.0
  0
LINE
  5
6715
330
1E
100
AcDbEntity
  8
10
100
AcDbLine
 10
291.9999978478518
 20
84.81176680993668
 30
0.0
 11
291.9999978478518
 21
84.89092864346458
 31
0.0
  0
LINE
  5
6716
330
1E
100
AcDbEntity
  8
10
100
AcDbLine
 10
291.9999978478518
 20
84.61127033009871
 30
0.0
 11
291.9999978478518
 21
84.71695670699046
 31
0.0
  0
LINE
  5
6717
330
1E
100
AcDbEntity
  8
10
100
AcDbLine
 10
337.5868221525233
 20
54.00761554679957
 30
0.0
 11
337.6709982148021
 21
54.03016746449065
 31
0.0
  0
LINE
  5
6718
330
1E
100
AcDbEntity
  8
10
100
AcDbLine
 10
268.000009652387
 20
81.9999842439147
 30
0.0
 11
268.000009652387
 21
48.5000060714101
 31
0.0
  0
LINE
  5
6719
330
1E
100
AcDbEntity
  8
10
100
AcDbLine
 10
292.023397582001
 20
88.73555825491349
 30
0.0
 11
292.0095176154717
 21
89.02916920478856
 31
0.0
  0
LINE
  5
671A
330
1E
100
AcDbEntity
  8
10
100
AcDbLine
 10
305.0000035653939
 20
49.50001769121809
 30
0.0
 11
305.0000035653939
 21
79.50000293554876
 31
0.0
  0
LINE
  5
671B
330
1E
100
AcDbEntity
  8
10
100
AcDbLine
 10
269.8192057539125
 20
50.00001138945846
 30
0.0
 11
269.641018958493
 21
50.00001138945846
 31
0.0
  0
LINE
  5
671C
330
1E
100
AcDbEntity
  8
10
100
AcDbLine
 10
293.0000094676578
 20
95.0000013676181
 30
0.0
 11
301.9999929292972
 21
95.0000013676181
 31
0.0
  0
LINE
  5
671D
330
1E
100
AcDbEntity
  8
10
100
AcDbLine
 10
303.9960193199148
 20
49.09754710857851
 30
0.0
 11
303.9999919455876
 21
48.99999976965045
 31
0.0
  0
LINE
  5
671E
330
1E
100
AcDbEntity
  8
10
100
AcDbLine
 10
301.9999929292972
 20
94.65486740063351
 30
0.0
 11
301.9999929292972
 21
94.5406544125417
 31
0.0
  0
LINE
  5
671F
330
1E
100
AcDbEntity
  8
10
100
AcDbLine
 10
337.5000057475771
 20
54.00000942203586
 30
0.0
 11
337.5868221525233
 21
54.00761554679957
 31
0.0
  0
LINE
  5
6720
330
1E
100
AcDbEntity
  8
10
100
AcDbLine
 10
268.8772332262524
 20
50.00001138945846
 30
0.0
 11
268.7655152408696
 21
50.00001138945846
 31
0.0
  0
LINE
  5
6721
330
1E
100
AcDbEntity
  8
10
100
AcDbLine
 10
292.040499251052
 20
86.39246003113113
 30
0.0
 11
292.090375081905
 21
86.35665795342175
 31
0.0
  0
LINE
  5
6722
330
1E
100
AcDbEntity
  8
10
100
AcDbLine
 10
269.641018958493
 20
50.00001138945846
 30
0.0
 11
269.4680886250935
 21
50.00001138945846
 31
0.0
  0
LINE
  5
6723
330
1E
100
AcDbEntity
  8
10
100
AcDbLine
 10
337.9999994458192
 20
56.00000843832456
 30
0.0
 11
337.9999994458192
 21
78.00002184082768
 31
0.0
  0
LINE
  5
6724
330
1E
100
AcDbEntity
  8
10
100
AcDbLine
 10
292.0289205006192
 20
89.69097472921205
 30
0.0
 11
292.0316092899446
 21
90.03637515279661
 31
0.0
  0
LINE
  5
6725
330
1E
100
AcDbEntity
  8
10
100
AcDbLine
 10
292.1569650085803
 20
88.92190831162407
 30
0.0
 11
292.24240068387
 21
88.89114468598746
 31
0.0
  0
LINE
  5
6726
330
1E
100
AcDbEntity
  8
10
100
AcDbLine
 10
292.0061021263243
 20
91.08095769478678
 30
0.0
 11
291.9999978478518
 21
91.43614434258962
 31
0.0
  0
LINE
  5
6727
330
1E
100
AcDbEntity
  8
10
100
AcDbLine
 10
292.0316092899446
 20
90.03637515279661
 30
0.0
 11
292.0274913243047
 21
90.38153334310845
 31
0.0
  0
LINE
  5
6728
330
1E
100
AcDbEntity
  8
10
100
AcDbLine
 10
301.9999929292972
 20
94.4154198105407
 30
0.0
 11
301.9999929292972
 21
94.28173126732144
 31
0.0
  0
LINE
  5
6729
330
1E
100
AcDbEntity
  8
10
100
AcDbLine
 10
292.0393123080139
 20
88.99164727084281
 30
0.0
 11
292.0888005656379
 21
88.95565140651525
 31
0.0
  0
LINE
  5
672A
330
1E
100
AcDbEntity
  8
10
100
AcDbLine
 10
291.9999978478518
 20
84.89092864346458
 30
0.0
 11
291.9999978478518
 21
84.95049380522869
 31
0.0
  0
LINE
  5
672B
330
1E
100
AcDbEntity
  8
10
100
AcDbLine
 10
292.8572129533859
 20
88.80084012191401
 30
0.0
 11
293.0000094676578
 21
88.7980786626049
 31
0.0
  0
LINE
  5
672C
330
1E
100
AcDbEntity
  8
10
100
AcDbLine
 10
303.9880013985821
 20
47.83224160847749
 30
0.0
 11
303.9969640296766
 21
47.91489160113266
 31
0.0
  0
LINE
  5
672D
330
1E
100
AcDbEntity
  8
10
100
AcDbLine
 10
295.0000084839483
 20
84.81176680993668
 30
0.0
 11
295.0000084839483
 21
84.71695670699046
 31
0.0
  0
LINE
  5
672E
330
1E
100
AcDbEntity
  8
10
100
AcDbLine
 10
301.9999929292972
 20
94.84126590399865
 30
0.0
 11
301.9999929292972
 21
94.75575755872524
 31
0.0
  0
LINE
  5
672F
330
1E
100
AcDbEntity
  8
10
100
AcDbLine
 10
295.0000084839483
 20
84.61127033009871
 30
0.0
 11
295.0000084839483
 21
84.50001258793419
 31
0.0
  0
LINE
  5
6730
330
1E
100
AcDbEntity
  8
10
100
AcDbLine
 10
292.24240068387
 20
88.89114468598746
 30
0.0
 11
292.3433392886216
 21
88.86394188945997
 31
0.0
  0
LINE
  5
6731
330
1E
100
AcDbEntity
  8
10
100
AcDbLine
 10
292.1587333114728
 20
86.32308442182148
 30
0.0
 11
292.2442416567428
 21
86.29249035947578
 31
0.0
  0
LINE
  5
6732
330
1E
100
AcDbEntity
  8
10
100
AcDbLine
 10
305.499997263636
 20
80.0000208571164
 30
0.0
 11
337.5000057475771
 21
80.0000208571164
 31
0.0
  0
LINE
  5
6733
330
1E
100
AcDbEntity
  8
10
100
AcDbLine
 10
337.5000057475771
 20
54.00000942203586
 30
0.0
 11
311.000000614258
 21
54.00000942203586
 31
0.0
  0
LINE
  5
6734
330
1E
100
AcDbEntity
  8
10
100
AcDbLine
 10
187.0
 20
25.0
 30
0.0
 11
195.0
 21
25.0
 31
0.0
  0
DIMENSION
  5
697B
330
1E
100
AcDbEntity
  8
30
100
AcDbDimension
280
     0
  2
*D16
 10
40.0
 20
-367.9994181439515
 30
0.0
 11
35.0
 21
-364.9994181439515
 31
0.0
 70
    32
 71
     5
 42
-1.0
 73
     0
 74
     0
 75
     0
  3
STANDARD
100
AcDbAlignedDimension
 13
30.0
 23
-285.0
 33
0.0
 14
40.0
 24
-285.0
 34
0.0
 50
180.0
100
AcDbRotatedDimension
  0
DIMENSION
  5
697D
330
1E
100
AcDbEntity
  8
30
100
AcDbDimension
280
     0
  2
*D17
 10
14.99999999999999
 20
-367.9994181439515
 30
0.0
 11
7.999999999999997
 21
-367.9994181439515
 31
0.0
 70
   160
 71
     5
 42
-1.0
 73
     0
 74
     0
 75
     0
  3
STANDARD
100
AcDbAlignedDimension
 13
0.0
 23
-318.4411051697093
 33
0.0
 14
15.0
 24
-300.0000000164996
 34
0.0
 50
180.0
100
AcDbRotatedDimension
  0
LINE
  5
697F
330
1E
100
AcDbEntity
  8
18
 48
2.0
100
AcDbLine
 10
19.99999451280746
 20
-348.7980987062886
 30
0.0
 11
18.50000130642728
 21
-346.2000136279679
 31
0.0
  0
LINE
  5
6982
330
1E
100
AcDbEntity
  8
18
 48
2.0
100
AcDbLine
 10
11.50000474941771
 20
-346.2000136279679
 30
0.0
 11
9.999999431362081
 21
-348.7980987062886
 31
0.0
  0
ARC
  5
6988
330
1E
100
AcDbEntity
  8
18
 48
2.0
100
AcDbCircle
 10
-10.99999893950734
 20
-354.000009791494
 30
0.0
 40
0.9999999812562155
210
0.0
220
0.0
230
-1.0
100
AcDbArc
 50
270.0
 51
0.0
  0
CIRCLE
  5
698B
330
1E
100
AcDbEntity
  8
18
 48
2.0
100
AcDbCircle
 10
15.0
 20
-350.0000057030847
 30
0.0
 40
2.175250057989682
  0
ARC
  5
698D
330
1E
100
AcDbEntity
  8
18
 48
2.0
100
AcDbCircle
 10
-18.99999500466219
 20
-354.000009791494
 30
0.0
 40
0.9999999812562155
210
0.0
220
0.0
230
-1.0
100
AcDbArc
 50
180.0
 51
270.0
  0
LINE
  5
698E
330
1E
100
AcDbEntity
  8
18
 48
2.0
100
AcDbLine
 10
19.99999451280746
 20
-354.000009791494
 30
0.0
 11
19.99999451280746
 21
-348.7980987062886
 31
0.0
  0
LINE
  5
6992
330
1E
100
AcDbEntity
  8
18
 48
2.0
100
AcDbLine
 10
9.999999431362081
 20
-348.7980987062886
 30
0.0
 11
9.999999431362081
 21
-354.000009791494
 31
0.0
  0
LINE
  5
6994
330
1E
100
AcDbEntity
  8
18
 48
2.0
100
AcDbLine
 10
10.99999893950734
 20
-355.000021411302
 30
0.0
 11
18.99999500466219
 21
-355.000021411302
 31
0.0
  0
DIMENSION
  5
6997
330
1E
100
AcDbEntity
  8
30
100
AcDbDimension
280
     0
  2
*D18
 10
53.49898166797356
 20
-235.0
 30
0.0
 11
50.4989816679736
 21
-260.0
 31
0.0
 70
    32
 71
     5
 42
-1.0
 73
     0
 74
     0
 75
     0
  3
STANDARD
100
AcDbAlignedDimension
 13
40.0
 23
-285.0
 33
0.0
 14
40.0
 24
-235.0
 34
0.0
 50
270.0
100
AcDbRotatedDimension
  0
DIMENSION
  5
6998
330
1E
100
AcDbEntity
  8
30
100
AcDbDimension
280
     0
  2
*D19
 10
69.08672249279334
 20
-222.5
 30
0.0
 11
66.08672249279337
 21
-260.0
 31
0.0
 70
    32
 71
     5
 42
-1.0
 73
     0
 74
     0
 75
     0
  3
STANDARD
100
AcDbAlignedDimension
 13
17.50000001650187
 23
-297.5
 33
0.0
 14
17.50000001650187
 24
-222.5
 34
0.0
 50
270.0
100
AcDbRotatedDimension
  0
LINE
  5
6999
330
1E
100
AcDbEntity
  8
18
 48
2.0
100
AcDbLine
 10
40.00000682365498
 20
-180.5000103468028
 30
0.0
 11
40.00000682365498
 21
-339.4974963564282
 31
0.0
  0
LINE
  5
699A
330
1E
100
AcDbEntity
  8
18
 48
2.0
100
AcDbLine
 10
-14.9999947119868
 20
-295.5000082858905
 30
0.0
 11
-14.9999947119868
 21
-203.2500021850028
 31
0.0
  0
LINE
  5
699B
330
1E
100
AcDbEntity
  8
11
100
AcDbLine
 10
40.0
 20
-235.0
 30
0.0
 11
40.0
 21
-285.0
 31
0.0
  0
LINE
  5
699C
330
1E
100
AcDbEntity
  8
11
100
AcDbLine
 10
30.0
 20
-235.0
 30
0.0
 11
30.0
 21
-285.0
 31
0.0
  0
DIMENSION
  5
699D
330
1E
100
AcDbEntity
  8
30
100
AcDbDimension
280
     0
  2
*D20
 10
56.58672249279334
 20
-260.0
 30
0.0
 11
53.58672249279337
 21
-278.75
 31
0.0
 70
    32
 71
     5
 42
-1.0
 73
     0
 74
     0
 75
     0
  3
STANDARD
100
AcDbAlignedDimension
 13
17.50000001650187
 23
-297.5
 33
0.0
 14
45.0
 24
-260.0
 34
0.0
 50
270.0
100
AcDbRotatedDimension
  0
ARC
  5
699E
330
1E
100
AcDbEntity
  8
18
 48
2.0
100
AcDbCircle
 10
-14.49999495791415
 20
-344.5000053803751
 30
0.0
 40
0.499999990628108
100
AcDbArc
 50
180.0
 51
270.0
  0
ARC
  5
699F
330
1E
100
AcDbEntity
  8
18
 48
2.0
100
AcDbCircle
 10
36.24999352853047
 20
-344.5000053803751
 30
0.0
 40
0.499999990628108
100
AcDbArc
 50
270.0
 51
0.0
  0
ARC
  5
69A0
330
1E
100
AcDbEntity
  8
18
 48
2.0
100
AcDbCircle
 10
39.5000131254128
 20
-339.5000048117371
 30
0.0
 40
0.499999990628108
100
AcDbArc
 50
270.0
 51
0.0
  0
CIRCLE
  5
69A1
330
1E
100
AcDbEntity
  8
12
100
AcDbCircle
 10
15.0
 20
-297.5
 30
0.0
 40
2.999999999999996
  0
LINE
  5
69A3
330
1E
100
AcDbEntity
  8
18
 48
2.0
100
AcDbLine
 10
-14.9999947119868
 20
-310.5000069638871
 30
0.0
 11
-14.9999947119868
 21
-299.5000063184674
 31
0.0
  0
LINE
  5
69A4
330
1E
100
AcDbEntity
  8
18
 48
2.0
100
AcDbLine
 10
36.24999352853047
 20
-345.0000051344467
 30
0.0
 11
13.50000774616637
 21
-345.0000051344467
 31
0.0
  0
LINE
  5
69A5
330
1E
100
AcDbEntity
  8
18
 48
2.0
100
AcDbLine
 10
-14.61125270008051
 20
-316.7500069177053
 30
0.0
 11
-14.71693907697043
 21
-316.7500069177053
 31
0.0
  0
LINE
  5
69A6
330
1E
100
AcDbEntity
  8
18
 48
2.0
100
AcDbLine
 10
-14.9999947119868
 20
-344.499519010279
 30
0.0
 11
-14.9999947119868
 21
-338.0000055495206
 31
0.0
  0
LINE
  5
69A7
330
1E
100
AcDbEntity
  8
18
 48
2.0
100
AcDbLine
 10
11.50000474941771
 20
-345.0000142181948
 30
0.0
 11
11.50000474941771
 21
-346.2000136279679
 31
0.0
  0
LINE
  5
69A8
330
1E
100
AcDbEntity
  8
18
 48
2.0
100
AcDbLine
 10
-14.89091101344818
 20
-316.7500069177053
 30
0.0
 11
-14.95047617521048
 21
-316.7500069177053
 31
0.0
  0
LINE
  5
69AA
330
1E
100
AcDbEntity
  8
18
 48
2.0
100
AcDbLine
 10
-14.49999495791415
 20
-316.7500069177053
 30
0.0
 11
-14.61125270008051
 21
-316.7500069177053
 31
0.0
  0
LINE
  5
69AB
330
1E
100
AcDbEntity
  8
18
 48
2.0
100
AcDbLine
 10
-11.74999328260309
 20
-338.0000055495206
 30
0.0
 11
-11.74999328260309
 21
-316.7500069177053
 31
0.0
  0
LINE
  5
69AC
330
1E
100
AcDbEntity
  8
18
 48
2.0
100
AcDbLine
 10
-11.49999302165815
 20
-345.0000051344467
 30
0.0
 11
11.50000474941043
 21
-345.0000051344467
 31
0.0
  0
LINE
  5
69AD
330
1E
100
AcDbEntity
  8
18
 48
2.0
100
AcDbLine
 10
-14.95047617521048
 20
-316.7500069177053
 30
0.0
 11
-14.98745914012397
 21
-316.7500069177053
 31
0.0
  0
LINE
  5
69AE
330
1E
100
AcDbEntity
  8
18
 48
2.0
100
AcDbLine
 10
-14.9999947119868
 20
-316.7500069177053
 30
0.0
 11
-14.9999947119868
 21
-310.5000069638871
 31
0.0
  0
LINE
  5
69AF
330
1E
100
AcDbEntity
  8
18
 48
2.0
100
AcDbLine
 10
-14.49999495791415
 20
-345.0000051344467
 30
0.0
 11
11.50001042133226
 21
-345.0000051344467
 31
0.0
  0
LINE
  5
69B2
330
1E
100
AcDbEntity
  8
18
 48
2.0
100
AcDbLine
 10
-14.98745914012397
 20
-316.7500069177053
 30
0.0
 11
-14.9999947119868
 21
-316.7500069177053
 31
0.0
  0
LINE
  5
69B3
330
1E
100
AcDbEntity
  8
18
 48
2.0
100
AcDbLine
 10
-14.49999495791415
 20
-316.7500069177053
 30
0.0
 11
-11.74999328260309
 21
-316.7500069177053
 31
0.0
  0
LINE
  5
69B4
330
1E
100
AcDbEntity
  8
18
 48
2.0
100
AcDbLine
 10
-14.9999947119868
 20
-338.0000055495206
 30
0.0
 11
-11.74999328260309
 21
-338.0000055495206
 31
0.0
  0
LINE
  5
69B5
330
1E
100
AcDbEntity
  8
18
 48
2.0
100
AcDbLine
 10
-14.81173706825211
 20
-316.7500069177053
 30
0.0
 11
-14.89091101344818
 21
-316.7500069177053
 31
0.0
  0
LINE
  5
69B7
330
1E
100
AcDbEntity
  8
18
 48
2.0
100
AcDbLine
 10
-14.71693907697043
 20
-316.7500069177053
 30
0.0
 11
-14.81173706825211
 21
-316.7500069177053
 31
0.0
  0
LINE
  5
69B8
330
1E
100
AcDbEntity
  8
18
 48
2.0
100
AcDbLine
 10
23.49999486668093
 20
-345.0000051344467
 30
0.0
 11
11.50000474941771
 21
-345.0000051344467
 31
0.0
  0
LINE
  5
69B9
330
1E
100
AcDbEntity
  8
18
 48
2.0
100
AcDbLine
 10
18.50000130642728
 20
-346.2000136279679
 30
0.0
 11
18.50000130642728
 21
-345.0000142181948
 31
0.0
  0
LINE
  5
69BA
330
1E
100
AcDbEntity
  8
18
 48
2.0
100
AcDbLine
 10
39.5000131254128
 20
-340.0000075937255
 30
0.0
 11
36.75001145010174
 21
-340.0000075937255
 31
0.0
  0
LINE
  5
69BB
330
1E
100
AcDbEntity
  8
18
 48
2.0
100
AcDbLine
 10
36.75001145010174
 20
-340.0000075937255
 30
0.0
 11
36.75001145010174
 21
-344.5000053803751
 31
0.0
  0
LINE
  5
69BC
330
1E
100
AcDbEntity
  8
18
 48
2.0
100
AcDbLine
 10
-14.9999947119868
 20
-297.0954414017301
 30
0.0
 11
-14.9999947119868
 21
-297.0425739899569
 31
0.0
  0
LINE
  5
69BD
330
1E
100
AcDbEntity
  8
18
 48
2.0
100
AcDbLine
 10
-14.9999947119868
 20
-298.5969001194149
 30
0.0
 11
-14.9999947119868
 21
-298.3856605939313
 31
0.0
  0
LINE
  5
69BE
330
1E
100
AcDbEntity
  8
18
 48
2.0
100
AcDbLine
 10
-14.9999947119868
 20
-297.8157704848447
 30
0.0
 11
-14.9999947119868
 21
-297.65248709153
 31
0.0
  0
LINE
  5
69BF
330
1E
100
AcDbEntity
  8
18
 48
2.0
100
AcDbLine
 10
-14.9999947119868
 20
-297.2620978933678
 30
0.0
 11
-14.9999947119868
 21
-297.1688259717033
 31
0.0
  0
LINE
  5
69C0
330
1E
100
AcDbEntity
  8
18
 48
2.0
100
AcDbLine
 10
-14.9999947119868
 20
-296.9890707158429
 30
0.0
 11
-14.9999947119868
 21
-296.956417670679
 31
0.0
  0
LINE
  5
69C1
330
1E
100
AcDbEntity
  8
18
 48
2.0
100
AcDbLine
 10
-14.9999947119868
 20
-296.9025328791603
 30
0.0
 11
-14.9999947119868
 21
-296.8281914877596
 31
0.0
  0
LINE
  5
69C2
330
1E
100
AcDbEntity
  8
18
 48
2.0
100
AcDbLine
 10
-14.9999947119868
 20
-296.6227716166536
 30
0.0
 11
-14.9999947119868
 21
-296.4946907736978
 31
0.0
  0
LINE
  5
69C3
330
1E
100
AcDbEntity
  8
18
 48
2.0
100
AcDbLine
 10
-14.9999947119868
 20
-296.4946907736978
 30
0.0
 11
-14.9999947119868
 21
-296.3521062135378
 31
0.0
  0
LINE
  5
69C4
330
1E
100
AcDbEntity
  8
18
 48
2.0
100
AcDbLine
 10
-14.9999947119868
 20
-297.1688259717033
 30
0.0
 11
-14.9999947119868
 21
-297.0954414017301
 31
0.0
  0
LINE
  5
69C5
330
1E
100
AcDbEntity
  8
18
 48
2.0
100
AcDbLine
 10
-14.9999947119868
 20
-296.1970890306547
 30
0.0
 11
-14.9999947119868
 21
-296.0319162178125
 31
0.0
  0
LINE
  5
69C6
330
1E
100
AcDbEntity
  8
18
 48
2.0
100
AcDbLine
 10
-14.9999947119868
 20
-296.956417670679
 30
0.0
 11
-14.9999947119868
 21
-296.9025328791603
 31
0.0
  0
LINE
  5
69C7
330
1E
100
AcDbEntity
  8
18
 48
2.0
100
AcDbLine
 10
-14.9999947119868
 20
-297.65248709153
 30
0.0
 11
-14.9999947119868
 21
-297.5049609726061
 31
0.0
  0
LINE
  5
69C8
330
1E
100
AcDbEntity
  8
18
 48
2.0
100
AcDbLine
 10
-14.9999947119868
 20
-296.0319162178125
 30
0.0
 11
-14.9999947119868
 21
-295.8589798285793
 31
0.0
  0
LINE
  5
69C9
330
1E
100
AcDbEntity
  8
18
 48
2.0
100
AcDbLine
 10
-14.9999947119868
 20
-296.7344835462045
 30
0.0
 11
-14.9999947119868
 21
-296.6227716166536
 31
0.0
  0
LINE
  5
69CA
330
1E
100
AcDbEntity
  8
18
 48
2.0
100
AcDbLine
 10
-14.9999947119868
 20
-299.5000063184674
 30
0.0
 11
-14.9999947119868
 21
-299.2693336286793
 31
0.0
  0
LINE
  5
69CB
330
1E
100
AcDbEntity
  8
18
 48
2.0
100
AcDbLine
 10
-14.9999947119868
 20
-297.5049609726061
 30
0.0
 11
-14.9999947119868
 21
-297.374463852755
 31
0.0
  0
LINE
  5
69CC
330
1E
100
AcDbEntity
  8
18
 48
2.0
100
AcDbLine
 10
-14.9999947119868
 20
-295.6808112006551
 30
0.0
 11
-14.9999947119868
 21
-295.5000082858905
 31
0.0
  0
LINE
  5
69CD
330
1E
100
AcDbEntity
  8
18
 48
2.0
100
AcDbLine
 10
-14.9999947119868
 20
-299.0406351400638
 30
0.0
 11
-14.9999947119868
 21
-298.8158487188028
 31
0.0
  0
LINE
  5
69CE
330
1E
100
AcDbEntity
  8
18
 48
2.0
100
AcDbLine
 10
-14.9999947119868
 20
-297.0425739899569
 30
0.0
 11
-14.9999947119868
 21
-297.0106718679385
 31
0.0
  0
LINE
  5
69CF
330
1E
100
AcDbEntity
  8
18
 48
2.0
100
AcDbLine
 10
-14.9999947119868
 20
-299.2693336286793
 30
0.0
 11
-14.9999947119868
 21
-299.0406351400638
 31
0.0
  0
LINE
  5
69D0
330
1E
100
AcDbEntity
  8
18
 48
2.0
100
AcDbLine
 10
-14.9999947119868
 20
-296.3521062135378
 30
0.0
 11
-14.9999947119868
 21
-296.1970890306547
 31
0.0
  0
LINE
  5
69D1
330
1E
100
AcDbEntity
  8
18
 48
2.0
100
AcDbLine
 10
-14.9999947119868
 20
-295.8589798285793
 30
0.0
 11
-14.9999947119868
 21
-295.6808112006551
 31
0.0
  0
LINE
  5
69D2
330
1E
100
AcDbEntity
  8
18
 48
2.0
100
AcDbLine
 10
-14.9999947119868
 20
-297.0106718679385
 30
0.0
 11
-14.9999947119868
 21
-297.0000075481067
 31
0.0
  0
LINE
  5
69D3
330
1E
100
AcDbEntity
  8
18
 48
2.0
100
AcDbLine
 10
-14.9999947119868
 20
-297.9934183112326
 30
0.0
 11
-14.9999947119868
 21
-297.8157704848447
 31
0.0
  0
LINE
  5
69D4
330
1E
100
AcDbEntity
  8
18
 48
2.0
100
AcDbLine
 10
-14.9999947119868
 20
-296.8281914877596
 30
0.0
 11
-14.9999947119868
 21
-296.7344835462045
 31
0.0
  0
LINE
  5
69D5
330
1E
100
AcDbEntity
  8
18
 48
2.0
100
AcDbLine
 10
-14.9999947119868
 20
-298.8158487188028
 30
0.0
 11
-14.9999947119868
 21
-298.5969001194149
 31
0.0
  0
LINE
  5
69D6
330
1E
100
AcDbEntity
  8
18
 48
2.0
100
AcDbLine
 10
-14.9999947119868
 20
-298.1839287244024
 30
0.0
 11
-14.9999947119868
 21
-297.9934183112326
 31
0.0
  0
LINE
  5
69D7
330
1E
100
AcDbEntity
  8
18
 48
2.0
100
AcDbLine
 10
-14.9999947119868
 20
-297.374463852755
 30
0.0
 11
-14.9999947119868
 21
-297.2620978933678
 31
0.0
  0
LINE
  5
69D8
330
1E
100
AcDbEntity
  8
18
 48
2.0
100
AcDbLine
 10
-14.9999947119868
 20
-298.3856605939313
 30
0.0
 11
-14.9999947119868
 21
-298.1839287244024
 31
0.0
  0
LINE
  5
69D9
330
1E
100
AcDbEntity
  8
18
 48
2.0
100
AcDbLine
 10
-14.9999947119868
 20
-297.0000075481067
 30
0.0
 11
-14.9999947119868
 21
-296.9890707158429
 31
0.0
  0
LINE
  5
69DC
330
1E
100
AcDbEntity
  8
12
100
AcDbLine
 10
8.0
 20
-297.5
 30
0.0
 11
19.5
 21
-297.5
 31
0.0
  0
LINE
  5
69DD
330
1E
100
AcDbEntity
  8
12
100
AcDbLine
 10
15.0
 20
-290.5
 30
0.0
 11
15.0
 21
-307.0
 31
0.0
  0
LINE
  5
69E0
330
1E
100
AcDbEntity
  8
18
 48
2.0
100
AcDbLine
 10
-20.0
 20
-310.0
 30
0.0
 11
45.0
 21
-310.0
 31
0.0
  0
LINE
  5
69E1
330
1E
100
AcDbEntity
  8
18
 48
2.0
100
AcDbLine
 10
-20.0
 20
-312.5
 30
0.0
 11
45.0
 21
-312.5
 31
0.0
  0
LINE
  5
69E2
330
1E
100
AcDbEntity
  8
11
100
AcDbLine
 10
30.0
 20
-285.0
 30
0.0
 11
40.0
 21
-285.0
 31
0.0
  0
CIRCLE
  5
69EA
330
1E
100
AcDbEntity
  8
18
 48
2.0
100
AcDbCircle
 10
-15.00001002183853
 20
-169.9999958948826
 30
0.0
 40
2.249999999999996
210
0.0
220
0.0
230
-1.0
  0
ARC
  5
69EC
330
1E
100
AcDbEntity
  8
18
 48
2.0
100
AcDbCircle
 10
19.00000502650073
 20
-165.999999311214
 30
0.0
 40
0.9999999812562155
100
AcDbArc
 50
0.0
 51
90.0
  0
ARC
  5
69EF
330
1E
100
AcDbEntity
  8
18
 48
2.0
100
AcDbCircle
 10
-14.49999495791415
 20
-175.500012806081
 30
0.0
 40
0.499999990628108
100
AcDbArc
 50
90.0
 51
180.0
  0
ARC
  5
69F0
330
1E
100
AcDbEntity
  8
18
 48
2.0
100
AcDbCircle
 10
11.00000896134588
 20
-165.999999311214
 30
0.0
 40
0.9999999812562155
100
AcDbArc
 50
90.0
 51
180.0
  0
ARC
  5
69F1
330
1E
100
AcDbEntity
  8
18
 48
2.0
100
AcDbCircle
 10
36.24999352853047
 20
-175.500012806081
 30
0.0
 40
0.499999990628108
100
AcDbArc
 50
0.0
 51
90.0
  0
ARC
  5
69F2
330
1E
100
AcDbEntity
  8
18
 48
2.0
100
AcDbCircle
 10
39.5000131254128
 20
-180.5000103468028
 30
0.0
 40
0.499999990628108
100
AcDbArc
 50
0.0
 51
90.0
  0
CIRCLE
  5
69F4
330
1E
100
AcDbEntity
  8
12
100
AcDbCircle
 10
15.0
 20
-222.5
 30
0.0
 40
2.999999999999996
  0
LINE
  5
69F5
330
1E
100
AcDbEntity
  8
18
 48
2.0
100
AcDbLine
 10
-11.74999328260309
 20
-203.2500021850028
 30
0.0
 11
-11.74999328260309
 21
-182.0000035531874
 31
0.0
  0
LINE
  5
69F6
330
1E
100
AcDbEntity
  8
18
 48
2.0
100
AcDbLine
 10
36.24999352853047
 20
-175.0000069961769
 30
0.0
 11
13.49999563449817
 21
-175.0000069961769
 31
0.0
  0
LINE
  5
69F7
330
1E
100
AcDbEntity
  8
18
 48
2.0
100
AcDbLine
 10
-14.49999495791415
 20
-203.2500021850028
 30
0.0
 11
-11.74999328260309
 21
-203.2500021850028
 31
0.0
  0
LINE
  5
69F8
330
1E
100
AcDbEntity
  8
18
 48
2.0
100
AcDbLine
 10
-14.81173706825211
 20
-203.2500021850028
 30
0.0
 11
-14.71693907697043
 21
-203.2500021850028
 31
0.0
  0
LINE
  5
69F9
330
1E
100
AcDbEntity
  8
18
 48
2.0
100
AcDbLine
 10
-14.98745914012397
 20
-203.2500021850028
 30
0.0
 11
-14.95047617521048
 21
-203.2500021850028
 31
0.0
  0
LINE
  5
69FA
330
1E
100
AcDbEntity
  8
18
 48
2.0
100
AcDbLine
 10
-14.95047617521048
 20
-203.2500021850028
 30
0.0
 11
-14.89091101344818
 21
-203.2500021850028
 31
0.0
  0
LINE
  5
69FB
330
1E
100
AcDbEntity
  8
18
 48
2.0
100
AcDbLine
 10
-14.61125270008051
 20
-203.2500021850028
 30
0.0
 11
-14.49999495791415
 21
-203.2500021850028
 31
0.0
  0
LINE
  5
69FC
330
1E
100
AcDbEntity
  8
18
 48
2.0
100
AcDbLine
 10
-14.71693907697043
 20
-203.2500021850028
 30
0.0
 11
-14.61125270008051
 21
-203.2500021850028
 31
0.0
  0
LINE
  5
69FD
330
1E
100
AcDbEntity
  8
18
 48
2.0
100
AcDbLine
 10
-14.9999947119868
 20
-203.2500021850028
 30
0.0
 11
-14.98745914012397
 21
-203.2500021850028
 31
0.0
  0
LINE
  5
69FE
330
1E
100
AcDbEntity
  8
18
 48
2.0
100
AcDbLine
 10
-14.89091101344818
 20
-203.2500021850028
 30
0.0
 11
-14.81173706825211
 21
-203.2500021850028
 31
0.0
  0
LINE
  5
6A00
330
1E
100
AcDbEntity
  8
18
 48
2.0
100
AcDbLine
 10
-11.49999302165815
 20
-175.0000069961769
 30
0.0
 11
11.50000474941043
 21
-175.0000069961769
 31
0.0
  0
LINE
  5
6A01
330
1E
100
AcDbEntity
  8
18
 48
2.0
100
AcDbLine
 10
6.49999907748861
 20
-175.0000069961769
 30
0.0
 11
18.50000130642001
 21
-175.0000069961769
 31
0.0
  0
LINE
  5
6A02
330
1E
100
AcDbEntity
  8
18
 48
2.0
100
AcDbLine
 10
-14.9999947119868
 20
-182.0000035531874
 30
0.0
 11
-11.74999328260309
 21
-182.0000035531874
 31
0.0
  0
LINE
  5
6A03
330
1E
100
AcDbEntity
  8
18
 48
2.0
100
AcDbLine
 10
11.00000896134588
 20
-164.9999876914062
 30
0.0
 11
19.00000502650073
 21
-164.9999876914062
 31
0.0
  0
LINE
  5
6A04
330
1E
100
AcDbEntity
  8
18
 48
2.0
100
AcDbLine
 10
-14.9999947119868
 20
-178.2830672114578
 30
0.0
 11
-14.9999947119868
 21
-178.188269220175
 31
0.0
  0
LINE
  5
6A05
330
1E
100
AcDbEntity
  8
18
 48
2.0
100
AcDbLine
 10
18.50001132825855
 20
-173.7999954747401
 30
0.0
 11
18.50001132825855
 21
-174.9999948845134
 31
0.0
  0
LINE
  5
6A06
330
1E
100
AcDbEntity
  8
18
 48
2.0
100
AcDbLine
 10
20.00000453464597
 20
-171.2019103964194
 30
0.0
 11
18.50001132825855
 21
-173.7999954747401
 31
0.0
  0
LINE
  5
6A08
330
1E
100
AcDbEntity
  8
18
 48
2.0
100
AcDbLine
 10
-14.9999947119868
 20
-178.3887535883494
 30
0.0
 11
-14.9999947119868
 21
-178.2830672114578
 31
0.0
  0
LINE
  5
6A0D
330
1E
100
AcDbEntity
  8
18
 48
2.0
100
AcDbLine
 10
-14.9999947119868
 20
-178.0495301132195
 30
0.0
 11
-14.9999947119868
 21
-178.0125410924738
 31
0.0
  0
LINE
  5
6A0F
330
1E
100
AcDbEntity
  8
18
 48
2.0
100
AcDbLine
 10
-14.49999495791415
 20
-175.0000069961769
 30
0.0
 11
11.50001042133226
 21
-175.0000069961769
 31
0.0
  0
LINE
  5
6A10
330
1E
100
AcDbEntity
  8
18
 48
2.0
100
AcDbLine
 10
10.00000945320062
 20
-171.2019103964194
 30
0.0
 11
10.00000945320062
 21
-165.999999311214
 31
0.0
  0
LINE
  5
6A11
330
1E
100
AcDbEntity
  8
18
 48
2.0
100
AcDbLine
 10
11.50001477124897
 20
-174.9999948845134
 30
0.0
 11
11.50001477124897
 21
-173.7999954747401
 31
0.0
  0
LINE
  5
6A12
330
1E
100
AcDbEntity
  8
18
 48
2.0
100
AcDbLine
 10
-14.9999947119868
 20
-178.188269220175
 30
0.0
 11
-14.9999947119868
 21
-178.1090952749836
 31
0.0
  0
LINE
  5
6A14
330
1E
100
AcDbEntity
  8
18
 48
2.0
100
AcDbLine
 10
-14.9999947119868
 20
-178.0125410924738
 30
0.0
 11
-14.9999947119868
 21
-178.00000552061
 31
0.0
  0
LINE
  5
6A15
330
1E
100
AcDbEntity
  8
18
 48
2.0
100
AcDbLine
 10
-14.9999947119868
 20
-178.5000113305139
 30
0.0
 11
-14.9999947119868
 21
-178.3887535883494
 31
0.0
  0
LINE
  5
6A16
330
1E
100
AcDbEntity
  8
18
 48
2.0
100
AcDbLine
 10
-14.9999947119868
 20
-175.500012806081
 30
0.0
 11
-14.9999947119868
 21
-178.00000552061
 31
0.0
  0
LINE
  5
6A17
330
1E
100
AcDbEntity
  8
18
 48
2.0
100
AcDbLine
 10
-14.95047617521048
 20
-179.5000108386584
 30
0.0
 11
-14.98745914012397
 21
-179.5000108386584
 31
0.0
  0
LINE
  5
6A19
330
1E
100
AcDbEntity
  8
18
 48
2.0
100
AcDbLine
 10
-14.9999947119868
 20
-178.1090952749836
 30
0.0
 11
-14.9999947119868
 21
-178.0495301132195
 31
0.0
  0
LINE
  5
6A1A
330
1E
100
AcDbEntity
  8
18
 48
2.0
100
AcDbLine
 10
20.00000453464597
 20
-165.999999311214
 30
0.0
 11
20.00000453464597
 21
-171.2019103964194
 31
0.0
  0
LINE
  5
6A1D
330
1E
100
AcDbEntity
  8
18
 48
2.0
100
AcDbLine
 10
-14.9999947119868
 20
-179.5000108386584
 30
0.0
 11
-14.9999947119868
 21
-178.5000113305139
 31
0.0
  0
LINE
  5
6A1E
330
1E
100
AcDbEntity
  8
18
 48
2.0
100
AcDbLine
 10
-14.9999947119868
 20
-182.0000035531874
 30
0.0
 11
-14.9999947119868
 21
-179.5000108386584
 31
0.0
  0
LINE
  5
6A1F
330
1E
100
AcDbEntity
  8
18
 48
2.0
100
AcDbLine
 10
-14.98745914012397
 20
-179.5000108386584
 30
0.0
 11
-14.9999947119868
 21
-179.5000108386584
 31
0.0
  0
LINE
  5
6A20
330
1E
100
AcDbEntity
  8
18
 48
2.0
100
AcDbLine
 10
11.50001477124897
 20
-173.7999954747401
 30
0.0
 11
10.00000945320062
 21
-171.2019103964194
 31
0.0
  0
LINE
  5
6A24
330
1E
100
AcDbEntity
  8
18
 48
2.0
100
AcDbLine
 10
36.75001145010174
 20
-180.0000045368988
 30
0.0
 11
39.5000131254128
 21
-180.0000045368988
 31
0.0
  0
LINE
  5
6A25
330
1E
100
AcDbEntity
  8
18
 48
2.0
100
AcDbLine
 10
39.5
 20
-180.0000057030846
 30
0.0
 11
37.25
 21
-180.0000057030846
 31
0.0
  0
LINE
  5
6A26
330
1E
100
AcDbEntity
  8
18
 48
2.0
100
AcDbLine
 10
36.75001145010174
 20
-175.500012806081
 30
0.0
 11
36.75001145010174
 21
-180.0000045368988
 31
0.0
  0
LINE
  5
6A29
330
1E
100
AcDbEntity
  8
12
100
AcDbLine
 10
8.0
 20
-222.5
 30
0.0
 11
19.5
 21
-222.5
 31
0.0
  0
LINE
  5
6A2A
330
1E
100
AcDbEntity
  8
12
100
AcDbLine
 10
15.0
 20
-215.5
 30
0.0
 11
15.0
 21
-229.4999999999999
 31
0.0
  0
LINE
  5
6A2D
330
1E
100
AcDbEntity
  8
18
 48
2.0
100
AcDbLine
 10
-20.0
 20
-210.0
 30
0.0
 11
45.0
 21
-210.0
 31
0.0
  0
LINE
  5
6A2E
330
1E
100
AcDbEntity
  8
18
 48
2.0
100
AcDbLine
 10
-20.0
 20
-207.5
 30
0.0
 11
45.0
 21
-207.5
 31
0.0
  0
LINE
  5
6A2F
330
1E
100
AcDbEntity
  8
11
100
AcDbLine
 10
30.0
 20
-235.0
 30
0.0
 11
40.0
 21
-235.0
 31
0.0
  0
LINE
  5
6C88
330
1E
100
AcDbEntity
  8
17
100
AcDbLine
 10
253.0
 20
67.00000000000045
 30
0.0
 11
347.9999994458194
 21
67.00000000000045
 31
0.0
  0
DIMENSION
  5
6E43
330
1E
100
AcDbEntity
  8
30
100
AcDbDimension
280
     0
  2
*D21
 10
314.1041177097286
 20
-311.0
 30
0.0
 11
306.6041177097285
 21
-308.0
 31
0.0
 70
    32
 71
     5
 42
-1.0
 73
     0
 74
     0
 75
     0
  3
STANDARD
100
AcDbAlignedDimension
 13
299.1041177097286
 23
-294.8593533752837
 33
0.0
 14
314.1041177097286
 24
-294.8593533752837
 34
0.0
 50
180.0
100
AcDbRotatedDimension
  0
CIRCLE
  5
6E4D
330
1E
100
AcDbEntity
  8
24
100
AcDbCircle
 10
306.6041177097285
 20
-284.8593533752837
 30
0.0
 40
3.249999999999996
  0
LINE
  5
6E4E
330
1E
100
AcDbEntity
  8
17
100
AcDbLine
 10
306.6041177097285
 20
-278.6093533752837
 30
0.0
 11
306.6041177097285
 21
-291.1093533752837
 31
0.0
  0
LINE
  5
6E4F
330
1E
100
AcDbEntity
  8
17
100
AcDbLine
 10
300.3541177097285
 20
-284.8593533752837
 30
0.0
 11
312.8541177097285
 21
-284.8593533752837
 31
0.0
  0
LINE
  5
6E51
330
1E
100
AcDbEntity
  8
24
100
AcDbLine
 10
299.1041177097286
 20
-294.8593533752837
 30
0.0
 11
314.1041177097286
 21
-294.8593533752837
 31
0.0
  0
LINE
  5
6E52
330
1E
100
AcDbEntity
  8
24
100
AcDbLine
 10
299.1041177097286
 20
-260.3494691498834
 30
0.0
 11
299.1041177097286
 21
-294.8593533752837
 31
0.0
  0
LINE
  5
6E53
330
1E
100
AcDbEntity
  8
24
100
AcDbLine
 10
314.1041177097286
 20
-263.7959755142528
 30
0.0
 11
314.1041177097286
 21
-294.8593533752837
 31
0.0
  0
TEXT
  5
6EF7
330
1E
100
AcDbEntity
  8
30
100
AcDbText
 10
298.5025551324982
 20
-318.1348449698532
 30
0.0
 40
4.0
  1
(max.)
 41
0.8216911764705852
  7
UGMTXT
100
AcDbText
  0
SPLINE
  5
6F02
330
1E
100
AcDbEntity
  8
30
100
AcDbSpline
210
0.0
220
0.0
230
1.0
 70
  1064
 71
     3
 72
    11
 73
     7
 74
     5
 42
0.000000001
 43
0.0000000001
 44
0.0000000001
 40
0.0
 40
0.0
 40
0.0
 40
0.0
 40
7.615773105863908
 40
19.98508998271689
 40
38.58616522045517
 40
39.58616522045517
 40
39.58616522045517
 40
39.58616522045517
 40
39.58616522045517
 10
291.0
 20
-255.0
 30
0.0
 10
291.6686109302753
 20
-258.0741602048507
 30
0.0
 10
293.4231602608864
 20
-266.1412818826122
 30
0.0
 10
310.0288563545175
 20
-252.167522717557
 30
0.0
 10
315.0703768387907
 20
-270.2010342960016
 30
0.0
 10
321.6636280834257
 20
-270.0097584370563
 30
0.0
 10
322.0
 20
-270.0
 30
0.0
 11
291.0
 21
-255.0
 31
0.0
 11
294.0
 21
-262.0
 31
0.0
 11
306.0
 21
-259.0
 31
0.0
 11
321.0
 21
-270.0
 31
0.0
 11
322.0
 21
-270.0
 31
0.0
  0
DIMENSION
  5
716D
330
1E
100
AcDbEntity
  8
30
100
AcDbDimension
280
     0
  2
*D22
 10
30.0
 20
-367.9994181439515
 30
0.0
 11
22.49999999999999
 21
-364.9994181439515
 31
0.0
 70
    32
 71
     5
 42
-1.0
 73
     0
 74
     0
 75
     0
  3
STANDARD
100
AcDbAlignedDimension
 13
15.0
 23
-310.0
 33
0.0
 14
30.0
 24
-285.0
 34
0.0
100
AcDbRotatedDimension
  0
LWPOLYLINE
  5
71B7
330
1E
100
AcDbEntity
  8
10
100
AcDbPolyline
 90
        7
 70
     0
 43
0.0
 10
263.0
 20
20.0
 10
241.0000033600013
 20
16.0
 10
241.0000033600013
 20
-16.0
 10
263.0
 20
-20.0
 10
268.0000033600013
 20
-20.0
 10
268.0000033600013
 20
20.0
 10
263.0
 20
20.0
  0
LWPOLYLINE
  5
71BA
330
1E
100
AcDbEntity
  8
10
100
AcDbPolyline
 90
        4
 70
     0
 43
0.0
 10
45.0
 20
20.0
 10
49.5
 20
20.0
 10
49.5
 20
-20.0
 10
45.0
 20
-20.0
  0
DIMENSION
  5
71BB
330
1E
100
AcDbEntity
  8
30
100
AcDbDimension
280
     0
  2
*D23
 10
267.9999917214511
 20
103.0
 30
0.0
 11
254.4999975407263
 21
106.0
 31
0.0
 70
    32
 71
     5
 42
-1.0
 73
     0
 74
     0
 75
     0
  3
STANDARD
100
AcDbAlignedDimension
 13
241.0000033600013
 23
16.0
 33
0.0
 14
267.9999917214511
 24
81.9999842439147
 34
0.0
100
AcDbRotatedDimension
  0
DIMENSION
  5
71C8
330
1E
100
AcDbEntity
  8
30
100
AcDbDimension
280
     0
  2
*D24
 10
267.9999917214511
 20
103.0
 30
0.0
 11
289.4999961678546
 21
106.0
 31
0.0
 70
    32
 71
     5
 42
-1.0
 73
     0
 74
     0
 75
     0
  3
STANDARD
100
AcDbAlignedDimension
 13
311.000000614258
 23
54.00000942203586
 33
0.0
 14
267.9999917214511
 24
81.9999842439147
 34
0.0
100
AcDbRotatedDimension
  0
DIMENSION
  5
71E7
330
1E
100
AcDbEntity
  8
30
100
AcDbDimension
280
     0
  2
*D25
 10
336.0
 20
-20.00000000000001
 30
0.0
 11
333.0
 21
0.0000000000000366
 31
0.0
 70
    32
 71
     5
 42
-1.0
 73
     0
 74
     0
 75
     0
  3
STANDARD
100
AcDbAlignedDimension
 13
268.0000033600013
 23
20.0
 33
0.0
 14
268.0000033600013
 24
-20.0
 34
0.0
 50
90.0
100
AcDbRotatedDimension
  0
DIMENSION
  5
71F4
330
1E
100
AcDbEntity
  8
30
100
AcDbDimension
280
     0
  2
*D26
 10
49.49999999999999
 20
-110.0
 30
0.0
 11
58.49999999999999
 21
-107.0
 31
0.0
 70
    32
 71
     5
 42
-1.0
 73
     0
 74
     0
 75
     0
  3
STANDARD
100
AcDbAlignedDimension
 13
45.0
 23
-20.0
 33
0.0
 14
49.5
 24
-20.0
 34
0.0
100
AcDbRotatedDimension
1001
ACAD
1000
DSTYLE
1002
{
1070
   172
1070
     1
1002
}
  0
LINE
  5
72C5
330
1E
100
AcDbEntity
  8
10
100
AcDbLine
 10
175.1199004244511
 20
-259.5657253071289
 30
0.0
 11
182.9649019599093
 21
-253.3644383790978
 31
0.0
  0
LINE
  5
72C6
330
1E
100
AcDbEntity
  8
10
100
AcDbLine
 10
187.1973926641695
 20
-263.2459383097381
 30
0.0
 11
178.1974088130553
 21
-263.2459383097381
 31
0.0
  0
LINE
  5
72C7
330
1E
100
AcDbEntity
  8
10
100
AcDbLine
 10
187.1973926641695
 20
-272.0459464738969
 30
0.0
 11
178.1974088130553
 21
-272.0459464738969
 31
0.0
  0
LINE
  5
72C8
330
1E
100
AcDbEntity
  8
10
100
AcDbLine
 10
187.1973926641695
 20
-265.8440235004923
 30
0.0
 11
178.1974088130553
 21
-265.8440235004923
 31
0.0
  0
LINE
  5
72C9
330
1E
100
AcDbEntity
  8
10
100
AcDbLine
 10
180.1974079158949
 20
-257.045941090935
 30
0.0
 11
190.697397149971
 21
-257.045941090935
 31
0.0
  0
DIMENSION
  5
72CA
330
1E
100
AcDbEntity
  8
30
100
AcDbDimension
280
     0
  2
*D28
 10
201.3974009636449
 20
-311.7191782662091
 30
0.0
 11
189.2973990568081
 21
-308.719178266209
 31
0.0
 70
    32
 71
     5
 42
-1.0
 73
     0
 74
     0
 75
     0
  3
STANDARD
100
AcDbAlignedDimension
 13
177.197397149971
 23
-271.0459469224768
 33
0.0
 14
201.3974009636449
 24
-277.0459466902745
 34
0.0
 50
180.0
100
AcDbRotatedDimension
  0
LINE
  5
72CB
330
1E
100
AcDbEntity
  8
10
100
AcDbLine
 10
177.197397149971
 20
-271.0459469224768
 30
0.0
 11
177.197397149971
 21
-266.1119698467171
 31
0.0
  0
ARC
  5
72CC
330
1E
100
AcDbEntity
  8
10
100
AcDbCircle
 10
178.1974088130553
 20
-271.0459469224768
 30
0.0
 40
1.000000024531727
100
AcDbArc
 50
180.0
 51
270.0
  0
LINE
  5
72CD
330
1E
100
AcDbEntity
  8
10
100
AcDbLine
 10
177.197397149971
 20
-259.5459460253167
 30
0.0
 11
175.1450323668473
 21
-259.5459460253167
 31
0.0
  0
LINE
  5
72CE
330
1E
100
AcDbEntity
  8
10
100
AcDbLine
 10
177.6567683482543
 20
-265.8865596650244
 30
0.0
 11
177.7819787323466
 21
-265.8682347171493
 31
0.0
  0
LINE
  5
72CF
330
1E
100
AcDbEntity
  8
10
100
AcDbLine
 10
178.0550725358398
 20
-265.8467486249282
 30
0.0
 11
178.1974088130553
 21
-265.8440235004923
 31
0.0
  0
LINE
  5
72D0
330
1E
100
AcDbEntity
  8
10
100
AcDbLine
 10
177.7819787323466
 20
-265.8682347171493
 30
0.0
 11
177.9156672813513
 21
-265.8548755515802
 31
0.0
  0
LINE
  5
72D1
330
1E
100
AcDbEntity
  8
10
100
AcDbLine
 10
177.6567683482543
 20
-263.2884744742701
 30
0.0
 11
177.7819787323466
 21
-263.2701616380592
 31
0.0
  0
LINE
  5
72D2
330
1E
100
AcDbEntity
  8
10
100
AcDbLine
 10
177.9156672813513
 20
-263.2568024724901
 30
0.0
 11
178.0550725358398
 21
-263.2486755458383
 31
0.0
  0
LINE
  5
72D3
330
1E
100
AcDbEntity
  8
10
100
AcDbLine
 10
177.5425311318915
 20
-263.311389742862
 30
0.0
 11
177.6567683482543
 21
-263.2884744742701
 31
0.0
  0
LINE
  5
72D4
330
1E
100
AcDbEntity
  8
10
100
AcDbLine
 10
178.0550725358398
 20
-263.2486755458383
 30
0.0
 11
178.1974088130553
 21
-263.2459383097381
 31
0.0
  0
LINE
  5
72D5
330
1E
100
AcDbEntity
  8
10
100
AcDbLine
 10
177.7819787323466
 20
-263.2701616380592
 30
0.0
 11
177.9156672813513
 21
-263.2568024724901
 31
0.0
  0
LINE
  5
72D6
330
1E
100
AcDbEntity
  8
10
100
AcDbLine
 10
177.9156672813513
 20
-265.8548755515802
 30
0.0
 11
178.0550725358398
 21
-265.8467486249282
 31
0.0
  0
LINE
  5
72D7
330
1E
100
AcDbEntity
  8
10
100
AcDbLine
 10
177.5425311318915
 20
-265.909462821952
 30
0.0
 11
177.6567683482543
 21
-265.8865596650244
 31
0.0
  0
LINE
  5
72D8
330
1E
100
AcDbEntity
  8
10
100
AcDbLine
 10
177.197397149971
 20
-261.7628892566008
 30
0.0
 11
177.197397149971
 21
-261.6572028751356
 31
0.0
  0
LINE
  5
72D9
330
1E
100
AcDbEntity
  8
10
100
AcDbLine
 10
177.197397149971
 20
-262.0459388480341
 30
0.0
 11
177.197397149971
 21
-262.0334032756279
 31
0.0
  0
LINE
  5
72DA
330
1E
100
AcDbEntity
  8
10
100
AcDbLine
 10
177.197397149971
 20
-261.9964263649456
 30
0.0
 11
177.197397149971
 21
-261.9368612006039
 31
0.0
  0
LINE
  5
72DB
330
1E
100
AcDbEntity
  8
10
100
AcDbLine
 10
177.197397149971
 20
-262.0334032756279
 30
0.0
 11
177.197397149971
 21
-261.9964263649456
 31
0.0
  0
LINE
  5
72DC
330
1E
100
AcDbEntity
  8
10
100
AcDbLine
 10
177.197397149971
 20
-261.9368612006039
 30
0.0
 11
177.197397149971
 21
-261.857687251986
 31
0.0
  0
LINE
  5
72DD
330
1E
100
AcDbEntity
  8
10
100
AcDbLine
 10
177.197397149971
 20
-261.6572028751356
 30
0.0
 11
177.197397149971
 21
-261.5459451281564
 31
0.0
  0
LINE
  5
72DE
330
1E
100
AcDbEntity
  8
10
100
AcDbLine
 10
177.197397149971
 20
-261.857687251986
 30
0.0
 11
177.197397149971
 21
-261.7628892566008
 31
0.0
  0
LINE
  5
72DF
330
1E
100
AcDbEntity
  8
10
100
AcDbLine
 10
177.197397149971
 20
-263.5138967676271
 30
0.0
 11
177.2075709478659
 21
-263.4757571371853
 31
0.0
  0
LINE
  5
72E0
330
1E
100
AcDbEntity
  8
10
100
AcDbLine
 10
177.197397149971
 20
-266.1119698467171
 30
0.0
 11
177.2075709478659
 21
-266.0738302162755
 31
0.0
  0
LINE
  5
72E1
330
1E
100
AcDbEntity
  8
10
100
AcDbLine
 10
177.2075709478659
 20
-266.0738302162755
 30
0.0
 11
177.2378985549243
 21
-266.0364778440042
 31
0.0
  0
LINE
  5
72E2
330
1E
100
AcDbEntity
  8
10
100
AcDbLine
 10
177.2378985549243
 20
-263.438404764914
 30
0.0
 11
177.2877743879375
 21
-263.402578462327
 31
0.0
  0
LINE
  5
72E3
330
1E
100
AcDbEntity
  8
10
100
AcDbLine
 10
177.197397149971
 20
-263.5138967676271
 30
0.0
 11
177.197397149971
 21
-262.0459388480341
 31
0.0
  0
LINE
  5
72E4
330
1E
100
AcDbEntity
  8
10
100
AcDbLine
 10
177.2378985549243
 20
-266.0364778440042
 30
0.0
 11
177.2877743879375
 21
-266.0006636530813
 31
0.0
  0
LINE
  5
72E5
330
1E
100
AcDbEntity
  8
10
100
AcDbLine
 10
177.2075709478659
 20
-263.4757571371853
 30
0.0
 11
177.2378985549243
 21
-263.438404764914
 31
0.0
  0
LINE
  5
72E6
330
1E
100
AcDbEntity
  8
10
100
AcDbLine
 10
177.35613262046
 20
-265.9671022316923
 30
0.0
 11
177.4416409694338
 21
-265.9364960563584
 31
0.0
  0
LINE
  5
72E7
330
1E
100
AcDbEntity
  8
10
100
AcDbLine
 10
177.2877743879375
 20
-263.402578462327
 30
0.0
 11
177.35613262046
 21
-263.3690291526022
 31
0.0
  0
LINE
  5
72E8
330
1E
100
AcDbEntity
  8
10
100
AcDbLine
 10
177.2877743879375
 20
-266.0006636530813
 30
0.0
 11
177.35613262046
 21
-265.9671022316923
 31
0.0
  0
LINE
  5
72E9
330
1E
100
AcDbEntity
  8
10
100
AcDbLine
 10
177.35613262046
 20
-263.3690291526022
 30
0.0
 11
177.4416409694338
 21
-263.3384229772683
 31
0.0
  0
LINE
  5
72EA
330
1E
100
AcDbEntity
  8
10
100
AcDbLine
 10
177.197397149971
 20
-266.1119698467171
 30
0.0
 11
177.197397149971
 21
-263.5138967676271
 31
0.0
  0
LINE
  5
72EB
330
1E
100
AcDbEntity
  8
10
100
AcDbLine
 10
180.1974079158949
 20
-262.0459388480341
 30
0.0
 11
177.197397149971
 21
-262.0459388480341
 31
0.0
  0
LINE
  5
72EC
330
1E
100
AcDbEntity
  8
10
100
AcDbLine
 10
177.4416409694338
 20
-263.3384229772683
 30
0.0
 11
177.5425311318915
 21
-263.311389742862
 31
0.0
  0
LINE
  5
72ED
330
1E
100
AcDbEntity
  8
10
100
AcDbLine
 10
177.4416409694338
 20
-265.9364960563584
 30
0.0
 11
177.5425311318915
 21
-265.909462821952
 31
0.0
  0
LINE
  5
72EE
330
1E
100
AcDbEntity
  8
10
100
AcDbLine
 10
180.1974079158949
 20
-262.0459388480341
 30
0.0
 11
180.1974079158949
 21
-257.045941090935
 31
0.0
  0
LINE
  5
72EF
330
1E
100
AcDbEntity
  8
10
100
AcDbLine
 10
177.197397149971
 20
-259.5459460253167
 30
0.0
 11
177.197397149971
 21
-261.5459451281564
 31
0.0
  0
LINE
  5
72F0
330
1E
100
AcDbEntity
  8
10
100
AcDbLine
 10
223.1974007386124
 20
-255.0459419880953
 30
0.0
 11
223.1974007386124
 21
-233.0459397451945
 31
0.0
  0
ARC
  5
72F1
330
1E
100
AcDbEntity
  8
10
100
AcDbCircle
 10
194.3401541863226
 20
-239.2247570401849
 30
0.0
 40
7.500000324566334
100
AcDbArc
 50
128.325530952893
 51
173.565260848972
  0
LINE
  5
72F2
330
1E
100
AcDbEntity
  8
10
100
AcDbLine
 10
190.1974034300934
 20
-256.545947371057
 30
0.0
 11
190.1974034300934
 21
-232.9392744742782
 31
0.0
  0
LINE
  5
72F3
330
1E
100
AcDbEntity
  8
10
100
AcDbLine
 10
196.1974007386124
 20
-228.196419458971
 30
0.0
 11
196.1974007386124
 21
-257.045941090935
 31
0.0
  0
DIMENSION
  5
72F4
330
1E
100
AcDbEntity
  8
30
100
AcDbDimension
280
     0
  2
*D29
 10
223.1974007386124
 20
-328.3858456541344
 30
0.0
 11
209.6974007386124
 21
-325.3858456541343
 31
0.0
 70
    32
 71
     5
 42
-1.0
 73
     0
 74
     0
 75
     0
  3
STANDARD
100
AcDbAlignedDimension
 13
196.1974007386124
 23
-257.045941090935
 33
0.0
 14
223.1974007386124
 24
-256.545947371057
 34
0.0
 50
180.0
100
AcDbRotatedDimension
  0
INSERT
  5
72F5
330
1E
100
AcDbEntity
  8
30
100
AcDbBlockReference
  2
*U27
 10
-171.8110891826758
 20
-709.6358621497564
 30
0.0
 41
1.666666738792518
 42
1.666666738792518
 43
1.666666738792518
  0
LINE
  5
72F7
330
1E
100
AcDbEntity
  8
10
100
AcDbLine
 10
187.1973926641695
 20
-271.0459469224768
 30
0.0
 11
187.1973926641695
 21
-265.8440235004923
 31
0.0
  0
DIMENSION
  5
72F8
330
1E
100
AcDbEntity
  8
30
100
AcDbDimension
280
     0
  2
*D30
 10
201.3974009636449
 20
-295.052510878284
 30
0.0
 11
210.3974009636448
 21
-292.052510878284
 31
0.0
 70
    32
 71
     5
 42
-1.0
 73
     0
 74
     0
 75
     0
  3
STANDARD
100
AcDbAlignedDimension
 13
196.1974007386124
 23
-257.045941090935
 33
0.0
 14
201.3974009636449
 24
-277.0459466902745
 34
0.0
 50
180.0
100
AcDbRotatedDimension
  0
LINE
  5
72F9
330
1E
100
AcDbEntity
  8
18
100
AcDbLine
 10
203.8974010718336
 20
-238.0459550410749
 30
0.0
 11
203.8974010718336
 21
-277.0459466902743
 31
0.0
  0
LINE
  5
72FA
330
1E
100
AcDbEntity
  8
18
100
AcDbLine
 10
201.3974009636449
 20
-238.0459550410749
 30
0.0
 11
201.3974009636449
 21
-277.0459466902743
 31
0.0
  0
LINE
  5
72FB
330
1E
100
AcDbEntity
  8
10
100
AcDbLine
 10
187.1973926641695
 20
-271.5865873872778
 30
0.0
 11
187.1973926641695
 21
-271.7008003803123
 31
0.0
  0
LINE
  5
72FC
330
1E
100
AcDbEntity
  8
10
100
AcDbLine
 10
187.1973926641695
 20
-271.1882589763642
 30
0.0
 11
187.1973926641695
 21
-271.3276763425166
 31
0.0
  0
LINE
  5
72FD
330
1E
100
AcDbEntity
  8
10
100
AcDbLine
 10
187.1973926641695
 20
-271.8871988917438
 30
0.0
 11
187.1973926641695
 21
-271.9555813475944
 31
0.0
  0
LINE
  5
72FE
330
1E
100
AcDbEntity
  8
10
100
AcDbLine
 10
187.1973926641695
 20
-271.0459469224768
 30
0.0
 11
187.1973926641695
 21
-271.1882589763642
 31
0.0
  0
LINE
  5
72FF
330
1E
100
AcDbEntity
  8
10
100
AcDbLine
 10
187.1973926641695
 20
-272.0054329572797
 30
0.0
 11
187.1973926641695
 21
-272.0357605643378
 31
0.0
  0
LINE
  5
7300
330
1E
100
AcDbEntity
  8
10
100
AcDbLine
 10
187.1973926641695
 20
-271.7008003803123
 30
0.0
 11
187.1973926641695
 21
-271.80169054277
 31
0.0
  0
LINE
  5
7301
330
1E
100
AcDbEntity
  8
10
100
AcDbLine
 10
187.1973926641695
 20
-271.3276763425166
 30
0.0
 11
187.1973926641695
 21
-271.4613527798571
 31
0.0
  0
LINE
  5
7302
330
1E
100
AcDbEntity
  8
10
100
AcDbLine
 10
187.1973926641695
 20
-271.9555813475944
 30
0.0
 11
187.1973926641695
 21
-272.0054329572797
 31
0.0
  0
LINE
  5
7303
330
1E
100
AcDbEntity
  8
10
100
AcDbLine
 10
187.1973926641695
 20
-271.80169054277
 30
0.0
 11
187.1973926641695
 21
-271.8871988917438
 31
0.0
  0
LINE
  5
7304
330
1E
100
AcDbEntity
  8
10
100
AcDbLine
 10
187.1973926641695
 20
-272.0357605643378
 30
0.0
 11
187.1973926641695
 21
-272.0459464738969
 31
0.0
  0
LINE
  5
7305
330
1E
100
AcDbEntity
  8
10
100
AcDbLine
 10
187.1973926641695
 20
-271.4613527798571
 30
0.0
 11
187.1973926641695
 21
-271.5865873872778
 31
0.0
  0
LINE
  5
7306
330
1E
100
AcDbEntity
  8
12
100
AcDbLine
 10
191.1974005222349
 20
-244.0459553007279
 30
0.0
 11
222.197400695337
 21
-244.0459553007279
 31
0.0
  0
LINE
  5
7307
330
1E
100
AcDbEntity
  8
12
100
AcDbLine
 10
201.3974009636449
 20
-238.0459550410749
 30
0.0
 11
203.8974010718336
 21
-238.0459550410749
 31
0.0
  0
ARC
  5
7308
330
1E
100
AcDbEntity
  8
10
100
AcDbCircle
 10
178.3139367638869
 20
-247.4806872275041
 30
0.0
 40
7.500000324566334
100
AcDbArc
 50
308.3255309528932
 51
353.5652608489721
  0
LINE
  5
7309
330
1E
100
AcDbEntity
  8
10
100
AcDbLine
 10
201.3974009636449
 20
-257.045941090935
 30
0.0
 11
190.697397149971
 21
-257.045941090935
 31
0.0
  0
LINE
  5
730A
330
1E
100
AcDbEntity
  8
10
100
AcDbLine
 10
187.1973926641695
 20
-262.0459388480341
 30
0.0
 11
197.6974061215743
 21
-257.045941090935
 31
0.0
  0
ARC
  5
730B
330
1E
100
AcDbEntity
  8
10
100
AcDbCircle
 10
190.697397149971
 20
-256.545947371057
 30
0.0
 40
0.5000000122658636
100
AcDbArc
 50
180.0
 51
270.0
  0
LINE
  5
730C
330
1E
100
AcDbEntity
  8
10
100
AcDbLine
 10
187.1973926641695
 20
-263.2459383097381
 30
0.0
 11
187.1973926641695
 21
-265.8440235004923
 31
0.0
  0
LINE
  5
730D
330
1E
100
AcDbEntity
  8
10
100
AcDbLine
 10
187.1973926641695
 20
-262.0459388480341
 30
0.0
 11
187.1973926641695
 21
-263.2459383097381
 31
0.0
  0
LINE
  5
730E
330
1E
100
AcDbEntity
  8
10
100
AcDbLine
 10
185.766688222572
 20
-248.3212231063024
 30
0.0
 11
186.8874027276359
 21
-238.3842211613874
 31
0.0
  0
LINE
  5
730F
330
1E
100
AcDbEntity
  8
12
100
AcDbLine
 10
200.6974009333521
 20
-237.7959550302559
 30
0.0
 11
200.6974009333521
 21
-238.0459550410749
 31
0.0
  0
LINE
  5
7310
330
1E
100
AcDbEntity
  8
12
100
AcDbLine
 10
197.3974061085917
 20
-244.045940528352
 30
0.0
 11
197.3974061085917
 21
-238.0459402719131
 31
0.0
  0
LINE
  5
7311
330
1E
100
AcDbEntity
  8
12
100
AcDbLine
 10
196.2974060609884
 20
-244.045940528353
 30
0.0
 11
196.2974060609884
 21
-238.0459402687001
 31
0.0
  0
LINE
  5
7312
330
1E
100
AcDbEntity
  8
12
100
AcDbLine
 10
197.3974061085917
 20
-238.295940279519
 30
0.0
 11
196.2974060609884
 21
-238.295940279519
 31
0.0
  0
LINE
  5
7313
330
1E
100
AcDbEntity
  8
12
100
AcDbLine
 10
196.2974060609884
 20
-238.0459402687001
 30
0.0
 11
196.1972951191564
 21
-238.0459402687001
 31
0.0
  0
LINE
  5
7314
330
1E
100
AcDbEntity
  8
12
100
AcDbLine
 10
201.3974062816937
 20
-238.0459402687001
 30
0.0
 11
197.3974061085917
 21
-238.0459402687001
 31
0.0
  0
LINE
  5
7315
330
1E
100
AcDbEntity
  8
12
100
AcDbLine
 10
196.2974060609884
 20
-249.7959407771876
 30
0.0
 11
197.3974061085917
 21
-249.7959407771876
 31
0.0
  0
LINE
  5
7316
330
1E
100
AcDbEntity
  8
12
100
AcDbLine
 10
196.1972951191564
 20
-250.0459407880065
 30
0.0
 11
196.2974060609884
 21
-250.0459407880065
 31
0.0
  0
LINE
  5
7317
330
1E
100
AcDbEntity
  8
12
100
AcDbLine
 10
197.3974061085917
 20
-250.0459407880065
 30
0.0
 11
201.3974062816937
 21
-250.0459407880065
 31
0.0
  0
LINE
  5
7318
330
1E
100
AcDbEntity
  8
12
100
AcDbLine
 10
197.3974061085917
 20
-250.0459407751554
 30
0.0
 11
197.3974061085917
 21
-244.045940528352
 31
0.0
  0
LINE
  5
7319
330
1E
100
AcDbEntity
  8
12
100
AcDbLine
 10
196.2974060609884
 20
-250.0459407880064
 30
0.0
 11
196.2974060609884
 21
-244.0459405283508
 31
0.0
  0
LINE
  5
731A
330
1E
100
AcDbEntity
  8
12
100
AcDbLine
 10
201.3974062816937
 20
-238.0459402687001
 30
0.0
 11
201.3974062816937
 21
-250.0459407880064
 31
0.0
  0
LINE
  5
731B
330
1E
100
AcDbEntity
  8
10
100
AcDbLine
 10
222.6974070187345
 20
-257.045941090935
 30
0.0
 11
203.8974010718336
 21
-257.045941090935
 31
0.0
  0
ARC
  5
731C
330
1E
100
AcDbEntity
  8
3
100
AcDbCircle
 10
222.6974070187345
 20
-256.545947371057
 30
0.0
 40
0.5000000122658636
100
AcDbArc
 50
270.0
 51
0.0
  0
LINE
  5
731D
330
1E
100
AcDbEntity
  8
3
100
AcDbLine
 10
223.1974007386124
 20
-255.0459419880953
 30
0.0
 11
223.1974007386124
 21
-256.545947371057
 31
0.0
  0
LINE
  5
731E
330
1E
100
AcDbEntity
  8
12
100
AcDbLine
 10
220.1974070952737
 20
-241.6459404244923
 30
0.0
 11
212.1970770615554
 21
-241.6459404244923
 31
0.0
  0
LINE
  5
731F
330
1E
100
AcDbEntity
  8
12
100
AcDbLine
 10
212.1970770615554
 20
-246.4459406322144
 30
0.0
 11
220.1974070952737
 21
-246.4459406322144
 31
0.0
  0
LINE
  5
7320
330
1E
100
AcDbEntity
  8
12
100
AcDbLine
 10
203.8974010718336
 20
-237.7959550302559
 30
0.0
 11
203.8974010718336
 21
-238.0459550410749
 31
0.0
  0
LINE
  5
7321
330
1E
100
AcDbEntity
  8
12
100
AcDbLine
 10
206.9974012059878
 20
-237.9459550367474
 30
0.0
 11
205.4974011410744
 21
-237.9459550367474
 31
0.0
  0
LINE
  5
7322
330
1E
100
AcDbEntity
  8
12
100
AcDbLine
 10
205.4974011410744
 20
-237.7959550302559
 30
0.0
 11
203.8974010718336
 21
-237.7959550302559
 31
0.0
  0
LINE
  5
7323
330
1E
100
AcDbEntity
  8
12
100
AcDbLine
 10
212.1974014310207
 20
-241.1827065227674
 30
0.0
 11
206.9974012059878
 21
-241.1827065227674
 31
0.0
  0
LINE
  5
7324
330
1E
100
AcDbEntity
  8
12
100
AcDbLine
 10
206.9974012059878
 20
-238.2959550518935
 30
0.0
 11
212.1974014310207
 21
-238.2959550518935
 31
0.0
  0
LINE
  5
7325
330
1E
100
AcDbEntity
  8
12
100
AcDbLine
 10
206.9974012059878
 20
-250.1459555647086
 30
0.0
 11
205.4974011410744
 21
-250.1459555647086
 31
0.0
  0
LINE
  5
7326
330
1E
100
AcDbEntity
  8
12
100
AcDbLine
 10
205.4974011410744
 20
-250.2959555711998
 30
0.0
 11
203.8974010718336
 21
-250.2959555711998
 31
0.0
  0
LINE
  5
7327
330
1E
100
AcDbEntity
  8
12
100
AcDbLine
 10
206.9974012059878
 20
-249.7959555495622
 30
0.0
 11
212.1974014310207
 21
-249.7959555495622
 31
0.0
  0
LINE
  5
7328
330
1E
100
AcDbEntity
  8
12
100
AcDbLine
 10
212.1974014310207
 20
-246.9092040786885
 30
0.0
 11
206.9974012059878
 21
-246.9092040786885
 31
0.0
  0
LINE
  5
7329
330
1E
100
AcDbEntity
  8
12
100
AcDbLine
 10
205.4974011410744
 20
-245.0459553440035
 30
0.0
 11
206.9974012059878
 21
-243.5459552790903
 31
0.0
  0
LINE
  5
732A
330
1E
100
AcDbEntity
  8
12
100
AcDbLine
 10
205.4974011410744
 20
-244.5459553223656
 30
0.0
 11
206.9974012059878
 21
-243.0459552574525
 31
0.0
  0
LINE
  5
732B
330
1E
100
AcDbEntity
  8
12
100
AcDbLine
 10
206.9974012059878
 20
-250.1459555647086
 30
0.0
 11
206.9974012059878
 21
-237.9459550367474
 31
0.0
  0
LINE
  5
732C
330
1E
100
AcDbEntity
  8
12
100
AcDbLine
 10
205.4974011410744
 20
-250.2959555711998
 30
0.0
 11
205.4974011410744
 21
-237.7959550302559
 31
0.0
  0
LINE
  5
732D
330
1E
100
AcDbEntity
  8
12
100
AcDbLine
 10
212.1974014310207
 20
-249.7959555495622
 30
0.0
 11
212.1974014310207
 21
-238.2959550518935
 31
0.0
  0
ARC
  5
732E
330
1E
100
AcDbEntity
  8
12
100
AcDbCircle
 10
218.3974070173778
 20
-244.0459405283534
 30
0.0
 40
3.000000129826533
100
AcDbArc
 50
11.53695903281492
 51
53.13010235415532
  0
LINE
  5
732F
330
1E
100
AcDbEntity
  8
12
100
AcDbLine
 10
220.1974070952737
 20
-243.4459405023881
 30
0.0
 11
221.3367948359209
 21
-243.4459405023881
 31
0.0
  0
LINE
  5
7330
330
1E
100
AcDbEntity
  8
12
100
AcDbLine
 10
220.1974070952743
 20
-241.6459404244924
 30
0.0
 11
220.1974070952743
 21
-243.4459405023885
 31
0.0
  0
LINE
  5
7331
330
1E
100
AcDbEntity
  8
12
100
AcDbLine
 10
217.197406965447
 20
-243.4459405023881
 30
0.0
 11
220.1974070952737
 21
-243.4459405023881
 31
0.0
  0
ARC
  5
7332
330
1E
100
AcDbEntity
  8
12
100
AcDbCircle
 10
218.3974070173778
 20
-244.0459405283534
 30
0.0
 40
3.000000129826533
100
AcDbArc
 50
306.8698976458446
 51
348.463040967185
  0
LINE
  5
7333
330
1E
100
AcDbEntity
  8
12
100
AcDbLine
 10
220.1974070952737
 20
-244.6459405543186
 30
0.0
 11
221.3367948359209
 21
-244.6459405543186
 31
0.0
  0
LINE
  5
7334
330
1E
100
AcDbEntity
  8
12
100
AcDbLine
 10
220.1974070952743
 20
-244.645940554319
 30
0.0
 11
220.1974070952743
 21
-246.4459406322148
 31
0.0
  0
LINE
  5
7335
330
1E
100
AcDbEntity
  8
12
100
AcDbLine
 10
217.197406965447
 20
-244.6459405543186
 30
0.0
 11
220.1974070952737
 21
-244.6459405543186
 31
0.0
  0
LINE
  5
7336
330
1E
100
AcDbEntity
  8
12
100
AcDbLine
 10
217.1974069654476
 20
-243.4459405023885
 30
0.0
 11
217.1974069654476
 21
-244.645940554319
 31
0.0
  0
LINE
  5
7338
330
1E
100
AcDbEntity
  8
10
100
AcDbLine
 10
196.1974007386124
 20
-232.3673440916833
 30
0.0
 11
223.1974007386119
 21
-232.3673440916833
 31
0.0
  0
LINE
  5
7339
330
1E
100
AcDbEntity
  8
10
100
AcDbLine
 10
196.1974007386124
 20
-231.045940642355
 30
0.0
 11
222.6974070187345
 21
-231.045940642355
 31
0.0
  0
LINE
  5
733A
330
1E
100
AcDbEntity
  8
10
100
AcDbLine
 10
189.6891889902989
 20
-233.341005888592
 30
0.0
 11
196.1974007386124
 21
-228.196419458971
 31
0.0
  0
LINE
  5
733B
330
1E
100
AcDbEntity
  8
10
100
AcDbLine
 10
223.0188021389003
 20
-231.1629150948179
 30
0.0
 11
222.9473917670093
 21
-231.1129302568271
 31
0.0
  0
LINE
  5
733C
330
1E
100
AcDbEntity
  8
10
100
AcDbLine
 10
222.9473917670093
 20
-231.1129302568271
 30
0.0
 11
222.8683994933539
 21
-231.0760986861148
 31
0.0
  0
LINE
  5
733D
330
1E
100
AcDbEntity
  8
10
100
AcDbLine
 10
222.7842234274377
 20
-231.0535346557835
 30
0.0
 11
222.6974070187345
 21
-231.045940642355
 31
0.0
  0
LINE
  5
733E
330
1E
100
AcDbEntity
  8
10
100
AcDbLine
 10
222.8683994933539
 20
-231.0760986861148
 30
0.0
 11
222.7842234274377
 21
-231.0535346557835
 31
0.0
  0
LINE
  5
733F
330
1E
100
AcDbEntity
  8
10
100
AcDbLine
 10
223.1304232358043
 20
-231.2959375022938
 30
0.0
 11
223.0804262861494
 21
-231.2245513537312
 31
0.0
  0
LINE
  5
7340
330
1E
100
AcDbEntity
  8
10
100
AcDbLine
 10
223.1974007386124
 20
-231.5459464738968
 30
0.0
 11
223.1974007386124
 21
-233.0459397451945
 31
0.0
  0
LINE
  5
7341
330
1E
100
AcDbEntity
  8
10
100
AcDbLine
 10
223.0804262861494
 20
-231.2245513537312
 30
0.0
 11
223.0188021389003
 21
-231.1629150948179
 31
0.0
  0
LINE
  5
7342
330
1E
100
AcDbEntity
  8
10
100
AcDbLine
 10
223.1974007386124
 20
-231.5459464738968
 30
0.0
 11
223.1897946135195
 21
-231.4591179535293
 31
0.0
  0
LINE
  5
7343
330
1E
100
AcDbEntity
  8
10
100
AcDbLine
 10
223.1897946135195
 20
-231.4591179535293
 30
0.0
 11
223.1672426948525
 21
-231.3749297759493
 31
0.0
  0
LINE
  5
7344
330
1E
100
AcDbEntity
  8
10
100
AcDbLine
 10
223.1672426948525
 20
-231.3749297759493
 30
0.0
 11
223.1304232358043
 21
-231.2959375022938
 31
0.0
  0
MTEXT
  5
7680
330
1E
100
AcDbEntity
  8
30
  6
Continuous
100
AcDbMText
 10
198.2976444003002
 20
155.2736673712626
 30
0.0
 40
5.0
 41
168.0
 46
0.0
 71
     1
 72
     5
  1
S100-GF 2P PM\PS125-GF 2P PM
  7
STANDARD1
 73
     1
 44
1.0
  0
VIEWPORT
  5
9AC
330
1A
100
AcDbEntity
 67
     1
  8
0
  6
Continuous
100
AcDbViewport
 10
171.9995348790992
 20
144.1384735538403
 30
0.0
 40
488.8676857773511
 41
292.3514905034161
 68
     1
 69
     1
 12
171.9995348790992
 22
144.1384735538403
 13
0.0
 23
0.0
 14
10.0
 24
10.0
 15
10.0
 25
10.0
 16
0.0
 26
0.0
 36
1.0
 17
0.0
 27
0.0
 37
0.0
 42
50.0
 43
0.0
 44
0.0
 45
292.3514905034161
 50
0.0
 51
0.0
 72
   100
 90
    32800
  1

281
     0
 71
     1
 74
     0
110
0.0
120
0.0
130
0.0
111
1.0
121
0.0
131
0.0
112
0.0
122
1.0
132
0.0
 79
     0
146
0.0
170
     0
 61
     5
348
76B3
292
     1
282
     1
141
0.0
142
0.0
 63
   250
421
  3355443
  0
ENDSEC
  0
SECTION
  2
OBJECTS
  0
DICTIONARY
  5
C
330
0
100
AcDbDictionary
281
     1
  3
ACAD_CIP_PREVIOUS_PRODUCT_INFO
350
76E2
  3
ACAD_COLOR
350
76C6
  3
ACAD_DETAILVIEWSTYLE
350
76DF
  3
ACAD_GROUP
350
D
  3
ACAD_LAYOUT
350
19
  3
ACAD_MATERIAL
350
7694
  3
ACAD_MLEADERSTYLE
350
76DB
  3
ACAD_MLINESTYLE
350
16
  3
ACAD_PLOTSETTINGS
350
18
  3
ACAD_PLOTSTYLENAME
350
E
  3
ACAD_SCALELIST
350
76C9
  3
ACAD_SECTIONVIEWSTYLE
350
76DD
  3
ACAD_TABLESTYLE
350
76C7
  3
ACAD_VISUALSTYLE
350
76AD
  3
ACDB_RECOMPOSE_DATA
350
770F
  3
ACDBVARIABLEDICTIONARY
350
5E0C
  0
DICTIONARY
  5
76E5
330
10
100
AcDbDictionary
280
     1
281
     1
  3
ADSK_XREC_LAYER_RECONCILED
360
76E6
  0
DICTIONARY
  5
76E7
330
2F
100
AcDbDictionary
280
     1
281
     1
  3
ADSK_XREC_LAYER_RECONCILED
360
76E8
  0
DICTIONARY
  5
76E9
330
31
100
AcDbDictionary
280
     1
281
     1
  3
ADSK_XREC_LAYER_RECONCILED
360
76EA
  0
DICTIONARY
  5
76EB
330
35
100
AcDbDictionary
280
     1
281
     1
  3
ADSK_XREC_LAYER_RECONCILED
360
76EC
  0
DICTIONARY
  5
76ED
330
36
100
AcDbDictionary
280
     1
281
     1
  3
ADSK_XREC_LAYER_RECONCILED
360
76EE
  0
DICTIONARY
  5
76EF
330
38
100
AcDbDictionary
280
     1
281
     1
  3
ADSK_XREC_LAYER_RECONCILED
360
76F0
  0
DICTIONARY
  5
76F1
330
3C
100
AcDbDictionary
280
     1
281
     1
  3
ADSK_XREC_LAYER_RECONCILED
360
76F2
  0
DICTIONARY
  5
76F3
330
3D
100
AcDbDictionary
280
     1
281
     1
  3
ADSK_XREC_LAYER_RECONCILED
360
76F4
  0
DICTIONARY
  5
76F5
330
3A2
100
AcDbDictionary
280
     1
281
     1
  3
ADSK_XREC_LAYER_RECONCILED
360
76F6
  0
DICTIONARY
  5
76F7
330
4C43
100
AcDbDictionary
280
     1
281
     1
  3
ADSK_XREC_LAYER_RECONCILED
360
76F8
  0
DICTIONARY
  5
76F9
330
5E73
100
AcDbDictionary
280
     1
281
     1
  3
ADSK_XREC_LAYER_RECONCILED
360
76FA
  0
DICTIONARY
  5
76FB
330
5E74
100
AcDbDictionary
280
     1
281
     1
  3
ADSK_XREC_LAYER_RECONCILED
360
76FC
  0
DICTIONARY
  5
76FD
330
723F
100
AcDbDictionary
280
     1
281
     1
  3
ADSK_XREC_LAYER_RECONCILED
360
76FE
  0
DICTIONARY
  5
178
330
1E
100
AcDbDictionary
280
     1
281
     1
  3
ACAD_LAYOUTSELFREF
360
7675
  0
DICTIONARY
  5
17A
330
1A
100
AcDbDictionary
280
     1
281
     1
  3
ACAD_LAYOUTSELFREF
360
7674
  0
XRECORD
  5
76E2
102
{ACAD_REACTORS
330
C
102
}
330
C
100
AcDbXrecord
280
     1
300
ACDLT
300
2014
300
ACDLT_F_S
  0
DICTIONARY
  5
76C6
102
{ACAD_REACTORS
330
C
102
}
330
C
100
AcDbDictionary
281
     1
  0
DICTIONARY
  5
76DF
102
{ACAD_REACTORS
330
C
102
}
330
C
100
AcDbDictionary
281
     1
  3
Imperial24
350
76E0
  0
DICTIONARY
  5
D
102
{ACAD_REACTORS
330
C
102
}
330
C
100
AcDbDictionary
281
     1
  0
DICTIONARY
  5
19
102
{ACAD_REACTORS
330
C
102
}
330
C
100
AcDbDictionary
281
     1
  3
Model
350
767E
  3
ﾚｲｱｳﾄ1
350
767F
  0
DICTIONARY
  5
7694
102
{ACAD_REACTORS
330
C
102
}
330
C
100
AcDbDictionary
281
     1
  3
ByBlock
350
769D
  3
ByLayer
350
7695
  3
Global
350
76A5
  0
DICTIONARY
  5
76DB
102
{ACAD_REACTORS
330
C
102
}
330
C
100
AcDbDictionary
281
     1
  3
Standard
350
76DC
  0
DICTIONARY
  5
16
102
{ACAD_REACTORS
330
C
102
}
330
C
100
AcDbDictionary
281
     1
  3
STANDARD
350
17
  0
DICTIONARY
  5
18
102
{ACAD_REACTORS
330
C
102
}
330
C
100
AcDbDictionary
281
     1
  0
ACDBDICTIONARYWDFLT
  5
E
102
{ACAD_REACTORS
330
C
102
}
330
C
100
AcDbDictionary
281
     1
  3
Normal
350
F
100
AcDbDictionaryWithDefault
340
F
  0
DICTIONARY
  5
76C9
102
{ACAD_REACTORS
330
C
102
}
330
C
100
AcDbDictionary
281
     1
  3
A0
350
76CA
  3
A1
350
76CB
  3
A2
350
76CC
  3
A3
350
76CD
  3
A4
350
76CE
  3
A5
350
76CF
  3
A6
350
76D0
  3
A7
350
76D1
  3
A8
350
76D2
  3
A9
350
76D3
  3
B0
350
76D4
  3
B1
350
76D5
  3
B2
350
76D6
  3
B3
350
76D7
  3
B4
350
76D8
  3
B5
350
76D9
  3
B6
350
76DA
  0
DICTIONARY
  5
76DD
102
{ACAD_REACTORS
330
C
102
}
330
C
100
AcDbDictionary
281
     1
  3
Imperial24
350
76DE
  0
DICTIONARY
  5
76C7
102
{ACAD_REACTORS
330
C
102
}
330
C
100
AcDbDictionary
281
     1
  3
Standard
350
76C8
  0
DICTIONARY
  5
76AD
102
{ACAD_REACTORS
330
C
102
}
330
C
100
AcDbDictionary
281
     1
  3
2dWireframe
350
76B3
  3
Basic
350
76B2
  3
Brighten
350
76B9
  3
ColorChange
350
76BD
  3
Conceptual
350
76B6
  3
Dim
350
76B8
  3
EdgeColorOff
350
76C5
  3
Facepattern
350
76BC
  3
Flat
350
76AE
  3
FlatWithEdges
350
76AF
  3
Gouraud
350
76B0
  3
GouraudWithEdges
350
76B1
  3
Hidden
350
76B5
  3
JitterOff
350
76C3
  3
Linepattern
350
76BB
  3
OverhangOff
350
76C4
  3
Realistic
350
76B7
  3
Shaded
350
76C2
  3
Shaded with edges
350
76C1
  3
Shades of Gray
350
76BE
  3
Sketchy
350
76BF
  3
Thicken
350
76BA
  3
Wireframe
350
76B4
  3
X-Ray
350
76C0
  0
XRECORD
  5
770F
102
{ACAD_REACTORS
330
C
102
}
330
C
100
AcDbXrecord
280
     1
 90
        1
330
76C8
330
76DE
330
76E0
  0
DICTIONARY
  5
5E0C
102
{ACAD_REACTORS
330
C
102
}
330
C
100
AcDbDictionary
281
     1
  3
CANNOSCALE
350
7704
  3
CMLEADERSTYLE
350
7700
  3
CTABLESTYLE
350
76FF
  3
CVIEWDETAILSTYLE
350
7701
  3
CVIEWSECTIONSTYLE
350
7702
  3
DIMASSOC
350
5E0D
  3
LAYEREVAL
350
7706
  3
LAYERNOTIFY
350
7707
  3
LIGHTINGUNITS
350
7705
  3
MSLTSCALE
350
7703
  0
XRECORD
  5
76E6
102
{ACAD_REACTORS
330
76E5
102
}
330
76E5
100
AcDbXrecord
280
     1
290
     1
  0
XRECORD
  5
76E8
102
{ACAD_REACTORS
330
76E7
102
}
330
76E7
100
AcDbXrecord
280
     1
290
     1
  0
XRECORD
  5
76EA
102
{ACAD_REACTORS
330
76E9
102
}
330
76E9
100
AcDbXrecord
280
     1
290
     1
  0
XRECORD
  5
76EC
102
{ACAD_REACTORS
330
76EB
102
}
330
76EB
100
AcDbXrecord
280
     1
290
     1
  0
XRECORD
  5
76EE
102
{ACAD_REACTORS
330
76ED
102
}
330
76ED
100
AcDbXrecord
280
     1
290
     1
  0
XRECORD
  5
76F0
102
{ACAD_REACTORS
330
76EF
102
}
330
76EF
100
AcDbXrecord
280
     1
290
     1
  0
XRECORD
  5
76F2
102
{ACAD_REACTORS
330
76F1
102
}
330
76F1
100
AcDbXrecord
280
     1
290
     1
  0
XRECORD
  5
76F4
102
{ACAD_REACTORS
330
76F3
102
}
330
76F3
100
AcDbXrecord
280
     1
290
     1
  0
XRECORD
  5
76F6
102
{ACAD_REACTORS
330
76F5
102
}
330
76F5
100
AcDbXrecord
280
     1
290
     1
  0
XRECORD
  5
76F8
102
{ACAD_REACTORS
330
76F7
102
}
330
76F7
100
AcDbXrecord
280
     1
290
     1
  0
XRECORD
  5
76FA
102
{ACAD_REACTORS
330
76F9
102
}
330
76F9
100
AcDbXrecord
280
     1
290
     1
  0
XRECORD
  5
76FC
102
{ACAD_REACTORS
330
76FB
102
}
330
76FB
100
AcDbXrecord
280
     1
290
     1
  0
XRECORD
  5
76FE
102
{ACAD_REACTORS
330
76FD
102
}
330
76FD
100
AcDbXrecord
280
     1
290
     1
  0
XRECORD
  5
7675
102
{ACAD_REACTORS
330
178
102
}
330
178
100
AcDbXrecord
280
     1
340
1E
  0
XRECORD
  5
7674
102
{ACAD_REACTORS
330
17A
102
}
330
17A
100
AcDbXrecord
280
     1
340
1A
  0
ACDBDETAILVIEWSTYLE
  5
76E0
102
{ACAD_XDICTIONARY
360
770D
102
}
102
{ACAD_REACTORS
330
76DF
102
}
330
76DF
100
AcDbModelDocViewStyle
 70
     0
  3
Imperial24
290
     0
100
AcDbDetailViewStyle
 70
     0
 71
     0
 90
        3
 71
     1
340
11
 62
   256
 40
0.24
340
0
 62
   256
 40
0.24
300

 40
0.36
280
     3
 71
     2
340
15
 90
       25
 62
   256
 71
     3
340
11
 62
   256
 40
0.24
 90
        1
 40
0.75
 90
        1
300
%<\AcVar ViewType \f "%tc1">% %<\AcVar ViewDetailId>%\PSCALE %<\AcVar ViewScale \f "%sn">%
 71
     4
340
15
 90
       25
 62
   256
340
15
 90
       25
 62
   256
280
     0
  0
LAYOUT
  5
767E
102
{ACAD_REACTORS
330
19
102
}
330
19
100
AcDbPlotSettings
  1

  2
Canon LBP3800 LIPSLX
  4

  6

 40
0.0
 41
0.0
 42
0.0
 43
0.0
 44
0.0
 45
0.0
 46
0.0
 47
0.0
 48
0.0
 49
0.0
140
0.0
141
0.0
142
1.0
143
1.0
 70
  1712
 72
     0
 73
     0
 74
     0
  7
monochrome.ctb
 75
     0
147
1.0
 76
     0
 77
     2
 78
   300
148
0.0
149
0.0
100
AcDbLayout
  1
Model
 70
     1
 71
     0
 10
0.0
 20
0.0
 11
12.0
 21
9.0
 12
0.0
 22
0.0
 32
0.0
 14
0.0
 24
0.0
 34
0.0
 15
0.0
 25
0.0
 35
0.0
146
0.0
 13
0.0
 23
0.0
 33
0.0
 16
1.0
 26
0.0
 36
0.0
 17
0.0
 27
1.0
 37
0.0
 76
     0
330
1E
331
768C
  0
LAYOUT
  5
767F
102
{ACAD_REACTORS
330
19
102
}
330
19
100
AcDbPlotSettings
  1

  2
Canon LBP3800 LIPSLX
  4

  6

 40
0.0
 41
0.0
 42
0.0
 43
0.0
 44
0.0
 45
0.0
 46
0.0
 47
0.0
 48
0.0
 49
0.0
140
0.0
141
0.0
142
1.0
143
1.0
 70
   688
 72
     0
 73
     0
 74
     5
  7
monochrome.ctb
 75
    16
147
1.0
 76
     0
 77
     2
 78
   300
148
0.0
149
0.0
100
AcDbLayout
  1
ﾚｲｱｳﾄ1
 70
     1
 71
     1
 10
-5.873748779296875
 20
-5.873749732971191
 11
204.0995788574218
 21
291.1369009017943
 12
0.0
 22
0.0
 32
0.0
 14
4.273573370203961
 24
5.205246163471485
 34
0.0
 15
194.6100952986349
 25
283.0697008572913
 35
0.0
146
0.0
 13
0.0
 23
0.0
 33
0.0
 16
1.0
 26
0.0
 36
0.0
 17
0.0
 27
1.0
 37
0.0
 76
     0
330
1A
331
9AC
  0
MATERIAL
  5
769D
102
{ACAD_XDICTIONARY
360
769E
102
}
102
{ACAD_REACTORS
330
7694
102
}
330
7694
100
AcDbMaterial
  1
ByBlock
 72
     0
 43
0.0208333333333333
 43
0.0
 43
0.0
 43
0.0
 43
0.0
 43
0.0208333333333333
 43
0.0
 43
0.0
 43
0.0
 43
0.0
 43
1.0
 43
0.0
 43
0.0
 43
0.0
 43
0.0
 43
1.0
 77
     0
 47
0.0208333333333333
 47
0.0
 47
0.0
 47
0.0
 47
0.0
 47
0.0208333333333333
 47
0.0
 47
0.0
 47
0.0
 47
0.0
 47
1.0
 47
0.0
 47
0.0
 47
0.0
 47
0.0
 47
1.0
171
     0
 49
0.0208333333333333
 49
0.0
 49
0.0
 49
0.0
 49
0.0
 49
0.0208333333333333
 49
0.0
 49
0.0
 49
0.0
 49
0.0
 49
1.0
 49
0.0
 49
0.0
 49
0.0
 49
0.0
 49
1.0
175
     0
142
0.0208333333333333
142
0.0
142
0.0
142
0.0
142
0.0
142
0.0208333333333333
142
0.0
142
0.0
142
0.0
142
0.0
142
1.0
142
0.0
142
0.0
142
0.0
142
0.0
142
1.0
179
     0
144
0.0208333333333333
144
0.0
144
0.0
144
0.0
144
0.0
144
0.0208333333333333
144
0.0
144
0.0
144
0.0
144
0.0
144
1.0
144
0.0
144
0.0
144
0.0
144
0.0
144
1.0
147
0.0208333333333333
147
0.0
147
0.0
147
0.0
147
0.0
147
0.0208333333333333
147
0.0
147
0.0
147
0.0
147
0.0
147
1.0
147
0.0
147
0.0
147
0.0
147
0.0
147
1.0
  0
MATERIAL
  5
7695
102
{ACAD_XDICTIONARY
360
7696
102
}
102
{ACAD_REACTORS
330
7694
102
}
330
7694
100
AcDbMaterial
  1
ByLayer
 72
     0
 43
0.0208333333333333
 43
0.0
 43
0.0
 43
0.0
 43
0.0
 43
0.0208333333333333
 43
0.0
 43
0.0
 43
0.0
 43
0.0
 43
1.0
 43
0.0
 43
0.0
 43
0.0
 43
0.0
 43
1.0
 77
     0
 47
0.0208333333333333
 47
0.0
 47
0.0
 47
0.0
 47
0.0
 47
0.0208333333333333
 47
0.0
 47
0.0
 47
0.0
 47
0.0
 47
1.0
 47
0.0
 47
0.0
 47
0.0
 47
0.0
 47
1.0
171
     0
 49
0.0208333333333333
 49
0.0
 49
0.0
 49
0.0
 49
0.0
 49
0.0208333333333333
 49
0.0
 49
0.0
 49
0.0
 49
0.0
 49
1.0
 49
0.0
 49
0.0
 49
0.0
 49
0.0
 49
1.0
175
     0
142
0.0208333333333333
142
0.0
142
0.0
142
0.0
142
0.0
142
0.0208333333333333
142
0.0
142
0.0
142
0.0
142
0.0
142
1.0
142
0.0
142
0.0
142
0.0
142
0.0
142
1.0
179
     0
144
0.0208333333333333
144
0.0
144
0.0
144
0.0
144
0.0
144
0.0208333333333333
144
0.0
144
0.0
144
0.0
144
0.0
144
1.0
144
0.0
144
0.0
144
0.0
144
0.0
144
1.0
147
0.0208333333333333
147
0.0
147
0.0
147
0.0
147
0.0
147
0.0208333333333333
147
0.0
147
0.0
147
0.0
147
0.0
147
1.0
147
0.0
147
0.0
147
0.0
147
0.0
147
1.0
  0
MATERIAL
  5
76A5
102
{ACAD_XDICTIONARY
360
76A6
102
}
102
{ACAD_REACTORS
330
7694
102
}
330
7694
100
AcDbMaterial
  1
Global
 72
     0
 43
0.0208333333333333
 43
0.0
 43
0.0
 43
0.0
 43
0.0
 43
0.0208333333333333
 43
0.0
 43
0.0
 43
0.0
 43
0.0
 43
1.0
 43
0.0
 43
0.0
 43
0.0
 43
0.0
 43
1.0
 77
     0
 47
0.0208333333333333
 47
0.0
 47
0.0
 47
0.0
 47
0.0
 47
0.0208333333333333
 47
0.0
 47
0.0
 47
0.0
 47
0.0
 47
1.0
 47
0.0
 47
0.0
 47
0.0
 47
0.0
 47
1.0
171
     0
 49
0.0208333333333333
 49
0.0
 49
0.0
 49
0.0
 49
0.0
 49
0.0208333333333333
 49
0.0
 49
0.0
 49
0.0
 49
0.0
 49
1.0
 49
0.0
 49
0.0
 49
0.0
 49
0.0
 49
1.0
175
     0
142
0.0208333333333333
142
0.0
142
0.0
142
0.0
142
0.0
142
0.0208333333333333
142
0.0
142
0.0
142
0.0
142
0.0
142
1.0
142
0.0
142
0.0
142
0.0
142
0.0
142
1.0
179
     0
144
0.0208333333333333
144
0.0
144
0.0
144
0.0
144
0.0
144
0.0208333333333333
144
0.0
144
0.0
144
0.0
144
0.0
144
1.0
144
0.0
144
0.0
144
0.0
144
0.0
144
1.0
147
0.0208333333333333
147
0.0
147
0.0
147
0.0
147
0.0
147
0.0208333333333333
147
0.0
147
0.0
147
0.0
147
0.0
147
1.0
147
0.0
147
0.0
147
0.0
147
0.0
147
1.0
  0
MLEADERSTYLE
  5
76DC
102
{ACAD_REACTORS
330
76DB
102
}
330
76DB
100
AcDbMLeaderStyle
179
     2
170
     2
171
     1
172
     0
 90
        2
 40
0.0
 41
0.0
173
     1
 91
-1056964608
340
13
 92
       -2
290
     1
 42
0.09
291
     1
 43
0.36
  3
Standard
 44
0.18
300

342
11
174
     1
178
     6
175
     1
176
     0
 93
-1056964608
 45
0.18
292
     0
297
     0
 46
0.18
 94
-1056964608
 47
1.0
 49
1.0
140
1.0
293
     1
141
0.0
294
     1
177
     0
142
1.0
295
     0
296
     0
143
0.125
271
     0
272
     9
273
     9
298
     0
  0
MLINESTYLE
  5
17
102
{ACAD_REACTORS
330
16
102
}
330
16
100
AcDbMlineStyle
  2
STANDARD
 70
     0
  3

 62
   256
 51
90.0
 52
90.0
 71
     2
 49
0.5
 62
   256
  6
BYLAYER
 49
-0.5
 62
   256
  6
BYLAYER
  0
ACDBPLACEHOLDER
  5
F
102
{ACAD_REACTORS
330
E
102
}
330
E
  0
SCALE
  5
76CA
102
{ACAD_REACTORS
330
76C9
102
}
330
76C9
100
AcDbScale
 70
     0
300
1:1
140
1.0
141
1.0
290
     1
  0
SCALE
  5
76CB
102
{ACAD_REACTORS
330
76C9
102
}
330
76C9
100
AcDbScale
 70
     0
300
1/128" = 1'-0"
140
0.0078125
141
12.0
290
     0
  0
SCALE
  5
76CC
102
{ACAD_REACTORS
330
76C9
102
}
330
76C9
100
AcDbScale
 70
     0
300
1/64" = 1'-0"
140
0.015625
141
12.0
290
     0
  0
SCALE
  5
76CD
102
{ACAD_REACTORS
330
76C9
102
}
330
76C9
100
AcDbScale
 70
     0
300
1/32" = 1'-0"
140
0.03125
141
12.0
290
     0
  0
SCALE
  5
76CE
102
{ACAD_REACTORS
330
76C9
102
}
330
76C9
100
AcDbScale
 70
     0
300
1/16" = 1'-0"
140
0.0625
141
12.0
290
     0
  0
SCALE
  5
76CF
102
{ACAD_REACTORS
330
76C9
102
}
330
76C9
100
AcDbScale
 70
     0
300
3/32" = 1'-0"
140
0.09375
141
12.0
290
     0
  0
SCALE
  5
76D0
102
{ACAD_REACTORS
330
76C9
102
}
330
76C9
100
AcDbScale
 70
     0
300
1/8" = 1'-0"
140
0.125
141
12.0
290
     0
  0
SCALE
  5
76D1
102
{ACAD_REACTORS
330
76C9
102
}
330
76C9
100
AcDbScale
 70
     0
300
3/16" = 1'-0"
140
0.1875
141
12.0
290
     0
  0
SCALE
  5
76D2
102
{ACAD_REACTORS
330
76C9
102
}
330
76C9
100
AcDbScale
 70
     0
300
1/4" = 1'-0"
140
0.25
141
12.0
290
     0
  0
SCALE
  5
76D3
102
{ACAD_REACTORS
330
76C9
102
}
330
76C9
100
AcDbScale
 70
     0
300
3/8" = 1'-0"
140
0.375
141
12.0
290
     0
  0
SCALE
  5
76D4
102
{ACAD_REACTORS
330
76C9
102
}
330
76C9
100
AcDbScale
 70
     0
300
1/2" = 1'-0"
140
0.5
141
12.0
290
     0
  0
SCALE
  5
76D5
102
{ACAD_REACTORS
330
76C9
102
}
330
76C9
100
AcDbScale
 70
     0
300
3/4" = 1'-0"
140
0.75
141
12.0
290
     0
  0
SCALE
  5
76D6
102
{ACAD_REACTORS
330
76C9
102
}
330
76C9
100
AcDbScale
 70
     0
300
1" = 1'-0"
140
1.0
141
12.0
290
     0
  0
SCALE
  5
76D7
102
{ACAD_REACTORS
330
76C9
102
}
330
76C9
100
AcDbScale
 70
     0
300
1-1/2" = 1'-0"
140
1.5
141
12.0
290
     0
  0
SCALE
  5
76D8
102
{ACAD_REACTORS
330
76C9
102
}
330
76C9
100
AcDbScale
 70
     0
300
3" = 1'-0"
140
3.0
141
12.0
290
     0
  0
SCALE
  5
76D9
102
{ACAD_REACTORS
330
76C9
102
}
330
76C9
100
AcDbScale
 70
     0
300
6" = 1'-0"
140
6.0
141
12.0
290
     0
  0
SCALE
  5
76DA
102
{ACAD_REACTORS
330
76C9
102
}
330
76C9
100
AcDbScale
 70
     0
300
1'-0" = 1'-0"
140
12.0
141
12.0
290
     0
  0
ACDBSECTIONVIEWSTYLE
  5
76DE
102
{ACAD_XDICTIONARY
360
770B
102
}
102
{ACAD_REACTORS
330
76DD
102
}
330
76DD
100
AcDbModelDocViewStyle
 70
     0
  3
Imperial24
290
     0
100
AcDbSectionViewStyle
 70
     0
 71
     0
 90
       78
 71
     1
340
11
 62
   256
 40
0.24
340
0
340
0
 62
   256
 40
0.24
300
I, O, Q, S, X, Z
 40
0.48
 90
        3
 40
0.18
 90
        1
 71
     2
340
15
 90
       25
 62
   256
340
15
 90
       50
 62
   256
 40
0.24
 40
0.0
 40
0.24
 71
     3
340
11
 62
   256
 40
0.24
 90
        1
 40
0.75
 90
        1
300
%<\AcVar ViewType \f "%tc1">% %<\AcVar ViewSectionStartId>%-%<\AcVar ViewSectionEndId>%\PSCALE %<\AcVar ViewScale \f "%sn">%
 71
     4
 62
   256
 62
   257
300
ANSI31
 40
1.0
 90
        0
290
     0
290
     0
 90
        6
 40
0.0
 40
1.570796326794896
 40
0.2617993877991494
 40
1.308996938995747
 40
-0.2617993877991494
 40
1.832595714594046
  0
TABLESTYLE
  5
76C8
102
{ACAD_XDICTIONARY
360
7709
102
}
102
{ACAD_REACTORS
330
76C7
102
}
330
76C7
100
AcDbTableStyle
280
     0
  3
Standard
 70
     0
 71
     0
 40
0.06
 41
0.06
280
     0
281
     0
  7
STANDARD
140
0.18
170
     2
 62
     0
 63
     7
283
     0
 90
      512
 91
        0
  1

274
    -2
284
     1
 64
     0
275
    -2
285
     1
 65
     0
276
    -2
286
     1
 66
     0
277
    -2
287
     1
 67
     0
278
    -2
288
     1
 68
     0
279
    -2
289
     1
 69
     0
  7
STANDARD
140
0.25
170
     5
 62
     0
 63
     7
283
     0
 90
      512
 91
        0
  1

274
    -2
284
     1
 64
     0
275
    -2
285
     1
 65
     0
276
    -2
286
     1
 66
     0
277
    -2
287
     1
 67
     0
278
    -2
288
     1
 68
     0
279
    -2
289
     1
 69
     0
  7
STANDARD
140
0.18
170
     5
 62
     0
 63
     7
283
     0
 90
      512
 91
        0
  1

274
    -2
284
     1
 64
     0
275
    -2
285
     1
 65
     0
276
    -2
286
     1
 66
     0
277
    -2
287
     1
 67
     0
278
    -2
288
     1
 68
     0
279
    -2
289
     1
 69
     0
  0
VISUALSTYLE
  5
76B3
102
{ACAD_REACTORS
330
76AD
102
}
330
76AD
100
AcDbVisualStyle
  2
2dWireframe
 70
     4
177
     3
291
     0
 70
    58
 90
        0
176
     1
 90
        2
176
     1
 90
        0
176
     1
 90
        0
176
     1
 40
0.6
176
     1
 40
30.0
176
     1
 62
     7
420
 16777215
176
     1
 90
        1
176
     1
 90
        4
176
     1
 62
     7
176
     1
 62
   257
176
     1
 90
        1
176
     1
 90
        1
176
     1
 40
1.0
176
     1
 90
        0
176
     1
 62
   257
176
     1
 40
1.0
176
     1
 90
        1
176
     1
 90
        6
176
     1
 90
        2
176
     1
 62
     7
176
     1
 90
        5
176
     1
 90
        0
176
     1
 90
        0
176
     1
290
     0
176
     1
 90
        1
176
     1
 40
0.0
176
     1
 90
        0
176
     1
290
     1
176
     1
290
     1
176
     1
290
     0
176
     1
290
     0
176
     1
290
     0
176
     1
290
     0
176
     1
290
     0
176
     1
290
     0
176
     1
290
     0
176
     1
 90
       50
176
     1
 40
0.0
176
     1
 40
1.0
176
     1
 90
        0
176
     1
 62
    18
420
        0
176
     1
 90
       50
176
     1
 90
        3
176
     1
 62
     5
420
      255
176
     1
290
     0
176
     1
 90
       50
176
     1
 90
       50
176
     1
 90
       50
176
     1
290
     0
176
     1
 90
       50
176
     1
 62
   256
176
     0
 40
1.0
176
     0
 90
        2
176
     1
  1
strokes_ogs.tif
176
     1
290
     0
176
     1
 40
1.0
176
     1
 40
1.0
176
     1
  0
VISUALSTYLE
  5
76B2
102
{ACAD_REACTORS
330
76AD
102
}
330
76AD
100
AcDbVisualStyle
  2
Basic
 70
     7
177
     3
291
     1
 70
    58
 90
        1
176
     1
 90
        0
176
     1
 90
        1
176
     1
 90
        0
176
     1
 40
0.6
176
     1
 40
30.0
176
     1
 62
     7
420
 16777215
176
     1
 90
        0
176
     1
 90
        4
176
     1
 62
     7
176
     1
 62
   257
176
     1
 90
        1
176
     1
 90
        1
176
     1
 40
1.0
176
     1
 90
        8
176
     1
 62
     7
176
     1
 40
1.0
176
     1
 90
        1
176
     1
 90
        6
176
     1
 90
        2
176
     1
 62
     7
176
     1
 90
        5
176
     1
 90
        0
176
     1
 90
        0
176
     1
290
     0
176
     1
 90
        1
176
     1
 40
0.0
176
     1
 90
        0
176
     1
290
     0
176
     1
290
     1
176
     1
290
     1
176
     1
290
     0
176
     1
290
     0
176
     1
290
     0
176
     1
290
     0
176
     1
290
     0
176
     1
290
     0
176
     1
 90
       50
176
     1
 40
0.0
176
     1
 40
1.0
176
     1
 90
        0
176
     1
 62
    18
420
        0
176
     1
 90
       50
176
     1
 90
        3
176
     1
 62
     5
420
      255
176
     1
290
     0
176
     1
 90
       50
176
     1
 90
       50
176
     1
 90
       50
176
     1
290
     0
176
     1
 90
       50
176
     1
 62
   256
176
     0
 40
1.0
176
     0
 90
        2
176
     1
  1
strokes_ogs.tif
176
     1
290
     0
176
     1
 40
1.0
176
     1
 40
1.0
176
     1
  0
VISUALSTYLE
  5
76B9
102
{ACAD_REACTORS
330
76AD
102
}
330
76AD
100
AcDbVisualStyle
  2
Brighten
 70
    12
177
     3
291
     1
 70
    58
 90
        2
176
     1
 90
        2
176
     1
 90
        0
176
     1
 90
        0
176
     1
 40
0.6
176
     1
 40
30.0
176
     1
 62
     7
420
 16777215
176
     1
 90
        1
176
     1
 90
        4
176
     1
 62
     7
176
     1
 62
   257
176
     1
 90
        1
176
     1
 90
        1
176
     1
 40
1.0
176
     1
 90
        8
176
     1
 62
     7
176
     1
 40
1.0
176
     1
 90
        1
176
     1
 90
        6
176
     1
 90
        2
176
     1
 62
     7
176
     1
 90
        5
176
     1
 90
        0
176
     1
 90
        0
176
     1
290
     0
176
     1
 90
        1
176
     1
 40
50.0
176
     1
 90
        0
176
     1
290
     0
176
     1
290
     1
176
     1
290
     1
176
     1
290
     0
176
     1
290
     0
176
     1
290
     0
176
     1
290
     0
176
     1
290
     0
176
     1
290
     0
176
     1
 90
       50
176
     1
 40
0.0
176
     1
 40
1.0
176
     1
 90
        0
176
     1
 62
    18
420
        0
176
     1
 90
       50
176
     1
 90
        3
176
     1
 62
     5
420
      255
176
     1
290
     0
176
     1
 90
       50
176
     1
 90
       50
176
     1
 90
       50
176
     1
290
     0
176
     1
 90
       50
176
     1
 62
   256
176
     0
 40
1.0
176
     0
 90
        2
176
     1
  1
strokes_ogs.tif
176
     1
290
     0
176
     1
 40
1.0
176
     1
 40
1.0
176
     1
  0
VISUALSTYLE
  5
76BD
102
{ACAD_REACTORS
330
76AD
102
}
330
76AD
100
AcDbVisualStyle
  2
ColorChange
 70
    16
177
     3
291
     1
 70
    58
 90
        2
176
     1
 90
        2
176
     1
 90
        3
176
     1
 90
        0
176
     1
 40
0.6
176
     1
 40
30.0
176
     1
 62
     8
420
  8421504
176
     1
 90
        1
176
     1
 90
        4
176
     1
 62
     7
176
     1
 62
   257
176
     1
 90
        1
176
     1
 90
        1
176
     1
 40
1.0
176
     1
 90
        8
176
     1
 62
     8
420
  8421504
176
     1
 40
1.0
176
     1
 90
        1
176
     1
 90
        6
176
     1
 90
        2
176
     1
 62
     7
176
     1
 90
        5
176
     1
 90
        0
176
     1
 90
        0
176
     1
290
     0
176
     1
 90
        1
176
     1
 40
0.0
176
     1
 90
        0
176
     1
290
     0
176
     1
290
     1
176
     1
290
     1
176
     1
290
     0
176
     1
290
     0
176
     1
290
     0
176
     1
290
     0
176
     1
290
     0
176
     1
290
     0
176
     1
 90
       50
176
     1
 40
0.0
176
     1
 40
1.0
176
     1
 90
        0
176
     1
 62
    18
420
        0
176
     1
 90
       50
176
     1
 90
        3
176
     1
 62
     5
420
      255
176
     1
290
     0
176
     1
 90
       50
176
     1
 90
       50
176
     1
 90
       50
176
     1
290
     0
176
     1
 90
       50
176
     1
 62
   256
176
     0
 40
1.0
176
     0
 90
        2
176
     1
  1
strokes_ogs.tif
176
     1
290
     0
176
     1
 40
1.0
176
     1
 40
1.0
176
     1
  0
VISUALSTYLE
  5
76B6
102
{ACAD_REACTORS
330
76AD
102
}
330
76AD
100
AcDbVisualStyle
  2
Conceptual
 70
     9
177
     3
291
     0
 70
    58
 90
        3
176
     1
 90
        2
176
     1
 90
        0
176
     1
 90
        0
176
     1
 40
0.6
176
     1
 40
30.0
176
     1
 62
     7
420
 16777215
176
     1
 90
        2
176
     1
 90
        2
176
     1
 62
     7
176
     1
 62
   257
176
     1
 90
        1
176
     1
 90
        1
176
     1
 40
179.0
176
     1
 90
        8
176
     1
 62
     7
176
     1
 40
1.0
176
     1
 90
        1
176
     1
 90
        6
176
     1
 90
        2
176
     1
 62
     7
176
     1
 90
        3
176
     1
 90
        0
176
     1
 90
        0
176
     1
290
     0
176
     1
 90
        1
176
     1
 40
0.0
176
     1
 90
        0
176
     1
290
     0
176
     1
290
     1
176
     1
290
     1
176
     1
290
     0
176
     1
290
     0
176
     1
290
     0
176
     1
290
     0
176
     1
290
     0
176
     1
290
     0
176
     1
 90
       50
176
     1
 40
0.0
176
     1
 40
1.0
176
     1
 90
        0
176
     1
 62
    18
420
        0
176
     1
 90
       50
176
     1
 90
        3
176
     1
 62
     5
420
      255
176
     1
290
     0
176
     1
 90
       50
176
     1
 90
       50
176
     1
 90
       50
176
     1
290
     0
176
     1
 90
       50
176
     1
 62
   256
176
     0
 40
1.0
176
     0
 90
        2
176
     1
  1
strokes_ogs.tif
176
     1
290
     0
176
     1
 40
1.0
176
     1
 40
1.0
176
     1
  0
VISUALSTYLE
  5
76B8
102
{ACAD_REACTORS
330
76AD
102
}
330
76AD
100
AcDbVisualStyle
  2
Dim
 70
    11
177
     3
291
     1
 70
    58
 90
        2
176
     1
 90
        2
176
     1
 90
        0
176
     1
 90
        0
176
     1
 40
0.6
176
     1
 40
30.0
176
     1
 62
     7
420
 16777215
176
     1
 90
        1
176
     1
 90
        4
176
     1
 62
     7
176
     1
 62
   257
176
     1
 90
        1
176
     1
 90
        1
176
     1
 40
1.0
176
     1
 90
        8
176
     1
 62
     7
176
     1
 40
1.0
176
     1
 90
        1
176
     1
 90
        6
176
     1
 90
        2
176
     1
 62
     7
176
     1
 90
        5
176
     1
 90
        0
176
     1
 90
        0
176
     1
290
     0
176
     1
 90
        1
176
     1
 40
-50.0
176
     1
 90
        0
176
     1
290
     0
176
     1
290
     1
176
     1
290
     1
176
     1
290
     0
176
     1
290
     0
176
     1
290
     0
176
     1
290
     0
176
     1
290
     0
176
     1
290
     0
176
     1
 90
       50
176
     1
 40
0.0
176
     1
 40
1.0
176
     1
 90
        0
176
     1
 62
    18
420
        0
176
     1
 90
       50
176
     1
 90
        3
176
     1
 62
     5
420
      255
176
     1
290
     0
176
     1
 90
       50
176
     1
 90
       50
176
     1
 90
       50
176
     1
290
     0
176
     1
 90
       50
176
     1
 62
   256
176
     0
 40
1.0
176
     0
 90
        2
176
     1
  1
strokes_ogs.tif
176
     1
290
     0
176
     1
 40
1.0
176
     1
 40
1.0
176
     1
  0
VISUALSTYLE
  5
76C5
102
{ACAD_REACTORS
330
76AD
102
}
330
76AD
100
AcDbVisualStyle
  2
EdgeColorOff
 70
    22
177
     3
291
     1
 70
    58
 90
        2
176
     0
 90
        2
176
     0
 90
        0
176
     0
 90
        0
176
     0
 40
0.6
176
     0
 40
30.0
176
     0
 62
     7
420
 16777215
176
     0
 90
        1
176
     0
 90
        4
176
     0
 62
     7
176
     0
 62
   257
176
     0
 90
        1
176
     0
 90
        1
176
     0
 40
1.0
176
     0
 90
        8
176
     2
 62
     7
176
     0
 40
1.0
176
     0
 90
        1
176
     0
 90
        6
176
     0
 90
        2
176
     0
 62
     7
176
     0
 90
        5
176
     0
 90
        0
176
     0
 90
        0
176
     0
290
     0
176
     0
 90
        1
176
     0
 40
0.0
176
     0
 90
        0
176
     0
290
     0
176
     1
290
     1
176
     1
290
     1
176
     1
290
     0
176
     1
290
     0
176
     1
290
     0
176
     1
290
     0
176
     1
290
     0
176
     1
290
     0
176
     1
 90
       50
176
     0
 40
0.0
176
     0
 40
1.0
176
     0
 90
        0
176
     0
 62
    18
420
        0
176
     0
 90
       50
176
     0
 90
        3
176
     0
 62
     5
420
      255
176
     0
290
     0
176
     1
 90
       50
176
     0
 90
       50
176
     0
 90
       50
176
     0
290
     0
176
     1
 90
       50
176
     0
 62
   256
176
     0
 40
1.0
176
     0
 90
        2
176
     0
  1
strokes_ogs.tif
176
     0
290
     0
176
     1
 40
1.0
176
     0
 40
1.0
176
     0
  0
VISUALSTYLE
  5
76BC
102
{ACAD_REACTORS
330
76AD
102
}
330
76AD
100
AcDbVisualStyle
  2
Facepattern
 70
    15
177
     3
291
     1
 70
    58
 90
        2
176
     1
 90
        2
176
     1
 90
        0
176
     1
 90
        0
176
     1
 40
0.6
176
     1
 40
30.0
176
     1
 62
     7
420
 16777215
176
     1
 90
        1
176
     1
 90
        4
176
     1
 62
     7
176
     1
 62
   257
176
     1
 90
        1
176
     1
 90
        1
176
     1
 40
1.0
176
     1
 90
        8
176
     1
 62
     7
176
     1
 40
1.0
176
     1
 90
        1
176
     1
 90
        6
176
     1
 90
        2
176
     1
 62
     7
176
     1
 90
        5
176
     1
 90
        0
176
     1
 90
        0
176
     1
290
     0
176
     1
 90
        1
176
     1
 40
0.0
176
     1
 90
        0
176
     1
290
     0
176
     1
290
     1
176
     1
290
     1
176
     1
290
     0
176
     1
290
     0
176
     1
290
     0
176
     1
290
     0
176
     1
290
     0
176
     1
290
     0
176
     1
 90
       50
176
     1
 40
0.0
176
     1
 40
1.0
176
     1
 90
        0
176
     1
 62
    18
420
        0
176
     1
 90
       50
176
     1
 90
        3
176
     1
 62
     5
420
      255
176
     1
290
     0
176
     1
 90
       50
176
     1
 90
       50
176
     1
 90
       50
176
     1
290
     0
176
     1
 90
       50
176
     1
 62
   256
176
     0
 40
1.0
176
     0
 90
        2
176
     1
  1
strokes_ogs.tif
176
     1
290
     0
176
     1
 40
1.0
176
     1
 40
1.0
176
     1
  0
VISUALSTYLE
  5
76AE
102
{ACAD_REACTORS
330
76AD
102
}
330
76AD
100
AcDbVisualStyle
  2
Flat
 70
     0
177
     3
291
     1
 70
    58
 90
        2
176
     1
 90
        1
176
     1
 90
        1
176
     1
 90
        2
176
     1
 40
0.6
176
     1
 40
30.0
176
     1
 62
     7
420
 16777215
176
     1
 90
        0
176
     1
 90
        0
176
     1
 62
     7
176
     1
 62
   257
176
     1
 90
        1
176
     1
 90
        1
176
     1
 40
1.0
176
     1
 90
        8
176
     1
 62
     7
176
     1
 40
1.0
176
     1
 90
        1
176
     1
 90
        6
176
     1
 90
        2
176
     1
 62
     7
176
     1
 90
        5
176
     1
 90
        0
176
     1
 90
        0
176
     1
290
     0
176
     1
 90
       13
176
     1
 40
0.0
176
     1
 90
        0
176
     1
290
     0
176
     1
290
     1
176
     1
290
     1
176
     1
290
     0
176
     1
290
     0
176
     1
290
     0
176
     1
290
     0
176
     1
290
     0
176
     1
290
     0
176
     1
 90
       50
176
     1
 40
0.0
176
     1
 40
1.0
176
     1
 90
        0
176
     1
 62
    18
420
        0
176
     1
 90
       50
176
     1
 90
        3
176
     1
 62
     5
420
      255
176
     1
290
     0
176
     1
 90
       50
176
     1
 90
       50
176
     1
 90
       50
176
     1
290
     0
176
     1
 90
       50
176
     1
 62
   256
176
     0
 40
1.0
176
     0
 90
        2
176
     1
  1
strokes_ogs.tif
176
     1
290
     0
176
     1
 40
1.0
176
     1
 40
1.0
176
     1
  0
VISUALSTYLE
  5
76AF
102
{ACAD_REACTORS
330
76AD
102
}
330
76AD
100
AcDbVisualStyle
  2
FlatWithEdges
 70
     1
177
     3
291
     1
 70
    58
 90
        2
176
     1
 90
        1
176
     1
 90
        1
176
     1
 90
        2
176
     1
 40
0.6
176
     1
 40
30.0
176
     1
 62
     7
420
 16777215
176
     1
 90
        1
176
     1
 90
        0
176
     1
 62
     7
176
     1
 62
   257
176
     1
 90
        1
176
     1
 90
        1
176
     1
 40
1.0
176
     1
 90
        0
176
     1
 62
   257
176
     1
 40
1.0
176
     1
 90
        1
176
     1
 90
        6
176
     1
 90
        2
176
     1
 62
     7
176
     1
 90
        5
176
     1
 90
        0
176
     1
 90
        0
176
     1
290
     0
176
     1
 90
       13
176
     1
 40
0.0
176
     1
 90
        0
176
     1
290
     0
176
     1
290
     1
176
     1
290
     1
176
     1
290
     0
176
     1
290
     0
176
     1
290
     0
176
     1
290
     0
176
     1
290
     0
176
     1
290
     0
176
     1
 90
       50
176
     1
 40
0.0
176
     1
 40
1.0
176
     1
 90
        0
176
     1
 62
    18
420
        0
176
     1
 90
       50
176
     1
 90
        3
176
     1
 62
     5
420
      255
176
     1
290
     0
176
     1
 90
       50
176
     1
 90
       50
176
     1
 90
       50
176
     1
290
     0
176
     1
 90
       50
176
     1
 62
   256
176
     0
 40
1.0
176
     0
 90
        2
176
     1
  1
strokes_ogs.tif
176
     1
290
     0
176
     1
 40
1.0
176
     1
 40
1.0
176
     1
  0
VISUALSTYLE
  5
76B0
102
{ACAD_REACTORS
330
76AD
102
}
330
76AD
100
AcDbVisualStyle
  2
Gouraud
 70
     2
177
     3
291
     1
 70
    58
 90
        2
176
     1
 90
        2
176
     1
 90
        1
176
     1
 90
        2
176
     1
 40
0.6
176
     1
 40
30.0
176
     1
 62
     7
420
 16777215
176
     1
 90
        0
176
     1
 90
        0
176
     1
 62
     7
176
     1
 62
   257
176
     1
 90
        1
176
     1
 90
        1
176
     1
 40
1.0
176
     1
 90
        0
176
     1
 62
     7
176
     1
 40
1.0
176
     1
 90
        1
176
     1
 90
        6
176
     1
 90
        2
176
     1
 62
     7
176
     1
 90
        5
176
     1
 90
        0
176
     1
 90
        0
176
     1
290
     0
176
     1
 90
       13
176
     1
 40
0.0
176
     1
 90
        0
176
     1
290
     0
176
     1
290
     1
176
     1
290
     1
176
     1
290
     0
176
     1
290
     0
176
     1
290
     0
176
     1
290
     0
176
     1
290
     0
176
     1
290
     0
176
     1
 90
       50
176
     1
 40
0.0
176
     1
 40
1.0
176
     1
 90
        0
176
     1
 62
    18
420
        0
176
     1
 90
       50
176
     1
 90
        3
176
     1
 62
     5
420
      255
176
     1
290
     0
176
     1
 90
       50
176
     1
 90
       50
176
     1
 90
       50
176
     1
290
     0
176
     1
 90
       50
176
     1
 62
   256
176
     0
 40
1.0
176
     0
 90
        2
176
     1
  1
strokes_ogs.tif
176
     1
290
     0
176
     1
 40
1.0
176
     1
 40
1.0
176
     1
  0
VISUALSTYLE
  5
76B1
102
{ACAD_REACTORS
330
76AD
102
}
330
76AD
100
AcDbVisualStyle
  2
GouraudWithEdges
 70
     3
177
     3
291
     1
 70
    58
 90
        2
176
     1
 90
        2
176
     1
 90
        1
176
     1
 90
        2
176
     1
 40
0.6
176
     1
 40
30.0
176
     1
 62
     7
420
 16777215
176
     1
 90
        1
176
     1
 90
        0
176
     1
 62
     7
176
     1
 62
   257
176
     1
 90
        1
176
     1
 90
        1
176
     1
 40
1.0
176
     1
 90
        0
176
     1
 62
   257
176
     1
 40
1.0
176
     1
 90
        1
176
     1
 90
        6
176
     1
 90
        2
176
     1
 62
     7
176
     1
 90
        5
176
     1
 90
        0
176
     1
 90
        0
176
     1
290
     0
176
     1
 90
       13
176
     1
 40
0.0
176
     1
 90
        0
176
     1
290
     0
176
     1
290
     1
176
     1
290
     1
176
     1
290
     0
176
     1
290
     0
176
     1
290
     0
176
     1
290
     0
176
     1
290
     0
176
     1
290
     0
176
     1
 90
       50
176
     1
 40
0.0
176
     1
 40
1.0
176
     1
 90
        0
176
     1
 62
    18
420
        0
176
     1
 90
       50
176
     1
 90
        3
176
     1
 62
     5
420
      255
176
     1
290
     0
176
     1
 90
       50
176
     1
 90
       50
176
     1
 90
       50
176
     1
290
     0
176
     1
 90
       50
176
     1
 62
   256
176
     0
 40
1.0
176
     0
 90
        2
176
     1
  1
strokes_ogs.tif
176
     1
290
     0
176
     1
 40
1.0
176
     1
 40
1.0
176
     1
  0
VISUALSTYLE
  5
76B5
102
{ACAD_REACTORS
330
76AD
102
}
330
76AD
100
AcDbVisualStyle
  2
Hidden
 70
     6
177
     3
291
     0
 70
    58
 90
        1
176
     1
 90
        2
176
     1
 90
        2
176
     1
 90
        0
176
     1
 40
0.6
176
     1
 40
30.0
176
     1
 62
     7
420
 16777215
176
     1
 90
        2
176
     1
 90
        2
176
     1
 62
     7
176
     1
 62
   257
176
     1
 90
        2
176
     1
 90
        1
176
     1
 40
40.0
176
     1
 90
        0
176
     1
 62
   257
176
     1
 40
1.0
176
     1
 90
        1
176
     1
 90
        6
176
     1
 90
        2
176
     1
 62
     7
176
     1
 90
        3
176
     1
 90
        0
176
     1
 90
        0
176
     1
290
     0
176
     1
 90
        1
176
     1
 40
0.0
176
     1
 90
        0
176
     1
290
     0
176
     1
290
     1
176
     1
290
     1
176
     1
290
     0
176
     1
290
     0
176
     1
290
     0
176
     1
290
     0
176
     1
290
     0
176
     1
290
     0
176
     1
 90
       50
176
     1
 40
0.0
176
     1
 40
1.0
176
     1
 90
        0
176
     1
 62
    18
420
        0
176
     1
 90
       50
176
     1
 90
        3
176
     1
 62
     5
420
      255
176
     1
290
     0
176
     1
 90
       50
176
     1
 90
       50
176
     1
 90
       50
176
     1
290
     0
176
     1
 90
       50
176
     1
 62
   256
176
     0
 40
1.0
176
     0
 90
        2
176
     1
  1
strokes_ogs.tif
176
     1
290
     0
176
     1
 40
1.0
176
     1
 40
1.0
176
     1
  0
VISUALSTYLE
  5
76C3
102
{ACAD_REACTORS
330
76AD
102
}
330
76AD
100
AcDbVisualStyle
  2
JitterOff
 70
    20
177
     3
291
     1
 70
    58
 90
        2
176
     0
 90
        2
176
     0
 90
        0
176
     0
 90
        0
176
     0
 40
0.6
176
     0
 40
30.0
176
     0
 62
     7
420
 16777215
176
     0
 90
        1
176
     0
 90
        4
176
     0
 62
     7
176
     0
 62
   257
176
     0
 90
        1
176
     0
 90
        1
176
     0
 40
1.0
176
     0
 90
       10
176
     2
 62
     7
176
     0
 40
1.0
176
     0
 90
        1
176
     0
 90
        6
176
     0
 90
        2
176
     0
 62
     7
176
     0
 90
        5
176
     0
 90
        0
176
     0
 90
        0
176
     0
290
     0
176
     0
 90
        1
176
     0
 40
0.0
176
     0
 90
        0
176
     0
290
     0
176
     1
290
     1
176
     1
290
     1
176
     1
290
     0
176
     1
290
     0
176
     1
290
     0
176
     1
290
     0
176
     1
290
     0
176
     1
290
     0
176
     1
 90
       50
176
     0
 40
0.0
176
     0
 40
1.0
176
     0
 90
        0
176
     0
 62
    18
420
        0
176
     0
 90
       50
176
     0
 90
        3
176
     0
 62
     5
420
      255
176
     0
290
     0
176
     1
 90
       50
176
     0
 90
       50
176
     0
 90
       50
176
     0
290
     0
176
     1
 90
       50
176
     0
 62
   256
176
     0
 40
1.0
176
     0
 90
        2
176
     0
  1
strokes_ogs.tif
176
     0
290
     0
176
     1
 40
1.0
176
     0
 40
1.0
176
     0
  0
VISUALSTYLE
  5
76BB
102
{ACAD_REACTORS
330
76AD
102
}
330
76AD
100
AcDbVisualStyle
  2
Linepattern
 70
    14
177
     3
291
     1
 70
    58
 90
        2
176
     1
 90
        2
176
     1
 90
        0
176
     1
 90
        0
176
     1
 40
0.6
176
     1
 40
30.0
176
     1
 62
     7
420
 16777215
176
     1
 90
        1
176
     1
 90
        4
176
     1
 62
     7
176
     1
 62
   257
176
     1
 90
        7
176
     1
 90
        7
176
     1
 40
1.0
176
     1
 90
        8
176
     1
 62
     7
176
     1
 40
1.0
176
     1
 90
        1
176
     1
 90
        6
176
     1
 90
        2
176
     1
 62
     7
176
     1
 90
        5
176
     1
 90
        0
176
     1
 90
        0
176
     1
290
     0
176
     1
 90
        1
176
     1
 40
0.0
176
     1
 90
        0
176
     1
290
     0
176
     1
290
     1
176
     1
290
     1
176
     1
290
     0
176
     1
290
     0
176
     1
290
     0
176
     1
290
     0
176
     1
290
     0
176
     1
290
     0
176
     1
 90
       50
176
     1
 40
0.0
176
     1
 40
1.0
176
     1
 90
        0
176
     1
 62
    18
420
        0
176
     1
 90
       50
176
     1
 90
        3
176
     1
 62
     5
420
      255
176
     1
290
     0
176
     1
 90
       50
176
     1
 90
       50
176
     1
 90
       50
176
     1
290
     0
176
     1
 90
       50
176
     1
 62
   256
176
     0
 40
1.0
176
     0
 90
        2
176
     1
  1
strokes_ogs.tif
176
     1
290
     0
176
     1
 40
1.0
176
     1
 40
1.0
176
     1
  0
VISUALSTYLE
  5
76C4
102
{ACAD_REACTORS
330
76AD
102
}
330
76AD
100
AcDbVisualStyle
  2
OverhangOff
 70
    21
177
     3
291
     1
 70
    58
 90
        2
176
     0
 90
        2
176
     0
 90
        0
176
     0
 90
        0
176
     0
 40
0.6
176
     0
 40
30.0
176
     0
 62
     7
420
 16777215
176
     0
 90
        1
176
     0
 90
        4
176
     0
 62
     7
176
     0
 62
   257
176
     0
 90
        1
176
     0
 90
        1
176
     0
 40
1.0
176
     0
 90
        9
176
     2
 62
     7
176
     0
 40
1.0
176
     0
 90
        1
176
     0
 90
        6
176
     0
 90
        2
176
     0
 62
     7
176
     0
 90
        5
176
     0
 90
        0
176
     0
 90
        0
176
     0
290
     0
176
     0
 90
        1
176
     0
 40
0.0
176
     0
 90
        0
176
     0
290
     0
176
     1
290
     1
176
     1
290
     1
176
     1
290
     0
176
     1
290
     0
176
     1
290
     0
176
     1
290
     0
176
     1
290
     0
176
     1
290
     0
176
     1
 90
       50
176
     0
 40
0.0
176
     0
 40
1.0
176
     0
 90
        0
176
     0
 62
    18
420
        0
176
     0
 90
       50
176
     0
 90
        3
176
     0
 62
     5
420
      255
176
     0
290
     0
176
     1
 90
       50
176
     0
 90
       50
176
     0
 90
       50
176
     0
290
     0
176
     1
 90
       50
176
     0
 62
   256
176
     0
 40
1.0
176
     0
 90
        2
176
     0
  1
strokes_ogs.tif
176
     0
290
     0
176
     1
 40
1.0
176
     0
 40
1.0
176
     0
  0
VISUALSTYLE
  5
76B7
102
{ACAD_REACTORS
330
76AD
102
}
330
76AD
100
AcDbVisualStyle
  2
Realistic
 70
     8
177
     3
291
     0
 70
    58
 90
        2
176
     1
 90
        3
176
     1
 90
        0
176
     1
 90
        2
176
     1
 40
0.6
176
     1
 40
30.0
176
     1
 62
     7
420
 16777215
176
     1
 90
        0
176
     1
 90
        0
176
     1
 62
     7
176
     1
 62
   257
176
     1
 90
        1
176
     1
 90
        1
176
     1
 40
1.0
176
     1
 90
        8
176
     1
 62
   257
176
     1
 40
1.0
176
     1
 90
        1
176
     1
 90
        6
176
     1
 90
        2
176
     1
 62
     7
176
     1
 90
        3
176
     1
 90
        0
176
     1
 90
        0
176
     1
290
     0
176
     1
 90
       13
176
     1
 40
0.0
176
     1
 90
        0
176
     1
290
     0
176
     1
290
     1
176
     1
290
     1
176
     1
290
     0
176
     1
290
     0
176
     1
290
     0
176
     1
290
     0
176
     1
290
     0
176
     1
290
     0
176
     1
 90
       50
176
     1
 40
0.0
176
     1
 40
1.0
176
     1
 90
        0
176
     1
 62
    18
420
        0
176
     1
 90
       50
176
     1
 90
        3
176
     1
 62
     5
420
      255
176
     1
290
     0
176
     1
 90
       50
176
     1
 90
       50
176
     1
 90
       50
176
     1
290
     0
176
     1
 90
       50
176
     1
 62
   256
176
     0
 40
1.0
176
     0
 90
        2
176
     1
  1
strokes_ogs.tif
176
     1
290
     0
176
     1
 40
1.0
176
     1
 40
1.0
176
     1
  0
VISUALSTYLE
  5
76C2
102
{ACAD_REACTORS
330
76AD
102
}
330
76AD
100
AcDbVisualStyle
  2
Shaded
 70
    27
177
     3
291
     0
 70
    58
 90
        2
176
     1
 90
        2
176
     1
 90
        1
176
     1
 90
        2
176
     1
 40
0.6
176
     1
 40
30.0
176
     1
 62
     7
420
 16777215
176
     1
 90
        0
176
     1
 90
        4
176
     1
 62
     7
176
     1
 62
   257
176
     1
 90
        1
176
     1
 90
        1
176
     1
 40
1.0
176
     1
 90
        8
176
     1
 62
   257
176
     1
 40
1.0
176
     1
 90
        1
176
     1
 90
        6
176
     1
 90
        2
176
     1
 62
     8
420
  7895160
176
     1
 90
        3
176
     1
 90
        0
176
     1
 90
        0
176
     1
290
     0
176
     1
 90
        5
176
     1
 40
0.0
176
     1
 90
        0
176
     1
290
     0
176
     1
290
     1
176
     1
290
     1
176
     1
290
     0
176
     1
290
     0
176
     1
290
     0
176
     1
290
     0
176
     1
290
     0
176
     1
290
     0
176
     1
 90
       50
176
     1
 40
0.0
176
     1
 40
1.0
176
     1
 90
        0
176
     1
 62
    18
420
        0
176
     1
 90
       50
176
     1
 90
        3
176
     1
 62
     5
420
      255
176
     1
290
     0
176
     1
 90
       50
176
     1
 90
       50
176
     1
 90
       50
176
     1
290
     0
176
     1
 90
       50
176
     1
 62
   256
176
     0
 40
1.0
176
     0
 90
        2
176
     1
  1
strokes_ogs.tif
176
     1
290
     0
176
     1
 40
1.0
176
     1
 40
1.0
176
     1
  0
VISUALSTYLE
  5
76C1
102
{ACAD_REACTORS
330
76AD
102
}
330
76AD
100
AcDbVisualStyle
  2
Shaded with edges
 70
    26
177
     3
291
     0
 70
    58
 90
        2
176
     1
 90
        2
176
     1
 90
        1
176
     1
 90
        2
176
     1
 40
0.6
176
     1
 40
30.0
176
     1
 62
     7
420
 16777215
176
     1
 90
        1
176
     1
 90
       10
176
     1
 62
     7
176
     1
 62
   257
176
     1
 90
        2
176
     1
 90
        1
176
     1
 40
1.0
176
     1
 90
        8
176
     1
 62
   257
176
     1
 40
1.0
176
     1
 90
        1
176
     1
 90
        6
176
     1
 90
        2
176
     1
 62
     7
176
     1
 90
        3
176
     1
 90
        0
176
     1
 90
        0
176
     1
290
     0
176
     1
 90
        5
176
     1
 40
0.0
176
     1
 90
        0
176
     1
290
     0
176
     1
290
     1
176
     1
290
     1
176
     1
290
     0
176
     1
290
     0
176
     1
290
     0
176
     1
290
     0
176
     1
290
     0
176
     1
290
     0
176
     1
 90
       50
176
     1
 40
0.0
176
     1
 40
1.0
176
     1
 90
        0
176
     1
 62
    18
420
        0
176
     1
 90
       50
176
     1
 90
        3
176
     1
 62
     5
420
      255
176
     1
290
     0
176
     1
 90
       50
176
     1
 90
       50
176
     1
 90
       50
176
     1
290
     0
176
     1
 90
       50
176
     1
 62
   256
176
     0
 40
1.0
176
     0
 90
        2
176
     1
  1
strokes_ogs.tif
176
     1
290
     0
176
     1
 40
1.0
176
     1
 40
1.0
176
     1
  0
VISUALSTYLE
  5
76BE
102
{ACAD_REACTORS
330
76AD
102
}
330
76AD
100
AcDbVisualStyle
  2
Shades of Gray
 70
    23
177
     3
291
     0
 70
    58
 90
        2
176
     1
 90
        2
176
     1
 90
        3
176
     1
 90
        0
176
     1
 40
0.6
176
     1
 40
30.0
176
     1
 62
     7
420
 16777215
176
     1
 90
        2
176
     1
 90
        2
176
     1
 62
     7
176
     1
 62
     7
176
     1
 90
        1
176
     1
 90
        1
176
     1
 40
40.0
176
     1
 90
        8
176
     1
 62
     7
176
     1
 40
1.0
176
     1
 90
        1
176
     1
 90
        6
176
     1
 90
        2
176
     1
 62
     7
176
     1
 90
        3
176
     1
 90
        0
176
     1
 90
        0
176
     1
290
     0
176
     1
 90
        1
176
     1
 40
0.0
176
     1
 90
        0
176
     1
290
     0
176
     1
290
     1
176
     1
290
     1
176
     1
290
     0
176
     1
290
     0
176
     1
290
     0
176
     1
290
     0
176
     1
290
     0
176
     1
290
     0
176
     1
 90
       50
176
     1
 40
0.0
176
     1
 40
1.0
176
     1
 90
        0
176
     1
 62
    18
420
        0
176
     1
 90
       50
176
     1
 90
        3
176
     1
 62
     5
420
      255
176
     1
290
     0
176
     1
 90
       50
176
     1
 90
       50
176
     1
 90
       50
176
     1
290
     0
176
     1
 90
       50
176
     1
 62
   256
176
     0
 40
1.0
176
     0
 90
        2
176
     1
  1
strokes_ogs.tif
176
     1
290
     0
176
     1
 40
1.0
176
     1
 40
1.0
176
     1
  0
VISUALSTYLE
  5
76BF
102
{ACAD_REACTORS
330
76AD
102
}
330
76AD
100
AcDbVisualStyle
  2
Sketchy
 70
    24
177
     3
291
     0
 70
    58
 90
        1
176
     1
 90
        2
176
     1
 90
        2
176
     1
 90
        0
176
     1
 40
0.6
176
     1
 40
30.0
176
     1
 62
     7
420
 16777215
176
     1
 90
        2
176
     1
 90
        2
176
     1
 62
     7
176
     1
 62
     7
176
     1
 90
        1
176
     1
 90
        1
176
     1
 40
40.0
176
     1
 90
       11
176
     1
 62
     7
176
     1
 40
1.0
176
     1
 90
        1
176
     1
 90
        6
176
     1
 90
        2
176
     1
 62
     7
176
     1
 90
        6
176
     1
 90
        0
176
     1
 90
        0
176
     1
290
     0
176
     1
 90
        1
176
     1
 40
0.0
176
     1
 90
        0
176
     1
290
     0
176
     1
290
     1
176
     1
290
     1
176
     1
290
     0
176
     1
290
     0
176
     1
290
     0
176
     1
290
     0
176
     1
290
     0
176
     1
290
     0
176
     1
 90
       50
176
     1
 40
0.0
176
     1
 40
1.0
176
     1
 90
        0
176
     1
 62
    18
420
        0
176
     1
 90
       50
176
     1
 90
        3
176
     1
 62
     5
420
      255
176
     1
290
     0
176
     1
 90
       50
176
     1
 90
       50
176
     1
 90
       50
176
     1
290
     0
176
     1
 90
       50
176
     1
 62
   256
176
     0
 40
1.0
176
     0
 90
        2
176
     1
  1
strokes_ogs.tif
176
     1
290
     0
176
     1
 40
1.0
176
     1
 40
1.0
176
     1
  0
VISUALSTYLE
  5
76BA
102
{ACAD_REACTORS
330
76AD
102
}
330
76AD
100
AcDbVisualStyle
  2
Thicken
 70
    13
177
     3
291
     1
 70
    58
 90
        2
176
     1
 90
        2
176
     1
 90
        0
176
     1
 90
        0
176
     1
 40
0.6
176
     1
 40
30.0
176
     1
 62
     7
420
 16777215
176
     1
 90
        1
176
     1
 90
        4
176
     1
 62
     7
176
     1
 62
   257
176
     1
 90
        1
176
     1
 90
        1
176
     1
 40
1.0
176
     1
 90
       12
176
     1
 62
     7
176
     1
 40
1.0
176
     1
 90
        1
176
     1
 90
        6
176
     1
 90
        2
176
     1
 62
     7
176
     1
 90
        5
176
     1
 90
        0
176
     1
 90
        0
176
     1
290
     0
176
     1
 90
        1
176
     1
 40
0.0
176
     1
 90
        0
176
     1
290
     0
176
     1
290
     1
176
     1
290
     1
176
     1
290
     0
176
     1
290
     0
176
     1
290
     0
176
     1
290
     0
176
     1
290
     0
176
     1
290
     0
176
     1
 90
       50
176
     1
 40
0.0
176
     1
 40
1.0
176
     1
 90
        0
176
     1
 62
    18
420
        0
176
     1
 90
       50
176
     1
 90
        3
176
     1
 62
     5
420
      255
176
     1
290
     0
176
     1
 90
       50
176
     1
 90
       50
176
     1
 90
       50
176
     1
290
     0
176
     1
 90
       50
176
     1
 62
   256
176
     0
 40
1.0
176
     0
 90
        2
176
     1
  1
strokes_ogs.tif
176
     1
290
     0
176
     1
 40
1.0
176
     1
 40
1.0
176
     1
  0
VISUALSTYLE
  5
76B4
102
{ACAD_REACTORS
330
76AD
102
}
330
76AD
100
AcDbVisualStyle
  2
Wireframe
 70
     5
177
     3
291
     0
 70
    58
 90
        0
176
     1
 90
        2
176
     1
 90
        0
176
     1
 90
        0
176
     1
 40
0.6
176
     1
 40
30.0
176
     1
 62
     7
420
 16777215
176
     1
 90
        1
176
     1
 90
        4
176
     1
 62
     7
176
     1
 62
   257
176
     1
 90
        1
176
     1
 90
        1
176
     1
 40
1.0
176
     1
 90
        0
176
     1
 62
   257
176
     1
 40
1.0
176
     1
 90
        1
176
     1
 90
        6
176
     1
 90
        2
176
     1
 62
     7
176
     1
 90
        3
176
     1
 90
        0
176
     1
 90
        0
176
     1
290
     0
176
     1
 90
        1
176
     1
 40
0.0
176
     1
 90
        0
176
     1
290
     0
176
     1
290
     1
176
     1
290
     1
176
     1
290
     0
176
     1
290
     0
176
     1
290
     0
176
     1
290
     0
176
     1
290
     0
176
     1
290
     0
176
     1
 90
       50
176
     1
 40
0.0
176
     1
 40
1.0
176
     1
 90
        0
176
     1
 62
    18
420
        0
176
     1
 90
       50
176
     1
 90
        3
176
     1
 62
     5
420
      255
176
     1
290
     0
176
     1
 90
       50
176
     1
 90
       50
176
     1
 90
       50
176
     1
290
     0
176
     1
 90
       50
176
     1
 62
   256
176
     0
 40
1.0
176
     0
 90
        2
176
     1
  1
strokes_ogs.tif
176
     1
290
     0
176
     1
 40
1.0
176
     1
 40
1.0
176
     1
  0
VISUALSTYLE
  5
76C0
102
{ACAD_REACTORS
330
76AD
102
}
330
76AD
100
AcDbVisualStyle
  2
X-Ray
 70
    25
177
     3
291
     0
 70
    58
 90
        2
176
     1
 90
        2
176
     1
 90
        1
176
     1
 90
        1
176
     1
 40
0.5
176
     1
 40
30.0
176
     1
 62
     7
420
 16777215
176
     1
 90
        1
176
     1
 90
        0
176
     1
 62
     7
176
     1
 62
   257
176
     1
 90
        1
176
     1
 90
        1
176
     1
 40
1.0
176
     1
 90
        8
176
     1
 62
     7
176
     1
 40
1.0
176
     1
 90
        1
176
     1
 90
        6
176
     1
 90
        2
176
     1
 62
     7
176
     1
 90
        3
176
     1
 90
        0
176
     1
 90
        0
176
     1
290
     0
176
     1
 90
       13
176
     1
 40
0.0
176
     1
 90
        0
176
     1
290
     0
176
     1
290
     1
176
     1
290
     1
176
     1
290
     0
176
     1
290
     0
176
     1
290
     0
176
     1
290
     0
176
     1
290
     0
176
     1
290
     0
176
     1
 90
       50
176
     1
 40
0.0
176
     1
 40
1.0
176
     1
 90
        0
176
     1
 62
    18
420
        0
176
     1
 90
       50
176
     1
 90
        3
176
     1
 62
     5
420
      255
176
     1
290
     0
176
     1
 90
       50
176
     1
 90
       50
176
     1
 90
       50
176
     1
290
     0
176
     1
 90
       50
176
     1
 62
   256
176
     0
 40
1.0
176
     0
 90
        2
176
     1
  1
strokes_ogs.tif
176
     1
290
     0
176
     1
 40
1.0
176
     1
 40
1.0
176
     1
  0
DICTIONARYVAR
  5
7704
102
{ACAD_REACTORS
330
5E0C
102
}
330
5E0C
100
DictionaryVariables
280
     0
  1
1:1
  0
DICTIONARYVAR
  5
7700
102
{ACAD_REACTORS
330
5E0C
102
}
330
5E0C
100
DictionaryVariables
280
     0
  1
STANDARD
  0
DICTIONARYVAR
  5
76FF
102
{ACAD_REACTORS
330
5E0C
102
}
330
5E0C
100
DictionaryVariables
280
     0
  1
STANDARD
  0
DICTIONARYVAR
  5
7701
102
{ACAD_REACTORS
330
5E0C
102
}
330
5E0C
100
DictionaryVariables
280
     0
  1
Imperial24
  0
DICTIONARYVAR
  5
7702
102
{ACAD_REACTORS
330
5E0C
102
}
330
5E0C
100
DictionaryVariables
280
     0
  1
Imperial24
  0
DICTIONARYVAR
  5
5E0D
102
{ACAD_REACTORS
330
5E0C
102
}
330
5E0C
100
DictionaryVariables
280
     0
  1
1
  0
DICTIONARYVAR
  5
7706
102
{ACAD_REACTORS
330
5E0C
102
}
330
5E0C
100
DictionaryVariables
280
     0
  1
1
  0
DICTIONARYVAR
  5
7707
102
{ACAD_REACTORS
330
5E0C
102
}
330
5E0C
100
DictionaryVariables
280
     0
  1
15
  0
DICTIONARYVAR
  5
7705
102
{ACAD_REACTORS
330
5E0C
102
}
330
5E0C
100
DictionaryVariables
280
     0
  1
0
  0
DICTIONARYVAR
  5
7703
102
{ACAD_REACTORS
330
5E0C
102
}
330
5E0C
100
DictionaryVariables
280
     0
  1
0
  0
DICTIONARY
  5
770D
330
76E0
100
AcDbDictionary
280
     1
281
     1
  3
ACAD_XREC_ROUNDTRIP
360
770E
  0
DICTIONARY
  5
769E
330
769D
100
AcDbDictionary
280
     1
281
     1
  3
BUMPTILE
360
76A0
  3
DIFFUSETILE
360
769F
  3
OPACITYTILE
360
76A3
  3
REFLECTIONTILE
360
76A2
  3
REFRACTIONTILE
360
76A4
  3
SPECULARTILE
360
76A1
  0
DICTIONARY
  5
7696
330
7695
100
AcDbDictionary
280
     1
281
     1
  3
BUMPTILE
360
7698
  3
DIFFUSETILE
360
7697
  3
OPACITYTILE
360
769B
  3
REFLECTIONTILE
360
769A
  3
REFRACTIONTILE
360
769C
  3
SPECULARTILE
360
7699
  0
DICTIONARY
  5
76A6
330
76A5
100
AcDbDictionary
280
     1
281
     1
  3
BUMPTILE
360
76A8
  3
DIFFUSETILE
360
76A7
  3
OPACITYTILE
360
76AB
  3
REFLECTIONTILE
360
76AA
  3
REFRACTIONTILE
360
76AC
  3
SPECULARTILE
360
76A9
  0
DICTIONARY
  5
770B
330
76DE
100
AcDbDictionary
280
     1
281
     1
  3
ACAD_XREC_ROUNDTRIP
360
770C
  0
DICTIONARY
  5
7709
330
76C8
100
AcDbDictionary
280
     1
281
     1
  3
ACAD_ROUNDTRIP_2008_TABLESTYLE_CELLSTYLEMAP
360
770A
  0
XRECORD
  5
770E
102
{ACAD_REACTORS
330
770D
102
}
330
770D
100
AcDbXrecord
280
     1
102
DISPLAYNAME
  1
Imperial24
102
FLAGS
 90
        0
  0
XRECORD
  5
76A0
102
{ACAD_REACTORS
330
769E
102
}
330
769E
100
AcDbXrecord
280
     1
270
     1
271
     1
  0
XRECORD
  5
769F
102
{ACAD_REACTORS
330
769E
102
}
330
769E
100
AcDbXrecord
280
     1
270
     1
271
     1
  0
XRECORD
  5
76A3
102
{ACAD_REACTORS
330
769E
102
}
330
769E
100
AcDbXrecord
280
     1
270
     1
271
     1
  0
XRECORD
  5
76A2
102
{ACAD_REACTORS
330
769E
102
}
330
769E
100
AcDbXrecord
280
     1
270
     1
271
     1
  0
XRECORD
  5
76A4
102
{ACAD_REACTORS
330
769E
102
}
330
769E
100
AcDbXrecord
280
     1
270
     1
271
     1
  0
XRECORD
  5
76A1
102
{ACAD_REACTORS
330
769E
102
}
330
769E
100
AcDbXrecord
280
     1
270
     1
271
     1
  0
XRECORD
  5
7698
102
{ACAD_REACTORS
330
7696
102
}
330
7696
100
AcDbXrecord
280
     1
270
     1
271
     1
  0
XRECORD
  5
7697
102
{ACAD_REACTORS
330
7696
102
}
330
7696
100
AcDbXrecord
280
     1
270
     1
271
     1
  0
XRECORD
  5
769B
102
{ACAD_REACTORS
330
7696
102
}
330
7696
100
AcDbXrecord
280
     1
270
     1
271
     1
  0
XRECORD
  5
769A
102
{ACAD_REACTORS
330
7696
102
}
330
7696
100
AcDbXrecord
280
     1
270
     1
271
     1
  0
XRECORD
  5
769C
102
{ACAD_REACTORS
330
7696
102
}
330
7696
100
AcDbXrecord
280
     1
270
     1
271
     1
  0
XRECORD
  5
7699
102
{ACAD_REACTORS
330
7696
102
}
330
7696
100
AcDbXrecord
280
     1
270
     1
271
     1
  0
XRECORD
  5
76A8
102
{ACAD_REACTORS
330
76A6
102
}
330
76A6
100
AcDbXrecord
280
     1
270
     1
271
     1
  0
XRECORD
  5
76A7
102
{ACAD_REACTORS
330
76A6
102
}
330
76A6
100
AcDbXrecord
280
     1
270
     1
271
     1
  0
XRECORD
  5
76AB
102
{ACAD_REACTORS
330
76A6
102
}
330
76A6
100
AcDbXrecord
280
     1
270
     1
271
     1
  0
XRECORD
  5
76AA
102
{ACAD_REACTORS
330
76A6
102
}
330
76A6
100
AcDbXrecord
280
     1
270
     1
271
     1
  0
XRECORD
  5
76AC
102
{ACAD_REACTORS
330
76A6
102
}
330
76A6
100
AcDbXrecord
280
     1
270
     1
271
     1
  0
XRECORD
  5
76A9
102
{ACAD_REACTORS
330
76A6
102
}
330
76A6
100
AcDbXrecord
280
     1
270
     1
271
     1
  0
XRECORD
  5
770C
102
{ACAD_REACTORS
330
770B
102
}
330
770B
100
AcDbXrecord
280
     1
102
DISPLAYNAME
  1
Imperial24
102
FLAGS
 90
        0
  0
CELLSTYLEMAP
  5
770A
102
{ACAD_REACTORS
330
7709
102
}
330
7709
100
AcDbCellStyleMap
 90
        3
300
CELLSTYLE
  1
TABLEFORMAT_BEGIN
 90
        5
170
     1
 91
        0
 92
    32768
 62
   257
 93
        1
300
CONTENTFORMAT
  1
CONTENTFORMAT_BEGIN
 90
        0
 91
        0
 92
      512
 93
        0
300

 40
0.0
140
1.0
 94
        5
 62
     0
340
11
144
0.25
309
CONTENTFORMAT_END
171
     0
 94
        0
309
TABLEFORMAT_END
  1
CELLSTYLE_BEGIN
 90
        1
 91
        1
300
_TITLE
309
CELLSTYLE_END
300
CELLSTYLE
  1
TABLEFORMAT_BEGIN
 90
        5
170
     1
 91
        0
 92
        0
 62
   257
 93
        1
300
CONTENTFORMAT
  1
CONTENTFORMAT_BEGIN
 90
        0
 91
        0
 92
      512
 93
        0
300

 40
0.0
140
1.0
 94
        5
 62
     0
340
11
144
0.18
309
CONTENTFORMAT_END
171
     0
 94
        0
309
TABLEFORMAT_END
  1
CELLSTYLE_BEGIN
 90
        2
 91
        1
300
_HEADER
309
CELLSTYLE_END
300
CELLSTYLE
  1
TABLEFORMAT_BEGIN
 90
        5
170
     1
 91
        0
 92
        0
 62
   257
 93
        1
300
CONTENTFORMAT
  1
CONTENTFORMAT_BEGIN
 90
        0
 91
        0
 92
      512
 93
        0
300

 40
0.0
140
1.0
 94
        2
 62
     0
340
11
144
0.18
309
CONTENTFORMAT_END
171
     0
 94
        0
309
TABLEFORMAT_END
  1
CELLSTYLE_BEGIN
 90
        3
 91
        2
300
_DATA
309
CELLSTYLE_END
  0
ENDSEC
  0
EOF
