  0
SECTION
  2
HEADER
  9
$ACADVER
  1
AC1027
  9
$ACADMAINTVER
 70
    55
  9
$DWGCODEPAGE
  3
ANSI_932
  9
$LASTSAVEDBY
  1
marketing
  9
$REQUIREDVERSIONS
160
                 0
  9
$INSBASE
 10
0.0
 20
0.0
 30
0.0
  9
$EXTMIN
 10
-0.0405241475518778
 20
-0.0290469451279023
 30
-0.0000000349181948
  9
$EXTMAX
 10
700.0585911772336
 20
1088.088230631448
 30
0.0000000814935746
  9
$LIMMIN
 10
-296.316999476111
 20
-370.7034300441653
  9
$LIMMAX
 10
623.3128432133979
 20
328.6261559379898
  9
$ORTHOMODE
 70
     1
  9
$REGENMODE
 70
     1
  9
$FILLMODE
 70
     1
  9
$QTEXTMODE
 70
     0
  9
$MIRRTEXT
 70
     1
  9
$LTSCALE
 40
10.0
  9
$ATTMODE
 70
     1
  9
$TEXTSIZE
 40
5.0
  9
$TRACEWID
 40
0.05
  9
$TEXTSTYLE
  7
STANDARD1
  9
$CLAYER
  8
30
  9
$CELTYPE
  6
BYLAYER
  9
$CECOLOR
 62
   256
  9
$CELTSCALE
 40
1.0
  9
$DISPSILH
 70
     0
  9
$DIMSCALE
 40
1.0
  9
$DIMASZ
 40
2.0
  9
$DIMEXO
 40
1.0
  9
$DIMDLI
 40
0.5
  9
$DIMRND
 40
0.0
  9
$DIMDLE
 40
0.0
  9
$DIMEXE
 40
0.5
  9
$DIMTP
 40
0.0
  9
$DIMTM
 40
0.0
  9
$DIMTXT
 40
8.0
  9
$DIMCEN
 40
0.09
  9
$DIMTSZ
 40
0.0
  9
$DIMTOL
 70
     0
  9
$DIMLIM
 70
     0
  9
$DIMTIH
 70
     0
  9
$DIMTOH
 70
     0
  9
$DIMSE1
 70
     0
  9
$DIMSE2
 70
     0
  9
$DIMTAD
 70
     3
  9
$DIMZIN
 70
    12
  9
$DIMBLK
  1
OPEN
  9
$DIMASO
 70
     1
  9
$DIMSHO
 70
     1
  9
$DIMPOST
  1

  9
$DIMAPOST
  1

  9
$DIMALT
 70
     0
  9
$DIMALTD
 70
     2
  9
$DIMALTF
 40
25.4
  9
$DIMLFAC
 40
1.0
  9
$DIMTOFL
 70
     0
  9
$DIMTVP
 40
0.0
  9
$DIMTIX
 70
     0
  9
$DIMSOXD
 70
     0
  9
$DIMSAH
 70
     0
  9
$DIMBLK1
  1

  9
$DIMBLK2
  1

  9
$DIMSTYLE
  2
STANDARD
  9
$DIMCLRD
 70
     0
  9
$DIMCLRE
 70
     0
  9
$DIMCLRT
 70
   256
  9
$DIMTFAC
 40
1.0
  9
$DIMGAP
 40
3.0
  9
$DIMJUST
 70
     0
  9
$DIMSD1
 70
     0
  9
$DIMSD2
 70
     0
  9
$DIMTOLJ
 70
     1
  9
$DIMTZIN
 70
     0
  9
$DIMALTZ
 70
     0
  9
$DIMALTTZ
 70
     0
  9
$DIMUPT
 70
     0
  9
$DIMDEC
 70
     1
  9
$DIMTDEC
 70
     1
  9
$DIMALTU
 70
     2
  9
$DIMALTTD
 70
     2
  9
$DIMTXSTY
  7
STANDARD
  9
$DIMAUNIT
 70
     0
  9
$DIMADEC
 70
     0
  9
$DIMALTRND
 40
0.0
  9
$DIMAZIN
 70
     0
  9
$DIMDSEP
 70
    46
  9
$DIMATFIT
 70
     3
  9
$DIMFRAC
 70
     0
  9
$DIMLDRBLK
  1
OPEN
  9
$DIMLUNIT
 70
     2
  9
$DIMLWD
 70
    -2
  9
$DIMLWE
 70
    -2
  9
$DIMTMOVE
 70
     0
  9
$DIMFXL
 40
1.0
  9
$DIMFXLON
 70
     0
  9
$DIMJOGANG
 40
0.7853981633974483
  9
$DIMTFILL
 70
     1
  9
$DIMTFILLCLR
 70
     0
  9
$DIMARCSYM
 70
     0
  9
$DIMLTYPE
  6

  9
$DIMLTEX1
  6

  9
$DIMLTEX2
  6

  9
$DIMTXTDIRECTION
 70
     0
  9
$LUNITS
 70
     2
  9
$LUPREC
 70
     4
  9
$SKETCHINC
 40
0.1
  9
$FILLETRAD
 40
0.0
  9
$AUNITS
 70
     0
  9
$AUPREC
 70
     0
  9
$MENU
  1
.
  9
$ELEVATION
 40
0.0
  9
$PELEVATION
 40
0.0
  9
$THICKNESS
 40
0.0
  9
$LIMCHECK
 70
     0
  9
$CHAMFERA
 40
0.0
  9
$CHAMFERB
 40
0.0
  9
$CHAMFERC
 40
0.0
  9
$CHAMFERD
 40
0.0
  9
$SKPOLY
 70
     0
  9
$TDCREATE
 40
2452286.555658658
  9
$TDUCREATE
 40
2452286.180658658
  9
$TDUPDATE
 40
2459244.450927813
  9
$TDUUPDATE
 40
2459244.075927813
  9
$TDINDWG
 40
1.9799552546
  9
$TDUSRTIMER
 40
1.9799528009
  9
$USRTIMER
 70
     1
  9
$ANGBASE
 50
0.0
  9
$ANGDIR
 70
     0
  9
$PDMODE
 70
     0
  9
$PDSIZE
 40
0.0
  9
$PLINEWID
 40
0.0
  9
$SPLFRAME
 70
     0
  9
$SPLINETYPE
 70
     6
  9
$SPLINESEGS
 70
     8
  9
$HANDSEED
  5
1EFAE
  9
$SURFTAB1
 70
     6
  9
$SURFTAB2
 70
     6
  9
$SURFTYPE
 70
     6
  9
$SURFU
 70
     6
  9
$SURFV
 70
     6
  9
$UCSBASE
  2

  9
$UCSNAME
  2

  9
$UCSORG
 10
0.0
 20
0.0
 30
0.0
  9
$UCSXDIR
 10
1.0
 20
0.0
 30
0.0
  9
$UCSYDIR
 10
0.0
 20
1.0
 30
0.0
  9
$UCSORTHOREF
  2

  9
$UCSORTHOVIEW
 70
     0
  9
$UCSORGTOP
 10
0.0
 20
0.0
 30
0.0
  9
$UCSORGBOTTOM
 10
0.0
 20
0.0
 30
0.0
  9
$UCSORGLEFT
 10
0.0
 20
0.0
 30
0.0
  9
$UCSORGRIGHT
 10
0.0
 20
0.0
 30
0.0
  9
$UCSORGFRONT
 10
0.0
 20
0.0
 30
0.0
  9
$UCSORGBACK
 10
0.0
 20
0.0
 30
0.0
  9
$PUCSBASE
  2

  9
$PUCSNAME
  2

  9
$PUCSORG
 10
0.0
 20
0.0
 30
0.0
  9
$PUCSXDIR
 10
1.0
 20
0.0
 30
0.0
  9
$PUCSYDIR
 10
0.0
 20
1.0
 30
0.0
  9
$PUCSORTHOREF
  2

  9
$PUCSORTHOVIEW
 70
     0
  9
$PUCSORGTOP
 10
0.0
 20
0.0
 30
0.0
  9
$PUCSORGBOTTOM
 10
0.0
 20
0.0
 30
0.0
  9
$PUCSORGLEFT
 10
0.0
 20
0.0
 30
0.0
  9
$PUCSORGRIGHT
 10
0.0
 20
0.0
 30
0.0
  9
$PUCSORGFRONT
 10
0.0
 20
0.0
 30
0.0
  9
$PUCSORGBACK
 10
0.0
 20
0.0
 30
0.0
  9
$USERI1
 70
     0
  9
$USERI2
 70
     0
  9
$USERI3
 70
     0
  9
$USERI4
 70
     0
  9
$USERI5
 70
     0
  9
$USERR1
 40
0.0
  9
$USERR2
 40
0.0
  9
$USERR3
 40
0.0
  9
$USERR4
 40
0.0
  9
$USERR5
 40
0.0
  9
$WORLDVIEW
 70
     1
  9
$SHADEDGE
 70
     3
  9
$SHADEDIF
 70
    70
  9
$TILEMODE
 70
     1
  9
$MAXACTVP
 70
    48
  9
$PINSBASE
 10
0.0
 20
0.0
 30
0.0
  9
$PLIMCHECK
 70
     0
  9
$PEXTMIN
 10
4.273573
 20
5.205245999999998
 30
0.0
  9
$PEXTMAX
 10
194.610095
 20
283.0697009999996
 30
0.0
  9
$PLIMMIN
 10
-5.873749
 20
-5.87375
  9
$PLIMMAX
 10
204.099579
 20
291.1369009999999
  9
$UNITMODE
 70
     0
  9
$VISRETAIN
 70
     1
  9
$PLINEGEN
 70
     0
  9
$PSLTSCALE
 70
     1
  9
$TREEDEPTH
 70
  3020
  9
$CMLSTYLE
  2
STANDARD
  9
$CMLJUST
 70
     0
  9
$CMLSCALE
 40
1.0
  9
$PROXYGRAPHICS
 70
     1
  9
$MEASUREMENT
 70
     0
  9
$CELWEIGHT
370
    -1
  9
$ENDCAPS
280
     0
  9
$JOINSTYLE
280
     0
  9
$LWDISPLAY
290
     0
  9
$INSUNITS
 70
     0
  9
$HYPERLINKBASE
  1

  9
$STYLESHEET
  1
MONOCHROME.CTB
  9
$XEDIT
290
     1
  9
$CEPSNTYPE
380
     0
  9
$PSTYLEMODE
290
     1
  9
$FINGERPRINTGUID
  2

  9
$VERSIONGUID
  2
{7C5EE8D0-7DFA-4FBF-B71C-49CB8A7B0B3D}
  9
$EXTNAMES
290
     1
  9
$PSVPSCALE
 40
0.0
  9
$OLESTARTUP
290
     0
  9
$SORTENTS
280
   127
  9
$INDEXCTL
280
     0
  9
$HIDETEXT
280
     0
  9
$XCLIPFRAME
280
     2
  9
$HALOGAP
280
     0
  9
$OBSCOLOR
 70
   257
  9
$OBSLTYPE
280
     0
  9
$INTERSECTIONDISPLAY
280
     0
  9
$INTERSECTIONCOLOR
 70
   257
  9
$DIMASSOC
280
     1
  9
$PROJECTNAME
  1

  9
$CAMERADISPLAY
290
     0
  9
$LENSLENGTH
 40
50.0
  9
$CAMERAHEIGHT
 40
0.0
  9
$STEPSPERSEC
 40
2.0
  9
$STEPSIZE
 40
6.0
  9
$3DDWFPREC
 40
2.0
  9
$PSOLWIDTH
 40
0.25
  9
$PSOLHEIGHT
 40
4.0
  9
$LOFTANG1
 40
1.570796326794896
  9
$LOFTANG2
 40
1.570796326794896
  9
$LOFTMAG1
 40
0.0
  9
$LOFTMAG2
 40
0.0
  9
$LOFTPARAM
 70
     7
  9
$LOFTNORMALS
280
     1
  9
$LATITUDE
 40
37.795
  9
$LONGITUDE
 40
-122.394
  9
$NORTHDIRECTION
 40
0.0
  9
$TIMEZONE
 70
 -8000
  9
$LIGHTGLYPHDISPLAY
280
     1
  9
$TILEMODELIGHTSYNCH
280
     1
  9
$CMATERIAL
347
8A59
  9
$SOLIDHIST
280
     0
  9
$SHOWHIST
280
     1
  9
$DWFFRAME
280
     2
  9
$DGNFRAME
280
     0
  9
$REALWORLDSCALE
290
     1
  9
$INTERFERECOLOR
 62
     1
  9
$INTERFEREOBJVS
345
8A7B
  9
$INTERFEREVPVS
346
8A78
  9
$CSHADOW
280
     0
  9
$SHADOWPLANELOCATION
 40
0.0
  0
ENDSEC
  0
SECTION
  2
CLASSES
  0
CLASS
  1
ACDBDICTIONARYWDFLT
  2
AcDbDictionaryWithDefault
  3
ObjectDBX Classes
 90
        0
 91
        1
280
     0
281
     0
  0
CLASS
  1
DICTIONARYVAR
  2
AcDbDictionaryVar
  3
ObjectDBX Classes
 90
        0
 91
       10
280
     0
281
     0
  0
CLASS
  1
MATERIAL
  2
AcDbMaterial
  3
ObjectDBX Classes
 90
     1153
 91
        3
280
     0
281
     0
  0
CLASS
  1
VISUALSTYLE
  2
AcDbVisualStyle
  3
ObjectDBX Classes
 90
     4095
 91
       26
280
     0
281
     0
  0
CLASS
  1
TABLESTYLE
  2
AcDbTableStyle
  3
ObjectDBX Classes
 90
     4095
 91
        1
280
     0
281
     0
  0
CLASS
  1
SCALE
  2
AcDbScale
  3
ObjectDBX Classes
 90
     1153
 91
       17
280
     0
281
     0
  0
CLASS
  1
MLEADERSTYLE
  2
AcDbMLeaderStyle
  3
ACDB_MLEADERSTYLE_CLASS
 90
     4095
 91
        1
280
     0
281
     0
  0
CLASS
  1
ACDBSECTIONVIEWSTYLE
  2
AcDbSectionViewStyle
  3
ObjectDBX Classes
 90
     1025
 91
        1
280
     0
281
     0
  0
CLASS
  1
ACDBDETAILVIEWSTYLE
  2
AcDbDetailViewStyle
  3
ObjectDBX Classes
 90
     1025
 91
        1
280
     0
281
     0
  0
CLASS
  1
CELLSTYLEMAP
  2
AcDbCellStyleMap
  3
ObjectDBX Classes
 90
     1152
 91
        2
280
     0
281
     0
  0
CLASS
  1
AEC_REFEDIT_STATUS_TRACKER
  2
AecDbRefEditStatusTracker
  3
AecArchBase70|Product Desc: Autodesk Architectural Desktop 2007 |Company: Autodesk,Inc. |WEB Address: www.autodesk.com
 90
      129
 91
        0
280
     0
281
     0
  0
CLASS
  1
NPOCOLLECTION
  2
AcDbImpNonPersistentObjectsCollection
  3
ObjectDBX Classes
 90
     1153
 91
        0
280
     0
281
     0
  0
CLASS
  1
SORTENTSTABLE
  2
AcDbSortentsTable
  3
ObjectDBX Classes
 90
        0
 91
        7
280
     0
281
     0
  0
CLASS
  1
DIMASSOC
  2
AcDbDimAssoc
  3
"AcDbDimAssoc|Product Desc:     AcDim ARX App For Dimension|Company:          Autodesk, Inc.|WEB Address:      www.autodesk.com"
 90
        0
 91
        0
280
     0
281
     0
  0
CLASS
  1
ACAD_EVALUATION_GRAPH
  2
AcDbEvalGraph
  3
ObjectDBX Classes
 90
     1153
 91
        3
280
     0
281
     0
  0
CLASS
  1
ACAECUSTOBJ
  2
AcAeEditorObj
  3
AcAeEditorObj
 90
     1024
 91
        3
280
     0
281
     0
  0
CLASS
  1
ACDB_DYNAMICBLOCKPURGEPREVENTER_VERSION
  2
AcDbDynamicBlockPurgePreventer
  3
ObjectDBX Classes
 90
     1153
 91
        2
280
     0
281
     0
  0
ENDSEC
  0
SECTION
  2
TABLES
  0
TABLE
  2
VPORT
  5
8
330
0
100
AcDbSymbolTable
 70
     1
  0
VPORT
  5
8A51
330
8
100
AcDbSymbolTableRecord
100
AcDbViewportTableRecord
  2
*Active
 70
     0
 10
0.0
 20
0.0
 11
1.0
 21
1.0
 12
350.009033514841
 22
544.0295918431599
 13
0.0
 23
0.0
 14
1.0
 24
1.0
 15
10.0
 25
10.0
 16
0.0
 26
0.0
 36
1.0
 17
0.0
 27
0.0
 37
0.0
 40
1095.983185607249
 41
2.289505428226779
 42
50.0
 43
0.0
 44
0.0
 50
0.0
 51
0.0
 71
     0
 72
   100
 73
     1
 74
     1
 75
     0
 76
     0
 77
     0
 78
     0
281
     0
 65
     1
110
0.0
120
0.0
130
0.0
111
1.0
121
0.0
131
0.0
112
0.0
122
1.0
132
0.0
 79
     0
146
0.0
348
8A77
 60
     3
 61
     5
292
     1
282
     1
141
0.0
142
0.0
 63
   250
421
  3355443
1001
ACAD_NAV_VCDISPLAY
1070
     3
  0
ENDTAB
  0
TABLE
  2
LTYPE
  5
5
330
0
100
AcDbSymbolTable
 70
     9
  0
LTYPE
  5
13
330
5
100
AcDbSymbolTableRecord
100
AcDbLinetypeTableRecord
  2
BYBLOCK
 70
     0
  3

 72
    65
 73
     0
 40
0.0
  0
LTYPE
  5
14
330
5
100
AcDbSymbolTableRecord
100
AcDbLinetypeTableRecord
  2
BYLAYER
 70
     0
  3

 72
    65
 73
     0
 40
0.0
  0
LTYPE
  5
15
330
5
100
AcDbSymbolTableRecord
100
AcDbLinetypeTableRecord
  2
CONTINUOUS
 70
     0
  3
Solid line
 72
    65
 73
     0
 40
0.0
  0
LTYPE
  5
22
330
5
100
AcDbSymbolTableRecord
100
AcDbLinetypeTableRecord
  2
CONTINOUS
 70
     0
  3
Solid line
 72
    65
 73
     0
 40
0.0
  0
LTYPE
  5
24
330
5
100
AcDbSymbolTableRecord
100
AcDbLinetypeTableRecord
  2
DASHDOT
 70
     0
  3
__ . __ . __ . __ . __ . __ . __ . __ . __ . __
 72
    65
 73
     4
 40
1.0
 49
0.5
 74
     0
 49
-0.25
 74
     0
 49
0.0
 74
     0
 49
-0.25
 74
     0
  0
LTYPE
  5
4C47
330
5
100
AcDbSymbolTableRecord
100
AcDbLinetypeTableRecord
  2
DIVIDE
 70
     0
  3
Divide ____ . . ____ . . ____ . . ____ . . ____
 72
    65
 73
     6
 40
1.25
 49
0.5
 74
     0
 49
-0.25
 74
     0
 49
0.0
 74
     0
 49
-0.25
 74
     0
 49
0.0
 74
     0
 49
-0.25
 74
     0
  0
LTYPE
  5
912E
330
5
100
AcDbSymbolTableRecord
100
AcDbLinetypeTableRecord
  2
SLD-実線
 70
     0
  3
SolidWorks Line Style
 72
    65
 73
     0
 40
0.0
  0
LTYPE
  5
1CA7E
330
5
100
AcDbSymbolTableRecord
100
AcDbLinetypeTableRecord
  2
DASHED
 70
     0
  3
__ __ __ __ __ __ __ __ __ __ __ __ __ __ __
 72
    65
 73
     2
 40
0.75
 49
0.5
 74
     0
 49
-0.25
 74
     0
  0
LTYPE
  5
1DF66
330
5
100
AcDbSymbolTableRecord
100
AcDbLinetypeTableRecord
  2
SLD-1点鎖線(中心線)
 70
     0
  3
SolidWorks Line Style
 72
    65
 73
     4
 40
10.16
 49
6.349999999999997
 74
     0
 49
-1.27
 74
     0
 49
1.27
 74
     0
 49
-1.27
 74
     0
  0
LTYPE
  5
1DF67
330
5
100
AcDbSymbolTableRecord
100
AcDbLinetypeTableRecord
  2
CENTER
 70
     0
  3
Center ____ _ ____ _ ____ _ ____ _ ____ _ ____
 72
    65
 73
     4
 40
50.8
 49
31.75
 74
     0
 49
-6.349999999999997
 74
     0
 49
6.349999999999997
 74
     0
 49
-6.349999999999997
 74
     0
  0
ENDTAB
  0
TABLE
  2
LAYER
  5
2
102
{ACAD_XDICTIONARY
360
F3CC
102
}
330
0
100
AcDbSymbolTable
 70
    15
  0
LAYER
  5
10
102
{ACAD_XDICTIONARY
360
8ACC
102
}
330
2
100
AcDbSymbolTableRecord
100
AcDbLayerTableRecord
  2
0
 70
     0
 62
     7
  6
CONTINOUS
370
    -3
390
F
347
8A69
348
0
  0
LAYER
  5
2F
102
{ACAD_XDICTIONARY
360
8ACE
102
}
330
2
100
AcDbSymbolTableRecord
100
AcDbLayerTableRecord
  2
10
 70
     0
 62
     4
  6
CONTINOUS
370
    -3
390
F
347
8A69
348
0
  0
LAYER
  5
35
102
{ACAD_XDICTIONARY
360
8AD2
102
}
330
2
100
AcDbSymbolTableRecord
100
AcDbLayerTableRecord
  2
16
 70
     0
 62
     6
  6
DASHDOT
370
    -3
390
F
347
8A69
348
0
  0
LAYER
  5
38
102
{ACAD_XDICTIONARY
360
8AD4
102
}
330
2
100
AcDbSymbolTableRecord
100
AcDbLayerTableRecord
  2
19
 70
     0
 62
     7
  6
CONTINOUS
370
    -3
390
F
347
8A69
348
0
  0
LAYER
  5
3A2
102
{ACAD_XDICTIONARY
360
8AD8
102
}
330
2
100
AcDbSymbolTableRecord
100
AcDbLayerTableRecord
  2
30
 70
     0
 62
     9
  6
CONTINUOUS
370
    -3
390
F
347
8A69
348
0
  0
LAYER
  5
3A4
330
2
100
AcDbSymbolTableRecord
100
AcDbLayerTableRecord
  2
DEFPOINTS
 70
     0
 62
     7
  6
CONTINUOUS
290
     0
370
    -3
390
F
347
8A69
348
0
  0
LAYER
  5
3BBA
102
{ACAD_XDICTIONARY
360
8ADA
102
}
330
2
100
AcDbSymbolTableRecord
100
AcDbLayerTableRecord
  2
18
 70
     0
 62
     5
  6
DIVIDE
370
    -3
390
F
347
8A69
348
0
  0
LAYER
  5
67A8
102
{ACAD_XDICTIONARY
360
8ADC
102
}
330
2
100
AcDbSymbolTableRecord
100
AcDbLayerTableRecord
  2
11
 70
     0
 62
     1
  6
CONTINOUS
370
    -3
390
F
347
8A69
348
0
  0
LAYER
  5
7837
102
{ACAD_XDICTIONARY
360
8ADE
102
}
330
2
100
AcDbSymbolTableRecord
100
AcDbLayerTableRecord
  2
17
 70
     0
 62
     2
  6
DASHDOT
370
    -3
390
F
347
8A69
348
0
  0
LAYER
  5
9133
102
{ACAD_XDICTIONARY
360
9134
102
}
330
2
100
AcDbSymbolTableRecord
100
AcDbLayerTableRecord
  2
240
 70
     0
 62
     7
  6
SLD-実線
370
    -3
390
F
347
8A69
348
0
  0
LAYER
  5
1CA80
102
{ACAD_XDICTIONARY
360
1CA81
102
}
330
2
100
AcDbSymbolTableRecord
100
AcDbLayerTableRecord
  2
12
 70
     0
 62
     3
  6
CONTINOUS
370
    -3
390
F
347
8A69
348
0
  0
LAYER
  5
1DF68
102
{ACAD_XDICTIONARY
360
1DF69
102
}
330
2
100
AcDbSymbolTableRecord
100
AcDbLayerTableRecord
  2
SLD-0
 70
     0
 62
     9
  6
SLD-実線
370
    -3
390
F
347
8A69
348
0
  0
LAYER
  5
1DF6A
102
{ACAD_XDICTIONARY
360
1DF6B
102
}
330
2
100
AcDbSymbolTableRecord
100
AcDbLayerTableRecord
  2
21
 70
     0
 62
     7
  6
CONTINUOUS
370
    -3
390
F
347
8A69
348
0
  0
LAYER
  5
1DF6C
102
{ACAD_XDICTIONARY
360
1DF6D
102
}
330
2
100
AcDbSymbolTableRecord
100
AcDbLayerTableRecord
  2
22
 70
     0
 62
     3
  6
CONTINUOUS
370
    -3
390
F
347
8A69
348
0
  0
LAYER
  5
1EF1D
330
2
100
AcDbSymbolTableRecord
100
AcDbLayerTableRecord
  2
24
 70
     0
 62
     7
  6
CONTINOUS
370
    -3
390
F
347
8A69
348
0
1001
AcAecLayerStandard
1000

1000

1001
AcCmTransparency
1071
        0
  0
ENDTAB
  0
TABLE
  2
STYLE
  5
3
330
0
100
AcDbSymbolTable
 70
     3
  0
STYLE
  5
11
330
3
100
AcDbSymbolTableRecord
100
AcDbTextStyleTableRecord
  2
STANDARD
 70
     0
 40
0.0
 41
1.0
 50
0.0
 71
     0
 42
2.0
  3
txt.shx
  4
bigfont.shx
  0
STYLE
  5
42
330
3
100
AcDbSymbolTableRecord
100
AcDbTextStyleTableRecord
  2
STANDARD1
 70
     0
 40
0.0
 41
1.0
 50
0.0
 71
     0
 42
5.0
  3
MONOTXT
  4
BIGFONT
  0
STYLE
  5
1CFC3
330
3
100
AcDbSymbolTableRecord
100
AcDbTextStyleTableRecord
  2
SLDTEXTSTYLE0
 70
     0
 40
0.0
 41
1.0
 50
0.0
 71
     0
 42
3.5
  3
MS UI Gothic.ttf
  4

1001
ACAD
1000
MS UI Gothic
1071
      306
  0
ENDTAB
  0
TABLE
  2
VIEW
  5
6
330
0
100
AcDbSymbolTable
 70
     3
  0
VIEW
  5
230C
330
6
100
AcDbSymbolTableRecord
100
AcDbViewTableRecord
  2
OLE1
 70
     0
 40
148.912488
 10
429.497628
 20
2.560627
 41
103.145806
 11
0.0
 21
0.0
 31
1.0
 12
0.0
 22
0.0
 32
0.0
 42
50.0
 43
0.0
 44
0.0
 50
0.0
 71
     0
281
     0
 72
     0
 73
     0
348
8A77
  0
VIEW
  5
230E
330
6
100
AcDbSymbolTableRecord
100
AcDbViewTableRecord
  2
OLE2
 70
     0
 40
170.778692
 10
322.66497
 20
-5.978304
 41
102.467215
 11
0.0
 21
0.0
 31
1.0
 12
0.0
 22
0.0
 32
0.0
 42
50.0
 43
0.0
 44
0.0
 50
0.0
 71
     0
281
     0
 72
     0
 73
     0
348
8A77
  0
VIEW
  5
23AA
330
6
100
AcDbSymbolTableRecord
100
AcDbViewTableRecord
  2
OLE3
 70
     0
 40
591.7897389999998
 10
84.79698199999999
 20
-46.09335999999998
 41
388.792096
 11
0.0
 21
0.0
 31
1.0
 12
0.0
 22
0.0
 32
0.0
 42
50.0
 43
0.0
 44
0.0
 50
0.0
 71
     0
281
     0
 72
     0
 73
     0
348
8A77
  0
ENDTAB
  0
TABLE
  2
UCS
  5
7
330
0
100
AcDbSymbolTable
 70
     0
  0
ENDTAB
  0
TABLE
  2
APPID
  5
9
330
0
100
AcDbSymbolTable
 70
    16
  0
APPID
  5
12
330
9
100
AcDbSymbolTableRecord
100
AcDbRegAppTableRecord
  2
ACAD
 70
     0
  0
APPID
  5
ECD
330
9
100
AcDbSymbolTableRecord
100
AcDbRegAppTableRecord
  2
CONTENTBLOCKICON
 70
     0
  0
APPID
  5
8AA9
330
9
100
AcDbSymbolTableRecord
100
AcDbRegAppTableRecord
  2
ACAD_NAV_VCDISPLAY
 70
     0
  0
APPID
  5
1038A
330
9
100
AcDbSymbolTableRecord
100
AcDbRegAppTableRecord
  2
ACAD_EXEMPT_FROM_CAD_STANDARDS
 70
     0
  0
APPID
  5
10D03
330
9
100
AcDbSymbolTableRecord
100
AcDbRegAppTableRecord
  2
ACAD_PSEXT
 70
     0
  0
APPID
  5
1147C
330
9
100
AcDbSymbolTableRecord
100
AcDbRegAppTableRecord
  2
ACAD_DSTYLE_DIMJAG
 70
     0
  0
APPID
  5
1147D
330
9
100
AcDbSymbolTableRecord
100
AcDbRegAppTableRecord
  2
ACAD_DSTYLE_DIMTALN
 70
     0
  0
APPID
  5
16BC0
330
9
100
AcDbSymbolTableRecord
100
AcDbRegAppTableRecord
  2
DCO15
 70
     0
  0
APPID
  5
16BC1
330
9
100
AcDbSymbolTableRecord
100
AcDbRegAppTableRecord
  2
ACAD_MLEADERVER
 70
     0
  0
APPID
  5
16BC2
330
9
100
AcDbSymbolTableRecord
100
AcDbRegAppTableRecord
  2
ACAD_DSTYLE_DIMBREAK
 70
     0
  0
APPID
  5
17476
330
9
100
AcDbSymbolTableRecord
100
AcDbRegAppTableRecord
  2
ACAUTHENVIRON
 70
     0
  0
APPID
  5
1C1A7
330
9
100
AcDbSymbolTableRecord
100
AcDbRegAppTableRecord
  2
ACAD_DSTYLE_DIMRADIAL_EXTENSION
 70
     0
  0
APPID
  5
1EF1E
330
9
100
AcDbSymbolTableRecord
100
AcDbRegAppTableRecord
  2
AcAecLayerStandard
 70
     0
  0
APPID
  5
1EF1F
330
9
100
AcDbSymbolTableRecord
100
AcDbRegAppTableRecord
  2
AcCmTransparency
 70
     0
  0
APPID
  5
1EF20
330
9
100
AcDbSymbolTableRecord
100
AcDbRegAppTableRecord
  2
AcDbDynamicBlockTrueName
 70
     0
  0
APPID
  5
1EF21
330
9
100
AcDbSymbolTableRecord
100
AcDbRegAppTableRecord
  2
AcDbDynamicBlockGUID
 70
     0
  0
ENDTAB
  0
TABLE
  2
DIMSTYLE
  5
A
330
0
100
AcDbSymbolTable
 70
     4
100
AcDbDimStyleTable
 71
     2
340
175
340
1171B
  0
DIMSTYLE
105
175
102
{ACAD_REACTORS
330
1E692
330
1E6AD
330
1E6AE
330
1E6B5
330
1E6B6
330
1E6D8
330
1E6D9
330
1E6DA
330
1E6DB
330
1E6DD
330
1E6E0
330
1E6E4
330
1E6E8
330
1E6E9
330
1E6ED
330
1E6FE
330
1E6FF
330
1E62E
330
1E630
330
1E631
330
1E9E5
330
1E9E6
330
1E9E8
330
1E9E9
330
1EA7C
330
1EA92
330
1EC72
330
1EC74
330
1EC77
330
1E9D9
330
1E9DA
330
1E9DB
330
1E9DC
330
1E9DD
102
}
330
A
100
AcDbSymbolTableRecord
100
AcDbDimStyleTableRecord
  2
STANDARD
 70
     0
 41
2.0
 42
1.0
 43
0.5
 44
0.5
 69
     1
 73
     0
 74
     0
 77
     3
 78
    12
140
8.0
147
3.0
178
   256
271
     1
272
     1
340
11
341
3B2
342
3B2
1001
ACAD_DSTYLE_DIMJAG
1070
   388
1040
1.5
1001
ACAD_DSTYLE_DIMTALN
1070
   392
1070
     0
  0
DIMSTYLE
105
1171B
102
{ACAD_REACTORS
330
1E691
330
1E6B7
330
1E6B8
330
1E6DC
330
1E62F
102
}
330
A
100
AcDbSymbolTableRecord
100
AcDbDimStyleTableRecord
  2
STANDARD1
 70
     0
 41
2.0
 42
3.0
 43
0.5
 44
0.5
 77
     3
 78
    12
140
8.0
147
3.0
172
     1
271
     1
272
     1
289
     2
340
11
341
3B2
342
3B2
1001
ACAD_DSTYLE_DIMJAG
1070
   388
1040
1.5
1001
ACAD_DSTYLE_DIMTALN
1070
   392
1070
     0
  0
DIMSTYLE
105
1EAB8
330
A
100
AcDbSymbolTableRecord
100
AcDbDimStyleTableRecord
  2
ISO-25
 70
     0
 41
2.5
 42
0.625
 43
3.75
 44
1.25
 73
     0
 74
     0
 77
     1
 78
     8
140
2.5
141
2.5
143
0.0393700787
147
0.625
171
     3
172
     1
271
     2
272
     2
274
     3
278
    44
283
     0
284
     8
340
11
  0
ENDTAB
  0
TABLE
  2
BLOCK_RECORD
  5
1
330
0
100
AcDbSymbolTable
 70
    54
  0
BLOCK_RECORD
  5
1E
102
{ACAD_XDICTIONARY
360
178
102
}
330
1
100
AcDbSymbolTableRecord
100
AcDbBlockTableRecord
  2
*MODEL_SPACE
340
8A4C
 70
     0
280
     1
281
     0
  0
BLOCK_RECORD
  5
1A
102
{ACAD_XDICTIONARY
360
17A
102
}
330
1
100
AcDbSymbolTableRecord
100
AcDbBlockTableRecord
  2
*PAPER_SPACE
340
8A4D
 70
     0
280
     1
281
     0
  0
BLOCK_RECORD
  5
3B2
330
1
100
AcDbSymbolTableRecord
100
AcDbBlockTableRecord
  2
_OPEN
340
0
102
{BLKREFS
331
1E9B9
331
1E9BA
331
1E9C5
331
1E9C6
331
1E9D2
331
1E9D3
331
1EB08
331
1EB09
331
1EDB7
331
1EDB8
331
1EDD3
331
1EDD4
331
1EDDC
331
1EDDD
331
1EDE6
331
1EDE7
331
1EDEF
331
1EDF0
331
1EDF8
331
1EDF9
331
1EE02
331
1EE03
331
1EE0C
331
1EE0D
331
1EE15
331
1EE16
331
1EE1F
331
1EE20
331
1EE27
331
1EE28
331
1EE30
331
1EE31
331
1EE3A
331
1EE3B
331
1EE43
331
1EE44
331
1EE4C
331
1EE4D
331
1EEA4
331
1EEA5
331
1EF48
331
1EF50
331
1EF51
331
1EF59
331
1EF5A
331
1EF62
331
1EF63
331
1EF6D
331
1EF6E
331
1EF76
331
1EF77
331
1EF98
331
1EF99
331
1EFA2
331
1EFA3
331
1E880
331
1E881
331
1E889
331
1E88A
331
1E892
331
1E893
331
1E89B
331
1E89C
331
1E8A4
331
1E8AB
331
1E8FE
331
1E8FF
331
1E971
331
1E972
331
1E979
331
1E97A
331
1E982
331
1E983
331
1E9A0
331
1E9A1
331
1E9AD
331
1E9AE
331
1EF34
331
1EF35
331
1EF3E
331
1EF3F
331
1EF47
102
}
 70
     0
280
     1
281
     0
  0
BLOCK_RECORD
  5
1DDC2
330
1
100
AcDbSymbolTableRecord
100
AcDbBlockTableRecord
  2
SW_CENTERMARKSYMBOL_30
340
0
102
{BLKREFS
331
1EF0E
331
1EF28
102
}
 70
     0
280
     1
281
     0
  0
BLOCK_RECORD
  5
1DDCD
330
1
100
AcDbSymbolTableRecord
100
AcDbBlockTableRecord
  2
SW_CENTERMARKSYMBOL_31
340
0
102
{BLKREFS
331
1EF0F
331
1EF2B
102
}
 70
     0
280
     1
281
     0
  0
BLOCK_RECORD
  5
1DEEB
102
{ACAD_XDICTIONARY
360
1EF2C
102
}
330
1
100
AcDbSymbolTableRecord
100
AcDbBlockTableRecord
  2
L-BAR
340
0
102
{BLKREFS
331
1E6F0
331
1E6F3
331
1EED5
102
}
 70
     4
280
     1
281
     0
1001
AcDbDynamicBlockGUID
1000
{2DF4604B-952B-4785-9467-ADD7E5746DDC}
  0
BLOCK_RECORD
  5
1DEF6
102
{ACAD_XDICTIONARY
360
1EF13
102
}
330
1
100
AcDbSymbolTableRecord
100
AcDbBlockTableRecord
  2
S-BAR
340
0
102
{BLKREFS
331
1E6F1
331
1E6F2
331
1EED4
102
}
 70
     4
280
     1
281
     0
1001
AcDbDynamicBlockGUID
1000
{7FC2390B-033B-4662-A460-CB5E79F3C5B7}
  0
BLOCK_RECORD
  5
1E700
330
1
100
AcDbSymbolTableRecord
100
AcDbBlockTableRecord
  2
*D5
340
0
 70
     0
280
     1
281
     0
  0
BLOCK_RECORD
  5
1E70C
330
1
100
AcDbSymbolTableRecord
100
AcDbBlockTableRecord
  2
*D6
340
0
 70
     0
280
     1
281
     0
  0
BLOCK_RECORD
  5
1E718
330
1
100
AcDbSymbolTableRecord
100
AcDbBlockTableRecord
  2
*D7
340
0
 70
     0
280
     1
281
     0
  0
BLOCK_RECORD
  5
1E724
330
1
100
AcDbSymbolTableRecord
100
AcDbBlockTableRecord
  2
*D8
340
0
 70
     0
280
     1
281
     0
  0
BLOCK_RECORD
  5
1E730
330
1
100
AcDbSymbolTableRecord
100
AcDbBlockTableRecord
  2
*D9
340
0
 70
     0
280
     1
281
     0
  0
BLOCK_RECORD
  5
1E73C
330
1
100
AcDbSymbolTableRecord
100
AcDbBlockTableRecord
  2
*D10
340
0
 70
     0
280
     1
281
     0
  0
BLOCK_RECORD
  5
1E748
330
1
100
AcDbSymbolTableRecord
100
AcDbBlockTableRecord
  2
*D11
340
0
 70
     0
280
     1
281
     0
  0
BLOCK_RECORD
  5
1E752
330
1
100
AcDbSymbolTableRecord
100
AcDbBlockTableRecord
  2
*D12
340
0
 70
     0
280
     1
281
     0
  0
BLOCK_RECORD
  5
1E75C
330
1
100
AcDbSymbolTableRecord
100
AcDbBlockTableRecord
  2
*D13
340
0
 70
     0
280
     1
281
     0
  0
BLOCK_RECORD
  5
1E769
330
1
100
AcDbSymbolTableRecord
100
AcDbBlockTableRecord
  2
*D14
340
0
 70
     0
280
     1
281
     0
  0
BLOCK_RECORD
  5
1E775
330
1
100
AcDbSymbolTableRecord
100
AcDbBlockTableRecord
  2
*D15
340
0
 70
     0
280
     1
281
     0
  0
BLOCK_RECORD
  5
1E781
330
1
100
AcDbSymbolTableRecord
100
AcDbBlockTableRecord
  2
*D16
340
0
 70
     0
280
     1
281
     0
  0
BLOCK_RECORD
  5
1E78D
330
1
100
AcDbSymbolTableRecord
100
AcDbBlockTableRecord
  2
*D17
340
0
 70
     0
280
     1
281
     0
  0
BLOCK_RECORD
  5
1E799
330
1
100
AcDbSymbolTableRecord
100
AcDbBlockTableRecord
  2
*D18
340
0
 70
     0
280
     1
281
     0
  0
BLOCK_RECORD
  5
1E7A7
330
1
100
AcDbSymbolTableRecord
100
AcDbBlockTableRecord
  2
*D19
340
0
 70
     0
280
     1
281
     0
  0
BLOCK_RECORD
  5
1E7B3
330
1
100
AcDbSymbolTableRecord
100
AcDbBlockTableRecord
  2
*D20
340
0
 70
     0
280
     1
281
     0
  0
BLOCK_RECORD
  5
1E7C0
330
1
100
AcDbSymbolTableRecord
100
AcDbBlockTableRecord
  2
*D21
340
0
 70
     0
280
     1
281
     0
  0
BLOCK_RECORD
  5
1E7CC
330
1
100
AcDbSymbolTableRecord
100
AcDbBlockTableRecord
  2
*D22
340
0
 70
     0
280
     1
281
     0
  0
BLOCK_RECORD
  5
1E7D8
330
1
100
AcDbSymbolTableRecord
100
AcDbBlockTableRecord
  2
*D23
340
0
 70
     0
280
     1
281
     0
  0
BLOCK_RECORD
  5
1E80B
330
1
100
AcDbSymbolTableRecord
100
AcDbBlockTableRecord
  2
*D24
340
0
 70
     0
280
     1
281
     0
  0
BLOCK_RECORD
  5
1E818
330
1
100
AcDbSymbolTableRecord
100
AcDbBlockTableRecord
  2
*D25
340
0
 70
     0
280
     1
281
     0
  0
BLOCK_RECORD
  5
1E824
330
1
100
AcDbSymbolTableRecord
100
AcDbBlockTableRecord
  2
*D26
340
0
 70
     0
280
     1
281
     0
  0
BLOCK_RECORD
  5
1E830
330
1
100
AcDbSymbolTableRecord
100
AcDbBlockTableRecord
  2
*D27
340
0
 70
     0
280
     1
281
     0
  0
BLOCK_RECORD
  5
1E83C
330
1
100
AcDbSymbolTableRecord
100
AcDbBlockTableRecord
  2
*D28
340
0
 70
     0
280
     1
281
     0
  0
BLOCK_RECORD
  5
1E848
330
1
100
AcDbSymbolTableRecord
100
AcDbBlockTableRecord
  2
*D29
340
0
 70
     0
280
     1
281
     0
  0
BLOCK_RECORD
  5
1E853
330
1
100
AcDbSymbolTableRecord
100
AcDbBlockTableRecord
  2
*D30
340
0
 70
     0
280
     1
281
     0
  0
BLOCK_RECORD
  5
1E85F
330
1
100
AcDbSymbolTableRecord
100
AcDbBlockTableRecord
  2
*D31
340
0
 70
     0
280
     1
281
     0
  0
BLOCK_RECORD
  5
1E99A
330
1
100
AcDbSymbolTableRecord
100
AcDbBlockTableRecord
  2
*D32
340
0
 70
     0
280
     1
281
     0
  0
BLOCK_RECORD
  5
1E9A7
330
1
100
AcDbSymbolTableRecord
100
AcDbBlockTableRecord
  2
*D33
340
0
 70
     0
280
     1
281
     0
  0
BLOCK_RECORD
  5
1E9B4
330
1
100
AcDbSymbolTableRecord
100
AcDbBlockTableRecord
  2
*D34
340
0
 70
     0
280
     1
281
     0
  0
BLOCK_RECORD
  5
1E9C0
330
1
100
AcDbSymbolTableRecord
100
AcDbBlockTableRecord
  2
*D35
340
0
 70
     0
280
     1
281
     0
  0
BLOCK_RECORD
  5
1E9CC
330
1
100
AcDbSymbolTableRecord
100
AcDbBlockTableRecord
  2
*D36
340
0
 70
     0
280
     1
281
     0
  0
BLOCK_RECORD
  5
1E9D8
102
{ACAD_XDICTIONARY
360
1E9DE
102
}
330
1
100
AcDbSymbolTableRecord
100
AcDbBlockTableRecord
  2
A$C0DF35E8D
340
0
 70
     0
280
     1
281
     0
  0
BLOCK_RECORD
  5
1E9EA
330
1
100
AcDbSymbolTableRecord
100
AcDbBlockTableRecord
  2
*D38
340
0
 70
     0
280
     1
281
     0
  0
BLOCK_RECORD
  5
1E9F7
330
1
100
AcDbSymbolTableRecord
100
AcDbBlockTableRecord
  2
*D39
340
0
 70
     0
280
     1
281
     0
  0
BLOCK_RECORD
  5
1EA10
330
1
100
AcDbSymbolTableRecord
100
AcDbBlockTableRecord
  2
*D40
340
0
 70
     0
280
     1
281
     0
  0
BLOCK_RECORD
  5
1EA1C
330
1
100
AcDbSymbolTableRecord
100
AcDbBlockTableRecord
  2
*D41
340
0
 70
     0
280
     1
281
     0
  0
BLOCK_RECORD
  5
1EA7D
330
1
100
AcDbSymbolTableRecord
100
AcDbBlockTableRecord
  2
*D42
340
0
 70
     0
280
     1
281
     0
  0
BLOCK_RECORD
  5
1EA93
330
1
100
AcDbSymbolTableRecord
100
AcDbBlockTableRecord
  2
*D43
340
0
 70
     0
280
     1
281
     0
  0
BLOCK_RECORD
  5
1EB0D
330
1
100
AcDbSymbolTableRecord
100
AcDbBlockTableRecord
  2
SW_CENTERMARKSYMBOL_32
340
0
 70
     0
280
     1
281
     0
  0
BLOCK_RECORD
  5
1EB18
330
1
100
AcDbSymbolTableRecord
100
AcDbBlockTableRecord
  2
SW_CENTERMARKSYMBOL_33
340
0
 70
     0
280
     1
281
     0
  0
BLOCK_RECORD
  5
1EC84
330
1
100
AcDbSymbolTableRecord
100
AcDbBlockTableRecord
  2
*D46
340
0
 70
     0
280
     1
281
     0
  0
BLOCK_RECORD
  5
1EC9E
330
1
100
AcDbSymbolTableRecord
100
AcDbBlockTableRecord
  2
*D47
340
0
 70
     0
280
     1
281
     0
  0
BLOCK_RECORD
  5
1ECB6
330
1
100
AcDbSymbolTableRecord
100
AcDbBlockTableRecord
  2
*D48
340
0
 70
     0
280
     1
281
     0
  0
BLOCK_RECORD
  5
1EE93
330
1
100
AcDbSymbolTableRecord
100
AcDbBlockTableRecord
  2
*D49
340
0
 70
     0
280
     1
281
     0
  0
ENDTAB
  0
ENDSEC
  0
SECTION
  2
BLOCKS
  0
BLOCK
  5
1F
330
1E
100
AcDbEntity
  8
0
100
AcDbBlockBegin
  2
*MODEL_SPACE
 70
     0
 10
0.0
 20
0.0
 30
0.0
  3
*MODEL_SPACE
  1

  0
ENDBLK
  5
20
330
1E
100
AcDbEntity
  8
0
100
AcDbBlockEnd
  0
BLOCK
  5
1B
330
1A
100
AcDbEntity
 67
     1
  8
0
100
AcDbBlockBegin
  2
*PAPER_SPACE
 70
     0
 10
0.0
 20
0.0
 30
0.0
  3
*PAPER_SPACE
  1

  0
ENDBLK
  5
1C
330
1A
100
AcDbEntity
 67
     1
  8
0
100
AcDbBlockEnd
  0
BLOCK
  5
3B6
330
3B2
100
AcDbEntity
  8
0
100
AcDbBlockBegin
  2
_OPEN
 70
     0
 10
0.0
 20
0.0
 30
0.0
  3
_OPEN
  1

  0
LINE
  5
3B3
330
3B2
100
AcDbEntity
  8
30
  6
Continuous
 62
     0
100
AcDbLine
 10
-1.0
 20
0.166667
 30
0.0
 11
0.0
 21
0.0
 31
0.0
  0
LINE
  5
3B4
330
3B2
100
AcDbEntity
  8
30
  6
Continuous
 62
     0
100
AcDbLine
 10
-1.0
 20
-0.166667
 30
0.0
 11
0.0
 21
0.0
 31
0.0
  0
LINE
  5
3B5
330
3B2
100
AcDbEntity
  8
30
  6
Continuous
 62
     0
100
AcDbLine
 10
0.0
 20
0.0
 30
0.0
 11
-1.0
 21
0.0
 31
0.0
  0
ENDBLK
  5
3B7
330
3B2
100
AcDbEntity
  8
0
100
AcDbBlockEnd
  0
BLOCK
  5
1DDC3
330
1DDC2
100
AcDbEntity
  8
0
100
AcDbBlockBegin
  2
SW_CENTERMARKSYMBOL_30
 70
     0
 10
0.0
 20
0.0
 30
0.0
  3
SW_CENTERMARKSYMBOL_30
  1
SW_CENTERMARKSYMBOL_30
  0
LINE
  5
1DDC4
330
1DDC2
100
AcDbEntity
  8
SLD-0
 62
     0
100
AcDbLine
 10
0.0
 20
0.0
 30
0.0
 11
0.0
 21
0.625
 31
0.0
  0
LINE
  5
1DDC5
330
1DDC2
100
AcDbEntity
  8
SLD-0
 62
     0
100
AcDbLine
 10
0.0
 20
0.0
 30
0.0
 11
-0.625
 21
0.0
 31
0.0
  0
LINE
  5
1DDC6
330
1DDC2
100
AcDbEntity
  8
SLD-0
 62
     0
100
AcDbLine
 10
0.0
 20
0.0
 30
0.0
 11
0.0
 21
-0.625
 31
0.0
  0
LINE
  5
1DDC7
330
1DDC2
100
AcDbEntity
  8
SLD-0
 62
     0
100
AcDbLine
 10
0.0
 20
0.0
 30
0.0
 11
0.625
 21
0.0
 31
0.0
  0
LINE
  5
1DDC8
330
1DDC2
100
AcDbEntity
  8
SLD-0
 62
     0
100
AcDbLine
 10
0.0
 20
1.25
 30
0.0
 11
0.0
 21
2.25
 31
0.0
  0
LINE
  5
1DDC9
330
1DDC2
100
AcDbEntity
  8
SLD-0
 62
     0
100
AcDbLine
 10
-1.25
 20
0.0
 30
0.0
 11
-2.25
 21
0.0
 31
0.0
  0
LINE
  5
1DDCA
330
1DDC2
100
AcDbEntity
  8
SLD-0
 62
     0
100
AcDbLine
 10
0.0
 20
-1.25
 30
0.0
 11
0.0
 21
-2.25
 31
0.0
  0
LINE
  5
1DDCB
330
1DDC2
100
AcDbEntity
  8
SLD-0
 62
     0
100
AcDbLine
 10
1.25
 20
0.0
 30
0.0
 11
2.25
 21
0.0
 31
0.0
  0
ENDBLK
  5
1DDCC
330
1DDC2
100
AcDbEntity
  8
0
100
AcDbBlockEnd
  0
BLOCK
  5
1DDCE
330
1DDCD
100
AcDbEntity
  8
0
100
AcDbBlockBegin
  2
SW_CENTERMARKSYMBOL_31
 70
     0
 10
0.0
 20
0.0
 30
0.0
  3
SW_CENTERMARKSYMBOL_31
  1
SW_CENTERMARKSYMBOL_31
  0
LINE
  5
1DDCF
330
1DDCD
100
AcDbEntity
  8
SLD-0
 62
     0
100
AcDbLine
 10
0.0
 20
0.0
 30
0.0
 11
0.0
 21
0.625
 31
0.0
  0
LINE
  5
1DDD0
330
1DDCD
100
AcDbEntity
  8
SLD-0
 62
     0
100
AcDbLine
 10
0.0
 20
0.0
 30
0.0
 11
-0.625
 21
0.0
 31
0.0
  0
LINE
  5
1DDD1
330
1DDCD
100
AcDbEntity
  8
SLD-0
 62
     0
100
AcDbLine
 10
0.0
 20
0.0
 30
0.0
 11
0.0
 21
-0.625
 31
0.0
  0
LINE
  5
1DDD2
330
1DDCD
100
AcDbEntity
  8
SLD-0
 62
     0
100
AcDbLine
 10
0.0
 20
0.0
 30
0.0
 11
0.625
 21
0.0
 31
0.0
  0
LINE
  5
1DDD3
330
1DDCD
100
AcDbEntity
  8
SLD-0
 62
     0
100
AcDbLine
 10
0.0
 20
1.25
 30
0.0
 11
0.0
 21
2.25
 31
0.0
  0
LINE
  5
1DDD4
330
1DDCD
100
AcDbEntity
  8
SLD-0
 62
     0
100
AcDbLine
 10
-1.25
 20
0.0
 30
0.0
 11
-2.25
 21
0.0
 31
0.0
  0
LINE
  5
1DDD5
330
1DDCD
100
AcDbEntity
  8
SLD-0
 62
     0
100
AcDbLine
 10
0.0
 20
-1.25
 30
0.0
 11
0.0
 21
-2.25
 31
0.0
  0
LINE
  5
1DDD6
330
1DDCD
100
AcDbEntity
  8
SLD-0
 62
     0
100
AcDbLine
 10
1.25
 20
0.0
 30
0.0
 11
2.25
 21
0.0
 31
0.0
  0
ENDBLK
  5
1DDD7
330
1DDCD
100
AcDbEntity
  8
0
100
AcDbBlockEnd
  0
BLOCK
  5
1DEEE
330
1DEEB
100
AcDbEntity
  8
0
100
AcDbBlockBegin
  2
L-BAR
 70
     0
 10
0.0
 20
0.0
 30
0.0
  3
L-BAR
  1

  0
LWPOLYLINE
  5
1EF26
330
1DEEB
100
AcDbEntity
  8
24
100
AcDbPolyline
 90
        4
 70
     0
 43
0.0
 10
-14.49999958259968
 20
0.0
 10
-14.49999958259968
 20
89.00000154959991
 10
14.49999958299986
 20
89.00000154959991
 10
14.49999958299986
 20
0.0
  0
LWPOLYLINE
  5
1EF27
330
1DEEB
100
AcDbEntity
  8
24
  6
CONTINOUS
100
AcDbPolyline
 90
        5
 70
     0
 43
0.0
 10
6.525000000200177
 20
115.999999709449
 42
1.0
 10
-6.47499999979982
 20
115.999999709449
 10
-6.47499999979982
 20
115.0000000968501
 42
1.0
 10
6.525000000200177
 20
114.9999999031496
 10
6.525000208599974
 20
115.9999987558491
  0
INSERT
  5
1EF28
330
1DEEB
100
AcDbEntity
  8
17
100
AcDbBlockReference
  2
SW_CENTERMARKSYMBOL_30
 10
-0.0250000002001798
 20
115.999999709449
 30
0.0
 41
4.0
 42
4.0
 43
-4.0
 50
180.0
210
0.0
220
0.0
230
-1.0
  0
LWPOLYLINE
  5
1EF29
330
1DEEB
100
AcDbEntity
  8
24
100
AcDbPolyline
 90
      146
 70
     0
 43
0.0
 10
12.00316724840009
 20
130.999997258
 10
11.11687564320005
 20
130.999997258
 10
-10.60687564279988
 20
130.999997258
 10
-11.99170284373913
 20
130.999997258
 42
0.4143565783038863
 10
-14.99316763040015
 20
127.9999976155999
 10
-14.9931140718224
 20
115.9416990655066
 10
-14.99302464606144
 20
115.8866740434581
 10
-14.99268278083782
 20
115.7787693426513
 10
-14.99134877740034
 20
115.5643600043362
 10
-14.98607821226933
 20
115.1364052728375
 10
-14.97732926005501
 20
114.7087723412395
 10
-14.96508646805905
 20
114.2814348249402
 10
-14.94933233481351
 20
113.8544318988148
 10
-14.93003311682623
 20
113.4277978991557
 10
-14.90714700875578
 20
113.0015775773662
 10
-14.88063220526073
 20
112.5758156848491
 10
-14.85046269339973
 20
112.1505683976314
 10
-14.81657494760402
 20
111.7259323866027
 10
-14.77887089359246
 20
111.3020131454613
 10
-14.73725245708574
 20
110.8789161679063
 10
-14.69162156380271
 20
110.4567469476368
 10
-14.64188013946223
 20
110.0356109783509
 10
-14.58793010978452
 20
109.6156137537479
 10
-14.52967340048844
 20
109.1968607675259
 10
-14.44131881412495
 20
108.6171175837225
 10
-14.39370118873121
 20
108.3280176295325
 10
-14.34366547729105
 20
108.0394600317974
 10
-14.29111828137702
 20
107.7514657390027
 10
-14.23596620256075
 20
107.4640556996338
 10
-14.17811584241481
 20
107.1772508621762
 10
-14.11747380251081
 20
106.8910721751155
 10
-14.05397142041529
 20
106.6055350388602
 10
-13.98743951190927
 20
106.3206774000144
 10
-13.91763389588386
 20
106.0365540263566
 10
-13.8443103912311
 20
105.7532196856648
 10
-13.76722481684164
 20
105.4707291457174
 10
-13.68613299160752
 20
105.1891371742925
 10
-13.60079073441984
 20
104.9084985391687
 10
-13.51095386417018
 20
104.6288680081242
 10
-13.41638688352186
 20
104.3506483538551
 10
-13.31666941158819
 20
104.0743854620299
 10
-13.01127994193575
 20
103.8003487698843
 10
-12.89969696812977
 20
103.5288077146541
 10
-12.78129637766551
 20
103.2599187636433
 10
-12.1552380924918
 20
102.9944595135887
 10
-12.08907310977884
 20
102.8633913799779
 10
-12.02067665785671
 20
102.7336310958757
 10
-11.9499430548808
 20
102.6053288027053
 10
-11.87676661900787
 20
102.4786346418899
 10
-11.80097363421464
 20
102.3536643565628
 10
-11.72226144225169
 20
102.2305611248952
 10
-11.64033094793558
 20
102.1095162408668
 10
-11.55488305608287
 20
101.9907209984574
 10
-11.46541106842232
 20
101.8742045816469
 10
-11.37156447588677
 20
101.7605025560214
 10
-11.27327846709795
 20
101.6505657879693
 10
-11.17048823067853
 20
101.5453451438793
 10
-11.0631218014114
 20
101.4456926077139
 10
-10.95062036847457
 20
101.3524922713281
 10
-10.86219220763951
 20
101.2650456930838
 10
-10.83218885208225
 20
101.2214675117933
 10
-10.79999841720018
 20
101.176448166
 10
-10.79999841720018
 20
101.176448166
 10
-10.79999841720018
 20
101.176448166
 10
-10.79999841720018
 20
101.176448166
 10
-10.79999841720018
 20
101.176448166
 10
-10.79999841720018
 20
101.176448166
 10
-10.79999841720018
 20
101.176448166
 10
-10.79999841720018
 20
101.176448166
 10
-10.79999841720018
 20
101.176448166
 10
-10.79999841720018
 20
101.176448166
 10
-10.79999841720018
 20
101.176448166
 10
-10.79999841720018
 20
101.176448166
 10
-10.79999841720018
 20
101.176448166
 10
-10.79999841720018
 20
101.176448166
 10
10.79999841759991
 20
101.176448166
 10
10.79999841759991
 20
101.176448166
 10
10.79999841759991
 20
101.176448166
 10
10.79999841759991
 20
101.176448166
 10
10.79999841759991
 20
101.176448166
 10
10.79999841759991
 20
101.176448166
 10
10.79999841759991
 20
101.176448166
 10
10.79999841759991
 20
101.176448166
 10
10.79999841759991
 20
101.176448166
 10
10.79999841759991
 20
101.176448166
 10
10.79999841759991
 20
101.176448166
 10
10.79999841759991
 20
101.176448166
 10
10.79999841759991
 20
101.176448166
 10
10.79999841759991
 20
101.176448166
 10
10.79999841759991
 20
101.176448166
 10
10.79999841759991
 20
101.176448166
 10
11.56235330691425
 20
101.4451541479638
 10
11.67011353482211
 20
101.5449793483863
 10
11.7725491060728
 20
101.6495835645313
 10
11.87045243503917
 20
101.7586035645503
 10
11.96407841206337
 20
101.8715665242582
 10
12.05368192748801
 20
101.9879996194705
 10
12.13951787165479
 20
102.1074300260025
 10
12.22184113490584
 20
102.2293849196694
 10
12.30090660758378
 20
102.3533914762867
 10
12.3769691800303
 20
102.4789768716695
 10
12.4503308831413
 20
102.606013877043
 10
12.52119693931263
 20
102.7345890216101
 10
12.58967702613563
 20
102.8645501181531
 10
12.65588082120075
 20
102.9957449794547
 10
12.78189824642186
 20
103.2612272474625
 10
12.90012663570405
 20
103.5298183278927
 10
13.01143130694891
 20
103.8007210500307
 10
13.12646455242726
 20
104.0738196817876
 10
13.22578425442112
 20
104.3489188833614
 10
13.31994829521205
 20
104.6258233149497
 10
13.40949526376858
 20
104.9044018162142
 10
13.49472892229074
 20
105.1845454231571
 10
13.57585491290844
 20
105.4660920904863
 10
13.65307887775293
 20
105.7488797729095
 10
13.72660645895463
 20
106.0327464251346
 10
13.79664329864432
 20
106.3175300018697
 10
13.86339503895284
 20
106.6030684578223
 10
13.9270673220101
 20
106.8891997477008
 10
14.18782834746022
 20
107.1758558804099
 10
14.24577316930205
 20
107.463064352765
 10
14.30099771120145
 20
107.7508063513385
 10
14.35359789682203
 20
108.0390630627025
 10
14.40366964982919
 20
108.3278156734297
 10
14.45130889388789
 20
108.6170453700926
 10
14.53967354981974
 20
109.1968607675206
 10
14.59793025912446
 20
109.6156137538056
 10
14.65188028880853
 20
110.0356109784562
 10
14.70162171315311
 20
110.4567469477819
 10
14.74725260643932
 20
110.8789161680914
 10
14.78887104294832
 20
111.3020131456943
 10
14.8265750969617
 20
111.7259323869001
 10
14.86046284276059
 20
112.150568398018
 10
14.89063235462569
 20
112.5758156853575
 10
14.91714715812392
 20
113.0015775780081
 10
14.94003326619482
 20
113.4277978999174
 10
14.95933248417983
 20
113.8544318996811
 10
14.97508661742127
 20
114.2814348258952
 10
14.98732940941132
 20
114.7087723422649
 10
14.99607836161836
 20
115.1364052739176
 10
15.00134892674074
 20
115.5643600054208
 10
15.00268293017276
 20
115.7787693436167
 10
15.0030247953941
 20
115.8866740441743
 10
15.00311422115415
 20
115.941699065857
 10
15.0031677800002
 20
127.9999976155999
 42
0.4142135623730912
 10
12.0031677800002
 20
130.9999976155999
  0
LWPOLYLINE
  5
1EF2A
330
1DEEB
100
AcDbEntity
  8
24
100
AcDbPolyline
 90
        4
 70
     1
 43
0.0
 10
-10.79999841720018
 20
101.176448166
 10
10.79999841759991
 20
101.176448166
 10
10.80000028020004
 20
89.00000154959991
 10
-10.80000028020004
 20
89.00000154959991
  0
INSERT
  5
1EF2B
330
1DEEB
100
AcDbEntity
  8
17
100
AcDbBlockReference
  2
SW_CENTERMARKSYMBOL_31
 10
-0.0250000002001798
 20
114.999999709449
 30
0.0
 41
4.0
 42
4.0
 43
-4.0
 50
180.0
210
0.0
220
0.0
230
-1.0
  0
ENDBLK
  5
1DEF5
330
1DEEB
100
AcDbEntity
  8
0
100
AcDbBlockEnd
  0
BLOCK
  5
1DEF9
330
1DEF6
100
AcDbEntity
  8
0
100
AcDbBlockBegin
  2
S-BAR
 70
     0
 10
0.0
 20
0.0
 30
0.0
  3
S-BAR
  1

  0
LINE
  5
1EF0C
330
1DEF6
100
AcDbEntity
  8
24
  6
SLD-実線
370
    15
100
AcDbLine
 10
-14.19999729840037
 20
24.49999935919993
 30
0.0
 11
14.19999916079996
 21
24.49999935919993
 31
0.0
  0
LWPOLYLINE
  5
1EF0D
330
1DEF6
100
AcDbEntity
  8
24
  6
CONTINOUS
100
AcDbPolyline
 90
        5
 70
     0
 43
0.0
 10
6.499999143200057
 20
50.99999970944917
 42
1.0
 10
-6.500000856799942
 20
50.99999970944917
 10
-6.500000856799942
 20
50.00000009685016
 42
1.0
 10
6.499999143200057
 20
49.99999990314961
 10
6.499999351599853
 20
50.9999987558491
  0
INSERT
  5
1EF0E
330
1DEF6
100
AcDbEntity
  8
17
100
AcDbBlockReference
  2
SW_CENTERMARKSYMBOL_30
 10
0.000000856799943
 20
50.99999970944917
 30
0.0
 41
4.0
 42
4.0
 43
-4.0
 50
180.0
210
0.0
220
0.0
230
-1.0
  0
INSERT
  5
1EF0F
330
1DEF6
100
AcDbEntity
  8
17
100
AcDbBlockReference
  2
SW_CENTERMARKSYMBOL_31
 10
0.000000856799943
 20
49.99999970944918
 30
0.0
 41
4.0
 42
4.0
 43
-4.0
 50
180.0
210
0.0
220
0.0
230
-1.0
  0
LWPOLYLINE
  5
1EF10
330
1DEF6
100
AcDbEntity
  8
24
100
AcDbPolyline
 90
      146
 70
     0
 43
0.0
 10
11.89316631680012
 20
65.99999964239998
 10
11.20687471160008
 20
65.99999964239998
 10
-10.80687657439985
 20
65.99999964239998
 10
-12.0917037753391
 20
65.99999964239998
 42
0.4143565783038863
 10
-15.09316856200011
 20
63.0
 10
-15.09311500342237
 20
50.94170144990653
 10
-15.0930255776614
 20
50.88667642785811
 10
-15.09268371243779
 20
50.77877172705132
 10
-15.09134970900031
 20
50.56436238873629
 10
-15.0860791438693
 20
50.13640765723743
 10
-15.07733019165498
 20
49.70877472563961
 10
-15.06508739965902
 20
49.28143720934031
 10
-15.04933326641348
 20
48.8544342832148
 10
-15.0300340484262
 20
48.42780028355559
 10
-15.00714794035575
 20
48.00157996176608
 10
-14.9806331368607
 20
47.57581806924918
 10
-14.9504636249997
 20
47.15057078203142
 10
-14.91657587920399
 20
46.72593477100257
 10
-14.87887182519243
 20
46.30201552986124
 10
-14.83725338868571
 20
45.87891855230646
 10
-14.79162249540268
 20
45.45674933203679
 10
-14.74188107106219
 20
45.03561336275106
 10
-14.68793104138448
 20
44.61561613814786
 10
-14.62967433208841
 20
44.19686315192587
 10
-14.54131974572492
 20
43.61711996812255
 10
-14.49370212033118
 20
43.32802001393246
 10
-14.44366640889102
 20
43.03946241619734
 10
-14.39111921297699
 20
42.75146812340267
 10
-14.33596713416072
 20
42.4640580840338
 10
-14.27811677401478
 20
42.17725324657624
 10
-14.21747473411078
 20
41.89107455951557
 10
-14.15397235201526
 20
41.60553742326022
 10
-14.08744044350924
 20
41.32067978441443
 10
-14.01763482748383
 20
41.03655641075659
 10
-13.94431132283107
 20
40.75322207006478
 10
-13.86722574844161
 20
40.4707315301174
 10
-13.78613392320749
 20
40.18913955869254
 10
-13.10079166601981
 20
39.90850092356868
 10
-13.01095479577015
 20
39.62887039252417
 10
-12.91638781512183
 20
39.35065073825512
 10
-12.61667034318816
 20
39.0743878464299
 10
-12.51128087353572
 20
38.80035115428427
 10
-12.39969789972974
 20
38.52881009905411
 10
-12.28129730926548
 20
38.25992114804331
 10
-12.15523902409177
 20
37.99446189798869
 10
-12.08907404137881
 20
37.86339376437786
 10
-12.02067758945668
 20
37.73363348027567
 10
-11.94994398648077
 20
37.60533118710532
 10
-11.87676755060784
 20
37.4786370262899
 10
-11.80097456581461
 20
37.35366674096281
 10
-11.72226237385166
 20
37.23056350929518
 10
-11.64033187953555
 20
37.10951862526679
 10
-11.55488398768284
 20
36.99072338285737
 10
-11.46541200002229
 20
36.87420696604693
 10
-11.37156540748674
 20
36.76050494042136
 10
-11.27327939869792
 20
36.65056817236929
 10
-11.1704891622785
 20
36.54534752827931
 10
-11.06312273301137
 20
36.44569499211389
 10
-10.95062130007454
 20
36.35249465572815
 10
-10.86219313923948
 20
36.26504807748381
 10
-10.83218978368222
 20
36.22146989619329
 10
-10.79999934880015
 20
36.17645055039998
 10
-10.79999934880015
 20
36.17645055039998
 10
-10.79999934880015
 20
36.17645055039998
 10
-10.79999934880015
 20
36.17645055039998
 10
-10.79999934880015
 20
36.17645055039998
 10
-10.79999934880015
 20
36.17645055039998
 10
-10.79999934880015
 20
36.17645055039998
 10
-10.79999934880015
 20
36.17645055039998
 10
-10.79999934880015
 20
36.17645055039998
 10
-10.79999934880015
 20
36.17645055039998
 10
-10.79999934880015
 20
36.17645055039998
 10
-10.79999934880015
 20
36.17645055039998
 10
-10.79999934880015
 20
36.17645055039998
 10
-10.79999934880015
 20
36.17645055039998
 10
10.79999748599994
 20
36.17645055039998
 10
10.79999748599994
 20
36.17645055039998
 10
10.79999748599994
 20
36.17645055039998
 10
10.79999748599994
 20
36.17645055039998
 10
10.79999748599994
 20
36.17645055039998
 10
10.79999748599994
 20
36.17645055039998
 10
10.79999748599994
 20
36.17645055039998
 10
10.79999748599994
 20
36.17645055039998
 10
10.79999748599994
 20
36.17645055039998
 10
10.79999748599994
 20
36.17645055039998
 10
10.79999748599994
 20
36.17645055039998
 10
10.79999748599994
 20
36.17645055039998
 10
10.79999748599994
 20
36.17645055039998
 10
10.79999748599994
 20
36.17645055039998
 10
10.79999748599994
 20
36.17645055039998
 10
10.79999748599994
 20
36.17645055039998
 10
11.06235237531427
 20
36.44515653236386
 10
11.17011260322215
 20
36.54498173278625
 10
11.27254817447283
 20
36.64958594893131
 10
11.3704515034392
 20
36.75860594895028
 10
11.4640774804634
 20
36.87156890865822
 10
11.55368099588804
 20
36.98800200387053
 10
11.63951694005482
 20
37.10743241040245
 10
11.72184020330587
 20
37.22938730406941
 10
11.80090567598381
 20
37.35339386068665
 10
11.87696824843033
 20
37.47897925606948
 10
11.95032995154133
 20
37.60601626144296
 10
12.02119600771266
 20
37.73459140601005
 10
12.08967609453566
 20
37.86455250255313
 10
12.15587988960078
 20
37.99574736385466
 10
12.68189731482189
 20
38.26122963186254
 10
12.80012570410408
 20
38.52982071229268
 10
12.91143037534893
 20
38.80072343443067
 10
13.01646362082729
 20
39.07382206618763
 10
13.11578332282115
 20
39.3489212677614
 10
13.20994736361208
 20
39.62582569934966
 10
13.29949433216861
 20
39.90440420061418
 10
13.38472799069077
 20
40.1845478075571
 10
13.66585398130846
 20
40.46609447488629
 10
13.74307794615297
 20
40.74888215730946
 10
13.81660552735465
 20
41.03274880953461
 10
13.88664236704435
 20
41.3175323862697
 10
13.95339410735287
 20
41.60307084222234
 10
14.01706639041012
 20
41.88920213210074
 10
14.07782741586024
 20
42.1758582648099
 10
14.13577223770207
 20
42.46306673716502
 10
14.19099677960148
 20
42.75080873573847
 10
14.24359696522206
 20
43.03906544710253
 10
14.29366871822922
 20
43.32781805782974
 10
14.34130796228792
 20
43.61704775449253
 10
14.42967261821977
 20
44.19686315192051
 10
14.48792932752448
 20
44.61561613820562
 10
14.54187935720856
 20
45.0356133628562
 10
14.59162078155313
 20
45.45674933218172
 10
14.63725167483935
 20
45.87891855249131
 10
14.67887011134835
 20
46.3020155300943
 10
14.71657416536172
 20
46.7259347713002
 10
14.75046191116061
 20
47.15057078241807
 10
14.78063142302571
 20
47.57581806975747
 10
14.80714622652394
 20
48.00157996240806
 10
14.83003233459485
 20
48.42780028431729
 10
14.84933155257986
 20
48.85443428408109
 10
14.8650856858213
 20
49.28143721029528
 10
14.87732847781135
 20
49.70877472666495
 10
14.88607743001839
 20
50.13640765831756
 10
14.89134799514076
 20
50.56436238982087
 10
14.89268199857279
 20
50.77877172801675
 10
14.89302386379413
 20
50.88667642857434
 10
14.89311328955418
 20
50.94170145025703
 10
14.89316684840023
 20
63.0
 42
0.4142135623730951
 10
11.89316684840023
 20
66.0
  0
LWPOLYLINE
  5
1EF11
330
1DEF6
100
AcDbEntity
  8
24
100
AcDbPolyline
 90
        4
 70
     1
 43
0.0
 10
-10.79999934880015
 20
36.17645055039998
 10
10.79999748599994
 20
36.17645055039998
 10
10.79999748599994
 20
27.49999985080001
 10
-10.79999934880015
 20
27.49999985080001
  0
LWPOLYLINE
  5
1EF12
330
1DEF6
100
AcDbEntity
  8
24
  6
SLD-実線
370
    15
100
AcDbPolyline
 90
        7
 70
     0
 43
0.0
 10
-14.19999729840037
 20
0.0
 10
-14.19999729840037
 20
24.49999935920005
 10
-13.69999628520054
 20
27.49999985080001
 10
0.0000009311997928
 20
27.49999985080001
 10
13.70000187319965
 20
27.49999985080001
 10
14.20000288639949
 20
24.49999935919993
 10
14.20000288639949
 20
0.0
  0
ENDBLK
  5
1DF01
330
1DEF6
100
AcDbEntity
  8
0
100
AcDbBlockEnd
  0
BLOCK
  5
1E701
330
1E700
100
AcDbEntity
  8
0
100
AcDbBlockBegin
  2
*D5
 70
     1
 10
0.0
 20
0.0
 30
0.0
  3
*D5
  1

  0
LINE
  5
1EB04
330
1E700
100
AcDbEntity
  8
30
  6
Continuous
 62
     0
440
 16777216
370
    -2
100
AcDbLine
 10
86.18122633550106
 20
313.7624681285112
 30
0.0
 11
86.87378231257847
 21
311.8862042295315
 31
0.0
  0
LINE
  5
1EB05
330
1E700
100
AcDbEntity
  8
30
  6
Continuous
 62
     0
440
 16777216
370
    -2
100
AcDbLine
 10
82.71844645011398
 20
323.1437876234094
 30
0.0
 11
69.41993741757665
 21
359.1719401971549
 31
0.0
  0
LINE
  5
1EB06
330
1E700
100
AcDbEntity
  8
30
  6
Continuous
 62
     0
440
 16777216
370
    -2
100
AcDbLine
 10
69.41993741757665
 20
359.1719401971549
 30
0.0
 11
53.08660408424334
 21
359.1719401971549
 31
0.0
  0
LINE
  5
1EB07
330
1E700
100
AcDbEntity
  8
30
  6
Continuous
 62
     0
440
 16777216
370
    -2
100
AcDbLine
 10
85.48867035842361
 20
315.6387320274908
 30
0.0
 11
83.41100242719141
 21
321.2675237244297
 31
0.0
  0
INSERT
  5
1EB08
330
1E700
100
AcDbEntity
  8
30
  6
Continuous
 62
     0
440
 16777216
370
    -2
100
AcDbBlockReference
  2
_OPEN
 10
85.48867035842361
 20
315.6387320274908
 30
0.0
 41
2.0
 42
2.0
 43
2.0
 50
110.2598284699312
  0
INSERT
  5
1EB09
330
1E700
100
AcDbEntity
  8
30
  6
Continuous
 62
     0
440
 16777216
370
    -2
100
AcDbBlockReference
  2
_OPEN
 10
83.41100242719141
 20
321.2675237244297
 30
0.0
 41
2.0
 42
2.0
 43
2.0
 50
290.2598284699313
  0
MTEXT
  5
1EB0A
330
1E700
100
AcDbEntity
  8
30
  6
Continuous
 62
     0
440
 16777216
100
AcDbMText
 10
59.75327075090994
 20
366.1719401971549
 30
0.0
 40
8.0
 41
0.0
 46
0.0
 71
     5
 72
     1
  1
\A1;M6
 73
     1
 44
1.0
  0
POINT
  5
1EB0B
330
1E700
100
AcDbEntity
  8
DEFPOINTS
  6
Continuous
 62
     0
440
 16777216
100
AcDbPoint
 10
83.41100242719141
 20
321.2675237244297
 30
0.0
  0
POINT
  5
1EB0C
330
1E700
100
AcDbEntity
  8
DEFPOINTS
  6
Continuous
 62
     0
440
 16777216
100
AcDbPoint
 10
85.48867035842361
 20
315.6387320274908
 30
0.0
  0
ENDBLK
  5
1E702
330
1E700
100
AcDbEntity
  8
0
100
AcDbBlockEnd
  0
BLOCK
  5
1E70D
330
1E70C
100
AcDbEntity
  8
0
100
AcDbBlockBegin
  2
*D6
 70
     1
 10
0.0
 20
0.0
 30
0.0
  3
*D6
  1

  0
LINE
  5
1EF95
330
1E70C
100
AcDbEntity
  8
30
  6
Continuous
 62
     0
440
 16777216
370
    -2
100
AcDbLine
 10
59.48546284370059
 20
473.4938972774822
 30
0.0
 11
59.48546284370058
 21
405.9561711841415
 31
0.0
  0
LINE
  5
1EF96
330
1E70C
100
AcDbEntity
  8
30
  6
Continuous
 62
     0
440
 16777216
370
    -2
100
AcDbLine
 10
244.4854628437006
 20
473.4938972774822
 30
0.0
 11
244.4854628437006
 21
405.9561711841415
 31
0.0
  0
LINE
  5
1EF97
330
1E70C
100
AcDbEntity
  8
30
  6
Continuous
 62
     0
440
 16777216
370
    -2
100
AcDbLine
 10
61.48546284370058
 20
406.4561711841415
 30
0.0
 11
242.4854628437006
 21
406.4561711841415
 31
0.0
  0
INSERT
  5
1EF98
330
1E70C
100
AcDbEntity
  8
30
  6
Continuous
 62
     0
440
 16777216
370
    -2
100
AcDbBlockReference
  2
_OPEN
 10
59.48546284370058
 20
406.4561711841415
 30
0.0
 41
2.0
 42
2.0
 43
2.0
 50
180.0
  0
INSERT
  5
1EF99
330
1E70C
100
AcDbEntity
  8
30
  6
Continuous
 62
     0
440
 16777216
370
    -2
100
AcDbBlockReference
  2
_OPEN
 10
244.4854628437006
 20
406.4561711841415
 30
0.0
 41
2.0
 42
2.0
 43
2.0
  0
MTEXT
  5
1EF9A
330
1E70C
100
AcDbEntity
  8
30
  6
Continuous
440
 16777216
100
AcDbMText
 10
151.9854628437006
 20
413.4561711841415
 30
0.0
 40
8.0
 41
0.0
 46
0.0
 71
     5
 72
     1
  1
\A1;185
 73
     1
 44
1.0
 90
        3
 63
     9
421
 13158600
 45
1.25
441
        0
  0
POINT
  5
1EF9B
330
1E70C
100
AcDbEntity
  8
DEFPOINTS
  6
Continuous
 62
     0
440
 16777216
100
AcDbPoint
 10
59.48546284370059
 20
474.4938972774822
 30
0.0
  0
POINT
  5
1EF9C
330
1E70C
100
AcDbEntity
  8
DEFPOINTS
  6
Continuous
 62
     0
440
 16777216
100
AcDbPoint
 10
244.4854628437006
 20
474.4938972774822
 30
0.0
  0
POINT
  5
1EF9D
330
1E70C
100
AcDbEntity
  8
DEFPOINTS
  6
Continuous
 62
     0
440
 16777216
100
AcDbPoint
 10
244.4854628437006
 20
406.4561711841415
 30
0.0
  0
ENDBLK
  5
1E70E
330
1E70C
100
AcDbEntity
  8
0
100
AcDbBlockEnd
  0
BLOCK
  5
1E719
330
1E718
100
AcDbEntity
  8
0
100
AcDbBlockBegin
  2
*D7
 70
     1
 10
0.0
 20
0.0
 30
0.0
  3
*D7
  1

  0
LINE
  5
1E87D
330
1E718
100
AcDbEntity
  8
30
  6
Continuous
 62
     0
440
 16777216
370
    -2
100
AcDbLine
 10
527.6008571329676
 20
163.07232407759
 30
0.0
 11
527.6008571329676
 21
48.86550365985056
 31
0.0
  0
LINE
  5
1E87E
330
1E718
100
AcDbEntity
  8
30
  6
Continuous
 62
     0
440
 16777216
370
    -2
100
AcDbLine
 10
580.6008571329676
 20
163.07232407759
 30
0.0
 11
580.6008571329676
 21
48.86550365985056
 31
0.0
  0
LINE
  5
1E87F
330
1E718
100
AcDbEntity
  8
30
  6
Continuous
 62
     0
440
 16777216
370
    -2
100
AcDbLine
 10
529.6008571329675
 20
49.36550365985056
 30
0.0
 11
578.6008571329675
 21
49.36550365985056
 31
0.0
  0
INSERT
  5
1E880
330
1E718
100
AcDbEntity
  8
30
  6
Continuous
 62
     0
440
 16777216
370
    -2
100
AcDbBlockReference
  2
_OPEN
 10
527.6008571329676
 20
49.36550365985056
 30
0.0
 41
2.0
 42
2.0
 43
2.0
 50
180.0
  0
INSERT
  5
1E881
330
1E718
100
AcDbEntity
  8
30
  6
Continuous
 62
     0
440
 16777216
370
    -2
100
AcDbBlockReference
  2
_OPEN
 10
580.6008571329676
 20
49.36550365985056
 30
0.0
 41
2.0
 42
2.0
 43
2.0
  0
MTEXT
  5
1E882
330
1E718
100
AcDbEntity
  8
30
  6
Continuous
440
 16777216
100
AcDbMText
 10
554.1008571329675
 20
56.36550365985056
 30
0.0
 40
8.0
 41
0.0
 46
0.0
 71
     5
 72
     1
  1
\A1;53
 73
     1
 44
1.0
 90
        3
 63
     9
421
 13158600
 45
1.25
441
        0
  0
POINT
  5
1E883
330
1E718
100
AcDbEntity
  8
DEFPOINTS
  6
Continuous
 62
     0
440
 16777216
100
AcDbPoint
 10
527.6008571329676
 20
164.07232407759
 30
0.0
  0
POINT
  5
1E884
330
1E718
100
AcDbEntity
  8
DEFPOINTS
  6
Continuous
 62
     0
440
 16777216
100
AcDbPoint
 10
580.6008571329676
 20
164.07232407759
 30
0.0
  0
POINT
  5
1E885
330
1E718
100
AcDbEntity
  8
DEFPOINTS
  6
Continuous
 62
     0
440
 16777216
100
AcDbPoint
 10
580.6008571329676
 20
49.36550365985056
 30
0.0
  0
ENDBLK
  5
1E71A
330
1E718
100
AcDbEntity
  8
0
100
AcDbBlockEnd
  0
BLOCK
  5
1E725
330
1E724
100
AcDbEntity
  8
0
100
AcDbBlockBegin
  2
*D8
 70
     1
 10
0.0
 20
0.0
 30
0.0
  3
*D8
  1

  0
LINE
  5
1E886
330
1E724
100
AcDbEntity
  8
30
  6
Continuous
 62
     0
440
 16777216
370
    -2
100
AcDbLine
 10
581.6428397460659
 20
257.4531278759601
 30
0.0
 11
690.375384002422
 21
257.45312787596
 31
0.0
  0
LINE
  5
1E887
330
1E724
100
AcDbEntity
  8
30
  6
Continuous
 62
     0
440
 16777216
370
    -2
100
AcDbLine
 10
581.6428397460659
 20
165.4531278759599
 30
0.0
 11
690.3753840024219
 21
165.4531278759599
 31
0.0
  0
LINE
  5
1E888
330
1E724
100
AcDbEntity
  8
30
  6
Continuous
 62
     0
440
 16777216
370
    -2
100
AcDbLine
 10
689.8753840024219
 20
255.4531278759601
 30
0.0
 11
689.8753840024219
 21
167.4531278759599
 31
0.0
  0
INSERT
  5
1E889
330
1E724
100
AcDbEntity
  8
30
  6
Continuous
 62
     0
440
 16777216
370
    -2
100
AcDbBlockReference
  2
_OPEN
 10
689.875384002422
 20
257.45312787596
 30
0.0
 41
2.0
 42
2.0
 43
2.0
 50
90.0
  0
INSERT
  5
1E88A
330
1E724
100
AcDbEntity
  8
30
  6
Continuous
 62
     0
440
 16777216
370
    -2
100
AcDbBlockReference
  2
_OPEN
 10
689.8753840024219
 20
165.4531278759599
 30
0.0
 41
2.0
 42
2.0
 43
2.0
 50
270.0
  0
MTEXT
  5
1E88B
330
1E724
100
AcDbEntity
  8
30
  6
Continuous
440
 16777216
100
AcDbMText
 10
682.8753840024219
 20
211.45312787596
 30
0.0
 40
8.0
 41
0.0
 46
0.0
 71
     5
 72
     1
  1
\A1;92
 11
0.0000000000000001
 21
1.0
 31
0.0
 73
     1
 44
1.0
 90
        3
 63
     9
421
 13158600
 45
1.25
441
        0
  0
POINT
  5
1E88C
330
1E724
100
AcDbEntity
  8
DEFPOINTS
  6
Continuous
 62
     0
440
 16777216
100
AcDbPoint
 10
580.6428397460657
 20
257.4531278759601
 30
0.0
  0
POINT
  5
1E88D
330
1E724
100
AcDbEntity
  8
DEFPOINTS
  6
Continuous
 62
     0
440
 16777216
100
AcDbPoint
 10
580.6428397460657
 20
165.4531278759599
 30
0.0
  0
POINT
  5
1E88E
330
1E724
100
AcDbEntity
  8
DEFPOINTS
  6
Continuous
 62
     0
440
 16777216
100
AcDbPoint
 10
689.8753840024219
 20
165.4531278759599
 30
0.0
  0
ENDBLK
  5
1E726
330
1E724
100
AcDbEntity
  8
0
100
AcDbBlockEnd
  0
BLOCK
  5
1E731
330
1E730
100
AcDbEntity
  8
0
100
AcDbBlockBegin
  2
*D9
 70
     1
 10
0.0
 20
0.0
 30
0.0
  3
*D9
  1

  0
LINE
  5
1E88F
330
1E730
100
AcDbEntity
  8
30
  6
Continuous
 62
     0
440
 16777216
370
    -2
100
AcDbLine
 10
297.0516664120451
 20
163.07232407759
 30
0.0
 11
297.0516664120451
 21
48.86550365985056
 31
0.0
  0
LINE
  5
1E890
330
1E730
100
AcDbEntity
  8
30
  6
Continuous
 62
     0
440
 16777216
370
    -2
100
AcDbLine
 10
415.0516664120448
 20
163.07232407759
 30
0.0
 11
415.0516664120448
 21
48.86550365985056
 31
0.0
  0
LINE
  5
1E891
330
1E730
100
AcDbEntity
  8
30
  6
Continuous
 62
     0
440
 16777216
370
    -2
100
AcDbLine
 10
299.051666412045
 20
49.36550365985056
 30
0.0
 11
413.051666412045
 21
49.36550365985056
 31
0.0
  0
INSERT
  5
1E892
330
1E730
100
AcDbEntity
  8
30
  6
Continuous
 62
     0
440
 16777216
370
    -2
100
AcDbBlockReference
  2
_OPEN
 10
297.0516664120451
 20
49.36550365985056
 30
0.0
 41
2.0
 42
2.0
 43
2.0
 50
180.0
  0
INSERT
  5
1E893
330
1E730
100
AcDbEntity
  8
30
  6
Continuous
 62
     0
440
 16777216
370
    -2
100
AcDbBlockReference
  2
_OPEN
 10
415.0516664120448
 20
49.36550365985056
 30
0.0
 41
2.0
 42
2.0
 43
2.0
  0
MTEXT
  5
1E894
330
1E730
100
AcDbEntity
  8
30
  6
Continuous
440
 16777216
100
AcDbMText
 10
356.051666412045
 20
56.36550365985056
 30
0.0
 40
8.0
 41
0.0
 46
0.0
 71
     5
 72
     1
  1
\A1;118
 73
     1
 44
1.0
 90
        3
 63
     9
421
 13158600
 45
1.25
441
        0
  0
POINT
  5
1E895
330
1E730
100
AcDbEntity
  8
DEFPOINTS
  6
Continuous
 62
     0
440
 16777216
100
AcDbPoint
 10
297.0516664120451
 20
164.07232407759
 30
0.0
  0
POINT
  5
1E896
330
1E730
100
AcDbEntity
  8
DEFPOINTS
  6
Continuous
 62
     0
440
 16777216
100
AcDbPoint
 10
415.0516664120448
 20
164.07232407759
 30
0.0
  0
POINT
  5
1E897
330
1E730
100
AcDbEntity
  8
DEFPOINTS
  6
Continuous
 62
     0
440
 16777216
100
AcDbPoint
 10
415.0516664120448
 20
49.36550365985056
 30
0.0
  0
ENDBLK
  5
1E732
330
1E730
100
AcDbEntity
  8
0
100
AcDbBlockEnd
  0
BLOCK
  5
1E73D
330
1E73C
100
AcDbEntity
  8
0
100
AcDbBlockBegin
  2
*D10
 70
     1
 10
0.0
 20
0.0
 30
0.0
  3
*D10
  1

  0
LINE
  5
1E898
330
1E73C
100
AcDbEntity
  8
30
  6
Continuous
 62
     0
440
 16777216
370
    -2
100
AcDbLine
 10
416.0936490251431
 20
257.4531278759601
 30
0.0
 11
443.6840474903775
 21
257.4531278759601
 31
0.0
  0
LINE
  5
1E899
330
1E73C
100
AcDbEntity
  8
30
  6
Continuous
 62
     0
440
 16777216
370
    -2
100
AcDbLine
 10
416.0936490251431
 20
165.4531278759599
 30
0.0
 11
443.6840474903775
 21
165.4531278759599
 31
0.0
  0
LINE
  5
1E89A
330
1E73C
100
AcDbEntity
  8
30
  6
Continuous
 62
     0
440
 16777216
370
    -2
100
AcDbLine
 10
443.1840474903775
 20
255.4531278759601
 30
0.0
 11
443.1840474903775
 21
167.4531278759599
 31
0.0
  0
INSERT
  5
1E89B
330
1E73C
100
AcDbEntity
  8
30
  6
Continuous
 62
     0
440
 16777216
370
    -2
100
AcDbBlockReference
  2
_OPEN
 10
443.1840474903775
 20
257.4531278759601
 30
0.0
 41
2.0
 42
2.0
 43
2.0
 50
90.0
  0
INSERT
  5
1E89C
330
1E73C
100
AcDbEntity
  8
30
  6
Continuous
 62
     0
440
 16777216
370
    -2
100
AcDbBlockReference
  2
_OPEN
 10
443.1840474903775
 20
165.4531278759599
 30
0.0
 41
2.0
 42
2.0
 43
2.0
 50
270.0
  0
MTEXT
  5
1E89D
330
1E73C
100
AcDbEntity
  8
30
  6
Continuous
440
 16777216
100
AcDbMText
 10
436.1840474903773
 20
222.2934255048501
 30
0.0
 40
8.0
 41
0.0
 46
0.0
 71
     5
 72
     1
  1
\A1;92
 11
0.0000000000000001
 21
1.0
 31
0.0
 73
     1
 44
1.0
 90
        3
 63
     9
421
 13158600
 45
1.25
441
        0
  0
POINT
  5
1E89E
330
1E73C
100
AcDbEntity
  8
DEFPOINTS
  6
Continuous
 62
     0
440
 16777216
100
AcDbPoint
 10
415.0936490251432
 20
257.4531278759601
 30
0.0
  0
POINT
  5
1E89F
330
1E73C
100
AcDbEntity
  8
DEFPOINTS
  6
Continuous
 62
     0
440
 16777216
100
AcDbPoint
 10
415.0936490251432
 20
165.4531278759599
 30
0.0
  0
POINT
  5
1E8A0
330
1E73C
100
AcDbEntity
  8
DEFPOINTS
  6
Continuous
 62
     0
440
 16777216
100
AcDbPoint
 10
443.1840474903775
 20
165.4531278759599
 30
0.0
  0
ENDBLK
  5
1E73E
330
1E73C
100
AcDbEntity
  8
0
100
AcDbBlockEnd
  0
BLOCK
  5
1E749
330
1E748
100
AcDbEntity
  8
0
100
AcDbBlockBegin
  2
*D11
 70
     1
 10
0.0
 20
0.0
 30
0.0
  3
*D11
  1

  0
LINE
  5
1E8A1
330
1E748
100
AcDbEntity
  8
30
  6
Continuous
 62
     0
440
 16777216
370
    -2
100
AcDbLine
 10
415.5517045838938
 20
258.3896929417411
 30
0.0
 11
436.152345953921
 21
287.2722740576478
 31
0.0
  0
LINE
  5
1E8A2
330
1E748
100
AcDbEntity
  8
30
  6
Continuous
 62
     0
440
 16777216
370
    -2
100
AcDbLine
 10
436.152345953921
 20
287.2722740576478
 30
0.0
 11
452.4856792872544
 21
287.2722740576478
 31
0.0
  0
LINE
  5
1E8A3
330
1E748
100
AcDbEntity
  8
30
  6
Continuous
 62
     0
440
 16777216
370
    -2
100
AcDbLine
 10
413.2289752270001
 20
255.1331720472802
 30
0.0
 11
414.3903399054992
 21
256.7614324945838
 31
0.0
  0
INSERT
  5
1E8A4
330
1E748
100
AcDbEntity
  8
30
  6
Continuous
 62
     0
440
 16777216
370
    -2
100
AcDbBlockReference
  2
_OPEN
 10
414.3903399054992
 20
256.7614324945838
 30
0.0
 41
2.0
 42
2.0
 43
2.0
 50
234.5014509348104
  0
MTEXT
  5
1E8A5
330
1E748
100
AcDbEntity
  8
30
  6
Continuous
 62
     0
440
 16777216
100
AcDbMText
 10
439.1523459539208
 20
298.272274057648
 30
0.0
 40
8.0
 41
0.0
 46
0.0
 71
     1
 72
     1
  1
\A1;R2
 73
     1
 44
1.0
  0
POINT
  5
1E8A6
330
1E748
100
AcDbEntity
  8
DEFPOINTS
  6
Continuous
 62
     0
440
 16777216
100
AcDbPoint
 10
414.3903399054992
 20
256.7614324945838
 30
0.0
  0
POINT
  5
1E8A7
330
1E748
100
AcDbEntity
  8
DEFPOINTS
  6
Continuous
 62
     0
440
 16777216
100
AcDbPoint
 10
413.2289752270001
 20
255.1331720472802
 30
0.0
  0
ENDBLK
  5
1E74A
330
1E748
100
AcDbEntity
  8
0
100
AcDbBlockEnd
  0
BLOCK
  5
1E753
330
1E752
100
AcDbEntity
  8
0
100
AcDbBlockBegin
  2
*D12
 70
     1
 10
0.0
 20
0.0
 30
0.0
  3
*D12
  1

  0
LINE
  5
1E8A8
330
1E752
100
AcDbEntity
  8
30
  6
Continuous
 62
     0
440
 16777216
370
    -2
100
AcDbLine
 10
581.1008953048149
 20
258.3896929417416
 30
0.0
 11
601.7015366748412
 21
287.272274057648
 31
0.0
  0
LINE
  5
1E8A9
330
1E752
100
AcDbEntity
  8
30
  6
Continuous
 62
     0
440
 16777216
370
    -2
100
AcDbLine
 10
601.7015366748412
 20
287.272274057648
 30
0.0
 11
618.0348700081749
 21
287.272274057648
 31
0.0
  0
LINE
  5
1E8AA
330
1E752
100
AcDbEntity
  8
30
  6
Continuous
 62
     0
440
 16777216
370
    -2
100
AcDbLine
 10
578.7781659479207
 20
255.1331720472805
 30
0.0
 11
579.9395306264201
 21
256.7614324945842
 31
0.0
  0
INSERT
  5
1E8AB
330
1E752
100
AcDbEntity
  8
30
  6
Continuous
 62
     0
440
 16777216
370
    -2
100
AcDbBlockReference
  2
_OPEN
 10
579.9395306264201
 20
256.7614324945842
 30
0.0
 41
2.0
 42
2.0
 43
2.0
 50
234.5014509348107
  0
MTEXT
  5
1E8AC
330
1E752
100
AcDbEntity
  8
30
  6
Continuous
 62
     0
440
 16777216
100
AcDbMText
 10
604.7015366748412
 20
298.2722740576481
 30
0.0
 40
8.0
 41
0.0
 46
0.0
 71
     1
 72
     1
  1
\A1;R2
 73
     1
 44
1.0
  0
POINT
  5
1E8AD
330
1E752
100
AcDbEntity
  8
DEFPOINTS
  6
Continuous
 62
     0
440
 16777216
100
AcDbPoint
 10
579.9395306264201
 20
256.7614324945842
 30
0.0
  0
POINT
  5
1E8AE
330
1E752
100
AcDbEntity
  8
DEFPOINTS
  6
Continuous
 62
     0
440
 16777216
100
AcDbPoint
 10
578.7781659479207
 20
255.1331720472805
 30
0.0
  0
ENDBLK
  5
1E754
330
1E752
100
AcDbEntity
  8
0
100
AcDbBlockEnd
  0
BLOCK
  5
1E75D
330
1E75C
100
AcDbEntity
  8
0
100
AcDbBlockBegin
  2
*D13
 70
     1
 10
0.0
 20
0.0
 30
0.0
  3
*D13
  1

  0
LINE
  5
1EF3A
330
1E75C
100
AcDbEntity
  8
30
  6
Continuous
 62
     0
440
 16777216
370
    -2
100
AcDbLine
 10
624.0623810060898
 20
722.4938972774823
 30
0.0
 11
640.7126651760973
 21
722.4938972774823
 31
0.0
  0
LINE
  5
1EF3B
330
1E75C
100
AcDbEntity
  8
30
  6
Continuous
 62
     0
440
 16777216
370
    -2
100
AcDbLine
 10
624.0623810060898
 20
714.4938972774824
 30
0.0
 11
640.7126651760973
 21
714.4938972774824
 31
0.0
  0
LINE
  5
1EF3C
330
1E75C
100
AcDbEntity
  8
30
  6
Continuous
 62
     0
440
 16777216
370
    -2
100
AcDbLine
 10
640.2126651760973
 20
724.4938972774823
 30
0.0
 11
640.2126651760973
 21
726.4938972774823
 31
0.0
  0
LINE
  5
1EF3D
330
1E75C
100
AcDbEntity
  8
30
  6
Continuous
 62
     0
440
 16777216
370
    -2
100
AcDbLine
 10
640.2126651760973
 20
712.4938972774823
 30
0.0
 11
640.2126651760973
 21
699.1605639441489
 31
0.0
  0
INSERT
  5
1EF3E
330
1E75C
100
AcDbEntity
  8
30
  6
Continuous
 62
     0
440
 16777216
370
    -2
100
AcDbBlockReference
  2
_OPEN
 10
640.2126651760973
 20
722.4938972774823
 30
0.0
 41
2.0
 42
2.0
 43
2.0
 50
270.0
  0
INSERT
  5
1EF3F
330
1E75C
100
AcDbEntity
  8
30
  6
Continuous
 62
     0
440
 16777216
370
    -2
100
AcDbBlockReference
  2
_OPEN
 10
640.2126651760973
 20
714.4938972774824
 30
0.0
 41
2.0
 42
2.0
 43
2.0
 50
90.0
  0
MTEXT
  5
1EF40
330
1E75C
100
AcDbEntity
  8
30
  6
Continuous
440
 16777216
100
AcDbMText
 10
633.2126651760972
 20
704.8272306108158
 30
0.0
 40
8.0
 41
0.0
 46
0.0
 71
     5
 72
     1
  1
\A1;8
 11
0.0000000000000001
 21
1.0
 31
0.0
 73
     1
 44
1.0
 90
        3
 63
     9
421
 13158600
 45
1.25
441
        0
  0
POINT
  5
1EF41
330
1E75C
100
AcDbEntity
  8
DEFPOINTS
  6
Continuous
 62
     0
440
 16777216
100
AcDbPoint
 10
623.0623810060897
 20
722.4938972774823
 30
0.0
  0
POINT
  5
1EF42
330
1E75C
100
AcDbEntity
  8
DEFPOINTS
  6
Continuous
 62
     0
440
 16777216
100
AcDbPoint
 10
623.0623810060897
 20
714.4938972774824
 30
0.0
  0
POINT
  5
1EF43
330
1E75C
100
AcDbEntity
  8
DEFPOINTS
  6
Continuous
 62
     0
440
 16777216
100
AcDbPoint
 10
640.2126651760973
 20
714.4938972774824
 30
0.0
  0
ENDBLK
  5
1E75E
330
1E75C
100
AcDbEntity
  8
0
100
AcDbBlockEnd
  0
BLOCK
  5
1E76A
330
1E769
100
AcDbEntity
  8
0
100
AcDbBlockBegin
  2
*D14
 70
     1
 10
0.0
 20
0.0
 30
0.0
  3
*D14
  1

  0
LINE
  5
1EF44
330
1E769
100
AcDbEntity
  8
30
  6
Continuous
 62
     0
440
 16777216
370
    -2
100
AcDbLine
 10
398.5623827940899
 20
649.4938972774822
 30
0.0
 11
341.0644749064946
 21
649.4938972774822
 31
0.0
  0
LINE
  5
1EF45
330
1E769
100
AcDbEntity
  8
30
  6
Continuous
 62
     0
440
 16777216
370
    -2
100
AcDbLine
 10
390.8486461786737
 20
559.4938972774825
 30
0.0
 11
341.0644749064946
 21
559.4938972774825
 31
0.0
  0
LINE
  5
1EF46
330
1E769
100
AcDbEntity
  8
30
  6
Continuous
 62
     0
440
 16777216
370
    -2
100
AcDbLine
 10
341.5644749064946
 20
647.4938972774822
 30
0.0
 11
341.5644749064946
 21
561.4938972774825
 31
0.0
  0
INSERT
  5
1EF47
330
1E769
100
AcDbEntity
  8
30
  6
Continuous
 62
     0
440
 16777216
370
    -2
100
AcDbBlockReference
  2
_OPEN
 10
341.5644749064946
 20
649.4938972774822
 30
0.0
 41
2.0
 42
2.0
 43
2.0
 50
90.0
  0
INSERT
  5
1EF48
330
1E769
100
AcDbEntity
  8
30
  6
Continuous
 62
     0
440
 16777216
370
    -2
100
AcDbBlockReference
  2
_OPEN
 10
341.5644749064946
 20
559.4938972774825
 30
0.0
 41
2.0
 42
2.0
 43
2.0
 50
270.0
  0
MTEXT
  5
1EF49
330
1E769
100
AcDbEntity
  8
30
  6
Continuous
440
 16777216
100
AcDbMText
 10
334.5644749064945
 20
604.4938972774827
 30
0.0
 40
8.0
 41
0.0
 46
0.0
 71
     5
 72
     1
  1
\A1;90
 11
0.0000000000000001
 21
1.0
 31
0.0
 73
     1
 44
1.0
 90
        3
 63
     9
421
 13158600
 45
1.25
441
        0
  0
POINT
  5
1EF4A
330
1E769
100
AcDbEntity
  8
DEFPOINTS
  6
Continuous
 62
     0
440
 16777216
100
AcDbPoint
 10
399.5623827940899
 20
649.4938972774822
 30
0.0
  0
POINT
  5
1EF4B
330
1E769
100
AcDbEntity
  8
DEFPOINTS
  6
Continuous
 62
     0
440
 16777216
100
AcDbPoint
 10
391.8486461786737
 20
559.4938972774825
 30
0.0
  0
POINT
  5
1EF4C
330
1E769
100
AcDbEntity
  8
DEFPOINTS
  6
Continuous
 62
     0
440
 16777216
100
AcDbPoint
 10
341.5644749064946
 20
559.4938972774825
 30
0.0
  0
ENDBLK
  5
1E76B
330
1E769
100
AcDbEntity
  8
0
100
AcDbBlockEnd
  0
BLOCK
  5
1E776
330
1E775
100
AcDbEntity
  8
0
100
AcDbBlockBegin
  2
*D15
 70
     1
 10
0.0
 20
0.0
 30
0.0
  3
*D15
  1

  0
LINE
  5
1EF4D
330
1E775
100
AcDbEntity
  8
30
  6
Continuous
 62
     0
440
 16777216
370
    -2
100
AcDbLine
 10
383.0623810060897
 20
606.0000000000001
 30
0.0
 11
383.0623810060897
 21
419.7947567027348
 31
0.0
  0
LINE
  5
1EF4E
330
1E775
100
AcDbEntity
  8
30
  6
Continuous
 62
     0
440
 16777216
370
    -2
100
AcDbLine
 10
513.0623810060897
 20
473.4938972774823
 30
0.0
 11
513.0623810060897
 21
419.7947567027348
 31
0.0
  0
LINE
  5
1EF4F
330
1E775
100
AcDbEntity
  8
30
  6
Continuous
 62
     0
440
 16777216
370
    -2
100
AcDbLine
 10
385.0623810060897
 20
420.2947567027348
 30
0.0
 11
511.0623810060896
 21
420.2947567027348
 31
0.0
  0
INSERT
  5
1EF50
330
1E775
100
AcDbEntity
  8
30
  6
Continuous
 62
     0
440
 16777216
370
    -2
100
AcDbBlockReference
  2
_OPEN
 10
383.0623810060897
 20
420.2947567027348
 30
0.0
 41
2.0
 42
2.0
 43
2.0
 50
180.0
  0
INSERT
  5
1EF51
330
1E775
100
AcDbEntity
  8
30
  6
Continuous
 62
     0
440
 16777216
370
    -2
100
AcDbBlockReference
  2
_OPEN
 10
513.0623810060897
 20
420.2947567027348
 30
0.0
 41
2.0
 42
2.0
 43
2.0
  0
MTEXT
  5
1EF52
330
1E775
100
AcDbEntity
  8
30
  6
Continuous
440
 16777216
100
AcDbMText
 10
448.0623810060897
 20
431.2947567027348
 30
0.0
 40
8.0
 41
0.0
 46
0.0
 71
     2
 72
     1
  1
\A1;130
 73
     1
 44
1.0
 90
        3
 63
     9
421
 13158600
 45
1.25
441
        0
  0
POINT
  5
1EF53
330
1E775
100
AcDbEntity
  8
DEFPOINTS
  6
Continuous
 62
     0
440
 16777216
100
AcDbPoint
 10
383.0623810060897
 20
607.0000000000001
 30
0.0
  0
POINT
  5
1EF54
330
1E775
100
AcDbEntity
  8
DEFPOINTS
  6
Continuous
 62
     0
440
 16777216
100
AcDbPoint
 10
513.0623810060897
 20
474.4938972774824
 30
0.0
  0
POINT
  5
1EF55
330
1E775
100
AcDbEntity
  8
DEFPOINTS
  6
Continuous
 62
     0
440
 16777216
100
AcDbPoint
 10
513.0623810060897
 20
420.2947567027348
 30
0.0
  0
ENDBLK
  5
1E777
330
1E775
100
AcDbEntity
  8
0
100
AcDbBlockEnd
  0
BLOCK
  5
1E782
330
1E781
100
AcDbEntity
  8
0
100
AcDbBlockBegin
  2
*D16
 70
     1
 10
0.0
 20
0.0
 30
0.0
  3
*D16
  1

  0
LINE
  5
1EF56
330
1E781
100
AcDbEntity
  8
30
  6
Continuous
 62
     0
440
 16777216
370
    -2
100
AcDbLine
 10
410.0623810060897
 20
523.3264926460255
 30
0.0
 11
410.0623810060897
 21
451.8348303280521
 31
0.0
  0
LINE
  5
1EF57
330
1E781
100
AcDbEntity
  8
30
  6
Continuous
 62
     0
440
 16777216
370
    -2
100
AcDbLine
 10
513.0623810060897
 20
473.4938972774823
 30
0.0
 11
513.0623810060897
 21
451.8348303280521
 31
0.0
  0
LINE
  5
1EF58
330
1E781
100
AcDbEntity
  8
30
  6
Continuous
 62
     0
440
 16777216
370
    -2
100
AcDbLine
 10
412.0623810060896
 20
452.3348303280521
 30
0.0
 11
511.0623810060896
 21
452.3348303280521
 31
0.0
  0
INSERT
  5
1EF59
330
1E781
100
AcDbEntity
  8
30
  6
Continuous
 62
     0
440
 16777216
370
    -2
100
AcDbBlockReference
  2
_OPEN
 10
410.0623810060897
 20
452.3348303280521
 30
0.0
 41
2.0
 42
2.0
 43
2.0
 50
180.0
  0
INSERT
  5
1EF5A
330
1E781
100
AcDbEntity
  8
30
  6
Continuous
 62
     0
440
 16777216
370
    -2
100
AcDbBlockReference
  2
_OPEN
 10
513.0623810060897
 20
452.3348303280521
 30
0.0
 41
2.0
 42
2.0
 43
2.0
  0
MTEXT
  5
1EF5B
330
1E781
100
AcDbEntity
  8
30
  6
Continuous
440
 16777216
100
AcDbMText
 10
461.562381006089
 20
463.3348303280521
 30
0.0
 40
8.0
 41
0.0
 46
0.0
 71
     2
 72
     1
  1
\A1;103
 73
     1
 44
1.0
 90
        3
 63
     9
421
 13158600
 45
1.25
441
        0
  0
POINT
  5
1EF5C
330
1E781
100
AcDbEntity
  8
DEFPOINTS
  6
Continuous
 62
     0
440
 16777216
100
AcDbPoint
 10
410.0623810060897
 20
524.3264926460255
 30
0.0
  0
POINT
  5
1EF5D
330
1E781
100
AcDbEntity
  8
DEFPOINTS
  6
Continuous
 62
     0
440
 16777216
100
AcDbPoint
 10
513.0623810060897
 20
474.4938972774824
 30
0.0
  0
POINT
  5
1EF5E
330
1E781
100
AcDbEntity
  8
DEFPOINTS
  6
Continuous
 62
     0
440
 16777216
100
AcDbPoint
 10
513.0623810060897
 20
452.3348303280521
 30
0.0
  0
ENDBLK
  5
1E783
330
1E781
100
AcDbEntity
  8
0
100
AcDbBlockEnd
  0
BLOCK
  5
1E78E
330
1E78D
100
AcDbEntity
  8
0
100
AcDbBlockBegin
  2
*D17
 70
     1
 10
0.0
 20
0.0
 30
0.0
  3
*D17
  1

  0
LINE
  5
1EF5F
330
1E78D
100
AcDbEntity
  8
30
  6
Continuous
 62
     0
440
 16777216
370
    -2
100
AcDbLine
 10
362.0688852365741
 20
616.0000000000001
 30
0.0
 11
362.0688852365741
 21
402.4706853769623
 31
0.0
  0
LINE
  5
1EF60
330
1E78D
100
AcDbEntity
  8
30
  6
Continuous
 62
     0
440
 16777216
370
    -2
100
AcDbLine
 10
513.0623810060897
 20
418.7947567027348
 30
0.0
 11
513.0623810060897
 21
402.4706853769623
 31
0.0
  0
LINE
  5
1EF61
330
1E78D
100
AcDbEntity
  8
30
  6
Continuous
 62
     0
440
 16777216
370
    -2
100
AcDbLine
 10
364.0688852365741
 20
402.9706853769623
 30
0.0
 11
511.0623810060896
 21
402.9706853769623
 31
0.0
  0
INSERT
  5
1EF62
330
1E78D
100
AcDbEntity
  8
30
  6
Continuous
 62
     0
440
 16777216
370
    -2
100
AcDbBlockReference
  2
_OPEN
 10
362.0688852365741
 20
402.9706853769623
 30
0.0
 41
2.0
 42
2.0
 43
2.0
 50
180.0
  0
INSERT
  5
1EF63
330
1E78D
100
AcDbEntity
  8
30
  6
Continuous
 62
     0
440
 16777216
370
    -2
100
AcDbBlockReference
  2
_OPEN
 10
513.0623810060897
 20
402.9706853769623
 30
0.0
 41
2.0
 42
2.0
 43
2.0
  0
MTEXT
  5
1EF64
330
1E78D
100
AcDbEntity
  8
30
  6
Continuous
440
 16777216
100
AcDbMText
 10
437.5656331213319
 20
409.9706853769623
 30
0.0
 40
8.0
 41
0.0
 46
0.0
 71
     5
 72
     1
  1
\A1;151
 73
     1
 44
1.0
 90
        3
 63
     9
421
 13158600
 45
1.25
441
        0
  0
POINT
  5
1EF65
330
1E78D
100
AcDbEntity
  8
DEFPOINTS
  6
Continuous
 62
     0
440
 16777216
100
AcDbPoint
 10
362.0688852365741
 20
617.0000000000001
 30
0.0
  0
POINT
  5
1EF66
330
1E78D
100
AcDbEntity
  8
DEFPOINTS
  6
Continuous
 62
     0
440
 16777216
100
AcDbPoint
 10
513.0623810060897
 20
419.7947567027348
 30
0.0
  0
POINT
  5
1EF67
330
1E78D
100
AcDbEntity
  8
DEFPOINTS
  6
Continuous
 62
     0
440
 16777216
100
AcDbPoint
 10
513.0623810060897
 20
402.9706853769623
 30
0.0
  0
ENDBLK
  5
1E78F
330
1E78D
100
AcDbEntity
  8
0
100
AcDbBlockEnd
  0
BLOCK
  5
1E79A
330
1E799
100
AcDbEntity
  8
0
100
AcDbBlockBegin
  2
*D18
 70
     1
 10
0.0
 20
0.0
 30
0.0
  3
*D18
  1

  0
LINE
  5
1EF68
330
1E799
100
AcDbEntity
  8
30
  6
Continuous
 62
     0
440
 16777216
370
    -2
100
AcDbLine
 10
406.0623808870896
 20
551.0
 30
0.0
 11
406.0623808870896
 21
435.5953494397771
 31
0.0
  0
LINE
  5
1EF69
330
1E799
100
AcDbEntity
  8
30
  6
Continuous
 62
     0
440
 16777216
370
    -2
100
AcDbLine
 10
398.0623808870896
 20
551.0
 30
0.0
 11
398.0623808870896
 21
435.5953494397771
 31
0.0
  0
LINE
  5
1EF6A
330
1E799
100
AcDbEntity
  8
30
  6
Continuous
 62
     0
440
 16777216
370
    -2
100
AcDbLine
 10
408.0623808870895
 20
436.0953494397771
 30
0.0
 11
410.0623808870896
 21
436.0953494397771
 31
0.0
  0
LINE
  5
1EF6B
330
1E799
100
AcDbEntity
  8
30
  6
Continuous
 62
     0
440
 16777216
370
    -2
100
AcDbLine
 10
396.0623808870896
 20
436.0953494397771
 30
0.0
 11
382.7290475537563
 21
436.0953494397771
 31
0.0
  0
LINE
  5
1EF6C
330
1E799
100
AcDbEntity
  8
30
  6
Continuous
 62
     0
440
 16777216
370
    -2
100
AcDbLine
 10
406.0623808870896
 20
436.0953494397771
 30
0.0
 11
398.0623808870896
 21
436.0953494397771
 31
0.0
  0
INSERT
  5
1EF6D
330
1E799
100
AcDbEntity
  8
30
  6
Continuous
 62
     0
440
 16777216
370
    -2
100
AcDbBlockReference
  2
_OPEN
 10
406.0623808870896
 20
436.0953494397771
 30
0.0
 41
2.0
 42
2.0
 43
2.0
 50
180.0
  0
INSERT
  5
1EF6E
330
1E799
100
AcDbEntity
  8
30
  6
Continuous
 62
     0
440
 16777216
370
    -2
100
AcDbBlockReference
  2
_OPEN
 10
398.0623808870896
 20
436.0953494397771
 30
0.0
 41
2.0
 42
2.0
 43
2.0
  0
MTEXT
  5
1EF6F
330
1E799
100
AcDbEntity
  8
30
  6
Continuous
 62
     0
440
 16777216
100
AcDbMText
 10
388.3957142204229
 20
443.0953494397771
 30
0.0
 40
8.0
 41
0.0
 46
0.0
 71
     5
 72
     1
  1
\A1;8
 73
     1
 44
1.0
  0
POINT
  5
1EF70
330
1E799
100
AcDbEntity
  8
DEFPOINTS
  6
Continuous
 62
     0
440
 16777216
100
AcDbPoint
 10
406.0623808870896
 20
554.0
 30
0.0
  0
POINT
  5
1EF71
330
1E799
100
AcDbEntity
  8
DEFPOINTS
  6
Continuous
 62
     0
440
 16777216
100
AcDbPoint
 10
398.0623808870896
 20
554.0
 30
0.0
  0
POINT
  5
1EF72
330
1E799
100
AcDbEntity
  8
DEFPOINTS
  6
Continuous
 62
     0
440
 16777216
100
AcDbPoint
 10
398.0623808870896
 20
436.0953494397771
 30
0.0
  0
ENDBLK
  5
1E79B
330
1E799
100
AcDbEntity
  8
0
100
AcDbBlockEnd
  0
BLOCK
  5
1E7A8
330
1E7A7
100
AcDbEntity
  8
0
100
AcDbBlockBegin
  2
*D19
 70
     1
 10
0.0
 20
0.0
 30
0.0
  3
*D19
  1

  0
LINE
  5
1EF73
330
1E7A7
100
AcDbEntity
  8
30
  6
Continuous
 62
     0
440
 16777216
370
    -2
100
AcDbLine
 10
406.0623808870896
 20
437.0953494397771
 30
0.0
 11
406.0623808870896
 21
436.595349439777
 31
0.0
  0
LINE
  5
1EF74
330
1E7A7
100
AcDbEntity
  8
30
  6
Continuous
 62
     0
440
 16777216
370
    -2
100
AcDbLine
 10
513.0623810060897
 20
451.3348303280521
 30
0.0
 11
513.0623810060897
 21
435.5953494397771
 31
0.0
  0
LINE
  5
1EF75
330
1E7A7
100
AcDbEntity
  8
30
  6
Continuous
 62
     0
440
 16777216
370
    -2
100
AcDbLine
 10
408.0623808870895
 20
436.0953494397771
 30
0.0
 11
511.0623810060896
 21
436.0953494397771
 31
0.0
  0
INSERT
  5
1EF76
330
1E7A7
100
AcDbEntity
  8
30
  6
Continuous
 62
     0
440
 16777216
370
    -2
100
AcDbBlockReference
  2
_OPEN
 10
406.0623808870896
 20
436.0953494397771
 30
0.0
 41
2.0
 42
2.0
 43
2.0
 50
180.0
  0
INSERT
  5
1EF77
330
1E7A7
100
AcDbEntity
  8
30
  6
Continuous
 62
     0
440
 16777216
370
    -2
100
AcDbBlockReference
  2
_OPEN
 10
513.0623810060897
 20
436.0953494397771
 30
0.0
 41
2.0
 42
2.0
 43
2.0
  0
MTEXT
  5
1EF78
330
1E7A7
100
AcDbEntity
  8
30
  6
Continuous
440
 16777216
100
AcDbMText
 10
459.5623809465896
 20
443.0953494397771
 30
0.0
 40
8.0
 41
0.0
 46
0.0
 71
     5
 72
     1
  1
\A1;107
 73
     1
 44
1.0
 90
        3
 63
     9
421
 13158600
 45
1.25
441
        0
  0
POINT
  5
1EF79
330
1E7A7
100
AcDbEntity
  8
DEFPOINTS
  6
Continuous
 62
     0
440
 16777216
100
AcDbPoint
 10
406.0623808870896
 20
436.0953494397771
 30
0.0
  0
POINT
  5
1EF7A
330
1E7A7
100
AcDbEntity
  8
DEFPOINTS
  6
Continuous
 62
     0
440
 16777216
100
AcDbPoint
 10
513.0623810060897
 20
452.3348303280521
 30
0.0
  0
POINT
  5
1EF7B
330
1E7A7
100
AcDbEntity
  8
DEFPOINTS
  6
Continuous
 62
     0
440
 16777216
100
AcDbPoint
 10
513.0623810060897
 20
436.0953494397771
 30
0.0
  0
ENDBLK
  5
1E7A9
330
1E7A7
100
AcDbEntity
  8
0
100
AcDbBlockEnd
  0
BLOCK
  5
1E7B4
330
1E7B3
100
AcDbEntity
  8
0
100
AcDbBlockBegin
  2
*D20
 70
     1
 10
0.0
 20
0.0
 30
0.0
  3
*D20
  1

  0
LINE
  5
1EF9E
330
1E7B3
100
AcDbEntity
  8
30
  6
Continuous
 62
     0
440
 16777216
370
    -2
100
AcDbLine
 10
151.9854628437006
 20
464.973241998392
 30
0.0
 11
151.9854628437006
 21
433.5840344571223
 31
0.0
  0
LINE
  5
1EF9F
330
1E7B3
100
AcDbEntity
  8
30
  6
Continuous
 62
     0
440
 16777216
370
    -2
100
AcDbLine
 10
129.4854628437006
 20
465.3990331162876
 30
0.0
 11
129.4854628437006
 21
433.5840344571223
 31
0.0
  0
LINE
  5
1EFA0
330
1E7B3
100
AcDbEntity
  8
30
  6
Continuous
 62
     0
440
 16777216
370
    -2
100
AcDbLine
 10
149.9854628437006
 20
434.0840344571224
 30
0.0
 11
131.4854628437006
 21
434.0840344571224
 31
0.0
  0
LINE
  5
1EFA1
330
1E7B3
100
AcDbEntity
  8
30
  6
Continuous
 62
     0
440
 16777216
370
    -2
100
AcDbLine
 10
129.4854628437006
 20
434.0840344571224
 30
0.0
 11
97.48546284370059
 21
434.0840344571224
 31
0.0
  0
INSERT
  5
1EFA2
330
1E7B3
100
AcDbEntity
  8
30
  6
Continuous
 62
     0
440
 16777216
370
    -2
100
AcDbBlockReference
  2
_OPEN
 10
151.9854628437006
 20
434.0840344571224
 30
0.0
 41
2.0
 42
2.0
 43
2.0
  0
INSERT
  5
1EFA3
330
1E7B3
100
AcDbEntity
  8
30
  6
Continuous
 62
     0
440
 16777216
370
    -2
100
AcDbBlockReference
  2
_OPEN
 10
129.4854628437006
 20
434.0840344571224
 30
0.0
 41
2.0
 42
2.0
 43
2.0
 50
180.0
  0
MTEXT
  5
1EFA4
330
1E7B3
100
AcDbEntity
  8
30
  6
Continuous
440
 16777216
100
AcDbMText
 10
112.4854628437006
 20
441.0840344571223
 30
0.0
 40
8.0
 41
0.0
 46
0.0
 71
     5
 72
     1
  1
\A1;22.5
 73
     1
 44
1.0
 90
        3
 63
     9
421
 13158600
 45
1.25
441
        0
  0
POINT
  5
1EFA5
330
1E7B3
100
AcDbEntity
  8
DEFPOINTS
  6
Continuous
 62
     0
440
 16777216
100
AcDbPoint
 10
151.9854628437006
 20
465.9732419983921
 30
0.0
  0
POINT
  5
1EFA6
330
1E7B3
100
AcDbEntity
  8
DEFPOINTS
  6
Continuous
 62
     0
440
 16777216
100
AcDbPoint
 10
129.4854628437006
 20
466.3990331162876
 30
0.0
  0
POINT
  5
1EFA7
330
1E7B3
100
AcDbEntity
  8
DEFPOINTS
  6
Continuous
 62
     0
440
 16777216
100
AcDbPoint
 10
129.4854628437006
 20
434.0840344571224
 30
0.0
  0
ENDBLK
  5
1E7B5
330
1E7B3
100
AcDbEntity
  8
0
100
AcDbBlockEnd
  0
BLOCK
  5
1E7C1
330
1E7C0
100
AcDbEntity
  8
0
100
AcDbBlockBegin
  2
*D21
 70
     1
 10
0.0
 20
0.0
 30
0.0
  3
*D21
  1

  0
LINE
  5
1E8FB
330
1E7C0
100
AcDbEntity
  8
30
 62
     0
440
 16777216
370
    -2
100
AcDbLine
 10
84.44983639280872
 20
100.4531278759599
 30
0.0
 11
84.44983639280872
 21
46.45668450142511
 31
0.0
  0
LINE
  5
1E8FC
330
1E7C0
100
AcDbEntity
  8
30
 62
     0
440
 16777216
370
    -2
100
AcDbLine
 10
129.4498363928092
 20
100.4531278759599
 30
0.0
 11
129.4498363928092
 21
46.45668450142511
 31
0.0
  0
LINE
  5
1E8FD
330
1E7C0
100
AcDbEntity
  8
30
 62
     0
440
 16777216
370
    -2
100
AcDbLine
 10
86.44983639280871
 20
46.95668450142512
 30
0.0
 11
127.4498363928092
 21
46.95668450142512
 31
0.0
  0
INSERT
  5
1E8FE
330
1E7C0
100
AcDbEntity
  8
30
 62
     0
440
 16777216
370
    -2
100
AcDbBlockReference
  2
_OPEN
 10
84.44983639280872
 20
46.95668450142512
 30
0.0
 41
2.0
 42
2.0
 43
2.0
 50
180.0
  0
INSERT
  5
1E8FF
330
1E7C0
100
AcDbEntity
  8
30
 62
     0
440
 16777216
370
    -2
100
AcDbBlockReference
  2
_OPEN
 10
129.4498363928092
 20
46.95668450142512
 30
0.0
 41
2.0
 42
2.0
 43
2.0
  0
MTEXT
  5
1E900
330
1E7C0
100
AcDbEntity
  8
30
440
 16777216
100
AcDbMText
 10
106.9498363928089
 20
53.95668450142512
 30
0.0
 40
8.0
 41
0.0
 46
0.0
 71
     5
 72
     1
  1
\A1;45
 73
     1
 44
1.0
 90
        3
 63
     9
421
 13158600
 45
1.25
441
        0
  0
POINT
  5
1E901
330
1E7C0
100
AcDbEntity
  8
DEFPOINTS
 62
     0
440
 16777216
100
AcDbPoint
 10
84.44983639280872
 20
101.4531278759599
 30
0.0
  0
POINT
  5
1E902
330
1E7C0
100
AcDbEntity
  8
DEFPOINTS
 62
     0
440
 16777216
100
AcDbPoint
 10
129.4498363928092
 20
101.4531278759599
 30
0.0
  0
POINT
  5
1E903
330
1E7C0
100
AcDbEntity
  8
DEFPOINTS
 62
     0
440
 16777216
100
AcDbPoint
 10
129.4498363928092
 20
46.95668450142512
 30
0.0
  0
ENDBLK
  5
1E7C2
330
1E7C0
100
AcDbEntity
  8
0
100
AcDbBlockEnd
  0
BLOCK
  5
1E7CD
330
1E7CC
100
AcDbEntity
  8
0
100
AcDbBlockBegin
  2
*D22
 70
     1
 10
0.0
 20
0.0
 30
0.0
  3
*D22
  1

  0
LINE
  5
1EDD0
330
1E7CC
100
AcDbEntity
  8
30
  6
Continuous
 62
     0
440
 16777216
370
    -2
100
AcDbLine
 10
219.5846247805509
 20
1022.73593421291
 30
0.0
 11
278.3400543611023
 21
1022.735934212909
 31
0.0
  0
LINE
  5
1EDD1
330
1E7CC
100
AcDbEntity
  8
30
  6
Continuous
 62
     0
440
 16777216
370
    -2
100
AcDbLine
 10
246.8997641033509
 20
907.7359342129099
 30
0.0
 11
278.3400543611023
 21
907.7359342129097
 31
0.0
  0
LINE
  5
1EDD2
330
1E7CC
100
AcDbEntity
  8
30
  6
Continuous
 62
     0
440
 16777216
370
    -2
100
AcDbLine
 10
277.8400543611023
 20
1020.735934212909
 30
0.0
 11
277.8400543611023
 21
909.7359342129097
 31
0.0
  0
INSERT
  5
1EDD3
330
1E7CC
100
AcDbEntity
  8
30
  6
Continuous
 62
     0
440
 16777216
370
    -2
100
AcDbBlockReference
  2
_OPEN
 10
277.8400543611023
 20
1022.735934212909
 30
0.0
 41
2.0
 42
2.0
 43
2.0
 50
90.0
  0
INSERT
  5
1EDD4
330
1E7CC
100
AcDbEntity
  8
30
  6
Continuous
 62
     0
440
 16777216
370
    -2
100
AcDbBlockReference
  2
_OPEN
 10
277.8400543611023
 20
907.7359342129097
 30
0.0
 41
2.0
 42
2.0
 43
2.0
 50
270.0
  0
MTEXT
  5
1EDD5
330
1E7CC
100
AcDbEntity
  8
30
  6
Continuous
440
 16777216
100
AcDbMText
 10
266.8400543611022
 20
965.2359342129097
 30
0.0
 40
8.0
 41
0.0
 46
0.0
 71
     2
 72
     1
  1
\A1;115
 11
0.0000000000000003
 21
1.0
 31
0.0
 73
     1
 44
1.0
 90
        3
 63
     9
421
 13158600
 45
1.25
441
        0
  0
POINT
  5
1EDD6
330
1E7CC
100
AcDbEntity
  8
DEFPOINTS
  6
Continuous
 62
     0
440
 16777216
100
AcDbPoint
 10
218.584624780551
 20
1022.73593421291
 30
0.0
  0
POINT
  5
1EDD7
330
1E7CC
100
AcDbEntity
  8
DEFPOINTS
  6
Continuous
 62
     0
440
 16777216
100
AcDbPoint
 10
245.8997641033509
 20
907.7359342129099
 30
0.0
  0
POINT
  5
1EDD8
330
1E7CC
100
AcDbEntity
  8
DEFPOINTS
  6
Continuous
 62
     0
440
 16777216
100
AcDbPoint
 10
277.8400543611023
 20
907.7359342129097
 30
0.0
  0
ENDBLK
  5
1E7CE
330
1E7CC
100
AcDbEntity
  8
0
100
AcDbBlockEnd
  0
BLOCK
  5
1E7D9
330
1E7D8
100
AcDbEntity
  8
0
100
AcDbBlockBegin
  2
*D23
 70
     1
 10
0.0
 20
0.0
 30
0.0
  3
*D23
  1

  0
LINE
  5
1EDD9
330
1E7D8
100
AcDbEntity
  8
30
  6
Continuous
 62
     0
440
 16777216
370
    -2
100
AcDbLine
 10
230.8777924857511
 20
1038.73593421291
 30
0.0
 11
298.3400543611023
 21
1038.73593421291
 31
0.0
  0
LINE
  5
1EDDA
330
1E7D8
100
AcDbEntity
  8
30
  6
Continuous
 62
     0
440
 16777216
370
    -2
100
AcDbLine
 10
246.8997641033509
 20
907.7359342129099
 30
0.0
 11
298.3400543611023
 21
907.7359342129097
 31
0.0
  0
LINE
  5
1EDDB
330
1E7D8
100
AcDbEntity
  8
30
  6
Continuous
 62
     0
440
 16777216
370
    -2
100
AcDbLine
 10
297.8400543611023
 20
1036.73593421291
 30
0.0
 11
297.8400543611023
 21
909.7359342129097
 31
0.0
  0
INSERT
  5
1EDDC
330
1E7D8
100
AcDbEntity
  8
30
  6
Continuous
 62
     0
440
 16777216
370
    -2
100
AcDbBlockReference
  2
_OPEN
 10
297.8400543611023
 20
1038.73593421291
 30
0.0
 41
2.0
 42
2.0
 43
2.0
 50
90.0
  0
INSERT
  5
1EDDD
330
1E7D8
100
AcDbEntity
  8
30
  6
Continuous
 62
     0
440
 16777216
370
    -2
100
AcDbBlockReference
  2
_OPEN
 10
297.8400543611023
 20
907.7359342129097
 30
0.0
 41
2.0
 42
2.0
 43
2.0
 50
270.0
  0
MTEXT
  5
1EDDE
330
1E7D8
100
AcDbEntity
  8
30
  6
Continuous
440
 16777216
100
AcDbMText
 10
286.8400543611023
 20
973.23593421291
 30
0.0
 40
8.0
 41
0.0
 46
0.0
 71
     2
 72
     1
  1
\A1;131
 11
0.0000000000000003
 21
1.0
 31
0.0
 73
     1
 44
1.0
 90
        3
 63
     9
421
 13158600
 45
1.25
441
        0
  0
POINT
  5
1EDDF
330
1E7D8
100
AcDbEntity
  8
DEFPOINTS
  6
Continuous
 62
     0
440
 16777216
100
AcDbPoint
 10
229.8777924857511
 20
1038.73593421291
 30
0.0
  0
POINT
  5
1EDE0
330
1E7D8
100
AcDbEntity
  8
DEFPOINTS
  6
Continuous
 62
     0
440
 16777216
100
AcDbPoint
 10
245.8997641033509
 20
907.7359342129099
 30
0.0
  0
POINT
  5
1EDE1
330
1E7D8
100
AcDbEntity
  8
DEFPOINTS
  6
Continuous
 62
     0
440
 16777216
100
AcDbPoint
 10
297.8400543611023
 20
907.7359342129097
 30
0.0
  0
ENDBLK
  5
1E7DA
330
1E7D8
100
AcDbEntity
  8
0
100
AcDbBlockEnd
  0
BLOCK
  5
1E80C
330
1E80B
100
AcDbEntity
  8
0
100
AcDbBlockBegin
  2
*D24
 70
     1
 10
0.0
 20
0.0
 30
0.0
  3
*D24
  1

  0
LINE
  5
1EDE2
330
1E80B
100
AcDbEntity
  8
30
  6
Continuous
 62
     0
440
 16777216
370
    -2
100
AcDbLine
 10
154.5846247805509
 20
922.4359342129098
 30
0.0
 11
258.3400543611023
 21
922.4359342129098
 31
0.0
  0
LINE
  5
1EDE3
330
1E80B
100
AcDbEntity
  8
30
  6
Continuous
 62
     0
440
 16777216
370
    -2
100
AcDbLine
 10
244.5846247805509
 20
907.7359342129099
 30
0.0
 11
258.3400543611023
 21
907.7359342129097
 31
0.0
  0
LINE
  5
1EDE4
330
1E80B
100
AcDbEntity
  8
30
  6
Continuous
 62
     0
440
 16777216
370
    -2
100
AcDbLine
 10
257.8400543611023
 20
920.4359342129096
 30
0.0
 11
257.8400543611023
 21
909.7359342129097
 31
0.0
  0
LINE
  5
1EDE5
330
1E80B
100
AcDbEntity
  8
30
  6
Continuous
 62
     0
440
 16777216
370
    -2
100
AcDbLine
 10
257.8400543611023
 20
907.7359342129097
 30
0.0
 11
257.8400543611023
 21
872.8087875554431
 31
0.0
  0
INSERT
  5
1EDE6
330
1E80B
100
AcDbEntity
  8
30
  6
Continuous
 62
     0
440
 16777216
370
    -2
100
AcDbBlockReference
  2
_OPEN
 10
257.8400543611023
 20
922.4359342129098
 30
0.0
 41
2.0
 42
2.0
 43
2.0
 50
90.0
  0
INSERT
  5
1EDE7
330
1E80B
100
AcDbEntity
  8
30
  6
Continuous
 62
     0
440
 16777216
370
    -2
100
AcDbBlockReference
  2
_OPEN
 10
257.8400543611023
 20
907.7359342129097
 30
0.0
 41
2.0
 42
2.0
 43
2.0
 50
270.0
  0
MTEXT
  5
1EDE8
330
1E80B
100
AcDbEntity
  8
30
  6
Continuous
440
 16777216
100
AcDbMText
 10
246.8400543611023
 20
886.4754542221099
 30
0.0
 40
8.0
 41
0.0
 46
0.0
 71
     2
 72
     1
  1
\A1;14.7
 11
0.0000000000000003
 21
1.0
 31
0.0
 73
     1
 44
1.0
 90
        3
 63
     9
421
 13158600
 45
1.25
441
        0
  0
POINT
  5
1EDE9
330
1E80B
100
AcDbEntity
  8
DEFPOINTS
  6
Continuous
 62
     0
440
 16777216
100
AcDbPoint
 10
153.5846247805509
 20
922.4359342129098
 30
0.0
  0
POINT
  5
1EDEA
330
1E80B
100
AcDbEntity
  8
DEFPOINTS
  6
Continuous
 62
     0
440
 16777216
100
AcDbPoint
 10
243.584624780551
 20
907.7359342129099
 30
0.0
  0
POINT
  5
1EDEB
330
1E80B
100
AcDbEntity
  8
DEFPOINTS
  6
Continuous
 62
     0
440
 16777216
100
AcDbPoint
 10
257.8400543611023
 20
907.7359342129097
 30
0.0
  0
ENDBLK
  5
1E80D
330
1E80B
100
AcDbEntity
  8
0
100
AcDbBlockEnd
  0
BLOCK
  5
1E819
330
1E818
100
AcDbEntity
  8
0
100
AcDbBlockBegin
  2
*D25
 70
     1
 10
0.0
 20
0.0
 30
0.0
  3
*D25
  1

  0
LINE
  5
1EDEC
330
1E818
100
AcDbEntity
  8
30
  6
Continuous
 62
     0
440
 16777216
370
    -2
100
AcDbLine
 10
71.48546284370059
 20
558.4938972774823
 30
0.0
 11
71.48546284370059
 21
535.1551184310095
 31
0.0
  0
LINE
  5
1EDED
330
1E818
100
AcDbEntity
  8
30
  6
Continuous
 62
     0
440
 16777216
370
    -2
100
AcDbLine
 10
187.4854628437006
 20
558.4938972774823
 30
0.0
 11
187.4854628437006
 21
535.1551184310095
 31
0.0
  0
LINE
  5
1EDEE
330
1E818
100
AcDbEntity
  8
30
  6
Continuous
 62
     0
440
 16777216
370
    -2
100
AcDbLine
 10
73.48546284370056
 20
535.6551184310098
 30
0.0
 11
185.4854628437006
 21
535.6551184310098
 31
0.0
  0
INSERT
  5
1EDEF
330
1E818
100
AcDbEntity
  8
30
  6
Continuous
 62
     0
440
 16777216
370
    -2
100
AcDbBlockReference
  2
_OPEN
 10
71.48546284370059
 20
535.6551184310098
 30
0.0
 41
2.0
 42
2.0
 43
2.0
 50
180.0
  0
INSERT
  5
1EDF0
330
1E818
100
AcDbEntity
  8
30
  6
Continuous
 62
     0
440
 16777216
370
    -2
100
AcDbBlockReference
  2
_OPEN
 10
187.4854628437006
 20
535.6551184310098
 30
0.0
 41
2.0
 42
2.0
 43
2.0
  0
MTEXT
  5
1EDF1
330
1E818
100
AcDbEntity
  8
30
  6
Continuous
440
 16777216
100
AcDbMText
 10
129.4854628437006
 20
542.6551184310095
 30
0.0
 40
8.0
 41
0.0
 46
0.0
 71
     5
 72
     1
  1
\A1;116
 73
     1
 44
1.0
 90
        3
 63
     9
421
 13158600
 45
1.25
441
        0
  0
POINT
  5
1EDF2
330
1E818
100
AcDbEntity
  8
DEFPOINTS
  6
Continuous
 62
     0
440
 16777216
100
AcDbPoint
 10
71.48546284370059
 20
559.4938972774823
 30
0.0
  0
POINT
  5
1EDF3
330
1E818
100
AcDbEntity
  8
DEFPOINTS
  6
Continuous
 62
     0
440
 16777216
100
AcDbPoint
 10
187.4854628437006
 20
559.4938972774823
 30
0.0
  0
POINT
  5
1EDF4
330
1E818
100
AcDbEntity
  8
DEFPOINTS
  6
Continuous
 62
     0
440
 16777216
100
AcDbPoint
 10
187.4854628437006
 20
535.6551184310098
 30
0.0
  0
ENDBLK
  5
1E81A
330
1E818
100
AcDbEntity
  8
0
100
AcDbBlockEnd
  0
BLOCK
  5
1E825
330
1E824
100
AcDbEntity
  8
0
100
AcDbBlockBegin
  2
*D26
 70
     1
 10
0.0
 20
0.0
 30
0.0
  3
*D26
  1

  0
LINE
  5
1EDF5
330
1E824
100
AcDbEntity
  8
30
  6
Continuous
 62
     0
440
 16777216
370
    -2
100
AcDbLine
 10
154.9854628437006
 20
649.4938972774822
 30
0.0
 11
154.9854628437006
 21
661.0210103932862
 31
0.0
  0
LINE
  5
1EDF6
330
1E824
100
AcDbEntity
  8
30
  6
Continuous
 62
     0
440
 16777216
370
    -2
100
AcDbLine
 10
104.0067523382008
 20
649.4938972774822
 30
0.0
 11
104.0067523382008
 21
661.0210103932862
 31
0.0
  0
LINE
  5
1EDF7
330
1E824
100
AcDbEntity
  8
30
  6
Continuous
 62
     0
440
 16777216
370
    -2
100
AcDbLine
 10
152.9854628437005
 20
660.5210103932862
 30
0.0
 11
106.0067523382008
 21
660.5210103932862
 31
0.0
  0
INSERT
  5
1EDF8
330
1E824
100
AcDbEntity
  8
30
  6
Continuous
 62
     0
440
 16777216
370
    -2
100
AcDbBlockReference
  2
_OPEN
 10
154.9854628437006
 20
660.5210103932862
 30
0.0
 41
2.0
 42
2.0
 43
2.0
  0
INSERT
  5
1EDF9
330
1E824
100
AcDbEntity
  8
30
  6
Continuous
 62
     0
440
 16777216
370
    -2
100
AcDbBlockReference
  2
_OPEN
 10
104.0067523382008
 20
660.5210103932862
 30
0.0
 41
2.0
 42
2.0
 43
2.0
 50
180.0
  0
MTEXT
  5
1EDFA
330
1E824
100
AcDbEntity
  8
30
  6
Continuous
440
 16777216
100
AcDbMText
 10
129.4961075909507
 20
667.5210103932862
 30
0.0
 40
8.0
 41
0.0
 46
0.0
 71
     5
 72
     1
  1
\A1;51
 73
     1
 44
1.0
 90
        3
 63
     9
421
 13158600
 45
1.25
441
        0
  0
POINT
  5
1EDFB
330
1E824
100
AcDbEntity
  8
DEFPOINTS
  6
Continuous
 62
     0
440
 16777216
100
AcDbPoint
 10
154.9854628437006
 20
648.4938972774822
 30
0.0
  0
POINT
  5
1EDFC
330
1E824
100
AcDbEntity
  8
DEFPOINTS
  6
Continuous
 62
     0
440
 16777216
100
AcDbPoint
 10
104.0067523382008
 20
648.4938972774822
 30
0.0
  0
POINT
  5
1EDFD
330
1E824
100
AcDbEntity
  8
DEFPOINTS
  6
Continuous
 62
     0
440
 16777216
100
AcDbPoint
 10
104.0067523382008
 20
660.5210103932862
 30
0.0
  0
ENDBLK
  5
1E826
330
1E824
100
AcDbEntity
  8
0
100
AcDbBlockEnd
  0
BLOCK
  5
1E831
330
1E830
100
AcDbEntity
  8
0
100
AcDbBlockBegin
  2
*D27
 70
     1
 10
0.0
 20
0.0
 30
0.0
  3
*D27
  1

  0
LINE
  5
1EF31
330
1E830
100
AcDbEntity
  8
30
  6
Continuous
 62
     0
440
 16777216
370
    -2
100
AcDbLine
 10
632.0623810060898
 20
718.4938972774823
 30
0.0
 11
656.0358028067939
 21
718.4938972774823
 31
0.0
  0
LINE
  5
1EF32
330
1E830
100
AcDbEntity
  8
30
  6
Continuous
 62
     0
440
 16777216
370
    -2
100
AcDbLine
 10
632.0623810060898
 20
490.4938972774815
 30
0.0
 11
656.0358028067939
 21
490.4938972774814
 31
0.0
  0
LINE
  5
1EF33
330
1E830
100
AcDbEntity
  8
30
  6
Continuous
 62
     0
440
 16777216
370
    -2
100
AcDbLine
 10
655.5358028067939
 20
716.4938972774823
 30
0.0
 11
655.5358028067939
 21
492.4938972774815
 31
0.0
  0
INSERT
  5
1EF34
330
1E830
100
AcDbEntity
  8
30
  6
Continuous
 62
     0
440
 16777216
370
    -2
100
AcDbBlockReference
  2
_OPEN
 10
655.5358028067939
 20
718.4938972774823
 30
0.0
 41
2.0
 42
2.0
 43
2.0
 50
90.0
  0
INSERT
  5
1EF35
330
1E830
100
AcDbEntity
  8
30
  6
Continuous
 62
     0
440
 16777216
370
    -2
100
AcDbBlockReference
  2
_OPEN
 10
655.5358028067939
 20
490.4938972774814
 30
0.0
 41
2.0
 42
2.0
 43
2.0
 50
270.0
  0
MTEXT
  5
1EF36
330
1E830
100
AcDbEntity
  8
30
  6
Continuous
440
 16777216
100
AcDbMText
 10
648.5358028067938
 20
604.4938972774821
 30
0.0
 40
8.0
 41
0.0
 46
0.0
 71
     5
 72
     1
  1
\A1;228
 11
0.0000000000000001
 21
1.0
 31
0.0
 73
     1
 44
1.0
 90
        3
 63
     9
421
 13158600
 45
1.25
441
        0
  0
POINT
  5
1EF37
330
1E830
100
AcDbEntity
  8
DEFPOINTS
  6
Continuous
 62
     0
440
 16777216
100
AcDbPoint
 10
631.0623810060898
 20
718.4938972774823
 30
0.0
  0
POINT
  5
1EF38
330
1E830
100
AcDbEntity
  8
DEFPOINTS
  6
Continuous
 62
     0
440
 16777216
100
AcDbPoint
 10
631.0623810060898
 20
490.4938972774815
 30
0.0
  0
POINT
  5
1EF39
330
1E830
100
AcDbEntity
  8
DEFPOINTS
  6
Continuous
 62
     0
440
 16777216
100
AcDbPoint
 10
655.5358028067939
 20
490.4938972774814
 30
0.0
  0
ENDBLK
  5
1E832
330
1E830
100
AcDbEntity
  8
0
100
AcDbBlockEnd
  0
BLOCK
  5
1E83D
330
1E83C
100
AcDbEntity
  8
0
100
AcDbBlockBegin
  2
*D28
 70
     1
 10
0.0
 20
0.0
 30
0.0
  3
*D28
  1

  0
LINE
  5
1EDB4
330
1E83C
100
AcDbEntity
  8
30
  6
Continuous
 62
     0
440
 16777216
370
    -2
100
AcDbLine
 10
245.4854628437006
 20
734.4938972774823
 30
0.0
 11
293.2499153835717
 21
734.4938972774823
 31
0.0
  0
LINE
  5
1EDB5
330
1E83C
100
AcDbEntity
  8
30
  6
Continuous
 62
     0
440
 16777216
370
    -2
100
AcDbLine
 10
245.4854628437006
 20
474.4938972774822
 30
0.0
 11
293.2499153835715
 21
474.4938972774822
 31
0.0
  0
LINE
  5
1EDB6
330
1E83C
100
AcDbEntity
  8
30
  6
Continuous
 62
     0
440
 16777216
370
    -2
100
AcDbLine
 10
292.7499153835717
 20
732.4938972774823
 30
0.0
 11
292.7499153835715
 21
476.4938972774823
 31
0.0
  0
INSERT
  5
1EDB7
330
1E83C
100
AcDbEntity
  8
30
  6
Continuous
 62
     0
440
 16777216
370
    -2
100
AcDbBlockReference
  2
_OPEN
 10
292.7499153835717
 20
734.4938972774823
 30
0.0
 41
2.0
 42
2.0
 43
2.0
 50
90.0
  0
INSERT
  5
1EDB8
330
1E83C
100
AcDbEntity
  8
30
  6
Continuous
 62
     0
440
 16777216
370
    -2
100
AcDbBlockReference
  2
_OPEN
 10
292.7499153835715
 20
474.4938972774822
 30
0.0
 41
2.0
 42
2.0
 43
2.0
 50
270.0
  0
MTEXT
  5
1EDB9
330
1E83C
100
AcDbEntity
  8
30
  6
Continuous
440
 16777216
100
AcDbMText
 10
285.7499153835714
 20
604.4938972774822
 30
0.0
 40
8.0
 41
0.0
 46
0.0
 71
     5
 72
     1
  1
\A1;260
 11
0.0000000000000001
 21
1.0
 31
0.0
 73
     1
 44
1.0
 90
        3
 63
     9
421
 13158600
 45
1.25
441
        0
  0
POINT
  5
1EDBA
330
1E83C
100
AcDbEntity
  8
DEFPOINTS
  6
Continuous
 62
     0
440
 16777216
100
AcDbPoint
 10
244.4854628437006
 20
734.4938972774823
 30
0.0
  0
POINT
  5
1EDBB
330
1E83C
100
AcDbEntity
  8
DEFPOINTS
  6
Continuous
 62
     0
440
 16777216
100
AcDbPoint
 10
244.4854628437006
 20
474.4938972774822
 30
0.0
  0
POINT
  5
1EDBC
330
1E83C
100
AcDbEntity
  8
DEFPOINTS
  6
Continuous
 62
     0
440
 16777216
100
AcDbPoint
 10
292.7499153835715
 20
474.4938972774822
 30
0.0
  0
ENDBLK
  5
1E83E
330
1E83C
100
AcDbEntity
  8
0
100
AcDbBlockEnd
  0
BLOCK
  5
1E849
330
1E848
100
AcDbEntity
  8
0
100
AcDbBlockBegin
  2
*D29
 70
     1
 10
0.0
 20
0.0
 30
0.0
  3
*D29
  1

  0
LINE
  5
1E96E
330
1E848
100
AcDbEntity
  8
30
  6
Continuous
 62
     0
440
 16777216
370
    -2
100
AcDbLine
 10
73.71393281186904
 20
108.3877595176103
 30
0.0
 11
50.18573997375028
 21
86.69849623430939
 31
0.0
  0
LINE
  5
1E96F
330
1E848
100
AcDbEntity
  8
30
  6
Continuous
 62
     0
440
 16777216
370
    -2
100
AcDbLine
 10
48.71522792136794
 20
85.34291727910312
 30
0.0
 11
35.03486125843086
 21
72.7317883068935
 31
0.0
  0
LINE
  5
1E970
330
1E848
100
AcDbEntity
  8
30
  6
Continuous
 62
     0
440
 16777216
370
    -2
100
AcDbLine
 10
35.03486125843086
 20
72.7317883068935
 30
0.0
 11
10.70152792509752
 21
72.7317883068935
 31
0.0
  0
INSERT
  5
1E971
330
1E848
100
AcDbEntity
  8
30
  6
Continuous
 62
     0
440
 16777216
370
    -2
100
AcDbBlockReference
  2
_OPEN
 10
75.18444486425145
 20
109.7433384728166
 30
0.0
 41
2.0
 42
2.0
 43
2.0
 50
42.67114558863731
  0
INSERT
  5
1E972
330
1E848
100
AcDbEntity
  8
30
  6
Continuous
 62
     0
440
 16777216
370
    -2
100
AcDbBlockReference
  2
_OPEN
 10
48.71522792136794
 20
85.34291727910312
 30
0.0
 41
2.0
 42
2.0
 43
2.0
 50
222.6711455886373
  0
MTEXT
  5
1E973
330
1E848
100
AcDbEntity
  8
30
  6
Continuous
 62
     0
440
 16777216
100
AcDbMText
 10
21.36819459176423
 20
79.73178830689345
 30
0.0
 40
8.0
 41
0.0
 46
0.0
 71
     5
 72
     1
  1
\A1;∅36
 73
     1
 44
1.0
  0
POINT
  5
1E974
330
1E848
100
AcDbEntity
  8
DEFPOINTS
  6
Continuous
 62
     0
440
 16777216
100
AcDbPoint
 10
48.71522792136794
 20
85.34291727910312
 30
0.0
  0
POINT
  5
1E975
330
1E848
100
AcDbEntity
  8
DEFPOINTS
  6
Continuous
 62
     0
440
 16777216
100
AcDbPoint
 10
75.18444486425145
 20
109.7433384728166
 30
0.0
  0
ENDBLK
  5
1E84A
330
1E848
100
AcDbEntity
  8
0
100
AcDbBlockEnd
  0
BLOCK
  5
1E854
330
1E853
100
AcDbEntity
  8
0
100
AcDbBlockBegin
  2
*D30
 70
     1
 10
0.0
 20
0.0
 30
0.0
  3
*D30
  1

  0
LINE
  5
1E976
330
1E853
100
AcDbEntity
  8
30
  6
Continuous
 62
     0
440
 16777216
370
    -2
100
AcDbLine
 10
221.5566936394175
 20
325.4531278759599
 30
0.0
 11
265.5361388275497
 21
325.4531278759599
 31
0.0
  0
LINE
  5
1E977
330
1E853
100
AcDbEntity
  8
30
  6
Continuous
 62
     0
440
 16777216
370
    -2
100
AcDbLine
 10
221.5566936394175
 20
97.45312787595993
 30
0.0
 11
265.5361388275496
 21
97.45312787595993
 31
0.0
  0
LINE
  5
1E978
330
1E853
100
AcDbEntity
  8
30
  6
Continuous
 62
     0
440
 16777216
370
    -2
100
AcDbLine
 10
265.0361388275497
 20
323.4531278759599
 30
0.0
 11
265.0361388275495
 21
99.45312787595995
 31
0.0
  0
INSERT
  5
1E979
330
1E853
100
AcDbEntity
  8
30
  6
Continuous
 62
     0
440
 16777216
370
    -2
100
AcDbBlockReference
  2
_OPEN
 10
265.0361388275497
 20
325.4531278759599
 30
0.0
 41
2.0
 42
2.0
 43
2.0
 50
90.0
  0
INSERT
  5
1E97A
330
1E853
100
AcDbEntity
  8
30
  6
Continuous
 62
     0
440
 16777216
370
    -2
100
AcDbBlockReference
  2
_OPEN
 10
265.0361388275495
 20
97.45312787595993
 30
0.0
 41
2.0
 42
2.0
 43
2.0
 50
270.0
  0
MTEXT
  5
1E97B
330
1E853
100
AcDbEntity
  8
30
  6
Continuous
440
 16777216
100
AcDbMText
 10
258.0361388275496
 20
211.4531278759599
 30
0.0
 40
8.0
 41
0.0
 46
0.0
 71
     5
 72
     1
  1
\A1;228
 11
0.0000000000000001
 21
1.0
 31
0.0
 73
     1
 44
1.0
 90
        3
 63
     9
421
 13158600
 45
1.25
441
        0
  0
POINT
  5
1E97C
330
1E853
100
AcDbEntity
  8
DEFPOINTS
  6
Continuous
 62
     0
440
 16777216
100
AcDbPoint
 10
220.5566936394175
 20
325.4531278759599
 30
0.0
  0
POINT
  5
1E97D
330
1E853
100
AcDbEntity
  8
DEFPOINTS
  6
Continuous
 62
     0
440
 16777216
100
AcDbPoint
 10
220.5566936394175
 20
97.45312787595993
 30
0.0
  0
POINT
  5
1E97E
330
1E853
100
AcDbEntity
  8
DEFPOINTS
  6
Continuous
 62
     0
440
 16777216
100
AcDbPoint
 10
265.0361388275495
 20
97.45312787595993
 30
0.0
  0
ENDBLK
  5
1E855
330
1E853
100
AcDbEntity
  8
0
100
AcDbBlockEnd
  0
BLOCK
  5
1E860
330
1E85F
100
AcDbEntity
  8
0
100
AcDbBlockBegin
  2
*D31
 70
     1
 10
0.0
 20
0.0
 30
0.0
  3
*D31
  1

  0
LINE
  5
1E97F
330
1E85F
100
AcDbEntity
  8
30
  6
Continuous
 62
     0
440
 16777216
370
    -2
100
AcDbLine
 10
137.8206195513994
 20
318.4531278759599
 30
0.0
 11
248.7618694366202
 21
318.4531278759599
 31
0.0
  0
LINE
  5
1E980
330
1E85F
100
AcDbEntity
  8
30
  6
Continuous
 62
     0
440
 16777216
370
    -2
100
AcDbLine
 10
137.4498363928092
 20
104.4531278759599
 30
0.0
 11
248.7618694366202
 21
104.4531278759599
 31
0.0
  0
LINE
  5
1E981
330
1E85F
100
AcDbEntity
  8
30
  6
Continuous
 62
     0
440
 16777216
370
    -2
100
AcDbLine
 10
248.2618694366202
 20
316.4531278759599
 30
0.0
 11
248.2618694366202
 21
106.4531278759599
 31
0.0
  0
INSERT
  5
1E982
330
1E85F
100
AcDbEntity
  8
30
  6
Continuous
 62
     0
440
 16777216
370
    -2
100
AcDbBlockReference
  2
_OPEN
 10
248.2618694366202
 20
318.4531278759599
 30
0.0
 41
2.0
 42
2.0
 43
2.0
 50
90.0
  0
INSERT
  5
1E983
330
1E85F
100
AcDbEntity
  8
30
  6
Continuous
 62
     0
440
 16777216
370
    -2
100
AcDbBlockReference
  2
_OPEN
 10
248.2618694366202
 20
104.4531278759599
 30
0.0
 41
2.0
 42
2.0
 43
2.0
 50
270.0
  0
MTEXT
  5
1E984
330
1E85F
100
AcDbEntity
  8
30
  6
Continuous
440
 16777216
100
AcDbMText
 10
241.2618694366202
 20
211.4531278759599
 30
0.0
 40
8.0
 41
0.0
 46
0.0
 71
     5
 72
     1
  1
\A1;214
 11
0.0000000000000001
 21
1.0
 31
0.0
 73
     1
 44
1.0
 90
        3
 63
     9
421
 13158600
 45
1.25
441
        0
  0
POINT
  5
1E985
330
1E85F
100
AcDbEntity
  8
DEFPOINTS
  6
Continuous
 62
     0
440
 16777216
100
AcDbPoint
 10
136.8206195513994
 20
318.4531278759599
 30
0.0
  0
POINT
  5
1E986
330
1E85F
100
AcDbEntity
  8
DEFPOINTS
  6
Continuous
 62
     0
440
 16777216
100
AcDbPoint
 10
136.4498363928092
 20
104.4531278759599
 30
0.0
  0
POINT
  5
1E987
330
1E85F
100
AcDbEntity
  8
DEFPOINTS
  6
Continuous
 62
     0
440
 16777216
100
AcDbPoint
 10
248.2618694366202
 20
104.4531278759599
 30
0.0
  0
ENDBLK
  5
1E861
330
1E85F
100
AcDbEntity
  8
0
100
AcDbBlockEnd
  0
BLOCK
  5
1E99B
330
1E99A
100
AcDbEntity
  8
0
100
AcDbBlockBegin
  2
*D32
 70
     1
 10
0.0
 20
0.0
 30
0.0
  3
*D32
  1

  0
LINE
  5
1E99C
330
1E99A
100
AcDbEntity
  8
30
  6
Continuous
 62
     0
370
    -2
100
AcDbLine
 10
107.3588931977125
 20
958.7359363067587
 30
0.0
 11
107.3588931977125
 21
987.4528506560706
 31
0.0
  0
LINE
  5
1E99D
330
1E99A
100
AcDbEntity
  8
30
  6
Continuous
 62
     0
370
    -2
100
AcDbLine
 10
94.35889319771252
 20
958.7359363067587
 30
0.0
 11
94.35889319771256
 21
987.4528506560706
 31
0.0
  0
LINE
  5
1E99E
330
1E99A
100
AcDbEntity
  8
30
  6
Continuous
 62
     0
370
    -2
100
AcDbLine
 10
105.3588931977125
 20
986.9528506560703
 30
0.0
 11
96.35889319771251
 21
986.9528506560703
 31
0.0
  0
LINE
  5
1E99F
330
1E99A
100
AcDbEntity
  8
30
  6
Continuous
 62
     0
370
    -2
100
AcDbLine
 10
94.35889319771256
 20
986.9528506560703
 30
0.0
 11
67.45479980197915
 21
986.9528506560703
 31
0.0
  0
INSERT
  5
1E9A0
330
1E99A
100
AcDbEntity
  8
30
  6
Continuous
 62
     0
370
    -2
100
AcDbBlockReference
  2
_OPEN
 10
107.3588931977125
 20
986.9528506560703
 30
0.0
 41
2.0
 42
2.0
 43
2.0
  0
INSERT
  5
1E9A1
330
1E99A
100
AcDbEntity
  8
30
  6
Continuous
 62
     0
370
    -2
100
AcDbBlockReference
  2
_OPEN
 10
94.35889319771256
 20
986.9528506560703
 30
0.0
 41
2.0
 42
2.0
 43
2.0
 50
180.0
  0
MTEXT
  5
1E9A2
330
1E99A
100
AcDbEntity
  8
30
  6
Continuous
100
AcDbMText
 10
75.78813313531248
 20
997.9528506560704
 30
0.0
 40
8.0
 41
0.0
 46
0.0
 71
     2
 72
     1
  1
\A1;13
 73
     1
 44
1.0
 90
        3
 63
     9
421
 13158600
 45
1.25
441
        0
  0
POINT
  5
1E9A3
330
1E99A
100
AcDbEntity
  8
DEFPOINTS
  6
Continuous
 62
     0
100
AcDbPoint
 10
107.3588931977124
 20
957.7359363067587
 30
0.0
  0
POINT
  5
1E9A4
330
1E99A
100
AcDbEntity
  8
DEFPOINTS
  6
Continuous
 62
     0
100
AcDbPoint
 10
94.3588931977124
 20
957.7359363067587
 30
0.0
  0
POINT
  5
1E9A5
330
1E99A
100
AcDbEntity
  8
DEFPOINTS
  6
Continuous
 62
     0
100
AcDbPoint
 10
94.3588931977124
 20
986.9528506560703
 30
0.0
  0
ENDBLK
  5
1E9A6
330
1E99A
100
AcDbEntity
  8
0
100
AcDbBlockEnd
  0
BLOCK
  5
1E9A8
330
1E9A7
100
AcDbEntity
  8
0
100
AcDbBlockBegin
  2
*D33
 70
     1
 10
0.0
 20
0.0
 30
0.0
  3
*D33
  1

  0
LINE
  5
1E9A9
330
1E9A7
100
AcDbEntity
  8
30
  6
Continuous
 62
     0
370
    -2
100
AcDbLine
 10
115.1520609029127
 20
970.7359363067586
 30
0.0
 11
115.1520609029127
 21
1003.564505105091
 31
0.0
  0
LINE
  5
1E9AA
330
1E9A7
100
AcDbEntity
  8
30
  6
Continuous
 62
     0
370
    -2
100
AcDbLine
 10
86.56572549251235
 20
970.7359363067586
 30
0.0
 11
86.56572549251235
 21
1003.564505105091
 31
0.0
  0
LINE
  5
1E9AB
330
1E9A7
100
AcDbEntity
  8
30
  6
Continuous
 62
     0
370
    -2
100
AcDbLine
 10
113.1520609029127
 20
1003.064505105091
 30
0.0
 11
88.56572549251236
 21
1003.064505105091
 31
0.0
  0
LINE
  5
1E9AC
330
1E9A7
100
AcDbEntity
  8
30
  6
Continuous
 62
     0
370
    -2
100
AcDbLine
 10
86.56572549251235
 20
1003.064505105091
 30
0.0
 11
54.56572549251235
 21
1003.064505105091
 31
0.0
  0
INSERT
  5
1E9AD
330
1E9A7
100
AcDbEntity
  8
30
  6
Continuous
 62
     0
370
    -2
100
AcDbBlockReference
  2
_OPEN
 10
115.1520609029127
 20
1003.064505105091
 30
0.0
 41
2.0
 42
2.0
 43
2.0
  0
INSERT
  5
1E9AE
330
1E9A7
100
AcDbEntity
  8
30
  6
Continuous
 62
     0
370
    -2
100
AcDbBlockReference
  2
_OPEN
 10
86.56572549251235
 20
1003.064505105091
 30
0.0
 41
2.0
 42
2.0
 43
2.0
 50
180.0
  0
MTEXT
  5
1E9AF
330
1E9A7
100
AcDbEntity
  8
30
  6
Continuous
100
AcDbMText
 10
69.56572549251236
 20
1014.064505105091
 30
0.0
 40
8.0
 41
0.0
 46
0.0
 71
     2
 72
     1
  1
\A1;28.6
 73
     1
 44
1.0
 90
        3
 63
     9
421
 13158600
 45
1.25
441
        0
  0
POINT
  5
1E9B0
330
1E9A7
100
AcDbEntity
  8
DEFPOINTS
  6
Continuous
 62
     0
100
AcDbPoint
 10
115.1520609029126
 20
969.7359363067587
 30
0.0
  0
POINT
  5
1E9B1
330
1E9A7
100
AcDbEntity
  8
DEFPOINTS
  6
Continuous
 62
     0
100
AcDbPoint
 10
86.56572549251222
 20
969.7359363067587
 30
0.0
  0
POINT
  5
1E9B2
330
1E9A7
100
AcDbEntity
  8
DEFPOINTS
  6
Continuous
 62
     0
100
AcDbPoint
 10
86.56572549251222
 20
1003.064505105091
 30
0.0
  0
ENDBLK
  5
1E9B3
330
1E9A7
100
AcDbEntity
  8
0
100
AcDbBlockEnd
  0
BLOCK
  5
1E9B5
330
1E9B4
100
AcDbEntity
  8
0
100
AcDbBlockBegin
  2
*D34
 70
     1
 10
0.0
 20
0.0
 30
0.0
  3
*D34
  1

  0
LINE
  5
1E9B6
330
1E9B4
100
AcDbEntity
  8
30
  6
Continuous
 62
     0
370
    -2
100
AcDbLine
 10
99.83389319771255
 20
973.7359338553099
 30
0.0
 11
55.67706982611959
 21
973.7359338553099
 31
0.0
  0
LINE
  5
1E9B7
330
1E9B4
100
AcDbEntity
  8
30
  6
Continuous
 62
     0
370
    -2
100
AcDbLine
 10
85.63389683071205
 20
907.7359342129099
 30
0.0
 11
55.67706982611958
 21
907.7359342129099
 31
0.0
  0
LINE
  5
1E9B8
330
1E9B4
100
AcDbEntity
  8
30
  6
Continuous
 62
     0
370
    -2
100
AcDbLine
 10
56.17706982611959
 20
971.7359338553098
 30
0.0
 11
56.17706982611958
 21
909.7359342129101
 31
0.0
  0
INSERT
  5
1E9B9
330
1E9B4
100
AcDbEntity
  8
30
  6
Continuous
 62
     0
370
    -2
100
AcDbBlockReference
  2
_OPEN
 10
56.17706982611959
 20
973.7359338553099
 30
0.0
 41
2.0
 42
2.0
 43
2.0
 50
90.0
  0
INSERT
  5
1E9BA
330
1E9B4
100
AcDbEntity
  8
30
  6
Continuous
 62
     0
370
    -2
100
AcDbBlockReference
  2
_OPEN
 10
56.17706982611958
 20
907.7359342129099
 30
0.0
 41
2.0
 42
2.0
 43
2.0
 50
270.0
  0
MTEXT
  5
1E9BB
330
1E9B4
100
AcDbEntity
  8
30
  6
Continuous
100
AcDbMText
 10
49.17706982611943
 20
940.73593403411
 30
0.0
 40
8.0
 41
0.0
 46
0.0
 71
     5
 72
     1
  1
\A1;66
 11
0.0000000000000001
 21
1.0
 31
0.0
 73
     1
 44
1.0
 90
        3
 63
     9
421
 13158600
 45
1.25
441
        0
  0
POINT
  5
1E9BC
330
1E9B4
100
AcDbEntity
  8
DEFPOINTS
  6
Continuous
 62
     0
100
AcDbPoint
 10
100.8338931977125
 20
973.7359338553099
 30
0.0
  0
POINT
  5
1E9BD
330
1E9B4
100
AcDbEntity
  8
DEFPOINTS
  6
Continuous
 62
     0
100
AcDbPoint
 10
86.63389683071205
 20
907.7359342129099
 30
0.0
  0
POINT
  5
1E9BE
330
1E9B4
100
AcDbEntity
  8
DEFPOINTS
  6
Continuous
 62
     0
100
AcDbPoint
 10
56.17706982611958
 20
907.7359342129099
 30
0.0
  0
ENDBLK
  5
1E9BF
330
1E9B4
100
AcDbEntity
  8
0
100
AcDbBlockEnd
  0
BLOCK
  5
1E9C1
330
1E9C0
100
AcDbEntity
  8
0
100
AcDbBlockBegin
  2
*D35
 70
     1
 10
0.0
 20
0.0
 30
0.0
  3
*D35
  1

  0
LINE
  5
1E9C2
330
1E9C0
100
AcDbEntity
  8
30
  6
Continuous
 62
     0
370
    -2
100
AcDbLine
 10
101.3339408164295
 20
974.2359342129097
 30
0.0
 11
101.3339408164295
 21
1057.78227135016
 31
0.0
  0
LINE
  5
1E9C3
330
1E9C0
100
AcDbEntity
  8
30
  6
Continuous
 62
     0
370
    -2
100
AcDbLine
 10
146.3339408164295
 20
1014.23593421291
 30
0.0
 11
146.3339408164295
 21
1057.78227135016
 31
0.0
  0
LINE
  5
1E9C4
330
1E9C0
100
AcDbEntity
  8
30
  6
Continuous
 62
     0
370
    -2
100
AcDbLine
 10
103.3339408164295
 20
1057.282271350159
 30
0.0
 11
144.3339408164295
 21
1057.282271350159
 31
0.0
  0
INSERT
  5
1E9C5
330
1E9C0
100
AcDbEntity
  8
30
  6
Continuous
 62
     0
370
    -2
100
AcDbBlockReference
  2
_OPEN
 10
101.3339408164295
 20
1057.282271350159
 30
0.0
 41
2.0
 42
2.0
 43
2.0
 50
180.0
  0
INSERT
  5
1E9C6
330
1E9C0
100
AcDbEntity
  8
30
  6
Continuous
 62
     0
370
    -2
100
AcDbBlockReference
  2
_OPEN
 10
146.3339408164295
 20
1057.282271350159
 30
0.0
 41
2.0
 42
2.0
 43
2.0
  0
MTEXT
  5
1E9C7
330
1E9C0
100
AcDbEntity
  8
30
  6
Continuous
100
AcDbMText
 10
123.8339408164295
 20
1064.28227135016
 30
0.0
 40
8.0
 41
0.0
 46
0.0
 71
     5
 72
     1
  1
\A1;45
 73
     1
 44
1.0
 90
        3
 63
     9
421
 13158600
 45
1.25
441
        0
  0
POINT
  5
1E9C8
330
1E9C0
100
AcDbEntity
  8
DEFPOINTS
  6
Continuous
 62
     0
100
AcDbPoint
 10
101.3339408164295
 20
973.23593421291
 30
0.0
  0
POINT
  5
1E9C9
330
1E9C0
100
AcDbEntity
  8
DEFPOINTS
  6
Continuous
 62
     0
100
AcDbPoint
 10
146.3339408164295
 20
1013.23593421291
 30
0.0
  0
POINT
  5
1E9CA
330
1E9C0
100
AcDbEntity
  8
DEFPOINTS
  6
Continuous
 62
     0
100
AcDbPoint
 10
146.3339408164295
 20
1057.282271350159
 30
0.0
  0
ENDBLK
  5
1E9CB
330
1E9C0
100
AcDbEntity
  8
0
100
AcDbBlockEnd
  0
BLOCK
  5
1E9CD
330
1E9CC
100
AcDbEntity
  8
0
100
AcDbBlockBegin
  2
*D36
 70
     1
 10
0.0
 20
0.0
 30
0.0
  3
*D36
  1

  0
LINE
  5
1E9CE
330
1E9CC
100
AcDbEntity
  8
30
  6
Continuous
 62
     0
370
    -2
100
AcDbLine
 10
146.3339408164295
 20
1014.23593421291
 30
0.0
 11
146.3339408164295
 21
1057.78227135016
 31
0.0
  0
LINE
  5
1E9CF
330
1E9CC
100
AcDbEntity
  8
30
  6
Continuous
 62
     0
370
    -2
100
AcDbLine
 10
191.3339408164294
 20
974.2359342129097
 30
0.0
 11
191.3339408164294
 21
1057.78227135016
 31
0.0
  0
LINE
  5
1E9D0
330
1E9CC
100
AcDbEntity
  8
30
  6
Continuous
 62
     0
370
    -2
100
AcDbLine
 10
148.3339408164295
 20
1057.282271350159
 30
0.0
 11
189.3339408164294
 21
1057.282271350159
 31
0.0
  0
MTEXT
  5
1E9D1
330
1E9CC
100
AcDbEntity
  8
30
  6
Continuous
100
AcDbMText
 10
168.8339408164295
 20
1064.28227135016
 30
0.0
 40
8.0
 41
0.0
 46
0.0
 71
     5
 72
     1
  1
\A1;45
 73
     1
 44
1.0
 90
        3
 63
     9
421
 13158600
 45
1.25
441
        0
  0
INSERT
  5
1E9D2
330
1E9CC
100
AcDbEntity
  8
30
  6
Continuous
 62
     0
370
    -2
100
AcDbBlockReference
  2
_OPEN
 10
146.3339408164295
 20
1057.282271350159
 30
0.0
 41
2.0
 42
2.0
 43
2.0
 50
180.0
  0
INSERT
  5
1E9D3
330
1E9CC
100
AcDbEntity
  8
30
  6
Continuous
 62
     0
370
    -2
100
AcDbBlockReference
  2
_OPEN
 10
191.3339408164294
 20
1057.282271350159
 30
0.0
 41
2.0
 42
2.0
 43
2.0
  0
POINT
  5
1E9D4
330
1E9CC
100
AcDbEntity
  8
DEFPOINTS
  6
Continuous
 62
     0
100
AcDbPoint
 10
146.3339408164295
 20
1013.23593421291
 30
0.0
  0
POINT
  5
1E9D5
330
1E9CC
100
AcDbEntity
  8
DEFPOINTS
  6
Continuous
 62
     0
100
AcDbPoint
 10
191.3339408164294
 20
973.23593421291
 30
0.0
  0
POINT
  5
1E9D6
330
1E9CC
100
AcDbEntity
  8
DEFPOINTS
  6
Continuous
 62
     0
100
AcDbPoint
 10
191.3339408164294
 20
1057.282271350159
 30
0.0
  0
ENDBLK
  5
1E9D7
330
1E9CC
100
AcDbEntity
  8
0
100
AcDbBlockEnd
  0
BLOCK
  5
1E9E0
330
1E9D8
100
AcDbEntity
  8
0
100
AcDbBlockBegin
  2
A$C0DF35E8D
 70
     0
 10
0.0
 20
0.0
 30
0.0
  3
A$C0DF35E8D
  1

  0
DIMENSION
  5
1E9D9
330
1E9D8
100
AcDbEntity
  8
30
  6
Continuous
100
AcDbDimension
280
     0
  2
*D32
 10
-6.475001862599809
 20
54.71691708396065
 30
0.0
 11
-25.04576192499985
 21
54.71691708396065
 31
0.0
 12
-100.8338950603122
 22
-932.2359335721099
 32
0.0
 70
   128
  1
<>
 71
     2
 42
13.0
 73
     0
 74
     0
 75
     0
 51
0.000000000000007
  3
STANDARD
100
AcDbAlignedDimension
 13
6.524998137400187
 23
25.50000273464889
 33
0.0
 14
-6.475001862599809
 24
25.50000273464889
 34
0.0
100
AcDbRotatedDimension
1001
ACAD
1000
DSTYLE
1002
{
1070
    79
1070
     3
1002
}
  0
DIMENSION
  5
1E9DA
330
1E9D8
100
AcDbEntity
  8
30
  6
Continuous
100
AcDbDimension
280
     0
  2
*D33
 10
-14.26816956779999
 20
70.82857153298118
 30
0.0
 11
-31.26816956779999
 21
70.82857153298118
 31
0.0
 12
-100.8338950603122
 22
-932.2359335721099
 32
0.0
 70
   128
  1
<>
 71
     2
 42
28.58633541040035
 73
     0
 74
     0
 75
     0
 51
0.000000000000007
  3
STANDARD
100
AcDbAlignedDimension
 13
14.31816584260036
 23
37.50000273464889
 33
0.0
 14
-14.26816956779999
 24
37.50000273464889
 34
0.0
100
AcDbRotatedDimension
1001
ACAD
1000
DSTYLE
1002
{
1070
    79
1070
     3
1002
}
  0
DIMENSION
  5
1E9DB
330
1E9D8
100
AcDbEntity
  8
30
  6
Continuous
100
AcDbDimension
280
     0
  2
*D34
 10
-44.65682523419263
 20
-24.49999935919993
 30
0.0
 11
-51.65682523419278
 21
8.500000462000116
 31
0.0
 12
-100.8338950603122
 22
-932.2359335721099
 32
0.0
 71
     5
 42
65.99999964239998
 73
     0
 74
     0
 75
     0
  3
STANDARD
100
AcDbAlignedDimension
 13
-0.0000018625996745
 23
41.50000028320003
 33
0.0
 14
-14.19999822960017
 24
-24.49999935919993
 34
0.0
 50
90.0
100
AcDbRotatedDimension
1001
ACAD
1000
DSTYLE
1002
{
1070
    79
1070
     3
1002
}
  0
DIMENSION
  5
1E9DC
330
1E9D8
100
AcDbEntity
  8
30
  6
Continuous
100
AcDbDimension
280
     0
  2
*D35
 10
45.50004575611734
 20
125.0463377780506
 30
0.0
 11
23.00004575611735
 21
132.0463377780506
 31
0.0
 12
-100.8338950603122
 22
-932.2359335721099
 32
0.0
 71
     5
 42
45.0
 73
     0
 74
     0
 75
     0
  3
STANDARD
100
AcDbAlignedDimension
 13
0.5000457561173448
 23
41.00000064080004
 33
0.0
 14
45.50004575611734
 24
81.00000064080006
 34
0.0
100
AcDbRotatedDimension
  0
DIMENSION
  5
1E9DD
330
1E9D8
100
AcDbEntity
  8
30
  6
Continuous
100
AcDbDimension
280
     0
  2
*D36
 10
90.50004575611735
 20
125.0463377780506
 30
0.0
 11
68.00004575611734
 21
125.0463377780506
 31
0.0
 12
-100.8338950603122
 22
-932.2359335721099
 32
0.0
 70
   128
 71
     5
 42
45.0
 73
     0
 74
     0
 75
     0
  3
STANDARD
100
AcDbAlignedDimension
 13
45.50004575611734
 23
81.00000064080006
 33
0.0
 14
90.50004575611735
 24
41.00000064080004
 34
0.0
100
AcDbRotatedDimension
1001
ACAD
1000
DSTYLE
1002
{
1070
   287
1070
     4
1070
   287
1070
     4
1070
   287
1070
     4
1070
   279
1070
     1
1002
}
  0
ENDBLK
  5
1E9E1
330
1E9D8
100
AcDbEntity
  8
0
100
AcDbBlockEnd
  0
BLOCK
  5
1E9EB
330
1E9EA
100
AcDbEntity
  8
0
100
AcDbBlockBegin
  2
*D38
 70
     1
 10
0.0
 20
0.0
 30
0.0
  3
*D38
  1

  0
LINE
  5
1EDFE
330
1E9EA
100
AcDbEntity
  8
30
  6
Continuous
 62
     0
440
 16777216
370
    -2
100
AcDbLine
 10
90.10962299235108
 20
958.7359363067587
 30
0.0
 11
90.10962299235108
 21
987.4528506560706
 31
0.0
  0
LINE
  5
1EDFF
330
1E9EA
100
AcDbEntity
  8
30
  6
Continuous
 62
     0
440
 16777216
370
    -2
100
AcDbLine
 10
77.10962299235109
 20
958.7359363067587
 30
0.0
 11
77.10962299235109
 21
987.4528506560706
 31
0.0
  0
LINE
  5
1EE00
330
1E9EA
100
AcDbEntity
  8
30
  6
Continuous
 62
     0
440
 16777216
370
    -2
100
AcDbLine
 10
88.10962299235111
 20
986.9528506560703
 30
0.0
 11
79.10962299235109
 21
986.9528506560703
 31
0.0
  0
LINE
  5
1EE01
330
1E9EA
100
AcDbEntity
  8
30
  6
Continuous
 62
     0
440
 16777216
370
    -2
100
AcDbLine
 10
77.10962299235109
 20
986.9528506560703
 30
0.0
 11
50.2055295966177
 21
986.9528506560703
 31
0.0
  0
INSERT
  5
1EE02
330
1E9EA
100
AcDbEntity
  8
30
  6
Continuous
 62
     0
440
 16777216
370
    -2
100
AcDbBlockReference
  2
_OPEN
 10
90.10962299235108
 20
986.9528506560703
 30
0.0
 41
2.0
 42
2.0
 43
2.0
  0
INSERT
  5
1EE03
330
1E9EA
100
AcDbEntity
  8
30
  6
Continuous
 62
     0
440
 16777216
370
    -2
100
AcDbBlockReference
  2
_OPEN
 10
77.10962299235109
 20
986.9528506560703
 30
0.0
 41
2.0
 42
2.0
 43
2.0
 50
180.0
  0
MTEXT
  5
1EE04
330
1E9EA
100
AcDbEntity
  8
30
  6
Continuous
440
 16777216
100
AcDbMText
 10
58.53886292995106
 20
997.9528506560704
 30
0.0
 40
8.0
 41
0.0
 46
0.0
 71
     2
 72
     1
  1
\A1;13
 73
     1
 44
1.0
 90
        3
 63
     9
421
 13158600
 45
1.25
441
        0
  0
POINT
  5
1EE05
330
1E9EA
100
AcDbEntity
  8
DEFPOINTS
  6
Continuous
 62
     0
440
 16777216
100
AcDbPoint
 10
90.10962299235098
 20
957.7359363067587
 30
0.0
  0
POINT
  5
1EE06
330
1E9EA
100
AcDbEntity
  8
DEFPOINTS
  6
Continuous
 62
     0
440
 16777216
100
AcDbPoint
 10
77.10962299235099
 20
957.7359363067587
 30
0.0
  0
POINT
  5
1EE07
330
1E9EA
100
AcDbEntity
  8
DEFPOINTS
  6
Continuous
 62
     0
440
 16777216
100
AcDbPoint
 10
77.10962299235099
 20
986.9528506560703
 30
0.0
  0
ENDBLK
  5
1E9EC
330
1E9EA
100
AcDbEntity
  8
0
100
AcDbBlockEnd
  0
BLOCK
  5
1E9F8
330
1E9F7
100
AcDbEntity
  8
0
100
AcDbBlockBegin
  2
*D39
 70
     1
 10
0.0
 20
0.0
 30
0.0
  3
*D39
  1

  0
LINE
  5
1EE08
330
1E9F7
100
AcDbEntity
  8
30
  6
Continuous
 62
     0
440
 16777216
370
    -2
100
AcDbLine
 10
98.47776399272831
 20
965.7067849380384
 30
0.0
 11
98.47776399272831
 21
1003.564505105091
 31
0.0
  0
LINE
  5
1EE09
330
1E9F7
100
AcDbEntity
  8
30
  6
Continuous
 62
     0
440
 16777216
370
    -2
100
AcDbLine
 10
68.49148214103987
 20
965.7067849378632
 30
0.0
 11
68.49148214103988
 21
1003.564505105091
 31
0.0
  0
LINE
  5
1EE0A
330
1E9F7
100
AcDbEntity
  8
30
  6
Continuous
 62
     0
440
 16777216
370
    -2
100
AcDbLine
 10
96.47776399272832
 20
1003.064505105091
 30
0.0
 11
70.49148214103988
 21
1003.064505105091
 31
0.0
  0
LINE
  5
1EE0B
330
1E9F7
100
AcDbEntity
  8
30
  6
Continuous
 62
     0
440
 16777216
370
    -2
100
AcDbLine
 10
68.49148214103988
 20
1003.064505105091
 30
0.0
 11
43.31645528715093
 21
1003.064505105091
 31
0.0
  0
INSERT
  5
1EE0C
330
1E9F7
100
AcDbEntity
  8
30
  6
Continuous
 62
     0
440
 16777216
370
    -2
100
AcDbBlockReference
  2
_OPEN
 10
98.47776399272831
 20
1003.064505105091
 30
0.0
 41
2.0
 42
2.0
 43
2.0
  0
INSERT
  5
1EE0D
330
1E9F7
100
AcDbEntity
  8
30
  6
Continuous
 62
     0
440
 16777216
370
    -2
100
AcDbBlockReference
  2
_OPEN
 10
68.49148214103988
 20
1003.064505105091
 30
0.0
 41
2.0
 42
2.0
 43
2.0
 50
180.0
  0
MTEXT
  5
1EE0E
330
1E9F7
100
AcDbEntity
  8
30
  6
Continuous
440
 16777216
100
AcDbMText
 10
52.31645528715093
 20
1014.064505105091
 30
0.0
 40
8.0
 41
0.0
 46
0.0
 71
     2
 72
     1
  1
\A1;30
 73
     1
 44
1.0
 90
        3
 63
     9
421
 13158600
 45
1.25
441
        0
  0
POINT
  5
1EE0F
330
1E9F7
100
AcDbEntity
  8
DEFPOINTS
  6
Continuous
 62
     0
440
 16777216
100
AcDbPoint
 10
98.4777639927282
 20
964.7067849380384
 30
0.0
  0
POINT
  5
1EE10
330
1E9F7
100
AcDbEntity
  8
DEFPOINTS
  6
Continuous
 62
     0
440
 16777216
100
AcDbPoint
 10
68.49148214103975
 20
964.7067849378633
 30
0.0
  0
POINT
  5
1EE11
330
1E9F7
100
AcDbEntity
  8
DEFPOINTS
  6
Continuous
 62
     0
440
 16777216
100
AcDbPoint
 10
68.49148214103975
 20
1003.064505105091
 30
0.0
  0
ENDBLK
  5
1E9F9
330
1E9F7
100
AcDbEntity
  8
0
100
AcDbBlockEnd
  0
BLOCK
  5
1EA11
330
1EA10
100
AcDbEntity
  8
0
100
AcDbBlockBegin
  2
*D40
 70
     1
 10
0.0
 20
0.0
 30
0.0
  3
*D40
  1

  0
LINE
  5
1EE12
330
1EA10
100
AcDbEntity
  8
30
  6
Continuous
 62
     0
440
 16777216
370
    -2
100
AcDbLine
 10
83.58462306695107
 20
974.7359338553099
 30
0.0
 11
83.58462306695107
 21
1058.28227099256
 31
0.0
  0
LINE
  5
1EE13
330
1EA10
100
AcDbEntity
  8
30
  6
Continuous
 62
     0
440
 16777216
370
    -2
100
AcDbLine
 10
128.584623066951
 20
1014.73593385531
 30
0.0
 11
128.584623066951
 21
1058.28227099256
 31
0.0
  0
LINE
  5
1EE14
330
1EA10
100
AcDbEntity
  8
30
  6
Continuous
 62
     0
440
 16777216
370
    -2
100
AcDbLine
 10
85.58462306695103
 20
1057.78227099256
 30
0.0
 11
126.584623066951
 21
1057.78227099256
 31
0.0
  0
INSERT
  5
1EE15
330
1EA10
100
AcDbEntity
  8
30
  6
Continuous
 62
     0
440
 16777216
370
    -2
100
AcDbBlockReference
  2
_OPEN
 10
83.58462306695107
 20
1057.78227099256
 30
0.0
 41
2.0
 42
2.0
 43
2.0
 50
180.0
  0
INSERT
  5
1EE16
330
1EA10
100
AcDbEntity
  8
30
  6
Continuous
 62
     0
440
 16777216
370
    -2
100
AcDbBlockReference
  2
_OPEN
 10
128.584623066951
 20
1057.78227099256
 30
0.0
 41
2.0
 42
2.0
 43
2.0
  0
MTEXT
  5
1EE17
330
1EA10
100
AcDbEntity
  8
30
  6
Continuous
440
 16777216
100
AcDbMText
 10
106.084623066951
 20
1064.78227099256
 30
0.0
 40
8.0
 41
0.0
 46
0.0
 71
     5
 72
     1
  1
\A1;45
 73
     1
 44
1.0
 90
        3
 63
     9
421
 13158600
 45
1.25
441
        0
  0
POINT
  5
1EE18
330
1EA10
100
AcDbEntity
  8
DEFPOINTS
  6
Continuous
 62
     0
440
 16777216
100
AcDbPoint
 10
83.58462306695107
 20
973.7359338553099
 30
0.0
  0
POINT
  5
1EE19
330
1EA10
100
AcDbEntity
  8
DEFPOINTS
  6
Continuous
 62
     0
440
 16777216
100
AcDbPoint
 10
128.584623066951
 20
1013.73593385531
 30
0.0
  0
POINT
  5
1EE1A
330
1EA10
100
AcDbEntity
  8
DEFPOINTS
  6
Continuous
 62
     0
440
 16777216
100
AcDbPoint
 10
128.584623066951
 20
1057.78227099256
 30
0.0
  0
ENDBLK
  5
1EA12
330
1EA10
100
AcDbEntity
  8
0
100
AcDbBlockEnd
  0
BLOCK
  5
1EA1D
330
1EA1C
100
AcDbEntity
  8
0
100
AcDbBlockBegin
  2
*D41
 70
     1
 10
0.0
 20
0.0
 30
0.0
  3
*D41
  1

  0
LINE
  5
1EE1B
330
1EA1C
100
AcDbEntity
  8
30
  6
Continuous
 62
     0
440
 16777216
370
    -2
100
AcDbLine
 10
128.584623066951
 20
1014.73593385531
 30
0.0
 11
128.584623066951
 21
1058.28227099256
 31
0.0
  0
LINE
  5
1EE1C
330
1EA1C
100
AcDbEntity
  8
30
  6
Continuous
 62
     0
440
 16777216
370
    -2
100
AcDbLine
 10
173.5846247805509
 20
968.735933922359
 30
0.0
 11
173.5846247805509
 21
1058.28227099256
 31
0.0
  0
LINE
  5
1EE1D
330
1EA1C
100
AcDbEntity
  8
30
  6
Continuous
 62
     0
440
 16777216
370
    -2
100
AcDbLine
 10
130.584623066951
 20
1057.78227099256
 30
0.0
 11
171.5846247805509
 21
1057.78227099256
 31
0.0
  0
MTEXT
  5
1EE1E
330
1EA1C
100
AcDbEntity
  8
30
  6
Continuous
440
 16777216
100
AcDbMText
 10
151.5846706110681
 20
1064.28227135016
 30
0.0
 40
8.0
 41
0.0
 46
0.0
 71
     5
 72
     1
  1
\A1;45
 73
     1
 44
1.0
 90
        3
 63
     9
421
 13158600
 45
1.25
441
        0
  0
INSERT
  5
1EE1F
330
1EA1C
100
AcDbEntity
  8
30
  6
Continuous
 62
     0
440
 16777216
370
    -2
100
AcDbBlockReference
  2
_OPEN
 10
128.584623066951
 20
1057.78227099256
 30
0.0
 41
2.0
 42
2.0
 43
2.0
 50
180.0
  0
INSERT
  5
1EE20
330
1EA1C
100
AcDbEntity
  8
30
  6
Continuous
 62
     0
440
 16777216
370
    -2
100
AcDbBlockReference
  2
_OPEN
 10
173.5846247805509
 20
1057.78227099256
 30
0.0
 41
2.0
 42
2.0
 43
2.0
  0
POINT
  5
1EE21
330
1EA1C
100
AcDbEntity
  8
DEFPOINTS
  6
Continuous
 62
     0
440
 16777216
100
AcDbPoint
 10
128.584623066951
 20
1013.73593385531
 30
0.0
  0
POINT
  5
1EE22
330
1EA1C
100
AcDbEntity
  8
DEFPOINTS
  6
Continuous
 62
     0
440
 16777216
100
AcDbPoint
 10
173.5846247805509
 20
967.735933922359
 30
0.0
  0
POINT
  5
1EE23
330
1EA1C
100
AcDbEntity
  8
DEFPOINTS
  6
Continuous
 62
     0
440
 16777216
100
AcDbPoint
 10
173.5846247805509
 20
1057.78227099256
 30
0.0
  0
ENDBLK
  5
1EA1E
330
1EA1C
100
AcDbEntity
  8
0
100
AcDbBlockEnd
  0
BLOCK
  5
1EA7E
330
1EA7D
100
AcDbEntity
  8
0
100
AcDbBlockBegin
  2
*D42
 70
     1
 10
0.0
 20
0.0
 30
0.0
  3
*D42
  1

  0
LINE
  5
1EE24
330
1EA7D
100
AcDbEntity
  8
30
 62
     0
440
 16777216
370
    -2
100
AcDbLine
 10
173.5846247805509
 20
974.7359338553099
 30
0.0
 11
173.5846247805509
 21
1058.270306211579
 31
0.0
  0
LINE
  5
1EE25
330
1EA7D
100
AcDbEntity
  8
30
 62
     0
440
 16777216
370
    -2
100
AcDbLine
 10
218.609624780751
 20
1033.735933922359
 30
0.0
 11
218.609624780751
 21
1058.270306211579
 31
0.0
  0
LINE
  5
1EE26
330
1EA7D
100
AcDbEntity
  8
30
 62
     0
440
 16777216
370
    -2
100
AcDbLine
 10
175.5846247805509
 20
1057.770306211579
 30
0.0
 11
216.609624780751
 21
1057.770306211579
 31
0.0
  0
INSERT
  5
1EE27
330
1EA7D
100
AcDbEntity
  8
30
 62
     0
440
 16777216
370
    -2
100
AcDbBlockReference
  2
_OPEN
 10
173.5846247805509
 20
1057.770306211579
 30
0.0
 41
2.0
 42
2.0
 43
2.0
 50
180.0
  0
INSERT
  5
1EE28
330
1EA7D
100
AcDbEntity
  8
30
 62
     0
440
 16777216
370
    -2
100
AcDbBlockReference
  2
_OPEN
 10
218.609624780751
 20
1057.770306211579
 30
0.0
 41
2.0
 42
2.0
 43
2.0
  0
MTEXT
  5
1EE29
330
1EA7D
100
AcDbEntity
  8
30
440
 16777216
100
AcDbMText
 10
196.097124780651
 20
1064.770306211579
 30
0.0
 40
8.0
 41
0.0
 46
0.0
 71
     5
 72
     1
  1
\A1;45
 73
     1
 44
1.0
 90
        3
 63
     9
421
 13158600
 45
1.25
441
        0
  0
POINT
  5
1EE2A
330
1EA7D
100
AcDbEntity
  8
DEFPOINTS
 62
     0
440
 16777216
100
AcDbPoint
 10
173.5846247805509
 20
973.7359338553099
 30
0.0
  0
POINT
  5
1EE2B
330
1EA7D
100
AcDbEntity
  8
DEFPOINTS
 62
     0
440
 16777216
100
AcDbPoint
 10
218.609624780751
 20
1032.735933922359
 30
0.0
  0
POINT
  5
1EE2C
330
1EA7D
100
AcDbEntity
  8
DEFPOINTS
 62
     0
440
 16777216
100
AcDbPoint
 10
218.609624780751
 20
1057.770306211579
 30
0.0
  0
ENDBLK
  5
1EA7F
330
1EA7D
100
AcDbEntity
  8
0
100
AcDbBlockEnd
  0
BLOCK
  5
1EA94
330
1EA93
100
AcDbEntity
  8
0
100
AcDbBlockBegin
  2
*D43
 70
     1
 10
0.0
 20
0.0
 30
0.0
  3
*D43
  1

  0
LINE
  5
1EE2D
330
1EA93
100
AcDbEntity
  8
30
 62
     0
440
 16777216
370
    -2
100
AcDbLine
 10
188.4854628437006
 20
649.4938972774822
 30
0.0
 11
272.7652790804805
 21
649.4938972774822
 31
0.0
  0
LINE
  5
1EE2E
330
1EA93
100
AcDbEntity
  8
30
 62
     0
440
 16777216
370
    -2
100
AcDbLine
 10
188.4854628437006
 20
559.4938972774823
 30
0.0
 11
272.7652790804805
 21
559.4938972774822
 31
0.0
  0
LINE
  5
1EE2F
330
1EA93
100
AcDbEntity
  8
30
 62
     0
440
 16777216
370
    -2
100
AcDbLine
 10
272.2652790804805
 20
647.4938972774822
 30
0.0
 11
272.2652790804805
 21
561.4938972774822
 31
0.0
  0
INSERT
  5
1EE30
330
1EA93
100
AcDbEntity
  8
30
 62
     0
440
 16777216
370
    -2
100
AcDbBlockReference
  2
_OPEN
 10
272.2652790804805
 20
649.4938972774822
 30
0.0
 41
2.0
 42
2.0
 43
2.0
 50
90.0
  0
INSERT
  5
1EE31
330
1EA93
100
AcDbEntity
  8
30
 62
     0
440
 16777216
370
    -2
100
AcDbBlockReference
  2
_OPEN
 10
272.2652790804805
 20
559.4938972774822
 30
0.0
 41
2.0
 42
2.0
 43
2.0
 50
270.0
  0
MTEXT
  5
1EE32
330
1EA93
100
AcDbEntity
  8
30
440
 16777216
100
AcDbMText
 10
265.2652790804804
 20
604.4938972774822
 30
0.0
 40
8.0
 41
0.0
 46
0.0
 71
     5
 72
     1
  1
\A1;90
 11
0.0000000000000001
 21
1.0
 31
0.0
 73
     1
 44
1.0
 90
        3
 63
     9
421
 13158600
 45
1.25
441
        0
  0
POINT
  5
1EE33
330
1EA93
100
AcDbEntity
  8
DEFPOINTS
 62
     0
440
 16777216
100
AcDbPoint
 10
187.4854628437006
 20
649.4938972774822
 30
0.0
  0
POINT
  5
1EE34
330
1EA93
100
AcDbEntity
  8
DEFPOINTS
 62
     0
440
 16777216
100
AcDbPoint
 10
187.4854628437006
 20
559.4938972774823
 30
0.0
  0
POINT
  5
1EE35
330
1EA93
100
AcDbEntity
  8
DEFPOINTS
 62
     0
440
 16777216
100
AcDbPoint
 10
272.2652790804805
 20
559.4938972774822
 30
0.0
  0
ENDBLK
  5
1EA95
330
1EA93
100
AcDbEntity
  8
0
100
AcDbBlockEnd
  0
BLOCK
  5
1EB0E
330
1EB0D
100
AcDbEntity
  8
0
100
AcDbBlockBegin
  2
SW_CENTERMARKSYMBOL_32
 70
     0
 10
0.0
 20
0.0
 30
0.0
  3
SW_CENTERMARKSYMBOL_32
  1
SW_CENTERMARKSYMBOL_32
  0
LINE
  5
1EB0F
330
1EB0D
100
AcDbEntity
  8
SLD-0
 62
     0
100
AcDbLine
 10
0.0
 20
0.0
 30
0.0
 11
0.0
 21
0.5
 31
0.0
  0
LINE
  5
1EB10
330
1EB0D
100
AcDbEntity
  8
SLD-0
 62
     0
100
AcDbLine
 10
0.0
 20
0.0
 30
0.0
 11
-0.5
 21
0.0
 31
0.0
  0
LINE
  5
1EB11
330
1EB0D
100
AcDbEntity
  8
SLD-0
 62
     0
100
AcDbLine
 10
0.0
 20
0.0
 30
0.0
 11
0.0
 21
-0.5
 31
0.0
  0
LINE
  5
1EB12
330
1EB0D
100
AcDbEntity
  8
SLD-0
 62
     0
100
AcDbLine
 10
0.0
 20
0.0
 30
0.0
 11
0.5
 21
0.0
 31
0.0
  0
LINE
  5
1EB13
330
1EB0D
100
AcDbEntity
  8
SLD-0
 62
     0
100
AcDbLine
 10
0.0
 20
1.0
 30
0.0
 11
0.0
 21
1.8
 31
0.0
  0
LINE
  5
1EB14
330
1EB0D
100
AcDbEntity
  8
SLD-0
 62
     0
100
AcDbLine
 10
-1.0
 20
0.0
 30
0.0
 11
-1.8
 21
0.0
 31
0.0
  0
LINE
  5
1EB15
330
1EB0D
100
AcDbEntity
  8
SLD-0
 62
     0
100
AcDbLine
 10
0.0
 20
-1.0
 30
0.0
 11
0.0
 21
-1.8
 31
0.0
  0
LINE
  5
1EB16
330
1EB0D
100
AcDbEntity
  8
SLD-0
 62
     0
100
AcDbLine
 10
1.0
 20
0.0
 30
0.0
 11
1.8
 21
0.0
 31
0.0
  0
ENDBLK
  5
1EB17
330
1EB0D
100
AcDbEntity
  8
0
100
AcDbBlockEnd
  0
BLOCK
  5
1EB19
330
1EB18
100
AcDbEntity
  8
0
100
AcDbBlockBegin
  2
SW_CENTERMARKSYMBOL_33
 70
     0
 10
0.0
 20
0.0
 30
0.0
  3
SW_CENTERMARKSYMBOL_33
  1
SW_CENTERMARKSYMBOL_33
  0
LINE
  5
1EB1A
330
1EB18
100
AcDbEntity
  8
SLD-0
 62
     0
100
AcDbLine
 10
0.0
 20
0.0
 30
0.0
 11
0.0
 21
0.5
 31
0.0
  0
LINE
  5
1EB1B
330
1EB18
100
AcDbEntity
  8
SLD-0
 62
     0
100
AcDbLine
 10
0.0
 20
0.0
 30
0.0
 11
-0.5
 21
0.0
 31
0.0
  0
LINE
  5
1EB1C
330
1EB18
100
AcDbEntity
  8
SLD-0
 62
     0
100
AcDbLine
 10
0.0
 20
0.0
 30
0.0
 11
0.0
 21
-0.5
 31
0.0
  0
LINE
  5
1EB1D
330
1EB18
100
AcDbEntity
  8
SLD-0
 62
     0
100
AcDbLine
 10
0.0
 20
0.0
 30
0.0
 11
0.5
 21
0.0
 31
0.0
  0
LINE
  5
1EB1E
330
1EB18
100
AcDbEntity
  8
SLD-0
 62
     0
100
AcDbLine
 10
0.0
 20
1.0
 30
0.0
 11
0.0
 21
1.8
 31
0.0
  0
LINE
  5
1EB1F
330
1EB18
100
AcDbEntity
  8
SLD-0
 62
     0
100
AcDbLine
 10
-1.0
 20
0.0
 30
0.0
 11
-1.8
 21
0.0
 31
0.0
  0
LINE
  5
1EB20
330
1EB18
100
AcDbEntity
  8
SLD-0
 62
     0
100
AcDbLine
 10
0.0
 20
-1.0
 30
0.0
 11
0.0
 21
-1.8
 31
0.0
  0
LINE
  5
1EB21
330
1EB18
100
AcDbEntity
  8
SLD-0
 62
     0
100
AcDbLine
 10
1.0
 20
0.0
 30
0.0
 11
1.8
 21
0.0
 31
0.0
  0
ENDBLK
  5
1EB22
330
1EB18
100
AcDbEntity
  8
0
100
AcDbBlockEnd
  0
BLOCK
  5
1EC85
330
1EC84
100
AcDbEntity
  8
0
100
AcDbBlockBegin
  2
*D46
 70
     1
 10
0.0
 20
0.0
 30
0.0
  3
*D46
  1

  0
LINE
  5
1EE36
330
1EC84
100
AcDbEntity
  8
30
  6
Continuous
 62
     0
440
 16777216
370
    -2
100
AcDbLine
 10
83.584623923751
 20
965.2359339223593
 30
0.0
 11
58.63284103427417
 21
965.2359339223593
 31
0.0
  0
LINE
  5
1EE37
330
1EC84
100
AcDbEntity
  8
30
  6
Continuous
 62
     0
440
 16777216
370
    -2
100
AcDbLine
 10
83.584623923751
 20
951.2359339223593
 30
0.0
 11
58.63284103427417
 21
951.2359339223593
 31
0.0
  0
LINE
  5
1EE38
330
1EC84
100
AcDbEntity
  8
30
  6
Continuous
 62
     0
440
 16777216
370
    -2
100
AcDbLine
 10
59.13284103427418
 20
963.235933922359
 30
0.0
 11
59.13284103427418
 21
953.2359339223592
 31
0.0
  0
LINE
  5
1EE39
330
1EC84
100
AcDbEntity
  8
30
  6
Continuous
 62
     0
440
 16777216
370
    -2
100
AcDbLine
 10
59.13284103427418
 20
951.2359339223593
 30
0.0
 11
59.13284103427415
 21
932.5692672556924
 31
0.0
  0
INSERT
  5
1EE3A
330
1EC84
100
AcDbEntity
  8
30
  6
Continuous
 62
     0
440
 16777216
370
    -2
100
AcDbBlockReference
  2
_OPEN
 10
59.13284103427418
 20
965.2359339223593
 30
0.0
 41
2.0
 42
2.0
 43
2.0
 50
90.0
  0
INSERT
  5
1EE3B
330
1EC84
100
AcDbEntity
  8
30
  6
Continuous
 62
     0
440
 16777216
370
    -2
100
AcDbBlockReference
  2
_OPEN
 10
59.13284103427418
 20
951.2359339223593
 30
0.0
 41
2.0
 42
2.0
 43
2.0
 50
270.0
  0
MTEXT
  5
1EE3C
330
1EC84
100
AcDbEntity
  8
30
  6
Continuous
440
 16777216
100
AcDbMText
 10
52.13284103427402
 20
940.9026005890256
 30
0.0
 40
8.0
 41
0.0
 46
0.0
 71
     5
 72
     1
  1
\A1;14
 11
0.0000000000000001
 21
1.0
 31
0.0
 73
     1
 44
1.0
 90
        3
 63
     9
421
 13158600
 45
1.25
441
        0
  0
POINT
  5
1EE3D
330
1EC84
100
AcDbEntity
  8
DEFPOINTS
  6
Continuous
 62
     0
440
 16777216
100
AcDbPoint
 10
84.584623923751
 20
965.2359339223593
 30
0.0
  0
POINT
  5
1EE3E
330
1EC84
100
AcDbEntity
  8
DEFPOINTS
  6
Continuous
 62
     0
440
 16777216
100
AcDbPoint
 10
84.584623923751
 20
951.2359339223593
 30
0.0
  0
POINT
  5
1EE3F
330
1EC84
100
AcDbEntity
  8
DEFPOINTS
  6
Continuous
 62
     0
440
 16777216
100
AcDbPoint
 10
59.13284103427418
 20
951.2359339223593
 30
0.0
  0
ENDBLK
  5
1EC86
330
1EC84
100
AcDbEntity
  8
0
100
AcDbBlockEnd
  0
BLOCK
  5
1EC9F
330
1EC9E
100
AcDbEntity
  8
0
100
AcDbBlockBegin
  2
*D47
 70
     1
 10
0.0
 20
0.0
 30
0.0
  3
*D47
  1

  0
LINE
  5
1EE40
330
1EC9E
100
AcDbEntity
  8
30
 62
     0
440
 16777216
370
    -2
100
AcDbLine
 10
70.58462392375098
 20
907.7359342129099
 30
0.0
 11
21.52701809256016
 21
907.7359342129099
 31
0.0
  0
LINE
  5
1EE41
330
1EC9E
100
AcDbEntity
  8
30
 62
     0
440
 16777216
370
    -2
100
AcDbLine
 10
71.97774734935116
 20
973.7359338553098
 30
0.0
 11
21.52701809256017
 21
973.7359338553098
 31
0.0
  0
LINE
  5
1EE42
330
1EC9E
100
AcDbEntity
  8
30
 62
     0
440
 16777216
370
    -2
100
AcDbLine
 10
22.02701809256016
 20
909.7359342129101
 30
0.0
 11
22.02701809256017
 21
971.7359338553098
 31
0.0
  0
INSERT
  5
1EE43
330
1EC9E
100
AcDbEntity
  8
30
 62
     0
440
 16777216
370
    -2
100
AcDbBlockReference
  2
_OPEN
 10
22.02701809256016
 20
907.7359342129099
 30
0.0
 41
2.0
 42
2.0
 43
2.0
 50
270.0
  0
INSERT
  5
1EE44
330
1EC9E
100
AcDbEntity
  8
30
 62
     0
440
 16777216
370
    -2
100
AcDbBlockReference
  2
_OPEN
 10
22.02701809256017
 20
973.7359338553098
 30
0.0
 41
2.0
 42
2.0
 43
2.0
 50
90.0
  0
MTEXT
  5
1EE45
330
1EC9E
100
AcDbEntity
  8
30
440
 16777216
100
AcDbMText
 10
15.02701809256001
 20
940.1964908205743
 30
0.0
 40
8.0
 41
0.0
 46
0.0
 71
     5
 72
     1
  1
\A1;66
 11
0.0000000000000001
 21
1.0
 31
0.0
 73
     1
 44
1.0
 90
        3
 63
     9
421
 13158600
 45
1.25
441
        0
  0
POINT
  5
1EE46
330
1EC9E
100
AcDbEntity
  8
DEFPOINTS
 62
     0
440
 16777216
100
AcDbPoint
 10
71.58462392375098
 20
907.7359342129099
 30
0.0
  0
POINT
  5
1EE47
330
1EC9E
100
AcDbEntity
  8
DEFPOINTS
 62
     0
440
 16777216
100
AcDbPoint
 10
72.97774734935114
 20
973.7359338553098
 30
0.0
  0
POINT
  5
1EE48
330
1EC9E
100
AcDbEntity
  8
DEFPOINTS
 62
     0
440
 16777216
100
AcDbPoint
 10
22.02701809256017
 20
973.7359338553098
 30
0.0
  0
ENDBLK
  5
1ECA0
330
1EC9E
100
AcDbEntity
  8
0
100
AcDbBlockEnd
  0
BLOCK
  5
1ECB7
330
1ECB6
100
AcDbEntity
  8
0
100
AcDbBlockBegin
  2
*D48
 70
     1
 10
0.0
 20
0.0
 30
0.0
  3
*D48
  1

  0
LINE
  5
1EE49
330
1ECB6
100
AcDbEntity
  8
30
 62
     0
440
 16777216
370
    -2
100
AcDbLine
 10
75.38462306695106
 20
957.7359339223587
 30
0.0
 11
41.93179475150124
 21
957.7359339223587
 31
0.0
  0
LINE
  5
1EE4A
330
1ECB6
100
AcDbEntity
  8
30
 62
     0
440
 16777216
370
    -2
100
AcDbLine
 10
68.38462662535062
 20
907.7359342129099
 30
0.0
 11
41.93179475150123
 21
907.7359342129099
 31
0.0
  0
LINE
  5
1EE4B
330
1ECB6
100
AcDbEntity
  8
30
 62
     0
440
 16777216
370
    -2
100
AcDbLine
 10
42.43179475150124
 20
955.7359339223593
 30
0.0
 11
42.43179475150123
 21
909.7359342129101
 31
0.0
  0
INSERT
  5
1EE4C
330
1ECB6
100
AcDbEntity
  8
30
 62
     0
440
 16777216
370
    -2
100
AcDbBlockReference
  2
_OPEN
 10
42.43179475150124
 20
957.7359339223587
 30
0.0
 41
2.0
 42
2.0
 43
2.0
 50
90.0
  0
INSERT
  5
1EE4D
330
1ECB6
100
AcDbEntity
  8
30
 62
     0
440
 16777216
370
    -2
100
AcDbBlockReference
  2
_OPEN
 10
42.43179475150123
 20
907.7359342129099
 30
0.0
 41
2.0
 42
2.0
 43
2.0
 50
270.0
  0
MTEXT
  5
1EE4E
330
1ECB6
100
AcDbEntity
  8
30
440
 16777216
100
AcDbMText
 10
35.4317947515011
 20
932.7359340676343
 30
0.0
 40
8.0
 41
0.0
 46
0.0
 71
     5
 72
     1
  1
\A1;50
 11
0.0000000000000001
 21
1.0
 31
0.0
 73
     1
 44
1.0
 90
        3
 63
     9
421
 13158600
 45
1.25
441
        0
  0
POINT
  5
1EE4F
330
1ECB6
100
AcDbEntity
  8
DEFPOINTS
 62
     0
440
 16777216
100
AcDbPoint
 10
76.38462306695107
 20
957.7359339223587
 30
0.0
  0
POINT
  5
1EE50
330
1ECB6
100
AcDbEntity
  8
DEFPOINTS
 62
     0
440
 16777216
100
AcDbPoint
 10
69.38462662535062
 20
907.7359342129099
 30
0.0
  0
POINT
  5
1EE51
330
1ECB6
100
AcDbEntity
  8
DEFPOINTS
 62
     0
440
 16777216
100
AcDbPoint
 10
42.43179475150123
 20
907.7359342129099
 30
0.0
  0
ENDBLK
  5
1ECB8
330
1ECB6
100
AcDbEntity
  8
0
100
AcDbBlockEnd
  0
BLOCK
  5
1EE94
330
1EE93
100
AcDbEntity
  8
0
100
AcDbBlockBegin
  2
*D49
 70
     1
 10
0.0
 20
0.0
 30
0.0
  3
*D49
  1

  0
LINE
  5
1EEA0
330
1EE93
100
AcDbEntity
  8
30
  6
Continuous
 62
     0
370
    -2
100
AcDbLine
 10
644.0623810060892
 20
505.4938972774817
 30
0.0
 11
661.7204823418233
 21
505.4938972774817
 31
0.0
  0
LINE
  5
1EEA1
330
1EE93
100
AcDbEntity
  8
30
  6
Continuous
 62
     0
370
    -2
100
AcDbLine
 10
644.0623810060892
 20
475.4938972774818
 30
0.0
 11
661.7204823418233
 21
475.4938972774818
 31
0.0
  0
LINE
  5
1EEA2
330
1EE93
100
AcDbEntity
  8
30
  6
Continuous
 62
     0
370
    -2
100
AcDbLine
 10
661.2204823418233
 20
477.4938972774815
 30
0.0
 11
661.2204823418233
 21
503.4938972774816
 31
0.0
  0
LINE
  5
1EEA3
330
1EE93
100
AcDbEntity
  8
30
  6
Continuous
 62
     0
370
    -2
100
AcDbLine
 10
661.2204823418233
 20
505.4938972774817
 30
0.0
 11
661.2204823418233
 21
525.7041987693298
 31
0.0
  0
INSERT
  5
1EEA4
330
1EE93
100
AcDbEntity
  8
30
  6
Continuous
 62
     0
370
    -2
100
AcDbBlockReference
  2
_OPEN
 10
661.2204823418233
 20
475.4938972774818
 30
0.0
 41
2.0
 42
2.0
 43
2.0
 50
270.0
  0
INSERT
  5
1EEA5
330
1EE93
100
AcDbEntity
  8
30
  6
Continuous
 62
     0
370
    -2
100
AcDbBlockReference
  2
_OPEN
 10
661.2204823418233
 20
505.4938972774817
 30
0.0
 41
2.0
 42
2.0
 43
2.0
 50
90.0
  0
MTEXT
  5
1EEA6
330
1EE93
100
AcDbEntity
  8
30
  6
Continuous
100
AcDbMText
 10
654.2204823418233
 20
516.7041987693301
 30
0.0
 40
8.0
 41
0.0
 46
0.0
 71
     5
 72
     1
  1
\A1;30
 11
0.0000000000000001
 21
1.0
 31
0.0
 73
     1
 44
1.0
 90
        3
 63
     9
421
 13158600
 45
1.25
441
        0
  0
POINT
  5
1EEA7
330
1EE93
100
AcDbEntity
  8
DEFPOINTS
  6
Continuous
 62
     0
100
AcDbPoint
 10
643.0623810060892
 20
505.4938972774817
 30
0.0
  0
POINT
  5
1EEA8
330
1EE93
100
AcDbEntity
  8
DEFPOINTS
  6
Continuous
 62
     0
100
AcDbPoint
 10
643.0623810060892
 20
475.4938972774818
 30
0.0
  0
POINT
  5
1EEA9
330
1EE93
100
AcDbEntity
  8
DEFPOINTS
  6
Continuous
 62
     0
100
AcDbPoint
 10
661.2204823418233
 20
475.4938972774818
 30
0.0
  0
ENDBLK
  5
1EE95
330
1EE93
100
AcDbEntity
  8
0
100
AcDbBlockEnd
  0
ENDSEC
  0
SECTION
  2
ENTITIES
  0
LWPOLYLINE
  5
1D31B
330
1E
100
AcDbEntity
  8
10
380
     2
100
AcDbPolyline
 90
        4
 70
     1
 43
0.0
 10
700.0
 20
0.0
 10
700.0
 20
1088.0
 10
0.0
 20
1088.0
 10
0.0
 20
0.0
  0
LWPOLYLINE
  5
1DA7A
330
1E
100
AcDbEntity
  8
10
380
     2
100
AcDbPolyline
 90
        4
 70
     1
 43
0.0
 10
700.0
 20
0.0
 10
700.0
 20
1088.0
 10
0.0
 20
1088.0
 10
0.0
 20
0.0
  0
LWPOLYLINE
  5
1E0D1
330
1E
100
AcDbEntity
  8
10
380
     2
100
AcDbPolyline
 90
        4
 70
     1
 43
0.0
 10
700.0
 20
0.0
 10
700.0
 20
1088.0
 10
0.0
 20
1088.0
 10
0.0
 20
0.0
  0
LINE
  5
1E614
330
1E
100
AcDbEntity
  8
16
 48
2.0
100
AcDbLine
 10
129.4854628437006
 20
466.3990331162876
 30
0.0
 11
129.4854628437006
 21
740.636392779405
 31
0.0
  0
LINE
  5
1E615
330
1E
100
AcDbEntity
  8
16
 48
2.0
100
AcDbLine
 10
253.3066916616172
 20
604.4938972774822
 30
0.0
 11
45.57958106254318
 21
604.4938972774822
 31
0.0
  0
LINE
  5
1E616
330
1E
100
AcDbEntity
  8
16
 48
2.0
100
AcDbLine
 10
533.7230305909133
 20
604.4938972774822
 30
0.0
 11
375.1718838605366
 21
604.4938972774822
 31
0.0
  0
LINE
  5
1E617
330
1E
100
AcDbEntity
  8
16
 48
2.0
100
AcDbLine
 10
106.9498363928096
 20
64.82521823169157
 30
0.0
 11
106.9498363928096
 21
363.5282266901891
 31
0.0
  0
LINE
  5
1E618
330
1E
100
AcDbEntity
  8
16
 48
2.0
100
AcDbLine
 10
234.8400261460469
 20
211.4531278759599
 30
0.0
 11
29.66650388617973
 21
211.4531278759599
 31
0.0
  0
LINE
  5
1E619
330
1E
100
AcDbEntity
  8
16
 48
2.0
100
AcDbLine
 10
129.0846247805511
 20
743.0831025734137
 30
0.0
 11
129.084685815711
 21
962.649486104069
 31
0.0
  0
MTEXT
  5
1E61A
330
1E
100
AcDbEntity
  8
19
  6
Continuous
100
AcDbMText
 10
482.8194528624353
 20
1036.572295309976
 30
0.0
 40
10.0
 41
185.6110247077376
 46
33.24212607274502
 71
     1
 72
     5
  1
PS630-CF 4P RC\PPS630-NF 4P RC\PPS630-GF 4P RC\PPS630-NE 4P RC\PPS630-GE 4P RC\PPH630-CF 4P RC\PPH630-CE 4P RC
  7
STANDARD1
 73
     1
 44
1.0
  0
LINE
  5
1E61B
330
1E
100
AcDbEntity
  8
18
100
AcDbLine
 10
517.0623810060897
 20
747.2997177028092
 30
0.0
 11
517.0623810060897
 21
464.802051349539
 31
0.0
  0
LINE
  5
1E61C
330
1E
100
AcDbEntity
  8
17
  6
CENTER
100
AcDbLine
 10
505.0623810060915
 20
718.4938972774832
 30
0.0
 11
631.0623810060898
 21
718.4938972774823
 31
0.0
  0
LINE
  5
1E61F
330
1E
100
AcDbEntity
  8
17
100
AcDbLine
 10
563.0623810060892
 20
730.4938972774825
 30
0.0
 11
563.0623810060892
 21
706.4938972774823
 31
0.0
  0
LINE
  5
1E620
330
1E
100
AcDbEntity
  8
24
100
AcDbLine
 10
578.0623810060895
 20
714.4938972774824
 30
0.0
 11
578.0623810060895
 21
722.4938972774823
 31
0.0
  0
LINE
  5
1E621
330
1E
100
AcDbEntity
  8
24
100
AcDbLine
 10
540.5623810060898
 20
706.4938972774832
 30
0.0
 11
540.5623810060898
 21
730.4938972774833
 31
0.0
  0
LINE
  5
1E622
330
1E
100
AcDbEntity
  8
24
100
AcDbLine
 10
513.0623810060897
 20
706.4938972774832
 30
0.0
 11
540.5623810060898
 21
706.4938972774832
 31
0.0
  0
LINE
  5
1E623
330
1E
100
AcDbEntity
  8
24
100
AcDbLine
 10
541.5623810060898
 20
714.4938972774824
 30
0.0
 11
578.0623810060895
 21
714.4938972774824
 31
0.0
  0
LINE
  5
1E624
330
1E
100
AcDbEntity
  8
24
100
AcDbLine
 10
541.5623810060898
 20
709.9938972774832
 30
0.0
 11
541.5623810060898
 21
714.4938972774824
 31
0.0
  0
LINE
  5
1E625
330
1E
100
AcDbEntity
  8
24
100
AcDbLine
 10
540.5623810060898
 20
709.9938972774832
 30
0.0
 11
541.5623810060898
 21
709.9938972774832
 31
0.0
  0
LINE
  5
1E626
330
1E
100
AcDbEntity
  8
24
100
AcDbLine
 10
513.0623810060897
 20
730.4938972774833
 30
0.0
 11
540.5623810060898
 21
730.4938972774833
 31
0.0
  0
LINE
  5
1E627
330
1E
100
AcDbEntity
  8
24
100
AcDbLine
 10
541.5623810060898
 20
722.4938972774823
 30
0.0
 11
578.0623810060895
 21
722.4938972774823
 31
0.0
  0
LINE
  5
1E628
330
1E
100
AcDbEntity
  8
24
100
AcDbLine
 10
541.5623810060898
 20
726.9938972774832
 30
0.0
 11
541.5623810060898
 21
722.4938972774823
 31
0.0
  0
LINE
  5
1E629
330
1E
100
AcDbEntity
  8
24
100
AcDbLine
 10
540.5623810060898
 20
726.9938972774832
 30
0.0
 11
541.5623810060898
 21
726.9938972774832
 31
0.0
  0
LINE
  5
1E62B
330
1E
100
AcDbEntity
  8
24
100
AcDbLine
 10
644.0623810060898
 20
714.4938972774824
 30
0.0
 11
644.0623810060898
 21
722.4938972774823
 31
0.0
  0
LINE
  5
1E62C
330
1E
100
AcDbEntity
  8
18
100
AcDbLine
 10
513.0623810060897
 20
746.9353275574039
 30
0.0
 11
513.0623810060897
 21
464.802051349539
 31
0.0
  0
DIMENSION
  5
1E62E
330
1E
100
AcDbEntity
  8
30
  6
Continuous
100
AcDbDimension
280
     0
  2
*D28
 10
292.7499153835715
 20
474.4938972774822
 30
0.0
 11
292.7499153835715
 21
604.4938972774822
 31
0.0
 70
   160
 71
     5
 42
260.0
 73
     0
 74
     0
 75
     0
  3
STANDARD
100
AcDbAlignedDimension
 13
244.4854628437006
 23
734.4938972774823
 33
0.0
 14
244.4854628437006
 24
474.4938972774822
 34
0.0
 50
90.0
100
AcDbRotatedDimension
1001
ACAD
1000
DSTYLE
1002
{
1070
   140
1040
8.0
1070
    79
1070
     3
1002
}
  0
DIMENSION
  5
1E62F
330
1E
100
AcDbEntity
  8
30
  6
Continuous
100
AcDbDimension
280
     0
  2
*D29
 10
75.18444486425145
 20
109.7433384728166
 30
0.0
 11
21.36819459176423
 21
72.73178830689345
 31
0.0
 70
   163
 71
     5
 42
36.00000000000071
 73
     0
 74
     0
 75
     0
  3
STANDARD1
100
AcDbDiametricDimension
 15
48.71522792136794
 25
85.34291727910312
 35
0.0
 40
0.0
  0
DIMENSION
  5
1E630
330
1E
100
AcDbEntity
  8
30
  6
Continuous
100
AcDbDimension
280
     0
  2
*D30
 10
265.0361388275495
 20
97.45312787595993
 30
0.0
 11
265.0361388275495
 21
211.4531278759599
 31
0.0
 70
   160
 71
     5
 42
228.0
 73
     0
 74
     0
 75
     0
  3
STANDARD
100
AcDbAlignedDimension
 13
220.5566936394175
 23
325.4531278759599
 33
0.0
 14
220.5566936394175
 24
97.45312787595993
 34
0.0
 50
90.0
100
AcDbRotatedDimension
1001
ACAD
1000
DSTYLE
1002
{
1070
    79
1070
     3
1070
   140
1040
8.0
1002
}
  0
DIMENSION
  5
1E631
330
1E
100
AcDbEntity
  8
30
  6
Continuous
100
AcDbDimension
280
     0
  2
*D31
 10
248.2618694366202
 20
104.4531278759599
 30
0.0
 11
248.2618694366201
 21
211.4531278759599
 31
0.0
 70
   160
 71
     5
 42
214.0
 73
     0
 74
     0
 75
     0
  3
STANDARD
100
AcDbAlignedDimension
 13
136.8206195513994
 23
318.4531278759599
 33
0.0
 14
136.4498363928092
 24
104.4531278759599
 34
0.0
 50
90.0
100
AcDbRotatedDimension
1001
ACAD
1000
DSTYLE
1002
{
1070
    79
1070
     3
1070
   140
1040
8.0
1002
}
  0
LWPOLYLINE
  5
1E632
330
1E
100
AcDbEntity
  8
10
  6
CONTINOUS
100
AcDbPolyline
 90
        4
 70
     1
 43
0.0
 10
244.4854628437006
 20
474.4938972774822
 10
244.4854628437006
 20
734.4938972774823
 10
59.48546284370059
 20
734.4938972774823
 10
59.48546284370059
 20
474.4938972774822
  0
LINE
  5
1E633
330
1E
100
AcDbEntity
  8
10
  6
CONTINOUS
100
AcDbLine
 10
120.4854628437006
 20
490.4938972774822
 30
0.0
 11
138.4854628437006
 21
490.4938972774822
 31
0.0
  0
LINE
  5
1E634
330
1E
100
AcDbEntity
  8
12
  6
DASHED
100
AcDbLine
 10
114.9854628437006
 20
497.4938972774823
 30
0.0
 11
98.98546284370061
 21
497.4938972774823
 31
0.0
  0
CIRCLE
  5
1E635
330
1E
100
AcDbEntity
  8
12
  6
DASHED
100
AcDbCircle
 10
106.9854628437006
 20
497.4938972774823
 30
0.0
 40
4.0
  0
LINE
  5
1E636
330
1E
100
AcDbEntity
  8
10
  6
CONTINOUS
100
AcDbLine
 10
84.48546284370058
 20
481.4938972774823
 30
0.0
 11
84.48546284370058
 21
499.4938972774822
 31
0.0
  0
CIRCLE
  5
1E637
330
1E
100
AcDbEntity
  8
10
  6
CONTINOUS
100
AcDbCircle
 10
84.48546284370058
 20
490.4938972774822
 30
0.0
 40
5.0
  0
LINE
  5
1E638
330
1E
100
AcDbEntity
  8
10
  6
CONTINOUS
100
AcDbLine
 10
75.48546284370059
 20
490.4938972774822
 30
0.0
 11
93.48546284370057
 21
490.4938972774822
 31
0.0
  0
LINE
  5
1E639
330
1E
100
AcDbEntity
  8
10
  6
CONTINOUS
100
AcDbLine
 10
129.4854628437006
 20
481.4938972774823
 30
0.0
 11
129.4854628437006
 21
499.4938972774822
 31
0.0
  0
CIRCLE
  5
1E63A
330
1E
100
AcDbEntity
  8
10
  6
CONTINOUS
100
AcDbCircle
 10
129.4854628437006
 20
490.4938972774822
 30
0.0
 40
5.0
  0
LINE
  5
1E63B
330
1E
100
AcDbEntity
  8
12
  6
DASHED
100
AcDbLine
 10
106.9854628437006
 20
505.4938972774823
 30
0.0
 11
106.9854628437006
 21
489.4938972774823
 31
0.0
  0
LINE
  5
1E63C
330
1E
100
AcDbEntity
  8
10
  6
CONTINOUS
100
AcDbLine
 10
165.4854628437005
 20
490.4938972774822
 30
0.0
 11
183.4854628437006
 21
490.4938972774822
 31
0.0
  0
LINE
  5
1E63D
330
1E
100
AcDbEntity
  8
12
  6
DASHED
100
AcDbLine
 10
159.9854628437006
 20
497.4938972774823
 30
0.0
 11
143.9854628437006
 21
497.4938972774823
 31
0.0
  0
CIRCLE
  5
1E63E
330
1E
100
AcDbEntity
  8
12
  6
DASHED
100
AcDbCircle
 10
151.9854628437006
 20
497.4938972774823
 30
0.0
 40
4.0
  0
LINE
  5
1E63F
330
1E
100
AcDbEntity
  8
12
  6
DASHED
100
AcDbLine
 10
151.9854628437006
 20
505.4938972774823
 30
0.0
 11
151.9854628437006
 21
489.4938972774823
 31
0.0
  0
LINE
  5
1E640
330
1E
100
AcDbEntity
  8
10
  6
CONTINOUS
100
AcDbLine
 10
174.4854628437006
 20
481.4938972774823
 30
0.0
 11
174.4854628437006
 21
499.4938972774822
 31
0.0
  0
CIRCLE
  5
1E641
330
1E
100
AcDbEntity
  8
10
  6
CONTINOUS
100
AcDbCircle
 10
174.4854628437006
 20
490.4938972774822
 30
0.0
 40
5.0
  0
LINE
  5
1E642
330
1E
100
AcDbEntity
  8
10
  6
CONTINOUS
100
AcDbLine
 10
219.4854628437006
 20
481.4938972774823
 30
0.0
 11
219.4854628437006
 21
499.4938972774822
 31
0.0
  0
CIRCLE
  5
1E643
330
1E
100
AcDbEntity
  8
10
  6
CONTINOUS
100
AcDbCircle
 10
-219.4854628437006
 20
490.4938972774822
 30
0.0
 40
5.0
210
0.0
220
0.0
230
-1.0
  0
LINE
  5
1E644
330
1E
100
AcDbEntity
  8
10
  6
CONTINOUS
100
AcDbLine
 10
210.4854628437006
 20
490.4938972774822
 30
0.0
 11
228.4854628437006
 21
490.4938972774822
 31
0.0
  0
LINE
  5
1E645
330
1E
100
AcDbEntity
  8
10
  6
CONTINOUS
100
AcDbLine
 10
219.4854628437006
 20
709.4938972774823
 30
0.0
 11
219.4854628437006
 21
727.4938972774823
 31
0.0
  0
LINE
  5
1E646
330
1E
100
AcDbEntity
  8
10
  6
CONTINOUS
100
AcDbLine
 10
174.4854628437006
 20
709.4938972774823
 30
0.0
 11
174.4854628437006
 21
727.4938972774823
 31
0.0
  0
LINE
  5
1E647
330
1E
100
AcDbEntity
  8
10
  6
CONTINOUS
100
AcDbLine
 10
129.4854628437006
 20
709.4938972774823
 30
0.0
 11
129.4854628437006
 21
727.4938972774823
 31
0.0
  0
LINE
  5
1E648
330
1E
100
AcDbEntity
  8
10
  6
CONTINOUS
100
AcDbLine
 10
84.48546284370058
 20
709.4938972774823
 30
0.0
 11
84.48546284370058
 21
727.4938972774823
 31
0.0
  0
CIRCLE
  5
1E649
330
1E
100
AcDbEntity
  8
10
  6
CONTINOUS
100
AcDbCircle
 10
219.4854628437006
 20
718.4938972774823
 30
0.0
 40
5.0
  0
CIRCLE
  5
1E64A
330
1E
100
AcDbEntity
  8
10
  6
CONTINOUS
100
AcDbCircle
 10
-174.4854628437006
 20
718.4938972774823
 30
0.0
 40
5.0
210
0.0
220
0.0
230
-1.0
  0
CIRCLE
  5
1E64B
330
1E
100
AcDbEntity
  8
10
  6
CONTINOUS
100
AcDbCircle
 10
-129.4854628437006
 20
718.4938972774823
 30
0.0
 40
5.0
210
0.0
220
0.0
230
-1.0
  0
CIRCLE
  5
1E64C
330
1E
100
AcDbEntity
  8
10
  6
CONTINOUS
100
AcDbCircle
 10
-84.48546284370058
 20
718.4938972774823
 30
0.0
 40
5.0
210
0.0
220
0.0
230
-1.0
  0
LINE
  5
1E64D
330
1E
100
AcDbEntity
  8
10
  6
CONTINOUS
100
AcDbLine
 10
120.4854628437006
 20
718.4938972774823
 30
0.0
 11
138.4854628437006
 21
718.4938972774823
 31
0.0
  0
LINE
  5
1E64E
330
1E
100
AcDbEntity
  8
12
  6
DASHED
100
AcDbLine
 10
114.9854628437006
 20
711.4938972774823
 30
0.0
 11
98.98546284370061
 21
711.4938972774823
 31
0.0
  0
CIRCLE
  5
1E64F
330
1E
100
AcDbEntity
  8
12
  6
DASHED
100
AcDbCircle
 10
-106.9854628437006
 20
711.4938972774823
 30
0.0
 40
4.0
210
0.0
220
0.0
230
-1.0
  0
LINE
  5
1E650
330
1E
100
AcDbEntity
  8
10
  6
CONTINOUS
100
AcDbLine
 10
75.48546284370059
 20
718.4938972774823
 30
0.0
 11
93.48546284370057
 21
718.4938972774823
 31
0.0
  0
LINE
  5
1E651
330
1E
100
AcDbEntity
  8
12
  6
DASHED
100
AcDbLine
 10
106.9854628437006
 20
719.4938972774823
 30
0.0
 11
106.9854628437006
 21
703.4938972774823
 31
0.0
  0
LINE
  5
1E652
330
1E
100
AcDbEntity
  8
10
  6
CONTINOUS
100
AcDbLine
 10
165.4854628437005
 20
718.4938972774823
 30
0.0
 11
183.4854628437006
 21
718.4938972774823
 31
0.0
  0
LINE
  5
1E653
330
1E
100
AcDbEntity
  8
12
  6
DASHED
100
AcDbLine
 10
159.9854628437006
 20
711.4938972774823
 30
0.0
 11
143.9854628437006
 21
711.4938972774823
 31
0.0
  0
CIRCLE
  5
1E654
330
1E
100
AcDbEntity
  8
12
  6
DASHED
100
AcDbCircle
 10
-151.9854628437006
 20
711.4938972774823
 30
0.0
 40
4.0
210
0.0
220
0.0
230
-1.0
  0
LINE
  5
1E655
330
1E
100
AcDbEntity
  8
12
  6
DASHED
100
AcDbLine
 10
151.9854628437006
 20
719.4938972774823
 30
0.0
 11
151.9854628437006
 21
703.4938972774823
 31
0.0
  0
LINE
  5
1E656
330
1E
100
AcDbEntity
  8
10
  6
CONTINOUS
100
AcDbLine
 10
210.4854628437006
 20
718.4938972774823
 30
0.0
 11
228.4854628437006
 21
718.4938972774823
 31
0.0
  0
LINE
  5
1E657
330
1E
100
AcDbEntity
  8
18
  6
DIVIDE
 48
2.0
100
AcDbLine
 10
221.9498363928092
 20
341.4531278759599
 30
0.0
 11
221.9498363928092
 21
81.45312787595974
 31
0.0
  0
LINE
  5
1E658
330
1E
100
AcDbEntity
  8
18
  6
DIVIDE
 48
2.0
100
AcDbLine
 10
36.94983639280872
 20
341.4531278759599
 30
0.0
 11
36.94983639280872
 21
81.45312787595974
 31
0.0
  0
LINE
  5
1E659
330
1E
100
AcDbEntity
  8
22
100
AcDbLine
 10
168.0743518894059
 20
89.45312787595993
 30
0.0
 11
180.8253208962123
 21
89.45312787595993
 31
0.0
  0
LINE
  5
1E65A
330
1E
100
AcDbEntity
  8
22
100
AcDbLine
 10
169.9498363928092
 20
97.45312787595993
 30
0.0
 11
178.9498363928091
 21
97.45312787595993
 31
0.0
  0
LINE
  5
1E65B
330
1E
100
AcDbEntity
  8
18
  6
DIVIDE
 48
2.0
100
AcDbLine
 10
36.94983639280872
 20
81.45312787595974
 30
0.0
 11
221.9498363928092
 21
81.45312787595974
 31
0.0
  0
LINE
  5
1E65C
330
1E
100
AcDbEntity
  8
22
  6
DASHDOT
100
AcDbLine
 10
174.9498363928092
 20
97.45312787595993
 30
0.0
 11
218.9498363928092
 21
97.45312787595993
 31
0.0
  0
LINE
  5
1E65D
330
1E
100
AcDbEntity
  8
22
  6
DASHDOT
100
AcDbLine
 10
39.94983639280964
 20
97.45312787595993
 30
0.0
 11
83.94983639280964
 21
97.45312787595993
 31
0.0
  0
ARC
  5
1E65E
330
1E
100
AcDbEntity
  8
22
100
AcDbCircle
 10
-61.94983639280962
 20
97.45312787595993
 30
0.0
 40
18.0
210
0.0
220
0.0
230
-1.0
100
AcDbArc
 50
206.3877999612456
 51
180.0
  0
LINE
  5
1E65F
330
1E
100
AcDbEntity
  8
22
  6
DASHDOT
100
AcDbLine
 10
84.94983639280963
 20
97.45312787595993
 30
0.0
 11
128.9498363928091
 21
97.45312787595993
 31
0.0
  0
ARC
  5
1E660
330
1E
100
AcDbEntity
  8
22
100
AcDbCircle
 10
-106.9498363928096
 20
97.45312787595993
 30
0.0
 40
18.0
210
0.0
220
0.0
230
-1.0
100
AcDbArc
 50
0.0
 51
180.0
  0
ARC
  5
1E661
330
1E
100
AcDbEntity
  8
22
100
AcDbCircle
 10
-106.9498363928096
 20
97.45312787595993
 30
0.0
 40
18.0
210
0.0
220
0.0
230
-1.0
100
AcDbArc
 50
206.3877999612456
 51
333.6122000387574
  0
LINE
  5
1E662
330
1E
100
AcDbEntity
  8
22
  6
DASHDOT
100
AcDbLine
 10
106.9498363928096
 20
119.4531278759599
 30
0.0
 11
106.9498363928096
 21
75.45312787595992
 31
0.0
  0
LINE
  5
1E663
330
1E
100
AcDbEntity
  8
22
  6
DASHDOT
100
AcDbLine
 10
61.94983639280962
 20
119.4531278759599
 30
0.0
 11
61.94983639280962
 21
75.45312787595992
 31
0.0
  0
LINE
  5
1E664
330
1E
100
AcDbEntity
  8
22
100
AcDbLine
 10
78.07435188940599
 20
89.45312787595993
 30
0.0
 11
90.82532089621237
 21
89.45312787595993
 31
0.0
  0
LINE
  5
1E665
330
1E
100
AcDbEntity
  8
22
100
AcDbLine
 10
79.94983639280872
 20
97.45312787595993
 30
0.0
 11
88.94983639280964
 21
97.45312787595993
 31
0.0
  0
LINE
  5
1E666
330
1E
100
AcDbEntity
  8
22
100
AcDbLine
 10
77.44983639280872
 20
104.4531278759599
 30
0.0
 11
91.44983639280916
 21
104.4531278759599
 31
0.0
  0
LINE
  5
1E667
330
1E
100
AcDbEntity
  8
22
100
AcDbLine
 10
84.44983639280872
 20
111.4531278759599
 30
0.0
 11
84.44983639280872
 21
97.45312787595993
 31
0.0
  0
CIRCLE
  5
1E668
330
1E
100
AcDbEntity
  8
22
100
AcDbCircle
 10
-84.44983639280872
 20
104.4531278759599
 30
0.0
 40
3.0
210
0.0
220
0.0
230
-1.0
  0
LINE
  5
1E669
330
1E
100
AcDbEntity
  8
22
  6
DASHDOT
100
AcDbLine
 10
151.9498363928091
 20
119.4531278759599
 30
0.0
 11
151.9498363928091
 21
75.45312787595992
 31
0.0
  0
ARC
  5
1E66A
330
1E
100
AcDbEntity
  8
22
100
AcDbCircle
 10
-151.9498363928091
 20
97.45312787595993
 30
0.0
 40
18.0
210
0.0
220
0.0
230
-1.0
100
AcDbArc
 50
0.0
 51
180.0
  0
ARC
  5
1E66B
330
1E
100
AcDbEntity
  8
22
100
AcDbCircle
 10
-151.9498363928091
 20
97.45312787595993
 30
0.0
 40
18.0
210
0.0
220
0.0
230
-1.0
100
AcDbArc
 50
206.3877999612456
 51
333.6122000387574
  0
LINE
  5
1E66C
330
1E
100
AcDbEntity
  8
22
  6
DASHDOT
100
AcDbLine
 10
129.9498363928091
 20
97.45312787595993
 30
0.0
 11
173.9498363928092
 21
97.45312787595993
 31
0.0
  0
LINE
  5
1E66D
330
1E
100
AcDbEntity
  8
22
100
AcDbLine
 10
123.074351889406
 20
89.45312787595993
 30
0.0
 11
135.8253208962123
 21
89.45312787595993
 31
0.0
  0
LINE
  5
1E66E
330
1E
100
AcDbEntity
  8
22
100
AcDbLine
 10
124.9498363928092
 20
97.45312787595993
 30
0.0
 11
133.9498363928091
 21
97.45312787595993
 31
0.0
  0
LINE
  5
1E66F
330
1E
100
AcDbEntity
  8
22
100
AcDbLine
 10
122.4498363928091
 20
104.4531278759599
 30
0.0
 11
136.4498363928092
 21
104.4531278759599
 31
0.0
  0
CIRCLE
  5
1E670
330
1E
100
AcDbEntity
  8
22
100
AcDbCircle
 10
129.4498363928092
 20
104.4531278759599
 30
0.0
 40
3.0
  0
LINE
  5
1E671
330
1E
100
AcDbEntity
  8
22
100
AcDbLine
 10
129.4498363928092
 20
111.4531278759599
 30
0.0
 11
129.4498363928092
 21
97.45312787595993
 31
0.0
  0
LINE
  5
1E672
330
1E
100
AcDbEntity
  8
22
  6
DASHDOT
100
AcDbLine
 10
196.9498363928092
 20
119.4531278759599
 30
0.0
 11
196.9498363928092
 21
75.45312787595992
 31
0.0
  0
ARC
  5
1E673
330
1E
100
AcDbEntity
  8
22
100
AcDbCircle
 10
-196.9498363928092
 20
97.45312787595993
 30
0.0
 40
18.0
210
0.0
220
0.0
230
-1.0
100
AcDbArc
 50
0.0
 51
333.6122000387574
  0
LINE
  5
1E674
330
1E
100
AcDbEntity
  8
22
100
AcDbLine
 10
168.0743518894059
 20
333.4531278759599
 30
0.0
 11
180.8253208962123
 21
333.4531278759599
 31
0.0
  0
LINE
  5
1E675
330
1E
100
AcDbEntity
  8
22
100
AcDbLine
 10
169.9498363928092
 20
325.4531278759599
 30
0.0
 11
178.9498363928091
 21
325.4531278759599
 31
0.0
  0
LINE
  5
1E676
330
1E
100
AcDbEntity
  8
18
  6
DIVIDE
 48
2.0
100
AcDbLine
 10
221.9498363928092
 20
341.4531278759599
 30
0.0
 11
36.94983639280872
 21
341.4531278759599
 31
0.0
  0
LINE
  5
1E677
330
1E
100
AcDbEntity
  8
22
  6
DASHDOT
100
AcDbLine
 10
174.9498363928092
 20
325.4531278759599
 30
0.0
 11
218.9498363928092
 21
325.4531278759599
 31
0.0
  0
LINE
  5
1E678
330
1E
100
AcDbEntity
  8
22
  6
DASHDOT
100
AcDbLine
 10
106.9498363928096
 20
347.4531278759599
 30
0.0
 11
106.9498363928096
 21
303.4531278759599
 31
0.0
  0
LINE
  5
1E679
330
1E
100
AcDbEntity
  8
22
  6
DASHDOT
100
AcDbLine
 10
61.94983639280962
 20
347.4531278759599
 30
0.0
 11
61.94983639280962
 21
303.4531278759599
 31
0.0
  0
ARC
  5
1E67A
330
1E
100
AcDbEntity
  8
22
100
AcDbCircle
 10
61.94983639280962
 20
325.4531278759599
 30
0.0
 40
18.0
100
AcDbArc
 50
26.38779996124561
 51
0.0
  0
LINE
  5
1E67B
330
1E
100
AcDbEntity
  8
22
  6
DASHDOT
100
AcDbLine
 10
151.9498363928091
 20
347.4531278759599
 30
0.0
 11
151.9498363928091
 21
303.4531278759599
 31
0.0
  0
LINE
  5
1E67C
330
1E
100
AcDbEntity
  8
22
  6
DASHDOT
100
AcDbLine
 10
39.94983639280964
 20
325.4531278759599
 30
0.0
 11
83.94983639280964
 21
325.4531278759599
 31
0.0
  0
LINE
  5
1E67D
330
1E
100
AcDbEntity
  8
22
  6
DASHDOT
100
AcDbLine
 10
84.94983639280963
 20
325.4531278759599
 30
0.0
 11
128.9498363928091
 21
325.4531278759599
 31
0.0
  0
ARC
  5
1E67E
330
1E
100
AcDbEntity
  8
22
100
AcDbCircle
 10
106.9498363928096
 20
325.4531278759599
 30
0.0
 40
18.0
100
AcDbArc
 50
180.0
 51
0.0
  0
LINE
  5
1E67F
330
1E
100
AcDbEntity
  8
22
100
AcDbLine
 10
79.94983639280872
 20
325.4531278759599
 30
0.0
 11
88.94983639280964
 21
325.4531278759599
 31
0.0
  0
LINE
  5
1E680
330
1E
100
AcDbEntity
  8
22
100
AcDbLine
 10
77.44983639280872
 20
318.4531278759599
 30
0.0
 11
91.44983639280916
 21
318.4531278759599
 31
0.0
  0
LINE
  5
1E681
330
1E
100
AcDbEntity
  8
22
100
AcDbLine
 10
84.44983639280872
 20
325.4531278759599
 30
0.0
 11
84.44983639280872
 21
311.4531278759599
 31
0.0
  0
CIRCLE
  5
1E682
330
1E
100
AcDbEntity
  8
22
100
AcDbCircle
 10
84.44983639280872
 20
318.4531278759599
 30
0.0
 40
3.0
  0
ARC
  5
1E683
330
1E
100
AcDbEntity
  8
22
100
AcDbCircle
 10
151.9498363928091
 20
325.4531278759599
 30
0.0
 40
18.0
100
AcDbArc
 50
180.0
 51
0.0
  0
LINE
  5
1E684
330
1E
100
AcDbEntity
  8
22
  6
DASHDOT
100
AcDbLine
 10
129.9498363928091
 20
325.4531278759599
 30
0.0
 11
173.9498363928092
 21
325.4531278759599
 31
0.0
  0
LINE
  5
1E685
330
1E
100
AcDbEntity
  8
22
100
AcDbLine
 10
124.9498363928092
 20
325.4531278759599
 30
0.0
 11
133.9498363928091
 21
325.4531278759599
 31
0.0
  0
LINE
  5
1E686
330
1E
100
AcDbEntity
  8
22
100
AcDbLine
 10
122.4498363928091
 20
318.4531278759599
 30
0.0
 11
136.4498363928092
 21
318.4531278759599
 31
0.0
  0
CIRCLE
  5
1E687
330
1E
100
AcDbEntity
  8
22
100
AcDbCircle
 10
-129.4498363928092
 20
318.4531278759599
 30
0.0
 40
3.0
210
0.0
220
0.0
230
-1.0
  0
LINE
  5
1E688
330
1E
100
AcDbEntity
  8
22
100
AcDbLine
 10
129.4498363928092
 20
325.4531278759599
 30
0.0
 11
129.4498363928092
 21
311.4531278759599
 31
0.0
  0
ARC
  5
1E689
330
1E
100
AcDbEntity
  8
22
100
AcDbCircle
 10
106.9498363928096
 20
325.4531278759599
 30
0.0
 40
18.0
100
AcDbArc
 50
26.38779996124561
 51
153.6122000387573
  0
LINE
  5
1E68A
330
1E
100
AcDbEntity
  8
22
100
AcDbLine
 10
78.07435188940599
 20
333.4531278759599
 30
0.0
 11
90.82532089621237
 21
333.4531278759599
 31
0.0
  0
ARC
  5
1E68B
330
1E
100
AcDbEntity
  8
22
100
AcDbCircle
 10
151.9498363928091
 20
325.4531278759599
 30
0.0
 40
18.0
100
AcDbArc
 50
26.38779996124561
 51
153.6122000387573
  0
LINE
  5
1E68C
330
1E
100
AcDbEntity
  8
22
100
AcDbLine
 10
123.074351889406
 20
333.4531278759599
 30
0.0
 11
135.8253208962123
 21
333.4531278759599
 31
0.0
  0
ARC
  5
1E68D
330
1E
100
AcDbEntity
  8
22
100
AcDbCircle
 10
196.9498363928092
 20
325.4531278759599
 30
0.0
 40
18.0
100
AcDbArc
 50
180.0
 51
153.6122000387573
  0
LINE
  5
1E68E
330
1E
100
AcDbEntity
  8
22
  6
DASHDOT
100
AcDbLine
 10
196.9498363928092
 20
347.4531278759599
 30
0.0
 11
196.9498363928092
 21
303.4531278759599
 31
0.0
  0
LINE
  5
1E68F
330
1E
100
AcDbEntity
  8
10
  6
CONTINOUS
100
AcDbLine
 10
58.08462478055115
 20
810.7359342129097
 30
0.0
 11
244.0846247805507
 21
810.7359342129097
 31
0.0
  0
LWPOLYLINE
  5
1E690
330
1E
100
AcDbEntity
  8
10
  6
CONTINOUS
100
AcDbPolyline
 90
        4
 70
     0
 43
0.0
 10
187.0846247805511
 20
804.7359342129096
 10
187.0846247805511
 20
800.7359342129097
 10
71.08462478055115
 20
800.7359342129097
 10
71.08462478055115
 20
804.7359342129096
  0
DIMENSION
  5
1E691
330
1E
100
AcDbEntity
  8
30
  6
Continuous
100
AcDbDimension
280
     0
  2
*D5
 10
85.48867035842361
 20
315.6387320274908
 30
0.0
 11
59.75327075090994
 21
359.1719401971549
 31
0.0
 70
   163
  1
M6
 71
     5
 42
5.999999999999801
 73
     0
 74
     0
 75
     0
  3
STANDARD1
100
AcDbDiametricDimension
 15
83.41100242719141
 25
321.2675237244297
 35
0.0
 40
0.0
  0
DIMENSION
  5
1E692
330
1E
100
AcDbEntity
  8
30
  6
Continuous
100
AcDbDimension
280
     0
  2
*D6
 10
244.4854628437006
 20
406.4561711841415
 30
0.0
 11
151.9854628437006
 21
413.4561711841415
 31
0.0
 70
    32
 71
     5
 42
185.0
 73
     0
 74
     0
 75
     0
  3
STANDARD
100
AcDbAlignedDimension
 13
59.48546284370059
 23
474.4938972774822
 33
0.0
 14
244.4854628437006
 24
474.4938972774822
 34
0.0
100
AcDbRotatedDimension
1001
ACAD
1000
DSTYLE
1002
{
1070
    79
1070
     3
1002
}
  0
LWPOLYLINE
  5
1E693
330
1E
100
AcDbEntity
  8
10
380
     2
100
AcDbPolyline
 90
        4
 70
     1
 43
0.0
 10
700.0
 20
0.0
 10
700.0
 20
1088.0
 10
0.0
 20
1088.0
 10
0.0
 20
0.0
  0
LWPOLYLINE
  5
1E694
330
1E
100
AcDbEntity
  8
10
  6
CONTINOUS
100
AcDbPolyline
 90
        4
 70
     0
 43
0.0
 10
112.1096073640892
 20
793.2359339149098
 10
112.084623856751
 20
758.7742419393097
 10
146.0846257043508
 20
758.7742419393097
 10
146.1096073640892
 20
793.2359339149098
  0
LWPOLYLINE
  5
1E695
330
1E
100
AcDbEntity
  8
10
  6
CONTINOUS
100
AcDbPolyline
 90
        4
 70
     0
 43
0.0
 10
103.5846252575511
 20
800.7359342129097
 10
103.5846252571509
 20
793.2359339149098
 10
154.5846243035505
 20
793.2359339149098
 10
154.5846243035505
 20
800.7359342129097
  0
LINE
  5
1E696
330
1E
100
AcDbEntity
  8
10
  6
SLD-実線
370
    15
100
AcDbLine
 10
226.9854592675006
 20
659.3854240930823
 30
0.0
 11
216.9854613535008
 21
659.3854240930823
 31
0.0
  0
LINE
  5
1E697
330
1E
100
AcDbEntity
  8
10
  6
SLD-実線
370
    15
100
AcDbLine
 10
216.9854613535008
 20
659.3854240930823
 30
0.0
 11
216.9854613535008
 21
647.3854221262824
 31
0.0
  0
LINE
  5
1E698
330
1E
100
AcDbEntity
  8
10
  6
SLD-実線
370
    15
100
AcDbLine
 10
216.9854613535008
 20
647.3854221262824
 30
0.0
 11
226.9854592675006
 21
647.3854221262824
 31
0.0
  0
LINE
  5
1E699
330
1E
100
AcDbEntity
  8
10
  6
SLD-実線
370
    15
100
AcDbLine
 10
226.9854592675006
 20
647.3854221262824
 30
0.0
 11
226.9854592675006
 21
659.3854240930823
 31
0.0
  0
LINE
  5
1E69A
330
1E
100
AcDbEntity
  8
10
  6
CONTINOUS
100
AcDbLine
 10
199.5354639879005
 20
513.1023709982823
 30
0.0
 11
199.5354639879005
 21
690.3854198610822
 31
0.0
  0
LINE
  5
1E69B
330
1E
100
AcDbEntity
  8
10
  6
SLD-実線
370
    15
100
AcDbLine
 10
219.9854599827004
 20
657.3854237650825
 30
0.0
 11
218.4854643935005
 21
657.3854237650825
 31
0.0
  0
LINE
  5
1E69C
330
1E
100
AcDbEntity
  8
10
  6
SLD-実線
370
    15
100
AcDbLine
 10
219.6854623547006
 20
655.6948199726822
 30
0.0
 11
223.9854606383005
 21
649.3854224538822
 31
0.0
  0
LINE
  5
1E69D
330
1E
100
AcDbEntity
  8
10
  6
SLD-実線
370
    15
100
AcDbLine
 10
219.6854623547006
 20
649.3854224538822
 30
0.0
 11
219.6854623547006
 21
655.6948199726822
 31
0.0
  0
LINE
  5
1E69E
330
1E
100
AcDbEntity
  8
10
  6
SLD-実線
370
    15
100
AcDbLine
 10
218.4854643935005
 20
649.3854224538822
 30
0.0
 11
219.6854623547006
 21
649.3854224538822
 31
0.0
  0
LINE
  5
1E69F
330
1E
100
AcDbEntity
  8
10
  6
SLD-実線
370
    15
100
AcDbLine
 10
218.4854643935005
 20
657.3854237650825
 30
0.0
 11
218.4854643935005
 21
649.3854224538822
 31
0.0
  0
LINE
  5
1E6A0
330
1E
100
AcDbEntity
  8
10
  6
SLD-実線
370
    15
100
AcDbLine
 10
223.9854606383005
 20
649.3854224538822
 30
0.0
 11
225.4854636779005
 21
649.3854224538822
 31
0.0
  0
LINE
  5
1E6A1
330
1E
100
AcDbEntity
  8
10
  6
SLD-実線
370
    15
100
AcDbLine
 10
224.2854657167009
 20
657.3854237650825
 30
0.0
 11
224.2854657167009
 21
651.0760262466823
 31
0.0
  0
LINE
  5
1E6A2
330
1E
100
AcDbEntity
  8
10
  6
SLD-実線
370
    15
100
AcDbLine
 10
225.4854636779005
 20
649.3854224538822
 30
0.0
 11
225.4854636779005
 21
657.3854237650825
 31
0.0
  0
LINE
  5
1E6A3
330
1E
100
AcDbEntity
  8
10
  6
SLD-実線
370
    15
100
AcDbLine
 10
225.4854636779005
 20
657.3854237650825
 30
0.0
 11
224.2854657167009
 21
657.3854237650825
 31
0.0
  0
LINE
  5
1E6A4
330
1E
100
AcDbEntity
  8
10
  6
SLD-実線
370
    15
100
AcDbLine
 10
224.2854657167009
 20
651.0760262466823
 30
0.0
 11
219.9854599827004
 21
657.3854237650825
 31
0.0
  0
LINE
  5
1E6A5
330
1E
100
AcDbEntity
  8
10
  6
CONTINOUS
100
AcDbLine
 10
244.4854649299005
 20
695.8854235566823
 30
0.0
 11
199.5354639879005
 21
695.8854235566823
 31
0.0
  0
LINE
  5
1E6A6
330
1E
100
AcDbEntity
  8
10
  6
CONTINOUS
100
AcDbLine
 10
199.5354639879005
 20
695.8854235566823
 30
0.0
 11
199.5354639879005
 21
690.3854198610822
 31
0.0
  0
LINE
  5
1E6A7
330
1E
100
AcDbEntity
  8
10
  6
CONTINOUS
100
AcDbLine
 10
198.4854611151004
 20
695.8854235566823
 30
0.0
 11
59.48546254550091
 21
695.8854235566823
 31
0.0
  0
LINE
  5
1E6A8
330
1E
100
AcDbEntity
  8
10
  6
CONTINOUS
100
AcDbLine
 10
244.4854628437006
 20
513.1023709982823
 30
0.0
 11
59.48546254550091
 21
513.1023709982823
 31
0.0
  0
LINE
  5
1E6A9
330
1E
100
AcDbEntity
  8
16
 48
2.0
100
AcDbLine
 10
674.0460662463703
 20
211.4531278759599
 30
0.0
 11
484.1008571329675
 21
211.4531278759602
 31
0.0
  0
LINE
  5
1E6AA
330
1E
100
AcDbEntity
  8
16
 48
2.0
100
AcDbLine
 10
554.1008571329675
 20
63.5541272001389
 30
0.0
 11
554.1008571329675
 21
360.9247412967406
 31
0.0
  0
LWPOLYLINE
  5
1E6AB
330
1E
100
AcDbEntity
  8
18
  6
DIVIDE
100
AcDbPolyline
 90
        4
 70
     1
 43
0.0
 10
669.1008571329676
 20
81.45312787595992
 10
669.1008571329676
 20
341.4531278759604
 10
484.1008571329675
 20
341.4531278759604
 10
484.1008571329675
 20
81.45312787595992
  0
LWPOLYLINE
  5
1E6AC
330
1E
100
AcDbEntity
  8
11
 48
2.0
100
AcDbPolyline
 90
        8
 70
     1
 43
0.0
 10
578.6008571329675
 20
165.4531278759599
 42
0.4142135623730951
 10
580.6008571329676
 20
167.4531278759599
 10
580.6008571329676
 20
255.4531278759601
 42
0.4142135623730951
 10
578.6008571329675
 20
257.4531278759601
 10
529.6008571329675
 20
257.4531278759601
 42
0.4142135623730951
 10
527.6008571329676
 20
255.4531278759601
 10
527.6008571329676
 20
167.4531278759599
 42
0.4142135623730951
 10
529.6008571329675
 20
165.4531278759599
  0
DIMENSION
  5
1E6AD
330
1E
100
AcDbEntity
  8
30
  6
Continuous
100
AcDbDimension
280
     0
  2
*D7
 10
580.6008571329676
 20
49.36550365985056
 30
0.0
 11
554.1008571329675
 21
49.36550365985056
 31
0.0
 70
   160
 71
     5
 42
53.0
 73
     0
 74
     0
 75
     0
  3
STANDARD
100
AcDbAlignedDimension
 13
527.6008571329676
 23
164.07232407759
 33
0.0
 14
580.6008571329676
 24
164.07232407759
 34
0.0
100
AcDbRotatedDimension
1001
ACAD
1000
DSTYLE
1002
{
1070
    79
1070
     3
1070
   140
1040
8.0
1002
}
  0
DIMENSION
  5
1E6AE
330
1E
100
AcDbEntity
  8
30
  6
Continuous
100
AcDbDimension
280
     0
  2
*D8
 10
689.8753840024219
 20
165.4531278759599
 30
0.0
 11
689.8753840024219
 21
211.45312787596
 31
0.0
 70
   160
 71
     5
 42
92.00000000000015
 73
     0
 74
     0
 75
     0
  3
STANDARD
100
AcDbAlignedDimension
 13
580.6428397460657
 23
257.4531278759601
 33
0.0
 14
580.6428397460657
 24
165.4531278759599
 34
0.0
 50
90.0
100
AcDbRotatedDimension
1001
ACAD
1000
DSTYLE
1002
{
1070
    79
1070
     3
1070
   140
1040
8.0
1002
}
  0
MTEXT
  5
1E6AF
330
1E
100
AcDbEntity
  8
240
100
AcDbMText
 10
336.4991271979298
 20
26.95654655366195
 30
0.0
 40
10.0
 41
0.0
 46
0.0
 71
     1
 72
     1
  1
[Cutout A]
  7
SLDTEXTSTYLE0
 73
     1
 44
1.0
  0
MTEXT
  5
1E6B0
330
1E
100
AcDbEntity
  8
240
100
AcDbMText
 10
526.0103327135675
 20
26.95654655366195
 30
0.0
 40
10.0
 41
0.0
 46
0.0
 71
     1
 72
     1
  1
[Cutout B]
  7
SLDTEXTSTYLE0
 73
     1
 44
1.0
  0
LINE
  5
1E6B1
330
1E
100
AcDbEntity
  8
16
 48
2.0
100
AcDbLine
 10
473.239990968489
 20
211.4531278759599
 30
0.0
 11
273.1381175562474
 21
211.4531278759599
 31
0.0
  0
LINE
  5
1E6B2
330
1E
100
AcDbEntity
  8
16
 48
2.0
100
AcDbLine
 10
356.051666412045
 20
63.5541272001389
 30
0.0
 11
356.051666412045
 21
360.9247412967406
 31
0.0
  0
LWPOLYLINE
  5
1E6B3
330
1E
100
AcDbEntity
  8
18
  6
DIVIDE
100
AcDbPolyline
 90
        4
 70
     1
 43
0.0
 10
471.051666412045
 20
81.45312787595992
 10
471.051666412045
 20
341.4531278759604
 10
286.0516664120451
 20
341.4531278759604
 10
286.0516664120451
 20
81.45312787595992
  0
LWPOLYLINE
  5
1E6B4
330
1E
100
AcDbEntity
  8
11
 48
2.0
100
AcDbPolyline
 90
        8
 70
     1
 43
0.0
 10
413.051666412045
 20
165.4531278759599
 42
0.4142135623730951
 10
415.0516664120448
 20
167.4531278759599
 10
415.0516664120448
 20
255.4531278759601
 42
0.4142135623730951
 10
413.051666412045
 20
257.4531278759601
 10
299.051666412045
 20
257.4531278759601
 42
0.4142135623730951
 10
297.0516664120451
 20
255.4531278759601
 10
297.0516664120451
 20
167.4531278759599
 42
0.4142135623730951
 10
299.051666412045
 20
165.4531278759599
  0
DIMENSION
  5
1E6B5
330
1E
100
AcDbEntity
  8
30
  6
Continuous
100
AcDbDimension
280
     0
  2
*D9
 10
415.0516664120448
 20
49.36550365985056
 30
0.0
 11
356.051666412045
 21
49.36550365985056
 31
0.0
 70
   160
 71
     5
 42
118.0
 73
     0
 74
     0
 75
     0
  3
STANDARD
100
AcDbAlignedDimension
 13
297.0516664120451
 23
164.07232407759
 33
0.0
 14
415.0516664120448
 24
164.07232407759
 34
0.0
100
AcDbRotatedDimension
1001
ACAD
1000
DSTYLE
1002
{
1070
    79
1070
     3
1070
   140
1040
8.0
1002
}
  0
DIMENSION
  5
1E6B6
330
1E
100
AcDbEntity
  8
30
  6
Continuous
100
AcDbDimension
280
     0
  2
*D10
 10
443.1840474903775
 20
165.4531278759599
 30
0.0
 11
443.1840474903773
 21
222.2934255048501
 31
0.0
 70
   160
 71
     5
 42
92.00000000000022
 73
     0
 74
     0
 75
     0
  3
STANDARD
100
AcDbAlignedDimension
 13
415.0936490251432
 23
257.4531278759601
 33
0.0
 14
415.0936490251432
 24
165.4531278759599
 34
0.0
 50
90.0
100
AcDbRotatedDimension
1001
ACAD
1000
DSTYLE
1002
{
1070
    79
1070
     3
1070
   140
1040
8.0
1002
}
  0
DIMENSION
  5
1E6B7
330
1E
100
AcDbEntity
  8
30
  6
Continuous
100
AcDbDimension
280
     0
  2
*D11
 10
413.2289752270001
 20
255.1331720472802
 30
0.0
 11
445.8190126205876
 21
287.272274057648
 31
0.0
 70
   164
 71
     5
 42
2.000000000179623
 73
     0
 74
     0
 75
     0
  3
STANDARD1
100
AcDbRadialDimension
 15
414.3903399054992
 25
256.7614324945838
 35
0.0
 40
0.0
  0
DIMENSION
  5
1E6B8
330
1E
100
AcDbEntity
  8
30
  6
Continuous
100
AcDbDimension
280
     0
  2
*D12
 10
578.7781659479207
 20
255.1331720472805
 30
0.0
 11
611.368203341508
 21
287.2722740576481
 31
0.0
 70
   164
 71
     5
 42
2.000000000179738
 73
     0
 74
     0
 75
     0
  3
STANDARD1
100
AcDbRadialDimension
 15
579.9395306264201
 25
256.7614324945842
 35
0.0
 40
0.0
  0
LWPOLYLINE
  5
1E6CD
330
1E
100
AcDbEntity
  8
10
  6
CONTINOUS
100
AcDbPolyline
 90
       11
 70
     1
 43
0.0
 10
413.0486722478665
 20
512.5254577690903
 10
416.0623810060896
 20
512.4938970984818
 10
416.0623810060896
 20
474.4938972774824
 10
513.0623810060897
 20
474.4938972774824
 10
513.0623810060897
 20
734.4938972774825
 10
416.0623810060896
 20
734.4938972774825
 10
416.0623810060896
 20
696.4520089296571
 10
412.9832822967046
 20
696.419764208109
 42
0.2520626822056452
 10
410.0623838670894
 20
690.9938978013272
 10
410.0623810060897
 20
655.4938972774825
 10
410.0623838670894
 20
517.993897142235
 42
0.2552568693989432
  0
LINE
  5
1E6CE
330
1E
100
AcDbEntity
  8
10
  6
CONTINOUS
100
AcDbLine
 10
398.5623827940904
 20
560.4938972774822
 30
0.0
 11
398.5623827940904
 21
648.4938972774822
 31
0.0
  0
LINE
  5
1E6CF
330
1E
100
AcDbEntity
  8
10
  6
CONTINOUS
100
AcDbLine
 10
406.0623810060899
 20
649.4938972774822
 30
0.0
 11
406.0623810060899
 21
559.4938972774822
 31
0.0
  0
LINE
  5
1E6D0
330
1E
100
AcDbEntity
  8
10
  6
CONTINOUS
100
AcDbLine
 10
399.5623827940903
 20
559.4938972774822
 30
0.0
 11
410.0623810060899
 21
559.4938972774822
 31
0.0
  0
ARC
  5
1E6D1
330
1E
100
AcDbEntity
  8
10
  6
CONTINOUS
100
AcDbCircle
 10
399.5623827940903
 20
560.4938972774822
 30
0.0
 40
1.0
100
AcDbArc
 50
180.0
 51
270.0
  0
LINE
  5
1E6D2
330
1E
100
AcDbEntity
  8
10
  6
CONTINOUS
100
AcDbLine
 10
399.5623827940903
 20
649.4938972774822
 30
0.0
 11
410.0623810060899
 21
649.4938972774822
 31
0.0
  0
ARC
  5
1E6D3
330
1E
100
AcDbEntity
  8
10
  6
CONTINOUS
100
AcDbCircle
 10
399.5623827940903
 20
648.4938972774822
 30
0.0
 40
1.0
100
AcDbArc
 50
90.0
 51
180.0
  0
LWPOLYLINE
  5
1E6D4
330
1E
100
AcDbEntity
  8
10
  6
CONTINOUS
100
AcDbPolyline
 90
        8
 70
     1
 43
0.0
 10
389.2478157116519
 20
632.4803790693589
 10
379.8740121290706
 20
632.7380991108502
 10
365.7168843325703
 20
636.35511133535
 10
362.6110502060706
 20
624.7640009568502
 10
376.7223157460708
 20
620.7931506978503
 10
385.1602218310289
 20
617.2252590664513
 10
390.1788255940902
 20
616.2911503199818
 10
394.0611145265897
 20
630.7800373614822
  0
ARC
  5
1E6D5
330
1E
100
AcDbEntity
  8
10
  6
CONTINOUS
100
AcDbCircle
 10
443.1604933567668
 20
804.523030159849
 30
0.0
 40
181.6640122735105
100
AcDbArc
 50
252.8048349791452
 51
255.7887474977204
  0
ARC
  5
1E6D6
330
1E
100
AcDbEntity
  8
10
  6
CONTINOUS
100
AcDbCircle
 10
384.9187147693387
 20
570.6816144570463
 30
0.0
 40
46.90130289725614
100
AcDbArc
 50
73.08805372621603
 51
83.2422844130126
  0
LWPOLYLINE
  5
1E6D7
330
1E
100
AcDbEntity
  8
10
  6
CONTINOUS
100
AcDbPolyline
 90
        3
 70
     0
 43
0.0
 10
389.45562708959
 20
630.978797485482
 10
386.0909795030902
 20
618.421761743482
 10
390.43764572109
 20
617.2570760404822
  0
DIMENSION
  5
1E6D8
330
1E
100
AcDbEntity
  8
30
  6
Continuous
100
AcDbDimension
280
     0
  2
*D14
 10
341.5644749064946
 20
559.4938972774825
 30
0.0
 11
341.5644749064945
 21
604.4938972774827
 31
0.0
 70
   160
 71
     5
 42
89.99999999999966
 73
     0
 74
     0
 75
     0
  3
STANDARD
100
AcDbAlignedDimension
 13
399.5623827940899
 23
649.4938972774822
 33
0.0
 14
391.8486461786737
 24
559.4938972774825
 34
0.0
 50
90.0
100
AcDbRotatedDimension
1001
ACAD
1000
DSTYLE
1002
{
1070
    79
1070
     3
1002
}
  0
DIMENSION
  5
1E6D9
330
1E
100
AcDbEntity
  8
30
  6
Continuous
100
AcDbDimension
280
     0
  2
*D15
 10
513.0623810060897
 20
420.2947567027348
 30
0.0
 11
448.0623810060897
 21
420.2947567027348
 31
0.0
 70
   160
  1
<>
 71
     2
 42
130.0
 73
     0
 74
     0
 75
     0
  3
STANDARD
100
AcDbAlignedDimension
 13
383.0623810060897
 23
607.0000000000001
 33
0.0
 14
513.0623810060897
 24
474.4938972774824
 34
0.0
100
AcDbRotatedDimension
1001
ACAD
1000
DSTYLE
1002
{
1070
    79
1070
     3
1002
}
  0
DIMENSION
  5
1E6DA
330
1E
100
AcDbEntity
  8
30
  6
Continuous
100
AcDbDimension
280
     0
  2
*D16
 10
513.0623810060897
 20
452.3348303280521
 30
0.0
 11
461.562381006089
 21
452.3348303280521
 31
0.0
 70
   160
  1
<>
 71
     2
 42
103.0
 73
     0
 74
     0
 75
     0
  3
STANDARD
100
AcDbAlignedDimension
 13
410.0623810060897
 23
524.3264926460255
 33
0.0
 14
513.0623810060897
 24
474.4938972774824
 34
0.0
100
AcDbRotatedDimension
1001
ACAD
1000
DSTYLE
1002
{
1070
    79
1070
     3
1002
}
  0
DIMENSION
  5
1E6DB
330
1E
100
AcDbEntity
  8
30
  6
Continuous
100
AcDbDimension
280
     0
  2
*D17
 10
513.0623810060897
 20
402.9706853769623
 30
0.0
 11
437.5656331213319
 21
409.9706853769623
 31
0.0
 70
    32
 71
     5
 42
150.9934957695155
 73
     0
 74
     0
 75
     0
  3
STANDARD
100
AcDbAlignedDimension
 13
362.0688852365741
 23
617.0000000000001
 33
0.0
 14
513.0623810060897
 24
419.7947567027348
 34
0.0
100
AcDbRotatedDimension
1001
ACAD
1000
DSTYLE
1002
{
1070
    79
1070
     3
1002
}
  0
DIMENSION
  5
1E6DC
330
1E
100
AcDbEntity
  8
30
  6
Continuous
100
AcDbDimension
280
     0
  2
*D18
 10
398.0623808870896
 20
436.0953494397771
 30
0.0
 11
388.3957142204229
 21
443.0953494397771
 31
0.0
 70
    32
 71
     5
 42
8.0
 73
     0
 74
     0
 75
     0
  3
STANDARD1
100
AcDbAlignedDimension
 13
406.0623808870896
 23
554.0
 33
0.0
 14
398.0623808870896
 24
554.0
 34
0.0
100
AcDbRotatedDimension
  0
DIMENSION
  5
1E6DD
330
1E
100
AcDbEntity
  8
30
  6
Continuous
100
AcDbDimension
280
     0
  2
*D19
 10
513.0623810060897
 20
436.0953494397771
 30
0.0
 11
459.5623809465896
 21
443.0953494397771
 31
0.0
 70
    32
 71
     5
 42
107.0000001190001
 73
     0
 74
     0
 75
     0
  3
STANDARD
100
AcDbAlignedDimension
 13
406.0623808870896
 23
436.0953494397771
 33
0.0
 14
513.0623810060897
 24
452.3348303280521
 34
0.0
100
AcDbRotatedDimension
1001
ACAD
1000
DSTYLE
1002
{
1070
    79
1070
     3
1002
}
  0
ARC
  5
1E6DE
330
1E
100
AcDbEntity
  8
30
  6
Continuous
100
AcDbCircle
 10
383.2692332988768
 20
619.1922467649327
 30
0.0
 40
21.3963775782504
100
AcDbArc
 50
164.9058206776074
 51
187.7617629093246
  0
ARC
  5
1E6DF
330
1E
100
AcDbEntity
  8
30
  6
Continuous
100
AcDbCircle
 10
413.142550058559
 20
604.2897588535296
 30
0.0
 40
30.29117494757552
100
AcDbArc
 50
153.259213236605
 51
173.2332630719461
  0
DIMENSION
  5
1E6E0
330
1E
100
AcDbEntity
  8
30
  6
Continuous
100
AcDbDimension
280
     0
  2
*D20
 10
129.4854628437006
 20
434.0840344571224
 30
0.0
 11
112.4854628437006
 21
441.0840344571223
 31
0.0
 70
    32
 71
     5
 42
22.5
 73
     0
 74
     0
 75
     0
  3
STANDARD
100
AcDbAlignedDimension
 13
151.9854628437006
 23
465.9732419983921
 33
0.0
 14
129.4854628437006
 24
466.3990331162876
 34
0.0
100
AcDbRotatedDimension
  0
LINE
  5
1E6E1
330
1E
100
AcDbEntity
  8
16
 48
2.0
100
AcDbLine
 10
151.9854628437006
 20
465.9732419983921
 30
0.0
 11
151.9854628437006
 21
743.8619138678205
 31
0.0
  0
DIMENSION
  5
1E6E4
330
1E
100
AcDbEntity
  8
30
100
AcDbDimension
280
     0
  2
*D21
 10
129.4498363928092
 20
46.95668450142512
 30
0.0
 11
106.9498363928089
 21
53.95668450142512
 31
0.0
 70
    32
 71
     5
 42
45.00000000000045
 73
     0
 74
     0
 75
     0
  3
STANDARD
100
AcDbAlignedDimension
 13
84.44983639280872
 23
101.4531278759599
 33
0.0
 14
129.4498363928092
 24
101.4531278759599
 34
0.0
100
AcDbRotatedDimension
  0
LWPOLYLINE
  5
1E6E5
330
1E
100
AcDbEntity
  8
10
  6
CONTINOUS
100
AcDbPolyline
 90
        4
 70
     1
 43
0.0
 10
244.0846247805507
 20
804.7359342129096
 10
58.08462478055115
 20
804.7359342129096
 10
58.08462478055115
 20
907.7359342129099
 10
244.0846247805507
 20
907.7359342129099
  0
LWPOLYLINE
  5
1E6E6
330
1E
100
AcDbEntity
  8
12
100
AcDbPolyline
 90
        6
 70
     0
 43
0.0
 10
103.0846252573508
 20
907.7359342129099
 10
103.0846252573508
 20
921.9359343053101
 10
103.5846244077509
 20
922.4359343873098
 10
108.5846252273511
 20
922.4359343873098
 10
109.0846243781509
 20
921.9359343053101
 10
109.0846243781509
 20
907.7359342129099
  0
LINE
  5
1E6E7
330
1E
100
AcDbEntity
  8
12
100
AcDbLine
 10
103.0846252573508
 20
921.9359343053101
 30
0.0
 11
109.0846243781509
 21
921.9359343053101
 31
0.0
  0
DIMENSION
  5
1E6E8
330
1E
100
AcDbEntity
  8
30
  6
Continuous
100
AcDbDimension
280
     0
  2
*D22
 10
277.8400543611023
 20
907.7359342129097
 30
0.0
 11
277.8400543611021
 21
965.2359342129097
 31
0.0
 70
   160
  1
<>
 71
     2
 42
114.9999999999999
 73
     0
 74
     0
 75
     0
 51
0.000000000000007
  3
STANDARD
100
AcDbAlignedDimension
 13
218.584624780551
 23
1022.73593421291
 33
0.0
 14
245.8997641033509
 24
907.7359342129099
 34
0.0
 50
270.0
100
AcDbRotatedDimension
1001
ACAD
1000
DSTYLE
1002
{
1070
    79
1070
     3
1002
}
  0
DIMENSION
  5
1E6E9
330
1E
100
AcDbEntity
  8
30
  6
Continuous
100
AcDbDimension
280
     0
  2
*D23
 10
297.8400543611023
 20
907.7359342129097
 30
0.0
 11
297.8400543611022
 21
973.23593421291
 31
0.0
 70
   160
  1
<>
 71
     2
 42
130.9999999999999
 73
     0
 74
     0
 75
     0
 51
0.000000000000007
  3
STANDARD
100
AcDbAlignedDimension
 13
229.8777924857511
 23
1038.73593421291
 33
0.0
 14
245.8997641033509
 24
907.7359342129099
 34
0.0
 50
270.0
100
AcDbRotatedDimension
1001
ACAD
1000
DSTYLE
1002
{
1070
    79
1070
     3
1002
}
  0
DIMENSION
  5
1E6ED
330
1E
100
AcDbEntity
  8
30
  6
Continuous
100
AcDbDimension
280
     0
  2
*D24
 10
257.8400543611023
 20
907.7359342129097
 30
0.0
 11
257.8400543611021
 21
886.4754542221099
 31
0.0
 70
   160
  1
<>
 71
     2
 42
14.69999999999993
 73
     0
 74
     0
 75
     0
 51
0.000000000000007
  3
STANDARD
100
AcDbAlignedDimension
 13
153.5846247805509
 23
922.4359342129098
 33
0.0
 14
243.584624780551
 24
907.7359342129099
 34
0.0
 50
270.0
100
AcDbRotatedDimension
1001
ACAD
1000
DSTYLE
1002
{
1070
    79
1070
     3
1002
}
  0
LINE
  5
1E6EE
330
1E
100
AcDbEntity
  8
SLD-0
  6
SLD-1点鎖線(中心線)
370
     0
100
AcDbLine
 10
151.0846247805509
 20
930.1359342129099
 30
0.0
 11
151.0846247805509
 21
901.5551877453098
 31
0.0
  0
LINE
  5
1E6EF
330
1E
100
AcDbEntity
  8
SLD-0
  6
SLD-1点鎖線(中心線)
370
     0
100
AcDbLine
 10
106.0846247805509
 20
930.1359342129099
 30
0.0
 11
106.0846247805509
 21
901.0865054453097
 31
0.0
  0
INSERT
  5
1E6F0
330
1E
100
AcDbEntity
  8
0
100
AcDbBlockReference
  2
L-BAR
 10
128.5846247803508
 20
907.7359342129099
 30
0.0
  0
INSERT
  5
1E6F1
330
1E
100
AcDbEntity
  8
0
100
AcDbBlockReference
  2
S-BAR
 10
173.5846256373509
 20
907.7359342129099
 30
0.0
  0
INSERT
  5
1E6F2
330
1E
100
AcDbEntity
  8
0
100
AcDbBlockReference
  2
S-BAR
 10
83.584623923751
 20
907.7359342129099
 30
0.0
  0
INSERT
  5
1E6F3
330
1E
100
AcDbEntity
  8
0
100
AcDbBlockReference
  2
L-BAR
 10
218.584624780551
 20
907.7359342129099
 30
0.0
  0
LWPOLYLINE
  5
1E6F4
330
1E
100
AcDbEntity
  8
12
100
AcDbPolyline
 90
        6
 70
     0
 43
0.0
 10
148.0846252573508
 20
907.7359342129099
 10
148.0846252573508
 20
921.9359343053101
 10
148.5846244077509
 20
922.4359343873098
 10
153.5846252273511
 20
922.4359343873098
 10
154.0846243781509
 20
921.9359343053101
 10
154.0846243781509
 20
907.7359342129099
  0
LINE
  5
1E6F5
330
1E
100
AcDbEntity
  8
12
100
AcDbLine
 10
148.0846252573508
 20
921.9359343053101
 30
0.0
 11
154.0846243781509
 21
921.9359343053101
 31
0.0
  0
LINE
  5
1E6F9
330
1E
100
AcDbEntity
  8
10
  6
CONTINOUS
100
AcDbLine
 10
154.9854628437006
 20
559.4938972774823
 30
0.0
 11
154.9854628437006
 21
649.4938972774822
 31
0.0
  0
LINE
  5
1E6FA
330
1E
100
AcDbEntity
  8
10
  6
CONTINOUS
100
AcDbLine
 10
103.985462843701
 20
559.4938972774823
 30
0.0
 11
103.9854628437006
 21
649.4938972774822
 31
0.0
  0
LWPOLYLINE
  5
1E6FB
330
1E
100
AcDbEntity
  8
10
  6
CONTINOUS
100
AcDbPolyline
 90
        4
 70
     1
 43
0.0
 10
146.485462843701
 20
627.4727330660596
 10
112.4854628437006
 20
627.4727330660596
 10
112.4854628437006
 20
637.3025575975274
 10
146.4854628437006
 20
637.3025575975274
  0
LWPOLYLINE
  5
1E6FC
330
1E
100
AcDbEntity
  8
10
  6
CONTINOUS
100
AcDbPolyline
 90
        4
 70
     1
 43
0.0
 10
187.4854628437006
 20
559.4938972774823
 10
71.48546284370059
 20
559.4938972774823
 10
71.48546284370059
 20
649.4938972774822
 10
187.4854628437006
 20
649.4938972774822
  0
LWPOLYLINE
  5
1E6FD
330
1E
100
AcDbEntity
  8
10
  6
CONTINOUS
100
AcDbPolyline
 90
        4
 70
     1
 43
0.0
 10
147.4854628437006
 20
638.4938972774822
 10
111.4854628437006
 20
638.4938972774822
 10
111.4854628437006
 20
570.4938972774822
 10
147.4854628437006
 20
570.4938972774822
  0
DIMENSION
  5
1E6FE
330
1E
100
AcDbEntity
  8
30
  6
Continuous
100
AcDbDimension
280
     0
  2
*D25
 10
187.4854628437006
 20
535.6551184310098
 30
0.0
 11
129.4854628437006
 21
542.6551184310095
 31
0.0
 70
    32
 71
     5
 42
116.0
 73
     0
 74
     0
 75
     0
  3
STANDARD
100
AcDbAlignedDimension
 13
71.48546284370059
 23
559.4938972774823
 33
0.0
 14
187.4854628437006
 24
559.4938972774823
 34
0.0
100
AcDbRotatedDimension
  0
DIMENSION
  5
1E6FF
330
1E
100
AcDbEntity
  8
30
  6
Continuous
100
AcDbDimension
280
     0
  2
*D26
 10
104.0067523382008
 20
660.5210103932862
 30
0.0
 11
129.4961075909507
 21
667.5210103932862
 31
0.0
 70
    32
 71
     5
 42
50.97871050549976
 73
     0
 74
     0
 75
     0
  3
STANDARD
100
AcDbAlignedDimension
 13
154.9854628437006
 23
648.4938972774822
 33
0.0
 14
104.0067523382008
 24
648.4938972774822
 34
0.0
100
AcDbRotatedDimension
  0
DIMENSION
  5
1E9E5
330
1E
100
AcDbEntity
  8
30
  6
Continuous
100
AcDbDimension
280
     0
  2
*D38
 10
77.10962299235099
 20
986.9528506560703
 30
0.0
 11
58.53886292995093
 21
986.9528506560703
 31
0.0
 70
   160
  1
<>
 71
     2
 42
13.0
 73
     0
 74
     0
 75
     0
 51
0.000000000000007
  3
STANDARD
100
AcDbAlignedDimension
 13
90.10962299235098
 23
957.7359363067587
 33
0.0
 14
77.10962299235099
 24
957.7359363067587
 34
0.0
100
AcDbRotatedDimension
1001
ACAD
1000
DSTYLE
1002
{
1070
    79
1070
     3
1002
}
  0
DIMENSION
  5
1E9E6
330
1E
100
AcDbEntity
  8
30
  6
Continuous
100
AcDbDimension
280
     0
  2
*D39
 10
68.49148214103975
 20
1003.064505105091
 30
0.0
 11
52.3164552871508
 21
1003.064505105091
 31
0.0
 70
   160
  1
<>
 71
     2
 42
29.98628185168845
 73
     0
 74
     0
 75
     0
 51
0.000000000000007
  3
STANDARD
100
AcDbAlignedDimension
 13
98.4777639927282
 23
964.7067849380384
 33
0.0
 14
68.49148214103975
 24
964.7067849378633
 34
0.0
100
AcDbRotatedDimension
1001
ACAD
1000
DSTYLE
1002
{
1070
    79
1070
     3
1002
}
  0
DIMENSION
  5
1E9E8
330
1E
100
AcDbEntity
  8
30
  6
Continuous
100
AcDbDimension
280
     0
  2
*D40
 10
128.584623066951
 20
1057.78227099256
 30
0.0
 11
106.084623066951
 21
1064.78227099256
 31
0.0
 70
    32
 71
     5
 42
45.0
 73
     0
 74
     0
 75
     0
  3
STANDARD
100
AcDbAlignedDimension
 13
83.58462306695107
 23
973.7359338553099
 33
0.0
 14
128.584623066951
 24
1013.73593385531
 34
0.0
100
AcDbRotatedDimension
  0
DIMENSION
  5
1E9E9
330
1E
100
AcDbEntity
  8
30
  6
Continuous
100
AcDbDimension
280
     0
  2
*D41
 10
173.5846247805509
 20
1057.78227099256
 30
0.0
 11
151.5846706110681
 21
1057.282271350159
 31
0.0
 70
   160
 71
     5
 42
45.00000171359988
 73
     0
 74
     0
 75
     0
  3
STANDARD
100
AcDbAlignedDimension
 13
128.584623066951
 23
1013.73593385531
 33
0.0
 14
173.5846247805509
 24
967.735933922359
 34
0.0
100
AcDbRotatedDimension
1001
ACAD
1000
DSTYLE
1002
{
1070
   287
1070
     4
1070
   287
1070
     4
1070
   287
1070
     4
1070
   279
1070
     1
1002
}
  0
DIMENSION
  5
1EA7C
330
1E
100
AcDbEntity
  8
30
100
AcDbDimension
280
     0
  2
*D42
 10
218.609624780751
 20
1057.770306211579
 30
0.0
 11
196.097124780651
 21
1064.770306211579
 31
0.0
 70
    32
 71
     5
 42
45.02500000020018
 73
     0
 74
     0
 75
     0
  3
STANDARD
100
AcDbAlignedDimension
 13
173.5846247805509
 23
973.7359338553099
 33
0.0
 14
218.609624780751
 24
1032.735933922359
 34
0.0
100
AcDbRotatedDimension
  0
DIMENSION
  5
1EA92
330
1E
100
AcDbEntity
  8
30
100
AcDbDimension
280
     0
  2
*D43
 10
272.2652790804805
 20
559.4938972774822
 30
0.0
 11
265.2652790804804
 21
604.4938972774822
 31
0.0
 70
    32
 71
     5
 42
90.0
 73
     0
 74
     0
 75
     0
  3
STANDARD
100
AcDbAlignedDimension
 13
187.4854628437006
 23
649.4938972774822
 33
0.0
 14
187.4854628437006
 24
559.4938972774823
 34
0.0
 50
90.0
100
AcDbRotatedDimension
  0
DIMENSION
  5
1EC72
330
1E
100
AcDbEntity
  8
30
  6
Continuous
100
AcDbDimension
280
     0
  2
*D46
 10
59.13284103427418
 20
951.2359339223593
 30
0.0
 11
52.13284103427402
 21
940.9026005890256
 31
0.0
 70
    32
 71
     5
 42
14.0
 73
     0
 74
     0
 75
     0
  3
STANDARD
100
AcDbAlignedDimension
 13
84.584623923751
 23
965.2359339223593
 33
0.0
 14
84.584623923751
 24
951.2359339223593
 34
0.0
 50
90.0
100
AcDbRotatedDimension
  0
DIMENSION
  5
1EC74
330
1E
100
AcDbEntity
  8
30
100
AcDbDimension
280
     0
  2
*D47
 10
22.02701809256017
 20
973.7359338553098
 30
0.0
 11
22.02701809256002
 21
940.1964908205743
 31
0.0
 70
   160
 71
     5
 42
65.99999964239987
 73
     0
 74
     0
 75
     0
  3
STANDARD
100
AcDbAlignedDimension
 13
71.58462392375098
 23
907.7359342129099
 33
0.0
 14
72.97774734935114
 24
973.7359338553098
 34
0.0
 50
90.0
100
AcDbRotatedDimension
  0
DIMENSION
  5
1EC77
330
1E
100
AcDbEntity
  8
30
100
AcDbDimension
280
     0
  2
*D48
 10
42.43179475150123
 20
907.7359342129099
 30
0.0
 11
35.4317947515011
 21
932.7359340676343
 31
0.0
 70
    32
 71
     5
 42
49.99999970944918
 73
     0
 74
     0
 75
     0
  3
STANDARD
100
AcDbAlignedDimension
 13
76.38462306695107
 23
957.7359339223587
 33
0.0
 14
69.38462662535062
 24
907.7359342129099
 34
0.0
 50
90.0
100
AcDbRotatedDimension
  0
INSERT
  5
1EED4
330
1E
100
AcDbEntity
  8
0
100
AcDbBlockReference
  2
S-BAR
 10
513.0623810060897
 20
490.4689000714808
 30
0.0
 50
270.0
  0
INSERT
  5
1EED5
330
1E
100
AcDbEntity
  8
0
100
AcDbBlockReference
  2
L-BAR
 10
513.0623810060897
 20
490.4938972776815
 30
0.0
 50
270.0
  0
LINE
  5
1EF7C
330
1E
100
AcDbEntity
  8
17
100
AcDbLine
 10
629.0623810060895
 20
730.4938972774825
 30
0.0
 11
629.0623810060895
 21
706.4938972774823
 31
0.0
  0
LINE
  5
1EF7E
330
1E
100
AcDbEntity
  8
24
100
AcDbLine
 10
606.5623810060901
 20
706.4938972774832
 30
0.0
 11
606.5623810060901
 21
730.4938972774833
 31
0.0
  0
LINE
  5
1EF7F
330
1E
100
AcDbEntity
  8
24
100
AcDbLine
 10
607.5623810060902
 20
714.4938972774824
 30
0.0
 11
644.0623810060898
 21
714.4938972774824
 31
0.0
  0
LINE
  5
1EF80
330
1E
100
AcDbEntity
  8
24
100
AcDbLine
 10
607.5623810060902
 20
709.9938972774832
 30
0.0
 11
607.5623810060902
 21
714.4938972774824
 31
0.0
  0
LINE
  5
1EF81
330
1E
100
AcDbEntity
  8
24
100
AcDbLine
 10
606.5623810060901
 20
709.9938972774832
 30
0.0
 11
607.5623810060902
 21
709.9938972774832
 31
0.0
  0
LINE
  5
1EF82
330
1E
100
AcDbEntity
  8
24
100
AcDbLine
 10
607.5623810060902
 20
722.4938972774823
 30
0.0
 11
644.0623810060898
 21
722.4938972774823
 31
0.0
  0
LINE
  5
1EF83
330
1E
100
AcDbEntity
  8
24
100
AcDbLine
 10
607.5623810060902
 20
726.9938972774832
 30
0.0
 11
607.5623810060902
 21
722.4938972774823
 31
0.0
  0
LINE
  5
1EF84
330
1E
100
AcDbEntity
  8
24
100
AcDbLine
 10
606.5623810060901
 20
726.9938972774832
 30
0.0
 11
607.5623810060902
 21
726.9938972774832
 31
0.0
  0
LINE
  5
1EF85
330
1E
100
AcDbEntity
  8
24
100
AcDbLine
 10
547.9832902380258
 20
730.4938972774833
 30
0.0
 11
606.5623810060901
 21
730.4938972774833
 31
0.0
  0
LINE
  5
1EF86
330
1E
100
AcDbEntity
  8
24
100
AcDbLine
 10
547.9832902380258
 20
706.4938972774832
 30
0.0
 11
606.5623810060901
 21
706.4938972774832
 31
0.0
  0
VIEWPORT
  5
9AC
330
1A
100
AcDbEntity
 67
     1
  8
0
  6
Continuous
348
8A77
100
AcDbViewport
 10
171.999535
 20
144.1384739999999
 30
0.0
 40
488.867686
 41
292.351491
 68
     1
 69
     1
 12
171.999535
 22
144.1384739999999
 13
0.0
 23
0.0
 14
10.0
 24
10.0
 15
10.0
 25
10.0
 16
0.0
 26
0.0
 36
1.0
 17
0.0
 27
0.0
 37
0.0
 42
50.0
 43
0.0
 44
0.0
 45
292.351491
 50
0.0
 51
0.0
 72
   100
 90
    32800
  1

281
     0
 71
     1
 74
     0
110
0.0
120
0.0
130
0.0
111
1.0
121
0.0
131
0.0
112
0.0
122
1.0
132
0.0
 79
     0
146
0.0
170
     0
 61
     5
348
8A77
292
     1
282
     1
141
0.0
142
0.0
 63
   250
421
  3355443
  0
ENDSEC
  0
SECTION
  2
OBJECTS
  0
DICTIONARY
  5
C
330
0
100
AcDbDictionary
281
     1
  3
ACAD_CIP_PREVIOUS_PRODUCT_INFO
350
8AA8
  3
ACAD_COLOR
350
8A8A
  3
ACAD_DETAILVIEWSTYLE
350
8AA3
  3
ACAD_GROUP
350
D
  3
ACAD_LAYOUT
350
19
  3
ACAD_MATERIAL
350
8A58
  3
ACAD_MLEADERSTYLE
350
8A9F
  3
ACAD_MLINESTYLE
350
16
  3
ACAD_PLOTSETTINGS
350
18
  3
ACAD_PLOTSTYLENAME
350
E
  3
ACAD_SCALELIST
350
8A8D
  3
ACAD_SECTIONVIEWSTYLE
350
8AA1
  3
ACAD_TABLESTYLE
350
8A8B
  3
ACAD_VISUALSTYLE
350
8A71
  3
ACADDIM
350
6D5E
  3
ACDB_RECOMPOSE_DATA
350
1EFAD
  3
ACDBVARIABLEDICTIONARY
350
5697
  3
AEC_PROPERTY_SET_DEFS
350
BFC4
  0
DICTIONARY
  5
F3CC
330
2
100
AcDbDictionary
280
     1
281
     1
  3
ACAD_LAYERSTATES
360
F3CD
  0
DICTIONARY
  5
8ACC
330
10
100
AcDbDictionary
280
     1
281
     1
  3
ADSK_XREC_LAYER_RECONCILED
360
8ACD
  0
DICTIONARY
  5
8ACE
330
2F
100
AcDbDictionary
280
     1
281
     1
  3
ADSK_XREC_LAYER_RECONCILED
360
8ACF
  0
DICTIONARY
  5
8AD2
330
35
100
AcDbDictionary
280
     1
281
     1
  3
ADSK_XREC_LAYER_RECONCILED
360
8AD3
  0
DICTIONARY
  5
8AD4
330
38
100
AcDbDictionary
280
     1
281
     1
  3
ADSK_XREC_LAYER_RECONCILED
360
8AD5
  0
DICTIONARY
  5
8AD8
330
3A2
100
AcDbDictionary
280
     1
281
     1
  3
ADSK_XREC_LAYER_RECONCILED
360
8AD9
  0
DICTIONARY
  5
8ADA
330
3BBA
100
AcDbDictionary
280
     1
281
     1
  3
ADSK_XREC_LAYER_RECONCILED
360
8ADB
  0
DICTIONARY
  5
8ADC
330
67A8
100
AcDbDictionary
280
     1
281
     1
  3
ADSK_XREC_LAYER_RECONCILED
360
8ADD
  0
DICTIONARY
  5
8ADE
330
7837
100
AcDbDictionary
280
     1
281
     1
  3
ADSK_XREC_LAYER_RECONCILED
360
8ADF
  0
DICTIONARY
  5
9134
330
9133
100
AcDbDictionary
280
     1
281
     1
  0
DICTIONARY
  5
1CA81
330
1CA80
100
AcDbDictionary
280
     1
281
     1
  0
DICTIONARY
  5
1DF69
330
1DF68
100
AcDbDictionary
280
     1
281
     1
  0
DICTIONARY
  5
1DF6B
330
1DF6A
100
AcDbDictionary
280
     1
281
     1
  0
DICTIONARY
  5
1DF6D
330
1DF6C
100
AcDbDictionary
280
     1
281
     1
  0
DICTIONARY
  5
178
330
1E
100
AcDbDictionary
280
     1
281
     1
  3
ACAD_LAYOUTSELFREF
360
8A0F
  3
ACAD_SORTENTS
360
10338
  0
DICTIONARY
  5
17A
330
1A
100
AcDbDictionary
280
     1
281
     1
  3
ACAD_LAYOUTSELFREF
360
8A0E
  0
DICTIONARY
  5
1EF2C
330
1DEEB
100
AcDbDictionary
280
     1
281
     1
  3
ACAD_SORTENTS
360
1EF2D
  0
DICTIONARY
  5
1EF13
330
1DEF6
100
AcDbDictionary
280
     1
281
     1
  3
ACAD_SORTENTS
360
1EF14
  0
DICTIONARY
  5
1E9DE
330
1E9D8
100
AcDbDictionary
280
     1
281
     1
  3
ACAD_SORTENTS
360
1E9DF
  0
XRECORD
  5
8AA8
102
{ACAD_REACTORS
330
C
102
}
330
C
100
AcDbXrecord
280
     1
300
ACDLT
300
2014
300
ACDLT_F_S
  0
DICTIONARY
  5
8A8A
102
{ACAD_REACTORS
330
C
102
}
330
C
100
AcDbDictionary
281
     1
  0
DICTIONARY
  5
8AA3
102
{ACAD_REACTORS
330
C
102
}
330
C
100
AcDbDictionary
281
     1
  3
Imperial24
350
8AA4
  0
DICTIONARY
  5
D
102
{ACAD_REACTORS
330
C
102
}
330
C
100
AcDbDictionary
281
     1
  0
DICTIONARY
  5
19
102
{ACAD_REACTORS
330
C
102
}
330
C
100
AcDbDictionary
281
     1
  3
Model
350
8A4C
  3
ﾚｲｱｳﾄ1
350
8A4D
  0
DICTIONARY
  5
8A58
102
{ACAD_REACTORS
330
C
102
}
330
C
100
AcDbDictionary
281
     1
  3
ByBlock
350
8A61
  3
ByLayer
350
8A59
  3
Global
350
8A69
  0
DICTIONARY
  5
8A9F
102
{ACAD_REACTORS
330
C
102
}
330
C
100
AcDbDictionary
281
     1
  3
Standard
350
8AA0
  0
DICTIONARY
  5
16
102
{ACAD_REACTORS
330
C
102
}
330
C
100
AcDbDictionary
281
     1
  3
STANDARD
350
17
  0
DICTIONARY
  5
18
102
{ACAD_REACTORS
330
C
102
}
330
C
100
AcDbDictionary
281
     1
  0
ACDBDICTIONARYWDFLT
  5
E
102
{ACAD_REACTORS
330
C
102
}
330
C
100
AcDbDictionary
281
     1
  3
Normal
350
F
100
AcDbDictionaryWithDefault
340
F
  0
DICTIONARY
  5
8A8D
102
{ACAD_REACTORS
330
C
102
}
330
C
100
AcDbDictionary
281
     1
  3
A0
350
8A8E
  3
A1
350
8A8F
  3
A2
350
8A90
  3
A3
350
8A91
  3
A4
350
8A92
  3
A5
350
8A93
  3
A6
350
8A94
  3
A7
350
8A95
  3
A8
350
8A96
  3
A9
350
8A97
  3
B0
350
8A98
  3
B1
350
8A99
  3
B2
350
8A9A
  3
B3
350
8A9B
  3
B4
350
8A9C
  3
B5
350
8A9D
  3
B6
350
8A9E
  0
DICTIONARY
  5
8AA1
102
{ACAD_REACTORS
330
C
102
}
330
C
100
AcDbDictionary
281
     1
  3
Imperial24
350
8AA2
  0
DICTIONARY
  5
8A8B
102
{ACAD_REACTORS
330
C
102
}
330
C
100
AcDbDictionary
281
     1
  3
Standard
350
8A8C
  0
DICTIONARY
  5
8A71
102
{ACAD_REACTORS
330
C
102
}
330
C
100
AcDbDictionary
281
     1
  3
2dWireframe
350
8A77
  3
3D Hidden
350
8B2B
  3
3dWireframe
350
8B2A
  3
Basic
350
8A76
  3
Brighten
350
8A7D
  3
ColorChange
350
8A81
  3
Conceptual
350
8A7A
  3
Dim
350
8A7C
  3
EdgeColorOff
350
8A89
  3
Facepattern
350
8A80
  3
Flat
350
8A72
  3
FlatWithEdges
350
8A73
  3
Gouraud
350
8A74
  3
GouraudWithEdges
350
8A75
  3
Hidden
350
8A79
  3
JitterOff
350
8A87
  3
Linepattern
350
8A7F
  3
OverhangOff
350
8A88
  3
Realistic
350
8A7B
  3
Shaded
350
8A86
  3
Shaded with edges
350
8A85
  3
Shades of Gray
350
8A82
  3
Sketchy
350
8A83
  3
Thicken
350
8A7E
  3
Wireframe
350
8A78
  3
X-Ray
350
8A84
  0
XRECORD
  5
6D5E
102
{ACAD_REACTORS
330
C
102
}
330
C
100
AcDbXrecord
280
     1
 90
   990106
  3

 60
     0
 61
     0
 62
     1
 63
     3
 64
     0
 65
     0
 66
     0
 67
     3
 68
     1
 69
     0
 70
     0
 71
     0
 72
     0
 40
0.0
170
     0
340
0
  0
XRECORD
  5
1EFAD
102
{ACAD_REACTORS
330
C
102
}
330
C
100
AcDbXrecord
280
     1
 90
        1
330
8A8C
330
8AA2
330
8AA4
  0
DICTIONARY
  5
5697
102
{ACAD_REACTORS
330
C
102
}
330
C
100
AcDbDictionary
281
     1
  3
CANNOSCALE
350
8AE9
  3
CMLEADERSTYLE
350
8AE5
  3
CTABLESTYLE
350
8AE4
  3
CVIEWDETAILSTYLE
350
8AE6
  3
CVIEWSECTIONSTYLE
350
8AE7
  3
DIMASSOC
350
5698
  3
LAYEREVAL
350
8AEB
  3
LAYERNOTIFY
350
8AEC
  3
LIGHTINGUNITS
350
8AEA
  3
MSLTSCALE
350
8AE8
  0
DICTIONARY
  5
BFC4
102
{ACAD_REACTORS
330
C
102
}
330
C
100
AcDbDictionary
281
     1
  0
DICTIONARY
  5
F3CD
102
{ACAD_REACTORS
330
F3CC
102
}
330
F3CC
100
AcDbDictionary
281
     1
  0
XRECORD
  5
8ACD
102
{ACAD_REACTORS
330
8ACC
102
}
330
8ACC
100
AcDbXrecord
280
     1
290
     1
  0
XRECORD
  5
8ACF
102
{ACAD_REACTORS
330
8ACE
102
}
330
8ACE
100
AcDbXrecord
280
     1
290
     1
  0
XRECORD
  5
8AD3
102
{ACAD_REACTORS
330
8AD2
102
}
330
8AD2
100
AcDbXrecord
280
     1
290
     1
  0
XRECORD
  5
8AD5
102
{ACAD_REACTORS
330
8AD4
102
}
330
8AD4
100
AcDbXrecord
280
     1
290
     1
  0
XRECORD
  5
8AD9
102
{ACAD_REACTORS
330
8AD8
102
}
330
8AD8
100
AcDbXrecord
280
     1
290
     1
  0
XRECORD
  5
8ADB
102
{ACAD_REACTORS
330
8ADA
102
}
330
8ADA
100
AcDbXrecord
280
     1
290
     1
  0
XRECORD
  5
8ADD
102
{ACAD_REACTORS
330
8ADC
102
}
330
8ADC
100
AcDbXrecord
280
     1
290
     1
  0
XRECORD
  5
8ADF
102
{ACAD_REACTORS
330
8ADE
102
}
330
8ADE
100
AcDbXrecord
280
     1
290
     1
  0
XRECORD
  5
8A0F
102
{ACAD_REACTORS
330
178
102
}
330
178
100
AcDbXrecord
280
     1
340
1E
  0
SORTENTSTABLE
  5
10338
102
{ACAD_REACTORS
330
178
102
}
330
178
100
AcDbSortentsTable
330
1E
  0
XRECORD
  5
8A0E
102
{ACAD_REACTORS
330
17A
102
}
330
17A
100
AcDbXrecord
280
     1
340
1A
  0
SORTENTSTABLE
  5
1EF2D
102
{ACAD_REACTORS
330
1EF2C
102
}
330
1EF2C
100
AcDbSortentsTable
330
1DEEB
  0
SORTENTSTABLE
  5
1EF14
102
{ACAD_REACTORS
330
1EF13
102
}
330
1EF13
100
AcDbSortentsTable
330
1DEF6
  0
SORTENTSTABLE
  5
1E9DF
102
{ACAD_REACTORS
330
1E9DE
102
}
330
1E9DE
100
AcDbSortentsTable
330
1E9D8
  0
ACDBDETAILVIEWSTYLE
  5
8AA4
102
{ACAD_XDICTIONARY
360
1EFAB
102
}
102
{ACAD_REACTORS
330
8AA3
102
}
330
8AA3
100
AcDbModelDocViewStyle
 70
     0
  3
Imperial24
290
     0
100
AcDbDetailViewStyle
 70
     0
 71
     0
 90
        3
 71
     1
340
11
 62
   256
 40
0.24
340
0
 62
   256
 40
0.24
300

 40
0.36
280
     3
 71
     2
340
15
 90
       25
 62
   256
 71
     3
340
11
 62
   256
 40
0.24
 90
        1
 40
0.75
 90
        1
300
%<\AcVar ViewType \f "%tc1">% %<\AcVar ViewDetailId>%\PSCALE %<\AcVar ViewScale \f "%sn">%
 71
     4
340
15
 90
       25
 62
   256
340
15
 90
       25
 62
   256
280
     0
  0
LAYOUT
  5
8A4C
102
{ACAD_XDICTIONARY
360
F3D2
102
}
102
{ACAD_REACTORS
330
19
102
}
330
19
100
AcDbPlotSettings
  1

  2
none_device
  4
Letter_(8.50_x_11.00_Inches)
  6

 40
6.349999904632567
 41
6.349999904632567
 42
6.350006103515625
 43
6.350006103515625
 44
215.8999938964844
 45
279.3999938964844
 46
0.0
 47
0.0
 48
0.0
 49
0.0
140
0.0
141
0.0
142
1.0
143
317.0449279872537
 70
 11952
 72
     0
 73
     1
 74
     0
  7
monochrome.ctb
 75
     0
147
0.0031541271022642
 76
     0
 77
     2
 78
   300
148
21198.07971653447
149
42574.72085005308
100
AcDbLayout
  1
Model
 70
     1
 71
     0
 10
0.0
 20
0.0
 11
12.0
 21
9.0
 12
0.0
 22
0.0
 32
0.0
 14
0.0
 24
0.0
 34
0.0
 15
0.0
 25
0.0
 35
0.0
146
0.0
 13
0.0
 23
0.0
 33
0.0
 16
1.0
 26
0.0
 36
0.0
 17
0.0
 27
1.0
 37
0.0
 76
     0
330
1E
331
8A51
1001
ACAD_PSEXT
1000
なし
1000
なし
1000
適切ではありません
1000
新しいプロッタ環境設定名を選択しない限り、レイアウトは印刷されません。
1070
     0
  0
LAYOUT
  5
8A4D
102
{ACAD_REACTORS
330
19
102
}
330
19
100
AcDbPlotSettings
  1

  2
Canon LBP3800 LIPSLX
  4

  6

 40
0.0
 41
0.0
 42
0.0
 43
0.0
 44
0.0
 45
0.0
 46
0.0
 47
0.0
 48
0.0
 49
0.0
140
0.0
141
0.0
142
1.0
143
1.0
 70
   688
 72
     0
 73
     0
 74
     5
  7
monochrome.ctb
 75
    16
147
1.0
 76
     0
 77
     2
 78
   300
148
0.0
149
0.0
100
AcDbLayout
  1
ﾚｲｱｳﾄ1
 70
     1
 71
     1
 10
-5.873749
 20
-5.87375
 11
204.099579
 21
291.1369009999999
 12
0.0
 22
0.0
 32
0.0
 14
4.273573
 24
5.205245999999998
 34
0.0
 15
194.610095
 25
283.0697009999996
 35
0.0
146
0.0
 13
0.0
 23
0.0
 33
0.0
 16
1.0
 26
0.0
 36
0.0
 17
0.0
 27
1.0
 37
0.0
 76
     0
330
1A
331
9AC
  0
MATERIAL
  5
8A61
102
{ACAD_XDICTIONARY
360
8A62
102
}
102
{ACAD_REACTORS
330
8A58
102
}
330
8A58
100
AcDbMaterial
  1
ByBlock
 72
     0
 43
0.0208333333333333
 43
0.0
 43
0.0
 43
0.0
 43
0.0
 43
0.0208333333333333
 43
0.0
 43
0.0
 43
0.0
 43
0.0
 43
1.0
 43
0.0
 43
0.0
 43
0.0
 43
0.0
 43
1.0
 77
     0
 47
0.0208333333333333
 47
0.0
 47
0.0
 47
0.0
 47
0.0
 47
0.0208333333333333
 47
0.0
 47
0.0
 47
0.0
 47
0.0
 47
1.0
 47
0.0
 47
0.0
 47
0.0
 47
0.0
 47
1.0
171
     0
 49
0.0208333333333333
 49
0.0
 49
0.0
 49
0.0
 49
0.0
 49
0.0208333333333333
 49
0.0
 49
0.0
 49
0.0
 49
0.0
 49
1.0
 49
0.0
 49
0.0
 49
0.0
 49
0.0
 49
1.0
175
     0
142
0.0208333333333333
142
0.0
142
0.0
142
0.0
142
0.0
142
0.0208333333333333
142
0.0
142
0.0
142
0.0
142
0.0
142
1.0
142
0.0
142
0.0
142
0.0
142
0.0
142
1.0
179
     0
144
0.0208333333333333
144
0.0
144
0.0
144
0.0
144
0.0
144
0.0208333333333333
144
0.0
144
0.0
144
0.0
144
0.0
144
1.0
144
0.0
144
0.0
144
0.0
144
0.0
144
1.0
147
0.0208333333333333
147
0.0
147
0.0
147
0.0
147
0.0
147
0.0208333333333333
147
0.0
147
0.0
147
0.0
147
0.0
147
1.0
147
0.0
147
0.0
147
0.0
147
0.0
147
1.0
  0
MATERIAL
  5
8A59
102
{ACAD_XDICTIONARY
360
8A5A
102
}
102
{ACAD_REACTORS
330
8A58
102
}
330
8A58
100
AcDbMaterial
  1
ByLayer
 72
     0
 43
0.0208333333333333
 43
0.0
 43
0.0
 43
0.0
 43
0.0
 43
0.0208333333333333
 43
0.0
 43
0.0
 43
0.0
 43
0.0
 43
1.0
 43
0.0
 43
0.0
 43
0.0
 43
0.0
 43
1.0
 77
     0
 47
0.0208333333333333
 47
0.0
 47
0.0
 47
0.0
 47
0.0
 47
0.0208333333333333
 47
0.0
 47
0.0
 47
0.0
 47
0.0
 47
1.0
 47
0.0
 47
0.0
 47
0.0
 47
0.0
 47
1.0
171
     0
 49
0.0208333333333333
 49
0.0
 49
0.0
 49
0.0
 49
0.0
 49
0.0208333333333333
 49
0.0
 49
0.0
 49
0.0
 49
0.0
 49
1.0
 49
0.0
 49
0.0
 49
0.0
 49
0.0
 49
1.0
175
     0
142
0.0208333333333333
142
0.0
142
0.0
142
0.0
142
0.0
142
0.0208333333333333
142
0.0
142
0.0
142
0.0
142
0.0
142
1.0
142
0.0
142
0.0
142
0.0
142
0.0
142
1.0
179
     0
144
0.0208333333333333
144
0.0
144
0.0
144
0.0
144
0.0
144
0.0208333333333333
144
0.0
144
0.0
144
0.0
144
0.0
144
1.0
144
0.0
144
0.0
144
0.0
144
0.0
144
1.0
147
0.0208333333333333
147
0.0
147
0.0
147
0.0
147
0.0
147
0.0208333333333333
147
0.0
147
0.0
147
0.0
147
0.0
147
1.0
147
0.0
147
0.0
147
0.0
147
0.0
147
1.0
  0
MATERIAL
  5
8A69
102
{ACAD_XDICTIONARY
360
8A6A
102
}
102
{ACAD_REACTORS
330
8A58
102
}
330
8A58
100
AcDbMaterial
  1
Global
 72
     0
 43
0.0208333333333333
 43
0.0
 43
0.0
 43
0.0
 43
0.0
 43
0.0208333333333333
 43
0.0
 43
0.0
 43
0.0
 43
0.0
 43
1.0
 43
0.0
 43
0.0
 43
0.0
 43
0.0
 43
1.0
 77
     0
 47
0.0208333333333333
 47
0.0
 47
0.0
 47
0.0
 47
0.0
 47
0.0208333333333333
 47
0.0
 47
0.0
 47
0.0
 47
0.0
 47
1.0
 47
0.0
 47
0.0
 47
0.0
 47
0.0
 47
1.0
171
     0
 49
0.0208333333333333
 49
0.0
 49
0.0
 49
0.0
 49
0.0
 49
0.0208333333333333
 49
0.0
 49
0.0
 49
0.0
 49
0.0
 49
1.0
 49
0.0
 49
0.0
 49
0.0
 49
0.0
 49
1.0
175
     0
142
0.0208333333333333
142
0.0
142
0.0
142
0.0
142
0.0
142
0.0208333333333333
142
0.0
142
0.0
142
0.0
142
0.0
142
1.0
142
0.0
142
0.0
142
0.0
142
0.0
142
1.0
179
     0
144
0.0208333333333333
144
0.0
144
0.0
144
0.0
144
0.0
144
0.0208333333333333
144
0.0
144
0.0
144
0.0
144
0.0
144
1.0
144
0.0
144
0.0
144
0.0
144
0.0
144
1.0
147
0.0208333333333333
147
0.0
147
0.0
147
0.0
147
0.0
147
0.0208333333333333
147
0.0
147
0.0
147
0.0
147
0.0
147
1.0
147
0.0
147
0.0
147
0.0
147
0.0
147
1.0
  0
MLEADERSTYLE
  5
8AA0
102
{ACAD_REACTORS
330
8A9F
102
}
330
8A9F
100
AcDbMLeaderStyle
179
     2
170
     2
171
     1
172
     0
 90
        2
 40
0.0
 41
0.0
173
     1
 91
-1056964608
340
13
 92
       -2
290
     1
 42
0.09
291
     1
 43
0.36
  3
Standard
 44
0.18
300

342
11
174
     1
178
     6
175
     1
176
     0
 93
-1056964608
 45
0.18
292
     0
297
     0
 46
0.18
 94
-1056964608
 47
1.0
 49
1.0
140
1.0
293
     1
141
0.0
294
     1
177
     0
142
1.0
295
     0
296
     0
143
0.125
271
     0
272
     9
273
     9
298
     0
  0
MLINESTYLE
  5
17
102
{ACAD_REACTORS
330
16
102
}
330
16
100
AcDbMlineStyle
  2
STANDARD
 70
     0
  3

 62
   256
 51
90.0
 52
90.0
 71
     2
 49
0.5
 62
   256
  6
BYLAYER
 49
-0.5
 62
   256
  6
BYLAYER
  0
ACDBPLACEHOLDER
  5
F
102
{ACAD_REACTORS
330
E
102
}
330
E
  0
SCALE
  5
8A8E
102
{ACAD_REACTORS
330
8A8D
102
}
330
8A8D
100
AcDbScale
 70
     0
300
1:1
140
1.0
141
1.0
290
     1
  0
SCALE
  5
8A8F
102
{ACAD_REACTORS
330
8A8D
102
}
330
8A8D
100
AcDbScale
 70
     0
300
1/128" = 1'-0"
140
0.0078125
141
12.0
290
     0
  0
SCALE
  5
8A90
102
{ACAD_REACTORS
330
8A8D
102
}
330
8A8D
100
AcDbScale
 70
     0
300
1/64" = 1'-0"
140
0.015625
141
12.0
290
     0
  0
SCALE
  5
8A91
102
{ACAD_REACTORS
330
8A8D
102
}
330
8A8D
100
AcDbScale
 70
     0
300
1/32" = 1'-0"
140
0.03125
141
12.0
290
     0
  0
SCALE
  5
8A92
102
{ACAD_REACTORS
330
8A8D
102
}
330
8A8D
100
AcDbScale
 70
     0
300
1/16" = 1'-0"
140
0.0625
141
12.0
290
     0
  0
SCALE
  5
8A93
102
{ACAD_REACTORS
330
8A8D
102
}
330
8A8D
100
AcDbScale
 70
     0
300
3/32" = 1'-0"
140
0.09375
141
12.0
290
     0
  0
SCALE
  5
8A94
102
{ACAD_REACTORS
330
8A8D
102
}
330
8A8D
100
AcDbScale
 70
     0
300
1/8" = 1'-0"
140
0.125
141
12.0
290
     0
  0
SCALE
  5
8A95
102
{ACAD_REACTORS
330
8A8D
102
}
330
8A8D
100
AcDbScale
 70
     0
300
3/16" = 1'-0"
140
0.1875
141
12.0
290
     0
  0
SCALE
  5
8A96
102
{ACAD_REACTORS
330
8A8D
102
}
330
8A8D
100
AcDbScale
 70
     0
300
1/4" = 1'-0"
140
0.25
141
12.0
290
     0
  0
SCALE
  5
8A97
102
{ACAD_REACTORS
330
8A8D
102
}
330
8A8D
100
AcDbScale
 70
     0
300
3/8" = 1'-0"
140
0.375
141
12.0
290
     0
  0
SCALE
  5
8A98
102
{ACAD_REACTORS
330
8A8D
102
}
330
8A8D
100
AcDbScale
 70
     0
300
1/2" = 1'-0"
140
0.5
141
12.0
290
     0
  0
SCALE
  5
8A99
102
{ACAD_REACTORS
330
8A8D
102
}
330
8A8D
100
AcDbScale
 70
     0
300
3/4" = 1'-0"
140
0.75
141
12.0
290
     0
  0
SCALE
  5
8A9A
102
{ACAD_REACTORS
330
8A8D
102
}
330
8A8D
100
AcDbScale
 70
     0
300
1" = 1'-0"
140
1.0
141
12.0
290
     0
  0
SCALE
  5
8A9B
102
{ACAD_REACTORS
330
8A8D
102
}
330
8A8D
100
AcDbScale
 70
     0
300
1-1/2" = 1'-0"
140
1.5
141
12.0
290
     0
  0
SCALE
  5
8A9C
102
{ACAD_REACTORS
330
8A8D
102
}
330
8A8D
100
AcDbScale
 70
     0
300
3" = 1'-0"
140
3.0
141
12.0
290
     0
  0
SCALE
  5
8A9D
102
{ACAD_REACTORS
330
8A8D
102
}
330
8A8D
100
AcDbScale
 70
     0
300
6" = 1'-0"
140
6.0
141
12.0
290
     0
  0
SCALE
  5
8A9E
102
{ACAD_REACTORS
330
8A8D
102
}
330
8A8D
100
AcDbScale
 70
     0
300
1'-0" = 1'-0"
140
12.0
141
12.0
290
     0
  0
ACDBSECTIONVIEWSTYLE
  5
8AA2
102
{ACAD_XDICTIONARY
360
1EFA9
102
}
102
{ACAD_REACTORS
330
8AA1
102
}
330
8AA1
100
AcDbModelDocViewStyle
 70
     0
  3
Imperial24
290
     0
100
AcDbSectionViewStyle
 70
     0
 71
     0
 90
       78
 71
     1
340
11
 62
   256
 40
0.24
340
0
340
0
 62
   256
 40
0.24
300
I, O, Q, S, X, Z
 40
0.48
 90
        3
 40
0.18
 90
        1
 71
     2
340
15
 90
       25
 62
   256
340
15
 90
       50
 62
   256
 40
0.24
 40
0.0
 40
0.24
 71
     3
340
11
 62
   256
 40
0.24
 90
        1
 40
0.75
 90
        1
300
%<\AcVar ViewType \f "%tc1">% %<\AcVar ViewSectionStartId>%-%<\AcVar ViewSectionEndId>%\PSCALE %<\AcVar ViewScale \f "%sn">%
 71
     4
 62
   256
 62
   257
300
ANSI31
 40
1.0
 90
        0
290
     0
290
     0
 90
        6
 40
0.0
 40
1.570796326794896
 40
0.2617993877991494
 40
1.308996938995747
 40
-0.2617993877991494
 40
1.832595714594044
  0
TABLESTYLE
  5
8A8C
102
{ACAD_XDICTIONARY
360
8AED
102
}
102
{ACAD_REACTORS
330
8A8B
102
}
330
8A8B
100
AcDbTableStyle
280
     0
  3
Standard
 70
     0
 71
     0
 40
0.06
 41
0.06
280
     0
281
     0
  7
STANDARD
140
0.18
170
     2
 62
     0
 63
     7
283
     0
 90
      512
 91
        0
  1

274
    -2
284
     1
 64
     0
275
    -2
285
     1
 65
     0
276
    -2
286
     1
 66
     0
277
    -2
287
     1
 67
     0
278
    -2
288
     1
 68
     0
279
    -2
289
     1
 69
     0
  7
STANDARD
140
0.25
170
     5
 62
     0
 63
     7
283
     0
 90
      512
 91
        0
  1

274
    -2
284
     1
 64
     0
275
    -2
285
     1
 65
     0
276
    -2
286
     1
 66
     0
277
    -2
287
     1
 67
     0
278
    -2
288
     1
 68
     0
279
    -2
289
     1
 69
     0
  7
STANDARD
140
0.18
170
     5
 62
     0
 63
     7
283
     0
 90
      512
 91
        0
  1

274
    -2
284
     1
 64
     0
275
    -2
285
     1
 65
     0
276
    -2
286
     1
 66
     0
277
    -2
287
     1
 67
     0
278
    -2
288
     1
 68
     0
279
    -2
289
     1
 69
     0
  0
VISUALSTYLE
  5
8A77
102
{ACAD_REACTORS
330
8A71
102
}
330
8A71
100
AcDbVisualStyle
  2
2dWireframe
 70
     4
177
     3
291
     0
 70
    58
 90
        0
176
     1
 90
        2
176
     1
 90
        0
176
     1
 90
        0
176
     1
 40
0.6
176
     1
 40
30.0
176
     1
 62
     7
420
 16777215
176
     1
 90
        1
176
     1
 90
        4
176
     1
 62
     7
176
     1
 62
   257
176
     1
 90
        1
176
     1
 90
        1
176
     1
 40
1.0
176
     1
 90
        0
176
     1
 62
   257
176
     1
 40
1.0
176
     1
 90
        1
176
     1
 90
        6
176
     1
 90
        2
176
     1
 62
     7
176
     1
 90
        5
176
     1
 90
        0
176
     1
 90
        0
176
     1
290
     0
176
     1
 90
        1
176
     1
 40
0.0
176
     1
 90
        0
176
     1
290
     1
176
     1
290
     1
176
     1
290
     0
176
     1
290
     0
176
     1
290
     0
176
     1
290
     0
176
     1
290
     0
176
     1
290
     0
176
     1
290
     0
176
     1
 90
       50
176
     1
 40
0.0
176
     1
 40
1.0
176
     1
 90
        0
176
     1
 62
    18
420
        0
176
     1
 90
       50
176
     1
 90
        3
176
     1
 62
     5
420
      255
176
     1
290
     0
176
     1
 90
       50
176
     1
 90
       50
176
     1
 90
       50
176
     1
290
     0
176
     1
 90
       50
176
     1
 62
   256
176
     0
 40
1.0
176
     0
 90
        2
176
     1
  1
strokes_ogs.tif
176
     1
290
     0
176
     1
 40
1.0
176
     1
 40
1.0
176
     1
  0
VISUALSTYLE
  5
8B2B
102
{ACAD_REACTORS
330
8A71
102
}
330
8A71
100
AcDbVisualStyle
  2
3D Hidden
 70
     6
177
     3
291
     0
 70
    58
 90
        1
176
     1
 90
        2
176
     1
 90
        2
176
     1
 90
        0
176
     1
 40
0.6
176
     1
 40
30.0
176
     1
 62
     7
420
 16777215
176
     1
 90
        2
176
     1
 90
        2
176
     1
 62
     7
176
     1
 62
   257
176
     1
 90
        2
176
     1
 90
        1
176
     1
 40
179.0
176
     1
 90
        0
176
     1
 62
   257
176
     1
 40
1.0
176
     1
 90
        1
176
     1
 90
        6
176
     1
 90
        2
176
     1
 62
     7
176
     1
 90
        3
176
     1
 90
        0
176
     1
 90
        0
176
     1
290
     0
176
     1
 90
        1
176
     1
 40
0.0
176
     1
 90
        0
176
     1
290
     0
176
     1
290
     1
176
     1
290
     1
176
     1
290
     0
176
     1
290
     0
176
     1
290
     0
176
     1
290
     0
176
     1
290
     0
176
     1
290
     0
176
     1
 90
       50
176
     1
 40
0.0
176
     1
 40
1.0
176
     1
 90
        0
176
     1
 62
    18
420
        0
176
     1
 90
       50
176
     1
 90
        3
176
     1
 62
     5
420
      255
176
     1
290
     0
176
     1
 90
       50
176
     1
 90
       50
176
     1
 90
       50
176
     1
290
     0
176
     1
 90
       50
176
     1
 62
   256
176
     0
 40
1.0
176
     0
 90
        2
176
     1
  1
strokes_ogs.tif
176
     1
290
     0
176
     1
 40
1.0
176
     1
 40
1.0
176
     1
  0
VISUALSTYLE
  5
8B2A
102
{ACAD_REACTORS
330
8A71
102
}
330
8A71
100
AcDbVisualStyle
  2
3dWireframe
 70
     5
177
     3
291
     0
 70
    58
 90
        0
176
     1
 90
        2
176
     1
 90
        0
176
     1
 90
        0
176
     1
 40
0.6
176
     1
 40
30.0
176
     1
 62
     7
420
 16777215
176
     1
 90
        1
176
     1
 90
        4
176
     1
 62
     7
176
     1
 62
   257
176
     1
 90
        1
176
     1
 90
        1
176
     1
 40
1.0
176
     1
 90
        0
176
     1
 62
   257
176
     1
 40
1.0
176
     1
 90
        1
176
     1
 90
        6
176
     1
 90
        2
176
     1
 62
     7
176
     1
 90
        5
176
     1
 90
        0
176
     1
 90
        0
176
     1
290
     0
176
     1
 90
        1
176
     1
 40
0.0
176
     1
 90
        0
176
     1
290
     0
176
     1
290
     1
176
     1
290
     1
176
     1
290
     0
176
     1
290
     0
176
     1
290
     0
176
     1
290
     0
176
     1
290
     0
176
     1
290
     0
176
     1
 90
       50
176
     1
 40
0.0
176
     1
 40
1.0
176
     1
 90
        0
176
     1
 62
    18
420
        0
176
     1
 90
       50
176
     1
 90
        3
176
     1
 62
     5
420
      255
176
     1
290
     0
176
     1
 90
       50
176
     1
 90
       50
176
     1
 90
       50
176
     1
290
     0
176
     1
 90
       50
176
     1
 62
   256
176
     0
 40
1.0
176
     0
 90
        2
176
     1
  1
strokes_ogs.tif
176
     1
290
     0
176
     1
 40
1.0
176
     1
 40
1.0
176
     1
  0
VISUALSTYLE
  5
8A76
102
{ACAD_REACTORS
330
8A71
102
}
330
8A71
100
AcDbVisualStyle
  2
Basic
 70
     7
177
     3
291
     1
 70
    58
 90
        1
176
     1
 90
        0
176
     1
 90
        1
176
     1
 90
        0
176
     1
 40
0.6
176
     1
 40
30.0
176
     1
 62
     7
420
 16777215
176
     1
 90
        0
176
     1
 90
        4
176
     1
 62
     7
176
     1
 62
   257
176
     1
 90
        1
176
     1
 90
        1
176
     1
 40
1.0
176
     1
 90
        8
176
     1
 62
     7
176
     1
 40
1.0
176
     1
 90
        1
176
     1
 90
        6
176
     1
 90
        2
176
     1
 62
     7
176
     1
 90
        5
176
     1
 90
        0
176
     1
 90
        0
176
     1
290
     0
176
     1
 90
        1
176
     1
 40
0.0
176
     1
 90
        0
176
     1
290
     0
176
     1
290
     1
176
     1
290
     1
176
     1
290
     0
176
     1
290
     0
176
     1
290
     0
176
     1
290
     0
176
     1
290
     0
176
     1
290
     0
176
     1
 90
       50
176
     1
 40
0.0
176
     1
 40
1.0
176
     1
 90
        0
176
     1
 62
    18
420
        0
176
     1
 90
       50
176
     1
 90
        3
176
     1
 62
     5
420
      255
176
     1
290
     0
176
     1
 90
       50
176
     1
 90
       50
176
     1
 90
       50
176
     1
290
     0
176
     1
 90
       50
176
     1
 62
   256
176
     0
 40
1.0
176
     0
 90
        2
176
     1
  1
strokes_ogs.tif
176
     1
290
     0
176
     1
 40
1.0
176
     1
 40
1.0
176
     1
  0
VISUALSTYLE
  5
8A7D
102
{ACAD_REACTORS
330
8A71
102
}
330
8A71
100
AcDbVisualStyle
  2
Brighten
 70
    12
177
     3
291
     1
 70
    58
 90
        2
176
     1
 90
        2
176
     1
 90
        0
176
     1
 90
        0
176
     1
 40
0.6
176
     1
 40
30.0
176
     1
 62
     7
420
 16777215
176
     1
 90
        1
176
     1
 90
        4
176
     1
 62
     7
176
     1
 62
   257
176
     1
 90
        1
176
     1
 90
        1
176
     1
 40
1.0
176
     1
 90
        8
176
     1
 62
     7
176
     1
 40
1.0
176
     1
 90
        1
176
     1
 90
        6
176
     1
 90
        2
176
     1
 62
     7
176
     1
 90
        5
176
     1
 90
        0
176
     1
 90
        0
176
     1
290
     0
176
     1
 90
        1
176
     1
 40
50.0
176
     1
 90
        0
176
     1
290
     0
176
     1
290
     1
176
     1
290
     1
176
     1
290
     0
176
     1
290
     0
176
     1
290
     0
176
     1
290
     0
176
     1
290
     0
176
     1
290
     0
176
     1
 90
       50
176
     1
 40
0.0
176
     1
 40
1.0
176
     1
 90
        0
176
     1
 62
    18
420
        0
176
     1
 90
       50
176
     1
 90
        3
176
     1
 62
     5
420
      255
176
     1
290
     0
176
     1
 90
       50
176
     1
 90
       50
176
     1
 90
       50
176
     1
290
     0
176
     1
 90
       50
176
     1
 62
   256
176
     0
 40
1.0
176
     0
 90
        2
176
     1
  1
strokes_ogs.tif
176
     1
290
     0
176
     1
 40
1.0
176
     1
 40
1.0
176
     1
  0
VISUALSTYLE
  5
8A81
102
{ACAD_REACTORS
330
8A71
102
}
330
8A71
100
AcDbVisualStyle
  2
ColorChange
 70
    16
177
     3
291
     1
 70
    58
 90
        2
176
     1
 90
        2
176
     1
 90
        3
176
     1
 90
        0
176
     1
 40
0.6
176
     1
 40
30.0
176
     1
 62
     8
420
  8421504
176
     1
 90
        1
176
     1
 90
        4
176
     1
 62
     7
176
     1
 62
   257
176
     1
 90
        1
176
     1
 90
        1
176
     1
 40
1.0
176
     1
 90
        8
176
     1
 62
     8
420
  8421504
176
     1
 40
1.0
176
     1
 90
        1
176
     1
 90
        6
176
     1
 90
        2
176
     1
 62
     7
176
     1
 90
        5
176
     1
 90
        0
176
     1
 90
        0
176
     1
290
     0
176
     1
 90
        1
176
     1
 40
0.0
176
     1
 90
        0
176
     1
290
     0
176
     1
290
     1
176
     1
290
     1
176
     1
290
     0
176
     1
290
     0
176
     1
290
     0
176
     1
290
     0
176
     1
290
     0
176
     1
290
     0
176
     1
 90
       50
176
     1
 40
0.0
176
     1
 40
1.0
176
     1
 90
        0
176
     1
 62
    18
420
        0
176
     1
 90
       50
176
     1
 90
        3
176
     1
 62
     5
420
      255
176
     1
290
     0
176
     1
 90
       50
176
     1
 90
       50
176
     1
 90
       50
176
     1
290
     0
176
     1
 90
       50
176
     1
 62
   256
176
     0
 40
1.0
176
     0
 90
        2
176
     1
  1
strokes_ogs.tif
176
     1
290
     0
176
     1
 40
1.0
176
     1
 40
1.0
176
     1
  0
VISUALSTYLE
  5
8A7A
102
{ACAD_REACTORS
330
8A71
102
}
330
8A71
100
AcDbVisualStyle
  2
Conceptual
 70
     9
177
     3
291
     0
 70
    58
 90
        3
176
     1
 90
        2
176
     1
 90
        0
176
     1
 90
        0
176
     1
 40
0.6
176
     1
 40
30.0
176
     1
 62
     7
420
 16777215
176
     1
 90
        2
176
     1
 90
        2
176
     1
 62
     7
176
     1
 62
   257
176
     1
 90
        1
176
     1
 90
        1
176
     1
 40
179.0
176
     1
 90
        8
176
     1
 62
     7
176
     1
 40
1.0
176
     1
 90
        1
176
     1
 90
        6
176
     1
 90
        2
176
     1
 62
     7
176
     1
 90
        3
176
     1
 90
        0
176
     1
 90
        0
176
     1
290
     0
176
     1
 90
        1
176
     1
 40
0.0
176
     1
 90
        0
176
     1
290
     0
176
     1
290
     1
176
     1
290
     1
176
     1
290
     0
176
     1
290
     0
176
     1
290
     0
176
     1
290
     0
176
     1
290
     0
176
     1
290
     0
176
     1
 90
       50
176
     1
 40
0.0
176
     1
 40
1.0
176
     1
 90
        0
176
     1
 62
    18
420
        0
176
     1
 90
       50
176
     1
 90
        3
176
     1
 62
     5
420
      255
176
     1
290
     0
176
     1
 90
       50
176
     1
 90
       50
176
     1
 90
       50
176
     1
290
     0
176
     1
 90
       50
176
     1
 62
   256
176
     0
 40
1.0
176
     0
 90
        2
176
     1
  1
strokes_ogs.tif
176
     1
290
     0
176
     1
 40
1.0
176
     1
 40
1.0
176
     1
  0
VISUALSTYLE
  5
8A7C
102
{ACAD_REACTORS
330
8A71
102
}
330
8A71
100
AcDbVisualStyle
  2
Dim
 70
    11
177
     3
291
     1
 70
    58
 90
        2
176
     1
 90
        2
176
     1
 90
        0
176
     1
 90
        0
176
     1
 40
0.6
176
     1
 40
30.0
176
     1
 62
     7
420
 16777215
176
     1
 90
        1
176
     1
 90
        4
176
     1
 62
     7
176
     1
 62
   257
176
     1
 90
        1
176
     1
 90
        1
176
     1
 40
1.0
176
     1
 90
        8
176
     1
 62
     7
176
     1
 40
1.0
176
     1
 90
        1
176
     1
 90
        6
176
     1
 90
        2
176
     1
 62
     7
176
     1
 90
        5
176
     1
 90
        0
176
     1
 90
        0
176
     1
290
     0
176
     1
 90
        1
176
     1
 40
-50.0
176
     1
 90
        0
176
     1
290
     0
176
     1
290
     1
176
     1
290
     1
176
     1
290
     0
176
     1
290
     0
176
     1
290
     0
176
     1
290
     0
176
     1
290
     0
176
     1
290
     0
176
     1
 90
       50
176
     1
 40
0.0
176
     1
 40
1.0
176
     1
 90
        0
176
     1
 62
    18
420
        0
176
     1
 90
       50
176
     1
 90
        3
176
     1
 62
     5
420
      255
176
     1
290
     0
176
     1
 90
       50
176
     1
 90
       50
176
     1
 90
       50
176
     1
290
     0
176
     1
 90
       50
176
     1
 62
   256
176
     0
 40
1.0
176
     0
 90
        2
176
     1
  1
strokes_ogs.tif
176
     1
290
     0
176
     1
 40
1.0
176
     1
 40
1.0
176
     1
  0
VISUALSTYLE
  5
8A89
102
{ACAD_REACTORS
330
8A71
102
}
330
8A71
100
AcDbVisualStyle
  2
EdgeColorOff
 70
    22
177
     3
291
     1
 70
    58
 90
        2
176
     0
 90
        2
176
     0
 90
        0
176
     0
 90
        0
176
     0
 40
0.6
176
     0
 40
30.0
176
     0
 62
     7
420
 16777215
176
     0
 90
        1
176
     0
 90
        4
176
     0
 62
     7
176
     0
 62
   257
176
     0
 90
        1
176
     0
 90
        1
176
     0
 40
1.0
176
     0
 90
        8
176
     2
 62
     7
176
     0
 40
1.0
176
     0
 90
        1
176
     0
 90
        6
176
     0
 90
        2
176
     0
 62
     7
176
     0
 90
        5
176
     0
 90
        0
176
     0
 90
        0
176
     0
290
     0
176
     0
 90
        1
176
     0
 40
0.0
176
     0
 90
        0
176
     0
290
     0
176
     1
290
     1
176
     1
290
     1
176
     1
290
     0
176
     1
290
     0
176
     1
290
     0
176
     1
290
     0
176
     1
290
     0
176
     1
290
     0
176
     1
 90
       50
176
     0
 40
0.0
176
     0
 40
1.0
176
     0
 90
        0
176
     0
 62
    18
420
        0
176
     0
 90
       50
176
     0
 90
        3
176
     0
 62
     5
420
      255
176
     0
290
     0
176
     1
 90
       50
176
     0
 90
       50
176
     0
 90
       50
176
     0
290
     0
176
     1
 90
       50
176
     0
 62
   256
176
     0
 40
1.0
176
     0
 90
        2
176
     0
  1
strokes_ogs.tif
176
     0
290
     0
176
     1
 40
1.0
176
     0
 40
1.0
176
     0
  0
VISUALSTYLE
  5
8A80
102
{ACAD_REACTORS
330
8A71
102
}
330
8A71
100
AcDbVisualStyle
  2
Facepattern
 70
    15
177
     3
291
     1
 70
    58
 90
        2
176
     1
 90
        2
176
     1
 90
        0
176
     1
 90
        0
176
     1
 40
0.6
176
     1
 40
30.0
176
     1
 62
     7
420
 16777215
176
     1
 90
        1
176
     1
 90
        4
176
     1
 62
     7
176
     1
 62
   257
176
     1
 90
        1
176
     1
 90
        1
176
     1
 40
1.0
176
     1
 90
        8
176
     1
 62
     7
176
     1
 40
1.0
176
     1
 90
        1
176
     1
 90
        6
176
     1
 90
        2
176
     1
 62
     7
176
     1
 90
        5
176
     1
 90
        0
176
     1
 90
        0
176
     1
290
     0
176
     1
 90
        1
176
     1
 40
0.0
176
     1
 90
        0
176
     1
290
     0
176
     1
290
     1
176
     1
290
     1
176
     1
290
     0
176
     1
290
     0
176
     1
290
     0
176
     1
290
     0
176
     1
290
     0
176
     1
290
     0
176
     1
 90
       50
176
     1
 40
0.0
176
     1
 40
1.0
176
     1
 90
        0
176
     1
 62
    18
420
        0
176
     1
 90
       50
176
     1
 90
        3
176
     1
 62
     5
420
      255
176
     1
290
     0
176
     1
 90
       50
176
     1
 90
       50
176
     1
 90
       50
176
     1
290
     0
176
     1
 90
       50
176
     1
 62
   256
176
     0
 40
1.0
176
     0
 90
        2
176
     1
  1
strokes_ogs.tif
176
     1
290
     0
176
     1
 40
1.0
176
     1
 40
1.0
176
     1
  0
VISUALSTYLE
  5
8A72
102
{ACAD_REACTORS
330
8A71
102
}
330
8A71
100
AcDbVisualStyle
  2
Flat
 70
     0
177
     3
291
     1
 70
    58
 90
        2
176
     1
 90
        1
176
     1
 90
        1
176
     1
 90
        2
176
     1
 40
0.6
176
     1
 40
30.0
176
     1
 62
     7
420
 16777215
176
     1
 90
        0
176
     1
 90
        0
176
     1
 62
     7
176
     1
 62
   257
176
     1
 90
        1
176
     1
 90
        1
176
     1
 40
1.0
176
     1
 90
        8
176
     1
 62
     7
176
     1
 40
1.0
176
     1
 90
        1
176
     1
 90
        6
176
     1
 90
        2
176
     1
 62
     7
176
     1
 90
        5
176
     1
 90
        0
176
     1
 90
        0
176
     1
290
     0
176
     1
 90
       13
176
     1
 40
0.0
176
     1
 90
        0
176
     1
290
     0
176
     1
290
     1
176
     1
290
     1
176
     1
290
     0
176
     1
290
     0
176
     1
290
     0
176
     1
290
     0
176
     1
290
     0
176
     1
290
     0
176
     1
 90
       50
176
     1
 40
0.0
176
     1
 40
1.0
176
     1
 90
        0
176
     1
 62
    18
420
        0
176
     1
 90
       50
176
     1
 90
        3
176
     1
 62
     5
420
      255
176
     1
290
     0
176
     1
 90
       50
176
     1
 90
       50
176
     1
 90
       50
176
     1
290
     0
176
     1
 90
       50
176
     1
 62
   256
176
     0
 40
1.0
176
     0
 90
        2
176
     1
  1
strokes_ogs.tif
176
     1
290
     0
176
     1
 40
1.0
176
     1
 40
1.0
176
     1
  0
VISUALSTYLE
  5
8A73
102
{ACAD_REACTORS
330
8A71
102
}
330
8A71
100
AcDbVisualStyle
  2
FlatWithEdges
 70
     1
177
     3
291
     1
 70
    58
 90
        2
176
     1
 90
        1
176
     1
 90
        1
176
     1
 90
        2
176
     1
 40
0.6
176
     1
 40
30.0
176
     1
 62
     7
420
 16777215
176
     1
 90
        1
176
     1
 90
        0
176
     1
 62
     7
176
     1
 62
   257
176
     1
 90
        1
176
     1
 90
        1
176
     1
 40
1.0
176
     1
 90
        0
176
     1
 62
   257
176
     1
 40
1.0
176
     1
 90
        1
176
     1
 90
        6
176
     1
 90
        2
176
     1
 62
     7
176
     1
 90
        5
176
     1
 90
        0
176
     1
 90
        0
176
     1
290
     0
176
     1
 90
       13
176
     1
 40
0.0
176
     1
 90
        0
176
     1
290
     0
176
     1
290
     1
176
     1
290
     1
176
     1
290
     0
176
     1
290
     0
176
     1
290
     0
176
     1
290
     0
176
     1
290
     0
176
     1
290
     0
176
     1
 90
       50
176
     1
 40
0.0
176
     1
 40
1.0
176
     1
 90
        0
176
     1
 62
    18
420
        0
176
     1
 90
       50
176
     1
 90
        3
176
     1
 62
     5
420
      255
176
     1
290
     0
176
     1
 90
       50
176
     1
 90
       50
176
     1
 90
       50
176
     1
290
     0
176
     1
 90
       50
176
     1
 62
   256
176
     0
 40
1.0
176
     0
 90
        2
176
     1
  1
strokes_ogs.tif
176
     1
290
     0
176
     1
 40
1.0
176
     1
 40
1.0
176
     1
  0
VISUALSTYLE
  5
8A74
102
{ACAD_REACTORS
330
8A71
102
}
330
8A71
100
AcDbVisualStyle
  2
Gouraud
 70
     2
177
     3
291
     1
 70
    58
 90
        2
176
     1
 90
        2
176
     1
 90
        1
176
     1
 90
        2
176
     1
 40
0.6
176
     1
 40
30.0
176
     1
 62
     7
420
 16777215
176
     1
 90
        0
176
     1
 90
        0
176
     1
 62
     7
176
     1
 62
   257
176
     1
 90
        1
176
     1
 90
        1
176
     1
 40
1.0
176
     1
 90
        0
176
     1
 62
     7
176
     1
 40
1.0
176
     1
 90
        1
176
     1
 90
        6
176
     1
 90
        2
176
     1
 62
     7
176
     1
 90
        5
176
     1
 90
        0
176
     1
 90
        0
176
     1
290
     0
176
     1
 90
       13
176
     1
 40
0.0
176
     1
 90
        0
176
     1
290
     0
176
     1
290
     1
176
     1
290
     1
176
     1
290
     0
176
     1
290
     0
176
     1
290
     0
176
     1
290
     0
176
     1
290
     0
176
     1
290
     0
176
     1
 90
       50
176
     1
 40
0.0
176
     1
 40
1.0
176
     1
 90
        0
176
     1
 62
    18
420
        0
176
     1
 90
       50
176
     1
 90
        3
176
     1
 62
     5
420
      255
176
     1
290
     0
176
     1
 90
       50
176
     1
 90
       50
176
     1
 90
       50
176
     1
290
     0
176
     1
 90
       50
176
     1
 62
   256
176
     0
 40
1.0
176
     0
 90
        2
176
     1
  1
strokes_ogs.tif
176
     1
290
     0
176
     1
 40
1.0
176
     1
 40
1.0
176
     1
  0
VISUALSTYLE
  5
8A75
102
{ACAD_REACTORS
330
8A71
102
}
330
8A71
100
AcDbVisualStyle
  2
GouraudWithEdges
 70
     3
177
     3
291
     1
 70
    58
 90
        2
176
     1
 90
        2
176
     1
 90
        1
176
     1
 90
        2
176
     1
 40
0.6
176
     1
 40
30.0
176
     1
 62
     7
420
 16777215
176
     1
 90
        1
176
     1
 90
        0
176
     1
 62
     7
176
     1
 62
   257
176
     1
 90
        1
176
     1
 90
        1
176
     1
 40
1.0
176
     1
 90
        0
176
     1
 62
   257
176
     1
 40
1.0
176
     1
 90
        1
176
     1
 90
        6
176
     1
 90
        2
176
     1
 62
     7
176
     1
 90
        5
176
     1
 90
        0
176
     1
 90
        0
176
     1
290
     0
176
     1
 90
       13
176
     1
 40
0.0
176
     1
 90
        0
176
     1
290
     0
176
     1
290
     1
176
     1
290
     1
176
     1
290
     0
176
     1
290
     0
176
     1
290
     0
176
     1
290
     0
176
     1
290
     0
176
     1
290
     0
176
     1
 90
       50
176
     1
 40
0.0
176
     1
 40
1.0
176
     1
 90
        0
176
     1
 62
    18
420
        0
176
     1
 90
       50
176
     1
 90
        3
176
     1
 62
     5
420
      255
176
     1
290
     0
176
     1
 90
       50
176
     1
 90
       50
176
     1
 90
       50
176
     1
290
     0
176
     1
 90
       50
176
     1
 62
   256
176
     0
 40
1.0
176
     0
 90
        2
176
     1
  1
strokes_ogs.tif
176
     1
290
     0
176
     1
 40
1.0
176
     1
 40
1.0
176
     1
  0
VISUALSTYLE
  5
8A79
102
{ACAD_REACTORS
330
8A71
102
}
330
8A71
100
AcDbVisualStyle
  2
Hidden
 70
     6
177
     3
291
     0
 70
    58
 90
        1
176
     1
 90
        2
176
     1
 90
        2
176
     1
 90
        0
176
     1
 40
0.6
176
     1
 40
30.0
176
     1
 62
     7
420
 16777215
176
     1
 90
        2
176
     1
 90
        2
176
     1
 62
     7
176
     1
 62
   257
176
     1
 90
        2
176
     1
 90
        1
176
     1
 40
40.0
176
     1
 90
        0
176
     1
 62
   257
176
     1
 40
1.0
176
     1
 90
        1
176
     1
 90
        6
176
     1
 90
        2
176
     1
 62
     7
176
     1
 90
        3
176
     1
 90
        0
176
     1
 90
        0
176
     1
290
     0
176
     1
 90
        1
176
     1
 40
0.0
176
     1
 90
        0
176
     1
290
     0
176
     1
290
     1
176
     1
290
     1
176
     1
290
     0
176
     1
290
     0
176
     1
290
     0
176
     1
290
     0
176
     1
290
     0
176
     1
290
     0
176
     1
 90
       50
176
     1
 40
0.0
176
     1
 40
1.0
176
     1
 90
        0
176
     1
 62
    18
420
        0
176
     1
 90
       50
176
     1
 90
        3
176
     1
 62
     5
420
      255
176
     1
290
     0
176
     1
 90
       50
176
     1
 90
       50
176
     1
 90
       50
176
     1
290
     0
176
     1
 90
       50
176
     1
 62
   256
176
     0
 40
1.0
176
     0
 90
        2
176
     1
  1
strokes_ogs.tif
176
     1
290
     0
176
     1
 40
1.0
176
     1
 40
1.0
176
     1
  0
VISUALSTYLE
  5
8A87
102
{ACAD_REACTORS
330
8A71
102
}
330
8A71
100
AcDbVisualStyle
  2
JitterOff
 70
    20
177
     3
291
     1
 70
    58
 90
        2
176
     0
 90
        2
176
     0
 90
        0
176
     0
 90
        0
176
     0
 40
0.6
176
     0
 40
30.0
176
     0
 62
     7
420
 16777215
176
     0
 90
        1
176
     0
 90
        4
176
     0
 62
     7
176
     0
 62
   257
176
     0
 90
        1
176
     0
 90
        1
176
     0
 40
1.0
176
     0
 90
       10
176
     2
 62
     7
176
     0
 40
1.0
176
     0
 90
        1
176
     0
 90
        6
176
     0
 90
        2
176
     0
 62
     7
176
     0
 90
        5
176
     0
 90
        0
176
     0
 90
        0
176
     0
290
     0
176
     0
 90
        1
176
     0
 40
0.0
176
     0
 90
        0
176
     0
290
     0
176
     1
290
     1
176
     1
290
     1
176
     1
290
     0
176
     1
290
     0
176
     1
290
     0
176
     1
290
     0
176
     1
290
     0
176
     1
290
     0
176
     1
 90
       50
176
     0
 40
0.0
176
     0
 40
1.0
176
     0
 90
        0
176
     0
 62
    18
420
        0
176
     0
 90
       50
176
     0
 90
        3
176
     0
 62
     5
420
      255
176
     0
290
     0
176
     1
 90
       50
176
     0
 90
       50
176
     0
 90
       50
176
     0
290
     0
176
     1
 90
       50
176
     0
 62
   256
176
     0
 40
1.0
176
     0
 90
        2
176
     0
  1
strokes_ogs.tif
176
     0
290
     0
176
     1
 40
1.0
176
     0
 40
1.0
176
     0
  0
VISUALSTYLE
  5
8A7F
102
{ACAD_REACTORS
330
8A71
102
}
330
8A71
100
AcDbVisualStyle
  2
Linepattern
 70
    14
177
     3
291
     1
 70
    58
 90
        2
176
     1
 90
        2
176
     1
 90
        0
176
     1
 90
        0
176
     1
 40
0.6
176
     1
 40
30.0
176
     1
 62
     7
420
 16777215
176
     1
 90
        1
176
     1
 90
        4
176
     1
 62
     7
176
     1
 62
   257
176
     1
 90
        7
176
     1
 90
        7
176
     1
 40
1.0
176
     1
 90
        8
176
     1
 62
     7
176
     1
 40
1.0
176
     1
 90
        1
176
     1
 90
        6
176
     1
 90
        2
176
     1
 62
     7
176
     1
 90
        5
176
     1
 90
        0
176
     1
 90
        0
176
     1
290
     0
176
     1
 90
        1
176
     1
 40
0.0
176
     1
 90
        0
176
     1
290
     0
176
     1
290
     1
176
     1
290
     1
176
     1
290
     0
176
     1
290
     0
176
     1
290
     0
176
     1
290
     0
176
     1
290
     0
176
     1
290
     0
176
     1
 90
       50
176
     1
 40
0.0
176
     1
 40
1.0
176
     1
 90
        0
176
     1
 62
    18
420
        0
176
     1
 90
       50
176
     1
 90
        3
176
     1
 62
     5
420
      255
176
     1
290
     0
176
     1
 90
       50
176
     1
 90
       50
176
     1
 90
       50
176
     1
290
     0
176
     1
 90
       50
176
     1
 62
   256
176
     0
 40
1.0
176
     0
 90
        2
176
     1
  1
strokes_ogs.tif
176
     1
290
     0
176
     1
 40
1.0
176
     1
 40
1.0
176
     1
  0
VISUALSTYLE
  5
8A88
102
{ACAD_REACTORS
330
8A71
102
}
330
8A71
100
AcDbVisualStyle
  2
OverhangOff
 70
    21
177
     3
291
     1
 70
    58
 90
        2
176
     0
 90
        2
176
     0
 90
        0
176
     0
 90
        0
176
     0
 40
0.6
176
     0
 40
30.0
176
     0
 62
     7
420
 16777215
176
     0
 90
        1
176
     0
 90
        4
176
     0
 62
     7
176
     0
 62
   257
176
     0
 90
        1
176
     0
 90
        1
176
     0
 40
1.0
176
     0
 90
        9
176
     2
 62
     7
176
     0
 40
1.0
176
     0
 90
        1
176
     0
 90
        6
176
     0
 90
        2
176
     0
 62
     7
176
     0
 90
        5
176
     0
 90
        0
176
     0
 90
        0
176
     0
290
     0
176
     0
 90
        1
176
     0
 40
0.0
176
     0
 90
        0
176
     0
290
     0
176
     1
290
     1
176
     1
290
     1
176
     1
290
     0
176
     1
290
     0
176
     1
290
     0
176
     1
290
     0
176
     1
290
     0
176
     1
290
     0
176
     1
 90
       50
176
     0
 40
0.0
176
     0
 40
1.0
176
     0
 90
        0
176
     0
 62
    18
420
        0
176
     0
 90
       50
176
     0
 90
        3
176
     0
 62
     5
420
      255
176
     0
290
     0
176
     1
 90
       50
176
     0
 90
       50
176
     0
 90
       50
176
     0
290
     0
176
     1
 90
       50
176
     0
 62
   256
176
     0
 40
1.0
176
     0
 90
        2
176
     0
  1
strokes_ogs.tif
176
     0
290
     0
176
     1
 40
1.0
176
     0
 40
1.0
176
     0
  0
VISUALSTYLE
  5
8A7B
102
{ACAD_REACTORS
330
8A71
102
}
330
8A71
100
AcDbVisualStyle
  2
Realistic
 70
     8
177
     3
291
     0
 70
    58
 90
        2
176
     1
 90
        3
176
     1
 90
        0
176
     1
 90
        2
176
     1
 40
0.6
176
     1
 40
30.0
176
     1
 62
     7
420
 16777215
176
     1
 90
        0
176
     1
 90
        0
176
     1
 62
     7
176
     1
 62
   257
176
     1
 90
        1
176
     1
 90
        1
176
     1
 40
1.0
176
     1
 90
        8
176
     1
 62
   257
176
     1
 40
1.0
176
     1
 90
        1
176
     1
 90
        6
176
     1
 90
        2
176
     1
 62
     7
176
     1
 90
        3
176
     1
 90
        0
176
     1
 90
        0
176
     1
290
     0
176
     1
 90
       13
176
     1
 40
0.0
176
     1
 90
        0
176
     1
290
     0
176
     1
290
     1
176
     1
290
     1
176
     1
290
     0
176
     1
290
     0
176
     1
290
     0
176
     1
290
     0
176
     1
290
     0
176
     1
290
     0
176
     1
 90
       50
176
     1
 40
0.0
176
     1
 40
1.0
176
     1
 90
        0
176
     1
 62
    18
420
        0
176
     1
 90
       50
176
     1
 90
        3
176
     1
 62
     5
420
      255
176
     1
290
     0
176
     1
 90
       50
176
     1
 90
       50
176
     1
 90
       50
176
     1
290
     0
176
     1
 90
       50
176
     1
 62
   256
176
     0
 40
1.0
176
     0
 90
        2
176
     1
  1
strokes_ogs.tif
176
     1
290
     0
176
     1
 40
1.0
176
     1
 40
1.0
176
     1
  0
VISUALSTYLE
  5
8A86
102
{ACAD_REACTORS
330
8A71
102
}
330
8A71
100
AcDbVisualStyle
  2
Shaded
 70
    27
177
     3
291
     0
 70
    58
 90
        2
176
     1
 90
        2
176
     1
 90
        1
176
     1
 90
        2
176
     1
 40
0.6
176
     1
 40
30.0
176
     1
 62
     7
420
 16777215
176
     1
 90
        0
176
     1
 90
        4
176
     1
 62
     7
176
     1
 62
   257
176
     1
 90
        1
176
     1
 90
        1
176
     1
 40
1.0
176
     1
 90
        8
176
     1
 62
   257
176
     1
 40
1.0
176
     1
 90
        1
176
     1
 90
        6
176
     1
 90
        2
176
     1
 62
     8
420
  7895160
176
     1
 90
        3
176
     1
 90
        0
176
     1
 90
        0
176
     1
290
     0
176
     1
 90
        5
176
     1
 40
0.0
176
     1
 90
        0
176
     1
290
     0
176
     1
290
     1
176
     1
290
     1
176
     1
290
     0
176
     1
290
     0
176
     1
290
     0
176
     1
290
     0
176
     1
290
     0
176
     1
290
     0
176
     1
 90
       50
176
     1
 40
0.0
176
     1
 40
1.0
176
     1
 90
        0
176
     1
 62
    18
420
        0
176
     1
 90
       50
176
     1
 90
        3
176
     1
 62
     5
420
      255
176
     1
290
     0
176
     1
 90
       50
176
     1
 90
       50
176
     1
 90
       50
176
     1
290
     0
176
     1
 90
       50
176
     1
 62
   256
176
     0
 40
1.0
176
     0
 90
        2
176
     1
  1
strokes_ogs.tif
176
     1
290
     0
176
     1
 40
1.0
176
     1
 40
1.0
176
     1
  0
VISUALSTYLE
  5
8A85
102
{ACAD_REACTORS
330
8A71
102
}
330
8A71
100
AcDbVisualStyle
  2
Shaded with edges
 70
    26
177
     3
291
     0
 70
    58
 90
        2
176
     1
 90
        2
176
     1
 90
        1
176
     1
 90
        2
176
     1
 40
0.6
176
     1
 40
30.0
176
     1
 62
     7
420
 16777215
176
     1
 90
        1
176
     1
 90
       10
176
     1
 62
     7
176
     1
 62
   257
176
     1
 90
        2
176
     1
 90
        1
176
     1
 40
1.0
176
     1
 90
        8
176
     1
 62
   257
176
     1
 40
1.0
176
     1
 90
        1
176
     1
 90
        6
176
     1
 90
        2
176
     1
 62
     7
176
     1
 90
        3
176
     1
 90
        0
176
     1
 90
        0
176
     1
290
     0
176
     1
 90
        5
176
     1
 40
0.0
176
     1
 90
        0
176
     1
290
     0
176
     1
290
     1
176
     1
290
     1
176
     1
290
     0
176
     1
290
     0
176
     1
290
     0
176
     1
290
     0
176
     1
290
     0
176
     1
290
     0
176
     1
 90
       50
176
     1
 40
0.0
176
     1
 40
1.0
176
     1
 90
        0
176
     1
 62
    18
420
        0
176
     1
 90
       50
176
     1
 90
        3
176
     1
 62
     5
420
      255
176
     1
290
     0
176
     1
 90
       50
176
     1
 90
       50
176
     1
 90
       50
176
     1
290
     0
176
     1
 90
       50
176
     1
 62
   256
176
     0
 40
1.0
176
     0
 90
        2
176
     1
  1
strokes_ogs.tif
176
     1
290
     0
176
     1
 40
1.0
176
     1
 40
1.0
176
     1
  0
VISUALSTYLE
  5
8A82
102
{ACAD_REACTORS
330
8A71
102
}
330
8A71
100
AcDbVisualStyle
  2
Shades of Gray
 70
    23
177
     3
291
     0
 70
    58
 90
        2
176
     1
 90
        2
176
     1
 90
        3
176
     1
 90
        0
176
     1
 40
0.6
176
     1
 40
30.0
176
     1
 62
     7
420
 16777215
176
     1
 90
        2
176
     1
 90
        2
176
     1
 62
     7
176
     1
 62
     7
176
     1
 90
        1
176
     1
 90
        1
176
     1
 40
40.0
176
     1
 90
        8
176
     1
 62
     7
176
     1
 40
1.0
176
     1
 90
        1
176
     1
 90
        6
176
     1
 90
        2
176
     1
 62
     7
176
     1
 90
        3
176
     1
 90
        0
176
     1
 90
        0
176
     1
290
     0
176
     1
 90
        1
176
     1
 40
0.0
176
     1
 90
        0
176
     1
290
     0
176
     1
290
     1
176
     1
290
     1
176
     1
290
     0
176
     1
290
     0
176
     1
290
     0
176
     1
290
     0
176
     1
290
     0
176
     1
290
     0
176
     1
 90
       50
176
     1
 40
0.0
176
     1
 40
1.0
176
     1
 90
        0
176
     1
 62
    18
420
        0
176
     1
 90
       50
176
     1
 90
        3
176
     1
 62
     5
420
      255
176
     1
290
     0
176
     1
 90
       50
176
     1
 90
       50
176
     1
 90
       50
176
     1
290
     0
176
     1
 90
       50
176
     1
 62
   256
176
     0
 40
1.0
176
     0
 90
        2
176
     1
  1
strokes_ogs.tif
176
     1
290
     0
176
     1
 40
1.0
176
     1
 40
1.0
176
     1
  0
VISUALSTYLE
  5
8A83
102
{ACAD_REACTORS
330
8A71
102
}
330
8A71
100
AcDbVisualStyle
  2
Sketchy
 70
    24
177
     3
291
     0
 70
    58
 90
        1
176
     1
 90
        2
176
     1
 90
        2
176
     1
 90
        0
176
     1
 40
0.6
176
     1
 40
30.0
176
     1
 62
     7
420
 16777215
176
     1
 90
        2
176
     1
 90
        2
176
     1
 62
     7
176
     1
 62
     7
176
     1
 90
        1
176
     1
 90
        1
176
     1
 40
40.0
176
     1
 90
       11
176
     1
 62
     7
176
     1
 40
1.0
176
     1
 90
        1
176
     1
 90
        6
176
     1
 90
        2
176
     1
 62
     7
176
     1
 90
        6
176
     1
 90
        0
176
     1
 90
        0
176
     1
290
     0
176
     1
 90
        1
176
     1
 40
0.0
176
     1
 90
        0
176
     1
290
     0
176
     1
290
     1
176
     1
290
     1
176
     1
290
     0
176
     1
290
     0
176
     1
290
     0
176
     1
290
     0
176
     1
290
     0
176
     1
290
     0
176
     1
 90
       50
176
     1
 40
0.0
176
     1
 40
1.0
176
     1
 90
        0
176
     1
 62
    18
420
        0
176
     1
 90
       50
176
     1
 90
        3
176
     1
 62
     5
420
      255
176
     1
290
     0
176
     1
 90
       50
176
     1
 90
       50
176
     1
 90
       50
176
     1
290
     0
176
     1
 90
       50
176
     1
 62
   256
176
     0
 40
1.0
176
     0
 90
        2
176
     1
  1
strokes_ogs.tif
176
     1
290
     0
176
     1
 40
1.0
176
     1
 40
1.0
176
     1
  0
VISUALSTYLE
  5
8A7E
102
{ACAD_REACTORS
330
8A71
102
}
330
8A71
100
AcDbVisualStyle
  2
Thicken
 70
    13
177
     3
291
     1
 70
    58
 90
        2
176
     1
 90
        2
176
     1
 90
        0
176
     1
 90
        0
176
     1
 40
0.6
176
     1
 40
30.0
176
     1
 62
     7
420
 16777215
176
     1
 90
        1
176
     1
 90
        4
176
     1
 62
     7
176
     1
 62
   257
176
     1
 90
        1
176
     1
 90
        1
176
     1
 40
1.0
176
     1
 90
       12
176
     1
 62
     7
176
     1
 40
1.0
176
     1
 90
        1
176
     1
 90
        6
176
     1
 90
        2
176
     1
 62
     7
176
     1
 90
        5
176
     1
 90
        0
176
     1
 90
        0
176
     1
290
     0
176
     1
 90
        1
176
     1
 40
0.0
176
     1
 90
        0
176
     1
290
     0
176
     1
290
     1
176
     1
290
     1
176
     1
290
     0
176
     1
290
     0
176
     1
290
     0
176
     1
290
     0
176
     1
290
     0
176
     1
290
     0
176
     1
 90
       50
176
     1
 40
0.0
176
     1
 40
1.0
176
     1
 90
        0
176
     1
 62
    18
420
        0
176
     1
 90
       50
176
     1
 90
        3
176
     1
 62
     5
420
      255
176
     1
290
     0
176
     1
 90
       50
176
     1
 90
       50
176
     1
 90
       50
176
     1
290
     0
176
     1
 90
       50
176
     1
 62
   256
176
     0
 40
1.0
176
     0
 90
        2
176
     1
  1
strokes_ogs.tif
176
     1
290
     0
176
     1
 40
1.0
176
     1
 40
1.0
176
     1
  0
VISUALSTYLE
  5
8A78
102
{ACAD_REACTORS
330
8A71
102
}
330
8A71
100
AcDbVisualStyle
  2
Wireframe
 70
     5
177
     3
291
     0
 70
    58
 90
        0
176
     1
 90
        2
176
     1
 90
        0
176
     1
 90
        0
176
     1
 40
0.6
176
     1
 40
30.0
176
     1
 62
     7
420
 16777215
176
     1
 90
        1
176
     1
 90
        4
176
     1
 62
     7
176
     1
 62
   257
176
     1
 90
        1
176
     1
 90
        1
176
     1
 40
1.0
176
     1
 90
        0
176
     1
 62
   257
176
     1
 40
1.0
176
     1
 90
        1
176
     1
 90
        6
176
     1
 90
        2
176
     1
 62
     7
176
     1
 90
        3
176
     1
 90
        0
176
     1
 90
        0
176
     1
290
     0
176
     1
 90
        1
176
     1
 40
0.0
176
     1
 90
        0
176
     1
290
     0
176
     1
290
     1
176
     1
290
     1
176
     1
290
     0
176
     1
290
     0
176
     1
290
     0
176
     1
290
     0
176
     1
290
     0
176
     1
290
     0
176
     1
 90
       50
176
     1
 40
0.0
176
     1
 40
1.0
176
     1
 90
        0
176
     1
 62
    18
420
        0
176
     1
 90
       50
176
     1
 90
        3
176
     1
 62
     5
420
      255
176
     1
290
     0
176
     1
 90
       50
176
     1
 90
       50
176
     1
 90
       50
176
     1
290
     0
176
     1
 90
       50
176
     1
 62
   256
176
     0
 40
1.0
176
     0
 90
        2
176
     1
  1
strokes_ogs.tif
176
     1
290
     0
176
     1
 40
1.0
176
     1
 40
1.0
176
     1
  0
VISUALSTYLE
  5
8A84
102
{ACAD_REACTORS
330
8A71
102
}
330
8A71
100
AcDbVisualStyle
  2
X-Ray
 70
    25
177
     3
291
     0
 70
    58
 90
        2
176
     1
 90
        2
176
     1
 90
        1
176
     1
 90
        1
176
     1
 40
0.5
176
     1
 40
30.0
176
     1
 62
     7
420
 16777215
176
     1
 90
        1
176
     1
 90
        0
176
     1
 62
     7
176
     1
 62
   257
176
     1
 90
        1
176
     1
 90
        1
176
     1
 40
1.0
176
     1
 90
        8
176
     1
 62
     7
176
     1
 40
1.0
176
     1
 90
        1
176
     1
 90
        6
176
     1
 90
        2
176
     1
 62
     7
176
     1
 90
        3
176
     1
 90
        0
176
     1
 90
        0
176
     1
290
     0
176
     1
 90
       13
176
     1
 40
0.0
176
     1
 90
        0
176
     1
290
     0
176
     1
290
     1
176
     1
290
     1
176
     1
290
     0
176
     1
290
     0
176
     1
290
     0
176
     1
290
     0
176
     1
290
     0
176
     1
290
     0
176
     1
 90
       50
176
     1
 40
0.0
176
     1
 40
1.0
176
     1
 90
        0
176
     1
 62
    18
420
        0
176
     1
 90
       50
176
     1
 90
        3
176
     1
 62
     5
420
      255
176
     1
290
     0
176
     1
 90
       50
176
     1
 90
       50
176
     1
 90
       50
176
     1
290
     0
176
     1
 90
       50
176
     1
 62
   256
176
     0
 40
1.0
176
     0
 90
        2
176
     1
  1
strokes_ogs.tif
176
     1
290
     0
176
     1
 40
1.0
176
     1
 40
1.0
176
     1
  0
DICTIONARYVAR
  5
8AE9
102
{ACAD_REACTORS
330
5697
102
}
330
5697
100
DictionaryVariables
280
     0
  1
1:1
  0
DICTIONARYVAR
  5
8AE5
102
{ACAD_REACTORS
330
5697
102
}
330
5697
100
DictionaryVariables
280
     0
  1
STANDARD
  0
DICTIONARYVAR
  5
8AE4
102
{ACAD_REACTORS
330
5697
102
}
330
5697
100
DictionaryVariables
280
     0
  1
STANDARD
  0
DICTIONARYVAR
  5
8AE6
102
{ACAD_REACTORS
330
5697
102
}
330
5697
100
DictionaryVariables
280
     0
  1
Imperial24
  0
DICTIONARYVAR
  5
8AE7
102
{ACAD_REACTORS
330
5697
102
}
330
5697
100
DictionaryVariables
280
     0
  1
Imperial24
  0
DICTIONARYVAR
  5
5698
102
{ACAD_REACTORS
330
5697
102
}
330
5697
100
DictionaryVariables
280
     0
  1
1
  0
DICTIONARYVAR
  5
8AEB
102
{ACAD_REACTORS
330
5697
102
}
330
5697
100
DictionaryVariables
280
     0
  1
1
  0
DICTIONARYVAR
  5
8AEC
102
{ACAD_REACTORS
330
5697
102
}
330
5697
100
DictionaryVariables
280
     0
  1
15
  0
DICTIONARYVAR
  5
8AEA
102
{ACAD_REACTORS
330
5697
102
}
330
5697
100
DictionaryVariables
280
     0
  1
0
  0
DICTIONARYVAR
  5
8AE8
102
{ACAD_REACTORS
330
5697
102
}
330
5697
100
DictionaryVariables
280
     0
  1
0
  0
DICTIONARY
  5
1EFAB
330
8AA4
100
AcDbDictionary
280
     1
281
     1
  3
ACAD_XREC_ROUNDTRIP
360
1EFAC
  0
DICTIONARY
  5
F3D2
330
8A4C
100
AcDbDictionary
280
     1
281
     1
  0
DICTIONARY
  5
8A62
330
8A61
100
AcDbDictionary
280
     1
281
     1
  3
BUMPTILE
360
8A64
  3
DIFFUSETILE
360
8A63
  3
OPACITYTILE
360
8A67
  3
REFLECTIONTILE
360
8A66
  3
REFRACTIONTILE
360
8A68
  3
SPECULARTILE
360
8A65
  0
DICTIONARY
  5
8A5A
330
8A59
100
AcDbDictionary
280
     1
281
     1
  3
BUMPTILE
360
8A5C
  3
DIFFUSETILE
360
8A5B
  3
OPACITYTILE
360
8A5F
  3
REFLECTIONTILE
360
8A5E
  3
REFRACTIONTILE
360
8A60
  3
SPECULARTILE
360
8A5D
  0
DICTIONARY
  5
8A6A
330
8A69
100
AcDbDictionary
280
     1
281
     1
  3
BUMPTILE
360
8A6C
  3
DIFFUSETILE
360
8A6B
  3
OPACITYTILE
360
8A6F
  3
REFLECTIONTILE
360
8A6E
  3
REFRACTIONTILE
360
8A70
  3
SPECULARTILE
360
8A6D
  0
DICTIONARY
  5
1EFA9
330
8AA2
100
AcDbDictionary
280
     1
281
     1
  3
ACAD_XREC_ROUNDTRIP
360
1EFAA
  0
DICTIONARY
  5
8AED
330
8A8C
100
AcDbDictionary
280
     1
281
     1
  3
ACAD_ROUNDTRIP_2008_TABLESTYLE_CELLSTYLEMAP
360
1EFA8
  0
XRECORD
  5
1EFAC
102
{ACAD_REACTORS
330
1EFAB
102
}
330
1EFAB
100
AcDbXrecord
280
     1
102
DISPLAYNAME
  1
Imperial24
102
FLAGS
 90
        0
  0
XRECORD
  5
8A64
102
{ACAD_REACTORS
330
8A62
102
}
330
8A62
100
AcDbXrecord
280
     1
270
     1
271
     1
  0
XRECORD
  5
8A63
102
{ACAD_REACTORS
330
8A62
102
}
330
8A62
100
AcDbXrecord
280
     1
270
     1
271
     1
  0
XRECORD
  5
8A67
102
{ACAD_REACTORS
330
8A62
102
}
330
8A62
100
AcDbXrecord
280
     1
270
     1
271
     1
  0
XRECORD
  5
8A66
102
{ACAD_REACTORS
330
8A62
102
}
330
8A62
100
AcDbXrecord
280
     1
270
     1
271
     1
  0
XRECORD
  5
8A68
102
{ACAD_REACTORS
330
8A62
102
}
330
8A62
100
AcDbXrecord
280
     1
270
     1
271
     1
  0
XRECORD
  5
8A65
102
{ACAD_REACTORS
330
8A62
102
}
330
8A62
100
AcDbXrecord
280
     1
270
     1
271
     1
  0
XRECORD
  5
8A5C
102
{ACAD_REACTORS
330
8A5A
102
}
330
8A5A
100
AcDbXrecord
280
     1
270
     1
271
     1
  0
XRECORD
  5
8A5B
102
{ACAD_REACTORS
330
8A5A
102
}
330
8A5A
100
AcDbXrecord
280
     1
270
     1
271
     1
  0
XRECORD
  5
8A5F
102
{ACAD_REACTORS
330
8A5A
102
}
330
8A5A
100
AcDbXrecord
280
     1
270
     1
271
     1
  0
XRECORD
  5
8A5E
102
{ACAD_REACTORS
330
8A5A
102
}
330
8A5A
100
AcDbXrecord
280
     1
270
     1
271
     1
  0
XRECORD
  5
8A60
102
{ACAD_REACTORS
330
8A5A
102
}
330
8A5A
100
AcDbXrecord
280
     1
270
     1
271
     1
  0
XRECORD
  5
8A5D
102
{ACAD_REACTORS
330
8A5A
102
}
330
8A5A
100
AcDbXrecord
280
     1
270
     1
271
     1
  0
XRECORD
  5
8A6C
102
{ACAD_REACTORS
330
8A6A
102
}
330
8A6A
100
AcDbXrecord
280
     1
270
     1
271
     1
  0
XRECORD
  5
8A6B
102
{ACAD_REACTORS
330
8A6A
102
}
330
8A6A
100
AcDbXrecord
280
     1
270
     1
271
     1
  0
XRECORD
  5
8A6F
102
{ACAD_REACTORS
330
8A6A
102
}
330
8A6A
100
AcDbXrecord
280
     1
270
     1
271
     1
  0
XRECORD
  5
8A6E
102
{ACAD_REACTORS
330
8A6A
102
}
330
8A6A
100
AcDbXrecord
280
     1
270
     1
271
     1
  0
XRECORD
  5
8A70
102
{ACAD_REACTORS
330
8A6A
102
}
330
8A6A
100
AcDbXrecord
280
     1
270
     1
271
     1
  0
XRECORD
  5
8A6D
102
{ACAD_REACTORS
330
8A6A
102
}
330
8A6A
100
AcDbXrecord
280
     1
270
     1
271
     1
  0
XRECORD
  5
1EFAA
102
{ACAD_REACTORS
330
1EFA9
102
}
330
1EFA9
100
AcDbXrecord
280
     1
102
DISPLAYNAME
  1
Imperial24
102
FLAGS
 90
        0
  0
CELLSTYLEMAP
  5
1EFA8
102
{ACAD_REACTORS
330
8AED
102
}
330
8AED
100
AcDbCellStyleMap
 90
        3
300
CELLSTYLE
  1
TABLEFORMAT_BEGIN
 90
        5
170
     1
 91
        0
 92
    32768
 62
   257
 93
        1
300
CONTENTFORMAT
  1
CONTENTFORMAT_BEGIN
 90
        0
 91
        0
 92
      512
 93
        0
300

 40
0.0
140
1.0
 94
        5
 62
     0
340
11
144
0.25
309
CONTENTFORMAT_END
171
     1
301
MARGIN
  1
CELLMARGIN_BEGIN
 40
0.06
 40
0.06
 40
0.06
 40
0.06
 40
0.18
 40
0.18
309
CELLMARGIN_END
 94
        6
 95
        1
302
GRIDFORMAT
  1
GRIDFORMAT_BEGIN
 90
        0
 91
        1
 62
     0
 92
       -2
340
0
 93
        0
 40
0.045
309
GRIDFORMAT_END
 95
        2
302
GRIDFORMAT
  1
GRIDFORMAT_BEGIN
 90
        0
 91
        1
 62
     0
 92
       -2
340
0
 93
        0
 40
0.045
309
GRIDFORMAT_END
 95
        4
302
GRIDFORMAT
  1
GRIDFORMAT_BEGIN
 90
        0
 91
        1
 62
     0
 92
       -2
340
0
 93
        0
 40
0.045
309
GRIDFORMAT_END
 95
        8
302
GRIDFORMAT
  1
GRIDFORMAT_BEGIN
 90
        0
 91
        1
 62
     0
 92
       -2
340
0
 93
        0
 40
0.045
309
GRIDFORMAT_END
 95
       16
302
GRIDFORMAT
  1
GRIDFORMAT_BEGIN
 90
        0
 91
        1
 62
     0
 92
       -2
340
0
 93
        0
 40
0.045
309
GRIDFORMAT_END
 95
       32
302
GRIDFORMAT
  1
GRIDFORMAT_BEGIN
 90
        0
 91
        1
 62
     0
 92
       -2
340
0
 93
        0
 40
0.045
309
GRIDFORMAT_END
309
TABLEFORMAT_END
  1
CELLSTYLE_BEGIN
 90
        1
 91
        1
300
_TITLE
309
CELLSTYLE_END
300
CELLSTYLE
  1
TABLEFORMAT_BEGIN
 90
        5
170
     1
 91
        0
 92
        0
 62
   257
 93
        1
300
CONTENTFORMAT
  1
CONTENTFORMAT_BEGIN
 90
        0
 91
        0
 92
      512
 93
        0
300

 40
0.0
140
1.0
 94
        5
 62
     0
340
11
144
0.18
309
CONTENTFORMAT_END
171
     1
301
MARGIN
  1
CELLMARGIN_BEGIN
 40
0.06
 40
0.06
 40
0.06
 40
0.06
 40
0.18
 40
0.18
309
CELLMARGIN_END
 94
        6
 95
        1
302
GRIDFORMAT
  1
GRIDFORMAT_BEGIN
 90
        0
 91
        1
 62
     0
 92
       -2
340
0
 93
        0
 40
0.045
309
GRIDFORMAT_END
 95
        2
302
GRIDFORMAT
  1
GRIDFORMAT_BEGIN
 90
        0
 91
        1
 62
     0
 92
       -2
340
0
 93
        0
 40
0.045
309
GRIDFORMAT_END
 95
        4
302
GRIDFORMAT
  1
GRIDFORMAT_BEGIN
 90
        0
 91
        1
 62
     0
 92
       -2
340
0
 93
        0
 40
0.045
309
GRIDFORMAT_END
 95
        8
302
GRIDFORMAT
  1
GRIDFORMAT_BEGIN
 90
        0
 91
        1
 62
     0
 92
       -2
340
0
 93
        0
 40
0.045
309
GRIDFORMAT_END
 95
       16
302
GRIDFORMAT
  1
GRIDFORMAT_BEGIN
 90
        0
 91
        1
 62
     0
 92
       -2
340
0
 93
        0
 40
0.045
309
GRIDFORMAT_END
 95
       32
302
GRIDFORMAT
  1
GRIDFORMAT_BEGIN
 90
        0
 91
        1
 62
     0
 92
       -2
340
0
 93
        0
 40
0.045
309
GRIDFORMAT_END
309
TABLEFORMAT_END
  1
CELLSTYLE_BEGIN
 90
        2
 91
        1
300
_HEADER
309
CELLSTYLE_END
300
CELLSTYLE
  1
TABLEFORMAT_BEGIN
 90
        5
170
     1
 91
        0
 92
        0
 62
   257
 93
        1
300
CONTENTFORMAT
  1
CONTENTFORMAT_BEGIN
 90
        0
 91
        0
 92
      512
 93
        0
300

 40
0.0
140
1.0
 94
        2
 62
     0
340
11
144
0.18
309
CONTENTFORMAT_END
171
     1
301
MARGIN
  1
CELLMARGIN_BEGIN
 40
0.06
 40
0.06
 40
0.06
 40
0.06
 40
0.18
 40
0.18
309
CELLMARGIN_END
 94
        6
 95
        1
302
GRIDFORMAT
  1
GRIDFORMAT_BEGIN
 90
        0
 91
        1
 62
     0
 92
       -2
340
0
 93
        0
 40
0.045
309
GRIDFORMAT_END
 95
        2
302
GRIDFORMAT
  1
GRIDFORMAT_BEGIN
 90
        0
 91
        1
 62
     0
 92
       -2
340
0
 93
        0
 40
0.045
309
GRIDFORMAT_END
 95
        4
302
GRIDFORMAT
  1
GRIDFORMAT_BEGIN
 90
        0
 91
        1
 62
     0
 92
       -2
340
0
 93
        0
 40
0.045
309
GRIDFORMAT_END
 95
        8
302
GRIDFORMAT
  1
GRIDFORMAT_BEGIN
 90
        0
 91
        1
 62
     0
 92
       -2
340
0
 93
        0
 40
0.045
309
GRIDFORMAT_END
 95
       16
302
GRIDFORMAT
  1
GRIDFORMAT_BEGIN
 90
        0
 91
        1
 62
     0
 92
       -2
340
0
 93
        0
 40
0.045
309
GRIDFORMAT_END
 95
       32
302
GRIDFORMAT
  1
GRIDFORMAT_BEGIN
 90
        0
 91
        1
 62
     0
 92
       -2
340
0
 93
        0
 40
0.045
309
GRIDFORMAT_END
309
TABLEFORMAT_END
  1
CELLSTYLE_BEGIN
 90
        3
 91
        2
300
_DATA
309
CELLSTYLE_END
  0
ENDSEC
  0
SECTION
  2
ACDSDATA
 70
     2
 71
     6
  0
ACDSSCHEMA
 90
        0
  1
AcDb_Thumbnail_Schema
  2
AcDbDs::ID
280
    10
 91
        8
  2
Thumbnail_Data
280
    15
 91
        0
101
ACDSRECORD
 95
        0
 90
        1
  2
AcDbDs::TreatedAsObjectData
280
     1
291
     1
101
ACDSRECORD
 95
        0
 90
        2
  2
AcDbDs::Legacy
280
     1
291
     1
101
ACDSRECORD
  1
AcDbDs::ID
 90
        3
  2
AcDs:Indexable
280
     1
291
     1
101
ACDSRECORD
  1
AcDbDs::ID
 90
        4
  2
AcDbDs::HandleAttribute
280
     7
282
     1
  0
ACDSSCHEMA
 90
        1
  1
AcDbDs::TreatedAsObjectDataSchema
  2
AcDbDs::TreatedAsObjectData
280
     1
 91
        0
  0
ACDSSCHEMA
 90
        2
  1
AcDbDs::LegacySchema
  2
AcDbDs::Legacy
280
     1
 91
        0
  0
ACDSSCHEMA
 90
        3
  1
AcDbDs::IndexedPropertySchema
  2
AcDs:Indexable
280
     1
 91
        0
  0
ACDSSCHEMA
 90
        4
  1
AcDbDs::HandleAttributeSchema
  2
AcDbDs::HandleAttribute
280
     7
 91
        1
284
     1
  0
ACDSRECORD
 90
        0
  2
AcDbDs::ID
280
    10
320
8A4C
  2
Thumbnail_Data
280
    15
 94
     2079
310
89504E470D0A1A0A0000000D494844520000010000000096080300000006E4A6BE00000300504C5445000000000000FFFFFF0000000000000000000000000000000000000000000000000000330000660000990000CC0000FF0033000033330033660033990033CC0033FF0066000066330066660066990066CC0066FF0099
310
000099330099660099990099CC0099FF00CC0000CC3300CC6600CC9900CCCC00CCFF00FF0000FF3300FF6600FF9900FFCC00FFFF3300003300333300663300993300CC3300FF3333003333333333663333993333CC3333FF3366003366333366663366993366CC3366FF3399003399333399663399993399CC3399FF33CC00
310
33CC3333CC6633CC9933CCCC33CCFF33FF0033FF3333FF6633FF9933FFCC33FFFF6600006600336600666600996600CC6600FF6633006633336633666633996633CC6633FF6666006666336666666666996666CC6666FF6699006699336699666699996699CC6699FF66CC0066CC3366CC6666CC9966CCCC66CCFF66FF0066
310
FF3366FF6666FF9966FFCC66FFFF9900009900339900669900999900CC9900FF9933009933339933669933999933CC9933FF9966009966339966669966999966CC9966FF9999009999339999669999999999CC9999FF99CC0099CC3399CC6699CC9999CCCC99CCFF99FF0099FF3399FF6699FF9999FFCC99FFFFCC0000CC00
310
33CC0066CC0099CC00CCCC00FFCC3300CC3333CC3366CC3399CC33CCCC33FFCC6600CC6633CC6666CC6699CC66CCCC66FFCC9900CC9933CC9966CC9999CC99CCCC99FFCCCC00CCCC33CCCC66CCCC99CCCCCCCCCCFFCCFF00CCFF33CCFF66CCFF99CCFFCCCCFFFFFF0000FF0033FF0066FF0099FF00CCFF00FFFF3300FF3333
310
FF3366FF3399FF33CCFF33FFFF6600FF6633FF6666FF6699FF66CCFF66FFFF9900FF9933FF9966FF9999FF99CCFF99FFFFCC00FFCC33FFCC66FFCC99FFCCCCFFCCFFFFFF00FFFF33FFFF66FFFF99FFFFCCFFFFFF0000000D0D0D1A1A1A2828283535354343435050505D5D5D6B6B6B787878868686939393A1A1A1AEAEAEBB
310
BBBBC9C9C9D6D6D6E4E4E4F1F1F1FFFFFF000000000000000000000000000000000000000000000000000000000000C11FEF66000004DA4944415478DAEDDD3996A3301000D0B901D750C2FDB34E740DA23A4125CA07ED1B8BA0ED7E2AA934DD2D63EC79D6A7B40002FF83C9D33F0660000660000660000660000660000660
310
80A6B4FE79EA0DE0AFB71103740E80882E4FB3F900F26C1A000C295B9A0820CBCA450698044029544AE58B886DF541B9641E85456A00801B24001B6EAA0A921B005B6E4514602FF19602EC4B71F3DF00408C00B30865F92946C01622005B23805E15B095DB577A48DB00701C4F004215004A003ECAC367C650A60700904500
310
9D2A60CAAE112086ED2B80240248F5020E60FF5136F06315800755206B04BD0119006B700D00038F031A00EEF60B688E0392611EAA00A0CC10300568D8314AAB8022330E08437FDC920850AE3D780640B20A60D20898424B0BB06DAF01688D0330D4824D07BD07D8EC103003F8C0AE619F8DA037B025B600AA8C8041C7016E
310
10EC474001202E0E3E0E0883E00240BD02A0D808A23FF66B3F2C5A00FC1540360E20D00D6232E40900EEA9D755208C0348F4020140380021ECB848FF985F6C01A0D90B9C0014113032804FEBBA6A80D5E4C264E667FFC58F9D24E87667688DF55CC2A78F855302000B50A68F9D1F62000660008A002B4C0F000CC0000CC000
310
0CC0000CC000C302FCD1146706E815A07298ED8048F28CFCE6C7640006600006E81CE0BB973651B866487EF3235201F81DC2B290068029018AA1AF2C96AF4F0D5623678A00C9C26A2360ADD760E380DACF8CD8CCE296BCB76700D3FA0B9B49F07D81C99F01A8359B2AA2367FD14DF711B0975F980CA400DF17EAFC6904E82A
310
900398992804AA80300220E49E7FB40AF84986DD1F1112B60B90C72F7B120179EA1FE0BA17F83500892A900C0264FEF4354055A8936E9001188006002203CC0B50DE39616D19080D05E0DB800901EC5E5FD8FD4BF7018FAE9D4E9E1F052071D80742C993EE650540F1CE2901DC28716200BBB33818806E041B015097BE1D00
310
8803D497CEA2336802E8FE80C80D80BDB82A2F8D89892100A4DC8B2CE549A61FC8630089F14531AD8BCD3902460270D7D7E78DE01300C0017B814700C000C30D848604707B831302603D39AE696FF06036015180FA9820DE1C1172E77B702C00B3AD19604680B4B6FB7C2600A8DB006000069807E0CDD9610FB00E14018FE6
310
079C01E43364C23D79C69B21721501BAC4EE5E4CCADD95A977806C9294689924750990DC8DCB3E2231490A5C26A16592D43D80BD0F8B8E05776FDAB1E609DE5401B5C57B09F97BD3760B8097BDC0C94D640240914E1AC1BE01F272C9BA033BEED70EC70148F0C4480E506EEC2680F82684C900AABD288A00D5272F0E069D01
310
20C62F24A11C0169A9A1F54E521EC0BF17C8033CBC671816711296E94640ACDAAD00A9DD4D934106A0393140D978DE57A0E1000EB6FF4C1180474752A78C80B6E781BF6D8E01188001FA04F8C2370B120568BD6A5ABE5CDFF5D7ECCC0C00202C8080340BF9E000CB22845870D1F96292CB85C9C3AB97EB74BBBE5F00A1CF09
310
A1DEE0E6D490BE86DA64E65F0270B98597DBF57D03EC95C064C6C065B300089B501CA625ECE1CC1101960231FC59C214B971016CD8EFE575D55EB8CA601E2CE1D8CFC000A6DDB37501626EFFCE020067E3800600D7421CAD8F83ECCE01AEB71C035C02E03900CE0080E76D00D2690318E035009EF702080C3018C04F9DC299
310
800090AFC9137980FA753F7E4B4700BFFEA7FC7F1018E0AB00FF019E1DA813097A8DFE0000000049454E44AE426082
  0
ENDSEC
  0
EOF
