  0
SECTION
  2
HEADER
  9
$ACADVER
  1
AC1027
  9
$ACADMAINTVER
 70
    55
  9
$DWGCODEPAGE
  3
ANSI_932
  9
$LASTSAVEDBY
  1
marketing
  9
$REQUIREDVERSIONS
160
                 0
  9
$INSBASE
 10
0.0
 20
0.0
 30
0.0
  9
$EXTMIN
 10
-0.0405241475518778
 20
-0.0290469451279023
 30
-0.0000000349181948
  9
$EXTMAX
 10
700.0585911772336
 20
1088.088230631448
 30
0.0000000814935746
  9
$LIMMIN
 10
-296.316999476111
 20
-370.7034300441653
  9
$LIMMAX
 10
623.3128432133979
 20
328.6261559379898
  9
$ORTHOMODE
 70
     1
  9
$REGENMODE
 70
     1
  9
$FILLMODE
 70
     1
  9
$QTEXTMODE
 70
     0
  9
$MIRRTEXT
 70
     1
  9
$LTSCALE
 40
10.0
  9
$ATTMODE
 70
     1
  9
$TEXTSIZE
 40
5.0
  9
$TRACEWID
 40
0.05
  9
$TEXTSTYLE
  7
STANDARD1
  9
$CLAYER
  8
30
  9
$CELTYPE
  6
BYLAYER
  9
$CECOLOR
 62
   256
  9
$CELTSCALE
 40
1.0
  9
$DISPSILH
 70
     0
  9
$DIMSCALE
 40
1.0
  9
$DIMASZ
 40
2.0
  9
$DIMEXO
 40
1.0
  9
$DIMDLI
 40
0.5
  9
$DIMRND
 40
0.0
  9
$DIMDLE
 40
0.0
  9
$DIMEXE
 40
0.5
  9
$DIMTP
 40
0.0
  9
$DIMTM
 40
0.0
  9
$DIMTXT
 40
8.0
  9
$DIMCEN
 40
0.09
  9
$DIMTSZ
 40
0.0
  9
$DIMTOL
 70
     0
  9
$DIMLIM
 70
     0
  9
$DIMTIH
 70
     0
  9
$DIMTOH
 70
     0
  9
$DIMSE1
 70
     0
  9
$DIMSE2
 70
     0
  9
$DIMTAD
 70
     3
  9
$DIMZIN
 70
    12
  9
$DIMBLK
  1
OPEN
  9
$DIMASO
 70
     1
  9
$DIMSHO
 70
     1
  9
$DIMPOST
  1

  9
$DIMAPOST
  1

  9
$DIMALT
 70
     0
  9
$DIMALTD
 70
     2
  9
$DIMALTF
 40
25.4
  9
$DIMLFAC
 40
1.0
  9
$DIMTOFL
 70
     0
  9
$DIMTVP
 40
0.0
  9
$DIMTIX
 70
     0
  9
$DIMSOXD
 70
     0
  9
$DIMSAH
 70
     0
  9
$DIMBLK1
  1

  9
$DIMBLK2
  1

  9
$DIMSTYLE
  2
STANDARD
  9
$DIMCLRD
 70
     0
  9
$DIMCLRE
 70
     0
  9
$DIMCLRT
 70
   256
  9
$DIMTFAC
 40
1.0
  9
$DIMGAP
 40
3.0
  9
$DIMJUST
 70
     0
  9
$DIMSD1
 70
     0
  9
$DIMSD2
 70
     0
  9
$DIMTOLJ
 70
     1
  9
$DIMTZIN
 70
     0
  9
$DIMALTZ
 70
     0
  9
$DIMALTTZ
 70
     0
  9
$DIMUPT
 70
     0
  9
$DIMDEC
 70
     1
  9
$DIMTDEC
 70
     1
  9
$DIMALTU
 70
     2
  9
$DIMALTTD
 70
     2
  9
$DIMTXSTY
  7
STANDARD
  9
$DIMAUNIT
 70
     0
  9
$DIMADEC
 70
     0
  9
$DIMALTRND
 40
0.0
  9
$DIMAZIN
 70
     0
  9
$DIMDSEP
 70
    46
  9
$DIMATFIT
 70
     3
  9
$DIMFRAC
 70
     0
  9
$DIMLDRBLK
  1
OPEN
  9
$DIMLUNIT
 70
     2
  9
$DIMLWD
 70
    -2
  9
$DIMLWE
 70
    -2
  9
$DIMTMOVE
 70
     0
  9
$DIMFXL
 40
1.0
  9
$DIMFXLON
 70
     0
  9
$DIMJOGANG
 40
0.7853981633974483
  9
$DIMTFILL
 70
     1
  9
$DIMTFILLCLR
 70
     0
  9
$DIMARCSYM
 70
     0
  9
$DIMLTYPE
  6

  9
$DIMLTEX1
  6

  9
$DIMLTEX2
  6

  9
$DIMTXTDIRECTION
 70
     0
  9
$LUNITS
 70
     2
  9
$LUPREC
 70
     4
  9
$SKETCHINC
 40
0.1
  9
$FILLETRAD
 40
0.0
  9
$AUNITS
 70
     0
  9
$AUPREC
 70
     0
  9
$MENU
  1
.
  9
$ELEVATION
 40
0.0
  9
$PELEVATION
 40
0.0
  9
$THICKNESS
 40
0.0
  9
$LIMCHECK
 70
     0
  9
$CHAMFERA
 40
0.0
  9
$CHAMFERB
 40
0.0
  9
$CHAMFERC
 40
0.0
  9
$CHAMFERD
 40
0.0
  9
$SKPOLY
 70
     0
  9
$TDCREATE
 40
2452286.555658658
  9
$TDUCREATE
 40
2452286.180658658
  9
$TDUPDATE
 40
2459244.443904688
  9
$TDUUPDATE
 40
2459244.068904688
  9
$TDINDWG
 40
1.9794623611
  9
$TDUSRTIMER
 40
1.9794595949
  9
$USRTIMER
 70
     1
  9
$ANGBASE
 50
0.0
  9
$ANGDIR
 70
     0
  9
$PDMODE
 70
     0
  9
$PDSIZE
 40
0.0
  9
$PLINEWID
 40
0.0
  9
$SPLFRAME
 70
     0
  9
$SPLINETYPE
 70
     6
  9
$SPLINESEGS
 70
     8
  9
$HANDSEED
  5
1E799
  9
$SURFTAB1
 70
     6
  9
$SURFTAB2
 70
     6
  9
$SURFTYPE
 70
     6
  9
$SURFU
 70
     6
  9
$SURFV
 70
     6
  9
$UCSBASE
  2

  9
$UCSNAME
  2

  9
$UCSORG
 10
0.0
 20
0.0
 30
0.0
  9
$UCSXDIR
 10
1.0
 20
0.0
 30
0.0
  9
$UCSYDIR
 10
0.0
 20
1.0
 30
0.0
  9
$UCSORTHOREF
  2

  9
$UCSORTHOVIEW
 70
     0
  9
$UCSORGTOP
 10
0.0
 20
0.0
 30
0.0
  9
$UCSORGBOTTOM
 10
0.0
 20
0.0
 30
0.0
  9
$UCSORGLEFT
 10
0.0
 20
0.0
 30
0.0
  9
$UCSORGRIGHT
 10
0.0
 20
0.0
 30
0.0
  9
$UCSORGFRONT
 10
0.0
 20
0.0
 30
0.0
  9
$UCSORGBACK
 10
0.0
 20
0.0
 30
0.0
  9
$PUCSBASE
  2

  9
$PUCSNAME
  2

  9
$PUCSORG
 10
0.0
 20
0.0
 30
0.0
  9
$PUCSXDIR
 10
1.0
 20
0.0
 30
0.0
  9
$PUCSYDIR
 10
0.0
 20
1.0
 30
0.0
  9
$PUCSORTHOREF
  2

  9
$PUCSORTHOVIEW
 70
     0
  9
$PUCSORGTOP
 10
0.0
 20
0.0
 30
0.0
  9
$PUCSORGBOTTOM
 10
0.0
 20
0.0
 30
0.0
  9
$PUCSORGLEFT
 10
0.0
 20
0.0
 30
0.0
  9
$PUCSORGRIGHT
 10
0.0
 20
0.0
 30
0.0
  9
$PUCSORGFRONT
 10
0.0
 20
0.0
 30
0.0
  9
$PUCSORGBACK
 10
0.0
 20
0.0
 30
0.0
  9
$USERI1
 70
     0
  9
$USERI2
 70
     0
  9
$USERI3
 70
     0
  9
$USERI4
 70
     0
  9
$USERI5
 70
     0
  9
$USERR1
 40
0.0
  9
$USERR2
 40
0.0
  9
$USERR3
 40
0.0
  9
$USERR4
 40
0.0
  9
$USERR5
 40
0.0
  9
$WORLDVIEW
 70
     1
  9
$SHADEDGE
 70
     3
  9
$SHADEDIF
 70
    70
  9
$TILEMODE
 70
     1
  9
$MAXACTVP
 70
    48
  9
$PINSBASE
 10
0.0
 20
0.0
 30
0.0
  9
$PLIMCHECK
 70
     0
  9
$PEXTMIN
 10
4.273573
 20
5.205245999999998
 30
0.0
  9
$PEXTMAX
 10
194.610095
 20
283.0697009999996
 30
0.0
  9
$PLIMMIN
 10
-5.873749
 20
-5.87375
  9
$PLIMMAX
 10
204.099579
 20
291.1369009999999
  9
$UNITMODE
 70
     0
  9
$VISRETAIN
 70
     1
  9
$PLINEGEN
 70
     0
  9
$PSLTSCALE
 70
     1
  9
$TREEDEPTH
 70
  3020
  9
$CMLSTYLE
  2
STANDARD
  9
$CMLJUST
 70
     0
  9
$CMLSCALE
 40
1.0
  9
$PROXYGRAPHICS
 70
     1
  9
$MEASUREMENT
 70
     0
  9
$CELWEIGHT
370
    -1
  9
$ENDCAPS
280
     0
  9
$JOINSTYLE
280
     0
  9
$LWDISPLAY
290
     0
  9
$INSUNITS
 70
     0
  9
$HYPERLINKBASE
  1

  9
$STYLESHEET
  1
MONOCHROME.CTB
  9
$XEDIT
290
     1
  9
$CEPSNTYPE
380
     0
  9
$PSTYLEMODE
290
     1
  9
$FINGERPRINTGUID
  2

  9
$VERSIONGUID
  2
{41A212B9-C2F4-454F-B5C9-AB7C4989A756}
  9
$EXTNAMES
290
     1
  9
$PSVPSCALE
 40
0.0
  9
$OLESTARTUP
290
     0
  9
$SORTENTS
280
   127
  9
$INDEXCTL
280
     0
  9
$HIDETEXT
280
     0
  9
$XCLIPFRAME
280
     2
  9
$HALOGAP
280
     0
  9
$OBSCOLOR
 70
   257
  9
$OBSLTYPE
280
     0
  9
$INTERSECTIONDISPLAY
280
     0
  9
$INTERSECTIONCOLOR
 70
   257
  9
$DIMASSOC
280
     1
  9
$PROJECTNAME
  1

  9
$CAMERADISPLAY
290
     0
  9
$LENSLENGTH
 40
50.0
  9
$CAMERAHEIGHT
 40
0.0
  9
$STEPSPERSEC
 40
2.0
  9
$STEPSIZE
 40
6.0
  9
$3DDWFPREC
 40
2.0
  9
$PSOLWIDTH
 40
0.25
  9
$PSOLHEIGHT
 40
4.0
  9
$LOFTANG1
 40
1.570796326794896
  9
$LOFTANG2
 40
1.570796326794896
  9
$LOFTMAG1
 40
0.0
  9
$LOFTMAG2
 40
0.0
  9
$LOFTPARAM
 70
     7
  9
$LOFTNORMALS
280
     1
  9
$LATITUDE
 40
37.795
  9
$LONGITUDE
 40
-122.394
  9
$NORTHDIRECTION
 40
0.0
  9
$TIMEZONE
 70
 -8000
  9
$LIGHTGLYPHDISPLAY
280
     1
  9
$TILEMODELIGHTSYNCH
280
     1
  9
$CMATERIAL
347
8A59
  9
$SOLIDHIST
280
     0
  9
$SHOWHIST
280
     1
  9
$DWFFRAME
280
     2
  9
$DGNFRAME
280
     0
  9
$REALWORLDSCALE
290
     1
  9
$INTERFERECOLOR
 62
     1
  9
$INTERFEREOBJVS
345
8A7B
  9
$INTERFEREVPVS
346
8A78
  9
$CSHADOW
280
     0
  9
$SHADOWPLANELOCATION
 40
0.0
  0
ENDSEC
  0
SECTION
  2
CLASSES
  0
CLASS
  1
ACDBDICTIONARYWDFLT
  2
AcDbDictionaryWithDefault
  3
ObjectDBX Classes
 90
        0
 91
        1
280
     0
281
     0
  0
CLASS
  1
DICTIONARYVAR
  2
AcDbDictionaryVar
  3
ObjectDBX Classes
 90
        0
 91
       10
280
     0
281
     0
  0
CLASS
  1
MATERIAL
  2
AcDbMaterial
  3
ObjectDBX Classes
 90
     1153
 91
        3
280
     0
281
     0
  0
CLASS
  1
VISUALSTYLE
  2
AcDbVisualStyle
  3
ObjectDBX Classes
 90
     4095
 91
       26
280
     0
281
     0
  0
CLASS
  1
TABLESTYLE
  2
AcDbTableStyle
  3
ObjectDBX Classes
 90
     4095
 91
        1
280
     0
281
     0
  0
CLASS
  1
SCALE
  2
AcDbScale
  3
ObjectDBX Classes
 90
     1153
 91
       17
280
     0
281
     0
  0
CLASS
  1
MLEADERSTYLE
  2
AcDbMLeaderStyle
  3
ACDB_MLEADERSTYLE_CLASS
 90
     4095
 91
        1
280
     0
281
     0
  0
CLASS
  1
ACDBSECTIONVIEWSTYLE
  2
AcDbSectionViewStyle
  3
ObjectDBX Classes
 90
     1025
 91
        1
280
     0
281
     0
  0
CLASS
  1
ACDBDETAILVIEWSTYLE
  2
AcDbDetailViewStyle
  3
ObjectDBX Classes
 90
     1025
 91
        1
280
     0
281
     0
  0
CLASS
  1
CELLSTYLEMAP
  2
AcDbCellStyleMap
  3
ObjectDBX Classes
 90
     1152
 91
        2
280
     0
281
     0
  0
CLASS
  1
AEC_REFEDIT_STATUS_TRACKER
  2
AecDbRefEditStatusTracker
  3
AecArchBase70|Product Desc: Autodesk Architectural Desktop 2007 |Company: Autodesk,Inc. |WEB Address: www.autodesk.com
 90
      129
 91
        0
280
     0
281
     0
  0
CLASS
  1
NPOCOLLECTION
  2
AcDbImpNonPersistentObjectsCollection
  3
ObjectDBX Classes
 90
     1153
 91
        0
280
     0
281
     0
  0
CLASS
  1
SORTENTSTABLE
  2
AcDbSortentsTable
  3
ObjectDBX Classes
 90
        0
 91
        8
280
     0
281
     0
  0
CLASS
  1
ACAD_EVALUATION_GRAPH
  2
AcDbEvalGraph
  3
ObjectDBX Classes
 90
     1153
 91
        5
280
     0
281
     0
  0
CLASS
  1
ACAECUSTOBJ
  2
AcAeEditorObj
  3
AcAeEditorObj
 90
     1024
 91
        5
280
     0
281
     0
  0
CLASS
  1
ACDB_DYNAMICBLOCKPURGEPREVENTER_VERSION
  2
AcDbDynamicBlockPurgePreventer
  3
ObjectDBX Classes
 90
     1153
 91
        4
280
     0
281
     0
  0
ENDSEC
  0
SECTION
  2
TABLES
  0
TABLE
  2
VPORT
  5
8
330
0
100
AcDbSymbolTable
 70
     1
  0
VPORT
  5
8A51
330
8
100
AcDbSymbolTableRecord
100
AcDbViewportTableRecord
  2
*Active
 70
     0
 10
0.0
 20
0.0
 11
1.0
 21
1.0
 12
350.009033514841
 22
544.0295918431599
 13
0.0
 23
0.0
 14
1.0
 24
1.0
 15
10.0
 25
10.0
 16
0.0
 26
0.0
 36
1.0
 17
0.0
 27
0.0
 37
0.0
 40
1095.983185607249
 41
2.289505428226779
 42
50.0
 43
0.0
 44
0.0
 50
0.0
 51
0.0
 71
     0
 72
   100
 73
     1
 74
     1
 75
     0
 76
     0
 77
     0
 78
     0
281
     0
 65
     1
110
0.0
120
0.0
130
0.0
111
1.0
121
0.0
131
0.0
112
0.0
122
1.0
132
0.0
 79
     0
146
0.0
348
8A77
 60
     3
 61
     5
292
     1
282
     1
141
0.0
142
0.0
 63
   250
421
  3355443
1001
ACAD_NAV_VCDISPLAY
1070
     3
  0
ENDTAB
  0
TABLE
  2
LTYPE
  5
5
330
0
100
AcDbSymbolTable
 70
     9
  0
LTYPE
  5
13
330
5
100
AcDbSymbolTableRecord
100
AcDbLinetypeTableRecord
  2
BYBLOCK
 70
     0
  3

 72
    65
 73
     0
 40
0.0
  0
LTYPE
  5
14
330
5
100
AcDbSymbolTableRecord
100
AcDbLinetypeTableRecord
  2
BYLAYER
 70
     0
  3

 72
    65
 73
     0
 40
0.0
  0
LTYPE
  5
15
330
5
100
AcDbSymbolTableRecord
100
AcDbLinetypeTableRecord
  2
CONTINUOUS
 70
     0
  3
Solid line
 72
    65
 73
     0
 40
0.0
  0
LTYPE
  5
22
330
5
100
AcDbSymbolTableRecord
100
AcDbLinetypeTableRecord
  2
CONTINOUS
 70
     0
  3
Solid line
 72
    65
 73
     0
 40
0.0
  0
LTYPE
  5
24
330
5
100
AcDbSymbolTableRecord
100
AcDbLinetypeTableRecord
  2
DASHDOT
 70
     0
  3
__ . __ . __ . __ . __ . __ . __ . __ . __ . __
 72
    65
 73
     4
 40
1.0
 49
0.5
 74
     0
 49
-0.25
 74
     0
 49
0.0
 74
     0
 49
-0.25
 74
     0
  0
LTYPE
  5
4C47
330
5
100
AcDbSymbolTableRecord
100
AcDbLinetypeTableRecord
  2
DIVIDE
 70
     0
  3
Divide ____ . . ____ . . ____ . . ____ . . ____
 72
    65
 73
     6
 40
1.25
 49
0.5
 74
     0
 49
-0.25
 74
     0
 49
0.0
 74
     0
 49
-0.25
 74
     0
 49
0.0
 74
     0
 49
-0.25
 74
     0
  0
LTYPE
  5
912E
330
5
100
AcDbSymbolTableRecord
100
AcDbLinetypeTableRecord
  2
SLD-実線
 70
     0
  3
SolidWorks Line Style
 72
    65
 73
     0
 40
0.0
  0
LTYPE
  5
1CA7E
330
5
100
AcDbSymbolTableRecord
100
AcDbLinetypeTableRecord
  2
DASHED
 70
     0
  3
__ __ __ __ __ __ __ __ __ __ __ __ __ __ __
 72
    65
 73
     2
 40
0.75
 49
0.5
 74
     0
 49
-0.25
 74
     0
  0
LTYPE
  5
1DF66
330
5
100
AcDbSymbolTableRecord
100
AcDbLinetypeTableRecord
  2
SLD-1点鎖線(中心線)
 70
     0
  3
SolidWorks Line Style
 72
    65
 73
     4
 40
10.16
 49
6.349999999999997
 74
     0
 49
-1.27
 74
     0
 49
1.27
 74
     0
 49
-1.27
 74
     0
  0
LTYPE
  5
1DF67
330
5
100
AcDbSymbolTableRecord
100
AcDbLinetypeTableRecord
  2
CENTER
 70
     0
  3
Center ____ _ ____ _ ____ _ ____ _ ____ _ ____
 72
    65
 73
     4
 40
50.8
 49
31.75
 74
     0
 49
-6.349999999999997
 74
     0
 49
6.349999999999997
 74
     0
 49
-6.349999999999997
 74
     0
  0
ENDTAB
  0
TABLE
  2
LAYER
  5
2
102
{ACAD_XDICTIONARY
360
F3CC
102
}
330
0
100
AcDbSymbolTable
 70
    15
  0
LAYER
  5
10
102
{ACAD_XDICTIONARY
360
8ACC
102
}
330
2
100
AcDbSymbolTableRecord
100
AcDbLayerTableRecord
  2
0
 70
     0
 62
     7
  6
CONTINOUS
370
    -3
390
F
347
8A69
348
0
  0
LAYER
  5
2F
102
{ACAD_XDICTIONARY
360
8ACE
102
}
330
2
100
AcDbSymbolTableRecord
100
AcDbLayerTableRecord
  2
10
 70
     0
 62
     4
  6
CONTINOUS
370
    -3
390
F
347
8A69
348
0
  0
LAYER
  5
35
102
{ACAD_XDICTIONARY
360
8AD2
102
}
330
2
100
AcDbSymbolTableRecord
100
AcDbLayerTableRecord
  2
16
 70
     0
 62
     6
  6
DASHDOT
370
    -3
390
F
347
8A69
348
0
  0
LAYER
  5
38
102
{ACAD_XDICTIONARY
360
8AD4
102
}
330
2
100
AcDbSymbolTableRecord
100
AcDbLayerTableRecord
  2
19
 70
     0
 62
     7
  6
CONTINOUS
370
    -3
390
F
347
8A69
348
0
  0
LAYER
  5
3A2
102
{ACAD_XDICTIONARY
360
8AD8
102
}
330
2
100
AcDbSymbolTableRecord
100
AcDbLayerTableRecord
  2
30
 70
     0
 62
     9
  6
CONTINUOUS
370
    -3
390
F
347
8A69
348
0
  0
LAYER
  5
3A4
330
2
100
AcDbSymbolTableRecord
100
AcDbLayerTableRecord
  2
DEFPOINTS
 70
     0
 62
     7
  6
CONTINUOUS
290
     0
370
    -3
390
F
347
8A69
348
0
  0
LAYER
  5
3BBA
102
{ACAD_XDICTIONARY
360
8ADA
102
}
330
2
100
AcDbSymbolTableRecord
100
AcDbLayerTableRecord
  2
18
 70
     0
 62
     5
  6
DIVIDE
370
    -3
390
F
347
8A69
348
0
  0
LAYER
  5
67A8
102
{ACAD_XDICTIONARY
360
8ADC
102
}
330
2
100
AcDbSymbolTableRecord
100
AcDbLayerTableRecord
  2
11
 70
     0
 62
     1
  6
CONTINOUS
370
    -3
390
F
347
8A69
348
0
  0
LAYER
  5
7837
102
{ACAD_XDICTIONARY
360
8ADE
102
}
330
2
100
AcDbSymbolTableRecord
100
AcDbLayerTableRecord
  2
17
 70
     0
 62
     2
  6
DASHDOT
370
    -3
390
F
347
8A69
348
0
  0
LAYER
  5
9133
102
{ACAD_XDICTIONARY
360
9134
102
}
330
2
100
AcDbSymbolTableRecord
100
AcDbLayerTableRecord
  2
240
 70
     0
 62
     7
  6
SLD-実線
370
    -3
390
F
347
8A69
348
0
  0
LAYER
  5
1CA80
102
{ACAD_XDICTIONARY
360
1CA81
102
}
330
2
100
AcDbSymbolTableRecord
100
AcDbLayerTableRecord
  2
12
 70
     0
 62
     3
  6
CONTINOUS
370
    -3
390
F
347
8A69
348
0
  0
LAYER
  5
1DF68
102
{ACAD_XDICTIONARY
360
1DF69
102
}
330
2
100
AcDbSymbolTableRecord
100
AcDbLayerTableRecord
  2
SLD-0
 70
     0
 62
     9
  6
SLD-実線
370
    -3
390
F
347
8A69
348
0
  0
LAYER
  5
1DF6A
102
{ACAD_XDICTIONARY
360
1DF6B
102
}
330
2
100
AcDbSymbolTableRecord
100
AcDbLayerTableRecord
  2
21
 70
     0
 62
     7
  6
CONTINUOUS
370
    -3
390
F
347
8A69
348
0
  0
LAYER
  5
1DF6C
102
{ACAD_XDICTIONARY
360
1DF6D
102
}
330
2
100
AcDbSymbolTableRecord
100
AcDbLayerTableRecord
  2
22
 70
     0
 62
     3
  6
CONTINUOUS
370
    -3
390
F
347
8A69
348
0
  0
LAYER
  5
1E620
330
2
100
AcDbSymbolTableRecord
100
AcDbLayerTableRecord
  2
24
 70
     0
 62
     7
  6
CONTINOUS
370
    -3
390
F
347
8A69
348
0
1001
AcAecLayerStandard
1000

1000

1001
AcCmTransparency
1071
        0
  0
ENDTAB
  0
TABLE
  2
STYLE
  5
3
330
0
100
AcDbSymbolTable
 70
     3
  0
STYLE
  5
11
330
3
100
AcDbSymbolTableRecord
100
AcDbTextStyleTableRecord
  2
STANDARD
 70
     0
 40
0.0
 41
1.0
 50
0.0
 71
     0
 42
2.0
  3
txt.shx
  4
bigfont.shx
  0
STYLE
  5
42
330
3
100
AcDbSymbolTableRecord
100
AcDbTextStyleTableRecord
  2
STANDARD1
 70
     0
 40
0.0
 41
1.0
 50
0.0
 71
     0
 42
5.0
  3
MONOTXT
  4
BIGFONT
  0
STYLE
  5
1CFC3
330
3
100
AcDbSymbolTableRecord
100
AcDbTextStyleTableRecord
  2
SLDTEXTSTYLE0
 70
     0
 40
0.0
 41
1.0
 50
0.0
 71
     0
 42
3.5
  3
MS UI Gothic.ttf
  4

1001
ACAD
1000
MS UI Gothic
1071
      306
  0
ENDTAB
  0
TABLE
  2
VIEW
  5
6
330
0
100
AcDbSymbolTable
 70
     3
  0
VIEW
  5
230C
330
6
100
AcDbSymbolTableRecord
100
AcDbViewTableRecord
  2
OLE1
 70
     0
 40
148.912488
 10
429.497628
 20
2.560627
 41
103.145806
 11
0.0
 21
0.0
 31
1.0
 12
0.0
 22
0.0
 32
0.0
 42
50.0
 43
0.0
 44
0.0
 50
0.0
 71
     0
281
     0
 72
     0
 73
     0
348
8A77
  0
VIEW
  5
230E
330
6
100
AcDbSymbolTableRecord
100
AcDbViewTableRecord
  2
OLE2
 70
     0
 40
170.778692
 10
322.66497
 20
-5.978304
 41
102.467215
 11
0.0
 21
0.0
 31
1.0
 12
0.0
 22
0.0
 32
0.0
 42
50.0
 43
0.0
 44
0.0
 50
0.0
 71
     0
281
     0
 72
     0
 73
     0
348
8A77
  0
VIEW
  5
23AA
330
6
100
AcDbSymbolTableRecord
100
AcDbViewTableRecord
  2
OLE3
 70
     0
 40
591.7897389999998
 10
84.79698199999999
 20
-46.09335999999998
 41
388.792096
 11
0.0
 21
0.0
 31
1.0
 12
0.0
 22
0.0
 32
0.0
 42
50.0
 43
0.0
 44
0.0
 50
0.0
 71
     0
281
     0
 72
     0
 73
     0
348
8A77
  0
ENDTAB
  0
TABLE
  2
UCS
  5
7
330
0
100
AcDbSymbolTable
 70
     0
  0
ENDTAB
  0
TABLE
  2
APPID
  5
9
330
0
100
AcDbSymbolTable
 70
    16
  0
APPID
  5
12
330
9
100
AcDbSymbolTableRecord
100
AcDbRegAppTableRecord
  2
ACAD
 70
     0
  0
APPID
  5
ECD
330
9
100
AcDbSymbolTableRecord
100
AcDbRegAppTableRecord
  2
CONTENTBLOCKICON
 70
     0
  0
APPID
  5
8AA9
330
9
100
AcDbSymbolTableRecord
100
AcDbRegAppTableRecord
  2
ACAD_NAV_VCDISPLAY
 70
     0
  0
APPID
  5
1038A
330
9
100
AcDbSymbolTableRecord
100
AcDbRegAppTableRecord
  2
ACAD_EXEMPT_FROM_CAD_STANDARDS
 70
     0
  0
APPID
  5
10D03
330
9
100
AcDbSymbolTableRecord
100
AcDbRegAppTableRecord
  2
ACAD_PSEXT
 70
     0
  0
APPID
  5
1147C
330
9
100
AcDbSymbolTableRecord
100
AcDbRegAppTableRecord
  2
ACAD_DSTYLE_DIMJAG
 70
     0
  0
APPID
  5
1147D
330
9
100
AcDbSymbolTableRecord
100
AcDbRegAppTableRecord
  2
ACAD_DSTYLE_DIMTALN
 70
     0
  0
APPID
  5
16BC0
330
9
100
AcDbSymbolTableRecord
100
AcDbRegAppTableRecord
  2
DCO15
 70
     0
  0
APPID
  5
16BC1
330
9
100
AcDbSymbolTableRecord
100
AcDbRegAppTableRecord
  2
ACAD_MLEADERVER
 70
     0
  0
APPID
  5
16BC2
330
9
100
AcDbSymbolTableRecord
100
AcDbRegAppTableRecord
  2
ACAD_DSTYLE_DIMBREAK
 70
     0
  0
APPID
  5
17476
330
9
100
AcDbSymbolTableRecord
100
AcDbRegAppTableRecord
  2
ACAUTHENVIRON
 70
     0
  0
APPID
  5
1C1A7
330
9
100
AcDbSymbolTableRecord
100
AcDbRegAppTableRecord
  2
ACAD_DSTYLE_DIMRADIAL_EXTENSION
 70
     0
  0
APPID
  5
1E621
330
9
100
AcDbSymbolTableRecord
100
AcDbRegAppTableRecord
  2
AcAecLayerStandard
 70
     0
  0
APPID
  5
1E622
330
9
100
AcDbSymbolTableRecord
100
AcDbRegAppTableRecord
  2
AcCmTransparency
 70
     0
  0
APPID
  5
1E631
330
9
100
AcDbSymbolTableRecord
100
AcDbRegAppTableRecord
  2
AcDbDynamicBlockTrueName
 70
     0
  0
APPID
  5
1E632
330
9
100
AcDbSymbolTableRecord
100
AcDbRegAppTableRecord
  2
AcDbDynamicBlockGUID
 70
     0
  0
ENDTAB
  0
TABLE
  2
DIMSTYLE
  5
A
330
0
100
AcDbSymbolTable
 70
     4
100
AcDbDimStyleTable
 71
     2
340
175
340
1171B
  0
DIMSTYLE
105
175
102
{ACAD_REACTORS
330
1E074
330
1E075
330
1E077
330
1E078
330
1E0D0
330
1E0DA
330
1E0DB
330
1E0E3
330
1E0E4
330
1E0E8
330
1E0E9
330
1E0F8
330
1E0F9
330
1E0FA
330
1E0FB
330
1E0FD
330
1E103
330
1E108
330
1E109
330
1E10A
330
1E10B
330
1E10D
330
1E43C
330
1E586
330
1E587
330
1E5B2
330
1E642
330
1E64F
330
1E785
102
}
330
A
100
AcDbSymbolTableRecord
100
AcDbDimStyleTableRecord
  2
STANDARD
 70
     0
 41
2.0
 42
1.0
 43
0.5
 44
0.5
 69
     1
 73
     0
 74
     0
 77
     3
 78
    12
140
8.0
147
3.0
178
   256
271
     1
272
     1
340
11
341
3B2
342
3B2
1001
ACAD_DSTYLE_DIMJAG
1070
   388
1040
1.5
1001
ACAD_DSTYLE_DIMTALN
1070
   392
1070
     0
  0
DIMSTYLE
105
1171B
102
{ACAD_REACTORS
330
1E076
330
1E0E6
330
1E0E7
330
1E0FC
330
1E116
102
}
330
A
100
AcDbSymbolTableRecord
100
AcDbDimStyleTableRecord
  2
STANDARD1
 70
     0
 41
2.0
 42
3.0
 43
0.5
 44
0.5
 77
     3
 78
    12
140
8.0
147
3.0
172
     1
271
     1
272
     1
289
     2
340
11
341
3B2
342
3B2
1001
ACAD_DSTYLE_DIMJAG
1070
   388
1040
1.5
1001
ACAD_DSTYLE_DIMTALN
1070
   392
1070
     0
  0
DIMSTYLE
105
1E459
330
A
100
AcDbSymbolTableRecord
100
AcDbDimStyleTableRecord
  2
ISO-25
 70
     0
 41
2.5
 42
0.625
 43
3.75
 44
1.25
 73
     0
 74
     0
 77
     1
 78
     8
140
2.5
141
2.5
143
0.0393700787
147
0.625
171
     3
172
     1
271
     2
272
     2
274
     3
278
    44
283
     0
284
     8
340
11
  0
ENDTAB
  0
TABLE
  2
BLOCK_RECORD
  5
1
330
0
100
AcDbSymbolTable
 70
    63
  0
BLOCK_RECORD
  5
1E
102
{ACAD_XDICTIONARY
360
178
102
}
330
1
100
AcDbSymbolTableRecord
100
AcDbBlockTableRecord
  2
*MODEL_SPACE
340
8A4C
 70
     0
280
     1
281
     0
  0
BLOCK_RECORD
  5
1A
102
{ACAD_XDICTIONARY
360
17A
102
}
330
1
100
AcDbSymbolTableRecord
100
AcDbBlockTableRecord
  2
*PAPER_SPACE
340
8A4D
 70
     0
280
     1
281
     0
  0
BLOCK_RECORD
  5
3B2
330
1
100
AcDbSymbolTableRecord
100
AcDbBlockTableRecord
  2
_OPEN
340
0
102
{BLKREFS
331
1E580
331
1E581
331
1E2A4
331
1E2A5
331
1E2AD
331
1E2AE
331
1E2B5
331
1E2B6
331
1E2BE
331
1E2BF
331
1E2C7
331
1E2C8
331
1E2D0
331
1E2D1
331
1E2D9
331
1E2DA
331
1E2E2
331
1E2E3
331
1E2EB
331
1E2EC
331
1E2F4
331
1E2FB
331
1E302
331
1E303
331
1E30B
331
1E30C
331
1E356
331
1E357
331
1E685
331
1E686
331
1E649
331
1E64A
331
1E656
331
1E657
331
1E608
331
1E776
331
1E777
331
1E77F
331
1E780
331
1E78D
331
1E78E
331
1E390
331
1E391
331
1E399
331
1E39A
331
1E3C5
331
1E3C6
331
1E414
331
1E415
331
1E41E
331
1E41F
331
1E430
331
1E431
331
1E443
331
1E444
331
1E477
331
1E478
331
1E48E
331
1E48F
331
1E4A9
331
1E4AA
331
1E4B6
331
1E4B7
331
1E4C3
331
1E4C4
331
1E4CF
331
1E4D0
331
1E4DB
331
1E4DC
331
1E4E7
331
1E4E8
331
1E551
331
1E552
331
1E55B
331
1E55C
331
1E565
331
1E566
331
1E56E
331
1E56F
331
1E577
331
1E578
331
1E5A3
331
1E5A4
331
1E5AC
331
1E5AD
331
1E5C4
331
1E5C5
331
1E607
331
1E747
331
1E748
331
1E750
331
1E751
331
1E759
331
1E75A
331
1E762
331
1E763
331
1E76D
331
1E76E
331
1E6A5
331
1E6A6
331
1E6AF
331
1E6B0
102
}
 70
     0
280
     1
281
     0
  0
BLOCK_RECORD
  5
1DDC2
330
1
100
AcDbSymbolTableRecord
100
AcDbBlockTableRecord
  2
SW_CENTERMARKSYMBOL_30
340
0
102
{BLKREFS
331
1E670
331
1E661
102
}
 70
     0
280
     1
281
     0
  0
BLOCK_RECORD
  5
1DDCD
330
1
100
AcDbSymbolTableRecord
100
AcDbBlockTableRecord
  2
SW_CENTERMARKSYMBOL_31
340
0
102
{BLKREFS
331
1E673
331
1E662
102
}
 70
     0
280
     1
281
     0
  0
BLOCK_RECORD
  5
1DEEB
102
{ACAD_XDICTIONARY
360
1E674
102
}
330
1
100
AcDbSymbolTableRecord
100
AcDbBlockTableRecord
  2
L-BAR
340
0
102
{BLKREFS
331
1E110
331
1E5EF
102
}
 70
     4
280
     1
281
     0
1001
AcDbDynamicBlockGUID
1000
{FC2C84DD-5A42-4BBE-9C08-AD0C13089FE4}
  0
BLOCK_RECORD
  5
1DEF6
102
{ACAD_XDICTIONARY
360
1E666
102
}
330
1
100
AcDbSymbolTableRecord
100
AcDbBlockTableRecord
  2
S-BAR
340
0
102
{BLKREFS
331
1E111
331
1E112
331
1E5EE
102
}
 70
     4
280
     1
281
     0
1001
AcDbDynamicBlockGUID
1000
{6643E25D-735D-461D-B6CA-2B722C631EC1}
  0
BLOCK_RECORD
  5
1E117
330
1
100
AcDbSymbolTableRecord
100
AcDbBlockTableRecord
  2
*D5
340
0
 70
     0
280
     1
281
     0
  0
BLOCK_RECORD
  5
1E124
330
1
100
AcDbSymbolTableRecord
100
AcDbBlockTableRecord
  2
*D6
340
0
 70
     0
280
     1
281
     0
  0
BLOCK_RECORD
  5
1E130
330
1
100
AcDbSymbolTableRecord
100
AcDbBlockTableRecord
  2
*D7
340
0
 70
     0
280
     1
281
     0
  0
BLOCK_RECORD
  5
1E13C
330
1
100
AcDbSymbolTableRecord
100
AcDbBlockTableRecord
  2
*D8
340
0
 70
     0
280
     1
281
     0
  0
BLOCK_RECORD
  5
1E147
330
1
100
AcDbSymbolTableRecord
100
AcDbBlockTableRecord
  2
*D9
340
0
 70
     0
280
     1
281
     0
  0
BLOCK_RECORD
  5
1E153
330
1
100
AcDbSymbolTableRecord
100
AcDbBlockTableRecord
  2
*D10
340
0
 70
     0
280
     1
281
     0
  0
BLOCK_RECORD
  5
1E15F
330
1
100
AcDbSymbolTableRecord
100
AcDbBlockTableRecord
  2
*D11
340
0
 70
     0
280
     1
281
     0
  0
BLOCK_RECORD
  5
1E16B
330
1
100
AcDbSymbolTableRecord
100
AcDbBlockTableRecord
  2
*D12
340
0
 70
     0
280
     1
281
     0
  0
BLOCK_RECORD
  5
1E177
330
1
100
AcDbSymbolTableRecord
100
AcDbBlockTableRecord
  2
*D13
340
0
 70
     0
280
     1
281
     0
  0
BLOCK_RECORD
  5
1E183
330
1
100
AcDbSymbolTableRecord
100
AcDbBlockTableRecord
  2
*D14
340
0
 70
     0
280
     1
281
     0
  0
BLOCK_RECORD
  5
1E18F
330
1
100
AcDbSymbolTableRecord
100
AcDbBlockTableRecord
  2
*D15
340
0
 70
     0
280
     1
281
     0
  0
BLOCK_RECORD
  5
1E19B
330
1
100
AcDbSymbolTableRecord
100
AcDbBlockTableRecord
  2
*D16
340
0
 70
     0
280
     1
281
     0
  0
BLOCK_RECORD
  5
1E1A5
330
1
100
AcDbSymbolTableRecord
100
AcDbBlockTableRecord
  2
*D17
340
0
 70
     0
280
     1
281
     0
  0
BLOCK_RECORD
  5
1E1AF
330
1
100
AcDbSymbolTableRecord
100
AcDbBlockTableRecord
  2
*D18
340
0
 70
     0
280
     1
281
     0
  0
BLOCK_RECORD
  5
1E1BB
330
1
100
AcDbSymbolTableRecord
100
AcDbBlockTableRecord
  2
*D19
340
0
 70
     0
280
     1
281
     0
  0
BLOCK_RECORD
  5
1E1C7
330
1
100
AcDbSymbolTableRecord
100
AcDbBlockTableRecord
  2
*D20
340
0
 70
     0
280
     1
281
     0
  0
BLOCK_RECORD
  5
1E1D4
330
1
100
AcDbSymbolTableRecord
100
AcDbBlockTableRecord
  2
*D21
340
0
 70
     0
280
     1
281
     0
  0
BLOCK_RECORD
  5
1E1E0
330
1
100
AcDbSymbolTableRecord
100
AcDbBlockTableRecord
  2
*D22
340
0
 70
     0
280
     1
281
     0
  0
BLOCK_RECORD
  5
1E1EC
330
1
100
AcDbSymbolTableRecord
100
AcDbBlockTableRecord
  2
*D23
340
0
 70
     0
280
     1
281
     0
  0
BLOCK_RECORD
  5
1E1F8
330
1
100
AcDbSymbolTableRecord
100
AcDbBlockTableRecord
  2
*D24
340
0
 70
     0
280
     1
281
     0
  0
BLOCK_RECORD
  5
1E204
330
1
100
AcDbSymbolTableRecord
100
AcDbBlockTableRecord
  2
*D25
340
0
 70
     0
280
     1
281
     0
  0
BLOCK_RECORD
  5
1E212
330
1
100
AcDbSymbolTableRecord
100
AcDbBlockTableRecord
  2
*D26
340
0
 70
     0
280
     1
281
     0
  0
BLOCK_RECORD
  5
1E21E
330
1
100
AcDbSymbolTableRecord
100
AcDbBlockTableRecord
  2
*D27
340
0
 70
     0
280
     1
281
     0
  0
BLOCK_RECORD
  5
1E22A
330
1
100
AcDbSymbolTableRecord
100
AcDbBlockTableRecord
  2
*D28
340
0
 70
     0
280
     1
281
     0
  0
BLOCK_RECORD
  5
1E236
330
1
100
AcDbSymbolTableRecord
100
AcDbBlockTableRecord
  2
*D29
340
0
 70
     0
280
     1
281
     0
  0
BLOCK_RECORD
  5
1E242
330
1
100
AcDbSymbolTableRecord
100
AcDbBlockTableRecord
  2
*D30
340
0
 70
     0
280
     1
281
     0
  0
BLOCK_RECORD
  5
1E24F
330
1
100
AcDbSymbolTableRecord
100
AcDbBlockTableRecord
  2
*D31
340
0
 70
     0
280
     1
281
     0
  0
BLOCK_RECORD
  5
1E269
330
1
100
AcDbSymbolTableRecord
100
AcDbBlockTableRecord
  2
*D32
340
0
 70
     0
280
     1
281
     0
  0
BLOCK_RECORD
  5
1E276
330
1
100
AcDbSymbolTableRecord
100
AcDbBlockTableRecord
  2
*D33
340
0
 70
     0
280
     1
281
     0
  0
BLOCK_RECORD
  5
1E282
330
1
100
AcDbSymbolTableRecord
100
AcDbBlockTableRecord
  2
*D34
340
0
 70
     0
280
     1
281
     0
  0
BLOCK_RECORD
  5
1E3F9
330
1
100
AcDbSymbolTableRecord
100
AcDbBlockTableRecord
  2
*D35
340
0
 70
     0
280
     1
281
     0
  0
BLOCK_RECORD
  5
1E405
330
1
100
AcDbSymbolTableRecord
100
AcDbBlockTableRecord
  2
*D36
340
0
 70
     0
280
     1
281
     0
  0
BLOCK_RECORD
  5
1E43D
330
1
100
AcDbSymbolTableRecord
100
AcDbBlockTableRecord
  2
*D37
340
0
 70
     0
280
     1
281
     0
  0
BLOCK_RECORD
  5
1E47E
330
1
100
AcDbSymbolTableRecord
100
AcDbBlockTableRecord
  2
*D38
340
0
 70
     0
280
     1
281
     0
  0
BLOCK_RECORD
  5
1E4A4
330
1
100
AcDbSymbolTableRecord
100
AcDbBlockTableRecord
  2
*D39
340
0
 70
     0
280
     1
281
     0
  0
BLOCK_RECORD
  5
1E4B0
330
1
100
AcDbSymbolTableRecord
100
AcDbBlockTableRecord
  2
*D40
340
0
 70
     0
280
     1
281
     0
  0
BLOCK_RECORD
  5
1E4BD
330
1
100
AcDbSymbolTableRecord
100
AcDbBlockTableRecord
  2
*D41
340
0
 70
     0
280
     1
281
     0
  0
BLOCK_RECORD
  5
1E4CA
330
1
100
AcDbSymbolTableRecord
100
AcDbBlockTableRecord
  2
*D42
340
0
 70
     0
280
     1
281
     0
  0
BLOCK_RECORD
  5
1E4D6
330
1
100
AcDbSymbolTableRecord
100
AcDbBlockTableRecord
  2
*D43
340
0
 70
     0
280
     1
281
     0
  0
BLOCK_RECORD
  5
1E4E2
330
1
100
AcDbSymbolTableRecord
100
AcDbBlockTableRecord
  2
*D44
340
0
 70
     0
280
     1
281
     0
  0
BLOCK_RECORD
  5
1E504
330
1
100
AcDbSymbolTableRecord
100
AcDbBlockTableRecord
  2
*D45
340
0
 70
     0
280
     1
281
     0
  0
BLOCK_RECORD
  5
1E510
330
1
100
AcDbSymbolTableRecord
100
AcDbBlockTableRecord
  2
*D46
340
0
 70
     0
280
     1
281
     0
  0
BLOCK_RECORD
  5
1E51D
330
1
100
AcDbSymbolTableRecord
100
AcDbBlockTableRecord
  2
*D47
340
0
 70
     0
280
     1
281
     0
  0
BLOCK_RECORD
  5
1E52A
330
1
100
AcDbSymbolTableRecord
100
AcDbBlockTableRecord
  2
*D48
340
0
 70
     0
280
     1
281
     0
  0
BLOCK_RECORD
  5
1E536
330
1
100
AcDbSymbolTableRecord
100
AcDbBlockTableRecord
  2
*D49
340
0
 70
     0
280
     1
281
     0
  0
BLOCK_RECORD
  5
1E542
330
1
100
AcDbSymbolTableRecord
100
AcDbBlockTableRecord
  2
*D50
340
0
 70
     0
280
     1
281
     0
  0
BLOCK_RECORD
  5
1E588
330
1
100
AcDbSymbolTableRecord
100
AcDbBlockTableRecord
  2
*D51
340
0
 70
     0
280
     1
281
     0
  0
BLOCK_RECORD
  5
1E594
330
1
100
AcDbSymbolTableRecord
100
AcDbBlockTableRecord
  2
*D52
340
0
 70
     0
280
     1
281
     0
  0
BLOCK_RECORD
  5
1E5B3
330
1
100
AcDbSymbolTableRecord
100
AcDbBlockTableRecord
  2
*D53
340
0
 70
     0
280
     1
281
     0
  0
BLOCK_RECORD
  5
1E643
330
1
100
AcDbSymbolTableRecord
100
AcDbBlockTableRecord
  2
*D57
340
0
 70
     0
280
     1
281
     0
  0
BLOCK_RECORD
  5
1E650
330
1
100
AcDbSymbolTableRecord
100
AcDbBlockTableRecord
  2
*D58
340
0
 70
     0
280
     1
281
     0
  0
BLOCK_RECORD
  5
1E786
330
1
100
AcDbSymbolTableRecord
100
AcDbBlockTableRecord
  2
*D62
340
0
 70
     0
280
     1
281
     0
  0
ENDTAB
  0
ENDSEC
  0
SECTION
  2
BLOCKS
  0
BLOCK
  5
1F
330
1E
100
AcDbEntity
  8
0
100
AcDbBlockBegin
  2
*MODEL_SPACE
 70
     0
 10
0.0
 20
0.0
 30
0.0
  3
*MODEL_SPACE
  1

  0
ENDBLK
  5
20
330
1E
100
AcDbEntity
  8
0
100
AcDbBlockEnd
  0
BLOCK
  5
1B
330
1A
100
AcDbEntity
 67
     1
  8
0
100
AcDbBlockBegin
  2
*PAPER_SPACE
 70
     0
 10
0.0
 20
0.0
 30
0.0
  3
*PAPER_SPACE
  1

  0
ENDBLK
  5
1C
330
1A
100
AcDbEntity
 67
     1
  8
0
100
AcDbBlockEnd
  0
BLOCK
  5
3B6
330
3B2
100
AcDbEntity
  8
0
100
AcDbBlockBegin
  2
_OPEN
 70
     0
 10
0.0
 20
0.0
 30
0.0
  3
_OPEN
  1

  0
LINE
  5
3B3
330
3B2
100
AcDbEntity
  8
30
  6
Continuous
 62
     0
100
AcDbLine
 10
-1.0
 20
0.166667
 30
0.0
 11
0.0
 21
0.0
 31
0.0
  0
LINE
  5
3B4
330
3B2
100
AcDbEntity
  8
30
  6
Continuous
 62
     0
100
AcDbLine
 10
-1.0
 20
-0.166667
 30
0.0
 11
0.0
 21
0.0
 31
0.0
  0
LINE
  5
3B5
330
3B2
100
AcDbEntity
  8
30
  6
Continuous
 62
     0
100
AcDbLine
 10
0.0
 20
0.0
 30
0.0
 11
-1.0
 21
0.0
 31
0.0
  0
ENDBLK
  5
3B7
330
3B2
100
AcDbEntity
  8
0
100
AcDbBlockEnd
  0
BLOCK
  5
1DDC3
330
1DDC2
100
AcDbEntity
  8
0
100
AcDbBlockBegin
  2
SW_CENTERMARKSYMBOL_30
 70
     0
 10
0.0
 20
0.0
 30
0.0
  3
SW_CENTERMARKSYMBOL_30
  1
SW_CENTERMARKSYMBOL_30
  0
LINE
  5
1DDC4
330
1DDC2
100
AcDbEntity
  8
SLD-0
 62
     0
100
AcDbLine
 10
0.0
 20
0.0
 30
0.0
 11
0.0
 21
0.625
 31
0.0
  0
LINE
  5
1DDC5
330
1DDC2
100
AcDbEntity
  8
SLD-0
 62
     0
100
AcDbLine
 10
0.0
 20
0.0
 30
0.0
 11
-0.625
 21
0.0
 31
0.0
  0
LINE
  5
1DDC6
330
1DDC2
100
AcDbEntity
  8
SLD-0
 62
     0
100
AcDbLine
 10
0.0
 20
0.0
 30
0.0
 11
0.0
 21
-0.625
 31
0.0
  0
LINE
  5
1DDC7
330
1DDC2
100
AcDbEntity
  8
SLD-0
 62
     0
100
AcDbLine
 10
0.0
 20
0.0
 30
0.0
 11
0.625
 21
0.0
 31
0.0
  0
LINE
  5
1DDC8
330
1DDC2
100
AcDbEntity
  8
SLD-0
 62
     0
100
AcDbLine
 10
0.0
 20
1.25
 30
0.0
 11
0.0
 21
2.25
 31
0.0
  0
LINE
  5
1DDC9
330
1DDC2
100
AcDbEntity
  8
SLD-0
 62
     0
100
AcDbLine
 10
-1.25
 20
0.0
 30
0.0
 11
-2.25
 21
0.0
 31
0.0
  0
LINE
  5
1DDCA
330
1DDC2
100
AcDbEntity
  8
SLD-0
 62
     0
100
AcDbLine
 10
0.0
 20
-1.25
 30
0.0
 11
0.0
 21
-2.25
 31
0.0
  0
LINE
  5
1DDCB
330
1DDC2
100
AcDbEntity
  8
SLD-0
 62
     0
100
AcDbLine
 10
1.25
 20
0.0
 30
0.0
 11
2.25
 21
0.0
 31
0.0
  0
ENDBLK
  5
1DDCC
330
1DDC2
100
AcDbEntity
  8
0
100
AcDbBlockEnd
  0
BLOCK
  5
1DDCE
330
1DDCD
100
AcDbEntity
  8
0
100
AcDbBlockBegin
  2
SW_CENTERMARKSYMBOL_31
 70
     0
 10
0.0
 20
0.0
 30
0.0
  3
SW_CENTERMARKSYMBOL_31
  1
SW_CENTERMARKSYMBOL_31
  0
LINE
  5
1DDCF
330
1DDCD
100
AcDbEntity
  8
SLD-0
 62
     0
100
AcDbLine
 10
0.0
 20
0.0
 30
0.0
 11
0.0
 21
0.625
 31
0.0
  0
LINE
  5
1DDD0
330
1DDCD
100
AcDbEntity
  8
SLD-0
 62
     0
100
AcDbLine
 10
0.0
 20
0.0
 30
0.0
 11
-0.625
 21
0.0
 31
0.0
  0
LINE
  5
1DDD1
330
1DDCD
100
AcDbEntity
  8
SLD-0
 62
     0
100
AcDbLine
 10
0.0
 20
0.0
 30
0.0
 11
0.0
 21
-0.625
 31
0.0
  0
LINE
  5
1DDD2
330
1DDCD
100
AcDbEntity
  8
SLD-0
 62
     0
100
AcDbLine
 10
0.0
 20
0.0
 30
0.0
 11
0.625
 21
0.0
 31
0.0
  0
LINE
  5
1DDD3
330
1DDCD
100
AcDbEntity
  8
SLD-0
 62
     0
100
AcDbLine
 10
0.0
 20
1.25
 30
0.0
 11
0.0
 21
2.25
 31
0.0
  0
LINE
  5
1DDD4
330
1DDCD
100
AcDbEntity
  8
SLD-0
 62
     0
100
AcDbLine
 10
-1.25
 20
0.0
 30
0.0
 11
-2.25
 21
0.0
 31
0.0
  0
LINE
  5
1DDD5
330
1DDCD
100
AcDbEntity
  8
SLD-0
 62
     0
100
AcDbLine
 10
0.0
 20
-1.25
 30
0.0
 11
0.0
 21
-2.25
 31
0.0
  0
LINE
  5
1DDD6
330
1DDCD
100
AcDbEntity
  8
SLD-0
 62
     0
100
AcDbLine
 10
1.25
 20
0.0
 30
0.0
 11
2.25
 21
0.0
 31
0.0
  0
ENDBLK
  5
1DDD7
330
1DDCD
100
AcDbEntity
  8
0
100
AcDbBlockEnd
  0
BLOCK
  5
1DEEE
330
1DEEB
100
AcDbEntity
  8
0
100
AcDbBlockBegin
  2
L-BAR
 70
     0
 10
0.0
 20
0.0
 30
0.0
  3
L-BAR
  1

  0
LWPOLYLINE
  5
1E66E
330
1DEEB
100
AcDbEntity
  8
24
100
AcDbPolyline
 90
        4
 70
     0
 43
0.0
 10
-14.49999958259968
 20
0.0
 10
-14.49999958259968
 20
89.00000154959991
 10
14.49999958299986
 20
89.00000154959991
 10
14.49999958299986
 20
0.0
  0
LWPOLYLINE
  5
1E66F
330
1DEEB
100
AcDbEntity
  8
24
  6
CONTINOUS
100
AcDbPolyline
 90
        5
 70
     0
 43
0.0
 10
6.525000000200177
 20
115.999999709449
 42
1.0
 10
-6.47499999979982
 20
115.999999709449
 10
-6.47499999979982
 20
115.0000000968501
 42
1.0
 10
6.525000000200177
 20
114.9999999031496
 10
6.525000208599974
 20
115.9999987558491
  0
INSERT
  5
1E670
330
1DEEB
100
AcDbEntity
  8
17
100
AcDbBlockReference
  2
SW_CENTERMARKSYMBOL_30
 10
-0.0250000002001798
 20
115.999999709449
 30
0.0
 41
4.0
 42
4.0
 43
-4.0
 50
180.0
210
0.0
220
0.0
230
-1.0
  0
LWPOLYLINE
  5
1E671
330
1DEEB
100
AcDbEntity
  8
24
100
AcDbPolyline
 90
      146
 70
     0
 43
0.0
 10
12.00316724840009
 20
130.999997258
 10
11.11687564320005
 20
130.999997258
 10
-10.60687564279988
 20
130.999997258
 10
-11.99170284373913
 20
130.999997258
 42
0.4143565783038863
 10
-14.99316763040015
 20
127.9999976155999
 10
-14.9931140718224
 20
115.9416990655066
 10
-14.99302464606144
 20
115.8866740434581
 10
-14.99268278083782
 20
115.7787693426513
 10
-14.99134877740034
 20
115.5643600043362
 10
-14.98607821226933
 20
115.1364052728375
 10
-14.97732926005501
 20
114.7087723412395
 10
-14.96508646805905
 20
114.2814348249402
 10
-14.94933233481351
 20
113.8544318988148
 10
-14.93003311682623
 20
113.4277978991557
 10
-14.90714700875578
 20
113.0015775773662
 10
-14.88063220526073
 20
112.5758156848491
 10
-14.85046269339973
 20
112.1505683976314
 10
-14.81657494760402
 20
111.7259323866027
 10
-14.77887089359246
 20
111.3020131454613
 10
-14.73725245708574
 20
110.8789161679063
 10
-14.69162156380271
 20
110.4567469476368
 10
-14.64188013946223
 20
110.0356109783509
 10
-14.58793010978452
 20
109.6156137537479
 10
-14.52967340048844
 20
109.1968607675259
 10
-14.44131881412495
 20
108.6171175837225
 10
-14.39370118873121
 20
108.3280176295325
 10
-14.34366547729105
 20
108.0394600317974
 10
-14.29111828137702
 20
107.7514657390027
 10
-14.23596620256075
 20
107.4640556996338
 10
-14.17811584241481
 20
107.1772508621762
 10
-14.11747380251081
 20
106.8910721751155
 10
-14.05397142041529
 20
106.6055350388602
 10
-13.98743951190927
 20
106.3206774000144
 10
-13.91763389588386
 20
106.0365540263566
 10
-13.8443103912311
 20
105.7532196856648
 10
-13.76722481684164
 20
105.4707291457174
 10
-13.68613299160752
 20
105.1891371742925
 10
-13.60079073441984
 20
104.9084985391687
 10
-13.51095386417018
 20
104.6288680081242
 10
-13.41638688352186
 20
104.3506483538551
 10
-13.31666941158819
 20
104.0743854620299
 10
-13.01127994193575
 20
103.8003487698843
 10
-12.89969696812977
 20
103.5288077146541
 10
-12.78129637766551
 20
103.2599187636433
 10
-12.1552380924918
 20
102.9944595135887
 10
-12.08907310977884
 20
102.8633913799779
 10
-12.02067665785671
 20
102.7336310958757
 10
-11.9499430548808
 20
102.6053288027053
 10
-11.87676661900787
 20
102.4786346418899
 10
-11.80097363421464
 20
102.3536643565628
 10
-11.72226144225169
 20
102.2305611248952
 10
-11.64033094793558
 20
102.1095162408668
 10
-11.55488305608287
 20
101.9907209984574
 10
-11.46541106842232
 20
101.8742045816469
 10
-11.37156447588677
 20
101.7605025560214
 10
-11.27327846709795
 20
101.6505657879693
 10
-11.17048823067853
 20
101.5453451438793
 10
-11.0631218014114
 20
101.4456926077139
 10
-10.95062036847457
 20
101.3524922713281
 10
-10.86219220763951
 20
101.2650456930838
 10
-10.83218885208225
 20
101.2214675117933
 10
-10.79999841720018
 20
101.176448166
 10
-10.79999841720018
 20
101.176448166
 10
-10.79999841720018
 20
101.176448166
 10
-10.79999841720018
 20
101.176448166
 10
-10.79999841720018
 20
101.176448166
 10
-10.79999841720018
 20
101.176448166
 10
-10.79999841720018
 20
101.176448166
 10
-10.79999841720018
 20
101.176448166
 10
-10.79999841720018
 20
101.176448166
 10
-10.79999841720018
 20
101.176448166
 10
-10.79999841720018
 20
101.176448166
 10
-10.79999841720018
 20
101.176448166
 10
-10.79999841720018
 20
101.176448166
 10
-10.79999841720018
 20
101.176448166
 10
10.79999841759991
 20
101.176448166
 10
10.79999841759991
 20
101.176448166
 10
10.79999841759991
 20
101.176448166
 10
10.79999841759991
 20
101.176448166
 10
10.79999841759991
 20
101.176448166
 10
10.79999841759991
 20
101.176448166
 10
10.79999841759991
 20
101.176448166
 10
10.79999841759991
 20
101.176448166
 10
10.79999841759991
 20
101.176448166
 10
10.79999841759991
 20
101.176448166
 10
10.79999841759991
 20
101.176448166
 10
10.79999841759991
 20
101.176448166
 10
10.79999841759991
 20
101.176448166
 10
10.79999841759991
 20
101.176448166
 10
10.79999841759991
 20
101.176448166
 10
10.79999841759991
 20
101.176448166
 10
11.56235330691425
 20
101.4451541479638
 10
11.67011353482211
 20
101.5449793483863
 10
11.7725491060728
 20
101.6495835645313
 10
11.87045243503917
 20
101.7586035645503
 10
11.96407841206337
 20
101.8715665242582
 10
12.05368192748801
 20
101.9879996194705
 10
12.13951787165479
 20
102.1074300260025
 10
12.22184113490584
 20
102.2293849196694
 10
12.30090660758378
 20
102.3533914762867
 10
12.3769691800303
 20
102.4789768716695
 10
12.4503308831413
 20
102.606013877043
 10
12.52119693931263
 20
102.7345890216101
 10
12.58967702613563
 20
102.8645501181531
 10
12.65588082120075
 20
102.9957449794547
 10
12.78189824642186
 20
103.2612272474625
 10
12.90012663570405
 20
103.5298183278927
 10
13.01143130694891
 20
103.8007210500307
 10
13.12646455242726
 20
104.0738196817876
 10
13.22578425442112
 20
104.3489188833614
 10
13.31994829521205
 20
104.6258233149497
 10
13.40949526376858
 20
104.9044018162142
 10
13.49472892229074
 20
105.1845454231571
 10
13.57585491290844
 20
105.4660920904863
 10
13.65307887775293
 20
105.7488797729095
 10
13.72660645895463
 20
106.0327464251346
 10
13.79664329864432
 20
106.3175300018697
 10
13.86339503895284
 20
106.6030684578223
 10
13.9270673220101
 20
106.8891997477008
 10
14.18782834746022
 20
107.1758558804099
 10
14.24577316930205
 20
107.463064352765
 10
14.30099771120145
 20
107.7508063513385
 10
14.35359789682203
 20
108.0390630627025
 10
14.40366964982919
 20
108.3278156734297
 10
14.45130889388789
 20
108.6170453700926
 10
14.53967354981974
 20
109.1968607675206
 10
14.59793025912446
 20
109.6156137538056
 10
14.65188028880853
 20
110.0356109784562
 10
14.70162171315311
 20
110.4567469477819
 10
14.74725260643932
 20
110.8789161680914
 10
14.78887104294832
 20
111.3020131456943
 10
14.8265750969617
 20
111.7259323869001
 10
14.86046284276059
 20
112.150568398018
 10
14.89063235462569
 20
112.5758156853575
 10
14.91714715812392
 20
113.0015775780081
 10
14.94003326619482
 20
113.4277978999174
 10
14.95933248417983
 20
113.8544318996811
 10
14.97508661742127
 20
114.2814348258952
 10
14.98732940941132
 20
114.7087723422649
 10
14.99607836161836
 20
115.1364052739176
 10
15.00134892674074
 20
115.5643600054208
 10
15.00268293017276
 20
115.7787693436167
 10
15.0030247953941
 20
115.8866740441743
 10
15.00311422115415
 20
115.941699065857
 10
15.0031677800002
 20
127.9999976155999
 42
0.4142135623730912
 10
12.0031677800002
 20
130.9999976155999
  0
LWPOLYLINE
  5
1E672
330
1DEEB
100
AcDbEntity
  8
24
100
AcDbPolyline
 90
        4
 70
     1
 43
0.0
 10
-10.79999841720018
 20
101.176448166
 10
10.79999841759991
 20
101.176448166
 10
10.80000028020004
 20
89.00000154959991
 10
-10.80000028020004
 20
89.00000154959991
  0
INSERT
  5
1E673
330
1DEEB
100
AcDbEntity
  8
17
100
AcDbBlockReference
  2
SW_CENTERMARKSYMBOL_31
 10
-0.0250000002001798
 20
114.999999709449
 30
0.0
 41
4.0
 42
4.0
 43
-4.0
 50
180.0
210
0.0
220
0.0
230
-1.0
  0
ENDBLK
  5
1DEF5
330
1DEEB
100
AcDbEntity
  8
0
100
AcDbBlockEnd
  0
BLOCK
  5
1DEF9
330
1DEF6
100
AcDbEntity
  8
0
100
AcDbBlockBegin
  2
S-BAR
 70
     0
 10
0.0
 20
0.0
 30
0.0
  3
S-BAR
  1

  0
LINE
  5
1E65F
330
1DEF6
100
AcDbEntity
  8
24
  6
SLD-実線
370
    15
100
AcDbLine
 10
-14.19999729840037
 20
24.49999935919993
 30
0.0
 11
14.19999916079996
 21
24.49999935919993
 31
0.0
  0
LWPOLYLINE
  5
1E660
330
1DEF6
100
AcDbEntity
  8
24
  6
CONTINOUS
100
AcDbPolyline
 90
        5
 70
     0
 43
0.0
 10
6.499999143200057
 20
50.99999970944917
 42
1.0
 10
-6.500000856799942
 20
50.99999970944917
 10
-6.500000856799942
 20
50.00000009685016
 42
1.0
 10
6.499999143200057
 20
49.99999990314961
 10
6.499999351599853
 20
50.9999987558491
  0
INSERT
  5
1E661
330
1DEF6
100
AcDbEntity
  8
17
100
AcDbBlockReference
  2
SW_CENTERMARKSYMBOL_30
 10
0.000000856799943
 20
50.99999970944917
 30
0.0
 41
4.0
 42
4.0
 43
-4.0
 50
180.0
210
0.0
220
0.0
230
-1.0
  0
INSERT
  5
1E662
330
1DEF6
100
AcDbEntity
  8
17
100
AcDbBlockReference
  2
SW_CENTERMARKSYMBOL_31
 10
0.000000856799943
 20
49.99999970944918
 30
0.0
 41
4.0
 42
4.0
 43
-4.0
 50
180.0
210
0.0
220
0.0
230
-1.0
  0
LWPOLYLINE
  5
1E663
330
1DEF6
100
AcDbEntity
  8
24
100
AcDbPolyline
 90
      146
 70
     0
 43
0.0
 10
11.89316631680012
 20
65.99999964239998
 10
11.20687471160008
 20
65.99999964239998
 10
-10.80687657439985
 20
65.99999964239998
 10
-12.0917037753391
 20
65.99999964239998
 42
0.4143565783038863
 10
-15.09316856200011
 20
63.0
 10
-15.09311500342237
 20
50.94170144990653
 10
-15.0930255776614
 20
50.88667642785811
 10
-15.09268371243779
 20
50.77877172705132
 10
-15.09134970900031
 20
50.56436238873629
 10
-15.0860791438693
 20
50.13640765723743
 10
-15.07733019165498
 20
49.70877472563961
 10
-15.06508739965902
 20
49.28143720934031
 10
-15.04933326641348
 20
48.8544342832148
 10
-15.0300340484262
 20
48.42780028355559
 10
-15.00714794035575
 20
48.00157996176608
 10
-14.9806331368607
 20
47.57581806924918
 10
-14.9504636249997
 20
47.15057078203142
 10
-14.91657587920399
 20
46.72593477100257
 10
-14.87887182519243
 20
46.30201552986124
 10
-14.83725338868571
 20
45.87891855230646
 10
-14.79162249540268
 20
45.45674933203679
 10
-14.74188107106219
 20
45.03561336275106
 10
-14.68793104138448
 20
44.61561613814786
 10
-14.62967433208841
 20
44.19686315192587
 10
-14.54131974572492
 20
43.61711996812255
 10
-14.49370212033118
 20
43.32802001393246
 10
-14.44366640889102
 20
43.03946241619734
 10
-14.39111921297699
 20
42.75146812340267
 10
-14.33596713416072
 20
42.4640580840338
 10
-14.27811677401478
 20
42.17725324657624
 10
-14.21747473411078
 20
41.89107455951557
 10
-14.15397235201526
 20
41.60553742326022
 10
-14.08744044350924
 20
41.32067978441443
 10
-14.01763482748383
 20
41.03655641075659
 10
-13.94431132283107
 20
40.75322207006478
 10
-13.86722574844161
 20
40.4707315301174
 10
-13.78613392320749
 20
40.18913955869254
 10
-13.10079166601981
 20
39.90850092356868
 10
-13.01095479577015
 20
39.62887039252417
 10
-12.91638781512183
 20
39.35065073825512
 10
-12.61667034318816
 20
39.0743878464299
 10
-12.51128087353572
 20
38.80035115428427
 10
-12.39969789972974
 20
38.52881009905411
 10
-12.28129730926548
 20
38.25992114804331
 10
-12.15523902409177
 20
37.99446189798869
 10
-12.08907404137881
 20
37.86339376437786
 10
-12.02067758945668
 20
37.73363348027567
 10
-11.94994398648077
 20
37.60533118710532
 10
-11.87676755060784
 20
37.4786370262899
 10
-11.80097456581461
 20
37.35366674096281
 10
-11.72226237385166
 20
37.23056350929518
 10
-11.64033187953555
 20
37.10951862526679
 10
-11.55488398768284
 20
36.99072338285737
 10
-11.46541200002229
 20
36.87420696604693
 10
-11.37156540748674
 20
36.76050494042136
 10
-11.27327939869792
 20
36.65056817236929
 10
-11.1704891622785
 20
36.54534752827931
 10
-11.06312273301137
 20
36.44569499211389
 10
-10.95062130007454
 20
36.35249465572815
 10
-10.86219313923948
 20
36.26504807748381
 10
-10.83218978368222
 20
36.22146989619329
 10
-10.79999934880015
 20
36.17645055039998
 10
-10.79999934880015
 20
36.17645055039998
 10
-10.79999934880015
 20
36.17645055039998
 10
-10.79999934880015
 20
36.17645055039998
 10
-10.79999934880015
 20
36.17645055039998
 10
-10.79999934880015
 20
36.17645055039998
 10
-10.79999934880015
 20
36.17645055039998
 10
-10.79999934880015
 20
36.17645055039998
 10
-10.79999934880015
 20
36.17645055039998
 10
-10.79999934880015
 20
36.17645055039998
 10
-10.79999934880015
 20
36.17645055039998
 10
-10.79999934880015
 20
36.17645055039998
 10
-10.79999934880015
 20
36.17645055039998
 10
-10.79999934880015
 20
36.17645055039998
 10
10.79999748599994
 20
36.17645055039998
 10
10.79999748599994
 20
36.17645055039998
 10
10.79999748599994
 20
36.17645055039998
 10
10.79999748599994
 20
36.17645055039998
 10
10.79999748599994
 20
36.17645055039998
 10
10.79999748599994
 20
36.17645055039998
 10
10.79999748599994
 20
36.17645055039998
 10
10.79999748599994
 20
36.17645055039998
 10
10.79999748599994
 20
36.17645055039998
 10
10.79999748599994
 20
36.17645055039998
 10
10.79999748599994
 20
36.17645055039998
 10
10.79999748599994
 20
36.17645055039998
 10
10.79999748599994
 20
36.17645055039998
 10
10.79999748599994
 20
36.17645055039998
 10
10.79999748599994
 20
36.17645055039998
 10
10.79999748599994
 20
36.17645055039998
 10
11.06235237531427
 20
36.44515653236386
 10
11.17011260322215
 20
36.54498173278625
 10
11.27254817447283
 20
36.64958594893131
 10
11.3704515034392
 20
36.75860594895028
 10
11.4640774804634
 20
36.87156890865822
 10
11.55368099588804
 20
36.98800200387053
 10
11.63951694005482
 20
37.10743241040245
 10
11.72184020330587
 20
37.22938730406941
 10
11.80090567598381
 20
37.35339386068665
 10
11.87696824843033
 20
37.47897925606948
 10
11.95032995154133
 20
37.60601626144296
 10
12.02119600771266
 20
37.73459140601005
 10
12.08967609453566
 20
37.86455250255313
 10
12.15587988960078
 20
37.99574736385466
 10
12.68189731482189
 20
38.26122963186254
 10
12.80012570410408
 20
38.52982071229268
 10
12.91143037534893
 20
38.80072343443067
 10
13.01646362082729
 20
39.07382206618763
 10
13.11578332282115
 20
39.3489212677614
 10
13.20994736361208
 20
39.62582569934966
 10
13.29949433216861
 20
39.90440420061418
 10
13.38472799069077
 20
40.1845478075571
 10
13.66585398130846
 20
40.46609447488629
 10
13.74307794615297
 20
40.74888215730946
 10
13.81660552735465
 20
41.03274880953461
 10
13.88664236704435
 20
41.3175323862697
 10
13.95339410735287
 20
41.60307084222234
 10
14.01706639041012
 20
41.88920213210074
 10
14.07782741586024
 20
42.1758582648099
 10
14.13577223770207
 20
42.46306673716502
 10
14.19099677960148
 20
42.75080873573847
 10
14.24359696522206
 20
43.03906544710253
 10
14.29366871822922
 20
43.32781805782974
 10
14.34130796228792
 20
43.61704775449253
 10
14.42967261821977
 20
44.19686315192051
 10
14.48792932752448
 20
44.61561613820562
 10
14.54187935720856
 20
45.0356133628562
 10
14.59162078155313
 20
45.45674933218172
 10
14.63725167483935
 20
45.87891855249131
 10
14.67887011134835
 20
46.3020155300943
 10
14.71657416536172
 20
46.7259347713002
 10
14.75046191116061
 20
47.15057078241807
 10
14.78063142302571
 20
47.57581806975747
 10
14.80714622652394
 20
48.00157996240806
 10
14.83003233459485
 20
48.42780028431729
 10
14.84933155257986
 20
48.85443428408109
 10
14.8650856858213
 20
49.28143721029528
 10
14.87732847781135
 20
49.70877472666495
 10
14.88607743001839
 20
50.13640765831756
 10
14.89134799514076
 20
50.56436238982087
 10
14.89268199857279
 20
50.77877172801675
 10
14.89302386379413
 20
50.88667642857434
 10
14.89311328955418
 20
50.94170145025703
 10
14.89316684840023
 20
63.0
 42
0.4142135623730951
 10
11.89316684840023
 20
66.0
  0
LWPOLYLINE
  5
1E664
330
1DEF6
100
AcDbEntity
  8
24
100
AcDbPolyline
 90
        4
 70
     1
 43
0.0
 10
-10.79999934880015
 20
36.17645055039998
 10
10.79999748599994
 20
36.17645055039998
 10
10.79999748599994
 20
27.49999985080001
 10
-10.79999934880015
 20
27.49999985080001
  0
LWPOLYLINE
  5
1E665
330
1DEF6
100
AcDbEntity
  8
24
  6
SLD-実線
370
    15
100
AcDbPolyline
 90
        7
 70
     0
 43
0.0
 10
-14.19999729840037
 20
0.0
 10
-14.19999729840037
 20
24.49999935920005
 10
-13.69999628520054
 20
27.49999985080001
 10
0.0000009311997928
 20
27.49999985080001
 10
13.70000187319965
 20
27.49999985080001
 10
14.20000288639949
 20
24.49999935919993
 10
14.20000288639949
 20
0.0
  0
ENDBLK
  5
1DF01
330
1DEF6
100
AcDbEntity
  8
0
100
AcDbBlockEnd
  0
BLOCK
  5
1E118
330
1E117
100
AcDbEntity
  8
0
100
AcDbBlockBegin
  2
*D5
 70
     1
 10
0.0
 20
0.0
 30
0.0
  3
*D5
  1

  0
LINE
  5
1E603
330
1E117
100
AcDbEntity
  8
30
  6
Continuous
 62
     0
370
    -2
100
AcDbLine
 10
644.1123821502892
 20
505.4938972774817
 30
0.0
 11
675.9249111982462
 21
505.4938972774817
 31
0.0
  0
LINE
  5
1E604
330
1E117
100
AcDbEntity
  8
30
  6
Continuous
 62
     0
370
    -2
100
AcDbLine
 10
644.1123821502892
 20
475.4938972774818
 30
0.0
 11
675.9249111982462
 21
475.4938972774818
 31
0.0
  0
LINE
  5
1E605
330
1E117
100
AcDbEntity
  8
30
  6
Continuous
 62
     0
370
    -2
100
AcDbLine
 10
675.4249111982463
 20
477.4938972774818
 30
0.0
 11
675.4249111982463
 21
503.4938972774816
 31
0.0
  0
LINE
  5
1E606
330
1E117
100
AcDbEntity
  8
30
  6
Continuous
 62
     0
370
    -2
100
AcDbLine
 10
675.4249111982463
 20
505.4938972774817
 30
0.0
 11
675.4249111982463
 21
525.7041987693298
 31
0.0
  0
INSERT
  5
1E607
330
1E117
100
AcDbEntity
  8
30
  6
Continuous
 62
     0
370
    -2
100
AcDbBlockReference
  2
_OPEN
 10
675.4249111982463
 20
475.4938972774818
 30
0.0
 41
2.0
 42
2.0
 43
2.0
 50
270.0
  0
INSERT
  5
1E608
330
1E117
100
AcDbEntity
  8
30
  6
Continuous
 62
     0
370
    -2
100
AcDbBlockReference
  2
_OPEN
 10
675.4249111982463
 20
505.4938972774817
 30
0.0
 41
2.0
 42
2.0
 43
2.0
 50
90.0
  0
MTEXT
  5
1E609
330
1E117
100
AcDbEntity
  8
30
  6
Continuous
100
AcDbMText
 10
668.4249111982461
 20
516.7041987693301
 30
0.0
 40
8.0
 41
0.0
 46
0.0
 71
     5
 72
     1
  1
\A1;30
 11
0.0000000000000001
 21
1.0
 31
0.0
 73
     1
 44
1.0
 90
        3
 63
     9
421
 13158600
 45
1.25
441
        0
  0
POINT
  5
1E60A
330
1E117
100
AcDbEntity
  8
DEFPOINTS
  6
Continuous
 62
     0
100
AcDbPoint
 10
643.1123821502892
 20
505.4938972774817
 30
0.0
  0
POINT
  5
1E60B
330
1E117
100
AcDbEntity
  8
DEFPOINTS
  6
Continuous
 62
     0
100
AcDbPoint
 10
643.1123821502892
 20
475.4938972774818
 30
0.0
  0
POINT
  5
1E60C
330
1E117
100
AcDbEntity
  8
DEFPOINTS
  6
Continuous
 62
     0
100
AcDbPoint
 10
675.4249111982463
 20
475.4938972774818
 30
0.0
  0
ENDBLK
  5
1E119
330
1E117
100
AcDbEntity
  8
0
100
AcDbBlockEnd
  0
BLOCK
  5
1E125
330
1E124
100
AcDbEntity
  8
0
100
AcDbBlockBegin
  2
*D6
 70
     1
 10
0.0
 20
0.0
 30
0.0
  3
*D6
  1

  0
LINE
  5
1E77C
330
1E124
100
AcDbEntity
  8
30
  6
Continuous
 62
     0
440
 16777216
370
    -2
100
AcDbLine
 10
649.0403745614576
 20
718.4938972774823
 30
0.0
 11
683.2520885149651
 21
718.4938972774823
 31
0.0
  0
LINE
  5
1E77D
330
1E124
100
AcDbEntity
  8
30
  6
Continuous
 62
     0
440
 16777216
370
    -2
100
AcDbLine
 10
621.2993921128817
 20
490.4938972774815
 30
0.0
 11
683.2520885149651
 21
490.4938972774814
 31
0.0
  0
LINE
  5
1E77E
330
1E124
100
AcDbEntity
  8
30
  6
Continuous
 62
     0
440
 16777216
370
    -2
100
AcDbLine
 10
682.7520885149652
 20
716.4938972774823
 30
0.0
 11
682.7520885149652
 21
492.4938972774815
 31
0.0
  0
INSERT
  5
1E77F
330
1E124
100
AcDbEntity
  8
30
  6
Continuous
 62
     0
440
 16777216
370
    -2
100
AcDbBlockReference
  2
_OPEN
 10
682.7520885149652
 20
718.4938972774823
 30
0.0
 41
2.0
 42
2.0
 43
2.0
 50
90.0
  0
INSERT
  5
1E780
330
1E124
100
AcDbEntity
  8
30
  6
Continuous
 62
     0
440
 16777216
370
    -2
100
AcDbBlockReference
  2
_OPEN
 10
682.7520885149652
 20
490.4938972774814
 30
0.0
 41
2.0
 42
2.0
 43
2.0
 50
270.0
  0
MTEXT
  5
1E781
330
1E124
100
AcDbEntity
  8
30
  6
Continuous
440
 16777216
100
AcDbMText
 10
675.752088514965
 20
604.4938972774822
 30
0.0
 40
8.0
 41
0.0
 46
0.0
 71
     5
 72
     1
  1
\A1;228
 11
0.0000000000000001
 21
1.0
 31
0.0
 73
     1
 44
1.0
 90
        3
 63
     9
421
 13158600
 45
1.25
441
        0
  0
POINT
  5
1E782
330
1E124
100
AcDbEntity
  8
DEFPOINTS
  6
Continuous
 62
     0
440
 16777216
100
AcDbPoint
 10
648.0403745614576
 20
718.4938972774823
 30
0.0
  0
POINT
  5
1E783
330
1E124
100
AcDbEntity
  8
DEFPOINTS
  6
Continuous
 62
     0
440
 16777216
100
AcDbPoint
 10
620.2993921128816
 20
490.4938972774815
 30
0.0
  0
POINT
  5
1E784
330
1E124
100
AcDbEntity
  8
DEFPOINTS
  6
Continuous
 62
     0
440
 16777216
100
AcDbPoint
 10
682.7520885149652
 20
490.4938972774814
 30
0.0
  0
ENDBLK
  5
1E126
330
1E124
100
AcDbEntity
  8
0
100
AcDbBlockEnd
  0
BLOCK
  5
1E131
330
1E130
100
AcDbEntity
  8
0
100
AcDbBlockBegin
  2
*D7
 70
     1
 10
0.0
 20
0.0
 30
0.0
  3
*D7
  1

  0
LINE
  5
1E2A1
330
1E130
100
AcDbEntity
  8
30
  6
Continuous
 62
     0
440
 16777216
370
    -2
100
AcDbLine
 10
217.734733049062
 20
734.4938972774823
 30
0.0
 11
262.7538719434793
 21
734.4938972774823
 31
0.0
  0
LINE
  5
1E2A2
330
1E130
100
AcDbEntity
  8
30
  6
Continuous
 62
     0
440
 16777216
370
    -2
100
AcDbLine
 10
217.734733049062
 20
474.4938972774822
 30
0.0
 11
262.7538719434792
 21
474.4938972774822
 31
0.0
  0
LINE
  5
1E2A3
330
1E130
100
AcDbEntity
  8
30
  6
Continuous
 62
     0
440
 16777216
370
    -2
100
AcDbLine
 10
262.2538719434793
 20
732.4938972774823
 30
0.0
 11
262.2538719434792
 21
476.4938972774823
 31
0.0
  0
INSERT
  5
1E2A4
330
1E130
100
AcDbEntity
  8
30
  6
Continuous
 62
     0
440
 16777216
370
    -2
100
AcDbBlockReference
  2
_OPEN
 10
262.2538719434793
 20
734.4938972774823
 30
0.0
 41
2.0
 42
2.0
 43
2.0
 50
90.0
  0
INSERT
  5
1E2A5
330
1E130
100
AcDbEntity
  8
30
  6
Continuous
 62
     0
440
 16777216
370
    -2
100
AcDbBlockReference
  2
_OPEN
 10
262.2538719434792
 20
474.4938972774822
 30
0.0
 41
2.0
 42
2.0
 43
2.0
 50
270.0
  0
MTEXT
  5
1E2A6
330
1E130
100
AcDbEntity
  8
30
  6
Continuous
440
 16777216
100
AcDbMText
 10
255.2538719434791
 20
604.4938972774822
 30
0.0
 40
8.0
 41
0.0
 46
0.0
 71
     5
 72
     1
  1
\A1;260
 11
0.0000000000000001
 21
1.0
 31
0.0
 73
     1
 44
1.0
 90
        3
 63
     9
421
 13158600
 45
1.25
441
        0
  0
POINT
  5
1E2A7
330
1E130
100
AcDbEntity
  8
DEFPOINTS
  6
Continuous
 62
     0
440
 16777216
100
AcDbPoint
 10
216.734733049062
 20
734.4938972774823
 30
0.0
  0
POINT
  5
1E2A8
330
1E130
100
AcDbEntity
  8
DEFPOINTS
  6
Continuous
 62
     0
440
 16777216
100
AcDbPoint
 10
216.734733049062
 20
474.4938972774822
 30
0.0
  0
POINT
  5
1E2A9
330
1E130
100
AcDbEntity
  8
DEFPOINTS
  6
Continuous
 62
     0
440
 16777216
100
AcDbPoint
 10
262.2538719434792
 20
474.4938972774822
 30
0.0
  0
ENDBLK
  5
1E132
330
1E130
100
AcDbEntity
  8
0
100
AcDbBlockEnd
  0
BLOCK
  5
1E13D
330
1E13C
100
AcDbEntity
  8
0
100
AcDbBlockBegin
  2
*D8
 70
     1
 10
0.0
 20
0.0
 30
0.0
  3
*D8
  1

  0
LINE
  5
1E2AA
330
1E13C
100
AcDbEntity
  8
30
  6
Continuous
 62
     0
440
 16777216
370
    -2
100
AcDbLine
 10
111.4206531527701
 20
109.922439167927
 30
0.0
 11
91.1472566009753
 21
85.163816583993
 31
0.0
  0
LINE
  5
1E2AB
330
1E13C
100
AcDbEntity
  8
30
  6
Continuous
 62
     0
440
 16777216
370
    -2
100
AcDbLine
 10
89.8801693164882
 20
83.61640267249711
 30
0.0
 11
69.22995260248048
 21
58.39759335298515
 31
0.0
  0
LINE
  5
1E2AC
330
1E13C
100
AcDbEntity
  8
30
  6
Continuous
 62
     0
440
 16777216
370
    -2
100
AcDbLine
 10
69.22995260248048
 20
58.39759335298515
 30
0.0
 11
44.89661926914713
 21
58.39759335298515
 31
0.0
  0
INSERT
  5
1E2AD
330
1E13C
100
AcDbEntity
  8
30
  6
Continuous
 62
     0
440
 16777216
370
    -2
100
AcDbBlockReference
  2
_OPEN
 10
112.6877404372572
 20
111.4698530794229
 30
0.0
 41
2.0
 42
2.0
 43
2.0
 50
50.68794736314952
  0
INSERT
  5
1E2AE
330
1E13C
100
AcDbEntity
  8
30
  6
Continuous
 62
     0
440
 16777216
370
    -2
100
AcDbBlockReference
  2
_OPEN
 10
89.8801693164882
 20
83.61640267249711
 30
0.0
 41
2.0
 42
2.0
 43
2.0
 50
230.6879473631495
  0
MTEXT
  5
1E2AF
330
1E13C
100
AcDbEntity
  8
30
  6
Continuous
 62
     0
440
 16777216
100
AcDbMText
 10
55.56328593581381
 20
65.39759335298514
 30
0.0
 40
8.0
 41
0.0
 46
0.0
 71
     5
 72
     1
  1
\A1;∅36
 73
     1
 44
1.0
  0
POINT
  5
1E2B0
330
1E13C
100
AcDbEntity
  8
DEFPOINTS
  6
Continuous
 62
     0
440
 16777216
100
AcDbPoint
 10
89.8801693164882
 20
83.61640267249711
 30
0.0
  0
POINT
  5
1E2B1
330
1E13C
100
AcDbEntity
  8
DEFPOINTS
  6
Continuous
 62
     0
440
 16777216
100
AcDbPoint
 10
112.6877404372572
 20
111.4698530794229
 30
0.0
  0
ENDBLK
  5
1E13E
330
1E13C
100
AcDbEntity
  8
0
100
AcDbBlockEnd
  0
BLOCK
  5
1E148
330
1E147
100
AcDbEntity
  8
0
100
AcDbBlockBegin
  2
*D9
 70
     1
 10
0.0
 20
0.0
 30
0.0
  3
*D9
  1

  0
LINE
  5
1E2B2
330
1E147
100
AcDbEntity
  8
30
  6
Continuous
 62
     0
440
 16777216
370
    -2
100
AcDbLine
 10
210.283954876872
 20
325.4531278759599
 30
0.0
 11
262.8578649905313
 21
325.4531278759599
 31
0.0
  0
LINE
  5
1E2B3
330
1E147
100
AcDbEntity
  8
30
  6
Continuous
 62
     0
440
 16777216
370
    -2
100
AcDbLine
 10
210.283954876872
 20
97.45312787595993
 30
0.0
 11
262.8578649905312
 21
97.45312787595993
 31
0.0
  0
LINE
  5
1E2B4
330
1E147
100
AcDbEntity
  8
30
  6
Continuous
 62
     0
440
 16777216
370
    -2
100
AcDbLine
 10
262.3578649905312
 20
323.4531278759599
 30
0.0
 11
262.3578649905312
 21
99.45312787595995
 31
0.0
  0
INSERT
  5
1E2B5
330
1E147
100
AcDbEntity
  8
30
  6
Continuous
 62
     0
440
 16777216
370
    -2
100
AcDbBlockReference
  2
_OPEN
 10
262.3578649905312
 20
325.4531278759599
 30
0.0
 41
2.0
 42
2.0
 43
2.0
 50
90.0
  0
INSERT
  5
1E2B6
330
1E147
100
AcDbEntity
  8
30
  6
Continuous
 62
     0
440
 16777216
370
    -2
100
AcDbBlockReference
  2
_OPEN
 10
262.3578649905312
 20
97.45312787595993
 30
0.0
 41
2.0
 42
2.0
 43
2.0
 50
270.0
  0
MTEXT
  5
1E2B7
330
1E147
100
AcDbEntity
  8
30
  6
Continuous
440
 16777216
100
AcDbMText
 10
255.3578649905312
 20
211.4531278759599
 30
0.0
 40
8.0
 41
0.0
 46
0.0
 71
     5
 72
     1
  1
\A1;228
 11
0.0000000000000001
 21
1.0
 31
0.0
 73
     1
 44
1.0
 90
        3
 63
     9
421
 13158600
 45
1.25
441
        0
  0
POINT
  5
1E2B8
330
1E147
100
AcDbEntity
  8
DEFPOINTS
  6
Continuous
 62
     0
440
 16777216
100
AcDbPoint
 10
209.283954876872
 20
325.4531278759599
 30
0.0
  0
POINT
  5
1E2B9
330
1E147
100
AcDbEntity
  8
DEFPOINTS
  6
Continuous
 62
     0
440
 16777216
100
AcDbPoint
 10
209.283954876872
 20
97.45312787595993
 30
0.0
  0
POINT
  5
1E2BA
330
1E147
100
AcDbEntity
  8
DEFPOINTS
  6
Continuous
 62
     0
440
 16777216
100
AcDbPoint
 10
262.3578649905312
 20
97.45312787595993
 30
0.0
  0
ENDBLK
  5
1E149
330
1E147
100
AcDbEntity
  8
0
100
AcDbBlockEnd
  0
BLOCK
  5
1E154
330
1E153
100
AcDbEntity
  8
0
100
AcDbBlockBegin
  2
*D10
 70
     1
 10
0.0
 20
0.0
 30
0.0
  3
*D10
  1

  0
LINE
  5
1E2BB
330
1E153
100
AcDbEntity
  8
30
  6
Continuous
 62
     0
440
 16777216
370
    -2
100
AcDbLine
 10
176.7839548768725
 20
318.4531278759599
 30
0.0
 11
246.1051020748128
 21
318.4531278759599
 31
0.0
  0
LINE
  5
1E2BC
330
1E153
100
AcDbEntity
  8
30
  6
Continuous
 62
     0
440
 16777216
370
    -2
100
AcDbLine
 10
176.7839548768725
 20
104.4531278759599
 30
0.0
 11
246.1051020748127
 21
104.4531278759599
 31
0.0
  0
LINE
  5
1E2BD
330
1E153
100
AcDbEntity
  8
30
  6
Continuous
 62
     0
440
 16777216
370
    -2
100
AcDbLine
 10
245.6051020748128
 20
316.4531278759599
 30
0.0
 11
245.6051020748128
 21
106.4531278759599
 31
0.0
  0
INSERT
  5
1E2BE
330
1E153
100
AcDbEntity
  8
30
  6
Continuous
 62
     0
440
 16777216
370
    -2
100
AcDbBlockReference
  2
_OPEN
 10
245.6051020748128
 20
318.4531278759599
 30
0.0
 41
2.0
 42
2.0
 43
2.0
 50
90.0
  0
INSERT
  5
1E2BF
330
1E153
100
AcDbEntity
  8
30
  6
Continuous
 62
     0
440
 16777216
370
    -2
100
AcDbBlockReference
  2
_OPEN
 10
245.6051020748128
 20
104.4531278759599
 30
0.0
 41
2.0
 42
2.0
 43
2.0
 50
270.0
  0
MTEXT
  5
1E2C0
330
1E153
100
AcDbEntity
  8
30
  6
Continuous
440
 16777216
100
AcDbMText
 10
238.6051020748127
 20
211.4531278759599
 30
0.0
 40
8.0
 41
0.0
 46
0.0
 71
     5
 72
     1
  1
\A1;214
 11
0.0000000000000001
 21
1.0
 31
0.0
 73
     1
 44
1.0
 90
        3
 63
     9
421
 13158600
 45
1.25
441
        0
  0
POINT
  5
1E2C1
330
1E153
100
AcDbEntity
  8
DEFPOINTS
  6
Continuous
 62
     0
440
 16777216
100
AcDbPoint
 10
175.7839548768725
 20
318.4531278759599
 30
0.0
  0
POINT
  5
1E2C2
330
1E153
100
AcDbEntity
  8
DEFPOINTS
  6
Continuous
 62
     0
440
 16777216
100
AcDbPoint
 10
175.7839548768725
 20
104.4531278759599
 30
0.0
  0
POINT
  5
1E2C3
330
1E153
100
AcDbEntity
  8
DEFPOINTS
  6
Continuous
 62
     0
440
 16777216
100
AcDbPoint
 10
245.6051020748128
 20
104.4531278759599
 30
0.0
  0
ENDBLK
  5
1E155
330
1E153
100
AcDbEntity
  8
0
100
AcDbBlockEnd
  0
BLOCK
  5
1E160
330
1E15F
100
AcDbEntity
  8
0
100
AcDbBlockBegin
  2
*D11
 70
     1
 10
0.0
 20
0.0
 30
0.0
  3
*D11
  1

  0
LINE
  5
1E2C4
330
1E15F
100
AcDbEntity
  8
30
  6
Continuous
 62
     0
440
 16777216
370
    -2
100
AcDbLine
 10
76.73473304906202
 20
473.4938972774823
 30
0.0
 11
76.73473304906202
 21
450.0323880390628
 31
0.0
  0
LINE
  5
1E2C5
330
1E15F
100
AcDbEntity
  8
30
  6
Continuous
 62
     0
440
 16777216
370
    -2
100
AcDbLine
 10
216.734733049062
 20
473.4938972774823
 30
0.0
 11
216.734733049062
 21
450.0323880390628
 31
0.0
  0
LINE
  5
1E2C6
330
1E15F
100
AcDbEntity
  8
30
  6
Continuous
 62
     0
440
 16777216
370
    -2
100
AcDbLine
 10
78.73473304906202
 20
450.5323880390628
 30
0.0
 11
214.734733049062
 21
450.5323880390628
 31
0.0
  0
INSERT
  5
1E2C7
330
1E15F
100
AcDbEntity
  8
30
  6
Continuous
 62
     0
440
 16777216
370
    -2
100
AcDbBlockReference
  2
_OPEN
 10
76.73473304906202
 20
450.5323880390628
 30
0.0
 41
2.0
 42
2.0
 43
2.0
 50
180.0
  0
INSERT
  5
1E2C8
330
1E15F
100
AcDbEntity
  8
30
  6
Continuous
 62
     0
440
 16777216
370
    -2
100
AcDbBlockReference
  2
_OPEN
 10
216.734733049062
 20
450.5323880390628
 30
0.0
 41
2.0
 42
2.0
 43
2.0
  0
MTEXT
  5
1E2C9
330
1E15F
100
AcDbEntity
  8
30
  6
Continuous
440
 16777216
100
AcDbMText
 10
146.734733049062
 20
457.5323880390627
 30
0.0
 40
8.0
 41
0.0
 46
0.0
 71
     5
 72
     1
  1
\A1;140
 73
     1
 44
1.0
 90
        3
 63
     9
421
 13158600
 45
1.25
441
        0
  0
POINT
  5
1E2CA
330
1E15F
100
AcDbEntity
  8
DEFPOINTS
  6
Continuous
 62
     0
440
 16777216
100
AcDbPoint
 10
76.73473304906202
 20
474.4938972774822
 30
0.0
  0
POINT
  5
1E2CB
330
1E15F
100
AcDbEntity
  8
DEFPOINTS
  6
Continuous
 62
     0
440
 16777216
100
AcDbPoint
 10
216.734733049062
 20
474.4938972774822
 30
0.0
  0
POINT
  5
1E2CC
330
1E15F
100
AcDbEntity
  8
DEFPOINTS
  6
Continuous
 62
     0
440
 16777216
100
AcDbPoint
 10
216.734733049062
 20
450.5323880390628
 30
0.0
  0
ENDBLK
  5
1E161
330
1E15F
100
AcDbEntity
  8
0
100
AcDbBlockEnd
  0
BLOCK
  5
1E16C
330
1E16B
100
AcDbEntity
  8
0
100
AcDbBlockBegin
  2
*D12
 70
     1
 10
0.0
 20
0.0
 30
0.0
  3
*D12
  1

  0
LINE
  5
1E2CD
330
1E16B
100
AcDbEntity
  8
30
  6
Continuous
 62
     0
440
 16777216
370
    -2
100
AcDbLine
 10
554.4021999079522
 20
163.07232407759
 30
0.0
 11
554.4021999079522
 21
52.43855233525096
 31
0.0
  0
LINE
  5
1E2CE
330
1E16B
100
AcDbEntity
  8
30
  6
Continuous
 62
     0
440
 16777216
370
    -2
100
AcDbLine
 10
607.4021999079523
 20
163.07232407759
 30
0.0
 11
607.4021999079523
 21
52.43855233525096
 31
0.0
  0
LINE
  5
1E2CF
330
1E16B
100
AcDbEntity
  8
30
  6
Continuous
 62
     0
440
 16777216
370
    -2
100
AcDbLine
 10
556.4021999079523
 20
52.93855233525096
 30
0.0
 11
605.4021999079523
 21
52.93855233525096
 31
0.0
  0
INSERT
  5
1E2D0
330
1E16B
100
AcDbEntity
  8
30
  6
Continuous
 62
     0
440
 16777216
370
    -2
100
AcDbBlockReference
  2
_OPEN
 10
554.4021999079522
 20
52.93855233525096
 30
0.0
 41
2.0
 42
2.0
 43
2.0
 50
180.0
  0
INSERT
  5
1E2D1
330
1E16B
100
AcDbEntity
  8
30
  6
Continuous
 62
     0
440
 16777216
370
    -2
100
AcDbBlockReference
  2
_OPEN
 10
607.4021999079523
 20
52.93855233525096
 30
0.0
 41
2.0
 42
2.0
 43
2.0
  0
MTEXT
  5
1E2D2
330
1E16B
100
AcDbEntity
  8
30
  6
Continuous
440
 16777216
100
AcDbMText
 10
579.1679215434315
 20
59.93855233525096
 30
0.0
 40
8.0
 41
0.0
 46
0.0
 71
     5
 72
     1
  1
\A1;53
 73
     1
 44
1.0
 90
        3
 63
     9
421
 13158600
 45
1.25
441
        0
  0
POINT
  5
1E2D3
330
1E16B
100
AcDbEntity
  8
DEFPOINTS
  6
Continuous
 62
     0
440
 16777216
100
AcDbPoint
 10
554.4021999079522
 20
164.07232407759
 30
0.0
  0
POINT
  5
1E2D4
330
1E16B
100
AcDbEntity
  8
DEFPOINTS
  6
Continuous
 62
     0
440
 16777216
100
AcDbPoint
 10
607.4021999079523
 20
164.07232407759
 30
0.0
  0
POINT
  5
1E2D5
330
1E16B
100
AcDbEntity
  8
DEFPOINTS
  6
Continuous
 62
     0
440
 16777216
100
AcDbPoint
 10
607.4021999079523
 20
52.93855233525096
 30
0.0
  0
ENDBLK
  5
1E16D
330
1E16B
100
AcDbEntity
  8
0
100
AcDbBlockEnd
  0
BLOCK
  5
1E178
330
1E177
100
AcDbEntity
  8
0
100
AcDbBlockBegin
  2
*D13
 70
     1
 10
0.0
 20
0.0
 30
0.0
  3
*D13
  1

  0
LINE
  5
1E2D6
330
1E177
100
AcDbEntity
  8
30
  6
Continuous
 62
     0
440
 16777216
370
    -2
100
AcDbLine
 10
608.4441825210506
 20
257.4531278759601
 30
0.0
 11
676.5365452419858
 21
257.45312787596
 31
0.0
  0
LINE
  5
1E2D7
330
1E177
100
AcDbEntity
  8
30
  6
Continuous
 62
     0
440
 16777216
370
    -2
100
AcDbLine
 10
608.4441825210506
 20
165.4531278759599
 30
0.0
 11
676.5365452419854
 21
165.4531278759599
 31
0.0
  0
LINE
  5
1E2D8
330
1E177
100
AcDbEntity
  8
30
  6
Continuous
 62
     0
440
 16777216
370
    -2
100
AcDbLine
 10
676.0365452419854
 20
255.4531278759601
 30
0.0
 11
676.0365452419854
 21
167.4531278759599
 31
0.0
  0
INSERT
  5
1E2D9
330
1E177
100
AcDbEntity
  8
30
  6
Continuous
 62
     0
440
 16777216
370
    -2
100
AcDbBlockReference
  2
_OPEN
 10
676.0365452419856
 20
257.45312787596
 30
0.0
 41
2.0
 42
2.0
 43
2.0
 50
90.0
  0
INSERT
  5
1E2DA
330
1E177
100
AcDbEntity
  8
30
  6
Continuous
 62
     0
440
 16777216
370
    -2
100
AcDbBlockReference
  2
_OPEN
 10
676.0365452419854
 20
165.4531278759599
 30
0.0
 41
2.0
 42
2.0
 43
2.0
 50
270.0
  0
MTEXT
  5
1E2DB
330
1E177
100
AcDbEntity
  8
30
  6
Continuous
440
 16777216
100
AcDbMText
 10
669.0365452419854
 20
210.2280183345199
 30
0.0
 40
8.0
 41
0.0
 46
0.0
 71
     5
 72
     1
  1
\A1;92
 11
0.0000000000000001
 21
1.0
 31
0.0
 73
     1
 44
1.0
 90
        3
 63
     9
421
 13158600
 45
1.25
441
        0
  0
POINT
  5
1E2DC
330
1E177
100
AcDbEntity
  8
DEFPOINTS
  6
Continuous
 62
     0
440
 16777216
100
AcDbPoint
 10
607.4441825210506
 20
257.4531278759601
 30
0.0
  0
POINT
  5
1E2DD
330
1E177
100
AcDbEntity
  8
DEFPOINTS
  6
Continuous
 62
     0
440
 16777216
100
AcDbPoint
 10
607.4441825210506
 20
165.4531278759599
 30
0.0
  0
POINT
  5
1E2DE
330
1E177
100
AcDbEntity
  8
DEFPOINTS
  6
Continuous
 62
     0
440
 16777216
100
AcDbPoint
 10
676.0365452419854
 20
165.4531278759599
 30
0.0
  0
ENDBLK
  5
1E179
330
1E177
100
AcDbEntity
  8
0
100
AcDbBlockEnd
  0
BLOCK
  5
1E184
330
1E183
100
AcDbEntity
  8
0
100
AcDbBlockBegin
  2
*D14
 70
     1
 10
0.0
 20
0.0
 30
0.0
  3
*D14
  1

  0
LINE
  5
1E2DF
330
1E183
100
AcDbEntity
  8
30
  6
Continuous
 62
     0
440
 16777216
370
    -2
100
AcDbLine
 10
324.180286651309
 20
163.07232407759
 30
0.0
 11
324.180286651309
 21
52.43855233525096
 31
0.0
  0
LINE
  5
1E2E0
330
1E183
100
AcDbEntity
  8
30
  6
Continuous
 62
     0
440
 16777216
370
    -2
100
AcDbLine
 10
442.1802866513089
 20
163.07232407759
 30
0.0
 11
442.1802866513089
 21
52.43855233525096
 31
0.0
  0
LINE
  5
1E2E1
330
1E183
100
AcDbEntity
  8
30
  6
Continuous
 62
     0
440
 16777216
370
    -2
100
AcDbLine
 10
326.180286651309
 20
52.93855233525096
 30
0.0
 11
440.1802866513088
 21
52.93855233525096
 31
0.0
  0
INSERT
  5
1E2E2
330
1E183
100
AcDbEntity
  8
30
  6
Continuous
 62
     0
440
 16777216
370
    -2
100
AcDbBlockReference
  2
_OPEN
 10
324.180286651309
 20
52.93855233525096
 30
0.0
 41
2.0
 42
2.0
 43
2.0
 50
180.0
  0
INSERT
  5
1E2E3
330
1E183
100
AcDbEntity
  8
30
  6
Continuous
 62
     0
440
 16777216
370
    -2
100
AcDbBlockReference
  2
_OPEN
 10
442.1802866513089
 20
52.93855233525096
 30
0.0
 41
2.0
 42
2.0
 43
2.0
  0
MTEXT
  5
1E2E4
330
1E183
100
AcDbEntity
  8
30
  6
Continuous
440
 16777216
100
AcDbMText
 10
381.4460082867881
 20
59.93855233525096
 30
0.0
 40
8.0
 41
0.0
 46
0.0
 71
     5
 72
     1
  1
\A1;118
 73
     1
 44
1.0
 90
        3
 63
     9
421
 13158600
 45
1.25
441
        0
  0
POINT
  5
1E2E5
330
1E183
100
AcDbEntity
  8
DEFPOINTS
  6
Continuous
 62
     0
440
 16777216
100
AcDbPoint
 10
324.180286651309
 20
164.07232407759
 30
0.0
  0
POINT
  5
1E2E6
330
1E183
100
AcDbEntity
  8
DEFPOINTS
  6
Continuous
 62
     0
440
 16777216
100
AcDbPoint
 10
442.1802866513089
 20
164.07232407759
 30
0.0
  0
POINT
  5
1E2E7
330
1E183
100
AcDbEntity
  8
DEFPOINTS
  6
Continuous
 62
     0
440
 16777216
100
AcDbPoint
 10
442.1802866513089
 20
52.93855233525096
 30
0.0
  0
ENDBLK
  5
1E185
330
1E183
100
AcDbEntity
  8
0
100
AcDbBlockEnd
  0
BLOCK
  5
1E190
330
1E18F
100
AcDbEntity
  8
0
100
AcDbBlockBegin
  2
*D15
 70
     1
 10
0.0
 20
0.0
 30
0.0
  3
*D15
  1

  0
LINE
  5
1E2E8
330
1E18F
100
AcDbEntity
  8
30
  6
Continuous
 62
     0
440
 16777216
370
    -2
100
AcDbLine
 10
443.2222692644073
 20
257.4531278759601
 30
0.0
 11
478.8146319853423
 21
257.4531278759601
 31
0.0
  0
LINE
  5
1E2E9
330
1E18F
100
AcDbEntity
  8
30
  6
Continuous
 62
     0
440
 16777216
370
    -2
100
AcDbLine
 10
443.2222692644073
 20
165.4531278759599
 30
0.0
 11
478.8146319853423
 21
165.4531278759599
 31
0.0
  0
LINE
  5
1E2EA
330
1E18F
100
AcDbEntity
  8
30
  6
Continuous
 62
     0
440
 16777216
370
    -2
100
AcDbLine
 10
478.3146319853422
 20
255.4531278759601
 30
0.0
 11
478.3146319853422
 21
167.4531278759599
 31
0.0
  0
INSERT
  5
1E2EB
330
1E18F
100
AcDbEntity
  8
30
  6
Continuous
 62
     0
440
 16777216
370
    -2
100
AcDbBlockReference
  2
_OPEN
 10
478.3146319853422
 20
257.4531278759601
 30
0.0
 41
2.0
 42
2.0
 43
2.0
 50
90.0
  0
INSERT
  5
1E2EC
330
1E18F
100
AcDbEntity
  8
30
  6
Continuous
 62
     0
440
 16777216
370
    -2
100
AcDbBlockReference
  2
_OPEN
 10
478.3146319853422
 20
165.4531278759599
 30
0.0
 41
2.0
 42
2.0
 43
2.0
 50
270.0
  0
MTEXT
  5
1E2ED
330
1E18F
100
AcDbEntity
  8
30
  6
Continuous
440
 16777216
100
AcDbMText
 10
471.3146319853422
 20
210.2280183345199
 30
0.0
 40
8.0
 41
0.0
 46
0.0
 71
     5
 72
     1
  1
\A1;92
 11
0.0000000000000001
 21
1.0
 31
0.0
 73
     1
 44
1.0
 90
        3
 63
     9
421
 13158600
 45
1.25
441
        0
  0
POINT
  5
1E2EE
330
1E18F
100
AcDbEntity
  8
DEFPOINTS
  6
Continuous
 62
     0
440
 16777216
100
AcDbPoint
 10
442.2222692644072
 20
257.4531278759601
 30
0.0
  0
POINT
  5
1E2EF
330
1E18F
100
AcDbEntity
  8
DEFPOINTS
  6
Continuous
 62
     0
440
 16777216
100
AcDbPoint
 10
442.2222692644072
 20
165.4531278759599
 30
0.0
  0
POINT
  5
1E2F0
330
1E18F
100
AcDbEntity
  8
DEFPOINTS
  6
Continuous
 62
     0
440
 16777216
100
AcDbPoint
 10
478.3146319853422
 20
165.4531278759599
 30
0.0
  0
ENDBLK
  5
1E191
330
1E18F
100
AcDbEntity
  8
0
100
AcDbBlockEnd
  0
BLOCK
  5
1E19C
330
1E19B
100
AcDbEntity
  8
0
100
AcDbBlockBegin
  2
*D16
 70
     1
 10
0.0
 20
0.0
 30
0.0
  3
*D16
  1

  0
LINE
  5
1E2F1
330
1E19B
100
AcDbEntity
  8
30
  6
Continuous
 62
     0
440
 16777216
370
    -2
100
AcDbLine
 10
442.680324823157
 20
258.3896929417406
 30
0.0
 11
463.2809661931831
 21
287.2722740576482
 31
0.0
  0
LINE
  5
1E2F2
330
1E19B
100
AcDbEntity
  8
30
  6
Continuous
 62
     0
440
 16777216
370
    -2
100
AcDbLine
 10
463.2809661931831
 20
287.2722740576482
 30
0.0
 11
479.6142995265166
 21
287.2722740576483
 31
0.0
  0
LINE
  5
1E2F3
330
1E19B
100
AcDbEntity
  8
30
  6
Continuous
 62
     0
440
 16777216
370
    -2
100
AcDbLine
 10
440.3575954662636
 20
255.1331720472804
 30
0.0
 11
441.5189601447623
 21
256.7614324945832
 31
0.0
  0
INSERT
  5
1E2F4
330
1E19B
100
AcDbEntity
  8
30
  6
Continuous
 62
     0
440
 16777216
370
    -2
100
AcDbBlockReference
  2
_OPEN
 10
441.5189601447623
 20
256.7614324945832
 30
0.0
 41
2.0
 42
2.0
 43
2.0
 50
234.5014509348124
  0
MTEXT
  5
1E2F5
330
1E19B
100
AcDbEntity
  8
30
  6
Continuous
 62
     0
440
 16777216
100
AcDbMText
 10
466.2809661931829
 20
298.2722740576485
 30
0.0
 40
8.0
 41
0.0
 46
0.0
 71
     1
 72
     1
  1
\A1;R2
 73
     1
 44
1.0
  0
POINT
  5
1E2F6
330
1E19B
100
AcDbEntity
  8
DEFPOINTS
  6
Continuous
 62
     0
440
 16777216
100
AcDbPoint
 10
441.5189601447623
 20
256.7614324945832
 30
0.0
  0
POINT
  5
1E2F7
330
1E19B
100
AcDbEntity
  8
DEFPOINTS
  6
Continuous
 62
     0
440
 16777216
100
AcDbPoint
 10
440.3575954662636
 20
255.1331720472804
 30
0.0
  0
ENDBLK
  5
1E19D
330
1E19B
100
AcDbEntity
  8
0
100
AcDbBlockEnd
  0
BLOCK
  5
1E1A6
330
1E1A5
100
AcDbEntity
  8
0
100
AcDbBlockBegin
  2
*D17
 70
     1
 10
0.0
 20
0.0
 30
0.0
  3
*D17
  1

  0
LINE
  5
1E2F8
330
1E1A5
100
AcDbEntity
  8
30
  6
Continuous
 62
     0
440
 16777216
370
    -2
100
AcDbLine
 10
607.9022380798019
 20
258.3896929417409
 30
0.0
 11
628.5028794498287
 21
287.2722740576478
 31
0.0
  0
LINE
  5
1E2F9
330
1E1A5
100
AcDbEntity
  8
30
  6
Continuous
 62
     0
440
 16777216
370
    -2
100
AcDbLine
 10
628.5028794498287
 20
287.2722740576478
 30
0.0
 11
644.8362127831622
 21
287.2722740576478
 31
0.0
  0
LINE
  5
1E2FA
330
1E1A5
100
AcDbEntity
  8
30
  6
Continuous
 62
     0
440
 16777216
370
    -2
100
AcDbLine
 10
605.5795087229085
 20
255.1331720472807
 30
0.0
 11
606.740873401407
 21
256.7614324945836
 31
0.0
  0
INSERT
  5
1E2FB
330
1E1A5
100
AcDbEntity
  8
30
  6
Continuous
 62
     0
440
 16777216
370
    -2
100
AcDbBlockReference
  2
_OPEN
 10
606.740873401407
 20
256.7614324945836
 30
0.0
 41
2.0
 42
2.0
 43
2.0
 50
234.5014509348107
  0
MTEXT
  5
1E2FC
330
1E1A5
100
AcDbEntity
  8
30
  6
Continuous
 62
     0
440
 16777216
100
AcDbMText
 10
631.5028794498279
 20
298.2722740576484
 30
0.0
 40
8.0
 41
0.0
 46
0.0
 71
     1
 72
     1
  1
\A1;R2
 73
     1
 44
1.0
  0
POINT
  5
1E2FD
330
1E1A5
100
AcDbEntity
  8
DEFPOINTS
  6
Continuous
 62
     0
440
 16777216
100
AcDbPoint
 10
606.740873401407
 20
256.7614324945836
 30
0.0
  0
POINT
  5
1E2FE
330
1E1A5
100
AcDbEntity
  8
DEFPOINTS
  6
Continuous
 62
     0
440
 16777216
100
AcDbPoint
 10
605.5795087229085
 20
255.1331720472807
 30
0.0
  0
ENDBLK
  5
1E1A7
330
1E1A5
100
AcDbEntity
  8
0
100
AcDbBlockEnd
  0
BLOCK
  5
1E1B0
330
1E1AF
100
AcDbEntity
  8
0
100
AcDbBlockBegin
  2
*D18
 70
     1
 10
0.0
 20
0.0
 30
0.0
  3
*D18
  1

  0
LINE
  5
1E2FF
330
1E1AF
100
AcDbEntity
  8
30
  6
Continuous
 62
     0
440
 16777216
370
    -2
100
AcDbLine
 10
88.73473304906204
 20
558.4938972774823
 30
0.0
 11
88.73473304906204
 21
535.1551184310095
 31
0.0
  0
LINE
  5
1E300
330
1E1AF
100
AcDbEntity
  8
30
  6
Continuous
 62
     0
440
 16777216
370
    -2
100
AcDbLine
 10
204.734733049062
 20
558.4938972774823
 30
0.0
 11
204.734733049062
 21
535.1551184310095
 31
0.0
  0
LINE
  5
1E301
330
1E1AF
100
AcDbEntity
  8
30
  6
Continuous
 62
     0
440
 16777216
370
    -2
100
AcDbLine
 10
90.73473304906199
 20
535.6551184310098
 30
0.0
 11
202.734733049062
 21
535.6551184310098
 31
0.0
  0
INSERT
  5
1E302
330
1E1AF
100
AcDbEntity
  8
30
  6
Continuous
 62
     0
440
 16777216
370
    -2
100
AcDbBlockReference
  2
_OPEN
 10
88.73473304906204
 20
535.6551184310098
 30
0.0
 41
2.0
 42
2.0
 43
2.0
 50
180.0
  0
INSERT
  5
1E303
330
1E1AF
100
AcDbEntity
  8
30
  6
Continuous
 62
     0
440
 16777216
370
    -2
100
AcDbBlockReference
  2
_OPEN
 10
204.734733049062
 20
535.6551184310098
 30
0.0
 41
2.0
 42
2.0
 43
2.0
  0
MTEXT
  5
1E304
330
1E1AF
100
AcDbEntity
  8
30
  6
Continuous
440
 16777216
100
AcDbMText
 10
146.734733049062
 20
542.6551184310095
 30
0.0
 40
8.0
 41
0.0
 46
0.0
 71
     5
 72
     1
  1
\A1;116
 73
     1
 44
1.0
 90
        3
 63
     9
421
 13158600
 45
1.25
441
        0
  0
POINT
  5
1E305
330
1E1AF
100
AcDbEntity
  8
DEFPOINTS
  6
Continuous
 62
     0
440
 16777216
100
AcDbPoint
 10
88.73473304906204
 20
559.4938972774823
 30
0.0
  0
POINT
  5
1E306
330
1E1AF
100
AcDbEntity
  8
DEFPOINTS
  6
Continuous
 62
     0
440
 16777216
100
AcDbPoint
 10
204.734733049062
 20
559.4938972774823
 30
0.0
  0
POINT
  5
1E307
330
1E1AF
100
AcDbEntity
  8
DEFPOINTS
  6
Continuous
 62
     0
440
 16777216
100
AcDbPoint
 10
204.734733049062
 20
535.6551184310098
 30
0.0
  0
ENDBLK
  5
1E1B1
330
1E1AF
100
AcDbEntity
  8
0
100
AcDbBlockEnd
  0
BLOCK
  5
1E1BC
330
1E1BB
100
AcDbEntity
  8
0
100
AcDbBlockBegin
  2
*D19
 70
     1
 10
0.0
 20
0.0
 30
0.0
  3
*D19
  1

  0
LINE
  5
1E308
330
1E1BB
100
AcDbEntity
  8
30
  6
Continuous
 62
     0
440
 16777216
370
    -2
100
AcDbLine
 10
172.234733049062
 20
649.4938972774822
 30
0.0
 11
172.234733049062
 21
661.0210103932862
 31
0.0
  0
LINE
  5
1E309
330
1E1BB
100
AcDbEntity
  8
30
  6
Continuous
 62
     0
440
 16777216
370
    -2
100
AcDbLine
 10
121.2560225435622
 20
649.4938972774822
 30
0.0
 11
121.2560225435622
 21
661.0210103932862
 31
0.0
  0
LINE
  5
1E30A
330
1E1BB
100
AcDbEntity
  8
30
  6
Continuous
 62
     0
440
 16777216
370
    -2
100
AcDbLine
 10
170.234733049062
 20
660.5210103932862
 30
0.0
 11
123.2560225435622
 21
660.5210103932862
 31
0.0
  0
INSERT
  5
1E30B
330
1E1BB
100
AcDbEntity
  8
30
  6
Continuous
 62
     0
440
 16777216
370
    -2
100
AcDbBlockReference
  2
_OPEN
 10
172.234733049062
 20
660.5210103932862
 30
0.0
 41
2.0
 42
2.0
 43
2.0
  0
INSERT
  5
1E30C
330
1E1BB
100
AcDbEntity
  8
30
  6
Continuous
 62
     0
440
 16777216
370
    -2
100
AcDbBlockReference
  2
_OPEN
 10
121.2560225435622
 20
660.5210103932862
 30
0.0
 41
2.0
 42
2.0
 43
2.0
 50
180.0
  0
MTEXT
  5
1E30D
330
1E1BB
100
AcDbEntity
  8
30
  6
Continuous
440
 16777216
100
AcDbMText
 10
146.7453777963121
 20
667.5210103932862
 30
0.0
 40
8.0
 41
0.0
 46
0.0
 71
     5
 72
     1
  1
\A1;51
 73
     1
 44
1.0
 90
        3
 63
     9
421
 13158600
 45
1.25
441
        0
  0
POINT
  5
1E30E
330
1E1BB
100
AcDbEntity
  8
DEFPOINTS
  6
Continuous
 62
     0
440
 16777216
100
AcDbPoint
 10
172.234733049062
 20
648.4938972774822
 30
0.0
  0
POINT
  5
1E30F
330
1E1BB
100
AcDbEntity
  8
DEFPOINTS
  6
Continuous
 62
     0
440
 16777216
100
AcDbPoint
 10
121.2560225435622
 20
648.4938972774822
 30
0.0
  0
POINT
  5
1E310
330
1E1BB
100
AcDbEntity
  8
DEFPOINTS
  6
Continuous
 62
     0
440
 16777216
100
AcDbPoint
 10
121.2560225435622
 20
660.5210103932862
 30
0.0
  0
ENDBLK
  5
1E1BD
330
1E1BB
100
AcDbEntity
  8
0
100
AcDbBlockEnd
  0
BLOCK
  5
1E1C8
330
1E1C7
100
AcDbEntity
  8
0
100
AcDbBlockBegin
  2
*D20
 70
     1
 10
0.0
 20
0.0
 30
0.0
  3
*D20
  1

  0
LINE
  5
1E6AB
330
1E1C7
100
AcDbEntity
  8
30
  6
Continuous
 62
     0
440
 16777216
370
    -2
100
AcDbLine
 10
644.1123821502898
 20
722.4938972774823
 30
0.0
 11
689.213609499785
 21
722.4938972774823
 31
0.0
  0
LINE
  5
1E6AC
330
1E1C7
100
AcDbEntity
  8
30
  6
Continuous
 62
     0
440
 16777216
370
    -2
100
AcDbLine
 10
644.1123821502898
 20
714.4938972774824
 30
0.0
 11
689.213609499785
 21
714.4938972774824
 31
0.0
  0
LINE
  5
1E6AD
330
1E1C7
100
AcDbEntity
  8
30
  6
Continuous
 62
     0
440
 16777216
370
    -2
100
AcDbLine
 10
688.7136094997849
 20
724.4938972774823
 30
0.0
 11
688.7136094997849
 21
726.4938972774823
 31
0.0
  0
LINE
  5
1E6AE
330
1E1C7
100
AcDbEntity
  8
30
  6
Continuous
 62
     0
440
 16777216
370
    -2
100
AcDbLine
 10
688.7136094997849
 20
712.4938972774823
 30
0.0
 11
688.7136094997849
 21
699.1605639441489
 31
0.0
  0
INSERT
  5
1E6AF
330
1E1C7
100
AcDbEntity
  8
30
  6
Continuous
 62
     0
440
 16777216
370
    -2
100
AcDbBlockReference
  2
_OPEN
 10
688.7136094997849
 20
722.4938972774823
 30
0.0
 41
2.0
 42
2.0
 43
2.0
 50
270.0
  0
INSERT
  5
1E6B0
330
1E1C7
100
AcDbEntity
  8
30
  6
Continuous
 62
     0
440
 16777216
370
    -2
100
AcDbBlockReference
  2
_OPEN
 10
688.7136094997849
 20
714.4938972774824
 30
0.0
 41
2.0
 42
2.0
 43
2.0
 50
90.0
  0
MTEXT
  5
1E6B1
330
1E1C7
100
AcDbEntity
  8
30
  6
Continuous
440
 16777216
100
AcDbMText
 10
681.7136094997849
 20
704.8272306108158
 30
0.0
 40
8.0
 41
0.0
 46
0.0
 71
     5
 72
     1
  1
\A1;8
 11
0.0000000000000001
 21
1.0
 31
0.0
 73
     1
 44
1.0
 90
        3
 63
     9
421
 13158600
 45
1.25
441
        0
  0
POINT
  5
1E6B2
330
1E1C7
100
AcDbEntity
  8
DEFPOINTS
  6
Continuous
 62
     0
440
 16777216
100
AcDbPoint
 10
643.1123821502898
 20
722.4938972774823
 30
0.0
  0
POINT
  5
1E6B3
330
1E1C7
100
AcDbEntity
  8
DEFPOINTS
  6
Continuous
 62
     0
440
 16777216
100
AcDbPoint
 10
643.1123821502898
 20
714.4938972774824
 30
0.0
  0
POINT
  5
1E6B4
330
1E1C7
100
AcDbEntity
  8
DEFPOINTS
  6
Continuous
 62
     0
440
 16777216
100
AcDbPoint
 10
688.7136094997849
 20
714.4938972774824
 30
0.0
  0
ENDBLK
  5
1E1C9
330
1E1C7
100
AcDbEntity
  8
0
100
AcDbBlockEnd
  0
BLOCK
  5
1E1D5
330
1E1D4
100
AcDbEntity
  8
0
100
AcDbBlockBegin
  2
*D21
 70
     1
 10
0.0
 20
0.0
 30
0.0
  3
*D21
  1

  0
LINE
  5
1E744
330
1E1D4
100
AcDbEntity
  8
30
  6
Continuous
 62
     0
440
 16777216
370
    -2
100
AcDbLine
 10
398.6123839382899
 20
649.4938972774822
 30
0.0
 11
341.1144760506946
 21
649.4938972774822
 31
0.0
  0
LINE
  5
1E745
330
1E1D4
100
AcDbEntity
  8
30
  6
Continuous
 62
     0
440
 16777216
370
    -2
100
AcDbLine
 10
390.8986473228736
 20
559.4938972774825
 30
0.0
 11
341.1144760506946
 21
559.4938972774825
 31
0.0
  0
LINE
  5
1E746
330
1E1D4
100
AcDbEntity
  8
30
  6
Continuous
 62
     0
440
 16777216
370
    -2
100
AcDbLine
 10
341.6144760506946
 20
647.4938972774822
 30
0.0
 11
341.6144760506946
 21
561.4938972774825
 31
0.0
  0
INSERT
  5
1E747
330
1E1D4
100
AcDbEntity
  8
30
  6
Continuous
 62
     0
440
 16777216
370
    -2
100
AcDbBlockReference
  2
_OPEN
 10
341.6144760506946
 20
649.4938972774822
 30
0.0
 41
2.0
 42
2.0
 43
2.0
 50
90.0
  0
INSERT
  5
1E748
330
1E1D4
100
AcDbEntity
  8
30
  6
Continuous
 62
     0
440
 16777216
370
    -2
100
AcDbBlockReference
  2
_OPEN
 10
341.6144760506946
 20
559.4938972774825
 30
0.0
 41
2.0
 42
2.0
 43
2.0
 50
270.0
  0
MTEXT
  5
1E749
330
1E1D4
100
AcDbEntity
  8
30
  6
Continuous
440
 16777216
100
AcDbMText
 10
334.6144760506945
 20
604.4938972774827
 30
0.0
 40
8.0
 41
0.0
 46
0.0
 71
     5
 72
     1
  1
\A1;90
 11
0.0000000000000001
 21
1.0
 31
0.0
 73
     1
 44
1.0
 90
        3
 63
     9
421
 13158600
 45
1.25
441
        0
  0
POINT
  5
1E74A
330
1E1D4
100
AcDbEntity
  8
DEFPOINTS
  6
Continuous
 62
     0
440
 16777216
100
AcDbPoint
 10
399.6123839382899
 20
649.4938972774822
 30
0.0
  0
POINT
  5
1E74B
330
1E1D4
100
AcDbEntity
  8
DEFPOINTS
  6
Continuous
 62
     0
440
 16777216
100
AcDbPoint
 10
391.8986473228736
 20
559.4938972774825
 30
0.0
  0
POINT
  5
1E74C
330
1E1D4
100
AcDbEntity
  8
DEFPOINTS
  6
Continuous
 62
     0
440
 16777216
100
AcDbPoint
 10
341.6144760506946
 20
559.4938972774825
 30
0.0
  0
ENDBLK
  5
1E1D6
330
1E1D4
100
AcDbEntity
  8
0
100
AcDbBlockEnd
  0
BLOCK
  5
1E1E1
330
1E1E0
100
AcDbEntity
  8
0
100
AcDbBlockBegin
  2
*D22
 70
     1
 10
0.0
 20
0.0
 30
0.0
  3
*D22
  1

  0
LINE
  5
1E74D
330
1E1E0
100
AcDbEntity
  8
30
  6
Continuous
 62
     0
440
 16777216
370
    -2
100
AcDbLine
 10
383.1123821502895
 20
606.0000000000001
 30
0.0
 11
383.1123821502895
 21
416.3670116579618
 31
0.0
  0
LINE
  5
1E74E
330
1E1E0
100
AcDbEntity
  8
30
  6
Continuous
 62
     0
440
 16777216
370
    -2
100
AcDbLine
 10
513.1123821502897
 20
473.4938972774823
 30
0.0
 11
513.1123821502897
 21
416.3670116579618
 31
0.0
  0
LINE
  5
1E74F
330
1E1E0
100
AcDbEntity
  8
30
  6
Continuous
 62
     0
440
 16777216
370
    -2
100
AcDbLine
 10
385.1123821502895
 20
416.8670116579618
 30
0.0
 11
511.1123821502896
 21
416.8670116579618
 31
0.0
  0
INSERT
  5
1E750
330
1E1E0
100
AcDbEntity
  8
30
  6
Continuous
 62
     0
440
 16777216
370
    -2
100
AcDbBlockReference
  2
_OPEN
 10
383.1123821502895
 20
416.8670116579618
 30
0.0
 41
2.0
 42
2.0
 43
2.0
 50
180.0
  0
INSERT
  5
1E751
330
1E1E0
100
AcDbEntity
  8
30
  6
Continuous
 62
     0
440
 16777216
370
    -2
100
AcDbBlockReference
  2
_OPEN
 10
513.1123821502897
 20
416.8670116579618
 30
0.0
 41
2.0
 42
2.0
 43
2.0
  0
MTEXT
  5
1E752
330
1E1E0
100
AcDbEntity
  8
30
  6
Continuous
440
 16777216
100
AcDbMText
 10
448.1123821502897
 20
427.8670116579617
 30
0.0
 40
8.0
 41
0.0
 46
0.0
 71
     2
 72
     1
  1
\A1;130
 73
     1
 44
1.0
 90
        3
 63
     9
421
 13158600
 45
1.25
441
        0
  0
POINT
  5
1E753
330
1E1E0
100
AcDbEntity
  8
DEFPOINTS
  6
Continuous
 62
     0
440
 16777216
100
AcDbPoint
 10
383.1123821502895
 20
607.0000000000001
 30
0.0
  0
POINT
  5
1E754
330
1E1E0
100
AcDbEntity
  8
DEFPOINTS
  6
Continuous
 62
     0
440
 16777216
100
AcDbPoint
 10
513.1123821502897
 20
474.4938972774824
 30
0.0
  0
POINT
  5
1E755
330
1E1E0
100
AcDbEntity
  8
DEFPOINTS
  6
Continuous
 62
     0
440
 16777216
100
AcDbPoint
 10
513.1123821502897
 20
416.8670116579618
 30
0.0
  0
ENDBLK
  5
1E1E2
330
1E1E0
100
AcDbEntity
  8
0
100
AcDbBlockEnd
  0
BLOCK
  5
1E1ED
330
1E1EC
100
AcDbEntity
  8
0
100
AcDbBlockBegin
  2
*D23
 70
     1
 10
0.0
 20
0.0
 30
0.0
  3
*D23
  1

  0
LINE
  5
1E756
330
1E1EC
100
AcDbEntity
  8
30
  6
Continuous
 62
     0
440
 16777216
370
    -2
100
AcDbLine
 10
410.1123821502897
 20
523.3264926460255
 30
0.0
 11
410.1123821502897
 21
448.4070852832791
 31
0.0
  0
LINE
  5
1E757
330
1E1EC
100
AcDbEntity
  8
30
  6
Continuous
 62
     0
440
 16777216
370
    -2
100
AcDbLine
 10
513.1123821502897
 20
473.4938972774823
 30
0.0
 11
513.1123821502897
 21
448.4070852832791
 31
0.0
  0
LINE
  5
1E758
330
1E1EC
100
AcDbEntity
  8
30
  6
Continuous
 62
     0
440
 16777216
370
    -2
100
AcDbLine
 10
412.1123821502896
 20
448.907085283279
 30
0.0
 11
511.1123821502896
 21
448.907085283279
 31
0.0
  0
INSERT
  5
1E759
330
1E1EC
100
AcDbEntity
  8
30
  6
Continuous
 62
     0
440
 16777216
370
    -2
100
AcDbBlockReference
  2
_OPEN
 10
410.1123821502897
 20
448.907085283279
 30
0.0
 41
2.0
 42
2.0
 43
2.0
 50
180.0
  0
INSERT
  5
1E75A
330
1E1EC
100
AcDbEntity
  8
30
  6
Continuous
 62
     0
440
 16777216
370
    -2
100
AcDbBlockReference
  2
_OPEN
 10
513.1123821502897
 20
448.907085283279
 30
0.0
 41
2.0
 42
2.0
 43
2.0
  0
MTEXT
  5
1E75B
330
1E1EC
100
AcDbEntity
  8
30
  6
Continuous
440
 16777216
100
AcDbMText
 10
461.6123821502891
 20
459.907085283279
 30
0.0
 40
8.0
 41
0.0
 46
0.0
 71
     2
 72
     1
  1
\A1;103
 73
     1
 44
1.0
 90
        3
 63
     9
421
 13158600
 45
1.25
441
        0
  0
POINT
  5
1E75C
330
1E1EC
100
AcDbEntity
  8
DEFPOINTS
  6
Continuous
 62
     0
440
 16777216
100
AcDbPoint
 10
410.1123821502897
 20
524.3264926460255
 30
0.0
  0
POINT
  5
1E75D
330
1E1EC
100
AcDbEntity
  8
DEFPOINTS
  6
Continuous
 62
     0
440
 16777216
100
AcDbPoint
 10
513.1123821502897
 20
474.4938972774824
 30
0.0
  0
POINT
  5
1E75E
330
1E1EC
100
AcDbEntity
  8
DEFPOINTS
  6
Continuous
 62
     0
440
 16777216
100
AcDbPoint
 10
513.1123821502897
 20
448.907085283279
 30
0.0
  0
ENDBLK
  5
1E1EE
330
1E1EC
100
AcDbEntity
  8
0
100
AcDbBlockEnd
  0
BLOCK
  5
1E1F9
330
1E1F8
100
AcDbEntity
  8
0
100
AcDbBlockBegin
  2
*D24
 70
     1
 10
0.0
 20
0.0
 30
0.0
  3
*D24
  1

  0
LINE
  5
1E75F
330
1E1F8
100
AcDbEntity
  8
30
  6
Continuous
 62
     0
440
 16777216
370
    -2
100
AcDbLine
 10
362.1188863807741
 20
616.0000000000001
 30
0.0
 11
362.1188863807741
 21
399.0429403321895
 31
0.0
  0
LINE
  5
1E760
330
1E1F8
100
AcDbEntity
  8
30
  6
Continuous
 62
     0
440
 16777216
370
    -2
100
AcDbLine
 10
513.1123821502897
 20
415.3670116579617
 30
0.0
 11
513.1123821502897
 21
399.0429403321895
 31
0.0
  0
LINE
  5
1E761
330
1E1F8
100
AcDbEntity
  8
30
  6
Continuous
 62
     0
440
 16777216
370
    -2
100
AcDbLine
 10
364.1188863807741
 20
399.5429403321895
 30
0.0
 11
511.1123821502896
 21
399.5429403321895
 31
0.0
  0
INSERT
  5
1E762
330
1E1F8
100
AcDbEntity
  8
30
  6
Continuous
 62
     0
440
 16777216
370
    -2
100
AcDbBlockReference
  2
_OPEN
 10
362.1188863807741
 20
399.5429403321895
 30
0.0
 41
2.0
 42
2.0
 43
2.0
 50
180.0
  0
INSERT
  5
1E763
330
1E1F8
100
AcDbEntity
  8
30
  6
Continuous
 62
     0
440
 16777216
370
    -2
100
AcDbBlockReference
  2
_OPEN
 10
513.1123821502897
 20
399.5429403321895
 30
0.0
 41
2.0
 42
2.0
 43
2.0
  0
MTEXT
  5
1E764
330
1E1F8
100
AcDbEntity
  8
30
  6
Continuous
440
 16777216
100
AcDbMText
 10
437.6156342655319
 20
406.5429403321894
 30
0.0
 40
8.0
 41
0.0
 46
0.0
 71
     5
 72
     1
  1
\A1;151
 73
     1
 44
1.0
 90
        3
 63
     9
421
 13158600
 45
1.25
441
        0
  0
POINT
  5
1E765
330
1E1F8
100
AcDbEntity
  8
DEFPOINTS
  6
Continuous
 62
     0
440
 16777216
100
AcDbPoint
 10
362.1188863807741
 20
617.0000000000001
 30
0.0
  0
POINT
  5
1E766
330
1E1F8
100
AcDbEntity
  8
DEFPOINTS
  6
Continuous
 62
     0
440
 16777216
100
AcDbPoint
 10
513.1123821502897
 20
416.3670116579618
 30
0.0
  0
POINT
  5
1E767
330
1E1F8
100
AcDbEntity
  8
DEFPOINTS
  6
Continuous
 62
     0
440
 16777216
100
AcDbPoint
 10
513.1123821502897
 20
399.5429403321895
 30
0.0
  0
ENDBLK
  5
1E1FA
330
1E1F8
100
AcDbEntity
  8
0
100
AcDbBlockEnd
  0
BLOCK
  5
1E205
330
1E204
100
AcDbEntity
  8
0
100
AcDbBlockBegin
  2
*D25
 70
     1
 10
0.0
 20
0.0
 30
0.0
  3
*D25
  1

  0
LINE
  5
1E768
330
1E204
100
AcDbEntity
  8
30
  6
Continuous
 62
     0
440
 16777216
370
    -2
100
AcDbLine
 10
406.1123820312896
 20
551.0
 30
0.0
 11
406.1123820312896
 21
432.167604395004
 31
0.0
  0
LINE
  5
1E769
330
1E204
100
AcDbEntity
  8
30
  6
Continuous
 62
     0
440
 16777216
370
    -2
100
AcDbLine
 10
398.1123820312896
 20
551.0
 30
0.0
 11
398.1123820312896
 21
432.167604395004
 31
0.0
  0
LINE
  5
1E76A
330
1E204
100
AcDbEntity
  8
30
  6
Continuous
 62
     0
440
 16777216
370
    -2
100
AcDbLine
 10
408.1123820312895
 20
432.667604395004
 30
0.0
 11
410.1123820312896
 21
432.667604395004
 31
0.0
  0
LINE
  5
1E76B
330
1E204
100
AcDbEntity
  8
30
  6
Continuous
 62
     0
440
 16777216
370
    -2
100
AcDbLine
 10
396.1123820312896
 20
432.667604395004
 30
0.0
 11
382.7790486979563
 21
432.667604395004
 31
0.0
  0
LINE
  5
1E76C
330
1E204
100
AcDbEntity
  8
30
  6
Continuous
 62
     0
440
 16777216
370
    -2
100
AcDbLine
 10
406.1123820312896
 20
432.667604395004
 30
0.0
 11
398.1123820312896
 21
432.667604395004
 31
0.0
  0
INSERT
  5
1E76D
330
1E204
100
AcDbEntity
  8
30
  6
Continuous
 62
     0
440
 16777216
370
    -2
100
AcDbBlockReference
  2
_OPEN
 10
406.1123820312896
 20
432.667604395004
 30
0.0
 41
2.0
 42
2.0
 43
2.0
 50
180.0
  0
INSERT
  5
1E76E
330
1E204
100
AcDbEntity
  8
30
  6
Continuous
 62
     0
440
 16777216
370
    -2
100
AcDbBlockReference
  2
_OPEN
 10
398.1123820312896
 20
432.667604395004
 30
0.0
 41
2.0
 42
2.0
 43
2.0
  0
MTEXT
  5
1E76F
330
1E204
100
AcDbEntity
  8
30
  6
Continuous
 62
     0
440
 16777216
100
AcDbMText
 10
388.4457153646229
 20
439.667604395004
 30
0.0
 40
8.0
 41
0.0
 46
0.0
 71
     5
 72
     1
  1
\A1;8
 73
     1
 44
1.0
  0
POINT
  5
1E770
330
1E204
100
AcDbEntity
  8
DEFPOINTS
  6
Continuous
 62
     0
440
 16777216
100
AcDbPoint
 10
406.1123820312896
 20
554.0
 30
0.0
  0
POINT
  5
1E771
330
1E204
100
AcDbEntity
  8
DEFPOINTS
  6
Continuous
 62
     0
440
 16777216
100
AcDbPoint
 10
398.1123820312896
 20
554.0
 30
0.0
  0
POINT
  5
1E772
330
1E204
100
AcDbEntity
  8
DEFPOINTS
  6
Continuous
 62
     0
440
 16777216
100
AcDbPoint
 10
398.1123820312896
 20
432.667604395004
 30
0.0
  0
ENDBLK
  5
1E206
330
1E204
100
AcDbEntity
  8
0
100
AcDbBlockEnd
  0
BLOCK
  5
1E213
330
1E212
100
AcDbEntity
  8
0
100
AcDbBlockBegin
  2
*D26
 70
     1
 10
0.0
 20
0.0
 30
0.0
  3
*D26
  1

  0
LINE
  5
1E773
330
1E212
100
AcDbEntity
  8
30
  6
Continuous
 62
     0
440
 16777216
370
    -2
100
AcDbLine
 10
406.1123820312896
 20
433.6676043950039
 30
0.0
 11
406.1123820312896
 21
433.1676043950039
 31
0.0
  0
LINE
  5
1E774
330
1E212
100
AcDbEntity
  8
30
  6
Continuous
 62
     0
440
 16777216
370
    -2
100
AcDbLine
 10
513.1123821502897
 20
447.907085283279
 30
0.0
 11
513.1123821502897
 21
432.167604395004
 31
0.0
  0
LINE
  5
1E775
330
1E212
100
AcDbEntity
  8
30
  6
Continuous
 62
     0
440
 16777216
370
    -2
100
AcDbLine
 10
408.1123820312895
 20
432.667604395004
 30
0.0
 11
511.1123821502896
 21
432.667604395004
 31
0.0
  0
INSERT
  5
1E776
330
1E212
100
AcDbEntity
  8
30
  6
Continuous
 62
     0
440
 16777216
370
    -2
100
AcDbBlockReference
  2
_OPEN
 10
406.1123820312896
 20
432.667604395004
 30
0.0
 41
2.0
 42
2.0
 43
2.0
 50
180.0
  0
INSERT
  5
1E777
330
1E212
100
AcDbEntity
  8
30
  6
Continuous
 62
     0
440
 16777216
370
    -2
100
AcDbBlockReference
  2
_OPEN
 10
513.1123821502897
 20
432.667604395004
 30
0.0
 41
2.0
 42
2.0
 43
2.0
  0
MTEXT
  5
1E778
330
1E212
100
AcDbEntity
  8
30
  6
Continuous
440
 16777216
100
AcDbMText
 10
459.6123820907896
 20
439.667604395004
 30
0.0
 40
8.0
 41
0.0
 46
0.0
 71
     5
 72
     1
  1
\A1;107
 73
     1
 44
1.0
 90
        3
 63
     9
421
 13158600
 45
1.25
441
        0
  0
POINT
  5
1E779
330
1E212
100
AcDbEntity
  8
DEFPOINTS
  6
Continuous
 62
     0
440
 16777216
100
AcDbPoint
 10
406.1123820312896
 20
432.667604395004
 30
0.0
  0
POINT
  5
1E77A
330
1E212
100
AcDbEntity
  8
DEFPOINTS
  6
Continuous
 62
     0
440
 16777216
100
AcDbPoint
 10
513.1123821502897
 20
448.907085283279
 30
0.0
  0
POINT
  5
1E77B
330
1E212
100
AcDbEntity
  8
DEFPOINTS
  6
Continuous
 62
     0
440
 16777216
100
AcDbPoint
 10
513.1123821502897
 20
432.667604395004
 30
0.0
  0
ENDBLK
  5
1E214
330
1E212
100
AcDbEntity
  8
0
100
AcDbBlockEnd
  0
BLOCK
  5
1E21F
330
1E21E
100
AcDbEntity
  8
0
100
AcDbBlockBegin
  2
*D27
 70
     1
 10
0.0
 20
0.0
 30
0.0
  3
*D27
  1

  0
LINE
  5
1E353
330
1E21E
100
AcDbEntity
  8
30
 62
     0
440
 16777216
370
    -2
100
AcDbLine
 10
123.783954876872
 20
96.45312787595994
 30
0.0
 11
123.783954876872
 21
42.90555879019438
 31
0.0
  0
LINE
  5
1E354
330
1E21E
100
AcDbEntity
  8
30
 62
     0
440
 16777216
370
    -2
100
AcDbLine
 10
168.7839548768725
 20
96.45312787595994
 30
0.0
 11
168.7839548768725
 21
42.90555879019438
 31
0.0
  0
LINE
  5
1E355
330
1E21E
100
AcDbEntity
  8
30
 62
     0
440
 16777216
370
    -2
100
AcDbLine
 10
125.783954876872
 20
43.40555879019439
 30
0.0
 11
166.7839548768725
 21
43.40555879019439
 31
0.0
  0
INSERT
  5
1E356
330
1E21E
100
AcDbEntity
  8
30
 62
     0
440
 16777216
370
    -2
100
AcDbBlockReference
  2
_OPEN
 10
123.783954876872
 20
43.40555879019439
 30
0.0
 41
2.0
 42
2.0
 43
2.0
 50
180.0
  0
INSERT
  5
1E357
330
1E21E
100
AcDbEntity
  8
30
 62
     0
440
 16777216
370
    -2
100
AcDbBlockReference
  2
_OPEN
 10
168.7839548768725
 20
43.40555879019439
 30
0.0
 41
2.0
 42
2.0
 43
2.0
  0
MTEXT
  5
1E358
330
1E21E
100
AcDbEntity
  8
30
440
 16777216
100
AcDbMText
 10
146.2839548768722
 20
50.40555879019439
 30
0.0
 40
8.0
 41
0.0
 46
0.0
 71
     5
 72
     1
  1
\A1;45
 73
     1
 44
1.0
 90
        3
 63
     9
421
 13158600
 45
1.25
441
        0
  0
POINT
  5
1E359
330
1E21E
100
AcDbEntity
  8
DEFPOINTS
 62
     0
440
 16777216
100
AcDbPoint
 10
123.783954876872
 20
97.45312787595993
 30
0.0
  0
POINT
  5
1E35A
330
1E21E
100
AcDbEntity
  8
DEFPOINTS
 62
     0
440
 16777216
100
AcDbPoint
 10
168.7839548768725
 20
97.45312787595993
 30
0.0
  0
POINT
  5
1E35B
330
1E21E
100
AcDbEntity
  8
DEFPOINTS
 62
     0
440
 16777216
100
AcDbPoint
 10
168.7839548768725
 20
43.40555879019439
 30
0.0
  0
ENDBLK
  5
1E220
330
1E21E
100
AcDbEntity
  8
0
100
AcDbBlockEnd
  0
BLOCK
  5
1E22B
330
1E22A
100
AcDbEntity
  8
0
100
AcDbBlockBegin
  2
*D28
 70
     1
 10
0.0
 20
0.0
 30
0.0
  3
*D28
  1

  0
LINE
  5
1E6A2
330
1E22A
100
AcDbEntity
  8
30
  6
Continuous
 62
     0
440
 16777216
370
    -2
100
AcDbLine
 10
148.3588949859124
 20
1022.735933922359
 30
0.0
 11
249.9200728554952
 21
1022.735933922359
 31
0.0
  0
LINE
  5
1E6A3
330
1E22A
100
AcDbEntity
  8
30
  6
Continuous
 62
     0
440
 16777216
370
    -2
100
AcDbLine
 10
175.6740343087124
 20
907.7359339223587
 30
0.0
 11
249.9200728554952
 21
907.7359339223587
 31
0.0
  0
LINE
  5
1E6A4
330
1E22A
100
AcDbEntity
  8
30
  6
Continuous
 62
     0
440
 16777216
370
    -2
100
AcDbLine
 10
249.4200728554952
 20
1020.735933922359
 30
0.0
 11
249.4200728554951
 21
909.7359339223586
 31
0.0
  0
INSERT
  5
1E6A5
330
1E22A
100
AcDbEntity
  8
30
  6
Continuous
 62
     0
440
 16777216
370
    -2
100
AcDbBlockReference
  2
_OPEN
 10
249.4200728554952
 20
1022.735933922359
 30
0.0
 41
2.0
 42
2.0
 43
2.0
 50
90.0
  0
INSERT
  5
1E6A6
330
1E22A
100
AcDbEntity
  8
30
  6
Continuous
 62
     0
440
 16777216
370
    -2
100
AcDbBlockReference
  2
_OPEN
 10
249.4200728554951
 20
907.7359339223587
 30
0.0
 41
2.0
 42
2.0
 43
2.0
 50
270.0
  0
MTEXT
  5
1E6A7
330
1E22A
100
AcDbEntity
  8
30
  6
Continuous
440
 16777216
100
AcDbMText
 10
238.4200728554951
 20
965.2359339223592
 30
0.0
 40
8.0
 41
0.0
 46
0.0
 71
     2
 72
     1
  1
\A1;115
 11
0.0000000000000003
 21
1.0
 31
0.0
 73
     1
 44
1.0
 90
        3
 63
     9
421
 13158600
 45
1.25
441
        0
  0
POINT
  5
1E6A8
330
1E22A
100
AcDbEntity
  8
DEFPOINTS
  6
Continuous
 62
     0
440
 16777216
100
AcDbPoint
 10
147.3588949859124
 20
1022.735933922359
 30
0.0
  0
POINT
  5
1E6A9
330
1E22A
100
AcDbEntity
  8
DEFPOINTS
  6
Continuous
 62
     0
440
 16777216
100
AcDbPoint
 10
174.6740343087124
 20
907.7359339223587
 30
0.0
  0
POINT
  5
1E6AA
330
1E22A
100
AcDbEntity
  8
DEFPOINTS
  6
Continuous
 62
     0
440
 16777216
100
AcDbPoint
 10
249.4200728554951
 20
907.7359339223587
 30
0.0
  0
ENDBLK
  5
1E22C
330
1E22A
100
AcDbEntity
  8
0
100
AcDbBlockEnd
  0
BLOCK
  5
1E237
330
1E236
100
AcDbEntity
  8
0
100
AcDbBlockBegin
  2
*D29
 70
     1
 10
0.0
 20
0.0
 30
0.0
  3
*D29
  1

  0
LINE
  5
1E682
330
1E236
100
AcDbEntity
  8
30
  6
Continuous
 62
     0
440
 16777216
370
    -2
100
AcDbLine
 10
159.6520626911126
 20
1038.735933922359
 30
0.0
 11
273.1652924773162
 21
1038.735933922359
 31
0.0
  0
LINE
  5
1E683
330
1E236
100
AcDbEntity
  8
30
  6
Continuous
 62
     0
440
 16777216
370
    -2
100
AcDbLine
 10
175.6740343087124
 20
907.7359339223587
 30
0.0
 11
273.1652924773162
 21
907.7359339223587
 31
0.0
  0
LINE
  5
1E684
330
1E236
100
AcDbEntity
  8
30
  6
Continuous
 62
     0
440
 16777216
370
    -2
100
AcDbLine
 10
272.6652924773162
 20
1036.735933922359
 30
0.0
 11
272.6652924773162
 21
909.7359339223586
 31
0.0
  0
INSERT
  5
1E685
330
1E236
100
AcDbEntity
  8
30
  6
Continuous
 62
     0
440
 16777216
370
    -2
100
AcDbBlockReference
  2
_OPEN
 10
272.6652924773162
 20
1038.735933922359
 30
0.0
 41
2.0
 42
2.0
 43
2.0
 50
90.0
  0
INSERT
  5
1E686
330
1E236
100
AcDbEntity
  8
30
  6
Continuous
 62
     0
440
 16777216
370
    -2
100
AcDbBlockReference
  2
_OPEN
 10
272.6652924773162
 20
907.7359339223587
 30
0.0
 41
2.0
 42
2.0
 43
2.0
 50
270.0
  0
MTEXT
  5
1E687
330
1E236
100
AcDbEntity
  8
30
  6
Continuous
440
 16777216
100
AcDbMText
 10
261.6652924773161
 20
973.235933922359
 30
0.0
 40
8.0
 41
0.0
 46
0.0
 71
     2
 72
     1
  1
\A1;131
 11
0.0000000000000003
 21
1.0
 31
0.0
 73
     1
 44
1.0
 90
        3
 63
     9
421
 13158600
 45
1.25
441
        0
  0
POINT
  5
1E688
330
1E236
100
AcDbEntity
  8
DEFPOINTS
  6
Continuous
 62
     0
440
 16777216
100
AcDbPoint
 10
158.6520626911126
 20
1038.735933922359
 30
0.0
  0
POINT
  5
1E689
330
1E236
100
AcDbEntity
  8
DEFPOINTS
  6
Continuous
 62
     0
440
 16777216
100
AcDbPoint
 10
174.6740343087124
 20
907.7359339223587
 30
0.0
  0
POINT
  5
1E68A
330
1E236
100
AcDbEntity
  8
DEFPOINTS
  6
Continuous
 62
     0
440
 16777216
100
AcDbPoint
 10
272.6652924773162
 20
907.7359339223587
 30
0.0
  0
ENDBLK
  5
1E238
330
1E236
100
AcDbEntity
  8
0
100
AcDbBlockEnd
  0
BLOCK
  5
1E243
330
1E242
100
AcDbEntity
  8
0
100
AcDbBlockBegin
  2
*D30
 70
     1
 10
0.0
 20
0.0
 30
0.0
  3
*D30
  1

  0
LINE
  5
1E3C1
330
1E242
100
AcDbEntity
  8
30
  6
Continuous
 62
     0
440
 16777216
370
    -2
100
AcDbLine
 10
107.3588931977125
 20
958.7359363067587
 30
0.0
 11
107.3588931977125
 21
987.4528506560706
 31
0.0
  0
LINE
  5
1E3C2
330
1E242
100
AcDbEntity
  8
30
  6
Continuous
 62
     0
440
 16777216
370
    -2
100
AcDbLine
 10
94.35889319771252
 20
958.7359363067587
 30
0.0
 11
94.35889319771256
 21
987.4528506560706
 31
0.0
  0
LINE
  5
1E3C3
330
1E242
100
AcDbEntity
  8
30
  6
Continuous
 62
     0
440
 16777216
370
    -2
100
AcDbLine
 10
105.3588931977125
 20
986.9528506560703
 30
0.0
 11
96.35889319771251
 21
986.9528506560703
 31
0.0
  0
LINE
  5
1E3C4
330
1E242
100
AcDbEntity
  8
30
  6
Continuous
 62
     0
440
 16777216
370
    -2
100
AcDbLine
 10
94.35889319771256
 20
986.9528506560703
 30
0.0
 11
67.45479980197915
 21
986.9528506560703
 31
0.0
  0
INSERT
  5
1E3C5
330
1E242
100
AcDbEntity
  8
30
  6
Continuous
 62
     0
440
 16777216
370
    -2
100
AcDbBlockReference
  2
_OPEN
 10
107.3588931977125
 20
986.9528506560703
 30
0.0
 41
2.0
 42
2.0
 43
2.0
  0
INSERT
  5
1E3C6
330
1E242
100
AcDbEntity
  8
30
  6
Continuous
 62
     0
440
 16777216
370
    -2
100
AcDbBlockReference
  2
_OPEN
 10
94.35889319771256
 20
986.9528506560703
 30
0.0
 41
2.0
 42
2.0
 43
2.0
 50
180.0
  0
MTEXT
  5
1E3C7
330
1E242
100
AcDbEntity
  8
30
  6
Continuous
440
 16777216
100
AcDbMText
 10
75.78813313531248
 20
997.9528506560704
 30
0.0
 40
8.0
 41
0.0
 46
0.0
 71
     2
 72
     1
  1
\A1;13
 73
     1
 44
1.0
 90
        3
 63
     9
421
 13158600
 45
1.25
441
        0
  0
POINT
  5
1E3C8
330
1E242
100
AcDbEntity
  8
DEFPOINTS
  6
Continuous
 62
     0
440
 16777216
100
AcDbPoint
 10
107.3588931977124
 20
957.7359363067587
 30
0.0
  0
POINT
  5
1E3C9
330
1E242
100
AcDbEntity
  8
DEFPOINTS
  6
Continuous
 62
     0
440
 16777216
100
AcDbPoint
 10
94.3588931977124
 20
957.7359363067587
 30
0.0
  0
POINT
  5
1E3CA
330
1E242
100
AcDbEntity
  8
DEFPOINTS
  6
Continuous
 62
     0
440
 16777216
100
AcDbPoint
 10
94.3588931977124
 20
986.9528506560703
 30
0.0
  0
ENDBLK
  5
1E244
330
1E242
100
AcDbEntity
  8
0
100
AcDbBlockEnd
  0
BLOCK
  5
1E250
330
1E24F
100
AcDbEntity
  8
0
100
AcDbBlockBegin
  2
*D31
 70
     1
 10
0.0
 20
0.0
 30
0.0
  3
*D31
  1

  0
LINE
  5
1E473
330
1E24F
100
AcDbEntity
  8
30
  6
Continuous
 62
     0
440
 16777216
370
    -2
100
AcDbLine
 10
115.7270341980897
 20
965.7067849380384
 30
0.0
 11
115.7270341980897
 21
1003.564505105091
 31
0.0
  0
LINE
  5
1E474
330
1E24F
100
AcDbEntity
  8
30
  6
Continuous
 62
     0
440
 16777216
370
    -2
100
AcDbLine
 10
85.7407523464013
 20
965.7067849378632
 30
0.0
 11
85.74075234640131
 21
1003.564505105091
 31
0.0
  0
LINE
  5
1E475
330
1E24F
100
AcDbEntity
  8
30
  6
Continuous
 62
     0
440
 16777216
370
    -2
100
AcDbLine
 10
113.7270341980897
 20
1003.064505105091
 30
0.0
 11
87.74075234640131
 21
1003.064505105091
 31
0.0
  0
LINE
  5
1E476
330
1E24F
100
AcDbEntity
  8
30
  6
Continuous
 62
     0
440
 16777216
370
    -2
100
AcDbLine
 10
85.74075234640131
 20
1003.064505105091
 30
0.0
 11
60.56572549251235
 21
1003.064505105091
 31
0.0
  0
INSERT
  5
1E477
330
1E24F
100
AcDbEntity
  8
30
  6
Continuous
 62
     0
440
 16777216
370
    -2
100
AcDbBlockReference
  2
_OPEN
 10
115.7270341980897
 20
1003.064505105091
 30
0.0
 41
2.0
 42
2.0
 43
2.0
  0
INSERT
  5
1E478
330
1E24F
100
AcDbEntity
  8
30
  6
Continuous
 62
     0
440
 16777216
370
    -2
100
AcDbBlockReference
  2
_OPEN
 10
85.74075234640131
 20
1003.064505105091
 30
0.0
 41
2.0
 42
2.0
 43
2.0
 50
180.0
  0
MTEXT
  5
1E479
330
1E24F
100
AcDbEntity
  8
30
  6
Continuous
440
 16777216
100
AcDbMText
 10
69.56572549251236
 20
1014.064505105091
 30
0.0
 40
8.0
 41
0.0
 46
0.0
 71
     2
 72
     1
  1
\A1;30
 73
     1
 44
1.0
 90
        3
 63
     9
421
 13158600
 45
1.25
441
        0
  0
POINT
  5
1E47A
330
1E24F
100
AcDbEntity
  8
DEFPOINTS
  6
Continuous
 62
     0
440
 16777216
100
AcDbPoint
 10
115.7270341980896
 20
964.7067849380384
 30
0.0
  0
POINT
  5
1E47B
330
1E24F
100
AcDbEntity
  8
DEFPOINTS
  6
Continuous
 62
     0
440
 16777216
100
AcDbPoint
 10
85.74075234640117
 20
964.7067849378633
 30
0.0
  0
POINT
  5
1E47C
330
1E24F
100
AcDbEntity
  8
DEFPOINTS
  6
Continuous
 62
     0
440
 16777216
100
AcDbPoint
 10
85.74075234640117
 20
1003.064505105091
 30
0.0
  0
ENDBLK
  5
1E251
330
1E24F
100
AcDbEntity
  8
0
100
AcDbBlockEnd
  0
BLOCK
  5
1E26A
330
1E269
100
AcDbEntity
  8
0
100
AcDbBlockBegin
  2
*D32
 70
     1
 10
0.0
 20
0.0
 30
0.0
  3
*D32
  1

  0
LINE
  5
1E38C
330
1E269
100
AcDbEntity
  8
30
  6
Continuous
 62
     0
440
 16777216
370
    -2
100
AcDbLine
 10
171.8338949859123
 20
922.4359342129098
 30
0.0
 11
239.537816625635
 21
922.4359342129098
 31
0.0
  0
LINE
  5
1E38D
330
1E269
100
AcDbEntity
  8
30
  6
Continuous
 62
     0
440
 16777216
370
    -2
100
AcDbLine
 10
222.0378166256348
 20
907.7359342129099
 30
0.0
 11
239.537816625635
 21
907.7359342129099
 31
0.0
  0
LINE
  5
1E38E
330
1E269
100
AcDbEntity
  8
30
  6
Continuous
 62
     0
440
 16777216
370
    -2
100
AcDbLine
 10
239.037816625635
 20
920.4359342129096
 30
0.0
 11
239.037816625635
 21
909.7359342129101
 31
0.0
  0
LINE
  5
1E38F
330
1E269
100
AcDbEntity
  8
30
  6
Continuous
 62
     0
440
 16777216
370
    -2
100
AcDbLine
 10
239.037816625635
 20
907.7359342129099
 30
0.0
 11
239.037816625635
 21
872.8087875554431
 31
0.0
  0
INSERT
  5
1E390
330
1E269
100
AcDbEntity
  8
30
  6
Continuous
 62
     0
440
 16777216
370
    -2
100
AcDbBlockReference
  2
_OPEN
 10
239.037816625635
 20
922.4359342129098
 30
0.0
 41
2.0
 42
2.0
 43
2.0
 50
90.0
  0
INSERT
  5
1E391
330
1E269
100
AcDbEntity
  8
30
  6
Continuous
 62
     0
440
 16777216
370
    -2
100
AcDbBlockReference
  2
_OPEN
 10
239.037816625635
 20
907.7359342129099
 30
0.0
 41
2.0
 42
2.0
 43
2.0
 50
270.0
  0
MTEXT
  5
1E392
330
1E269
100
AcDbEntity
  8
30
  6
Continuous
440
 16777216
100
AcDbMText
 10
228.0378166256349
 20
886.4754542221099
 30
0.0
 40
8.0
 41
0.0
 46
0.0
 71
     2
 72
     1
  1
\A1;14.7
 11
0.0000000000000003
 21
1.0
 31
0.0
 73
     1
 44
1.0
 90
        3
 63
     9
421
 13158600
 45
1.25
441
        0
  0
POINT
  5
1E393
330
1E269
100
AcDbEntity
  8
DEFPOINTS
  6
Continuous
 62
     0
440
 16777216
100
AcDbPoint
 10
170.8338949859123
 20
922.4359342129098
 30
0.0
  0
POINT
  5
1E394
330
1E269
100
AcDbEntity
  8
DEFPOINTS
  6
Continuous
 62
     0
440
 16777216
100
AcDbPoint
 10
221.0378166256348
 20
907.7359342129099
 30
0.0
  0
POINT
  5
1E395
330
1E269
100
AcDbEntity
  8
DEFPOINTS
  6
Continuous
 62
     0
440
 16777216
100
AcDbPoint
 10
239.037816625635
 20
907.7359342129099
 30
0.0
  0
ENDBLK
  5
1E26B
330
1E269
100
AcDbEntity
  8
0
100
AcDbBlockEnd
  0
BLOCK
  5
1E277
330
1E276
100
AcDbEntity
  8
0
100
AcDbBlockBegin
  2
*D33
 70
     1
 10
0.0
 20
0.0
 30
0.0
  3
*D33
  1

  0
LINE
  5
1E396
330
1E276
100
AcDbEntity
  8
30
  6
Continuous
 62
     0
370
    -2
100
AcDbLine
 10
99.83389319771255
 20
973.7359338553099
 30
0.0
 11
55.67706982611959
 21
973.7359338553099
 31
0.0
  0
LINE
  5
1E397
330
1E276
100
AcDbEntity
  8
30
  6
Continuous
 62
     0
370
    -2
100
AcDbLine
 10
85.63389683071205
 20
907.7359342129099
 30
0.0
 11
55.67706982611958
 21
907.7359342129099
 31
0.0
  0
LINE
  5
1E398
330
1E276
100
AcDbEntity
  8
30
  6
Continuous
 62
     0
370
    -2
100
AcDbLine
 10
56.17706982611959
 20
971.7359338553098
 30
0.0
 11
56.17706982611958
 21
909.7359342129101
 31
0.0
  0
INSERT
  5
1E399
330
1E276
100
AcDbEntity
  8
30
  6
Continuous
 62
     0
370
    -2
100
AcDbBlockReference
  2
_OPEN
 10
56.17706982611959
 20
973.7359338553099
 30
0.0
 41
2.0
 42
2.0
 43
2.0
 50
90.0
  0
INSERT
  5
1E39A
330
1E276
100
AcDbEntity
  8
30
  6
Continuous
 62
     0
370
    -2
100
AcDbBlockReference
  2
_OPEN
 10
56.17706982611958
 20
907.7359342129099
 30
0.0
 41
2.0
 42
2.0
 43
2.0
 50
270.0
  0
MTEXT
  5
1E39B
330
1E276
100
AcDbEntity
  8
30
  6
Continuous
100
AcDbMText
 10
49.17706982611943
 20
940.73593403411
 30
0.0
 40
8.0
 41
0.0
 46
0.0
 71
     5
 72
     1
  1
\A1;66
 11
0.0000000000000001
 21
1.0
 31
0.0
 73
     1
 44
1.0
 90
        3
 63
     9
421
 13158600
 45
1.25
441
        0
  0
POINT
  5
1E39C
330
1E276
100
AcDbEntity
  8
DEFPOINTS
  6
Continuous
 62
     0
100
AcDbPoint
 10
100.8338931977125
 20
973.7359338553099
 30
0.0
  0
POINT
  5
1E39D
330
1E276
100
AcDbEntity
  8
DEFPOINTS
  6
Continuous
 62
     0
100
AcDbPoint
 10
86.63389683071205
 20
907.7359342129099
 30
0.0
  0
POINT
  5
1E39E
330
1E276
100
AcDbEntity
  8
DEFPOINTS
  6
Continuous
 62
     0
100
AcDbPoint
 10
56.17706982611958
 20
907.7359342129099
 30
0.0
  0
ENDBLK
  5
1E278
330
1E276
100
AcDbEntity
  8
0
100
AcDbBlockEnd
  0
BLOCK
  5
1E283
330
1E282
100
AcDbEntity
  8
0
100
AcDbBlockBegin
  2
*D34
 70
     1
 10
0.0
 20
0.0
 30
0.0
  3
*D34
  1

  0
LINE
  5
1E42C
330
1E282
100
AcDbEntity
  8
30
  6
Continuous
 62
     0
440
 16777216
370
    -2
100
AcDbLine
 10
125.2847653796247
 20
313.6836868359132
 30
0.0
 11
125.885089580726
 21
311.7759104198801
 31
0.0
  0
LINE
  5
1E42D
330
1E282
100
AcDbEntity
  8
30
  6
Continuous
 62
     0
440
 16777216
370
    -2
100
AcDbLine
 10
122.2831443741181
 20
323.2225689160785
 30
0.0
 11
110.9708766403006
 21
359.1719401971911
 31
0.0
  0
LINE
  5
1E42E
330
1E282
100
AcDbEntity
  8
30
  6
Continuous
 62
     0
440
 16777216
370
    -2
100
AcDbLine
 10
110.9708766403006
 20
359.1719401971911
 30
0.0
 11
94.63754330696726
 21
359.1719401971911
 31
0.0
  0
LINE
  5
1E42F
330
1E282
100
AcDbEntity
  8
30
  6
Continuous
 62
     0
440
 16777216
370
    -2
100
AcDbLine
 10
124.6844411785234
 20
315.5914632519463
 30
0.0
 11
122.8834685752194
 21
321.3147925000454
 31
0.0
  0
INSERT
  5
1E430
330
1E282
100
AcDbEntity
  8
30
  6
Continuous
 62
     0
440
 16777216
370
    -2
100
AcDbBlockReference
  2
_OPEN
 10
124.6844411785234
 20
315.5914632519463
 30
0.0
 41
2.0
 42
2.0
 43
2.0
 50
107.4673395153281
  0
INSERT
  5
1E431
330
1E282
100
AcDbEntity
  8
30
  6
Continuous
 62
     0
440
 16777216
370
    -2
100
AcDbBlockReference
  2
_OPEN
 10
122.8834685752194
 20
321.3147925000454
 30
0.0
 41
2.0
 42
2.0
 43
2.0
 50
287.4673395153282
  0
MTEXT
  5
1E432
330
1E282
100
AcDbEntity
  8
30
  6
Continuous
 62
     0
440
 16777216
100
AcDbMText
 10
101.304209973634
 20
366.1719401971911
 30
0.0
 40
8.0
 41
0.0
 46
0.0
 71
     5
 72
     1
  1
\A1;M6
 73
     1
 44
1.0
  0
POINT
  5
1E433
330
1E282
100
AcDbEntity
  8
DEFPOINTS
  6
Continuous
 62
     0
440
 16777216
100
AcDbPoint
 10
122.8834685752194
 20
321.3147925000454
 30
0.0
  0
POINT
  5
1E434
330
1E282
100
AcDbEntity
  8
DEFPOINTS
  6
Continuous
 62
     0
440
 16777216
100
AcDbPoint
 10
124.6844411785234
 20
315.5914632519463
 30
0.0
  0
ENDBLK
  5
1E284
330
1E282
100
AcDbEntity
  8
0
100
AcDbBlockEnd
  0
BLOCK
  5
1E3FA
330
1E3F9
100
AcDbEntity
  8
0
100
AcDbBlockBegin
  2
*D35
 70
     1
 10
0.0
 20
0.0
 30
0.0
  3
*D35
  1

  0
LINE
  5
1E411
330
1E3F9
100
AcDbEntity
  8
30
  6
Continuous
 62
     0
440
 16777216
370
    -2
100
AcDbLine
 10
101.3339408164295
 20
974.2359342129097
 30
0.0
 11
101.3339408164295
 21
1057.78227135016
 31
0.0
  0
LINE
  5
1E412
330
1E3F9
100
AcDbEntity
  8
30
  6
Continuous
 62
     0
440
 16777216
370
    -2
100
AcDbLine
 10
146.3339408164295
 20
1014.23593421291
 30
0.0
 11
146.3339408164295
 21
1057.78227135016
 31
0.0
  0
LINE
  5
1E413
330
1E3F9
100
AcDbEntity
  8
30
  6
Continuous
 62
     0
440
 16777216
370
    -2
100
AcDbLine
 10
103.3339408164295
 20
1057.282271350159
 30
0.0
 11
144.3339408164295
 21
1057.282271350159
 31
0.0
  0
INSERT
  5
1E414
330
1E3F9
100
AcDbEntity
  8
30
  6
Continuous
 62
     0
440
 16777216
370
    -2
100
AcDbBlockReference
  2
_OPEN
 10
101.3339408164295
 20
1057.282271350159
 30
0.0
 41
2.0
 42
2.0
 43
2.0
 50
180.0
  0
INSERT
  5
1E415
330
1E3F9
100
AcDbEntity
  8
30
  6
Continuous
 62
     0
440
 16777216
370
    -2
100
AcDbBlockReference
  2
_OPEN
 10
146.3339408164295
 20
1057.282271350159
 30
0.0
 41
2.0
 42
2.0
 43
2.0
  0
MTEXT
  5
1E416
330
1E3F9
100
AcDbEntity
  8
30
  6
Continuous
440
 16777216
100
AcDbMText
 10
123.8339408164295
 20
1064.28227135016
 30
0.0
 40
8.0
 41
0.0
 46
0.0
 71
     5
 72
     1
  1
\A1;45
 73
     1
 44
1.0
 90
        3
 63
     9
421
 13158600
 45
1.25
441
        0
  0
POINT
  5
1E417
330
1E3F9
100
AcDbEntity
  8
DEFPOINTS
  6
Continuous
 62
     0
440
 16777216
100
AcDbPoint
 10
101.3339408164295
 20
973.23593421291
 30
0.0
  0
POINT
  5
1E418
330
1E3F9
100
AcDbEntity
  8
DEFPOINTS
  6
Continuous
 62
     0
440
 16777216
100
AcDbPoint
 10
146.3339408164295
 20
1013.23593421291
 30
0.0
  0
POINT
  5
1E419
330
1E3F9
100
AcDbEntity
  8
DEFPOINTS
  6
Continuous
 62
     0
440
 16777216
100
AcDbPoint
 10
146.3339408164295
 20
1057.282271350159
 30
0.0
  0
ENDBLK
  5
1E3FB
330
1E3F9
100
AcDbEntity
  8
0
100
AcDbBlockEnd
  0
BLOCK
  5
1E406
330
1E405
100
AcDbEntity
  8
0
100
AcDbBlockBegin
  2
*D36
 70
     1
 10
0.0
 20
0.0
 30
0.0
  3
*D36
  1

  0
LINE
  5
1E41A
330
1E405
100
AcDbEntity
  8
30
  6
Continuous
 62
     0
440
 16777216
370
    -2
100
AcDbLine
 10
146.3339408164295
 20
1014.23593421291
 30
0.0
 11
146.3339408164295
 21
1057.78227135016
 31
0.0
  0
LINE
  5
1E41B
330
1E405
100
AcDbEntity
  8
30
  6
Continuous
 62
     0
440
 16777216
370
    -2
100
AcDbLine
 10
191.3339408164294
 20
974.2359342129097
 30
0.0
 11
191.3339408164294
 21
1057.78227135016
 31
0.0
  0
LINE
  5
1E41C
330
1E405
100
AcDbEntity
  8
30
  6
Continuous
 62
     0
440
 16777216
370
    -2
100
AcDbLine
 10
148.3339408164295
 20
1057.282271350159
 30
0.0
 11
189.3339408164294
 21
1057.282271350159
 31
0.0
  0
MTEXT
  5
1E41D
330
1E405
100
AcDbEntity
  8
30
  6
Continuous
440
 16777216
100
AcDbMText
 10
168.8339408164295
 20
1064.28227135016
 30
0.0
 40
8.0
 41
0.0
 46
0.0
 71
     5
 72
     1
  1
\A1;45
 73
     1
 44
1.0
 90
        3
 63
     9
421
 13158600
 45
1.25
441
        0
  0
INSERT
  5
1E41E
330
1E405
100
AcDbEntity
  8
30
  6
Continuous
 62
     0
440
 16777216
370
    -2
100
AcDbBlockReference
  2
_OPEN
 10
146.3339408164295
 20
1057.282271350159
 30
0.0
 41
2.0
 42
2.0
 43
2.0
 50
180.0
  0
INSERT
  5
1E41F
330
1E405
100
AcDbEntity
  8
30
  6
Continuous
 62
     0
440
 16777216
370
    -2
100
AcDbBlockReference
  2
_OPEN
 10
191.3339408164294
 20
1057.282271350159
 30
0.0
 41
2.0
 42
2.0
 43
2.0
  0
POINT
  5
1E420
330
1E405
100
AcDbEntity
  8
DEFPOINTS
  6
Continuous
 62
     0
440
 16777216
100
AcDbPoint
 10
146.3339408164295
 20
1013.23593421291
 30
0.0
  0
POINT
  5
1E421
330
1E405
100
AcDbEntity
  8
DEFPOINTS
  6
Continuous
 62
     0
440
 16777216
100
AcDbPoint
 10
191.3339408164294
 20
973.23593421291
 30
0.0
  0
POINT
  5
1E422
330
1E405
100
AcDbEntity
  8
DEFPOINTS
  6
Continuous
 62
     0
440
 16777216
100
AcDbPoint
 10
191.3339408164294
 20
1057.282271350159
 30
0.0
  0
ENDBLK
  5
1E407
330
1E405
100
AcDbEntity
  8
0
100
AcDbBlockEnd
  0
BLOCK
  5
1E43E
330
1E43D
100
AcDbEntity
  8
0
100
AcDbBlockBegin
  2
*D37
 70
     1
 10
0.0
 20
0.0
 30
0.0
  3
*D37
  1

  0
LINE
  5
1E440
330
1E43D
100
AcDbEntity
  8
30
 62
     0
440
 16777216
370
    -2
100
AcDbLine
 10
205.734733049062
 20
649.4938972774822
 30
0.0
 11
239.6337106882302
 21
649.4938972774822
 31
0.0
  0
LINE
  5
1E441
330
1E43D
100
AcDbEntity
  8
30
 62
     0
440
 16777216
370
    -2
100
AcDbLine
 10
205.734733049062
 20
559.4938972774823
 30
0.0
 11
239.6337106882302
 21
559.4938972774823
 31
0.0
  0
LINE
  5
1E442
330
1E43D
100
AcDbEntity
  8
30
 62
     0
440
 16777216
370
    -2
100
AcDbLine
 10
239.1337106882302
 20
647.4938972774822
 30
0.0
 11
239.1337106882302
 21
561.4938972774823
 31
0.0
  0
INSERT
  5
1E443
330
1E43D
100
AcDbEntity
  8
30
 62
     0
440
 16777216
370
    -2
100
AcDbBlockReference
  2
_OPEN
 10
239.1337106882302
 20
649.4938972774822
 30
0.0
 41
2.0
 42
2.0
 43
2.0
 50
90.0
  0
INSERT
  5
1E444
330
1E43D
100
AcDbEntity
  8
30
 62
     0
440
 16777216
370
    -2
100
AcDbBlockReference
  2
_OPEN
 10
239.1337106882302
 20
559.4938972774823
 30
0.0
 41
2.0
 42
2.0
 43
2.0
 50
270.0
  0
MTEXT
  5
1E445
330
1E43D
100
AcDbEntity
  8
30
440
 16777216
100
AcDbMText
 10
232.1337106882301
 20
604.4938972774822
 30
0.0
 40
8.0
 41
0.0
 46
0.0
 71
     5
 72
     1
  1
\A1;90
 11
0.0000000000000001
 21
1.0
 31
0.0
 73
     1
 44
1.0
 90
        3
 63
     9
421
 13158600
 45
1.25
441
        0
  0
POINT
  5
1E446
330
1E43D
100
AcDbEntity
  8
DEFPOINTS
 62
     0
440
 16777216
100
AcDbPoint
 10
204.734733049062
 20
649.4938972774822
 30
0.0
  0
POINT
  5
1E447
330
1E43D
100
AcDbEntity
  8
DEFPOINTS
 62
     0
440
 16777216
100
AcDbPoint
 10
204.734733049062
 20
559.4938972774823
 30
0.0
  0
POINT
  5
1E448
330
1E43D
100
AcDbEntity
  8
DEFPOINTS
 62
     0
440
 16777216
100
AcDbPoint
 10
239.1337106882302
 20
559.4938972774823
 30
0.0
  0
ENDBLK
  5
1E43F
330
1E43D
100
AcDbEntity
  8
0
100
AcDbBlockEnd
  0
BLOCK
  5
1E47F
330
1E47E
100
AcDbEntity
  8
0
100
AcDbBlockBegin
  2
*D38
 70
     1
 10
0.0
 20
0.0
 30
0.0
  3
*D38
  1

  0
LINE
  5
1E48B
330
1E47E
100
AcDbEntity
  8
30
 62
     0
370
    -2
100
AcDbLine
 10
99.8338932723125
 20
965.2359339223593
 30
0.0
 11
74.55922183669388
 21
965.2359339223593
 31
0.0
  0
LINE
  5
1E48C
330
1E47E
100
AcDbEntity
  8
30
 62
     0
370
    -2
100
AcDbLine
 10
99.8338932723125
 20
951.2359342129096
 30
0.0
 11
74.55922183669388
 21
951.2359342129096
 31
0.0
  0
LINE
  5
1E48D
330
1E47E
100
AcDbEntity
  8
30
 62
     0
370
    -2
100
AcDbLine
 10
75.05922183669388
 20
963.235933922359
 30
0.0
 11
75.05922183669388
 21
953.2359342129096
 31
0.0
  0
INSERT
  5
1E48E
330
1E47E
100
AcDbEntity
  8
30
 62
     0
370
    -2
100
AcDbBlockReference
  2
_OPEN
 10
75.05922183669388
 20
965.2359339223593
 30
0.0
 41
2.0
 42
2.0
 43
2.0
 50
90.0
  0
INSERT
  5
1E48F
330
1E47E
100
AcDbEntity
  8
30
 62
     0
370
    -2
100
AcDbBlockReference
  2
_OPEN
 10
75.05922183669388
 20
951.2359342129096
 30
0.0
 41
2.0
 42
2.0
 43
2.0
 50
270.0
  0
MTEXT
  5
1E490
330
1E47E
100
AcDbEntity
  8
30
100
AcDbMText
 10
68.05922183669371
 20
958.2359340676344
 30
0.0
 40
8.0
 41
0.0
 46
0.0
 71
     5
 72
     1
  1
\A1;14
 11
0.0000000000000001
 21
1.0
 31
0.0
 73
     1
 44
1.0
 90
        3
 63
     9
421
 13158600
 45
1.25
441
        0
  0
POINT
  5
1E491
330
1E47E
100
AcDbEntity
  8
DEFPOINTS
 62
     0
100
AcDbPoint
 10
100.8338932723125
 20
965.2359339223593
 30
0.0
  0
POINT
  5
1E492
330
1E47E
100
AcDbEntity
  8
DEFPOINTS
 62
     0
100
AcDbPoint
 10
100.8338932723125
 20
951.2359342129096
 30
0.0
  0
POINT
  5
1E493
330
1E47E
100
AcDbEntity
  8
DEFPOINTS
 62
     0
100
AcDbPoint
 10
75.05922183669388
 20
951.2359342129096
 30
0.0
  0
ENDBLK
  5
1E480
330
1E47E
100
AcDbEntity
  8
0
100
AcDbBlockEnd
  0
BLOCK
  5
1E4A5
330
1E4A4
100
AcDbEntity
  8
0
100
AcDbBlockBegin
  2
*D39
 70
     1
 10
0.0
 20
0.0
 30
0.0
  3
*D39
  1

  0
LINE
  5
1E4A6
330
1E4A4
100
AcDbEntity
  8
30
  6
Continuous
 62
     0
370
    -2
100
AcDbLine
 10
116.0
 20
1144.972719700755
 30
0.0
 11
116.0
 21
1236.65237897493
 31
0.0
  0
LINE
  5
1E4A7
330
1E4A4
100
AcDbEntity
  8
30
  6
Continuous
 62
     0
370
    -2
100
AcDbLine
 10
161.0
 20
1184.972719700755
 30
0.0
 11
161.0
 21
1236.65237897493
 31
0.0
  0
LINE
  5
1E4A8
330
1E4A4
100
AcDbEntity
  8
30
  6
Continuous
 62
     0
370
    -2
100
AcDbLine
 10
118.0
 20
1236.15237897493
 30
0.0
 11
159.0
 21
1236.15237897493
 31
0.0
  0
INSERT
  5
1E4A9
330
1E4A4
100
AcDbEntity
  8
30
  6
Continuous
 62
     0
370
    -2
100
AcDbBlockReference
  2
_OPEN
 10
116.0
 20
1236.15237897493
 30
0.0
 41
2.0
 42
2.0
 43
2.0
 50
180.0
  0
INSERT
  5
1E4AA
330
1E4A4
100
AcDbEntity
  8
30
  6
Continuous
 62
     0
370
    -2
100
AcDbBlockReference
  2
_OPEN
 10
161.0
 20
1236.15237897493
 30
0.0
 41
2.0
 42
2.0
 43
2.0
  0
MTEXT
  5
1E4AB
330
1E4A4
100
AcDbEntity
  8
30
  6
Continuous
100
AcDbMText
 10
138.5
 20
1243.15237897493
 30
0.0
 40
8.0
 41
0.0
 46
0.0
 71
     5
 72
     1
  1
\A1;45
 73
     1
 44
1.0
 90
        3
 63
     9
421
 13158600
 45
1.25
441
        0
  0
POINT
  5
1E4AC
330
1E4A4
100
AcDbEntity
  8
DEFPOINTS
  6
Continuous
 62
     0
100
AcDbPoint
 10
116.0
 20
1143.972719700755
 30
0.0
  0
POINT
  5
1E4AD
330
1E4A4
100
AcDbEntity
  8
DEFPOINTS
  6
Continuous
 62
     0
100
AcDbPoint
 10
161.0
 20
1183.972719700755
 30
0.0
  0
POINT
  5
1E4AE
330
1E4A4
100
AcDbEntity
  8
DEFPOINTS
  6
Continuous
 62
     0
100
AcDbPoint
 10
161.0
 20
1236.15237897493
 30
0.0
  0
ENDBLK
  5
1E4AF
330
1E4A4
100
AcDbEntity
  8
0
100
AcDbBlockEnd
  0
BLOCK
  5
1E4B1
330
1E4B0
100
AcDbEntity
  8
0
100
AcDbBlockBegin
  2
*D40
 70
     1
 10
0.0
 20
0.0
 30
0.0
  3
*D40
  1

  0
LINE
  5
1E4B2
330
1E4B0
100
AcDbEntity
  8
30
  6
Continuous
 62
     0
370
    -2
100
AcDbLine
 10
116.0
 20
1135.972719410204
 30
0.0
 11
91.04821711052318
 21
1135.972719410204
 31
0.0
  0
LINE
  5
1E4B3
330
1E4B0
100
AcDbEntity
  8
30
  6
Continuous
 62
     0
370
    -2
100
AcDbLine
 10
116.0
 20
1121.972719410204
 30
0.0
 11
91.04821711052318
 21
1121.972719410204
 31
0.0
  0
LINE
  5
1E4B4
330
1E4B0
100
AcDbEntity
  8
30
  6
Continuous
 62
     0
370
    -2
100
AcDbLine
 10
91.54821711052321
 20
1133.972719410204
 30
0.0
 11
91.54821711052321
 21
1123.972719410204
 31
0.0
  0
LINE
  5
1E4B5
330
1E4B0
100
AcDbEntity
  8
30
  6
Continuous
 62
     0
370
    -2
100
AcDbLine
 10
91.54821711052321
 20
1121.972719410204
 30
0.0
 11
91.54821711052315
 21
1103.306052743537
 31
0.0
  0
INSERT
  5
1E4B6
330
1E4B0
100
AcDbEntity
  8
30
  6
Continuous
 62
     0
370
    -2
100
AcDbBlockReference
  2
_OPEN
 10
91.54821711052321
 20
1135.972719410204
 30
0.0
 41
2.0
 42
2.0
 43
2.0
 50
90.0
  0
INSERT
  5
1E4B7
330
1E4B0
100
AcDbEntity
  8
30
  6
Continuous
 62
     0
370
    -2
100
AcDbBlockReference
  2
_OPEN
 10
91.54821711052321
 20
1121.972719410204
 30
0.0
 41
2.0
 42
2.0
 43
2.0
 50
270.0
  0
MTEXT
  5
1E4B8
330
1E4B0
100
AcDbEntity
  8
30
  6
Continuous
100
AcDbMText
 10
84.548217110523
 20
1111.639386076871
 30
0.0
 40
8.0
 41
0.0
 46
0.0
 71
     5
 72
     1
  1
\A1;14
 11
0.0000000000000001
 21
1.0
 31
0.0
 73
     1
 44
1.0
 90
        3
 63
     9
421
 13158600
 45
1.25
441
        0
  0
POINT
  5
1E4B9
330
1E4B0
100
AcDbEntity
  8
DEFPOINTS
  6
Continuous
 62
     0
100
AcDbPoint
 10
117.0
 20
1135.972719410204
 30
0.0
  0
POINT
  5
1E4BA
330
1E4B0
100
AcDbEntity
  8
DEFPOINTS
  6
Continuous
 62
     0
100
AcDbPoint
 10
117.0
 20
1121.972719410204
 30
0.0
  0
POINT
  5
1E4BB
330
1E4B0
100
AcDbEntity
  8
DEFPOINTS
  6
Continuous
 62
     0
100
AcDbPoint
 10
91.54821711052321
 20
1121.972719410204
 30
0.0
  0
ENDBLK
  5
1E4BC
330
1E4B0
100
AcDbEntity
  8
0
100
AcDbBlockEnd
  0
BLOCK
  5
1E4BE
330
1E4BD
100
AcDbEntity
  8
0
100
AcDbBlockBegin
  2
*D41
 70
     1
 10
0.0
 20
0.0
 30
0.0
  3
*D41
  1

  0
LINE
  5
1E4BF
330
1E4BD
100
AcDbEntity
  8
30
 62
     0
370
    -2
100
AcDbLine
 10
122.5
 20
1134.472719700755
 30
0.0
 11
122.5
 21
1159.284617615105
 31
0.0
  0
LINE
  5
1E4C0
330
1E4BD
100
AcDbEntity
  8
30
 62
     0
370
    -2
100
AcDbLine
 10
109.5
 20
1134.472719700755
 30
0.0
 11
109.5
 21
1159.284617615105
 31
0.0
  0
LINE
  5
1E4C1
330
1E4BD
100
AcDbEntity
  8
30
 62
     0
370
    -2
100
AcDbLine
 10
120.5
 20
1158.784617615104
 30
0.0
 11
111.5
 21
1158.784617615104
 31
0.0
  0
LINE
  5
1E4C2
330
1E4BD
100
AcDbEntity
  8
30
 62
     0
370
    -2
100
AcDbLine
 10
109.5
 20
1158.784617615104
 30
0.0
 11
82.5
 21
1158.784617615104
 31
0.0
  0
INSERT
  5
1E4C3
330
1E4BD
100
AcDbEntity
  8
30
 62
     0
370
    -2
100
AcDbBlockReference
  2
_OPEN
 10
122.5
 20
1158.784617615104
 30
0.0
 41
2.0
 42
2.0
 43
2.0
  0
INSERT
  5
1E4C4
330
1E4BD
100
AcDbEntity
  8
30
 62
     0
370
    -2
100
AcDbBlockReference
  2
_OPEN
 10
109.5
 20
1158.784617615104
 30
0.0
 41
2.0
 42
2.0
 43
2.0
 50
180.0
  0
MTEXT
  5
1E4C5
330
1E4BD
100
AcDbEntity
  8
30
100
AcDbMText
 10
90.83333333333332
 20
1165.784617615104
 30
0.0
 40
8.0
 41
0.0
 46
0.0
 71
     5
 72
     1
  1
\A1;13
 73
     1
 44
1.0
 90
        3
 63
     9
421
 13158600
 45
1.25
441
        0
  0
POINT
  5
1E4C6
330
1E4BD
100
AcDbEntity
  8
DEFPOINTS
 62
     0
100
AcDbPoint
 10
122.5
 20
1133.472719700755
 30
0.0
  0
POINT
  5
1E4C7
330
1E4BD
100
AcDbEntity
  8
DEFPOINTS
 62
     0
100
AcDbPoint
 10
109.5
 20
1133.472719700755
 30
0.0
  0
POINT
  5
1E4C8
330
1E4BD
100
AcDbEntity
  8
DEFPOINTS
 62
     0
100
AcDbPoint
 10
109.5
 20
1158.784617615104
 30
0.0
  0
ENDBLK
  5
1E4C9
330
1E4BD
100
AcDbEntity
  8
0
100
AcDbBlockEnd
  0
BLOCK
  5
1E4CB
330
1E4CA
100
AcDbEntity
  8
0
100
AcDbBlockBegin
  2
*D42
 70
     1
 10
0.0
 20
0.0
 30
0.0
  3
*D42
  1

  0
LINE
  5
1E4CC
330
1E4CA
100
AcDbEntity
  8
30
 62
     0
370
    -2
100
AcDbLine
 10
103.0
 20
1078.472719700755
 30
0.0
 11
53.94239416880918
 21
1078.472719700755
 31
0.0
  0
LINE
  5
1E4CD
330
1E4CA
100
AcDbEntity
  8
30
 62
     0
370
    -2
100
AcDbLine
 10
104.3931234256001
 20
1144.472719343155
 30
0.0
 11
53.94239416880918
 21
1144.472719343155
 31
0.0
  0
LINE
  5
1E4CE
330
1E4CA
100
AcDbEntity
  8
30
 62
     0
370
    -2
100
AcDbLine
 10
54.44239416880917
 20
1080.472719700755
 30
0.0
 11
54.44239416880917
 21
1142.472719343155
 31
0.0
  0
INSERT
  5
1E4CF
330
1E4CA
100
AcDbEntity
  8
30
 62
     0
370
    -2
100
AcDbBlockReference
  2
_OPEN
 10
54.44239416880917
 20
1078.472719700755
 30
0.0
 41
2.0
 42
2.0
 43
2.0
 50
270.0
  0
INSERT
  5
1E4D0
330
1E4CA
100
AcDbEntity
  8
30
 62
     0
370
    -2
100
AcDbBlockReference
  2
_OPEN
 10
54.44239416880917
 20
1144.472719343155
 30
0.0
 41
2.0
 42
2.0
 43
2.0
 50
90.0
  0
MTEXT
  5
1E4D1
330
1E4CA
100
AcDbEntity
  8
30
100
AcDbMText
 10
47.442394168809
 20
1110.933276308419
 30
0.0
 40
8.0
 41
0.0
 46
0.0
 71
     5
 72
     1
  1
\A1;66
 11
0.0000000000000001
 21
1.0
 31
0.0
 73
     1
 44
1.0
 90
        3
 63
     9
421
 13158600
 45
1.25
441
        0
  0
POINT
  5
1E4D2
330
1E4CA
100
AcDbEntity
  8
DEFPOINTS
 62
     0
100
AcDbPoint
 10
104.0
 20
1078.472719700755
 30
0.0
  0
POINT
  5
1E4D3
330
1E4CA
100
AcDbEntity
  8
DEFPOINTS
 62
     0
100
AcDbPoint
 10
105.3931234256001
 20
1144.472719343155
 30
0.0
  0
POINT
  5
1E4D4
330
1E4CA
100
AcDbEntity
  8
DEFPOINTS
 62
     0
100
AcDbPoint
 10
54.44239416880917
 20
1144.472719343155
 30
0.0
  0
ENDBLK
  5
1E4D5
330
1E4CA
100
AcDbEntity
  8
0
100
AcDbBlockEnd
  0
BLOCK
  5
1E4D7
330
1E4D6
100
AcDbEntity
  8
0
100
AcDbBlockBegin
  2
*D43
 70
     1
 10
0.0
 20
0.0
 30
0.0
  3
*D43
  1

  0
LINE
  5
1E4D8
330
1E4D6
100
AcDbEntity
  8
30
 62
     0
370
    -2
100
AcDbLine
 10
130.8931400689772
 20
1136.443570425883
 30
0.0
 11
130.8931400689772
 21
1174.284617548055
 31
0.0
  0
LINE
  5
1E4D9
330
1E4D6
100
AcDbEntity
  8
30
 62
     0
370
    -2
100
AcDbLine
 10
100.9068582172887
 20
1136.443570425708
 30
0.0
 11
100.9068582172887
 21
1174.284617548055
 31
0.0
  0
LINE
  5
1E4DA
330
1E4D6
100
AcDbEntity
  8
30
 62
     0
370
    -2
100
AcDbLine
 10
128.8931400689772
 20
1173.784617548055
 30
0.0
 11
102.9068582172887
 21
1173.784617548055
 31
0.0
  0
INSERT
  5
1E4DB
330
1E4D6
100
AcDbEntity
  8
30
 62
     0
370
    -2
100
AcDbBlockReference
  2
_OPEN
 10
130.8931400689772
 20
1173.784617548055
 30
0.0
 41
2.0
 42
2.0
 43
2.0
  0
INSERT
  5
1E4DC
330
1E4D6
100
AcDbEntity
  8
30
 62
     0
370
    -2
100
AcDbBlockReference
  2
_OPEN
 10
100.9068582172887
 20
1173.784617548055
 30
0.0
 41
2.0
 42
2.0
 43
2.0
 50
180.0
  0
MTEXT
  5
1E4DD
330
1E4D6
100
AcDbEntity
  8
30
100
AcDbMText
 10
115.899999143133
 20
1180.784617548055
 30
0.0
 40
8.0
 41
0.0
 46
0.0
 71
     5
 72
     1
  1
\A1;30
 73
     1
 44
1.0
 90
        3
 63
     9
421
 13158600
 45
1.25
441
        0
  0
POINT
  5
1E4DE
330
1E4D6
100
AcDbEntity
  8
DEFPOINTS
 62
     0
100
AcDbPoint
 10
130.8931400689772
 20
1135.443570425883
 30
0.0
  0
POINT
  5
1E4DF
330
1E4D6
100
AcDbEntity
  8
DEFPOINTS
 62
     0
100
AcDbPoint
 10
100.9068582172887
 20
1135.443570425708
 30
0.0
  0
POINT
  5
1E4E0
330
1E4D6
100
AcDbEntity
  8
DEFPOINTS
 62
     0
100
AcDbPoint
 10
100.9068582172887
 20
1173.784617548055
 30
0.0
  0
ENDBLK
  5
1E4E1
330
1E4D6
100
AcDbEntity
  8
0
100
AcDbBlockEnd
  0
BLOCK
  5
1E4E3
330
1E4E2
100
AcDbEntity
  8
0
100
AcDbBlockBegin
  2
*D44
 70
     1
 10
0.0
 20
0.0
 30
0.0
  3
*D44
  1

  0
LINE
  5
1E4E4
330
1E4E2
100
AcDbEntity
  8
30
 62
     0
370
    -2
100
AcDbLine
 10
107.7999991432
 20
1128.472719410204
 30
0.0
 11
74.34717082775025
 21
1128.472719410204
 31
0.0
  0
LINE
  5
1E4E5
330
1E4E2
100
AcDbEntity
  8
30
 62
     0
370
    -2
100
AcDbLine
 10
100.8000027015996
 20
1078.472719700755
 30
0.0
 11
74.34717082775023
 21
1078.472719700755
 31
0.0
  0
LINE
  5
1E4E6
330
1E4E2
100
AcDbEntity
  8
30
 62
     0
370
    -2
100
AcDbLine
 10
74.84717082775024
 20
1126.472719410204
 30
0.0
 11
74.84717082775024
 21
1080.472719700755
 31
0.0
  0
INSERT
  5
1E4E7
330
1E4E2
100
AcDbEntity
  8
30
 62
     0
370
    -2
100
AcDbBlockReference
  2
_OPEN
 10
74.84717082775024
 20
1128.472719410204
 30
0.0
 41
2.0
 42
2.0
 43
2.0
 50
90.0
  0
INSERT
  5
1E4E8
330
1E4E2
100
AcDbEntity
  8
30
 62
     0
370
    -2
100
AcDbBlockReference
  2
_OPEN
 10
74.84717082775024
 20
1078.472719700755
 30
0.0
 41
2.0
 42
2.0
 43
2.0
 50
270.0
  0
MTEXT
  5
1E4E9
330
1E4E2
100
AcDbEntity
  8
30
100
AcDbMText
 10
67.84717082775006
 20
1103.47271955548
 30
0.0
 40
8.0
 41
0.0
 46
0.0
 71
     5
 72
     1
  1
\A1;50
 11
0.0000000000000001
 21
1.0
 31
0.0
 73
     1
 44
1.0
 90
        3
 63
     9
421
 13158600
 45
1.25
441
        0
  0
POINT
  5
1E4EA
330
1E4E2
100
AcDbEntity
  8
DEFPOINTS
 62
     0
100
AcDbPoint
 10
108.7999991432
 20
1128.472719410204
 30
0.0
  0
POINT
  5
1E4EB
330
1E4E2
100
AcDbEntity
  8
DEFPOINTS
 62
     0
100
AcDbPoint
 10
101.8000027015996
 20
1078.472719700755
 30
0.0
  0
POINT
  5
1E4EC
330
1E4E2
100
AcDbEntity
  8
DEFPOINTS
 62
     0
100
AcDbPoint
 10
74.84717082775024
 20
1078.472719700755
 30
0.0
  0
ENDBLK
  5
1E4ED
330
1E4E2
100
AcDbEntity
  8
0
100
AcDbBlockEnd
  0
BLOCK
  5
1E505
330
1E504
100
AcDbEntity
  8
0
100
AcDbBlockBegin
  2
*D45
 70
     1
 10
0.0
 20
0.0
 30
0.0
  3
*D45
  1

  0
LINE
  5
1E54E
330
1E504
100
AcDbEntity
  8
30
  6
Continuous
 62
     0
370
    -2
100
AcDbLine
 10
362.9740023608911
 20
924.8576855159907
 30
0.0
 11
362.9740023608911
 21
1016.537344790165
 31
0.0
  0
LINE
  5
1E54F
330
1E504
100
AcDbEntity
  8
30
  6
Continuous
 62
     0
370
    -2
100
AcDbLine
 10
407.974002360891
 20
964.8576855159907
 30
0.0
 11
407.974002360891
 21
1016.537344790165
 31
0.0
  0
LINE
  5
1E550
330
1E504
100
AcDbEntity
  8
30
  6
Continuous
 62
     0
370
    -2
100
AcDbLine
 10
364.9740023608911
 20
1016.037344790166
 30
0.0
 11
405.974002360891
 21
1016.037344790166
 31
0.0
  0
INSERT
  5
1E551
330
1E504
100
AcDbEntity
  8
30
  6
Continuous
 62
     0
370
    -2
100
AcDbBlockReference
  2
_OPEN
 10
362.9740023608911
 20
1016.037344790166
 30
0.0
 41
2.0
 42
2.0
 43
2.0
 50
180.0
  0
INSERT
  5
1E552
330
1E504
100
AcDbEntity
  8
30
  6
Continuous
 62
     0
370
    -2
100
AcDbBlockReference
  2
_OPEN
 10
407.974002360891
 20
1016.037344790166
 30
0.0
 41
2.0
 42
2.0
 43
2.0
  0
MTEXT
  5
1E553
330
1E504
100
AcDbEntity
  8
30
  6
Continuous
100
AcDbMText
 10
385.4740023608911
 20
1023.037344790165
 30
0.0
 40
8.0
 41
0.0
 46
0.0
 71
     5
 72
     1
  1
\A1;45
 73
     1
 44
1.0
 90
        3
 63
     9
421
 13158600
 45
1.25
441
        0
  0
POINT
  5
1E554
330
1E504
100
AcDbEntity
  8
DEFPOINTS
  6
Continuous
 62
     0
100
AcDbPoint
 10
362.9740023608911
 20
923.8576855159907
 30
0.0
  0
POINT
  5
1E555
330
1E504
100
AcDbEntity
  8
DEFPOINTS
  6
Continuous
 62
     0
100
AcDbPoint
 10
407.974002360891
 20
963.8576855159907
 30
0.0
  0
POINT
  5
1E556
330
1E504
100
AcDbEntity
  8
DEFPOINTS
  6
Continuous
 62
     0
100
AcDbPoint
 10
407.974002360891
 20
1016.037344790166
 30
0.0
  0
ENDBLK
  5
1E506
330
1E504
100
AcDbEntity
  8
0
100
AcDbBlockEnd
  0
BLOCK
  5
1E511
330
1E510
100
AcDbEntity
  8
0
100
AcDbBlockBegin
  2
*D46
 70
     1
 10
0.0
 20
0.0
 30
0.0
  3
*D46
  1

  0
LINE
  5
1E557
330
1E510
100
AcDbEntity
  8
30
  6
Continuous
 62
     0
370
    -2
100
AcDbLine
 10
362.9740023608911
 20
915.85768522544
 30
0.0
 11
338.0222194714142
 21
915.85768522544
 31
0.0
  0
LINE
  5
1E558
330
1E510
100
AcDbEntity
  8
30
  6
Continuous
 62
     0
370
    -2
100
AcDbLine
 10
362.9740023608911
 20
901.8576852254399
 30
0.0
 11
338.0222194714142
 21
901.8576852254399
 31
0.0
  0
LINE
  5
1E559
330
1E510
100
AcDbEntity
  8
30
  6
Continuous
 62
     0
370
    -2
100
AcDbLine
 10
338.5222194714142
 20
913.85768522544
 30
0.0
 11
338.5222194714142
 21
903.8576852254401
 31
0.0
  0
LINE
  5
1E55A
330
1E510
100
AcDbEntity
  8
30
  6
Continuous
 62
     0
370
    -2
100
AcDbLine
 10
338.5222194714142
 20
901.8576852254399
 30
0.0
 11
338.5222194714142
 21
883.1910185587732
 31
0.0
  0
INSERT
  5
1E55B
330
1E510
100
AcDbEntity
  8
30
  6
Continuous
 62
     0
370
    -2
100
AcDbBlockReference
  2
_OPEN
 10
338.5222194714142
 20
915.85768522544
 30
0.0
 41
2.0
 42
2.0
 43
2.0
 50
90.0
  0
INSERT
  5
1E55C
330
1E510
100
AcDbEntity
  8
30
  6
Continuous
 62
     0
370
    -2
100
AcDbBlockReference
  2
_OPEN
 10
338.5222194714142
 20
901.8576852254399
 30
0.0
 41
2.0
 42
2.0
 43
2.0
 50
270.0
  0
MTEXT
  5
1E55D
330
1E510
100
AcDbEntity
  8
30
  6
Continuous
100
AcDbMText
 10
331.5222194714142
 20
891.5243518921068
 30
0.0
 40
8.0
 41
0.0
 46
0.0
 71
     5
 72
     1
  1
\A1;14
 11
0.0000000000000001
 21
1.0
 31
0.0
 73
     1
 44
1.0
 90
        3
 63
     9
421
 13158600
 45
1.25
441
        0
  0
POINT
  5
1E55E
330
1E510
100
AcDbEntity
  8
DEFPOINTS
  6
Continuous
 62
     0
100
AcDbPoint
 10
363.9740023608911
 20
915.85768522544
 30
0.0
  0
POINT
  5
1E55F
330
1E510
100
AcDbEntity
  8
DEFPOINTS
  6
Continuous
 62
     0
100
AcDbPoint
 10
363.9740023608911
 20
901.8576852254399
 30
0.0
  0
POINT
  5
1E560
330
1E510
100
AcDbEntity
  8
DEFPOINTS
  6
Continuous
 62
     0
100
AcDbPoint
 10
338.5222194714142
 20
901.8576852254399
 30
0.0
  0
ENDBLK
  5
1E512
330
1E510
100
AcDbEntity
  8
0
100
AcDbBlockEnd
  0
BLOCK
  5
1E51E
330
1E51D
100
AcDbEntity
  8
0
100
AcDbBlockBegin
  2
*D47
 70
     1
 10
0.0
 20
0.0
 30
0.0
  3
*D47
  1

  0
LINE
  5
1E561
330
1E51D
100
AcDbEntity
  8
30
 62
     0
370
    -2
100
AcDbLine
 10
369.4740023608911
 20
914.3576855159906
 30
0.0
 11
369.4740023608911
 21
939.1695834303403
 31
0.0
  0
LINE
  5
1E562
330
1E51D
100
AcDbEntity
  8
30
 62
     0
370
    -2
100
AcDbLine
 10
356.4740023608911
 20
914.3576855159906
 30
0.0
 11
356.4740023608911
 21
939.1695834303403
 31
0.0
  0
LINE
  5
1E563
330
1E51D
100
AcDbEntity
  8
30
 62
     0
370
    -2
100
AcDbLine
 10
367.4740023608911
 20
938.6695834303404
 30
0.0
 11
358.4740023608911
 21
938.6695834303404
 31
0.0
  0
LINE
  5
1E564
330
1E51D
100
AcDbEntity
  8
30
 62
     0
370
    -2
100
AcDbLine
 10
356.4740023608911
 20
938.6695834303404
 30
0.0
 11
329.4740023608911
 21
938.6695834303404
 31
0.0
  0
INSERT
  5
1E565
330
1E51D
100
AcDbEntity
  8
30
 62
     0
370
    -2
100
AcDbBlockReference
  2
_OPEN
 10
369.4740023608911
 20
938.6695834303404
 30
0.0
 41
2.0
 42
2.0
 43
2.0
  0
INSERT
  5
1E566
330
1E51D
100
AcDbEntity
  8
30
 62
     0
370
    -2
100
AcDbBlockReference
  2
_OPEN
 10
356.4740023608911
 20
938.6695834303404
 30
0.0
 41
2.0
 42
2.0
 43
2.0
 50
180.0
  0
MTEXT
  5
1E567
330
1E51D
100
AcDbEntity
  8
30
100
AcDbMText
 10
337.8073356942244
 20
945.6695834303403
 30
0.0
 40
8.0
 41
0.0
 46
0.0
 71
     5
 72
     1
  1
\A1;13
 73
     1
 44
1.0
 90
        3
 63
     9
421
 13158600
 45
1.25
441
        0
  0
POINT
  5
1E568
330
1E51D
100
AcDbEntity
  8
DEFPOINTS
 62
     0
100
AcDbPoint
 10
369.4740023608911
 20
913.3576855159907
 30
0.0
  0
POINT
  5
1E569
330
1E51D
100
AcDbEntity
  8
DEFPOINTS
 62
     0
100
AcDbPoint
 10
356.4740023608911
 20
913.3576855159907
 30
0.0
  0
POINT
  5
1E56A
330
1E51D
100
AcDbEntity
  8
DEFPOINTS
 62
     0
100
AcDbPoint
 10
356.4740023608911
 20
938.6695834303404
 30
0.0
  0
ENDBLK
  5
1E51F
330
1E51D
100
AcDbEntity
  8
0
100
AcDbBlockEnd
  0
BLOCK
  5
1E52B
330
1E52A
100
AcDbEntity
  8
0
100
AcDbBlockBegin
  2
*D48
 70
     1
 10
0.0
 20
0.0
 30
0.0
  3
*D48
  1

  0
LINE
  5
1E56B
330
1E52A
100
AcDbEntity
  8
30
 62
     0
370
    -2
100
AcDbLine
 10
349.9740023608911
 20
858.3576855159908
 30
0.0
 11
300.9163965297002
 21
858.3576855159908
 31
0.0
  0
LINE
  5
1E56C
330
1E52A
100
AcDbEntity
  8
30
 62
     0
370
    -2
100
AcDbLine
 10
351.3671257864912
 20
924.3576851583908
 30
0.0
 11
300.9163965297002
 21
924.3576851583908
 31
0.0
  0
LINE
  5
1E56D
330
1E52A
100
AcDbEntity
  8
30
 62
     0
370
    -2
100
AcDbLine
 10
301.4163965297002
 20
860.3576855159909
 30
0.0
 11
301.4163965297003
 21
922.3576851583906
 31
0.0
  0
INSERT
  5
1E56E
330
1E52A
100
AcDbEntity
  8
30
 62
     0
370
    -2
100
AcDbBlockReference
  2
_OPEN
 10
301.4163965297002
 20
858.3576855159908
 30
0.0
 41
2.0
 42
2.0
 43
2.0
 50
270.0
  0
INSERT
  5
1E56F
330
1E52A
100
AcDbEntity
  8
30
 62
     0
370
    -2
100
AcDbBlockReference
  2
_OPEN
 10
301.4163965297003
 20
924.3576851583908
 30
0.0
 41
2.0
 42
2.0
 43
2.0
 50
90.0
  0
MTEXT
  5
1E570
330
1E52A
100
AcDbEntity
  8
30
100
AcDbMText
 10
294.4163965297001
 20
890.8182421236555
 30
0.0
 40
8.0
 41
0.0
 46
0.0
 71
     5
 72
     1
  1
\A1;66
 11
0.0000000000000001
 21
1.0
 31
0.0
 73
     1
 44
1.0
 90
        3
 63
     9
421
 13158600
 45
1.25
441
        0
  0
POINT
  5
1E571
330
1E52A
100
AcDbEntity
  8
DEFPOINTS
 62
     0
100
AcDbPoint
 10
350.9740023608911
 20
858.3576855159908
 30
0.0
  0
POINT
  5
1E572
330
1E52A
100
AcDbEntity
  8
DEFPOINTS
 62
     0
100
AcDbPoint
 10
352.3671257864912
 20
924.3576851583908
 30
0.0
  0
POINT
  5
1E573
330
1E52A
100
AcDbEntity
  8
DEFPOINTS
 62
     0
100
AcDbPoint
 10
301.4163965297003
 20
924.3576851583908
 30
0.0
  0
ENDBLK
  5
1E52C
330
1E52A
100
AcDbEntity
  8
0
100
AcDbBlockEnd
  0
BLOCK
  5
1E537
330
1E536
100
AcDbEntity
  8
0
100
AcDbBlockBegin
  2
*D49
 70
     1
 10
0.0
 20
0.0
 30
0.0
  3
*D49
  1

  0
LINE
  5
1E574
330
1E536
100
AcDbEntity
  8
30
 62
     0
370
    -2
100
AcDbLine
 10
377.8671424298683
 20
916.3285362411192
 30
0.0
 11
377.8671424298683
 21
954.1695833632912
 31
0.0
  0
LINE
  5
1E575
330
1E536
100
AcDbEntity
  8
30
 62
     0
370
    -2
100
AcDbLine
 10
347.8808605781798
 20
916.3285362409443
 30
0.0
 11
347.8808605781798
 21
954.1695833632912
 31
0.0
  0
LINE
  5
1E576
330
1E536
100
AcDbEntity
  8
30
 62
     0
370
    -2
100
AcDbLine
 10
375.8671424298683
 20
953.6695833632913
 30
0.0
 11
349.8808605781798
 21
953.6695833632913
 31
0.0
  0
INSERT
  5
1E577
330
1E536
100
AcDbEntity
  8
30
 62
     0
370
    -2
100
AcDbBlockReference
  2
_OPEN
 10
377.8671424298683
 20
953.6695833632913
 30
0.0
 41
2.0
 42
2.0
 43
2.0
  0
INSERT
  5
1E578
330
1E536
100
AcDbEntity
  8
30
 62
     0
370
    -2
100
AcDbBlockReference
  2
_OPEN
 10
347.8808605781798
 20
953.6695833632913
 30
0.0
 41
2.0
 42
2.0
 43
2.0
 50
180.0
  0
MTEXT
  5
1E579
330
1E536
100
AcDbEntity
  8
30
100
AcDbMText
 10
362.874001504024
 20
960.6695833632912
 30
0.0
 40
8.0
 41
0.0
 46
0.0
 71
     5
 72
     1
  1
\A1;30
 73
     1
 44
1.0
 90
        3
 63
     9
421
 13158600
 45
1.25
441
        0
  0
POINT
  5
1E57A
330
1E536
100
AcDbEntity
  8
DEFPOINTS
 62
     0
100
AcDbPoint
 10
377.8671424298683
 20
915.3285362411192
 30
0.0
  0
POINT
  5
1E57B
330
1E536
100
AcDbEntity
  8
DEFPOINTS
 62
     0
100
AcDbPoint
 10
347.8808605781798
 20
915.3285362409443
 30
0.0
  0
POINT
  5
1E57C
330
1E536
100
AcDbEntity
  8
DEFPOINTS
 62
     0
100
AcDbPoint
 10
347.8808605781798
 20
953.6695833632913
 30
0.0
  0
ENDBLK
  5
1E538
330
1E536
100
AcDbEntity
  8
0
100
AcDbBlockEnd
  0
BLOCK
  5
1E543
330
1E542
100
AcDbEntity
  8
0
100
AcDbBlockBegin
  2
*D50
 70
     1
 10
0.0
 20
0.0
 30
0.0
  3
*D50
  1

  0
LINE
  5
1E57D
330
1E542
100
AcDbEntity
  8
30
 62
     0
370
    -2
100
AcDbLine
 10
354.7740015040911
 20
908.3576852254401
 30
0.0
 11
321.3211731886413
 21
908.3576852254401
 31
0.0
  0
LINE
  5
1E57E
330
1E542
100
AcDbEntity
  8
30
 62
     0
370
    -2
100
AcDbLine
 10
347.7740050624907
 20
858.3576855159908
 30
0.0
 11
321.3211731886413
 21
858.3576855159908
 31
0.0
  0
LINE
  5
1E57F
330
1E542
100
AcDbEntity
  8
30
 62
     0
370
    -2
100
AcDbLine
 10
321.8211731886413
 20
906.3576852254399
 30
0.0
 11
321.8211731886413
 21
860.3576855159909
 31
0.0
  0
INSERT
  5
1E580
330
1E542
100
AcDbEntity
  8
30
 62
     0
370
    -2
100
AcDbBlockReference
  2
_OPEN
 10
321.8211731886413
 20
908.3576852254401
 30
0.0
 41
2.0
 42
2.0
 43
2.0
 50
90.0
  0
INSERT
  5
1E581
330
1E542
100
AcDbEntity
  8
30
 62
     0
370
    -2
100
AcDbBlockReference
  2
_OPEN
 10
321.8211731886413
 20
858.3576855159908
 30
0.0
 41
2.0
 42
2.0
 43
2.0
 50
270.0
  0
MTEXT
  5
1E582
330
1E542
100
AcDbEntity
  8
30
100
AcDbMText
 10
314.8211731886412
 20
883.3576853707155
 30
0.0
 40
8.0
 41
0.0
 46
0.0
 71
     5
 72
     1
  1
\A1;50
 11
0.0000000000000001
 21
1.0
 31
0.0
 73
     1
 44
1.0
 90
        3
 63
     9
421
 13158600
 45
1.25
441
        0
  0
POINT
  5
1E583
330
1E542
100
AcDbEntity
  8
DEFPOINTS
 62
     0
100
AcDbPoint
 10
355.7740015040911
 20
908.3576852254401
 30
0.0
  0
POINT
  5
1E584
330
1E542
100
AcDbEntity
  8
DEFPOINTS
 62
     0
100
AcDbPoint
 10
348.7740050624907
 20
858.3576855159908
 30
0.0
  0
POINT
  5
1E585
330
1E542
100
AcDbEntity
  8
DEFPOINTS
 62
     0
100
AcDbPoint
 10
321.8211731886413
 20
858.3576855159908
 30
0.0
  0
ENDBLK
  5
1E544
330
1E542
100
AcDbEntity
  8
0
100
AcDbBlockEnd
  0
BLOCK
  5
1E589
330
1E588
100
AcDbEntity
  8
0
100
AcDbBlockBegin
  2
*D51
 70
     1
 10
0.0
 20
0.0
 30
0.0
  3
*D51
  1

  0
LINE
  5
1E5A0
330
1E588
100
AcDbEntity
  8
30
 62
     0
440
 16777216
370
    -2
100
AcDbLine
 10
87.8338941291124
 20
907.7359342129099
 30
0.0
 11
38.77628829792158
 21
907.7359342129099
 31
0.0
  0
LINE
  5
1E5A1
330
1E588
100
AcDbEntity
  8
30
 62
     0
440
 16777216
370
    -2
100
AcDbLine
 10
89.22701755471257
 20
973.7359338553098
 30
0.0
 11
38.7762882979216
 21
973.7359338553098
 31
0.0
  0
LINE
  5
1E5A2
330
1E588
100
AcDbEntity
  8
30
 62
     0
440
 16777216
370
    -2
100
AcDbLine
 10
39.27628829792157
 20
909.7359342129101
 30
0.0
 11
39.27628829792161
 21
971.7359338553098
 31
0.0
  0
INSERT
  5
1E5A3
330
1E588
100
AcDbEntity
  8
30
 62
     0
440
 16777216
370
    -2
100
AcDbBlockReference
  2
_OPEN
 10
39.27628829792157
 20
907.7359342129099
 30
0.0
 41
2.0
 42
2.0
 43
2.0
 50
270.0
  0
INSERT
  5
1E5A4
330
1E588
100
AcDbEntity
  8
30
 62
     0
440
 16777216
370
    -2
100
AcDbBlockReference
  2
_OPEN
 10
39.27628829792161
 20
973.7359338553098
 30
0.0
 41
2.0
 42
2.0
 43
2.0
 50
90.0
  0
MTEXT
  5
1E5A5
330
1E588
100
AcDbEntity
  8
30
440
 16777216
100
AcDbMText
 10
32.27628829792144
 20
940.1964908205743
 30
0.0
 40
8.0
 41
0.0
 46
0.0
 71
     5
 72
     1
  1
\A1;66
 11
0.0000000000000001
 21
1.0
 31
0.0
 73
     1
 44
1.0
 90
        3
 63
     9
421
 13158600
 45
1.25
441
        0
  0
POINT
  5
1E5A6
330
1E588
100
AcDbEntity
  8
DEFPOINTS
 62
     0
440
 16777216
100
AcDbPoint
 10
88.8338941291124
 20
907.7359342129099
 30
0.0
  0
POINT
  5
1E5A7
330
1E588
100
AcDbEntity
  8
DEFPOINTS
 62
     0
440
 16777216
100
AcDbPoint
 10
90.22701755471258
 20
973.7359338553098
 30
0.0
  0
POINT
  5
1E5A8
330
1E588
100
AcDbEntity
  8
DEFPOINTS
 62
     0
440
 16777216
100
AcDbPoint
 10
39.27628829792161
 20
973.7359338553098
 30
0.0
  0
ENDBLK
  5
1E58A
330
1E588
100
AcDbEntity
  8
0
100
AcDbBlockEnd
  0
BLOCK
  5
1E595
330
1E594
100
AcDbEntity
  8
0
100
AcDbBlockBegin
  2
*D52
 70
     1
 10
0.0
 20
0.0
 30
0.0
  3
*D52
  1

  0
LINE
  5
1E5A9
330
1E594
100
AcDbEntity
  8
30
 62
     0
440
 16777216
370
    -2
100
AcDbLine
 10
92.6338932723125
 20
957.7359339223587
 30
0.0
 11
59.18106495686267
 21
957.7359339223587
 31
0.0
  0
LINE
  5
1E5AA
330
1E594
100
AcDbEntity
  8
30
 62
     0
440
 16777216
370
    -2
100
AcDbLine
 10
85.63389683071205
 20
907.7359342129099
 30
0.0
 11
59.18106495686267
 21
907.7359342129099
 31
0.0
  0
LINE
  5
1E5AB
330
1E594
100
AcDbEntity
  8
30
 62
     0
440
 16777216
370
    -2
100
AcDbLine
 10
59.68106495686267
 20
955.7359339223593
 30
0.0
 11
59.68106495686265
 21
909.7359342129101
 31
0.0
  0
INSERT
  5
1E5AC
330
1E594
100
AcDbEntity
  8
30
 62
     0
440
 16777216
370
    -2
100
AcDbBlockReference
  2
_OPEN
 10
59.68106495686267
 20
957.7359339223587
 30
0.0
 41
2.0
 42
2.0
 43
2.0
 50
90.0
  0
INSERT
  5
1E5AD
330
1E594
100
AcDbEntity
  8
30
 62
     0
440
 16777216
370
    -2
100
AcDbBlockReference
  2
_OPEN
 10
59.68106495686265
 20
907.7359342129099
 30
0.0
 41
2.0
 42
2.0
 43
2.0
 50
270.0
  0
MTEXT
  5
1E5AE
330
1E594
100
AcDbEntity
  8
30
440
 16777216
100
AcDbMText
 10
52.6810649568625
 20
932.7359340676343
 30
0.0
 40
8.0
 41
0.0
 46
0.0
 71
     5
 72
     1
  1
\A1;50
 11
0.0000000000000001
 21
1.0
 31
0.0
 73
     1
 44
1.0
 90
        3
 63
     9
421
 13158600
 45
1.25
441
        0
  0
POINT
  5
1E5AF
330
1E594
100
AcDbEntity
  8
DEFPOINTS
 62
     0
440
 16777216
100
AcDbPoint
 10
93.63389327231249
 20
957.7359339223587
 30
0.0
  0
POINT
  5
1E5B0
330
1E594
100
AcDbEntity
  8
DEFPOINTS
 62
     0
440
 16777216
100
AcDbPoint
 10
86.63389683071205
 20
907.7359342129099
 30
0.0
  0
POINT
  5
1E5B1
330
1E594
100
AcDbEntity
  8
DEFPOINTS
 62
     0
440
 16777216
100
AcDbPoint
 10
59.68106495686265
 20
907.7359342129099
 30
0.0
  0
ENDBLK
  5
1E596
330
1E594
100
AcDbEntity
  8
0
100
AcDbBlockEnd
  0
BLOCK
  5
1E5B4
330
1E5B3
100
AcDbEntity
  8
0
100
AcDbBlockBegin
  2
*D53
 70
     1
 10
0.0
 20
0.0
 30
0.0
  3
*D53
  1

  0
LINE
  5
1E5C0
330
1E5B3
100
AcDbEntity
  8
30
  6
Continuous
 62
     0
440
 16777216
370
    -2
100
AcDbLine
 10
100.8338941291124
 20
965.2359339223593
 30
0.0
 11
75.88211123963559
 21
965.2359339223593
 31
0.0
  0
LINE
  5
1E5C1
330
1E5B3
100
AcDbEntity
  8
30
  6
Continuous
 62
     0
440
 16777216
370
    -2
100
AcDbLine
 10
100.8338941291124
 20
951.2359339223593
 30
0.0
 11
75.88211123963559
 21
951.2359339223593
 31
0.0
  0
LINE
  5
1E5C2
330
1E5B3
100
AcDbEntity
  8
30
  6
Continuous
 62
     0
440
 16777216
370
    -2
100
AcDbLine
 10
76.38211123963561
 20
963.235933922359
 30
0.0
 11
76.38211123963561
 21
953.2359339223592
 31
0.0
  0
LINE
  5
1E5C3
330
1E5B3
100
AcDbEntity
  8
30
  6
Continuous
 62
     0
440
 16777216
370
    -2
100
AcDbLine
 10
76.38211123963561
 20
951.2359339223593
 30
0.0
 11
76.38211123963561
 21
932.5692672556924
 31
0.0
  0
INSERT
  5
1E5C4
330
1E5B3
100
AcDbEntity
  8
30
  6
Continuous
 62
     0
440
 16777216
370
    -2
100
AcDbBlockReference
  2
_OPEN
 10
76.38211123963561
 20
965.2359339223593
 30
0.0
 41
2.0
 42
2.0
 43
2.0
 50
90.0
  0
INSERT
  5
1E5C5
330
1E5B3
100
AcDbEntity
  8
30
  6
Continuous
 62
     0
440
 16777216
370
    -2
100
AcDbBlockReference
  2
_OPEN
 10
76.38211123963561
 20
951.2359339223593
 30
0.0
 41
2.0
 42
2.0
 43
2.0
 50
270.0
  0
MTEXT
  5
1E5C6
330
1E5B3
100
AcDbEntity
  8
30
  6
Continuous
440
 16777216
100
AcDbMText
 10
69.38211123963545
 20
940.9026005890256
 30
0.0
 40
8.0
 41
0.0
 46
0.0
 71
     5
 72
     1
  1
\A1;14
 11
0.0000000000000001
 21
1.0
 31
0.0
 73
     1
 44
1.0
 90
        3
 63
     9
421
 13158600
 45
1.25
441
        0
  0
POINT
  5
1E5C7
330
1E5B3
100
AcDbEntity
  8
DEFPOINTS
  6
Continuous
 62
     0
440
 16777216
100
AcDbPoint
 10
101.8338941291124
 20
965.2359339223593
 30
0.0
  0
POINT
  5
1E5C8
330
1E5B3
100
AcDbEntity
  8
DEFPOINTS
  6
Continuous
 62
     0
440
 16777216
100
AcDbPoint
 10
101.8338941291124
 20
951.2359339223593
 30
0.0
  0
POINT
  5
1E5C9
330
1E5B3
100
AcDbEntity
  8
DEFPOINTS
  6
Continuous
 62
     0
440
 16777216
100
AcDbPoint
 10
76.38211123963561
 20
951.2359339223593
 30
0.0
  0
ENDBLK
  5
1E5B5
330
1E5B3
100
AcDbEntity
  8
0
100
AcDbBlockEnd
  0
BLOCK
  5
1E644
330
1E643
100
AcDbEntity
  8
0
100
AcDbBlockBegin
  2
*D57
 70
     1
 10
0.0
 20
0.0
 30
0.0
  3
*D57
  1

  0
LINE
  5
1E646
330
1E643
100
AcDbEntity
  8
30
 62
     0
440
 16777216
370
    -2
100
AcDbLine
 10
100.8338932723124
 20
959.7359339223592
 30
0.0
 11
100.8338932723124
 21
1062.944108689452
 31
0.0
  0
LINE
  5
1E647
330
1E643
100
AcDbEntity
  8
30
 62
     0
440
 16777216
370
    -2
100
AcDbLine
 10
145.8588949859125
 20
1024.735933922359
 30
0.0
 11
145.8588949859125
 21
1062.944108689452
 31
0.0
  0
LINE
  5
1E648
330
1E643
100
AcDbEntity
  8
30
 62
     0
440
 16777216
370
    -2
100
AcDbLine
 10
102.8338932723124
 20
1062.444108689452
 30
0.0
 11
143.8588949859125
 21
1062.444108689452
 31
0.0
  0
INSERT
  5
1E649
330
1E643
100
AcDbEntity
  8
30
 62
     0
440
 16777216
370
    -2
100
AcDbBlockReference
  2
_OPEN
 10
100.8338932723124
 20
1062.444108689452
 30
0.0
 41
2.0
 42
2.0
 43
2.0
 50
180.0
  0
INSERT
  5
1E64A
330
1E643
100
AcDbEntity
  8
30
 62
     0
440
 16777216
370
    -2
100
AcDbBlockReference
  2
_OPEN
 10
145.8588949859125
 20
1062.444108689452
 30
0.0
 41
2.0
 42
2.0
 43
2.0
  0
MTEXT
  5
1E64B
330
1E643
100
AcDbEntity
  8
30
440
 16777216
100
AcDbMText
 10
123.3463941291125
 20
1069.444108689452
 30
0.0
 40
8.0
 41
0.0
 46
0.0
 71
     5
 72
     1
  1
\A1;45
 73
     1
 44
1.0
 90
        3
 63
     9
421
 13158600
 45
1.25
441
        0
  0
POINT
  5
1E64C
330
1E643
100
AcDbEntity
  8
DEFPOINTS
 62
     0
440
 16777216
100
AcDbPoint
 10
100.8338932723124
 20
958.7359339223592
 30
0.0
  0
POINT
  5
1E64D
330
1E643
100
AcDbEntity
  8
DEFPOINTS
 62
     0
440
 16777216
100
AcDbPoint
 10
145.8588949859125
 20
1023.735933922359
 30
0.0
  0
POINT
  5
1E64E
330
1E643
100
AcDbEntity
  8
DEFPOINTS
 62
     0
440
 16777216
100
AcDbPoint
 10
145.8588949859125
 20
1062.444108689452
 30
0.0
  0
ENDBLK
  5
1E645
330
1E643
100
AcDbEntity
  8
0
100
AcDbBlockEnd
  0
BLOCK
  5
1E651
330
1E650
100
AcDbEntity
  8
0
100
AcDbBlockBegin
  2
*D58
 70
     1
 10
0.0
 20
0.0
 30
0.0
  3
*D58
  1

  0
LINE
  5
1E653
330
1E650
100
AcDbEntity
  8
30
 62
     0
440
 16777216
370
    -2
100
AcDbLine
 10
145.8588949859125
 20
1024.735933922359
 30
0.0
 11
145.8588949859125
 21
1062.944108689452
 31
0.0
  0
LINE
  5
1E654
330
1E650
100
AcDbEntity
  8
30
 62
     0
440
 16777216
370
    -2
100
AcDbLine
 10
190.8338949859124
 20
959.7359339223592
 30
0.0
 11
190.8338949859124
 21
1062.944108689452
 31
0.0
  0
LINE
  5
1E655
330
1E650
100
AcDbEntity
  8
30
 62
     0
440
 16777216
370
    -2
100
AcDbLine
 10
147.8588949859125
 20
1062.444108689452
 30
0.0
 11
188.8338949859124
 21
1062.444108689452
 31
0.0
  0
INSERT
  5
1E656
330
1E650
100
AcDbEntity
  8
30
 62
     0
440
 16777216
370
    -2
100
AcDbBlockReference
  2
_OPEN
 10
145.8588949859125
 20
1062.444108689452
 30
0.0
 41
2.0
 42
2.0
 43
2.0
 50
180.0
  0
INSERT
  5
1E657
330
1E650
100
AcDbEntity
  8
30
 62
     0
440
 16777216
370
    -2
100
AcDbBlockReference
  2
_OPEN
 10
190.8338949859124
 20
1062.444108689452
 30
0.0
 41
2.0
 42
2.0
 43
2.0
  0
MTEXT
  5
1E658
330
1E650
100
AcDbEntity
  8
30
440
 16777216
100
AcDbMText
 10
168.3463949859124
 20
1069.444108689452
 30
0.0
 40
8.0
 41
0.0
 46
0.0
 71
     5
 72
     1
  1
\A1;45
 73
     1
 44
1.0
 90
        3
 63
     9
421
 13158600
 45
1.25
441
        0
  0
POINT
  5
1E659
330
1E650
100
AcDbEntity
  8
DEFPOINTS
 62
     0
440
 16777216
100
AcDbPoint
 10
145.8588949859125
 20
1023.735933922359
 30
0.0
  0
POINT
  5
1E65A
330
1E650
100
AcDbEntity
  8
DEFPOINTS
 62
     0
440
 16777216
100
AcDbPoint
 10
190.8338949859124
 20
958.7359339223592
 30
0.0
  0
POINT
  5
1E65B
330
1E650
100
AcDbEntity
  8
DEFPOINTS
 62
     0
440
 16777216
100
AcDbPoint
 10
190.8338949859124
 20
1062.444108689452
 30
0.0
  0
ENDBLK
  5
1E652
330
1E650
100
AcDbEntity
  8
0
100
AcDbBlockEnd
  0
BLOCK
  5
1E787
330
1E786
100
AcDbEntity
  8
0
100
AcDbBlockBegin
  2
*D62
 70
     1
 10
0.0
 20
0.0
 30
0.0
  3
*D62
  1

  0
LINE
  5
1E789
330
1E786
100
AcDbEntity
  8
30
 62
     0
440
 16777216
370
    -2
100
AcDbLine
 10
644.1123821502892
 20
722.4938972774823
 30
0.0
 11
664.1506210339057
 21
722.4938972774823
 31
0.0
  0
LINE
  5
1E78A
330
1E786
100
AcDbEntity
  8
30
 62
     0
440
 16777216
370
    -2
100
AcDbLine
 10
644.1123821502892
 20
714.4938972774824
 30
0.0
 11
664.1506210339057
 21
714.4938972774824
 31
0.0
  0
LINE
  5
1E78B
330
1E786
100
AcDbEntity
  8
30
 62
     0
440
 16777216
370
    -2
100
AcDbLine
 10
663.6506210339057
 20
724.4938972774823
 30
0.0
 11
663.6506210339057
 21
726.4938972774823
 31
0.0
  0
LINE
  5
1E78C
330
1E786
100
AcDbEntity
  8
30
 62
     0
440
 16777216
370
    -2
100
AcDbLine
 10
663.6506210339057
 20
712.4938972774823
 30
0.0
 11
663.6506210339057
 21
699.1605639441489
 31
0.0
  0
INSERT
  5
1E78D
330
1E786
100
AcDbEntity
  8
30
 62
     0
440
 16777216
370
    -2
100
AcDbBlockReference
  2
_OPEN
 10
663.6506210339057
 20
722.4938972774823
 30
0.0
 41
2.0
 42
2.0
 43
2.0
 50
270.0
  0
INSERT
  5
1E78E
330
1E786
100
AcDbEntity
  8
30
 62
     0
440
 16777216
370
    -2
100
AcDbBlockReference
  2
_OPEN
 10
663.6506210339057
 20
714.4938972774824
 30
0.0
 41
2.0
 42
2.0
 43
2.0
 50
90.0
  0
MTEXT
  5
1E78F
330
1E786
100
AcDbEntity
  8
30
440
 16777216
100
AcDbMText
 10
656.6506210339056
 20
704.8272306108158
 30
0.0
 40
8.0
 41
0.0
 46
0.0
 71
     5
 72
     1
  1
\A1;8
 11
0.0000000000000001
 21
1.0
 31
0.0
 73
     1
 44
1.0
 90
        3
 63
     9
421
 13158600
 45
1.25
441
        0
  0
POINT
  5
1E790
330
1E786
100
AcDbEntity
  8
DEFPOINTS
 62
     0
440
 16777216
100
AcDbPoint
 10
643.1123821502892
 20
722.4938972774823
 30
0.0
  0
POINT
  5
1E791
330
1E786
100
AcDbEntity
  8
DEFPOINTS
 62
     0
440
 16777216
100
AcDbPoint
 10
643.1123821502892
 20
714.4938972774824
 30
0.0
  0
POINT
  5
1E792
330
1E786
100
AcDbEntity
  8
DEFPOINTS
 62
     0
440
 16777216
100
AcDbPoint
 10
663.6506210339057
 20
714.4938972774824
 30
0.0
  0
ENDBLK
  5
1E788
330
1E786
100
AcDbEntity
  8
0
100
AcDbBlockEnd
  0
ENDSEC
  0
SECTION
  2
ENTITIES
  0
LWPOLYLINE
  5
1D31B
330
1E
100
AcDbEntity
  8
10
380
     2
100
AcDbPolyline
 90
        4
 70
     1
 43
0.0
 10
700.0
 20
0.0
 10
700.0
 20
1088.0
 10
0.0
 20
1088.0
 10
0.0
 20
0.0
  0
LWPOLYLINE
  5
1DA7A
330
1E
100
AcDbEntity
  8
10
380
     2
100
AcDbPolyline
 90
        4
 70
     1
 43
0.0
 10
700.0
 20
0.0
 10
700.0
 20
1088.0
 10
0.0
 20
1088.0
 10
0.0
 20
0.0
  0
LINE
  5
1E046
330
1E
100
AcDbEntity
  8
16
 48
2.0
100
AcDbLine
 10
146.734733049062
 20
470.7801883965117
 30
0.0
 11
146.734733049062
 21
739.1232929885805
 31
0.0
  0
LINE
  5
1E047
330
1E
100
AcDbEntity
  8
16
 48
2.0
100
AcDbLine
 10
219.4271645339149
 20
604.4938972774822
 30
0.0
 11
62.82885126790461
 21
604.4938972774822
 31
0.0
  0
LINE
  5
1E048
330
1E
100
AcDbEntity
  8
16
 48
2.0
100
AcDbLine
 10
530.8125085597549
 20
604.4938972774822
 30
0.0
 11
375.2218850047366
 21
604.4938972774822
 31
0.0
  0
LINE
  5
1E049
330
1E
100
AcDbEntity
  8
16
 48
2.0
100
AcDbLine
 10
146.2839548768725
 20
64.82521823169157
 30
0.0
 11
146.2839548768725
 21
363.5282266901891
 31
0.0
  0
LINE
  5
1E04A
330
1E
100
AcDbEntity
  8
16
 48
2.0
100
AcDbLine
 10
229.1741446301098
 20
211.4531278759599
 30
0.0
 11
69.00062237024258
 21
211.4531278759599
 31
0.0
  0
LINE
  5
1E04B
330
1E
100
AcDbEntity
  8
16
 48
2.0
100
AcDbLine
 10
146.3338949859126
 20
743.0831025734137
 30
0.0
 11
145.8588949859125
 21
1024.735933922359
 31
0.0
  0
MTEXT
  5
1E04C
330
1E
100
AcDbEntity
  8
19
  6
Continuous
100
AcDbMText
 10
468.9255324443627
 20
1028.777972880424
 30
0.0
 40
10.0
 41
222.4136141959097
 46
33.24212607274502
 71
     1
 72
     5
  1
PS630-CF 3P RC\PPS630-NF 3P RC\PPS630-GF 3P RC\PPS630-NE 3P RC\PPS630-GE 3P RC\PPH630-CF 3P RC\PPH630-CE 3P RC
  7
STANDARD1
 73
     1
 44
1.0
  0
LINE
  5
1E052
330
1E
100
AcDbEntity
  8
24
100
AcDbLine
 10
513.1123821502897
 20
478.4938972774831
 30
0.0
 11
513.1123821502897
 21
502.4938972774831
 31
0.0
  0
LINE
  5
1E061
330
1E
100
AcDbEntity
  8
17
100
AcDbLine
 10
505.1123821502915
 20
718.4938972774832
 30
0.0
 11
648.0403745614576
 21
718.4938972774823
 31
0.0
  0
LINE
  5
1E064
330
1E
100
AcDbEntity
  8
17
100
AcDbLine
 10
563.1123821502892
 20
730.4938972774825
 30
0.0
 11
563.1123821502892
 21
706.4938972774823
 31
0.0
  0
LINE
  5
1E065
330
1E
100
AcDbEntity
  8
21
100
AcDbLine
 10
578.1123821502895
 20
714.4938972774824
 30
0.0
 11
578.1123821502895
 21
722.4938972774823
 31
0.0
  0
LINE
  5
1E066
330
1E
100
AcDbEntity
  8
21
100
AcDbLine
 10
540.6123821502898
 20
706.4938972774832
 30
0.0
 11
540.6123821502898
 21
730.4938972774833
 31
0.0
  0
LINE
  5
1E067
330
1E
100
AcDbEntity
  8
21
100
AcDbLine
 10
513.1123821502897
 20
706.4938972774832
 30
0.0
 11
513.1123821502897
 21
730.4938972774833
 31
0.0
  0
LINE
  5
1E068
330
1E
100
AcDbEntity
  8
21
100
AcDbLine
 10
513.1123821502897
 20
706.4938972774832
 30
0.0
 11
540.6123821502899
 21
706.4938972774832
 31
0.0
  0
LINE
  5
1E069
330
1E
100
AcDbEntity
  8
21
100
AcDbLine
 10
541.6123821502898
 20
714.4938972774824
 30
0.0
 11
578.1123821502895
 21
714.4938972774824
 31
0.0
  0
LINE
  5
1E06A
330
1E
100
AcDbEntity
  8
21
100
AcDbLine
 10
541.6123821502898
 20
709.9938972774832
 30
0.0
 11
541.6123821502898
 21
714.4938972774824
 31
0.0
  0
LINE
  5
1E06B
330
1E
100
AcDbEntity
  8
21
100
AcDbLine
 10
540.6123821502898
 20
709.9938972774832
 30
0.0
 11
541.6123821502898
 21
709.9938972774832
 31
0.0
  0
LINE
  5
1E06C
330
1E
100
AcDbEntity
  8
21
100
AcDbLine
 10
513.1123821502897
 20
730.4938972774833
 30
0.0
 11
540.6123821502899
 21
730.4938972774833
 31
0.0
  0
LINE
  5
1E06E
330
1E
100
AcDbEntity
  8
21
100
AcDbLine
 10
541.6123821502898
 20
722.4938972774823
 30
0.0
 11
578.1123821502895
 21
722.4938972774823
 31
0.0
  0
LINE
  5
1E06F
330
1E
100
AcDbEntity
  8
21
100
AcDbLine
 10
541.6123821502898
 20
726.9938972774832
 30
0.0
 11
541.6123821502898
 21
722.4938972774823
 31
0.0
  0
LINE
  5
1E070
330
1E
100
AcDbEntity
  8
21
100
AcDbLine
 10
540.6123821502898
 20
726.9938972774832
 30
0.0
 11
541.6123821502898
 21
726.9938972774832
 31
0.0
  0
LINE
  5
1E071
330
1E
100
AcDbEntity
  8
17
100
AcDbLine
 10
628.1123821502895
 20
730.4938972774825
 30
0.0
 11
628.1123821502895
 21
706.4938972774823
 31
0.0
  0
LINE
  5
1E072
330
1E
100
AcDbEntity
  8
21
100
AcDbLine
 10
643.1123821502892
 20
714.4938972774824
 30
0.0
 11
643.1123821502892
 21
722.4938972774823
 31
0.0
  0
DIMENSION
  5
1E074
330
1E
100
AcDbEntity
  8
30
  6
Continuous
100
AcDbDimension
280
     0
  2
*D6
 10
682.7520885149652
 20
490.4938972774814
 30
0.0
 11
682.7520885149651
 21
604.4938972774822
 31
0.0
 70
   160
 71
     5
 42
228.0000000000008
 73
     0
 74
     0
 75
     0
  3
STANDARD
100
AcDbAlignedDimension
 13
648.0403745614576
 23
718.4938972774823
 33
0.0
 14
620.2993921128816
 24
490.4938972774815
 34
0.0
 50
90.0
100
AcDbRotatedDimension
1001
ACAD
1000
DSTYLE
1002
{
1070
    79
1070
     3
1002
}
  0
DIMENSION
  5
1E075
330
1E
100
AcDbEntity
  8
30
  6
Continuous
100
AcDbDimension
280
     0
  2
*D7
 10
262.2538719434792
 20
474.4938972774822
 30
0.0
 11
255.2538719434791
 21
604.4938972774822
 31
0.0
 70
    32
 71
     5
 42
260.0
 73
     0
 74
     0
 75
     0
  3
STANDARD
100
AcDbAlignedDimension
 13
216.734733049062
 23
734.4938972774823
 33
0.0
 14
216.734733049062
 24
474.4938972774822
 34
0.0
 50
90.0
100
AcDbRotatedDimension
1001
ACAD
1000
DSTYLE
1002
{
1070
    79
1070
     3
1002
}
  0
DIMENSION
  5
1E076
330
1E
100
AcDbEntity
  8
30
  6
Continuous
100
AcDbDimension
280
     0
  2
*D8
 10
112.6877404372572
 20
111.4698530794229
 30
0.0
 11
55.56328593581381
 21
58.39759335298514
 31
0.0
 70
   163
 71
     5
 42
36.00000000000021
 73
     0
 74
     0
 75
     0
  3
STANDARD1
100
AcDbDiametricDimension
 15
89.8801693164882
 25
83.61640267249711
 35
0.0
 40
0.0
  0
DIMENSION
  5
1E077
330
1E
100
AcDbEntity
  8
30
  6
Continuous
100
AcDbDimension
280
     0
  2
*D9
 10
262.3578649905312
 20
97.45312787595993
 30
0.0
 11
262.3578649905312
 21
211.4531278759599
 31
0.0
 70
   160
 71
     5
 42
228.0
 73
     0
 74
     0
 75
     0
  3
STANDARD
100
AcDbAlignedDimension
 13
209.283954876872
 23
325.4531278759599
 33
0.0
 14
209.283954876872
 24
97.45312787595993
 34
0.0
 50
90.0
100
AcDbRotatedDimension
1001
ACAD
1000
DSTYLE
1002
{
1070
    79
1070
     3
1002
}
  0
DIMENSION
  5
1E078
330
1E
100
AcDbEntity
  8
30
  6
Continuous
100
AcDbDimension
280
     0
  2
*D10
 10
245.6051020748128
 20
104.4531278759599
 30
0.0
 11
238.6051020748127
 21
211.4531278759599
 31
0.0
 70
    32
 71
     5
 42
214.0
 73
     0
 74
     0
 75
     0
  3
STANDARD
100
AcDbAlignedDimension
 13
175.7839548768725
 23
318.4531278759599
 33
0.0
 14
175.7839548768725
 24
104.4531278759599
 34
0.0
 50
90.0
100
AcDbRotatedDimension
1001
ACAD
1000
DSTYLE
1002
{
1070
    79
1070
     3
1002
}
  0
LINE
  5
1E079
330
1E
100
AcDbEntity
  8
17
100
AcDbLine
 10
137.734733049062
 20
490.4938972774822
 30
0.0
 11
155.734733049062
 21
490.4938972774822
 31
0.0
  0
LINE
  5
1E07A
330
1E
100
AcDbEntity
  8
12
  6
DASHDOT
100
AcDbLine
 10
132.234733049062
 20
497.4938972774823
 30
0.0
 11
116.234733049062
 21
497.4938972774823
 31
0.0
  0
CIRCLE
  5
1E07B
330
1E
100
AcDbEntity
  8
12
100
AcDbCircle
 10
124.234733049062
 20
497.4938972774823
 30
0.0
 40
4.0
  0
LINE
  5
1E07C
330
1E
100
AcDbEntity
  8
17
100
AcDbLine
 10
101.734733049062
 20
481.4938972774823
 30
0.0
 11
101.734733049062
 21
499.4938972774822
 31
0.0
  0
CIRCLE
  5
1E07D
330
1E
100
AcDbEntity
  8
10
  6
CONTINOUS
100
AcDbCircle
 10
101.734733049062
 20
490.4938972774822
 30
0.0
 40
5.0
  0
LINE
  5
1E07E
330
1E
100
AcDbEntity
  8
17
100
AcDbLine
 10
92.73473304906202
 20
490.4938972774822
 30
0.0
 11
110.734733049062
 21
490.4938972774822
 31
0.0
  0
LINE
  5
1E07F
330
1E
100
AcDbEntity
  8
17
100
AcDbLine
 10
146.734733049062
 20
481.4938972774823
 30
0.0
 11
146.734733049062
 21
499.4938972774822
 31
0.0
  0
CIRCLE
  5
1E080
330
1E
100
AcDbEntity
  8
10
  6
CONTINOUS
100
AcDbCircle
 10
146.734733049062
 20
490.4938972774822
 30
0.0
 40
5.0
  0
LINE
  5
1E081
330
1E
100
AcDbEntity
  8
12
  6
DASHDOT
100
AcDbLine
 10
124.234733049062
 20
505.4938972774823
 30
0.0
 11
124.234733049062
 21
489.4938972774823
 31
0.0
  0
LINE
  5
1E082
330
1E
100
AcDbEntity
  8
17
100
AcDbLine
 10
182.734733049062
 20
490.4938972774822
 30
0.0
 11
200.734733049062
 21
490.4938972774822
 31
0.0
  0
LINE
  5
1E083
330
1E
100
AcDbEntity
  8
12
  6
DASHDOT
100
AcDbLine
 10
177.234733049062
 20
497.4938972774823
 30
0.0
 11
161.234733049062
 21
497.4938972774823
 31
0.0
  0
CIRCLE
  5
1E084
330
1E
100
AcDbEntity
  8
12
100
AcDbCircle
 10
169.234733049062
 20
497.4938972774823
 30
0.0
 40
4.0
  0
LINE
  5
1E085
330
1E
100
AcDbEntity
  8
12
  6
DASHDOT
100
AcDbLine
 10
169.234733049062
 20
505.4938972774823
 30
0.0
 11
169.234733049062
 21
489.4938972774823
 31
0.0
  0
LINE
  5
1E086
330
1E
100
AcDbEntity
  8
17
100
AcDbLine
 10
191.734733049062
 20
481.4938972774823
 30
0.0
 11
191.734733049062
 21
499.4938972774822
 31
0.0
  0
CIRCLE
  5
1E087
330
1E
100
AcDbEntity
  8
10
  6
CONTINOUS
100
AcDbCircle
 10
191.734733049062
 20
490.4938972774822
 30
0.0
 40
5.0
  0
LWPOLYLINE
  5
1E088
330
1E
100
AcDbEntity
  8
10
  6
CONTINOUS
100
AcDbPolyline
 90
        4
 70
     1
 43
0.0
 10
216.759733621162
 20
734.4938972774822
 10
76.73473304906202
 20
734.4938972774823
 10
76.73473304906202
 20
474.4938972774822
 10
216.759733621162
 20
474.4938972774821
  0
LINE
  5
1E089
330
1E
100
AcDbEntity
  8
17
100
AcDbLine
 10
191.734733049062
 20
709.4938972774823
 30
0.0
 11
191.734733049062
 21
727.4938972774823
 31
0.0
  0
LINE
  5
1E08A
330
1E
100
AcDbEntity
  8
17
100
AcDbLine
 10
146.734733049062
 20
709.4938972774823
 30
0.0
 11
146.734733049062
 21
727.4938972774823
 31
0.0
  0
LINE
  5
1E08B
330
1E
100
AcDbEntity
  8
17
100
AcDbLine
 10
101.734733049062
 20
709.4938972774823
 30
0.0
 11
101.734733049062
 21
727.4938972774823
 31
0.0
  0
CIRCLE
  5
1E08C
330
1E
100
AcDbEntity
  8
10
  6
CONTINOUS
100
AcDbCircle
 10
-191.734733049062
 20
718.4938972774823
 30
0.0
 40
5.0
210
0.0
220
0.0
230
-1.0
  0
CIRCLE
  5
1E08D
330
1E
100
AcDbEntity
  8
10
  6
CONTINOUS
100
AcDbCircle
 10
-146.734733049062
 20
718.4938972774823
 30
0.0
 40
5.0
210
0.0
220
0.0
230
-1.0
  0
CIRCLE
  5
1E08E
330
1E
100
AcDbEntity
  8
10
  6
CONTINOUS
100
AcDbCircle
 10
-101.734733049062
 20
718.4938972774823
 30
0.0
 40
5.0
210
0.0
220
0.0
230
-1.0
  0
LINE
  5
1E08F
330
1E
100
AcDbEntity
  8
10
  6
CONTINOUS
100
AcDbLine
 10
172.234733049062
 20
559.4938972774823
 30
0.0
 11
172.234733049062
 21
649.4938972774822
 31
0.0
  0
LINE
  5
1E090
330
1E
100
AcDbEntity
  8
10
  6
CONTINOUS
100
AcDbLine
 10
121.2347330490624
 20
559.4938972774823
 30
0.0
 11
121.234733049062
 21
649.4938972774822
 31
0.0
  0
LWPOLYLINE
  5
1E091
330
1E
100
AcDbEntity
  8
10
  6
CONTINOUS
100
AcDbPolyline
 90
        4
 70
     1
 43
0.0
 10
163.7347330490625
 20
627.4727330660596
 10
129.734733049062
 20
627.4727330660596
 10
129.734733049062
 20
637.3025575975274
 10
163.734733049062
 20
637.3025575975274
  0
LINE
  5
1E092
330
1E
100
AcDbEntity
  8
17
100
AcDbLine
 10
137.734733049062
 20
718.4938972774823
 30
0.0
 11
155.734733049062
 21
718.4938972774823
 31
0.0
  0
LWPOLYLINE
  5
1E093
330
1E
100
AcDbEntity
  8
10
  6
CONTINOUS
100
AcDbPolyline
 90
        4
 70
     1
 43
0.0
 10
204.734733049062
 20
559.4938972774823
 10
88.73473304906204
 20
559.4938972774823
 10
88.73473304906204
 20
649.4938972774822
 10
204.734733049062
 20
649.4938972774822
  0
LWPOLYLINE
  5
1E094
330
1E
100
AcDbEntity
  8
10
  6
CONTINOUS
100
AcDbPolyline
 90
        4
 70
     1
 43
0.0
 10
164.734733049062
 20
638.4938972774822
 10
128.734733049062
 20
638.4938972774822
 10
128.734733049062
 20
570.4938972774822
 10
164.734733049062
 20
570.4938972774822
  0
LINE
  5
1E095
330
1E
100
AcDbEntity
  8
12
  6
DASHDOT
100
AcDbLine
 10
132.234733049062
 20
711.4938972774823
 30
0.0
 11
116.234733049062
 21
711.4938972774823
 31
0.0
  0
CIRCLE
  5
1E096
330
1E
100
AcDbEntity
  8
12
100
AcDbCircle
 10
-124.234733049062
 20
711.4938972774823
 30
0.0
 40
4.0
210
0.0
220
0.0
230
-1.0
  0
LINE
  5
1E097
330
1E
100
AcDbEntity
  8
17
100
AcDbLine
 10
92.73473304906202
 20
718.4938972774823
 30
0.0
 11
110.734733049062
 21
718.4938972774823
 31
0.0
  0
LINE
  5
1E098
330
1E
100
AcDbEntity
  8
12
  6
DASHDOT
100
AcDbLine
 10
124.234733049062
 20
719.4938972774823
 30
0.0
 11
124.234733049062
 21
703.4938972774823
 31
0.0
  0
LINE
  5
1E099
330
1E
100
AcDbEntity
  8
17
100
AcDbLine
 10
182.734733049062
 20
718.4938972774823
 30
0.0
 11
200.734733049062
 21
718.4938972774823
 31
0.0
  0
LINE
  5
1E09A
330
1E
100
AcDbEntity
  8
12
  6
DASHDOT
100
AcDbLine
 10
177.234733049062
 20
711.4938972774823
 30
0.0
 11
161.234733049062
 21
711.4938972774823
 31
0.0
  0
CIRCLE
  5
1E09B
330
1E
100
AcDbEntity
  8
12
100
AcDbCircle
 10
-169.234733049062
 20
711.4938972774823
 30
0.0
 40
4.0
210
0.0
220
0.0
230
-1.0
  0
LINE
  5
1E09C
330
1E
100
AcDbEntity
  8
12
  6
DASHDOT
100
AcDbLine
 10
169.234733049062
 20
719.4938972774823
 30
0.0
 11
169.234733049062
 21
703.4938972774823
 31
0.0
  0
LWPOLYLINE
  5
1E09D
330
1E
100
AcDbEntity
  8
18
  6
DIVIDE
100
AcDbPolyline
 90
        4
 70
     1
 43
0.0
 10
216.283954876872
 20
81.45312787595974
 10
216.283954876872
 20
341.4531278759599
 10
76.28395487687203
 20
341.4531278759599
 10
76.28395487687203
 20
81.45312787595974
  0
LINE
  5
1E09E
330
1E
100
AcDbEntity
  8
22
100
AcDbLine
 10
207.4084703734693
 20
89.45312787595993
 30
0.0
 11
220.1594393802752
 21
89.45312787595993
 31
0.0
  0
LINE
  5
1E09F
330
1E
100
AcDbEntity
  8
22
100
AcDbLine
 10
209.2839548768725
 20
97.45312787595993
 30
0.0
 11
218.2839548768725
 21
97.45312787595993
 31
0.0
  0
LINE
  5
1E0A0
330
1E
100
AcDbEntity
  8
22
100
AcDbLine
 10
214.2839548768725
 20
97.45312787595993
 30
0.0
 11
213.283954876872
 21
97.45312787595993
 31
0.0
  0
LINE
  5
1E0A1
330
1E
100
AcDbEntity
  8
22
100
AcDbLine
 10
79.28395487687248
 20
97.45312787595993
 30
0.0
 11
123.2839548768725
 21
97.45312787595993
 31
0.0
  0
ARC
  5
1E0A2
330
1E
100
AcDbEntity
  8
22
100
AcDbCircle
 10
-101.2839548768725
 20
97.45312787595993
 30
0.0
 40
18.0
210
0.0
220
0.0
230
-1.0
100
AcDbArc
 50
206.3877999612448
 51
180.0
  0
LINE
  5
1E0A3
330
1E
100
AcDbEntity
  8
22
100
AcDbLine
 10
124.2839548768725
 20
97.45312787595993
 30
0.0
 11
168.2839548768725
 21
97.45312787595993
 31
0.0
  0
ARC
  5
1E0A4
330
1E
100
AcDbEntity
  8
22
100
AcDbCircle
 10
-146.2839548768725
 20
97.45312787595993
 30
0.0
 40
18.0
210
0.0
220
0.0
230
-1.0
100
AcDbArc
 50
0.0
 51
180.0
  0
ARC
  5
1E0A5
330
1E
100
AcDbEntity
  8
22
100
AcDbCircle
 10
-146.2839548768725
 20
97.45312787595993
 30
0.0
 40
18.0
210
0.0
220
0.0
230
-1.0
100
AcDbArc
 50
206.3877999612448
 51
333.6122000387574
  0
LINE
  5
1E0A6
330
1E
100
AcDbEntity
  8
22
100
AcDbLine
 10
146.2839548768725
 20
119.4531278759599
 30
0.0
 11
146.2839548768725
 21
75.45312787595992
 31
0.0
  0
LINE
  5
1E0A7
330
1E
100
AcDbEntity
  8
22
100
AcDbLine
 10
101.2839548768725
 20
119.4531278759599
 30
0.0
 11
101.2839548768725
 21
75.45312787595992
 31
0.0
  0
LINE
  5
1E0A8
330
1E
100
AcDbEntity
  8
22
100
AcDbLine
 10
117.4084703734693
 20
89.45312787595993
 30
0.0
 11
130.1594393802752
 21
89.45312787595993
 31
0.0
  0
LINE
  5
1E0A9
330
1E
100
AcDbEntity
  8
22
100
AcDbLine
 10
119.283954876872
 20
97.45312787595993
 30
0.0
 11
128.2839548768725
 21
97.45312787595993
 31
0.0
  0
LINE
  5
1E0AA
330
1E
100
AcDbEntity
  8
22
100
AcDbLine
 10
116.783954876872
 20
104.4531278759599
 30
0.0
 11
130.783954876872
 21
104.4531278759599
 31
0.0
  0
LINE
  5
1E0AB
330
1E
100
AcDbEntity
  8
22
100
AcDbLine
 10
123.783954876872
 20
111.4531278759599
 30
0.0
 11
123.783954876872
 21
97.45312787595993
 31
0.0
  0
CIRCLE
  5
1E0AC
330
1E
100
AcDbEntity
  8
22
100
AcDbCircle
 10
-123.783954876872
 20
104.4531278759599
 30
0.0
 40
3.0
210
0.0
220
0.0
230
-1.0
  0
LINE
  5
1E0AD
330
1E
100
AcDbEntity
  8
22
100
AcDbLine
 10
191.2839548768724
 20
119.4531278759599
 30
0.0
 11
191.2839548768724
 21
75.45312787595992
 31
0.0
  0
ARC
  5
1E0AE
330
1E
100
AcDbEntity
  8
22
100
AcDbCircle
 10
-191.2839548768724
 20
97.45312787595993
 30
0.0
 40
18.0
210
0.0
220
0.0
230
-1.0
100
AcDbArc
 50
0.0
 51
180.0
  0
ARC
  5
1E0AF
330
1E
100
AcDbEntity
  8
22
100
AcDbCircle
 10
-191.2839548768724
 20
97.45312787595993
 30
0.0
 40
18.0
210
0.0
220
0.0
230
-1.0
100
AcDbArc
 50
206.3877999612448
 51
333.6122000387574
  0
LINE
  5
1E0B0
330
1E
100
AcDbEntity
  8
22
100
AcDbLine
 10
169.2839548768725
 20
97.45312787595993
 30
0.0
 11
213.2839548768725
 21
97.45312787595993
 31
0.0
  0
LINE
  5
1E0B1
330
1E
100
AcDbEntity
  8
22
100
AcDbLine
 10
162.4084703734693
 20
89.45312787595993
 30
0.0
 11
175.1594393802752
 21
89.45312787595993
 31
0.0
  0
LINE
  5
1E0B2
330
1E
100
AcDbEntity
  8
22
100
AcDbLine
 10
164.2839548768725
 20
97.45312787595993
 30
0.0
 11
173.2839548768725
 21
97.45312787595993
 31
0.0
  0
LINE
  5
1E0B3
330
1E
100
AcDbEntity
  8
22
100
AcDbLine
 10
161.783954876872
 20
104.4531278759599
 30
0.0
 11
175.7839548768725
 21
104.4531278759599
 31
0.0
  0
CIRCLE
  5
1E0B4
330
1E
100
AcDbEntity
  8
22
100
AcDbCircle
 10
168.7839548768725
 20
104.4531278759599
 30
0.0
 40
3.0
  0
LINE
  5
1E0B5
330
1E
100
AcDbEntity
  8
22
100
AcDbLine
 10
168.7839548768725
 20
111.4531278759599
 30
0.0
 11
168.7839548768725
 21
97.45312787595993
 31
0.0
  0
LINE
  5
1E0B6
330
1E
100
AcDbEntity
  8
22
100
AcDbLine
 10
207.4084703734693
 20
333.4531278759599
 30
0.0
 11
220.1594393802752
 21
333.4531278759599
 31
0.0
  0
LINE
  5
1E0B7
330
1E
100
AcDbEntity
  8
22
100
AcDbLine
 10
209.2839548768725
 20
325.4531278759599
 30
0.0
 11
218.2839548768725
 21
325.4531278759599
 31
0.0
  0
LINE
  5
1E0B8
330
1E
100
AcDbEntity
  8
22
100
AcDbLine
 10
214.2839548768725
 20
325.4531278759599
 30
0.0
 11
213.283954876872
 21
325.4531278759599
 31
0.0
  0
LINE
  5
1E0B9
330
1E
100
AcDbEntity
  8
22
100
AcDbLine
 10
146.2839548768725
 20
347.4531278759599
 30
0.0
 11
146.2839548768725
 21
303.4531278759599
 31
0.0
  0
LINE
  5
1E0BA
330
1E
100
AcDbEntity
  8
22
100
AcDbLine
 10
101.2839548768725
 20
347.4531278759599
 30
0.0
 11
101.2839548768725
 21
303.4531278759599
 31
0.0
  0
ARC
  5
1E0BB
330
1E
100
AcDbEntity
  8
22
100
AcDbCircle
 10
101.2839548768725
 20
325.4531278759599
 30
0.0
 40
18.0
100
AcDbArc
 50
26.38779996124487
 51
0.0
  0
LINE
  5
1E0BC
330
1E
100
AcDbEntity
  8
22
100
AcDbLine
 10
191.2839548768724
 20
347.4531278759599
 30
0.0
 11
191.2839548768724
 21
303.4531278759599
 31
0.0
  0
LINE
  5
1E0BD
330
1E
100
AcDbEntity
  8
22
100
AcDbLine
 10
79.28395487687248
 20
325.4531278759599
 30
0.0
 11
123.2839548768725
 21
325.4531278759599
 31
0.0
  0
LINE
  5
1E0BE
330
1E
100
AcDbEntity
  8
22
100
AcDbLine
 10
124.2839548768725
 20
325.4531278759599
 30
0.0
 11
168.2839548768725
 21
325.4531278759599
 31
0.0
  0
ARC
  5
1E0BF
330
1E
100
AcDbEntity
  8
22
100
AcDbCircle
 10
146.2839548768725
 20
325.4531278759599
 30
0.0
 40
18.0
100
AcDbArc
 50
180.0
 51
0.0
  0
LINE
  5
1E0C0
330
1E
100
AcDbEntity
  8
22
100
AcDbLine
 10
119.283954876872
 20
325.4531278759599
 30
0.0
 11
128.2839548768725
 21
325.4531278759599
 31
0.0
  0
LINE
  5
1E0C1
330
1E
100
AcDbEntity
  8
22
100
AcDbLine
 10
116.783954876872
 20
318.4531278759599
 30
0.0
 11
130.783954876872
 21
318.4531278759599
 31
0.0
  0
LINE
  5
1E0C2
330
1E
100
AcDbEntity
  8
22
100
AcDbLine
 10
123.783954876872
 20
325.4531278759599
 30
0.0
 11
123.783954876872
 21
311.4531278759599
 31
0.0
  0
CIRCLE
  5
1E0C3
330
1E
100
AcDbEntity
  8
22
100
AcDbCircle
 10
123.783954876872
 20
318.4531278759599
 30
0.0
 40
3.0
  0
ARC
  5
1E0C4
330
1E
100
AcDbEntity
  8
22
100
AcDbCircle
 10
191.2839548768724
 20
325.4531278759599
 30
0.0
 40
18.0
100
AcDbArc
 50
180.0
 51
0.0
  0
LINE
  5
1E0C5
330
1E
100
AcDbEntity
  8
22
100
AcDbLine
 10
169.2839548768725
 20
325.4531278759599
 30
0.0
 11
213.2839548768725
 21
325.4531278759599
 31
0.0
  0
LINE
  5
1E0C6
330
1E
100
AcDbEntity
  8
22
100
AcDbLine
 10
164.2839548768725
 20
325.4531278759599
 30
0.0
 11
173.2839548768725
 21
325.4531278759599
 31
0.0
  0
LINE
  5
1E0C7
330
1E
100
AcDbEntity
  8
22
100
AcDbLine
 10
161.783954876872
 20
318.4531278759599
 30
0.0
 11
175.7839548768725
 21
318.4531278759599
 31
0.0
  0
CIRCLE
  5
1E0C8
330
1E
100
AcDbEntity
  8
22
100
AcDbCircle
 10
-168.7839548768725
 20
318.4531278759599
 30
0.0
 40
3.0
210
0.0
220
0.0
230
-1.0
  0
LINE
  5
1E0C9
330
1E
100
AcDbEntity
  8
22
100
AcDbLine
 10
168.7839548768725
 20
325.4531278759599
 30
0.0
 11
168.7839548768725
 21
311.4531278759599
 31
0.0
  0
ARC
  5
1E0CA
330
1E
100
AcDbEntity
  8
22
100
AcDbCircle
 10
146.2839548768725
 20
325.4531278759599
 30
0.0
 40
18.0
100
AcDbArc
 50
26.38779996124487
 51
153.6122000387573
  0
LINE
  5
1E0CB
330
1E
100
AcDbEntity
  8
22
100
AcDbLine
 10
117.4084703734693
 20
333.4531278759599
 30
0.0
 11
130.1594393802752
 21
333.4531278759599
 31
0.0
  0
ARC
  5
1E0CC
330
1E
100
AcDbEntity
  8
22
100
AcDbCircle
 10
191.2839548768724
 20
325.4531278759599
 30
0.0
 40
18.0
100
AcDbArc
 50
26.38779996124487
 51
153.6122000387573
  0
LINE
  5
1E0CD
330
1E
100
AcDbEntity
  8
22
100
AcDbLine
 10
162.4084703734693
 20
333.4531278759599
 30
0.0
 11
175.1594393802752
 21
333.4531278759599
 31
0.0
  0
LWPOLYLINE
  5
1E0CE
330
1E
100
AcDbEntity
  8
10
  6
CONTINOUS
100
AcDbPolyline
 90
        4
 70
     0
 43
0.0
 10
204.3338949859126
 20
804.7359342129096
 10
204.3338949859126
 20
800.7359342129097
 10
88.33389498591259
 20
800.7359342129097
 10
88.33389498591259
 20
804.7359342129096
  0
LINE
  5
1E0CF
330
1E
100
AcDbEntity
  8
10
  6
CONTINOUS
100
AcDbLine
 10
216.3338949859122
 20
804.7359342129096
 30
0.0
 11
216.3338949859122
 21
907.7359342129099
 31
0.0
  0
DIMENSION
  5
1E0D0
330
1E
100
AcDbEntity
  8
30
  6
Continuous
100
AcDbDimension
280
     0
  2
*D11
 10
216.734733049062
 20
450.5323880390628
 30
0.0
 11
146.734733049062
 21
457.5323880390627
 31
0.0
 70
    32
 71
     5
 42
140.0
 73
     0
 74
     0
 75
     0
  3
STANDARD
100
AcDbAlignedDimension
 13
76.73473304906202
 23
474.4938972774822
 33
0.0
 14
216.734733049062
 24
474.4938972774822
 34
0.0
100
AcDbRotatedDimension
1001
ACAD
1000
DSTYLE
1002
{
1070
    79
1070
     3
1002
}
  0
LWPOLYLINE
  5
1E0D1
330
1E
100
AcDbEntity
  8
10
380
     2
100
AcDbPolyline
 90
        4
 70
     1
 43
0.0
 10
700.0
 20
0.0
 10
700.0
 20
1088.0
 10
0.0
 20
1088.0
 10
0.0
 20
0.0
  0
LWPOLYLINE
  5
1E0D2
330
1E
100
AcDbEntity
  8
10
  6
CONTINOUS
100
AcDbPolyline
 90
        4
 70
     0
 43
0.0
 10
129.3588775694507
 20
793.2359339149098
 10
129.3338940621124
 20
758.7742419393097
 10
163.3338959097121
 20
758.7742419393097
 10
163.3588775694506
 20
793.2359339149098
  0
LWPOLYLINE
  5
1E0D3
330
1E
100
AcDbEntity
  8
10
  6
CONTINOUS
100
AcDbPolyline
 90
        4
 70
     0
 43
0.0
 10
120.8338954629125
 20
800.7359342129097
 10
120.8338954625123
 20
793.2359339149098
 10
171.8338945089121
 20
793.2359339149098
 10
171.8338945089121
 20
800.7359342129097
  0
LINE
  5
1E0D4
330
1E
100
AcDbEntity
  8
10
  6
CONTINOUS
100
AcDbLine
 10
216.784734193262
 20
695.8854235566823
 30
0.0
 11
76.73473275086234
 21
695.8854235566823
 31
0.0
  0
LINE
  5
1E0D5
330
1E
100
AcDbEntity
  8
10
  6
CONTINOUS
100
AcDbLine
 10
216.734733049062
 20
513.1023709982823
 30
0.0
 11
76.73473275086234
 21
513.1023709982823
 31
0.0
  0
LINE
  5
1E0D6
330
1E
100
AcDbEntity
  8
16
 48
2.0
100
AcDbLine
 10
653.2479939076347
 20
211.4531278759599
 30
0.0
 11
488.9942133902787
 21
211.4531278759599
 31
0.0
  0
LINE
  5
1E0D7
330
1E
100
AcDbEntity
  8
16
 48
2.0
100
AcDbLine
 10
580.9021999079523
 20
63.5541272001389
 30
0.0
 11
580.9021999079523
 21
360.9247412967406
 31
0.0
  0
ARC
  5
1E0D8
330
1E
100
AcDbEntity
  8
18
  6
DIVIDE
100
AcDbCircle
 10
649.6309081724521
 20
340.4531278759604
 30
0.0
 40
1.0
100
AcDbArc
 50
0.0
 51
90.0
  0
LWPOLYLINE
  5
1E0D9
330
1E
100
AcDbEntity
  8
11
 48
2.0
100
AcDbPolyline
 90
        8
 70
     1
 43
0.0
 10
605.4021999079523
 20
165.4531278759599
 42
0.4142135623730951
 10
607.4021999079523
 20
167.4531278759599
 10
607.4021999079523
 20
255.4531278759601
 42
0.4142135623730951
 10
605.4021999079523
 20
257.4531278759601
 10
556.4021999079523
 20
257.4531278759601
 42
0.4142135623730951
 10
554.4021999079522
 20
255.4531278759601
 10
554.4021999079522
 20
167.4531278759599
 42
0.4142135623730951
 10
556.4021999079523
 20
165.4531278759599
  0
DIMENSION
  5
1E0DA
330
1E
100
AcDbEntity
  8
30
  6
Continuous
100
AcDbDimension
280
     0
  2
*D12
 10
607.4021999079523
 20
52.93855233525096
 30
0.0
 11
579.1679215434315
 21
52.93855233525096
 31
0.0
 70
   160
 71
     5
 42
53.0
 73
     0
 74
     0
 75
     0
  3
STANDARD
100
AcDbAlignedDimension
 13
554.4021999079522
 23
164.07232407759
 33
0.0
 14
607.4021999079523
 24
164.07232407759
 34
0.0
100
AcDbRotatedDimension
1001
ACAD
1000
DSTYLE
1002
{
1070
    79
1070
     3
1002
}
  0
DIMENSION
  5
1E0DB
330
1E
100
AcDbEntity
  8
30
  6
Continuous
100
AcDbDimension
280
     0
  2
*D13
 10
676.0365452419854
 20
165.4531278759599
 30
0.0
 11
676.0365452419854
 21
210.2280183345199
 31
0.0
 70
   160
 71
     5
 42
92.00000000000015
 73
     0
 74
     0
 75
     0
  3
STANDARD
100
AcDbAlignedDimension
 13
607.4441825210506
 23
257.4531278759601
 33
0.0
 14
607.4441825210506
 24
165.4531278759599
 34
0.0
 50
90.0
100
AcDbRotatedDimension
1001
ACAD
1000
DSTYLE
1002
{
1070
    79
1070
     3
1002
}
  0
MTEXT
  5
1E0DC
330
1E
100
AcDbEntity
  8
19
100
AcDbMText
 10
347.6030770928883
 20
20.24371800343738
 30
0.0
 40
10.0
 41
0.0
 46
0.0
 71
     1
 72
     1
  1
[Cutout A]
  7
SLDTEXTSTYLE0
 73
     1
 44
1.0
  0
MTEXT
  5
1E0DD
330
1E
100
AcDbEntity
  8
19
100
AcDbMText
 10
538.3019560454377
 20
20.24371800343738
 30
0.0
 40
10.0
 41
0.0
 46
0.0
 71
     1
 72
     1
  1
[Cutout B]
  7
SLDTEXTSTYLE0
 73
     1
 44
1.0
  0
LINE
  5
1E0DE
330
1E
100
AcDbEntity
  8
16
 48
2.0
100
AcDbLine
 10
383.180286651309
 20
63.5541272001389
 30
0.0
 11
383.180286651309
 21
360.9247412967406
 31
0.0
  0
LWPOLYLINE
  5
1E0DF
330
1E
100
AcDbEntity
  8
18
  6
DIVIDE
100
AcDbPolyline
 90
        4
 70
     1
 43
0.0
 10
452.9089949158088
 20
81.45312787595992
 10
452.9089949158088
 20
341.4531278759604
 10
313.180286651309
 20
341.4531278759604
 10
313.180286651309
 20
81.45312787595992
  0
ARC
  5
1E0E0
330
1E
100
AcDbEntity
  8
18
  6
DIVIDE
100
AcDbCircle
 10
451.9089949158087
 20
82.45312787595992
 30
0.0
 40
1.0
100
AcDbArc
 50
270.0
 51
0.0
  0
ARC
  5
1E0E1
330
1E
100
AcDbEntity
  8
18
  6
DIVIDE
100
AcDbCircle
 10
451.9089949158087
 20
340.4531278759604
 30
0.0
 40
1.0
100
AcDbArc
 50
0.0
 51
90.0
  0
LWPOLYLINE
  5
1E0E2
330
1E
100
AcDbEntity
  8
11
 48
2.0
100
AcDbPolyline
 90
        8
 70
     1
 43
0.0
 10
440.1802866513088
 20
165.4531278759599
 42
0.4142135623730951
 10
442.1802866513089
 20
167.4531278759599
 10
442.1802866513089
 20
255.4531278759601
 42
0.4142135623730951
 10
440.1802866513088
 20
257.4531278759601
 10
326.180286651309
 20
257.4531278759601
 42
0.4142135623730951
 10
324.180286651309
 20
255.4531278759601
 10
324.180286651309
 20
167.4531278759599
 42
0.4142135623730951
 10
326.180286651309
 20
165.4531278759599
  0
DIMENSION
  5
1E0E3
330
1E
100
AcDbEntity
  8
30
  6
Continuous
100
AcDbDimension
280
     0
  2
*D14
 10
442.1802866513089
 20
52.93855233525096
 30
0.0
 11
381.4460082867881
 21
52.93855233525096
 31
0.0
 70
   160
 71
     5
 42
118.0
 73
     0
 74
     0
 75
     0
  3
STANDARD
100
AcDbAlignedDimension
 13
324.180286651309
 23
164.07232407759
 33
0.0
 14
442.1802866513089
 24
164.07232407759
 34
0.0
100
AcDbRotatedDimension
1001
ACAD
1000
DSTYLE
1002
{
1070
    79
1070
     3
1002
}
  0
DIMENSION
  5
1E0E4
330
1E
100
AcDbEntity
  8
30
  6
Continuous
100
AcDbDimension
280
     0
  2
*D15
 10
478.3146319853422
 20
165.4531278759599
 30
0.0
 11
478.3146319853422
 21
210.2280183345199
 31
0.0
 70
   160
 71
     5
 42
92.00000000000022
 73
     0
 74
     0
 75
     0
  3
STANDARD
100
AcDbAlignedDimension
 13
442.2222692644072
 23
257.4531278759601
 33
0.0
 14
442.2222692644072
 24
165.4531278759599
 34
0.0
 50
90.0
100
AcDbRotatedDimension
1001
ACAD
1000
DSTYLE
1002
{
1070
    79
1070
     3
1002
}
  0
LINE
  5
1E0E5
330
1E
100
AcDbEntity
  8
16
 48
2.0
100
AcDbLine
 10
455.5260806509912
 20
211.4531278759599
 30
0.0
 11
291.2723001336353
 21
211.4531278759599
 31
0.0
  0
DIMENSION
  5
1E0E6
330
1E
100
AcDbEntity
  8
30
  6
Continuous
100
AcDbDimension
280
     0
  2
*D16
 10
440.3575954662636
 20
255.1331720472804
 30
0.0
 11
472.9476328598495
 21
287.2722740576485
 31
0.0
 70
   164
 71
     5
 42
2.000000000178657
 73
     0
 74
     0
 75
     0
  3
STANDARD1
100
AcDbRadialDimension
 15
441.5189601447623
 25
256.7614324945832
 35
0.0
 40
0.0
  0
DIMENSION
  5
1E0E7
330
1E
100
AcDbEntity
  8
30
  6
Continuous
100
AcDbDimension
280
     0
  2
*D17
 10
605.5795087229085
 20
255.1331720472807
 30
0.0
 11
638.1695461164945
 21
287.2722740576484
 31
0.0
 70
   164
 71
     5
 42
2.000000000178828
 73
     0
 74
     0
 75
     0
  3
STANDARD1
100
AcDbRadialDimension
 15
606.740873401407
 25
256.7614324945836
 35
0.0
 40
0.0
  0
DIMENSION
  5
1E0E8
330
1E
100
AcDbEntity
  8
30
  6
Continuous
100
AcDbDimension
280
     0
  2
*D18
 10
204.734733049062
 20
535.6551184310098
 30
0.0
 11
146.734733049062
 21
542.6551184310095
 31
0.0
 70
    32
 71
     5
 42
116.0
 73
     0
 74
     0
 75
     0
  3
STANDARD
100
AcDbAlignedDimension
 13
88.73473304906204
 23
559.4938972774823
 33
0.0
 14
204.734733049062
 24
559.4938972774823
 34
0.0
100
AcDbRotatedDimension
  0
DIMENSION
  5
1E0E9
330
1E
100
AcDbEntity
  8
30
  6
Continuous
100
AcDbDimension
280
     0
  2
*D19
 10
121.2560225435622
 20
660.5210103932862
 30
0.0
 11
146.7453777963121
 21
667.5210103932862
 31
0.0
 70
    32
 71
     5
 42
50.97871050549976
 73
     0
 74
     0
 75
     0
  3
STANDARD
100
AcDbAlignedDimension
 13
172.234733049062
 23
648.4938972774822
 33
0.0
 14
121.2560225435622
 24
648.4938972774822
 34
0.0
100
AcDbRotatedDimension
  0
LINE
  5
1E0EB
330
1E
100
AcDbEntity
  8
10
  6
CONTINOUS
100
AcDbLine
 10
398.6123839382904
 20
560.4938972774822
 30
0.0
 11
398.6123839382904
 21
648.4938972774822
 31
0.0
  0
LINE
  5
1E0EC
330
1E
100
AcDbEntity
  8
10
  6
CONTINOUS
100
AcDbLine
 10
406.1123821502901
 20
649.4938972774822
 30
0.0
 11
406.1123821502901
 21
559.4938972774822
 31
0.0
  0
LINE
  5
1E0ED
330
1E
100
AcDbEntity
  8
10
  6
CONTINOUS
100
AcDbLine
 10
399.6123839382903
 20
559.4938972774822
 30
0.0
 11
410.1123821502901
 21
559.4938972774822
 31
0.0
  0
ARC
  5
1E0EE
330
1E
100
AcDbEntity
  8
10
  6
CONTINOUS
100
AcDbCircle
 10
399.6123839382903
 20
560.4938972774822
 30
0.0
 40
1.0
100
AcDbArc
 50
180.0
 51
270.0
  0
LINE
  5
1E0EF
330
1E
100
AcDbEntity
  8
10
  6
CONTINOUS
100
AcDbLine
 10
399.6123839382903
 20
649.4938972774822
 30
0.0
 11
410.1123821502901
 21
649.4938972774822
 31
0.0
  0
ARC
  5
1E0F0
330
1E
100
AcDbEntity
  8
10
  6
CONTINOUS
100
AcDbCircle
 10
399.6123839382903
 20
648.4938972774822
 30
0.0
 40
1.0
100
AcDbArc
 50
90.0
 51
180.0
  0
LWPOLYLINE
  5
1E0F1
330
1E
100
AcDbEntity
  8
10
  6
CONTINOUS
100
AcDbPolyline
 90
        8
 70
     1
 43
0.0
 10
389.2978168558519
 20
632.4803790693589
 10
379.9240132732707
 20
632.7380991108502
 10
365.7668854767703
 20
636.35511133535
 10
362.6610513502706
 20
624.7640009568502
 10
376.7723168902708
 20
620.7931506978503
 10
385.210222975229
 20
617.2252590664513
 10
390.2288267382901
 20
616.2911503199818
 10
394.1111156707897
 20
630.7800373614822
  0
ARC
  5
1E0F2
330
1E
100
AcDbEntity
  8
10
  6
CONTINOUS
100
AcDbCircle
 10
443.2104945009667
 20
804.523030159849
 30
0.0
 40
181.6640122735105
100
AcDbArc
 50
252.8048349791452
 51
255.7887474977204
  0
ARC
  5
1E0F3
330
1E
100
AcDbEntity
  8
10
  6
CONTINOUS
100
AcDbCircle
 10
384.9687159135387
 20
570.6816144570463
 30
0.0
 40
46.90130289725614
100
AcDbArc
 50
73.08805372621613
 51
83.2422844130126
  0
LWPOLYLINE
  5
1E0F4
330
1E
100
AcDbEntity
  8
10
  6
CONTINOUS
100
AcDbPolyline
 90
        3
 70
     0
 43
0.0
 10
389.50562823379
 20
630.978797485482
 10
386.1409806472902
 20
618.421761743482
 10
390.4876468652902
 20
617.2570760404822
  0
LINE
  5
1E0F5
330
1E
100
AcDbEntity
  8
18
100
AcDbLine
 10
517.1123821502897
 20
747.2997177028092
 30
0.0
 11
517.1123821502897
 21
461.3743063047659
 31
0.0
  0
LINE
  5
1E0F6
330
1E
100
AcDbEntity
  8
18
100
AcDbLine
 10
513.1123821502897
 20
746.9353275574039
 30
0.0
 11
513.1123821502897
 21
461.3743063047659
 31
0.0
  0
LWPOLYLINE
  5
1E0F7
330
1E
100
AcDbEntity
  8
10
  6
CONTINOUS
100
AcDbPolyline
 90
       11
 70
     1
 43
0.0
 10
413.0986733920666
 20
512.5254577690903
 10
416.1123821502895
 20
512.4938970984818
 10
416.1123821502895
 20
474.4938972774824
 10
513.1123821502897
 20
474.4938972774824
 10
513.1123821502897
 20
734.4938972774825
 10
416.1123821502895
 20
734.4938972774825
 10
416.1123821502895
 20
696.4520089296571
 10
413.0332834409045
 20
696.419764208109
 42
0.2520626822056452
 10
410.1123850112893
 20
690.9938978013272
 10
410.1123821502897
 20
655.4938972774825
 10
410.1123850112893
 20
517.993897142235
 42
0.2552568693989432
  0
DIMENSION
  5
1E0F8
330
1E
100
AcDbEntity
  8
30
  6
Continuous
100
AcDbDimension
280
     0
  2
*D21
 10
341.6144760506946
 20
559.4938972774825
 30
0.0
 11
341.6144760506945
 21
604.4938972774827
 31
0.0
 70
   160
 71
     5
 42
89.99999999999966
 73
     0
 74
     0
 75
     0
  3
STANDARD
100
AcDbAlignedDimension
 13
399.6123839382899
 23
649.4938972774822
 33
0.0
 14
391.8986473228736
 24
559.4938972774825
 34
0.0
 50
90.0
100
AcDbRotatedDimension
1001
ACAD
1000
DSTYLE
1002
{
1070
    79
1070
     3
1002
}
  0
DIMENSION
  5
1E0F9
330
1E
100
AcDbEntity
  8
30
  6
Continuous
100
AcDbDimension
280
     0
  2
*D22
 10
513.1123821502897
 20
416.8670116579618
 30
0.0
 11
448.1123821502897
 21
416.8670116579618
 31
0.0
 70
   160
  1
<>
 71
     2
 42
130.0000000000002
 73
     0
 74
     0
 75
     0
  3
STANDARD
100
AcDbAlignedDimension
 13
383.1123821502895
 23
607.0000000000001
 33
0.0
 14
513.1123821502897
 24
474.4938972774824
 34
0.0
100
AcDbRotatedDimension
1001
ACAD
1000
DSTYLE
1002
{
1070
    79
1070
     3
1002
}
  0
DIMENSION
  5
1E0FA
330
1E
100
AcDbEntity
  8
30
  6
Continuous
100
AcDbDimension
280
     0
  2
*D23
 10
513.1123821502897
 20
448.907085283279
 30
0.0
 11
461.6123821502891
 21
448.907085283279
 31
0.0
 70
   160
  1
<>
 71
     2
 42
103.0
 73
     0
 74
     0
 75
     0
  3
STANDARD
100
AcDbAlignedDimension
 13
410.1123821502897
 23
524.3264926460255
 33
0.0
 14
513.1123821502897
 24
474.4938972774824
 34
0.0
100
AcDbRotatedDimension
1001
ACAD
1000
DSTYLE
1002
{
1070
    79
1070
     3
1002
}
  0
DIMENSION
  5
1E0FB
330
1E
100
AcDbEntity
  8
30
  6
Continuous
100
AcDbDimension
280
     0
  2
*D24
 10
513.1123821502897
 20
399.5429403321895
 30
0.0
 11
437.6156342655319
 21
406.5429403321894
 31
0.0
 70
    32
 71
     5
 42
150.9934957695155
 73
     0
 74
     0
 75
     0
  3
STANDARD
100
AcDbAlignedDimension
 13
362.1188863807741
 23
617.0000000000001
 33
0.0
 14
513.1123821502897
 24
416.3670116579618
 34
0.0
100
AcDbRotatedDimension
1001
ACAD
1000
DSTYLE
1002
{
1070
    79
1070
     3
1002
}
  0
DIMENSION
  5
1E0FC
330
1E
100
AcDbEntity
  8
30
  6
Continuous
100
AcDbDimension
280
     0
  2
*D25
 10
398.1123820312896
 20
432.667604395004
 30
0.0
 11
388.4457153646229
 21
439.667604395004
 31
0.0
 70
    32
 71
     5
 42
8.0
 73
     0
 74
     0
 75
     0
  3
STANDARD1
100
AcDbAlignedDimension
 13
406.1123820312896
 23
554.0
 33
0.0
 14
398.1123820312896
 24
554.0
 34
0.0
100
AcDbRotatedDimension
  0
DIMENSION
  5
1E0FD
330
1E
100
AcDbEntity
  8
30
  6
Continuous
100
AcDbDimension
280
     0
  2
*D26
 10
513.1123821502897
 20
432.667604395004
 30
0.0
 11
459.6123820907896
 21
439.667604395004
 31
0.0
 70
    32
 71
     5
 42
107.0000001190001
 73
     0
 74
     0
 75
     0
  3
STANDARD
100
AcDbAlignedDimension
 13
406.1123820312896
 23
432.667604395004
 33
0.0
 14
513.1123821502897
 24
448.907085283279
 34
0.0
100
AcDbRotatedDimension
1001
ACAD
1000
DSTYLE
1002
{
1070
    79
1070
     3
1002
}
  0
ARC
  5
1E0FE
330
1E
100
AcDbEntity
  8
30
  6
Continuous
100
AcDbCircle
 10
388.1183651863788
 20
618.8847430514994
 30
0.0
 40
26.12738986710587
100
AcDbArc
 50
166.9957822805606
 51
185.6718013063781
  0
ARC
  5
1E0FF
330
1E
100
AcDbEntity
  8
30
  6
Continuous
100
AcDbCircle
 10
413.192551202759
 20
604.2897588535296
 30
0.0
 40
30.29117494757552
100
AcDbArc
 50
153.2592132366086
 51
173.2332630719461
  0
LWPOLYLINE
  5
1E100
330
1E
100
AcDbEntity
  8
18
  6
DIVIDE
100
AcDbPolyline
 90
        4
 70
     1
 43
0.0
 10
650.6309081724521
 20
82.23943424843975
 10
650.6309081724521
 20
342.2394342484401
 10
510.9021999079523
 20
342.2394342484401
 10
510.9021999079523
 20
82.23943424843975
  0
DIMENSION
  5
1E103
330
1E
100
AcDbEntity
  8
30
100
AcDbDimension
280
     0
  2
*D27
 10
168.7839548768725
 20
43.40555879019439
 30
0.0
 11
146.2839548768722
 21
50.40555879019439
 31
0.0
 70
    32
 71
     5
 42
45.00000000000045
 73
     0
 74
     0
 75
     0
  3
STANDARD
100
AcDbAlignedDimension
 13
123.783954876872
 23
97.45312787595993
 33
0.0
 14
168.7839548768725
 24
97.45312787595993
 34
0.0
100
AcDbRotatedDimension
  0
LWPOLYLINE
  5
1E104
330
1E
100
AcDbEntity
  8
10
  6
CONTINOUS
100
AcDbPolyline
 90
        4
 70
     1
 43
0.0
 10
76.33389498591212
 20
907.7359342129099
 10
216.3338949859122
 20
907.7359342129099
 10
216.3338949859122
 20
810.7359342129097
 10
76.33389498591212
 20
810.7359342129097
  0
LWPOLYLINE
  5
1E105
330
1E
100
AcDbEntity
  8
10
  6
CONTINOUS
100
AcDbPolyline
 90
        4
 70
     1
 43
0.0
 10
76.33389498591212
 20
810.7359342129097
 10
216.3338949859122
 20
810.7359342129097
 10
216.3338949859122
 20
804.7359342129096
 10
76.33389498591212
 20
804.7359342129096
  0
LWPOLYLINE
  5
1E106
330
1E
100
AcDbEntity
  8
12
100
AcDbPolyline
 90
        6
 70
     0
 43
0.0
 10
120.3338954627122
 20
907.7359342129099
 10
120.3338954627122
 20
921.9359343053101
 10
120.8338946131123
 20
922.4359343873098
 10
125.8338954327125
 20
922.4359343873098
 10
126.3338945835123
 20
921.9359343053101
 10
126.3338945835123
 20
907.7359342129099
  0
LINE
  5
1E107
330
1E
100
AcDbEntity
  8
12
100
AcDbLine
 10
120.3338954627122
 20
921.9359343053101
 30
0.0
 11
126.3338945835123
 21
921.9359343053101
 31
0.0
  0
DIMENSION
  5
1E108
330
1E
100
AcDbEntity
  8
30
  6
Continuous
100
AcDbDimension
280
     0
  2
*D28
 10
249.4200728554951
 20
907.7359339223587
 30
0.0
 11
249.420072855495
 21
965.2359339223592
 31
0.0
 70
   160
  1
<>
 71
     2
 42
115.0000000000002
 73
     0
 74
     0
 75
     0
 51
0.000000000000007
  3
STANDARD
100
AcDbAlignedDimension
 13
147.3588949859124
 23
1022.735933922359
 33
0.0
 14
174.6740343087124
 24
907.7359339223587
 34
0.0
 50
270.0
100
AcDbRotatedDimension
1001
ACAD
1000
DSTYLE
1002
{
1070
    79
1070
     3
1002
}
  0
DIMENSION
  5
1E109
330
1E
100
AcDbEntity
  8
30
  6
Continuous
100
AcDbDimension
280
     0
  2
*D29
 10
272.6652924773162
 20
907.7359339223587
 30
0.0
 11
272.665292477316
 21
973.235933922359
 31
0.0
 70
   160
  1
<>
 71
     2
 42
131.0000000000002
 73
     0
 74
     0
 75
     0
 51
0.000000000000007
  3
STANDARD
100
AcDbAlignedDimension
 13
158.6520626911126
 23
1038.735933922359
 33
0.0
 14
174.6740343087124
 24
907.7359339223587
 34
0.0
 50
270.0
100
AcDbRotatedDimension
1001
ACAD
1000
DSTYLE
1002
{
1070
    79
1070
     3
1002
}
  0
DIMENSION
  5
1E10A
330
1E
100
AcDbEntity
  8
30
  6
Continuous
100
AcDbDimension
280
     0
  2
*D30
 10
94.3588931977124
 20
986.9528506560703
 30
0.0
 11
75.78813313531234
 21
986.9528506560703
 31
0.0
 70
   160
  1
<>
 71
     2
 42
13.0
 73
     0
 74
     0
 75
     0
 51
0.000000000000007
  3
STANDARD
100
AcDbAlignedDimension
 13
107.3588931977124
 23
957.7359363067587
 33
0.0
 14
94.3588931977124
 24
957.7359363067587
 34
0.0
100
AcDbRotatedDimension
1001
ACAD
1000
DSTYLE
1002
{
1070
    79
1070
     3
1002
}
  0
DIMENSION
  5
1E10B
330
1E
100
AcDbEntity
  8
30
  6
Continuous
100
AcDbDimension
280
     0
  2
*D31
 10
85.74075234640117
 20
1003.064505105091
 30
0.0
 11
69.56572549251223
 21
1003.064505105091
 31
0.0
 70
   160
  1
<>
 71
     2
 42
29.98628185168845
 73
     0
 74
     0
 75
     0
 51
0.000000000000007
  3
STANDARD
100
AcDbAlignedDimension
 13
115.7270341980896
 23
964.7067849380384
 33
0.0
 14
85.74075234640117
 24
964.7067849378633
 34
0.0
100
AcDbRotatedDimension
1001
ACAD
1000
DSTYLE
1002
{
1070
    79
1070
     3
1002
}
  0
DIMENSION
  5
1E10D
330
1E
100
AcDbEntity
  8
30
  6
Continuous
100
AcDbDimension
280
     0
  2
*D32
 10
239.037816625635
 20
907.7359342129099
 30
0.0
 11
239.0378166256348
 21
886.4754542221099
 31
0.0
 70
   160
  1
<>
 71
     2
 42
14.69999999999993
 73
     0
 74
     0
 75
     0
 51
0.000000000000007
  3
STANDARD
100
AcDbAlignedDimension
 13
170.8338949859123
 23
922.4359342129098
 33
0.0
 14
221.0378166256348
 24
907.7359342129099
 34
0.0
 50
270.0
100
AcDbRotatedDimension
1001
ACAD
1000
DSTYLE
1002
{
1070
    79
1070
     3
1002
}
  0
LINE
  5
1E10E
330
1E
100
AcDbEntity
  8
SLD-0
  6
SLD-1点鎖線(中心線)
370
     0
100
AcDbLine
 10
168.3338949859123
 20
930.1359342129099
 30
0.0
 11
168.3338949859123
 21
901.5551877453098
 31
0.0
  0
LINE
  5
1E10F
330
1E
100
AcDbEntity
  8
SLD-0
  6
SLD-1点鎖線(中心線)
370
     0
100
AcDbLine
 10
123.3338949859123
 20
930.1359342129099
 30
0.0
 11
123.3338949859123
 21
901.0865054453097
 31
0.0
  0
INSERT
  5
1E110
330
1E
100
AcDbEntity
  8
24
100
AcDbBlockReference
  2
L-BAR
 10
145.8338949857123
 20
907.7359342129099
 30
0.0
  0
INSERT
  5
1E111
330
1E
100
AcDbEntity
  8
24
100
AcDbBlockReference
  2
S-BAR
 10
190.8338958427123
 20
907.7359342129099
 30
0.0
  0
INSERT
  5
1E112
330
1E
100
AcDbEntity
  8
24
100
AcDbBlockReference
  2
S-BAR
 10
100.8338941291124
 20
907.7359342129099
 30
0.0
  0
LWPOLYLINE
  5
1E113
330
1E
100
AcDbEntity
  8
12
100
AcDbPolyline
 90
        6
 70
     0
 43
0.0
 10
165.3338954627122
 20
907.7359342129099
 10
165.3338954627122
 20
921.9359343053101
 10
165.8338946131123
 20
922.4359343873098
 10
170.8338954327125
 20
922.4359343873098
 10
171.3338945835123
 20
921.9359343053101
 10
171.3338945835123
 20
907.7359342129099
  0
LINE
  5
1E114
330
1E
100
AcDbEntity
  8
12
100
AcDbLine
 10
165.3338954627122
 20
921.9359343053101
 30
0.0
 11
171.3338945835123
 21
921.9359343053101
 31
0.0
  0
DIMENSION
  5
1E116
330
1E
100
AcDbEntity
  8
30
  6
Continuous
100
AcDbDimension
280
     0
  2
*D34
 10
124.6844411785234
 20
315.5914632519463
 30
0.0
 11
101.304209973634
 21
359.1719401971911
 31
0.0
 70
   163
  1
M6
 71
     5
 42
5.999999999999943
 73
     0
 74
     0
 75
     0
  3
STANDARD1
100
AcDbDiametricDimension
 15
122.8834685752194
 25
321.3147925000454
 35
0.0
 40
0.0
  0
DIMENSION
  5
1E43C
330
1E
100
AcDbEntity
  8
30
100
AcDbDimension
280
     0
  2
*D37
 10
239.1337106882302
 20
559.4938972774823
 30
0.0
 11
232.1337106882301
 21
604.4938972774822
 31
0.0
 70
    32
 71
     5
 42
90.0
 73
     0
 74
     0
 75
     0
  3
STANDARD
100
AcDbAlignedDimension
 13
204.734733049062
 23
649.4938972774822
 33
0.0
 14
204.734733049062
 24
559.4938972774823
 34
0.0
 50
90.0
100
AcDbRotatedDimension
  0
DIMENSION
  5
1E586
330
1E
100
AcDbEntity
  8
30
100
AcDbDimension
280
     0
  2
*D51
 10
39.27628829792161
 20
973.7359338553098
 30
0.0
 11
39.27628829792144
 21
940.1964908205743
 31
0.0
 70
   160
 71
     5
 42
65.99999964239987
 73
     0
 74
     0
 75
     0
  3
STANDARD
100
AcDbAlignedDimension
 13
88.8338941291124
 23
907.7359342129099
 33
0.0
 14
90.22701755471258
 24
973.7359338553098
 34
0.0
 50
90.0
100
AcDbRotatedDimension
  0
DIMENSION
  5
1E587
330
1E
100
AcDbEntity
  8
30
100
AcDbDimension
280
     0
  2
*D52
 10
59.68106495686265
 20
907.7359342129099
 30
0.0
 11
52.6810649568625
 21
932.7359340676343
 31
0.0
 70
    32
 71
     5
 42
49.99999970944918
 73
     0
 74
     0
 75
     0
  3
STANDARD
100
AcDbAlignedDimension
 13
93.63389327231249
 23
957.7359339223587
 33
0.0
 14
86.63389683071205
 24
907.7359342129099
 34
0.0
 50
90.0
100
AcDbRotatedDimension
  0
DIMENSION
  5
1E5B2
330
1E
100
AcDbEntity
  8
30
  6
Continuous
100
AcDbDimension
280
     0
  2
*D53
 10
76.38211123963561
 20
951.2359339223593
 30
0.0
 11
69.38211123963545
 21
940.9026005890256
 31
0.0
 70
    32
 71
     5
 42
14.0
 73
     0
 74
     0
 75
     0
  3
STANDARD
100
AcDbAlignedDimension
 13
101.8338941291124
 23
965.2359339223593
 33
0.0
 14
101.8338941291124
 24
951.2359339223593
 34
0.0
 50
90.0
100
AcDbRotatedDimension
  0
INSERT
  5
1E5EE
330
1E
100
AcDbEntity
  8
24
100
AcDbBlockReference
  2
S-BAR
 10
513.1123821502897
 20
490.4689000714808
 30
0.0
 50
270.0
  0
INSERT
  5
1E5EF
330
1E
100
AcDbEntity
  8
24
100
AcDbBlockReference
  2
L-BAR
 10
513.1123821502897
 20
490.4938972776815
 30
0.0
 50
270.0
  0
DIMENSION
  5
1E642
330
1E
100
AcDbEntity
  8
30
100
AcDbDimension
280
     0
  2
*D57
 10
145.8588949859125
 20
1062.444108689452
 30
0.0
 11
123.3463941291125
 21
1069.444108689452
 31
0.0
 70
    32
 71
     5
 42
45.02500171360002
 73
     0
 74
     0
 75
     0
  3
STANDARD
100
AcDbAlignedDimension
 13
100.8338932723124
 23
958.7359339223592
 33
0.0
 14
145.8588949859125
 24
1023.735933922359
 34
0.0
100
AcDbRotatedDimension
  0
DIMENSION
  5
1E64F
330
1E
100
AcDbEntity
  8
30
100
AcDbDimension
280
     0
  2
*D58
 10
190.8338949859124
 20
1062.444108689452
 30
0.0
 11
168.3463949859124
 21
1069.444108689452
 31
0.0
 70
    32
 71
     5
 42
44.9749999999999
 73
     0
 74
     0
 75
     0
  3
STANDARD
100
AcDbAlignedDimension
 13
145.8588949859125
 23
1023.735933922359
 33
0.0
 14
190.8338949859124
 24
958.7359339223592
 34
0.0
100
AcDbRotatedDimension
  0
LINE
  5
1E6B5
330
1E
100
AcDbEntity
  8
17
100
AcDbLine
 10
628.1123821502888
 20
730.4938972774825
 30
0.0
 11
628.1123821502888
 21
706.4938972774823
 31
0.0
  0
LINE
  5
1E6B6
330
1E
100
AcDbEntity
  8
21
100
AcDbLine
 10
643.1123821502892
 20
714.4938972774824
 30
0.0
 11
643.1123821502892
 21
722.4938972774823
 31
0.0
  0
LINE
  5
1E6B7
330
1E
100
AcDbEntity
  8
21
100
AcDbLine
 10
605.6123821502894
 20
706.4938972774832
 30
0.0
 11
605.6123821502894
 21
730.4938972774833
 31
0.0
  0
LINE
  5
1E6B8
330
1E
100
AcDbEntity
  8
21
100
AcDbLine
 10
606.6123821502895
 20
714.4938972774824
 30
0.0
 11
643.1123821502892
 21
714.4938972774824
 31
0.0
  0
LINE
  5
1E6B9
330
1E
100
AcDbEntity
  8
21
100
AcDbLine
 10
606.6123821502895
 20
709.9938972774832
 30
0.0
 11
606.6123821502895
 21
714.4938972774824
 31
0.0
  0
LINE
  5
1E6BA
330
1E
100
AcDbEntity
  8
21
100
AcDbLine
 10
605.6123821502894
 20
709.9938972774832
 30
0.0
 11
606.6123821502895
 21
709.9938972774832
 31
0.0
  0
LINE
  5
1E6BB
330
1E
100
AcDbEntity
  8
21
100
AcDbLine
 10
606.6123821502895
 20
722.4938972774823
 30
0.0
 11
643.1123821502892
 21
722.4938972774823
 31
0.0
  0
LINE
  5
1E6BC
330
1E
100
AcDbEntity
  8
21
100
AcDbLine
 10
606.6123821502895
 20
726.9938972774832
 30
0.0
 11
606.6123821502895
 21
722.4938972774823
 31
0.0
  0
LINE
  5
1E6BD
330
1E
100
AcDbEntity
  8
21
100
AcDbLine
 10
605.6123821502894
 20
726.9938972774832
 30
0.0
 11
606.6123821502895
 21
726.9938972774832
 31
0.0
  0
LINE
  5
1E6BE
330
1E
100
AcDbEntity
  8
24
100
AcDbLine
 10
605.6123821502894
 20
730.4938972774833
 30
0.0
 11
545.345560743649
 21
730.4938972774833
 31
0.0
  0
LINE
  5
1E6BF
330
1E
100
AcDbEntity
  8
24
100
AcDbLine
 10
605.6123821502894
 20
706.4938972774832
 30
0.0
 11
545.345560743649
 21
706.4938972774832
 31
0.0
  0
DIMENSION
  5
1E785
330
1E
100
AcDbEntity
  8
30
100
AcDbDimension
280
     0
  2
*D62
 10
663.6506210339057
 20
714.4938972774824
 30
0.0
 11
656.6506210339056
 21
704.8272306108158
 31
0.0
 70
    32
 71
     5
 42
8.0
 73
     0
 74
     0
 75
     0
  3
STANDARD
100
AcDbAlignedDimension
 13
643.1123821502892
 23
722.4938972774823
 33
0.0
 14
643.1123821502892
 24
714.4938972774824
 34
0.0
 50
90.0
100
AcDbRotatedDimension
  0
VIEWPORT
  5
9AC
330
1A
100
AcDbEntity
 67
     1
  8
0
  6
Continuous
348
8A77
100
AcDbViewport
 10
171.999535
 20
144.1384739999999
 30
0.0
 40
488.867686
 41
292.351491
 68
     1
 69
     1
 12
171.999535
 22
144.1384739999999
 13
0.0
 23
0.0
 14
10.0
 24
10.0
 15
10.0
 25
10.0
 16
0.0
 26
0.0
 36
1.0
 17
0.0
 27
0.0
 37
0.0
 42
50.0
 43
0.0
 44
0.0
 45
292.351491
 50
0.0
 51
0.0
 72
   100
 90
    32800
  1

281
     0
 71
     1
 74
     0
110
0.0
120
0.0
130
0.0
111
1.0
121
0.0
131
0.0
112
0.0
122
1.0
132
0.0
 79
     0
146
0.0
170
     0
 61
     5
348
8A77
292
     1
282
     1
141
0.0
142
0.0
 63
   250
421
  3355443
  0
ENDSEC
  0
SECTION
  2
OBJECTS
  0
DICTIONARY
  5
C
330
0
100
AcDbDictionary
281
     1
  3
ACAD_CIP_PREVIOUS_PRODUCT_INFO
350
8AA8
  3
ACAD_COLOR
350
8A8A
  3
ACAD_DETAILVIEWSTYLE
350
8AA3
  3
ACAD_GROUP
350
D
  3
ACAD_LAYOUT
350
19
  3
ACAD_MATERIAL
350
8A58
  3
ACAD_MLEADERSTYLE
350
8A9F
  3
ACAD_MLINESTYLE
350
16
  3
ACAD_PLOTSETTINGS
350
18
  3
ACAD_PLOTSTYLENAME
350
E
  3
ACAD_SCALELIST
350
8A8D
  3
ACAD_SECTIONVIEWSTYLE
350
8AA1
  3
ACAD_TABLESTYLE
350
8A8B
  3
ACAD_VISUALSTYLE
350
8A71
  3
ACADDIM
350
6D5E
  3
ACDB_RECOMPOSE_DATA
350
1E798
  3
ACDBVARIABLEDICTIONARY
350
5697
  3
AEC_PROPERTY_SET_DEFS
350
BFC4
  0
DICTIONARY
  5
F3CC
330
2
100
AcDbDictionary
280
     1
281
     1
  3
ACAD_LAYERSTATES
360
F3CD
  0
DICTIONARY
  5
8ACC
330
10
100
AcDbDictionary
280
     1
281
     1
  3
ADSK_XREC_LAYER_RECONCILED
360
8ACD
  0
DICTIONARY
  5
8ACE
330
2F
100
AcDbDictionary
280
     1
281
     1
  3
ADSK_XREC_LAYER_RECONCILED
360
8ACF
  0
DICTIONARY
  5
8AD2
330
35
100
AcDbDictionary
280
     1
281
     1
  3
ADSK_XREC_LAYER_RECONCILED
360
8AD3
  0
DICTIONARY
  5
8AD4
330
38
100
AcDbDictionary
280
     1
281
     1
  3
ADSK_XREC_LAYER_RECONCILED
360
8AD5
  0
DICTIONARY
  5
8AD8
330
3A2
100
AcDbDictionary
280
     1
281
     1
  3
ADSK_XREC_LAYER_RECONCILED
360
8AD9
  0
DICTIONARY
  5
8ADA
330
3BBA
100
AcDbDictionary
280
     1
281
     1
  3
ADSK_XREC_LAYER_RECONCILED
360
8ADB
  0
DICTIONARY
  5
8ADC
330
67A8
100
AcDbDictionary
280
     1
281
     1
  3
ADSK_XREC_LAYER_RECONCILED
360
8ADD
  0
DICTIONARY
  5
8ADE
330
7837
100
AcDbDictionary
280
     1
281
     1
  3
ADSK_XREC_LAYER_RECONCILED
360
8ADF
  0
DICTIONARY
  5
9134
330
9133
100
AcDbDictionary
280
     1
281
     1
  0
DICTIONARY
  5
1CA81
330
1CA80
100
AcDbDictionary
280
     1
281
     1
  0
DICTIONARY
  5
1DF69
330
1DF68
100
AcDbDictionary
280
     1
281
     1
  0
DICTIONARY
  5
1DF6B
330
1DF6A
100
AcDbDictionary
280
     1
281
     1
  0
DICTIONARY
  5
1DF6D
330
1DF6C
100
AcDbDictionary
280
     1
281
     1
  0
DICTIONARY
  5
178
330
1E
100
AcDbDictionary
280
     1
281
     1
  3
ACAD_LAYOUTSELFREF
360
8A0F
  3
ACAD_SORTENTS
360
10338
  0
DICTIONARY
  5
17A
330
1A
100
AcDbDictionary
280
     1
281
     1
  3
ACAD_LAYOUTSELFREF
360
8A0E
  0
DICTIONARY
  5
1E674
330
1DEEB
100
AcDbDictionary
280
     1
281
     1
  3
ACAD_SORTENTS
360
1E675
  0
DICTIONARY
  5
1E666
330
1DEF6
100
AcDbDictionary
280
     1
281
     1
  3
ACAD_SORTENTS
360
1E667
  0
XRECORD
  5
8AA8
102
{ACAD_REACTORS
330
C
102
}
330
C
100
AcDbXrecord
280
     1
300
ACDLT
300
2014
300
ACDLT_F_S
  0
DICTIONARY
  5
8A8A
102
{ACAD_REACTORS
330
C
102
}
330
C
100
AcDbDictionary
281
     1
  0
DICTIONARY
  5
8AA3
102
{ACAD_REACTORS
330
C
102
}
330
C
100
AcDbDictionary
281
     1
  3
Imperial24
350
8AA4
  0
DICTIONARY
  5
D
102
{ACAD_REACTORS
330
C
102
}
330
C
100
AcDbDictionary
281
     1
  0
DICTIONARY
  5
19
102
{ACAD_REACTORS
330
C
102
}
330
C
100
AcDbDictionary
281
     1
  3
Model
350
8A4C
  3
ﾚｲｱｳﾄ1
350
8A4D
  0
DICTIONARY
  5
8A58
102
{ACAD_REACTORS
330
C
102
}
330
C
100
AcDbDictionary
281
     1
  3
ByBlock
350
8A61
  3
ByLayer
350
8A59
  3
Global
350
8A69
  0
DICTIONARY
  5
8A9F
102
{ACAD_REACTORS
330
C
102
}
330
C
100
AcDbDictionary
281
     1
  3
Standard
350
8AA0
  0
DICTIONARY
  5
16
102
{ACAD_REACTORS
330
C
102
}
330
C
100
AcDbDictionary
281
     1
  3
STANDARD
350
17
  0
DICTIONARY
  5
18
102
{ACAD_REACTORS
330
C
102
}
330
C
100
AcDbDictionary
281
     1
  0
ACDBDICTIONARYWDFLT
  5
E
102
{ACAD_REACTORS
330
C
102
}
330
C
100
AcDbDictionary
281
     1
  3
Normal
350
F
100
AcDbDictionaryWithDefault
340
F
  0
DICTIONARY
  5
8A8D
102
{ACAD_REACTORS
330
C
102
}
330
C
100
AcDbDictionary
281
     1
  3
A0
350
8A8E
  3
A1
350
8A8F
  3
A2
350
8A90
  3
A3
350
8A91
  3
A4
350
8A92
  3
A5
350
8A93
  3
A6
350
8A94
  3
A7
350
8A95
  3
A8
350
8A96
  3
A9
350
8A97
  3
B0
350
8A98
  3
B1
350
8A99
  3
B2
350
8A9A
  3
B3
350
8A9B
  3
B4
350
8A9C
  3
B5
350
8A9D
  3
B6
350
8A9E
  0
DICTIONARY
  5
8AA1
102
{ACAD_REACTORS
330
C
102
}
330
C
100
AcDbDictionary
281
     1
  3
Imperial24
350
8AA2
  0
DICTIONARY
  5
8A8B
102
{ACAD_REACTORS
330
C
102
}
330
C
100
AcDbDictionary
281
     1
  3
Standard
350
8A8C
  0
DICTIONARY
  5
8A71
102
{ACAD_REACTORS
330
C
102
}
330
C
100
AcDbDictionary
281
     1
  3
2dWireframe
350
8A77
  3
3D Hidden
350
8B2B
  3
3dWireframe
350
8B2A
  3
Basic
350
8A76
  3
Brighten
350
8A7D
  3
ColorChange
350
8A81
  3
Conceptual
350
8A7A
  3
Dim
350
8A7C
  3
EdgeColorOff
350
8A89
  3
Facepattern
350
8A80
  3
Flat
350
8A72
  3
FlatWithEdges
350
8A73
  3
Gouraud
350
8A74
  3
GouraudWithEdges
350
8A75
  3
Hidden
350
8A79
  3
JitterOff
350
8A87
  3
Linepattern
350
8A7F
  3
OverhangOff
350
8A88
  3
Realistic
350
8A7B
  3
Shaded
350
8A86
  3
Shaded with edges
350
8A85
  3
Shades of Gray
350
8A82
  3
Sketchy
350
8A83
  3
Thicken
350
8A7E
  3
Wireframe
350
8A78
  3
X-Ray
350
8A84
  0
XRECORD
  5
6D5E
102
{ACAD_REACTORS
330
C
102
}
330
C
100
AcDbXrecord
280
     1
 90
   990106
  3

 60
     0
 61
     0
 62
     1
 63
     3
 64
     0
 65
     0
 66
     0
 67
     3
 68
     1
 69
     0
 70
     0
 71
     0
 72
     0
 40
0.0
170
     0
340
0
  0
XRECORD
  5
1E798
102
{ACAD_REACTORS
330
C
102
}
330
C
100
AcDbXrecord
280
     1
 90
        1
330
8A8C
330
8AA2
330
8AA4
  0
DICTIONARY
  5
5697
102
{ACAD_REACTORS
330
C
102
}
330
C
100
AcDbDictionary
281
     1
  3
CANNOSCALE
350
8AE9
  3
CMLEADERSTYLE
350
8AE5
  3
CTABLESTYLE
350
8AE4
  3
CVIEWDETAILSTYLE
350
8AE6
  3
CVIEWSECTIONSTYLE
350
8AE7
  3
DIMASSOC
350
5698
  3
LAYEREVAL
350
8AEB
  3
LAYERNOTIFY
350
8AEC
  3
LIGHTINGUNITS
350
8AEA
  3
MSLTSCALE
350
8AE8
  0
DICTIONARY
  5
BFC4
102
{ACAD_REACTORS
330
C
102
}
330
C
100
AcDbDictionary
281
     1
  0
DICTIONARY
  5
F3CD
102
{ACAD_REACTORS
330
F3CC
102
}
330
F3CC
100
AcDbDictionary
281
     1
  0
XRECORD
  5
8ACD
102
{ACAD_REACTORS
330
8ACC
102
}
330
8ACC
100
AcDbXrecord
280
     1
290
     1
  0
XRECORD
  5
8ACF
102
{ACAD_REACTORS
330
8ACE
102
}
330
8ACE
100
AcDbXrecord
280
     1
290
     1
  0
XRECORD
  5
8AD3
102
{ACAD_REACTORS
330
8AD2
102
}
330
8AD2
100
AcDbXrecord
280
     1
290
     1
  0
XRECORD
  5
8AD5
102
{ACAD_REACTORS
330
8AD4
102
}
330
8AD4
100
AcDbXrecord
280
     1
290
     1
  0
XRECORD
  5
8AD9
102
{ACAD_REACTORS
330
8AD8
102
}
330
8AD8
100
AcDbXrecord
280
     1
290
     1
  0
XRECORD
  5
8ADB
102
{ACAD_REACTORS
330
8ADA
102
}
330
8ADA
100
AcDbXrecord
280
     1
290
     1
  0
XRECORD
  5
8ADD
102
{ACAD_REACTORS
330
8ADC
102
}
330
8ADC
100
AcDbXrecord
280
     1
290
     1
  0
XRECORD
  5
8ADF
102
{ACAD_REACTORS
330
8ADE
102
}
330
8ADE
100
AcDbXrecord
280
     1
290
     1
  0
XRECORD
  5
8A0F
102
{ACAD_REACTORS
330
178
102
}
330
178
100
AcDbXrecord
280
     1
340
1E
  0
SORTENTSTABLE
  5
10338
102
{ACAD_REACTORS
330
178
102
}
330
178
100
AcDbSortentsTable
330
1E
  0
XRECORD
  5
8A0E
102
{ACAD_REACTORS
330
17A
102
}
330
17A
100
AcDbXrecord
280
     1
340
1A
  0
SORTENTSTABLE
  5
1E675
102
{ACAD_REACTORS
330
1E674
102
}
330
1E674
100
AcDbSortentsTable
330
1DEEB
  0
SORTENTSTABLE
  5
1E667
102
{ACAD_REACTORS
330
1E666
102
}
330
1E666
100
AcDbSortentsTable
330
1DEF6
  0
ACDBDETAILVIEWSTYLE
  5
8AA4
102
{ACAD_XDICTIONARY
360
1E796
102
}
102
{ACAD_REACTORS
330
8AA3
102
}
330
8AA3
100
AcDbModelDocViewStyle
 70
     0
  3
Imperial24
290
     0
100
AcDbDetailViewStyle
 70
     0
 71
     0
 90
        3
 71
     1
340
11
 62
   256
 40
0.24
340
0
 62
   256
 40
0.24
300

 40
0.36
280
     3
 71
     2
340
15
 90
       25
 62
   256
 71
     3
340
11
 62
   256
 40
0.24
 90
        1
 40
0.75
 90
        1
300
%<\AcVar ViewType \f "%tc1">% %<\AcVar ViewDetailId>%\PSCALE %<\AcVar ViewScale \f "%sn">%
 71
     4
340
15
 90
       25
 62
   256
340
15
 90
       25
 62
   256
280
     0
  0
LAYOUT
  5
8A4C
102
{ACAD_XDICTIONARY
360
F3D2
102
}
102
{ACAD_REACTORS
330
19
102
}
330
19
100
AcDbPlotSettings
  1

  2
none_device
  4
Letter_(8.50_x_11.00_Inches)
  6

 40
6.349999904632567
 41
6.349999904632567
 42
6.350006103515625
 43
6.350006103515625
 44
215.8999938964844
 45
279.3999938964844
 46
0.0
 47
0.0
 48
0.0
 49
0.0
140
0.0
141
0.0
142
1.0
143
317.0449279872537
 70
 11952
 72
     0
 73
     1
 74
     0
  7
monochrome.ctb
 75
     0
147
0.0031541271022642
 76
     0
 77
     2
 78
   300
148
21198.07971653447
149
42574.72085005308
100
AcDbLayout
  1
Model
 70
     1
 71
     0
 10
0.0
 20
0.0
 11
12.0
 21
9.0
 12
0.0
 22
0.0
 32
0.0
 14
0.0
 24
0.0
 34
0.0
 15
0.0
 25
0.0
 35
0.0
146
0.0
 13
0.0
 23
0.0
 33
0.0
 16
1.0
 26
0.0
 36
0.0
 17
0.0
 27
1.0
 37
0.0
 76
     0
330
1E
331
8A51
1001
ACAD_PSEXT
1000
なし
1000
なし
1000
適切ではありません
1000
新しいプロッタ環境設定名を選択しない限り、レイアウトは印刷されません。
1070
     0
  0
LAYOUT
  5
8A4D
102
{ACAD_REACTORS
330
19
102
}
330
19
100
AcDbPlotSettings
  1

  2
Canon LBP3800 LIPSLX
  4

  6

 40
0.0
 41
0.0
 42
0.0
 43
0.0
 44
0.0
 45
0.0
 46
0.0
 47
0.0
 48
0.0
 49
0.0
140
0.0
141
0.0
142
1.0
143
1.0
 70
   688
 72
     0
 73
     0
 74
     5
  7
monochrome.ctb
 75
    16
147
1.0
 76
     0
 77
     2
 78
   300
148
0.0
149
0.0
100
AcDbLayout
  1
ﾚｲｱｳﾄ1
 70
     1
 71
     1
 10
-5.873749
 20
-5.87375
 11
204.099579
 21
291.1369009999999
 12
0.0
 22
0.0
 32
0.0
 14
4.273573
 24
5.205245999999998
 34
0.0
 15
194.610095
 25
283.0697009999996
 35
0.0
146
0.0
 13
0.0
 23
0.0
 33
0.0
 16
1.0
 26
0.0
 36
0.0
 17
0.0
 27
1.0
 37
0.0
 76
     0
330
1A
331
9AC
  0
MATERIAL
  5
8A61
102
{ACAD_XDICTIONARY
360
8A62
102
}
102
{ACAD_REACTORS
330
8A58
102
}
330
8A58
100
AcDbMaterial
  1
ByBlock
 72
     0
 43
0.0208333333333333
 43
0.0
 43
0.0
 43
0.0
 43
0.0
 43
0.0208333333333333
 43
0.0
 43
0.0
 43
0.0
 43
0.0
 43
1.0
 43
0.0
 43
0.0
 43
0.0
 43
0.0
 43
1.0
 77
     0
 47
0.0208333333333333
 47
0.0
 47
0.0
 47
0.0
 47
0.0
 47
0.0208333333333333
 47
0.0
 47
0.0
 47
0.0
 47
0.0
 47
1.0
 47
0.0
 47
0.0
 47
0.0
 47
0.0
 47
1.0
171
     0
 49
0.0208333333333333
 49
0.0
 49
0.0
 49
0.0
 49
0.0
 49
0.0208333333333333
 49
0.0
 49
0.0
 49
0.0
 49
0.0
 49
1.0
 49
0.0
 49
0.0
 49
0.0
 49
0.0
 49
1.0
175
     0
142
0.0208333333333333
142
0.0
142
0.0
142
0.0
142
0.0
142
0.0208333333333333
142
0.0
142
0.0
142
0.0
142
0.0
142
1.0
142
0.0
142
0.0
142
0.0
142
0.0
142
1.0
179
     0
144
0.0208333333333333
144
0.0
144
0.0
144
0.0
144
0.0
144
0.0208333333333333
144
0.0
144
0.0
144
0.0
144
0.0
144
1.0
144
0.0
144
0.0
144
0.0
144
0.0
144
1.0
147
0.0208333333333333
147
0.0
147
0.0
147
0.0
147
0.0
147
0.0208333333333333
147
0.0
147
0.0
147
0.0
147
0.0
147
1.0
147
0.0
147
0.0
147
0.0
147
0.0
147
1.0
  0
MATERIAL
  5
8A59
102
{ACAD_XDICTIONARY
360
8A5A
102
}
102
{ACAD_REACTORS
330
8A58
102
}
330
8A58
100
AcDbMaterial
  1
ByLayer
 72
     0
 43
0.0208333333333333
 43
0.0
 43
0.0
 43
0.0
 43
0.0
 43
0.0208333333333333
 43
0.0
 43
0.0
 43
0.0
 43
0.0
 43
1.0
 43
0.0
 43
0.0
 43
0.0
 43
0.0
 43
1.0
 77
     0
 47
0.0208333333333333
 47
0.0
 47
0.0
 47
0.0
 47
0.0
 47
0.0208333333333333
 47
0.0
 47
0.0
 47
0.0
 47
0.0
 47
1.0
 47
0.0
 47
0.0
 47
0.0
 47
0.0
 47
1.0
171
     0
 49
0.0208333333333333
 49
0.0
 49
0.0
 49
0.0
 49
0.0
 49
0.0208333333333333
 49
0.0
 49
0.0
 49
0.0
 49
0.0
 49
1.0
 49
0.0
 49
0.0
 49
0.0
 49
0.0
 49
1.0
175
     0
142
0.0208333333333333
142
0.0
142
0.0
142
0.0
142
0.0
142
0.0208333333333333
142
0.0
142
0.0
142
0.0
142
0.0
142
1.0
142
0.0
142
0.0
142
0.0
142
0.0
142
1.0
179
     0
144
0.0208333333333333
144
0.0
144
0.0
144
0.0
144
0.0
144
0.0208333333333333
144
0.0
144
0.0
144
0.0
144
0.0
144
1.0
144
0.0
144
0.0
144
0.0
144
0.0
144
1.0
147
0.0208333333333333
147
0.0
147
0.0
147
0.0
147
0.0
147
0.0208333333333333
147
0.0
147
0.0
147
0.0
147
0.0
147
1.0
147
0.0
147
0.0
147
0.0
147
0.0
147
1.0
  0
MATERIAL
  5
8A69
102
{ACAD_XDICTIONARY
360
8A6A
102
}
102
{ACAD_REACTORS
330
8A58
102
}
330
8A58
100
AcDbMaterial
  1
Global
 72
     0
 43
0.0208333333333333
 43
0.0
 43
0.0
 43
0.0
 43
0.0
 43
0.0208333333333333
 43
0.0
 43
0.0
 43
0.0
 43
0.0
 43
1.0
 43
0.0
 43
0.0
 43
0.0
 43
0.0
 43
1.0
 77
     0
 47
0.0208333333333333
 47
0.0
 47
0.0
 47
0.0
 47
0.0
 47
0.0208333333333333
 47
0.0
 47
0.0
 47
0.0
 47
0.0
 47
1.0
 47
0.0
 47
0.0
 47
0.0
 47
0.0
 47
1.0
171
     0
 49
0.0208333333333333
 49
0.0
 49
0.0
 49
0.0
 49
0.0
 49
0.0208333333333333
 49
0.0
 49
0.0
 49
0.0
 49
0.0
 49
1.0
 49
0.0
 49
0.0
 49
0.0
 49
0.0
 49
1.0
175
     0
142
0.0208333333333333
142
0.0
142
0.0
142
0.0
142
0.0
142
0.0208333333333333
142
0.0
142
0.0
142
0.0
142
0.0
142
1.0
142
0.0
142
0.0
142
0.0
142
0.0
142
1.0
179
     0
144
0.0208333333333333
144
0.0
144
0.0
144
0.0
144
0.0
144
0.0208333333333333
144
0.0
144
0.0
144
0.0
144
0.0
144
1.0
144
0.0
144
0.0
144
0.0
144
0.0
144
1.0
147
0.0208333333333333
147
0.0
147
0.0
147
0.0
147
0.0
147
0.0208333333333333
147
0.0
147
0.0
147
0.0
147
0.0
147
1.0
147
0.0
147
0.0
147
0.0
147
0.0
147
1.0
  0
MLEADERSTYLE
  5
8AA0
102
{ACAD_REACTORS
330
8A9F
102
}
330
8A9F
100
AcDbMLeaderStyle
179
     2
170
     2
171
     1
172
     0
 90
        2
 40
0.0
 41
0.0
173
     1
 91
-1056964608
340
13
 92
       -2
290
     1
 42
0.09
291
     1
 43
0.36
  3
Standard
 44
0.18
300

342
11
174
     1
178
     6
175
     1
176
     0
 93
-1056964608
 45
0.18
292
     0
297
     0
 46
0.18
 94
-1056964608
 47
1.0
 49
1.0
140
1.0
293
     1
141
0.0
294
     1
177
     0
142
1.0
295
     0
296
     0
143
0.125
271
     0
272
     9
273
     9
298
     0
  0
MLINESTYLE
  5
17
102
{ACAD_REACTORS
330
16
102
}
330
16
100
AcDbMlineStyle
  2
STANDARD
 70
     0
  3

 62
   256
 51
90.0
 52
90.0
 71
     2
 49
0.5
 62
   256
  6
BYLAYER
 49
-0.5
 62
   256
  6
BYLAYER
  0
ACDBPLACEHOLDER
  5
F
102
{ACAD_REACTORS
330
E
102
}
330
E
  0
SCALE
  5
8A8E
102
{ACAD_REACTORS
330
8A8D
102
}
330
8A8D
100
AcDbScale
 70
     0
300
1:1
140
1.0
141
1.0
290
     1
  0
SCALE
  5
8A8F
102
{ACAD_REACTORS
330
8A8D
102
}
330
8A8D
100
AcDbScale
 70
     0
300
1/128" = 1'-0"
140
0.0078125
141
12.0
290
     0
  0
SCALE
  5
8A90
102
{ACAD_REACTORS
330
8A8D
102
}
330
8A8D
100
AcDbScale
 70
     0
300
1/64" = 1'-0"
140
0.015625
141
12.0
290
     0
  0
SCALE
  5
8A91
102
{ACAD_REACTORS
330
8A8D
102
}
330
8A8D
100
AcDbScale
 70
     0
300
1/32" = 1'-0"
140
0.03125
141
12.0
290
     0
  0
SCALE
  5
8A92
102
{ACAD_REACTORS
330
8A8D
102
}
330
8A8D
100
AcDbScale
 70
     0
300
1/16" = 1'-0"
140
0.0625
141
12.0
290
     0
  0
SCALE
  5
8A93
102
{ACAD_REACTORS
330
8A8D
102
}
330
8A8D
100
AcDbScale
 70
     0
300
3/32" = 1'-0"
140
0.09375
141
12.0
290
     0
  0
SCALE
  5
8A94
102
{ACAD_REACTORS
330
8A8D
102
}
330
8A8D
100
AcDbScale
 70
     0
300
1/8" = 1'-0"
140
0.125
141
12.0
290
     0
  0
SCALE
  5
8A95
102
{ACAD_REACTORS
330
8A8D
102
}
330
8A8D
100
AcDbScale
 70
     0
300
3/16" = 1'-0"
140
0.1875
141
12.0
290
     0
  0
SCALE
  5
8A96
102
{ACAD_REACTORS
330
8A8D
102
}
330
8A8D
100
AcDbScale
 70
     0
300
1/4" = 1'-0"
140
0.25
141
12.0
290
     0
  0
SCALE
  5
8A97
102
{ACAD_REACTORS
330
8A8D
102
}
330
8A8D
100
AcDbScale
 70
     0
300
3/8" = 1'-0"
140
0.375
141
12.0
290
     0
  0
SCALE
  5
8A98
102
{ACAD_REACTORS
330
8A8D
102
}
330
8A8D
100
AcDbScale
 70
     0
300
1/2" = 1'-0"
140
0.5
141
12.0
290
     0
  0
SCALE
  5
8A99
102
{ACAD_REACTORS
330
8A8D
102
}
330
8A8D
100
AcDbScale
 70
     0
300
3/4" = 1'-0"
140
0.75
141
12.0
290
     0
  0
SCALE
  5
8A9A
102
{ACAD_REACTORS
330
8A8D
102
}
330
8A8D
100
AcDbScale
 70
     0
300
1" = 1'-0"
140
1.0
141
12.0
290
     0
  0
SCALE
  5
8A9B
102
{ACAD_REACTORS
330
8A8D
102
}
330
8A8D
100
AcDbScale
 70
     0
300
1-1/2" = 1'-0"
140
1.5
141
12.0
290
     0
  0
SCALE
  5
8A9C
102
{ACAD_REACTORS
330
8A8D
102
}
330
8A8D
100
AcDbScale
 70
     0
300
3" = 1'-0"
140
3.0
141
12.0
290
     0
  0
SCALE
  5
8A9D
102
{ACAD_REACTORS
330
8A8D
102
}
330
8A8D
100
AcDbScale
 70
     0
300
6" = 1'-0"
140
6.0
141
12.0
290
     0
  0
SCALE
  5
8A9E
102
{ACAD_REACTORS
330
8A8D
102
}
330
8A8D
100
AcDbScale
 70
     0
300
1'-0" = 1'-0"
140
12.0
141
12.0
290
     0
  0
ACDBSECTIONVIEWSTYLE
  5
8AA2
102
{ACAD_XDICTIONARY
360
1E794
102
}
102
{ACAD_REACTORS
330
8AA1
102
}
330
8AA1
100
AcDbModelDocViewStyle
 70
     0
  3
Imperial24
290
     0
100
AcDbSectionViewStyle
 70
     0
 71
     0
 90
       78
 71
     1
340
11
 62
   256
 40
0.24
340
0
340
0
 62
   256
 40
0.24
300
I, O, Q, S, X, Z
 40
0.48
 90
        3
 40
0.18
 90
        1
 71
     2
340
15
 90
       25
 62
   256
340
15
 90
       50
 62
   256
 40
0.24
 40
0.0
 40
0.24
 71
     3
340
11
 62
   256
 40
0.24
 90
        1
 40
0.75
 90
        1
300
%<\AcVar ViewType \f "%tc1">% %<\AcVar ViewSectionStartId>%-%<\AcVar ViewSectionEndId>%\PSCALE %<\AcVar ViewScale \f "%sn">%
 71
     4
 62
   256
 62
   257
300
ANSI31
 40
1.0
 90
        0
290
     0
290
     0
 90
        6
 40
0.0
 40
1.570796326794896
 40
0.2617993877991494
 40
1.308996938995747
 40
-0.2617993877991494
 40
1.832595714594044
  0
TABLESTYLE
  5
8A8C
102
{ACAD_XDICTIONARY
360
8AED
102
}
102
{ACAD_REACTORS
330
8A8B
102
}
330
8A8B
100
AcDbTableStyle
280
     0
  3
Standard
 70
     0
 71
     0
 40
0.06
 41
0.06
280
     0
281
     0
  7
STANDARD
140
0.18
170
     2
 62
     0
 63
     7
283
     0
 90
      512
 91
        0
  1

274
    -2
284
     1
 64
     0
275
    -2
285
     1
 65
     0
276
    -2
286
     1
 66
     0
277
    -2
287
     1
 67
     0
278
    -2
288
     1
 68
     0
279
    -2
289
     1
 69
     0
  7
STANDARD
140
0.25
170
     5
 62
     0
 63
     7
283
     0
 90
      512
 91
        0
  1

274
    -2
284
     1
 64
     0
275
    -2
285
     1
 65
     0
276
    -2
286
     1
 66
     0
277
    -2
287
     1
 67
     0
278
    -2
288
     1
 68
     0
279
    -2
289
     1
 69
     0
  7
STANDARD
140
0.18
170
     5
 62
     0
 63
     7
283
     0
 90
      512
 91
        0
  1

274
    -2
284
     1
 64
     0
275
    -2
285
     1
 65
     0
276
    -2
286
     1
 66
     0
277
    -2
287
     1
 67
     0
278
    -2
288
     1
 68
     0
279
    -2
289
     1
 69
     0
  0
VISUALSTYLE
  5
8A77
102
{ACAD_REACTORS
330
8A71
102
}
330
8A71
100
AcDbVisualStyle
  2
2dWireframe
 70
     4
177
     3
291
     0
 70
    58
 90
        0
176
     1
 90
        2
176
     1
 90
        0
176
     1
 90
        0
176
     1
 40
0.6
176
     1
 40
30.0
176
     1
 62
     7
420
 16777215
176
     1
 90
        1
176
     1
 90
        4
176
     1
 62
     7
176
     1
 62
   257
176
     1
 90
        1
176
     1
 90
        1
176
     1
 40
1.0
176
     1
 90
        0
176
     1
 62
   257
176
     1
 40
1.0
176
     1
 90
        1
176
     1
 90
        6
176
     1
 90
        2
176
     1
 62
     7
176
     1
 90
        5
176
     1
 90
        0
176
     1
 90
        0
176
     1
290
     0
176
     1
 90
        1
176
     1
 40
0.0
176
     1
 90
        0
176
     1
290
     1
176
     1
290
     1
176
     1
290
     0
176
     1
290
     0
176
     1
290
     0
176
     1
290
     0
176
     1
290
     0
176
     1
290
     0
176
     1
290
     0
176
     1
 90
       50
176
     1
 40
0.0
176
     1
 40
1.0
176
     1
 90
        0
176
     1
 62
    18
420
        0
176
     1
 90
       50
176
     1
 90
        3
176
     1
 62
     5
420
      255
176
     1
290
     0
176
     1
 90
       50
176
     1
 90
       50
176
     1
 90
       50
176
     1
290
     0
176
     1
 90
       50
176
     1
 62
   256
176
     0
 40
1.0
176
     0
 90
        2
176
     1
  1
strokes_ogs.tif
176
     1
290
     0
176
     1
 40
1.0
176
     1
 40
1.0
176
     1
  0
VISUALSTYLE
  5
8B2B
102
{ACAD_REACTORS
330
8A71
102
}
330
8A71
100
AcDbVisualStyle
  2
3D Hidden
 70
     6
177
     3
291
     0
 70
    58
 90
        1
176
     1
 90
        2
176
     1
 90
        2
176
     1
 90
        0
176
     1
 40
0.6
176
     1
 40
30.0
176
     1
 62
     7
420
 16777215
176
     1
 90
        2
176
     1
 90
        2
176
     1
 62
     7
176
     1
 62
   257
176
     1
 90
        2
176
     1
 90
        1
176
     1
 40
179.0
176
     1
 90
        0
176
     1
 62
   257
176
     1
 40
1.0
176
     1
 90
        1
176
     1
 90
        6
176
     1
 90
        2
176
     1
 62
     7
176
     1
 90
        3
176
     1
 90
        0
176
     1
 90
        0
176
     1
290
     0
176
     1
 90
        1
176
     1
 40
0.0
176
     1
 90
        0
176
     1
290
     0
176
     1
290
     1
176
     1
290
     1
176
     1
290
     0
176
     1
290
     0
176
     1
290
     0
176
     1
290
     0
176
     1
290
     0
176
     1
290
     0
176
     1
 90
       50
176
     1
 40
0.0
176
     1
 40
1.0
176
     1
 90
        0
176
     1
 62
    18
420
        0
176
     1
 90
       50
176
     1
 90
        3
176
     1
 62
     5
420
      255
176
     1
290
     0
176
     1
 90
       50
176
     1
 90
       50
176
     1
 90
       50
176
     1
290
     0
176
     1
 90
       50
176
     1
 62
   256
176
     0
 40
1.0
176
     0
 90
        2
176
     1
  1
strokes_ogs.tif
176
     1
290
     0
176
     1
 40
1.0
176
     1
 40
1.0
176
     1
  0
VISUALSTYLE
  5
8B2A
102
{ACAD_REACTORS
330
8A71
102
}
330
8A71
100
AcDbVisualStyle
  2
3dWireframe
 70
     5
177
     3
291
     0
 70
    58
 90
        0
176
     1
 90
        2
176
     1
 90
        0
176
     1
 90
        0
176
     1
 40
0.6
176
     1
 40
30.0
176
     1
 62
     7
420
 16777215
176
     1
 90
        1
176
     1
 90
        4
176
     1
 62
     7
176
     1
 62
   257
176
     1
 90
        1
176
     1
 90
        1
176
     1
 40
1.0
176
     1
 90
        0
176
     1
 62
   257
176
     1
 40
1.0
176
     1
 90
        1
176
     1
 90
        6
176
     1
 90
        2
176
     1
 62
     7
176
     1
 90
        5
176
     1
 90
        0
176
     1
 90
        0
176
     1
290
     0
176
     1
 90
        1
176
     1
 40
0.0
176
     1
 90
        0
176
     1
290
     0
176
     1
290
     1
176
     1
290
     1
176
     1
290
     0
176
     1
290
     0
176
     1
290
     0
176
     1
290
     0
176
     1
290
     0
176
     1
290
     0
176
     1
 90
       50
176
     1
 40
0.0
176
     1
 40
1.0
176
     1
 90
        0
176
     1
 62
    18
420
        0
176
     1
 90
       50
176
     1
 90
        3
176
     1
 62
     5
420
      255
176
     1
290
     0
176
     1
 90
       50
176
     1
 90
       50
176
     1
 90
       50
176
     1
290
     0
176
     1
 90
       50
176
     1
 62
   256
176
     0
 40
1.0
176
     0
 90
        2
176
     1
  1
strokes_ogs.tif
176
     1
290
     0
176
     1
 40
1.0
176
     1
 40
1.0
176
     1
  0
VISUALSTYLE
  5
8A76
102
{ACAD_REACTORS
330
8A71
102
}
330
8A71
100
AcDbVisualStyle
  2
Basic
 70
     7
177
     3
291
     1
 70
    58
 90
        1
176
     1
 90
        0
176
     1
 90
        1
176
     1
 90
        0
176
     1
 40
0.6
176
     1
 40
30.0
176
     1
 62
     7
420
 16777215
176
     1
 90
        0
176
     1
 90
        4
176
     1
 62
     7
176
     1
 62
   257
176
     1
 90
        1
176
     1
 90
        1
176
     1
 40
1.0
176
     1
 90
        8
176
     1
 62
     7
176
     1
 40
1.0
176
     1
 90
        1
176
     1
 90
        6
176
     1
 90
        2
176
     1
 62
     7
176
     1
 90
        5
176
     1
 90
        0
176
     1
 90
        0
176
     1
290
     0
176
     1
 90
        1
176
     1
 40
0.0
176
     1
 90
        0
176
     1
290
     0
176
     1
290
     1
176
     1
290
     1
176
     1
290
     0
176
     1
290
     0
176
     1
290
     0
176
     1
290
     0
176
     1
290
     0
176
     1
290
     0
176
     1
 90
       50
176
     1
 40
0.0
176
     1
 40
1.0
176
     1
 90
        0
176
     1
 62
    18
420
        0
176
     1
 90
       50
176
     1
 90
        3
176
     1
 62
     5
420
      255
176
     1
290
     0
176
     1
 90
       50
176
     1
 90
       50
176
     1
 90
       50
176
     1
290
     0
176
     1
 90
       50
176
     1
 62
   256
176
     0
 40
1.0
176
     0
 90
        2
176
     1
  1
strokes_ogs.tif
176
     1
290
     0
176
     1
 40
1.0
176
     1
 40
1.0
176
     1
  0
VISUALSTYLE
  5
8A7D
102
{ACAD_REACTORS
330
8A71
102
}
330
8A71
100
AcDbVisualStyle
  2
Brighten
 70
    12
177
     3
291
     1
 70
    58
 90
        2
176
     1
 90
        2
176
     1
 90
        0
176
     1
 90
        0
176
     1
 40
0.6
176
     1
 40
30.0
176
     1
 62
     7
420
 16777215
176
     1
 90
        1
176
     1
 90
        4
176
     1
 62
     7
176
     1
 62
   257
176
     1
 90
        1
176
     1
 90
        1
176
     1
 40
1.0
176
     1
 90
        8
176
     1
 62
     7
176
     1
 40
1.0
176
     1
 90
        1
176
     1
 90
        6
176
     1
 90
        2
176
     1
 62
     7
176
     1
 90
        5
176
     1
 90
        0
176
     1
 90
        0
176
     1
290
     0
176
     1
 90
        1
176
     1
 40
50.0
176
     1
 90
        0
176
     1
290
     0
176
     1
290
     1
176
     1
290
     1
176
     1
290
     0
176
     1
290
     0
176
     1
290
     0
176
     1
290
     0
176
     1
290
     0
176
     1
290
     0
176
     1
 90
       50
176
     1
 40
0.0
176
     1
 40
1.0
176
     1
 90
        0
176
     1
 62
    18
420
        0
176
     1
 90
       50
176
     1
 90
        3
176
     1
 62
     5
420
      255
176
     1
290
     0
176
     1
 90
       50
176
     1
 90
       50
176
     1
 90
       50
176
     1
290
     0
176
     1
 90
       50
176
     1
 62
   256
176
     0
 40
1.0
176
     0
 90
        2
176
     1
  1
strokes_ogs.tif
176
     1
290
     0
176
     1
 40
1.0
176
     1
 40
1.0
176
     1
  0
VISUALSTYLE
  5
8A81
102
{ACAD_REACTORS
330
8A71
102
}
330
8A71
100
AcDbVisualStyle
  2
ColorChange
 70
    16
177
     3
291
     1
 70
    58
 90
        2
176
     1
 90
        2
176
     1
 90
        3
176
     1
 90
        0
176
     1
 40
0.6
176
     1
 40
30.0
176
     1
 62
     8
420
  8421504
176
     1
 90
        1
176
     1
 90
        4
176
     1
 62
     7
176
     1
 62
   257
176
     1
 90
        1
176
     1
 90
        1
176
     1
 40
1.0
176
     1
 90
        8
176
     1
 62
     8
420
  8421504
176
     1
 40
1.0
176
     1
 90
        1
176
     1
 90
        6
176
     1
 90
        2
176
     1
 62
     7
176
     1
 90
        5
176
     1
 90
        0
176
     1
 90
        0
176
     1
290
     0
176
     1
 90
        1
176
     1
 40
0.0
176
     1
 90
        0
176
     1
290
     0
176
     1
290
     1
176
     1
290
     1
176
     1
290
     0
176
     1
290
     0
176
     1
290
     0
176
     1
290
     0
176
     1
290
     0
176
     1
290
     0
176
     1
 90
       50
176
     1
 40
0.0
176
     1
 40
1.0
176
     1
 90
        0
176
     1
 62
    18
420
        0
176
     1
 90
       50
176
     1
 90
        3
176
     1
 62
     5
420
      255
176
     1
290
     0
176
     1
 90
       50
176
     1
 90
       50
176
     1
 90
       50
176
     1
290
     0
176
     1
 90
       50
176
     1
 62
   256
176
     0
 40
1.0
176
     0
 90
        2
176
     1
  1
strokes_ogs.tif
176
     1
290
     0
176
     1
 40
1.0
176
     1
 40
1.0
176
     1
  0
VISUALSTYLE
  5
8A7A
102
{ACAD_REACTORS
330
8A71
102
}
330
8A71
100
AcDbVisualStyle
  2
Conceptual
 70
     9
177
     3
291
     0
 70
    58
 90
        3
176
     1
 90
        2
176
     1
 90
        0
176
     1
 90
        0
176
     1
 40
0.6
176
     1
 40
30.0
176
     1
 62
     7
420
 16777215
176
     1
 90
        2
176
     1
 90
        2
176
     1
 62
     7
176
     1
 62
   257
176
     1
 90
        1
176
     1
 90
        1
176
     1
 40
179.0
176
     1
 90
        8
176
     1
 62
     7
176
     1
 40
1.0
176
     1
 90
        1
176
     1
 90
        6
176
     1
 90
        2
176
     1
 62
     7
176
     1
 90
        3
176
     1
 90
        0
176
     1
 90
        0
176
     1
290
     0
176
     1
 90
        1
176
     1
 40
0.0
176
     1
 90
        0
176
     1
290
     0
176
     1
290
     1
176
     1
290
     1
176
     1
290
     0
176
     1
290
     0
176
     1
290
     0
176
     1
290
     0
176
     1
290
     0
176
     1
290
     0
176
     1
 90
       50
176
     1
 40
0.0
176
     1
 40
1.0
176
     1
 90
        0
176
     1
 62
    18
420
        0
176
     1
 90
       50
176
     1
 90
        3
176
     1
 62
     5
420
      255
176
     1
290
     0
176
     1
 90
       50
176
     1
 90
       50
176
     1
 90
       50
176
     1
290
     0
176
     1
 90
       50
176
     1
 62
   256
176
     0
 40
1.0
176
     0
 90
        2
176
     1
  1
strokes_ogs.tif
176
     1
290
     0
176
     1
 40
1.0
176
     1
 40
1.0
176
     1
  0
VISUALSTYLE
  5
8A7C
102
{ACAD_REACTORS
330
8A71
102
}
330
8A71
100
AcDbVisualStyle
  2
Dim
 70
    11
177
     3
291
     1
 70
    58
 90
        2
176
     1
 90
        2
176
     1
 90
        0
176
     1
 90
        0
176
     1
 40
0.6
176
     1
 40
30.0
176
     1
 62
     7
420
 16777215
176
     1
 90
        1
176
     1
 90
        4
176
     1
 62
     7
176
     1
 62
   257
176
     1
 90
        1
176
     1
 90
        1
176
     1
 40
1.0
176
     1
 90
        8
176
     1
 62
     7
176
     1
 40
1.0
176
     1
 90
        1
176
     1
 90
        6
176
     1
 90
        2
176
     1
 62
     7
176
     1
 90
        5
176
     1
 90
        0
176
     1
 90
        0
176
     1
290
     0
176
     1
 90
        1
176
     1
 40
-50.0
176
     1
 90
        0
176
     1
290
     0
176
     1
290
     1
176
     1
290
     1
176
     1
290
     0
176
     1
290
     0
176
     1
290
     0
176
     1
290
     0
176
     1
290
     0
176
     1
290
     0
176
     1
 90
       50
176
     1
 40
0.0
176
     1
 40
1.0
176
     1
 90
        0
176
     1
 62
    18
420
        0
176
     1
 90
       50
176
     1
 90
        3
176
     1
 62
     5
420
      255
176
     1
290
     0
176
     1
 90
       50
176
     1
 90
       50
176
     1
 90
       50
176
     1
290
     0
176
     1
 90
       50
176
     1
 62
   256
176
     0
 40
1.0
176
     0
 90
        2
176
     1
  1
strokes_ogs.tif
176
     1
290
     0
176
     1
 40
1.0
176
     1
 40
1.0
176
     1
  0
VISUALSTYLE
  5
8A89
102
{ACAD_REACTORS
330
8A71
102
}
330
8A71
100
AcDbVisualStyle
  2
EdgeColorOff
 70
    22
177
     3
291
     1
 70
    58
 90
        2
176
     0
 90
        2
176
     0
 90
        0
176
     0
 90
        0
176
     0
 40
0.6
176
     0
 40
30.0
176
     0
 62
     7
420
 16777215
176
     0
 90
        1
176
     0
 90
        4
176
     0
 62
     7
176
     0
 62
   257
176
     0
 90
        1
176
     0
 90
        1
176
     0
 40
1.0
176
     0
 90
        8
176
     2
 62
     7
176
     0
 40
1.0
176
     0
 90
        1
176
     0
 90
        6
176
     0
 90
        2
176
     0
 62
     7
176
     0
 90
        5
176
     0
 90
        0
176
     0
 90
        0
176
     0
290
     0
176
     0
 90
        1
176
     0
 40
0.0
176
     0
 90
        0
176
     0
290
     0
176
     1
290
     1
176
     1
290
     1
176
     1
290
     0
176
     1
290
     0
176
     1
290
     0
176
     1
290
     0
176
     1
290
     0
176
     1
290
     0
176
     1
 90
       50
176
     0
 40
0.0
176
     0
 40
1.0
176
     0
 90
        0
176
     0
 62
    18
420
        0
176
     0
 90
       50
176
     0
 90
        3
176
     0
 62
     5
420
      255
176
     0
290
     0
176
     1
 90
       50
176
     0
 90
       50
176
     0
 90
       50
176
     0
290
     0
176
     1
 90
       50
176
     0
 62
   256
176
     0
 40
1.0
176
     0
 90
        2
176
     0
  1
strokes_ogs.tif
176
     0
290
     0
176
     1
 40
1.0
176
     0
 40
1.0
176
     0
  0
VISUALSTYLE
  5
8A80
102
{ACAD_REACTORS
330
8A71
102
}
330
8A71
100
AcDbVisualStyle
  2
Facepattern
 70
    15
177
     3
291
     1
 70
    58
 90
        2
176
     1
 90
        2
176
     1
 90
        0
176
     1
 90
        0
176
     1
 40
0.6
176
     1
 40
30.0
176
     1
 62
     7
420
 16777215
176
     1
 90
        1
176
     1
 90
        4
176
     1
 62
     7
176
     1
 62
   257
176
     1
 90
        1
176
     1
 90
        1
176
     1
 40
1.0
176
     1
 90
        8
176
     1
 62
     7
176
     1
 40
1.0
176
     1
 90
        1
176
     1
 90
        6
176
     1
 90
        2
176
     1
 62
     7
176
     1
 90
        5
176
     1
 90
        0
176
     1
 90
        0
176
     1
290
     0
176
     1
 90
        1
176
     1
 40
0.0
176
     1
 90
        0
176
     1
290
     0
176
     1
290
     1
176
     1
290
     1
176
     1
290
     0
176
     1
290
     0
176
     1
290
     0
176
     1
290
     0
176
     1
290
     0
176
     1
290
     0
176
     1
 90
       50
176
     1
 40
0.0
176
     1
 40
1.0
176
     1
 90
        0
176
     1
 62
    18
420
        0
176
     1
 90
       50
176
     1
 90
        3
176
     1
 62
     5
420
      255
176
     1
290
     0
176
     1
 90
       50
176
     1
 90
       50
176
     1
 90
       50
176
     1
290
     0
176
     1
 90
       50
176
     1
 62
   256
176
     0
 40
1.0
176
     0
 90
        2
176
     1
  1
strokes_ogs.tif
176
     1
290
     0
176
     1
 40
1.0
176
     1
 40
1.0
176
     1
  0
VISUALSTYLE
  5
8A72
102
{ACAD_REACTORS
330
8A71
102
}
330
8A71
100
AcDbVisualStyle
  2
Flat
 70
     0
177
     3
291
     1
 70
    58
 90
        2
176
     1
 90
        1
176
     1
 90
        1
176
     1
 90
        2
176
     1
 40
0.6
176
     1
 40
30.0
176
     1
 62
     7
420
 16777215
176
     1
 90
        0
176
     1
 90
        0
176
     1
 62
     7
176
     1
 62
   257
176
     1
 90
        1
176
     1
 90
        1
176
     1
 40
1.0
176
     1
 90
        8
176
     1
 62
     7
176
     1
 40
1.0
176
     1
 90
        1
176
     1
 90
        6
176
     1
 90
        2
176
     1
 62
     7
176
     1
 90
        5
176
     1
 90
        0
176
     1
 90
        0
176
     1
290
     0
176
     1
 90
       13
176
     1
 40
0.0
176
     1
 90
        0
176
     1
290
     0
176
     1
290
     1
176
     1
290
     1
176
     1
290
     0
176
     1
290
     0
176
     1
290
     0
176
     1
290
     0
176
     1
290
     0
176
     1
290
     0
176
     1
 90
       50
176
     1
 40
0.0
176
     1
 40
1.0
176
     1
 90
        0
176
     1
 62
    18
420
        0
176
     1
 90
       50
176
     1
 90
        3
176
     1
 62
     5
420
      255
176
     1
290
     0
176
     1
 90
       50
176
     1
 90
       50
176
     1
 90
       50
176
     1
290
     0
176
     1
 90
       50
176
     1
 62
   256
176
     0
 40
1.0
176
     0
 90
        2
176
     1
  1
strokes_ogs.tif
176
     1
290
     0
176
     1
 40
1.0
176
     1
 40
1.0
176
     1
  0
VISUALSTYLE
  5
8A73
102
{ACAD_REACTORS
330
8A71
102
}
330
8A71
100
AcDbVisualStyle
  2
FlatWithEdges
 70
     1
177
     3
291
     1
 70
    58
 90
        2
176
     1
 90
        1
176
     1
 90
        1
176
     1
 90
        2
176
     1
 40
0.6
176
     1
 40
30.0
176
     1
 62
     7
420
 16777215
176
     1
 90
        1
176
     1
 90
        0
176
     1
 62
     7
176
     1
 62
   257
176
     1
 90
        1
176
     1
 90
        1
176
     1
 40
1.0
176
     1
 90
        0
176
     1
 62
   257
176
     1
 40
1.0
176
     1
 90
        1
176
     1
 90
        6
176
     1
 90
        2
176
     1
 62
     7
176
     1
 90
        5
176
     1
 90
        0
176
     1
 90
        0
176
     1
290
     0
176
     1
 90
       13
176
     1
 40
0.0
176
     1
 90
        0
176
     1
290
     0
176
     1
290
     1
176
     1
290
     1
176
     1
290
     0
176
     1
290
     0
176
     1
290
     0
176
     1
290
     0
176
     1
290
     0
176
     1
290
     0
176
     1
 90
       50
176
     1
 40
0.0
176
     1
 40
1.0
176
     1
 90
        0
176
     1
 62
    18
420
        0
176
     1
 90
       50
176
     1
 90
        3
176
     1
 62
     5
420
      255
176
     1
290
     0
176
     1
 90
       50
176
     1
 90
       50
176
     1
 90
       50
176
     1
290
     0
176
     1
 90
       50
176
     1
 62
   256
176
     0
 40
1.0
176
     0
 90
        2
176
     1
  1
strokes_ogs.tif
176
     1
290
     0
176
     1
 40
1.0
176
     1
 40
1.0
176
     1
  0
VISUALSTYLE
  5
8A74
102
{ACAD_REACTORS
330
8A71
102
}
330
8A71
100
AcDbVisualStyle
  2
Gouraud
 70
     2
177
     3
291
     1
 70
    58
 90
        2
176
     1
 90
        2
176
     1
 90
        1
176
     1
 90
        2
176
     1
 40
0.6
176
     1
 40
30.0
176
     1
 62
     7
420
 16777215
176
     1
 90
        0
176
     1
 90
        0
176
     1
 62
     7
176
     1
 62
   257
176
     1
 90
        1
176
     1
 90
        1
176
     1
 40
1.0
176
     1
 90
        0
176
     1
 62
     7
176
     1
 40
1.0
176
     1
 90
        1
176
     1
 90
        6
176
     1
 90
        2
176
     1
 62
     7
176
     1
 90
        5
176
     1
 90
        0
176
     1
 90
        0
176
     1
290
     0
176
     1
 90
       13
176
     1
 40
0.0
176
     1
 90
        0
176
     1
290
     0
176
     1
290
     1
176
     1
290
     1
176
     1
290
     0
176
     1
290
     0
176
     1
290
     0
176
     1
290
     0
176
     1
290
     0
176
     1
290
     0
176
     1
 90
       50
176
     1
 40
0.0
176
     1
 40
1.0
176
     1
 90
        0
176
     1
 62
    18
420
        0
176
     1
 90
       50
176
     1
 90
        3
176
     1
 62
     5
420
      255
176
     1
290
     0
176
     1
 90
       50
176
     1
 90
       50
176
     1
 90
       50
176
     1
290
     0
176
     1
 90
       50
176
     1
 62
   256
176
     0
 40
1.0
176
     0
 90
        2
176
     1
  1
strokes_ogs.tif
176
     1
290
     0
176
     1
 40
1.0
176
     1
 40
1.0
176
     1
  0
VISUALSTYLE
  5
8A75
102
{ACAD_REACTORS
330
8A71
102
}
330
8A71
100
AcDbVisualStyle
  2
GouraudWithEdges
 70
     3
177
     3
291
     1
 70
    58
 90
        2
176
     1
 90
        2
176
     1
 90
        1
176
     1
 90
        2
176
     1
 40
0.6
176
     1
 40
30.0
176
     1
 62
     7
420
 16777215
176
     1
 90
        1
176
     1
 90
        0
176
     1
 62
     7
176
     1
 62
   257
176
     1
 90
        1
176
     1
 90
        1
176
     1
 40
1.0
176
     1
 90
        0
176
     1
 62
   257
176
     1
 40
1.0
176
     1
 90
        1
176
     1
 90
        6
176
     1
 90
        2
176
     1
 62
     7
176
     1
 90
        5
176
     1
 90
        0
176
     1
 90
        0
176
     1
290
     0
176
     1
 90
       13
176
     1
 40
0.0
176
     1
 90
        0
176
     1
290
     0
176
     1
290
     1
176
     1
290
     1
176
     1
290
     0
176
     1
290
     0
176
     1
290
     0
176
     1
290
     0
176
     1
290
     0
176
     1
290
     0
176
     1
 90
       50
176
     1
 40
0.0
176
     1
 40
1.0
176
     1
 90
        0
176
     1
 62
    18
420
        0
176
     1
 90
       50
176
     1
 90
        3
176
     1
 62
     5
420
      255
176
     1
290
     0
176
     1
 90
       50
176
     1
 90
       50
176
     1
 90
       50
176
     1
290
     0
176
     1
 90
       50
176
     1
 62
   256
176
     0
 40
1.0
176
     0
 90
        2
176
     1
  1
strokes_ogs.tif
176
     1
290
     0
176
     1
 40
1.0
176
     1
 40
1.0
176
     1
  0
VISUALSTYLE
  5
8A79
102
{ACAD_REACTORS
330
8A71
102
}
330
8A71
100
AcDbVisualStyle
  2
Hidden
 70
     6
177
     3
291
     0
 70
    58
 90
        1
176
     1
 90
        2
176
     1
 90
        2
176
     1
 90
        0
176
     1
 40
0.6
176
     1
 40
30.0
176
     1
 62
     7
420
 16777215
176
     1
 90
        2
176
     1
 90
        2
176
     1
 62
     7
176
     1
 62
   257
176
     1
 90
        2
176
     1
 90
        1
176
     1
 40
40.0
176
     1
 90
        0
176
     1
 62
   257
176
     1
 40
1.0
176
     1
 90
        1
176
     1
 90
        6
176
     1
 90
        2
176
     1
 62
     7
176
     1
 90
        3
176
     1
 90
        0
176
     1
 90
        0
176
     1
290
     0
176
     1
 90
        1
176
     1
 40
0.0
176
     1
 90
        0
176
     1
290
     0
176
     1
290
     1
176
     1
290
     1
176
     1
290
     0
176
     1
290
     0
176
     1
290
     0
176
     1
290
     0
176
     1
290
     0
176
     1
290
     0
176
     1
 90
       50
176
     1
 40
0.0
176
     1
 40
1.0
176
     1
 90
        0
176
     1
 62
    18
420
        0
176
     1
 90
       50
176
     1
 90
        3
176
     1
 62
     5
420
      255
176
     1
290
     0
176
     1
 90
       50
176
     1
 90
       50
176
     1
 90
       50
176
     1
290
     0
176
     1
 90
       50
176
     1
 62
   256
176
     0
 40
1.0
176
     0
 90
        2
176
     1
  1
strokes_ogs.tif
176
     1
290
     0
176
     1
 40
1.0
176
     1
 40
1.0
176
     1
  0
VISUALSTYLE
  5
8A87
102
{ACAD_REACTORS
330
8A71
102
}
330
8A71
100
AcDbVisualStyle
  2
JitterOff
 70
    20
177
     3
291
     1
 70
    58
 90
        2
176
     0
 90
        2
176
     0
 90
        0
176
     0
 90
        0
176
     0
 40
0.6
176
     0
 40
30.0
176
     0
 62
     7
420
 16777215
176
     0
 90
        1
176
     0
 90
        4
176
     0
 62
     7
176
     0
 62
   257
176
     0
 90
        1
176
     0
 90
        1
176
     0
 40
1.0
176
     0
 90
       10
176
     2
 62
     7
176
     0
 40
1.0
176
     0
 90
        1
176
     0
 90
        6
176
     0
 90
        2
176
     0
 62
     7
176
     0
 90
        5
176
     0
 90
        0
176
     0
 90
        0
176
     0
290
     0
176
     0
 90
        1
176
     0
 40
0.0
176
     0
 90
        0
176
     0
290
     0
176
     1
290
     1
176
     1
290
     1
176
     1
290
     0
176
     1
290
     0
176
     1
290
     0
176
     1
290
     0
176
     1
290
     0
176
     1
290
     0
176
     1
 90
       50
176
     0
 40
0.0
176
     0
 40
1.0
176
     0
 90
        0
176
     0
 62
    18
420
        0
176
     0
 90
       50
176
     0
 90
        3
176
     0
 62
     5
420
      255
176
     0
290
     0
176
     1
 90
       50
176
     0
 90
       50
176
     0
 90
       50
176
     0
290
     0
176
     1
 90
       50
176
     0
 62
   256
176
     0
 40
1.0
176
     0
 90
        2
176
     0
  1
strokes_ogs.tif
176
     0
290
     0
176
     1
 40
1.0
176
     0
 40
1.0
176
     0
  0
VISUALSTYLE
  5
8A7F
102
{ACAD_REACTORS
330
8A71
102
}
330
8A71
100
AcDbVisualStyle
  2
Linepattern
 70
    14
177
     3
291
     1
 70
    58
 90
        2
176
     1
 90
        2
176
     1
 90
        0
176
     1
 90
        0
176
     1
 40
0.6
176
     1
 40
30.0
176
     1
 62
     7
420
 16777215
176
     1
 90
        1
176
     1
 90
        4
176
     1
 62
     7
176
     1
 62
   257
176
     1
 90
        7
176
     1
 90
        7
176
     1
 40
1.0
176
     1
 90
        8
176
     1
 62
     7
176
     1
 40
1.0
176
     1
 90
        1
176
     1
 90
        6
176
     1
 90
        2
176
     1
 62
     7
176
     1
 90
        5
176
     1
 90
        0
176
     1
 90
        0
176
     1
290
     0
176
     1
 90
        1
176
     1
 40
0.0
176
     1
 90
        0
176
     1
290
     0
176
     1
290
     1
176
     1
290
     1
176
     1
290
     0
176
     1
290
     0
176
     1
290
     0
176
     1
290
     0
176
     1
290
     0
176
     1
290
     0
176
     1
 90
       50
176
     1
 40
0.0
176
     1
 40
1.0
176
     1
 90
        0
176
     1
 62
    18
420
        0
176
     1
 90
       50
176
     1
 90
        3
176
     1
 62
     5
420
      255
176
     1
290
     0
176
     1
 90
       50
176
     1
 90
       50
176
     1
 90
       50
176
     1
290
     0
176
     1
 90
       50
176
     1
 62
   256
176
     0
 40
1.0
176
     0
 90
        2
176
     1
  1
strokes_ogs.tif
176
     1
290
     0
176
     1
 40
1.0
176
     1
 40
1.0
176
     1
  0
VISUALSTYLE
  5
8A88
102
{ACAD_REACTORS
330
8A71
102
}
330
8A71
100
AcDbVisualStyle
  2
OverhangOff
 70
    21
177
     3
291
     1
 70
    58
 90
        2
176
     0
 90
        2
176
     0
 90
        0
176
     0
 90
        0
176
     0
 40
0.6
176
     0
 40
30.0
176
     0
 62
     7
420
 16777215
176
     0
 90
        1
176
     0
 90
        4
176
     0
 62
     7
176
     0
 62
   257
176
     0
 90
        1
176
     0
 90
        1
176
     0
 40
1.0
176
     0
 90
        9
176
     2
 62
     7
176
     0
 40
1.0
176
     0
 90
        1
176
     0
 90
        6
176
     0
 90
        2
176
     0
 62
     7
176
     0
 90
        5
176
     0
 90
        0
176
     0
 90
        0
176
     0
290
     0
176
     0
 90
        1
176
     0
 40
0.0
176
     0
 90
        0
176
     0
290
     0
176
     1
290
     1
176
     1
290
     1
176
     1
290
     0
176
     1
290
     0
176
     1
290
     0
176
     1
290
     0
176
     1
290
     0
176
     1
290
     0
176
     1
 90
       50
176
     0
 40
0.0
176
     0
 40
1.0
176
     0
 90
        0
176
     0
 62
    18
420
        0
176
     0
 90
       50
176
     0
 90
        3
176
     0
 62
     5
420
      255
176
     0
290
     0
176
     1
 90
       50
176
     0
 90
       50
176
     0
 90
       50
176
     0
290
     0
176
     1
 90
       50
176
     0
 62
   256
176
     0
 40
1.0
176
     0
 90
        2
176
     0
  1
strokes_ogs.tif
176
     0
290
     0
176
     1
 40
1.0
176
     0
 40
1.0
176
     0
  0
VISUALSTYLE
  5
8A7B
102
{ACAD_REACTORS
330
8A71
102
}
330
8A71
100
AcDbVisualStyle
  2
Realistic
 70
     8
177
     3
291
     0
 70
    58
 90
        2
176
     1
 90
        3
176
     1
 90
        0
176
     1
 90
        2
176
     1
 40
0.6
176
     1
 40
30.0
176
     1
 62
     7
420
 16777215
176
     1
 90
        0
176
     1
 90
        0
176
     1
 62
     7
176
     1
 62
   257
176
     1
 90
        1
176
     1
 90
        1
176
     1
 40
1.0
176
     1
 90
        8
176
     1
 62
   257
176
     1
 40
1.0
176
     1
 90
        1
176
     1
 90
        6
176
     1
 90
        2
176
     1
 62
     7
176
     1
 90
        3
176
     1
 90
        0
176
     1
 90
        0
176
     1
290
     0
176
     1
 90
       13
176
     1
 40
0.0
176
     1
 90
        0
176
     1
290
     0
176
     1
290
     1
176
     1
290
     1
176
     1
290
     0
176
     1
290
     0
176
     1
290
     0
176
     1
290
     0
176
     1
290
     0
176
     1
290
     0
176
     1
 90
       50
176
     1
 40
0.0
176
     1
 40
1.0
176
     1
 90
        0
176
     1
 62
    18
420
        0
176
     1
 90
       50
176
     1
 90
        3
176
     1
 62
     5
420
      255
176
     1
290
     0
176
     1
 90
       50
176
     1
 90
       50
176
     1
 90
       50
176
     1
290
     0
176
     1
 90
       50
176
     1
 62
   256
176
     0
 40
1.0
176
     0
 90
        2
176
     1
  1
strokes_ogs.tif
176
     1
290
     0
176
     1
 40
1.0
176
     1
 40
1.0
176
     1
  0
VISUALSTYLE
  5
8A86
102
{ACAD_REACTORS
330
8A71
102
}
330
8A71
100
AcDbVisualStyle
  2
Shaded
 70
    27
177
     3
291
     0
 70
    58
 90
        2
176
     1
 90
        2
176
     1
 90
        1
176
     1
 90
        2
176
     1
 40
0.6
176
     1
 40
30.0
176
     1
 62
     7
420
 16777215
176
     1
 90
        0
176
     1
 90
        4
176
     1
 62
     7
176
     1
 62
   257
176
     1
 90
        1
176
     1
 90
        1
176
     1
 40
1.0
176
     1
 90
        8
176
     1
 62
   257
176
     1
 40
1.0
176
     1
 90
        1
176
     1
 90
        6
176
     1
 90
        2
176
     1
 62
     8
420
  7895160
176
     1
 90
        3
176
     1
 90
        0
176
     1
 90
        0
176
     1
290
     0
176
     1
 90
        5
176
     1
 40
0.0
176
     1
 90
        0
176
     1
290
     0
176
     1
290
     1
176
     1
290
     1
176
     1
290
     0
176
     1
290
     0
176
     1
290
     0
176
     1
290
     0
176
     1
290
     0
176
     1
290
     0
176
     1
 90
       50
176
     1
 40
0.0
176
     1
 40
1.0
176
     1
 90
        0
176
     1
 62
    18
420
        0
176
     1
 90
       50
176
     1
 90
        3
176
     1
 62
     5
420
      255
176
     1
290
     0
176
     1
 90
       50
176
     1
 90
       50
176
     1
 90
       50
176
     1
290
     0
176
     1
 90
       50
176
     1
 62
   256
176
     0
 40
1.0
176
     0
 90
        2
176
     1
  1
strokes_ogs.tif
176
     1
290
     0
176
     1
 40
1.0
176
     1
 40
1.0
176
     1
  0
VISUALSTYLE
  5
8A85
102
{ACAD_REACTORS
330
8A71
102
}
330
8A71
100
AcDbVisualStyle
  2
Shaded with edges
 70
    26
177
     3
291
     0
 70
    58
 90
        2
176
     1
 90
        2
176
     1
 90
        1
176
     1
 90
        2
176
     1
 40
0.6
176
     1
 40
30.0
176
     1
 62
     7
420
 16777215
176
     1
 90
        1
176
     1
 90
       10
176
     1
 62
     7
176
     1
 62
   257
176
     1
 90
        2
176
     1
 90
        1
176
     1
 40
1.0
176
     1
 90
        8
176
     1
 62
   257
176
     1
 40
1.0
176
     1
 90
        1
176
     1
 90
        6
176
     1
 90
        2
176
     1
 62
     7
176
     1
 90
        3
176
     1
 90
        0
176
     1
 90
        0
176
     1
290
     0
176
     1
 90
        5
176
     1
 40
0.0
176
     1
 90
        0
176
     1
290
     0
176
     1
290
     1
176
     1
290
     1
176
     1
290
     0
176
     1
290
     0
176
     1
290
     0
176
     1
290
     0
176
     1
290
     0
176
     1
290
     0
176
     1
 90
       50
176
     1
 40
0.0
176
     1
 40
1.0
176
     1
 90
        0
176
     1
 62
    18
420
        0
176
     1
 90
       50
176
     1
 90
        3
176
     1
 62
     5
420
      255
176
     1
290
     0
176
     1
 90
       50
176
     1
 90
       50
176
     1
 90
       50
176
     1
290
     0
176
     1
 90
       50
176
     1
 62
   256
176
     0
 40
1.0
176
     0
 90
        2
176
     1
  1
strokes_ogs.tif
176
     1
290
     0
176
     1
 40
1.0
176
     1
 40
1.0
176
     1
  0
VISUALSTYLE
  5
8A82
102
{ACAD_REACTORS
330
8A71
102
}
330
8A71
100
AcDbVisualStyle
  2
Shades of Gray
 70
    23
177
     3
291
     0
 70
    58
 90
        2
176
     1
 90
        2
176
     1
 90
        3
176
     1
 90
        0
176
     1
 40
0.6
176
     1
 40
30.0
176
     1
 62
     7
420
 16777215
176
     1
 90
        2
176
     1
 90
        2
176
     1
 62
     7
176
     1
 62
     7
176
     1
 90
        1
176
     1
 90
        1
176
     1
 40
40.0
176
     1
 90
        8
176
     1
 62
     7
176
     1
 40
1.0
176
     1
 90
        1
176
     1
 90
        6
176
     1
 90
        2
176
     1
 62
     7
176
     1
 90
        3
176
     1
 90
        0
176
     1
 90
        0
176
     1
290
     0
176
     1
 90
        1
176
     1
 40
0.0
176
     1
 90
        0
176
     1
290
     0
176
     1
290
     1
176
     1
290
     1
176
     1
290
     0
176
     1
290
     0
176
     1
290
     0
176
     1
290
     0
176
     1
290
     0
176
     1
290
     0
176
     1
 90
       50
176
     1
 40
0.0
176
     1
 40
1.0
176
     1
 90
        0
176
     1
 62
    18
420
        0
176
     1
 90
       50
176
     1
 90
        3
176
     1
 62
     5
420
      255
176
     1
290
     0
176
     1
 90
       50
176
     1
 90
       50
176
     1
 90
       50
176
     1
290
     0
176
     1
 90
       50
176
     1
 62
   256
176
     0
 40
1.0
176
     0
 90
        2
176
     1
  1
strokes_ogs.tif
176
     1
290
     0
176
     1
 40
1.0
176
     1
 40
1.0
176
     1
  0
VISUALSTYLE
  5
8A83
102
{ACAD_REACTORS
330
8A71
102
}
330
8A71
100
AcDbVisualStyle
  2
Sketchy
 70
    24
177
     3
291
     0
 70
    58
 90
        1
176
     1
 90
        2
176
     1
 90
        2
176
     1
 90
        0
176
     1
 40
0.6
176
     1
 40
30.0
176
     1
 62
     7
420
 16777215
176
     1
 90
        2
176
     1
 90
        2
176
     1
 62
     7
176
     1
 62
     7
176
     1
 90
        1
176
     1
 90
        1
176
     1
 40
40.0
176
     1
 90
       11
176
     1
 62
     7
176
     1
 40
1.0
176
     1
 90
        1
176
     1
 90
        6
176
     1
 90
        2
176
     1
 62
     7
176
     1
 90
        6
176
     1
 90
        0
176
     1
 90
        0
176
     1
290
     0
176
     1
 90
        1
176
     1
 40
0.0
176
     1
 90
        0
176
     1
290
     0
176
     1
290
     1
176
     1
290
     1
176
     1
290
     0
176
     1
290
     0
176
     1
290
     0
176
     1
290
     0
176
     1
290
     0
176
     1
290
     0
176
     1
 90
       50
176
     1
 40
0.0
176
     1
 40
1.0
176
     1
 90
        0
176
     1
 62
    18
420
        0
176
     1
 90
       50
176
     1
 90
        3
176
     1
 62
     5
420
      255
176
     1
290
     0
176
     1
 90
       50
176
     1
 90
       50
176
     1
 90
       50
176
     1
290
     0
176
     1
 90
       50
176
     1
 62
   256
176
     0
 40
1.0
176
     0
 90
        2
176
     1
  1
strokes_ogs.tif
176
     1
290
     0
176
     1
 40
1.0
176
     1
 40
1.0
176
     1
  0
VISUALSTYLE
  5
8A7E
102
{ACAD_REACTORS
330
8A71
102
}
330
8A71
100
AcDbVisualStyle
  2
Thicken
 70
    13
177
     3
291
     1
 70
    58
 90
        2
176
     1
 90
        2
176
     1
 90
        0
176
     1
 90
        0
176
     1
 40
0.6
176
     1
 40
30.0
176
     1
 62
     7
420
 16777215
176
     1
 90
        1
176
     1
 90
        4
176
     1
 62
     7
176
     1
 62
   257
176
     1
 90
        1
176
     1
 90
        1
176
     1
 40
1.0
176
     1
 90
       12
176
     1
 62
     7
176
     1
 40
1.0
176
     1
 90
        1
176
     1
 90
        6
176
     1
 90
        2
176
     1
 62
     7
176
     1
 90
        5
176
     1
 90
        0
176
     1
 90
        0
176
     1
290
     0
176
     1
 90
        1
176
     1
 40
0.0
176
     1
 90
        0
176
     1
290
     0
176
     1
290
     1
176
     1
290
     1
176
     1
290
     0
176
     1
290
     0
176
     1
290
     0
176
     1
290
     0
176
     1
290
     0
176
     1
290
     0
176
     1
 90
       50
176
     1
 40
0.0
176
     1
 40
1.0
176
     1
 90
        0
176
     1
 62
    18
420
        0
176
     1
 90
       50
176
     1
 90
        3
176
     1
 62
     5
420
      255
176
     1
290
     0
176
     1
 90
       50
176
     1
 90
       50
176
     1
 90
       50
176
     1
290
     0
176
     1
 90
       50
176
     1
 62
   256
176
     0
 40
1.0
176
     0
 90
        2
176
     1
  1
strokes_ogs.tif
176
     1
290
     0
176
     1
 40
1.0
176
     1
 40
1.0
176
     1
  0
VISUALSTYLE
  5
8A78
102
{ACAD_REACTORS
330
8A71
102
}
330
8A71
100
AcDbVisualStyle
  2
Wireframe
 70
     5
177
     3
291
     0
 70
    58
 90
        0
176
     1
 90
        2
176
     1
 90
        0
176
     1
 90
        0
176
     1
 40
0.6
176
     1
 40
30.0
176
     1
 62
     7
420
 16777215
176
     1
 90
        1
176
     1
 90
        4
176
     1
 62
     7
176
     1
 62
   257
176
     1
 90
        1
176
     1
 90
        1
176
     1
 40
1.0
176
     1
 90
        0
176
     1
 62
   257
176
     1
 40
1.0
176
     1
 90
        1
176
     1
 90
        6
176
     1
 90
        2
176
     1
 62
     7
176
     1
 90
        3
176
     1
 90
        0
176
     1
 90
        0
176
     1
290
     0
176
     1
 90
        1
176
     1
 40
0.0
176
     1
 90
        0
176
     1
290
     0
176
     1
290
     1
176
     1
290
     1
176
     1
290
     0
176
     1
290
     0
176
     1
290
     0
176
     1
290
     0
176
     1
290
     0
176
     1
290
     0
176
     1
 90
       50
176
     1
 40
0.0
176
     1
 40
1.0
176
     1
 90
        0
176
     1
 62
    18
420
        0
176
     1
 90
       50
176
     1
 90
        3
176
     1
 62
     5
420
      255
176
     1
290
     0
176
     1
 90
       50
176
     1
 90
       50
176
     1
 90
       50
176
     1
290
     0
176
     1
 90
       50
176
     1
 62
   256
176
     0
 40
1.0
176
     0
 90
        2
176
     1
  1
strokes_ogs.tif
176
     1
290
     0
176
     1
 40
1.0
176
     1
 40
1.0
176
     1
  0
VISUALSTYLE
  5
8A84
102
{ACAD_REACTORS
330
8A71
102
}
330
8A71
100
AcDbVisualStyle
  2
X-Ray
 70
    25
177
     3
291
     0
 70
    58
 90
        2
176
     1
 90
        2
176
     1
 90
        1
176
     1
 90
        1
176
     1
 40
0.5
176
     1
 40
30.0
176
     1
 62
     7
420
 16777215
176
     1
 90
        1
176
     1
 90
        0
176
     1
 62
     7
176
     1
 62
   257
176
     1
 90
        1
176
     1
 90
        1
176
     1
 40
1.0
176
     1
 90
        8
176
     1
 62
     7
176
     1
 40
1.0
176
     1
 90
        1
176
     1
 90
        6
176
     1
 90
        2
176
     1
 62
     7
176
     1
 90
        3
176
     1
 90
        0
176
     1
 90
        0
176
     1
290
     0
176
     1
 90
       13
176
     1
 40
0.0
176
     1
 90
        0
176
     1
290
     0
176
     1
290
     1
176
     1
290
     1
176
     1
290
     0
176
     1
290
     0
176
     1
290
     0
176
     1
290
     0
176
     1
290
     0
176
     1
290
     0
176
     1
 90
       50
176
     1
 40
0.0
176
     1
 40
1.0
176
     1
 90
        0
176
     1
 62
    18
420
        0
176
     1
 90
       50
176
     1
 90
        3
176
     1
 62
     5
420
      255
176
     1
290
     0
176
     1
 90
       50
176
     1
 90
       50
176
     1
 90
       50
176
     1
290
     0
176
     1
 90
       50
176
     1
 62
   256
176
     0
 40
1.0
176
     0
 90
        2
176
     1
  1
strokes_ogs.tif
176
     1
290
     0
176
     1
 40
1.0
176
     1
 40
1.0
176
     1
  0
DICTIONARYVAR
  5
8AE9
102
{ACAD_REACTORS
330
5697
102
}
330
5697
100
DictionaryVariables
280
     0
  1
1:1
  0
DICTIONARYVAR
  5
8AE5
102
{ACAD_REACTORS
330
5697
102
}
330
5697
100
DictionaryVariables
280
     0
  1
STANDARD
  0
DICTIONARYVAR
  5
8AE4
102
{ACAD_REACTORS
330
5697
102
}
330
5697
100
DictionaryVariables
280
     0
  1
STANDARD
  0
DICTIONARYVAR
  5
8AE6
102
{ACAD_REACTORS
330
5697
102
}
330
5697
100
DictionaryVariables
280
     0
  1
Imperial24
  0
DICTIONARYVAR
  5
8AE7
102
{ACAD_REACTORS
330
5697
102
}
330
5697
100
DictionaryVariables
280
     0
  1
Imperial24
  0
DICTIONARYVAR
  5
5698
102
{ACAD_REACTORS
330
5697
102
}
330
5697
100
DictionaryVariables
280
     0
  1
1
  0
DICTIONARYVAR
  5
8AEB
102
{ACAD_REACTORS
330
5697
102
}
330
5697
100
DictionaryVariables
280
     0
  1
1
  0
DICTIONARYVAR
  5
8AEC
102
{ACAD_REACTORS
330
5697
102
}
330
5697
100
DictionaryVariables
280
     0
  1
15
  0
DICTIONARYVAR
  5
8AEA
102
{ACAD_REACTORS
330
5697
102
}
330
5697
100
DictionaryVariables
280
     0
  1
0
  0
DICTIONARYVAR
  5
8AE8
102
{ACAD_REACTORS
330
5697
102
}
330
5697
100
DictionaryVariables
280
     0
  1
0
  0
DICTIONARY
  5
1E796
330
8AA4
100
AcDbDictionary
280
     1
281
     1
  3
ACAD_XREC_ROUNDTRIP
360
1E797
  0
DICTIONARY
  5
F3D2
330
8A4C
100
AcDbDictionary
280
     1
281
     1
  0
DICTIONARY
  5
8A62
330
8A61
100
AcDbDictionary
280
     1
281
     1
  3
BUMPTILE
360
8A64
  3
DIFFUSETILE
360
8A63
  3
OPACITYTILE
360
8A67
  3
REFLECTIONTILE
360
8A66
  3
REFRACTIONTILE
360
8A68
  3
SPECULARTILE
360
8A65
  0
DICTIONARY
  5
8A5A
330
8A59
100
AcDbDictionary
280
     1
281
     1
  3
BUMPTILE
360
8A5C
  3
DIFFUSETILE
360
8A5B
  3
OPACITYTILE
360
8A5F
  3
REFLECTIONTILE
360
8A5E
  3
REFRACTIONTILE
360
8A60
  3
SPECULARTILE
360
8A5D
  0
DICTIONARY
  5
8A6A
330
8A69
100
AcDbDictionary
280
     1
281
     1
  3
BUMPTILE
360
8A6C
  3
DIFFUSETILE
360
8A6B
  3
OPACITYTILE
360
8A6F
  3
REFLECTIONTILE
360
8A6E
  3
REFRACTIONTILE
360
8A70
  3
SPECULARTILE
360
8A6D
  0
DICTIONARY
  5
1E794
330
8AA2
100
AcDbDictionary
280
     1
281
     1
  3
ACAD_XREC_ROUNDTRIP
360
1E795
  0
DICTIONARY
  5
8AED
330
8A8C
100
AcDbDictionary
280
     1
281
     1
  3
ACAD_ROUNDTRIP_2008_TABLESTYLE_CELLSTYLEMAP
360
1E793
  0
XRECORD
  5
1E797
102
{ACAD_REACTORS
330
1E796
102
}
330
1E796
100
AcDbXrecord
280
     1
102
DISPLAYNAME
  1
Imperial24
102
FLAGS
 90
        0
  0
XRECORD
  5
8A64
102
{ACAD_REACTORS
330
8A62
102
}
330
8A62
100
AcDbXrecord
280
     1
270
     1
271
     1
  0
XRECORD
  5
8A63
102
{ACAD_REACTORS
330
8A62
102
}
330
8A62
100
AcDbXrecord
280
     1
270
     1
271
     1
  0
XRECORD
  5
8A67
102
{ACAD_REACTORS
330
8A62
102
}
330
8A62
100
AcDbXrecord
280
     1
270
     1
271
     1
  0
XRECORD
  5
8A66
102
{ACAD_REACTORS
330
8A62
102
}
330
8A62
100
AcDbXrecord
280
     1
270
     1
271
     1
  0
XRECORD
  5
8A68
102
{ACAD_REACTORS
330
8A62
102
}
330
8A62
100
AcDbXrecord
280
     1
270
     1
271
     1
  0
XRECORD
  5
8A65
102
{ACAD_REACTORS
330
8A62
102
}
330
8A62
100
AcDbXrecord
280
     1
270
     1
271
     1
  0
XRECORD
  5
8A5C
102
{ACAD_REACTORS
330
8A5A
102
}
330
8A5A
100
AcDbXrecord
280
     1
270
     1
271
     1
  0
XRECORD
  5
8A5B
102
{ACAD_REACTORS
330
8A5A
102
}
330
8A5A
100
AcDbXrecord
280
     1
270
     1
271
     1
  0
XRECORD
  5
8A5F
102
{ACAD_REACTORS
330
8A5A
102
}
330
8A5A
100
AcDbXrecord
280
     1
270
     1
271
     1
  0
XRECORD
  5
8A5E
102
{ACAD_REACTORS
330
8A5A
102
}
330
8A5A
100
AcDbXrecord
280
     1
270
     1
271
     1
  0
XRECORD
  5
8A60
102
{ACAD_REACTORS
330
8A5A
102
}
330
8A5A
100
AcDbXrecord
280
     1
270
     1
271
     1
  0
XRECORD
  5
8A5D
102
{ACAD_REACTORS
330
8A5A
102
}
330
8A5A
100
AcDbXrecord
280
     1
270
     1
271
     1
  0
XRECORD
  5
8A6C
102
{ACAD_REACTORS
330
8A6A
102
}
330
8A6A
100
AcDbXrecord
280
     1
270
     1
271
     1
  0
XRECORD
  5
8A6B
102
{ACAD_REACTORS
330
8A6A
102
}
330
8A6A
100
AcDbXrecord
280
     1
270
     1
271
     1
  0
XRECORD
  5
8A6F
102
{ACAD_REACTORS
330
8A6A
102
}
330
8A6A
100
AcDbXrecord
280
     1
270
     1
271
     1
  0
XRECORD
  5
8A6E
102
{ACAD_REACTORS
330
8A6A
102
}
330
8A6A
100
AcDbXrecord
280
     1
270
     1
271
     1
  0
XRECORD
  5
8A70
102
{ACAD_REACTORS
330
8A6A
102
}
330
8A6A
100
AcDbXrecord
280
     1
270
     1
271
     1
  0
XRECORD
  5
8A6D
102
{ACAD_REACTORS
330
8A6A
102
}
330
8A6A
100
AcDbXrecord
280
     1
270
     1
271
     1
  0
XRECORD
  5
1E795
102
{ACAD_REACTORS
330
1E794
102
}
330
1E794
100
AcDbXrecord
280
     1
102
DISPLAYNAME
  1
Imperial24
102
FLAGS
 90
        0
  0
CELLSTYLEMAP
  5
1E793
102
{ACAD_REACTORS
330
8AED
102
}
330
8AED
100
AcDbCellStyleMap
 90
        3
300
CELLSTYLE
  1
TABLEFORMAT_BEGIN
 90
        5
170
     1
 91
        0
 92
    32768
 62
   257
 93
        1
300
CONTENTFORMAT
  1
CONTENTFORMAT_BEGIN
 90
        0
 91
        0
 92
      512
 93
        0
300

 40
0.0
140
1.0
 94
        5
 62
     0
340
11
144
0.25
309
CONTENTFORMAT_END
171
     1
301
MARGIN
  1
CELLMARGIN_BEGIN
 40
0.06
 40
0.06
 40
0.06
 40
0.06
 40
0.18
 40
0.18
309
CELLMARGIN_END
 94
        6
 95
        1
302
GRIDFORMAT
  1
GRIDFORMAT_BEGIN
 90
        0
 91
        1
 62
     0
 92
       -2
340
0
 93
        0
 40
0.045
309
GRIDFORMAT_END
 95
        2
302
GRIDFORMAT
  1
GRIDFORMAT_BEGIN
 90
        0
 91
        1
 62
     0
 92
       -2
340
0
 93
        0
 40
0.045
309
GRIDFORMAT_END
 95
        4
302
GRIDFORMAT
  1
GRIDFORMAT_BEGIN
 90
        0
 91
        1
 62
     0
 92
       -2
340
0
 93
        0
 40
0.045
309
GRIDFORMAT_END
 95
        8
302
GRIDFORMAT
  1
GRIDFORMAT_BEGIN
 90
        0
 91
        1
 62
     0
 92
       -2
340
0
 93
        0
 40
0.045
309
GRIDFORMAT_END
 95
       16
302
GRIDFORMAT
  1
GRIDFORMAT_BEGIN
 90
        0
 91
        1
 62
     0
 92
       -2
340
0
 93
        0
 40
0.045
309
GRIDFORMAT_END
 95
       32
302
GRIDFORMAT
  1
GRIDFORMAT_BEGIN
 90
        0
 91
        1
 62
     0
 92
       -2
340
0
 93
        0
 40
0.045
309
GRIDFORMAT_END
309
TABLEFORMAT_END
  1
CELLSTYLE_BEGIN
 90
        1
 91
        1
300
_TITLE
309
CELLSTYLE_END
300
CELLSTYLE
  1
TABLEFORMAT_BEGIN
 90
        5
170
     1
 91
        0
 92
        0
 62
   257
 93
        1
300
CONTENTFORMAT
  1
CONTENTFORMAT_BEGIN
 90
        0
 91
        0
 92
      512
 93
        0
300

 40
0.0
140
1.0
 94
        5
 62
     0
340
11
144
0.18
309
CONTENTFORMAT_END
171
     1
301
MARGIN
  1
CELLMARGIN_BEGIN
 40
0.06
 40
0.06
 40
0.06
 40
0.06
 40
0.18
 40
0.18
309
CELLMARGIN_END
 94
        6
 95
        1
302
GRIDFORMAT
  1
GRIDFORMAT_BEGIN
 90
        0
 91
        1
 62
     0
 92
       -2
340
0
 93
        0
 40
0.045
309
GRIDFORMAT_END
 95
        2
302
GRIDFORMAT
  1
GRIDFORMAT_BEGIN
 90
        0
 91
        1
 62
     0
 92
       -2
340
0
 93
        0
 40
0.045
309
GRIDFORMAT_END
 95
        4
302
GRIDFORMAT
  1
GRIDFORMAT_BEGIN
 90
        0
 91
        1
 62
     0
 92
       -2
340
0
 93
        0
 40
0.045
309
GRIDFORMAT_END
 95
        8
302
GRIDFORMAT
  1
GRIDFORMAT_BEGIN
 90
        0
 91
        1
 62
     0
 92
       -2
340
0
 93
        0
 40
0.045
309
GRIDFORMAT_END
 95
       16
302
GRIDFORMAT
  1
GRIDFORMAT_BEGIN
 90
        0
 91
        1
 62
     0
 92
       -2
340
0
 93
        0
 40
0.045
309
GRIDFORMAT_END
 95
       32
302
GRIDFORMAT
  1
GRIDFORMAT_BEGIN
 90
        0
 91
        1
 62
     0
 92
       -2
340
0
 93
        0
 40
0.045
309
GRIDFORMAT_END
309
TABLEFORMAT_END
  1
CELLSTYLE_BEGIN
 90
        2
 91
        1
300
_HEADER
309
CELLSTYLE_END
300
CELLSTYLE
  1
TABLEFORMAT_BEGIN
 90
        5
170
     1
 91
        0
 92
        0
 62
   257
 93
        1
300
CONTENTFORMAT
  1
CONTENTFORMAT_BEGIN
 90
        0
 91
        0
 92
      512
 93
        0
300

 40
0.0
140
1.0
 94
        2
 62
     0
340
11
144
0.18
309
CONTENTFORMAT_END
171
     1
301
MARGIN
  1
CELLMARGIN_BEGIN
 40
0.06
 40
0.06
 40
0.06
 40
0.06
 40
0.18
 40
0.18
309
CELLMARGIN_END
 94
        6
 95
        1
302
GRIDFORMAT
  1
GRIDFORMAT_BEGIN
 90
        0
 91
        1
 62
     0
 92
       -2
340
0
 93
        0
 40
0.045
309
GRIDFORMAT_END
 95
        2
302
GRIDFORMAT
  1
GRIDFORMAT_BEGIN
 90
        0
 91
        1
 62
     0
 92
       -2
340
0
 93
        0
 40
0.045
309
GRIDFORMAT_END
 95
        4
302
GRIDFORMAT
  1
GRIDFORMAT_BEGIN
 90
        0
 91
        1
 62
     0
 92
       -2
340
0
 93
        0
 40
0.045
309
GRIDFORMAT_END
 95
        8
302
GRIDFORMAT
  1
GRIDFORMAT_BEGIN
 90
        0
 91
        1
 62
     0
 92
       -2
340
0
 93
        0
 40
0.045
309
GRIDFORMAT_END
 95
       16
302
GRIDFORMAT
  1
GRIDFORMAT_BEGIN
 90
        0
 91
        1
 62
     0
 92
       -2
340
0
 93
        0
 40
0.045
309
GRIDFORMAT_END
 95
       32
302
GRIDFORMAT
  1
GRIDFORMAT_BEGIN
 90
        0
 91
        1
 62
     0
 92
       -2
340
0
 93
        0
 40
0.045
309
GRIDFORMAT_END
309
TABLEFORMAT_END
  1
CELLSTYLE_BEGIN
 90
        3
 91
        2
300
_DATA
309
CELLSTYLE_END
  0
ENDSEC
  0
SECTION
  2
ACDSDATA
 70
     2
 71
     6
  0
ACDSSCHEMA
 90
        0
  1
AcDb_Thumbnail_Schema
  2
AcDbDs::ID
280
    10
 91
        8
  2
Thumbnail_Data
280
    15
 91
        0
101
ACDSRECORD
 95
        0
 90
        1
  2
AcDbDs::TreatedAsObjectData
280
     1
291
     1
101
ACDSRECORD
 95
        0
 90
        2
  2
AcDbDs::Legacy
280
     1
291
     1
101
ACDSRECORD
  1
AcDbDs::ID
 90
        3
  2
AcDs:Indexable
280
     1
291
     1
101
ACDSRECORD
  1
AcDbDs::ID
 90
        4
  2
AcDbDs::HandleAttribute
280
     7
282
     1
  0
ACDSSCHEMA
 90
        1
  1
AcDbDs::TreatedAsObjectDataSchema
  2
AcDbDs::TreatedAsObjectData
280
     1
 91
        0
  0
ACDSSCHEMA
 90
        2
  1
AcDbDs::LegacySchema
  2
AcDbDs::Legacy
280
     1
 91
        0
  0
ACDSSCHEMA
 90
        3
  1
AcDbDs::IndexedPropertySchema
  2
AcDs:Indexable
280
     1
 91
        0
  0
ACDSSCHEMA
 90
        4
  1
AcDbDs::HandleAttributeSchema
  2
AcDbDs::HandleAttribute
280
     7
 91
        1
284
     1
  0
ACDSRECORD
 90
        0
  2
AcDbDs::ID
280
    10
320
8A4C
  2
Thumbnail_Data
280
    15
 94
     1993
310
89504E470D0A1A0A0000000D49484452000001000000009308030000005629370D00000300504C5445000000000000FFFFFF0000000000000000000000000000000000000000000000000000330000660000990000CC0000FF0033000033330033660033990033CC0033FF0066000066330066660066990066CC0066FF0099
310
000099330099660099990099CC0099FF00CC0000CC3300CC6600CC9900CCCC00CCFF00FF0000FF3300FF6600FF9900FFCC00FFFF3300003300333300663300993300CC3300FF3333003333333333663333993333CC3333FF3366003366333366663366993366CC3366FF3399003399333399663399993399CC3399FF33CC00
310
33CC3333CC6633CC9933CCCC33CCFF33FF0033FF3333FF6633FF9933FFCC33FFFF6600006600336600666600996600CC6600FF6633006633336633666633996633CC6633FF6666006666336666666666996666CC6666FF6699006699336699666699996699CC6699FF66CC0066CC3366CC6666CC9966CCCC66CCFF66FF0066
310
FF3366FF6666FF9966FFCC66FFFF9900009900339900669900999900CC9900FF9933009933339933669933999933CC9933FF9966009966339966669966999966CC9966FF9999009999339999669999999999CC9999FF99CC0099CC3399CC6699CC9999CCCC99CCFF99FF0099FF3399FF6699FF9999FFCC99FFFFCC0000CC00
310
33CC0066CC0099CC00CCCC00FFCC3300CC3333CC3366CC3399CC33CCCC33FFCC6600CC6633CC6666CC6699CC66CCCC66FFCC9900CC9933CC9966CC9999CC99CCCC99FFCCCC00CCCC33CCCC66CCCC99CCCCCCCCCCFFCCFF00CCFF33CCFF66CCFF99CCFFCCCCFFFFFF0000FF0033FF0066FF0099FF00CCFF00FFFF3300FF3333
310
FF3366FF3399FF33CCFF33FFFF6600FF6633FF6666FF6699FF66CCFF66FFFF9900FF9933FF9966FF9999FF99CCFF99FFFFCC00FFCC33FFCC66FFCC99FFCCCCFFCCFFFFFF00FFFF33FFFF66FFFF99FFFFCCFFFFFF0000000D0D0D1A1A1A2828283535354343435050505D5D5D6B6B6B787878868686939393A1A1A1AEAEAEBB
310
BBBBC9C9C9D6D6D6E4E4E4F1F1F1FFFFFF000000000000000000000000000000000000000000000000000000000000C11FEF66000004844944415478DAED9D4F96B3200CC0E7065E830DF7DF75C3355C71826CDC7F12A022A062C77E6FF287CE8B1DB1F3CACF900009CE8F175E7EEE5C6CBF5DFE3C802F7F1905400E00C026
310
2502006C3A480500651109A09102012C0BAC3F4F29024500AB5C360DB800B0C4F27E13DE520730C3BC6CB77F0C00B6BC47800E8068FD3380F47E00802F01781600820D1807D016BA0092D22F6802C469000E7EC22BDF45691A90074178FB0B005E8A11CC087600AEE7043C34203B3D347F4BEAD9693824420360A3100038B4
310
83F33C04C0978DF7440742909BBF363A039811801C239818F89D06DC73830B5937989700521B22007C2F4403F218E823004C0642D8DBB1198000409406E446A2038C00CC825EF1DA0DB001003580B432E0452C88E48190B5760510E4B006705A11B2D91FBAF77DB7BF5E18A407C023807CEAD76BC30A4001D006E0BD025000
310
0A4001280005A0004400F8468E97022004608FE1A12F43304DCEAE36E0B9AFAD001480022007E0D1146792B9C2EEC12F2307C0C47320749A2B393266223617B0C539EB8B95F2EBC6D918149AF19799300013EE6C92B700F8224E86B9150401586C3A4A835A3D0E60B1657870059052EEC9698031E62D7FD50530E98EE27A80
310
412F60CA53C35DA02C14011C4D87E1C8095C987B9A1AD0591182110FA700F80028463E1201EC76CA8804101324440288A3FFEDD0DD35035B3E0D3F00A5338C43C376CB006CB8E402E8CDFF2401001B2FE30A2018C11D80BA55E0A38D1899F8530700506DA4CE46710000B1D9A073D63AB793D61D0170B05E8117BE4BFA8D2E
310
807B1A009E9D06DCB201C200C06700BC02603B0EE00A000E8202DDB9004B00D582081CCC069109005B006FBF270FC0F6DC90741006C0575DC02B805300700A80735C802D00940391A10CA00D8C6CD141A0092045875779161BEC03C8B1C1B0E370C63D877483A336CADB1A1000CC28669A008AF0B83F098F9F0058F009042B
310
801C5B60992132DA05A82D89C1518AD02180DDA5AD112407C05743E1A39850D70D0E858F3802781F190068E602700E205FE94F72E9583E55363F702553E3A2017701D4534759001A7BA1002476017FFD145EAE00463D265300E54D97A8017FE9EF2B0005F02480E71E2A4F1BC0D59E2177A38A5A17900EC02081B8246C8C34
310
00D3648C01945390D37A282F9D3AE5B28A1400B3DE7B03284D962580F6364F97559400182C60CA520EF2D803D86B0084D70439C2230200EA3C94FA3FA163900320DBFFB71407A0D78A7300D142D455EB592100403C806E1588E902E01540A70AB81AC15755B65152FCE8EE74320FBC0054F5AF505F028855AFFC51F00A4001
310
B000E02503C0F0CF19007F0C80981770936BCAE43200D72FA112AF0BE5E58AC3446FCBCC471A00C75D00B40BA81750000A4001700200179321E03E196A7795EDBD407CFC48BA9CA31750000A40017007701E18E10F600B8A754363EC016068D41C0747B90328C3E3D00B8F4BD0801C1E875E82047B00981C039BAC5364A04A
310
82016629328096BF94556935A0A977F56922000A5BB7FB878B5D00C50316EAFAF6891B8400EC5A250D40D38A3E808B6D42B98A3800F047003E299A2DAE0014C07F2FFF00581B16C92DD7908D0000000049454E44AE426082
  0
ENDSEC
  0
EOF
