  0
SECTION
  2
HEADER
  9
$ACADVER
  1
AC1027
  9
$ACADMAINTVER
 70
    55
  9
$DWGCODEPAGE
  3
ANSI_932
  9
$LASTSAVEDBY
  1
marketing
  9
$REQUIREDVERSIONS
160
                 0
  9
$INSBASE
 10
0.0
 20
0.0
 30
0.0
  9
$EXTMIN
 10
-0.0489046821076045
 20
-0.0401538084270214
 30
-0.0015258207003583
  9
$EXTMAX
 10
700.0304075016356
 20
1088.044519492248
 30
0.0000000349246037
  9
$LIMMIN
 10
-296.316999476111
 20
-370.7034300441653
  9
$LIMMAX
 10
623.3128432133979
 20
328.6261559379898
  9
$ORTHOMODE
 70
     1
  9
$REGENMODE
 70
     1
  9
$FILLMODE
 70
     1
  9
$QTEXTMODE
 70
     0
  9
$MIRRTEXT
 70
     1
  9
$LTSCALE
 40
10.0
  9
$ATTMODE
 70
     1
  9
$TEXTSIZE
 40
5.0
  9
$TRACEWID
 40
0.05
  9
$TEXTSTYLE
  7
STANDARD1
  9
$CLAYER
  8
30
  9
$CELTYPE
  6
BYLAYER
  9
$CECOLOR
 62
   256
  9
$CELTSCALE
 40
1.0
  9
$DISPSILH
 70
     0
  9
$DIMSCALE
 40
1.0
  9
$DIMASZ
 40
2.0
  9
$DIMEXO
 40
1.0
  9
$DIMDLI
 40
0.5
  9
$DIMRND
 40
0.0
  9
$DIMDLE
 40
0.0
  9
$DIMEXE
 40
0.5
  9
$DIMTP
 40
0.0
  9
$DIMTM
 40
0.0
  9
$DIMTXT
 40
8.0
  9
$DIMCEN
 40
0.09
  9
$DIMTSZ
 40
0.0
  9
$DIMTOL
 70
     0
  9
$DIMLIM
 70
     0
  9
$DIMTIH
 70
     0
  9
$DIMTOH
 70
     0
  9
$DIMSE1
 70
     0
  9
$DIMSE2
 70
     0
  9
$DIMTAD
 70
     3
  9
$DIMZIN
 70
    12
  9
$DIMBLK
  1
OPEN
  9
$DIMASO
 70
     1
  9
$DIMSHO
 70
     1
  9
$DIMPOST
  1

  9
$DIMAPOST
  1

  9
$DIMALT
 70
     0
  9
$DIMALTD
 70
     2
  9
$DIMALTF
 40
25.4
  9
$DIMLFAC
 40
1.0
  9
$DIMTOFL
 70
     0
  9
$DIMTVP
 40
0.0
  9
$DIMTIX
 70
     0
  9
$DIMSOXD
 70
     0
  9
$DIMSAH
 70
     0
  9
$DIMBLK1
  1

  9
$DIMBLK2
  1

  9
$DIMSTYLE
  2
STANDARD
  9
$DIMCLRD
 70
     0
  9
$DIMCLRE
 70
     0
  9
$DIMCLRT
 70
   256
  9
$DIMTFAC
 40
1.0
  9
$DIMGAP
 40
3.0
  9
$DIMJUST
 70
     0
  9
$DIMSD1
 70
     0
  9
$DIMSD2
 70
     0
  9
$DIMTOLJ
 70
     1
  9
$DIMTZIN
 70
     0
  9
$DIMALTZ
 70
     0
  9
$DIMALTTZ
 70
     0
  9
$DIMUPT
 70
     0
  9
$DIMDEC
 70
     1
  9
$DIMTDEC
 70
     1
  9
$DIMALTU
 70
     2
  9
$DIMALTTD
 70
     2
  9
$DIMTXSTY
  7
STANDARD
  9
$DIMAUNIT
 70
     0
  9
$DIMADEC
 70
     0
  9
$DIMALTRND
 40
0.0
  9
$DIMAZIN
 70
     0
  9
$DIMDSEP
 70
    46
  9
$DIMATFIT
 70
     3
  9
$DIMFRAC
 70
     0
  9
$DIMLDRBLK
  1
OPEN
  9
$DIMLUNIT
 70
     2
  9
$DIMLWD
 70
    -2
  9
$DIMLWE
 70
    -2
  9
$DIMTMOVE
 70
     0
  9
$DIMFXL
 40
1.0
  9
$DIMFXLON
 70
     0
  9
$DIMJOGANG
 40
0.7853981633974483
  9
$DIMTFILL
 70
     1
  9
$DIMTFILLCLR
 70
     0
  9
$DIMARCSYM
 70
     0
  9
$DIMLTYPE
  6

  9
$DIMLTEX1
  6

  9
$DIMLTEX2
  6

  9
$DIMTXTDIRECTION
 70
     0
  9
$LUNITS
 70
     2
  9
$LUPREC
 70
     4
  9
$SKETCHINC
 40
0.1
  9
$FILLETRAD
 40
0.0
  9
$AUNITS
 70
     0
  9
$AUPREC
 70
     0
  9
$MENU
  1
.
  9
$ELEVATION
 40
0.0
  9
$PELEVATION
 40
0.0
  9
$THICKNESS
 40
0.0
  9
$LIMCHECK
 70
     0
  9
$CHAMFERA
 40
0.0
  9
$CHAMFERB
 40
0.0
  9
$CHAMFERC
 40
0.0
  9
$CHAMFERD
 40
0.0
  9
$SKPOLY
 70
     0
  9
$TDCREATE
 40
2452286.555658658
  9
$TDUCREATE
 40
2452286.180658658
  9
$TDUPDATE
 40
2459244.421751355
  9
$TDUUPDATE
 40
2459244.046751354
  9
$TDINDWG
 40
1.9341876852
  9
$TDUSRTIMER
 40
1.9341850579
  9
$USRTIMER
 70
     1
  9
$ANGBASE
 50
0.0
  9
$ANGDIR
 70
     0
  9
$PDMODE
 70
     0
  9
$PDSIZE
 40
0.0
  9
$PLINEWID
 40
0.0
  9
$SPLFRAME
 70
     0
  9
$SPLINETYPE
 70
     6
  9
$SPLINESEGS
 70
     8
  9
$HANDSEED
  5
1DFB1
  9
$SURFTAB1
 70
     6
  9
$SURFTAB2
 70
     6
  9
$SURFTYPE
 70
     6
  9
$SURFU
 70
     6
  9
$SURFV
 70
     6
  9
$UCSBASE
  2

  9
$UCSNAME
  2

  9
$UCSORG
 10
0.0
 20
0.0
 30
0.0
  9
$UCSXDIR
 10
1.0
 20
0.0
 30
0.0
  9
$UCSYDIR
 10
0.0
 20
1.0
 30
0.0
  9
$UCSORTHOREF
  2

  9
$UCSORTHOVIEW
 70
     0
  9
$UCSORGTOP
 10
0.0
 20
0.0
 30
0.0
  9
$UCSORGBOTTOM
 10
0.0
 20
0.0
 30
0.0
  9
$UCSORGLEFT
 10
0.0
 20
0.0
 30
0.0
  9
$UCSORGRIGHT
 10
0.0
 20
0.0
 30
0.0
  9
$UCSORGFRONT
 10
0.0
 20
0.0
 30
0.0
  9
$UCSORGBACK
 10
0.0
 20
0.0
 30
0.0
  9
$PUCSBASE
  2

  9
$PUCSNAME
  2

  9
$PUCSORG
 10
0.0
 20
0.0
 30
0.0
  9
$PUCSXDIR
 10
1.0
 20
0.0
 30
0.0
  9
$PUCSYDIR
 10
0.0
 20
1.0
 30
0.0
  9
$PUCSORTHOREF
  2

  9
$PUCSORTHOVIEW
 70
     0
  9
$PUCSORGTOP
 10
0.0
 20
0.0
 30
0.0
  9
$PUCSORGBOTTOM
 10
0.0
 20
0.0
 30
0.0
  9
$PUCSORGLEFT
 10
0.0
 20
0.0
 30
0.0
  9
$PUCSORGRIGHT
 10
0.0
 20
0.0
 30
0.0
  9
$PUCSORGFRONT
 10
0.0
 20
0.0
 30
0.0
  9
$PUCSORGBACK
 10
0.0
 20
0.0
 30
0.0
  9
$USERI1
 70
     0
  9
$USERI2
 70
     0
  9
$USERI3
 70
     0
  9
$USERI4
 70
     0
  9
$USERI5
 70
     0
  9
$USERR1
 40
0.0
  9
$USERR2
 40
0.0
  9
$USERR3
 40
0.0
  9
$USERR4
 40
0.0
  9
$USERR5
 40
0.0
  9
$WORLDVIEW
 70
     1
  9
$SHADEDGE
 70
     3
  9
$SHADEDIF
 70
    70
  9
$TILEMODE
 70
     1
  9
$MAXACTVP
 70
    48
  9
$PINSBASE
 10
0.0
 20
0.0
 30
0.0
  9
$PLIMCHECK
 70
     0
  9
$PEXTMIN
 10
4.273573
 20
5.205245999999998
 30
0.0
  9
$PEXTMAX
 10
194.610095
 20
283.0697009999996
 30
0.0
  9
$PLIMMIN
 10
-5.873749
 20
-5.87375
  9
$PLIMMAX
 10
204.099579
 20
291.1369009999999
  9
$UNITMODE
 70
     0
  9
$VISRETAIN
 70
     1
  9
$PLINEGEN
 70
     0
  9
$PSLTSCALE
 70
     1
  9
$TREEDEPTH
 70
  3020
  9
$CMLSTYLE
  2
STANDARD
  9
$CMLJUST
 70
     0
  9
$CMLSCALE
 40
1.0
  9
$PROXYGRAPHICS
 70
     1
  9
$MEASUREMENT
 70
     0
  9
$CELWEIGHT
370
    -1
  9
$ENDCAPS
280
     0
  9
$JOINSTYLE
280
     0
  9
$LWDISPLAY
290
     0
  9
$INSUNITS
 70
     0
  9
$HYPERLINKBASE
  1

  9
$STYLESHEET
  1
MONOCHROME.CTB
  9
$XEDIT
290
     1
  9
$CEPSNTYPE
380
     0
  9
$PSTYLEMODE
290
     1
  9
$FINGERPRINTGUID
  2

  9
$VERSIONGUID
  2
{08565B2A-6BFB-4569-B3A3-1A1742501A54}
  9
$EXTNAMES
290
     1
  9
$PSVPSCALE
 40
0.0
  9
$OLESTARTUP
290
     0
  9
$SORTENTS
280
   127
  9
$INDEXCTL
280
     0
  9
$HIDETEXT
280
     0
  9
$XCLIPFRAME
280
     2
  9
$HALOGAP
280
     0
  9
$OBSCOLOR
 70
   257
  9
$OBSLTYPE
280
     0
  9
$INTERSECTIONDISPLAY
280
     0
  9
$INTERSECTIONCOLOR
 70
   257
  9
$DIMASSOC
280
     1
  9
$PROJECTNAME
  1

  9
$CAMERADISPLAY
290
     0
  9
$LENSLENGTH
 40
50.0
  9
$CAMERAHEIGHT
 40
0.0
  9
$STEPSPERSEC
 40
2.0
  9
$STEPSIZE
 40
6.0
  9
$3DDWFPREC
 40
2.0
  9
$PSOLWIDTH
 40
0.25
  9
$PSOLHEIGHT
 40
4.0
  9
$LOFTANG1
 40
1.570796326794896
  9
$LOFTANG2
 40
1.570796326794896
  9
$LOFTMAG1
 40
0.0
  9
$LOFTMAG2
 40
0.0
  9
$LOFTPARAM
 70
     7
  9
$LOFTNORMALS
280
     1
  9
$LATITUDE
 40
37.795
  9
$LONGITUDE
 40
-122.394
  9
$NORTHDIRECTION
 40
0.0
  9
$TIMEZONE
 70
 -8000
  9
$LIGHTGLYPHDISPLAY
280
     1
  9
$TILEMODELIGHTSYNCH
280
     1
  9
$CMATERIAL
347
8A59
  9
$SOLIDHIST
280
     0
  9
$SHOWHIST
280
     1
  9
$DWFFRAME
280
     2
  9
$DGNFRAME
280
     0
  9
$REALWORLDSCALE
290
     1
  9
$INTERFERECOLOR
 62
     1
  9
$INTERFEREOBJVS
345
8A7B
  9
$INTERFEREVPVS
346
8A78
  9
$CSHADOW
280
     0
  9
$SHADOWPLANELOCATION
 40
0.0
  0
ENDSEC
  0
SECTION
  2
CLASSES
  0
CLASS
  1
ACDBDICTIONARYWDFLT
  2
AcDbDictionaryWithDefault
  3
ObjectDBX Classes
 90
        0
 91
        1
280
     0
281
     0
  0
CLASS
  1
DICTIONARYVAR
  2
AcDbDictionaryVar
  3
ObjectDBX Classes
 90
        0
 91
       10
280
     0
281
     0
  0
CLASS
  1
MATERIAL
  2
AcDbMaterial
  3
ObjectDBX Classes
 90
     1153
 91
        3
280
     0
281
     0
  0
CLASS
  1
VISUALSTYLE
  2
AcDbVisualStyle
  3
ObjectDBX Classes
 90
     4095
 91
       26
280
     0
281
     0
  0
CLASS
  1
TABLESTYLE
  2
AcDbTableStyle
  3
ObjectDBX Classes
 90
     4095
 91
        1
280
     0
281
     0
  0
CLASS
  1
SCALE
  2
AcDbScale
  3
ObjectDBX Classes
 90
     1153
 91
       17
280
     0
281
     0
  0
CLASS
  1
MLEADERSTYLE
  2
AcDbMLeaderStyle
  3
ACDB_MLEADERSTYLE_CLASS
 90
     4095
 91
        1
280
     0
281
     0
  0
CLASS
  1
ACDBSECTIONVIEWSTYLE
  2
AcDbSectionViewStyle
  3
ObjectDBX Classes
 90
     1025
 91
        1
280
     0
281
     0
  0
CLASS
  1
ACDBDETAILVIEWSTYLE
  2
AcDbDetailViewStyle
  3
ObjectDBX Classes
 90
     1025
 91
        1
280
     0
281
     0
  0
CLASS
  1
CELLSTYLEMAP
  2
AcDbCellStyleMap
  3
ObjectDBX Classes
 90
     1152
 91
        2
280
     0
281
     0
  0
CLASS
  1
AEC_REFEDIT_STATUS_TRACKER
  2
AecDbRefEditStatusTracker
  3
AecArchBase70|Product Desc: Autodesk Architectural Desktop 2007 |Company: Autodesk,Inc. |WEB Address: www.autodesk.com
 90
      129
 91
        0
280
     0
281
     0
  0
CLASS
  1
NPOCOLLECTION
  2
AcDbImpNonPersistentObjectsCollection
  3
ObjectDBX Classes
 90
     1153
 91
        0
280
     0
281
     0
  0
CLASS
  1
SORTENTSTABLE
  2
AcDbSortentsTable
  3
ObjectDBX Classes
 90
        0
 91
        3
280
     0
281
     0
  0
ENDSEC
  0
SECTION
  2
TABLES
  0
TABLE
  2
VPORT
  5
8
330
0
100
AcDbSymbolTable
 70
     1
  0
VPORT
  5
8A51
330
8
100
AcDbSymbolTableRecord
100
AcDbViewportTableRecord
  2
*Active
 70
     0
 10
0.0
 20
0.0
 11
1.0
 21
1.0
 12
349.990751409764
 22
544.0021828419108
 13
0.0
 23
0.0
 14
1.0
 24
1.0
 15
10.0
 25
10.0
 16
0.0
 26
0.0
 36
1.0
 17
0.0
 27
0.0
 37
0.0
 40
1095.950345637789
 41
2.289505428226779
 42
50.0
 43
0.0
 44
0.0
 50
0.0
 51
0.0
 71
     0
 72
   100
 73
     1
 74
     1
 75
     0
 76
     0
 77
     0
 78
     0
281
     0
 65
     1
110
0.0
120
0.0
130
0.0
111
1.0
121
0.0
131
0.0
112
0.0
122
1.0
132
0.0
 79
     0
146
0.0
348
8A77
 60
     3
 61
     5
292
     1
282
     1
141
0.0
142
0.0
 63
   250
421
  3355443
1001
ACAD_NAV_VCDISPLAY
1070
     3
  0
ENDTAB
  0
TABLE
  2
LTYPE
  5
5
330
0
100
AcDbSymbolTable
 70
     8
  0
LTYPE
  5
13
330
5
100
AcDbSymbolTableRecord
100
AcDbLinetypeTableRecord
  2
BYBLOCK
 70
     0
  3

 72
    65
 73
     0
 40
0.0
  0
LTYPE
  5
14
330
5
100
AcDbSymbolTableRecord
100
AcDbLinetypeTableRecord
  2
BYLAYER
 70
     0
  3

 72
    65
 73
     0
 40
0.0
  0
LTYPE
  5
15
330
5
100
AcDbSymbolTableRecord
100
AcDbLinetypeTableRecord
  2
CONTINUOUS
 70
     0
  3
Solid line
 72
    65
 73
     0
 40
0.0
  0
LTYPE
  5
22
330
5
100
AcDbSymbolTableRecord
100
AcDbLinetypeTableRecord
  2
CONTINOUS
 70
     0
  3
Solid line
 72
    65
 73
     0
 40
0.0
  0
LTYPE
  5
24
330
5
100
AcDbSymbolTableRecord
100
AcDbLinetypeTableRecord
  2
DASHDOT
 70
     0
  3
__ . __ . __ . __ . __ . __ . __ . __ . __ . __
 72
    65
 73
     4
 40
1.0
 49
0.5
 74
     0
 49
-0.25
 74
     0
 49
0.0
 74
     0
 49
-0.25
 74
     0
  0
LTYPE
  5
4C47
330
5
100
AcDbSymbolTableRecord
100
AcDbLinetypeTableRecord
  2
DIVIDE
 70
     0
  3
Divide ____ . . ____ . . ____ . . ____ . . ____
 72
    65
 73
     6
 40
1.25
 49
0.5
 74
     0
 49
-0.25
 74
     0
 49
0.0
 74
     0
 49
-0.25
 74
     0
 49
0.0
 74
     0
 49
-0.25
 74
     0
  0
LTYPE
  5
912E
330
5
100
AcDbSymbolTableRecord
100
AcDbLinetypeTableRecord
  2
SLD-実線
 70
     0
  3
SolidWorks Line Style
 72
    65
 73
     0
 40
0.0
  0
LTYPE
  5
1CA7E
330
5
100
AcDbSymbolTableRecord
100
AcDbLinetypeTableRecord
  2
DASHED
 70
     0
  3
__ __ __ __ __ __ __ __ __ __ __ __ __ __ __
 72
    65
 73
     2
 40
0.75
 49
0.5
 74
     0
 49
-0.25
 74
     0
  0
LTYPE
  5
1CA7F
330
5
100
AcDbSymbolTableRecord
100
AcDbLinetypeTableRecord
  2
SLD-破線
 70
     0
  3
SolidWorks Line Style
 72
    65
 73
     2
 40
1.905
 49
1.27
 74
     0
 49
-0.635
 74
     0
  0
ENDTAB
  0
TABLE
  2
LAYER
  5
2
102
{ACAD_XDICTIONARY
360
F3CC
102
}
330
0
100
AcDbSymbolTable
 70
    12
  0
LAYER
  5
10
102
{ACAD_XDICTIONARY
360
8ACC
102
}
330
2
100
AcDbSymbolTableRecord
100
AcDbLayerTableRecord
  2
0
 70
     0
 62
     7
  6
CONTINOUS
370
    -3
390
F
347
8A69
348
0
  0
LAYER
  5
2F
102
{ACAD_XDICTIONARY
360
8ACE
102
}
330
2
100
AcDbSymbolTableRecord
100
AcDbLayerTableRecord
  2
10
 70
     0
 62
     4
  6
CONTINOUS
370
    -3
390
F
347
8A69
348
0
  0
LAYER
  5
35
102
{ACAD_XDICTIONARY
360
8AD2
102
}
330
2
100
AcDbSymbolTableRecord
100
AcDbLayerTableRecord
  2
16
 70
     0
 62
     6
  6
DASHDOT
370
    -3
390
F
347
8A69
348
0
  0
LAYER
  5
38
102
{ACAD_XDICTIONARY
360
8AD4
102
}
330
2
100
AcDbSymbolTableRecord
100
AcDbLayerTableRecord
  2
19
 70
     0
 62
     7
  6
CONTINOUS
370
    -3
390
F
347
8A69
348
0
  0
LAYER
  5
3D
102
{ACAD_XDICTIONARY
360
8AD6
102
}
330
2
100
AcDbSymbolTableRecord
100
AcDbLayerTableRecord
  2
24
 70
     0
 62
     7
  6
CONTINOUS
370
    -3
390
F
347
8A69
348
0
  0
LAYER
  5
3A2
102
{ACAD_XDICTIONARY
360
8AD8
102
}
330
2
100
AcDbSymbolTableRecord
100
AcDbLayerTableRecord
  2
30
 70
     0
 62
     9
  6
CONTINUOUS
370
    -3
390
F
347
8A69
348
0
  0
LAYER
  5
3A4
330
2
100
AcDbSymbolTableRecord
100
AcDbLayerTableRecord
  2
DEFPOINTS
 70
     0
 62
     7
  6
CONTINUOUS
290
     0
370
    -3
390
F
347
8A69
348
0
  0
LAYER
  5
3BBA
102
{ACAD_XDICTIONARY
360
8ADA
102
}
330
2
100
AcDbSymbolTableRecord
100
AcDbLayerTableRecord
  2
18
 70
     0
 62
     5
  6
DIVIDE
370
    -3
390
F
347
8A69
348
0
  0
LAYER
  5
67A8
102
{ACAD_XDICTIONARY
360
8ADC
102
}
330
2
100
AcDbSymbolTableRecord
100
AcDbLayerTableRecord
  2
11
 70
     0
 62
     1
  6
CONTINOUS
370
    -3
390
F
347
8A69
348
0
  0
LAYER
  5
7837
102
{ACAD_XDICTIONARY
360
8ADE
102
}
330
2
100
AcDbSymbolTableRecord
100
AcDbLayerTableRecord
  2
17
 70
     0
 62
     2
  6
DASHDOT
370
    -3
390
F
347
8A69
348
0
  0
LAYER
  5
9133
102
{ACAD_XDICTIONARY
360
9134
102
}
330
2
100
AcDbSymbolTableRecord
100
AcDbLayerTableRecord
  2
240
 70
     0
 62
     7
  6
SLD-実線
370
    -3
390
F
347
8A69
348
0
  0
LAYER
  5
1CA80
102
{ACAD_XDICTIONARY
360
1CA81
102
}
330
2
100
AcDbSymbolTableRecord
100
AcDbLayerTableRecord
  2
12
 70
     0
 62
     3
  6
CONTINOUS
370
    -3
390
F
347
8A69
348
0
  0
ENDTAB
  0
TABLE
  2
STYLE
  5
3
330
0
100
AcDbSymbolTable
 70
     3
  0
STYLE
  5
11
330
3
100
AcDbSymbolTableRecord
100
AcDbTextStyleTableRecord
  2
STANDARD
 70
     0
 40
0.0
 41
1.0
 50
0.0
 71
     0
 42
2.0
  3
txt.shx
  4
bigfont.shx
  0
STYLE
  5
42
330
3
100
AcDbSymbolTableRecord
100
AcDbTextStyleTableRecord
  2
STANDARD1
 70
     0
 40
0.0
 41
1.0
 50
0.0
 71
     0
 42
5.0
  3
MONOTXT
  4
BIGFONT
  0
STYLE
  5
1CFC3
330
3
100
AcDbSymbolTableRecord
100
AcDbTextStyleTableRecord
  2
SLDTEXTSTYLE0
 70
     0
 40
0.0
 41
1.0
 50
0.0
 71
     0
 42
3.5
  3
MS UI Gothic.ttf
  4

1001
ACAD
1000
MS UI Gothic
1071
      306
  0
ENDTAB
  0
TABLE
  2
VIEW
  5
6
330
0
100
AcDbSymbolTable
 70
     3
  0
VIEW
  5
230C
330
6
100
AcDbSymbolTableRecord
100
AcDbViewTableRecord
  2
OLE1
 70
     0
 40
148.912488
 10
429.497628
 20
2.560627
 41
103.145806
 11
0.0
 21
0.0
 31
1.0
 12
0.0
 22
0.0
 32
0.0
 42
50.0
 43
0.0
 44
0.0
 50
0.0
 71
     0
281
     0
 72
     0
 73
     0
348
8A77
  0
VIEW
  5
230E
330
6
100
AcDbSymbolTableRecord
100
AcDbViewTableRecord
  2
OLE2
 70
     0
 40
170.778692
 10
322.66497
 20
-5.978304
 41
102.467215
 11
0.0
 21
0.0
 31
1.0
 12
0.0
 22
0.0
 32
0.0
 42
50.0
 43
0.0
 44
0.0
 50
0.0
 71
     0
281
     0
 72
     0
 73
     0
348
8A77
  0
VIEW
  5
23AA
330
6
100
AcDbSymbolTableRecord
100
AcDbViewTableRecord
  2
OLE3
 70
     0
 40
591.7897389999998
 10
84.79698199999999
 20
-46.09335999999998
 41
388.792096
 11
0.0
 21
0.0
 31
1.0
 12
0.0
 22
0.0
 32
0.0
 42
50.0
 43
0.0
 44
0.0
 50
0.0
 71
     0
281
     0
 72
     0
 73
     0
348
8A77
  0
ENDTAB
  0
TABLE
  2
UCS
  5
7
330
0
100
AcDbSymbolTable
 70
     0
  0
ENDTAB
  0
TABLE
  2
APPID
  5
9
330
0
100
AcDbSymbolTable
 70
    13
  0
APPID
  5
12
330
9
100
AcDbSymbolTableRecord
100
AcDbRegAppTableRecord
  2
ACAD
 70
     0
  0
APPID
  5
ECD
330
9
100
AcDbSymbolTableRecord
100
AcDbRegAppTableRecord
  2
CONTENTBLOCKICON
 70
     0
  0
APPID
  5
8AA9
330
9
100
AcDbSymbolTableRecord
100
AcDbRegAppTableRecord
  2
ACAD_NAV_VCDISPLAY
 70
     0
  0
APPID
  5
1038A
330
9
100
AcDbSymbolTableRecord
100
AcDbRegAppTableRecord
  2
ACAD_EXEMPT_FROM_CAD_STANDARDS
 70
     0
  0
APPID
  5
10D03
330
9
100
AcDbSymbolTableRecord
100
AcDbRegAppTableRecord
  2
ACAD_PSEXT
 70
     0
  0
APPID
  5
1147C
330
9
100
AcDbSymbolTableRecord
100
AcDbRegAppTableRecord
  2
ACAD_DSTYLE_DIMJAG
 70
     0
  0
APPID
  5
1147D
330
9
100
AcDbSymbolTableRecord
100
AcDbRegAppTableRecord
  2
ACAD_DSTYLE_DIMTALN
 70
     0
  0
APPID
  5
16BC0
330
9
100
AcDbSymbolTableRecord
100
AcDbRegAppTableRecord
  2
DCO15
 70
     0
  0
APPID
  5
16BC1
330
9
100
AcDbSymbolTableRecord
100
AcDbRegAppTableRecord
  2
ACAD_MLEADERVER
 70
     0
  0
APPID
  5
16BC2
330
9
100
AcDbSymbolTableRecord
100
AcDbRegAppTableRecord
  2
ACAD_DSTYLE_DIMBREAK
 70
     0
  0
APPID
  5
17476
330
9
100
AcDbSymbolTableRecord
100
AcDbRegAppTableRecord
  2
ACAUTHENVIRON
 70
     0
  0
APPID
  5
1C1A7
330
9
100
AcDbSymbolTableRecord
100
AcDbRegAppTableRecord
  2
ACAD_DSTYLE_DIMRADIAL_EXTENSION
 70
     0
  0
APPID
  5
1DE86
330
9
100
AcDbSymbolTableRecord
100
AcDbRegAppTableRecord
  2
AcadAnnoMonitorAlertIconDisabled
 70
     0
  0
ENDTAB
  0
TABLE
  2
DIMSTYLE
  5
A
330
0
100
AcDbSymbolTable
 70
     3
100
AcDbDimStyleTable
 71
     2
340
175
340
1171B
  0
DIMSTYLE
105
175
102
{ACAD_REACTORS
330
1D9DA
330
1D9DB
330
1D9DC
330
1D9DD
330
1D9DF
330
1D9EE
330
1D9EF
330
1DA24
330
1DA75
330
1DA77
330
1DAB0
330
1DAB1
330
1DAB2
330
1DAB3
330
1DAB4
330
1DAB5
330
1DAB6
330
1DAC3
330
1DAC4
330
1DAE0
330
1DAE1
330
1DAE2
330
1DAE3
330
1DAF4
330
1DAF7
330
1DAF8
330
1DAFB
330
1DAFC
330
1DAFE
330
1DAFF
330
1DE79
330
1DA23
102
}
330
A
100
AcDbSymbolTableRecord
100
AcDbDimStyleTableRecord
  2
STANDARD
 70
     0
 41
2.0
 42
1.0
 43
0.5
 44
0.5
 69
     1
 73
     0
 74
     0
 77
     3
 78
    12
140
8.0
147
3.0
178
   256
271
     1
272
     1
340
11
341
3B2
342
3B2
1001
ACAD_DSTYLE_DIMJAG
1070
   388
1040
1.5
1001
ACAD_DSTYLE_DIMTALN
1070
   392
1070
     0
  0
DIMSTYLE
105
1171B
102
{ACAD_REACTORS
330
1DA7B
330
1DAC5
102
}
330
A
100
AcDbSymbolTableRecord
100
AcDbDimStyleTableRecord
  2
STANDARD1
 70
     0
 41
2.0
 42
3.0
 43
0.5
 44
0.5
 77
     3
 78
    12
140
8.0
147
3.0
172
     1
271
     1
272
     1
289
     2
340
11
341
3B2
342
3B2
1001
ACAD_DSTYLE_DIMJAG
1070
   388
1040
1.5
1001
ACAD_DSTYLE_DIMTALN
1070
   392
1070
     0
  0
ENDTAB
  0
TABLE
  2
BLOCK_RECORD
  5
1
330
0
100
AcDbSymbolTable
 70
    41
  0
BLOCK_RECORD
  5
1E
102
{ACAD_XDICTIONARY
360
178
102
}
330
1
100
AcDbSymbolTableRecord
100
AcDbBlockTableRecord
  2
*MODEL_SPACE
340
8A4C
 70
     0
280
     1
281
     0
  0
BLOCK_RECORD
  5
1A
102
{ACAD_XDICTIONARY
360
17A
102
}
330
1
100
AcDbSymbolTableRecord
100
AcDbBlockTableRecord
  2
*PAPER_SPACE
340
8A4D
 70
     0
280
     1
281
     0
  0
BLOCK_RECORD
  5
3B2
330
1
100
AcDbSymbolTableRecord
100
AcDbBlockTableRecord
  2
_OPEN
340
0
102
{BLKREFS
331
1DDDD
331
1DDDE
331
1DDEF
331
1DEA8
331
1DEA9
331
1DCB1
331
1DCB2
331
1DCB9
331
1DCC1
331
1DCC2
331
1DCCA
331
1DCCB
331
1DCD3
331
1DCD4
331
1DCDC
331
1DCDD
331
1DCE5
331
1DCE6
331
1DCEE
331
1DCEF
331
1DCF6
331
1DCFE
331
1DD05
331
1DD06
331
1DD0E
331
1DD0F
331
1DD18
331
1DD19
331
1DD21
331
1DD22
331
1DD2A
331
1DD2B
331
1DD32
331
1DD3A
331
1DD3B
331
1DD4C
331
1DD4D
331
1DD55
331
1DD66
331
1DD67
331
1DD81
331
1DD82
331
1DD8A
331
1DD8B
331
1DD94
331
1DD95
331
1DD9D
331
1DD9E
331
1DDA7
331
1DDA8
331
1DE1C
331
1DE1D
331
1DE37
331
1DE38
331
1DE41
331
1DE42
331
1DE4A
331
1DE4B
331
1DDF0
331
1DDF8
331
1DDF9
331
1DE01
331
1DE02
331
1DE0A
331
1DE0B
102
}
 70
     0
280
     1
281
     0
  0
BLOCK_RECORD
  5
1D6DD
330
1
100
AcDbSymbolTableRecord
100
AcDbBlockTableRecord
  2
SW_CENTERMARKSYMBOL_9
340
0
102
{BLKREFS
331
1DAAD
331
1DABD
102
}
 70
     0
280
     1
281
     0
  0
BLOCK_RECORD
  5
1D6E8
330
1
100
AcDbSymbolTableRecord
100
AcDbBlockTableRecord
  2
SW_CENTERMARKSYMBOL_12
340
0
102
{BLKREFS
331
1DAAE
331
1DAAF
331
1DABE
331
1DABF
102
}
 70
     0
280
     1
281
     0
  0
BLOCK_RECORD
  5
1DB00
330
1
100
AcDbSymbolTableRecord
100
AcDbBlockTableRecord
  2
*D3
340
0
 70
     0
280
     1
281
     0
  0
BLOCK_RECORD
  5
1DB0C
330
1
100
AcDbSymbolTableRecord
100
AcDbBlockTableRecord
  2
*D4
340
0
 70
     0
280
     1
281
     0
  0
BLOCK_RECORD
  5
1DB18
330
1
100
AcDbSymbolTableRecord
100
AcDbBlockTableRecord
  2
*D5
340
0
 70
     0
280
     1
281
     0
  0
BLOCK_RECORD
  5
1DB24
330
1
100
AcDbSymbolTableRecord
100
AcDbBlockTableRecord
  2
*D6
340
0
 70
     0
280
     1
281
     0
  0
BLOCK_RECORD
  5
1DB30
330
1
100
AcDbSymbolTableRecord
100
AcDbBlockTableRecord
  2
*D7
340
0
 70
     0
280
     1
281
     0
  0
BLOCK_RECORD
  5
1DB3A
330
1
100
AcDbSymbolTableRecord
100
AcDbBlockTableRecord
  2
*D8
340
0
 70
     0
280
     1
281
     0
  0
BLOCK_RECORD
  5
1DB46
330
1
100
AcDbSymbolTableRecord
100
AcDbBlockTableRecord
  2
*D9
340
0
 70
     0
280
     1
281
     0
  0
BLOCK_RECORD
  5
1DB52
330
1
100
AcDbSymbolTableRecord
100
AcDbBlockTableRecord
  2
*D10
340
0
 70
     0
280
     1
281
     0
  0
BLOCK_RECORD
  5
1DB5E
330
1
100
AcDbSymbolTableRecord
100
AcDbBlockTableRecord
  2
*D11
340
0
 70
     0
280
     1
281
     0
  0
BLOCK_RECORD
  5
1DB6A
330
1
100
AcDbSymbolTableRecord
100
AcDbBlockTableRecord
  2
*D12
340
0
 70
     0
280
     1
281
     0
  0
BLOCK_RECORD
  5
1DB76
330
1
100
AcDbSymbolTableRecord
100
AcDbBlockTableRecord
  2
*D13
340
0
 70
     0
280
     1
281
     0
  0
BLOCK_RECORD
  5
1DB82
330
1
100
AcDbSymbolTableRecord
100
AcDbBlockTableRecord
  2
*D14
340
0
 70
     0
280
     1
281
     0
  0
BLOCK_RECORD
  5
1DB8C
330
1
100
AcDbSymbolTableRecord
100
AcDbBlockTableRecord
  2
*D15
340
0
 70
     0
280
     1
281
     0
  0
BLOCK_RECORD
  5
1DB96
330
1
100
AcDbSymbolTableRecord
100
AcDbBlockTableRecord
  2
*D16
340
0
 70
     0
280
     1
281
     0
  0
BLOCK_RECORD
  5
1DBA2
330
1
100
AcDbSymbolTableRecord
100
AcDbBlockTableRecord
  2
*D17
340
0
 70
     0
280
     1
281
     0
  0
BLOCK_RECORD
  5
1DBAE
330
1
100
AcDbSymbolTableRecord
100
AcDbBlockTableRecord
  2
*D18
340
0
 70
     0
280
     1
281
     0
  0
BLOCK_RECORD
  5
1DBBB
330
1
100
AcDbSymbolTableRecord
100
AcDbBlockTableRecord
  2
*D19
340
0
 70
     0
280
     1
281
     0
  0
BLOCK_RECORD
  5
1DBC7
330
1
100
AcDbSymbolTableRecord
100
AcDbBlockTableRecord
  2
*D20
340
0
 70
     0
280
     1
281
     0
  0
BLOCK_RECORD
  5
1DBD3
330
1
100
AcDbSymbolTableRecord
100
AcDbBlockTableRecord
  2
*D21
340
0
 70
     0
280
     1
281
     0
  0
BLOCK_RECORD
  5
1DBDD
330
1
100
AcDbSymbolTableRecord
100
AcDbBlockTableRecord
  2
*D22
340
0
 70
     0
280
     1
281
     0
  0
BLOCK_RECORD
  5
1DBE9
330
1
100
AcDbSymbolTableRecord
100
AcDbBlockTableRecord
  2
*D23
340
0
 70
     0
280
     1
281
     0
  0
BLOCK_RECORD
  5
1DBF5
330
1
100
AcDbSymbolTableRecord
100
AcDbBlockTableRecord
  2
*D24
340
0
 70
     0
280
     1
281
     0
  0
BLOCK_RECORD
  5
1DC01
330
1
100
AcDbSymbolTableRecord
100
AcDbBlockTableRecord
  2
*D25
340
0
 70
     0
280
     1
281
     0
  0
BLOCK_RECORD
  5
1DC0B
330
1
100
AcDbSymbolTableRecord
100
AcDbBlockTableRecord
  2
*D26
340
0
 70
     0
280
     1
281
     0
  0
BLOCK_RECORD
  5
1DC17
330
1
100
AcDbSymbolTableRecord
100
AcDbBlockTableRecord
  2
*D27
340
0
 70
     0
280
     1
281
     0
  0
BLOCK_RECORD
  5
1DC24
330
1
100
AcDbSymbolTableRecord
100
AcDbBlockTableRecord
  2
*D28
340
0
 70
     0
280
     1
281
     0
  0
BLOCK_RECORD
  5
1DC30
330
1
100
AcDbSymbolTableRecord
100
AcDbBlockTableRecord
  2
*D29
340
0
 70
     0
280
     1
281
     0
  0
BLOCK_RECORD
  5
1DC3C
330
1
100
AcDbSymbolTableRecord
100
AcDbBlockTableRecord
  2
*D30
340
0
 70
     0
280
     1
281
     0
  0
BLOCK_RECORD
  5
1DC48
330
1
100
AcDbSymbolTableRecord
100
AcDbBlockTableRecord
  2
*D31
340
0
 70
     0
280
     1
281
     0
  0
BLOCK_RECORD
  5
1DC54
330
1
100
AcDbSymbolTableRecord
100
AcDbBlockTableRecord
  2
*D32
340
0
 70
     0
280
     1
281
     0
  0
BLOCK_RECORD
  5
1DC61
330
1
100
AcDbSymbolTableRecord
100
AcDbBlockTableRecord
  2
*D33
340
0
 70
     0
280
     1
281
     0
  0
BLOCK_RECORD
  5
1DC6D
330
1
100
AcDbSymbolTableRecord
100
AcDbBlockTableRecord
  2
*D34
340
0
 70
     0
280
     1
281
     0
  0
BLOCK_RECORD
  5
1DC7A
330
1
100
AcDbSymbolTableRecord
100
AcDbBlockTableRecord
  2
*D35
340
0
 70
     0
280
     1
281
     0
  0
BLOCK_RECORD
  5
1DC86
330
1
100
AcDbSymbolTableRecord
100
AcDbBlockTableRecord
  2
*D36
340
0
 70
     0
280
     1
281
     0
  0
BLOCK_RECORD
  5
1DE7A
330
1
100
AcDbSymbolTableRecord
100
AcDbBlockTableRecord
  2
*D37
340
0
 70
     0
280
     1
281
     0
  0
ENDTAB
  0
ENDSEC
  0
SECTION
  2
BLOCKS
  0
BLOCK
  5
1F
330
1E
100
AcDbEntity
  8
0
100
AcDbBlockBegin
  2
*MODEL_SPACE
 70
     0
 10
0.0
 20
0.0
 30
0.0
  3
*MODEL_SPACE
  1

  0
ENDBLK
  5
20
330
1E
100
AcDbEntity
  8
0
100
AcDbBlockEnd
  0
BLOCK
  5
1B
330
1A
100
AcDbEntity
 67
     1
  8
0
100
AcDbBlockBegin
  2
*PAPER_SPACE
 70
     0
 10
0.0
 20
0.0
 30
0.0
  3
*PAPER_SPACE
  1

  0
ENDBLK
  5
1C
330
1A
100
AcDbEntity
 67
     1
  8
0
100
AcDbBlockEnd
  0
BLOCK
  5
3B6
330
3B2
100
AcDbEntity
  8
0
100
AcDbBlockBegin
  2
_OPEN
 70
     0
 10
0.0
 20
0.0
 30
0.0
  3
_OPEN
  1

  0
LINE
  5
3B3
330
3B2
100
AcDbEntity
  8
30
  6
Continuous
 62
     0
100
AcDbLine
 10
-1.0
 20
0.166667
 30
0.0
 11
0.0
 21
0.0
 31
0.0
  0
LINE
  5
3B4
330
3B2
100
AcDbEntity
  8
30
  6
Continuous
 62
     0
100
AcDbLine
 10
-1.0
 20
-0.166667
 30
0.0
 11
0.0
 21
0.0
 31
0.0
  0
LINE
  5
3B5
330
3B2
100
AcDbEntity
  8
30
  6
Continuous
 62
     0
100
AcDbLine
 10
0.0
 20
0.0
 30
0.0
 11
-1.0
 21
0.0
 31
0.0
  0
ENDBLK
  5
3B7
330
3B2
100
AcDbEntity
  8
0
100
AcDbBlockEnd
  0
BLOCK
  5
1D6DE
330
1D6DD
100
AcDbEntity
  8
0
100
AcDbBlockBegin
  2
SW_CENTERMARKSYMBOL_9
 70
     0
 10
0.0
 20
0.0
 30
0.0
  3
SW_CENTERMARKSYMBOL_9
  1
SW_CENTERMARKSYMBOL_9
  0
LINE
  5
1D6DF
330
1D6DD
100
AcDbEntity
  8
240
 62
     0
100
AcDbLine
 10
0.0
 20
0.0
 30
0.0
 11
0.0
 21
0.5
 31
0.0
  0
LINE
  5
1D6E0
330
1D6DD
100
AcDbEntity
  8
240
 62
     0
100
AcDbLine
 10
0.0
 20
0.0
 30
0.0
 11
-0.5
 21
0.0
 31
0.0
  0
LINE
  5
1D6E1
330
1D6DD
100
AcDbEntity
  8
240
 62
     0
100
AcDbLine
 10
0.0
 20
0.0
 30
0.0
 11
0.0
 21
-0.5
 31
0.0
  0
LINE
  5
1D6E2
330
1D6DD
100
AcDbEntity
  8
240
 62
     0
100
AcDbLine
 10
0.0
 20
0.0
 30
0.0
 11
0.5
 21
0.0
 31
0.0
  0
LINE
  5
1D6E3
330
1D6DD
100
AcDbEntity
  8
240
 62
     0
100
AcDbLine
 10
0.0
 20
1.0
 30
0.0
 11
0.0
 21
1.9
 31
0.0
  0
LINE
  5
1D6E4
330
1D6DD
100
AcDbEntity
  8
240
 62
     0
100
AcDbLine
 10
-1.0
 20
0.0
 30
0.0
 11
-1.9
 21
0.0
 31
0.0
  0
LINE
  5
1D6E5
330
1D6DD
100
AcDbEntity
  8
240
 62
     0
100
AcDbLine
 10
0.0
 20
-1.0
 30
0.0
 11
0.0
 21
-1.9
 31
0.0
  0
LINE
  5
1D6E6
330
1D6DD
100
AcDbEntity
  8
240
 62
     0
100
AcDbLine
 10
1.0
 20
0.0
 30
0.0
 11
1.9
 21
0.0
 31
0.0
  0
ENDBLK
  5
1D6E7
330
1D6DD
100
AcDbEntity
  8
0
100
AcDbBlockEnd
  0
BLOCK
  5
1D6E9
330
1D6E8
100
AcDbEntity
  8
0
100
AcDbBlockBegin
  2
SW_CENTERMARKSYMBOL_12
 70
     0
 10
0.0
 20
0.0
 30
0.0
  3
SW_CENTERMARKSYMBOL_12
  1
SW_CENTERMARKSYMBOL_12
  0
LINE
  5
1D6EA
330
1D6E8
100
AcDbEntity
  8
240
 62
     0
100
AcDbLine
 10
0.0
 20
0.0
 30
0.0
 11
0.0
 21
0.5
 31
0.0
  0
LINE
  5
1D6EB
330
1D6E8
100
AcDbEntity
  8
240
 62
     0
100
AcDbLine
 10
0.0
 20
0.0
 30
0.0
 11
-0.5
 21
0.0
 31
0.0
  0
LINE
  5
1D6EC
330
1D6E8
100
AcDbEntity
  8
240
 62
     0
100
AcDbLine
 10
0.0
 20
0.0
 30
0.0
 11
0.0
 21
-0.5
 31
0.0
  0
LINE
  5
1D6ED
330
1D6E8
100
AcDbEntity
  8
240
 62
     0
100
AcDbLine
 10
0.0
 20
0.0
 30
0.0
 11
0.5
 21
0.0
 31
0.0
  0
LINE
  5
1D6EE
330
1D6E8
100
AcDbEntity
  8
240
 62
     0
100
AcDbLine
 10
0.0
 20
1.0
 30
0.0
 11
0.0
 21
1.9
 31
0.0
  0
LINE
  5
1D6EF
330
1D6E8
100
AcDbEntity
  8
240
 62
     0
100
AcDbLine
 10
-1.0
 20
0.0
 30
0.0
 11
-1.9
 21
0.0
 31
0.0
  0
LINE
  5
1D6F0
330
1D6E8
100
AcDbEntity
  8
240
 62
     0
100
AcDbLine
 10
0.0
 20
-1.0
 30
0.0
 11
0.0
 21
-1.9
 31
0.0
  0
LINE
  5
1D6F1
330
1D6E8
100
AcDbEntity
  8
240
 62
     0
100
AcDbLine
 10
1.0
 20
0.0
 30
0.0
 11
1.9
 21
0.0
 31
0.0
  0
ENDBLK
  5
1D6F2
330
1D6E8
100
AcDbEntity
  8
0
100
AcDbBlockEnd
  0
BLOCK
  5
1DB01
330
1DB00
100
AcDbEntity
  8
0
100
AcDbBlockBegin
  2
*D3
 70
     1
 10
0.0
 20
0.0
 30
0.0
  3
*D3
  1

  0
LINE
  5
1DDDA
330
1DB00
100
AcDbEntity
  8
30
  6
Continuous
 62
     0
440
 16777216
370
    -2
100
AcDbLine
 10
123.8306358267354
 20
303.3991735828292
 30
0.0
 11
45.74683127109897
 21
303.3991735828292
 31
0.0
  0
LINE
  5
1DDDB
330
1DB00
100
AcDbEntity
  8
30
  6
Continuous
 62
     0
440
 16777216
370
    -2
100
AcDbLine
 10
123.7406358267353
 20
89.39917358282931
 30
0.0
 11
45.74683127109891
 21
89.39917358282931
 31
0.0
  0
LINE
  5
1DDDC
330
1DB00
100
AcDbEntity
  8
30
  6
Continuous
 62
     0
440
 16777216
370
    -2
100
AcDbLine
 10
46.24683127109896
 20
301.3991735828292
 30
0.0
 11
46.24683127109892
 21
91.3991735828293
 31
0.0
  0
INSERT
  5
1DDDD
330
1DB00
100
AcDbEntity
  8
30
  6
Continuous
 62
     0
440
 16777216
370
    -2
100
AcDbBlockReference
  2
_OPEN
 10
46.24683127109896
 20
303.3991735828292
 30
0.0
 41
2.0
 42
2.0
 43
2.0
 50
90.0
  0
INSERT
  5
1DDDE
330
1DB00
100
AcDbEntity
  8
30
  6
Continuous
 62
     0
440
 16777216
370
    -2
100
AcDbBlockReference
  2
_OPEN
 10
46.24683127109892
 20
89.39917358282931
 30
0.0
 41
2.0
 42
2.0
 43
2.0
 50
270.0
  0
MTEXT
  5
1DDDF
330
1DB00
100
AcDbEntity
  8
30
  6
Continuous
440
 16777216
100
AcDbMText
 10
39.24683127109893
 20
196.3991735828293
 30
0.0
 40
8.0
 41
0.0
 46
0.0
 71
     5
 72
     1
  1
\A1;214
 11
0.0000000000000001
 21
1.0
 31
0.0
 73
     1
 44
1.0
 90
        3
 63
     9
421
 13158600
 45
1.25
441
        0
  0
POINT
  5
1DDE0
330
1DB00
100
AcDbEntity
  8
DEFPOINTS
  6
Continuous
 62
     0
440
 16777216
100
AcDbPoint
 10
124.8306358267354
 20
303.3991735828292
 30
0.0
  0
POINT
  5
1DDE1
330
1DB00
100
AcDbEntity
  8
DEFPOINTS
  6
Continuous
 62
     0
440
 16777216
100
AcDbPoint
 10
124.7406358267353
 20
89.39917358282931
 30
0.0
  0
POINT
  5
1DDE2
330
1DB00
100
AcDbEntity
  8
DEFPOINTS
  6
Continuous
 62
     0
440
 16777216
100
AcDbPoint
 10
46.24683127109892
 20
89.39917358282931
 30
0.0
  0
ENDBLK
  5
1DB02
330
1DB00
100
AcDbEntity
  8
0
100
AcDbBlockEnd
  0
BLOCK
  5
1DB0D
330
1DB0C
100
AcDbEntity
  8
0
100
AcDbBlockBegin
  2
*D4
 70
     1
 10
0.0
 20
0.0
 30
0.0
  3
*D4
  1

  0
LINE
  5
1DDEC
330
1DB0C
100
AcDbEntity
  8
30
  6
Continuous
 62
     0
440
 16777216
370
    -2
100
AcDbLine
 10
124.7406358267353
 20
88.3991735828293
 30
0.0
 11
124.7406358267353
 21
37.19510715235845
 31
0.0
  0
LINE
  5
1DDED
330
1DB0C
100
AcDbEntity
  8
30
  6
Continuous
 62
     0
440
 16777216
370
    -2
100
AcDbLine
 10
169.7406358267353
 20
88.3991735828293
 30
0.0
 11
169.7406358267353
 21
37.19510715235845
 31
0.0
  0
LINE
  5
1DDEE
330
1DB0C
100
AcDbEntity
  8
30
  6
Continuous
 62
     0
440
 16777216
370
    -2
100
AcDbLine
 10
126.7406358267353
 20
37.69510715235846
 30
0.0
 11
167.7406358267353
 21
37.69510715235846
 31
0.0
  0
INSERT
  5
1DDEF
330
1DB0C
100
AcDbEntity
  8
30
  6
Continuous
 62
     0
440
 16777216
370
    -2
100
AcDbBlockReference
  2
_OPEN
 10
124.7406358267353
 20
37.69510715235846
 30
0.0
 41
2.0
 42
2.0
 43
2.0
 50
180.0
  0
INSERT
  5
1DDF0
330
1DB0C
100
AcDbEntity
  8
30
  6
Continuous
 62
     0
440
 16777216
370
    -2
100
AcDbBlockReference
  2
_OPEN
 10
169.7406358267353
 20
37.69510715235846
 30
0.0
 41
2.0
 42
2.0
 43
2.0
  0
MTEXT
  5
1DDF1
330
1DB0C
100
AcDbEntity
  8
30
  6
Continuous
440
 16777216
100
AcDbMText
 10
147.2406358267353
 20
44.69510715235845
 30
0.0
 40
8.0
 41
0.0
 46
0.0
 71
     5
 72
     1
  1
\A1;45
 73
     1
 44
1.0
 90
        3
 63
     9
421
 13158600
 45
1.25
441
        0
  0
POINT
  5
1DDF2
330
1DB0C
100
AcDbEntity
  8
DEFPOINTS
  6
Continuous
 62
     0
440
 16777216
100
AcDbPoint
 10
124.7406358267353
 20
89.39917358282931
 30
0.0
  0
POINT
  5
1DDF3
330
1DB0C
100
AcDbEntity
  8
DEFPOINTS
  6
Continuous
 62
     0
440
 16777216
100
AcDbPoint
 10
169.7406358267353
 20
89.39917358282931
 30
0.0
  0
POINT
  5
1DDF4
330
1DB0C
100
AcDbEntity
  8
DEFPOINTS
  6
Continuous
 62
     0
440
 16777216
100
AcDbPoint
 10
169.7406358267353
 20
37.69510715235846
 30
0.0
  0
ENDBLK
  5
1DB0E
330
1DB0C
100
AcDbEntity
  8
0
100
AcDbBlockEnd
  0
BLOCK
  5
1DB19
330
1DB18
100
AcDbEntity
  8
0
100
AcDbBlockBegin
  2
*D5
 70
     1
 10
0.0
 20
0.0
 30
0.0
  3
*D5
  1

  0
LINE
  5
1DDF5
330
1DB18
100
AcDbEntity
  8
30
  6
Continuous
 62
     0
440
 16777216
370
    -2
100
AcDbLine
 10
276.3859941592264
 20
148.0183697844592
 30
0.0
 11
276.3859941592264
 21
35.60774968441956
 31
0.0
  0
LINE
  5
1DDF6
330
1DB18
100
AcDbEntity
  8
30
  6
Continuous
 62
     0
440
 16777216
370
    -2
100
AcDbLine
 10
394.3859941592263
 20
148.0183697844592
 30
0.0
 11
394.3859941592263
 21
35.60774968441956
 31
0.0
  0
LINE
  5
1DDF7
330
1DB18
100
AcDbEntity
  8
30
  6
Continuous
 62
     0
440
 16777216
370
    -2
100
AcDbLine
 10
278.3859941592264
 20
36.10774968441956
 30
0.0
 11
392.3859941592263
 21
36.10774968441956
 31
0.0
  0
INSERT
  5
1DDF8
330
1DB18
100
AcDbEntity
  8
30
  6
Continuous
 62
     0
440
 16777216
370
    -2
100
AcDbBlockReference
  2
_OPEN
 10
276.3859941592264
 20
36.10774968441956
 30
0.0
 41
2.0
 42
2.0
 43
2.0
 50
180.0
  0
INSERT
  5
1DDF9
330
1DB18
100
AcDbEntity
  8
30
  6
Continuous
 62
     0
440
 16777216
370
    -2
100
AcDbBlockReference
  2
_OPEN
 10
394.3859941592263
 20
36.10774968441956
 30
0.0
 41
2.0
 42
2.0
 43
2.0
  0
MTEXT
  5
1DDFA
330
1DB18
100
AcDbEntity
  8
30
  6
Continuous
440
 16777216
100
AcDbMText
 10
335.3859941592264
 20
43.10774968441957
 30
0.0
 40
8.0
 41
0.0
 46
0.0
 71
     5
 72
     1
  1
\A1;118
 73
     1
 44
1.0
 90
        3
 63
     9
421
 13158600
 45
1.25
441
        0
  0
POINT
  5
1DDFB
330
1DB18
100
AcDbEntity
  8
DEFPOINTS
  6
Continuous
 62
     0
440
 16777216
100
AcDbPoint
 10
276.3859941592264
 20
149.0183697844592
 30
0.0
  0
POINT
  5
1DDFC
330
1DB18
100
AcDbEntity
  8
DEFPOINTS
  6
Continuous
 62
     0
440
 16777216
100
AcDbPoint
 10
394.3859941592263
 20
149.0183697844592
 30
0.0
  0
POINT
  5
1DDFD
330
1DB18
100
AcDbEntity
  8
DEFPOINTS
  6
Continuous
 62
     0
440
 16777216
100
AcDbPoint
 10
394.3859941592263
 20
36.10774968441956
 30
0.0
  0
ENDBLK
  5
1DB1A
330
1DB18
100
AcDbEntity
  8
0
100
AcDbBlockEnd
  0
BLOCK
  5
1DB25
330
1DB24
100
AcDbEntity
  8
0
100
AcDbBlockBegin
  2
*D6
 70
     1
 10
0.0
 20
0.0
 30
0.0
  3
*D6
  1

  0
LINE
  5
1DCAE
330
1DB24
100
AcDbEntity
  8
30
  6
Continuous
 62
     0
440
 16777216
370
    -2
100
AcDbLine
 10
395.4279767723247
 20
242.3991735828293
 30
0.0
 11
427.2875047542272
 21
242.3991735828293
 31
0.0
  0
LINE
  5
1DCAF
330
1DB24
100
AcDbEntity
  8
30
  6
Continuous
 62
     0
440
 16777216
370
    -2
100
AcDbLine
 10
395.4279767723247
 20
150.3991735828291
 30
0.0
 11
427.2875047542272
 21
150.3991735828291
 31
0.0
  0
LINE
  5
1DCB0
330
1DB24
100
AcDbEntity
  8
30
  6
Continuous
 62
     0
440
 16777216
370
    -2
100
AcDbLine
 10
426.7875047542272
 20
240.3991735828293
 30
0.0
 11
426.7875047542272
 21
152.3991735828291
 31
0.0
  0
INSERT
  5
1DCB1
330
1DB24
100
AcDbEntity
  8
30
  6
Continuous
 62
     0
440
 16777216
370
    -2
100
AcDbBlockReference
  2
_OPEN
 10
426.7875047542272
 20
242.3991735828293
 30
0.0
 41
2.0
 42
2.0
 43
2.0
 50
90.0
  0
INSERT
  5
1DCB2
330
1DB24
100
AcDbEntity
  8
30
  6
Continuous
 62
     0
440
 16777216
370
    -2
100
AcDbBlockReference
  2
_OPEN
 10
426.7875047542272
 20
150.3991735828291
 30
0.0
 41
2.0
 42
2.0
 43
2.0
 50
270.0
  0
MTEXT
  5
1DCB3
330
1DB24
100
AcDbEntity
  8
30
  6
Continuous
440
 16777216
100
AcDbMText
 10
419.7875047542272
 20
196.3991735828292
 30
0.0
 40
8.0
 41
0.0
 46
0.0
 71
     5
 72
     1
  1
\A1;92
 11
0.0000000000000001
 21
1.0
 31
0.0
 73
     1
 44
1.0
 90
        3
 63
     9
421
 13158600
 45
1.25
441
        0
  0
POINT
  5
1DCB4
330
1DB24
100
AcDbEntity
  8
DEFPOINTS
  6
Continuous
 62
     0
440
 16777216
100
AcDbPoint
 10
394.4279767723246
 20
242.3991735828293
 30
0.0
  0
POINT
  5
1DCB5
330
1DB24
100
AcDbEntity
  8
DEFPOINTS
  6
Continuous
 62
     0
440
 16777216
100
AcDbPoint
 10
394.4279767723246
 20
150.3991735828291
 30
0.0
  0
POINT
  5
1DCB6
330
1DB24
100
AcDbEntity
  8
DEFPOINTS
  6
Continuous
 62
     0
440
 16777216
100
AcDbPoint
 10
426.7875047542272
 20
150.3991735828291
 30
0.0
  0
ENDBLK
  5
1DB26
330
1DB24
100
AcDbEntity
  8
0
100
AcDbBlockEnd
  0
BLOCK
  5
1DB31
330
1DB30
100
AcDbEntity
  8
0
100
AcDbBlockBegin
  2
*D7
 70
     1
 10
0.0
 20
0.0
 30
0.0
  3
*D7
  1

  0
LINE
  5
1DCB7
330
1DB30
100
AcDbEntity
  8
30
  6
Continuous
 62
     0
440
 16777216
370
    -2
100
AcDbLine
 10
90.74435337280126
 20
348.5676573429441
 30
0.0
 11
121.73385215913
 21
307.3940768327491
 31
0.0
  0
MTEXT
  5
1DCB8
330
1DB30
100
AcDbEntity
  8
30
  6
Continuous
440
 16777216
100
AcDbMText
 10
102.1503330133931
 20
345.05367486108
 30
0.0
 40
8.0
 41
0.0
 46
0.0
 71
     5
 72
     1
  1
\A1;M6
 11
0.6013567335211001
 21
-0.7989806499839859
 31
0.0
 73
     1
 44
1.0
 90
        3
 63
     9
421
 13158600
 45
1.25
441
        0
  0
INSERT
  5
1DCB9
330
1DB30
100
AcDbEntity
  8
30
  6
Continuous
 62
     0
440
 16777216
370
    -2
100
AcDbBlockReference
  2
_OPEN
 10
122.9365656261722
 20
305.7961155327812
 30
0.0
 41
2.0
 42
2.0
 43
2.0
 50
306.9671284485165
  0
LINE
  5
1DCBA
330
1DB30
100
AcDbEntity
  8
30
  6
Continuous
 62
     0
440
 16777216
370
    -2
100
AcDbLine
 10
124.6506358267355
 20
303.3991735828292
 30
0.0
 11
124.8306358267354
 21
303.3991735828292
 31
0.0
  0
LINE
  5
1DCBB
330
1DB30
100
AcDbEntity
  8
30
  6
Continuous
 62
     0
440
 16777216
370
    -2
100
AcDbLine
 10
124.7406358267354
 20
303.3091735828293
 30
0.0
 11
124.7406358267354
 21
303.4891735828292
 31
0.0
  0
POINT
  5
1DCBC
330
1DB30
100
AcDbEntity
  8
DEFPOINTS
  6
Continuous
 62
     0
440
 16777216
100
AcDbPoint
 10
122.9365656261722
 20
305.7961155327812
 30
0.0
  0
POINT
  5
1DCBD
330
1DB30
100
AcDbEntity
  8
DEFPOINTS
  6
Continuous
 62
     0
440
 16777216
100
AcDbPoint
 10
126.5447060272987
 20
301.0022316328774
 30
0.0
  0
ENDBLK
  5
1DB32
330
1DB30
100
AcDbEntity
  8
0
100
AcDbBlockEnd
  0
BLOCK
  5
1DB3B
330
1DB3A
100
AcDbEntity
  8
0
100
AcDbBlockBegin
  2
*D8
 70
     1
 10
0.0
 20
0.0
 30
0.0
  3
*D8
  1

  0
LINE
  5
1DCBE
330
1DB3A
100
AcDbEntity
  8
30
  6
Continuous
 62
     0
440
 16777216
370
    -2
100
AcDbLine
 10
131.2839548768724
 20
1009.560804545807
 30
0.0
 11
131.2839548768724
 21
1053.793017183538
 31
0.0
  0
LINE
  5
1DCBF
330
1DB3A
100
AcDbEntity
  8
30
  6
Continuous
 62
     0
440
 16777216
370
    -2
100
AcDbLine
 10
176.283934272398
 20
1009.560804545807
 30
0.0
 11
176.283934272398
 21
1053.793017183538
 31
0.0
  0
LINE
  5
1DCC0
330
1DB3A
100
AcDbEntity
  8
30
  6
Continuous
 62
     0
440
 16777216
370
    -2
100
AcDbLine
 10
133.2839548768725
 20
1053.293017183538
 30
0.0
 11
174.283934272398
 21
1053.293017183538
 31
0.0
  0
INSERT
  5
1DCC1
330
1DB3A
100
AcDbEntity
  8
30
  6
Continuous
 62
     0
440
 16777216
370
    -2
100
AcDbBlockReference
  2
_OPEN
 10
131.2839548768724
 20
1053.293017183538
 30
0.0
 41
2.0
 42
2.0
 43
2.0
 50
180.0
  0
INSERT
  5
1DCC2
330
1DB3A
100
AcDbEntity
  8
30
  6
Continuous
 62
     0
440
 16777216
370
    -2
100
AcDbBlockReference
  2
_OPEN
 10
176.283934272398
 20
1053.293017183538
 30
0.0
 41
2.0
 42
2.0
 43
2.0
  0
MTEXT
  5
1DCC3
330
1DB3A
100
AcDbEntity
  8
30
  6
Continuous
440
 16777216
100
AcDbMText
 10
153.7839445746351
 20
1060.293017183538
 30
0.0
 40
8.0
 41
0.0
 46
0.0
 71
     5
 72
     1
  1
\A1;45
 73
     1
 44
1.0
 90
        3
 63
     9
421
 13158600
 45
1.25
441
        0
  0
POINT
  5
1DCC4
330
1DB3A
100
AcDbEntity
  8
DEFPOINTS
  6
Continuous
 62
     0
440
 16777216
100
AcDbPoint
 10
131.2839548768724
 20
1008.560804545807
 30
0.0
  0
POINT
  5
1DCC5
330
1DB3A
100
AcDbEntity
  8
DEFPOINTS
  6
Continuous
 62
     0
440
 16777216
100
AcDbPoint
 10
176.283934272398
 20
1008.560804545807
 30
0.0
  0
POINT
  5
1DCC6
330
1DB3A
100
AcDbEntity
  8
DEFPOINTS
  6
Continuous
 62
     0
440
 16777216
100
AcDbPoint
 10
176.283934272398
 20
1053.293017183538
 30
0.0
  0
ENDBLK
  5
1DB3C
330
1DB3A
100
AcDbEntity
  8
0
100
AcDbBlockEnd
  0
BLOCK
  5
1DB47
330
1DB46
100
AcDbEntity
  8
0
100
AcDbBlockBegin
  2
*D9
 70
     1
 10
0.0
 20
0.0
 30
0.0
  3
*D9
  1

  0
LINE
  5
1DCC7
330
1DB46
100
AcDbEntity
  8
30
  6
Continuous
 62
     0
440
 16777216
370
    -2
100
AcDbLine
 10
176.283934272398
 20
1009.560804545807
 30
0.0
 11
176.283934272398
 21
1053.793017183538
 31
0.0
  0
LINE
  5
1DCC8
330
1DB46
100
AcDbEntity
  8
30
  6
Continuous
 62
     0
440
 16777216
370
    -2
100
AcDbLine
 10
221.2839548768725
 20
1003.478820795729
 30
0.0
 11
221.2839548768725
 21
1053.793017183538
 31
0.0
  0
LINE
  5
1DCC9
330
1DB46
100
AcDbEntity
  8
30
  6
Continuous
 62
     0
440
 16777216
370
    -2
100
AcDbLine
 10
178.283934272398
 20
1053.293017183538
 30
0.0
 11
219.2839548768725
 21
1053.293017183538
 31
0.0
  0
INSERT
  5
1DCCA
330
1DB46
100
AcDbEntity
  8
30
  6
Continuous
 62
     0
440
 16777216
370
    -2
100
AcDbBlockReference
  2
_OPEN
 10
176.283934272398
 20
1053.293017183538
 30
0.0
 41
2.0
 42
2.0
 43
2.0
 50
180.0
  0
INSERT
  5
1DCCB
330
1DB46
100
AcDbEntity
  8
30
  6
Continuous
 62
     0
440
 16777216
370
    -2
100
AcDbBlockReference
  2
_OPEN
 10
221.2839548768725
 20
1053.293017183538
 30
0.0
 41
2.0
 42
2.0
 43
2.0
  0
MTEXT
  5
1DCCC
330
1DB46
100
AcDbEntity
  8
30
  6
Continuous
440
 16777216
100
AcDbMText
 10
198.7839445746352
 20
1060.293017183538
 30
0.0
 40
8.0
 41
0.0
 46
0.0
 71
     5
 72
     1
  1
\A1;45
 73
     1
 44
1.0
 90
        3
 63
     9
421
 13158600
 45
1.25
441
        0
  0
POINT
  5
1DCCD
330
1DB46
100
AcDbEntity
  8
DEFPOINTS
  6
Continuous
 62
     0
440
 16777216
100
AcDbPoint
 10
176.283934272398
 20
1008.560804545807
 30
0.0
  0
POINT
  5
1DCCE
330
1DB46
100
AcDbEntity
  8
DEFPOINTS
  6
Continuous
 62
     0
440
 16777216
100
AcDbPoint
 10
221.2839548768725
 20
1002.478820795729
 30
0.0
  0
POINT
  5
1DCCF
330
1DB46
100
AcDbEntity
  8
DEFPOINTS
  6
Continuous
 62
     0
440
 16777216
100
AcDbPoint
 10
221.2839548768725
 20
1053.293017183538
 30
0.0
  0
ENDBLK
  5
1DB48
330
1DB46
100
AcDbEntity
  8
0
100
AcDbBlockEnd
  0
BLOCK
  5
1DB53
330
1DB52
100
AcDbEntity
  8
0
100
AcDbBlockBegin
  2
*D10
 70
     1
 10
0.0
 20
0.0
 30
0.0
  3
*D10
  1

  0
LINE
  5
1DCD0
330
1DB52
100
AcDbEntity
  8
30
  6
Continuous
 62
     0
440
 16777216
370
    -2
100
AcDbLine
 10
231.200692658912
 20
697.1093561932171
 30
0.0
 11
279.8761816879152
 21
697.1093561932169
 31
0.0
  0
LINE
  5
1DCD1
330
1DB52
100
AcDbEntity
  8
30
  6
Continuous
 62
     0
440
 16777216
370
    -2
100
AcDbLine
 10
240.700692658912
 20
469.1093561932171
 30
0.0
 11
279.876181687915
 21
469.1093561932171
 31
0.0
  0
LINE
  5
1DCD2
330
1DB52
100
AcDbEntity
  8
30
  6
Continuous
 62
     0
440
 16777216
370
    -2
100
AcDbLine
 10
279.3761816879152
 20
695.1093561932172
 30
0.0
 11
279.376181687915
 21
471.1093561932171
 31
0.0
  0
INSERT
  5
1DCD3
330
1DB52
100
AcDbEntity
  8
30
  6
Continuous
 62
     0
440
 16777216
370
    -2
100
AcDbBlockReference
  2
_OPEN
 10
279.3761816879152
 20
697.1093561932169
 30
0.0
 41
2.0
 42
2.0
 43
2.0
 50
90.0
  0
INSERT
  5
1DCD4
330
1DB52
100
AcDbEntity
  8
30
  6
Continuous
 62
     0
440
 16777216
370
    -2
100
AcDbBlockReference
  2
_OPEN
 10
279.376181687915
 20
469.1093561932171
 30
0.0
 41
2.0
 42
2.0
 43
2.0
 50
270.0
  0
MTEXT
  5
1DCD5
330
1DB52
100
AcDbEntity
  8
30
  6
Continuous
440
 16777216
100
AcDbMText
 10
268.3761816879151
 20
583.1093561932171
 30
0.0
 40
8.0
 41
0.0
 46
0.0
 71
     2
 72
     1
  1
\A1;228
 11
0.0000000000000001
 21
1.0
 31
0.0
 73
     1
 44
1.0
 90
        3
 63
     9
421
 13158600
 45
1.25
441
        0
  0
POINT
  5
1DCD6
330
1DB52
100
AcDbEntity
  8
DEFPOINTS
  6
Continuous
 62
     0
440
 16777216
100
AcDbPoint
 10
230.200692658912
 20
697.1093561932171
 30
0.0
  0
POINT
  5
1DCD7
330
1DB52
100
AcDbEntity
  8
DEFPOINTS
  6
Continuous
 62
     0
440
 16777216
100
AcDbPoint
 10
239.700692658912
 20
469.1093561932171
 30
0.0
  0
POINT
  5
1DCD8
330
1DB52
100
AcDbEntity
  8
DEFPOINTS
  6
Continuous
 62
     0
440
 16777216
100
AcDbPoint
 10
279.376181687915
 20
469.1093561932171
 30
0.0
  0
ENDBLK
  5
1DB54
330
1DB52
100
AcDbEntity
  8
0
100
AcDbBlockEnd
  0
BLOCK
  5
1DB5F
330
1DB5E
100
AcDbEntity
  8
0
100
AcDbBlockBegin
  2
*D11
 70
     1
 10
0.0
 20
0.0
 30
0.0
  3
*D11
  1

  0
LINE
  5
1DCD9
330
1DB5E
100
AcDbEntity
  8
30
  6
Continuous
 62
     0
440
 16777216
370
    -2
100
AcDbLine
 10
253.800770332412
 20
713.1093561932171
 30
0.0
 11
301.1795420061036
 21
713.109356193217
 31
0.0
  0
LINE
  5
1DCDA
330
1DB5E
100
AcDbEntity
  8
30
  6
Continuous
 62
     0
440
 16777216
370
    -2
100
AcDbLine
 10
253.800770332412
 20
453.1093561932171
 30
0.0
 11
301.1795420061035
 21
453.1093561932171
 31
0.0
  0
LINE
  5
1DCDB
330
1DB5E
100
AcDbEntity
  8
30
  6
Continuous
 62
     0
440
 16777216
370
    -2
100
AcDbLine
 10
300.6795420061036
 20
711.1093561932173
 30
0.0
 11
300.6795420061035
 21
455.1093561932169
 31
0.0
  0
INSERT
  5
1DCDC
330
1DB5E
100
AcDbEntity
  8
30
  6
Continuous
 62
     0
440
 16777216
370
    -2
100
AcDbBlockReference
  2
_OPEN
 10
300.6795420061036
 20
713.109356193217
 30
0.0
 41
2.0
 42
2.0
 43
2.0
 50
90.0
  0
INSERT
  5
1DCDD
330
1DB5E
100
AcDbEntity
  8
30
  6
Continuous
 62
     0
440
 16777216
370
    -2
100
AcDbBlockReference
  2
_OPEN
 10
300.6795420061035
 20
453.1093561932171
 30
0.0
 41
2.0
 42
2.0
 43
2.0
 50
270.0
  0
MTEXT
  5
1DCDE
330
1DB5E
100
AcDbEntity
  8
30
  6
Continuous
440
 16777216
100
AcDbMText
 10
289.6795420061035
 20
583.1093561932171
 30
0.0
 40
8.0
 41
0.0
 46
0.0
 71
     2
 72
     1
  1
\A1;260
 11
0.0000000000000001
 21
1.0
 31
0.0
 73
     1
 44
1.0
 90
        3
 63
     9
421
 13158600
 45
1.25
441
        0
  0
POINT
  5
1DCDF
330
1DB5E
100
AcDbEntity
  8
DEFPOINTS
  6
Continuous
 62
     0
440
 16777216
100
AcDbPoint
 10
252.8007703324119
 20
713.1093561932171
 30
0.0
  0
POINT
  5
1DCE0
330
1DB5E
100
AcDbEntity
  8
DEFPOINTS
  6
Continuous
 62
     0
440
 16777216
100
AcDbPoint
 10
252.8007703324119
 20
453.1093561932171
 30
0.0
  0
POINT
  5
1DCE1
330
1DB5E
100
AcDbEntity
  8
DEFPOINTS
  6
Continuous
 62
     0
440
 16777216
100
AcDbPoint
 10
300.6795420061035
 20
453.1093561932171
 30
0.0
  0
ENDBLK
  5
1DB60
330
1DB5E
100
AcDbEntity
  8
0
100
AcDbBlockEnd
  0
BLOCK
  5
1DB6B
330
1DB6A
100
AcDbEntity
  8
0
100
AcDbBlockBegin
  2
*D12
 70
     1
 10
0.0
 20
0.0
 30
0.0
  3
*D12
  1

  0
LINE
  5
1DCE2
330
1DB6A
100
AcDbEntity
  8
30
  6
Continuous
 62
     0
440
 16777216
370
    -2
100
AcDbLine
 10
552.1598456858654
 20
854.8358036458772
 30
0.0
 11
510.5450423250323
 21
854.8358036458772
 31
0.0
  0
LINE
  5
1DCE3
330
1DB6A
100
AcDbEntity
  8
30
  6
Continuous
 62
     0
440
 16777216
370
    -2
100
AcDbLine
 10
536.159845685866
 20
842.8358036458773
 30
0.0
 11
510.5450423250323
 21
842.8358036458773
 31
0.0
  0
LINE
  5
1DCE4
330
1DB6A
100
AcDbEntity
  8
30
  6
Continuous
 62
     0
440
 16777216
370
    -2
100
AcDbLine
 10
511.0450423250325
 20
852.8358036458772
 30
0.0
 11
511.0450423250325
 21
844.8358036458772
 31
0.0
  0
INSERT
  5
1DCE5
330
1DB6A
100
AcDbEntity
  8
30
  6
Continuous
 62
     0
440
 16777216
370
    -2
100
AcDbBlockReference
  2
_OPEN
 10
511.0450423250325
 20
854.8358036458772
 30
0.0
 41
2.0
 42
2.0
 43
2.0
 50
90.0
  0
INSERT
  5
1DCE6
330
1DB6A
100
AcDbEntity
  8
30
  6
Continuous
 62
     0
440
 16777216
370
    -2
100
AcDbBlockReference
  2
_OPEN
 10
511.0450423250325
 20
842.8358036458773
 30
0.0
 41
2.0
 42
2.0
 43
2.0
 50
270.0
  0
MTEXT
  5
1DCE7
330
1DB6A
100
AcDbEntity
  8
30
  6
Continuous
440
 16777216
100
AcDbMText
 10
486.7117089916988
 20
848.8358036458773
 30
0.0
 40
8.0
 41
0.0
 46
0.0
 71
     2
 72
     1
  1
\A1;12\P(MAX.)
 11
0.0000000000000001
 21
1.0
 31
0.0
 73
     1
 44
1.0
 90
        3
 63
     9
421
 13158600
 45
1.25
441
        0
  0
POINT
  5
1DCE8
330
1DB6A
100
AcDbEntity
  8
DEFPOINTS
  6
Continuous
 62
     0
440
 16777216
100
AcDbPoint
 10
553.1598456858654
 20
854.8358036458772
 30
0.0
  0
POINT
  5
1DCE9
330
1DB6A
100
AcDbEntity
  8
DEFPOINTS
  6
Continuous
 62
     0
440
 16777216
100
AcDbPoint
 10
537.1598456858658
 20
842.8358036458773
 30
0.0
  0
POINT
  5
1DCEA
330
1DB6A
100
AcDbEntity
  8
DEFPOINTS
  6
Continuous
 62
     0
440
 16777216
100
AcDbPoint
 10
511.0450423250325
 20
842.8358036458773
 30
0.0
  0
ENDBLK
  5
1DB6C
330
1DB6A
100
AcDbEntity
  8
0
100
AcDbBlockEnd
  0
BLOCK
  5
1DB77
330
1DB76
100
AcDbEntity
  8
0
100
AcDbBlockBegin
  2
*D13
 70
     1
 10
0.0
 20
0.0
 30
0.0
  3
*D13
  1

  0
LINE
  5
1DCEB
330
1DB76
100
AcDbEntity
  8
30
  6
Continuous
 62
     0
440
 16777216
370
    -2
100
AcDbLine
 10
537.1598456858658
 20
841.8358036458773
 30
0.0
 11
537.1598456858658
 21
816.6336942048589
 31
0.0
  0
LINE
  5
1DCEC
330
1DB76
100
AcDbEntity
  8
30
  6
Continuous
 62
     0
440
 16777216
370
    -2
100
AcDbLine
 10
569.1598456858654
 20
841.8358036458773
 30
0.0
 11
569.1598456858654
 21
816.6336942048589
 31
0.0
  0
LINE
  5
1DCED
330
1DB76
100
AcDbEntity
  8
30
  6
Continuous
 62
     0
440
 16777216
370
    -2
100
AcDbLine
 10
539.159845685866
 20
817.133694204859
 30
0.0
 11
567.1598456858654
 21
817.133694204859
 31
0.0
  0
INSERT
  5
1DCEE
330
1DB76
100
AcDbEntity
  8
30
  6
Continuous
 62
     0
440
 16777216
370
    -2
100
AcDbBlockReference
  2
_OPEN
 10
537.1598456858658
 20
817.133694204859
 30
0.0
 41
2.0
 42
2.0
 43
2.0
 50
180.0
  0
INSERT
  5
1DCEF
330
1DB76
100
AcDbEntity
  8
30
  6
Continuous
 62
     0
440
 16777216
370
    -2
100
AcDbBlockReference
  2
_OPEN
 10
569.1598456858654
 20
817.133694204859
 30
0.0
 41
2.0
 42
2.0
 43
2.0
  0
MTEXT
  5
1DCF0
330
1DB76
100
AcDbEntity
  8
30
  6
Continuous
440
 16777216
100
AcDbMText
 10
553.1598456858658
 20
841.4670275381922
 30
0.0
 40
8.0
 41
0.0
 46
0.0
 71
     2
 72
     1
  1
\A1;32\P(MAX.)
 73
     1
 44
1.0
 90
        3
 63
     9
421
 13158600
 45
1.25
441
        0
  0
POINT
  5
1DCF1
330
1DB76
100
AcDbEntity
  8
DEFPOINTS
  6
Continuous
 62
     0
440
 16777216
100
AcDbPoint
 10
537.1598456858658
 20
842.8358036458773
 30
0.0
  0
POINT
  5
1DCF2
330
1DB76
100
AcDbEntity
  8
DEFPOINTS
  6
Continuous
 62
     0
440
 16777216
100
AcDbPoint
 10
569.1598456858654
 20
842.8358036458773
 30
0.0
  0
POINT
  5
1DCF3
330
1DB76
100
AcDbEntity
  8
DEFPOINTS
  6
Continuous
 62
     0
440
 16777216
100
AcDbPoint
 10
569.1598456858654
 20
817.133694204859
 30
0.0
  0
ENDBLK
  5
1DB78
330
1DB76
100
AcDbEntity
  8
0
100
AcDbBlockEnd
  0
BLOCK
  5
1DB83
330
1DB82
100
AcDbEntity
  8
0
100
AcDbBlockBegin
  2
*D14
 70
     1
 10
0.0
 20
0.0
 30
0.0
  3
*D14
  1

  0
LINE
  5
1DCF4
330
1DB82
100
AcDbEntity
  8
30
  6
Continuous
 62
     0
440
 16777216
370
    -2
100
AcDbLine
 10
603.0279455142317
 20
887.5446662331189
 30
0.0
 11
559.4311899926244
 21
858.9492256504437
 31
0.0
  0
MTEXT
  5
1DCF5
330
1DB82
100
AcDbEntity
  8
30
  6
Continuous
440
 16777216
100
AcDbMText
 10
581.1075209974062
 20
886.3219688044139
 30
0.0
 40
8.0
 41
0.0
 46
0.0
 71
     1
 72
     1
  1
\A1;∅11
 11
0.8361792408795128
 21
0.5484562672831462
 31
0.0
 73
     1
 44
1.0
 90
        3
 63
     9
421
 13158600
 45
1.25
441
        0
  0
INSERT
  5
1DCF6
330
1DB82
100
AcDbEntity
  8
30
  6
Continuous
 62
     0
440
 16777216
370
    -2
100
AcDbBlockReference
  2
_OPEN
 10
557.7588315108653
 20
857.8523131158773
 30
0.0
 41
2.0
 42
2.0
 43
2.0
 50
213.2611707850256
  0
LINE
  5
1DCF7
330
1DB82
100
AcDbEntity
  8
30
  6
Continuous
 62
     0
440
 16777216
370
    -2
100
AcDbLine
 10
553.0698456861155
 20
854.8358036458774
 30
0.0
 11
553.2498456861153
 21
854.8358036458772
 31
0.0
  0
LINE
  5
1DCF8
330
1DB82
100
AcDbEntity
  8
30
  6
Continuous
 62
     0
440
 16777216
370
    -2
100
AcDbLine
 10
553.1598456861155
 20
854.7458036458774
 30
0.0
 11
553.1598456861153
 21
854.9258036458772
 31
0.0
  0
POINT
  5
1DCF9
330
1DB82
100
AcDbEntity
  8
DEFPOINTS
  6
Continuous
 62
     0
440
 16777216
100
AcDbPoint
 10
557.7588315108653
 20
857.8523131158773
 30
0.0
  0
POINT
  5
1DCFA
330
1DB82
100
AcDbEntity
  8
DEFPOINTS
  6
Continuous
 62
     0
440
 16777216
100
AcDbPoint
 10
548.5608598613652
 20
851.8192941758771
 30
0.0
  0
ENDBLK
  5
1DB84
330
1DB82
100
AcDbEntity
  8
0
100
AcDbBlockEnd
  0
BLOCK
  5
1DB8D
330
1DB8C
100
AcDbEntity
  8
0
100
AcDbBlockBegin
  2
*D15
 70
     1
 10
0.0
 20
0.0
 30
0.0
  3
*D15
  1

  0
LINE
  5
1DCFB
330
1DB8C
100
AcDbEntity
  8
30
  6
Continuous
 62
     0
440
 16777216
370
    -2
100
AcDbLine
 10
394.8977838109142
 20
243.3477163944344
 30
0.0
 11
412.8593935292995
 21
266.5573458966617
 31
0.0
  0
LINE
  5
1DCFC
330
1DB8C
100
AcDbEntity
  8
30
  6
Continuous
 62
     0
440
 16777216
370
    -2
100
AcDbLine
 10
412.8593935292995
 20
266.5573458966617
 30
0.0
 11
422.5260601959662
 21
266.5573458966618
 31
0.0
  0
LINE
  5
1DCFD
330
1DB8C
100
AcDbEntity
  8
30
  6
Continuous
 62
     0
440
 16777216
370
    -2
100
AcDbLine
 10
392.4496991735045
 20
240.1843508433939
 30
0.0
 11
393.6737414922641
 21
241.7660336189849
 31
0.0
  0
INSERT
  5
1DCFE
330
1DB8C
100
AcDbEntity
  8
30
  6
Continuous
 62
     0
440
 16777216
370
    -2
100
AcDbBlockReference
  2
_OPEN
 10
393.6737414922641
 20
241.7660336189849
 30
0.0
 41
2.0
 42
2.0
 43
2.0
 50
232.2642101408565
  0
MTEXT
  5
1DCFF
330
1DB8C
100
AcDbEntity
  8
30
  6
Continuous
 62
     0
440
 16777216
100
AcDbMText
 10
415.8593935292997
 20
273.5573458966616
 30
0.0
 40
4.0
 41
0.0
 46
0.0
 71
     1
 72
     1
  1
\A1;R2
 73
     1
 44
1.0
  0
POINT
  5
1DD00
330
1DB8C
100
AcDbEntity
  8
DEFPOINTS
  6
Continuous
 62
     0
440
 16777216
100
AcDbPoint
 10
393.6737414922641
 20
241.7660336189849
 30
0.0
  0
POINT
  5
1DD01
330
1DB8C
100
AcDbEntity
  8
DEFPOINTS
  6
Continuous
 62
     0
440
 16777216
100
AcDbPoint
 10
392.4496991735045
 20
240.1843508433939
 30
0.0
  0
ENDBLK
  5
1DB8E
330
1DB8C
100
AcDbEntity
  8
0
100
AcDbBlockEnd
  0
BLOCK
  5
1DB97
330
1DB96
100
AcDbEntity
  8
0
100
AcDbBlockBegin
  2
*D16
 70
     1
 10
0.0
 20
0.0
 30
0.0
  3
*D16
  1

  0
LINE
  5
1DD02
330
1DB96
100
AcDbEntity
  8
30
  6
Continuous
 62
     0
440
 16777216
370
    -2
100
AcDbLine
 10
103.2840325503727
 20
743.1093561932173
 30
0.0
 11
77.24452432053194
 21
743.1093561932173
 31
0.0
  0
LINE
  5
1DD03
330
1DB96
100
AcDbEntity
  8
30
  6
Continuous
 62
     0
440
 16777216
370
    -2
100
AcDbLine
 10
105.2839548768724
 20
713.1093561932171
 30
0.0
 11
77.24452432053192
 21
713.1093561932171
 31
0.0
  0
LINE
  5
1DD04
330
1DB96
100
AcDbEntity
  8
30
  6
Continuous
 62
     0
440
 16777216
370
    -2
100
AcDbLine
 10
77.74452432053194
 20
741.1093561932172
 30
0.0
 11
77.74452432053192
 21
715.1093561932173
 31
0.0
  0
INSERT
  5
1DD05
330
1DB96
100
AcDbEntity
  8
30
  6
Continuous
 62
     0
440
 16777216
370
    -2
100
AcDbBlockReference
  2
_OPEN
 10
77.74452432053194
 20
743.1093561932173
 30
0.0
 41
2.0
 42
2.0
 43
2.0
 50
90.0
  0
INSERT
  5
1DD06
330
1DB96
100
AcDbEntity
  8
30
  6
Continuous
 62
     0
440
 16777216
370
    -2
100
AcDbBlockReference
  2
_OPEN
 10
77.74452432053192
 20
713.1093561932171
 30
0.0
 41
2.0
 42
2.0
 43
2.0
 50
270.0
  0
MTEXT
  5
1DD07
330
1DB96
100
AcDbEntity
  8
30
  6
Continuous
440
 16777216
100
AcDbMText
 10
66.74452432053183
 20
724.4788679767029
 30
0.0
 40
8.0
 41
0.0
 46
0.0
 71
     2
 72
     1
  1
\A1;30
 11
0.0000000000000001
 21
1.0
 31
0.0
 73
     1
 44
1.0
 90
        3
 63
     9
421
 13158600
 45
1.25
441
        0
  0
POINT
  5
1DD08
330
1DB96
100
AcDbEntity
  8
DEFPOINTS
  6
Continuous
 62
     0
440
 16777216
100
AcDbPoint
 10
104.2840325503726
 20
743.1093561932173
 30
0.0
  0
POINT
  5
1DD09
330
1DB96
100
AcDbEntity
  8
DEFPOINTS
  6
Continuous
 62
     0
440
 16777216
100
AcDbPoint
 10
106.2839548768724
 20
713.1093561932171
 30
0.0
  0
POINT
  5
1DD0A
330
1DB96
100
AcDbEntity
  8
DEFPOINTS
  6
Continuous
 62
     0
440
 16777216
100
AcDbPoint
 10
77.74452432053192
 20
713.1093561932171
 30
0.0
  0
ENDBLK
  5
1DB98
330
1DB96
100
AcDbEntity
  8
0
100
AcDbBlockEnd
  0
BLOCK
  5
1DBA3
330
1DBA2
100
AcDbEntity
  8
0
100
AcDbBlockBegin
  2
*D17
 70
     1
 10
0.0
 20
0.0
 30
0.0
  3
*D17
  1

  0
LINE
  5
1DD0B
330
1DBA2
100
AcDbEntity
  8
30
  6
Continuous
 62
     0
440
 16777216
370
    -2
100
AcDbLine
 10
98.8840325503726
 20
757.6093561932172
 30
0.0
 11
62.98899519254735
 21
757.6093561932172
 31
0.0
  0
LINE
  5
1DD0C
330
1DBA2
100
AcDbEntity
  8
30
  6
Continuous
 62
     0
440
 16777216
370
    -2
100
AcDbLine
 10
105.2839548768724
 20
713.1093561932171
 30
0.0
 11
62.98899519254735
 21
713.1093561932171
 31
0.0
  0
LINE
  5
1DD0D
330
1DBA2
100
AcDbEntity
  8
30
  6
Continuous
 62
     0
440
 16777216
370
    -2
100
AcDbLine
 10
63.48899519254736
 20
755.6093561932173
 30
0.0
 11
63.48899519254735
 21
715.1093561932173
 31
0.0
  0
INSERT
  5
1DD0E
330
1DBA2
100
AcDbEntity
  8
30
  6
Continuous
 62
     0
440
 16777216
370
    -2
100
AcDbBlockReference
  2
_OPEN
 10
63.48899519254736
 20
757.6093561932172
 30
0.0
 41
2.0
 42
2.0
 43
2.0
 50
90.0
  0
INSERT
  5
1DD0F
330
1DBA2
100
AcDbEntity
  8
30
  6
Continuous
 62
     0
440
 16777216
370
    -2
100
AcDbBlockReference
  2
_OPEN
 10
63.48899519254735
 20
713.1093561932171
 30
0.0
 41
2.0
 42
2.0
 43
2.0
 50
270.0
  0
MTEXT
  5
1DD10
330
1DBA2
100
AcDbEntity
  8
30
  6
Continuous
440
 16777216
100
AcDbMText
 10
52.48899519254724
 20
732.2897321859122
 30
0.0
 40
8.0
 41
0.0
 46
0.0
 71
     2
 72
     1
  1
\A1;44.5
 11
0.0000000000000001
 21
1.0
 31
0.0
 73
     1
 44
1.0
 90
        3
 63
     9
421
 13158600
 45
1.25
441
        0
  0
POINT
  5
1DD11
330
1DBA2
100
AcDbEntity
  8
DEFPOINTS
  6
Continuous
 62
     0
440
 16777216
100
AcDbPoint
 10
99.88403255037258
 20
757.6093561932172
 30
0.0
  0
POINT
  5
1DD12
330
1DBA2
100
AcDbEntity
  8
DEFPOINTS
  6
Continuous
 62
     0
440
 16777216
100
AcDbPoint
 10
106.2839548768724
 20
713.1093561932171
 30
0.0
  0
POINT
  5
1DD13
330
1DBA2
100
AcDbEntity
  8
DEFPOINTS
  6
Continuous
 62
     0
440
 16777216
100
AcDbPoint
 10
63.48899519254735
 20
713.1093561932171
 30
0.0
  0
ENDBLK
  5
1DBA4
330
1DBA2
100
AcDbEntity
  8
0
100
AcDbBlockEnd
  0
BLOCK
  5
1DBAF
330
1DBAE
100
AcDbEntity
  8
0
100
AcDbBlockBegin
  2
*D18
 70
     1
 10
0.0
 20
0.0
 30
0.0
  3
*D18
  1

  0
LINE
  5
1DD14
330
1DBAE
100
AcDbEntity
  8
30
  6
Continuous
 62
     0
440
 16777216
370
    -2
100
AcDbLine
 10
101.2839556158727
 20
757.6093596502172
 30
0.0
 11
77.24452432053194
 21
757.6093596502172
 31
0.0
  0
LINE
  5
1DD15
330
1DBAE
100
AcDbEntity
  8
30
  6
Continuous
 62
     0
440
 16777216
370
    -2
100
AcDbLine
 10
113.2839548768725
 20
743.1093561932173
 30
0.0
 11
77.24452432053194
 21
743.1093561932173
 31
0.0
  0
LINE
  5
1DD16
330
1DBAE
100
AcDbEntity
  8
30
  6
Continuous
 62
     0
440
 16777216
370
    -2
100
AcDbLine
 10
77.74452432053194
 20
745.1093561932172
 30
0.0
 11
77.74452432053194
 21
755.6093596502172
 31
0.0
  0
LINE
  5
1DD17
330
1DBAE
100
AcDbEntity
  8
30
  6
Continuous
 62
     0
440
 16777216
370
    -2
100
AcDbLine
 10
77.74452432053194
 20
757.6093596502172
 30
0.0
 11
77.74452432053194
 21
786.9426929835506
 31
0.0
  0
INSERT
  5
1DD18
330
1DBAE
100
AcDbEntity
  8
30
  6
Continuous
 62
     0
440
 16777216
370
    -2
100
AcDbBlockReference
  2
_OPEN
 10
77.74452432053194
 20
743.1093561932173
 30
0.0
 41
2.0
 42
2.0
 43
2.0
 50
270.0
  0
INSERT
  5
1DD19
330
1DBAE
100
AcDbEntity
  8
30
  6
Continuous
 62
     0
440
 16777216
370
    -2
100
AcDbBlockReference
  2
_OPEN
 10
77.74452432053194
 20
757.6093596502172
 30
0.0
 41
2.0
 42
2.0
 43
2.0
 50
90.0
  0
MTEXT
  5
1DD1A
330
1DBAE
100
AcDbEntity
  8
30
  6
Continuous
440
 16777216
100
AcDbMText
 10
66.74452432053183
 20
773.2760263168836
 30
0.0
 40
8.0
 41
0.0
 46
0.0
 71
     2
 72
     1
  1
\A1;14.5
 11
0.0000000000000001
 21
1.0
 31
0.0
 73
     1
 44
1.0
 90
        3
 63
     9
421
 13158600
 45
1.25
441
        0
  0
POINT
  5
1DD1B
330
1DBAE
100
AcDbEntity
  8
DEFPOINTS
  6
Continuous
 62
     0
440
 16777216
100
AcDbPoint
 10
102.2839556158727
 20
757.6093596502172
 30
0.0
  0
POINT
  5
1DD1C
330
1DBAE
100
AcDbEntity
  8
DEFPOINTS
  6
Continuous
 62
     0
440
 16777216
100
AcDbPoint
 10
114.2839548768725
 20
743.1093561932173
 30
0.0
  0
POINT
  5
1DD1D
330
1DBAE
100
AcDbEntity
  8
DEFPOINTS
  6
Continuous
 62
     0
440
 16777216
100
AcDbPoint
 10
77.74452432053194
 20
743.1093561932173
 30
0.0
  0
ENDBLK
  5
1DBB0
330
1DBAE
100
AcDbEntity
  8
0
100
AcDbBlockEnd
  0
BLOCK
  5
1DBBC
330
1DBBB
100
AcDbEntity
  8
0
100
AcDbBlockBegin
  2
*D19
 70
     1
 10
0.0
 20
0.0
 30
0.0
  3
*D19
  1

  0
LINE
  5
1DD1E
330
1DBBB
100
AcDbEntity
  8
30
  6
Continuous
 62
     0
440
 16777216
370
    -2
100
AcDbLine
 10
102.2839556158727
 20
758.6093596502172
 30
0.0
 11
102.2839556158727
 21
808.3018884788412
 31
0.0
  0
LINE
  5
1DD1F
330
1DBBB
100
AcDbEntity
  8
30
  6
Continuous
 62
     0
440
 16777216
370
    -2
100
AcDbLine
 10
250.2839541378727
 20
758.6093596502172
 30
0.0
 11
250.2839541378727
 21
808.3018884788412
 31
0.0
  0
LINE
  5
1DD20
330
1DBBB
100
AcDbEntity
  8
30
  6
Continuous
 62
     0
440
 16777216
370
    -2
100
AcDbLine
 10
104.2839556158727
 20
807.8018884788411
 30
0.0
 11
248.2839541378727
 21
807.8018884788411
 31
0.0
  0
INSERT
  5
1DD21
330
1DBBB
100
AcDbEntity
  8
30
  6
Continuous
 62
     0
440
 16777216
370
    -2
100
AcDbBlockReference
  2
_OPEN
 10
102.2839556158727
 20
807.8018884788411
 30
0.0
 41
2.0
 42
2.0
 43
2.0
 50
180.0
  0
INSERT
  5
1DD22
330
1DBBB
100
AcDbEntity
  8
30
  6
Continuous
 62
     0
440
 16777216
370
    -2
100
AcDbBlockReference
  2
_OPEN
 10
250.2839541378727
 20
807.8018884788411
 30
0.0
 41
2.0
 42
2.0
 43
2.0
  0
MTEXT
  5
1DD23
330
1DBBB
100
AcDbEntity
  8
30
  6
Continuous
440
 16777216
100
AcDbMText
 10
176.2839548768727
 20
814.801888478841
 30
0.0
 40
8.0
 41
0.0
 46
0.0
 71
     5
 72
     1
  1
\A1;148
 73
     1
 44
1.0
 90
        3
 63
     9
421
 13158600
 45
1.25
441
        0
  0
POINT
  5
1DD24
330
1DBBB
100
AcDbEntity
  8
DEFPOINTS
  6
Continuous
 62
     0
440
 16777216
100
AcDbPoint
 10
102.2839556158727
 20
757.6093596502172
 30
0.0
  0
POINT
  5
1DD25
330
1DBBB
100
AcDbEntity
  8
DEFPOINTS
  6
Continuous
 62
     0
440
 16777216
100
AcDbPoint
 10
250.2839541378727
 20
757.6093596502172
 30
0.0
  0
POINT
  5
1DD26
330
1DBBB
100
AcDbEntity
  8
DEFPOINTS
  6
Continuous
 62
     0
440
 16777216
100
AcDbPoint
 10
250.2839541378727
 20
807.8018884788411
 30
0.0
  0
ENDBLK
  5
1DBBD
330
1DBBB
100
AcDbEntity
  8
0
100
AcDbBlockEnd
  0
BLOCK
  5
1DBC8
330
1DBC7
100
AcDbEntity
  8
0
100
AcDbBlockBegin
  2
*D20
 70
     1
 10
0.0
 20
0.0
 30
0.0
  3
*D20
  1

  0
LINE
  5
1DD27
330
1DBC7
100
AcDbEntity
  8
30
  6
Continuous
 62
     0
440
 16777216
370
    -2
100
AcDbLine
 10
116.2839548768725
 20
753.6093561932172
 30
0.0
 11
116.2839548768725
 21
790.6566391739285
 31
0.0
  0
LINE
  5
1DD28
330
1DBC7
100
AcDbEntity
  8
30
  6
Continuous
 62
     0
440
 16777216
370
    -2
100
AcDbLine
 10
236.2839548768725
 20
753.6093561932172
 30
0.0
 11
236.2839548768725
 21
790.6566391739285
 31
0.0
  0
LINE
  5
1DD29
330
1DBC7
100
AcDbEntity
  8
30
  6
Continuous
 62
     0
440
 16777216
370
    -2
100
AcDbLine
 10
118.2839548768725
 20
790.1566391739285
 30
0.0
 11
234.2839548768725
 21
790.1566391739285
 31
0.0
  0
INSERT
  5
1DD2A
330
1DBC7
100
AcDbEntity
  8
30
  6
Continuous
 62
     0
440
 16777216
370
    -2
100
AcDbBlockReference
  2
_OPEN
 10
116.2839548768725
 20
790.1566391739285
 30
0.0
 41
2.0
 42
2.0
 43
2.0
 50
180.0
  0
INSERT
  5
1DD2B
330
1DBC7
100
AcDbEntity
  8
30
  6
Continuous
 62
     0
440
 16777216
370
    -2
100
AcDbBlockReference
  2
_OPEN
 10
236.2839548768725
 20
790.1566391739285
 30
0.0
 41
2.0
 42
2.0
 43
2.0
  0
MTEXT
  5
1DD2C
330
1DBC7
100
AcDbEntity
  8
30
  6
Continuous
440
 16777216
100
AcDbMText
 10
176.2839548768725
 20
797.1566391739285
 30
0.0
 40
8.0
 41
0.0
 46
0.0
 71
     5
 72
     1
  1
\A1;120
 73
     1
 44
1.0
 90
        3
 63
     9
421
 13158600
 45
1.25
441
        0
  0
POINT
  5
1DD2D
330
1DBC7
100
AcDbEntity
  8
DEFPOINTS
  6
Continuous
 62
     0
440
 16777216
100
AcDbPoint
 10
116.2839548768725
 20
752.6093561932173
 30
0.0
  0
POINT
  5
1DD2E
330
1DBC7
100
AcDbEntity
  8
DEFPOINTS
  6
Continuous
 62
     0
440
 16777216
100
AcDbPoint
 10
236.2839548768725
 20
752.6093561932173
 30
0.0
  0
POINT
  5
1DD2F
330
1DBC7
100
AcDbEntity
  8
DEFPOINTS
  6
Continuous
 62
     0
440
 16777216
100
AcDbPoint
 10
236.2839548768725
 20
790.1566391739285
 30
0.0
  0
ENDBLK
  5
1DBC9
330
1DBC7
100
AcDbEntity
  8
0
100
AcDbBlockEnd
  0
BLOCK
  5
1DBD4
330
1DBD3
100
AcDbEntity
  8
0
100
AcDbBlockBegin
  2
*D21
 70
     1
 10
0.0
 20
0.0
 30
0.0
  3
*D21
  1

  0
LINE
  5
1DD30
330
1DBD3
100
AcDbEntity
  8
30
  6
Continuous
 62
     0
440
 16777216
370
    -2
100
AcDbLine
 10
267.5957991992072
 20
770.7745226405275
 30
0.0
 11
243.028532867125
 21
749.0684389861812
 31
0.0
  0
MTEXT
  5
1DD31
330
1DBD3
100
AcDbEntity
  8
30
  6
Continuous
440
 16777216
100
AcDbMText
 10
253.7183871884076
 20
767.8541550277726
 30
0.0
 40
8.0
 41
0.0
 46
0.0
 71
     5
 72
     1
  1
\A1;∅14
 11
0.7493975544724921
 21
0.6621203103293604
 31
0.0
 73
     1
 44
1.0
 90
        3
 63
     9
421
 13158600
 45
1.25
441
        0
  0
INSERT
  5
1DD32
330
1DBD3
100
AcDbEntity
  8
30
  6
Continuous
 62
     0
440
 16777216
370
    -2
100
AcDbBlockReference
  2
_OPEN
 10
241.52973775818
 20
747.7441983655227
 30
0.0
 41
2.0
 42
2.0
 43
2.0
 50
221.4617808815007
  0
LINE
  5
1DD33
330
1DBD3
100
AcDbEntity
  8
30
  6
Continuous
 62
     0
440
 16777216
370
    -2
100
AcDbLine
 10
236.1939548768725
 20
743.1093561932167
 30
0.0
 11
236.3739548768724
 21
743.1093561932168
 31
0.0
  0
LINE
  5
1DD34
330
1DBD3
100
AcDbEntity
  8
30
  6
Continuous
 62
     0
440
 16777216
370
    -2
100
AcDbLine
 10
236.2839548768725
 20
743.0193561932171
 30
0.0
 11
236.2839548768724
 21
743.1993561932171
 31
0.0
  0
POINT
  5
1DD35
330
1DBD3
100
AcDbEntity
  8
DEFPOINTS
  6
Continuous
 62
     0
440
 16777216
100
AcDbPoint
 10
241.52973775818
 20
747.7441983655227
 30
0.0
  0
POINT
  5
1DD36
330
1DBD3
100
AcDbEntity
  8
DEFPOINTS
  6
Continuous
 62
     0
440
 16777216
100
AcDbPoint
 10
231.0381719955649
 20
738.4745140209115
 30
0.0
  0
ENDBLK
  5
1DBD5
330
1DBD3
100
AcDbEntity
  8
0
100
AcDbBlockEnd
  0
BLOCK
  5
1DBDE
330
1DBDD
100
AcDbEntity
  8
0
100
AcDbBlockBegin
  2
*D22
 70
     1
 10
0.0
 20
0.0
 30
0.0
  3
*D22
  1

  0
LINE
  5
1DD37
330
1DBDD
100
AcDbEntity
  8
30
  6
Continuous
 62
     0
440
 16777216
370
    -2
100
AcDbLine
 10
102.2839556158727
 20
758.6093596502172
 30
0.0
 11
102.2839556158727
 21
775.0367022675932
 31
0.0
  0
LINE
  5
1DD38
330
1DBDD
100
AcDbEntity
  8
30
  6
Continuous
 62
     0
440
 16777216
370
    -2
100
AcDbLine
 10
130.2839530948728
 20
758.6093596502172
 30
0.0
 11
130.2839530948728
 21
775.0367022675932
 31
0.0
  0
LINE
  5
1DD39
330
1DBDD
100
AcDbEntity
  8
30
  6
Continuous
 62
     0
440
 16777216
370
    -2
100
AcDbLine
 10
104.2839556158727
 20
774.5367022675932
 30
0.0
 11
128.2839530948728
 21
774.5367022675932
 31
0.0
  0
INSERT
  5
1DD3A
330
1DBDD
100
AcDbEntity
  8
30
  6
Continuous
 62
     0
440
 16777216
370
    -2
100
AcDbBlockReference
  2
_OPEN
 10
102.2839556158727
 20
774.5367022675932
 30
0.0
 41
2.0
 42
2.0
 43
2.0
 50
180.0
  0
INSERT
  5
1DD3B
330
1DBDD
100
AcDbEntity
  8
30
  6
Continuous
 62
     0
440
 16777216
370
    -2
100
AcDbBlockReference
  2
_OPEN
 10
130.2839530948728
 20
774.5367022675932
 30
0.0
 41
2.0
 42
2.0
 43
2.0
  0
MTEXT
  5
1DD3C
330
1DBDD
100
AcDbEntity
  8
30
  6
Continuous
440
 16777216
100
AcDbMText
 10
123.7826628909242
 20
781.5367022675932
 30
0.0
 40
8.0
 41
0.0
 46
0.0
 71
     5
 72
     1
  1
\A1;28
 73
     1
 44
1.0
 90
        3
 63
     9
421
 13158600
 45
1.25
441
        0
  0
POINT
  5
1DD3D
330
1DBDD
100
AcDbEntity
  8
DEFPOINTS
  6
Continuous
 62
     0
440
 16777216
100
AcDbPoint
 10
102.2839556158727
 20
757.6093596502172
 30
0.0
  0
POINT
  5
1DD3E
330
1DBDD
100
AcDbEntity
  8
DEFPOINTS
  6
Continuous
 62
     0
440
 16777216
100
AcDbPoint
 10
130.2839530948728
 20
757.6093596502172
 30
0.0
  0
POINT
  5
1DD3F
330
1DBDD
100
AcDbEntity
  8
DEFPOINTS
  6
Continuous
 62
     0
440
 16777216
100
AcDbPoint
 10
130.2839530948728
 20
774.5367022675932
 30
0.0
  0
ENDBLK
  5
1DBDF
330
1DBDD
100
AcDbEntity
  8
0
100
AcDbBlockEnd
  0
BLOCK
  5
1DBEA
330
1DBE9
100
AcDbEntity
  8
0
100
AcDbBlockBegin
  2
*D23
 70
     1
 10
0.0
 20
0.0
 30
0.0
  3
*D23
  1

  0
LINE
  5
1DDFE
330
1DBE9
100
AcDbEntity
  8
30
  6
Continuous
 62
     0
440
 16777216
370
    -2
100
AcDbLine
 10
536.1000236711998
 20
148.0183697844592
 30
0.0
 11
536.1000236711998
 21
35.60774968441956
 31
0.0
  0
LINE
  5
1DDFF
330
1DBE9
100
AcDbEntity
  8
30
  6
Continuous
 62
     0
440
 16777216
370
    -2
100
AcDbLine
 10
589.1000236711997
 20
148.0183697844592
 30
0.0
 11
589.1000236711997
 21
35.60774968441956
 31
0.0
  0
LINE
  5
1DE00
330
1DBE9
100
AcDbEntity
  8
30
  6
Continuous
 62
     0
440
 16777216
370
    -2
100
AcDbLine
 10
538.1000236711997
 20
36.10774968441956
 30
0.0
 11
587.1000236711997
 21
36.10774968441956
 31
0.0
  0
INSERT
  5
1DE01
330
1DBE9
100
AcDbEntity
  8
30
  6
Continuous
 62
     0
440
 16777216
370
    -2
100
AcDbBlockReference
  2
_OPEN
 10
536.1000236711998
 20
36.10774968441956
 30
0.0
 41
2.0
 42
2.0
 43
2.0
 50
180.0
  0
INSERT
  5
1DE02
330
1DBE9
100
AcDbEntity
  8
30
  6
Continuous
 62
     0
440
 16777216
370
    -2
100
AcDbBlockReference
  2
_OPEN
 10
589.1000236711997
 20
36.10774968441956
 30
0.0
 41
2.0
 42
2.0
 43
2.0
  0
MTEXT
  5
1DE03
330
1DBE9
100
AcDbEntity
  8
30
  6
Continuous
440
 16777216
100
AcDbMText
 10
562.6000236711997
 20
43.10774968441957
 30
0.0
 40
8.0
 41
0.0
 46
0.0
 71
     5
 72
     1
  1
\A1;53
 73
     1
 44
1.0
 90
        3
 63
     9
421
 13158600
 45
1.25
441
        0
  0
POINT
  5
1DE04
330
1DBE9
100
AcDbEntity
  8
DEFPOINTS
  6
Continuous
 62
     0
440
 16777216
100
AcDbPoint
 10
536.1000236711998
 20
149.0183697844592
 30
0.0
  0
POINT
  5
1DE05
330
1DBE9
100
AcDbEntity
  8
DEFPOINTS
  6
Continuous
 62
     0
440
 16777216
100
AcDbPoint
 10
589.1000236711997
 20
149.0183697844592
 30
0.0
  0
POINT
  5
1DE06
330
1DBE9
100
AcDbEntity
  8
DEFPOINTS
  6
Continuous
 62
     0
440
 16777216
100
AcDbPoint
 10
589.1000236711997
 20
36.10774968441956
 30
0.0
  0
ENDBLK
  5
1DBEB
330
1DBE9
100
AcDbEntity
  8
0
100
AcDbBlockEnd
  0
BLOCK
  5
1DBF6
330
1DBF5
100
AcDbEntity
  8
0
100
AcDbBlockBegin
  2
*D24
 70
     1
 10
0.0
 20
0.0
 30
0.0
  3
*D24
  1

  0
LINE
  5
1DD49
330
1DBF5
100
AcDbEntity
  8
30
  6
Continuous
 62
     0
440
 16777216
370
    -2
100
AcDbLine
 10
590.1420062842978
 20
242.3991735828293
 30
0.0
 11
669.4926431629681
 21
242.3991735828293
 31
0.0
  0
LINE
  5
1DD4A
330
1DBF5
100
AcDbEntity
  8
30
  6
Continuous
 62
     0
440
 16777216
370
    -2
100
AcDbLine
 10
590.1420062842978
 20
150.3991735828291
 30
0.0
 11
669.4926431629681
 21
150.3991735828291
 31
0.0
  0
LINE
  5
1DD4B
330
1DBF5
100
AcDbEntity
  8
30
  6
Continuous
 62
     0
440
 16777216
370
    -2
100
AcDbLine
 10
668.9926431629682
 20
240.3991735828293
 30
0.0
 11
668.9926431629682
 21
152.3991735828291
 31
0.0
  0
INSERT
  5
1DD4C
330
1DBF5
100
AcDbEntity
  8
30
  6
Continuous
 62
     0
440
 16777216
370
    -2
100
AcDbBlockReference
  2
_OPEN
 10
668.9926431629682
 20
242.3991735828293
 30
0.0
 41
2.0
 42
2.0
 43
2.0
 50
90.0
  0
INSERT
  5
1DD4D
330
1DBF5
100
AcDbEntity
  8
30
  6
Continuous
 62
     0
440
 16777216
370
    -2
100
AcDbBlockReference
  2
_OPEN
 10
668.9926431629682
 20
150.3991735828291
 30
0.0
 41
2.0
 42
2.0
 43
2.0
 50
270.0
  0
MTEXT
  5
1DD4E
330
1DBF5
100
AcDbEntity
  8
30
  6
Continuous
440
 16777216
100
AcDbMText
 10
661.9926431629681
 20
196.3991735828293
 30
0.0
 40
8.0
 41
0.0
 46
0.0
 71
     5
 72
     1
  1
\A1;92
 11
0.0000000000000001
 21
1.0
 31
0.0
 73
     1
 44
1.0
 90
        3
 63
     9
421
 13158600
 45
1.25
441
        0
  0
POINT
  5
1DD4F
330
1DBF5
100
AcDbEntity
  8
DEFPOINTS
  6
Continuous
 62
     0
440
 16777216
100
AcDbPoint
 10
589.1420062842978
 20
242.3991735828293
 30
0.0
  0
POINT
  5
1DD50
330
1DBF5
100
AcDbEntity
  8
DEFPOINTS
  6
Continuous
 62
     0
440
 16777216
100
AcDbPoint
 10
589.1420062842978
 20
150.3991735828291
 30
0.0
  0
POINT
  5
1DD51
330
1DBF5
100
AcDbEntity
  8
DEFPOINTS
  6
Continuous
 62
     0
440
 16777216
100
AcDbPoint
 10
668.9926431629682
 20
150.3991735828291
 30
0.0
  0
ENDBLK
  5
1DBF7
330
1DBF5
100
AcDbEntity
  8
0
100
AcDbBlockEnd
  0
BLOCK
  5
1DC02
330
1DC01
100
AcDbEntity
  8
0
100
AcDbBlockBegin
  2
*D25
 70
     1
 10
0.0
 20
0.0
 30
0.0
  3
*D25
  1

  0
LINE
  5
1DD52
330
1DC01
100
AcDbEntity
  8
30
  6
Continuous
 62
     0
440
 16777216
370
    -2
100
AcDbLine
 10
589.6118133228876
 20
243.3477163944345
 30
0.0
 11
607.5734230412729
 21
266.5573458966602
 31
0.0
  0
LINE
  5
1DD53
330
1DC01
100
AcDbEntity
  8
30
  6
Continuous
 62
     0
440
 16777216
370
    -2
100
AcDbLine
 10
607.5734230412729
 20
266.5573458966602
 30
0.0
 11
617.2400897079397
 21
266.5573458966602
 31
0.0
  0
LINE
  5
1DD54
330
1DC01
100
AcDbEntity
  8
30
  6
Continuous
 62
     0
440
 16777216
370
    -2
100
AcDbLine
 10
587.1637286854775
 20
240.1843508433938
 30
0.0
 11
588.3877710042376
 21
241.766033618985
 31
0.0
  0
INSERT
  5
1DD55
330
1DC01
100
AcDbEntity
  8
30
  6
Continuous
 62
     0
440
 16777216
370
    -2
100
AcDbBlockReference
  2
_OPEN
 10
588.3877710042376
 20
241.766033618985
 30
0.0
 41
2.0
 42
2.0
 43
2.0
 50
232.2642101408544
  0
MTEXT
  5
1DD56
330
1DC01
100
AcDbEntity
  8
30
  6
Continuous
 62
     0
440
 16777216
100
AcDbMText
 10
610.5734230412727
 20
273.5573458966604
 30
0.0
 40
4.0
 41
0.0
 46
0.0
 71
     1
 72
     1
  1
\A1;R2
 73
     1
 44
1.0
  0
POINT
  5
1DD57
330
1DC01
100
AcDbEntity
  8
DEFPOINTS
  6
Continuous
 62
     0
440
 16777216
100
AcDbPoint
 10
588.3877710042376
 20
241.766033618985
 30
0.0
  0
POINT
  5
1DD58
330
1DC01
100
AcDbEntity
  8
DEFPOINTS
  6
Continuous
 62
     0
440
 16777216
100
AcDbPoint
 10
587.1637286854775
 20
240.1843508433938
 30
0.0
  0
ENDBLK
  5
1DC03
330
1DC01
100
AcDbEntity
  8
0
100
AcDbBlockEnd
  0
BLOCK
  5
1DC0C
330
1DC0B
100
AcDbEntity
  8
0
100
AcDbBlockBegin
  2
*D26
 70
     1
 10
0.0
 20
0.0
 30
0.0
  3
*D26
  1

  0
LINE
  5
1DE19
330
1DC0B
100
AcDbEntity
  8
30
  6
Continuous
 62
     0
440
 16777216
370
    -2
100
AcDbLine
 10
471.8414797030712
 20
582.516665476217
 30
0.0
 11
471.8414797030712
 21
355.0338581779357
 31
0.0
  0
LINE
  5
1DE1A
330
1DC0B
100
AcDbEntity
  8
30
  6
Continuous
 62
     0
440
 16777216
370
    -2
100
AcDbLine
 10
601.8414797030714
 20
463.2376198117168
 30
0.0
 11
601.8414797030714
 21
355.0338581779357
 31
0.0
  0
LINE
  5
1DE1B
330
1DC0B
100
AcDbEntity
  8
30
  6
Continuous
 62
     0
440
 16777216
370
    -2
100
AcDbLine
 10
473.8414797030713
 20
355.5338581779357
 30
0.0
 11
599.8414797030712
 21
355.5338581779357
 31
0.0
  0
INSERT
  5
1DE1C
330
1DC0B
100
AcDbEntity
  8
30
  6
Continuous
 62
     0
440
 16777216
370
    -2
100
AcDbBlockReference
  2
_OPEN
 10
471.8414797030712
 20
355.5338581779357
 30
0.0
 41
2.0
 42
2.0
 43
2.0
 50
180.0
  0
INSERT
  5
1DE1D
330
1DC0B
100
AcDbEntity
  8
30
  6
Continuous
 62
     0
440
 16777216
370
    -2
100
AcDbBlockReference
  2
_OPEN
 10
601.8414797030714
 20
355.5338581779357
 30
0.0
 41
2.0
 42
2.0
 43
2.0
  0
MTEXT
  5
1DE1E
330
1DC0B
100
AcDbEntity
  8
30
  6
Continuous
440
 16777216
100
AcDbMText
 10
536.8414797030713
 20
366.5338581779356
 30
0.0
 40
8.0
 41
0.0
 46
0.0
 71
     2
 72
     1
  1
\A1;130
 73
     1
 44
1.0
 90
        3
 63
     9
421
 13158600
 45
1.25
441
        0
  0
POINT
  5
1DE1F
330
1DC0B
100
AcDbEntity
  8
DEFPOINTS
  6
Continuous
 62
     0
440
 16777216
100
AcDbPoint
 10
471.8414797030712
 20
583.5166654762169
 30
0.0
  0
POINT
  5
1DE20
330
1DC0B
100
AcDbEntity
  8
DEFPOINTS
  6
Continuous
 62
     0
440
 16777216
100
AcDbPoint
 10
601.8414797030714
 20
464.2376198117168
 30
0.0
  0
POINT
  5
1DE21
330
1DC0B
100
AcDbEntity
  8
DEFPOINTS
  6
Continuous
 62
     0
440
 16777216
100
AcDbPoint
 10
601.8414797030714
 20
355.5338581779357
 30
0.0
  0
ENDBLK
  5
1DC0D
330
1DC0B
100
AcDbEntity
  8
0
100
AcDbBlockEnd
  0
BLOCK
  5
1DC18
330
1DC17
100
AcDbEntity
  8
0
100
AcDbBlockBegin
  2
*D27
 70
     1
 10
0.0
 20
0.0
 30
0.0
  3
*D27
  1

  0
LINE
  5
1DD62
330
1DC17
100
AcDbEntity
  8
30
  6
Continuous
 62
     0
440
 16777216
370
    -2
100
AcDbLine
 10
601.8414768420711
 20
452.1093561932173
 30
0.0
 11
601.8414768420711
 21
401.6457086702166
 31
0.0
  0
LINE
  5
1DD63
330
1DC17
100
AcDbEntity
  8
30
  6
Continuous
 62
     0
440
 16777216
370
    -2
100
AcDbLine
 10
616.5414797030712
 20
471.9107108987167
 30
0.0
 11
616.5414797030712
 21
401.6457086702166
 31
0.0
  0
LINE
  5
1DD64
330
1DC17
100
AcDbEntity
  8
30
  6
Continuous
 62
     0
440
 16777216
370
    -2
100
AcDbLine
 10
603.8414768420712
 20
402.1457086702167
 30
0.0
 11
614.5414797030712
 21
402.1457086702167
 31
0.0
  0
LINE
  5
1DD65
330
1DC17
100
AcDbEntity
  8
30
  6
Continuous
 62
     0
440
 16777216
370
    -2
100
AcDbLine
 10
616.5414797030712
 20
402.1457086702167
 30
0.0
 11
645.8748130364043
 21
402.1457086702167
 31
0.0
  0
INSERT
  5
1DD66
330
1DC17
100
AcDbEntity
  8
30
  6
Continuous
 62
     0
440
 16777216
370
    -2
100
AcDbBlockReference
  2
_OPEN
 10
601.8414768420711
 20
402.1457086702167
 30
0.0
 41
2.0
 42
2.0
 43
2.0
 50
180.0
  0
INSERT
  5
1DD67
330
1DC17
100
AcDbEntity
  8
30
  6
Continuous
 62
     0
440
 16777216
370
    -2
100
AcDbBlockReference
  2
_OPEN
 10
616.5414797030712
 20
402.1457086702167
 30
0.0
 41
2.0
 42
2.0
 43
2.0
  0
MTEXT
  5
1DD68
330
1DC17
100
AcDbEntity
  8
30
  6
Continuous
440
 16777216
100
AcDbMText
 10
632.2081463697379
 20
413.1457086702166
 30
0.0
 40
8.0
 41
0.0
 46
0.0
 71
     2
 72
     1
  1
\A1;14.7
 73
     1
 44
1.0
 90
        3
 63
     9
421
 13158600
 45
1.25
441
        0
  0
POINT
  5
1DD69
330
1DC17
100
AcDbEntity
  8
DEFPOINTS
  6
Continuous
 62
     0
440
 16777216
100
AcDbPoint
 10
601.8414768420711
 20
453.1093561932173
 30
0.0
  0
POINT
  5
1DD6A
330
1DC17
100
AcDbEntity
  8
DEFPOINTS
  6
Continuous
 62
     0
440
 16777216
100
AcDbPoint
 10
616.5414797030712
 20
472.9107108987169
 30
0.0
  0
POINT
  5
1DD6B
330
1DC17
100
AcDbEntity
  8
DEFPOINTS
  6
Continuous
 62
     0
440
 16777216
100
AcDbPoint
 10
616.5414797030712
 20
402.1457086702167
 30
0.0
  0
ENDBLK
  5
1DC19
330
1DC17
100
AcDbEntity
  8
0
100
AcDbBlockEnd
  0
BLOCK
  5
1DC25
330
1DC24
100
AcDbEntity
  8
0
100
AcDbBlockBegin
  2
*D28
 70
     1
 10
0.0
 20
0.0
 30
0.0
  3
*D28
  1

  0
LINE
  5
1DE34
330
1DC24
100
AcDbEntity
  8
30
  6
Continuous
 62
     0
440
 16777216
370
    -2
100
AcDbLine
 10
494.8414789285711
 20
538.1408276842168
 30
0.0
 11
494.8414789285711
 21
371.5091475350441
 31
0.0
  0
LINE
  5
1DE35
330
1DC24
100
AcDbEntity
  8
30
  6
Continuous
 62
     0
440
 16777216
370
    -2
100
AcDbLine
 10
601.8414768420711
 20
452.1093561932173
 30
0.0
 11
601.8414768420711
 21
371.5091475350441
 31
0.0
  0
LINE
  5
1DE36
330
1DC24
100
AcDbEntity
  8
30
  6
Continuous
 62
     0
440
 16777216
370
    -2
100
AcDbLine
 10
496.8414789285709
 20
372.0091475350441
 30
0.0
 11
599.8414768420712
 21
372.0091475350441
 31
0.0
  0
INSERT
  5
1DE37
330
1DC24
100
AcDbEntity
  8
30
  6
Continuous
 62
     0
440
 16777216
370
    -2
100
AcDbBlockReference
  2
_OPEN
 10
494.8414789285711
 20
372.0091475350441
 30
0.0
 41
2.0
 42
2.0
 43
2.0
 50
180.0
  0
INSERT
  5
1DE38
330
1DC24
100
AcDbEntity
  8
30
  6
Continuous
 62
     0
440
 16777216
370
    -2
100
AcDbBlockReference
  2
_OPEN
 10
601.8414768420711
 20
372.0091475350441
 30
0.0
 41
2.0
 42
2.0
 43
2.0
  0
MTEXT
  5
1DE39
330
1DC24
100
AcDbEntity
  8
30
  6
Continuous
440
 16777216
100
AcDbMText
 10
546.3414797030709
 20
383.0091475350441
 30
0.0
 40
8.0
 41
0.0
 46
0.0
 71
     2
 72
     1
  1
\A1;107
 73
     1
 44
1.0
 90
        3
 63
     9
421
 13158600
 45
1.25
441
        0
  0
POINT
  5
1DE3A
330
1DC24
100
AcDbEntity
  8
DEFPOINTS
  6
Continuous
 62
     0
440
 16777216
100
AcDbPoint
 10
494.8414789285711
 20
539.1408276842168
 30
0.0
  0
POINT
  5
1DE3B
330
1DC24
100
AcDbEntity
  8
DEFPOINTS
  6
Continuous
 62
     0
440
 16777216
100
AcDbPoint
 10
601.8414768420711
 20
453.1093561932173
 30
0.0
  0
POINT
  5
1DE3C
330
1DC24
100
AcDbEntity
  8
DEFPOINTS
  6
Continuous
 62
     0
440
 16777216
100
AcDbPoint
 10
601.8414768420711
 20
372.0091475350441
 30
0.0
  0
ENDBLK
  5
1DC26
330
1DC24
100
AcDbEntity
  8
0
100
AcDbBlockEnd
  0
BLOCK
  5
1DC31
330
1DC30
100
AcDbEntity
  8
0
100
AcDbBlockBegin
  2
*D29
 70
     1
 10
0.0
 20
0.0
 30
0.0
  3
*D29
  1

  0
LINE
  5
1DE47
330
1DC30
100
AcDbEntity
  8
30
  6
Continuous
 62
     0
440
 16777216
370
    -2
100
AcDbLine
 10
504.8414797030712
 20
453.6951426307167
 30
0.0
 11
504.8414797030712
 21
385.5875703181618
 31
0.0
  0
LINE
  5
1DE48
330
1DC30
100
AcDbEntity
  8
30
  6
Continuous
 62
     0
440
 16777216
370
    -2
100
AcDbLine
 10
601.8414768420711
 20
452.1093561932173
 30
0.0
 11
601.8414768420711
 21
385.5875703181618
 31
0.0
  0
LINE
  5
1DE49
330
1DC30
100
AcDbEntity
  8
30
  6
Continuous
 62
     0
440
 16777216
370
    -2
100
AcDbLine
 10
506.8414797030713
 20
386.0875703181619
 30
0.0
 11
599.8414768420712
 21
386.0875703181619
 31
0.0
  0
INSERT
  5
1DE4A
330
1DC30
100
AcDbEntity
  8
30
  6
Continuous
 62
     0
440
 16777216
370
    -2
100
AcDbBlockReference
  2
_OPEN
 10
504.8414797030712
 20
386.0875703181619
 30
0.0
 41
2.0
 42
2.0
 43
2.0
 50
180.0
  0
INSERT
  5
1DE4B
330
1DC30
100
AcDbEntity
  8
30
  6
Continuous
 62
     0
440
 16777216
370
    -2
100
AcDbBlockReference
  2
_OPEN
 10
601.8414768420711
 20
386.0875703181619
 30
0.0
 41
2.0
 42
2.0
 43
2.0
  0
MTEXT
  5
1DE4C
330
1DC30
100
AcDbEntity
  8
30
  6
Continuous
440
 16777216
100
AcDbMText
 10
549.3414797030713
 20
397.0875703181619
 30
0.0
 40
8.0
 41
0.0
 46
0.0
 71
     2
 72
     1
  1
\A1;97
 73
     1
 44
1.0
 90
        3
 63
     9
421
 13158600
 45
1.25
441
        0
  0
POINT
  5
1DE4D
330
1DC30
100
AcDbEntity
  8
DEFPOINTS
  6
Continuous
 62
     0
440
 16777216
100
AcDbPoint
 10
504.8414797030712
 20
454.6951426307169
 30
0.0
  0
POINT
  5
1DE4E
330
1DC30
100
AcDbEntity
  8
DEFPOINTS
  6
Continuous
 62
     0
440
 16777216
100
AcDbPoint
 10
601.8414768420711
 20
453.1093561932173
 30
0.0
  0
POINT
  5
1DE4F
330
1DC30
100
AcDbEntity
  8
DEFPOINTS
  6
Continuous
 62
     0
440
 16777216
100
AcDbPoint
 10
601.8414768420711
 20
386.0875703181619
 30
0.0
  0
ENDBLK
  5
1DC32
330
1DC30
100
AcDbEntity
  8
0
100
AcDbBlockEnd
  0
BLOCK
  5
1DC3D
330
1DC3C
100
AcDbEntity
  8
0
100
AcDbBlockBegin
  2
*D30
 70
     1
 10
0.0
 20
0.0
 30
0.0
  3
*D30
  1

  0
LINE
  5
1DD7E
330
1DC3C
100
AcDbEntity
  8
30
  6
Continuous
 62
     0
440
 16777216
370
    -2
100
AcDbLine
 10
483.7700523499842
 20
628.1093561932172
 30
0.0
 11
430.3910434229183
 21
628.1093561932172
 31
0.0
  0
LINE
  5
1DD7F
330
1DC3C
100
AcDbEntity
  8
30
  6
Continuous
 62
     0
440
 16777216
370
    -2
100
AcDbLine
 10
481.8989514073
 20
538.1093561932171
 30
0.0
 11
430.3910434229183
 21
538.1093561932171
 31
0.0
  0
LINE
  5
1DD80
330
1DC3C
100
AcDbEntity
  8
30
  6
Continuous
 62
     0
440
 16777216
370
    -2
100
AcDbLine
 10
430.8910434229183
 20
626.1093561932171
 30
0.0
 11
430.8910434229183
 21
540.1093561932172
 31
0.0
  0
INSERT
  5
1DD81
330
1DC3C
100
AcDbEntity
  8
30
  6
Continuous
 62
     0
440
 16777216
370
    -2
100
AcDbBlockReference
  2
_OPEN
 10
430.8910434229183
 20
628.1093561932172
 30
0.0
 41
2.0
 42
2.0
 43
2.0
 50
90.0
  0
INSERT
  5
1DD82
330
1DC3C
100
AcDbEntity
  8
30
  6
Continuous
 62
     0
440
 16777216
370
    -2
100
AcDbBlockReference
  2
_OPEN
 10
430.8910434229183
 20
538.1093561932171
 30
0.0
 41
2.0
 42
2.0
 43
2.0
 50
270.0
  0
MTEXT
  5
1DD83
330
1DC3C
100
AcDbEntity
  8
30
  6
Continuous
440
 16777216
100
AcDbMText
 10
423.8910434229183
 20
583.1093561932171
 30
0.0
 40
8.0
 41
0.0
 46
0.0
 71
     5
 72
     1
  1
\A1;90
 11
0.0000000000000001
 21
1.0
 31
0.0
 73
     1
 44
1.0
 90
        3
 63
     9
421
 13158600
 45
1.25
441
        0
  0
POINT
  5
1DD84
330
1DC3C
100
AcDbEntity
  8
DEFPOINTS
  6
Continuous
 62
     0
440
 16777216
100
AcDbPoint
 10
484.7700523499843
 20
628.1093561932172
 30
0.0
  0
POINT
  5
1DD85
330
1DC3C
100
AcDbEntity
  8
DEFPOINTS
  6
Continuous
 62
     0
440
 16777216
100
AcDbPoint
 10
482.8989514073
 20
538.1093561932171
 30
0.0
  0
POINT
  5
1DD86
330
1DC3C
100
AcDbEntity
  8
DEFPOINTS
  6
Continuous
 62
     0
440
 16777216
100
AcDbPoint
 10
430.8910434229183
 20
538.1093561932171
 30
0.0
  0
ENDBLK
  5
1DC3E
330
1DC3C
100
AcDbEntity
  8
0
100
AcDbBlockEnd
  0
BLOCK
  5
1DC49
330
1DC48
100
AcDbEntity
  8
0
100
AcDbBlockBegin
  2
*D31
 70
     1
 10
0.0
 20
0.0
 30
0.0
  3
*D31
  1

  0
LINE
  5
1DD87
330
1DC48
100
AcDbEntity
  8
30
  6
Continuous
 62
     0
440
 16777216
370
    -2
100
AcDbLine
 10
601.8414768420711
 20
714.1093561932173
 30
0.0
 11
601.8414768420711
 21
776.2157766283412
 31
0.0
  0
LINE
  5
1DD88
330
1DC48
100
AcDbEntity
  8
30
  6
Continuous
 62
     0
440
 16777216
370
    -2
100
AcDbLine
 10
565.8414768420711
 20
758.6093561932173
 30
0.0
 11
565.8414768420711
 21
776.2157766283412
 31
0.0
  0
LINE
  5
1DD89
330
1DC48
100
AcDbEntity
  8
30
  6
Continuous
 62
     0
440
 16777216
370
    -2
100
AcDbLine
 10
599.8414768420712
 20
775.7157766283413
 30
0.0
 11
567.8414768420712
 21
775.7157766283413
 31
0.0
  0
INSERT
  5
1DD8A
330
1DC48
100
AcDbEntity
  8
30
  6
Continuous
 62
     0
440
 16777216
370
    -2
100
AcDbBlockReference
  2
_OPEN
 10
601.8414768420711
 20
775.7157766283413
 30
0.0
 41
2.0
 42
2.0
 43
2.0
  0
INSERT
  5
1DD8B
330
1DC48
100
AcDbEntity
  8
30
  6
Continuous
 62
     0
440
 16777216
370
    -2
100
AcDbBlockReference
  2
_OPEN
 10
565.8414768420711
 20
775.7157766283413
 30
0.0
 41
2.0
 42
2.0
 43
2.0
 50
180.0
  0
MTEXT
  5
1DD8C
330
1DC48
100
AcDbEntity
  8
30
  6
Continuous
440
 16777216
100
AcDbMText
 10
583.8414768420712
 20
782.7157766283415
 30
0.0
 40
8.0
 41
0.0
 46
0.0
 71
     5
 72
     1
  1
\A1;36
 73
     1
 44
1.0
 90
        3
 63
     9
421
 13158600
 45
1.25
441
        0
  0
POINT
  5
1DD8D
330
1DC48
100
AcDbEntity
  8
DEFPOINTS
  6
Continuous
 62
     0
440
 16777216
100
AcDbPoint
 10
601.8414768420711
 20
713.1093561932173
 30
0.0
  0
POINT
  5
1DD8E
330
1DC48
100
AcDbEntity
  8
DEFPOINTS
  6
Continuous
 62
     0
440
 16777216
100
AcDbPoint
 10
565.8414768420711
 20
757.6093561932172
 30
0.0
  0
POINT
  5
1DD8F
330
1DC48
100
AcDbEntity
  8
DEFPOINTS
  6
Continuous
 62
     0
440
 16777216
100
AcDbPoint
 10
565.8414768420711
 20
775.7157766283413
 30
0.0
  0
ENDBLK
  5
1DC4A
330
1DC48
100
AcDbEntity
  8
0
100
AcDbBlockEnd
  0
BLOCK
  5
1DC55
330
1DC54
100
AcDbEntity
  8
0
100
AcDbBlockBegin
  2
*D32
 70
     1
 10
0.0
 20
0.0
 30
0.0
  3
*D32
  1

  0
LINE
  5
1DD90
330
1DC54
100
AcDbEntity
  8
30
  6
Continuous
 62
     0
440
 16777216
370
    -2
100
AcDbLine
 10
565.8414768420711
 20
758.6093561932173
 30
0.0
 11
565.8414768420711
 21
776.2157766283412
 31
0.0
  0
LINE
  5
1DD91
330
1DC54
100
AcDbEntity
  8
30
  6
Continuous
 62
     0
440
 16777216
370
    -2
100
AcDbLine
 10
553.8414768420712
 20
758.6093561932173
 30
0.0
 11
553.8414768420712
 21
776.2157766283412
 31
0.0
  0
LINE
  5
1DD92
330
1DC54
100
AcDbEntity
  8
30
  6
Continuous
 62
     0
440
 16777216
370
    -2
100
AcDbLine
 10
563.8414768420711
 20
775.7157766283413
 30
0.0
 11
555.8414768420711
 21
775.7157766283413
 31
0.0
  0
LINE
  5
1DD93
330
1DC54
100
AcDbEntity
  8
30
  6
Continuous
 62
     0
440
 16777216
370
    -2
100
AcDbLine
 10
553.8414768420712
 20
775.7157766283413
 30
0.0
 11
535.1748101754045
 21
775.7157766283413
 31
0.0
  0
INSERT
  5
1DD94
330
1DC54
100
AcDbEntity
  8
30
  6
Continuous
 62
     0
440
 16777216
370
    -2
100
AcDbBlockReference
  2
_OPEN
 10
565.8414768420711
 20
775.7157766283413
 30
0.0
 41
2.0
 42
2.0
 43
2.0
  0
INSERT
  5
1DD95
330
1DC54
100
AcDbEntity
  8
30
  6
Continuous
 62
     0
440
 16777216
370
    -2
100
AcDbBlockReference
  2
_OPEN
 10
553.8414768420712
 20
775.7157766283413
 30
0.0
 41
2.0
 42
2.0
 43
2.0
 50
180.0
  0
MTEXT
  5
1DD96
330
1DC54
100
AcDbEntity
  8
30
  6
Continuous
440
 16777216
100
AcDbMText
 10
543.5081435087377
 20
782.7157766283415
 30
0.0
 40
8.0
 41
0.0
 46
0.0
 71
     5
 72
     1
  1
\A1;12
 73
     1
 44
1.0
 90
        3
 63
     9
421
 13158600
 45
1.25
441
        0
  0
POINT
  5
1DD97
330
1DC54
100
AcDbEntity
  8
DEFPOINTS
  6
Continuous
 62
     0
440
 16777216
100
AcDbPoint
 10
565.8414768420711
 20
757.6093561932172
 30
0.0
  0
POINT
  5
1DD98
330
1DC54
100
AcDbEntity
  8
DEFPOINTS
  6
Continuous
 62
     0
440
 16777216
100
AcDbPoint
 10
553.8414768420712
 20
757.6093561932172
 30
0.0
  0
POINT
  5
1DD99
330
1DC54
100
AcDbEntity
  8
DEFPOINTS
  6
Continuous
 62
     0
440
 16777216
100
AcDbPoint
 10
553.8414768420712
 20
775.7157766283413
 30
0.0
  0
ENDBLK
  5
1DC56
330
1DC54
100
AcDbEntity
  8
0
100
AcDbBlockEnd
  0
BLOCK
  5
1DC62
330
1DC61
100
AcDbEntity
  8
0
100
AcDbBlockBegin
  2
*D33
 70
     1
 10
0.0
 20
0.0
 30
0.0
  3
*D33
  1

  0
LINE
  5
1DD9A
330
1DC61
100
AcDbEntity
  8
30
  6
Continuous
 62
     0
440
 16777216
370
    -2
100
AcDbLine
 10
601.8414797030714
 20
452.1093561932173
 30
0.0
 11
601.8414797030714
 21
401.4790416702167
 31
0.0
  0
LINE
  5
1DD9B
330
1DC61
100
AcDbEntity
  8
30
  6
Continuous
 62
     0
440
 16777216
370
    -2
100
AcDbLine
 10
566.8414768420712
 20
407.6093561932171
 30
0.0
 11
566.8414768420712
 21
401.4790416702167
 31
0.0
  0
LINE
  5
1DD9C
330
1DC61
100
AcDbEntity
  8
30
  6
Continuous
 62
     0
440
 16777216
370
    -2
100
AcDbLine
 10
599.8414797030712
 20
401.9790416702167
 30
0.0
 11
568.8414768420711
 21
401.9790416702167
 31
0.0
  0
INSERT
  5
1DD9D
330
1DC61
100
AcDbEntity
  8
30
  6
Continuous
 62
     0
440
 16777216
370
    -2
100
AcDbBlockReference
  2
_OPEN
 10
601.8414797030714
 20
401.9790416702167
 30
0.0
 41
2.0
 42
2.0
 43
2.0
  0
INSERT
  5
1DD9E
330
1DC61
100
AcDbEntity
  8
30
  6
Continuous
 62
     0
440
 16777216
370
    -2
100
AcDbBlockReference
  2
_OPEN
 10
566.8414768420712
 20
401.9790416702167
 30
0.0
 41
2.0
 42
2.0
 43
2.0
 50
180.0
  0
MTEXT
  5
1DD9F
330
1DC61
100
AcDbEntity
  8
30
  6
Continuous
440
 16777216
100
AcDbMText
 10
584.3414782725712
 20
408.9790416702165
 30
0.0
 40
8.0
 41
0.0
 46
0.0
 71
     5
 72
     1
  1
\A1;35
 73
     1
 44
1.0
 90
        3
 63
     9
421
 13158600
 45
1.25
441
        0
  0
POINT
  5
1DDA0
330
1DC61
100
AcDbEntity
  8
DEFPOINTS
  6
Continuous
 62
     0
440
 16777216
100
AcDbPoint
 10
601.8414797030714
 20
453.1093561932173
 30
0.0
  0
POINT
  5
1DDA1
330
1DC61
100
AcDbEntity
  8
DEFPOINTS
  6
Continuous
 62
     0
440
 16777216
100
AcDbPoint
 10
566.8414768420712
 20
408.609356193217
 30
0.0
  0
POINT
  5
1DDA2
330
1DC61
100
AcDbEntity
  8
DEFPOINTS
  6
Continuous
 62
     0
440
 16777216
100
AcDbPoint
 10
566.8414768420712
 20
401.9790416702167
 30
0.0
  0
ENDBLK
  5
1DC63
330
1DC61
100
AcDbEntity
  8
0
100
AcDbBlockEnd
  0
BLOCK
  5
1DC6E
330
1DC6D
100
AcDbEntity
  8
0
100
AcDbBlockBegin
  2
*D34
 70
     1
 10
0.0
 20
0.0
 30
0.0
  3
*D34
  1

  0
LINE
  5
1DDA3
330
1DC6D
100
AcDbEntity
  8
30
  6
Continuous
 62
     0
440
 16777216
370
    -2
100
AcDbLine
 10
566.8414768420712
 20
407.6093561932171
 30
0.0
 11
566.8414768420712
 21
401.4790416702167
 31
0.0
  0
LINE
  5
1DDA4
330
1DC6D
100
AcDbEntity
  8
30
  6
Continuous
 62
     0
440
 16777216
370
    -2
100
AcDbLine
 10
554.8414768420712
 20
407.6093561932171
 30
0.0
 11
554.8414768420712
 21
401.4790416702167
 31
0.0
  0
LINE
  5
1DDA5
330
1DC6D
100
AcDbEntity
  8
30
  6
Continuous
 62
     0
440
 16777216
370
    -2
100
AcDbLine
 10
564.8414768420711
 20
401.9790416702167
 30
0.0
 11
556.8414768420711
 21
401.9790416702167
 31
0.0
  0
LINE
  5
1DDA6
330
1DC6D
100
AcDbEntity
  8
30
  6
Continuous
 62
     0
440
 16777216
370
    -2
100
AcDbLine
 10
554.8414768420712
 20
401.9790416702167
 30
0.0
 11
536.1748101754045
 21
401.9790416702167
 31
0.0
  0
INSERT
  5
1DDA7
330
1DC6D
100
AcDbEntity
  8
30
  6
Continuous
 62
     0
440
 16777216
370
    -2
100
AcDbBlockReference
  2
_OPEN
 10
566.8414768420712
 20
401.9790416702167
 30
0.0
 41
2.0
 42
2.0
 43
2.0
  0
INSERT
  5
1DDA8
330
1DC6D
100
AcDbEntity
  8
30
  6
Continuous
 62
     0
440
 16777216
370
    -2
100
AcDbBlockReference
  2
_OPEN
 10
554.8414768420712
 20
401.9790416702167
 30
0.0
 41
2.0
 42
2.0
 43
2.0
 50
180.0
  0
MTEXT
  5
1DDA9
330
1DC6D
100
AcDbEntity
  8
30
  6
Continuous
440
 16777216
100
AcDbMText
 10
544.5081435087378
 20
408.9790416702165
 30
0.0
 40
8.0
 41
0.0
 46
0.0
 71
     5
 72
     1
  1
\A1;12
 73
     1
 44
1.0
 90
        3
 63
     9
421
 13158600
 45
1.25
441
        0
  0
POINT
  5
1DDAA
330
1DC6D
100
AcDbEntity
  8
DEFPOINTS
  6
Continuous
 62
     0
440
 16777216
100
AcDbPoint
 10
566.8414768420712
 20
408.609356193217
 30
0.0
  0
POINT
  5
1DDAB
330
1DC6D
100
AcDbEntity
  8
DEFPOINTS
  6
Continuous
 62
     0
440
 16777216
100
AcDbPoint
 10
554.8414768420712
 20
408.609356193217
 30
0.0
  0
POINT
  5
1DDAC
330
1DC6D
100
AcDbEntity
  8
DEFPOINTS
  6
Continuous
 62
     0
440
 16777216
100
AcDbPoint
 10
554.8414768420712
 20
401.9790416702167
 30
0.0
  0
ENDBLK
  5
1DC6F
330
1DC6D
100
AcDbEntity
  8
0
100
AcDbBlockEnd
  0
BLOCK
  5
1DC7B
330
1DC7A
100
AcDbEntity
  8
0
100
AcDbBlockBegin
  2
*D35
 70
     1
 10
0.0
 20
0.0
 30
0.0
  3
*D35
  1

  0
LINE
  5
1DE07
330
1DC7A
100
AcDbEntity
  8
30
  6
Continuous
 62
     0
440
 16777216
370
    -2
100
AcDbLine
 10
450.8414797030712
 20
582.5055815537129
 30
0.0
 11
450.8414797030712
 21
338.3953820997945
 31
0.0
  0
LINE
  5
1DE08
330
1DC7A
100
AcDbEntity
  8
30
  6
Continuous
 62
     0
440
 16777216
370
    -2
100
AcDbLine
 10
601.8414768420711
 20
452.1093561932173
 30
0.0
 11
601.8414768420711
 21
338.3953820997945
 31
0.0
  0
LINE
  5
1DE09
330
1DC7A
100
AcDbEntity
  8
30
  6
Continuous
 62
     0
440
 16777216
370
    -2
100
AcDbLine
 10
452.8414797030713
 20
338.8953820997945
 30
0.0
 11
599.8414768420712
 21
338.8953820997945
 31
0.0
  0
INSERT
  5
1DE0A
330
1DC7A
100
AcDbEntity
  8
30
  6
Continuous
 62
     0
440
 16777216
370
    -2
100
AcDbBlockReference
  2
_OPEN
 10
450.8414797030712
 20
338.8953820997945
 30
0.0
 41
2.0
 42
2.0
 43
2.0
 50
180.0
  0
INSERT
  5
1DE0B
330
1DC7A
100
AcDbEntity
  8
30
  6
Continuous
 62
     0
440
 16777216
370
    -2
100
AcDbBlockReference
  2
_OPEN
 10
601.8414768420711
 20
338.8953820997945
 30
0.0
 41
2.0
 42
2.0
 43
2.0
  0
MTEXT
  5
1DE0C
330
1DC7A
100
AcDbEntity
  8
30
  6
Continuous
440
 16777216
100
AcDbMText
 10
526.3414797030714
 20
349.8953820997944
 30
0.0
 40
8.0
 41
0.0
 46
0.0
 71
     2
 72
     1
  1
\A1;151
 73
     1
 44
1.0
 90
        3
 63
     9
421
 13158600
 45
1.25
441
        0
  0
POINT
  5
1DE0D
330
1DC7A
100
AcDbEntity
  8
DEFPOINTS
  6
Continuous
 62
     0
440
 16777216
100
AcDbPoint
 10
450.8414797030712
 20
583.5055815537129
 30
0.0
  0
POINT
  5
1DE0E
330
1DC7A
100
AcDbEntity
  8
DEFPOINTS
  6
Continuous
 62
     0
440
 16777216
100
AcDbPoint
 10
601.8414768420711
 20
453.1093561932173
 30
0.0
  0
POINT
  5
1DE0F
330
1DC7A
100
AcDbEntity
  8
DEFPOINTS
  6
Continuous
 62
     0
440
 16777216
100
AcDbPoint
 10
601.8414768420711
 20
338.8953820997945
 30
0.0
  0
ENDBLK
  5
1DC7C
330
1DC7A
100
AcDbEntity
  8
0
100
AcDbBlockEnd
  0
BLOCK
  5
1DC87
330
1DC86
100
AcDbEntity
  8
0
100
AcDbBlockBegin
  2
*D36
 70
     1
 10
0.0
 20
0.0
 30
0.0
  3
*D36
  1

  0
LINE
  5
1DE3D
330
1DC86
100
AcDbEntity
  8
30
  6
Continuous
 62
     0
440
 16777216
370
    -2
100
AcDbLine
 10
494.8414768420711
 20
537.1093561932172
 30
0.0
 11
494.8414768420711
 21
371.5091478827948
 31
0.0
  0
LINE
  5
1DE3E
330
1DC86
100
AcDbEntity
  8
30
  6
Continuous
 62
     0
440
 16777216
370
    -2
100
AcDbLine
 10
486.8414768420711
 20
537.1093561932172
 30
0.0
 11
486.8414768420711
 21
371.5091478827948
 31
0.0
  0
LINE
  5
1DE3F
330
1DC86
100
AcDbEntity
  8
30
  6
Continuous
 62
     0
440
 16777216
370
    -2
100
AcDbLine
 10
496.8414768420711
 20
372.0091478827948
 30
0.0
 11
498.8414768420711
 21
372.0091478827948
 31
0.0
  0
LINE
  5
1DE40
330
1DC86
100
AcDbEntity
  8
30
  6
Continuous
 62
     0
440
 16777216
370
    -2
100
AcDbLine
 10
484.8414768420711
 20
372.0091478827948
 30
0.0
 11
471.5081435087378
 21
372.0091478827948
 31
0.0
  0
INSERT
  5
1DE41
330
1DC86
100
AcDbEntity
  8
30
  6
Continuous
 62
     0
440
 16777216
370
    -2
100
AcDbBlockReference
  2
_OPEN
 10
494.8414768420711
 20
372.0091478827948
 30
0.0
 41
2.0
 42
2.0
 43
2.0
 50
180.0
  0
INSERT
  5
1DE42
330
1DC86
100
AcDbEntity
  8
30
  6
Continuous
 62
     0
440
 16777216
370
    -2
100
AcDbBlockReference
  2
_OPEN
 10
486.8414768420711
 20
372.0091478827948
 30
0.0
 41
2.0
 42
2.0
 43
2.0
  0
MTEXT
  5
1DE43
330
1DC86
100
AcDbEntity
  8
30
  6
Continuous
440
 16777216
100
AcDbMText
 10
477.1748101754043
 20
379.0091478827948
 30
0.0
 40
8.0
 41
0.0
 46
0.0
 71
     5
 72
     1
  1
\A1;8
 73
     1
 44
1.0
 90
        3
 63
     9
421
 13158600
 45
1.25
441
        0
  0
POINT
  5
1DE44
330
1DC86
100
AcDbEntity
  8
DEFPOINTS
  6
Continuous
 62
     0
440
 16777216
100
AcDbPoint
 10
494.8414768420711
 20
538.1093561932171
 30
0.0
  0
POINT
  5
1DE45
330
1DC86
100
AcDbEntity
  8
DEFPOINTS
  6
Continuous
 62
     0
440
 16777216
100
AcDbPoint
 10
486.8414768420711
 20
538.1093561932171
 30
0.0
  0
POINT
  5
1DE46
330
1DC86
100
AcDbEntity
  8
DEFPOINTS
  6
Continuous
 62
     0
440
 16777216
100
AcDbPoint
 10
486.8414768420711
 20
372.0091478827948
 30
0.0
  0
ENDBLK
  5
1DC88
330
1DC86
100
AcDbEntity
  8
0
100
AcDbBlockEnd
  0
BLOCK
  5
1DE7B
330
1DE7A
100
AcDbEntity
  8
0
100
AcDbBlockBegin
  2
*D37
 70
     1
 10
0.0
 20
0.0
 30
0.0
  3
*D37
  1

  0
LINE
  5
1DEA4
330
1DE7A
100
AcDbEntity
  8
30
 62
     0
440
 16777216
370
    -2
100
AcDbLine
 10
537.1598456858658
 20
841.8358036458773
 30
0.0
 11
537.1598456858658
 21
808.1513276459881
 31
0.0
  0
LINE
  5
1DEA5
330
1DE7A
100
AcDbEntity
  8
30
 62
     0
440
 16777216
370
    -2
100
AcDbLine
 10
569.1598456858654
 20
841.8358036458773
 30
0.0
 11
569.1598456858654
 21
808.1513276459881
 31
0.0
  0
LINE
  5
1DEA6
330
1DE7A
100
AcDbEntity
  8
30
 62
     0
440
 16777216
370
    -2
100
AcDbLine
 10
539.1598456858657
 20
808.6513276459882
 30
0.0
 11
567.1598456858654
 21
808.6513276459882
 31
0.0
  0
LINE
  5
1DEA7
330
1DE7A
100
AcDbEntity
  8
30
 62
     0
440
 16777216
370
    -2
100
AcDbLine
 10
569.1598456858654
 20
808.6513276459882
 30
0.0
 11
609.1598456858654
 21
808.6513276459882
 31
0.0
  0
INSERT
  5
1DEA8
330
1DE7A
100
AcDbEntity
  8
30
 62
     0
440
 16777216
370
    -2
100
AcDbBlockReference
  2
_OPEN
 10
537.1598456858658
 20
808.6513276459882
 30
0.0
 41
2.0
 42
2.0
 43
2.0
 50
180.0
  0
INSERT
  5
1DEA9
330
1DE7A
100
AcDbEntity
  8
30
 62
     0
440
 16777216
370
    -2
100
AcDbBlockReference
  2
_OPEN
 10
569.1598456858654
 20
808.6513276459882
 30
0.0
 41
2.0
 42
2.0
 43
2.0
  0
MTEXT
  5
1DEAA
330
1DE7A
100
AcDbEntity
  8
30
440
 16777216
100
AcDbMText
 10
590.1598456858654
 20
822.3179943126549
 30
0.0
 40
8.0
 41
0.0
 46
0.0
 71
     5
 72
     1
  1
\A1;32\P(MAX)
 73
     1
 44
1.0
 90
        3
 63
     9
421
 13158600
 45
1.25
441
        0
  0
POINT
  5
1DEAB
330
1DE7A
100
AcDbEntity
  8
DEFPOINTS
 62
     0
440
 16777216
100
AcDbPoint
 10
537.1598456858658
 20
842.8358036458773
 30
0.0
  0
POINT
  5
1DEAC
330
1DE7A
100
AcDbEntity
  8
DEFPOINTS
 62
     0
440
 16777216
100
AcDbPoint
 10
569.1598456858654
 20
842.8358036458773
 30
0.0
  0
POINT
  5
1DEAD
330
1DE7A
100
AcDbEntity
  8
DEFPOINTS
 62
     0
440
 16777216
100
AcDbPoint
 10
569.1598456858654
 20
808.6513276459882
 30
0.0
  0
ENDBLK
  5
1DE7C
330
1DE7A
100
AcDbEntity
  8
0
100
AcDbBlockEnd
  0
ENDSEC
  0
SECTION
  2
ENTITIES
  0
LWPOLYLINE
  5
1D31B
330
1E
100
AcDbEntity
  8
10
380
     2
100
AcDbPolyline
 90
        4
 70
     1
 43
0.0
 10
700.0
 20
0.0
 10
700.0
 20
1088.0
 10
0.0
 20
1088.0
 10
0.0
 20
0.0
  0
LINE
  5
1D9C5
330
1E
100
AcDbEntity
  8
16
100
AcDbLine
 10
176.2839548768725
 20
481.2847560711258
 30
0.0
 11
176.2839548768725
 21
688.7167140479004
 31
0.0
  0
LINE
  5
1D9C6
330
1E
100
AcDbEntity
  8
16
100
AcDbLine
 10
248.0586105189354
 20
583.1093561932171
 30
0.0
 11
92.37807309571484
 21
583.1093561932171
 31
0.0
  0
LINE
  5
1D9C7
330
1E
100
AcDbEntity
  8
16
100
AcDbLine
 10
415.9745708096123
 20
196.3991735828291
 30
0.0
 11
256.9643202944208
 21
196.3991735828291
 31
0.0
  0
LINE
  5
1D9C8
330
1E
100
AcDbEntity
  8
16
100
AcDbLine
 10
147.2406358267353
 20
49.77126393856076
 30
0.0
 11
147.2406358267353
 21
335.171820295232
 31
0.0
  0
LINE
  5
1D9C9
330
1E
100
AcDbEntity
  8
16
100
AcDbLine
 10
233.102783645699
 20
196.399173582829
 30
0.0
 11
56.36725574463344
 21
196.3991735828291
 31
0.0
  0
LINE
  5
1D9CA
330
1E
100
AcDbEntity
  8
16
100
AcDbLine
 10
335.3859941592264
 20
58.79368061070625
 30
0.0
 11
335.3859941592264
 21
336.5694632027994
 31
0.0
  0
CIRCLE
  5
1D9CB
330
1E
100
AcDbEntity
  8
12
100
AcDbCircle
 10
-169.7406358267353
 20
303.3991735828291
 30
0.0
 40
3.0
210
0.0
220
0.0
230
-1.0
  0
CIRCLE
  5
1D9CC
330
1E
100
AcDbEntity
  8
12
100
AcDbCircle
 10
124.7406358267353
 20
303.3991735828291
 30
0.0
 40
3.0
  0
LWPOLYLINE
  5
1D9CD
330
1E
100
AcDbEntity
  8
18
  6
DIVIDE
100
AcDbPolyline
 90
        4
 70
     1
 43
0.0
 10
216.9693440912354
 20
66.39917358282922
 10
216.9693440912354
 20
326.399173582829
 10
77.24063582673534
 20
326.3991735828291
 10
77.24063582673534
 20
66.39917358282935
  0
LINE
  5
1D9CE
330
1E
100
AcDbEntity
  8
12
  6
DASHDOT
100
AcDbLine
 10
169.7406358267353
 20
310.3991735828291
 30
0.0
 11
169.7406358267353
 21
296.3991735828291
 31
0.0
  0
LINE
  5
1D9CF
330
1E
100
AcDbEntity
  8
12
  6
DASHDOT
100
AcDbLine
 10
124.7406358267353
 20
310.3991735828291
 30
0.0
 11
124.7406358267353
 21
296.3991735828291
 31
0.0
  0
LINE
  5
1D9D0
330
1E
100
AcDbEntity
  8
12
  6
DASHDOT
100
AcDbLine
 10
117.7406358267353
 20
89.39917358282931
 30
0.0
 11
131.7406358267353
 21
89.39917358282931
 31
0.0
  0
CIRCLE
  5
1D9D1
330
1E
100
AcDbEntity
  8
12
100
AcDbCircle
 10
-124.7406358267353
 20
89.39917358282931
 30
0.0
 40
3.0
210
0.0
220
0.0
230
-1.0
  0
LINE
  5
1D9D2
330
1E
100
AcDbEntity
  8
12
  6
DASHDOT
100
AcDbLine
 10
124.7406358267353
 20
96.39917358282929
 30
0.0
 11
124.7406358267353
 21
82.39917358282935
 31
0.0
  0
LINE
  5
1D9D3
330
1E
100
AcDbEntity
  8
12
  6
DASHDOT
100
AcDbLine
 10
162.7406358267353
 20
89.39917358282931
 30
0.0
 11
176.7406358267353
 21
89.39917358282931
 31
0.0
  0
CIRCLE
  5
1D9D4
330
1E
100
AcDbEntity
  8
12
100
AcDbCircle
 10
169.7406358267353
 20
89.39917358282931
 30
0.0
 40
3.0
  0
LINE
  5
1D9D5
330
1E
100
AcDbEntity
  8
12
  6
DASHDOT
100
AcDbLine
 10
169.7406358267353
 20
96.39917358282929
 30
0.0
 11
169.7406358267353
 21
82.39917358282935
 31
0.0
  0
LINE
  5
1D9D6
330
1E
100
AcDbEntity
  8
12
  6
DASHDOT
100
AcDbLine
 10
117.7406358267353
 20
303.3991735828291
 30
0.0
 11
131.7406358267353
 21
303.3991735828291
 31
0.0
  0
LINE
  5
1D9D7
330
1E
100
AcDbEntity
  8
12
  6
DASHDOT
100
AcDbLine
 10
162.7406358267353
 20
303.3991735828291
 30
0.0
 11
176.7406358267353
 21
303.3991735828291
 31
0.0
  0
LWPOLYLINE
  5
1D9D8
330
1E
100
AcDbEntity
  8
18
  6
DIVIDE
100
AcDbPolyline
 90
        4
 70
     1
 43
0.0
 10
405.1147024237263
 20
66.39917358282911
 10
405.1147024237263
 20
326.3991735828296
 10
265.3859941592263
 20
326.3991735828296
 10
265.3859941592263
 20
66.39917358282911
  0
LWPOLYLINE
  5
1D9D9
330
1E
100
AcDbEntity
  8
11
 48
2.0
100
AcDbPolyline
 90
        8
 70
     1
 43
0.0
 10
392.3859941592263
 20
150.3991735828291
 42
0.4142135623730951
 10
394.3859941592263
 20
152.3991735828291
 10
394.3859941592263
 20
240.3991735828293
 42
0.4142135623730951
 10
392.3859941592263
 20
242.3991735828293
 10
278.3859941592264
 20
242.3991735828293
 42
0.4142135623730951
 10
276.3859941592264
 20
240.3991735828293
 10
276.3859941592264
 20
152.3991735828291
 42
0.4142135623730951
 10
278.3859941592264
 20
150.3991735828291
  0
DIMENSION
  5
1D9DA
330
1E
100
AcDbEntity
  8
30
  6
Continuous
100
AcDbDimension
280
     0
  2
*D3
 10
46.24683127109892
 20
89.39917358282931
 30
0.0
 11
46.24683127109892
 21
196.3991735828293
 31
0.0
 70
   160
 71
     5
 42
213.9999999999998
 73
     0
 74
     0
 75
     0
  3
STANDARD
100
AcDbAlignedDimension
 13
124.8306358267354
 23
303.3991735828292
 33
0.0
 14
124.7406358267353
 24
89.39917358282931
 34
0.0
 50
90.0
100
AcDbRotatedDimension
1001
ACAD
1000
DSTYLE
1002
{
1070
    79
1070
     3
1002
}
  0
DIMENSION
  5
1D9DB
330
1E
100
AcDbEntity
  8
30
  6
Continuous
100
AcDbDimension
280
     0
  2
*D4
 10
169.7406358267353
 20
37.69510715235846
 30
0.0
 11
147.2406358267353
 21
44.69510715235845
 31
0.0
 70
    32
 71
     5
 42
45.0
 73
     0
 74
     0
 75
     0
  3
STANDARD
100
AcDbAlignedDimension
 13
124.7406358267353
 23
89.39917358282931
 33
0.0
 14
169.7406358267353
 24
89.39917358282931
 34
0.0
100
AcDbRotatedDimension
1001
ACAD
1000
DSTYLE
1002
{
1070
    79
1070
     3
1002
}
  0
DIMENSION
  5
1D9DC
330
1E
100
AcDbEntity
  8
30
  6
Continuous
100
AcDbDimension
280
     0
  2
*D5
 10
394.3859941592263
 20
36.10774968441956
 30
0.0
 11
335.3859941592264
 21
43.10774968441957
 31
0.0
 70
    32
 71
     5
 42
117.9999999999999
 73
     0
 74
     0
 75
     0
  3
STANDARD
100
AcDbAlignedDimension
 13
276.3859941592264
 23
149.0183697844592
 33
0.0
 14
394.3859941592263
 24
149.0183697844592
 34
0.0
100
AcDbRotatedDimension
1001
ACAD
1000
DSTYLE
1002
{
1070
    79
1070
     3
1002
}
  0
DIMENSION
  5
1D9DD
330
1E
100
AcDbEntity
  8
30
  6
Continuous
100
AcDbDimension
280
     0
  2
*D6
 10
426.7875047542272
 20
150.3991735828291
 30
0.0
 11
419.7875047542272
 21
196.3991735828292
 31
0.0
 70
    32
 71
     5
 42
92.00000000000015
 73
     0
 74
     0
 75
     0
  3
STANDARD
100
AcDbAlignedDimension
 13
394.4279767723246
 23
242.3991735828293
 33
0.0
 14
394.4279767723246
 24
150.3991735828291
 34
0.0
 50
90.0
100
AcDbRotatedDimension
1001
ACAD
1000
DSTYLE
1002
{
1070
    79
1070
     3
1002
}
  0
LINE
  5
1D9DE
330
1E
100
AcDbEntity
  8
16
100
AcDbLine
 10
176.2838938417123
 20
885.4971689413002
 30
0.0
 11
176.2839548768725
 21
1055.95542479125
 31
0.0
  0
DIMENSION
  5
1D9DF
330
1E
100
AcDbEntity
  8
30
  6
Continuous
100
AcDbDimension
280
     0
  2
*D7
 10
126.5447060272987
 20
301.0022316328774
 30
0.0
 11
96.55746846350522
 21
340.8441777264323
 31
0.0
 70
   163
  1
M6
 71
     5
 42
5.999999999999714
 73
     0
 74
     0
 75
     0
  3
STANDARD
100
AcDbDiametricDimension
 15
122.9365656261722
 25
305.7961155327812
 35
0.0
 40
0.0
1001
ACAD
1000
DSTYLE
1002
{
1070
    79
1070
     3
1070
   288
1070
     1
1002
}
  0
LINE
  5
1D9E0
330
1E
100
AcDbEntity
  8
10
  6
CONTINOUS
100
AcDbLine
 10
246.2839486382493
 20
941.4788207957283
 30
0.0
 11
106.2839486382495
 21
941.4788207957283
 31
0.0
  0
LINE
  5
1D9E1
330
1E
100
AcDbEntity
  8
10
  6
CONTINOUS
100
AcDbLine
 10
246.2839486382493
 20
935.4788207957286
 30
0.0
 11
106.2839486382495
 21
935.4788207957286
 31
0.0
  0
LINE
  5
1D9E2
330
1E
100
AcDbEntity
  8
10
  6
CONTINOUS
100
AcDbLine
 10
234.2839486382495
 20
931.4788207957288
 30
0.0
 11
118.2839486382495
 21
931.4788207957288
 31
0.0
  0
LINE
  5
1D9E3
330
1E
100
AcDbEntity
  8
10
  6
CONTINOUS
100
AcDbLine
 10
246.2839486382493
 20
1038.478820795728
 30
0.0
 11
106.2839486382495
 21
1038.478820795728
 31
0.0
  0
LINE
  5
1D9E4
330
1E
100
AcDbEntity
  8
10
  6
CONTINOUS
100
AcDbLine
 10
106.2839486382495
 20
935.4788207957286
 30
0.0
 11
106.2839486382495
 21
1038.478820795728
 31
0.0
  0
LINE
  5
1D9E5
330
1E
100
AcDbEntity
  8
10
  6
CONTINOUS
100
AcDbLine
 10
118.2839486382495
 20
931.4788207957288
 30
0.0
 11
118.2839486382495
 21
935.4788207957286
 31
0.0
  0
LINE
  5
1D9E6
330
1E
100
AcDbEntity
  8
10
  6
CONTINOUS
100
AcDbLine
 10
193.2839486382495
 20
898.9788207957287
 30
0.0
 11
159.2839486382493
 21
898.9788207957287
 31
0.0
  0
LINE
  5
1D9E7
330
1E
100
AcDbEntity
  8
10
  6
CONTINOUS
100
AcDbLine
 10
194.2839486382495
 20
927.4788207957287
 30
0.0
 11
158.2839486382495
 21
927.4788207957287
 31
0.0
  0
LINE
  5
1D9E8
330
1E
100
AcDbEntity
  8
10
  6
CONTINOUS
100
AcDbLine
 10
159.2839486382493
 20
898.9788207957287
 30
0.0
 11
159.2839486382493
 21
927.4788207957287
 31
0.0
  0
LINE
  5
1D9E9
330
1E
100
AcDbEntity
  8
10
  6
CONTINOUS
100
AcDbLine
 10
158.2839486382495
 20
927.4788207957287
 30
0.0
 11
158.2839486382495
 21
931.4788207957288
 31
0.0
  0
LINE
  5
1D9EA
330
1E
100
AcDbEntity
  8
10
  6
CONTINOUS
100
AcDbLine
 10
193.2839486382495
 20
898.9788207957287
 30
0.0
 11
193.2839486382495
 21
927.4788207957287
 31
0.0
  0
LINE
  5
1D9EB
330
1E
100
AcDbEntity
  8
10
  6
CONTINOUS
100
AcDbLine
 10
194.2839486382495
 20
927.4788207957287
 30
0.0
 11
194.2839486382495
 21
931.4788207957288
 31
0.0
  0
LINE
  5
1D9EC
330
1E
100
AcDbEntity
  8
10
  6
CONTINOUS
100
AcDbLine
 10
246.2839486382493
 20
935.4788207957286
 30
0.0
 11
246.2839486382493
 21
1038.478820795728
 31
0.0
  0
LINE
  5
1D9ED
330
1E
100
AcDbEntity
  8
10
  6
CONTINOUS
100
AcDbLine
 10
234.2839486382495
 20
931.4788207957288
 30
0.0
 11
234.2839486382495
 21
935.4788207957286
 31
0.0
  0
DIMENSION
  5
1D9EE
330
1E
100
AcDbEntity
  8
30
  6
Continuous
100
AcDbDimension
280
     0
  2
*D8
 10
176.283934272398
 20
1053.293017183538
 30
0.0
 11
153.7839445746351
 21
1060.293017183538
 31
0.0
 70
    32
 71
     5
 42
44.99997939552554
 73
     0
 74
     0
 75
     0
  3
STANDARD
100
AcDbAlignedDimension
 13
131.2839548768724
 23
1008.560804545807
 33
0.0
 14
176.283934272398
 24
1008.560804545807
 34
0.0
100
AcDbRotatedDimension
1001
ACAD
1000
DSTYLE
1002
{
1070
   287
1070
     4
1070
   287
1070
     4
1070
   287
1070
     4
1070
   287
1070
     4
1070
   287
1070
     4
1070
   287
1070
     4
1070
   287
1070
     4
1070
   279
1070
     1
1070
    79
1070
     3
1002
}
  0
DIMENSION
  5
1D9EF
330
1E
100
AcDbEntity
  8
30
  6
Continuous
100
AcDbDimension
280
     0
  2
*D9
 10
221.2839548768725
 20
1053.293017183538
 30
0.0
 11
198.7839445746352
 21
1060.293017183538
 31
0.0
 70
    32
 71
     5
 42
45.00002060447445
 73
     0
 74
     0
 75
     0
  3
STANDARD
100
AcDbAlignedDimension
 13
176.283934272398
 23
1008.560804545807
 33
0.0
 14
221.2839548768725
 24
1002.478820795729
 34
0.0
100
AcDbRotatedDimension
1001
ACAD
1000
DSTYLE
1002
{
1070
   287
1070
     4
1070
   287
1070
     4
1070
   287
1070
     4
1070
   287
1070
     4
1070
   287
1070
     4
1070
   287
1070
     4
1070
   287
1070
     4
1070
   279
1070
     1
1070
    79
1070
     3
1002
}
  0
MTEXT
  5
1D9F0
330
1E
100
AcDbEntity
  8
19
  6
Continuous
100
AcDbMText
 10
506.6642399872644
 20
997.6832743351927
 30
0.0
 40
5.0
 41
94.44410000000001
 46
0.0
 71
     1
 72
     5
  1
PS630-CF 3P FC+BAR\PPS630-NF 3P FC+BAR\PPS630-GF 3P FC+BAR\PPS630-NE 3P FC+BAR\PPS630-GE 3P FC+BAR\PPH630-CF 3P FC+BAR\PPH630-CE 3P FC+BAR
  7
STANDARD1
 73
     1
 44
1.0
  0
ELLIPSE
  5
1D9F1
330
1E
100
AcDbEntity
  8
10
  6
Continuous
100
AcDbEllipse
 10
176.0413758883724
 20
583.1093561932171
 30
0.0
 11
0.0
 21
1100.0
 31
0.0
210
0.0
220
0.0
230
1.0
 40
0.0174550649
 41
4.690677605249396
 42
4.734986455434412
  0
LINE
  5
1D9F2
330
1E
100
AcDbEntity
  8
0
  6
SLD-実線
 62
     7
370
    30
100
AcDbLine
 10
195.2236496363723
 20
559.4624278232171
 30
0.0
 11
195.2374220348722
 21
559.2287198737168
 31
0.0
  0
LINE
  5
1D9F3
330
1E
100
AcDbEntity
  8
0
  6
SLD-実線
 62
     7
370
    30
100
AcDbLine
 10
157.0879087303722
 20
559.2287198737168
 30
0.0
 11
157.1016811288723
 21
559.4624278232171
 31
0.0
  0
ELLIPSE
  5
1D9F4
330
1E
100
AcDbEntity
  8
10
  6
Continuous
100
AcDbEllipse
 10
176.2839548768725
 20
583.1093561932171
 30
0.0
 11
0.0
 21
1100.0
 31
0.0
210
0.0
220
0.0
230
1.0
 40
0.0174550649
 41
1.548198852438138
 42
1.59250770193019
  0
LINE
  5
1D9F5
330
1E
100
AcDbEntity
  8
10
  6
Continuous
100
AcDbLine
 10
195.2374220348722
 20
559.2287198737168
 30
0.0
 11
157.0879087303722
 21
559.2287198737168
 31
0.0
  0
LINE
  5
1D9F6
330
1E
100
AcDbEntity
  8
10
  6
Continuous
100
AcDbLine
 10
195.2370451406586
 20
607.9644632622171
 30
0.0
 11
157.0882849848724
 21
607.9644632622171
 31
0.0
  0
LINE
  5
1D9F7
330
1E
100
AcDbEntity
  8
0
  6
SLD-実線
 62
     7
370
    30
100
AcDbLine
 10
151.7044991708724
 20
538.1093544052171
 30
0.0
 11
200.6452415588722
 21
538.1093544052171
 31
0.0
  0
LINE
  5
1DA0C
330
1E
100
AcDbEntity
  8
10
  6
Continuous
100
AcDbLine
 10
159.1626644588723
 20
603.0589115902171
 30
0.0
 11
193.1626663063723
 21
603.0589115902171
 31
0.0
  0
LINE
  5
1DA0D
330
1E
100
AcDbEntity
  8
0
  6
SLD-実線
 62
     7
370
    30
100
AcDbLine
 10
159.1626644588723
 20
603.0589115902171
 30
0.0
 11
159.1626644588723
 21
599.6122711432171
 31
0.0
  0
LINE
  5
1DA0E
330
1E
100
AcDbEntity
  8
0
  6
SLD-実線
 62
     7
370
    30
100
AcDbLine
 10
193.1626663063723
 20
603.0589115902171
 30
0.0
 11
193.1626663063723
 21
599.6122711432171
 31
0.0
  0
LINE
  5
1DA0F
330
1E
100
AcDbEntity
  8
0
  6
SLD-実線
 62
     7
370
    30
100
AcDbLine
 10
159.1626644588723
 20
599.0880613312171
 30
0.0
 11
159.1626644588723
 21
599.6122711432171
 31
0.0
  0
LINE
  5
1DA10
330
1E
100
AcDbEntity
  8
0
  6
SLD-実線
 62
     7
370
    30
100
AcDbLine
 10
193.1626663063723
 20
599.6122711432171
 30
0.0
 11
193.1626663063723
 21
599.0880613312171
 31
0.0
  0
LINE
  5
1DA11
330
1E
100
AcDbEntity
  8
0
  6
SLD-実線
 62
     7
370
    30
100
AcDbLine
 10
159.1626644588723
 20
599.0880613312171
 30
0.0
 11
159.1626644588723
 21
595.8407192587169
 31
0.0
  0
LINE
  5
1DA12
330
1E
100
AcDbEntity
  8
0
  6
SLD-実線
 62
     7
370
    30
100
AcDbLine
 10
193.1626663063723
 20
599.0880613312171
 30
0.0
 11
193.1626663063723
 21
595.8407192587169
 31
0.0
  0
LINE
  5
1DA13
330
1E
100
AcDbEntity
  8
0
  6
SLD-実線
 62
     7
370
    30
100
AcDbLine
 10
159.1626644588723
 20
595.1657292527171
 30
0.0
 11
159.1626644588723
 21
595.8407192587169
 31
0.0
  0
LINE
  5
1DA14
330
1E
100
AcDbEntity
  8
0
  6
SLD-実線
 62
     7
370
    30
100
AcDbLine
 10
159.1626644588723
 20
594.9066092357171
 30
0.0
 11
193.1626663063723
 21
594.9066092357171
 31
0.0
  0
LINE
  5
1DA15
330
1E
100
AcDbEntity
  8
0
  6
SLD-実線
 62
     7
370
    30
100
AcDbLine
 10
159.1626644588723
 20
595.1657292527171
 30
0.0
 11
159.1626644588723
 21
594.9066092357171
 31
0.0
  0
LINE
  5
1DA1C
330
1E
100
AcDbEntity
  8
0
  6
SLD-実線
 62
     7
370
    30
100
AcDbLine
 10
213.4939894533722
 20
538.1093544052171
 30
0.0
 11
232.9626657518722
 21
538.1093544052171
 31
0.0
  0
ELLIPSE
  5
1DA1D
330
1E
100
AcDbEntity
  8
0
  6
SLD-実線
 62
     7
370
    30
100
AcDbEllipse
 10
213.1645707358723
 20
538.1042817157172
 30
0.0
 11
0.50001900419673
 21
-0.0000375365147676
 31
0.0
210
0.0
220
0.0
230
1.0
 40
0.0135556861
 41
0.8515556230107677
 42
1.576334180670649
  0
LINE
  5
1DA1E
330
1E
100
AcDbEntity
  8
0
  6
SLD-実線
 62
     7
370
    30
100
AcDbLine
 10
202.3637701278724
 20
538.1110605877171
 30
0.0
 11
213.1618015918723
 21
538.1110605877171
 31
0.0
  0
LINE
  5
1DA1F
330
1E
100
AcDbEntity
  8
0
  6
SLD-実線
 62
     7
370
    30
100
AcDbLine
 10
232.9626657518722
 20
628.1093579812169
 30
0.0
 11
202.1626659188723
 21
628.1093579812169
 31
0.0
  0
LINE
  5
1DA20
330
1E
100
AcDbEntity
  8
0
  6
SLD-実線
 62
     7
370
    30
100
AcDbLine
 10
150.1626648458723
 20
628.1093579812169
 30
0.0
 11
119.3626650128724
 21
628.1093579812169
 31
0.0
  0
LINE
  5
1DA22
330
1E
100
AcDbEntity
  8
240
370
    30
100
AcDbLine
 10
150.6626653823723
 20
628.1093561932172
 30
0.0
 11
201.6626653823723
 21
628.1093561932172
 31
0.0
  0
DIMENSION
  5
1DA23
330
1E
100
AcDbEntity
  8
30
  6
Continuous
100
AcDbDimension
280
     0
  2
*D10
 10
279.376181687915
 20
469.1093561932171
 30
0.0
 11
279.376181687915
 21
583.1093561932171
 31
0.0
 70
   160
  1
<>
 71
     2
 42
228.0
 73
     0
 74
     0
 75
     0
  3
STANDARD
100
AcDbAlignedDimension
 13
230.200692658912
 23
697.1093561932171
 33
0.0
 14
239.700692658912
 24
469.1093561932171
 34
0.0
 50
90.0
100
AcDbRotatedDimension
1001
ACAD
1000
DSTYLE
1002
{
1070
    79
1070
     3
1002
}
  0
DIMENSION
  5
1DA24
330
1E
100
AcDbEntity
  8
30
  6
Continuous
100
AcDbDimension
280
     0
  2
*D11
 10
300.6795420061035
 20
453.1093561932171
 30
0.0
 11
300.6795420061035
 21
583.1093561932171
 31
0.0
 70
   160
  1
<>
 71
     2
 42
260.0
 73
     0
 74
     0
 75
     0
  3
STANDARD
100
AcDbAlignedDimension
 13
252.8007703324119
 23
713.1093561932171
 33
0.0
 14
252.8007703324119
 24
453.1093561932171
 34
0.0
 50
90.0
100
AcDbRotatedDimension
1001
ACAD
1000
DSTYLE
1002
{
1070
    79
1070
     3
1002
}
  0
LINE
  5
1DA25
330
1E
100
AcDbEntity
  8
16
100
AcDbLine
 10
176.2839548768725
 20
481.2847560711258
 30
0.0
 11
176.2839548768725
 21
688.7167140479004
 31
0.0
  0
LINE
  5
1DA27
330
1E
100
AcDbEntity
  8
16
100
AcDbLine
 10
248.0586105189354
 20
583.1093561932171
 30
0.0
 11
92.37807309571508
 21
583.1093561932171
 31
0.0
  0
LWPOLYLINE
  5
1DA29
330
1E
100
AcDbEntity
  8
10
  6
Continuous
100
AcDbPolyline
 90
        8
 70
     1
 43
0.0
 10
233.2839548768725
 20
538.1093561932171
 10
119.2839548768725
 20
538.1093561932171
 42
-0.4142135623730951
 10
118.2839548768725
 20
539.1093561932172
 10
118.2839548768725
 20
627.1093561932172
 42
-0.4142135623730951
 10
119.2839548768725
 20
628.1093561932172
 10
233.2839548768725
 20
628.1093561932172
 42
-0.4142135623730951
 10
234.2839548768725
 20
627.1093561932172
 10
234.2839548768725
 20
539.1093561932172
 42
-0.4142135623730951
  0
LINE
  5
1DA2A
330
1E
100
AcDbEntity
  8
10
  6
Continuous
100
AcDbLine
 10
106.2839548768724
 20
675.6377805290327
 30
0.0
 11
246.2839548768725
 21
675.6377805290327
 31
0.0
  0
LINE
  5
1DA2C
330
1E
100
AcDbEntity
  8
10
  6
Continuous
100
AcDbLine
 10
106.2839548768724
 20
491.1825823223786
 30
0.0
 11
246.2839548768725
 21
491.1825823223786
 31
0.0
  0
LINE
  5
1DA2F
330
1E
100
AcDbEntity
  8
10
  6
Continuous
100
AcDbLine
 10
201.7839548768722
 20
538.1093561932171
 30
0.0
 11
201.7839548768725
 21
628.1093561932172
 31
0.0
  0
LINE
  5
1DA30
330
1E
100
AcDbEntity
  8
10
  6
Continuous
100
AcDbLine
 10
150.7839548768727
 20
538.1093561932171
 30
0.0
 11
150.7839548768725
 21
628.1093561932172
 31
0.0
  0
LWPOLYLINE
  5
1DA6E
330
1E
100
AcDbEntity
  8
10
  6
Continuous
100
AcDbPolyline
 90
        4
 70
     1
 43
0.0
 10
200.5839548768727
 20
542.6593561932171
 10
195.2839548768725
 20
542.6593561932171
 10
195.2839548768725
 20
549.2593561932173
 10
200.5839548768727
 20
549.2593561932173
  0
LWPOLYLINE
  5
1DA6F
330
1E
100
AcDbEntity
  8
10
  6
Continuous
100
AcDbPolyline
 90
        4
 70
     1
 43
0.0
 10
159.1626644588723
 20
603.0589115902171
 10
193.1626663063723
 20
603.0589115902171
 10
193.1626663063723
 20
594.9066092357171
 10
159.1626644588723
 20
594.9066092357171
  0
LINE
  5
1DA70
330
1E
100
AcDbEntity
  8
24
  6
CONTINOUS
100
AcDbLine
 10
537.1598456858658
 20
888.1448487273772
 30
0.0
 11
537.1598456858658
 21
842.8358036458773
 31
0.0
  0
LINE
  5
1DA71
330
1E
100
AcDbEntity
  8
24
  6
CONTINOUS
100
AcDbLine
 10
537.1598456858658
 20
842.8358036458773
 30
0.0
 11
569.1598456858654
 21
842.8358036458773
 31
0.0
  0
LINE
  5
1DA72
330
1E
100
AcDbEntity
  8
24
  6
CONTINOUS
100
AcDbLine
 10
569.1598456858654
 20
880.3408828318771
 30
0.0
 11
569.1598456858654
 21
842.8358036458773
 31
0.0
  0
CIRCLE
  5
1DA73
330
1E
100
AcDbEntity
  8
24
  6
CONTINOUS
100
AcDbCircle
 10
553.1598456858654
 20
854.8358036458772
 30
0.0
 40
5.499999999999785
  0
SPLINE
  5
1DA74
330
1E
100
AcDbEntity
  8
24
  6
CONTINOUS
100
AcDbSpline
210
0.0
220
0.0
230
1.0
 70
     8
 71
     3
 72
     8
 73
     4
 74
     0
 42
0.000000001
 43
0.0000000001
 40
0.0
 40
0.0
 40
0.0
 40
0.0
 40
1.0
 40
1.0
 40
1.0
 40
1.0
 10
521.5912494194293
 20
881.4230997567461
 30
0.0
 10
541.1271277122831
 20
902.5525310165027
 30
0.0
 10
560.6371054766173
 20
865.6168490454941
 30
0.0
 10
579.1110294320051
 20
886.7678580764986
 30
0.0
  0
DIMENSION
  5
1DA75
330
1E
100
AcDbEntity
  8
30
  6
Continuous
100
AcDbDimension
280
     0
  2
*D12
 10
511.0450423250325
 20
842.8358036458773
 30
0.0
 11
511.0450423250323
 21
848.8358036458773
 31
0.0
 70
   160
  1
<>\P(MAX.)
 71
     2
 42
12.0
 73
     0
 74
     0
 75
     0
  3
STANDARD
100
AcDbAlignedDimension
 13
553.1598456858654
 23
854.8358036458772
 33
0.0
 14
537.1598456858658
 24
842.8358036458773
 34
0.0
 50
90.0
100
AcDbRotatedDimension
1001
ACAD
1000
DSTYLE
1002
{
1070
    79
1070
     3
1002
}
  0
DIMENSION
  5
1DA77
330
1E
100
AcDbEntity
  8
30
  6
Continuous
100
AcDbDimension
280
     0
  2
*D14
 10
548.5608598613652
 20
851.8192941758771
 30
0.0
 11
593.8299738645571
 21
881.5116472930043
 31
0.0
 70
   163
  1
<>
 71
     5
 42
10.99999999979093
 73
     0
 74
     0
 75
     0
  3
STANDARD
100
AcDbDiametricDimension
 15
557.7588315108653
 25
857.8523131158773
 35
0.0
 40
0.0
1001
ACAD
1000
DSTYLE
1002
{
1070
    79
1070
     3
1002
}
  0
LINE
  5
1DA78
330
1E
100
AcDbEntity
  8
16
  6
DASHED
100
AcDbLine
 10
553.1598456861156
 20
862.2458036458771
 30
0.0
 11
553.1598456861156
 21
847.2458036458771
 31
0.0
  0
LINE
  5
1DA79
330
1E
100
AcDbEntity
  8
16
  6
DASHED
100
AcDbLine
 10
545.6598456861156
 20
854.7458036458772
 30
0.0
 11
560.6598456861156
 21
854.7458036458772
 31
0.0
  0
LWPOLYLINE
  5
1DA7A
330
1E
100
AcDbEntity
  8
10
380
     2
100
AcDbPolyline
 90
        4
 70
     1
 43
0.0
 10
700.0
 20
0.0
 10
700.0
 20
1088.0
 10
0.0
 20
1088.0
 10
0.0
 20
0.0
  0
DIMENSION
  5
1DA7B
330
1E
100
AcDbEntity
  8
30
  6
Continuous
100
AcDbDimension
280
     0
  2
*D15
 10
392.4496991735045
 20
240.1843508433939
 30
0.0
 11
419.1927268626328
 21
266.5573458966616
 31
0.0
 70
   164
 71
     5
 42
2.000000000178886
 73
     0
 74
     0
 75
     0
  3
STANDARD1
100
AcDbRadialDimension
 15
393.6737414922641
 25
241.7660336189849
 35
0.0
 40
0.0
1001
ACAD
1000
DSTYLE
1002
{
1070
   140
1040
4.0
1002
}
  0
LINE
  5
1DA7C
330
1E
100
AcDbEntity
  8
17
  6
DASHDOT
100
AcDbLine
 10
143.6432896959975
 20
1005.545385628211
 30
0.0
 11
118.9245396959975
 21
1005.545385628211
 31
0.0
  0
LINE
  5
1DA7D
330
1E
100
AcDbEntity
  8
17
  6
DASHDOT
100
AcDbLine
 10
143.9497130754375
 20
1005.545385628211
 30
0.0
 11
118.9497130754375
 21
1005.545385628211
 31
0.0
  0
LINE
  5
1DA7E
330
1E
100
AcDbEntity
  8
24
  6
CONTINOUS
100
AcDbLine
 10
117.1496642473375
 20
1005.545385628211
 30
0.0
 11
145.1496642473375
 21
1005.545385628211
 31
0.0
  0
LWPOLYLINE
  5
1DA7F
330
1E
100
AcDbEntity
  8
24
  6
CONTINOUS
100
AcDbPolyline
 90
        2
 70
     0
 43
0.001
 10
117.1496642473375
 20
1002.478820795728
 10
145.1496642473375
 20
1002.478820795728
  0
LWPOLYLINE
  5
1DA80
330
1E
100
AcDbEntity
  8
24
  6
CONTINOUS
100
AcDbPolyline
 90
        4
 70
     1
 43
0.0
 10
145.1496642473375
 20
1002.478820795728
 10
102.3839556158727
 20
1002.478820795728
 10
102.3839556158727
 20
994.4788207957286
 10
145.1496642473375
 20
994.4788207957286
  0
LWPOLYLINE
  5
1DA81
330
1E
100
AcDbEntity
  8
10
  6
CONTINOUS
100
AcDbPolyline
 90
        2
 70
     0
 43
0.0
 10
117.1496642473375
 20
1003.545385628211
 10
117.1496642473375
 20
1002.478820795728
  0
LWPOLYLINE
  5
1DA82
330
1E
100
AcDbEntity
  8
24
  6
CONTINOUS
100
AcDbPolyline
 90
        2
 70
     0
 43
0.001
 10
117.1496642473375
 20
1005.545385628211
 10
117.1496642473375
 20
1002.478820795728
  0
LWPOLYLINE
  5
1DA83
330
1E
100
AcDbEntity
  8
10
  6
CONTINOUS
100
AcDbPolyline
 90
        2
 70
     0
 43
0.0
 10
162.1496642473374
 20
1003.545385628211
 10
162.1496642473374
 20
1002.478820795728
  0
LINE
  5
1DA84
330
1E
100
AcDbEntity
  8
24
  6
CONTINOUS
100
AcDbLine
 10
141.1859630754375
 20
1005.545385628211
 30
0.0
 11
127.7134630754374
 21
1005.545385628211
 31
0.0
  0
LINE
  5
1DA85
330
1E
100
AcDbEntity
  8
24
  6
CONTINOUS
100
AcDbLine
 10
125.4666541180147
 20
1005.545385628211
 30
0.0
 11
125.4666541180147
 21
1002.478820795728
 31
0.0
  0
LINE
  5
1DA86
330
1E
100
AcDbEntity
  8
24
  6
CONTINOUS
100
AcDbLine
 10
137.1011752739803
 20
1005.545385628211
 30
0.0
 11
137.1011752739803
 21
1002.478820795728
 31
0.0
  0
LWPOLYLINE
  5
1DA87
330
1E
100
AcDbEntity
  8
24
  6
CONTINOUS
100
AcDbPolyline
 90
        2
 70
     0
 43
0.001
 10
145.1496642473375
 20
1005.545385628211
 10
145.1496642473375
 20
1002.478820795728
  0
LINE
  5
1DA88
330
1E
100
AcDbEntity
  8
17
  6
DASHDOT
100
AcDbLine
 10
182.6432896959975
 20
1005.545385628211
 30
0.0
 11
163.9245396959975
 21
1005.545385628211
 31
0.0
  0
LINE
  5
1DA89
330
1E
100
AcDbEntity
  8
17
  6
DASHDOT
100
AcDbLine
 10
182.9497130754375
 20
1005.545385628211
 30
0.0
 11
163.9497130754375
 21
1005.545385628211
 31
0.0
  0
LINE
  5
1DA8A
330
1E
100
AcDbEntity
  8
24
  6
CONTINOUS
100
AcDbLine
 10
162.1496642473374
 20
1005.545385628211
 30
0.0
 11
190.1496642473374
 21
1005.545385628211
 31
0.0
  0
LWPOLYLINE
  5
1DA8B
330
1E
100
AcDbEntity
  8
24
  6
CONTINOUS
100
AcDbPolyline
 90
        2
 70
     0
 43
0.001
 10
162.1496642473374
 20
1002.478820795728
 10
190.1496642473374
 20
1002.478820795728
  0
LINE
  5
1DA8C
330
1E
100
AcDbEntity
  8
24
  6
CONTINOUS
100
AcDbLine
 10
180.1859630754375
 20
1005.545385628211
 30
0.0
 11
166.7134630754374
 21
1005.545385628211
 31
0.0
  0
LWPOLYLINE
  5
1DA8D
330
1E
100
AcDbEntity
  8
24
  6
CONTINOUS
100
AcDbPolyline
 90
        2
 70
     0
 43
0.001
 10
162.1496642473374
 20
1005.545385628211
 10
162.1496642473374
 20
1002.478820795728
  0
LINE
  5
1DA8E
330
1E
100
AcDbEntity
  8
24
  6
CONTINOUS
100
AcDbLine
 10
170.4666541180146
 20
1005.545385628211
 30
0.0
 11
170.4666541180146
 21
1002.478820795728
 31
0.0
  0
LINE
  5
1DA8F
330
1E
100
AcDbEntity
  8
24
  6
CONTINOUS
100
AcDbLine
 10
182.1011752739803
 20
1005.545385628211
 30
0.0
 11
182.1011752739803
 21
1002.478820795728
 31
0.0
  0
LWPOLYLINE
  5
1DA90
330
1E
100
AcDbEntity
  8
24
  6
CONTINOUS
100
AcDbPolyline
 90
        2
 70
     0
 43
0.001
 10
190.1496642473374
 20
1005.545385628211
 10
190.1496642473374
 20
1002.478820795728
  0
LWPOLYLINE
  5
1DA91
330
1E
100
AcDbEntity
  8
10
  6
CONTINOUS
100
AcDbPolyline
 90
        4
 70
     0
 43
0.0
 10
207.1496642473376
 20
1003.545385628211
 10
207.1496642473376
 20
947.4788207957287
 10
235.1496642473376
 20
947.4788207957287
 10
235.1496642473376
 20
994.4788207957286
  0
LINE
  5
1DA92
330
1E
100
AcDbEntity
  8
24
  6
CONTINOUS
100
AcDbLine
 10
207.1496642473376
 20
1005.545385628211
 30
0.0
 11
235.1496642473376
 21
1005.545385628211
 31
0.0
  0
LWPOLYLINE
  5
1DA93
330
1E
100
AcDbEntity
  8
24
  6
CONTINOUS
100
AcDbPolyline
 90
        2
 70
     0
 43
0.001
 10
207.1496642473376
 20
1002.478820795728
 10
235.1496642473376
 20
1002.478820795728
  0
LWPOLYLINE
  5
1DA96
330
1E
100
AcDbEntity
  8
24
  6
CONTINOUS
100
AcDbPolyline
 90
        2
 70
     0
 43
0.001
 10
207.1496642473376
 20
1005.545385628211
 10
207.1496642473376
 20
1002.478820795728
  0
LINE
  5
1DA97
330
1E
100
AcDbEntity
  8
24
  6
CONTINOUS
100
AcDbLine
 10
225.1859630754375
 20
1005.545385628211
 30
0.0
 11
217.7134630754374
 21
1005.545385628211
 31
0.0
  0
LINE
  5
1DA98
330
1E
100
AcDbEntity
  8
24
  6
CONTINOUS
100
AcDbLine
 10
215.4666541180147
 20
1005.545385628211
 30
0.0
 11
215.4666541180147
 21
1002.478820795728
 31
0.0
  0
LINE
  5
1DA99
330
1E
100
AcDbEntity
  8
24
  6
CONTINOUS
100
AcDbLine
 10
227.1011752739803
 20
1005.545385628211
 30
0.0
 11
227.1011752739803
 21
1002.478820795728
 31
0.0
  0
LWPOLYLINE
  5
1DA9A
330
1E
100
AcDbEntity
  8
24
  6
CONTINOUS
100
AcDbPolyline
 90
        2
 70
     0
 43
0.001
 10
235.1496642473376
 20
1005.545385628211
 10
235.1496642473376
 20
1002.478820795728
  0
LINE
  5
1DA9B
330
1E
100
AcDbEntity
  8
17
100
AcDbLine
 10
131.2839146959975
 20
1014.912255963246
 30
0.0
 11
131.2839146959975
 21
940.5787963816287
 31
0.0
  0
LINE
  5
1DA9D
330
1E
100
AcDbEntity
  8
17
  6
DASHDOT
100
AcDbLine
 10
221.2839146959975
 20
1014.912255963246
 30
0.0
 11
221.2839146959975
 21
940.5787963816287
 31
0.0
  0
LINE
  5
1DA9E
330
1E
100
AcDbEntity
  8
17
100
AcDbLine
 10
221.2839146959975
 20
1014.912255963246
 30
0.0
 11
221.2839146959975
 21
940.5787963816287
 31
0.0
  0
LWPOLYLINE
  5
1DA9F
330
1E
100
AcDbEntity
  8
24
  6
CONTINOUS
100
AcDbPolyline
 90
        4
 70
     1
 43
0.0
 10
154.5996642473376
 20
1002.478820795728
 10
190.1496642473374
 20
1002.478820795728
 10
190.1496642473374
 20
994.4788207957286
 10
154.5996642473376
 20
994.4788207957286
  0
LWPOLYLINE
  5
1DAA0
330
1E
100
AcDbEntity
  8
24
  6
CONTINOUS
100
AcDbPolyline
 90
        4
 70
     1
 43
0.0
 10
207.1496642473373
 20
1002.478820795728
 10
250.1839541378727
 20
1002.478820795728
 10
250.1839541378727
 20
994.4788207957286
 10
207.1496642473373
 20
994.4788207957286
  0
LWPOLYLINE
  5
1DAA7
330
1E
100
AcDbEntity
  8
24
  6
Continuous
100
AcDbPolyline
 90
        6
 70
     0
 43
0.0
 10
145.1839555533724
 20
713.1093514247171
 10
130.2839530948728
 20
733.1093621537171
 10
130.2839530948728
 20
757.6093596502172
 10
102.2839556158727
 20
757.6093596502172
 10
102.2839556158727
 20
733.1093621537171
 10
117.3839562118728
 20
713.1093514247171
  0
LWPOLYLINE
  5
1DAA8
330
1E
100
AcDbEntity
  8
24
  6
Continuous
100
AcDbPolyline
 90
        4
 70
     0
 43
0.0
 10
190.1839545473726
 20
713.1093561932161
 10
190.1839545473726
 20
757.6093596502172
 10
162.3839552063728
 20
757.6093596502172
 10
162.3839552063728
 20
713.1093561932161
  0
LWPOLYLINE
  5
1DAA9
330
1E
100
AcDbEntity
  8
24
  6
Continuous
100
AcDbPolyline
 90
        6
 70
     0
 43
0.0
 10
235.1839535418726
 20
713.1093514247171
 10
250.2839541378727
 20
733.1093621537171
 10
250.2839541378727
 20
757.6093596502172
 10
222.2839566588726
 20
757.6093596502172
 10
222.2839566588726
 20
733.1093621537171
 10
207.3839542003725
 20
713.1093514247171
  0
CIRCLE
  5
1DAAA
330
1E
100
AcDbEntity
  8
24
  6
CONTINOUS
100
AcDbCircle
 10
176.2839548768725
 20
743.1093561932173
 30
0.0
 40
7.000000000000027
  0
CIRCLE
  5
1DAAB
330
1E
100
AcDbEntity
  8
24
  6
CONTINOUS
100
AcDbCircle
 10
116.2839548768725
 20
743.1093561932173
 30
0.0
 40
6.999999999999992
  0
CIRCLE
  5
1DAAC
330
1E
100
AcDbEntity
  8
24
  6
CONTINOUS
100
AcDbCircle
 10
236.2839548768725
 20
743.1093561932173
 30
0.0
 40
7.000000000000097
  0
INSERT
  5
1DAAD
330
1E
100
AcDbEntity
  8
17
100
AcDbBlockReference
  2
SW_CENTERMARKSYMBOL_9
 10
116.2839548768725
 20
743.1093561932173
 30
0.0
 41
5.0
 42
5.0
 43
5.0
  0
INSERT
  5
1DAAE
330
1E
100
AcDbEntity
  8
17
100
AcDbBlockReference
  2
SW_CENTERMARKSYMBOL_12
 10
236.2839548768725
 20
743.1093561932173
 30
0.0
 41
5.0
 42
5.0
 43
5.0
  0
INSERT
  5
1DAAF
330
1E
100
AcDbEntity
  8
17
100
AcDbBlockReference
  2
SW_CENTERMARKSYMBOL_12
 10
176.2839548768725
 20
743.1093561932173
 30
0.0
 41
5.0
 42
5.0
 43
5.0
  0
DIMENSION
  5
1DAB0
330
1E
100
AcDbEntity
  8
30
  6
Continuous
100
AcDbDimension
280
     0
  2
*D16
 10
77.74452432053192
 20
713.1093561932171
 30
0.0
 11
77.7445243205318
 21
724.4788679767029
 31
0.0
 70
   160
  1
<>
 71
     2
 42
30.0
 73
     0
 74
     0
 75
     0
  3
STANDARD
100
AcDbAlignedDimension
 13
104.2840325503726
 23
743.1093561932173
 33
0.0
 14
106.2839548768724
 24
713.1093561932171
 34
0.0
 50
90.0
100
AcDbRotatedDimension
1001
ACAD
1000
DSTYLE
1002
{
1070
    79
1070
     3
1002
}
  0
DIMENSION
  5
1DAB1
330
1E
100
AcDbEntity
  8
30
  6
Continuous
100
AcDbDimension
280
     0
  2
*D17
 10
63.48899519254735
 20
713.1093561932171
 30
0.0
 11
63.48899519254723
 21
732.2897321859122
 31
0.0
 70
   160
  1
<>
 71
     2
 42
44.5
 73
     0
 74
     0
 75
     0
  3
STANDARD
100
AcDbAlignedDimension
 13
99.88403255037258
 23
757.6093561932172
 33
0.0
 14
106.2839548768724
 24
713.1093561932171
 34
0.0
 50
90.0
100
AcDbRotatedDimension
1001
ACAD
1000
DSTYLE
1002
{
1070
    79
1070
     3
1002
}
  0
DIMENSION
  5
1DAB2
330
1E
100
AcDbEntity
  8
30
  6
Continuous
100
AcDbDimension
280
     0
  2
*D18
 10
77.74452432053194
 20
743.1093561932173
 30
0.0
 11
77.7445243205318
 21
773.2760263168836
 31
0.0
 70
   160
  1
<>
 71
     2
 42
14.50000345700004
 73
     0
 74
     0
 75
     0
  3
STANDARD
100
AcDbAlignedDimension
 13
102.2839556158727
 23
757.6093596502172
 33
0.0
 14
114.2839548768725
 24
743.1093561932173
 34
0.0
 50
90.0
100
AcDbRotatedDimension
  0
DIMENSION
  5
1DAB3
330
1E
100
AcDbEntity
  8
30
  6
Continuous
100
AcDbDimension
280
     0
  2
*D19
 10
250.2839541378727
 20
807.8018884788411
 30
0.0
 11
176.2839548768727
 21
814.801888478841
 31
0.0
 70
    32
 71
     5
 42
147.9999985219999
 73
     0
 74
     0
 75
     0
  3
STANDARD
100
AcDbAlignedDimension
 13
102.2839556158727
 23
757.6093596502172
 33
0.0
 14
250.2839541378727
 24
757.6093596502172
 34
0.0
100
AcDbRotatedDimension
1001
ACAD
1000
DSTYLE
1002
{
1070
    79
1070
     3
1002
}
  0
DIMENSION
  5
1DAB4
330
1E
100
AcDbEntity
  8
30
  6
Continuous
100
AcDbDimension
280
     0
  2
*D20
 10
236.2839548768725
 20
790.1566391739285
 30
0.0
 11
176.2839548768725
 21
797.1566391739285
 31
0.0
 70
    32
 71
     5
 42
120.0
 73
     0
 74
     0
 75
     0
  3
STANDARD
100
AcDbAlignedDimension
 13
116.2839548768725
 23
752.6093561932173
 33
0.0
 14
236.2839548768725
 24
752.6093561932173
 34
0.0
100
AcDbRotatedDimension
1001
ACAD
1000
DSTYLE
1002
{
1070
    79
1070
     3
1002
}
  0
DIMENSION
  5
1DAB5
330
1E
100
AcDbEntity
  8
30
  6
Continuous
100
AcDbDimension
280
     0
  2
*D21
 10
231.0381719955649
 20
738.4745140209115
 30
0.0
 11
258.3532293607131
 21
762.6083721464652
 31
0.0
 70
   163
 71
     5
 42
14.00000000000023
 73
     0
 74
     0
 75
     0
  3
STANDARD
100
AcDbDiametricDimension
 15
241.52973775818
 25
747.7441983655227
 35
0.0
 40
0.0
1001
ACAD
1000
DSTYLE
1002
{
1070
    79
1070
     3
1070
   288
1070
     1
1002
}
1001
ACAD_DSTYLE_DIMRADIAL_EXTENSION
1070
   387
1070
     1
1070
   388
1040
0.0
1070
   390
1040
0.0
  0
DIMENSION
  5
1DAB6
330
1E
100
AcDbEntity
  8
30
  6
Continuous
100
AcDbDimension
280
     0
  2
*D22
 10
130.2839530948728
 20
774.5367022675932
 30
0.0
 11
123.7826628909242
 21
774.5367022675932
 31
0.0
 70
   160
 71
     5
 42
27.99999747900006
 73
     0
 74
     0
 75
     0
  3
STANDARD
100
AcDbAlignedDimension
 13
102.2839556158727
 23
757.6093596502172
 33
0.0
 14
130.2839530948728
 24
757.6093596502172
 34
0.0
100
AcDbRotatedDimension
1001
ACAD
1000
DSTYLE
1002
{
1070
    74
1070
     0
1070
    79
1070
     3
1002
}
  0
LWPOLYLINE
  5
1DAB7
330
1E
100
AcDbEntity
  8
24
  6
Continuous
100
AcDbPolyline
 90
        6
 70
     0
 43
0.0
 10
145.1839555533724
 20
453.1093609617171
 10
130.2839530948728
 20
433.1093502327171
 10
130.2839530948728
 20
408.6093527362169
 10
102.2839556158727
 20
408.6093527362169
 10
102.2839556158727
 20
433.1093502327171
 10
117.3839562118728
 20
453.1093609617171
  0
LWPOLYLINE
  5
1DAB8
330
1E
100
AcDbEntity
  8
24
  6
Continuous
100
AcDbPolyline
 90
        4
 70
     0
 43
0.0
 10
190.1839545473726
 20
453.1093561932181
 10
190.1839545473726
 20
408.6093527362169
 10
162.3839552063728
 20
408.6093527362169
 10
162.3839552063728
 20
453.1093561932181
  0
LWPOLYLINE
  5
1DAB9
330
1E
100
AcDbEntity
  8
24
  6
Continuous
100
AcDbPolyline
 90
        6
 70
     0
 43
0.0
 10
235.1839535418726
 20
453.1093609617171
 10
250.2839541378727
 20
433.1093502327171
 10
250.2839541378727
 20
408.6093527362169
 10
222.2839566588726
 20
408.6093527362169
 10
222.2839566588726
 20
433.1093502327171
 10
207.3839542003725
 20
453.1093609617171
  0
CIRCLE
  5
1DABA
330
1E
100
AcDbEntity
  8
24
  6
CONTINOUS
100
AcDbCircle
 10
176.2839548768725
 20
423.109356193217
 30
0.0
 40
7.000000000000027
  0
CIRCLE
  5
1DABB
330
1E
100
AcDbEntity
  8
24
  6
CONTINOUS
100
AcDbCircle
 10
116.2839548768725
 20
423.109356193217
 30
0.0
 40
6.999999999999992
  0
CIRCLE
  5
1DABC
330
1E
100
AcDbEntity
  8
24
  6
CONTINOUS
100
AcDbCircle
 10
236.2839548768725
 20
423.109356193217
 30
0.0
 40
7.000000000000097
  0
INSERT
  5
1DABD
330
1E
100
AcDbEntity
  8
17
100
AcDbBlockReference
  2
SW_CENTERMARKSYMBOL_9
 10
116.2839548768725
 20
423.109356193217
 30
0.0
 41
-5.0
 42
5.0
 43
5.0
 50
180.0
  0
INSERT
  5
1DABE
330
1E
100
AcDbEntity
  8
17
100
AcDbBlockReference
  2
SW_CENTERMARKSYMBOL_12
 10
236.2839548768725
 20
423.109356193217
 30
0.0
 41
-5.0
 42
5.0
 43
5.0
 50
180.0
  0
INSERT
  5
1DABF
330
1E
100
AcDbEntity
  8
17
100
AcDbBlockReference
  2
SW_CENTERMARKSYMBOL_12
 10
176.2839548768725
 20
423.109356193217
 30
0.0
 41
-5.0
 42
5.0
 43
5.0
 50
180.0
  0
LINE
  5
1DAC0
330
1E
100
AcDbEntity
  8
16
100
AcDbLine
 10
562.6000236711997
 20
58.79368061070625
 30
0.0
 11
562.6000236711997
 21
333.6493189803678
 31
0.0
  0
LWPOLYLINE
  5
1DAC1
330
1E
100
AcDbEntity
  8
18
  6
DIVIDE
100
AcDbPolyline
 90
        4
 70
     1
 43
0.0
 10
632.3287319356998
 20
66.39917358282911
 10
632.3287319356998
 20
326.3991735828296
 10
492.6000236711997
 20
326.3991735828296
 10
492.6000236711997
 20
66.39917358282911
  0
LWPOLYLINE
  5
1DAC2
330
1E
100
AcDbEntity
  8
11
 48
2.0
100
AcDbPolyline
 90
        8
 70
     1
 43
0.0
 10
587.1000236711997
 20
150.3991735828291
 42
0.4142135623730951
 10
589.1000236711997
 20
152.3991735828291
 10
589.1000236711997
 20
240.3991735828293
 42
0.4142135623730951
 10
587.1000236711997
 20
242.3991735828293
 10
538.1000236711997
 20
242.3991735828293
 42
0.4142135623730951
 10
536.1000236711998
 20
240.3991735828293
 10
536.1000236711998
 20
152.3991735828291
 42
0.4142135623730951
 10
538.1000236711997
 20
150.3991735828291
  0
DIMENSION
  5
1DAC3
330
1E
100
AcDbEntity
  8
30
  6
Continuous
100
AcDbDimension
280
     0
  2
*D23
 10
589.1000236711997
 20
36.10774968441956
 30
0.0
 11
562.6000236711997
 21
36.10774968441956
 31
0.0
 70
   160
 71
     5
 42
53.0
 73
     0
 74
     0
 75
     0
  3
STANDARD
100
AcDbAlignedDimension
 13
536.1000236711998
 23
149.0183697844592
 33
0.0
 14
589.1000236711997
 24
149.0183697844592
 34
0.0
100
AcDbRotatedDimension
1001
ACAD
1000
DSTYLE
1002
{
1070
    79
1070
     3
1002
}
  0
DIMENSION
  5
1DAC4
330
1E
100
AcDbEntity
  8
30
  6
Continuous
100
AcDbDimension
280
     0
  2
*D24
 10
668.9926431629682
 20
150.3991735828291
 30
0.0
 11
668.9926431629682
 21
196.3991735828293
 31
0.0
 70
   160
 71
     5
 42
92.00000000000015
 73
     0
 74
     0
 75
     0
  3
STANDARD
100
AcDbAlignedDimension
 13
589.1420062842978
 23
242.3991735828293
 33
0.0
 14
589.1420062842978
 24
150.3991735828291
 34
0.0
 50
90.0
100
AcDbRotatedDimension
1001
ACAD
1000
DSTYLE
1002
{
1070
    79
1070
     3
1002
}
  0
DIMENSION
  5
1DAC5
330
1E
100
AcDbEntity
  8
30
  6
Continuous
100
AcDbDimension
280
     0
  2
*D25
 10
587.1637286854775
 20
240.1843508433938
 30
0.0
 11
613.9067563746062
 21
266.5573458966604
 31
0.0
 70
   164
 71
     5
 42
2.000000000179396
 73
     0
 74
     0
 75
     0
  3
STANDARD1
100
AcDbRadialDimension
 15
588.3877710042376
 25
241.766033618985
 35
0.0
 40
0.0
1001
ACAD
1000
DSTYLE
1002
{
1070
   140
1040
4.0
1002
}
  0
MTEXT
  5
1DAC6
330
1E
100
AcDbEntity
  8
19
100
AcDbMText
 10
306.74702941793
 20
30.96029875989382
 30
0.0
 40
10.0
 41
0.0
 46
0.0
 71
     1
 72
     1
  1
[Cutout A]
  7
SLDTEXTSTYLE0
 73
     1
 44
1.0
  0
MTEXT
  5
1DAC7
330
1E
100
AcDbEntity
  8
19
100
AcDbMText
 10
534.1924273547765
 20
30.43840674084879
 30
0.0
 40
10.0
 41
0.0
 46
0.0
 71
     1
 72
     1
  1
[Cutout B]
  7
SLDTEXTSTYLE0
 73
     1
 44
1.0
  0
LINE
  5
1DAC8
330
1E
100
AcDbEntity
  8
16
100
AcDbLine
 10
657.0931416600688
 20
196.3991735828291
 30
0.0
 11
484.1783498063941
 21
196.3991735828291
 31
0.0
  0
LINE
  5
1DAC9
330
1E
100
AcDbEntity
  8
16
100
AcDbLine
 10
581.1096241500231
 20
583.1093561932171
 30
0.0
 11
440.912072196822
 21
583.1093561932171
 31
0.0
  0
LINE
  5
1DACA
330
1E
100
AcDbEntity
  8
10
  6
CONTINOUS
100
AcDbLine
 10
454.3286712610711
 20
603.058911590217
 30
0.0
 11
468.4399368010713
 21
599.0880613312167
 31
0.0
  0
LINE
  5
1DACB
330
1E
100
AcDbEntity
  8
10
  6
CONTINOUS
100
AcDbLine
 10
457.4345053875709
 20
614.6500219687169
 30
0.0
 11
454.3286712610711
 21
603.058911590217
 31
0.0
  0
LINE
  5
1DACC
330
1E
100
AcDbEntity
  8
10
  6
CONTINOUS
100
AcDbLine
 10
471.5916331840713
 20
611.0330097442169
 30
0.0
 11
457.4345053875709
 21
614.6500219687169
 31
0.0
  0
LINE
  5
1DACD
330
1E
100
AcDbEntity
  8
10
  6
CONTINOUS
100
AcDbLine
 10
478.0269117795708
 20
611.0958379787168
 30
0.0
 11
471.6406317200712
 21
611.0332493767169
 31
0.0
  0
LINE
  5
1DACE
330
1E
100
AcDbEntity
  8
10
  6
CONTINOUS
100
AcDbLine
 10
482.8402103625708
 20
609.3954962772169
 30
0.0
 11
478.0269096211411
 21
611.0958386656445
 31
0.0
  0
LINE
  5
1DACF
330
1E
100
AcDbEntity
  8
10
  6
CONTINOUS
100
AcDbLine
 10
478.9579214300711
 20
594.9066092357168
 30
0.0
 11
482.8402103625708
 21
609.3954962772169
 31
0.0
  0
LINE
  5
1DAD0
330
1E
100
AcDbEntity
  8
10
  6
CONTINOUS
100
AcDbLine
 10
473.939312605933
 20
595.8407189242002
 30
0.0
 11
478.9579214300711
 21
594.9066092357168
 31
0.0
  0
LINE
  5
1DAD1
330
1E
100
AcDbEntity
  8
10
  6
CONTINOUS
100
AcDbLine
 10
468.4399368010713
 20
599.0880613312167
 30
0.0
 11
473.9393146480709
 21
595.8407192587169
 31
0.0
  0
ARC
  5
1DAD2
330
1E
100
AcDbEntity
  8
10
  6
CONTINOUS
100
AcDbCircle
 10
531.9395891927479
 20
783.1384890755838
 30
0.0
 40
181.6640122735105
100
AcDbArc
 50
252.8048349791452
 51
255.6260127289952
  0
ARC
  5
1DAD3
330
1E
100
AcDbEntity
  8
10
  6
CONTINOUS
100
AcDbCircle
 10
473.6978106053197
 20
549.2970733727812
 30
0.0
 40
46.90130289725614
100
AcDbArc
 50
73.72541341298525
 51
83.24228441301242
  0
LINE
  5
1DAD4
330
1E
100
AcDbEntity
  8
0
  6
SLD-実線
 62
     7
370
    30
100
AcDbLine
 10
501.8194990005713
 20
491.1462363882168
 30
0.0
 11
501.8194766485708
 21
491.1462587402168
 31
0.0
  0
LINE
  5
1DAD5
330
1E
100
AcDbEntity
  8
0
  6
SLD-実線
 62
     7
370
    30
100
AcDbLine
 10
494.8414789285711
 20
539.1408276842168
 30
0.0
 11
494.8414789285711
 21
627.0778847022169
 31
0.0
  0
LINE
  5
1DAD6
330
1E
100
AcDbEntity
  8
0
  6
SLD-実線
 62
     7
370
    30
100
AcDbLine
 10
504.8414768420711
 20
464.2821622177168
 30
0.0
 11
504.8414768420711
 21
486.0133824032168
 31
0.0
  0
LINE
  5
1DAD7
330
1E
100
AcDbEntity
  8
0
  6
SLD-実線
 62
     7
370
    30
100
AcDbLine
 10
504.8414768420711
 20
454.6951425357169
 30
0.0
 11
504.8414768420711
 21
462.523571877217
 31
0.0
  0
LWPOLYLINE
  5
1DAD8
330
1E
100
AcDbEntity
  8
10
  6
CONTINOUS
100
AcDbPolyline
 90
       17
 70
     0
 43
0.0
 10
501.8194732281967
 20
491.1462553895573
 42
-0.2548527937776183
 10
498.8414797030708
 20
496.6093561932168
 10
498.8414788001698
 20
538.1093561932171
 10
487.8476346056599
 20
538.1093561932171
 42
-0.4098794420300011
 10
486.8414768420711
 20
539.1093561932168
 10
486.8414768420711
 20
627.1093561932172
 42
-0.4142135623730951
 10
487.8414768420711
 20
628.1093561932172
 10
498.8414768420711
 20
628.1093561932172
 10
498.8414797030708
 20
669.6093561932172
 42
-0.2520627036336429
 10
501.762378132686
 20
675.0352231238438
 10
504.8414768420711
 20
675.0674678453917
 10
504.8414768420711
 20
713.1093561932173
 10
601.8414768420711
 20
713.1093561932173
 10
601.8414768420711
 20
453.1093561932173
 10
504.8414768420711
 20
453.1093561932173
 10
504.8414768420711
 20
491.1093560142168
 10
501.8277691445714
 20
491.1409166737168
  0
LINE
  5
1DAD9
330
1E
100
AcDbEntity
  8
0
  6
SLD-実線
 62
     7
370
    30
100
AcDbLine
 10
501.8277691445714
 20
491.1409166737168
 30
0.0
 11
501.8277020895712
 21
491.1409613772169
 31
0.0
  0
LINE
  5
1DADA
330
1E
100
AcDbEntity
  8
10
  6
CONTINOUS
100
AcDbLine
 10
478.234722925571
 20
609.5942564012167
 30
0.0
 11
474.8700753390711
 21
597.037220659217
 31
0.0
  0
LINE
  5
1DADB
330
1E
100
AcDbEntity
  8
10
  6
CONTINOUS
100
AcDbLine
 10
474.8700753390711
 20
597.037220659217
 30
0.0
 11
479.2167415570711
 21
595.872534956217
 31
0.0
  0
LINE
  5
1DADC
330
1E
100
AcDbEntity
  8
10
  6
CONTINOUS
100
AcDbLine
 10
504.8414797030712
 20
482.9186988942168
 30
0.0
 11
519.8414797030713
 21
482.9186988942168
 31
0.0
  0
LINE
  5
1DADD
330
1E
100
AcDbEntity
  8
10
  6
CONTINOUS
100
AcDbLine
 10
504.8414797030712
 20
469.3000134922169
 30
0.0
 11
519.8414797030713
 21
469.3000134922169
 31
0.0
  0
LINE
  5
1DADE
330
1E
100
AcDbEntity
  8
240
  6
SLD-破線
370
     0
100
AcDbLine
 10
519.8414797030713
 20
482.9186988942168
 30
0.0
 11
519.8414797030713
 21
469.3000134922169
 31
0.0
  0
LINE
  5
1DADF
330
1E
100
AcDbEntity
  8
10
  6
CONTINOUS
100
AcDbLine
 10
519.8414797030713
 20
469.3000134922169
 30
0.0
 11
519.8414797030713
 21
482.9186988942168
 31
0.0
  0
DIMENSION
  5
1DAE0
330
1E
100
AcDbEntity
  8
30
  6
Continuous
100
AcDbDimension
280
     0
  2
*D26
 10
601.8414797030714
 20
355.5338581779357
 30
0.0
 11
536.8414797030713
 21
355.5338581779357
 31
0.0
 70
   160
  1
<>
 71
     2
 42
130.0
 73
     0
 74
     0
 75
     0
  3
STANDARD
100
AcDbAlignedDimension
 13
471.8414797030712
 23
583.5166654762169
 33
0.0
 14
601.8414797030714
 24
464.2376198117168
 34
0.0
100
AcDbRotatedDimension
1001
ACAD
1000
DSTYLE
1002
{
1070
    79
1070
     3
1002
}
  0
DIMENSION
  5
1DAE1
330
1E
100
AcDbEntity
  8
30
  6
Continuous
100
AcDbDimension
280
     0
  2
*D27
 10
616.5414797030712
 20
402.1457086702167
 30
0.0
 11
632.2081463697379
 21
402.1457086702167
 31
0.0
 70
   160
  1
<>
 71
     2
 42
14.70000286100003
 73
     0
 74
     0
 75
     0
  3
STANDARD
100
AcDbAlignedDimension
 13
601.8414768420711
 23
453.1093561932173
 33
0.0
 14
616.5414797030712
 24
472.9107108987169
 34
0.0
100
AcDbRotatedDimension
1001
ACAD
1000
DSTYLE
1002
{
1070
    79
1070
     3
1002
}
  0
DIMENSION
  5
1DAE2
330
1E
100
AcDbEntity
  8
30
  6
Continuous
100
AcDbDimension
280
     0
  2
*D28
 10
601.8414768420711
 20
372.0091475350441
 30
0.0
 11
546.3414797030709
 21
372.0091475350441
 31
0.0
 70
   160
  1
<>
 71
     2
 42
106.9999979135001
 73
     0
 74
     0
 75
     0
  3
STANDARD
100
AcDbAlignedDimension
 13
494.8414789285711
 23
539.1408276842168
 33
0.0
 14
601.8414768420711
 24
453.1093561932173
 34
0.0
100
AcDbRotatedDimension
1001
ACAD
1000
DSTYLE
1002
{
1070
    79
1070
     3
1002
}
  0
DIMENSION
  5
1DAE3
330
1E
100
AcDbEntity
  8
30
  6
Continuous
100
AcDbDimension
280
     0
  2
*D29
 10
601.8414768420711
 20
386.0875703181619
 30
0.0
 11
549.3414797030713
 21
386.0875703181619
 31
0.0
 70
   160
  1
<>
 71
     2
 42
96.99999713899984
 73
     0
 74
     0
 75
     0
  3
STANDARD
100
AcDbAlignedDimension
 13
504.8414797030712
 23
454.6951426307169
 33
0.0
 14
601.8414768420711
 24
453.1093561932173
 34
0.0
100
AcDbRotatedDimension
1001
ACAD
1000
DSTYLE
1002
{
1070
    79
1070
     3
1002
}
  0
LINE
  5
1DAE4
330
1E
100
AcDbEntity
  8
16
100
AcDbLine
 10
629.851094748908
 20
583.1093561932171
 30
0.0
 11
446.0701004578011
 21
583.1093561932171
 31
0.0
  0
LINE
  5
1DAE5
330
1E
100
AcDbEntity
  8
10
  6
CONTINOUS
100
AcDbLine
 10
494.8414768420711
 20
628.1093561932172
 30
0.0
 11
494.8414768420711
 21
538.1093561932171
 31
0.0
  0
LINE
  5
1DAE6
330
1E
100
AcDbEntity
  8
10
  6
CONTINOUS
100
AcDbLine
 10
498.8414768420711
 20
628.1093561932172
 30
0.0
 11
498.8414788001698
 21
538.1093561932171
 31
0.0
  0
LINE
  5
1DAE7
330
1E
100
AcDbEntity
  8
12
  6
DASHED
100
AcDbLine
 10
516.5414768420704
 20
473.8593561932173
 30
0.0
 11
601.8414768420711
 21
473.8593561932173
 31
0.0
  0
LINE
  5
1DAE8
330
1E
100
AcDbEntity
  8
12
  6
DASHED
100
AcDbLine
 10
516.5414768420704
 20
478.3593561932175
 30
0.0
 11
601.8414768420711
 21
478.3593561932175
 31
0.0
  0
LINE
  5
1DAE9
330
1E
100
AcDbEntity
  8
12
  6
DASHED
100
AcDbLine
 10
500.8414768420711
 20
476.1093561932175
 30
0.0
 11
625.8414768420712
 21
476.1093561932175
 31
0.0
  0
LINE
  5
1DAEA
330
1E
100
AcDbEntity
  8
12
  6
DASHED
100
AcDbLine
 10
504.8414768420711
 20
471.8593561932173
 30
0.0
 11
516.5414768420704
 21
471.8593561932173
 31
0.0
  0
LINE
  5
1DAEB
330
1E
100
AcDbEntity
  8
12
  6
DASHED
100
AcDbLine
 10
504.8414768420711
 20
480.3593561932173
 30
0.0
 11
516.5414768420704
 21
480.3593561932173
 31
0.0
  0
LINE
  5
1DAED
330
1E
100
AcDbEntity
  8
12
  6
DASHED
100
AcDbLine
 10
510.5414768420703
 20
480.3593561932173
 30
0.0
 11
510.5414768420703
 21
471.8593561932173
 31
0.0
  0
LINE
  5
1DAEE
330
1E
100
AcDbEntity
  8
12
  6
DASHED
100
AcDbLine
 10
516.5414768420704
 20
480.3593561932173
 30
0.0
 11
516.5414768420704
 21
471.8593561932173
 31
0.0
  0
LINE
  5
1DAEF
330
1E
100
AcDbEntity
  8
12
  6
DASHED
100
AcDbLine
 10
516.5414768420704
 20
473.8593561932173
 30
0.0
 11
516.5414768420704
 21
471.8593561932173
 31
0.0
  0
LINE
  5
1DAF0
330
1E
100
AcDbEntity
  8
12
  6
DASHED
100
AcDbLine
 10
516.5414768420704
 20
480.3593561932173
 30
0.0
 11
516.5414768420704
 21
478.3593561932175
 31
0.0
  0
LINE
  5
1DAF1
330
1E
100
AcDbEntity
  8
12
  6
DASHED
100
AcDbLine
 10
601.8414768420711
 20
473.8593561932173
 30
0.0
 11
616.541476842071
 21
473.8593561932173
 31
0.0
  0
LINE
  5
1DAF2
330
1E
100
AcDbEntity
  8
12
  6
DASHED
100
AcDbLine
 10
601.8414768420711
 20
478.3593561932175
 30
0.0
 11
616.541476842071
 21
478.3593561932175
 31
0.0
  0
LINE
  5
1DAF3
330
1E
100
AcDbEntity
  8
10
  6
Continuous
100
AcDbLine
 10
616.541476842071
 20
478.3593561932175
 30
0.0
 11
616.541476842071
 21
473.8593561932173
 31
0.0
  0
DIMENSION
  5
1DAF4
330
1E
100
AcDbEntity
  8
30
  6
Continuous
100
AcDbDimension
280
     0
  2
*D30
 10
430.8910434229183
 20
538.1093561932171
 30
0.0
 11
430.8910434229183
 21
583.1093561932171
 31
0.0
 70
   160
 71
     5
 42
90.00000000000012
 73
     0
 74
     0
 75
     0
  3
STANDARD
100
AcDbAlignedDimension
 13
484.7700523499843
 23
628.1093561932172
 33
0.0
 14
482.8989514073
 24
538.1093561932171
 34
0.0
 50
90.0
100
AcDbRotatedDimension
1001
ACAD
1000
DSTYLE
1002
{
1070
    79
1070
     3
1002
}
  0
LINE
  5
1DAF5
330
1E
100
AcDbEntity
  8
17
100
AcDbLine
 10
544.8414768420711
 20
743.1093561932173
 30
0.0
 11
572.8414768420711
 21
743.1093561932173
 31
0.0
  0
LWPOLYLINE
  5
1DAF6
330
1E
100
AcDbEntity
  8
24
  6
Continuous
100
AcDbPolyline
 90
        4
 70
     0
 43
0.0
 10
565.8414768420711
 20
713.1093561932173
 10
565.8414768420711
 20
757.6093561932172
 10
553.8414768420712
 20
757.6093561932172
 10
553.8414768420712
 20
713.1093561932173
  0
DIMENSION
  5
1DAF7
330
1E
100
AcDbEntity
  8
30
  6
Continuous
100
AcDbDimension
280
     0
  2
*D31
 10
565.8414768420711
 20
775.7157766283413
 30
0.0
 11
583.8414768420712
 21
782.7157766283415
 31
0.0
 70
    32
 71
     5
 42
36.0
 73
     0
 74
     0
 75
     0
  3
STANDARD
100
AcDbAlignedDimension
 13
601.8414768420711
 23
713.1093561932173
 33
0.0
 14
565.8414768420711
 24
757.6093561932172
 34
0.0
100
AcDbRotatedDimension
  0
DIMENSION
  5
1DAF8
330
1E
100
AcDbEntity
  8
30
  6
Continuous
100
AcDbDimension
280
     0
  2
*D32
 10
553.8414768420712
 20
775.7157766283413
 30
0.0
 11
543.5081435087377
 21
782.7157766283415
 31
0.0
 70
    32
 71
     5
 42
12.0
 73
     0
 74
     0
 75
     0
  3
STANDARD
100
AcDbAlignedDimension
 13
565.8414768420711
 23
757.6093561932172
 33
0.0
 14
553.8414768420712
 24
757.6093561932172
 34
0.0
100
AcDbRotatedDimension
  0
LINE
  5
1DAF9
330
1E
100
AcDbEntity
  8
17
100
AcDbLine
 10
545.8414768420712
 20
423.109356193217
 30
0.0
 11
573.8414768420711
 21
423.109356193217
 31
0.0
  0
LWPOLYLINE
  5
1DAFA
330
1E
100
AcDbEntity
  8
24
  6
CONTINOUS
100
AcDbPolyline
 90
        4
 70
     0
 43
0.0
 10
566.8414768420712
 20
453.1093561932171
 10
566.8414768420712
 20
408.609356193217
 10
554.8414768420712
 20
408.609356193217
 10
554.8414768420712
 20
453.1093561932171
  0
DIMENSION
  5
1DAFB
330
1E
100
AcDbEntity
  8
30
  6
Continuous
100
AcDbDimension
280
     0
  2
*D33
 10
566.8414768420712
 20
401.9790416702167
 30
0.0
 11
584.3414782725712
 21
408.9790416702165
 31
0.0
 70
    32
 71
     5
 42
35.00000286100021
 73
     0
 74
     0
 75
     0
  3
STANDARD
100
AcDbAlignedDimension
 13
601.8414797030714
 23
453.1093561932173
 33
0.0
 14
566.8414768420712
 24
408.609356193217
 34
0.0
100
AcDbRotatedDimension
1001
ACAD
1000
DSTYLE
1002
{
1070
    79
1070
     3
1002
}
  0
DIMENSION
  5
1DAFC
330
1E
100
AcDbEntity
  8
30
  6
Continuous
100
AcDbDimension
280
     0
  2
*D34
 10
554.8414768420712
 20
401.9790416702167
 30
0.0
 11
544.5081435087378
 21
408.9790416702165
 31
0.0
 70
    32
 71
     5
 42
12.0
 73
     0
 74
     0
 75
     0
  3
STANDARD
100
AcDbAlignedDimension
 13
566.8414768420712
 23
408.609356193217
 33
0.0
 14
554.8414768420712
 24
408.609356193217
 34
0.0
100
AcDbRotatedDimension
1001
ACAD
1000
DSTYLE
1002
{
1070
    79
1070
     3
1002
}
  0
ARC
  5
1DAFD
330
1E
100
AcDbEntity
  8
30
370
     0
100
AcDbCircle
 10
532.9176156900716
 20
580.1511590087172
 30
0.0
 40
82.1446793917693
100
AcDbArc
 50
159.8121802381015
 51
177.6592180929981
  0
DIMENSION
  5
1DAFE
330
1E
100
AcDbEntity
  8
30
  6
Continuous
100
AcDbDimension
280
     0
  2
*D35
 10
601.8414768420711
 20
338.8953820997945
 30
0.0
 11
526.3414797030714
 21
338.8953820997945
 31
0.0
 70
   160
 71
     2
 42
150.9999971389998
 73
     0
 74
     0
 75
     0
  3
STANDARD
100
AcDbAlignedDimension
 13
450.8414797030712
 23
583.5055815537129
 33
0.0
 14
601.8414768420711
 24
453.1093561932173
 34
0.0
100
AcDbRotatedDimension
1001
ACAD
1000
DSTYLE
1002
{
1070
    79
1070
     3
1002
}
  0
DIMENSION
  5
1DAFF
330
1E
100
AcDbEntity
  8
30
  6
Continuous
100
AcDbDimension
280
     0
  2
*D36
 10
486.8414768420711
 20
372.0091478827948
 30
0.0
 11
477.1748101754043
 21
379.0091478827948
 31
0.0
 70
    33
 71
     5
 42
8.0
 73
     0
 74
     0
 75
     0
  3
STANDARD
100
AcDbAlignedDimension
 13
494.8414768420711
 23
538.1093561932171
 33
0.0
 14
486.8414768420711
 24
538.1093561932171
 34
0.0
1001
ACAD
1000
DSTYLE
1002
{
1070
    79
1070
     3
1002
}
  0
DIMENSION
  5
1DE79
330
1E
100
AcDbEntity
  8
30
100
AcDbDimension
280
     0
  2
*D37
 10
569.1598456858654
 20
808.6513276459882
 30
0.0
 11
590.1598456858654
 21
822.3179943126549
 31
0.0
 70
    32
  1
<>\P(MAX)
 71
     5
 42
31.99999999999955
 73
     0
 74
     0
 75
     0
  3
STANDARD
100
AcDbAlignedDimension
 13
537.1598456858658
 23
842.8358036458773
 33
0.0
 14
569.1598456858654
 24
842.8358036458773
 34
0.0
100
AcDbRotatedDimension
  0
ELLIPSE
  5
1DF0B
330
1E
100
AcDbEntity
  8
10
  6
Continuous
100
AcDbEllipse
 10
142.6640377283723
 20
712.1204620472171
 30
0.0
 11
0.9502067146544844
 21
-0.3164782046945192
 31
0.0
210
0.0
220
0.0
230
1.0
 40
0.9984778550999999
 41
1.892760065825351
 42
3.462643004113758
  0
ELLIPSE
  5
1DF0C
330
1E
100
AcDbEntity
  8
10
  6
Continuous
100
AcDbEllipse
 10
187.6640377283723
 20
712.1204620472171
 30
0.0
 11
0.9502067146544844
 21
-0.3164782046945192
 31
0.0
210
0.0
220
0.0
230
1.0
 40
0.9984778550999999
 41
1.892760065825479
 42
3.462643004113771
  0
ELLIPSE
  5
1DF0D
330
1E
100
AcDbEntity
  8
10
  6
Continuous
100
AcDbEllipse
 10
164.6612930363725
 20
712.1204620472171
 30
0.0
 11
-0.9502067146544844
 21
-0.316478204694448
 31
0.0
210
0.0
220
0.0
230
1.0
 40
0.9984778551000005
 41
2.820542303065916
 42
4.39042524135431
  0
ELLIPSE
  5
1DF0E
330
1E
100
AcDbEntity
  8
10
  6
Continuous
100
AcDbEllipse
 10
119.6612930363725
 20
712.1204620472171
 30
0.0
 11
-0.9502067146544844
 21
-0.316478204694448
 31
0.0
210
0.0
220
0.0
230
1.0
 40
0.9984778551000005
 41
2.820542303065916
 42
4.39042524135431
  0
LINE
  5
1DF0F
330
1E
100
AcDbEntity
  8
10
  6
Continuous
100
AcDbLine
 10
165.6626655238725
 20
687.6093573257171
 30
0.0
 11
165.6626653823661
 21
712.1213755747445
 31
0.0
  0
LINE
  5
1DF10
330
1E
100
AcDbEntity
  8
10
  6
Continuous
100
AcDbLine
 10
186.6626653823787
 20
712.1213755747445
 30
0.0
 11
186.6626652408725
 21
687.6093573257171
 31
0.0
  0
ARC
  5
1DF11
330
1E
100
AcDbEntity
  8
10
  6
Continuous
100
AcDbCircle
 10
185.6626652408725
 20
687.6093573257171
 30
0.0
 40
1.0
100
AcDbArc
 50
270.0
 51
0.0
  0
LINE
  5
1DF12
330
1E
100
AcDbEntity
  8
10
  6
Continuous
100
AcDbLine
 10
141.6626653823787
 20
712.1213755747446
 30
0.0
 11
141.6626662468724
 21
687.6093573257171
 31
0.0
  0
ARC
  5
1DF13
330
1E
100
AcDbEntity
  8
0
  6
SLD-実線
 62
     7
370
    30
100
AcDbCircle
 10
140.6626653823724
 20
687.6093561932172
 30
0.0
 40
1.000000000000011
100
AcDbArc
 50
270.0
 51
0.0
  0
LINE
  5
1DF14
330
1E
100
AcDbEntity
  8
10
  6
Continuous
100
AcDbLine
 10
185.6626652408725
 20
686.6093573257172
 30
0.0
 11
166.6626655238725
 21
686.6093573257172
 31
0.0
  0
ARC
  5
1DF15
330
1E
100
AcDbEntity
  8
10
  6
Continuous
100
AcDbCircle
 10
166.6626655238725
 20
687.6093573257171
 30
0.0
 40
1.0
100
AcDbArc
 50
180.0
 51
270.0
  0
LINE
  5
1DF16
330
1E
100
AcDbEntity
  8
10
  6
Continuous
100
AcDbLine
 10
140.6626662468724
 20
686.6093573257172
 30
0.0
 11
121.6626646673724
 21
686.6093573257172
 31
0.0
  0
ARC
  5
1DF17
330
1E
100
AcDbEntity
  8
10
  6
Continuous
100
AcDbCircle
 10
121.6626646673724
 20
687.6093573257171
 30
0.0
 40
1.0
100
AcDbArc
 50
180.0
 51
270.0
  0
ARC
  5
1DF18
330
1E
100
AcDbEntity
  8
10
  6
Continuous
100
AcDbCircle
 10
140.6626662468724
 20
687.6093573257171
 30
0.0
 40
1.0
100
AcDbArc
 50
270.0
 51
0.0
  0
LINE
  5
1DF19
330
1E
100
AcDbEntity
  8
10
  6
Continuous
100
AcDbLine
 10
120.6626646673724
 20
687.6093573257171
 30
0.0
 11
120.6626653823661
 21
712.1213755747445
 31
0.0
  0
LINE
  5
1DF1A
330
1E
100
AcDbEntity
  8
10
  6
Continuous
100
AcDbLine
 10
209.6622076782501
 20
713.1206143752215
 30
0.0
 11
187.6631226843725
 21
713.1206082387172
 31
0.0
  0
LINE
  5
1DF1B
330
1E
100
AcDbEntity
  8
10
  6
Continuous
100
AcDbLine
 10
164.6622080808723
 20
713.1206082387172
 30
0.0
 11
142.6631227588724
 21
713.1206082387172
 31
0.0
  0
LINE
  5
1DF1D
330
1E
100
AcDbEntity
  8
10
  6
Continuous
100
AcDbLine
 10
119.6622081553727
 20
713.1206082387172
 30
0.0
 11
106.2839548768726
 21
713.1093561932173
 31
0.0
  0
LINE
  5
1DF1E
330
1E
100
AcDbEntity
  8
24
  6
CONTINOUS
100
AcDbLine
 10
122.2839548768726
 20
697.1093561932173
 30
0.0
 11
140.2839548768726
 21
697.1093561932173
 31
0.0
  0
LINE
  5
1DF1F
330
1E
100
AcDbEntity
  8
10
  6
Continuous
100
AcDbLine
 10
106.2839548768726
 20
675.6377805290327
 30
0.0
 11
246.0126631413728
 21
675.6377805290327
 31
0.0
  0
LINE
  5
1DF20
330
1E
100
AcDbEntity
  8
24
  6
CONTINOUS
100
AcDbLine
 10
131.2839548768726
 20
706.1093561932173
 30
0.0
 11
131.2839548768726
 21
688.1093561932173
 31
0.0
  0
LINE
  5
1DF21
330
1E
100
AcDbEntity
  8
12
  6
DASHDOT
100
AcDbLine
 10
161.7839548768726
 20
690.1093561932173
 30
0.0
 11
145.7839548768726
 21
690.1093561932173
 31
0.0
  0
LINE
  5
1DF22
330
1E
100
AcDbEntity
  8
12
  6
DASHDOT
100
AcDbLine
 10
153.7839548768726
 20
682.1093561932173
 30
0.0
 11
153.7839548768726
 21
698.1093561932173
 31
0.0
  0
CIRCLE
  5
1DF23
330
1E
100
AcDbEntity
  8
12
100
AcDbCircle
 10
153.7839548768726
 20
690.1093561932173
 30
0.0
 40
4.0
  0
LINE
  5
1DF24
330
1E
100
AcDbEntity
  8
24
  6
CONTINOUS
100
AcDbLine
 10
176.2839548768725
 20
706.1093561932173
 30
0.0
 11
176.2839548768725
 21
688.1093561932173
 31
0.0
  0
LINE
  5
1DF25
330
1E
100
AcDbEntity
  8
24
  6
CONTINOUS
100
AcDbLine
 10
167.2839548768726
 20
697.1093561932173
 30
0.0
 11
185.2839548768726
 21
697.1093561932173
 31
0.0
  0
LINE
  5
1DF26
330
1E
100
AcDbEntity
  8
12
  6
DASHED
100
AcDbLine
 10
206.9839548768726
 20
690.1093561932173
 30
0.0
 11
190.9839548768726
 21
690.1093561932173
 31
0.0
  0
CIRCLE
  5
1DF27
330
1E
100
AcDbEntity
  8
24
  6
CONTINOUS
100
AcDbCircle
 10
131.2839548768726
 20
697.1093561932173
 30
0.0
 40
4.618802153517049
  0
CIRCLE
  5
1DF28
330
1E
100
AcDbEntity
  8
24
  6
CONTINOUS
100
AcDbCircle
 10
176.2839548768725
 20
697.1093561932173
 30
0.0
 40
4.618802153517049
  0
ELLIPSE
  5
1DF29
330
1E
100
AcDbEntity
  8
10
  6
Continuous
100
AcDbEllipse
 10
209.7612926342502
 20
712.1204620472171
 30
0.0
 11
-0.9502067146544844
 21
-0.3164782046945192
 31
0.0
210
0.0
220
0.0
230
-1.0
 40
0.9984778550999999
 41
1.892760065825479
 42
3.462643004113771
  0
ELLIPSE
  5
1DF2A
330
1E
100
AcDbEntity
  8
10
  6
Continuous
100
AcDbEllipse
 10
232.7640373262502
 20
712.1204620472171
 30
0.0
 11
0.9502067146544844
 21
-0.316478204694448
 31
0.0
210
0.0
220
0.0
230
-1.0
 40
0.9984778551000005
 41
2.820542303065916
 42
4.39042524135431
  0
LINE
  5
1DF2B
330
1E
100
AcDbEntity
  8
10
  6
Continuous
100
AcDbLine
 10
231.7626648387501
 20
687.6093573257171
 30
0.0
 11
231.7626649802566
 21
712.1213755747445
 31
0.0
  0
LINE
  5
1DF2C
330
1E
100
AcDbEntity
  8
10
  6
Continuous
100
AcDbLine
 10
210.7626649802438
 20
712.1213755747445
 30
0.0
 11
210.7626651217501
 21
687.6093573257171
 31
0.0
  0
ARC
  5
1DF2D
330
1E
100
AcDbEntity
  8
10
  6
Continuous
100
AcDbCircle
 10
211.7626651217501
 20
687.6093573257171
 30
0.0
 40
1.0
100
AcDbArc
 50
180.0
 51
270.0
  0
LINE
  5
1DF2E
330
1E
100
AcDbEntity
  8
10
  6
Continuous
100
AcDbLine
 10
211.7626651217501
 20
686.6093573257172
 30
0.0
 11
230.7626648387502
 21
686.6093573257172
 31
0.0
  0
ARC
  5
1DF2F
330
1E
100
AcDbEntity
  8
10
  6
Continuous
100
AcDbCircle
 10
230.7626648387502
 20
687.6093573257171
 30
0.0
 40
1.0
100
AcDbArc
 50
270.0
 51
0.0
  0
LINE
  5
1DF30
330
1E
100
AcDbEntity
  8
10
  6
Continuous
100
AcDbLine
 10
187.6631226843725
 20
713.1206143752215
 30
0.0
 11
209.7622072761279
 21
713.1206143752216
 31
0.0
  0
LINE
  5
1DF31
330
1E
100
AcDbEntity
  8
10
  6
Continuous
100
AcDbLine
 10
232.7596148707988
 20
713.1206082387172
 30
0.0
 11
246.3126631413728
 21
713.1206082387172
 31
0.0
  0
LINE
  5
1DF32
330
1E
100
AcDbEntity
  8
24
  6
CONTINOUS
100
AcDbLine
 10
221.3006926589121
 20
706.1093561932173
 30
0.0
 11
221.3006926589121
 21
688.1093561932173
 31
0.0
  0
LINE
  5
1DF33
330
1E
100
AcDbEntity
  8
24
  6
CONTINOUS
100
AcDbLine
 10
230.3006926589121
 20
697.1093561932173
 30
0.0
 11
212.3006926589121
 21
697.1093561932173
 31
0.0
  0
LINE
  5
1DF34
330
1E
100
AcDbEntity
  8
12
  6
DASHDOT
100
AcDbLine
 10
198.74137548575
 20
682.1093561932173
 30
0.0
 11
198.74137548575
 21
698.1093561932173
 31
0.0
  0
LINE
  5
1DF35
330
1E
100
AcDbEntity
  8
12
  6
DASHDOT
100
AcDbLine
 10
190.7413754857501
 20
690.1093561932173
 30
0.0
 11
206.7413754857501
 21
690.1093561932173
 31
0.0
  0
CIRCLE
  5
1DF36
330
1E
100
AcDbEntity
  8
12
100
AcDbCircle
 10
198.74137548575
 20
690.1093561932173
 30
0.0
 40
4.0
  0
CIRCLE
  5
1DF37
330
1E
100
AcDbEntity
  8
24
  6
CONTINOUS
100
AcDbCircle
 10
221.3006926589121
 20
697.1093561932173
 30
0.0
 40
4.618802153517049
  0
LINE
  5
1DF3A
330
1E
100
AcDbEntity
  8
10
100
AcDbLine
 10
106.2839548768724
 20
713.1093561932171
 30
0.0
 11
106.2839548768724
 21
453.1093561932181
 31
0.0
  0
LINE
  5
1DF3C
330
1E
100
AcDbEntity
  8
10
100
AcDbLine
 10
246.2839548768725
 20
453.1093561932181
 30
0.0
 11
246.2839548768725
 21
713.1093561932161
 31
0.0
  0
ELLIPSE
  5
1DF77
330
1E
100
AcDbEntity
  8
10
  6
Continuous
100
AcDbEllipse
 10
142.7480910268273
 20
454.1095023847182
 30
0.0
 11
0.9502067146544844
 21
0.3164782046945192
 31
0.0
210
0.0
220
0.0
230
-1.0
 40
0.9984778550999999
 41
1.892760065825351
 42
3.462643004113758
  0
ELLIPSE
  5
1DF78
330
1E
100
AcDbEntity
  8
10
  6
Continuous
100
AcDbEllipse
 10
187.7480910268273
 20
454.1095023847182
 30
0.0
 11
0.9502067146544844
 21
0.3164782046945192
 31
0.0
210
0.0
220
0.0
230
-1.0
 40
0.9984778550999999
 41
1.892760065825479
 42
3.462643004113771
  0
ELLIPSE
  5
1DF79
330
1E
100
AcDbEntity
  8
10
  6
Continuous
100
AcDbEllipse
 10
164.7453463348275
 20
454.1095023847182
 30
0.0
 11
-0.9502067146544844
 21
0.316478204694448
 31
0.0
210
0.0
220
0.0
230
-1.0
 40
0.9984778551000005
 41
2.820542303065916
 42
4.39042524135431
  0
ELLIPSE
  5
1DF7A
330
1E
100
AcDbEntity
  8
10
  6
Continuous
100
AcDbEllipse
 10
119.7453463348275
 20
454.1095023847182
 30
0.0
 11
-0.9502067146544844
 21
0.316478204694448
 31
0.0
210
0.0
220
0.0
230
-1.0
 40
0.9984778551000005
 41
2.820542303065916
 42
4.39042524135431
  0
LINE
  5
1DF7B
330
1E
100
AcDbEntity
  8
10
  6
Continuous
100
AcDbLine
 10
165.7467188223275
 20
478.5206071062182
 30
0.0
 11
165.7467188223275
 21
454.1085888571908
 31
0.0
  0
LINE
  5
1DF7C
330
1E
100
AcDbEntity
  8
10
  6
Continuous
100
AcDbLine
 10
186.7467186808337
 20
454.1085888571908
 30
0.0
 11
186.7467185393275
 21
478.5206071062182
 31
0.0
  0
ARC
  5
1DF7D
330
1E
100
AcDbEntity
  8
10
  6
Continuous
100
AcDbCircle
 10
185.7467185393275
 20
478.5206071062182
 30
0.0
 40
1.0
100
AcDbArc
 50
0.0
 51
90.0
  0
LINE
  5
1DF7E
330
1E
100
AcDbEntity
  8
10
  6
Continuous
100
AcDbLine
 10
141.7467186808337
 20
454.1085888571908
 30
0.0
 11
141.7467195453274
 21
478.5206071062182
 31
0.0
  0
ARC
  5
1DF7F
330
1E
100
AcDbEntity
  8
0
  6
SLD-実線
 62
     7
370
    30
100
AcDbCircle
 10
140.7467186808274
 20
478.5206082387181
 30
0.0
 40
1.000000000000011
100
AcDbArc
 50
0.0
 51
90.0
  0
LINE
  5
1DF80
330
1E
100
AcDbEntity
  8
10
  6
Continuous
100
AcDbLine
 10
185.7467185393275
 20
479.5206071062182
 30
0.0
 11
166.7467188223275
 21
479.5206071062182
 31
0.0
  0
ARC
  5
1DF81
330
1E
100
AcDbEntity
  8
10
  6
Continuous
100
AcDbCircle
 10
166.7467188223275
 20
478.5206071062182
 30
0.0
 40
1.0
100
AcDbArc
 50
90.0
 51
180.0
  0
LINE
  5
1DF82
330
1E
100
AcDbEntity
  8
10
  6
Continuous
100
AcDbLine
 10
140.7467195453274
 20
479.5206071062182
 30
0.0
 11
121.7467179658274
 21
479.5206071062182
 31
0.0
  0
ARC
  5
1DF83
330
1E
100
AcDbEntity
  8
10
  6
Continuous
100
AcDbCircle
 10
121.7467179658274
 20
478.5206071062182
 30
0.0
 40
1.0
100
AcDbArc
 50
90.0
 51
180.0
  0
ARC
  5
1DF84
330
1E
100
AcDbEntity
  8
10
  6
Continuous
100
AcDbCircle
 10
140.7467195453274
 20
478.5206071062182
 30
0.0
 40
1.0
100
AcDbArc
 50
0.0
 51
90.0
  0
LINE
  5
1DF85
330
1E
100
AcDbEntity
  8
10
  6
Continuous
100
AcDbLine
 10
120.7467179658274
 20
478.5206071062182
 30
0.0
 11
120.7467179658274
 21
454.1073936754028
 31
0.0
  0
LINE
  5
1DF86
330
1E
100
AcDbEntity
  8
10
  6
Continuous
100
AcDbLine
 10
209.7462609767051
 20
453.1093500567137
 30
0.0
 11
187.7471759828275
 21
453.1093561932181
 31
0.0
  0
LINE
  5
1DF87
330
1E
100
AcDbEntity
  8
10
  6
Continuous
100
AcDbLine
 10
164.7462613793273
 20
453.1093561932181
 30
0.0
 11
142.7471760573274
 21
453.1093561932181
 31
0.0
  0
LINE
  5
1DF89
330
1E
100
AcDbEntity
  8
10
  6
Continuous
100
AcDbLine
 10
119.7462614538277
 20
453.1093561932181
 30
0.0
 11
106.2839548768724
 21
453.1093561932181
 31
0.0
  0
LINE
  5
1DF8A
330
1E
100
AcDbEntity
  8
24
  6
CONTINOUS
100
AcDbLine
 10
122.2626653823722
 20
469.0763770784498
 30
0.0
 11
140.2626653823722
 21
469.0763770784498
 31
0.0
  0
LINE
  5
1DF8B
330
1E
100
AcDbEntity
  8
24
  6
CONTINOUS
100
AcDbLine
 10
131.2626653823722
 20
460.0763770784499
 30
0.0
 11
131.2626653823722
 21
478.0763770784498
 31
0.0
  0
LINE
  5
1DF8C
330
1E
100
AcDbEntity
  8
12
  6
DASHDOT
100
AcDbLine
 10
161.7839548768724
 20
476.0747842760298
 30
0.0
 11
145.7839548768724
 21
476.0747842760298
 31
0.0
  0
CIRCLE
  5
1DF8D
330
1E
100
AcDbEntity
  8
12
100
AcDbCircle
 10
153.7839548768724
 20
476.0747842760298
 30
0.0
 40
4.0
  0
LINE
  5
1DF8E
330
1E
100
AcDbEntity
  8
24
  6
CONTINOUS
100
AcDbLine
 10
176.2626653823722
 20
460.0747842760297
 30
0.0
 11
176.2626653823722
 21
478.0747842760298
 31
0.0
  0
LINE
  5
1DF8F
330
1E
100
AcDbEntity
  8
24
  6
CONTINOUS
100
AcDbLine
 10
167.2626653823722
 20
469.0747842760298
 30
0.0
 11
185.2626653823722
 21
469.0747842760298
 31
0.0
  0
LINE
  5
1DF90
330
1E
100
AcDbEntity
  8
12
  6
DASHED
100
AcDbLine
 10
206.7839548768724
 20
476.0747842760298
 30
0.0
 11
190.7839548768724
 21
476.0747842760298
 31
0.0
  0
CIRCLE
  5
1DF91
330
1E
100
AcDbEntity
  8
12
100
AcDbCircle
 10
198.7839548768724
 20
476.0747842760298
 30
0.0
 40
4.0
  0
CIRCLE
  5
1DF92
330
1E
100
AcDbEntity
  8
24
  6
CONTINOUS
100
AcDbCircle
 10
131.2626653823722
 20
469.0763770784498
 30
0.0
 40
4.618802153517049
  0
CIRCLE
  5
1DF93
330
1E
100
AcDbEntity
  8
24
  6
CONTINOUS
100
AcDbCircle
 10
176.2626653823722
 20
469.0747842760298
 30
0.0
 40
4.618802153517049
  0
ELLIPSE
  5
1DF94
330
1E
100
AcDbEntity
  8
10
  6
Continuous
100
AcDbEllipse
 10
209.7453459327053
 20
454.1095023847182
 30
0.0
 11
-0.9502067146544844
 21
0.3164782046945192
 31
0.0
210
0.0
220
0.0
230
1.0
 40
0.9984778550999999
 41
1.892760065825479
 42
3.462643004113771
  0
ELLIPSE
  5
1DF95
330
1E
100
AcDbEntity
  8
10
  6
Continuous
100
AcDbEllipse
 10
232.7480906247052
 20
454.1095023847182
 30
0.0
 11
0.9502067146544844
 21
0.316478204694448
 31
0.0
210
0.0
220
0.0
230
1.0
 40
0.9984778551000005
 41
2.820542303065916
 42
4.39042524135431
  0
LINE
  5
1DF96
330
1E
100
AcDbEntity
  8
10
  6
Continuous
100
AcDbLine
 10
231.7467181372051
 20
478.5206071062182
 30
0.0
 11
231.7467182787116
 21
454.1085888571907
 31
0.0
  0
LINE
  5
1DF97
330
1E
100
AcDbEntity
  8
10
  6
Continuous
100
AcDbLine
 10
210.7467182786989
 20
454.1085888571908
 30
0.0
 11
210.7467184202051
 21
478.5206071062182
 31
0.0
  0
ARC
  5
1DF98
330
1E
100
AcDbEntity
  8
10
  6
Continuous
100
AcDbCircle
 10
211.7467184202051
 20
478.5206071062182
 30
0.0
 40
1.0
100
AcDbArc
 50
90.0
 51
180.0
  0
LINE
  5
1DF99
330
1E
100
AcDbEntity
  8
10
  6
Continuous
100
AcDbLine
 10
211.7467184202051
 20
479.5206071062182
 30
0.0
 11
230.7467181372052
 21
479.5206071062182
 31
0.0
  0
ARC
  5
1DF9A
330
1E
100
AcDbEntity
  8
10
  6
Continuous
100
AcDbCircle
 10
230.7467181372052
 20
478.5206071062182
 30
0.0
 40
1.0
100
AcDbArc
 50
0.0
 51
90.0
  0
LINE
  5
1DF9B
330
1E
100
AcDbEntity
  8
10
  6
Continuous
100
AcDbLine
 10
187.7471759828275
 20
453.1093500567137
 30
0.0
 11
209.7462609767051
 21
453.1093561932181
 31
0.0
  0
LINE
  5
1DF9C
330
1E
100
AcDbEntity
  8
24
  6
CONTINOUS
100
AcDbLine
 10
221.3006926589119
 20
460.0747842760297
 30
0.0
 11
221.3006926589119
 21
478.0747842760298
 31
0.0
  0
LINE
  5
1DF9D
330
1E
100
AcDbEntity
  8
24
  6
CONTINOUS
100
AcDbLine
 10
230.1413754857499
 20
469.0747842760298
 30
0.0
 11
212.1413754857499
 21
469.0747842760298
 31
0.0
  0
LINE
  5
1DF9E
330
1E
100
AcDbEntity
  8
12
  6
DASHDOT
100
AcDbLine
 10
190.5413754857499
 20
476.0747842760298
 30
0.0
 11
206.5413754857499
 21
476.0747842760298
 31
0.0
  0
CIRCLE
  5
1DF9F
330
1E
100
AcDbEntity
  8
24
  6
CONTINOUS
100
AcDbCircle
 10
221.3006926589119
 20
469.0747842760298
 30
0.0
 40
4.618802153517049
  0
LINE
  5
1DFA0
330
1E
100
AcDbEntity
  8
12
  6
DASHDOT
100
AcDbLine
 10
198.5413754857499
 20
468.0747842760298
 30
0.0
 11
198.5413754857499
 21
484.0747842760298
 31
0.0
  0
LINE
  5
1DFA1
330
1E
100
AcDbEntity
  8
12
  6
DASHDOT
100
AcDbLine
 10
153.7839548768724
 20
468.0747842760298
 30
0.0
 11
153.7839548768724
 21
484.0747842760298
 31
0.0
  0
LINE
  5
1DFA2
330
1E
100
AcDbEntity
  8
10
100
AcDbLine
 10
232.7471759828277
 20
453.1093500567137
 30
0.0
 11
246.3126631413724
 21
453.1093500567137
 31
0.0
  0
LWPOLYLINE
  5
1DFA7
330
1E
100
AcDbEntity
  8
10
  6
CONTINOUS
100
AcDbPolyline
 90
        4
 70
     0
 43
0.0
 10
117.1496642473375
 20
994.4788207957286
 10
117.1496642473375
 20
947.4788207957287
 10
145.1496642473375
 20
947.4788207957287
 10
145.1496642473375
 20
1003.545385628211
  0
LWPOLYLINE
  5
1DFA8
330
1E
100
AcDbEntity
  8
10
  6
CONTINOUS
100
AcDbPolyline
 90
        4
 70
     0
 43
0.0
 10
162.1496642473374
 20
994.4788207957286
 10
162.1496642473374
 20
947.4788207957287
 10
190.1496642473374
 20
947.4788207957287
 10
190.1496642473374
 20
1003.545385628211
  0
LWPOLYLINE
  5
1DFA9
330
1E
100
AcDbEntity
  8
10
  6
CONTINOUS
100
AcDbPolyline
 90
        2
 70
     0
 43
0.0
 10
235.1496642473376
 20
1002.478820795728
 10
235.1496642473376
 20
1003.545385628211
  0
VIEWPORT
  5
9AC
330
1A
100
AcDbEntity
 67
     1
  8
0
  6
Continuous
348
8A77
100
AcDbViewport
 10
171.999535
 20
144.1384739999999
 30
0.0
 40
488.867686
 41
292.351491
 68
     1
 69
     1
 12
171.999535
 22
144.1384739999999
 13
0.0
 23
0.0
 14
10.0
 24
10.0
 15
10.0
 25
10.0
 16
0.0
 26
0.0
 36
1.0
 17
0.0
 27
0.0
 37
0.0
 42
50.0
 43
0.0
 44
0.0
 45
292.351491
 50
0.0
 51
0.0
 72
   100
 90
    32800
  1

281
     0
 71
     1
 74
     0
110
0.0
120
0.0
130
0.0
111
1.0
121
0.0
131
0.0
112
0.0
122
1.0
132
0.0
 79
     0
146
0.0
170
     0
 61
     5
348
8A77
292
     1
282
     1
141
0.0
142
0.0
 63
   250
421
  3355443
  0
ENDSEC
  0
SECTION
  2
OBJECTS
  0
DICTIONARY
  5
C
330
0
100
AcDbDictionary
281
     1
  3
ACAD_CIP_PREVIOUS_PRODUCT_INFO
350
8AA8
  3
ACAD_COLOR
350
8A8A
  3
ACAD_DETAILVIEWSTYLE
350
8AA3
  3
ACAD_GROUP
350
D
  3
ACAD_LAYOUT
350
19
  3
ACAD_MATERIAL
350
8A58
  3
ACAD_MLEADERSTYLE
350
8A9F
  3
ACAD_MLINESTYLE
350
16
  3
ACAD_PLOTSETTINGS
350
18
  3
ACAD_PLOTSTYLENAME
350
E
  3
ACAD_SCALELIST
350
8A8D
  3
ACAD_SECTIONVIEWSTYLE
350
8AA1
  3
ACAD_TABLESTYLE
350
8A8B
  3
ACAD_VISUALSTYLE
350
8A71
  3
ACADDIM
350
6D5E
  3
ACDB_RECOMPOSE_DATA
350
1DFB0
  3
ACDBVARIABLEDICTIONARY
350
5697
  3
AEC_PROPERTY_SET_DEFS
350
BFC4
  0
DICTIONARY
  5
F3CC
330
2
100
AcDbDictionary
280
     1
281
     1
  3
ACAD_LAYERSTATES
360
F3CD
  0
DICTIONARY
  5
8ACC
330
10
100
AcDbDictionary
280
     1
281
     1
  3
ADSK_XREC_LAYER_RECONCILED
360
8ACD
  0
DICTIONARY
  5
8ACE
330
2F
100
AcDbDictionary
280
     1
281
     1
  3
ADSK_XREC_LAYER_RECONCILED
360
8ACF
  0
DICTIONARY
  5
8AD2
330
35
100
AcDbDictionary
280
     1
281
     1
  3
ADSK_XREC_LAYER_RECONCILED
360
8AD3
  0
DICTIONARY
  5
8AD4
330
38
100
AcDbDictionary
280
     1
281
     1
  3
ADSK_XREC_LAYER_RECONCILED
360
8AD5
  0
DICTIONARY
  5
8AD6
330
3D
100
AcDbDictionary
280
     1
281
     1
  3
ADSK_XREC_LAYER_RECONCILED
360
8AD7
  0
DICTIONARY
  5
8AD8
330
3A2
100
AcDbDictionary
280
     1
281
     1
  3
ADSK_XREC_LAYER_RECONCILED
360
8AD9
  0
DICTIONARY
  5
8ADA
330
3BBA
100
AcDbDictionary
280
     1
281
     1
  3
ADSK_XREC_LAYER_RECONCILED
360
8ADB
  0
DICTIONARY
  5
8ADC
330
67A8
100
AcDbDictionary
280
     1
281
     1
  3
ADSK_XREC_LAYER_RECONCILED
360
8ADD
  0
DICTIONARY
  5
8ADE
330
7837
100
AcDbDictionary
280
     1
281
     1
  3
ADSK_XREC_LAYER_RECONCILED
360
8ADF
  0
DICTIONARY
  5
9134
330
9133
100
AcDbDictionary
280
     1
281
     1
  0
DICTIONARY
  5
1CA81
330
1CA80
100
AcDbDictionary
280
     1
281
     1
  0
DICTIONARY
  5
178
330
1E
100
AcDbDictionary
280
     1
281
     1
  3
ACAD_LAYOUTSELFREF
360
8A0F
  3
ACAD_SORTENTS
360
10338
  0
DICTIONARY
  5
17A
330
1A
100
AcDbDictionary
280
     1
281
     1
  3
ACAD_LAYOUTSELFREF
360
8A0E
  0
XRECORD
  5
8AA8
102
{ACAD_REACTORS
330
C
102
}
330
C
100
AcDbXrecord
280
     1
300
ACDLT
300
2014
300
ACDLT_F_S
  0
DICTIONARY
  5
8A8A
102
{ACAD_REACTORS
330
C
102
}
330
C
100
AcDbDictionary
281
     1
  0
DICTIONARY
  5
8AA3
102
{ACAD_REACTORS
330
C
102
}
330
C
100
AcDbDictionary
281
     1
  3
Imperial24
350
8AA4
  0
DICTIONARY
  5
D
102
{ACAD_REACTORS
330
C
102
}
330
C
100
AcDbDictionary
281
     1
  0
DICTIONARY
  5
19
102
{ACAD_REACTORS
330
C
102
}
330
C
100
AcDbDictionary
281
     1
  3
Model
350
8A4C
  3
ﾚｲｱｳﾄ1
350
8A4D
  0
DICTIONARY
  5
8A58
102
{ACAD_REACTORS
330
C
102
}
330
C
100
AcDbDictionary
281
     1
  3
ByBlock
350
8A61
  3
ByLayer
350
8A59
  3
Global
350
8A69
  0
DICTIONARY
  5
8A9F
102
{ACAD_REACTORS
330
C
102
}
330
C
100
AcDbDictionary
281
     1
  3
Standard
350
8AA0
  0
DICTIONARY
  5
16
102
{ACAD_REACTORS
330
C
102
}
330
C
100
AcDbDictionary
281
     1
  3
STANDARD
350
17
  0
DICTIONARY
  5
18
102
{ACAD_REACTORS
330
C
102
}
330
C
100
AcDbDictionary
281
     1
  0
ACDBDICTIONARYWDFLT
  5
E
102
{ACAD_REACTORS
330
C
102
}
330
C
100
AcDbDictionary
281
     1
  3
Normal
350
F
100
AcDbDictionaryWithDefault
340
F
  0
DICTIONARY
  5
8A8D
102
{ACAD_REACTORS
330
C
102
}
330
C
100
AcDbDictionary
281
     1
  3
A0
350
8A8E
  3
A1
350
8A8F
  3
A2
350
8A90
  3
A3
350
8A91
  3
A4
350
8A92
  3
A5
350
8A93
  3
A6
350
8A94
  3
A7
350
8A95
  3
A8
350
8A96
  3
A9
350
8A97
  3
B0
350
8A98
  3
B1
350
8A99
  3
B2
350
8A9A
  3
B3
350
8A9B
  3
B4
350
8A9C
  3
B5
350
8A9D
  3
B6
350
8A9E
  0
DICTIONARY
  5
8AA1
102
{ACAD_REACTORS
330
C
102
}
330
C
100
AcDbDictionary
281
     1
  3
Imperial24
350
8AA2
  0
DICTIONARY
  5
8A8B
102
{ACAD_REACTORS
330
C
102
}
330
C
100
AcDbDictionary
281
     1
  3
Standard
350
8A8C
  0
DICTIONARY
  5
8A71
102
{ACAD_REACTORS
330
C
102
}
330
C
100
AcDbDictionary
281
     1
  3
2dWireframe
350
8A77
  3
3D Hidden
350
8B2B
  3
3dWireframe
350
8B2A
  3
Basic
350
8A76
  3
Brighten
350
8A7D
  3
ColorChange
350
8A81
  3
Conceptual
350
8A7A
  3
Dim
350
8A7C
  3
EdgeColorOff
350
8A89
  3
Facepattern
350
8A80
  3
Flat
350
8A72
  3
FlatWithEdges
350
8A73
  3
Gouraud
350
8A74
  3
GouraudWithEdges
350
8A75
  3
Hidden
350
8A79
  3
JitterOff
350
8A87
  3
Linepattern
350
8A7F
  3
OverhangOff
350
8A88
  3
Realistic
350
8A7B
  3
Shaded
350
8A86
  3
Shaded with edges
350
8A85
  3
Shades of Gray
350
8A82
  3
Sketchy
350
8A83
  3
Thicken
350
8A7E
  3
Wireframe
350
8A78
  3
X-Ray
350
8A84
  0
XRECORD
  5
6D5E
102
{ACAD_REACTORS
330
C
102
}
330
C
100
AcDbXrecord
280
     1
 90
   990106
  3

 60
     0
 61
     0
 62
     1
 63
     3
 64
     0
 65
     0
 66
     0
 67
     3
 68
     1
 69
     0
 70
     0
 71
     0
 72
     0
 40
0.0
170
     0
340
0
  0
XRECORD
  5
1DFB0
102
{ACAD_REACTORS
330
C
102
}
330
C
100
AcDbXrecord
280
     1
 90
        1
330
8A8C
330
8AA2
330
8AA4
  0
DICTIONARY
  5
5697
102
{ACAD_REACTORS
330
C
102
}
330
C
100
AcDbDictionary
281
     1
  3
CANNOSCALE
350
8AE9
  3
CMLEADERSTYLE
350
8AE5
  3
CTABLESTYLE
350
8AE4
  3
CVIEWDETAILSTYLE
350
8AE6
  3
CVIEWSECTIONSTYLE
350
8AE7
  3
DIMASSOC
350
5698
  3
LAYEREVAL
350
8AEB
  3
LAYERNOTIFY
350
8AEC
  3
LIGHTINGUNITS
350
8AEA
  3
MSLTSCALE
350
8AE8
  0
DICTIONARY
  5
BFC4
102
{ACAD_REACTORS
330
C
102
}
330
C
100
AcDbDictionary
281
     1
  0
DICTIONARY
  5
F3CD
102
{ACAD_REACTORS
330
F3CC
102
}
330
F3CC
100
AcDbDictionary
281
     1
  0
XRECORD
  5
8ACD
102
{ACAD_REACTORS
330
8ACC
102
}
330
8ACC
100
AcDbXrecord
280
     1
290
     1
  0
XRECORD
  5
8ACF
102
{ACAD_REACTORS
330
8ACE
102
}
330
8ACE
100
AcDbXrecord
280
     1
290
     1
  0
XRECORD
  5
8AD3
102
{ACAD_REACTORS
330
8AD2
102
}
330
8AD2
100
AcDbXrecord
280
     1
290
     1
  0
XRECORD
  5
8AD5
102
{ACAD_REACTORS
330
8AD4
102
}
330
8AD4
100
AcDbXrecord
280
     1
290
     1
  0
XRECORD
  5
8AD7
102
{ACAD_REACTORS
330
8AD6
102
}
330
8AD6
100
AcDbXrecord
280
     1
290
     1
  0
XRECORD
  5
8AD9
102
{ACAD_REACTORS
330
8AD8
102
}
330
8AD8
100
AcDbXrecord
280
     1
290
     1
  0
XRECORD
  5
8ADB
102
{ACAD_REACTORS
330
8ADA
102
}
330
8ADA
100
AcDbXrecord
280
     1
290
     1
  0
XRECORD
  5
8ADD
102
{ACAD_REACTORS
330
8ADC
102
}
330
8ADC
100
AcDbXrecord
280
     1
290
     1
  0
XRECORD
  5
8ADF
102
{ACAD_REACTORS
330
8ADE
102
}
330
8ADE
100
AcDbXrecord
280
     1
290
     1
  0
XRECORD
  5
8A0F
102
{ACAD_REACTORS
330
178
102
}
330
178
100
AcDbXrecord
280
     1
340
1E
  0
SORTENTSTABLE
  5
10338
102
{ACAD_REACTORS
330
178
102
}
330
178
100
AcDbSortentsTable
330
1E
331
1DF82
  5
1DF85
331
1DA9D
  5
1DAA0
331
1DADF
  5
1DAE2
331
1DF3A
  5
1DF78
331
1DF18
  5
1DF1B
331
1DAC0
  5
1DAC3
331
1DABC
  5
1DABF
331
1DFA0
  5
1DFA7
331
1DF93
  5
1DF96
331
1DACE
  5
1DAD1
331
1DA8C
  5
1DA8E
331
1DF29
  5
1DF2C
331
1DAF1
  5
1DAF4
331
1DA27
  5
1DA27
331
1D9F4
  5
1D9F4
331
1D9DE
  5
1D9DE
331
1DA2F
  5
1DA2F
331
1D9D3
  5
1D9D3
331
1DF80
  5
1DF83
331
1DA9B
  5
1DA9F
331
1DADD
  5
1DAE0
331
1DF16
  5
1DF19
331
1DAB6
  5
1DAB9
331
1DABA
  5
1DABD
331
1DF9E
  5
1DFA1
331
1DF91
  5
1DF94
331
1DACC
  5
1DACF
331
1DA8A
  5
1DA8C
331
1DF27
  5
1DF2A
331
1DAE7
  5
1DAEA
331
1DA25
  5
1DA25
331
1DA14
  5
1DA14
331
1D9F2
  5
1D9F2
331
1D9DC
  5
1D9DC
331
1D9D1
  5
1D9D1
331
1DA99
  5
1DA9D
331
1DADB
  5
1DADE
331
1DF14
  5
1DF17
331
1DAB4
  5
1DAB7
331
1DF36
  5
1DF3C
331
1DAFE
  5
1DF0B
331
1DAB8
  5
1DABB
331
1DF9C
  5
1DF9F
331
1DF8F
  5
1DF92
331
1DACA
  5
1DACD
331
1DA88
  5
1DA8A
331
1DF25
  5
1DF28
331
1DAE5
  5
1DAE8
331
1DA7F
  5
1DA7F
331
1DA23
  5
1DA23
331
1DA12
  5
1DA12
331
1D9F0
  5
1D9F0
331
1D9DA
  5
1D9DA
331
1DF7E
  5
1DF81
331
1D9CF
  5
1D9CF
331
1DAD9
  5
1DADC
331
1DF12
  5
1DF15
331
1DAB2
  5
1DAB5
331
1DF34
  5
1DF37
331
1DAFC
  5
1DAFF
331
1DAAE
  5
1DAB1
331
1DF9A
  5
1DF9D
331
1DF8D
  5
1DF90
331
1DF23
  5
1DF26
331
1DAE3
  5
1DAE6
331
1DAC8
  5
1DACB
331
1DA86
  5
1DA88
331
1DA7D
  5
1DA7D
331
1DA10
  5
1DA10
331
1D9E6
  5
1D9E6
331
1D9D8
  5
1D9D8
331
1DF7C
  5
1DF7F
331
1DA97
  5
1DA9A
331
1DA29
  5
1DA29
331
1D9CD
  5
1D9CD
331
1DF10
  5
1DF13
331
1DAB0
  5
1DAB3
331
1DF32
  5
1DF35
331
1DAFA
  5
1DAFD
331
1DAAC
  5
1DAAF
331
1DF98
  5
1DF9B
331
1DF8B
  5
1DF8E
331
1DA84
  5
1DA86
331
1DA0E
  5
1DA0E
331
1DF21
  5
1DF24
331
1DAE1
  5
1DAE4
331
1DA7B
  5
1DA7B
331
1D9EF
  5
1D9EF
331
1D9E4
  5
1D9E4
331
1DF7A
  5
1DF7D
331
1DFA9
  5
1DA96
331
1DAD7
  5
1DADA
331
1DA1F
  5
1DA1F
331
1D9CB
  5
1D9CB
331
1DF30
  5
1DF33
331
1DAF8
  5
1DAFB
331
1DAAA
  5
1DAAD
331
1DF89
  5
1DF8C
331
1DA82
  5
1DA83
331
1DA0C
  5
1DA0C
331
1DAEE
  5
1DAF1
331
1DF1F
  5
1DF22
331
1DAC7
  5
1DACA
331
1DA79
  5
1DA79
331
1D9ED
  5
1D9ED
331
1D9E2
  5
1D9E2
331
1DF78
  5
1DF7B
331
1DF0E
  5
1DF11
331
1DAD5
  5
1DAD8
331
1DA93
  5
1DA98
331
1DFA7
  5
1DA82
331
1DA1D
  5
1DA1D
331
1D9C9
  5
1D9C9
331
1DAA8
  5
1DAAB
331
1DF87
  5
1DF8B
331
1DA80
  5
1DA80
331
1DF1D
  5
1DF20
331
1DAC5
  5
1DAC8
331
1D9EB
  5
1D9EB
331
1D9E0
  5
1D9E0
331
1DAD3
  5
1DAD6
331
1DA91
  5
1DA93
331
1DF0C
  5
1DF0F
331
1DF2E
  5
1DF31
331
1DAF6
  5
1DAF9
331
1DA74
  5
1DA74
331
1D9C7
  5
1D9C7
331
1DF85
  5
1DF89
331
1DAA0
  5
1DAA9
331
1DA6E
  5
1DA6E
331
1DAEA
  5
1DAEE
331
1DF1B
  5
1DF1F
331
1DAC3
  5
1DAC6
331
1D9E9
  5
1D9E9
331
1DABF
  5
1DAC2
331
1DF96
  5
1DF99
331
1DAD1
  5
1DAD4
331
1DA8F
  5
1DA91
331
1DF2C
  5
1DF2F
331
1DAF4
  5
1DAF7
331
1DA72
  5
1DA72
331
1D9F7
  5
1D9F7
331
1D9D6
  5
1D9D6
331
1D9C5
  5
1D9C5
331
1DF83
  5
1DF86
331
1DA9E
  5
1DAA7
331
1DA30
  5
1DA30
331
1DAE8
  5
1DAEB
331
1DF19
  5
1DF1D
331
1DAC1
  5
1DAC4
331
1DABD
  5
1DAC0
331
1DFA1
  5
1DFA8
331
1DF94
  5
1DF97
331
1DACF
  5
1DAD2
331
1DA8D
  5
1DA8F
331
1DF2A
  5
1DF2D
331
1DAF2
  5
1DAF5
331
1DA70
  5
1DA70
331
1D9F5
  5
1D9F5
331
1D9DF
  5
1D9DF
331
1D9D4
  5
1D9D4
331
1DF81
  5
1DF84
331
1DADE
  5
1DAE1
331
1DF17
  5
1DF1A
331
1DAB7
  5
1DABA
331
1DE79
  5
1DF0D
331
1DABB
  5
1DABE
331
1DF9F
  5
1DFA2
331
1DF92
  5
1DF95
331
1DF28
  5
1DF2B
331
1DAF0
  5
1DAF3
331
1DACD
  5
1DAD0
331
1DA8B
  5
1DA8D
331
1DA15
  5
1DA15
331
1D9F3
  5
1D9F3
331
1D9DD
  5
1D9DD
331
1D9D2
  5
1D9D2
331
1DA9A
  5
1DA9E
331
1DADC
  5
1DADF
331
1DF15
  5
1DF18
331
1DAB5
  5
1DAB8
331
1DF37
  5
1DF77
331
1DAFF
  5
1DF0C
331
1DAB9
  5
1DABC
331
1DF9D
  5
1DFA0
331
1DF90
  5
1DF93
331
1DACB
  5
1DACE
331
1DA89
  5
1DA8B
331
1DF26
  5
1DF29
331
1DAE6
  5
1DAE9
331
1DA24
  5
1DA24
331
1DA13
  5
1DA13
331
1D9F1
  5
1D9F1
331
1D9DB
  5
1D9DB
331
1DF7F
  5
1DF82
331
1DA2C
  5
1DA2C
331
1D9D0
  5
1D9D0
331
1DA98
  5
1DA9B
331
1DADA
  5
1DADD
331
1DF13
  5
1DF16
331
1DAB3
  5
1DAB6
331
1DF35
  5
1DF3A
331
1DAFD
  5
1DE79
331
1DAAF
  5
1DAB2
331
1DF9B
  5
1DF9E
331
1DF8E
  5
1DF91
331
1DAC9
  5
1DACC
331
1DA87
  5
1DA89
331
1DF24
  5
1DF27
331
1DAE4
  5
1DAE7
331
1DA7E
  5
1DA7E
331
1DA22
  5
1DA22
331
1DA11
  5
1DA11
331
1D9E7
  5
1D9E7
331
1D9D9
  5
1D9D9
331
1DF7D
  5
1DF80
331
1DA2A
  5
1DA2A
331
1D9CE
  5
1D9CE
331
1DAD8
  5
1DADB
331
1DF11
  5
1DF14
331
1DAB1
  5
1DAB4
331
1DF33
  5
1DF36
331
1DAFB
  5
1DAFE
331
1DAAD
  5
1DAB0
331
1DF99
  5
1DF9C
331
1DF8C
  5
1DF8F
331
1DAA7
  5
1DAAA
331
1DA85
  5
1DA87
331
1DF22
  5
1DF25
331
1DAE2
  5
1DAE5
331
1DA7C
  5
1DA7C
331
1DA20
  5
1DA20
331
1DA0F
  5
1DA0F
331
1D9E5
  5
1D9E5
331
1DF7B
  5
1DF7E
331
1DA96
  5
1DA99
331
1D9CC
  5
1D9CC
331
1D31B
  5
1D31B
331
1DF31
  5
1DF34
331
1DAF9
  5
1DAFC
331
1DAAB
  5
1DAAE
331
1DF8A
  5
1DF8D
331
1DA83
  5
1DA84
331
1DA0D
  5
1DA0D
331
1DAEF
  5
1DAF2
331
1DF20
  5
1DF23
331
1DAE0
  5
1DAE3
331
1DA7A
  5
1DA7A
331
1D9EE
  5
1D9EE
331
1D9E3
  5
1D9E3
331
1DF79
  5
1DF7C
331
1DAD6
  5
1DAD9
331
1DFA8
  5
1DA85
331
1DF0F
  5
1DF12
331
1DA77
  5
1DA77
331
1DA1E
  5
1DA1E
331
1D9CA
  5
1D9CA
331
1DAA9
  5
1DAAC
331
1DA81
  5
1DA81
331
1DAED
  5
1DAF0
331
1DF1E
  5
1DF21
331
1DAC6
  5
1DAC9
331
1DA78
  5
1DA78
331
1D9EC
  5
1D9EC
331
1D9E1
  5
1D9E1
331
1DF77
  5
1DF7A
331
1DAD4
  5
1DAD7
331
1DA92
  5
1DA97
331
1DF0D
  5
1DF10
331
1DF2F
  5
1DF32
331
1DAF7
  5
1DAFA
331
1DA75
  5
1DA75
331
1DA1C
  5
1DA1C
331
1D9C8
  5
1D9C8
331
1DF86
  5
1DF8A
331
1DA6F
  5
1DA6F
331
1DAEB
  5
1DAEF
331
1DAC4
  5
1DAC7
331
1D9EA
  5
1D9EA
331
1DF97
  5
1DF9A
331
1DAD2
  5
1DAD5
331
1DA90
  5
1DA92
331
1DF0B
  5
1DF0E
331
1DF2D
  5
1DF30
331
1DAF5
  5
1DAF8
331
1DA73
  5
1DA73
331
1D9D7
  5
1D9D7
331
1D9C6
  5
1D9C6
331
1DF84
  5
1DF87
331
1DA9F
  5
1DAA8
331
1DAE9
  5
1DAED
331
1DF3C
  5
1DF79
331
1DF1A
  5
1DF1E
331
1DAC2
  5
1DAC5
331
1DABE
  5
1DAC1
331
1DFA2
  5
1DFA9
331
1DF95
  5
1DF98
331
1DAD0
  5
1DAD3
331
1DA8E
  5
1DA90
331
1DF2B
  5
1DF2E
331
1DAF3
  5
1DAF6
331
1DA71
  5
1DA71
331
1D9F6
  5
1D9F6
331
1D9E8
  5
1D9E8
331
1D9D5
  5
1D9D5
  0
XRECORD
  5
8A0E
102
{ACAD_REACTORS
330
17A
102
}
330
17A
100
AcDbXrecord
280
     1
340
1A
  0
ACDBDETAILVIEWSTYLE
  5
8AA4
102
{ACAD_XDICTIONARY
360
1DEC3
102
}
102
{ACAD_REACTORS
330
8AA3
102
}
330
8AA3
100
AcDbModelDocViewStyle
 70
     0
  3
Imperial24
290
     0
100
AcDbDetailViewStyle
 70
     0
 71
     0
 90
        3
 71
     1
340
11
 62
   256
 40
0.24
340
0
 62
   256
 40
0.24
300

 40
0.36
280
     3
 71
     2
340
15
 90
       25
 62
   256
 71
     3
340
11
 62
   256
 40
0.24
 90
        1
 40
0.75
 90
        1
300
%<\AcVar ViewType \f "%tc1">% %<\AcVar ViewDetailId>%\PSCALE %<\AcVar ViewScale \f "%sn">%
 71
     4
340
15
 90
       25
 62
   256
340
15
 90
       25
 62
   256
280
     0
  0
LAYOUT
  5
8A4C
102
{ACAD_XDICTIONARY
360
F3D2
102
}
102
{ACAD_REACTORS
330
19
102
}
330
19
100
AcDbPlotSettings
  1

  2
none_device
  4
Letter_(8.50_x_11.00_Inches)
  6

 40
6.349999904632567
 41
6.349999904632567
 42
6.350006103515625
 43
6.350006103515625
 44
215.8999938964844
 45
279.3999938964844
 46
0.0
 47
0.0
 48
0.0
 49
0.0
140
0.0
141
0.0
142
1.0
143
317.0449279872537
 70
 11952
 72
     0
 73
     1
 74
     0
  7
monochrome.ctb
 75
     0
147
0.0031541271022642
 76
     0
 77
     2
 78
   300
148
21198.07971653447
149
42574.72085005308
100
AcDbLayout
  1
Model
 70
     1
 71
     0
 10
0.0
 20
0.0
 11
12.0
 21
9.0
 12
0.0
 22
0.0
 32
0.0
 14
0.0
 24
0.0
 34
0.0
 15
0.0
 25
0.0
 35
0.0
146
0.0
 13
0.0
 23
0.0
 33
0.0
 16
1.0
 26
0.0
 36
0.0
 17
0.0
 27
1.0
 37
0.0
 76
     0
330
1E
331
8A51
1001
ACAD_PSEXT
1000
なし
1000
なし
1000
適切ではありません
1000
新しいプロッタ環境設定名を選択しない限り、レイアウトは印刷されません。
1070
     0
  0
LAYOUT
  5
8A4D
102
{ACAD_REACTORS
330
19
102
}
330
19
100
AcDbPlotSettings
  1

  2
Canon LBP3800 LIPSLX
  4

  6

 40
0.0
 41
0.0
 42
0.0
 43
0.0
 44
0.0
 45
0.0
 46
0.0
 47
0.0
 48
0.0
 49
0.0
140
0.0
141
0.0
142
1.0
143
1.0
 70
   688
 72
     0
 73
     0
 74
     5
  7
monochrome.ctb
 75
    16
147
1.0
 76
     0
 77
     2
 78
   300
148
0.0
149
0.0
100
AcDbLayout
  1
ﾚｲｱｳﾄ1
 70
     1
 71
     1
 10
-5.873749
 20
-5.87375
 11
204.099579
 21
291.1369009999999
 12
0.0
 22
0.0
 32
0.0
 14
4.273573
 24
5.205245999999998
 34
0.0
 15
194.610095
 25
283.0697009999996
 35
0.0
146
0.0
 13
0.0
 23
0.0
 33
0.0
 16
1.0
 26
0.0
 36
0.0
 17
0.0
 27
1.0
 37
0.0
 76
     0
330
1A
331
9AC
  0
MATERIAL
  5
8A61
102
{ACAD_XDICTIONARY
360
8A62
102
}
102
{ACAD_REACTORS
330
8A58
102
}
330
8A58
100
AcDbMaterial
  1
ByBlock
 72
     0
 43
0.0208333333333333
 43
0.0
 43
0.0
 43
0.0
 43
0.0
 43
0.0208333333333333
 43
0.0
 43
0.0
 43
0.0
 43
0.0
 43
1.0
 43
0.0
 43
0.0
 43
0.0
 43
0.0
 43
1.0
 77
     0
 47
0.0208333333333333
 47
0.0
 47
0.0
 47
0.0
 47
0.0
 47
0.0208333333333333
 47
0.0
 47
0.0
 47
0.0
 47
0.0
 47
1.0
 47
0.0
 47
0.0
 47
0.0
 47
0.0
 47
1.0
171
     0
 49
0.0208333333333333
 49
0.0
 49
0.0
 49
0.0
 49
0.0
 49
0.0208333333333333
 49
0.0
 49
0.0
 49
0.0
 49
0.0
 49
1.0
 49
0.0
 49
0.0
 49
0.0
 49
0.0
 49
1.0
175
     0
142
0.0208333333333333
142
0.0
142
0.0
142
0.0
142
0.0
142
0.0208333333333333
142
0.0
142
0.0
142
0.0
142
0.0
142
1.0
142
0.0
142
0.0
142
0.0
142
0.0
142
1.0
179
     0
144
0.0208333333333333
144
0.0
144
0.0
144
0.0
144
0.0
144
0.0208333333333333
144
0.0
144
0.0
144
0.0
144
0.0
144
1.0
144
0.0
144
0.0
144
0.0
144
0.0
144
1.0
147
0.0208333333333333
147
0.0
147
0.0
147
0.0
147
0.0
147
0.0208333333333333
147
0.0
147
0.0
147
0.0
147
0.0
147
1.0
147
0.0
147
0.0
147
0.0
147
0.0
147
1.0
  0
MATERIAL
  5
8A59
102
{ACAD_XDICTIONARY
360
8A5A
102
}
102
{ACAD_REACTORS
330
8A58
102
}
330
8A58
100
AcDbMaterial
  1
ByLayer
 72
     0
 43
0.0208333333333333
 43
0.0
 43
0.0
 43
0.0
 43
0.0
 43
0.0208333333333333
 43
0.0
 43
0.0
 43
0.0
 43
0.0
 43
1.0
 43
0.0
 43
0.0
 43
0.0
 43
0.0
 43
1.0
 77
     0
 47
0.0208333333333333
 47
0.0
 47
0.0
 47
0.0
 47
0.0
 47
0.0208333333333333
 47
0.0
 47
0.0
 47
0.0
 47
0.0
 47
1.0
 47
0.0
 47
0.0
 47
0.0
 47
0.0
 47
1.0
171
     0
 49
0.0208333333333333
 49
0.0
 49
0.0
 49
0.0
 49
0.0
 49
0.0208333333333333
 49
0.0
 49
0.0
 49
0.0
 49
0.0
 49
1.0
 49
0.0
 49
0.0
 49
0.0
 49
0.0
 49
1.0
175
     0
142
0.0208333333333333
142
0.0
142
0.0
142
0.0
142
0.0
142
0.0208333333333333
142
0.0
142
0.0
142
0.0
142
0.0
142
1.0
142
0.0
142
0.0
142
0.0
142
0.0
142
1.0
179
     0
144
0.0208333333333333
144
0.0
144
0.0
144
0.0
144
0.0
144
0.0208333333333333
144
0.0
144
0.0
144
0.0
144
0.0
144
1.0
144
0.0
144
0.0
144
0.0
144
0.0
144
1.0
147
0.0208333333333333
147
0.0
147
0.0
147
0.0
147
0.0
147
0.0208333333333333
147
0.0
147
0.0
147
0.0
147
0.0
147
1.0
147
0.0
147
0.0
147
0.0
147
0.0
147
1.0
  0
MATERIAL
  5
8A69
102
{ACAD_XDICTIONARY
360
8A6A
102
}
102
{ACAD_REACTORS
330
8A58
102
}
330
8A58
100
AcDbMaterial
  1
Global
 72
     0
 43
0.0208333333333333
 43
0.0
 43
0.0
 43
0.0
 43
0.0
 43
0.0208333333333333
 43
0.0
 43
0.0
 43
0.0
 43
0.0
 43
1.0
 43
0.0
 43
0.0
 43
0.0
 43
0.0
 43
1.0
 77
     0
 47
0.0208333333333333
 47
0.0
 47
0.0
 47
0.0
 47
0.0
 47
0.0208333333333333
 47
0.0
 47
0.0
 47
0.0
 47
0.0
 47
1.0
 47
0.0
 47
0.0
 47
0.0
 47
0.0
 47
1.0
171
     0
 49
0.0208333333333333
 49
0.0
 49
0.0
 49
0.0
 49
0.0
 49
0.0208333333333333
 49
0.0
 49
0.0
 49
0.0
 49
0.0
 49
1.0
 49
0.0
 49
0.0
 49
0.0
 49
0.0
 49
1.0
175
     0
142
0.0208333333333333
142
0.0
142
0.0
142
0.0
142
0.0
142
0.0208333333333333
142
0.0
142
0.0
142
0.0
142
0.0
142
1.0
142
0.0
142
0.0
142
0.0
142
0.0
142
1.0
179
     0
144
0.0208333333333333
144
0.0
144
0.0
144
0.0
144
0.0
144
0.0208333333333333
144
0.0
144
0.0
144
0.0
144
0.0
144
1.0
144
0.0
144
0.0
144
0.0
144
0.0
144
1.0
147
0.0208333333333333
147
0.0
147
0.0
147
0.0
147
0.0
147
0.0208333333333333
147
0.0
147
0.0
147
0.0
147
0.0
147
1.0
147
0.0
147
0.0
147
0.0
147
0.0
147
1.0
  0
MLEADERSTYLE
  5
8AA0
102
{ACAD_REACTORS
330
8A9F
102
}
330
8A9F
100
AcDbMLeaderStyle
179
     2
170
     2
171
     1
172
     0
 90
        2
 40
0.0
 41
0.0
173
     1
 91
-1056964608
340
13
 92
       -2
290
     1
 42
0.09
291
     1
 43
0.36
  3
Standard
 44
0.18
300

342
11
174
     1
178
     6
175
     1
176
     0
 93
-1056964608
 45
0.18
292
     0
297
     0
 46
0.18
 94
-1056964608
 47
1.0
 49
1.0
140
1.0
293
     1
141
0.0
294
     1
177
     0
142
1.0
295
     0
296
     0
143
0.125
271
     0
272
     9
273
     9
298
     0
  0
MLINESTYLE
  5
17
102
{ACAD_REACTORS
330
16
102
}
330
16
100
AcDbMlineStyle
  2
STANDARD
 70
     0
  3

 62
   256
 51
90.0
 52
90.0
 71
     2
 49
0.5
 62
   256
  6
BYLAYER
 49
-0.5
 62
   256
  6
BYLAYER
  0
ACDBPLACEHOLDER
  5
F
102
{ACAD_REACTORS
330
E
102
}
330
E
  0
SCALE
  5
8A8E
102
{ACAD_REACTORS
330
8A8D
102
}
330
8A8D
100
AcDbScale
 70
     0
300
1:1
140
1.0
141
1.0
290
     1
  0
SCALE
  5
8A8F
102
{ACAD_REACTORS
330
8A8D
102
}
330
8A8D
100
AcDbScale
 70
     0
300
1/128" = 1'-0"
140
0.0078125
141
12.0
290
     0
  0
SCALE
  5
8A90
102
{ACAD_REACTORS
330
8A8D
102
}
330
8A8D
100
AcDbScale
 70
     0
300
1/64" = 1'-0"
140
0.015625
141
12.0
290
     0
  0
SCALE
  5
8A91
102
{ACAD_REACTORS
330
8A8D
102
}
330
8A8D
100
AcDbScale
 70
     0
300
1/32" = 1'-0"
140
0.03125
141
12.0
290
     0
  0
SCALE
  5
8A92
102
{ACAD_REACTORS
330
8A8D
102
}
330
8A8D
100
AcDbScale
 70
     0
300
1/16" = 1'-0"
140
0.0625
141
12.0
290
     0
  0
SCALE
  5
8A93
102
{ACAD_REACTORS
330
8A8D
102
}
330
8A8D
100
AcDbScale
 70
     0
300
3/32" = 1'-0"
140
0.09375
141
12.0
290
     0
  0
SCALE
  5
8A94
102
{ACAD_REACTORS
330
8A8D
102
}
330
8A8D
100
AcDbScale
 70
     0
300
1/8" = 1'-0"
140
0.125
141
12.0
290
     0
  0
SCALE
  5
8A95
102
{ACAD_REACTORS
330
8A8D
102
}
330
8A8D
100
AcDbScale
 70
     0
300
3/16" = 1'-0"
140
0.1875
141
12.0
290
     0
  0
SCALE
  5
8A96
102
{ACAD_REACTORS
330
8A8D
102
}
330
8A8D
100
AcDbScale
 70
     0
300
1/4" = 1'-0"
140
0.25
141
12.0
290
     0
  0
SCALE
  5
8A97
102
{ACAD_REACTORS
330
8A8D
102
}
330
8A8D
100
AcDbScale
 70
     0
300
3/8" = 1'-0"
140
0.375
141
12.0
290
     0
  0
SCALE
  5
8A98
102
{ACAD_REACTORS
330
8A8D
102
}
330
8A8D
100
AcDbScale
 70
     0
300
1/2" = 1'-0"
140
0.5
141
12.0
290
     0
  0
SCALE
  5
8A99
102
{ACAD_REACTORS
330
8A8D
102
}
330
8A8D
100
AcDbScale
 70
     0
300
3/4" = 1'-0"
140
0.75
141
12.0
290
     0
  0
SCALE
  5
8A9A
102
{ACAD_REACTORS
330
8A8D
102
}
330
8A8D
100
AcDbScale
 70
     0
300
1" = 1'-0"
140
1.0
141
12.0
290
     0
  0
SCALE
  5
8A9B
102
{ACAD_REACTORS
330
8A8D
102
}
330
8A8D
100
AcDbScale
 70
     0
300
1-1/2" = 1'-0"
140
1.5
141
12.0
290
     0
  0
SCALE
  5
8A9C
102
{ACAD_REACTORS
330
8A8D
102
}
330
8A8D
100
AcDbScale
 70
     0
300
3" = 1'-0"
140
3.0
141
12.0
290
     0
  0
SCALE
  5
8A9D
102
{ACAD_REACTORS
330
8A8D
102
}
330
8A8D
100
AcDbScale
 70
     0
300
6" = 1'-0"
140
6.0
141
12.0
290
     0
  0
SCALE
  5
8A9E
102
{ACAD_REACTORS
330
8A8D
102
}
330
8A8D
100
AcDbScale
 70
     0
300
1'-0" = 1'-0"
140
12.0
141
12.0
290
     0
  0
ACDBSECTIONVIEWSTYLE
  5
8AA2
102
{ACAD_XDICTIONARY
360
1DEC1
102
}
102
{ACAD_REACTORS
330
8AA1
102
}
330
8AA1
100
AcDbModelDocViewStyle
 70
     0
  3
Imperial24
290
     0
100
AcDbSectionViewStyle
 70
     0
 71
     0
 90
       78
 71
     1
340
11
 62
   256
 40
0.24
340
0
340
0
 62
   256
 40
0.24
300
I, O, Q, S, X, Z
 40
0.48
 90
        3
 40
0.18
 90
        1
 71
     2
340
15
 90
       25
 62
   256
340
15
 90
       50
 62
   256
 40
0.24
 40
0.0
 40
0.24
 71
     3
340
11
 62
   256
 40
0.24
 90
        1
 40
0.75
 90
        1
300
%<\AcVar ViewType \f "%tc1">% %<\AcVar ViewSectionStartId>%-%<\AcVar ViewSectionEndId>%\PSCALE %<\AcVar ViewScale \f "%sn">%
 71
     4
 62
   256
 62
   257
300
ANSI31
 40
1.0
 90
        0
290
     0
290
     0
 90
        6
 40
0.0
 40
1.570796326794896
 40
0.2617993877991494
 40
1.308996938995747
 40
-0.2617993877991494
 40
1.832595714594044
  0
TABLESTYLE
  5
8A8C
102
{ACAD_XDICTIONARY
360
8AED
102
}
102
{ACAD_REACTORS
330
8A8B
102
}
330
8A8B
100
AcDbTableStyle
280
     0
  3
Standard
 70
     0
 71
     0
 40
0.06
 41
0.06
280
     0
281
     0
  7
STANDARD
140
0.18
170
     2
 62
     0
 63
     7
283
     0
 90
      512
 91
        0
  1

274
    -2
284
     1
 64
     0
275
    -2
285
     1
 65
     0
276
    -2
286
     1
 66
     0
277
    -2
287
     1
 67
     0
278
    -2
288
     1
 68
     0
279
    -2
289
     1
 69
     0
  7
STANDARD
140
0.25
170
     5
 62
     0
 63
     7
283
     0
 90
      512
 91
        0
  1

274
    -2
284
     1
 64
     0
275
    -2
285
     1
 65
     0
276
    -2
286
     1
 66
     0
277
    -2
287
     1
 67
     0
278
    -2
288
     1
 68
     0
279
    -2
289
     1
 69
     0
  7
STANDARD
140
0.18
170
     5
 62
     0
 63
     7
283
     0
 90
      512
 91
        0
  1

274
    -2
284
     1
 64
     0
275
    -2
285
     1
 65
     0
276
    -2
286
     1
 66
     0
277
    -2
287
     1
 67
     0
278
    -2
288
     1
 68
     0
279
    -2
289
     1
 69
     0
  0
VISUALSTYLE
  5
8A77
102
{ACAD_REACTORS
330
8A71
102
}
330
8A71
100
AcDbVisualStyle
  2
2dWireframe
 70
     4
177
     3
291
     0
 70
    58
 90
        0
176
     1
 90
        2
176
     1
 90
        0
176
     1
 90
        0
176
     1
 40
0.6
176
     1
 40
30.0
176
     1
 62
     7
420
 16777215
176
     1
 90
        1
176
     1
 90
        4
176
     1
 62
     7
176
     1
 62
   257
176
     1
 90
        1
176
     1
 90
        1
176
     1
 40
1.0
176
     1
 90
        0
176
     1
 62
   257
176
     1
 40
1.0
176
     1
 90
        1
176
     1
 90
        6
176
     1
 90
        2
176
     1
 62
     7
176
     1
 90
        5
176
     1
 90
        0
176
     1
 90
        0
176
     1
290
     0
176
     1
 90
        1
176
     1
 40
0.0
176
     1
 90
        0
176
     1
290
     1
176
     1
290
     1
176
     1
290
     0
176
     1
290
     0
176
     1
290
     0
176
     1
290
     0
176
     1
290
     0
176
     1
290
     0
176
     1
290
     0
176
     1
 90
       50
176
     1
 40
0.0
176
     1
 40
1.0
176
     1
 90
        0
176
     1
 62
    18
176
     1
 90
       50
176
     1
 90
        3
176
     1
 62
     5
420
      255
176
     1
290
     0
176
     1
 90
       50
176
     1
 90
       50
176
     1
 90
       50
176
     1
290
     0
176
     1
 90
       50
176
     1
 62
   256
176
     0
 40
1.0
176
     0
 90
        2
176
     1
  1
strokes_ogs.tif
176
     1
290
     0
176
     1
 40
1.0
176
     1
 40
1.0
176
     1
  0
VISUALSTYLE
  5
8B2B
102
{ACAD_REACTORS
330
8A71
102
}
330
8A71
100
AcDbVisualStyle
  2
3D Hidden
 70
     6
177
     3
291
     0
 70
    58
 90
        1
176
     1
 90
        2
176
     1
 90
        2
176
     1
 90
        0
176
     1
 40
0.6
176
     1
 40
30.0
176
     1
 62
     7
420
 16777215
176
     1
 90
        2
176
     1
 90
        2
176
     1
 62
     7
176
     1
 62
   257
176
     1
 90
        2
176
     1
 90
        1
176
     1
 40
179.0
176
     1
 90
        0
176
     1
 62
   257
176
     1
 40
1.0
176
     1
 90
        1
176
     1
 90
        6
176
     1
 90
        2
176
     1
 62
     7
176
     1
 90
        3
176
     1
 90
        0
176
     1
 90
        0
176
     1
290
     0
176
     1
 90
        1
176
     1
 40
0.0
176
     1
 90
        0
176
     1
290
     0
176
     1
290
     1
176
     1
290
     1
176
     1
290
     0
176
     1
290
     0
176
     1
290
     0
176
     1
290
     0
176
     1
290
     0
176
     1
290
     0
176
     1
 90
       50
176
     1
 40
0.0
176
     1
 40
1.0
176
     1
 90
        0
176
     1
 62
    18
176
     1
 90
       50
176
     1
 90
        3
176
     1
 62
     5
420
      255
176
     1
290
     0
176
     1
 90
       50
176
     1
 90
       50
176
     1
 90
       50
176
     1
290
     0
176
     1
 90
       50
176
     1
 62
   256
176
     0
 40
1.0
176
     0
 90
        2
176
     1
  1
strokes_ogs.tif
176
     1
290
     0
176
     1
 40
1.0
176
     1
 40
1.0
176
     1
  0
VISUALSTYLE
  5
8B2A
102
{ACAD_REACTORS
330
8A71
102
}
330
8A71
100
AcDbVisualStyle
  2
3dWireframe
 70
     5
177
     3
291
     0
 70
    58
 90
        0
176
     1
 90
        2
176
     1
 90
        0
176
     1
 90
        0
176
     1
 40
0.6
176
     1
 40
30.0
176
     1
 62
     7
420
 16777215
176
     1
 90
        1
176
     1
 90
        4
176
     1
 62
     7
176
     1
 62
   257
176
     1
 90
        1
176
     1
 90
        1
176
     1
 40
1.0
176
     1
 90
        0
176
     1
 62
   257
176
     1
 40
1.0
176
     1
 90
        1
176
     1
 90
        6
176
     1
 90
        2
176
     1
 62
     7
176
     1
 90
        5
176
     1
 90
        0
176
     1
 90
        0
176
     1
290
     0
176
     1
 90
        1
176
     1
 40
0.0
176
     1
 90
        0
176
     1
290
     0
176
     1
290
     1
176
     1
290
     1
176
     1
290
     0
176
     1
290
     0
176
     1
290
     0
176
     1
290
     0
176
     1
290
     0
176
     1
290
     0
176
     1
 90
       50
176
     1
 40
0.0
176
     1
 40
1.0
176
     1
 90
        0
176
     1
 62
    18
176
     1
 90
       50
176
     1
 90
        3
176
     1
 62
     5
420
      255
176
     1
290
     0
176
     1
 90
       50
176
     1
 90
       50
176
     1
 90
       50
176
     1
290
     0
176
     1
 90
       50
176
     1
 62
   256
176
     0
 40
1.0
176
     0
 90
        2
176
     1
  1
strokes_ogs.tif
176
     1
290
     0
176
     1
 40
1.0
176
     1
 40
1.0
176
     1
  0
VISUALSTYLE
  5
8A76
102
{ACAD_REACTORS
330
8A71
102
}
330
8A71
100
AcDbVisualStyle
  2
Basic
 70
     7
177
     3
291
     1
 70
    58
 90
        1
176
     1
 90
        0
176
     1
 90
        1
176
     1
 90
        0
176
     1
 40
0.6
176
     1
 40
30.0
176
     1
 62
     7
420
 16777215
176
     1
 90
        0
176
     1
 90
        4
176
     1
 62
     7
176
     1
 62
   257
176
     1
 90
        1
176
     1
 90
        1
176
     1
 40
1.0
176
     1
 90
        8
176
     1
 62
     7
176
     1
 40
1.0
176
     1
 90
        1
176
     1
 90
        6
176
     1
 90
        2
176
     1
 62
     7
176
     1
 90
        5
176
     1
 90
        0
176
     1
 90
        0
176
     1
290
     0
176
     1
 90
        1
176
     1
 40
0.0
176
     1
 90
        0
176
     1
290
     0
176
     1
290
     1
176
     1
290
     1
176
     1
290
     0
176
     1
290
     0
176
     1
290
     0
176
     1
290
     0
176
     1
290
     0
176
     1
290
     0
176
     1
 90
       50
176
     1
 40
0.0
176
     1
 40
1.0
176
     1
 90
        0
176
     1
 62
    18
176
     1
 90
       50
176
     1
 90
        3
176
     1
 62
     5
420
      255
176
     1
290
     0
176
     1
 90
       50
176
     1
 90
       50
176
     1
 90
       50
176
     1
290
     0
176
     1
 90
       50
176
     1
 62
   256
176
     0
 40
1.0
176
     0
 90
        2
176
     1
  1
strokes_ogs.tif
176
     1
290
     0
176
     1
 40
1.0
176
     1
 40
1.0
176
     1
  0
VISUALSTYLE
  5
8A7D
102
{ACAD_REACTORS
330
8A71
102
}
330
8A71
100
AcDbVisualStyle
  2
Brighten
 70
    12
177
     3
291
     1
 70
    58
 90
        2
176
     1
 90
        2
176
     1
 90
        0
176
     1
 90
        0
176
     1
 40
0.6
176
     1
 40
30.0
176
     1
 62
     7
420
 16777215
176
     1
 90
        1
176
     1
 90
        4
176
     1
 62
     7
176
     1
 62
   257
176
     1
 90
        1
176
     1
 90
        1
176
     1
 40
1.0
176
     1
 90
        8
176
     1
 62
     7
176
     1
 40
1.0
176
     1
 90
        1
176
     1
 90
        6
176
     1
 90
        2
176
     1
 62
     7
176
     1
 90
        5
176
     1
 90
        0
176
     1
 90
        0
176
     1
290
     0
176
     1
 90
        1
176
     1
 40
50.0
176
     1
 90
        0
176
     1
290
     0
176
     1
290
     1
176
     1
290
     1
176
     1
290
     0
176
     1
290
     0
176
     1
290
     0
176
     1
290
     0
176
     1
290
     0
176
     1
290
     0
176
     1
 90
       50
176
     1
 40
0.0
176
     1
 40
1.0
176
     1
 90
        0
176
     1
 62
    18
176
     1
 90
       50
176
     1
 90
        3
176
     1
 62
     5
420
      255
176
     1
290
     0
176
     1
 90
       50
176
     1
 90
       50
176
     1
 90
       50
176
     1
290
     0
176
     1
 90
       50
176
     1
 62
   256
176
     0
 40
1.0
176
     0
 90
        2
176
     1
  1
strokes_ogs.tif
176
     1
290
     0
176
     1
 40
1.0
176
     1
 40
1.0
176
     1
  0
VISUALSTYLE
  5
8A81
102
{ACAD_REACTORS
330
8A71
102
}
330
8A71
100
AcDbVisualStyle
  2
ColorChange
 70
    16
177
     3
291
     1
 70
    58
 90
        2
176
     1
 90
        2
176
     1
 90
        3
176
     1
 90
        0
176
     1
 40
0.6
176
     1
 40
30.0
176
     1
 62
     8
420
  8421504
176
     1
 90
        1
176
     1
 90
        4
176
     1
 62
     7
176
     1
 62
   257
176
     1
 90
        1
176
     1
 90
        1
176
     1
 40
1.0
176
     1
 90
        8
176
     1
 62
     8
420
  8421504
176
     1
 40
1.0
176
     1
 90
        1
176
     1
 90
        6
176
     1
 90
        2
176
     1
 62
     7
176
     1
 90
        5
176
     1
 90
        0
176
     1
 90
        0
176
     1
290
     0
176
     1
 90
        1
176
     1
 40
0.0
176
     1
 90
        0
176
     1
290
     0
176
     1
290
     1
176
     1
290
     1
176
     1
290
     0
176
     1
290
     0
176
     1
290
     0
176
     1
290
     0
176
     1
290
     0
176
     1
290
     0
176
     1
 90
       50
176
     1
 40
0.0
176
     1
 40
1.0
176
     1
 90
        0
176
     1
 62
    18
176
     1
 90
       50
176
     1
 90
        3
176
     1
 62
     5
420
      255
176
     1
290
     0
176
     1
 90
       50
176
     1
 90
       50
176
     1
 90
       50
176
     1
290
     0
176
     1
 90
       50
176
     1
 62
   256
176
     0
 40
1.0
176
     0
 90
        2
176
     1
  1
strokes_ogs.tif
176
     1
290
     0
176
     1
 40
1.0
176
     1
 40
1.0
176
     1
  0
VISUALSTYLE
  5
8A7A
102
{ACAD_REACTORS
330
8A71
102
}
330
8A71
100
AcDbVisualStyle
  2
Conceptual
 70
     9
177
     3
291
     0
 70
    58
 90
        3
176
     1
 90
        2
176
     1
 90
        0
176
     1
 90
        0
176
     1
 40
0.6
176
     1
 40
30.0
176
     1
 62
     7
420
 16777215
176
     1
 90
        2
176
     1
 90
        2
176
     1
 62
     7
176
     1
 62
   257
176
     1
 90
        1
176
     1
 90
        1
176
     1
 40
179.0
176
     1
 90
        8
176
     1
 62
     7
176
     1
 40
1.0
176
     1
 90
        1
176
     1
 90
        6
176
     1
 90
        2
176
     1
 62
     7
176
     1
 90
        3
176
     1
 90
        0
176
     1
 90
        0
176
     1
290
     0
176
     1
 90
        1
176
     1
 40
0.0
176
     1
 90
        0
176
     1
290
     0
176
     1
290
     1
176
     1
290
     1
176
     1
290
     0
176
     1
290
     0
176
     1
290
     0
176
     1
290
     0
176
     1
290
     0
176
     1
290
     0
176
     1
 90
       50
176
     1
 40
0.0
176
     1
 40
1.0
176
     1
 90
        0
176
     1
 62
    18
176
     1
 90
       50
176
     1
 90
        3
176
     1
 62
     5
420
      255
176
     1
290
     0
176
     1
 90
       50
176
     1
 90
       50
176
     1
 90
       50
176
     1
290
     0
176
     1
 90
       50
176
     1
 62
   256
176
     0
 40
1.0
176
     0
 90
        2
176
     1
  1
strokes_ogs.tif
176
     1
290
     0
176
     1
 40
1.0
176
     1
 40
1.0
176
     1
  0
VISUALSTYLE
  5
8A7C
102
{ACAD_REACTORS
330
8A71
102
}
330
8A71
100
AcDbVisualStyle
  2
Dim
 70
    11
177
     3
291
     1
 70
    58
 90
        2
176
     1
 90
        2
176
     1
 90
        0
176
     1
 90
        0
176
     1
 40
0.6
176
     1
 40
30.0
176
     1
 62
     7
420
 16777215
176
     1
 90
        1
176
     1
 90
        4
176
     1
 62
     7
176
     1
 62
   257
176
     1
 90
        1
176
     1
 90
        1
176
     1
 40
1.0
176
     1
 90
        8
176
     1
 62
     7
176
     1
 40
1.0
176
     1
 90
        1
176
     1
 90
        6
176
     1
 90
        2
176
     1
 62
     7
176
     1
 90
        5
176
     1
 90
        0
176
     1
 90
        0
176
     1
290
     0
176
     1
 90
        1
176
     1
 40
-50.0
176
     1
 90
        0
176
     1
290
     0
176
     1
290
     1
176
     1
290
     1
176
     1
290
     0
176
     1
290
     0
176
     1
290
     0
176
     1
290
     0
176
     1
290
     0
176
     1
290
     0
176
     1
 90
       50
176
     1
 40
0.0
176
     1
 40
1.0
176
     1
 90
        0
176
     1
 62
    18
176
     1
 90
       50
176
     1
 90
        3
176
     1
 62
     5
420
      255
176
     1
290
     0
176
     1
 90
       50
176
     1
 90
       50
176
     1
 90
       50
176
     1
290
     0
176
     1
 90
       50
176
     1
 62
   256
176
     0
 40
1.0
176
     0
 90
        2
176
     1
  1
strokes_ogs.tif
176
     1
290
     0
176
     1
 40
1.0
176
     1
 40
1.0
176
     1
  0
VISUALSTYLE
  5
8A89
102
{ACAD_REACTORS
330
8A71
102
}
330
8A71
100
AcDbVisualStyle
  2
EdgeColorOff
 70
    22
177
     3
291
     1
 70
    58
 90
        2
176
     0
 90
        2
176
     0
 90
        0
176
     0
 90
        0
176
     0
 40
0.6
176
     0
 40
30.0
176
     0
 62
     7
420
 16777215
176
     0
 90
        1
176
     0
 90
        4
176
     0
 62
     7
176
     0
 62
   257
176
     0
 90
        1
176
     0
 90
        1
176
     0
 40
1.0
176
     0
 90
        8
176
     2
 62
     7
176
     0
 40
1.0
176
     0
 90
        1
176
     0
 90
        6
176
     0
 90
        2
176
     0
 62
     7
176
     0
 90
        5
176
     0
 90
        0
176
     0
 90
        0
176
     0
290
     0
176
     0
 90
        1
176
     0
 40
0.0
176
     0
 90
        0
176
     0
290
     0
176
     1
290
     1
176
     1
290
     1
176
     1
290
     0
176
     1
290
     0
176
     1
290
     0
176
     1
290
     0
176
     1
290
     0
176
     1
290
     0
176
     1
 90
       50
176
     0
 40
0.0
176
     0
 40
1.0
176
     0
 90
        0
176
     0
 62
    18
176
     0
 90
       50
176
     0
 90
        3
176
     0
 62
     5
420
      255
176
     0
290
     0
176
     1
 90
       50
176
     0
 90
       50
176
     0
 90
       50
176
     0
290
     0
176
     1
 90
       50
176
     0
 62
   256
176
     0
 40
1.0
176
     0
 90
        2
176
     0
  1
strokes_ogs.tif
176
     0
290
     0
176
     1
 40
1.0
176
     0
 40
1.0
176
     0
  0
VISUALSTYLE
  5
8A80
102
{ACAD_REACTORS
330
8A71
102
}
330
8A71
100
AcDbVisualStyle
  2
Facepattern
 70
    15
177
     3
291
     1
 70
    58
 90
        2
176
     1
 90
        2
176
     1
 90
        0
176
     1
 90
        0
176
     1
 40
0.6
176
     1
 40
30.0
176
     1
 62
     7
420
 16777215
176
     1
 90
        1
176
     1
 90
        4
176
     1
 62
     7
176
     1
 62
   257
176
     1
 90
        1
176
     1
 90
        1
176
     1
 40
1.0
176
     1
 90
        8
176
     1
 62
     7
176
     1
 40
1.0
176
     1
 90
        1
176
     1
 90
        6
176
     1
 90
        2
176
     1
 62
     7
176
     1
 90
        5
176
     1
 90
        0
176
     1
 90
        0
176
     1
290
     0
176
     1
 90
        1
176
     1
 40
0.0
176
     1
 90
        0
176
     1
290
     0
176
     1
290
     1
176
     1
290
     1
176
     1
290
     0
176
     1
290
     0
176
     1
290
     0
176
     1
290
     0
176
     1
290
     0
176
     1
290
     0
176
     1
 90
       50
176
     1
 40
0.0
176
     1
 40
1.0
176
     1
 90
        0
176
     1
 62
    18
176
     1
 90
       50
176
     1
 90
        3
176
     1
 62
     5
420
      255
176
     1
290
     0
176
     1
 90
       50
176
     1
 90
       50
176
     1
 90
       50
176
     1
290
     0
176
     1
 90
       50
176
     1
 62
   256
176
     0
 40
1.0
176
     0
 90
        2
176
     1
  1
strokes_ogs.tif
176
     1
290
     0
176
     1
 40
1.0
176
     1
 40
1.0
176
     1
  0
VISUALSTYLE
  5
8A72
102
{ACAD_REACTORS
330
8A71
102
}
330
8A71
100
AcDbVisualStyle
  2
Flat
 70
     0
177
     3
291
     1
 70
    58
 90
        2
176
     1
 90
        1
176
     1
 90
        1
176
     1
 90
        2
176
     1
 40
0.6
176
     1
 40
30.0
176
     1
 62
     7
420
 16777215
176
     1
 90
        0
176
     1
 90
        0
176
     1
 62
     7
176
     1
 62
   257
176
     1
 90
        1
176
     1
 90
        1
176
     1
 40
1.0
176
     1
 90
        8
176
     1
 62
     7
176
     1
 40
1.0
176
     1
 90
        1
176
     1
 90
        6
176
     1
 90
        2
176
     1
 62
     7
176
     1
 90
        5
176
     1
 90
        0
176
     1
 90
        0
176
     1
290
     0
176
     1
 90
       13
176
     1
 40
0.0
176
     1
 90
        0
176
     1
290
     0
176
     1
290
     1
176
     1
290
     1
176
     1
290
     0
176
     1
290
     0
176
     1
290
     0
176
     1
290
     0
176
     1
290
     0
176
     1
290
     0
176
     1
 90
       50
176
     1
 40
0.0
176
     1
 40
1.0
176
     1
 90
        0
176
     1
 62
    18
176
     1
 90
       50
176
     1
 90
        3
176
     1
 62
     5
420
      255
176
     1
290
     0
176
     1
 90
       50
176
     1
 90
       50
176
     1
 90
       50
176
     1
290
     0
176
     1
 90
       50
176
     1
 62
   256
176
     0
 40
1.0
176
     0
 90
        2
176
     1
  1
strokes_ogs.tif
176
     1
290
     0
176
     1
 40
1.0
176
     1
 40
1.0
176
     1
  0
VISUALSTYLE
  5
8A73
102
{ACAD_REACTORS
330
8A71
102
}
330
8A71
100
AcDbVisualStyle
  2
FlatWithEdges
 70
     1
177
     3
291
     1
 70
    58
 90
        2
176
     1
 90
        1
176
     1
 90
        1
176
     1
 90
        2
176
     1
 40
0.6
176
     1
 40
30.0
176
     1
 62
     7
420
 16777215
176
     1
 90
        1
176
     1
 90
        0
176
     1
 62
     7
176
     1
 62
   257
176
     1
 90
        1
176
     1
 90
        1
176
     1
 40
1.0
176
     1
 90
        0
176
     1
 62
   257
176
     1
 40
1.0
176
     1
 90
        1
176
     1
 90
        6
176
     1
 90
        2
176
     1
 62
     7
176
     1
 90
        5
176
     1
 90
        0
176
     1
 90
        0
176
     1
290
     0
176
     1
 90
       13
176
     1
 40
0.0
176
     1
 90
        0
176
     1
290
     0
176
     1
290
     1
176
     1
290
     1
176
     1
290
     0
176
     1
290
     0
176
     1
290
     0
176
     1
290
     0
176
     1
290
     0
176
     1
290
     0
176
     1
 90
       50
176
     1
 40
0.0
176
     1
 40
1.0
176
     1
 90
        0
176
     1
 62
    18
176
     1
 90
       50
176
     1
 90
        3
176
     1
 62
     5
420
      255
176
     1
290
     0
176
     1
 90
       50
176
     1
 90
       50
176
     1
 90
       50
176
     1
290
     0
176
     1
 90
       50
176
     1
 62
   256
176
     0
 40
1.0
176
     0
 90
        2
176
     1
  1
strokes_ogs.tif
176
     1
290
     0
176
     1
 40
1.0
176
     1
 40
1.0
176
     1
  0
VISUALSTYLE
  5
8A74
102
{ACAD_REACTORS
330
8A71
102
}
330
8A71
100
AcDbVisualStyle
  2
Gouraud
 70
     2
177
     3
291
     1
 70
    58
 90
        2
176
     1
 90
        2
176
     1
 90
        1
176
     1
 90
        2
176
     1
 40
0.6
176
     1
 40
30.0
176
     1
 62
     7
420
 16777215
176
     1
 90
        0
176
     1
 90
        0
176
     1
 62
     7
176
     1
 62
   257
176
     1
 90
        1
176
     1
 90
        1
176
     1
 40
1.0
176
     1
 90
        0
176
     1
 62
     7
176
     1
 40
1.0
176
     1
 90
        1
176
     1
 90
        6
176
     1
 90
        2
176
     1
 62
     7
176
     1
 90
        5
176
     1
 90
        0
176
     1
 90
        0
176
     1
290
     0
176
     1
 90
       13
176
     1
 40
0.0
176
     1
 90
        0
176
     1
290
     0
176
     1
290
     1
176
     1
290
     1
176
     1
290
     0
176
     1
290
     0
176
     1
290
     0
176
     1
290
     0
176
     1
290
     0
176
     1
290
     0
176
     1
 90
       50
176
     1
 40
0.0
176
     1
 40
1.0
176
     1
 90
        0
176
     1
 62
    18
176
     1
 90
       50
176
     1
 90
        3
176
     1
 62
     5
420
      255
176
     1
290
     0
176
     1
 90
       50
176
     1
 90
       50
176
     1
 90
       50
176
     1
290
     0
176
     1
 90
       50
176
     1
 62
   256
176
     0
 40
1.0
176
     0
 90
        2
176
     1
  1
strokes_ogs.tif
176
     1
290
     0
176
     1
 40
1.0
176
     1
 40
1.0
176
     1
  0
VISUALSTYLE
  5
8A75
102
{ACAD_REACTORS
330
8A71
102
}
330
8A71
100
AcDbVisualStyle
  2
GouraudWithEdges
 70
     3
177
     3
291
     1
 70
    58
 90
        2
176
     1
 90
        2
176
     1
 90
        1
176
     1
 90
        2
176
     1
 40
0.6
176
     1
 40
30.0
176
     1
 62
     7
420
 16777215
176
     1
 90
        1
176
     1
 90
        0
176
     1
 62
     7
176
     1
 62
   257
176
     1
 90
        1
176
     1
 90
        1
176
     1
 40
1.0
176
     1
 90
        0
176
     1
 62
   257
176
     1
 40
1.0
176
     1
 90
        1
176
     1
 90
        6
176
     1
 90
        2
176
     1
 62
     7
176
     1
 90
        5
176
     1
 90
        0
176
     1
 90
        0
176
     1
290
     0
176
     1
 90
       13
176
     1
 40
0.0
176
     1
 90
        0
176
     1
290
     0
176
     1
290
     1
176
     1
290
     1
176
     1
290
     0
176
     1
290
     0
176
     1
290
     0
176
     1
290
     0
176
     1
290
     0
176
     1
290
     0
176
     1
 90
       50
176
     1
 40
0.0
176
     1
 40
1.0
176
     1
 90
        0
176
     1
 62
    18
176
     1
 90
       50
176
     1
 90
        3
176
     1
 62
     5
420
      255
176
     1
290
     0
176
     1
 90
       50
176
     1
 90
       50
176
     1
 90
       50
176
     1
290
     0
176
     1
 90
       50
176
     1
 62
   256
176
     0
 40
1.0
176
     0
 90
        2
176
     1
  1
strokes_ogs.tif
176
     1
290
     0
176
     1
 40
1.0
176
     1
 40
1.0
176
     1
  0
VISUALSTYLE
  5
8A79
102
{ACAD_REACTORS
330
8A71
102
}
330
8A71
100
AcDbVisualStyle
  2
Hidden
 70
     6
177
     3
291
     0
 70
    58
 90
        1
176
     1
 90
        2
176
     1
 90
        2
176
     1
 90
        0
176
     1
 40
0.6
176
     1
 40
30.0
176
     1
 62
     7
420
 16777215
176
     1
 90
        2
176
     1
 90
        2
176
     1
 62
     7
176
     1
 62
   257
176
     1
 90
        2
176
     1
 90
        1
176
     1
 40
40.0
176
     1
 90
        0
176
     1
 62
   257
176
     1
 40
1.0
176
     1
 90
        1
176
     1
 90
        6
176
     1
 90
        2
176
     1
 62
     7
176
     1
 90
        3
176
     1
 90
        0
176
     1
 90
        0
176
     1
290
     0
176
     1
 90
        1
176
     1
 40
0.0
176
     1
 90
        0
176
     1
290
     0
176
     1
290
     1
176
     1
290
     1
176
     1
290
     0
176
     1
290
     0
176
     1
290
     0
176
     1
290
     0
176
     1
290
     0
176
     1
290
     0
176
     1
 90
       50
176
     1
 40
0.0
176
     1
 40
1.0
176
     1
 90
        0
176
     1
 62
    18
176
     1
 90
       50
176
     1
 90
        3
176
     1
 62
     5
420
      255
176
     1
290
     0
176
     1
 90
       50
176
     1
 90
       50
176
     1
 90
       50
176
     1
290
     0
176
     1
 90
       50
176
     1
 62
   256
176
     0
 40
1.0
176
     0
 90
        2
176
     1
  1
strokes_ogs.tif
176
     1
290
     0
176
     1
 40
1.0
176
     1
 40
1.0
176
     1
  0
VISUALSTYLE
  5
8A87
102
{ACAD_REACTORS
330
8A71
102
}
330
8A71
100
AcDbVisualStyle
  2
JitterOff
 70
    20
177
     3
291
     1
 70
    58
 90
        2
176
     0
 90
        2
176
     0
 90
        0
176
     0
 90
        0
176
     0
 40
0.6
176
     0
 40
30.0
176
     0
 62
     7
420
 16777215
176
     0
 90
        1
176
     0
 90
        4
176
     0
 62
     7
176
     0
 62
   257
176
     0
 90
        1
176
     0
 90
        1
176
     0
 40
1.0
176
     0
 90
       10
176
     2
 62
     7
176
     0
 40
1.0
176
     0
 90
        1
176
     0
 90
        6
176
     0
 90
        2
176
     0
 62
     7
176
     0
 90
        5
176
     0
 90
        0
176
     0
 90
        0
176
     0
290
     0
176
     0
 90
        1
176
     0
 40
0.0
176
     0
 90
        0
176
     0
290
     0
176
     1
290
     1
176
     1
290
     1
176
     1
290
     0
176
     1
290
     0
176
     1
290
     0
176
     1
290
     0
176
     1
290
     0
176
     1
290
     0
176
     1
 90
       50
176
     0
 40
0.0
176
     0
 40
1.0
176
     0
 90
        0
176
     0
 62
    18
176
     0
 90
       50
176
     0
 90
        3
176
     0
 62
     5
420
      255
176
     0
290
     0
176
     1
 90
       50
176
     0
 90
       50
176
     0
 90
       50
176
     0
290
     0
176
     1
 90
       50
176
     0
 62
   256
176
     0
 40
1.0
176
     0
 90
        2
176
     0
  1
strokes_ogs.tif
176
     0
290
     0
176
     1
 40
1.0
176
     0
 40
1.0
176
     0
  0
VISUALSTYLE
  5
8A7F
102
{ACAD_REACTORS
330
8A71
102
}
330
8A71
100
AcDbVisualStyle
  2
Linepattern
 70
    14
177
     3
291
     1
 70
    58
 90
        2
176
     1
 90
        2
176
     1
 90
        0
176
     1
 90
        0
176
     1
 40
0.6
176
     1
 40
30.0
176
     1
 62
     7
420
 16777215
176
     1
 90
        1
176
     1
 90
        4
176
     1
 62
     7
176
     1
 62
   257
176
     1
 90
        7
176
     1
 90
        7
176
     1
 40
1.0
176
     1
 90
        8
176
     1
 62
     7
176
     1
 40
1.0
176
     1
 90
        1
176
     1
 90
        6
176
     1
 90
        2
176
     1
 62
     7
176
     1
 90
        5
176
     1
 90
        0
176
     1
 90
        0
176
     1
290
     0
176
     1
 90
        1
176
     1
 40
0.0
176
     1
 90
        0
176
     1
290
     0
176
     1
290
     1
176
     1
290
     1
176
     1
290
     0
176
     1
290
     0
176
     1
290
     0
176
     1
290
     0
176
     1
290
     0
176
     1
290
     0
176
     1
 90
       50
176
     1
 40
0.0
176
     1
 40
1.0
176
     1
 90
        0
176
     1
 62
    18
176
     1
 90
       50
176
     1
 90
        3
176
     1
 62
     5
420
      255
176
     1
290
     0
176
     1
 90
       50
176
     1
 90
       50
176
     1
 90
       50
176
     1
290
     0
176
     1
 90
       50
176
     1
 62
   256
176
     0
 40
1.0
176
     0
 90
        2
176
     1
  1
strokes_ogs.tif
176
     1
290
     0
176
     1
 40
1.0
176
     1
 40
1.0
176
     1
  0
VISUALSTYLE
  5
8A88
102
{ACAD_REACTORS
330
8A71
102
}
330
8A71
100
AcDbVisualStyle
  2
OverhangOff
 70
    21
177
     3
291
     1
 70
    58
 90
        2
176
     0
 90
        2
176
     0
 90
        0
176
     0
 90
        0
176
     0
 40
0.6
176
     0
 40
30.0
176
     0
 62
     7
420
 16777215
176
     0
 90
        1
176
     0
 90
        4
176
     0
 62
     7
176
     0
 62
   257
176
     0
 90
        1
176
     0
 90
        1
176
     0
 40
1.0
176
     0
 90
        9
176
     2
 62
     7
176
     0
 40
1.0
176
     0
 90
        1
176
     0
 90
        6
176
     0
 90
        2
176
     0
 62
     7
176
     0
 90
        5
176
     0
 90
        0
176
     0
 90
        0
176
     0
290
     0
176
     0
 90
        1
176
     0
 40
0.0
176
     0
 90
        0
176
     0
290
     0
176
     1
290
     1
176
     1
290
     1
176
     1
290
     0
176
     1
290
     0
176
     1
290
     0
176
     1
290
     0
176
     1
290
     0
176
     1
290
     0
176
     1
 90
       50
176
     0
 40
0.0
176
     0
 40
1.0
176
     0
 90
        0
176
     0
 62
    18
176
     0
 90
       50
176
     0
 90
        3
176
     0
 62
     5
420
      255
176
     0
290
     0
176
     1
 90
       50
176
     0
 90
       50
176
     0
 90
       50
176
     0
290
     0
176
     1
 90
       50
176
     0
 62
   256
176
     0
 40
1.0
176
     0
 90
        2
176
     0
  1
strokes_ogs.tif
176
     0
290
     0
176
     1
 40
1.0
176
     0
 40
1.0
176
     0
  0
VISUALSTYLE
  5
8A7B
102
{ACAD_REACTORS
330
8A71
102
}
330
8A71
100
AcDbVisualStyle
  2
Realistic
 70
     8
177
     3
291
     0
 70
    58
 90
        2
176
     1
 90
        3
176
     1
 90
        0
176
     1
 90
        2
176
     1
 40
0.6
176
     1
 40
30.0
176
     1
 62
     7
420
 16777215
176
     1
 90
        0
176
     1
 90
        0
176
     1
 62
     7
176
     1
 62
   257
176
     1
 90
        1
176
     1
 90
        1
176
     1
 40
1.0
176
     1
 90
        8
176
     1
 62
   257
176
     1
 40
1.0
176
     1
 90
        1
176
     1
 90
        6
176
     1
 90
        2
176
     1
 62
     7
176
     1
 90
        3
176
     1
 90
        0
176
     1
 90
        0
176
     1
290
     0
176
     1
 90
       13
176
     1
 40
0.0
176
     1
 90
        0
176
     1
290
     0
176
     1
290
     1
176
     1
290
     1
176
     1
290
     0
176
     1
290
     0
176
     1
290
     0
176
     1
290
     0
176
     1
290
     0
176
     1
290
     0
176
     1
 90
       50
176
     1
 40
0.0
176
     1
 40
1.0
176
     1
 90
        0
176
     1
 62
    18
176
     1
 90
       50
176
     1
 90
        3
176
     1
 62
     5
420
      255
176
     1
290
     0
176
     1
 90
       50
176
     1
 90
       50
176
     1
 90
       50
176
     1
290
     0
176
     1
 90
       50
176
     1
 62
   256
176
     0
 40
1.0
176
     0
 90
        2
176
     1
  1
strokes_ogs.tif
176
     1
290
     0
176
     1
 40
1.0
176
     1
 40
1.0
176
     1
  0
VISUALSTYLE
  5
8A86
102
{ACAD_REACTORS
330
8A71
102
}
330
8A71
100
AcDbVisualStyle
  2
Shaded
 70
    27
177
     3
291
     0
 70
    58
 90
        2
176
     1
 90
        2
176
     1
 90
        1
176
     1
 90
        2
176
     1
 40
0.6
176
     1
 40
30.0
176
     1
 62
     7
420
 16777215
176
     1
 90
        0
176
     1
 90
        4
176
     1
 62
     7
176
     1
 62
   257
176
     1
 90
        1
176
     1
 90
        1
176
     1
 40
1.0
176
     1
 90
        8
176
     1
 62
   257
176
     1
 40
1.0
176
     1
 90
        1
176
     1
 90
        6
176
     1
 90
        2
176
     1
 62
     8
420
  7895160
176
     1
 90
        3
176
     1
 90
        0
176
     1
 90
        0
176
     1
290
     0
176
     1
 90
        5
176
     1
 40
0.0
176
     1
 90
        0
176
     1
290
     0
176
     1
290
     1
176
     1
290
     1
176
     1
290
     0
176
     1
290
     0
176
     1
290
     0
176
     1
290
     0
176
     1
290
     0
176
     1
290
     0
176
     1
 90
       50
176
     1
 40
0.0
176
     1
 40
1.0
176
     1
 90
        0
176
     1
 62
    18
176
     1
 90
       50
176
     1
 90
        3
176
     1
 62
     5
420
      255
176
     1
290
     0
176
     1
 90
       50
176
     1
 90
       50
176
     1
 90
       50
176
     1
290
     0
176
     1
 90
       50
176
     1
 62
   256
176
     0
 40
1.0
176
     0
 90
        2
176
     1
  1
strokes_ogs.tif
176
     1
290
     0
176
     1
 40
1.0
176
     1
 40
1.0
176
     1
  0
VISUALSTYLE
  5
8A85
102
{ACAD_REACTORS
330
8A71
102
}
330
8A71
100
AcDbVisualStyle
  2
Shaded with edges
 70
    26
177
     3
291
     0
 70
    58
 90
        2
176
     1
 90
        2
176
     1
 90
        1
176
     1
 90
        2
176
     1
 40
0.6
176
     1
 40
30.0
176
     1
 62
     7
420
 16777215
176
     1
 90
        1
176
     1
 90
       10
176
     1
 62
     7
176
     1
 62
   257
176
     1
 90
        2
176
     1
 90
        1
176
     1
 40
1.0
176
     1
 90
        8
176
     1
 62
   257
176
     1
 40
1.0
176
     1
 90
        1
176
     1
 90
        6
176
     1
 90
        2
176
     1
 62
     7
176
     1
 90
        3
176
     1
 90
        0
176
     1
 90
        0
176
     1
290
     0
176
     1
 90
        5
176
     1
 40
0.0
176
     1
 90
        0
176
     1
290
     0
176
     1
290
     1
176
     1
290
     1
176
     1
290
     0
176
     1
290
     0
176
     1
290
     0
176
     1
290
     0
176
     1
290
     0
176
     1
290
     0
176
     1
 90
       50
176
     1
 40
0.0
176
     1
 40
1.0
176
     1
 90
        0
176
     1
 62
    18
176
     1
 90
       50
176
     1
 90
        3
176
     1
 62
     5
420
      255
176
     1
290
     0
176
     1
 90
       50
176
     1
 90
       50
176
     1
 90
       50
176
     1
290
     0
176
     1
 90
       50
176
     1
 62
   256
176
     0
 40
1.0
176
     0
 90
        2
176
     1
  1
strokes_ogs.tif
176
     1
290
     0
176
     1
 40
1.0
176
     1
 40
1.0
176
     1
  0
VISUALSTYLE
  5
8A82
102
{ACAD_REACTORS
330
8A71
102
}
330
8A71
100
AcDbVisualStyle
  2
Shades of Gray
 70
    23
177
     3
291
     0
 70
    58
 90
        2
176
     1
 90
        2
176
     1
 90
        3
176
     1
 90
        0
176
     1
 40
0.6
176
     1
 40
30.0
176
     1
 62
     7
420
 16777215
176
     1
 90
        2
176
     1
 90
        2
176
     1
 62
     7
176
     1
 62
     7
176
     1
 90
        1
176
     1
 90
        1
176
     1
 40
40.0
176
     1
 90
        8
176
     1
 62
     7
176
     1
 40
1.0
176
     1
 90
        1
176
     1
 90
        6
176
     1
 90
        2
176
     1
 62
     7
176
     1
 90
        3
176
     1
 90
        0
176
     1
 90
        0
176
     1
290
     0
176
     1
 90
        1
176
     1
 40
0.0
176
     1
 90
        0
176
     1
290
     0
176
     1
290
     1
176
     1
290
     1
176
     1
290
     0
176
     1
290
     0
176
     1
290
     0
176
     1
290
     0
176
     1
290
     0
176
     1
290
     0
176
     1
 90
       50
176
     1
 40
0.0
176
     1
 40
1.0
176
     1
 90
        0
176
     1
 62
    18
176
     1
 90
       50
176
     1
 90
        3
176
     1
 62
     5
420
      255
176
     1
290
     0
176
     1
 90
       50
176
     1
 90
       50
176
     1
 90
       50
176
     1
290
     0
176
     1
 90
       50
176
     1
 62
   256
176
     0
 40
1.0
176
     0
 90
        2
176
     1
  1
strokes_ogs.tif
176
     1
290
     0
176
     1
 40
1.0
176
     1
 40
1.0
176
     1
  0
VISUALSTYLE
  5
8A83
102
{ACAD_REACTORS
330
8A71
102
}
330
8A71
100
AcDbVisualStyle
  2
Sketchy
 70
    24
177
     3
291
     0
 70
    58
 90
        1
176
     1
 90
        2
176
     1
 90
        2
176
     1
 90
        0
176
     1
 40
0.6
176
     1
 40
30.0
176
     1
 62
     7
420
 16777215
176
     1
 90
        2
176
     1
 90
        2
176
     1
 62
     7
176
     1
 62
     7
176
     1
 90
        1
176
     1
 90
        1
176
     1
 40
40.0
176
     1
 90
       11
176
     1
 62
     7
176
     1
 40
1.0
176
     1
 90
        1
176
     1
 90
        6
176
     1
 90
        2
176
     1
 62
     7
176
     1
 90
        6
176
     1
 90
        0
176
     1
 90
        0
176
     1
290
     0
176
     1
 90
        1
176
     1
 40
0.0
176
     1
 90
        0
176
     1
290
     0
176
     1
290
     1
176
     1
290
     1
176
     1
290
     0
176
     1
290
     0
176
     1
290
     0
176
     1
290
     0
176
     1
290
     0
176
     1
290
     0
176
     1
 90
       50
176
     1
 40
0.0
176
     1
 40
1.0
176
     1
 90
        0
176
     1
 62
    18
176
     1
 90
       50
176
     1
 90
        3
176
     1
 62
     5
420
      255
176
     1
290
     0
176
     1
 90
       50
176
     1
 90
       50
176
     1
 90
       50
176
     1
290
     0
176
     1
 90
       50
176
     1
 62
   256
176
     0
 40
1.0
176
     0
 90
        2
176
     1
  1
strokes_ogs.tif
176
     1
290
     0
176
     1
 40
1.0
176
     1
 40
1.0
176
     1
  0
VISUALSTYLE
  5
8A7E
102
{ACAD_REACTORS
330
8A71
102
}
330
8A71
100
AcDbVisualStyle
  2
Thicken
 70
    13
177
     3
291
     1
 70
    58
 90
        2
176
     1
 90
        2
176
     1
 90
        0
176
     1
 90
        0
176
     1
 40
0.6
176
     1
 40
30.0
176
     1
 62
     7
420
 16777215
176
     1
 90
        1
176
     1
 90
        4
176
     1
 62
     7
176
     1
 62
   257
176
     1
 90
        1
176
     1
 90
        1
176
     1
 40
1.0
176
     1
 90
       12
176
     1
 62
     7
176
     1
 40
1.0
176
     1
 90
        1
176
     1
 90
        6
176
     1
 90
        2
176
     1
 62
     7
176
     1
 90
        5
176
     1
 90
        0
176
     1
 90
        0
176
     1
290
     0
176
     1
 90
        1
176
     1
 40
0.0
176
     1
 90
        0
176
     1
290
     0
176
     1
290
     1
176
     1
290
     1
176
     1
290
     0
176
     1
290
     0
176
     1
290
     0
176
     1
290
     0
176
     1
290
     0
176
     1
290
     0
176
     1
 90
       50
176
     1
 40
0.0
176
     1
 40
1.0
176
     1
 90
        0
176
     1
 62
    18
176
     1
 90
       50
176
     1
 90
        3
176
     1
 62
     5
420
      255
176
     1
290
     0
176
     1
 90
       50
176
     1
 90
       50
176
     1
 90
       50
176
     1
290
     0
176
     1
 90
       50
176
     1
 62
   256
176
     0
 40
1.0
176
     0
 90
        2
176
     1
  1
strokes_ogs.tif
176
     1
290
     0
176
     1
 40
1.0
176
     1
 40
1.0
176
     1
  0
VISUALSTYLE
  5
8A78
102
{ACAD_REACTORS
330
8A71
102
}
330
8A71
100
AcDbVisualStyle
  2
Wireframe
 70
     5
177
     3
291
     0
 70
    58
 90
        0
176
     1
 90
        2
176
     1
 90
        0
176
     1
 90
        0
176
     1
 40
0.6
176
     1
 40
30.0
176
     1
 62
     7
420
 16777215
176
     1
 90
        1
176
     1
 90
        4
176
     1
 62
     7
176
     1
 62
   257
176
     1
 90
        1
176
     1
 90
        1
176
     1
 40
1.0
176
     1
 90
        0
176
     1
 62
   257
176
     1
 40
1.0
176
     1
 90
        1
176
     1
 90
        6
176
     1
 90
        2
176
     1
 62
     7
176
     1
 90
        3
176
     1
 90
        0
176
     1
 90
        0
176
     1
290
     0
176
     1
 90
        1
176
     1
 40
0.0
176
     1
 90
        0
176
     1
290
     0
176
     1
290
     1
176
     1
290
     1
176
     1
290
     0
176
     1
290
     0
176
     1
290
     0
176
     1
290
     0
176
     1
290
     0
176
     1
290
     0
176
     1
 90
       50
176
     1
 40
0.0
176
     1
 40
1.0
176
     1
 90
        0
176
     1
 62
    18
176
     1
 90
       50
176
     1
 90
        3
176
     1
 62
     5
420
      255
176
     1
290
     0
176
     1
 90
       50
176
     1
 90
       50
176
     1
 90
       50
176
     1
290
     0
176
     1
 90
       50
176
     1
 62
   256
176
     0
 40
1.0
176
     0
 90
        2
176
     1
  1
strokes_ogs.tif
176
     1
290
     0
176
     1
 40
1.0
176
     1
 40
1.0
176
     1
  0
VISUALSTYLE
  5
8A84
102
{ACAD_REACTORS
330
8A71
102
}
330
8A71
100
AcDbVisualStyle
  2
X-Ray
 70
    25
177
     3
291
     0
 70
    58
 90
        2
176
     1
 90
        2
176
     1
 90
        1
176
     1
 90
        1
176
     1
 40
0.5
176
     1
 40
30.0
176
     1
 62
     7
420
 16777215
176
     1
 90
        1
176
     1
 90
        0
176
     1
 62
     7
176
     1
 62
   257
176
     1
 90
        1
176
     1
 90
        1
176
     1
 40
1.0
176
     1
 90
        8
176
     1
 62
     7
176
     1
 40
1.0
176
     1
 90
        1
176
     1
 90
        6
176
     1
 90
        2
176
     1
 62
     7
176
     1
 90
        3
176
     1
 90
        0
176
     1
 90
        0
176
     1
290
     0
176
     1
 90
       13
176
     1
 40
0.0
176
     1
 90
        0
176
     1
290
     0
176
     1
290
     1
176
     1
290
     1
176
     1
290
     0
176
     1
290
     0
176
     1
290
     0
176
     1
290
     0
176
     1
290
     0
176
     1
290
     0
176
     1
 90
       50
176
     1
 40
0.0
176
     1
 40
1.0
176
     1
 90
        0
176
     1
 62
    18
176
     1
 90
       50
176
     1
 90
        3
176
     1
 62
     5
420
      255
176
     1
290
     0
176
     1
 90
       50
176
     1
 90
       50
176
     1
 90
       50
176
     1
290
     0
176
     1
 90
       50
176
     1
 62
   256
176
     0
 40
1.0
176
     0
 90
        2
176
     1
  1
strokes_ogs.tif
176
     1
290
     0
176
     1
 40
1.0
176
     1
 40
1.0
176
     1
  0
DICTIONARYVAR
  5
8AE9
102
{ACAD_REACTORS
330
5697
102
}
330
5697
100
DictionaryVariables
280
     0
  1
1:1
  0
DICTIONARYVAR
  5
8AE5
102
{ACAD_REACTORS
330
5697
102
}
330
5697
100
DictionaryVariables
280
     0
  1
STANDARD
  0
DICTIONARYVAR
  5
8AE4
102
{ACAD_REACTORS
330
5697
102
}
330
5697
100
DictionaryVariables
280
     0
  1
STANDARD
  0
DICTIONARYVAR
  5
8AE6
102
{ACAD_REACTORS
330
5697
102
}
330
5697
100
DictionaryVariables
280
     0
  1
Imperial24
  0
DICTIONARYVAR
  5
8AE7
102
{ACAD_REACTORS
330
5697
102
}
330
5697
100
DictionaryVariables
280
     0
  1
Imperial24
  0
DICTIONARYVAR
  5
5698
102
{ACAD_REACTORS
330
5697
102
}
330
5697
100
DictionaryVariables
280
     0
  1
1
  0
DICTIONARYVAR
  5
8AEB
102
{ACAD_REACTORS
330
5697
102
}
330
5697
100
DictionaryVariables
280
     0
  1
1
  0
DICTIONARYVAR
  5
8AEC
102
{ACAD_REACTORS
330
5697
102
}
330
5697
100
DictionaryVariables
280
     0
  1
15
  0
DICTIONARYVAR
  5
8AEA
102
{ACAD_REACTORS
330
5697
102
}
330
5697
100
DictionaryVariables
280
     0
  1
0
  0
DICTIONARYVAR
  5
8AE8
102
{ACAD_REACTORS
330
5697
102
}
330
5697
100
DictionaryVariables
280
     0
  1
0
  0
DICTIONARY
  5
1DEC3
330
8AA4
100
AcDbDictionary
280
     1
281
     1
  3
ACAD_XREC_ROUNDTRIP
360
1DFAF
  0
DICTIONARY
  5
F3D2
330
8A4C
100
AcDbDictionary
280
     1
281
     1
  0
DICTIONARY
  5
8A62
330
8A61
100
AcDbDictionary
280
     1
281
     1
  3
BUMPTILE
360
8A64
  3
DIFFUSETILE
360
8A63
  3
OPACITYTILE
360
8A67
  3
REFLECTIONTILE
360
8A66
  3
REFRACTIONTILE
360
8A68
  3
SPECULARTILE
360
8A65
  0
DICTIONARY
  5
8A5A
330
8A59
100
AcDbDictionary
280
     1
281
     1
  3
BUMPTILE
360
8A5C
  3
DIFFUSETILE
360
8A5B
  3
OPACITYTILE
360
8A5F
  3
REFLECTIONTILE
360
8A5E
  3
REFRACTIONTILE
360
8A60
  3
SPECULARTILE
360
8A5D
  0
DICTIONARY
  5
8A6A
330
8A69
100
AcDbDictionary
280
     1
281
     1
  3
BUMPTILE
360
8A6C
  3
DIFFUSETILE
360
8A6B
  3
OPACITYTILE
360
8A6F
  3
REFLECTIONTILE
360
8A6E
  3
REFRACTIONTILE
360
8A70
  3
SPECULARTILE
360
8A6D
  0
DICTIONARY
  5
1DEC1
330
8AA2
100
AcDbDictionary
280
     1
281
     1
  3
ACAD_XREC_ROUNDTRIP
360
1DFAE
  0
DICTIONARY
  5
8AED
330
8A8C
100
AcDbDictionary
280
     1
281
     1
  3
ACAD_ROUNDTRIP_2008_TABLESTYLE_CELLSTYLEMAP
360
1DFAD
  0
XRECORD
  5
1DFAF
102
{ACAD_REACTORS
330
1DEC3
102
}
330
1DEC3
100
AcDbXrecord
280
     1
102
DISPLAYNAME
  1
Imperial24
102
FLAGS
 90
        0
  0
XRECORD
  5
8A64
102
{ACAD_REACTORS
330
8A62
102
}
330
8A62
100
AcDbXrecord
280
     1
270
     1
271
     1
  0
XRECORD
  5
8A63
102
{ACAD_REACTORS
330
8A62
102
}
330
8A62
100
AcDbXrecord
280
     1
270
     1
271
     1
  0
XRECORD
  5
8A67
102
{ACAD_REACTORS
330
8A62
102
}
330
8A62
100
AcDbXrecord
280
     1
270
     1
271
     1
  0
XRECORD
  5
8A66
102
{ACAD_REACTORS
330
8A62
102
}
330
8A62
100
AcDbXrecord
280
     1
270
     1
271
     1
  0
XRECORD
  5
8A68
102
{ACAD_REACTORS
330
8A62
102
}
330
8A62
100
AcDbXrecord
280
     1
270
     1
271
     1
  0
XRECORD
  5
8A65
102
{ACAD_REACTORS
330
8A62
102
}
330
8A62
100
AcDbXrecord
280
     1
270
     1
271
     1
  0
XRECORD
  5
8A5C
102
{ACAD_REACTORS
330
8A5A
102
}
330
8A5A
100
AcDbXrecord
280
     1
270
     1
271
     1
  0
XRECORD
  5
8A5B
102
{ACAD_REACTORS
330
8A5A
102
}
330
8A5A
100
AcDbXrecord
280
     1
270
     1
271
     1
  0
XRECORD
  5
8A5F
102
{ACAD_REACTORS
330
8A5A
102
}
330
8A5A
100
AcDbXrecord
280
     1
270
     1
271
     1
  0
XRECORD
  5
8A5E
102
{ACAD_REACTORS
330
8A5A
102
}
330
8A5A
100
AcDbXrecord
280
     1
270
     1
271
     1
  0
XRECORD
  5
8A60
102
{ACAD_REACTORS
330
8A5A
102
}
330
8A5A
100
AcDbXrecord
280
     1
270
     1
271
     1
  0
XRECORD
  5
8A5D
102
{ACAD_REACTORS
330
8A5A
102
}
330
8A5A
100
AcDbXrecord
280
     1
270
     1
271
     1
  0
XRECORD
  5
8A6C
102
{ACAD_REACTORS
330
8A6A
102
}
330
8A6A
100
AcDbXrecord
280
     1
270
     1
271
     1
  0
XRECORD
  5
8A6B
102
{ACAD_REACTORS
330
8A6A
102
}
330
8A6A
100
AcDbXrecord
280
     1
270
     1
271
     1
  0
XRECORD
  5
8A6F
102
{ACAD_REACTORS
330
8A6A
102
}
330
8A6A
100
AcDbXrecord
280
     1
270
     1
271
     1
  0
XRECORD
  5
8A6E
102
{ACAD_REACTORS
330
8A6A
102
}
330
8A6A
100
AcDbXrecord
280
     1
270
     1
271
     1
  0
XRECORD
  5
8A70
102
{ACAD_REACTORS
330
8A6A
102
}
330
8A6A
100
AcDbXrecord
280
     1
270
     1
271
     1
  0
XRECORD
  5
8A6D
102
{ACAD_REACTORS
330
8A6A
102
}
330
8A6A
100
AcDbXrecord
280
     1
270
     1
271
     1
  0
XRECORD
  5
1DFAE
102
{ACAD_REACTORS
330
1DEC1
102
}
330
1DEC1
100
AcDbXrecord
280
     1
102
DISPLAYNAME
  1
Imperial24
102
FLAGS
 90
        0
  0
CELLSTYLEMAP
  5
1DFAD
102
{ACAD_REACTORS
330
8AED
102
}
330
8AED
100
AcDbCellStyleMap
 90
        3
300
CELLSTYLE
  1
TABLEFORMAT_BEGIN
 90
        5
170
     1
 91
        0
 92
    32768
 62
   257
 93
        1
300
CONTENTFORMAT
  1
CONTENTFORMAT_BEGIN
 90
        0
 91
        0
 92
      512
 93
        0
300

 40
0.0
140
1.0
 94
        5
 62
     0
340
11
144
0.25
309
CONTENTFORMAT_END
171
     1
301
MARGIN
  1
CELLMARGIN_BEGIN
 40
0.06
 40
0.06
 40
0.06
 40
0.06
 40
0.18
 40
0.18
309
CELLMARGIN_END
 94
        6
 95
        1
302
GRIDFORMAT
  1
GRIDFORMAT_BEGIN
 90
        0
 91
        1
 62
     0
 92
       -2
340
0
 93
        0
 40
0.045
309
GRIDFORMAT_END
 95
        2
302
GRIDFORMAT
  1
GRIDFORMAT_BEGIN
 90
        0
 91
        1
 62
     0
 92
       -2
340
0
 93
        0
 40
0.045
309
GRIDFORMAT_END
 95
        4
302
GRIDFORMAT
  1
GRIDFORMAT_BEGIN
 90
        0
 91
        1
 62
     0
 92
       -2
340
0
 93
        0
 40
0.045
309
GRIDFORMAT_END
 95
        8
302
GRIDFORMAT
  1
GRIDFORMAT_BEGIN
 90
        0
 91
        1
 62
     0
 92
       -2
340
0
 93
        0
 40
0.045
309
GRIDFORMAT_END
 95
       16
302
GRIDFORMAT
  1
GRIDFORMAT_BEGIN
 90
        0
 91
        1
 62
     0
 92
       -2
340
0
 93
        0
 40
0.045
309
GRIDFORMAT_END
 95
       32
302
GRIDFORMAT
  1
GRIDFORMAT_BEGIN
 90
        0
 91
        1
 62
     0
 92
       -2
340
0
 93
        0
 40
0.045
309
GRIDFORMAT_END
309
TABLEFORMAT_END
  1
CELLSTYLE_BEGIN
 90
        1
 91
        1
300
_TITLE
309
CELLSTYLE_END
300
CELLSTYLE
  1
TABLEFORMAT_BEGIN
 90
        5
170
     1
 91
        0
 92
        0
 62
   257
 93
        1
300
CONTENTFORMAT
  1
CONTENTFORMAT_BEGIN
 90
        0
 91
        0
 92
      512
 93
        0
300

 40
0.0
140
1.0
 94
        5
 62
     0
340
11
144
0.18
309
CONTENTFORMAT_END
171
     1
301
MARGIN
  1
CELLMARGIN_BEGIN
 40
0.06
 40
0.06
 40
0.06
 40
0.06
 40
0.18
 40
0.18
309
CELLMARGIN_END
 94
        6
 95
        1
302
GRIDFORMAT
  1
GRIDFORMAT_BEGIN
 90
        0
 91
        1
 62
     0
 92
       -2
340
0
 93
        0
 40
0.045
309
GRIDFORMAT_END
 95
        2
302
GRIDFORMAT
  1
GRIDFORMAT_BEGIN
 90
        0
 91
        1
 62
     0
 92
       -2
340
0
 93
        0
 40
0.045
309
GRIDFORMAT_END
 95
        4
302
GRIDFORMAT
  1
GRIDFORMAT_BEGIN
 90
        0
 91
        1
 62
     0
 92
       -2
340
0
 93
        0
 40
0.045
309
GRIDFORMAT_END
 95
        8
302
GRIDFORMAT
  1
GRIDFORMAT_BEGIN
 90
        0
 91
        1
 62
     0
 92
       -2
340
0
 93
        0
 40
0.045
309
GRIDFORMAT_END
 95
       16
302
GRIDFORMAT
  1
GRIDFORMAT_BEGIN
 90
        0
 91
        1
 62
     0
 92
       -2
340
0
 93
        0
 40
0.045
309
GRIDFORMAT_END
 95
       32
302
GRIDFORMAT
  1
GRIDFORMAT_BEGIN
 90
        0
 91
        1
 62
     0
 92
       -2
340
0
 93
        0
 40
0.045
309
GRIDFORMAT_END
309
TABLEFORMAT_END
  1
CELLSTYLE_BEGIN
 90
        2
 91
        1
300
_HEADER
309
CELLSTYLE_END
300
CELLSTYLE
  1
TABLEFORMAT_BEGIN
 90
        5
170
     1
 91
        0
 92
        0
 62
   257
 93
        1
300
CONTENTFORMAT
  1
CONTENTFORMAT_BEGIN
 90
        0
 91
        0
 92
      512
 93
        0
300

 40
0.0
140
1.0
 94
        2
 62
     0
340
11
144
0.18
309
CONTENTFORMAT_END
171
     1
301
MARGIN
  1
CELLMARGIN_BEGIN
 40
0.06
 40
0.06
 40
0.06
 40
0.06
 40
0.18
 40
0.18
309
CELLMARGIN_END
 94
        6
 95
        1
302
GRIDFORMAT
  1
GRIDFORMAT_BEGIN
 90
        0
 91
        1
 62
     0
 92
       -2
340
0
 93
        0
 40
0.045
309
GRIDFORMAT_END
 95
        2
302
GRIDFORMAT
  1
GRIDFORMAT_BEGIN
 90
        0
 91
        1
 62
     0
 92
       -2
340
0
 93
        0
 40
0.045
309
GRIDFORMAT_END
 95
        4
302
GRIDFORMAT
  1
GRIDFORMAT_BEGIN
 90
        0
 91
        1
 62
     0
 92
       -2
340
0
 93
        0
 40
0.045
309
GRIDFORMAT_END
 95
        8
302
GRIDFORMAT
  1
GRIDFORMAT_BEGIN
 90
        0
 91
        1
 62
     0
 92
       -2
340
0
 93
        0
 40
0.045
309
GRIDFORMAT_END
 95
       16
302
GRIDFORMAT
  1
GRIDFORMAT_BEGIN
 90
        0
 91
        1
 62
     0
 92
       -2
340
0
 93
        0
 40
0.045
309
GRIDFORMAT_END
 95
       32
302
GRIDFORMAT
  1
GRIDFORMAT_BEGIN
 90
        0
 91
        1
 62
     0
 92
       -2
340
0
 93
        0
 40
0.045
309
GRIDFORMAT_END
309
TABLEFORMAT_END
  1
CELLSTYLE_BEGIN
 90
        3
 91
        2
300
_DATA
309
CELLSTYLE_END
  0
ENDSEC
  0
SECTION
  2
ACDSDATA
 70
     2
 71
     6
  0
ACDSSCHEMA
 90
        0
  1
AcDb_Thumbnail_Schema
  2
AcDbDs::ID
280
    10
 91
        8
  2
Thumbnail_Data
280
    15
 91
        0
101
ACDSRECORD
 95
        0
 90
        1
  2
AcDbDs::TreatedAsObjectData
280
     1
291
     1
101
ACDSRECORD
 95
        0
 90
        2
  2
AcDbDs::Legacy
280
     1
291
     1
101
ACDSRECORD
  1
AcDbDs::ID
 90
        3
  2
AcDs:Indexable
280
     1
291
     1
101
ACDSRECORD
  1
AcDbDs::ID
 90
        4
  2
AcDbDs::HandleAttribute
280
     7
282
     1
  0
ACDSSCHEMA
 90
        1
  1
AcDbDs::TreatedAsObjectDataSchema
  2
AcDbDs::TreatedAsObjectData
280
     1
 91
        0
  0
ACDSSCHEMA
 90
        2
  1
AcDbDs::LegacySchema
  2
AcDbDs::Legacy
280
     1
 91
        0
  0
ACDSSCHEMA
 90
        3
  1
AcDbDs::IndexedPropertySchema
  2
AcDs:Indexable
280
     1
 91
        0
  0
ACDSSCHEMA
 90
        4
  1
AcDbDs::HandleAttributeSchema
  2
AcDbDs::HandleAttribute
280
     7
 91
        1
284
     1
  0
ACDSRECORD
 90
        0
  2
AcDbDs::ID
280
    10
320
8A4C
  2
Thumbnail_Data
280
    15
 94
     1641
310
89504E470D0A1A0A0000000D49484452000001000000006F08030000003479EE6F00000300504C5445000000000000C8C8C80000000000000000000000000000000000000000000000000000330000660000990000CC0000FF0033000033330033660033990033CC0033FF0066000066330066660066990066CC0066FF0099
310
000099330099660099990099CC0099FF00CC0000CC3300CC6600CC9900CCCC00CCFF00FF0000FF3300FF6600FF9900FFCC00FFFF3300003300333300663300993300CC3300FF3333003333333333663333993333CC3333FF3366003366333366663366993366CC3366FF3399003399333399663399993399CC3399FF33CC00
310
33CC3333CC6633CC9933CCCC33CCFF33FF0033FF3333FF6633FF9933FFCC33FFFF6600006600336600666600996600CC6600FF6633006633336633666633996633CC6633FF6666006666336666666666996666CC6666FF6699006699336699666699996699CC6699FF66CC0066CC3366CC6666CC9966CCCC66CCFF66FF0066
310
FF3366FF6666FF9966FFCC66FFFF9900009900339900669900999900CC9900FF9933009933339933669933999933CC9933FF9966009966339966669966999966CC9966FF9999009999339999669999999999CC9999FF99CC0099CC3399CC6699CC9999CCCC99CCFF99FF0099FF3399FF6699FF9999FFCC99FFFFCC0000CC00
310
33CC0066CC0099CC00CCCC00FFCC3300CC3333CC3366CC3399CC33CCCC33FFCC6600CC6633CC6666CC6699CC66CCCC66FFCC9900CC9933CC9966CC9999CC99CCCC99FFCCCC00CCCC33CCCC66CCCC99CCCCCCCCCCFFCCFF00CCFF33CCFF66CCFF99CCFFCCCCFFFFFF0000FF0033FF0066FF0099FF00CCFF00FFFF3300FF3333
310
FF3366FF3399FF33CCFF33FFFF6600FF6633FF6666FF6699FF66CCFF66FFFF9900FF9933FF9966FF9999FF99CCFF99FFFFCC00FFCC33FFCC66FFCC99FFCCCCFFCCFFFFFF00FFFF33FFFF66FFFF99FFFFCCFFFFFF0000000D0D0D1A1A1A2828283535354343435050505D5D5D6B6B6B787878868686939393A1A1A1AEAEAEBB
310
BBBBC9C9C9D6D6D6E4E4E4F1F1F1FFFFFF00000000000000000000000000000000000000000000000000000000000008F1915C000003244944415478DAED9C3972C3300C4571035E830DEEDFB9C13558F10468DC87FB224B8A33994C12007F224594E5824F1089853280C96432994CA66F0BBF2509007EEDCB7F110073DDB4
310
02E026BD00EAA615002263D9F8EDD14D1880C502540208814251FAA71100E69EDF4FF0CF26B18F0061D9080C8001500900A93EFF8406402500F87A94272F1ACC6380E66810DEBAFB31CA050040B7578790FA3FC34575004222109670595746A8DCF9B0254C740128B9122202D50098582D80F2083070FA1FE502989DBB3083
310
62082201F48C68BCCD8BB66B4402681D5C1A8A3C41E67E6FE36D663C960BE502580CFD12C07A9D240049C83516408CD74321AF8503310092E10372487D0F94773753410E96E401683E4EEA3BE55D3ABC8C0610834C00E528DF5E2C072A2D602DFC9FCE04E34399AE707EFE7D081E53D08FA7BE001EBF230C0091CF00D29626
310
04560820C997BF3C176A0450F6D48E4F0020180003207D0C9895910D409B26C503C80D6A0ED10EA0BB40E20194C2E0298075E19068005801EC9E600E95A403A0BC3020F9429477070039175C3F98926A0140271650DC42D63D06680100A01AC0277E006BF604190C800160BD634003F0D4901021EF7362F81480EF422F1340
310
E839C1D7945803301C239900A83A42749215AEA5B39132963A085ED70546EDB0D4054402409AA531D2096094C6F695501B80183157D0635D2C290C408986A8ED2E0030AFEFD6295A24D500941552512F0066A90B24DE05103503982E904800F1FE9561058F40EED671F6A3634A442E00E71CBBAEDA766B1B4ECF4902906EB2
310
4F77DCD763708B050C002FE7A400E896ED532CEC5502A81D526C01AF9D33006BBB0DFBF31CEB02C0470B600D16F0181A137F3A3F4E705F5B2917C0683F1C4C00F9DCA34D9B06400A00FE0C009F0160490088DCB2F6C111907B8C660740079905D81860002403E0533F80F5F8013CDABCC4022569C22A620103600034019819
310
21F61A01B40EF1D2397D005A5A987B5678E68879C90AB35BAE115719CA45EFF9FEF4B480E5EA61012012C0F60239F46AD10E605B3C241A40F9318178582B548BE352011CB5FF72DC3CF5D402E087BFFC570068FF717593C96432994C26D3FFD2073291B0DFC1794F730000000049454E44AE426082
  0
ENDSEC
  0
EOF
