  0
SECTION
  2
HEADER
  9
$ACADVER
  1
AC1027
  9
$ACADMAINTVER
 70
    55
  9
$DWGCODEPAGE
  3
ANSI_932
  9
$LASTSAVEDBY
  1
marketing
  9
$REQUIREDVERSIONS
160
                 0
  9
$INSBASE
 10
0.0
 20
0.0
 30
0.0
  9
$EXTMIN
 10
-0.0312163486573809
 20
-0.1241396001887551
 30
-0.0015258207003583
  9
$EXTMAX
 10
840.034680288541
 20
1305.651160623895
 30
0.0000000349246037
  9
$LIMMIN
 10
-296.316999476111
 20
-370.7034300441653
  9
$LIMMAX
 10
623.3128432133979
 20
328.6261559379898
  9
$ORTHOMODE
 70
     1
  9
$REGENMODE
 70
     1
  9
$FILLMODE
 70
     1
  9
$QTEXTMODE
 70
     0
  9
$MIRRTEXT
 70
     1
  9
$LTSCALE
 40
10.0
  9
$ATTMODE
 70
     1
  9
$TEXTSIZE
 40
5.0
  9
$TRACEWID
 40
0.05
  9
$TEXTSTYLE
  7
STANDARD1
  9
$CLAYER
  8
30
  9
$CELTYPE
  6
BYLAYER
  9
$CECOLOR
 62
   256
  9
$CELTSCALE
 40
1.0
  9
$DISPSILH
 70
     0
  9
$DIMSCALE
 40
1.0
  9
$DIMASZ
 40
2.0
  9
$DIMEXO
 40
1.0
  9
$DIMDLI
 40
0.5
  9
$DIMRND
 40
0.0
  9
$DIMDLE
 40
0.0
  9
$DIMEXE
 40
0.5
  9
$DIMTP
 40
0.0
  9
$DIMTM
 40
0.0
  9
$DIMTXT
 40
8.0
  9
$DIMCEN
 40
0.09
  9
$DIMTSZ
 40
0.0
  9
$DIMTOL
 70
     0
  9
$DIMLIM
 70
     0
  9
$DIMTIH
 70
     0
  9
$DIMTOH
 70
     0
  9
$DIMSE1
 70
     0
  9
$DIMSE2
 70
     0
  9
$DIMTAD
 70
     3
  9
$DIMZIN
 70
    12
  9
$DIMBLK
  1
OPEN
  9
$DIMASO
 70
     1
  9
$DIMSHO
 70
     1
  9
$DIMPOST
  1

  9
$DIMAPOST
  1

  9
$DIMALT
 70
     0
  9
$DIMALTD
 70
     2
  9
$DIMALTF
 40
25.4
  9
$DIMLFAC
 40
1.0
  9
$DIMTOFL
 70
     0
  9
$DIMTVP
 40
0.0
  9
$DIMTIX
 70
     0
  9
$DIMSOXD
 70
     0
  9
$DIMSAH
 70
     0
  9
$DIMBLK1
  1

  9
$DIMBLK2
  1

  9
$DIMSTYLE
  2
STANDARD
  9
$DIMCLRD
 70
     0
  9
$DIMCLRE
 70
     0
  9
$DIMCLRT
 70
   256
  9
$DIMTFAC
 40
1.0
  9
$DIMGAP
 40
3.0
  9
$DIMJUST
 70
     0
  9
$DIMSD1
 70
     0
  9
$DIMSD2
 70
     0
  9
$DIMTOLJ
 70
     1
  9
$DIMTZIN
 70
     0
  9
$DIMALTZ
 70
     0
  9
$DIMALTTZ
 70
     0
  9
$DIMUPT
 70
     0
  9
$DIMDEC
 70
     1
  9
$DIMTDEC
 70
     1
  9
$DIMALTU
 70
     2
  9
$DIMALTTD
 70
     2
  9
$DIMTXSTY
  7
STANDARD
  9
$DIMAUNIT
 70
     0
  9
$DIMADEC
 70
     0
  9
$DIMALTRND
 40
0.0
  9
$DIMAZIN
 70
     0
  9
$DIMDSEP
 70
    46
  9
$DIMATFIT
 70
     3
  9
$DIMFRAC
 70
     0
  9
$DIMLDRBLK
  1
OPEN
  9
$DIMLUNIT
 70
     2
  9
$DIMLWD
 70
    -2
  9
$DIMLWE
 70
    -2
  9
$DIMTMOVE
 70
     0
  9
$DIMFXL
 40
1.0
  9
$DIMFXLON
 70
     0
  9
$DIMJOGANG
 40
0.7853981633974483
  9
$DIMTFILL
 70
     1
  9
$DIMTFILLCLR
 70
     0
  9
$DIMARCSYM
 70
     0
  9
$DIMLTYPE
  6

  9
$DIMLTEX1
  6

  9
$DIMLTEX2
  6

  9
$DIMTXTDIRECTION
 70
     0
  9
$LUNITS
 70
     2
  9
$LUPREC
 70
     4
  9
$SKETCHINC
 40
0.1
  9
$FILLETRAD
 40
0.0
  9
$AUNITS
 70
     0
  9
$AUPREC
 70
     0
  9
$MENU
  1
.
  9
$ELEVATION
 40
0.0
  9
$PELEVATION
 40
0.0
  9
$THICKNESS
 40
0.0
  9
$LIMCHECK
 70
     0
  9
$CHAMFERA
 40
0.0
  9
$CHAMFERB
 40
0.0
  9
$CHAMFERC
 40
0.0
  9
$CHAMFERD
 40
0.0
  9
$SKPOLY
 70
     0
  9
$TDCREATE
 40
2452286.555658658
  9
$TDUCREATE
 40
2452286.180658658
  9
$TDUPDATE
 40
2459244.412908484
  9
$TDUUPDATE
 40
2459244.037908484
  9
$TDINDWG
 40
1.9135560069
  9
$TDUSRTIMER
 40
1.9135535648
  9
$USRTIMER
 70
     1
  9
$ANGBASE
 50
0.0
  9
$ANGDIR
 70
     0
  9
$PDMODE
 70
     0
  9
$PDSIZE
 40
0.0
  9
$PLINEWID
 40
0.0
  9
$SPLFRAME
 70
     0
  9
$SPLINETYPE
 70
     6
  9
$SPLINESEGS
 70
     8
  9
$HANDSEED
  5
1C49A
  9
$SURFTAB1
 70
     6
  9
$SURFTAB2
 70
     6
  9
$SURFTYPE
 70
     6
  9
$SURFU
 70
     6
  9
$SURFV
 70
     6
  9
$UCSBASE
  2

  9
$UCSNAME
  2

  9
$UCSORG
 10
0.0
 20
0.0
 30
0.0
  9
$UCSXDIR
 10
1.0
 20
0.0
 30
0.0
  9
$UCSYDIR
 10
0.0
 20
1.0
 30
0.0
  9
$UCSORTHOREF
  2

  9
$UCSORTHOVIEW
 70
     0
  9
$UCSORGTOP
 10
0.0
 20
0.0
 30
0.0
  9
$UCSORGBOTTOM
 10
0.0
 20
0.0
 30
0.0
  9
$UCSORGLEFT
 10
0.0
 20
0.0
 30
0.0
  9
$UCSORGRIGHT
 10
0.0
 20
0.0
 30
0.0
  9
$UCSORGFRONT
 10
0.0
 20
0.0
 30
0.0
  9
$UCSORGBACK
 10
0.0
 20
0.0
 30
0.0
  9
$PUCSBASE
  2

  9
$PUCSNAME
  2

  9
$PUCSORG
 10
0.0
 20
0.0
 30
0.0
  9
$PUCSXDIR
 10
1.0
 20
0.0
 30
0.0
  9
$PUCSYDIR
 10
0.0
 20
1.0
 30
0.0
  9
$PUCSORTHOREF
  2

  9
$PUCSORTHOVIEW
 70
     0
  9
$PUCSORGTOP
 10
0.0
 20
0.0
 30
0.0
  9
$PUCSORGBOTTOM
 10
0.0
 20
0.0
 30
0.0
  9
$PUCSORGLEFT
 10
0.0
 20
0.0
 30
0.0
  9
$PUCSORGRIGHT
 10
0.0
 20
0.0
 30
0.0
  9
$PUCSORGFRONT
 10
0.0
 20
0.0
 30
0.0
  9
$PUCSORGBACK
 10
0.0
 20
0.0
 30
0.0
  9
$USERI1
 70
     0
  9
$USERI2
 70
     0
  9
$USERI3
 70
     0
  9
$USERI4
 70
     0
  9
$USERI5
 70
     0
  9
$USERR1
 40
0.0
  9
$USERR2
 40
0.0
  9
$USERR3
 40
0.0
  9
$USERR4
 40
0.0
  9
$USERR5
 40
0.0
  9
$WORLDVIEW
 70
     1
  9
$SHADEDGE
 70
     3
  9
$SHADEDIF
 70
    70
  9
$TILEMODE
 70
     1
  9
$MAXACTVP
 70
    48
  9
$PINSBASE
 10
0.0
 20
0.0
 30
0.0
  9
$PLIMCHECK
 70
     0
  9
$PEXTMIN
 10
4.273573
 20
5.205245999999998
 30
0.0
  9
$PEXTMAX
 10
194.610095
 20
283.0697009999996
 30
0.0
  9
$PLIMMIN
 10
-5.873749
 20
-5.87375
  9
$PLIMMAX
 10
204.099579
 20
291.1369009999999
  9
$UNITMODE
 70
     0
  9
$VISRETAIN
 70
     1
  9
$PLINEGEN
 70
     0
  9
$PSLTSCALE
 70
     1
  9
$TREEDEPTH
 70
  3020
  9
$CMLSTYLE
  2
STANDARD
  9
$CMLJUST
 70
     0
  9
$CMLSCALE
 40
1.0
  9
$PROXYGRAPHICS
 70
     1
  9
$MEASUREMENT
 70
     0
  9
$CELWEIGHT
370
    -1
  9
$ENDCAPS
280
     0
  9
$JOINSTYLE
280
     0
  9
$LWDISPLAY
290
     0
  9
$INSUNITS
 70
     0
  9
$HYPERLINKBASE
  1

  9
$STYLESHEET
  1
MONOCHROME.CTB
  9
$XEDIT
290
     1
  9
$CEPSNTYPE
380
     0
  9
$PSTYLEMODE
290
     1
  9
$FINGERPRINTGUID
  2

  9
$VERSIONGUID
  2
{C53D3BC6-29C7-4314-8278-33D51C8B7437}
  9
$EXTNAMES
290
     1
  9
$PSVPSCALE
 40
0.0
  9
$OLESTARTUP
290
     0
  9
$SORTENTS
280
   127
  9
$INDEXCTL
280
     0
  9
$HIDETEXT
280
     0
  9
$XCLIPFRAME
280
     2
  9
$HALOGAP
280
     0
  9
$OBSCOLOR
 70
   257
  9
$OBSLTYPE
280
     0
  9
$INTERSECTIONDISPLAY
280
     0
  9
$INTERSECTIONCOLOR
 70
   257
  9
$DIMASSOC
280
     1
  9
$PROJECTNAME
  1

  9
$CAMERADISPLAY
290
     0
  9
$LENSLENGTH
 40
50.0
  9
$CAMERAHEIGHT
 40
0.0
  9
$STEPSPERSEC
 40
2.0
  9
$STEPSIZE
 40
6.0
  9
$3DDWFPREC
 40
2.0
  9
$PSOLWIDTH
 40
0.25
  9
$PSOLHEIGHT
 40
4.0
  9
$LOFTANG1
 40
1.570796326794896
  9
$LOFTANG2
 40
1.570796326794896
  9
$LOFTMAG1
 40
0.0
  9
$LOFTMAG2
 40
0.0
  9
$LOFTPARAM
 70
     7
  9
$LOFTNORMALS
280
     1
  9
$LATITUDE
 40
37.795
  9
$LONGITUDE
 40
-122.394
  9
$NORTHDIRECTION
 40
0.0
  9
$TIMEZONE
 70
 -8000
  9
$LIGHTGLYPHDISPLAY
280
     1
  9
$TILEMODELIGHTSYNCH
280
     1
  9
$CMATERIAL
347
8A59
  9
$SOLIDHIST
280
     0
  9
$SHOWHIST
280
     1
  9
$DWFFRAME
280
     2
  9
$DGNFRAME
280
     0
  9
$REALWORLDSCALE
290
     1
  9
$INTERFERECOLOR
 62
     1
  9
$INTERFEREOBJVS
345
8A7B
  9
$INTERFEREVPVS
346
8A78
  9
$CSHADOW
280
     0
  9
$SHADOWPLANELOCATION
 40
0.0
  0
ENDSEC
  0
SECTION
  2
CLASSES
  0
CLASS
  1
ACDBDICTIONARYWDFLT
  2
AcDbDictionaryWithDefault
  3
ObjectDBX Classes
 90
        0
 91
        1
280
     0
281
     0
  0
CLASS
  1
DICTIONARYVAR
  2
AcDbDictionaryVar
  3
ObjectDBX Classes
 90
        0
 91
       10
280
     0
281
     0
  0
CLASS
  1
MATERIAL
  2
AcDbMaterial
  3
ObjectDBX Classes
 90
     1153
 91
        3
280
     0
281
     0
  0
CLASS
  1
VISUALSTYLE
  2
AcDbVisualStyle
  3
ObjectDBX Classes
 90
     4095
 91
       26
280
     0
281
     0
  0
CLASS
  1
TABLESTYLE
  2
AcDbTableStyle
  3
ObjectDBX Classes
 90
     4095
 91
        1
280
     0
281
     0
  0
CLASS
  1
SCALE
  2
AcDbScale
  3
ObjectDBX Classes
 90
     1153
 91
       17
280
     0
281
     0
  0
CLASS
  1
MLEADERSTYLE
  2
AcDbMLeaderStyle
  3
ACDB_MLEADERSTYLE_CLASS
 90
     4095
 91
        1
280
     0
281
     0
  0
CLASS
  1
ACDBSECTIONVIEWSTYLE
  2
AcDbSectionViewStyle
  3
ObjectDBX Classes
 90
     1025
 91
        1
280
     0
281
     0
  0
CLASS
  1
ACDBDETAILVIEWSTYLE
  2
AcDbDetailViewStyle
  3
ObjectDBX Classes
 90
     1025
 91
        1
280
     0
281
     0
  0
CLASS
  1
CELLSTYLEMAP
  2
AcDbCellStyleMap
  3
ObjectDBX Classes
 90
     1152
 91
        2
280
     0
281
     0
  0
CLASS
  1
AEC_REFEDIT_STATUS_TRACKER
  2
AecDbRefEditStatusTracker
  3
AecArchBase70|Product Desc: Autodesk Architectural Desktop 2007 |Company: Autodesk,Inc. |WEB Address: www.autodesk.com
 90
      129
 91
        0
280
     0
281
     0
  0
CLASS
  1
NPOCOLLECTION
  2
AcDbImpNonPersistentObjectsCollection
  3
ObjectDBX Classes
 90
     1153
 91
        0
280
     0
281
     0
  0
CLASS
  1
SORTENTSTABLE
  2
AcDbSortentsTable
  3
ObjectDBX Classes
 90
        0
 91
        1
280
     0
281
     0
  0
ENDSEC
  0
SECTION
  2
TABLES
  0
TABLE
  2
VPORT
  5
8
330
0
100
AcDbSymbolTable
 70
     1
  0
VPORT
  5
8A51
330
8
100
AcDbSymbolTableRecord
100
AcDbViewportTableRecord
  2
*Active
 70
     0
 10
0.0
 20
0.0
 11
1.0
 21
1.0
 12
420.0017319699417
 22
652.7635105118534
 13
0.0
 23
0.0
 14
1.0
 24
1.0
 15
10.0
 25
10.0
 16
0.0
 26
0.0
 36
1.0
 17
0.0
 27
0.0
 37
0.0
 40
1315.214639743776
 41
2.289505428226779
 42
50.0
 43
0.0
 44
0.0
 50
0.0
 51
0.0
 71
     0
 72
   100
 73
     1
 74
     1
 75
     0
 76
     0
 77
     0
 78
     0
281
     0
 65
     1
110
0.0
120
0.0
130
0.0
111
1.0
121
0.0
131
0.0
112
0.0
122
1.0
132
0.0
 79
     0
146
0.0
348
8A77
 60
     3
 61
     5
292
     1
282
     1
141
0.0
142
0.0
 63
   250
421
  3355443
1001
ACAD_NAV_VCDISPLAY
1070
     3
  0
ENDTAB
  0
TABLE
  2
LTYPE
  5
5
330
0
100
AcDbSymbolTable
 70
     8
  0
LTYPE
  5
13
330
5
100
AcDbSymbolTableRecord
100
AcDbLinetypeTableRecord
  2
BYBLOCK
 70
     0
  3

 72
    65
 73
     0
 40
0.0
  0
LTYPE
  5
14
330
5
100
AcDbSymbolTableRecord
100
AcDbLinetypeTableRecord
  2
BYLAYER
 70
     0
  3

 72
    65
 73
     0
 40
0.0
  0
LTYPE
  5
15
330
5
100
AcDbSymbolTableRecord
100
AcDbLinetypeTableRecord
  2
CONTINUOUS
 70
     0
  3
Solid line
 72
    65
 73
     0
 40
0.0
  0
LTYPE
  5
22
330
5
100
AcDbSymbolTableRecord
100
AcDbLinetypeTableRecord
  2
CONTINOUS
 70
     0
  3
Solid line
 72
    65
 73
     0
 40
0.0
  0
LTYPE
  5
24
330
5
100
AcDbSymbolTableRecord
100
AcDbLinetypeTableRecord
  2
DASHDOT
 70
     0
  3
__ . __ . __ . __ . __ . __ . __ . __ . __ . __
 72
    65
 73
     4
 40
1.0
 49
0.5
 74
     0
 49
-0.25
 74
     0
 49
0.0
 74
     0
 49
-0.25
 74
     0
  0
LTYPE
  5
4C47
330
5
100
AcDbSymbolTableRecord
100
AcDbLinetypeTableRecord
  2
DIVIDE
 70
     0
  3
Divide ____ . . ____ . . ____ . . ____ . . ____
 72
    65
 73
     6
 40
1.25
 49
0.5
 74
     0
 49
-0.25
 74
     0
 49
0.0
 74
     0
 49
-0.25
 74
     0
 49
0.0
 74
     0
 49
-0.25
 74
     0
  0
LTYPE
  5
912E
330
5
100
AcDbSymbolTableRecord
100
AcDbLinetypeTableRecord
  2
SLD-実線
 70
     0
  3
SolidWorks Line Style
 72
    65
 73
     0
 40
0.0
  0
LTYPE
  5
1C41A
330
5
100
AcDbSymbolTableRecord
100
AcDbLinetypeTableRecord
  2
ACAD_ISO02W100
 70
     0
  3
ISO dash __ __ __ __ __ __ __ __ __ __ __ __ __
 72
    65
 73
     2
 40
15.0
 49
12.0
 74
     0
 49
-3.0
 74
     0
  0
LTYPE
  5
1C41B
330
5
100
AcDbSymbolTableRecord
100
AcDbLinetypeTableRecord
  2
HIDDEN
 70
     0
  3
Hidden __ __ __ __ __ __ __ __ __ __ __ __ __ _
 72
    65
 73
     2
 40
0.375
 49
0.25
 74
     0
 49
-0.125
 74
     0
  0
ENDTAB
  0
TABLE
  2
LAYER
  5
2
102
{ACAD_XDICTIONARY
360
F3CC
102
}
330
0
100
AcDbSymbolTable
 70
    14
  0
LAYER
  5
10
102
{ACAD_XDICTIONARY
360
8ACC
102
}
330
2
100
AcDbSymbolTableRecord
100
AcDbLayerTableRecord
  2
0
 70
     0
 62
     7
  6
CONTINOUS
370
    -3
390
F
347
8A69
348
0
  0
LAYER
  5
2F
102
{ACAD_XDICTIONARY
360
8ACE
102
}
330
2
100
AcDbSymbolTableRecord
100
AcDbLayerTableRecord
  2
10
 70
     0
 62
     4
  6
CONTINOUS
370
    -3
390
F
347
8A69
348
0
  0
LAYER
  5
35
102
{ACAD_XDICTIONARY
360
8AD2
102
}
330
2
100
AcDbSymbolTableRecord
100
AcDbLayerTableRecord
  2
16
 70
     0
 62
     6
  6
DASHDOT
370
    -3
390
F
347
8A69
348
0
  0
LAYER
  5
38
102
{ACAD_XDICTIONARY
360
8AD4
102
}
330
2
100
AcDbSymbolTableRecord
100
AcDbLayerTableRecord
  2
19
 70
     0
 62
     7
  6
CONTINOUS
370
    -3
390
F
347
8A69
348
0
  0
LAYER
  5
3D
102
{ACAD_XDICTIONARY
360
8AD6
102
}
330
2
100
AcDbSymbolTableRecord
100
AcDbLayerTableRecord
  2
24
 70
     0
 62
     2
  6
CONTINOUS
370
    -3
390
F
347
8A69
348
0
  0
LAYER
  5
3A2
102
{ACAD_XDICTIONARY
360
8AD8
102
}
330
2
100
AcDbSymbolTableRecord
100
AcDbLayerTableRecord
  2
30
 70
     0
 62
     9
  6
CONTINUOUS
370
    -3
390
F
347
8A69
348
0
  0
LAYER
  5
3A4
330
2
100
AcDbSymbolTableRecord
100
AcDbLayerTableRecord
  2
DEFPOINTS
 70
     0
 62
     7
  6
CONTINUOUS
290
     0
370
    -3
390
F
347
8A69
348
0
  0
LAYER
  5
3BBA
102
{ACAD_XDICTIONARY
360
8ADA
102
}
330
2
100
AcDbSymbolTableRecord
100
AcDbLayerTableRecord
  2
18
 70
     0
 62
     5
  6
DIVIDE
370
    -3
390
F
347
8A69
348
0
  0
LAYER
  5
67A8
102
{ACAD_XDICTIONARY
360
8ADC
102
}
330
2
100
AcDbSymbolTableRecord
100
AcDbLayerTableRecord
  2
11
 70
     0
 62
     1
  6
CONTINOUS
370
    -3
390
F
347
8A69
348
0
  0
LAYER
  5
7837
102
{ACAD_XDICTIONARY
360
8ADE
102
}
330
2
100
AcDbSymbolTableRecord
100
AcDbLayerTableRecord
  2
17
 70
     0
 62
     2
  6
DASHDOT
370
    -3
390
F
347
8A69
348
0
  0
LAYER
  5
9133
102
{ACAD_XDICTIONARY
360
9134
102
}
330
2
100
AcDbSymbolTableRecord
100
AcDbLayerTableRecord
  2
240
 70
     0
 62
     7
  6
SLD-実線
370
    -3
390
F
347
8A69
348
0
  0
LAYER
  5
1391C
102
{ACAD_XDICTIONARY
360
1391D
102
}
330
2
100
AcDbSymbolTableRecord
100
AcDbLayerTableRecord
  2
21
 70
     0
 62
     7
  6
CONTINUOUS
370
    -3
390
F
347
8A69
348
0
  0
LAYER
  5
16BBC
102
{ACAD_XDICTIONARY
360
16BBD
102
}
330
2
100
AcDbSymbolTableRecord
100
AcDbLayerTableRecord
  2
SLD-0
 70
     0
 62
     7
  6
SLD-実線
370
    -3
390
F
347
8A69
348
0
  0
LAYER
  5
17E9F
102
{ACAD_XDICTIONARY
360
17EA0
102
}
330
2
100
AcDbSymbolTableRecord
100
AcDbLayerTableRecord
  2
L10_
 70
     0
 62
     7
  6
CONTINUOUS
370
    -3
390
F
347
8A69
348
0
  0
ENDTAB
  0
TABLE
  2
STYLE
  5
3
330
0
100
AcDbSymbolTable
 70
     4
  0
STYLE
  5
11
330
3
100
AcDbSymbolTableRecord
100
AcDbTextStyleTableRecord
  2
STANDARD
 70
     0
 40
0.0
 41
1.0
 50
0.0
 71
     0
 42
2.0
  3
txt.shx
  4
bigfont.shx
  0
STYLE
  5
42
330
3
100
AcDbSymbolTableRecord
100
AcDbTextStyleTableRecord
  2
STANDARD1
 70
     0
 40
0.0
 41
1.0
 50
0.0
 71
     0
 42
5.0
  3
MONOTXT
  4
BIGFONT
  0
STYLE
  5
1171A
330
3
100
AcDbSymbolTableRecord
100
AcDbTextStyleTableRecord
  2
SLDTEXTSTYLE0
 70
     0
 40
0.0
 41
1.0
 50
0.0
 71
     0
 42
3.0
  3
MS UI Gothic.ttf
  4

1001
ACAD
1000
MS UI Gothic
1071
      306
  0
STYLE
  5
1C419
330
3
100
AcDbSymbolTableRecord
100
AcDbTextStyleTableRecord
  2

 70
     1
 40
0.0
 41
1.0
 50
0.0
 71
     0
 42
5.0
  3
ltypeshp.shx
  4

  0
ENDTAB
  0
TABLE
  2
VIEW
  5
6
330
0
100
AcDbSymbolTable
 70
     3
  0
VIEW
  5
230C
330
6
100
AcDbSymbolTableRecord
100
AcDbViewTableRecord
  2
OLE1
 70
     0
 40
148.912488
 10
429.497628
 20
2.560627
 41
103.145806
 11
0.0
 21
0.0
 31
1.0
 12
0.0
 22
0.0
 32
0.0
 42
50.0
 43
0.0
 44
0.0
 50
0.0
 71
     0
281
     0
 72
     0
 73
     0
348
8A77
  0
VIEW
  5
230E
330
6
100
AcDbSymbolTableRecord
100
AcDbViewTableRecord
  2
OLE2
 70
     0
 40
170.778692
 10
322.66497
 20
-5.978304
 41
102.467215
 11
0.0
 21
0.0
 31
1.0
 12
0.0
 22
0.0
 32
0.0
 42
50.0
 43
0.0
 44
0.0
 50
0.0
 71
     0
281
     0
 72
     0
 73
     0
348
8A77
  0
VIEW
  5
23AA
330
6
100
AcDbSymbolTableRecord
100
AcDbViewTableRecord
  2
OLE3
 70
     0
 40
591.7897389999998
 10
84.79698199999999
 20
-46.09335999999998
 41
388.792096
 11
0.0
 21
0.0
 31
1.0
 12
0.0
 22
0.0
 32
0.0
 42
50.0
 43
0.0
 44
0.0
 50
0.0
 71
     0
281
     0
 72
     0
 73
     0
348
8A77
  0
ENDTAB
  0
TABLE
  2
UCS
  5
7
330
0
100
AcDbSymbolTable
 70
     0
  0
ENDTAB
  0
TABLE
  2
APPID
  5
9
330
0
100
AcDbSymbolTable
 70
    12
  0
APPID
  5
12
330
9
100
AcDbSymbolTableRecord
100
AcDbRegAppTableRecord
  2
ACAD
 70
     0
  0
APPID
  5
ECD
330
9
100
AcDbSymbolTableRecord
100
AcDbRegAppTableRecord
  2
CONTENTBLOCKICON
 70
     0
  0
APPID
  5
8AA9
330
9
100
AcDbSymbolTableRecord
100
AcDbRegAppTableRecord
  2
ACAD_NAV_VCDISPLAY
 70
     0
  0
APPID
  5
1038A
330
9
100
AcDbSymbolTableRecord
100
AcDbRegAppTableRecord
  2
ACAD_EXEMPT_FROM_CAD_STANDARDS
 70
     0
  0
APPID
  5
10D03
330
9
100
AcDbSymbolTableRecord
100
AcDbRegAppTableRecord
  2
ACAD_PSEXT
 70
     0
  0
APPID
  5
1147C
330
9
100
AcDbSymbolTableRecord
100
AcDbRegAppTableRecord
  2
ACAD_DSTYLE_DIMJAG
 70
     0
  0
APPID
  5
1147D
330
9
100
AcDbSymbolTableRecord
100
AcDbRegAppTableRecord
  2
ACAD_DSTYLE_DIMTALN
 70
     0
  0
APPID
  5
16BC0
330
9
100
AcDbSymbolTableRecord
100
AcDbRegAppTableRecord
  2
DCO15
 70
     0
  0
APPID
  5
16BC1
330
9
100
AcDbSymbolTableRecord
100
AcDbRegAppTableRecord
  2
ACAD_MLEADERVER
 70
     0
  0
APPID
  5
16BC2
330
9
100
AcDbSymbolTableRecord
100
AcDbRegAppTableRecord
  2
ACAD_DSTYLE_DIMBREAK
 70
     0
  0
APPID
  5
17476
330
9
100
AcDbSymbolTableRecord
100
AcDbRegAppTableRecord
  2
ACAUTHENVIRON
 70
     0
  0
APPID
  5
1C02E
330
9
100
AcDbSymbolTableRecord
100
AcDbRegAppTableRecord
  2
ACAD_DSTYLE_DIMRADIAL_EXTENSION
 70
     0
  0
ENDTAB
  0
TABLE
  2
DIMSTYLE
  5
A
330
0
100
AcDbSymbolTable
 70
     3
100
AcDbDimStyleTable
 71
     2
340
175
340
1171B
  0
DIMSTYLE
105
175
102
{ACAD_REACTORS
330
18027
330
18028
330
18029
330
18056
330
18057
330
18058
330
1805A
330
1805B
330
18088
330
180BA
330
180BB
330
180BC
330
180BD
330
180BE
330
180DD
330
180DE
330
180DF
330
180E0
330
1C077
330
1C078
330
1C0C8
330
1C133
330
1C1B4
330
1C1C1
330
1C205
102
}
330
A
100
AcDbSymbolTableRecord
100
AcDbDimStyleTableRecord
  2
STANDARD
 70
     0
 41
2.0
 42
1.0
 43
0.5
 44
0.5
 69
     1
 73
     0
 74
     0
 77
     3
 78
    12
140
8.0
147
3.0
178
   256
271
     1
272
     1
340
11
341
3B2
342
3B2
1001
ACAD_DSTYLE_DIMJAG
1070
   388
1040
1.5
1001
ACAD_DSTYLE_DIMTALN
1070
   392
1070
     0
  0
DIMSTYLE
105
1171B
102
{ACAD_REACTORS
330
180C9
330
1C038
102
}
330
A
100
AcDbSymbolTableRecord
100
AcDbDimStyleTableRecord
  2
STANDARD1
 70
     0
 41
2.0
 42
3.0
 43
0.5
 44
0.5
 77
     3
 78
    12
140
8.0
147
3.0
172
     1
271
     1
272
     1
289
     2
340
11
341
3B2
342
3B2
1001
ACAD_DSTYLE_DIMJAG
1070
   388
1040
1.5
1001
ACAD_DSTYLE_DIMTALN
1070
   392
1070
     0
  0
ENDTAB
  0
TABLE
  2
BLOCK_RECORD
  5
1
330
0
100
AcDbSymbolTable
 70
    43
  0
BLOCK_RECORD
  5
1E
102
{ACAD_XDICTIONARY
360
178
102
}
330
1
100
AcDbSymbolTableRecord
100
AcDbBlockTableRecord
  2
*MODEL_SPACE
340
8A4C
 70
     0
280
     1
281
     0
  0
BLOCK_RECORD
  5
1A
102
{ACAD_XDICTIONARY
360
17A
102
}
330
1
100
AcDbSymbolTableRecord
100
AcDbBlockTableRecord
  2
*PAPER_SPACE
340
8A4D
 70
     0
280
     1
281
     0
  0
BLOCK_RECORD
  5
3B2
330
1
100
AcDbSymbolTableRecord
100
AcDbBlockTableRecord
  2
_OPEN
340
0
102
{BLKREFS
331
1C486
331
1C487
331
1C490
331
1C491
331
1C41F
331
1C3B0
331
1C3B1
331
1C3B9
331
1C3BA
331
1C3C2
331
1C3C3
331
1C3CB
331
1C3CC
331
1C3D5
331
1C3D6
331
1C3DF
331
1C3E0
331
1C2F7
331
1C2F8
331
1C309
331
1C30A
331
1C312
331
1C313
331
1C326
331
1C327
331
1C43A
331
1C43B
331
1C200
331
1C39E
331
1C39F
331
1C44C
331
1C44D
331
1C45E
331
1C45F
331
1C413
331
1C414
331
1C420
331
1C1FF
331
1C242
331
1C243
331
1C24C
331
1C24D
331
1C280
331
1C281
331
1C289
331
1C28A
331
1C2A3
331
1C2A4
331
1C2B5
331
1C2B6
331
1C2BE
331
1C2BF
331
1BEEA
331
1BEEB
331
1BF59
331
1BF5A
331
1BF86
331
1BF87
331
1BFE1
331
1BFE2
331
1BFF3
331
1BFF4
331
1C005
331
1C1D2
331
1C1D3
102
}
 70
     0
280
     1
281
     0
  0
BLOCK_RECORD
  5
175B4
330
1
100
AcDbSymbolTableRecord
100
AcDbBlockTableRecord
  2
SW_CENTERMARKSYMBOL_28
340
0
102
{BLKREFS
331
180E3
102
}
 70
     0
280
     1
281
     0
  0
BLOCK_RECORD
  5
178FC
330
1
100
AcDbSymbolTableRecord
100
AcDbBlockTableRecord
  2
SW_CENTERMARKSYMBOL_27
340
0
102
{BLKREFS
331
180E2
102
}
 70
     0
280
     1
281
     0
  0
BLOCK_RECORD
  5
17CD4
330
1
100
AcDbSymbolTableRecord
100
AcDbBlockTableRecord
  2
SW_CENTERMARKSYMBOL_4
340
0
102
{BLKREFS
331
180BF
102
}
 70
     0
280
     1
281
     0
  0
BLOCK_RECORD
  5
17CDF
330
1
100
AcDbSymbolTableRecord
100
AcDbBlockTableRecord
  2
SW_CENTERMARKSYMBOL_5
340
0
102
{BLKREFS
331
180C0
102
}
 70
     0
280
     1
281
     0
  0
BLOCK_RECORD
  5
17CEA
330
1
100
AcDbSymbolTableRecord
100
AcDbBlockTableRecord
  2
SW_CENTERMARKSYMBOL_6
340
0
102
{BLKREFS
331
180C1
102
}
 70
     0
280
     1
281
     0
  0
BLOCK_RECORD
  5
17CF5
330
1
100
AcDbSymbolTableRecord
100
AcDbBlockTableRecord
  2
SW_CENTERMARKSYMBOL_7
340
0
102
{BLKREFS
331
180C2
102
}
 70
     0
280
     1
281
     0
  0
BLOCK_RECORD
  5
17D00
330
1
100
AcDbSymbolTableRecord
100
AcDbBlockTableRecord
  2
SW_CENTERMARKSYMBOL_26
340
0
102
{BLKREFS
331
180E1
102
}
 70
     0
280
     1
281
     0
  0
BLOCK_RECORD
  5
17D0B
330
1
100
AcDbSymbolTableRecord
100
AcDbBlockTableRecord
  2
SW_CENTERMARKSYMBOL_29
340
0
102
{BLKREFS
331
180E4
102
}
 70
     0
280
     1
281
     0
  0
BLOCK_RECORD
  5
180FD
330
1
100
AcDbSymbolTableRecord
100
AcDbBlockTableRecord
  2
*D9
340
0
 70
     0
280
     1
281
     0
  0
BLOCK_RECORD
  5
18130
330
1
100
AcDbSymbolTableRecord
100
AcDbBlockTableRecord
  2
*D10
340
0
 70
     0
280
     1
281
     0
  0
BLOCK_RECORD
  5
1813C
330
1
100
AcDbSymbolTableRecord
100
AcDbBlockTableRecord
  2
*D11
340
0
 70
     0
280
     1
281
     0
  0
BLOCK_RECORD
  5
18148
330
1
100
AcDbSymbolTableRecord
100
AcDbBlockTableRecord
  2
*D12
340
0
 70
     0
280
     1
281
     0
  0
BLOCK_RECORD
  5
18154
330
1
100
AcDbSymbolTableRecord
100
AcDbBlockTableRecord
  2
*D13
340
0
 70
     0
280
     1
281
     0
  0
BLOCK_RECORD
  5
18160
330
1
100
AcDbSymbolTableRecord
100
AcDbBlockTableRecord
  2
*D14
340
0
 70
     0
280
     1
281
     0
  0
BLOCK_RECORD
  5
1816C
330
1
100
AcDbSymbolTableRecord
100
AcDbBlockTableRecord
  2
*D15
340
0
 70
     0
280
     1
281
     0
  0
BLOCK_RECORD
  5
18184
330
1
100
AcDbSymbolTableRecord
100
AcDbBlockTableRecord
  2
*D16
340
0
 70
     0
280
     1
281
     0
  0
BLOCK_RECORD
  5
18191
330
1
100
AcDbSymbolTableRecord
100
AcDbBlockTableRecord
  2
*D17
340
0
 70
     0
280
     1
281
     0
  0
BLOCK_RECORD
  5
181B3
330
1
100
AcDbSymbolTableRecord
100
AcDbBlockTableRecord
  2
*D18
340
0
 70
     0
280
     1
281
     0
  0
BLOCK_RECORD
  5
181C0
330
1
100
AcDbSymbolTableRecord
100
AcDbBlockTableRecord
  2
*D19
340
0
 70
     0
280
     1
281
     0
  0
BLOCK_RECORD
  5
181CC
330
1
100
AcDbSymbolTableRecord
100
AcDbBlockTableRecord
  2
*D20
340
0
 70
     0
280
     1
281
     0
  0
BLOCK_RECORD
  5
181D8
330
1
100
AcDbSymbolTableRecord
100
AcDbBlockTableRecord
  2
*D21
340
0
 70
     0
280
     1
281
     0
  0
BLOCK_RECORD
  5
181E4
330
1
100
AcDbSymbolTableRecord
100
AcDbBlockTableRecord
  2
*D22
340
0
 70
     0
280
     1
281
     0
  0
BLOCK_RECORD
  5
181F0
330
1
100
AcDbSymbolTableRecord
100
AcDbBlockTableRecord
  2
*D23
340
0
 70
     0
280
     1
281
     0
  0
BLOCK_RECORD
  5
18209
330
1
100
AcDbSymbolTableRecord
100
AcDbBlockTableRecord
  2
*D24
340
0
 70
     0
280
     1
281
     0
  0
BLOCK_RECORD
  5
18213
330
1
100
AcDbSymbolTableRecord
100
AcDbBlockTableRecord
  2
*D25
340
0
 70
     0
280
     1
281
     0
  0
BLOCK_RECORD
  5
1821F
330
1
100
AcDbSymbolTableRecord
100
AcDbBlockTableRecord
  2
*D26
340
0
 70
     0
280
     1
281
     0
  0
BLOCK_RECORD
  5
1822B
330
1
100
AcDbSymbolTableRecord
100
AcDbBlockTableRecord
  2
*D27
340
0
 70
     0
280
     1
281
     0
  0
BLOCK_RECORD
  5
18237
330
1
100
AcDbSymbolTableRecord
100
AcDbBlockTableRecord
  2
*D28
340
0
 70
     0
280
     1
281
     0
  0
BLOCK_RECORD
  5
18243
330
1
100
AcDbSymbolTableRecord
100
AcDbBlockTableRecord
  2
*D29
340
0
 70
     0
280
     1
281
     0
  0
BLOCK_RECORD
  5
1824F
330
1
100
AcDbSymbolTableRecord
100
AcDbBlockTableRecord
  2
*D30
340
0
 70
     0
280
     1
281
     0
  0
BLOCK_RECORD
  5
18265
330
1
100
AcDbSymbolTableRecord
100
AcDbBlockTableRecord
  2
*D31
340
0
 70
     0
280
     1
281
     0
  0
BLOCK_RECORD
  5
18271
330
1
100
AcDbSymbolTableRecord
100
AcDbBlockTableRecord
  2
*D32
340
0
 70
     0
280
     1
281
     0
  0
BLOCK_RECORD
  5
197FD
330
1
100
AcDbSymbolTableRecord
100
AcDbBlockTableRecord
  2
*D33
340
0
 70
     0
280
     1
281
     0
  0
BLOCK_RECORD
  5
1C039
330
1
100
AcDbSymbolTableRecord
100
AcDbBlockTableRecord
  2
*D34
340
0
 70
     0
280
     1
281
     0
  0
BLOCK_RECORD
  5
1C079
330
1
100
AcDbSymbolTableRecord
100
AcDbBlockTableRecord
  2
*D35
340
0
 70
     0
280
     1
281
     0
  0
BLOCK_RECORD
  5
1C086
330
1
100
AcDbSymbolTableRecord
100
AcDbBlockTableRecord
  2
*D36
340
0
 70
     0
280
     1
281
     0
  0
BLOCK_RECORD
  5
1C0D5
330
1
100
AcDbSymbolTableRecord
100
AcDbBlockTableRecord
  2
*D37
340
0
 70
     0
280
     1
281
     0
  0
BLOCK_RECORD
  5
1C134
330
1
100
AcDbSymbolTableRecord
100
AcDbBlockTableRecord
  2
*D38
340
0
 70
     0
280
     1
281
     0
  0
BLOCK_RECORD
  5
1C1B5
330
1
100
AcDbSymbolTableRecord
100
AcDbBlockTableRecord
  2
*D39
340
0
 70
     0
280
     1
281
     0
  0
BLOCK_RECORD
  5
1C1C2
330
1
100
AcDbSymbolTableRecord
100
AcDbBlockTableRecord
  2
*D40
340
0
 70
     0
280
     1
281
     0
  0
BLOCK_RECORD
  5
1C206
330
1
100
AcDbSymbolTableRecord
100
AcDbBlockTableRecord
  2
*D41
340
0
 70
     0
280
     1
281
     0
  0
ENDTAB
  0
ENDSEC
  0
SECTION
  2
BLOCKS
  0
BLOCK
  5
1F
330
1E
100
AcDbEntity
  8
0
100
AcDbBlockBegin
  2
*MODEL_SPACE
 70
     0
 10
0.0
 20
0.0
 30
0.0
  3
*MODEL_SPACE
  1

  0
ENDBLK
  5
20
330
1E
100
AcDbEntity
  8
0
100
AcDbBlockEnd
  0
BLOCK
  5
1B
330
1A
100
AcDbEntity
 67
     1
  8
0
100
AcDbBlockBegin
  2
*PAPER_SPACE
 70
     0
 10
0.0
 20
0.0
 30
0.0
  3
*PAPER_SPACE
  1

  0
ENDBLK
  5
1C
330
1A
100
AcDbEntity
 67
     1
  8
0
100
AcDbBlockEnd
  0
BLOCK
  5
3B6
330
3B2
100
AcDbEntity
  8
0
100
AcDbBlockBegin
  2
_OPEN
 70
     0
 10
0.0
 20
0.0
 30
0.0
  3
_OPEN
  1

  0
LINE
  5
3B3
330
3B2
100
AcDbEntity
  8
30
  6
Continuous
 62
     0
100
AcDbLine
 10
-1.0
 20
0.166667
 30
0.0
 11
0.0
 21
0.0
 31
0.0
  0
LINE
  5
3B4
330
3B2
100
AcDbEntity
  8
30
  6
Continuous
 62
     0
100
AcDbLine
 10
-1.0
 20
-0.166667
 30
0.0
 11
0.0
 21
0.0
 31
0.0
  0
LINE
  5
3B5
330
3B2
100
AcDbEntity
  8
30
  6
Continuous
 62
     0
100
AcDbLine
 10
0.0
 20
0.0
 30
0.0
 11
-1.0
 21
0.0
 31
0.0
  0
ENDBLK
  5
3B7
330
3B2
100
AcDbEntity
  8
0
100
AcDbBlockEnd
  0
BLOCK
  5
175B5
330
175B4
100
AcDbEntity
  8
0
100
AcDbBlockBegin
  2
SW_CENTERMARKSYMBOL_28
 70
     0
 10
0.0
 20
0.0
 30
0.0
  3
SW_CENTERMARKSYMBOL_28
  1
SW_CENTERMARKSYMBOL_28
  0
LINE
  5
175B6
330
175B4
100
AcDbEntity
  8
240
 62
     0
100
AcDbLine
 10
0.0
 20
0.0
 30
0.0
 11
0.0
 21
0.5
 31
0.0
  0
LINE
  5
175B7
330
175B4
100
AcDbEntity
  8
240
 62
     0
100
AcDbLine
 10
0.0
 20
0.0
 30
0.0
 11
-0.5
 21
0.0
 31
0.0
  0
LINE
  5
175B8
330
175B4
100
AcDbEntity
  8
240
 62
     0
100
AcDbLine
 10
0.0
 20
0.0
 30
0.0
 11
0.0
 21
-0.5
 31
0.0
  0
LINE
  5
175B9
330
175B4
100
AcDbEntity
  8
240
 62
     0
100
AcDbLine
 10
0.0
 20
0.0
 30
0.0
 11
0.5
 21
0.0
 31
0.0
  0
LINE
  5
175BA
330
175B4
100
AcDbEntity
  8
240
 62
     0
100
AcDbLine
 10
0.0
 20
1.0
 30
0.0
 11
0.0
 21
1.423760430699999
 31
0.0
  0
LINE
  5
175BB
330
175B4
100
AcDbEntity
  8
240
 62
     0
100
AcDbLine
 10
-1.0
 20
0.0
 30
0.0
 11
-1.423760430699999
 21
0.0
 31
0.0
  0
LINE
  5
175BC
330
175B4
100
AcDbEntity
  8
240
 62
     0
100
AcDbLine
 10
0.0
 20
-1.0
 30
0.0
 11
0.0
 21
-1.423760430699999
 31
0.0
  0
LINE
  5
175BD
330
175B4
100
AcDbEntity
  8
240
 62
     0
100
AcDbLine
 10
1.0
 20
0.0
 30
0.0
 11
1.423760430699999
 21
0.0
 31
0.0
  0
ENDBLK
  5
175BE
330
175B4
100
AcDbEntity
  8
0
100
AcDbBlockEnd
  0
BLOCK
  5
178FD
330
178FC
100
AcDbEntity
  8
0
100
AcDbBlockBegin
  2
SW_CENTERMARKSYMBOL_27
 70
     0
 10
0.0
 20
0.0
 30
0.0
  3
SW_CENTERMARKSYMBOL_27
  1
SW_CENTERMARKSYMBOL_27
  0
LINE
  5
178FE
330
178FC
100
AcDbEntity
  8
240
 62
     0
100
AcDbLine
 10
0.0
 20
0.0
 30
0.0
 11
0.0
 21
0.5
 31
0.0
  0
LINE
  5
178FF
330
178FC
100
AcDbEntity
  8
240
 62
     0
100
AcDbLine
 10
0.0
 20
0.0
 30
0.0
 11
-0.5
 21
0.0
 31
0.0
  0
LINE
  5
17900
330
178FC
100
AcDbEntity
  8
240
 62
     0
100
AcDbLine
 10
0.0
 20
0.0
 30
0.0
 11
0.0
 21
-0.5
 31
0.0
  0
LINE
  5
17901
330
178FC
100
AcDbEntity
  8
240
 62
     0
100
AcDbLine
 10
0.0
 20
0.0
 30
0.0
 11
0.5
 21
0.0
 31
0.0
  0
LINE
  5
17902
330
178FC
100
AcDbEntity
  8
240
 62
     0
100
AcDbLine
 10
0.0
 20
1.0
 30
0.0
 11
0.0
 21
1.9
 31
0.0
  0
LINE
  5
17903
330
178FC
100
AcDbEntity
  8
240
 62
     0
100
AcDbLine
 10
-1.0
 20
0.0
 30
0.0
 11
-1.9
 21
0.0
 31
0.0
  0
LINE
  5
17904
330
178FC
100
AcDbEntity
  8
240
 62
     0
100
AcDbLine
 10
0.0
 20
-1.0
 30
0.0
 11
0.0
 21
-1.9
 31
0.0
  0
LINE
  5
17905
330
178FC
100
AcDbEntity
  8
240
 62
     0
100
AcDbLine
 10
1.0
 20
0.0
 30
0.0
 11
1.9
 21
0.0
 31
0.0
  0
ENDBLK
  5
17906
330
178FC
100
AcDbEntity
  8
0
100
AcDbBlockEnd
  0
BLOCK
  5
17CD5
330
17CD4
100
AcDbEntity
  8
0
100
AcDbBlockBegin
  2
SW_CENTERMARKSYMBOL_4
 70
     0
 10
0.0
 20
0.0
 30
0.0
  3
SW_CENTERMARKSYMBOL_4
  1
SW_CENTERMARKSYMBOL_4
  0
LINE
  5
17CD6
330
17CD4
100
AcDbEntity
  8
SLD-0
 62
     0
100
AcDbLine
 10
0.0
 20
0.0
 30
0.0
 11
0.0
 21
0.5
 31
0.0
  0
LINE
  5
17CD7
330
17CD4
100
AcDbEntity
  8
SLD-0
 62
     0
100
AcDbLine
 10
0.0
 20
0.0
 30
0.0
 11
-0.5
 21
0.0
 31
0.0
  0
LINE
  5
17CD8
330
17CD4
100
AcDbEntity
  8
SLD-0
 62
     0
100
AcDbLine
 10
0.0
 20
0.0
 30
0.0
 11
0.0
 21
-0.5
 31
0.0
  0
LINE
  5
17CD9
330
17CD4
100
AcDbEntity
  8
SLD-0
 62
     0
100
AcDbLine
 10
0.0
 20
0.0
 30
0.0
 11
0.5
 21
0.0
 31
0.0
  0
LINE
  5
17CDA
330
17CD4
100
AcDbEntity
  8
SLD-0
 62
     0
100
AcDbLine
 10
0.0
 20
1.0
 30
0.0
 11
0.0
 21
1.1
 31
0.0
  0
LINE
  5
17CDB
330
17CD4
100
AcDbEntity
  8
SLD-0
 62
     0
100
AcDbLine
 10
-1.0
 20
0.0
 30
0.0
 11
-1.1
 21
0.0
 31
0.0
  0
LINE
  5
17CDC
330
17CD4
100
AcDbEntity
  8
SLD-0
 62
     0
100
AcDbLine
 10
0.0
 20
-1.0
 30
0.0
 11
0.0
 21
-1.1
 31
0.0
  0
LINE
  5
17CDD
330
17CD4
100
AcDbEntity
  8
SLD-0
 62
     0
100
AcDbLine
 10
1.0
 20
0.0
 30
0.0
 11
1.1
 21
0.0
 31
0.0
  0
ENDBLK
  5
17CDE
330
17CD4
100
AcDbEntity
  8
0
100
AcDbBlockEnd
  0
BLOCK
  5
17CE0
330
17CDF
100
AcDbEntity
  8
0
100
AcDbBlockBegin
  2
SW_CENTERMARKSYMBOL_5
 70
     0
 10
0.0
 20
0.0
 30
0.0
  3
SW_CENTERMARKSYMBOL_5
  1
SW_CENTERMARKSYMBOL_5
  0
LINE
  5
17CE1
330
17CDF
100
AcDbEntity
  8
SLD-0
 62
     0
100
AcDbLine
 10
0.0
 20
0.0
 30
0.0
 11
0.0
 21
0.5
 31
0.0
  0
LINE
  5
17CE2
330
17CDF
100
AcDbEntity
  8
SLD-0
 62
     0
100
AcDbLine
 10
0.0
 20
0.0
 30
0.0
 11
-0.5
 21
0.0
 31
0.0
  0
LINE
  5
17CE3
330
17CDF
100
AcDbEntity
  8
SLD-0
 62
     0
100
AcDbLine
 10
0.0
 20
0.0
 30
0.0
 11
0.0
 21
-0.5
 31
0.0
  0
LINE
  5
17CE4
330
17CDF
100
AcDbEntity
  8
SLD-0
 62
     0
100
AcDbLine
 10
0.0
 20
0.0
 30
0.0
 11
0.5
 21
0.0
 31
0.0
  0
LINE
  5
17CE5
330
17CDF
100
AcDbEntity
  8
SLD-0
 62
     0
100
AcDbLine
 10
0.0
 20
1.0
 30
0.0
 11
0.0
 21
1.1
 31
0.0
  0
LINE
  5
17CE6
330
17CDF
100
AcDbEntity
  8
SLD-0
 62
     0
100
AcDbLine
 10
-1.0
 20
0.0
 30
0.0
 11
-1.1
 21
0.0
 31
0.0
  0
LINE
  5
17CE7
330
17CDF
100
AcDbEntity
  8
SLD-0
 62
     0
100
AcDbLine
 10
0.0
 20
-1.0
 30
0.0
 11
0.0
 21
-1.1
 31
0.0
  0
LINE
  5
17CE8
330
17CDF
100
AcDbEntity
  8
SLD-0
 62
     0
100
AcDbLine
 10
1.0
 20
0.0
 30
0.0
 11
1.1
 21
0.0
 31
0.0
  0
ENDBLK
  5
17CE9
330
17CDF
100
AcDbEntity
  8
0
100
AcDbBlockEnd
  0
BLOCK
  5
17CEB
330
17CEA
100
AcDbEntity
  8
0
100
AcDbBlockBegin
  2
SW_CENTERMARKSYMBOL_6
 70
     0
 10
0.0
 20
0.0
 30
0.0
  3
SW_CENTERMARKSYMBOL_6
  1
SW_CENTERMARKSYMBOL_6
  0
LINE
  5
17CEC
330
17CEA
100
AcDbEntity
  8
SLD-0
 62
     0
100
AcDbLine
 10
0.0
 20
0.0
 30
0.0
 11
0.0
 21
0.5
 31
0.0
  0
LINE
  5
17CED
330
17CEA
100
AcDbEntity
  8
SLD-0
 62
     0
100
AcDbLine
 10
0.0
 20
0.0
 30
0.0
 11
-0.5
 21
0.0
 31
0.0
  0
LINE
  5
17CEE
330
17CEA
100
AcDbEntity
  8
SLD-0
 62
     0
100
AcDbLine
 10
0.0
 20
0.0
 30
0.0
 11
0.0
 21
-0.5
 31
0.0
  0
LINE
  5
17CEF
330
17CEA
100
AcDbEntity
  8
SLD-0
 62
     0
100
AcDbLine
 10
0.0
 20
0.0
 30
0.0
 11
0.5
 21
0.0
 31
0.0
  0
LINE
  5
17CF0
330
17CEA
100
AcDbEntity
  8
SLD-0
 62
     0
100
AcDbLine
 10
0.0
 20
1.0
 30
0.0
 11
0.0
 21
1.1
 31
0.0
  0
LINE
  5
17CF1
330
17CEA
100
AcDbEntity
  8
SLD-0
 62
     0
100
AcDbLine
 10
-1.0
 20
0.0
 30
0.0
 11
-1.1
 21
0.0
 31
0.0
  0
LINE
  5
17CF2
330
17CEA
100
AcDbEntity
  8
SLD-0
 62
     0
100
AcDbLine
 10
0.0
 20
-1.0
 30
0.0
 11
0.0
 21
-1.1
 31
0.0
  0
LINE
  5
17CF3
330
17CEA
100
AcDbEntity
  8
SLD-0
 62
     0
100
AcDbLine
 10
1.0
 20
0.0
 30
0.0
 11
1.1
 21
0.0
 31
0.0
  0
ENDBLK
  5
17CF4
330
17CEA
100
AcDbEntity
  8
0
100
AcDbBlockEnd
  0
BLOCK
  5
17CF6
330
17CF5
100
AcDbEntity
  8
0
100
AcDbBlockBegin
  2
SW_CENTERMARKSYMBOL_7
 70
     0
 10
0.0
 20
0.0
 30
0.0
  3
SW_CENTERMARKSYMBOL_7
  1
SW_CENTERMARKSYMBOL_7
  0
LINE
  5
17CF7
330
17CF5
100
AcDbEntity
  8
SLD-0
 62
     0
100
AcDbLine
 10
0.0
 20
0.0
 30
0.0
 11
0.0
 21
0.5
 31
0.0
  0
LINE
  5
17CF8
330
17CF5
100
AcDbEntity
  8
SLD-0
 62
     0
100
AcDbLine
 10
0.0
 20
0.0
 30
0.0
 11
-0.5
 21
0.0
 31
0.0
  0
LINE
  5
17CF9
330
17CF5
100
AcDbEntity
  8
SLD-0
 62
     0
100
AcDbLine
 10
0.0
 20
0.0
 30
0.0
 11
0.0
 21
-0.5
 31
0.0
  0
LINE
  5
17CFA
330
17CF5
100
AcDbEntity
  8
SLD-0
 62
     0
100
AcDbLine
 10
0.0
 20
0.0
 30
0.0
 11
0.5
 21
0.0
 31
0.0
  0
LINE
  5
17CFB
330
17CF5
100
AcDbEntity
  8
SLD-0
 62
     0
100
AcDbLine
 10
0.0
 20
1.0
 30
0.0
 11
0.0
 21
1.1
 31
0.0
  0
LINE
  5
17CFC
330
17CF5
100
AcDbEntity
  8
SLD-0
 62
     0
100
AcDbLine
 10
-1.0
 20
0.0
 30
0.0
 11
-1.1
 21
0.0
 31
0.0
  0
LINE
  5
17CFD
330
17CF5
100
AcDbEntity
  8
SLD-0
 62
     0
100
AcDbLine
 10
0.0
 20
-1.0
 30
0.0
 11
0.0
 21
-1.1
 31
0.0
  0
LINE
  5
17CFE
330
17CF5
100
AcDbEntity
  8
SLD-0
 62
     0
100
AcDbLine
 10
1.0
 20
0.0
 30
0.0
 11
1.1
 21
0.0
 31
0.0
  0
ENDBLK
  5
17CFF
330
17CF5
100
AcDbEntity
  8
0
100
AcDbBlockEnd
  0
BLOCK
  5
17D01
330
17D00
100
AcDbEntity
  8
0
100
AcDbBlockBegin
  2
SW_CENTERMARKSYMBOL_26
 70
     0
 10
0.0
 20
0.0
 30
0.0
  3
SW_CENTERMARKSYMBOL_26
  1
SW_CENTERMARKSYMBOL_26
  0
LINE
  5
17D02
330
17D00
100
AcDbEntity
  8
SLD-0
 62
     0
100
AcDbLine
 10
0.0
 20
0.0
 30
0.0
 11
0.0
 21
0.5
 31
0.0
  0
LINE
  5
17D03
330
17D00
100
AcDbEntity
  8
SLD-0
 62
     0
100
AcDbLine
 10
0.0
 20
0.0
 30
0.0
 11
-0.5
 21
0.0
 31
0.0
  0
LINE
  5
17D04
330
17D00
100
AcDbEntity
  8
SLD-0
 62
     0
100
AcDbLine
 10
0.0
 20
0.0
 30
0.0
 11
0.0
 21
-0.5
 31
0.0
  0
LINE
  5
17D05
330
17D00
100
AcDbEntity
  8
SLD-0
 62
     0
100
AcDbLine
 10
0.0
 20
0.0
 30
0.0
 11
0.5
 21
0.0
 31
0.0
  0
LINE
  5
17D06
330
17D00
100
AcDbEntity
  8
SLD-0
 62
     0
100
AcDbLine
 10
0.0
 20
1.0
 30
0.0
 11
0.0
 21
1.199999999999999
 31
0.0
  0
LINE
  5
17D07
330
17D00
100
AcDbEntity
  8
SLD-0
 62
     0
100
AcDbLine
 10
-1.0
 20
0.0
 30
0.0
 11
-1.199999999999999
 21
0.0
 31
0.0
  0
LINE
  5
17D08
330
17D00
100
AcDbEntity
  8
SLD-0
 62
     0
100
AcDbLine
 10
0.0
 20
-1.0
 30
0.0
 11
0.0
 21
-1.199999999999999
 31
0.0
  0
LINE
  5
17D09
330
17D00
100
AcDbEntity
  8
SLD-0
 62
     0
100
AcDbLine
 10
1.0
 20
0.0
 30
0.0
 11
1.199999999999999
 21
0.0
 31
0.0
  0
ENDBLK
  5
17D0A
330
17D00
100
AcDbEntity
  8
0
100
AcDbBlockEnd
  0
BLOCK
  5
17D0C
330
17D0B
100
AcDbEntity
  8
0
100
AcDbBlockBegin
  2
SW_CENTERMARKSYMBOL_29
 70
     0
 10
0.0
 20
0.0
 30
0.0
  3
SW_CENTERMARKSYMBOL_29
  1
SW_CENTERMARKSYMBOL_29
  0
LINE
  5
17D0D
330
17D0B
100
AcDbEntity
  8
SLD-0
 62
     0
100
AcDbLine
 10
0.0
 20
0.0
 30
0.0
 11
0.0
 21
0.5
 31
0.0
  0
LINE
  5
17D0E
330
17D0B
100
AcDbEntity
  8
SLD-0
 62
     0
100
AcDbLine
 10
0.0
 20
0.0
 30
0.0
 11
-0.5
 21
0.0
 31
0.0
  0
LINE
  5
17D0F
330
17D0B
100
AcDbEntity
  8
SLD-0
 62
     0
100
AcDbLine
 10
0.0
 20
0.0
 30
0.0
 11
0.0
 21
-0.5
 31
0.0
  0
LINE
  5
17D10
330
17D0B
100
AcDbEntity
  8
SLD-0
 62
     0
100
AcDbLine
 10
0.0
 20
0.0
 30
0.0
 11
0.5
 21
0.0
 31
0.0
  0
LINE
  5
17D11
330
17D0B
100
AcDbEntity
  8
SLD-0
 62
     0
100
AcDbLine
 10
0.0
 20
1.0
 30
0.0
 11
0.0
 21
1.199999999999999
 31
0.0
  0
LINE
  5
17D12
330
17D0B
100
AcDbEntity
  8
SLD-0
 62
     0
100
AcDbLine
 10
-1.0
 20
0.0
 30
0.0
 11
-1.199999999999999
 21
0.0
 31
0.0
  0
LINE
  5
17D13
330
17D0B
100
AcDbEntity
  8
SLD-0
 62
     0
100
AcDbLine
 10
0.0
 20
-1.0
 30
0.0
 11
0.0
 21
-1.199999999999999
 31
0.0
  0
LINE
  5
17D14
330
17D0B
100
AcDbEntity
  8
SLD-0
 62
     0
100
AcDbLine
 10
1.0
 20
0.0
 30
0.0
 11
1.199999999999999
 21
0.0
 31
0.0
  0
ENDBLK
  5
17D15
330
17D0B
100
AcDbEntity
  8
0
100
AcDbBlockEnd
  0
BLOCK
  5
180FE
330
180FD
100
AcDbEntity
  8
0
100
AcDbBlockBegin
  2
*D9
 70
     1
 10
0.0
 20
0.0
 30
0.0
  3
*D9
  1

  0
LINE
  5
1BEE6
330
180FD
100
AcDbEntity
  8
30
  6
Continuous
 62
     0
370
    -2
100
AcDbLine
 10
183.5
 20
875.5
 30
0.0
 11
183.5
 21
893.5
 31
0.0
  0
LINE
  5
1BEE7
330
180FD
100
AcDbEntity
  8
30
  6
Continuous
 62
     0
370
    -2
100
AcDbLine
 10
161.0
 20
875.5
 30
0.0
 11
161.0
 21
893.5
 31
0.0
  0
LINE
  5
1BEE8
330
180FD
100
AcDbEntity
  8
30
  6
Continuous
 62
     0
370
    -2
100
AcDbLine
 10
181.5
 20
893.0
 30
0.0
 11
163.0
 21
893.0
 31
0.0
  0
LINE
  5
1BEE9
330
180FD
100
AcDbEntity
  8
30
  6
Continuous
 62
     0
370
    -2
100
AcDbLine
 10
161.0
 20
893.0
 30
0.0
 11
129.0
 21
893.0
 31
0.0
  0
INSERT
  5
1BEEA
330
180FD
100
AcDbEntity
  8
30
  6
Continuous
 62
     0
370
    -2
100
AcDbBlockReference
  2
_OPEN
 10
183.5
 20
893.0
 30
0.0
 41
2.0
 42
2.0
 43
2.0
  0
INSERT
  5
1BEEB
330
180FD
100
AcDbEntity
  8
30
  6
Continuous
 62
     0
370
    -2
100
AcDbBlockReference
  2
_OPEN
 10
161.0
 20
893.0
 30
0.0
 41
2.0
 42
2.0
 43
2.0
 50
180.0
  0
MTEXT
  5
1BEEC
330
180FD
100
AcDbEntity
  8
30
  6
Continuous
100
AcDbMText
 10
144.0
 20
900.0
 30
0.0
 40
8.0
 41
0.0
 46
0.0
 71
     5
 72
     1
  1
\A1;22.5
 73
     1
 44
1.0
 90
        3
 63
     9
421
 13158600
 45
1.25
441
        0
  0
POINT
  5
1BEED
330
180FD
100
AcDbEntity
  8
DEFPOINTS
  6
Continuous
 62
     0
100
AcDbPoint
 10
183.5
 20
874.5
 30
0.0
  0
POINT
  5
1BEEE
330
180FD
100
AcDbEntity
  8
DEFPOINTS
  6
Continuous
 62
     0
100
AcDbPoint
 10
161.0
 20
874.5
 30
0.0
  0
POINT
  5
1BEEF
330
180FD
100
AcDbEntity
  8
DEFPOINTS
  6
Continuous
 62
     0
100
AcDbPoint
 10
161.0
 20
893.0
 30
0.0
  0
ENDBLK
  5
180FF
330
180FD
100
AcDbEntity
  8
0
100
AcDbBlockEnd
  0
BLOCK
  5
18131
330
18130
100
AcDbEntity
  8
0
100
AcDbBlockBegin
  2
*D10
 70
     1
 10
0.0
 20
0.0
 30
0.0
  3
*D10
  1

  0
LINE
  5
1C3B6
330
18130
100
AcDbEntity
  8
30
  6
Continuous
 62
     0
440
 16777216
370
    -2
100
AcDbLine
 10
116.0
 20
1144.972719700755
 30
0.0
 11
116.0
 21
1256.44137458638
 31
0.0
  0
LINE
  5
1C3B7
330
18130
100
AcDbEntity
  8
30
  6
Continuous
 62
     0
440
 16777216
370
    -2
100
AcDbLine
 10
161.0
 20
1184.972719700755
 30
0.0
 11
161.0
 21
1256.44137458638
 31
0.0
  0
LINE
  5
1C3B8
330
18130
100
AcDbEntity
  8
30
  6
Continuous
 62
     0
440
 16777216
370
    -2
100
AcDbLine
 10
118.0
 20
1255.94137458638
 30
0.0
 11
159.0
 21
1255.94137458638
 31
0.0
  0
INSERT
  5
1C3B9
330
18130
100
AcDbEntity
  8
30
  6
Continuous
 62
     0
440
 16777216
370
    -2
100
AcDbBlockReference
  2
_OPEN
 10
116.0
 20
1255.94137458638
 30
0.0
 41
2.0
 42
2.0
 43
2.0
 50
180.0
  0
INSERT
  5
1C3BA
330
18130
100
AcDbEntity
  8
30
  6
Continuous
 62
     0
440
 16777216
370
    -2
100
AcDbBlockReference
  2
_OPEN
 10
161.0
 20
1255.94137458638
 30
0.0
 41
2.0
 42
2.0
 43
2.0
  0
MTEXT
  5
1C3BB
330
18130
100
AcDbEntity
  8
30
  6
Continuous
440
 16777216
100
AcDbMText
 10
138.5
 20
1262.94137458638
 30
0.0
 40
8.0
 41
0.0
 46
0.0
 71
     5
 72
     1
  1
\A1;45
 73
     1
 44
1.0
 90
        3
 63
     9
421
 13158600
 45
1.25
441
        0
  0
POINT
  5
1C3BC
330
18130
100
AcDbEntity
  8
DEFPOINTS
  6
Continuous
 62
     0
440
 16777216
100
AcDbPoint
 10
116.0
 20
1143.972719700755
 30
0.0
  0
POINT
  5
1C3BD
330
18130
100
AcDbEntity
  8
DEFPOINTS
  6
Continuous
 62
     0
440
 16777216
100
AcDbPoint
 10
161.0
 20
1183.972719700755
 30
0.0
  0
POINT
  5
1C3BE
330
18130
100
AcDbEntity
  8
DEFPOINTS
  6
Continuous
 62
     0
440
 16777216
100
AcDbPoint
 10
161.0
 20
1255.94137458638
 30
0.0
  0
ENDBLK
  5
18132
330
18130
100
AcDbEntity
  8
0
100
AcDbBlockEnd
  0
BLOCK
  5
1813D
330
1813C
100
AcDbEntity
  8
0
100
AcDbBlockBegin
  2
*D11
 70
     1
 10
0.0
 20
0.0
 30
0.0
  3
*D11
  1

  0
LINE
  5
1C3BF
330
1813C
100
AcDbEntity
  8
30
  6
Continuous
 62
     0
440
 16777216
370
    -2
100
AcDbLine
 10
161.0
 20
1184.972719700755
 30
0.0
 11
161.0
 21
1256.44137458638
 31
0.0
  0
LINE
  5
1C3C0
330
1813C
100
AcDbEntity
  8
30
  6
Continuous
 62
     0
440
 16777216
370
    -2
100
AcDbLine
 10
206.0
 20
1144.972719700755
 30
0.0
 11
206.0
 21
1256.44137458638
 31
0.0
  0
LINE
  5
1C3C1
330
1813C
100
AcDbEntity
  8
30
  6
Continuous
 62
     0
440
 16777216
370
    -2
100
AcDbLine
 10
163.0
 20
1255.94137458638
 30
0.0
 11
204.0
 21
1255.94137458638
 31
0.0
  0
INSERT
  5
1C3C2
330
1813C
100
AcDbEntity
  8
30
  6
Continuous
 62
     0
440
 16777216
370
    -2
100
AcDbBlockReference
  2
_OPEN
 10
161.0
 20
1255.94137458638
 30
0.0
 41
2.0
 42
2.0
 43
2.0
 50
180.0
  0
INSERT
  5
1C3C3
330
1813C
100
AcDbEntity
  8
30
  6
Continuous
 62
     0
440
 16777216
370
    -2
100
AcDbBlockReference
  2
_OPEN
 10
206.0
 20
1255.94137458638
 30
0.0
 41
2.0
 42
2.0
 43
2.0
  0
MTEXT
  5
1C3C4
330
1813C
100
AcDbEntity
  8
30
  6
Continuous
440
 16777216
100
AcDbMText
 10
183.5
 20
1262.94137458638
 30
0.0
 40
8.0
 41
0.0
 46
0.0
 71
     5
 72
     1
  1
\A1;45
 73
     1
 44
1.0
 90
        3
 63
     9
421
 13158600
 45
1.25
441
        0
  0
POINT
  5
1C3C5
330
1813C
100
AcDbEntity
  8
DEFPOINTS
  6
Continuous
 62
     0
440
 16777216
100
AcDbPoint
 10
161.0
 20
1183.972719700755
 30
0.0
  0
POINT
  5
1C3C6
330
1813C
100
AcDbEntity
  8
DEFPOINTS
  6
Continuous
 62
     0
440
 16777216
100
AcDbPoint
 10
206.0
 20
1143.972719700755
 30
0.0
  0
POINT
  5
1C3C7
330
1813C
100
AcDbEntity
  8
DEFPOINTS
  6
Continuous
 62
     0
440
 16777216
100
AcDbPoint
 10
206.0
 20
1255.94137458638
 30
0.0
  0
ENDBLK
  5
1813E
330
1813C
100
AcDbEntity
  8
0
100
AcDbBlockEnd
  0
BLOCK
  5
18149
330
18148
100
AcDbEntity
  8
0
100
AcDbBlockBegin
  2
*D12
 70
     1
 10
0.0
 20
0.0
 30
0.0
  3
*D12
  1

  0
LINE
  5
1C3C8
330
18148
100
AcDbEntity
  8
30
  6
Continuous
 62
     0
440
 16777216
370
    -2
100
AcDbLine
 10
206.0
 20
1144.972719700755
 30
0.0
 11
206.0
 21
1256.44137458638
 31
0.0
  0
LINE
  5
1C3C9
330
18148
100
AcDbEntity
  8
30
  6
Continuous
 62
     0
440
 16777216
370
    -2
100
AcDbLine
 10
251.0
 20
1184.972719700755
 30
0.0
 11
251.0
 21
1256.44137458638
 31
0.0
  0
LINE
  5
1C3CA
330
18148
100
AcDbEntity
  8
30
  6
Continuous
 62
     0
440
 16777216
370
    -2
100
AcDbLine
 10
208.0
 20
1255.94137458638
 30
0.0
 11
249.0
 21
1255.94137458638
 31
0.0
  0
INSERT
  5
1C3CB
330
18148
100
AcDbEntity
  8
30
  6
Continuous
 62
     0
440
 16777216
370
    -2
100
AcDbBlockReference
  2
_OPEN
 10
206.0
 20
1255.94137458638
 30
0.0
 41
2.0
 42
2.0
 43
2.0
 50
180.0
  0
INSERT
  5
1C3CC
330
18148
100
AcDbEntity
  8
30
  6
Continuous
 62
     0
440
 16777216
370
    -2
100
AcDbBlockReference
  2
_OPEN
 10
251.0
 20
1255.94137458638
 30
0.0
 41
2.0
 42
2.0
 43
2.0
  0
MTEXT
  5
1C3CD
330
18148
100
AcDbEntity
  8
30
  6
Continuous
440
 16777216
100
AcDbMText
 10
228.5
 20
1262.94137458638
 30
0.0
 40
8.0
 41
0.0
 46
0.0
 71
     5
 72
     1
  1
\A1;45
 73
     1
 44
1.0
 90
        3
 63
     9
421
 13158600
 45
1.25
441
        0
  0
POINT
  5
1C3CE
330
18148
100
AcDbEntity
  8
DEFPOINTS
  6
Continuous
 62
     0
440
 16777216
100
AcDbPoint
 10
206.0
 20
1143.972719700755
 30
0.0
  0
POINT
  5
1C3CF
330
18148
100
AcDbEntity
  8
DEFPOINTS
  6
Continuous
 62
     0
440
 16777216
100
AcDbPoint
 10
251.0
 20
1183.972719700755
 30
0.0
  0
POINT
  5
1C3D0
330
18148
100
AcDbEntity
  8
DEFPOINTS
  6
Continuous
 62
     0
440
 16777216
100
AcDbPoint
 10
251.0
 20
1255.94137458638
 30
0.0
  0
ENDBLK
  5
1814A
330
18148
100
AcDbEntity
  8
0
100
AcDbBlockEnd
  0
BLOCK
  5
18155
330
18154
100
AcDbEntity
  8
0
100
AcDbBlockBegin
  2
*D13
 70
     1
 10
0.0
 20
0.0
 30
0.0
  3
*D13
  1

  0
LINE
  5
1C2B2
330
18154
100
AcDbEntity
  8
30
  6
Continuous
 62
     0
440
 16777216
370
    -2
100
AcDbLine
 10
548.2444162702521
 20
514.7251032693912
 30
0.0
 11
548.2444162702521
 21
468.5207432282923
 31
0.0
  0
LINE
  5
1C2B3
330
18154
100
AcDbEntity
  8
30
  6
Continuous
 62
     0
440
 16777216
370
    -2
100
AcDbLine
 10
750.2444162702523
 20
576.9838920533913
 30
0.0
 11
750.2444162702523
 21
468.5207432282923
 31
0.0
  0
LINE
  5
1C2B4
330
18154
100
AcDbEntity
  8
30
  6
Continuous
 62
     0
440
 16777216
370
    -2
100
AcDbLine
 10
550.2444162702523
 20
469.0207432282923
 30
0.0
 11
748.2444162702522
 21
469.0207432282923
 31
0.0
  0
INSERT
  5
1C2B5
330
18154
100
AcDbEntity
  8
30
  6
Continuous
 62
     0
440
 16777216
370
    -2
100
AcDbBlockReference
  2
_OPEN
 10
548.2444162702521
 20
469.0207432282923
 30
0.0
 41
2.0
 42
2.0
 43
2.0
 50
180.0
  0
INSERT
  5
1C2B6
330
18154
100
AcDbEntity
  8
30
  6
Continuous
 62
     0
440
 16777216
370
    -2
100
AcDbBlockReference
  2
_OPEN
 10
750.2444162702523
 20
469.0207432282923
 30
0.0
 41
2.0
 42
2.0
 43
2.0
  0
MTEXT
  5
1C2B7
330
18154
100
AcDbEntity
  8
30
  6
Continuous
440
 16777216
100
AcDbMText
 10
649.2444162702522
 20
480.0207432282923
 30
0.0
 40
8.0
 41
0.0
 46
0.0
 71
     2
 72
     1
  1
\A1;202
 73
     1
 44
1.0
 90
        3
 63
     9
421
 13158600
 45
1.25
441
        0
  0
POINT
  5
1C2B8
330
18154
100
AcDbEntity
  8
DEFPOINTS
  6
Continuous
 62
     0
440
 16777216
100
AcDbPoint
 10
548.2444162702521
 20
515.7251032693912
 30
0.0
  0
POINT
  5
1C2B9
330
18154
100
AcDbEntity
  8
DEFPOINTS
  6
Continuous
 62
     0
440
 16777216
100
AcDbPoint
 10
750.2444162702523
 20
577.9838920533912
 30
0.0
  0
POINT
  5
1C2BA
330
18154
100
AcDbEntity
  8
DEFPOINTS
  6
Continuous
 62
     0
440
 16777216
100
AcDbPoint
 10
750.2444162702523
 20
469.0207432282923
 30
0.0
  0
ENDBLK
  5
18156
330
18154
100
AcDbEntity
  8
0
100
AcDbBlockEnd
  0
BLOCK
  5
18161
330
18160
100
AcDbEntity
  8
0
100
AcDbBlockBegin
  2
*D14
 70
     1
 10
0.0
 20
0.0
 30
0.0
  3
*D14
  1

  0
LINE
  5
1C2BB
330
18160
100
AcDbEntity
  8
30
  6
Continuous
 62
     0
440
 16777216
370
    -2
100
AcDbLine
 10
488.2444162702523
 20
706.839221577391
 30
0.0
 11
488.2444162702523
 21
468.5207432282923
 31
0.0
  0
LINE
  5
1C2BC
330
18160
100
AcDbEntity
  8
30
  6
Continuous
 62
     0
440
 16777216
370
    -2
100
AcDbLine
 10
548.2444162702521
 20
514.7251032693912
 30
0.0
 11
548.2444162702521
 21
468.5207432282923
 31
0.0
  0
LINE
  5
1C2BD
330
18160
100
AcDbEntity
  8
30
  6
Continuous
 62
     0
440
 16777216
370
    -2
100
AcDbLine
 10
490.2444162702521
 20
469.0207432282923
 30
0.0
 11
546.2444162702523
 21
469.0207432282923
 31
0.0
  0
INSERT
  5
1C2BE
330
18160
100
AcDbEntity
  8
30
  6
Continuous
 62
     0
440
 16777216
370
    -2
100
AcDbBlockReference
  2
_OPEN
 10
488.2444162702523
 20
469.0207432282923
 30
0.0
 41
2.0
 42
2.0
 43
2.0
 50
180.0
  0
INSERT
  5
1C2BF
330
18160
100
AcDbEntity
  8
30
  6
Continuous
 62
     0
440
 16777216
370
    -2
100
AcDbBlockReference
  2
_OPEN
 10
548.2444162702521
 20
469.0207432282923
 30
0.0
 41
2.0
 42
2.0
 43
2.0
  0
MTEXT
  5
1C2C0
330
18160
100
AcDbEntity
  8
30
  6
Continuous
440
 16777216
100
AcDbMText
 10
518.2444162702521
 20
480.0207432282923
 30
0.0
 40
8.0
 41
0.0
 46
0.0
 71
     2
 72
     1
  1
\A1;60
 73
     1
 44
1.0
 90
        3
 63
     9
421
 13158600
 45
1.25
441
        0
  0
POINT
  5
1C2C1
330
18160
100
AcDbEntity
  8
DEFPOINTS
  6
Continuous
 62
     0
440
 16777216
100
AcDbPoint
 10
488.2444162702523
 20
707.839221577391
 30
0.0
  0
POINT
  5
1C2C2
330
18160
100
AcDbEntity
  8
DEFPOINTS
  6
Continuous
 62
     0
440
 16777216
100
AcDbPoint
 10
548.2444162702521
 20
515.7251032693912
 30
0.0
  0
POINT
  5
1C2C3
330
18160
100
AcDbEntity
  8
DEFPOINTS
  6
Continuous
 62
     0
440
 16777216
100
AcDbPoint
 10
548.2444162702521
 20
469.0207432282923
 30
0.0
  0
ENDBLK
  5
18162
330
18160
100
AcDbEntity
  8
0
100
AcDbBlockEnd
  0
BLOCK
  5
1816D
330
1816C
100
AcDbEntity
  8
0
100
AcDbBlockBegin
  2
*D15
 70
     1
 10
0.0
 20
0.0
 30
0.0
  3
*D15
  1

  0
LINE
  5
1C483
330
1816C
100
AcDbEntity
  8
30
  6
Continuous
 62
     0
440
 16777216
370
    -2
100
AcDbLine
 10
710.2444162702522
 20
572.9999999999992
 30
0.0
 11
710.2444162702522
 21
496.6498876953909
 31
0.0
  0
LINE
  5
1C484
330
1816C
100
AcDbEntity
  8
30
  6
Continuous
 62
     0
440
 16777216
370
    -2
100
AcDbLine
 10
548.2444162702521
 20
514.7251032693912
 30
0.0
 11
548.2444162702521
 21
496.6498876953909
 31
0.0
  0
LINE
  5
1C485
330
1816C
100
AcDbEntity
  8
30
  6
Continuous
 62
     0
440
 16777216
370
    -2
100
AcDbLine
 10
708.2444162702522
 20
497.1498876953909
 30
0.0
 11
550.2444162702521
 21
497.1498876953909
 31
0.0
  0
INSERT
  5
1C486
330
1816C
100
AcDbEntity
  8
30
  6
Continuous
 62
     0
440
 16777216
370
    -2
100
AcDbBlockReference
  2
_OPEN
 10
710.2444162702522
 20
497.1498876953909
 30
0.0
 41
2.0
 42
2.0
 43
2.0
  0
INSERT
  5
1C487
330
1816C
100
AcDbEntity
  8
30
  6
Continuous
 62
     0
440
 16777216
370
    -2
100
AcDbBlockReference
  2
_OPEN
 10
548.2444162702521
 20
497.1498876953909
 30
0.0
 41
2.0
 42
2.0
 43
2.0
 50
180.0
  0
MTEXT
  5
1C488
330
1816C
100
AcDbEntity
  8
30
  6
Continuous
440
 16777216
100
AcDbMText
 10
629.2444162702523
 20
508.1498876953908
 30
0.0
 40
8.0
 41
0.0
 46
0.0
 71
     2
 72
     1
  1
\A1;162
 73
     1
 44
1.0
 90
        3
 63
     9
421
 13158600
 45
1.25
441
        0
  0
POINT
  5
1C489
330
1816C
100
AcDbEntity
  8
DEFPOINTS
  6
Continuous
 62
     0
440
 16777216
100
AcDbPoint
 10
710.2444162702522
 20
573.9999999999992
 30
0.0
  0
POINT
  5
1C48A
330
1816C
100
AcDbEntity
  8
DEFPOINTS
  6
Continuous
 62
     0
440
 16777216
100
AcDbPoint
 10
548.2444162702521
 20
515.7251032693912
 30
0.0
  0
POINT
  5
1C48B
330
1816C
100
AcDbEntity
  8
DEFPOINTS
  6
Continuous
 62
     0
440
 16777216
100
AcDbPoint
 10
548.2444162702521
 20
497.1498876953909
 30
0.0
  0
ENDBLK
  5
1816E
330
1816C
100
AcDbEntity
  8
0
100
AcDbBlockEnd
  0
BLOCK
  5
18185
330
18184
100
AcDbEntity
  8
0
100
AcDbBlockBegin
  2
*D16
 70
     1
 10
0.0
 20
0.0
 30
0.0
  3
*D16
  1

  0
LINE
  5
1C29F
330
18184
100
AcDbEntity
  8
30
  6
Continuous
 62
     0
440
 16777216
370
    -2
100
AcDbLine
 10
533.2444162702521
 20
564.9838920533913
 30
0.0
 11
533.2444162702521
 21
496.649887695391
 31
0.0
  0
LINE
  5
1C2A0
330
18184
100
AcDbEntity
  8
30
  6
Continuous
 62
     0
440
 16777216
370
    -2
100
AcDbLine
 10
548.2444162702521
 20
514.7251032693912
 30
0.0
 11
548.2444162702521
 21
496.649887695391
 31
0.0
  0
LINE
  5
1C2A1
330
18184
100
AcDbEntity
  8
30
  6
Continuous
 62
     0
440
 16777216
370
    -2
100
AcDbLine
 10
546.2444162702523
 20
497.1498876953909
 30
0.0
 11
535.2444162702521
 21
497.1498876953909
 31
0.0
  0
LINE
  5
1C2A2
330
18184
100
AcDbEntity
  8
30
  6
Continuous
 62
     0
440
 16777216
370
    -2
100
AcDbLine
 10
533.2444162702521
 20
497.1498876953909
 30
0.0
 11
511.2253969501104
 21
497.1498876953909
 31
0.0
  0
INSERT
  5
1C2A3
330
18184
100
AcDbEntity
  8
30
  6
Continuous
 62
     0
440
 16777216
370
    -2
100
AcDbBlockReference
  2
_OPEN
 10
548.2444162702521
 20
497.1498876953909
 30
0.0
 41
2.0
 42
2.0
 43
2.0
  0
INSERT
  5
1C2A4
330
18184
100
AcDbEntity
  8
30
  6
Continuous
 62
     0
440
 16777216
370
    -2
100
AcDbBlockReference
  2
_OPEN
 10
533.2444162702521
 20
497.1498876953909
 30
0.0
 41
2.0
 42
2.0
 43
2.0
 50
180.0
  0
MTEXT
  5
1C2A5
330
18184
100
AcDbEntity
  8
30
  6
Continuous
440
 16777216
100
AcDbMText
 10
519.5587302834439
 20
508.149887695391
 30
0.0
 40
8.0
 41
0.0
 46
0.0
 71
     2
 72
     1
  1
\A1;15
 73
     1
 44
1.0
 90
        3
 63
     9
421
 13158600
 45
1.25
441
        0
  0
POINT
  5
1C2A6
330
18184
100
AcDbEntity
  8
DEFPOINTS
  6
Continuous
 62
     0
440
 16777216
100
AcDbPoint
 10
533.2444162702521
 20
565.9838920533911
 30
0.0
  0
POINT
  5
1C2A7
330
18184
100
AcDbEntity
  8
DEFPOINTS
  6
Continuous
 62
     0
440
 16777216
100
AcDbPoint
 10
548.2444162702521
 20
515.7251032693912
 30
0.0
  0
POINT
  5
1C2A8
330
18184
100
AcDbEntity
  8
DEFPOINTS
  6
Continuous
 62
     0
440
 16777216
100
AcDbPoint
 10
548.2444162702521
 20
497.1498876953909
 30
0.0
  0
ENDBLK
  5
18186
330
18184
100
AcDbEntity
  8
0
100
AcDbBlockEnd
  0
BLOCK
  5
18192
330
18191
100
AcDbEntity
  8
0
100
AcDbBlockBegin
  2
*D17
 70
     1
 10
0.0
 20
0.0
 30
0.0
  3
*D17
  1

  0
LINE
  5
1BF56
330
18191
100
AcDbEntity
  8
30
  6
Continuous
 62
     0
440
 16777216
370
    -2
100
AcDbLine
 10
773.9978368750071
 20
816.9838920533909
 30
0.0
 11
811.0091498567529
 21
816.9838920533909
 31
0.0
  0
LINE
  5
1BF57
330
18191
100
AcDbEntity
  8
30
  6
Continuous
 62
     0
440
 16777216
370
    -2
100
AcDbLine
 10
757.5041539577522
 20
588.9838920533916
 30
0.0
 11
811.0091498567527
 21
588.9838920533915
 31
0.0
  0
LINE
  5
1BF58
330
18191
100
AcDbEntity
  8
30
  6
Continuous
 62
     0
440
 16777216
370
    -2
100
AcDbLine
 10
810.5091498567528
 20
814.9838920533907
 30
0.0
 11
810.5091498567528
 21
590.9838920533915
 31
0.0
  0
INSERT
  5
1BF59
330
18191
100
AcDbEntity
  8
30
  6
Continuous
 62
     0
440
 16777216
370
    -2
100
AcDbBlockReference
  2
_OPEN
 10
810.5091498567528
 20
816.9838920533909
 30
0.0
 41
2.0
 42
2.0
 43
2.0
 50
90.0
  0
INSERT
  5
1BF5A
330
18191
100
AcDbEntity
  8
30
  6
Continuous
 62
     0
440
 16777216
370
    -2
100
AcDbBlockReference
  2
_OPEN
 10
810.5091498567528
 20
588.9838920533915
 30
0.0
 41
2.0
 42
2.0
 43
2.0
 50
270.0
  0
MTEXT
  5
1BF5B
330
18191
100
AcDbEntity
  8
30
  6
Continuous
440
 16777216
100
AcDbMText
 10
799.5091498567526
 20
702.9838920533912
 30
0.0
 40
8.0
 41
0.0
 46
0.0
 71
     2
 72
     1
  1
\A1;228
 11
0.0000000000000001
 21
1.0
 31
0.0
 73
     1
 44
1.0
 90
        3
 63
     9
421
 13158600
 45
1.25
441
        0
  0
POINT
  5
1BF5C
330
18191
100
AcDbEntity
  8
DEFPOINTS
  6
Continuous
 62
     0
440
 16777216
100
AcDbPoint
 10
772.9978368750071
 20
816.9838920533909
 30
0.0
  0
POINT
  5
1BF5D
330
18191
100
AcDbEntity
  8
DEFPOINTS
  6
Continuous
 62
     0
440
 16777216
100
AcDbPoint
 10
756.5041539577522
 20
588.9838920533916
 30
0.0
  0
POINT
  5
1BF5E
330
18191
100
AcDbEntity
  8
DEFPOINTS
  6
Continuous
 62
     0
440
 16777216
100
AcDbPoint
 10
810.5091498567528
 20
588.9838920533915
 30
0.0
  0
ENDBLK
  5
18193
330
18191
100
AcDbEntity
  8
0
100
AcDbBlockEnd
  0
BLOCK
  5
181B4
330
181B3
100
AcDbEntity
  8
0
100
AcDbBlockBegin
  2
*D18
 70
     1
 10
0.0
 20
0.0
 30
0.0
  3
*D18
  1

  0
LINE
  5
1C48C
330
181B3
100
AcDbEntity
  8
30
  6
Continuous
 62
     0
440
 16777216
370
    -2
100
AcDbLine
 10
751.2444162702522
 20
820.9838872848909
 30
0.0
 11
767.8947004402597
 21
820.9838872848909
 31
0.0
  0
LINE
  5
1C48D
330
181B3
100
AcDbEntity
  8
30
  6
Continuous
 62
     0
440
 16777216
370
    -2
100
AcDbLine
 10
751.2444162702522
 20
812.9838872848909
 30
0.0
 11
767.8947004402597
 21
812.9838872848909
 31
0.0
  0
LINE
  5
1C48E
330
181B3
100
AcDbEntity
  8
30
  6
Continuous
 62
     0
440
 16777216
370
    -2
100
AcDbLine
 10
767.3947004402597
 20
822.9838872848908
 30
0.0
 11
767.3947004402597
 21
824.9838872848908
 31
0.0
  0
LINE
  5
1C48F
330
181B3
100
AcDbEntity
  8
30
  6
Continuous
 62
     0
440
 16777216
370
    -2
100
AcDbLine
 10
767.3947004402597
 20
810.9838872848909
 30
0.0
 11
767.3947004402597
 21
797.6505539515575
 31
0.0
  0
INSERT
  5
1C490
330
181B3
100
AcDbEntity
  8
30
  6
Continuous
 62
     0
440
 16777216
370
    -2
100
AcDbBlockReference
  2
_OPEN
 10
767.3947004402597
 20
820.9838872848909
 30
0.0
 41
2.0
 42
2.0
 43
2.0
 50
270.0
  0
INSERT
  5
1C491
330
181B3
100
AcDbEntity
  8
30
  6
Continuous
 62
     0
440
 16777216
370
    -2
100
AcDbBlockReference
  2
_OPEN
 10
767.3947004402597
 20
812.9838872848909
 30
0.0
 41
2.0
 42
2.0
 43
2.0
 50
90.0
  0
MTEXT
  5
1C492
330
181B3
100
AcDbEntity
  8
30
  6
Continuous
440
 16777216
100
AcDbMText
 10
760.3947004402595
 20
803.3172206182243
 30
0.0
 40
8.0
 41
0.0
 46
0.0
 71
     5
 72
     1
  1
\A1;8
 11
0.0000000000000001
 21
1.0
 31
0.0
 73
     1
 44
1.0
 90
        3
 63
     9
421
 13158600
 45
1.25
441
        0
  0
POINT
  5
1C493
330
181B3
100
AcDbEntity
  8
DEFPOINTS
  6
Continuous
 62
     0
440
 16777216
100
AcDbPoint
 10
750.2444162702523
 20
820.9838872848909
 30
0.0
  0
POINT
  5
1C494
330
181B3
100
AcDbEntity
  8
DEFPOINTS
  6
Continuous
 62
     0
440
 16777216
100
AcDbPoint
 10
750.2444162702523
 20
812.9838872848909
 30
0.0
  0
POINT
  5
1C495
330
181B3
100
AcDbEntity
  8
DEFPOINTS
  6
Continuous
 62
     0
440
 16777216
100
AcDbPoint
 10
767.3947004402597
 20
812.9838872848909
 30
0.0
  0
ENDBLK
  5
181B5
330
181B3
100
AcDbEntity
  8
0
100
AcDbBlockEnd
  0
BLOCK
  5
181C1
330
181C0
100
AcDbEntity
  8
0
100
AcDbBlockBegin
  2
*D19
 70
     1
 10
0.0
 20
0.0
 30
0.0
  3
*D19
  1

  0
LINE
  5
1C23F
330
181C0
100
AcDbEntity
  8
30
  6
Continuous
 62
     0
440
 16777216
370
    -2
100
AcDbLine
 10
218.9999998795003
 20
657.4222084225002
 30
0.0
 11
218.9999998795003
 21
471.0882040644995
 31
0.0
  0
LINE
  5
1C240
330
181C0
100
AcDbEntity
  8
30
  6
Continuous
 62
     0
440
 16777216
370
    -2
100
AcDbLine
 10
102.9999998794999
 20
657.4222084225002
 30
0.0
 11
102.9999998794999
 21
471.0882040644995
 31
0.0
  0
LINE
  5
1C241
330
181C0
100
AcDbEntity
  8
30
  6
Continuous
 62
     0
440
 16777216
370
    -2
100
AcDbLine
 10
216.9999998795003
 20
471.5882040644997
 30
0.0
 11
104.9999998794999
 21
471.5882040644997
 31
0.0
  0
INSERT
  5
1C242
330
181C0
100
AcDbEntity
  8
30
  6
Continuous
 62
     0
440
 16777216
370
    -2
100
AcDbBlockReference
  2
_OPEN
 10
218.9999998795003
 20
471.5882040644997
 30
0.0
 41
2.0
 42
2.0
 43
2.0
  0
INSERT
  5
1C243
330
181C0
100
AcDbEntity
  8
30
  6
Continuous
 62
     0
440
 16777216
370
    -2
100
AcDbBlockReference
  2
_OPEN
 10
102.9999998794999
 20
471.5882040644997
 30
0.0
 41
2.0
 42
2.0
 43
2.0
 50
180.0
  0
MTEXT
  5
1C244
330
181C0
100
AcDbEntity
  8
30
  6
Continuous
440
 16777216
100
AcDbMText
 10
160.9999998794992
 20
482.5882040644993
 30
0.0
 40
8.0
 41
0.0
 46
0.0
 71
     2
 72
     1
  1
\A1;116
 73
     1
 44
1.0
 90
        3
 63
     9
421
 13158600
 45
1.25
441
        0
  0
POINT
  5
1C245
330
181C0
100
AcDbEntity
  8
DEFPOINTS
  6
Continuous
 62
     0
440
 16777216
100
AcDbPoint
 10
218.9999998795003
 20
658.4222084225002
 30
0.0
  0
POINT
  5
1C246
330
181C0
100
AcDbEntity
  8
DEFPOINTS
  6
Continuous
 62
     0
440
 16777216
100
AcDbPoint
 10
102.9999998794999
 20
658.4222084225002
 30
0.0
  0
POINT
  5
1C247
330
181C0
100
AcDbEntity
  8
DEFPOINTS
  6
Continuous
 62
     0
440
 16777216
100
AcDbPoint
 10
102.9999998794999
 20
471.5882040644997
 30
0.0
  0
ENDBLK
  5
181C2
330
181C0
100
AcDbEntity
  8
0
100
AcDbBlockEnd
  0
BLOCK
  5
181CD
330
181CC
100
AcDbEntity
  8
0
100
AcDbBlockBegin
  2
*D20
 70
     1
 10
0.0
 20
0.0
 30
0.0
  3
*D20
  1

  0
LINE
  5
1BF83
330
181CC
100
AcDbEntity
  8
30
  6
Continuous
 62
     0
440
 16777216
370
    -2
100
AcDbLine
 10
186.4999998794992
 20
667.2222084224994
 30
0.0
 11
186.4999998794992
 21
496.0882040644995
 31
0.0
  0
LINE
  5
1BF84
330
181CC
100
AcDbEntity
  8
30
  6
Continuous
 62
     0
440
 16777216
370
    -2
100
AcDbLine
 10
135.4999998794992
 20
656.4222084224998
 30
0.0
 11
135.4999998794992
 21
496.0882040644995
 31
0.0
  0
LINE
  5
1BF85
330
181CC
100
AcDbEntity
  8
30
  6
Continuous
 62
     0
440
 16777216
370
    -2
100
AcDbLine
 10
184.4999998794992
 20
496.5882040644997
 30
0.0
 11
137.4999998794992
 21
496.5882040644997
 31
0.0
  0
INSERT
  5
1BF86
330
181CC
100
AcDbEntity
  8
30
  6
Continuous
 62
     0
440
 16777216
370
    -2
100
AcDbBlockReference
  2
_OPEN
 10
186.4999998794992
 20
496.5882040644997
 30
0.0
 41
2.0
 42
2.0
 43
2.0
  0
INSERT
  5
1BF87
330
181CC
100
AcDbEntity
  8
30
  6
Continuous
 62
     0
440
 16777216
370
    -2
100
AcDbBlockReference
  2
_OPEN
 10
135.4999998794992
 20
496.5882040644997
 30
0.0
 41
2.0
 42
2.0
 43
2.0
 50
180.0
  0
MTEXT
  5
1BF88
330
181CC
100
AcDbEntity
  8
30
  6
Continuous
440
 16777216
100
AcDbMText
 10
160.9999998794992
 20
507.5882040644993
 30
0.0
 40
8.0
 41
0.0
 46
0.0
 71
     2
 72
     1
  1
\A1;51
 73
     1
 44
1.0
 90
        3
 63
     9
421
 13158600
 45
1.25
441
        0
  0
POINT
  5
1BF89
330
181CC
100
AcDbEntity
  8
DEFPOINTS
  6
Continuous
 62
     0
440
 16777216
100
AcDbPoint
 10
186.4999998794992
 20
668.2222084224994
 30
0.0
  0
POINT
  5
1BF8A
330
181CC
100
AcDbEntity
  8
DEFPOINTS
  6
Continuous
 62
     0
440
 16777216
100
AcDbPoint
 10
135.4999998794992
 20
657.4222084224998
 30
0.0
  0
POINT
  5
1BF8B
330
181CC
100
AcDbEntity
  8
DEFPOINTS
  6
Continuous
 62
     0
440
 16777216
100
AcDbPoint
 10
135.4999998794992
 20
496.5882040644997
 30
0.0
  0
ENDBLK
  5
181CE
330
181CC
100
AcDbEntity
  8
0
100
AcDbBlockEnd
  0
BLOCK
  5
181D9
330
181D8
100
AcDbEntity
  8
0
100
AcDbBlockBegin
  2
*D21
 70
     1
 10
0.0
 20
0.0
 30
0.0
  3
*D21
  1

  0
LINE
  5
1C286
330
181D8
100
AcDbEntity
  8
30
  6
Continuous
 62
     0
440
 16777216
370
    -2
100
AcDbLine
 10
305.5013457885016
 20
557.4222084224998
 30
0.0
 11
346.5000498794998
 21
557.4222084224998
 31
0.0
  0
LINE
  5
1C287
330
181D8
100
AcDbEntity
  8
30
  6
Continuous
 62
     0
440
 16777216
370
    -2
100
AcDbLine
 10
303.9999998794992
 20
847.4222084224997
 30
0.0
 11
346.5000498794999
 21
847.4222084224997
 31
0.0
  0
LINE
  5
1C288
330
181D8
100
AcDbEntity
  8
30
  6
Continuous
 62
     0
440
 16777216
370
    -2
100
AcDbLine
 10
346.0000498794999
 20
559.4222084224997
 30
0.0
 11
346.0000498794999
 21
845.4222084224996
 31
0.0
  0
INSERT
  5
1C289
330
181D8
100
AcDbEntity
  8
30
  6
Continuous
 62
     0
440
 16777216
370
    -2
100
AcDbBlockReference
  2
_OPEN
 10
346.0000498794999
 20
557.4222084224998
 30
0.0
 41
2.0
 42
2.0
 43
2.0
 50
270.0
  0
INSERT
  5
1C28A
330
181D8
100
AcDbEntity
  8
30
  6
Continuous
 62
     0
440
 16777216
370
    -2
100
AcDbBlockReference
  2
_OPEN
 10
346.0000498794999
 20
847.4222084224997
 30
0.0
 41
2.0
 42
2.0
 43
2.0
 50
90.0
  0
MTEXT
  5
1C28B
330
181D8
100
AcDbEntity
  8
30
  6
Continuous
440
 16777216
100
AcDbMText
 10
335.0000498794998
 20
702.4222084224996
 30
0.0
 40
8.0
 41
0.0
 46
0.0
 71
     2
 72
     1
  1
\A1;290
 11
0.0000000000000001
 21
1.0
 31
0.0
 73
     1
 44
1.0
 90
        3
 63
     9
421
 13158600
 45
1.25
441
        0
  0
POINT
  5
1C28C
330
181D8
100
AcDbEntity
  8
DEFPOINTS
  6
Continuous
 62
     0
440
 16777216
100
AcDbPoint
 10
304.5013457885016
 20
557.4222084224998
 30
0.0
  0
POINT
  5
1C28D
330
181D8
100
AcDbEntity
  8
DEFPOINTS
  6
Continuous
 62
     0
440
 16777216
100
AcDbPoint
 10
302.9999998794992
 20
847.4222084224997
 30
0.0
  0
POINT
  5
1C28E
330
181D8
100
AcDbEntity
  8
DEFPOINTS
  6
Continuous
 62
     0
440
 16777216
100
AcDbPoint
 10
346.0000498794999
 20
847.4222084224997
 30
0.0
  0
ENDBLK
  5
181DA
330
181D8
100
AcDbEntity
  8
0
100
AcDbBlockEnd
  0
BLOCK
  5
181E5
330
181E4
100
AcDbEntity
  8
0
100
AcDbBlockBegin
  2
*D22
 70
     1
 10
0.0
 20
0.0
 30
0.0
  3
*D22
  1

  0
LINE
  5
1C27D
330
181E4
100
AcDbEntity
  8
30
  6
Continuous
 62
     0
440
 16777216
370
    -2
100
AcDbLine
 10
63.99999987949922
 20
556.4222084224998
 30
0.0
 11
63.99999987949922
 21
446.0882040644995
 31
0.0
  0
LINE
  5
1C27E
330
181E4
100
AcDbEntity
  8
30
  6
Continuous
 62
     0
440
 16777216
370
    -2
100
AcDbLine
 10
302.9999998794992
 20
555.1817983749097
 30
0.0
 11
302.9999998794992
 21
446.0882040644995
 31
0.0
  0
LINE
  5
1C27F
330
181E4
100
AcDbEntity
  8
30
  6
Continuous
 62
     0
440
 16777216
370
    -2
100
AcDbLine
 10
65.99999987949923
 20
446.5882040644997
 30
0.0
 11
300.9999998794992
 21
446.5882040644997
 31
0.0
  0
INSERT
  5
1C280
330
181E4
100
AcDbEntity
  8
30
  6
Continuous
 62
     0
440
 16777216
370
    -2
100
AcDbBlockReference
  2
_OPEN
 10
63.99999987949922
 20
446.5882040644997
 30
0.0
 41
2.0
 42
2.0
 43
2.0
 50
180.0
  0
INSERT
  5
1C281
330
181E4
100
AcDbEntity
  8
30
  6
Continuous
 62
     0
440
 16777216
370
    -2
100
AcDbBlockReference
  2
_OPEN
 10
302.9999998794992
 20
446.5882040644997
 30
0.0
 41
2.0
 42
2.0
 43
2.0
  0
MTEXT
  5
1C282
330
181E4
100
AcDbEntity
  8
30
  6
Continuous
440
 16777216
100
AcDbMText
 10
183.4999998794992
 20
457.5882040644993
 30
0.0
 40
8.0
 41
0.0
 46
0.0
 71
     2
 72
     1
  1
\A1;239
 73
     1
 44
1.0
 90
        3
 63
     9
421
 13158600
 45
1.25
441
        0
  0
POINT
  5
1C283
330
181E4
100
AcDbEntity
  8
DEFPOINTS
  6
Continuous
 62
     0
440
 16777216
100
AcDbPoint
 10
63.99999987949922
 20
557.4222084224998
 30
0.0
  0
POINT
  5
1C284
330
181E4
100
AcDbEntity
  8
DEFPOINTS
  6
Continuous
 62
     0
440
 16777216
100
AcDbPoint
 10
302.9999998794992
 20
556.1817983749095
 30
0.0
  0
POINT
  5
1C285
330
181E4
100
AcDbEntity
  8
DEFPOINTS
  6
Continuous
 62
     0
440
 16777216
100
AcDbPoint
 10
302.9999998794992
 20
446.5882040644997
 30
0.0
  0
ENDBLK
  5
181E6
330
181E4
100
AcDbEntity
  8
0
100
AcDbBlockEnd
  0
BLOCK
  5
181F1
330
181F0
100
AcDbEntity
  8
0
100
AcDbBlockBegin
  2
*D23
 70
     1
 10
0.0
 20
0.0
 30
0.0
  3
*D23
  1

  0
LINE
  5
1C322
330
181F0
100
AcDbEntity
  8
30
  6
Continuous
 62
     0
440
 16777216
370
    -2
100
AcDbLine
 10
183.4999998794992
 20
532.0
 30
0.0
 11
183.4999998794992
 21
515.7384221018851
 31
0.0
  0
LINE
  5
1C323
330
181F0
100
AcDbEntity
  8
30
  6
Continuous
 62
     0
440
 16777216
370
    -2
100
AcDbLine
 10
161.0
 20
531.9727197007554
 30
0.0
 11
161.0
 21
515.7384221018851
 31
0.0
  0
LINE
  5
1C324
330
181F0
100
AcDbEntity
  8
30
  6
Continuous
 62
     0
440
 16777216
370
    -2
100
AcDbLine
 10
163.0
 20
516.2384221018851
 30
0.0
 11
181.4999998794992
 21
516.2384221018851
 31
0.0
  0
LINE
  5
1C325
330
181F0
100
AcDbEntity
  8
30
  6
Continuous
 62
     0
440
 16777216
370
    -2
100
AcDbLine
 10
183.4999998794992
 20
516.2384221018851
 30
0.0
 11
216.3216658958181
 21
516.2384221018851
 31
0.0
  0
INSERT
  5
1C326
330
181F0
100
AcDbEntity
  8
30
  6
Continuous
 62
     0
440
 16777216
370
    -2
100
AcDbBlockReference
  2
_OPEN
 10
161.0
 20
516.2384221018851
 30
0.0
 41
2.0
 42
2.0
 43
2.0
 50
180.0
  0
INSERT
  5
1C327
330
181F0
100
AcDbEntity
  8
30
  6
Continuous
 62
     0
440
 16777216
370
    -2
100
AcDbBlockReference
  2
_OPEN
 10
183.4999998794992
 20
516.2384221018851
 30
0.0
 41
2.0
 42
2.0
 43
2.0
  0
MTEXT
  5
1C328
330
181F0
100
AcDbEntity
  8
30
  6
Continuous
440
 16777216
100
AcDbMText
 10
202.8216658958181
 20
526.2384221018851
 30
0.0
 40
7.0
 41
0.0
 46
0.0
 71
     2
 72
     1
  1
\A1;22.5
 73
     1
 44
1.0
 90
        3
 63
     9
421
 13158600
 45
1.25
441
        0
  0
POINT
  5
1C329
330
181F0
100
AcDbEntity
  8
DEFPOINTS
  6
Continuous
 62
     0
440
 16777216
100
AcDbPoint
 10
183.4999998794992
 20
533.0
 30
0.0
  0
POINT
  5
1C32A
330
181F0
100
AcDbEntity
  8
DEFPOINTS
  6
Continuous
 62
     0
440
 16777216
100
AcDbPoint
 10
161.0
 20
532.9727197007554
 30
0.0
  0
POINT
  5
1C32B
330
181F0
100
AcDbEntity
  8
DEFPOINTS
  6
Continuous
 62
     0
440
 16777216
100
AcDbPoint
 10
161.0
 20
516.2384221018851
 30
0.0
  0
ENDBLK
  5
181F2
330
181F0
100
AcDbEntity
  8
0
100
AcDbBlockEnd
  0
BLOCK
  5
1820A
330
18209
100
AcDbEntity
  8
0
100
AcDbBlockBegin
  2
*D24
 70
     1
 10
0.0
 20
0.0
 30
0.0
  3
*D24
  1

  0
LINE
  5
1C248
330
18209
100
AcDbEntity
  8
30
  6
Continuous
 62
     0
440
 16777216
370
    -2
100
AcDbLine
 10
288.9829319528171
 20
775.0420310049787
 30
0.0
 11
287.4312708885689
 21
773.7801483076983
 31
0.0
  0
LINE
  5
1C249
330
18209
100
AcDbEntity
  8
30
  6
Continuous
 62
     0
440
 16777216
370
    -2
100
AcDbLine
 10
297.517067806183
 20
781.9823858400218
 30
0.0
 11
314.3752099653795
 21
795.6922084225013
 31
0.0
  0
LINE
  5
1C24A
330
18209
100
AcDbEntity
  8
30
  6
Continuous
 62
     0
440
 16777216
370
    -2
100
AcDbLine
 10
314.3752099653795
 20
795.6922084225013
 30
0.0
 11
330.7085432987129
 21
795.6922084225014
 31
0.0
  0
LINE
  5
1C24B
330
18209
100
AcDbEntity
  8
30
  6
Continuous
 62
     0
440
 16777216
370
    -2
100
AcDbLine
 10
290.5345930170654
 20
776.3039137022592
 30
0.0
 11
295.9654067419348
 21
780.7205031427412
 31
0.0
  0
INSERT
  5
1C24C
330
18209
100
AcDbEntity
  8
30
  6
Continuous
 62
     0
440
 16777216
370
    -2
100
AcDbBlockReference
  2
_OPEN
 10
290.5345930170654
 20
776.3039137022592
 30
0.0
 41
2.0
 42
2.0
 43
2.0
 50
39.11960772794245
  0
INSERT
  5
1C24D
330
18209
100
AcDbEntity
  8
30
  6
Continuous
 62
     0
440
 16777216
370
    -2
100
AcDbBlockReference
  2
_OPEN
 10
295.9654067419348
 20
780.7205031427412
 30
0.0
 41
2.0
 42
2.0
 43
2.0
 50
219.1196077279425
  0
MTEXT
  5
1C24E
330
18209
100
AcDbEntity
  8
30
  6
Continuous
 62
     0
440
 16777216
100
AcDbMText
 10
324.0418766320463
 20
802.6922084225013
 30
0.0
 40
8.0
 41
0.0
 46
0.0
 71
     5
 72
     1
  1
\A1;M6
 73
     1
 44
1.0
  0
POINT
  5
1C24F
330
18209
100
AcDbEntity
  8
DEFPOINTS
  6
Continuous
 62
     0
440
 16777216
100
AcDbPoint
 10
295.9654067419348
 20
780.7205031427412
 30
0.0
  0
POINT
  5
1C250
330
18209
100
AcDbEntity
  8
DEFPOINTS
  6
Continuous
 62
     0
440
 16777216
100
AcDbPoint
 10
290.5345930170654
 20
776.3039137022592
 30
0.0
  0
ENDBLK
  5
1820B
330
18209
100
AcDbEntity
  8
0
100
AcDbBlockEnd
  0
BLOCK
  5
18214
330
18213
100
AcDbEntity
  8
0
100
AcDbBlockBegin
  2
*D25
 70
     1
 10
0.0
 20
0.0
 30
0.0
  3
*D25
  1

  0
LINE
  5
1C449
330
18213
100
AcDbEntity
  8
30
  6
Continuous
 62
     0
440
 16777216
370
    -2
100
AcDbLine
 10
80.99412221064865
 20
111.1567323064802
 30
0.0
 11
80.99412221064865
 21
56.21865455968418
 31
0.0
  0
LINE
  5
1C44A
330
18213
100
AcDbEntity
  8
30
  6
Continuous
 62
     0
440
 16777216
370
    -2
100
AcDbLine
 10
284.9941222106487
 20
111.1567323064802
 30
0.0
 11
284.9941222106487
 21
56.21865455968418
 31
0.0
  0
LINE
  5
1C44B
330
18213
100
AcDbEntity
  8
30
  6
Continuous
 62
     0
440
 16777216
370
    -2
100
AcDbLine
 10
82.99412221064867
 20
56.71865455968418
 30
0.0
 11
282.9941222106487
 21
56.71865455968418
 31
0.0
  0
INSERT
  5
1C44C
330
18213
100
AcDbEntity
  8
30
  6
Continuous
 62
     0
440
 16777216
370
    -2
100
AcDbBlockReference
  2
_OPEN
 10
80.99412221064865
 20
56.71865455968418
 30
0.0
 41
2.0
 42
2.0
 43
2.0
 50
180.0
  0
INSERT
  5
1C44D
330
18213
100
AcDbEntity
  8
30
  6
Continuous
 62
     0
440
 16777216
370
    -2
100
AcDbBlockReference
  2
_OPEN
 10
284.9941222106487
 20
56.71865455968418
 30
0.0
 41
2.0
 42
2.0
 43
2.0
  0
MTEXT
  5
1C44E
330
18213
100
AcDbEntity
  8
30
  6
Continuous
440
 16777216
100
AcDbMText
 10
182.9941222106486
 20
67.71865455968418
 30
0.0
 40
8.0
 41
0.0
 46
0.0
 71
     2
 72
     1
  1
\A1;204
 73
     1
 44
1.0
 90
        3
 63
     9
421
 13158600
 45
1.25
441
        0
  0
POINT
  5
1C44F
330
18213
100
AcDbEntity
  8
DEFPOINTS
  6
Continuous
 62
     0
440
 16777216
100
AcDbPoint
 10
80.99412221064865
 20
112.1567323064802
 30
0.0
  0
POINT
  5
1C450
330
18213
100
AcDbEntity
  8
DEFPOINTS
  6
Continuous
 62
     0
440
 16777216
100
AcDbPoint
 10
284.9941222106487
 20
112.1567323064802
 30
0.0
  0
POINT
  5
1C451
330
18213
100
AcDbEntity
  8
DEFPOINTS
  6
Continuous
 62
     0
440
 16777216
100
AcDbPoint
 10
284.9941222106487
 20
56.71865455968418
 30
0.0
  0
ENDBLK
  5
18215
330
18213
100
AcDbEntity
  8
0
100
AcDbBlockEnd
  0
BLOCK
  5
18220
330
1821F
100
AcDbEntity
  8
0
100
AcDbBlockBegin
  2
*D26
 70
     1
 10
0.0
 20
0.0
 30
0.0
  3
*D26
  1

  0
LINE
  5
1C41C
330
1821F
100
AcDbEntity
  8
30
  6
Continuous
 62
     0
440
 16777216
370
    -2
100
AcDbLine
 10
285.9941222106487
 20
381.1567323064803
 30
0.0
 11
413.9407350669481
 21
381.1567323064802
 31
0.0
  0
LINE
  5
1C41D
330
1821F
100
AcDbEntity
  8
30
  6
Continuous
 62
     0
440
 16777216
370
    -2
100
AcDbLine
 10
286.9941222106487
 20
113.1567323064802
 30
0.0
 11
413.940735066948
 21
113.1567323064802
 31
0.0
  0
LINE
  5
1C41E
330
1821F
100
AcDbEntity
  8
30
  6
Continuous
 62
     0
440
 16777216
370
    -2
100
AcDbLine
 10
413.4407350669481
 20
379.1567323064802
 30
0.0
 11
413.440735066948
 21
115.1567323064802
 31
0.0
  0
INSERT
  5
1C41F
330
1821F
100
AcDbEntity
  8
30
  6
Continuous
 62
     0
440
 16777216
370
    -2
100
AcDbBlockReference
  2
_OPEN
 10
413.4407350669481
 20
381.1567323064802
 30
0.0
 41
2.0
 42
2.0
 43
2.0
 50
90.0
  0
INSERT
  5
1C420
330
1821F
100
AcDbEntity
  8
30
  6
Continuous
 62
     0
440
 16777216
370
    -2
100
AcDbBlockReference
  2
_OPEN
 10
413.440735066948
 20
113.1567323064802
 30
0.0
 41
2.0
 42
2.0
 43
2.0
 50
270.0
  0
MTEXT
  5
1C421
330
1821F
100
AcDbEntity
  8
30
  6
Continuous
440
 16777216
100
AcDbMText
 10
402.440735066948
 20
247.1567323064803
 30
0.0
 40
8.0
 41
0.0
 46
0.0
 71
     2
 72
     1
  1
\A1;268
 11
0.0000000000000001
 21
1.0
 31
0.0
 73
     1
 44
1.0
 90
        3
 63
     9
421
 13158600
 45
1.25
441
        0
  0
POINT
  5
1C422
330
1821F
100
AcDbEntity
  8
DEFPOINTS
  6
Continuous
 62
     0
440
 16777216
100
AcDbPoint
 10
284.9941222106487
 20
381.1567323064803
 30
0.0
  0
POINT
  5
1C423
330
1821F
100
AcDbEntity
  8
DEFPOINTS
  6
Continuous
 62
     0
440
 16777216
100
AcDbPoint
 10
285.9941222106487
 20
113.1567323064802
 30
0.0
  0
POINT
  5
1C424
330
1821F
100
AcDbEntity
  8
DEFPOINTS
  6
Continuous
 62
     0
440
 16777216
100
AcDbPoint
 10
413.440735066948
 20
113.1567323064802
 30
0.0
  0
ENDBLK
  5
18221
330
1821F
100
AcDbEntity
  8
0
100
AcDbBlockEnd
  0
BLOCK
  5
1822C
330
1822B
100
AcDbEntity
  8
0
100
AcDbBlockBegin
  2
*D27
 70
     1
 10
0.0
 20
0.0
 30
0.0
  3
*D27
  1

  0
LINE
  5
1C45B
330
1822B
100
AcDbEntity
  8
30
  6
Continuous
 62
     0
440
 16777216
370
    -2
100
AcDbLine
 10
74.49412221064867
 20
170.1567323064801
 30
0.0
 11
74.49412221064865
 21
29.38525147205564
 31
0.0
  0
LINE
  5
1C45C
330
1822B
100
AcDbEntity
  8
30
  6
Continuous
 62
     0
440
 16777216
370
    -2
100
AcDbLine
 10
291.4941222106487
 20
170.1567323064801
 30
0.0
 11
291.4941222106487
 21
29.38525147205564
 31
0.0
  0
LINE
  5
1C45D
330
1822B
100
AcDbEntity
  8
30
  6
Continuous
 62
     0
440
 16777216
370
    -2
100
AcDbLine
 10
76.49412221064865
 20
29.88525147205564
 30
0.0
 11
289.4941222106487
 21
29.88525147205564
 31
0.0
  0
INSERT
  5
1C45E
330
1822B
100
AcDbEntity
  8
30
  6
Continuous
 62
     0
440
 16777216
370
    -2
100
AcDbBlockReference
  2
_OPEN
 10
74.49412221064865
 20
29.88525147205564
 30
0.0
 41
2.0
 42
2.0
 43
2.0
 50
180.0
  0
INSERT
  5
1C45F
330
1822B
100
AcDbEntity
  8
30
  6
Continuous
 62
     0
440
 16777216
370
    -2
100
AcDbBlockReference
  2
_OPEN
 10
291.4941222106487
 20
29.88525147205564
 30
0.0
 41
2.0
 42
2.0
 43
2.0
  0
MTEXT
  5
1C460
330
1822B
100
AcDbEntity
  8
30
  6
Continuous
440
 16777216
100
AcDbMText
 10
182.9941222106486
 20
40.88525147205564
 30
0.0
 40
8.0
 41
0.0
 46
0.0
 71
     2
 72
     1
  1
\A1;217
 73
     1
 44
1.0
 90
        3
 63
     9
421
 13158600
 45
1.25
441
        0
  0
POINT
  5
1C461
330
1822B
100
AcDbEntity
  8
DEFPOINTS
  6
Continuous
 62
     0
440
 16777216
100
AcDbPoint
 10
74.49412221064867
 20
171.1567323064801
 30
0.0
  0
POINT
  5
1C462
330
1822B
100
AcDbEntity
  8
DEFPOINTS
  6
Continuous
 62
     0
440
 16777216
100
AcDbPoint
 10
291.4941222106487
 20
171.1567323064801
 30
0.0
  0
POINT
  5
1C463
330
1822B
100
AcDbEntity
  8
DEFPOINTS
  6
Continuous
 62
     0
440
 16777216
100
AcDbPoint
 10
291.4941222106487
 20
29.88525147205564
 30
0.0
  0
ENDBLK
  5
1822D
330
1822B
100
AcDbEntity
  8
0
100
AcDbBlockEnd
  0
BLOCK
  5
18238
330
18237
100
AcDbEntity
  8
0
100
AcDbBlockBegin
  2
*D28
 70
     1
 10
0.0
 20
0.0
 30
0.0
  3
*D28
  1

  0
LINE
  5
1C437
330
18237
100
AcDbEntity
  8
30
  6
Continuous
 62
     0
440
 16777216
370
    -2
100
AcDbLine
 10
292.4941222106487
 20
323.1567323064802
 30
0.0
 11
353.7149726650387
 21
323.1567323064802
 31
0.0
  0
LINE
  5
1C438
330
18237
100
AcDbEntity
  8
30
  6
Continuous
 62
     0
440
 16777216
370
    -2
100
AcDbLine
 10
292.4941222106487
 20
171.1567323064801
 30
0.0
 11
353.7149726650387
 21
171.1567323064801
 31
0.0
  0
LINE
  5
1C439
330
18237
100
AcDbEntity
  8
30
  6
Continuous
 62
     0
440
 16777216
370
    -2
100
AcDbLine
 10
353.2149726650386
 20
321.1567323064802
 30
0.0
 11
353.2149726650386
 21
173.1567323064801
 31
0.0
  0
INSERT
  5
1C43A
330
18237
100
AcDbEntity
  8
30
  6
Continuous
 62
     0
440
 16777216
370
    -2
100
AcDbBlockReference
  2
_OPEN
 10
353.2149726650386
 20
323.1567323064802
 30
0.0
 41
2.0
 42
2.0
 43
2.0
 50
90.0
  0
INSERT
  5
1C43B
330
18237
100
AcDbEntity
  8
30
  6
Continuous
 62
     0
440
 16777216
370
    -2
100
AcDbBlockReference
  2
_OPEN
 10
353.2149726650386
 20
171.1567323064801
 30
0.0
 41
2.0
 42
2.0
 43
2.0
 50
270.0
  0
MTEXT
  5
1C43C
330
18237
100
AcDbEntity
  8
30
  6
Continuous
440
 16777216
100
AcDbMText
 10
342.2149726650387
 20
247.1567323064803
 30
0.0
 40
8.0
 41
0.0
 46
0.0
 71
     2
 72
     1
  1
\A1;152
 11
0.0000000000000001
 21
1.0
 31
0.0
 73
     1
 44
1.0
 90
        3
 63
     9
421
 13158600
 45
1.25
441
        0
  0
POINT
  5
1C43D
330
18237
100
AcDbEntity
  8
DEFPOINTS
  6
Continuous
 62
     0
440
 16777216
100
AcDbPoint
 10
291.4941222106487
 20
323.1567323064802
 30
0.0
  0
POINT
  5
1C43E
330
18237
100
AcDbEntity
  8
DEFPOINTS
  6
Continuous
 62
     0
440
 16777216
100
AcDbPoint
 10
291.4941222106487
 20
171.1567323064801
 30
0.0
  0
POINT
  5
1C43F
330
18237
100
AcDbEntity
  8
DEFPOINTS
  6
Continuous
 62
     0
440
 16777216
100
AcDbPoint
 10
353.2149726650386
 20
171.1567323064801
 30
0.0
  0
ENDBLK
  5
18239
330
18237
100
AcDbEntity
  8
0
100
AcDbBlockEnd
  0
BLOCK
  5
18244
330
18243
100
AcDbEntity
  8
0
100
AcDbBlockBegin
  2
*D29
 70
     1
 10
0.0
 20
0.0
 30
0.0
  3
*D29
  1

  0
LINE
  5
1BFDE
330
18243
100
AcDbEntity
  8
30
  6
Continuous
 62
     0
370
    -2
100
AcDbLine
 10
677.6008571329676
 20
204.6191962016301
 30
0.0
 11
677.6008571329676
 21
80.10197286558469
 31
0.0
  0
LINE
  5
1BFDF
330
18243
100
AcDbEntity
  8
30
  6
Continuous
 62
     0
370
    -2
100
AcDbLine
 10
730.6008571329677
 20
204.6191962016301
 30
0.0
 11
730.6008571329677
 21
80.10197286558469
 31
0.0
  0
LINE
  5
1BFE0
330
18243
100
AcDbEntity
  8
30
  6
Continuous
 62
     0
370
    -2
100
AcDbLine
 10
679.6008571329675
 20
80.60197286558468
 30
0.0
 11
728.6008571329675
 21
80.60197286558468
 31
0.0
  0
INSERT
  5
1BFE1
330
18243
100
AcDbEntity
  8
30
  6
Continuous
 62
     0
370
    -2
100
AcDbBlockReference
  2
_OPEN
 10
677.6008571329676
 20
80.60197286558468
 30
0.0
 41
2.0
 42
2.0
 43
2.0
 50
180.0
  0
INSERT
  5
1BFE2
330
18243
100
AcDbEntity
  8
30
  6
Continuous
 62
     0
370
    -2
100
AcDbBlockReference
  2
_OPEN
 10
730.6008571329677
 20
80.60197286558468
 30
0.0
 41
2.0
 42
2.0
 43
2.0
  0
MTEXT
  5
1BFE3
330
18243
100
AcDbEntity
  8
30
  6
Continuous
100
AcDbMText
 10
704.1008571329675
 20
87.60197286558469
 30
0.0
 40
8.0
 41
0.0
 46
0.0
 71
     5
 72
     1
  1
\A1;53
 73
     1
 44
1.0
 90
        3
 63
     9
421
 13158600
 45
1.25
441
        0
  0
POINT
  5
1BFE4
330
18243
100
AcDbEntity
  8
DEFPOINTS
  6
Continuous
 62
     0
100
AcDbPoint
 10
677.6008571329676
 20
205.6191962016301
 30
0.0
  0
POINT
  5
1BFE5
330
18243
100
AcDbEntity
  8
DEFPOINTS
  6
Continuous
 62
     0
100
AcDbPoint
 10
730.6008571329677
 20
205.6191962016301
 30
0.0
  0
POINT
  5
1BFE6
330
18243
100
AcDbEntity
  8
DEFPOINTS
  6
Continuous
 62
     0
100
AcDbPoint
 10
730.6008571329677
 20
80.60197286558468
 30
0.0
  0
ENDBLK
  5
18245
330
18243
100
AcDbEntity
  8
0
100
AcDbBlockEnd
  0
BLOCK
  5
18250
330
1824F
100
AcDbEntity
  8
0
100
AcDbBlockBegin
  2
*D30
 70
     1
 10
0.0
 20
0.0
 30
0.0
  3
*D30
  1

  0
LINE
  5
1C30F
330
1824F
100
AcDbEntity
  8
30
  6
Continuous
 62
     0
370
    -2
100
AcDbLine
 10
731.6428397460659
 20
299.0000000000002
 30
0.0
 11
752.8816042292637
 21
299.0000000000002
 31
0.0
  0
LINE
  5
1C310
330
1824F
100
AcDbEntity
  8
30
  6
Continuous
 62
     0
370
    -2
100
AcDbLine
 10
731.6428397460659
 20
207.0
 30
0.0
 11
752.8816042292637
 21
207.0
 31
0.0
  0
LINE
  5
1C311
330
1824F
100
AcDbEntity
  8
30
  6
Continuous
 62
     0
370
    -2
100
AcDbLine
 10
752.3816042292637
 20
297.0000000000002
 30
0.0
 11
752.3816042292637
 21
209.0
 31
0.0
  0
INSERT
  5
1C312
330
1824F
100
AcDbEntity
  8
30
  6
Continuous
 62
     0
370
    -2
100
AcDbBlockReference
  2
_OPEN
 10
752.3816042292637
 20
299.0000000000002
 30
0.0
 41
2.0
 42
2.0
 43
2.0
 50
90.0
  0
INSERT
  5
1C313
330
1824F
100
AcDbEntity
  8
30
  6
Continuous
 62
     0
370
    -2
100
AcDbBlockReference
  2
_OPEN
 10
752.3816042292637
 20
207.0
 30
0.0
 41
2.0
 42
2.0
 43
2.0
 50
270.0
  0
MTEXT
  5
1C314
330
1824F
100
AcDbEntity
  8
30
  6
Continuous
100
AcDbMText
 10
745.3816042292637
 20
264.3359396441456
 30
0.0
 40
8.0
 41
0.0
 46
0.0
 71
     5
 72
     1
  1
\A1;92
 11
0.0000000000000001
 21
1.0
 31
0.0
 73
     1
 44
1.0
 90
        3
 63
     9
421
 13158600
 45
1.25
441
        0
  0
POINT
  5
1C315
330
1824F
100
AcDbEntity
  8
DEFPOINTS
  6
Continuous
 62
     0
100
AcDbPoint
 10
730.6428397460656
 20
299.0000000000002
 30
0.0
  0
POINT
  5
1C316
330
1824F
100
AcDbEntity
  8
DEFPOINTS
  6
Continuous
 62
     0
100
AcDbPoint
 10
730.6428397460656
 20
207.0
 30
0.0
  0
POINT
  5
1C317
330
1824F
100
AcDbEntity
  8
DEFPOINTS
  6
Continuous
 62
     0
100
AcDbPoint
 10
752.3816042292637
 20
207.0
 30
0.0
  0
ENDBLK
  5
18251
330
1824F
100
AcDbEntity
  8
0
100
AcDbBlockEnd
  0
BLOCK
  5
18266
330
18265
100
AcDbEntity
  8
0
100
AcDbBlockBegin
  2
*D31
 70
     1
 10
0.0
 20
0.0
 30
0.0
  3
*D31
  1

  0
LINE
  5
1BFF0
330
18265
100
AcDbEntity
  8
30
  6
Continuous
 62
     0
370
    -2
100
AcDbLine
 10
388.6615052345133
 20
204.6191962016301
 30
0.0
 11
388.6615052345133
 21
80.10197286558469
 31
0.0
  0
LINE
  5
1BFF1
330
18265
100
AcDbEntity
  8
30
  6
Continuous
 62
     0
370
    -2
100
AcDbLine
 10
506.6615052345132
 20
204.6191962016301
 30
0.0
 11
506.6615052345132
 21
80.10197286558469
 31
0.0
  0
LINE
  5
1BFF2
330
18265
100
AcDbEntity
  8
30
  6
Continuous
 62
     0
370
    -2
100
AcDbLine
 10
390.6615052345133
 20
80.60197286558468
 30
0.0
 11
504.661505234513
 21
80.60197286558468
 31
0.0
  0
INSERT
  5
1BFF3
330
18265
100
AcDbEntity
  8
30
  6
Continuous
 62
     0
370
    -2
100
AcDbBlockReference
  2
_OPEN
 10
388.6615052345133
 20
80.60197286558468
 30
0.0
 41
2.0
 42
2.0
 43
2.0
 50
180.0
  0
INSERT
  5
1BFF4
330
18265
100
AcDbEntity
  8
30
  6
Continuous
 62
     0
370
    -2
100
AcDbBlockReference
  2
_OPEN
 10
506.6615052345132
 20
80.60197286558468
 30
0.0
 41
2.0
 42
2.0
 43
2.0
  0
MTEXT
  5
1BFF5
330
18265
100
AcDbEntity
  8
30
  6
Continuous
100
AcDbMText
 10
447.661505234513
 20
87.60197286558469
 30
0.0
 40
8.0
 41
0.0
 46
0.0
 71
     5
 72
     1
  1
\A1;118
 73
     1
 44
1.0
 90
        3
 63
     9
421
 13158600
 45
1.25
441
        0
  0
POINT
  5
1BFF6
330
18265
100
AcDbEntity
  8
DEFPOINTS
  6
Continuous
 62
     0
100
AcDbPoint
 10
388.6615052345133
 20
205.6191962016301
 30
0.0
  0
POINT
  5
1BFF7
330
18265
100
AcDbEntity
  8
DEFPOINTS
  6
Continuous
 62
     0
100
AcDbPoint
 10
506.6615052345132
 20
205.6191962016301
 30
0.0
  0
POINT
  5
1BFF8
330
18265
100
AcDbEntity
  8
DEFPOINTS
  6
Continuous
 62
     0
100
AcDbPoint
 10
506.6615052345132
 20
80.60197286558468
 30
0.0
  0
ENDBLK
  5
18267
330
18265
100
AcDbEntity
  8
0
100
AcDbBlockEnd
  0
BLOCK
  5
18272
330
18271
100
AcDbEntity
  8
0
100
AcDbBlockBegin
  2
*D32
 70
     1
 10
0.0
 20
0.0
 30
0.0
  3
*D32
  1

  0
LINE
  5
1C306
330
18271
100
AcDbEntity
  8
30
  6
Continuous
 62
     0
370
    -2
100
AcDbLine
 10
507.7034878476115
 20
299.0000000000002
 30
0.0
 11
535.2938863128456
 21
299.0000000000002
 31
0.0
  0
LINE
  5
1C307
330
18271
100
AcDbEntity
  8
30
  6
Continuous
 62
     0
370
    -2
100
AcDbLine
 10
507.7034878476115
 20
207.0
 30
0.0
 11
535.2938863128456
 21
207.0
 31
0.0
  0
LINE
  5
1C308
330
18271
100
AcDbEntity
  8
30
  6
Continuous
 62
     0
370
    -2
100
AcDbLine
 10
534.7938863128456
 20
297.0000000000002
 30
0.0
 11
534.7938863128456
 21
209.0
 31
0.0
  0
INSERT
  5
1C309
330
18271
100
AcDbEntity
  8
30
  6
Continuous
 62
     0
370
    -2
100
AcDbBlockReference
  2
_OPEN
 10
534.7938863128456
 20
299.0000000000002
 30
0.0
 41
2.0
 42
2.0
 43
2.0
 50
90.0
  0
INSERT
  5
1C30A
330
18271
100
AcDbEntity
  8
30
  6
Continuous
 62
     0
370
    -2
100
AcDbBlockReference
  2
_OPEN
 10
534.7938863128456
 20
207.0
 30
0.0
 41
2.0
 42
2.0
 43
2.0
 50
270.0
  0
MTEXT
  5
1C30B
330
18271
100
AcDbEntity
  8
30
  6
Continuous
100
AcDbMText
 10
527.7938863128456
 20
267.3223324157047
 30
0.0
 40
8.0
 41
0.0
 46
0.0
 71
     5
 72
     1
  1
\A1;92
 11
0.0000000000000001
 21
1.0
 31
0.0
 73
     1
 44
1.0
 90
        3
 63
     9
421
 13158600
 45
1.25
441
        0
  0
POINT
  5
1C30C
330
18271
100
AcDbEntity
  8
DEFPOINTS
  6
Continuous
 62
     0
100
AcDbPoint
 10
506.7034878476113
 20
299.0000000000002
 30
0.0
  0
POINT
  5
1C30D
330
18271
100
AcDbEntity
  8
DEFPOINTS
  6
Continuous
 62
     0
100
AcDbPoint
 10
506.7034878476113
 20
207.0
 30
0.0
  0
POINT
  5
1C30E
330
18271
100
AcDbEntity
  8
DEFPOINTS
  6
Continuous
 62
     0
100
AcDbPoint
 10
534.7938863128456
 20
207.0
 30
0.0
  0
ENDBLK
  5
18273
330
18271
100
AcDbEntity
  8
0
100
AcDbBlockEnd
  0
BLOCK
  5
197FE
330
197FD
100
AcDbEntity
  8
0
100
AcDbBlockBegin
  2
*D33
 70
     1
 10
0.0
 20
0.0
 30
0.0
  3
*D33
  1

  0
LINE
  5
1C002
330
197FD
100
AcDbEntity
  8
30
  6
Continuous
 62
     0
370
    -2
100
AcDbLine
 10
506.8565703206372
 20
299.9365650657811
 30
0.0
 11
527.4572116906681
 21
328.8191461816877
 31
0.0
  0
LINE
  5
1C003
330
197FD
100
AcDbEntity
  8
30
  6
Continuous
 62
     0
370
    -2
100
AcDbLine
 10
527.4572116906681
 20
328.8191461816877
 30
0.0
 11
543.7905450240016
 21
328.8191461816877
 31
0.0
  0
LINE
  5
1C004
330
197FD
100
AcDbEntity
  8
30
  6
Continuous
 62
     0
370
    -2
100
AcDbLine
 10
504.5338409637432
 20
296.6800441713209
 30
0.0
 11
505.6952056422423
 21
298.3083046186238
 31
0.0
  0
INSERT
  5
1C005
330
197FD
100
AcDbEntity
  8
30
  6
Continuous
 62
     0
370
    -2
100
AcDbBlockReference
  2
_OPEN
 10
505.6952056422423
 20
298.3083046186238
 30
0.0
 41
2.0
 42
2.0
 43
2.0
 50
234.5014509348051
  0
MTEXT
  5
1C006
330
197FD
100
AcDbEntity
  8
30
  6
Continuous
 62
     0
100
AcDbMText
 10
530.4572116906679
 20
339.819146181688
 30
0.0
 40
8.0
 41
0.0
 46
0.0
 71
     1
 72
     1
  1
\A1;R2
 73
     1
 44
1.0
  0
POINT
  5
1C007
330
197FD
100
AcDbEntity
  8
DEFPOINTS
  6
Continuous
 62
     0
100
AcDbPoint
 10
505.6952056422423
 20
298.3083046186238
 30
0.0
  0
POINT
  5
1C008
330
197FD
100
AcDbEntity
  8
DEFPOINTS
  6
Continuous
 62
     0
100
AcDbPoint
 10
504.5338409637432
 20
296.6800441713209
 30
0.0
  0
ENDBLK
  5
197FF
330
197FD
100
AcDbEntity
  8
0
100
AcDbBlockEnd
  0
BLOCK
  5
1C03A
330
1C039
100
AcDbEntity
  8
0
100
AcDbBlockBegin
  2
*D34
 70
     1
 10
0.0
 20
0.0
 30
0.0
  3
*D34
  1

  0
LINE
  5
1C40F
330
1C039
100
AcDbEntity
  8
30
  6
Continuous
 62
     0
440
 16777216
370
    -2
100
AcDbLine
 10
289.2598152905159
 20
318.13101120532
 30
0.0
 11
288.4473400468313
 21
316.3034762594435
 31
0.0
  0
LINE
  5
1C410
330
1C039
100
AcDbEntity
  8
30
  6
Continuous
 62
     0
440
 16777216
370
    -2
100
AcDbLine
 10
293.728429130781
 20
328.1824534076404
 30
0.0
 11
302.5677545104207
 21
348.0651220241083
 31
0.0
  0
LINE
  5
1C411
330
1C039
100
AcDbEntity
  8
30
  6
Continuous
 62
     0
440
 16777216
370
    -2
100
AcDbLine
 10
302.5677545104207
 20
348.0651220241083
 30
0.0
 11
318.901087843754
 21
348.0651220241083
 31
0.0
  0
LINE
  5
1C412
330
1C039
100
AcDbEntity
  8
30
  6
Continuous
 62
     0
440
 16777216
370
    -2
100
AcDbLine
 10
290.0722905342004
 20
319.9585461511964
 30
0.0
 11
292.9159538870964
 21
326.354918461764
 31
0.0
  0
INSERT
  5
1C413
330
1C039
100
AcDbEntity
  8
30
  6
Continuous
 62
     0
440
 16777216
370
    -2
100
AcDbBlockReference
  2
_OPEN
 10
290.0722905342004
 20
319.9585461511964
 30
0.0
 41
2.0
 42
2.0
 43
2.0
 50
66.03129382973051
  0
INSERT
  5
1C414
330
1C039
100
AcDbEntity
  8
30
  6
Continuous
 62
     0
440
 16777216
370
    -2
100
AcDbBlockReference
  2
_OPEN
 10
292.9159538870964
 20
326.354918461764
 30
0.0
 41
2.0
 42
2.0
 43
2.0
 50
246.0312938297305
  0
MTEXT
  5
1C415
330
1C039
100
AcDbEntity
  8
30
  6
Continuous
 62
     0
440
 16777216
100
AcDbMText
 10
312.2344211770873
 20
355.0651220241083
 30
0.0
 40
8.0
 41
0.0
 46
0.0
 71
     5
 72
     1
  1
\A1;∅7
 73
     1
 44
1.0
  0
POINT
  5
1C416
330
1C039
100
AcDbEntity
  8
DEFPOINTS
  6
Continuous
 62
     0
440
 16777216
100
AcDbPoint
 10
292.9159538870964
 20
326.354918461764
 30
0.0
  0
POINT
  5
1C417
330
1C039
100
AcDbEntity
  8
DEFPOINTS
  6
Continuous
 62
     0
440
 16777216
100
AcDbPoint
 10
290.0722905342004
 20
319.9585461511964
 30
0.0
  0
ENDBLK
  5
1C03B
330
1C039
100
AcDbEntity
  8
0
100
AcDbBlockEnd
  0
BLOCK
  5
1C07A
330
1C079
100
AcDbEntity
  8
0
100
AcDbBlockBegin
  2
*D35
 70
     1
 10
0.0
 20
0.0
 30
0.0
  3
*D35
  1

  0
LINE
  5
1C1CE
330
1C079
100
AcDbEntity
  8
30
  6
Continuous
 62
     0
440
 16777216
370
    -2
100
AcDbLine
 10
115.0
 20
1140.472719700755
 30
0.0
 11
90.32632291652772
 21
1140.472719700755
 31
0.0
  0
LINE
  5
1C1CF
330
1C079
100
AcDbEntity
  8
30
  6
Continuous
 62
     0
440
 16777216
370
    -2
100
AcDbLine
 10
115.0
 20
1126.472719700755
 30
0.0
 11
90.32632291652772
 21
1126.472719700755
 31
0.0
  0
LINE
  5
1C1D0
330
1C079
100
AcDbEntity
  8
30
  6
Continuous
 62
     0
440
 16777216
370
    -2
100
AcDbLine
 10
90.82632291652771
 20
1138.472719700755
 30
0.0
 11
90.82632291652771
 21
1128.472719700755
 31
0.0
  0
LINE
  5
1C1D1
330
1C079
100
AcDbEntity
  8
30
  6
Continuous
 62
     0
440
 16777216
370
    -2
100
AcDbLine
 10
90.82632291652771
 20
1126.472719700755
 30
0.0
 11
90.82632291652769
 21
1107.806053034088
 31
0.0
  0
INSERT
  5
1C1D2
330
1C079
100
AcDbEntity
  8
30
  6
Continuous
 62
     0
440
 16777216
370
    -2
100
AcDbBlockReference
  2
_OPEN
 10
90.82632291652771
 20
1140.472719700755
 30
0.0
 41
2.0
 42
2.0
 43
2.0
 50
90.0
  0
INSERT
  5
1C1D3
330
1C079
100
AcDbEntity
  8
30
  6
Continuous
 62
     0
440
 16777216
370
    -2
100
AcDbBlockReference
  2
_OPEN
 10
90.82632291652771
 20
1126.472719700755
 30
0.0
 41
2.0
 42
2.0
 43
2.0
 50
270.0
  0
MTEXT
  5
1C1D4
330
1C079
100
AcDbEntity
  8
30
  6
Continuous
440
 16777216
100
AcDbMText
 10
83.82632291652752
 20
1116.139386367422
 30
0.0
 40
8.0
 41
0.0
 46
0.0
 71
     5
 72
     1
  1
\A1;14
 11
0.0000000000000001
 21
1.0
 31
0.0
 73
     1
 44
1.0
 90
        3
 63
     9
421
 13158600
 45
1.25
441
        0
  0
POINT
  5
1C1D5
330
1C079
100
AcDbEntity
  8
DEFPOINTS
  6
Continuous
 62
     0
440
 16777216
100
AcDbPoint
 10
116.0
 20
1140.472719700755
 30
0.0
  0
POINT
  5
1C1D6
330
1C079
100
AcDbEntity
  8
DEFPOINTS
  6
Continuous
 62
     0
440
 16777216
100
AcDbPoint
 10
116.0
 20
1126.472719700755
 30
0.0
  0
POINT
  5
1C1D7
330
1C079
100
AcDbEntity
  8
DEFPOINTS
  6
Continuous
 62
     0
440
 16777216
100
AcDbPoint
 10
90.82632291652771
 20
1126.472719700755
 30
0.0
  0
ENDBLK
  5
1C07B
330
1C079
100
AcDbEntity
  8
0
100
AcDbBlockEnd
  0
BLOCK
  5
1C087
330
1C086
100
AcDbEntity
  8
0
100
AcDbBlockBegin
  2
*D36
 70
     1
 10
0.0
 20
0.0
 30
0.0
  3
*D36
  1

  0
LINE
  5
1C3DB
330
1C086
100
AcDbEntity
  8
30
 62
     0
440
 16777216
370
    -2
100
AcDbLine
 10
122.5
 20
1134.472719700755
 30
0.0
 11
122.5
 21
1170.785334511875
 31
0.0
  0
LINE
  5
1C3DC
330
1C086
100
AcDbEntity
  8
30
 62
     0
440
 16777216
370
    -2
100
AcDbLine
 10
109.5
 20
1134.472719700755
 30
0.0
 11
109.5
 21
1170.785334511875
 31
0.0
  0
LINE
  5
1C3DD
330
1C086
100
AcDbEntity
  8
30
 62
     0
440
 16777216
370
    -2
100
AcDbLine
 10
120.5
 20
1170.285334511875
 30
0.0
 11
111.5
 21
1170.285334511875
 31
0.0
  0
LINE
  5
1C3DE
330
1C086
100
AcDbEntity
  8
30
 62
     0
440
 16777216
370
    -2
100
AcDbLine
 10
109.5
 20
1170.285334511875
 30
0.0
 11
90.83333333333332
 21
1170.285334511875
 31
0.0
  0
INSERT
  5
1C3DF
330
1C086
100
AcDbEntity
  8
30
 62
     0
440
 16777216
370
    -2
100
AcDbBlockReference
  2
_OPEN
 10
122.5
 20
1170.285334511875
 30
0.0
 41
2.0
 42
2.0
 43
2.0
  0
INSERT
  5
1C3E0
330
1C086
100
AcDbEntity
  8
30
 62
     0
440
 16777216
370
    -2
100
AcDbBlockReference
  2
_OPEN
 10
109.5
 20
1170.285334511875
 30
0.0
 41
2.0
 42
2.0
 43
2.0
 50
180.0
  0
MTEXT
  5
1C3E1
330
1C086
100
AcDbEntity
  8
30
440
 16777216
100
AcDbMText
 10
99.16666666666669
 20
1177.285334511875
 30
0.0
 40
8.0
 41
0.0
 46
0.0
 71
     5
 72
     1
  1
\A1;13
 73
     1
 44
1.0
 90
        3
 63
     9
421
 13158600
 45
1.25
441
        0
  0
POINT
  5
1C3E2
330
1C086
100
AcDbEntity
  8
DEFPOINTS
 62
     0
440
 16777216
100
AcDbPoint
 10
122.5
 20
1133.472719700755
 30
0.0
  0
POINT
  5
1C3E3
330
1C086
100
AcDbEntity
  8
DEFPOINTS
 62
     0
440
 16777216
100
AcDbPoint
 10
109.5
 20
1133.472719700755
 30
0.0
  0
POINT
  5
1C3E4
330
1C086
100
AcDbEntity
  8
DEFPOINTS
 62
     0
440
 16777216
100
AcDbPoint
 10
109.5
 20
1170.285334511875
 30
0.0
  0
ENDBLK
  5
1C088
330
1C086
100
AcDbEntity
  8
0
100
AcDbBlockEnd
  0
BLOCK
  5
1C0D6
330
1C0D5
100
AcDbEntity
  8
0
100
AcDbBlockBegin
  2
*D37
 70
     1
 10
0.0
 20
0.0
 30
0.0
  3
*D37
  1

  0
LINE
  5
1C3AD
330
1C0D5
100
AcDbEntity
  8
30
 62
     0
440
 16777216
370
    -2
100
AcDbLine
 10
277.0
 20
1078.472719700755
 30
0.0
 11
345.6606983814872
 21
1078.472719700755
 31
0.0
  0
LINE
  5
1C3AE
330
1C0D5
100
AcDbEntity
  8
30
 62
     0
440
 16777216
370
    -2
100
AcDbLine
 10
267.0
 20
1189.472719700755
 30
0.0
 11
345.6606983814872
 21
1189.472719700755
 31
0.0
  0
LINE
  5
1C3AF
330
1C0D5
100
AcDbEntity
  8
30
 62
     0
440
 16777216
370
    -2
100
AcDbLine
 10
345.1606983814872
 20
1080.472719700755
 30
0.0
 11
345.1606983814873
 21
1187.472719700755
 31
0.0
  0
INSERT
  5
1C3B0
330
1C0D5
100
AcDbEntity
  8
30
 62
     0
440
 16777216
370
    -2
100
AcDbBlockReference
  2
_OPEN
 10
345.1606983814872
 20
1078.472719700755
 30
0.0
 41
2.0
 42
2.0
 43
2.0
 50
270.0
  0
INSERT
  5
1C3B1
330
1C0D5
100
AcDbEntity
  8
30
 62
     0
440
 16777216
370
    -2
100
AcDbBlockReference
  2
_OPEN
 10
345.1606983814873
 20
1189.472719700755
 30
0.0
 41
2.0
 42
2.0
 43
2.0
 50
90.0
  0
MTEXT
  5
1C3B2
330
1C0D5
100
AcDbEntity
  8
30
440
 16777216
100
AcDbMText
 10
338.160698381487
 20
1134.472719700755
 30
0.0
 40
8.0
 41
0.0
 46
0.0
 71
     5
 72
     1
  1
\A1;111
 11
0.0000000000000001
 21
1.0
 31
0.0
 73
     1
 44
1.0
 90
        3
 63
     9
421
 13158600
 45
1.25
441
        0
  0
POINT
  5
1C3B3
330
1C0D5
100
AcDbEntity
  8
DEFPOINTS
 62
     0
440
 16777216
100
AcDbPoint
 10
276.0
 20
1078.472719700755
 30
0.0
  0
POINT
  5
1C3B4
330
1C0D5
100
AcDbEntity
  8
DEFPOINTS
 62
     0
440
 16777216
100
AcDbPoint
 10
266.0
 20
1189.472719700755
 30
0.0
  0
POINT
  5
1C3B5
330
1C0D5
100
AcDbEntity
  8
DEFPOINTS
 62
     0
440
 16777216
100
AcDbPoint
 10
345.1606983814873
 20
1189.472719700755
 30
0.0
  0
ENDBLK
  5
1C0D7
330
1C0D5
100
AcDbEntity
  8
0
100
AcDbBlockEnd
  0
BLOCK
  5
1C135
330
1C134
100
AcDbEntity
  8
0
100
AcDbBlockBegin
  2
*D38
 70
     1
 10
0.0
 20
0.0
 30
0.0
  3
*D38
  1

  0
LINE
  5
1C39B
330
1C134
100
AcDbEntity
  8
30
 62
     0
440
 16777216
370
    -2
100
AcDbLine
 10
259.0
 20
1078.472719700755
 30
0.0
 11
315.4216313303377
 21
1078.472719700755
 31
0.0
  0
LINE
  5
1C39C
330
1C134
100
AcDbEntity
  8
30
 62
     0
440
 16777216
370
    -2
100
AcDbLine
 10
262.5
 20
1173.472719700755
 30
0.0
 11
315.4216313303377
 21
1173.472719700755
 31
0.0
  0
LINE
  5
1C39D
330
1C134
100
AcDbEntity
  8
30
 62
     0
440
 16777216
370
    -2
100
AcDbLine
 10
314.9216313303377
 20
1080.472719700755
 30
0.0
 11
314.9216313303377
 21
1171.472719700755
 31
0.0
  0
INSERT
  5
1C39E
330
1C134
100
AcDbEntity
  8
30
 62
     0
440
 16777216
370
    -2
100
AcDbBlockReference
  2
_OPEN
 10
314.9216313303377
 20
1078.472719700755
 30
0.0
 41
2.0
 42
2.0
 43
2.0
 50
270.0
  0
INSERT
  5
1C39F
330
1C134
100
AcDbEntity
  8
30
 62
     0
440
 16777216
370
    -2
100
AcDbBlockReference
  2
_OPEN
 10
314.9216313303377
 20
1173.472719700755
 30
0.0
 41
2.0
 42
2.0
 43
2.0
 50
90.0
  0
MTEXT
  5
1C3A0
330
1C134
100
AcDbEntity
  8
30
440
 16777216
100
AcDbMText
 10
307.9216313303375
 20
1133.472719700755
 30
0.0
 40
8.0
 41
0.0
 46
0.0
 71
     5
 72
     1
  1
\A1;95
 11
0.0000000000000001
 21
1.0
 31
0.0
 73
     1
 44
1.0
 90
        3
 63
     9
421
 13158600
 45
1.25
441
        0
  0
POINT
  5
1C3A1
330
1C134
100
AcDbEntity
  8
DEFPOINTS
 62
     0
440
 16777216
100
AcDbPoint
 10
258.0
 20
1078.472719700755
 30
0.0
  0
POINT
  5
1C3A2
330
1C134
100
AcDbEntity
  8
DEFPOINTS
 62
     0
440
 16777216
100
AcDbPoint
 10
261.5
 20
1173.472719700755
 30
0.0
  0
POINT
  5
1C3A3
330
1C134
100
AcDbEntity
  8
DEFPOINTS
 62
     0
440
 16777216
100
AcDbPoint
 10
314.9216313303377
 20
1173.472719700755
 30
0.0
  0
ENDBLK
  5
1C136
330
1C134
100
AcDbEntity
  8
0
100
AcDbBlockEnd
  0
BLOCK
  5
1C1B6
330
1C1B5
100
AcDbEntity
  8
0
100
AcDbBlockBegin
  2
*D39
 70
     1
 10
0.0
 20
0.0
 30
0.0
  3
*D39
  1

  0
LINE
  5
1C1FC
330
1C1B5
100
AcDbEntity
  8
30
 62
     0
440
 16777216
370
    -2
100
AcDbLine
 10
103.0
 20
1078.472719700755
 30
0.0
 11
55.33775560642697
 21
1078.472719700755
 31
0.0
  0
LINE
  5
1C1FD
330
1C1B5
100
AcDbEntity
  8
30
 62
     0
440
 16777216
370
    -2
100
AcDbLine
 10
104.5
 20
1133.472719700755
 30
0.0
 11
55.33775560642697
 21
1133.472719700755
 31
0.0
  0
LINE
  5
1C1FE
330
1C1B5
100
AcDbEntity
  8
30
 62
     0
440
 16777216
370
    -2
100
AcDbLine
 10
55.83775560642696
 20
1080.472719700755
 30
0.0
 11
55.83775560642697
 21
1131.472719700755
 31
0.0
  0
INSERT
  5
1C1FF
330
1C1B5
100
AcDbEntity
  8
30
 62
     0
440
 16777216
370
    -2
100
AcDbBlockReference
  2
_OPEN
 10
55.83775560642696
 20
1078.472719700755
 30
0.0
 41
2.0
 42
2.0
 43
2.0
 50
270.0
  0
INSERT
  5
1C200
330
1C1B5
100
AcDbEntity
  8
30
 62
     0
440
 16777216
370
    -2
100
AcDbBlockReference
  2
_OPEN
 10
55.83775560642697
 20
1133.472719700755
 30
0.0
 41
2.0
 42
2.0
 43
2.0
 50
90.0
  0
MTEXT
  5
1C201
330
1C1B5
100
AcDbEntity
  8
30
440
 16777216
100
AcDbMText
 10
48.83775560642678
 20
1105.972719700755
 30
0.0
 40
8.0
 41
0.0
 46
0.0
 71
     5
 72
     1
  1
\A1;55
 11
0.0000000000000001
 21
1.0
 31
0.0
 73
     1
 44
1.0
 90
        3
 63
     9
421
 13158600
 45
1.25
441
        0
  0
POINT
  5
1C202
330
1C1B5
100
AcDbEntity
  8
DEFPOINTS
 62
     0
440
 16777216
100
AcDbPoint
 10
104.0
 20
1078.472719700755
 30
0.0
  0
POINT
  5
1C203
330
1C1B5
100
AcDbEntity
  8
DEFPOINTS
 62
     0
440
 16777216
100
AcDbPoint
 10
105.5
 20
1133.472719700755
 30
0.0
  0
POINT
  5
1C204
330
1C1B5
100
AcDbEntity
  8
DEFPOINTS
 62
     0
440
 16777216
100
AcDbPoint
 10
55.83775560642697
 20
1133.472719700755
 30
0.0
  0
ENDBLK
  5
1C1B7
330
1C1B5
100
AcDbEntity
  8
0
100
AcDbBlockEnd
  0
BLOCK
  5
1C1C3
330
1C1C2
100
AcDbEntity
  8
0
100
AcDbBlockBegin
  2
*D40
 70
     1
 10
0.0
 20
0.0
 30
0.0
  3
*D40
  1

  0
LINE
  5
1C2F4
330
1C1C2
100
AcDbEntity
  8
30
 62
     0
440
 16777216
370
    -2
100
AcDbLine
 10
103.0
 20
1078.472719700755
 30
0.0
 11
72.76520961605362
 21
1078.472719700755
 31
0.0
  0
LINE
  5
1C2F5
330
1C1C2
100
AcDbEntity
  8
30
 62
     0
440
 16777216
370
    -2
100
AcDbLine
 10
100.0
 20
1149.472719700755
 30
0.0
 11
72.76520961605365
 21
1149.472719700755
 31
0.0
  0
LINE
  5
1C2F6
330
1C1C2
100
AcDbEntity
  8
30
 62
     0
440
 16777216
370
    -2
100
AcDbLine
 10
73.26520961605364
 20
1080.472719700755
 30
0.0
 11
73.26520961605365
 21
1147.472719700755
 31
0.0
  0
INSERT
  5
1C2F7
330
1C1C2
100
AcDbEntity
  8
30
 62
     0
440
 16777216
370
    -2
100
AcDbBlockReference
  2
_OPEN
 10
73.26520961605364
 20
1078.472719700755
 30
0.0
 41
2.0
 42
2.0
 43
2.0
 50
270.0
  0
INSERT
  5
1C2F8
330
1C1C2
100
AcDbEntity
  8
30
 62
     0
440
 16777216
370
    -2
100
AcDbBlockReference
  2
_OPEN
 10
73.26520961605365
 20
1149.472719700755
 30
0.0
 41
2.0
 42
2.0
 43
2.0
 50
90.0
  0
MTEXT
  5
1C2F9
330
1C1C2
100
AcDbEntity
  8
30
440
 16777216
100
AcDbMText
 10
66.26520961605347
 20
1113.972719700755
 30
0.0
 40
8.0
 41
0.0
 46
0.0
 71
     5
 72
     1
  1
\A1;71
 11
0.0000000000000001
 21
1.0
 31
0.0
 73
     1
 44
1.0
 90
        3
 63
     9
421
 13158600
 45
1.25
441
        0
  0
POINT
  5
1C2FA
330
1C1C2
100
AcDbEntity
  8
DEFPOINTS
 62
     0
440
 16777216
100
AcDbPoint
 10
104.0
 20
1078.472719700755
 30
0.0
  0
POINT
  5
1C2FB
330
1C1C2
100
AcDbEntity
  8
DEFPOINTS
 62
     0
440
 16777216
100
AcDbPoint
 10
101.0
 20
1149.472719700755
 30
0.0
  0
POINT
  5
1C2FC
330
1C1C2
100
AcDbEntity
  8
DEFPOINTS
 62
     0
440
 16777216
100
AcDbPoint
 10
73.26520961605365
 20
1149.472719700755
 30
0.0
  0
ENDBLK
  5
1C1C4
330
1C1C2
100
AcDbEntity
  8
0
100
AcDbBlockEnd
  0
BLOCK
  5
1C207
330
1C206
100
AcDbEntity
  8
0
100
AcDbBlockBegin
  2
*D41
 70
     1
 10
0.0
 20
0.0
 30
0.0
  3
*D41
  1

  0
LINE
  5
1C3D1
330
1C206
100
AcDbEntity
  8
30
 62
     0
440
 16777216
370
    -2
100
AcDbLine
 10
266.0
 20
1190.472719700755
 30
0.0
 11
266.0
 21
1222.29635782977
 31
0.0
  0
LINE
  5
1C3D2
330
1C206
100
AcDbEntity
  8
30
 62
     0
440
 16777216
370
    -2
100
AcDbLine
 10
236.0
 20
1190.472719700755
 30
0.0
 11
236.0
 21
1222.29635782977
 31
0.0
  0
LINE
  5
1C3D3
330
1C206
100
AcDbEntity
  8
30
 62
     0
440
 16777216
370
    -2
100
AcDbLine
 10
238.0
 20
1221.79635782977
 30
0.0
 11
264.0
 21
1221.79635782977
 31
0.0
  0
LINE
  5
1C3D4
330
1C206
100
AcDbEntity
  8
30
 62
     0
440
 16777216
370
    -2
100
AcDbLine
 10
266.0
 20
1221.79635782977
 30
0.0
 11
290.4465780968412
 21
1221.79635782977
 31
0.0
  0
INSERT
  5
1C3D5
330
1C206
100
AcDbEntity
  8
30
 62
     0
440
 16777216
370
    -2
100
AcDbBlockReference
  2
_OPEN
 10
236.0
 20
1221.79635782977
 30
0.0
 41
2.0
 42
2.0
 43
2.0
 50
180.0
  0
INSERT
  5
1C3D6
330
1C206
100
AcDbEntity
  8
30
 62
     0
440
 16777216
370
    -2
100
AcDbBlockReference
  2
_OPEN
 10
266.0
 20
1221.79635782977
 30
0.0
 41
2.0
 42
2.0
 43
2.0
  0
MTEXT
  5
1C3D7
330
1C206
100
AcDbEntity
  8
30
440
 16777216
100
AcDbMText
 10
281.4465780968412
 20
1228.79635782977
 30
0.0
 40
8.0
 41
0.0
 46
0.0
 71
     5
 72
     1
  1
\A1;30
 73
     1
 44
1.0
 90
        3
 63
     9
421
 13158600
 45
1.25
441
        0
  0
POINT
  5
1C3D8
330
1C206
100
AcDbEntity
  8
DEFPOINTS
 62
     0
440
 16777216
100
AcDbPoint
 10
266.0
 20
1189.472719700755
 30
0.0
  0
POINT
  5
1C3D9
330
1C206
100
AcDbEntity
  8
DEFPOINTS
 62
     0
440
 16777216
100
AcDbPoint
 10
236.0
 20
1189.472719700755
 30
0.0
  0
POINT
  5
1C3DA
330
1C206
100
AcDbEntity
  8
DEFPOINTS
 62
     0
440
 16777216
100
AcDbPoint
 10
236.0
 20
1221.79635782977
 30
0.0
  0
ENDBLK
  5
1C208
330
1C206
100
AcDbEntity
  8
0
100
AcDbBlockEnd
  0
ENDSEC
  0
SECTION
  2
ENTITIES
  0
LINE
  5
17FD2
330
1E
100
AcDbEntity
  8
16
 48
2.0
100
AcDbLine
 10
161.0
 20
532.9727197007554
 30
0.0
 11
161.0
 21
863.3991523324143
 31
0.0
  0
LINE
  5
17FD3
330
1E
100
AcDbEntity
  8
16
 48
2.0
100
AcDbLine
 10
325.8497158299924
 20
703.0
 30
0.0
 11
20.89349508295527
 21
703.0
 31
0.0
  0
MTEXT
  5
17FD4
330
1E
100
AcDbEntity
  8
19
  6
Continuous
100
AcDbMText
 10
563.0
 20
1194.639821059567
 30
0.0
 40
10.0
 41
178.0
 46
0.0
 71
     1
 72
     5
  1
PS400-CF 4P FP\PPS400-NF 4P FP\PPS400-GF 4P FP\PPS400-PF 4P FP\PPS400-NN 4P FP\PPS400-NE 4P FP\PPS400-GE 4P FP\PPS400-PE 4P FP
  7
STANDARD1
 73
     1
 44
1.0
  0
LINE
  5
17FD5
330
1E
100
AcDbEntity
  8
16
 48
2.0
100
AcDbLine
 10
161.0
 20
912.972719700755
 30
0.0
 11
161.0
 21
1195.865952976683
 31
0.0
  0
LINE
  5
17FD6
330
1E
100
AcDbEntity
  8
18
100
AcDbLine
 10
40.11812957477377
 20
994.4727197007553
 30
0.0
 11
396.5
 21
994.4727197007553
 31
0.0
  0
LINE
  5
17FD7
330
1E
100
AcDbEntity
  8
18
100
AcDbLine
 10
396.5
 20
994.4727197007553
 30
0.0
 11
396.5
 21
990.4727197007547
 31
0.0
  0
LINE
  5
17FD8
330
1E
100
AcDbEntity
  8
18
100
AcDbLine
 10
396.5
 20
990.4727197007547
 30
0.0
 11
316.5
 21
990.4727197007547
 31
0.0
  0
LINE
  5
17FD9
330
1E
100
AcDbEntity
  8
18
100
AcDbLine
 10
40.11812957477377
 20
990.4727197007547
 30
0.0
 11
48.49993896486012
 21
990.4727197007547
 31
0.0
  0
LINE
  5
17FDB
330
1E
100
AcDbEntity
  8
16
 48
2.0
100
AcDbLine
 10
183.5
 20
532.9727197007551
 30
0.0
 11
183.5
 21
863.5894848367186
 31
0.0
  0
LINE
  5
17FDC
330
1E
100
AcDbEntity
  8
10
  6
Continuous
100
AcDbLine
 10
95.0010914860004
 20
1095.472719700755
 30
0.0
 11
101.0010914860004
 21
1095.472719700755
 31
0.0
  0
LINE
  5
17FDD
330
1E
100
AcDbEntity
  8
10
  6
Continuous
100
AcDbLine
 10
64.0
 20
990.4727197007547
 30
0.0
 11
303.0
 21
990.4727197007552
 31
0.0
  0
LINE
  5
17FDE
330
1E
100
AcDbEntity
  8
10
  6
Continuous
100
AcDbLine
 10
66.0
 20
975.9727197007553
 30
0.0
 11
301.0
 21
975.9727197007553
 31
0.0
  0
ARC
  5
17FDF
330
1E
100
AcDbEntity
  8
10
  6
Continuous
100
AcDbCircle
 10
66.0
 20
977.9727197007547
 30
0.0
 40
2.0
100
AcDbArc
 50
180.0
 51
270.0
  0
LINE
  5
17FE0
330
1E
100
AcDbEntity
  8
10
  6
Continuous
100
AcDbLine
 10
64.0
 20
990.4727197007547
 30
0.0
 11
64.0
 21
977.9727197007547
 31
0.0
  0
LINE
  5
17FE1
330
1E
100
AcDbEntity
  8
10
  6
Continuous
100
AcDbLine
 10
303.0
 20
990.4727197007552
 30
0.0
 11
303.0
 21
977.9727197007552
 31
0.0
  0
ARC
  5
17FE2
330
1E
100
AcDbEntity
  8
10
  6
Continuous
100
AcDbCircle
 10
301.0
 20
977.9727197007552
 30
0.0
 40
2.0
100
AcDbArc
 50
270.0
 51
0.0
  0
LINE
  5
17FE3
330
1E
100
AcDbEntity
  8
10
  6
Continuous
100
AcDbLine
 10
282.0
 20
1084.172719700755
 30
0.0
 11
282.0
 21
990.4727197007552
 31
0.0
  0
LINE
  5
17FE4
330
1E
100
AcDbEntity
  8
10
  6
Continuous
100
AcDbLine
 10
104.0010914860004
 20
1087.172719700755
 30
0.0
 11
88.0
 21
1087.172719700755
 31
0.0
  0
ARC
  5
17FE5
330
1E
100
AcDbEntity
  8
10
  6
Continuous
100
AcDbCircle
 10
88.0
 20
1084.172719700755
 30
0.0
 40
2.999999999999971
100
AcDbArc
 50
90.0
 51
180.0
  0
LINE
  5
17FE6
330
1E
100
AcDbEntity
  8
10
  6
Continuous
100
AcDbLine
 10
85.0
 20
1084.172719700755
 30
0.0
 11
85.0
 21
990.4727197007547
 31
0.0
  0
LINE
  5
17FE7
330
1E
100
AcDbEntity
  8
10
  6
Continuous
100
AcDbLine
 10
144.0
 20
957.6402737702547
 30
0.0
 11
178.0
 21
957.6402737702547
 31
0.0
  0
LINE
  5
17FE8
330
1E
100
AcDbEntity
  8
10
  6
Continuous
100
AcDbLine
 10
178.0
 20
933.011023436755
 30
0.0
 11
178.0
 21
957.6402737702547
 31
0.0
  0
LINE
  5
17FE9
330
1E
100
AcDbEntity
  8
10
  6
Continuous
100
AcDbLine
 10
144.0
 20
957.6402737702547
 30
0.0
 11
144.0
 21
933.011023436755
 31
0.0
  0
LINE
  5
17FEA
330
1E
100
AcDbEntity
  8
10
  6
Continuous
100
AcDbLine
 10
144.0
 20
933.011023436755
 30
0.0
 11
178.0
 21
933.011023436755
 31
0.0
  0
LINE
  5
17FEB
330
1E
100
AcDbEntity
  8
10
  6
Continuous
100
AcDbLine
 10
174.8
 20
957.6402737702547
 30
0.0
 11
174.8
 21
967.2478268297552
 31
0.0
  0
LINE
  5
17FEC
330
1E
100
AcDbEntity
  8
10
  6
Continuous
100
AcDbLine
 10
147.2000000000007
 20
967.2478268297552
 30
0.0
 11
147.2000000000007
 21
957.6402737702547
 31
0.0
  0
LINE
  5
17FED
330
1E
100
AcDbEntity
  8
10
  6
Continuous
100
AcDbLine
 10
135.5
 20
974.9727197007548
 30
0.0
 11
135.5
 21
967.4727197007547
 31
0.0
  0
LINE
  5
17FEE
330
1E
100
AcDbEntity
  8
10
  6
Continuous
100
AcDbLine
 10
135.5
 20
967.4727197007547
 30
0.0
 11
186.5
 21
967.4727197007547
 31
0.0
  0
LINE
  5
17FEF
330
1E
100
AcDbEntity
  8
10
  6
Continuous
100
AcDbLine
 10
186.5
 20
974.9727197007548
 30
0.0
 11
186.5
 21
967.4727197007547
 31
0.0
  0
LINE
  5
17FF0
330
1E
100
AcDbEntity
  8
10
  6
Continuous
100
AcDbLine
 10
217.8000000000002
 20
974.9727197007548
 30
0.0
 11
186.5
 21
974.9727197007548
 31
0.0
  0
LINE
  5
17FF1
330
1E
100
AcDbEntity
  8
10
  6
Continuous
100
AcDbLine
 10
135.5
 20
974.9727197007548
 30
0.0
 11
104.1999999999998
 21
974.9727197007548
 31
0.0
  0
LINE
  5
17FF2
330
1E
100
AcDbEntity
  8
10
  6
Continuous
100
AcDbLine
 10
103.1999999999998
 20
975.9727197007553
 30
0.0
 11
103.1999999999998
 21
974.9727197007548
 31
0.0
  0
LINE
  5
17FF3
330
1E
100
AcDbEntity
  8
10
  6
Continuous
100
AcDbLine
 10
103.1999999999998
 20
974.9727197007548
 30
0.0
 11
104.1999999999998
 21
974.9727197007548
 31
0.0
  0
LINE
  5
17FF4
330
1E
100
AcDbEntity
  8
10
  6
Continuous
100
AcDbLine
 10
218.8000000000002
 20
974.9727197007548
 30
0.0
 11
218.8000000000002
 21
975.9727197007553
 31
0.0
  0
LINE
  5
17FF5
330
1E
100
AcDbEntity
  8
10
  6
Continuous
100
AcDbLine
 10
217.8000000000002
 20
974.9727197007548
 30
0.0
 11
218.8000000000002
 21
974.9727197007548
 31
0.0
  0
LINE
  5
17FF6
330
1E
100
AcDbEntity
  8
10
  6
Continuous
100
AcDbLine
 10
91.0
 20
990.4727197007547
 30
0.0
 11
91.0
 21
1078.472719700755
 31
0.0
  0
LINE
  5
17FF7
330
1E
100
AcDbEntity
  8
10
  6
Continuous
100
AcDbLine
 10
276.0
 20
1078.472719700755
 30
0.0
 11
276.0
 21
990.4727197007547
 31
0.0
  0
LWPOLYLINE
  5
17FFB
330
1E
100
AcDbEntity
  8
21
  6
Continuous
100
AcDbPolyline
 90
        2
 70
     0
 43
0.0
 10
101.0
 20
1149.472719700755
 10
131.0
 20
1149.472719700755
  0
LINE
  5
17FFC
330
1E
100
AcDbEntity
  8
16
100
AcDbLine
 10
105.5
 20
1133.472719700755
 30
0.0
 11
126.5
 21
1133.472719700755
 31
0.0
  0
LINE
  5
17FFD
330
1E
100
AcDbEntity
  8
21
  6
Continuous
100
AcDbLine
 10
101.0
 20
1115.972719700755
 30
0.0
 11
101.0
 21
1149.472719700755
 31
0.0
  0
LWPOLYLINE
  5
17FFE
330
1E
100
AcDbEntity
  8
21
  6
Continuous
100
AcDbPolyline
 90
        2
 70
     0
 43
0.0
 10
101.0
 20
1115.972719700755
 10
101.0
 20
1149.472719700755
  0
LWPOLYLINE
  5
17FFF
330
1E
100
AcDbEntity
  8
21
  6
Continuous
100
AcDbPolyline
 90
        4
 70
     0
 43
0.0
 10
104.0
 20
1078.472719700755
 10
104.0
 20
1108.472719700755
 10
128.0
 20
1108.472719700755
 10
128.0
 20
1078.472719700755
  0
LWPOLYLINE
  5
18000
330
1E
100
AcDbEntity
  8
21
  6
Continuous
100
AcDbPolyline
 90
        2
 70
     0
 43
0.0
 10
101.0
 20
1115.972719700755
 42
0.4142135623730951
 10
107.5
 20
1109.472719700755
  0
LWPOLYLINE
  5
18001
330
1E
100
AcDbEntity
  8
21
  6
Continuous
100
AcDbPolyline
 90
        2
 70
     0
 43
0.0
 10
107.5
 20
1108.472719700755
 10
107.5
 20
1109.472719700755
  0
LINE
  5
18002
330
1E
100
AcDbEntity
  8
16
100
AcDbLine
 10
116.0
 20
1064.034907722206
 30
0.0
 11
116.0
 21
1143.972719700755
 31
0.0
  0
LINE
  5
18004
330
1E
100
AcDbEntity
  8
21
  6
Continuous
100
AcDbLine
 10
131.0
 20
1115.972719700755
 30
0.0
 11
131.0
 21
1149.472719700755
 31
0.0
  0
LWPOLYLINE
  5
18005
330
1E
100
AcDbEntity
  8
21
  6
Continuous
100
AcDbPolyline
 90
        2
 70
     0
 43
0.0
 10
131.0
 20
1115.972719700755
 10
131.0
 20
1149.472719700755
  0
LINE
  5
18006
330
1E
100
AcDbEntity
  8
21
  6
Continuous
100
AcDbLine
 10
191.0
 20
1115.972719700755
 30
0.0
 11
191.0
 21
1149.472719700755
 31
0.0
  0
LINE
  5
18007
330
1E
100
AcDbEntity
  8
21
  6
Continuous
100
AcDbLine
 10
221.0
 20
1115.972719700755
 30
0.0
 11
221.0
 21
1149.472719700755
 31
0.0
  0
LINE
  5
18008
330
1E
100
AcDbEntity
  8
21
  6
Continuous
100
AcDbLine
 10
146.0
 20
1115.972719700755
 30
0.0
 11
146.0
 21
1189.472719700755
 31
0.0
  0
LINE
  5
18009
330
1E
100
AcDbEntity
  8
21
  6
Continuous
100
AcDbLine
 10
176.0
 20
1115.972719700755
 30
0.0
 11
176.0
 21
1189.472719700755
 31
0.0
  0
LINE
  5
1800A
330
1E
100
AcDbEntity
  8
21
  6
Continuous
100
AcDbLine
 10
236.0
 20
1115.972719700755
 30
0.0
 11
236.0
 21
1189.472719700755
 31
0.0
  0
LINE
  5
1800B
330
1E
100
AcDbEntity
  8
21
  6
Continuous
100
AcDbLine
 10
266.0
 20
1115.972719700755
 30
0.0
 11
266.0
 21
1189.472719700755
 31
0.0
  0
LWPOLYLINE
  5
1800C
330
1E
100
AcDbEntity
  8
21
  6
Continuous
100
AcDbPolyline
 90
        2
 70
     0
 43
0.0
 10
236.0
 20
1115.972719700755
 10
236.0
 20
1189.472719700755
  0
LWPOLYLINE
  5
1800D
330
1E
100
AcDbEntity
  8
21
  6
Continuous
100
AcDbPolyline
 90
        2
 70
     0
 43
0.0
 10
266.0
 20
1115.972719700755
 10
266.0
 20
1189.472719700755
  0
LINE
  5
1800E
330
1E
100
AcDbEntity
  8
21
  6
Continuous
100
AcDbLine
 10
174.0
 20
1081.672719700755
 30
0.0
 11
194.0
 21
1081.672719700755
 31
0.0
  0
LWPOLYLINE
  5
1800F
330
1E
100
AcDbEntity
  8
21
  6
Continuous
100
AcDbPolyline
 90
        8
 70
     0
 43
0.0
 10
148.0
 20
1078.472719700755
 10
147.9999999999991
 20
1111.282303940932
 42
-0.204301876884642
 10
146.0
 20
1115.972719700755
 10
146.0
 20
1189.472719700755
 10
176.0
 20
1189.472719700755
 10
176.0
 20
1115.972719700755
 42
-0.204301876884642
 10
174.0
 20
1111.282303940932
 10
174.0
 20
1078.472719700755
  0
LWPOLYLINE
  5
18010
330
1E
100
AcDbEntity
  8
21
  6
Continuous
100
AcDbPolyline
 90
        2
 70
     0
 43
0.0
 10
124.5
 20
1108.472719700755
 10
124.5
 20
1109.472719700755
  0
LWPOLYLINE
  5
18011
330
1E
100
AcDbEntity
  8
21
  6
Continuous
100
AcDbPolyline
 90
        2
 70
     0
 43
0.0
 10
124.5
 20
1109.472719700755
 42
0.4142135623730951
 10
131.0
 20
1115.972719700755
  0
LINE
  5
18012
330
1E
100
AcDbEntity
  8
21
  6
Continuous
100
AcDbLine
 10
218.0
 20
1081.672719700755
 30
0.0
 11
238.0
 21
1081.672719700755
 31
0.0
  0
LINE
  5
18013
330
1E
100
AcDbEntity
  8
21
  6
Continuous
100
AcDbLine
 10
194.0
 20
1078.472719700755
 30
0.0
 11
194.0
 21
1108.472719700755
 31
0.0
  0
LINE
  5
18014
330
1E
100
AcDbEntity
  8
21
  6
Continuous
100
AcDbLine
 10
218.0
 20
1078.472719700755
 30
0.0
 11
218.0
 21
1108.472719700755
 31
0.0
  0
LINE
  5
18015
330
1E
100
AcDbEntity
  8
21
  6
Continuous
100
AcDbLine
 10
194.0
 20
1108.472719700755
 30
0.0
 11
218.0
 21
1108.472719700755
 31
0.0
  0
LWPOLYLINE
  5
18016
330
1E
100
AcDbEntity
  8
21
  6
Continuous
100
AcDbPolyline
 90
        8
 70
     0
 43
0.0
 10
197.5
 20
1108.472719700755
 10
197.5
 20
1109.472719700755
 42
-0.4142135623730951
 10
191.0
 20
1115.972719700755
 10
191.0
 20
1149.472719700755
 10
221.0
 20
1149.472719700755
 10
221.0
 20
1115.972719700755
 42
-0.4142135623730951
 10
214.5
 20
1109.472719700755
 10
214.5
 20
1108.472719700755
  0
LWPOLYLINE
  5
18017
330
1E
100
AcDbEntity
  8
21
  6
Continuous
100
AcDbPolyline
 90
        2
 70
     0
 43
0.0
 10
238.0
 20
1078.472719700755
 10
238.0
 20
1111.282303940932
  0
LWPOLYLINE
  5
18018
330
1E
100
AcDbEntity
  8
21
  6
Continuous
100
AcDbPolyline
 90
        2
 70
     0
 43
0.0
 10
236.0
 20
1115.972719700755
 42
0.204301876884642
 10
237.9999999999991
 20
1111.282303940932
  0
LWPOLYLINE
  5
18019
330
1E
100
AcDbEntity
  8
21
  6
Continuous
100
AcDbPolyline
 90
        2
 70
     0
 43
0.0
 10
264.0
 20
1078.472719700755
 10
264.0
 20
1111.282303940932
  0
LWPOLYLINE
  5
1801A
330
1E
100
AcDbEntity
  8
21
  6
Continuous
100
AcDbPolyline
 90
        2
 70
     0
 43
0.0
 10
264.0000000000009
 20
1111.282303940932
 42
0.204301876884642
 10
266.0
 20
1115.972719700755
  0
LWPOLYLINE
  5
1801B
330
1E
100
AcDbEntity
  8
21
  6
Continuous
100
AcDbPolyline
 90
        2
 70
     0
 43
0.0
 10
236.0
 20
1189.472719700755
 10
266.0
 20
1189.472719700755
  0
LINE
  5
1801C
330
1E
100
AcDbEntity
  8
21
  6
Continuous
100
AcDbLine
 10
236.0
 20
1149.472719700755
 30
0.0
 11
266.0
 21
1149.472719700755
 31
0.0
  0
LINE
  5
1801D
330
1E
100
AcDbEntity
  8
16
100
AcDbLine
 10
240.5
 20
1173.472719700755
 30
0.0
 11
261.5
 21
1173.472719700755
 31
0.0
  0
LINE
  5
18021
330
1E
100
AcDbEntity
  8
21
  6
Continuous
100
AcDbLine
 10
146.0
 20
1149.472719700755
 30
0.0
 11
176.0
 21
1149.472719700755
 31
0.0
  0
LINE
  5
18022
330
1E
100
AcDbEntity
  8
16
100
AcDbLine
 10
150.5
 20
1173.472719700755
 30
0.0
 11
171.5
 21
1173.472719700755
 31
0.0
  0
LINE
  5
18023
330
1E
100
AcDbEntity
  8
16
100
AcDbLine
 10
251.0
 20
1065.769527628795
 30
0.0
 11
251.0
 21
1183.972719700755
 31
0.0
  0
LINE
  5
18024
330
1E
100
AcDbEntity
  8
16
100
AcDbLine
 10
195.5
 20
1133.472719700755
 30
0.0
 11
216.5
 21
1133.472719700755
 31
0.0
  0
LINE
  5
18026
330
1E
100
AcDbEntity
  8
16
100
AcDbLine
 10
206.0
 20
1065.191318845762
 30
0.0
 11
206.0
 21
1143.972719700755
 31
0.0
  0
DIMENSION
  5
18027
330
1E
100
AcDbEntity
  8
30
  6
Continuous
100
AcDbDimension
280
     0
  2
*D10
 10
161.0
 20
1255.94137458638
 30
0.0
 11
138.5
 21
1262.94137458638
 31
0.0
 70
    32
 71
     5
 42
45.0
 73
     0
 74
     0
 75
     0
  3
STANDARD
100
AcDbAlignedDimension
 13
116.0
 23
1143.972719700755
 33
0.0
 14
161.0
 24
1183.972719700755
 34
0.0
100
AcDbRotatedDimension
  0
DIMENSION
  5
18028
330
1E
100
AcDbEntity
  8
30
  6
Continuous
100
AcDbDimension
280
     0
  2
*D11
 10
206.0
 20
1255.94137458638
 30
0.0
 11
183.5
 21
1262.94137458638
 31
0.0
 70
    32
 71
     5
 42
45.0
 73
     0
 74
     0
 75
     0
  3
STANDARD
100
AcDbAlignedDimension
 13
161.0
 23
1183.972719700755
 33
0.0
 14
206.0
 24
1143.972719700755
 34
0.0
100
AcDbRotatedDimension
1001
ACAD
1000
DSTYLE
1002
{
1070
   279
1070
     1
1002
}
  0
DIMENSION
  5
18029
330
1E
100
AcDbEntity
  8
30
  6
Continuous
100
AcDbDimension
280
     0
  2
*D12
 10
251.0
 20
1255.94137458638
 30
0.0
 11
228.5
 21
1262.94137458638
 31
0.0
 70
    32
 71
     5
 42
45.0
 73
     0
 74
     0
 75
     0
  3
STANDARD
100
AcDbAlignedDimension
 13
206.0
 23
1143.972719700755
 33
0.0
 14
251.0
 24
1183.972719700755
 34
0.0
100
AcDbRotatedDimension
1001
ACAD
1000
DSTYLE
1002
{
1070
   279
1070
     1
1002
}
  0
LINE
  5
1802A
330
1E
100
AcDbEntity
  8
10
  6
Continuous
100
AcDbLine
 10
91.0
 20
1078.472719700755
 30
0.0
 11
276.0
 21
1078.472719700755
 31
0.0
  0
LINE
  5
1802B
330
1E
100
AcDbEntity
  8
10
  6
Continuous
100
AcDbLine
 10
92.0010914860004
 20
1087.172719700755
 30
0.0
 11
92.0010914860004
 21
1093.947719700755
 31
0.0
  0
LINE
  5
1802C
330
1E
100
AcDbEntity
  8
10
  6
Continuous
100
AcDbLine
 10
104.0010914860004
 20
1087.172719700755
 30
0.0
 11
104.0010914860004
 21
1093.947719700755
 31
0.0
  0
LINE
  5
1802D
330
1E
100
AcDbEntity
  8
10
  6
Continuous
100
AcDbLine
 10
95.0010914860004
 20
1093.947719700755
 30
0.0
 11
95.0010914860004
 21
1095.472719700755
 31
0.0
  0
LINE
  5
1802E
330
1E
100
AcDbEntity
  8
10
  6
Continuous
100
AcDbLine
 10
101.0010914860004
 20
1093.947719700755
 30
0.0
 11
101.0010914860004
 21
1095.472719700755
 31
0.0
  0
LINE
  5
1802F
330
1E
100
AcDbEntity
  8
10
  6
Continuous
100
AcDbLine
 10
92.0010914860004
 20
1093.947719700755
 30
0.0
 11
104.0010914860004
 21
1093.947719700755
 31
0.0
  0
LINE
  5
18030
330
1E
100
AcDbEntity
  8
21
  6
Continuous
100
AcDbLine
 10
128.0
 20
1081.672719700755
 30
0.0
 11
148.0
 21
1081.672719700755
 31
0.0
  0
LINE
  5
18031
330
1E
100
AcDbEntity
  8
10
  6
Continuous
100
AcDbLine
 10
273.0
 20
1095.472719700755
 30
0.0
 11
267.0
 21
1095.472719700755
 31
0.0
  0
LINE
  5
18032
330
1E
100
AcDbEntity
  8
10
  6
Continuous
100
AcDbLine
 10
264.0
 20
1087.172719700755
 30
0.0
 11
279.0
 21
1087.172719700755
 31
0.0
  0
ARC
  5
18033
330
1E
100
AcDbEntity
  8
10
  6
Continuous
100
AcDbCircle
 10
279.0
 20
1084.172719700755
 30
0.0
 40
2.999999999999971
100
AcDbArc
 50
0.0
 51
90.0
  0
LINE
  5
18034
330
1E
100
AcDbEntity
  8
10
  6
Continuous
100
AcDbLine
 10
276.0
 20
1087.172719700755
 30
0.0
 11
276.0
 21
1093.947719700755
 31
0.0
  0
LINE
  5
18035
330
1E
100
AcDbEntity
  8
10
  6
Continuous
100
AcDbLine
 10
264.0
 20
1087.172719700755
 30
0.0
 11
264.0
 21
1093.947719700755
 31
0.0
  0
LINE
  5
18036
330
1E
100
AcDbEntity
  8
10
  6
Continuous
100
AcDbLine
 10
273.0
 20
1093.947719700755
 30
0.0
 11
273.0
 21
1095.472719700755
 31
0.0
  0
LINE
  5
18037
330
1E
100
AcDbEntity
  8
10
  6
Continuous
100
AcDbLine
 10
267.0
 20
1093.947719700755
 30
0.0
 11
267.0
 21
1095.472719700755
 31
0.0
  0
LINE
  5
18038
330
1E
100
AcDbEntity
  8
10
  6
Continuous
100
AcDbLine
 10
276.0
 20
1093.947719700755
 30
0.0
 11
264.0
 21
1093.947719700755
 31
0.0
  0
LINE
  5
18039
330
1E
100
AcDbEntity
  8
10
  6
Continuous
100
AcDbLine
 10
535.2444141247523
 20
557.9838962258913
 30
0.0
 11
547.7444171047518
 21
557.9838962258913
 31
0.0
  0
ARC
  5
1803A
330
1E
100
AcDbEntity
  8
10
  6
Continuous
100
AcDbCircle
 10
535.2444162702521
 20
559.983892053391
 30
0.0
 40
2.00000000000017
100
AcDbArc
 50
180.0
 51
270.0
  0
LINE
  5
1803B
330
1E
100
AcDbEntity
  8
10
  6
Continuous
100
AcDbLine
 10
533.2444162702521
 20
559.983892053391
 30
0.0
 11
533.2444162702521
 21
845.9838920533908
 31
0.0
  0
LINE
  5
1803C
330
1E
100
AcDbEntity
  8
10
  6
Continuous
100
AcDbLine
 10
535.2444141247523
 20
847.9838878813911
 30
0.0
 11
547.7444171047518
 21
847.9838878813911
 31
0.0
  0
LINE
  5
1803D
330
1E
100
AcDbEntity
  8
10
  6
Continuous
100
AcDbLine
 10
547.7444171047518
 20
557.9838962258913
 30
0.0
 11
547.7444171047518
 21
847.9838878813911
 31
0.0
  0
ARC
  5
1803E
330
1E
100
AcDbEntity
  8
10
  6
Continuous
100
AcDbCircle
 10
535.2444162702521
 20
845.9838920533908
 30
0.0
 40
2.00000000000017
100
AcDbArc
 50
90.0
 51
180.0
  0
LINE
  5
1803F
330
1E
100
AcDbEntity
  8
10
  6
Continuous
100
AcDbLine
 10
642.4444161897517
 20
805.0838918388913
 30
0.0
 11
642.4444161897517
 21
798.9838928878907
 31
0.0
  0
LINE
  5
18040
330
1E
100
AcDbEntity
  8
10
  6
Continuous
100
AcDbLine
 10
510.8241239072293
 20
717.2999878508894
 30
0.0
 11
524.7444151977523
 21
713.570049222416
 31
0.0
  0
LINE
  5
18041
330
1E
100
AcDbEntity
  8
10
  6
Continuous
100
AcDbLine
 10
524.7444151977523
 20
727.028646166009
 30
0.0
 11
514.1887701862279
 21
729.8570187127256
 31
0.0
  0
LINE
  5
18042
330
1E
100
AcDbEntity
  8
10
  6
Continuous
100
AcDbLine
 10
639.2444162702522
 20
572.9838968218914
 30
0.0
 11
547.7444171047518
 21
572.9838968218914
 31
0.0
  0
LINE
  5
18043
330
1E
100
AcDbEntity
  8
0
  6
SLD-実線
 62
     7
370
    15
100
AcDbLine
 10
554.9944131707525
 20
618.9838931858907
 30
0.0
 11
554.9944131707525
 21
618.7338889538907
 31
0.0
  0
LINE
  5
18044
330
1E
100
AcDbEntity
  8
10
  6
Continuous
100
AcDbLine
 10
548.2444162702521
 20
832.9838872848908
 30
0.0
 11
639.2444162702522
 21
832.9838872848908
 31
0.0
  0
LINE
  5
18045
330
1E
100
AcDbEntity
  8
10
  6
Continuous
100
AcDbLine
 10
639.2444162702522
 20
832.9838872848908
 30
0.0
 11
639.2444162702522
 21
798.9838928878907
 31
0.0
  0
LINE
  5
18046
330
1E
100
AcDbEntity
  8
10
  6
Continuous
100
AcDbLine
 10
639.2444162702522
 20
572.9838968218914
 30
0.0
 11
639.2444162702522
 21
618.9838931858907
 31
0.0
  0
LINE
  5
18047
330
1E
100
AcDbEntity
  8
10
  6
Continuous
100
AcDbLine
 10
533.2444162702521
 20
657.983890265391
 30
0.0
 11
524.7444151977523
 21
657.983890265391
 31
0.0
  0
LINE
  5
18048
330
1E
100
AcDbEntity
  8
10
  6
Continuous
100
AcDbLine
 10
524.7444151977523
 20
657.983890265391
 30
0.0
 11
524.7444151977523
 21
747.9838938418911
 31
0.0
  0
LINE
  5
18049
330
1E
100
AcDbEntity
  8
10
  6
Continuous
100
AcDbLine
 10
524.7444151977523
 20
747.9838938418911
 30
0.0
 11
533.2444162702521
 21
747.9838938418911
 31
0.0
  0
LINE
  5
1804A
330
1E
100
AcDbEntity
  8
0
  6
SLD-実線
 62
     7
370
    15
100
AcDbLine
 10
548.4444140532523
 20
825.9838954508907
 30
0.0
 11
548.2444181182517
 21
825.9838954508907
 31
0.0
  0
LINE
  5
1804B
330
1E
100
AcDbEntity
  8
10
  6
Continuous
100
AcDbLine
 10
644.4444162847521
 20
798.9838928878907
 30
0.0
 11
644.4444162847521
 21
618.9838931858907
 31
0.0
  0
LINE
  5
1804C
330
1E
100
AcDbEntity
  8
10
  6
Continuous
100
AcDbLine
 10
644.4444162847521
 20
798.9838928878907
 30
0.0
 11
547.7444171047518
 21
798.9838928878907
 31
0.0
  0
LINE
  5
1804D
330
1E
100
AcDbEntity
  8
10
  6
Continuous
100
AcDbLine
 10
644.4444162847521
 20
618.9838931858907
 30
0.0
 11
547.7444171047518
 21
618.9838931858907
 31
0.0
  0
LWPOLYLINE
  5
1804E
330
1E
100
AcDbEntity
  8
10
  6
Continuous
100
AcDbPolyline
 90
        4
 70
     0
 43
0.0
 10
506.2515824177526
 20
731.4661447853909
 10
493.3885424472519
 20
734.9127852323909
 10
490.2827232217521
 20
723.3216748538913
 10
503.1457631922521
 20
719.8750344068907
  0
LWPOLYLINE
  5
1804F
330
1E
100
AcDbEntity
  8
10
  6
Continuous
100
AcDbPolyline
 90
        3
 70
     0
 43
0.0
 10
513.9809637407513
 20
731.3586031048908
 10
507.5960901246451
 20
731.2960282867143
 42
-0.0680752126951837
 10
506.25158578624
 20
731.4661450409452
  0
LWPOLYLINE
  5
18050
330
1E
100
AcDbEntity
  8
10
  6
Continuous
100
AcDbPolyline
 90
        8
 70
     0
 43
0.0
 10
503.1457572447643
 20
719.8750351253366
 42
-0.0682353784346023
 10
504.3979351289927
 20
719.3484855017097
 10
509.8884744797167
 20
716.1063722108617
 42
0.1119594399650148
 10
511.9934858161101
 20
715.4284938976343
 10
514.9119733907528
 20
715.1693734303912
 10
518.7942548727513
 20
729.6582614033914
 10
516.138511371676
 20
730.8924953000626
 42
0.1117445099478536
 10
513.9809574488217
 20
731.3586030938188
  0
LINE
  5
18051
330
1E
100
AcDbEntity
  8
10
  6
Continuous
100
AcDbLine
 10
514.1887701862279
 20
729.8570187127256
 30
0.0
 11
510.8241239072293
 21
717.2999878508894
 31
0.0
  0
LINE
  5
18052
330
1E
100
AcDbEntity
  8
18
100
AcDbLine
 10
548.2444162702521
 20
892.7675694548909
 30
0.0
 11
548.2444162702521
 21
515.7251032693912
 31
0.0
  0
LINE
  5
18053
330
1E
100
AcDbEntity
  8
18
100
AcDbLine
 10
552.2444162702521
 20
892.7675694548909
 30
0.0
 11
552.2444162702521
 21
515.7251032693912
 31
0.0
  0
ARC
  5
18054
330
1E
100
AcDbEntity
  8
30
370
     0
100
AcDbCircle
 10
548.0640249167527
 20
707.839221577391
 30
0.0
 40
59.81960864609329
100
AcDbArc
 50
165.0000000000055
 51
180.4369424226018
  0
DIMENSION
  5
18056
330
1E
100
AcDbEntity
  8
30
  6
Continuous
100
AcDbDimension
280
     0
  2
*D13
 10
750.2444162702523
 20
469.0207432282923
 30
0.0
 11
649.2444162702522
 21
469.0207432282923
 31
0.0
 70
   160
  1
<>
 71
     2
 42
202.0
 73
     0
 74
     0
 75
     0
  3
STANDARD
100
AcDbAlignedDimension
 13
548.2444162702521
 23
515.7251032693912
 33
0.0
 14
750.2444162702523
 24
577.9838920533912
 34
0.0
100
AcDbRotatedDimension
  0
DIMENSION
  5
18057
330
1E
100
AcDbEntity
  8
30
  6
Continuous
100
AcDbDimension
280
     0
  2
*D14
 10
548.2444162702521
 20
469.0207432282923
 30
0.0
 11
518.2444162702521
 21
469.0207432282923
 31
0.0
 70
   160
  1
<>
 71
     2
 42
60.0
 73
     0
 74
     0
 75
     0
  3
STANDARD
100
AcDbAlignedDimension
 13
488.2444162702523
 23
707.839221577391
 33
0.0
 14
548.2444162702521
 24
515.7251032693912
 34
0.0
100
AcDbRotatedDimension
  0
DIMENSION
  5
18058
330
1E
100
AcDbEntity
  8
30
  6
Continuous
100
AcDbDimension
280
     0
  2
*D15
 10
548.2444162702521
 20
497.1498876953909
 30
0.0
 11
629.2444162702523
 21
497.1498876953909
 31
0.0
 70
   160
  1
<>
 71
     2
 42
162.0000000000001
 73
     0
 74
     0
 75
     0
  3
STANDARD
100
AcDbAlignedDimension
 13
710.2444162702522
 23
573.9999999999992
 33
0.0
 14
548.2444162702521
 24
515.7251032693912
 34
0.0
100
AcDbRotatedDimension
  0
DIMENSION
  5
1805A
330
1E
100
AcDbEntity
  8
30
  6
Continuous
100
AcDbDimension
280
     0
  2
*D16
 10
548.2444162702521
 20
497.1498876953909
 30
0.0
 11
519.5587302834439
 21
497.1498876953909
 31
0.0
 70
   160
  1
<>
 71
     2
 42
15.0
 73
     0
 74
     0
 75
     0
  3
STANDARD
100
AcDbAlignedDimension
 13
533.2444162702521
 23
565.9838920533911
 33
0.0
 14
548.2444162702521
 24
515.7251032693912
 34
0.0
100
AcDbRotatedDimension
  0
DIMENSION
  5
1805B
330
1E
100
AcDbEntity
  8
30
  6
Continuous
100
AcDbDimension
280
     0
  2
*D17
 10
810.5091498567528
 20
588.9838920533915
 30
0.0
 11
810.5091498567526
 21
702.9838920533912
 31
0.0
 70
   160
  1
<>
 71
     2
 42
227.9999999999992
 73
     0
 74
     0
 75
     0
  3
STANDARD
100
AcDbAlignedDimension
 13
772.9978368750071
 23
816.9838920533909
 33
0.0
 14
756.5041539577522
 24
588.9838920533916
 34
0.0
 50
90.0
100
AcDbRotatedDimension
  0
LINE
  5
1805C
330
1E
100
AcDbEntity
  8
16
 48
2.0
100
AcDbLine
 10
483.0456780867516
 20
702.9838920533912
 30
0.0
 11
765.5560340397532
 21
702.9838920533912
 31
0.0
  0
LWPOLYLINE
  5
1805D
330
1E
100
AcDbEntity
  8
L10_
  6
Continuous
 62
     3
100
AcDbPolyline
 90
        4
 70
     1
 43
0.0
 10
651.0444162847525
 20
794.9088920533908
 10
644.4444162847521
 20
794.9088920533908
 10
644.4444162847521
 20
782.9088920533908
 10
651.0444162847525
 20
782.9088920533908
  0
LWPOLYLINE
  5
1805E
330
1E
100
AcDbEntity
  8
L10_
  6
Continuous
 62
     3
100
AcDbPolyline
 90
        4
 70
     0
 43
0.0
 10
651.0444162847525
 20
785.9088920533907
 10
654.0444162847525
 20
785.9088920533907
 10
654.0444162847525
 20
791.9088920533908
 10
651.0444162847525
 20
791.9088920533908
  0
LWPOLYLINE
  5
1805F
330
1E
100
AcDbEntity
  8
L10_
  6
Continuous
 62
     3
100
AcDbPolyline
 90
        4
 70
     1
 43
0.0
 10
651.0444162847525
 20
623.0588940203906
 10
644.4444162847521
 20
623.0588940203906
 10
644.4444162847521
 20
635.0588940203906
 10
651.0444162847525
 20
635.0588940203906
  0
LWPOLYLINE
  5
18060
330
1E
100
AcDbEntity
  8
L10_
  6
Continuous
 62
     3
100
AcDbPolyline
 90
        4
 70
     0
 43
0.0
 10
651.0444162847525
 20
632.0588940203906
 10
654.0444162847525
 20
632.0588940203906
 10
654.0444162847525
 20
626.0588940203906
 10
651.0444162847525
 20
626.0588940203906
  0
LINE
  5
18061
330
1E
100
AcDbEntity
  8
21
  6
Continuous
100
AcDbLine
 10
639.2444162702522
 20
600.9999999999991
 30
0.0
 11
669.2444162702522
 21
600.9999999999991
 31
0.0
  0
LINE
  5
18062
330
1E
100
AcDbEntity
  8
21
  6
Continuous
100
AcDbLine
 10
639.2444162702522
 20
576.9999999999994
 30
0.0
 11
669.2444162702522
 21
576.9999999999994
 31
0.0
  0
LINE
  5
18063
330
1E
100
AcDbEntity
  8
10
  6
Continuous
100
AcDbLine
 10
639.2444162702522
 20
576.9999999999994
 30
0.0
 11
639.2444162702522
 21
600.9999999999991
 31
0.0
  0
LINE
  5
18064
330
1E
100
AcDbEntity
  8
21
  6
Continuous
100
AcDbLine
 10
713.2444162702523
 20
603.9999999999978
 30
0.0
 11
750.2444162702523
 21
603.9999999999978
 31
0.0
  0
LINE
  5
18065
330
1E
100
AcDbEntity
  8
21
  6
Continuous
100
AcDbLine
 10
713.2444162702523
 20
573.9999999999978
 30
0.0
 11
750.2444162702523
 21
573.9999999999978
 31
0.0
  0
LINE
  5
18066
330
1E
100
AcDbEntity
  8
21
  6
Continuous
100
AcDbLine
 10
676.7444162702522
 20
603.9999999999992
 30
0.0
 11
709.2444162702522
 21
603.9999999999992
 31
0.0
  0
LINE
  5
18067
330
1E
100
AcDbEntity
  8
21
  6
Continuous
100
AcDbLine
 10
676.7444162702522
 20
573.9999999999992
 30
0.0
 11
710.2444162702522
 21
573.9999999999992
 31
0.0
  0
LINE
  5
18068
330
1E
100
AcDbEntity
  8
21
  6
Continuous
100
AcDbLine
 10
676.7444162702522
 20
603.9999999999992
 30
0.0
 11
710.2444162702522
 21
603.9999999999992
 31
0.0
  0
LINE
  5
1806A
330
1E
100
AcDbEntity
  8
21
  6
Continuous
100
AcDbLine
 10
669.2444162702522
 20
576.9999999999994
 30
0.0
 11
669.2444162702522
 21
600.9999999999991
 31
0.0
  0
ARC
  5
1806B
330
1E
100
AcDbEntity
  8
21
  6
Continuous
100
AcDbCircle
 10
676.7444162702522
 20
580.4999999999994
 30
0.0
 40
6.5
100
AcDbArc
 50
180.0
 51
270.0
  0
LINE
  5
1806C
330
1E
100
AcDbEntity
  8
21
  6
Continuous
100
AcDbLine
 10
669.2444162702522
 20
580.4999999999994
 30
0.0
 11
670.2444162702522
 21
580.4999999999994
 31
0.0
  0
ARC
  5
1806D
330
1E
100
AcDbEntity
  8
21
  6
Continuous
100
AcDbCircle
 10
676.7444162702522
 20
597.4999999999994
 30
0.0
 40
6.5
100
AcDbArc
 50
90.0
 51
180.0
  0
LINE
  5
1806E
330
1E
100
AcDbEntity
  8
21
  6
Continuous
100
AcDbLine
 10
669.2444162702522
 20
597.4999999999994
 30
0.0
 11
670.2444162702522
 21
597.4999999999994
 31
0.0
  0
CIRCLE
  5
1806F
330
1E
100
AcDbEntity
  8
24
  6
CONTINOUS
100
AcDbCircle
 10
694.2444162702522
 20
588.9999999999992
 30
0.0
 40
6.5
  0
LINE
  5
18070
330
1E
100
AcDbEntity
  8
24
  6
CONTINOUS
100
AcDbLine
 10
694.2444162702522
 20
599.4999999999992
 30
0.0
 11
694.2444162702522
 21
578.4999999999994
 31
0.0
  0
LINE
  5
18071
330
1E
100
AcDbEntity
  8
21
  6
Continuous
100
AcDbLine
 10
710.2444162702522
 20
573.9999999999992
 30
0.0
 11
710.2444162702522
 21
603.9999999999992
 31
0.0
  0
LINE
  5
18072
330
1E
100
AcDbEntity
  8
24
  6
CONTINOUS
100
AcDbLine
 10
683.7444162702523
 20
588.9999999999992
 30
0.0
 11
704.7444162702523
 21
588.9999999999992
 31
0.0
  0
CIRCLE
  5
18073
330
1E
100
AcDbEntity
  8
24
  6
CONTINOUS
100
AcDbCircle
 10
734.2444162702522
 20
588.9999999999978
 30
0.0
 40
6.5
  0
LINE
  5
18074
330
1E
100
AcDbEntity
  8
24
  6
CONTINOUS
100
AcDbLine
 10
734.2444162702522
 20
599.4999999999978
 30
0.0
 11
734.2444162702522
 21
578.4999999999978
 31
0.0
  0
LINE
  5
18075
330
1E
100
AcDbEntity
  8
21
  6
Continuous
100
AcDbLine
 10
750.2444162702523
 20
573.9999999999978
 30
0.0
 11
750.2444162702523
 21
603.9999999999978
 31
0.0
  0
LINE
  5
18076
330
1E
100
AcDbEntity
  8
24
  6
CONTINOUS
100
AcDbLine
 10
723.7444162702522
 20
588.9999999999978
 30
0.0
 11
744.7444162702522
 21
588.9999999999978
 31
0.0
  0
LINE
  5
18079
330
1E
100
AcDbEntity
  8
21
  6
Continuous
100
AcDbLine
 10
639.2444162702522
 20
828.9838872848916
 30
0.0
 11
670.2444162702522
 21
828.9838872848916
 31
0.0
  0
LINE
  5
1807A
330
1E
100
AcDbEntity
  8
21
  6
Continuous
100
AcDbLine
 10
639.2444162702522
 20
804.9838872848917
 30
0.0
 11
670.2444162702522
 21
804.9838872848917
 31
0.0
  0
LINE
  5
1807B
330
1E
100
AcDbEntity
  8
21
  6
Continuous
100
AcDbLine
 10
714.2444162702522
 20
820.9838872848909
 30
0.0
 11
750.2444162702523
 21
820.9838872848909
 31
0.0
  0
LINE
  5
1807C
330
1E
100
AcDbEntity
  8
21
  6
Continuous
100
AcDbLine
 10
714.2444162702522
 20
812.9838872848909
 30
0.0
 11
750.2444162702523
 21
812.9838872848909
 31
0.0
  0
LINE
  5
1807D
330
1E
100
AcDbEntity
  8
21
  6
Continuous
100
AcDbLine
 10
671.2444162702523
 20
812.9838872848909
 30
0.0
 11
710.2444162702522
 21
812.9838872848909
 31
0.0
  0
LINE
  5
1807E
330
1E
100
AcDbEntity
  8
21
  6
Continuous
100
AcDbLine
 10
671.2444162702523
 20
820.9838872848909
 30
0.0
 11
710.2444162702522
 21
820.9838872848909
 31
0.0
  0
LINE
  5
1807F
330
1E
100
AcDbEntity
  8
21
  6
Continuous
100
AcDbLine
 10
670.2444162702522
 20
804.9838872848917
 30
0.0
 11
670.2444162702522
 21
828.9838872848916
 31
0.0
  0
LINE
  5
18080
330
1E
100
AcDbEntity
  8
21
  6
Continuous
100
AcDbLine
 10
671.2444162702523
 20
808.4838872848916
 30
0.0
 11
671.2444162702523
 21
812.9838872848909
 31
0.0
  0
LINE
  5
18081
330
1E
100
AcDbEntity
  8
21
  6
Continuous
100
AcDbLine
 10
670.2444162702522
 20
808.4838872848916
 30
0.0
 11
671.2444162702523
 21
808.4838872848916
 31
0.0
  0
LINE
  5
18082
330
1E
100
AcDbEntity
  8
21
  6
Continuous
100
AcDbLine
 10
671.2444162702523
 20
825.4838872848917
 30
0.0
 11
671.2444162702523
 21
820.9838872848909
 31
0.0
  0
LINE
  5
18083
330
1E
100
AcDbEntity
  8
21
  6
Continuous
100
AcDbLine
 10
670.2444162702522
 20
825.4838872848917
 30
0.0
 11
671.2444162702523
 21
825.4838872848917
 31
0.0
  0
LINE
  5
18084
330
1E
100
AcDbEntity
  8
24
  6
CONTINOUS
100
AcDbLine
 10
695.2444162702522
 20
828.9838872848909
 30
0.0
 11
695.2444162702522
 21
804.9838872848907
 31
0.0
  0
LINE
  5
18085
330
1E
100
AcDbEntity
  8
21
  6
Continuous
100
AcDbLine
 10
710.2444162702522
 20
812.9838872848909
 30
0.0
 11
710.2444162702522
 21
820.9838872848909
 31
0.0
  0
LINE
  5
18086
330
1E
100
AcDbEntity
  8
24
  6
CONTINOUS
100
AcDbLine
 10
735.2444162702522
 20
828.9838872848909
 30
0.0
 11
735.2444162702522
 21
804.9838872848907
 31
0.0
  0
LINE
  5
18087
330
1E
100
AcDbEntity
  8
21
  6
Continuous
100
AcDbLine
 10
750.2444162702523
 20
812.9838872848909
 30
0.0
 11
750.2444162702523
 21
820.9838872848909
 31
0.0
  0
DIMENSION
  5
18088
330
1E
100
AcDbEntity
  8
30
  6
Continuous
100
AcDbDimension
280
     0
  2
*D18
 10
767.3947004402597
 20
812.9838872848909
 30
0.0
 11
760.3947004402595
 21
803.3172206182243
 31
0.0
 70
    32
 71
     5
 42
8.0
 73
     0
 74
     0
 75
     0
  3
STANDARD
100
AcDbAlignedDimension
 13
750.2444162702523
 23
820.9838872848909
 33
0.0
 14
750.2444162702523
 24
812.9838872848909
 34
0.0
 50
90.0
100
AcDbRotatedDimension
  0
ARC
  5
1808D
330
1E
100
AcDbEntity
  8
10
  6
Continuous
100
AcDbCircle
 10
301.9999998794992
 20
558.4222084224998
 30
0.0
 40
1.0
100
AcDbArc
 50
270.0
 51
0.0
  0
LINE
  5
18091
330
1E
100
AcDbEntity
  8
0
  6
SLD-実線
 62
     7
370
    15
100
AcDbLine
 10
143.9999998794992
 20
722.759991935
 30
0.0
 11
177.9999998794992
 21
722.759991935
 31
0.0
  0
LINE
  5
18092
330
1E
100
AcDbEntity
  8
0
  6
SLD-実線
 62
     7
370
    15
100
AcDbLine
 10
143.9999998794992
 20
722.759991935
 30
0.0
 11
143.9999998794992
 21
719.3133514944998
 31
0.0
  0
LINE
  5
18093
330
1E
100
AcDbEntity
  8
0
  6
SLD-実線
 62
     7
370
    15
100
AcDbLine
 10
177.9999998794992
 20
722.759991935
 30
0.0
 11
177.9999998794992
 21
719.3133514944998
 31
0.0
  0
LINE
  5
18094
330
1E
100
AcDbEntity
  8
0
  6
SLD-実線
 62
     7
370
    15
100
AcDbLine
 10
143.9999998794992
 20
718.7891413244998
 30
0.0
 11
143.9999998794992
 21
719.3133514944998
 31
0.0
  0
LINE
  5
18095
330
1E
100
AcDbEntity
  8
0
  6
SLD-実線
 62
     7
370
    15
100
AcDbLine
 10
177.9999998794992
 20
719.3133514944998
 30
0.0
 11
177.9999998794992
 21
718.7891413244998
 31
0.0
  0
LINE
  5
18096
330
1E
100
AcDbEntity
  8
0
  6
SLD-実線
 62
     7
370
    15
100
AcDbLine
 10
143.9999998794992
 20
718.7891413244998
 30
0.0
 11
143.9999998794992
 21
715.5417997214999
 31
0.0
  0
LINE
  5
18097
330
1E
100
AcDbEntity
  8
0
  6
SLD-実線
 62
     7
370
    15
100
AcDbLine
 10
177.9999998794992
 20
718.7891413244998
 30
0.0
 11
177.9999998794992
 21
715.5417997214999
 31
0.0
  0
LINE
  5
18098
330
1E
100
AcDbEntity
  8
0
  6
SLD-実線
 62
     7
370
    15
100
AcDbLine
 10
143.9999998794992
 20
714.8668102794998
 30
0.0
 11
143.9999998794992
 21
715.5417997214999
 31
0.0
  0
LINE
  5
18099
330
1E
100
AcDbEntity
  8
0
  6
SLD-実線
 62
     7
370
    15
100
AcDbLine
 10
177.9999998794992
 20
715.5417997214999
 30
0.0
 11
177.9999998794992
 21
714.8668102794998
 31
0.0
  0
LINE
  5
1809A
330
1E
100
AcDbEntity
  8
0
  6
SLD-実線
 62
     7
370
    15
100
AcDbLine
 10
143.9999998794992
 20
714.6076899269997
 30
0.0
 11
177.9999998794992
 21
714.6076899269997
 31
0.0
  0
LINE
  5
1809B
330
1E
100
AcDbEntity
  8
0
  6
SLD-実線
 62
     7
370
    15
100
AcDbLine
 10
143.9999998794992
 20
714.8668102794998
 30
0.0
 11
143.9999998794992
 21
714.6076899269997
 31
0.0
  0
LINE
  5
1809C
330
1E
100
AcDbEntity
  8
0
  6
SLD-実線
 62
     7
370
    15
100
AcDbLine
 10
177.9999998794992
 20
714.8668102794998
 30
0.0
 11
177.9999998794992
 21
714.6076899269997
 31
0.0
  0
SPLINE
  5
1809D
330
1E
100
AcDbEntity
  8
0
  6
SLD-実線
 62
     7
370
    15
100
AcDbSpline
210
0.0
220
0.0
230
1.0
 70
     8
 71
     3
 72
    10
 73
     6
 74
     0
 42
0.000000001
 43
0.0000000001
 40
0.0
 40
0.0
 40
0.0
 40
0.0
 40
0.0549524182025154
 40
0.5991790915272667
 40
1.0
 40
1.0
 40
1.0
 40
1.0
 10
175.3159942565653
 20
690.3295290358733
 30
0.0
 10
175.3162301416996
 20
690.7734801352082
 30
0.0
 10
175.3188021384449
 20
695.6141445696985
 30
0.0
 10
175.3170937066461
 20
703.7289380638802
 30
0.0
 10
175.3173628775239
 20
711.3678256786352
 30
0.0
 10
175.3174770403639
 20
714.6076899272093
 30
0.0
  0
LINE
  5
1809E
330
1E
100
AcDbEntity
  8
0
  6
SLD-実線
 62
     7
370
    15
100
AcDbLine
 10
175.3122736210007
 20
695.6386679094999
 30
0.0
 11
175.3159942564998
 21
690.329529036
 31
0.0
  0
LINE
  5
1809F
330
1E
100
AcDbEntity
  8
0
  6
SLD-実線
 62
     7
370
    15
100
AcDbLine
 10
175.2999998795003
 20
695.6683458989999
 30
0.0
 11
175.3122736210007
 21
695.6386679094999
 31
0.0
  0
SPLINE
  5
180A0
330
1E
100
AcDbEntity
  8
0
  6
SLD-実線
 62
     7
370
    15
100
AcDbSpline
210
0.0
220
0.0
230
1.0
 70
     8
 71
     3
 72
    10
 73
     6
 74
     0
 42
0.000000001
 43
0.0000000001
 40
0.0
 40
0.0
 40
0.0
 40
0.0
 40
0.1037573332374767
 40
0.5512410042426053
 40
1.0
 40
1.0
 40
1.0
 40
1.0
 10
175.3000072265622
 20
714.6076899272093
 30
0.0
 10
175.3000077158012
 20
713.9560239368356
 30
0.0
 10
175.3000103150225
 20
710.4938588661316
 30
0.0
 10
175.3000056011333
 20
704.1632323148838
 30
0.0
 10
175.3000017885442
 20
698.5026596425877
 30
0.0
 10
175.2999998795367
 20
695.6683458991824
 30
0.0
  0
SPLINE
  5
180A1
330
1E
100
AcDbEntity
  8
0
  6
SLD-実線
 62
     7
370
    15
100
AcDbSpline
210
0.0
220
0.0
230
1.0
 70
     8
 71
     3
 72
    11
 73
     7
 74
     0
 42
0.000000001
 43
0.0000000001
 40
0.0
 40
0.0
 40
0.0
 40
0.0
 40
0.2207587343771531
 40
0.4964412195536669
 40
0.770222791530177
 40
1.0
 40
1.0
 40
1.0
 40
1.0
 10
179.7930163020937
 20
678.7222084226117
 30
0.0
 10
179.7930409160471
 20
682.2582234705927
 30
0.0
 10
179.7930962677947
 20
690.2099977355264
 30
0.0
 10
179.7931539049696
 20
702.6740135580487
 30
0.0
 10
179.7931708429169
 20
715.2817598370156
 30
0.0
 10
179.7931292655921
 20
723.3435569682233
 30
0.0
 10
179.7931102935853
 20
727.0222084226117
 30
0.0
  0
LINE
  5
180A2
330
1E
100
AcDbEntity
  8
0
  6
SLD-実線
 62
     7
370
    15
100
AcDbLine
 10
146.6877261379995
 20
695.6386679094999
 30
0.0
 11
146.6999998794999
 21
695.6683458989999
 31
0.0
  0
LINE
  5
180A3
330
1E
100
AcDbEntity
  8
0
  6
SLD-実線
 62
     7
370
    15
100
AcDbLine
 10
146.6840055025004
 20
690.329529036
 30
0.0
 11
146.6877261379995
 21
695.6386679094999
 31
0.0
  0
SPLINE
  5
180A4
330
1E
100
AcDbEntity
  8
0
  6
SLD-実線
 62
     7
370
    15
100
AcDbSpline
210
0.0
220
0.0
230
1.0
 70
     8
 71
     3
 72
     9
 73
     5
 74
     0
 42
0.000000001
 43
0.0000000001
 40
0.0
 40
0.0
 40
0.0
 40
0.0
 40
0.4557108991456318
 40
1.0
 40
1.0
 40
1.0
 40
1.0
 10
146.6825255518579
 20
714.6076899272093
 30
0.0
 10
146.6824294848156
 20
710.9213995440332
 30
0.0
 10
146.6822186778263
 20
702.8323009727955
 30
0.0
 10
146.6833757310414
 20
694.7361666867958
 30
0.0
 10
146.684005502495
 20
690.3295290358728
 30
0.0
  0
LINE
  5
180A5
330
1E
100
AcDbEntity
  8
0
  6
SLD-実線
 62
     7
370
    15
100
AcDbLine
 10
175.3159942564998
 20
690.329529036
 30
0.0
 11
146.6840055025004
 21
690.329529036
 31
0.0
  0
LINE
  5
180A6
330
1E
100
AcDbEntity
  8
10
  6
Continuous
100
AcDbLine
 10
135.4999998794992
 20
735.5846872199997
 30
0.0
 11
186.4999998794992
 21
735.5846872199997
 31
0.0
  0
LINE
  5
180A7
330
1E
100
AcDbEntity
  8
10
  6
Continuous
100
AcDbLine
 10
135.4999998794992
 20
669.2597296249996
 30
0.0
 11
186.4999998794992
 21
669.2597296249996
 31
0.0
  0
LINE
  5
180A8
330
1E
100
AcDbEntity
  8
0
  6
SLD-実線
 62
     7
370
    15
100
AcDbLine
 10
143.9999998794992
 20
727.0222084224997
 30
0.0
 11
141.9999998794992
 21
727.0222084224997
 31
0.0
  0
LINE
  5
180A9
330
1E
100
AcDbEntity
  8
0
  6
SLD-実線
 62
     7
370
    15
100
AcDbLine
 10
179.9999998794992
 20
678.7222084224992
 30
0.0
 11
141.9999998794992
 21
678.7222084224992
 31
0.0
  0
LINE
  5
180AA
330
1E
100
AcDbEntity
  8
0
  6
SLD-実線
 62
     7
370
    15
100
AcDbLine
 10
135.4999998794992
 20
669.2597296249996
 30
0.0
 11
135.4999998794992
 21
671.9222084224997
 31
0.0
  0
LINE
  5
180AB
330
1E
100
AcDbEntity
  8
0
  6
SLD-実線
 62
     7
370
    15
100
AcDbLine
 10
135.4999998794992
 20
680.5222084224997
 30
0.0
 11
135.4999998794992
 21
735.5846872199997
 31
0.0
  0
LINE
  5
180AC
330
1E
100
AcDbEntity
  8
0
  6
SLD-実線
 62
     7
370
    15
100
AcDbLine
 10
141.9999998794992
 20
678.7222084224992
 30
0.0
 11
141.9999998794992
 21
727.0222084224997
 31
0.0
  0
LINE
  5
180AD
330
1E
100
AcDbEntity
  8
0
  6
SLD-実線
 62
     7
370
    15
100
AcDbLine
 10
186.4999998794992
 20
669.2597296249996
 30
0.0
 11
186.4999998794992
 21
724.6222084224997
 31
0.0
  0
LINE
  5
180AE
330
1E
100
AcDbEntity
  8
0
  6
SLD-実線
 62
     7
370
    15
100
AcDbLine
 10
179.9999998794992
 20
659.3222084224999
 30
0.0
 11
186.4999998794992
 21
659.3222084224999
 31
0.0
  0
LINE
  5
180AF
330
1E
100
AcDbEntity
  8
0
  6
SLD-実線
 62
     7
370
    15
100
AcDbLine
 10
179.9999998794992
 20
668.2222084224994
 30
0.0
 11
179.9999998794992
 21
659.3222084224999
 31
0.0
  0
LINE
  5
180B0
330
1E
100
AcDbEntity
  8
0
  6
SLD-実線
 62
     7
370
    15
100
AcDbLine
 10
186.4999998794992
 20
657.4222084224998
 30
0.0
 11
186.4999998794992
 21
659.3222084224999
 31
0.0
  0
LINE
  5
180B1
330
1E
100
AcDbEntity
  8
0
  6
SLD-実線
 62
     7
370
    15
100
AcDbLine
 10
135.4999998794992
 20
657.4222084224998
 30
0.0
 11
135.4999998794992
 21
669.2597296249996
 31
0.0
  0
LINE
  5
180B2
330
1E
100
AcDbEntity
  8
0
  6
SLD-実線
 62
     7
370
    15
100
AcDbLine
 10
135.4999998794992
 20
747.4222084224996
 30
0.0
 11
186.4999998794992
 21
747.4222084224996
 31
0.0
  0
LINE
  5
180B3
330
1E
100
AcDbEntity
  8
0
  6
SLD-実線
 62
     7
370
    15
100
AcDbLine
 10
135.4999998794992
 20
735.5846872199997
 30
0.0
 11
135.4999998794992
 21
747.4222084224996
 31
0.0
  0
LINE
  5
180B4
330
1E
100
AcDbEntity
  8
0
  6
SLD-実線
 62
     7
370
    15
100
AcDbLine
 10
186.4999998794992
 20
735.5846872199997
 30
0.0
 11
186.4999998794992
 21
747.4222084224996
 31
0.0
  0
LINE
  5
180B5
330
1E
100
AcDbEntity
  8
0
  6
SLD-実線
 62
     7
370
    15
100
AcDbLine
 10
186.4999998794992
 20
724.6222084224997
 30
0.0
 11
186.4999998794992
 21
733.2222084224995
 31
0.0
  0
CIRCLE
  5
180B6
330
1E
100
AcDbEntity
  8
L10_
  6
HIDDEN
 62
     3
100
AcDbCircle
 10
74.99999987949924
 20
778.4222084225002
 30
0.0
 40
2.999999999999993
  0
CIRCLE
  5
180B7
330
1E
100
AcDbEntity
  8
L10_
  6
HIDDEN
 62
     3
100
AcDbCircle
 10
74.99999987949924
 20
626.4222084224992
 30
0.0
 40
3.000000000000036
  0
CIRCLE
  5
180B8
330
1E
100
AcDbEntity
  8
L10_
  6
HIDDEN
 62
     3
100
AcDbCircle
 10
291.9999998794992
 20
778.4222084225002
 30
0.0
 40
2.999999999999993
  0
CIRCLE
  5
180B9
330
1E
100
AcDbEntity
  8
L10_
  6
HIDDEN
 62
     3
100
AcDbCircle
 10
291.9999998794992
 20
626.4222084224992
 30
0.0
 40
2.9999999999999
  0
DIMENSION
  5
180BA
330
1E
100
AcDbEntity
  8
30
  6
Continuous
100
AcDbDimension
280
     0
  2
*D19
 10
102.9999998794999
 20
471.5882040644997
 30
0.0
 11
160.9999998794992
 21
471.5882040644997
 31
0.0
 70
   160
  1
<>
 71
     2
 42
116.0000000000003
 73
     0
 74
     0
 75
     0
  3
STANDARD
100
AcDbAlignedDimension
 13
218.9999998795003
 23
658.4222084225002
 33
0.0
 14
102.9999998794999
 24
658.4222084225002
 34
0.0
100
AcDbRotatedDimension
  0
DIMENSION
  5
180BB
330
1E
100
AcDbEntity
  8
30
  6
Continuous
100
AcDbDimension
280
     0
  2
*D20
 10
135.4999998794992
 20
496.5882040644997
 30
0.0
 11
160.9999998794992
 21
496.5882040644997
 31
0.0
 70
   160
  1
<>
 71
     2
 42
51.0
 73
     0
 74
     0
 75
     0
  3
STANDARD
100
AcDbAlignedDimension
 13
186.4999998794992
 23
668.2222084224994
 33
0.0
 14
135.4999998794992
 24
657.4222084224998
 34
0.0
100
AcDbRotatedDimension
  0
DIMENSION
  5
180BC
330
1E
100
AcDbEntity
  8
30
  6
Continuous
100
AcDbDimension
280
     0
  2
*D21
 10
346.0000498794999
 20
847.4222084224997
 30
0.0
 11
346.0000498794999
 21
702.4222084224996
 31
0.0
 70
   160
  1
<>
 71
     2
 42
290.0
 73
     0
 74
     0
 75
     0
  3
STANDARD
100
AcDbAlignedDimension
 13
304.5013457885016
 23
557.4222084224998
 33
0.0
 14
302.9999998794992
 24
847.4222084224997
 34
0.0
 50
90.0
100
AcDbRotatedDimension
  0
DIMENSION
  5
180BD
330
1E
100
AcDbEntity
  8
30
  6
Continuous
100
AcDbDimension
280
     0
  2
*D22
 10
302.9999998794992
 20
446.5882040644997
 30
0.0
 11
183.4999998794992
 21
446.5882040644997
 31
0.0
 70
   160
  1
<>
 71
     2
 42
239.0
 73
     0
 74
     0
 75
     0
  3
STANDARD
100
AcDbAlignedDimension
 13
63.99999987949922
 23
557.4222084224998
 33
0.0
 14
302.9999998794992
 24
556.1817983749095
 34
0.0
100
AcDbRotatedDimension
  0
DIMENSION
  5
180BE
330
1E
100
AcDbEntity
  8
30
  6
Continuous
100
AcDbDimension
280
     0
  2
*D23
 10
161.0
 20
516.2384221018851
 30
0.0
 11
202.8216658958181
 21
516.2384221018851
 31
0.0
 70
   160
  1
<>
 71
     2
 42
22.49999987949923
 73
     0
 74
     0
 75
     0
  3
STANDARD
100
AcDbAlignedDimension
 13
183.4999998794992
 23
533.0
 33
0.0
 14
161.0
 24
532.9727197007554
 34
0.0
100
AcDbRotatedDimension
1001
ACAD
1000
DSTYLE
1002
{
1070
   140
1040
7.0
1002
}
  0
INSERT
  5
180BF
330
1E
100
AcDbEntity
  8
L10_
  6
Continuous
 62
     3
100
AcDbBlockReference
  2
SW_CENTERMARKSYMBOL_4
 10
74.99999987949924
 20
626.4222084224992
 30
0.0
 41
5.0
 42
5.0
 43
5.0
  0
INSERT
  5
180C0
330
1E
100
AcDbEntity
  8
L10_
  6
Continuous
 62
     3
100
AcDbBlockReference
  2
SW_CENTERMARKSYMBOL_5
 10
291.9999998794992
 20
778.4222084225002
 30
0.0
 41
5.0
 42
5.0
 43
5.0
  0
INSERT
  5
180C1
330
1E
100
AcDbEntity
  8
L10_
  6
Continuous
 62
     3
100
AcDbBlockReference
  2
SW_CENTERMARKSYMBOL_6
 10
74.99999987949924
 20
778.4222084225002
 30
0.0
 41
5.0
 42
5.0
 43
5.0
  0
INSERT
  5
180C2
330
1E
100
AcDbEntity
  8
L10_
  6
Continuous
 62
     3
100
AcDbBlockReference
  2
SW_CENTERMARKSYMBOL_7
 10
291.9999998794992
 20
626.4222084224992
 30
0.0
 41
5.0
 42
5.0
 43
5.0
  0
LWPOLYLINE
  5
180C3
330
1E
100
AcDbEntity
  8
10
  6
Continuous
100
AcDbPolyline
 90
        4
 70
     1
 43
0.0
 10
135.4999998794992
 20
747.4222084224996
 10
186.4999998794992
 20
747.4222084224996
 10
186.4999998794992
 20
657.4222084224998
 10
135.4999998794992
 20
657.4222084224998
  0
LWPOLYLINE
  5
180C4
330
1E
100
AcDbEntity
  8
10
  6
Continuous
100
AcDbPolyline
 90
        4
 70
     1
 43
0.0
 10
141.9999998794992
 20
727.0222084224997
 10
179.7930163020937
 20
727.0222084224997
 10
179.7930163020937
 20
678.7222084226117
 10
141.9999998794992
 20
678.7222084226117
  0
LWPOLYLINE
  5
180C5
330
1E
100
AcDbEntity
  8
10
  6
Continuous
100
AcDbPolyline
 90
        4
 70
     1
 43
0.0
 10
143.9999998794992
 20
722.759991935
 10
177.9999998794992
 20
722.759991935
 10
177.9999998794992
 20
714.6076899269997
 10
143.9999998794992
 20
714.6076899269997
  0
LWPOLYLINE
  5
180C6
330
1E
100
AcDbEntity
  8
10
  6
Continuous
100
AcDbPolyline
 90
        4
 70
     1
 43
0.0
 10
146.6825255518579
 20
714.6076899269997
 10
175.3159942564998
 20
714.6076899269997
 10
175.3159942564998
 20
690.329529036
 10
146.6825255518579
 20
690.329529036
  0
LWPOLYLINE
  5
180C7
330
1E
100
AcDbEntity
  8
10
  6
Continuous
100
AcDbPolyline
 90
        4
 70
     1
 43
0.0
 10
186.4999998794992
 20
659.3222084224999
 10
179.9999998794992
 20
659.3222084224999
 10
179.9999998794992
 20
668.2222084224994
 10
186.4999998794992
 20
668.2222084224994
  0
DIMENSION
  5
180C9
330
1E
100
AcDbEntity
  8
30
  6
Continuous
100
AcDbDimension
280
     0
  2
*D24
 10
290.5345930170654
 20
776.3039137022592
 30
0.0
 11
324.0418766320463
 21
795.6922084225014
 31
0.0
 70
   163
  1
M6
 71
     5
 42
7.000000000000452
 73
     0
 74
     0
 75
     0
  3
STANDARD1
100
AcDbDiametricDimension
 15
295.9654067419348
 25
780.7205031427412
 35
0.0
 40
0.0
  0
LINE
  5
180CE
330
1E
100
AcDbEntity
  8
16
 48
2.0
100
AcDbLine
 10
182.9941222106486
 20
406.1102719494798
 30
0.0
 11
182.9941222106486
 21
89.9016393199801
 31
0.0
  0
LINE
  5
180CF
330
1E
100
AcDbEntity
  8
11
  6
Continuous
100
AcDbLine
 10
80.99412221064865
 20
381.1567323064803
 30
0.0
 11
80.99412221064865
 21
113.1567323064802
 31
0.0
  0
LINE
  5
180D0
330
1E
100
AcDbEntity
  8
11
  6
Continuous
100
AcDbLine
 10
80.99412221064865
 20
381.1567323064803
 30
0.0
 11
284.9941222106487
 21
381.1567323064803
 31
0.0
  0
LINE
  5
180D1
330
1E
100
AcDbEntity
  8
11
  6
Continuous
100
AcDbLine
 10
284.9941222106487
 20
381.1567323064803
 30
0.0
 11
284.9941222106487
 21
113.1567323064802
 31
0.0
  0
LINE
  5
180D2
330
1E
100
AcDbEntity
  8
11
  6
Continuous
100
AcDbLine
 10
80.99412221064865
 20
113.1567323064802
 30
0.0
 11
284.9941222106487
 21
113.1567323064802
 31
0.0
  0
LINE
  5
180D3
330
1E
100
AcDbEntity
  8
16
 48
2.0
100
AcDbLine
 10
54.28274201464919
 20
247.1567323064803
 30
0.0
 11
305.4941222106487
 21
247.1567323064803
 31
0.0
  0
LINE
  5
180D4
330
1E
100
AcDbEntity
  8
16
 48
2.0
100
AcDbLine
 10
160.4941222106486
 20
406.1102719494798
 30
0.0
 11
160.4941222106486
 21
89.9016393199801
 31
0.0
  0
ARC
  5
180D5
330
1E
100
AcDbEntity
  8
18
100
AcDbCircle
 10
64.69412221064939
 20
103.35673230648
 30
0.0
 40
1.200000000000042
100
AcDbArc
 50
180.0
 51
270.0
  0
ARC
  5
180D6
330
1E
100
AcDbEntity
  8
18
100
AcDbCircle
 10
301.2941222106489
 20
103.35673230648
 30
0.0
 40
1.200000000000042
100
AcDbArc
 50
270.0
 51
0.0
  0
ARC
  5
180D7
330
1E
100
AcDbEntity
  8
18
100
AcDbCircle
 10
301.2941222106489
 20
390.9567323064799
 30
0.0
 40
1.200000000000042
100
AcDbArc
 50
0.0
 51
90.0
  0
ARC
  5
180D8
330
1E
100
AcDbEntity
  8
18
100
AcDbCircle
 10
64.69412221064939
 20
390.9567323064799
 30
0.0
 40
1.199999999999903
100
AcDbArc
 50
90.0
 51
180.0
  0
CIRCLE
  5
180D9
330
1E
100
AcDbEntity
  8
17
  6
Continuous
100
AcDbCircle
 10
74.49412221064867
 20
323.1567323064802
 30
0.0
 40
3.500000000000055
  0
CIRCLE
  5
180DA
330
1E
100
AcDbEntity
  8
17
  6
Continuous
100
AcDbCircle
 10
74.49412221064867
 20
171.1567323064801
 30
0.0
 40
3.499999999999907
  0
CIRCLE
  5
180DB
330
1E
100
AcDbEntity
  8
17
  6
Continuous
100
AcDbCircle
 10
291.4941222106487
 20
323.1567323064802
 30
0.0
 40
3.500000000000141
  0
CIRCLE
  5
180DC
330
1E
100
AcDbEntity
  8
17
  6
Continuous
100
AcDbCircle
 10
291.4941222106487
 20
171.1567323064801
 30
0.0
 40
3.500000000000073
  0
DIMENSION
  5
180DD
330
1E
100
AcDbEntity
  8
30
  6
Continuous
100
AcDbDimension
280
     0
  2
*D25
 10
284.9941222106487
 20
56.71865455968418
 30
0.0
 11
182.9941222106486
 21
56.71865455968418
 31
0.0
 70
   160
  1
<>
 71
     2
 42
204.0
 73
     0
 74
     0
 75
     0
  3
STANDARD
100
AcDbAlignedDimension
 13
80.99412221064865
 23
112.1567323064802
 33
0.0
 14
284.9941222106487
 24
112.1567323064802
 34
0.0
100
AcDbRotatedDimension
  0
DIMENSION
  5
180DE
330
1E
100
AcDbEntity
  8
30
  6
Continuous
100
AcDbDimension
280
     0
  2
*D26
 10
413.440735066948
 20
113.1567323064802
 30
0.0
 11
413.440735066948
 21
247.1567323064803
 31
0.0
 70
   160
  1
<>
 71
     2
 42
268.0
 73
     0
 74
     0
 75
     0
  3
STANDARD
100
AcDbAlignedDimension
 13
284.9941222106487
 23
381.1567323064803
 33
0.0
 14
285.9941222106487
 24
113.1567323064802
 34
0.0
 50
90.0
100
AcDbRotatedDimension
  0
DIMENSION
  5
180DF
330
1E
100
AcDbEntity
  8
30
  6
Continuous
100
AcDbDimension
280
     0
  2
*D27
 10
291.4941222106487
 20
29.88525147205564
 30
0.0
 11
182.9941222106486
 21
29.88525147205564
 31
0.0
 70
   160
  1
<>
 71
     2
 42
217.0
 73
     0
 74
     0
 75
     0
  3
STANDARD
100
AcDbAlignedDimension
 13
74.49412221064867
 23
171.1567323064801
 33
0.0
 14
291.4941222106487
 24
171.1567323064801
 34
0.0
100
AcDbRotatedDimension
  0
DIMENSION
  5
180E0
330
1E
100
AcDbEntity
  8
30
  6
Continuous
100
AcDbDimension
280
     0
  2
*D28
 10
353.2149726650386
 20
171.1567323064801
 30
0.0
 11
353.2149726650386
 21
247.1567323064803
 31
0.0
 70
   160
  1
<>
 71
     2
 42
152.0
 73
     0
 74
     0
 75
     0
  3
STANDARD
100
AcDbAlignedDimension
 13
291.4941222106487
 23
323.1567323064802
 33
0.0
 14
291.4941222106487
 24
171.1567323064801
 34
0.0
 50
90.0
100
AcDbRotatedDimension
  0
INSERT
  5
180E1
330
1E
100
AcDbEntity
  8
16
100
AcDbBlockReference
  2
SW_CENTERMARKSYMBOL_26
 10
74.49412221064867
 20
171.1567323064801
 30
0.0
 41
5.0
 42
5.0
 43
5.0
  0
INSERT
  5
180E2
330
1E
100
AcDbEntity
  8
16
100
AcDbBlockReference
  2
SW_CENTERMARKSYMBOL_27
 10
74.49412221064867
 20
323.1567323064802
 30
0.0
 41
5.0
 42
5.0
 43
5.0
  0
INSERT
  5
180E3
330
1E
100
AcDbEntity
  8
16
100
AcDbBlockReference
  2
SW_CENTERMARKSYMBOL_28
 10
291.4941222106487
 20
323.1567323064802
 30
0.0
 41
5.0
 42
5.0
 43
5.0
  0
INSERT
  5
180E4
330
1E
100
AcDbEntity
  8
16
100
AcDbBlockReference
  2
SW_CENTERMARKSYMBOL_29
 10
291.4941222106487
 20
171.1567323064801
 30
0.0
 41
5.0
 42
5.0
 43
5.0
  0
LWPOLYLINE
  5
180E5
330
1E
100
AcDbEntity
  8
10
380
     2
100
AcDbPolyline
 90
        4
 70
     1
 43
0.0
 10
840.0
 20
0.0
 10
840.0
 20
1305.6
 10
0.0
 20
1305.6
 10
0.0
 20
0.0
  0
LWPOLYLINE
  5
180E6
330
1E
100
AcDbEntity
  8
10
  6
Continuous
100
AcDbPolyline
 90
        8
 70
     1
 43
0.0
 10
102.9999998794999
 20
662.4222084224998
 10
102.9999998794999
 20
742.4222084224997
 42
-0.4142135623730959
 10
110.9999998794999
 20
750.4222084224997
 10
210.9999998795003
 20
750.4222084224997
 42
-0.4142135623730959
 10
218.9999998795003
 20
742.4222084224997
 10
218.9999998795003
 20
662.4222084224998
 42
-0.4142135623730959
 10
210.9999998795003
 20
654.4222084224998
 10
110.9999998794999
 20
654.4222084224998
 42
-0.4142135623730961
  0
LWPOLYLINE
  5
19EFF
330
1E
100
AcDbEntity
  8
10
  6
Continuous
100
AcDbPolyline
 90
        4
 70
     1
 43
0.0
 10
63.99999987949922
 20
847.4222084224997
 10
302.9999998794992
 20
847.4222084224997
 10
302.9999998794992
 20
557.4222084224998
 10
63.99999987949922
 20
557.4222084224998
  0
LWPOLYLINE
  5
1AB47
330
1E
100
AcDbEntity
  8
18
100
AcDbPolyline
 90
        4
 70
     1
 43
0.0
 10
63.49412221064866
 20
392.1567323064804
 10
302.4941222106487
 20
392.1567323064802
 10
302.4941222106487
 20
102.1567323064802
 10
63.49412221064866
 20
102.1567323064802
  0
DIMENSION
  5
1C038
330
1E
100
AcDbEntity
  8
30
  6
Continuous
100
AcDbDimension
280
     0
  2
*D34
 10
290.0722905342004
 20
319.9585461511964
 30
0.0
 11
312.2344211770873
 21
348.0651220241083
 31
0.0
 70
   163
 71
     5
 42
7.0
 73
     0
 74
     0
 75
     0
  3
STANDARD1
100
AcDbDiametricDimension
 15
292.9159538870964
 25
326.354918461764
 35
0.0
 40
0.0
1001
ACAD_DSTYLE_DIMRADIAL_EXTENSION
1070
   387
1070
     1
1070
   388
1040
0.0
1070
   390
1040
0.0
  0
DIMENSION
  5
1C077
330
1E
100
AcDbEntity
  8
30
  6
Continuous
100
AcDbDimension
280
     0
  2
*D35
 10
90.82632291652771
 20
1126.472719700755
 30
0.0
 11
83.82632291652752
 21
1116.139386367422
 31
0.0
 70
    32
 71
     5
 42
14.0
 73
     0
 74
     0
 75
     0
  3
STANDARD
100
AcDbAlignedDimension
 13
116.0
 23
1140.472719700755
 33
0.0
 14
116.0
 24
1126.472719700755
 34
0.0
 50
90.0
100
AcDbRotatedDimension
  0
DIMENSION
  5
1C078
330
1E
100
AcDbEntity
  8
30
100
AcDbDimension
280
     0
  2
*D36
 10
109.5
 20
1170.285334511875
 30
0.0
 11
99.16666666666669
 21
1177.285334511875
 31
0.0
 70
    32
 71
     5
 42
13.0
 73
     0
 74
     0
 75
     0
  3
STANDARD
100
AcDbAlignedDimension
 13
122.5
 23
1133.472719700755
 33
0.0
 14
109.5
 24
1133.472719700755
 34
0.0
100
AcDbRotatedDimension
  0
DIMENSION
  5
1C0C8
330
1E
100
AcDbEntity
  8
30
100
AcDbDimension
280
     0
  2
*D37
 10
345.1606983814873
 20
1189.472719700755
 30
0.0
 11
345.1606983814869
 21
1134.472719700755
 31
0.0
 70
   160
 71
     5
 42
111.0
 73
     0
 74
     0
 75
     0
  3
STANDARD
100
AcDbAlignedDimension
 13
276.0
 23
1078.472719700755
 33
0.0
 14
266.0
 24
1189.472719700755
 34
0.0
 50
90.0
100
AcDbRotatedDimension
  0
DIMENSION
  5
1C133
330
1E
100
AcDbEntity
  8
30
100
AcDbDimension
280
     0
  2
*D38
 10
314.9216313303377
 20
1173.472719700755
 30
0.0
 11
314.9216313303375
 21
1133.472719700755
 31
0.0
 70
   160
 71
     5
 42
95.0
 73
     0
 74
     0
 75
     0
  3
STANDARD
100
AcDbAlignedDimension
 13
258.0
 23
1078.472719700755
 33
0.0
 14
261.5
 24
1173.472719700755
 34
0.0
 50
90.0
100
AcDbRotatedDimension
  0
ELLIPSE
  5
1C187
330
1E
100
AcDbEntity
  8
17
  6
CONTINOUS
100
AcDbEllipse
 10
116.0
 20
1133.472719700755
 30
0.0
 11
0.0000000000000009
 21
7.0
 31
0.0
210
0.0
220
0.0
230
1.0
 40
0.9285714285714286
 41
0.0
 42
6.283185307179584
  0
ELLIPSE
  5
1C1A3
330
1E
100
AcDbEntity
  8
17
  6
CONTINOUS
100
AcDbEllipse
 10
161.0
 20
1173.472719700755
 30
0.0
 11
0.0000000000000009
 21
7.0
 31
0.0
210
0.0
220
0.0
230
1.0
 40
0.9285714285714286
 41
0.0
 42
6.283185307179584
  0
ELLIPSE
  5
1C1AB
330
1E
100
AcDbEntity
  8
17
  6
CONTINOUS
100
AcDbEllipse
 10
206.0
 20
1133.472719700755
 30
0.0
 11
0.0000000000000009
 21
7.0
 31
0.0
210
0.0
220
0.0
230
1.0
 40
0.9285714285714286
 41
0.0
 42
6.283185307179584
  0
ELLIPSE
  5
1C1B3
330
1E
100
AcDbEntity
  8
17
  6
CONTINOUS
100
AcDbEllipse
 10
251.0
 20
1173.472719700755
 30
0.0
 11
0.0000000000000009
 21
7.0
 31
0.0
210
0.0
220
0.0
230
1.0
 40
0.9285714285714286
 41
0.0
 42
6.283185307179584
  0
DIMENSION
  5
1C1B4
330
1E
100
AcDbEntity
  8
30
100
AcDbDimension
280
     0
  2
*D39
 10
55.83775560642697
 20
1133.472719700755
 30
0.0
 11
48.83775560642678
 21
1105.972719700755
 31
0.0
 70
    32
 71
     5
 42
55.0
 73
     0
 74
     0
 75
     0
  3
STANDARD
100
AcDbAlignedDimension
 13
104.0
 23
1078.472719700755
 33
0.0
 14
105.5
 24
1133.472719700755
 34
0.0
 50
90.0
100
AcDbRotatedDimension
  0
DIMENSION
  5
1C1C1
330
1E
100
AcDbEntity
  8
30
100
AcDbDimension
280
     0
  2
*D40
 10
73.26520961605365
 20
1149.472719700755
 30
0.0
 11
66.26520961605347
 21
1113.972719700755
 31
0.0
 70
    32
 71
     5
 42
71.0
 73
     0
 74
     0
 75
     0
  3
STANDARD
100
AcDbAlignedDimension
 13
104.0
 23
1078.472719700755
 33
0.0
 14
101.0
 24
1149.472719700755
 34
0.0
 50
90.0
100
AcDbRotatedDimension
  0
DIMENSION
  5
1C205
330
1E
100
AcDbEntity
  8
30
100
AcDbDimension
280
     0
  2
*D41
 10
236.0
 20
1221.79635782977
 30
0.0
 11
281.4465780968412
 21
1221.79635782977
 31
0.0
 70
   160
 71
     5
 42
30.0
 73
     0
 74
     0
 75
     0
  3
STANDARD
100
AcDbAlignedDimension
 13
266.0
 23
1189.472719700755
 33
0.0
 14
236.0
 24
1189.472719700755
 34
0.0
100
AcDbRotatedDimension
  0
VIEWPORT
  5
9AC
330
1A
100
AcDbEntity
 67
     1
  8
0
  6
Continuous
348
8A77
100
AcDbViewport
 10
171.999535
 20
144.1384739999999
 30
0.0
 40
488.867686
 41
292.351491
 68
     1
 69
     1
 12
171.999535
 22
144.1384739999999
 13
0.0
 23
0.0
 14
10.0
 24
10.0
 15
10.0
 25
10.0
 16
0.0
 26
0.0
 36
1.0
 17
0.0
 27
0.0
 37
0.0
 42
50.0
 43
0.0
 44
0.0
 45
292.351491
 50
0.0
 51
0.0
 72
   100
 90
    32800
  1

281
     0
 71
     1
 74
     0
110
0.0
120
0.0
130
0.0
111
1.0
121
0.0
131
0.0
112
0.0
122
1.0
132
0.0
 79
     0
146
0.0
170
     0
 61
     5
348
8A77
292
     1
282
     1
141
0.0
142
0.0
 63
   250
421
  3355443
  0
ENDSEC
  0
SECTION
  2
OBJECTS
  0
DICTIONARY
  5
C
330
0
100
AcDbDictionary
281
     1
  3
ACAD_CIP_PREVIOUS_PRODUCT_INFO
350
8AA8
  3
ACAD_COLOR
350
8A8A
  3
ACAD_DETAILVIEWSTYLE
350
8AA3
  3
ACAD_GROUP
350
D
  3
ACAD_LAYOUT
350
19
  3
ACAD_MATERIAL
350
8A58
  3
ACAD_MLEADERSTYLE
350
8A9F
  3
ACAD_MLINESTYLE
350
16
  3
ACAD_PLOTSETTINGS
350
18
  3
ACAD_PLOTSTYLENAME
350
E
  3
ACAD_SCALELIST
350
8A8D
  3
ACAD_SECTIONVIEWSTYLE
350
8AA1
  3
ACAD_TABLESTYLE
350
8A8B
  3
ACAD_VISUALSTYLE
350
8A71
  3
ACADDIM
350
6D5E
  3
ACDB_RECOMPOSE_DATA
350
1C499
  3
ACDBVARIABLEDICTIONARY
350
5697
  3
AEC_PROPERTY_SET_DEFS
350
BFC4
  0
DICTIONARY
  5
F3CC
330
2
100
AcDbDictionary
280
     1
281
     1
  3
ACAD_LAYERSTATES
360
F3CD
  0
DICTIONARY
  5
8ACC
330
10
100
AcDbDictionary
280
     1
281
     1
  3
ADSK_XREC_LAYER_RECONCILED
360
8ACD
  0
DICTIONARY
  5
8ACE
330
2F
100
AcDbDictionary
280
     1
281
     1
  3
ADSK_XREC_LAYER_RECONCILED
360
8ACF
  0
DICTIONARY
  5
8AD2
330
35
100
AcDbDictionary
280
     1
281
     1
  3
ADSK_XREC_LAYER_RECONCILED
360
8AD3
  0
DICTIONARY
  5
8AD4
330
38
100
AcDbDictionary
280
     1
281
     1
  3
ADSK_XREC_LAYER_RECONCILED
360
8AD5
  0
DICTIONARY
  5
8AD6
330
3D
100
AcDbDictionary
280
     1
281
     1
  3
ADSK_XREC_LAYER_RECONCILED
360
8AD7
  0
DICTIONARY
  5
8AD8
330
3A2
100
AcDbDictionary
280
     1
281
     1
  3
ADSK_XREC_LAYER_RECONCILED
360
8AD9
  0
DICTIONARY
  5
8ADA
330
3BBA
100
AcDbDictionary
280
     1
281
     1
  3
ADSK_XREC_LAYER_RECONCILED
360
8ADB
  0
DICTIONARY
  5
8ADC
330
67A8
100
AcDbDictionary
280
     1
281
     1
  3
ADSK_XREC_LAYER_RECONCILED
360
8ADD
  0
DICTIONARY
  5
8ADE
330
7837
100
AcDbDictionary
280
     1
281
     1
  3
ADSK_XREC_LAYER_RECONCILED
360
8ADF
  0
DICTIONARY
  5
9134
330
9133
100
AcDbDictionary
280
     1
281
     1
  0
DICTIONARY
  5
1391D
330
1391C
100
AcDbDictionary
280
     1
281
     1
  0
DICTIONARY
  5
16BBD
330
16BBC
100
AcDbDictionary
280
     1
281
     1
  0
DICTIONARY
  5
17EA0
330
17E9F
100
AcDbDictionary
280
     1
281
     1
  0
DICTIONARY
  5
178
330
1E
100
AcDbDictionary
280
     1
281
     1
  3
ACAD_LAYOUTSELFREF
360
8A0F
  3
ACAD_SORTENTS
360
10338
  0
DICTIONARY
  5
17A
330
1A
100
AcDbDictionary
280
     1
281
     1
  3
ACAD_LAYOUTSELFREF
360
8A0E
  0
XRECORD
  5
8AA8
102
{ACAD_REACTORS
330
C
102
}
330
C
100
AcDbXrecord
280
     1
300
ACDLT
300
2014
300
ACDLT_F_S
  0
DICTIONARY
  5
8A8A
102
{ACAD_REACTORS
330
C
102
}
330
C
100
AcDbDictionary
281
     1
  0
DICTIONARY
  5
8AA3
102
{ACAD_REACTORS
330
C
102
}
330
C
100
AcDbDictionary
281
     1
  3
Imperial24
350
8AA4
  0
DICTIONARY
  5
D
102
{ACAD_REACTORS
330
C
102
}
330
C
100
AcDbDictionary
281
     1
  0
DICTIONARY
  5
19
102
{ACAD_REACTORS
330
C
102
}
330
C
100
AcDbDictionary
281
     1
  3
Model
350
8A4C
  3
ﾚｲｱｳﾄ1
350
8A4D
  0
DICTIONARY
  5
8A58
102
{ACAD_REACTORS
330
C
102
}
330
C
100
AcDbDictionary
281
     1
  3
ByBlock
350
8A61
  3
ByLayer
350
8A59
  3
Global
350
8A69
  0
DICTIONARY
  5
8A9F
102
{ACAD_REACTORS
330
C
102
}
330
C
100
AcDbDictionary
281
     1
  3
Standard
350
8AA0
  0
DICTIONARY
  5
16
102
{ACAD_REACTORS
330
C
102
}
330
C
100
AcDbDictionary
281
     1
  3
STANDARD
350
17
  0
DICTIONARY
  5
18
102
{ACAD_REACTORS
330
C
102
}
330
C
100
AcDbDictionary
281
     1
  0
ACDBDICTIONARYWDFLT
  5
E
102
{ACAD_REACTORS
330
C
102
}
330
C
100
AcDbDictionary
281
     1
  3
Normal
350
F
100
AcDbDictionaryWithDefault
340
F
  0
DICTIONARY
  5
8A8D
102
{ACAD_REACTORS
330
C
102
}
330
C
100
AcDbDictionary
281
     1
  3
A0
350
8A8E
  3
A1
350
8A8F
  3
A2
350
8A90
  3
A3
350
8A91
  3
A4
350
8A92
  3
A5
350
8A93
  3
A6
350
8A94
  3
A7
350
8A95
  3
A8
350
8A96
  3
A9
350
8A97
  3
B0
350
8A98
  3
B1
350
8A99
  3
B2
350
8A9A
  3
B3
350
8A9B
  3
B4
350
8A9C
  3
B5
350
8A9D
  3
B6
350
8A9E
  0
DICTIONARY
  5
8AA1
102
{ACAD_REACTORS
330
C
102
}
330
C
100
AcDbDictionary
281
     1
  3
Imperial24
350
8AA2
  0
DICTIONARY
  5
8A8B
102
{ACAD_REACTORS
330
C
102
}
330
C
100
AcDbDictionary
281
     1
  3
Standard
350
8A8C
  0
DICTIONARY
  5
8A71
102
{ACAD_REACTORS
330
C
102
}
330
C
100
AcDbDictionary
281
     1
  3
2dWireframe
350
8A77
  3
3D Hidden
350
8B2B
  3
3dWireframe
350
8B2A
  3
Basic
350
8A76
  3
Brighten
350
8A7D
  3
ColorChange
350
8A81
  3
Conceptual
350
8A7A
  3
Dim
350
8A7C
  3
EdgeColorOff
350
8A89
  3
Facepattern
350
8A80
  3
Flat
350
8A72
  3
FlatWithEdges
350
8A73
  3
Gouraud
350
8A74
  3
GouraudWithEdges
350
8A75
  3
Hidden
350
8A79
  3
JitterOff
350
8A87
  3
Linepattern
350
8A7F
  3
OverhangOff
350
8A88
  3
Realistic
350
8A7B
  3
Shaded
350
8A86
  3
Shaded with edges
350
8A85
  3
Shades of Gray
350
8A82
  3
Sketchy
350
8A83
  3
Thicken
350
8A7E
  3
Wireframe
350
8A78
  3
X-Ray
350
8A84
  0
XRECORD
  5
6D5E
102
{ACAD_REACTORS
330
C
102
}
330
C
100
AcDbXrecord
280
     1
 90
   990106
  3

 60
     0
 61
     0
 62
     1
 63
     3
 64
     0
 65
     0
 66
     0
 67
     3
 68
     1
 69
     0
 70
     0
 71
     0
 72
     0
 40
0.0
170
     0
340
0
  0
XRECORD
  5
1C499
102
{ACAD_REACTORS
330
C
102
}
330
C
100
AcDbXrecord
280
     1
 90
        1
330
8A8C
330
8AA2
330
8AA4
  0
DICTIONARY
  5
5697
102
{ACAD_REACTORS
330
C
102
}
330
C
100
AcDbDictionary
281
     1
  3
CANNOSCALE
350
8AE9
  3
CMLEADERSTYLE
350
8AE5
  3
CTABLESTYLE
350
8AE4
  3
CVIEWDETAILSTYLE
350
8AE6
  3
CVIEWSECTIONSTYLE
350
8AE7
  3
DIMASSOC
350
5698
  3
LAYEREVAL
350
8AEB
  3
LAYERNOTIFY
350
8AEC
  3
LIGHTINGUNITS
350
8AEA
  3
MSLTSCALE
350
8AE8
  0
DICTIONARY
  5
BFC4
102
{ACAD_REACTORS
330
C
102
}
330
C
100
AcDbDictionary
281
     1
  0
DICTIONARY
  5
F3CD
102
{ACAD_REACTORS
330
F3CC
102
}
330
F3CC
100
AcDbDictionary
281
     1
  0
XRECORD
  5
8ACD
102
{ACAD_REACTORS
330
8ACC
102
}
330
8ACC
100
AcDbXrecord
280
     1
290
     1
  0
XRECORD
  5
8ACF
102
{ACAD_REACTORS
330
8ACE
102
}
330
8ACE
100
AcDbXrecord
280
     1
290
     1
  0
XRECORD
  5
8AD3
102
{ACAD_REACTORS
330
8AD2
102
}
330
8AD2
100
AcDbXrecord
280
     1
290
     1
  0
XRECORD
  5
8AD5
102
{ACAD_REACTORS
330
8AD4
102
}
330
8AD4
100
AcDbXrecord
280
     1
290
     1
  0
XRECORD
  5
8AD7
102
{ACAD_REACTORS
330
8AD6
102
}
330
8AD6
100
AcDbXrecord
280
     1
290
     1
  0
XRECORD
  5
8AD9
102
{ACAD_REACTORS
330
8AD8
102
}
330
8AD8
100
AcDbXrecord
280
     1
290
     1
  0
XRECORD
  5
8ADB
102
{ACAD_REACTORS
330
8ADA
102
}
330
8ADA
100
AcDbXrecord
280
     1
290
     1
  0
XRECORD
  5
8ADD
102
{ACAD_REACTORS
330
8ADC
102
}
330
8ADC
100
AcDbXrecord
280
     1
290
     1
  0
XRECORD
  5
8ADF
102
{ACAD_REACTORS
330
8ADE
102
}
330
8ADE
100
AcDbXrecord
280
     1
290
     1
  0
XRECORD
  5
8A0F
102
{ACAD_REACTORS
330
178
102
}
330
178
100
AcDbXrecord
280
     1
340
1E
  0
SORTENTSTABLE
  5
10338
102
{ACAD_REACTORS
330
178
102
}
330
178
100
AcDbSortentsTable
330
1E
331
180AC
  5
193EB
331
1800E
  5
18C79
331
18023
  5
18C8E
331
180E4
  5
19435
331
1802B
  5
18C96
331
18053
  5
18CC5
331
180B4
  5
193FA
331
17FD7
  5
18C42
331
18016
  5
18C81
331
1806D
  5
18CDF
331
18075
  5
18CE7
331
17FDF
  5
18C4A
331
180D4
  5
19417
331
18036
  5
18CA1
331
1807D
  5
18CEF
331
17FE7
  5
18C52
331
1803E
  5
18CB0
331
18085
  5
18CF7
331
17FEF
  5
18C5A
331
180C1
  5
19407
331
1805D
  5
18CCF
331
1808D
  5
18CFF
331
180BD
  5
19403
331
180DD
  5
1942E
331
17FF7
  5
18C62
331
18046
  5
18CB8
331
18095
  5
18D06
331
1809D
  5
193DC
331
17FFF
  5
18C6A
331
1804E
  5
18CC0
331
18066
  5
18CD8
331
180A5
  5
193E4
331
18007
  5
18C72
331
180AD
  5
193EC
331
1800F
  5
18C7A
331
18024
  5
18C8F
331
1802C
  5
18C97
331
180E5
  5
19436
331
18054
  5
18CC6
331
18017
  5
18C82
331
1806E
  5
18CE0
331
17FD8
  5
18C43
331
180B5
  5
193FB
331
180D5
  5
19418
331
17FE0
  5
18C4B
331
18076
  5
18CE8
331
17FE8
  5
18C53
331
18037
  5
18CA2
331
1807E
  5
18CF0
331
18086
  5
18CF8
331
1803F
  5
18CB1
331
180C2
  5
19408
331
1805E
  5
18CD0
331
180BE
  5
19404
331
180DE
  5
1942F
331
17FF0
  5
18C5B
331
18047
  5
18CB9
331
18096
  5
18D07
331
1804F
  5
18CC1
331
1809E
  5
193DD
331
18000
  5
18C6B
331
18008
  5
18C73
331
18067
  5
18CD9
331
180A6
  5
193E5
331
180AE
  5
193ED
331
180E6
  5
19437
331
1802D
  5
18C98
331
18010
  5
18C7B
331
1806F
  5
18CE1
331
180B6
  5
193FC
331
17FD9
  5
18C44
331
18018
  5
18C83
331
180D6
  5
19419
331
17FE1
  5
18C4C
331
18030
  5
18C9B
331
18038
  5
18CA4
331
1807F
  5
18CF1
331
17FE9
  5
18C54
331
18087
  5
18CF9
331
180C3
  5
19409
331
1805F
  5
18CD1
331
180BF
  5
19405
331
180DF
  5
19430
331
17FF1
  5
18C5C
331
18040
  5
18CB2
331
18048
  5
18CBA
331
18097
  5
18D08
331
1809F
  5
193DE
331
18001
  5
18C6C
331
18060
  5
18CD2
331
180A7
  5
193E6
331
18009
  5
18C74
331
180AF
  5
193EE
331
18026
  5
18C91
331
180CE
  5
19411
331
1802E
  5
18C99
331
18056
  5
18CC8
331
18068
  5
18CDA
331
17FD2
  5
18C3D
331
18011
  5
18C7C
331
18019
  5
18C84
331
18070
  5
18CE2
331
180B7
  5
193FD
331
180D7
  5
1941B
331
17FE2
  5
18C4D
331
18031
  5
18C9C
331
18080
  5
18CF2
331
19EFF
  5
18CFC
331
17FEA
  5
18C55
331
18039
  5
18CA5
331
1AB47
  5
19410
331
180C4
  5
1940A
331
18058
  5
18CCA
331
18088
  5
18CFB
331
180B8
  5
193FE
331
180D8
  5
19429
331
17FF2
  5
18C5D
331
18041
  5
18CB3
331
18049
  5
18CBB
331
18098
  5
18D09
331
18002
  5
18C6D
331
18061
  5
18CD3
331
180A0
  5
193DF
331
1800A
  5
18C75
331
180A8
  5
193E7
331
18027
  5
18C92
331
180E0
  5
19431
331
180CF
  5
19412
331
1802F
  5
18C9A
331
18057
  5
18CC9
331
180B0
  5
193EF
331
17FD3
  5
18C3E
331
18012
  5
18C7D
331
18071
  5
18CE3
331
180D0
  5
19413
331
17FDB
  5
18C46
331
1801A
  5
18C85
331
18079
  5
18CEB
331
17FE3
  5
18C4E
331
18032
  5
18C9D
331
1803A
  5
18CA8
331
18081
  5
18CF3
331
17FEB
  5
18C56
331
180C5
  5
1940B
331
180B9
  5
193FF
331
180D9
  5
1942A
331
17FF3
  5
18C5E
331
18042
  5
18CB4
331
18091
  5
18D01
331
18099
  5
18D0A
331
17FFB
  5
18C66
331
1804A
  5
18CBC
331
180A1
  5
193E0
331
18062
  5
18CD4
331
180A9
  5
193E8
331
1800B
  5
18C76
331
18028
  5
18C93
331
180E1
  5
19432
331
18050
  5
18CC2
331
18013
  5
18C7E
331
1806A
  5
18CDC
331
17FD4
  5
18C3F
331
180B1
  5
193F0
331
1801B
  5
18C86
331
18072
  5
18CE4
331
17FDC
  5
18C47
331
180D1
  5
19414
331
17FE4
  5
18C4F
331
18033
  5
18C9E
331
1807A
  5
18CEC
331
18082
  5
18CF4
331
17FEC
  5
18C57
331
1803B
  5
18CA9
331
180C6
  5
1940C
331
1805A
  5
18CCC
331
180BA
  5
19400
331
180DA
  5
1942B
331
18092
  5
18D03
331
17FF4
  5
18C5F
331
18043
  5
18CB5
331
1804B
  5
18CBD
331
1809A
  5
193D9
331
17FFC
  5
18C67
331
18004
  5
18C6F
331
18063
  5
18CD5
331
180A2
  5
193E1
331
180AA
  5
193E9
331
1800C
  5
18C77
331
18021
  5
18C8C
331
180E2
  5
19433
331
180C9
  5
1940F
331
18029
  5
18C94
331
18051
  5
18CC3
331
180B2
  5
193F2
331
17FD5
  5
18C40
331
18014
  5
18C7F
331
1806B
  5
18CDD
331
18073
  5
18CE5
331
180D2
  5
19415
331
17FDD
  5
18C48
331
1801C
  5
18C87
331
18034
  5
18C9F
331
1807B
  5
18CED
331
17FE5
  5
18C50
331
1803C
  5
18CAC
331
18083
  5
18CF5
331
17FED
  5
18C58
331
180C7
  5
1940D
331
1805B
  5
18CCD
331
180BB
  5
19401
331
180DB
  5
1942C
331
17FF5
  5
18C60
331
18044
  5
18CB6
331
18093
  5
18D04
331
1809B
  5
193DA
331
17FFD
  5
18C68
331
1804C
  5
18CBE
331
180A3
  5
193E2
331
18005
  5
18C70
331
18064
  5
18CD6
331
180AB
  5
193EA
331
1800D
  5
18C78
331
18022
  5
18C8D
331
1802A
  5
18C95
331
180E3
  5
19434
331
18052
  5
18CC4
331
18015
  5
18C80
331
1806C
  5
18CDE
331
17FD6
  5
18C41
331
180B3
  5
193F9
331
180D3
  5
19416
331
1801D
  5
18C88
331
18074
  5
18CE6
331
17FDE
  5
18C49
331
17FE6
  5
18C51
331
18035
  5
18CA0
331
1807C
  5
18CEE
331
18084
  5
18CF6
331
17FEE
  5
18C59
331
1803D
  5
18CAF
331
180C0
  5
19406
331
1805C
  5
18CCE
331
180BC
  5
19402
331
180DC
  5
1942D
331
18045
  5
18CB7
331
18094
  5
18D05
331
17FF6
  5
18C61
331
1804D
  5
18CBF
331
1809C
  5
193DB
331
17FFE
  5
18C69
331
18006
  5
18C71
331
18065
  5
18CD7
331
180A4
  5
193E3
  0
XRECORD
  5
8A0E
102
{ACAD_REACTORS
330
17A
102
}
330
17A
100
AcDbXrecord
280
     1
340
1A
  0
ACDBDETAILVIEWSTYLE
  5
8AA4
102
{ACAD_XDICTIONARY
360
1C467
102
}
102
{ACAD_REACTORS
330
8AA3
102
}
330
8AA3
100
AcDbModelDocViewStyle
 70
     0
  3
Imperial24
290
     0
100
AcDbDetailViewStyle
 70
     0
 71
     0
 90
        3
 71
     1
340
11
 62
   256
 40
0.24
340
0
 62
   256
 40
0.24
300

 40
0.36
280
     3
 71
     2
340
15
 90
       25
 62
   256
 71
     3
340
11
 62
   256
 40
0.24
 90
        1
 40
0.75
 90
        1
300
%<\AcVar ViewType \f "%tc1">% %<\AcVar ViewDetailId>%\PSCALE %<\AcVar ViewScale \f "%sn">%
 71
     4
340
15
 90
       25
 62
   256
340
15
 90
       25
 62
   256
280
     0
  0
LAYOUT
  5
8A4C
102
{ACAD_XDICTIONARY
360
F3D2
102
}
102
{ACAD_REACTORS
330
19
102
}
330
19
100
AcDbPlotSettings
  1

  2
none_device
  4
Letter_(8.50_x_11.00_Inches)
  6

 40
6.349999904632567
 41
6.349999904632567
 42
6.350006103515625
 43
6.350006103515625
 44
215.8999938964844
 45
279.3999938964844
 46
0.0
 47
0.0
 48
0.0
 49
0.0
140
0.0
141
0.0
142
1.0
143
317.0449279872537
 70
 11952
 72
     0
 73
     1
 74
     0
  7
monochrome.ctb
 75
     0
147
0.0031541271022642
 76
     0
 77
     2
 78
   300
148
21198.07971653447
149
42574.72085005308
100
AcDbLayout
  1
Model
 70
     1
 71
     0
 10
0.0
 20
0.0
 11
12.0
 21
9.0
 12
0.0
 22
0.0
 32
0.0
 14
0.0
 24
0.0
 34
0.0
 15
0.0
 25
0.0
 35
0.0
146
0.0
 13
0.0
 23
0.0
 33
0.0
 16
1.0
 26
0.0
 36
0.0
 17
0.0
 27
1.0
 37
0.0
 76
     0
330
1E
331
8A51
1001
ACAD_PSEXT
1000
なし
1000
なし
1000
適切ではありません
1000
新しいプロッタ環境設定名を選択しない限り、レイアウトは印刷されません。
1070
     0
  0
LAYOUT
  5
8A4D
102
{ACAD_REACTORS
330
19
102
}
330
19
100
AcDbPlotSettings
  1

  2
Canon LBP3800 LIPSLX
  4

  6

 40
0.0
 41
0.0
 42
0.0
 43
0.0
 44
0.0
 45
0.0
 46
0.0
 47
0.0
 48
0.0
 49
0.0
140
0.0
141
0.0
142
1.0
143
1.0
 70
   688
 72
     0
 73
     0
 74
     5
  7
monochrome.ctb
 75
    16
147
1.0
 76
     0
 77
     2
 78
   300
148
0.0
149
0.0
100
AcDbLayout
  1
ﾚｲｱｳﾄ1
 70
     1
 71
     1
 10
-5.873749
 20
-5.87375
 11
204.099579
 21
291.1369009999999
 12
0.0
 22
0.0
 32
0.0
 14
4.273573
 24
5.205245999999998
 34
0.0
 15
194.610095
 25
283.0697009999996
 35
0.0
146
0.0
 13
0.0
 23
0.0
 33
0.0
 16
1.0
 26
0.0
 36
0.0
 17
0.0
 27
1.0
 37
0.0
 76
     0
330
1A
331
9AC
  0
MATERIAL
  5
8A61
102
{ACAD_XDICTIONARY
360
8A62
102
}
102
{ACAD_REACTORS
330
8A58
102
}
330
8A58
100
AcDbMaterial
  1
ByBlock
 72
     0
 43
0.0208333333333333
 43
0.0
 43
0.0
 43
0.0
 43
0.0
 43
0.0208333333333333
 43
0.0
 43
0.0
 43
0.0
 43
0.0
 43
1.0
 43
0.0
 43
0.0
 43
0.0
 43
0.0
 43
1.0
 77
     0
 47
0.0208333333333333
 47
0.0
 47
0.0
 47
0.0
 47
0.0
 47
0.0208333333333333
 47
0.0
 47
0.0
 47
0.0
 47
0.0
 47
1.0
 47
0.0
 47
0.0
 47
0.0
 47
0.0
 47
1.0
171
     0
 49
0.0208333333333333
 49
0.0
 49
0.0
 49
0.0
 49
0.0
 49
0.0208333333333333
 49
0.0
 49
0.0
 49
0.0
 49
0.0
 49
1.0
 49
0.0
 49
0.0
 49
0.0
 49
0.0
 49
1.0
175
     0
142
0.0208333333333333
142
0.0
142
0.0
142
0.0
142
0.0
142
0.0208333333333333
142
0.0
142
0.0
142
0.0
142
0.0
142
1.0
142
0.0
142
0.0
142
0.0
142
0.0
142
1.0
179
     0
144
0.0208333333333333
144
0.0
144
0.0
144
0.0
144
0.0
144
0.0208333333333333
144
0.0
144
0.0
144
0.0
144
0.0
144
1.0
144
0.0
144
0.0
144
0.0
144
0.0
144
1.0
147
0.0208333333333333
147
0.0
147
0.0
147
0.0
147
0.0
147
0.0208333333333333
147
0.0
147
0.0
147
0.0
147
0.0
147
1.0
147
0.0
147
0.0
147
0.0
147
0.0
147
1.0
  0
MATERIAL
  5
8A59
102
{ACAD_XDICTIONARY
360
8A5A
102
}
102
{ACAD_REACTORS
330
8A58
102
}
330
8A58
100
AcDbMaterial
  1
ByLayer
 72
     0
 43
0.0208333333333333
 43
0.0
 43
0.0
 43
0.0
 43
0.0
 43
0.0208333333333333
 43
0.0
 43
0.0
 43
0.0
 43
0.0
 43
1.0
 43
0.0
 43
0.0
 43
0.0
 43
0.0
 43
1.0
 77
     0
 47
0.0208333333333333
 47
0.0
 47
0.0
 47
0.0
 47
0.0
 47
0.0208333333333333
 47
0.0
 47
0.0
 47
0.0
 47
0.0
 47
1.0
 47
0.0
 47
0.0
 47
0.0
 47
0.0
 47
1.0
171
     0
 49
0.0208333333333333
 49
0.0
 49
0.0
 49
0.0
 49
0.0
 49
0.0208333333333333
 49
0.0
 49
0.0
 49
0.0
 49
0.0
 49
1.0
 49
0.0
 49
0.0
 49
0.0
 49
0.0
 49
1.0
175
     0
142
0.0208333333333333
142
0.0
142
0.0
142
0.0
142
0.0
142
0.0208333333333333
142
0.0
142
0.0
142
0.0
142
0.0
142
1.0
142
0.0
142
0.0
142
0.0
142
0.0
142
1.0
179
     0
144
0.0208333333333333
144
0.0
144
0.0
144
0.0
144
0.0
144
0.0208333333333333
144
0.0
144
0.0
144
0.0
144
0.0
144
1.0
144
0.0
144
0.0
144
0.0
144
0.0
144
1.0
147
0.0208333333333333
147
0.0
147
0.0
147
0.0
147
0.0
147
0.0208333333333333
147
0.0
147
0.0
147
0.0
147
0.0
147
1.0
147
0.0
147
0.0
147
0.0
147
0.0
147
1.0
  0
MATERIAL
  5
8A69
102
{ACAD_XDICTIONARY
360
8A6A
102
}
102
{ACAD_REACTORS
330
8A58
102
}
330
8A58
100
AcDbMaterial
  1
Global
 72
     0
 43
0.0208333333333333
 43
0.0
 43
0.0
 43
0.0
 43
0.0
 43
0.0208333333333333
 43
0.0
 43
0.0
 43
0.0
 43
0.0
 43
1.0
 43
0.0
 43
0.0
 43
0.0
 43
0.0
 43
1.0
 77
     0
 47
0.0208333333333333
 47
0.0
 47
0.0
 47
0.0
 47
0.0
 47
0.0208333333333333
 47
0.0
 47
0.0
 47
0.0
 47
0.0
 47
1.0
 47
0.0
 47
0.0
 47
0.0
 47
0.0
 47
1.0
171
     0
 49
0.0208333333333333
 49
0.0
 49
0.0
 49
0.0
 49
0.0
 49
0.0208333333333333
 49
0.0
 49
0.0
 49
0.0
 49
0.0
 49
1.0
 49
0.0
 49
0.0
 49
0.0
 49
0.0
 49
1.0
175
     0
142
0.0208333333333333
142
0.0
142
0.0
142
0.0
142
0.0
142
0.0208333333333333
142
0.0
142
0.0
142
0.0
142
0.0
142
1.0
142
0.0
142
0.0
142
0.0
142
0.0
142
1.0
179
     0
144
0.0208333333333333
144
0.0
144
0.0
144
0.0
144
0.0
144
0.0208333333333333
144
0.0
144
0.0
144
0.0
144
0.0
144
1.0
144
0.0
144
0.0
144
0.0
144
0.0
144
1.0
147
0.0208333333333333
147
0.0
147
0.0
147
0.0
147
0.0
147
0.0208333333333333
147
0.0
147
0.0
147
0.0
147
0.0
147
1.0
147
0.0
147
0.0
147
0.0
147
0.0
147
1.0
  0
MLEADERSTYLE
  5
8AA0
102
{ACAD_REACTORS
330
8A9F
102
}
330
8A9F
100
AcDbMLeaderStyle
179
     2
170
     2
171
     1
172
     0
 90
        2
 40
0.0
 41
0.0
173
     1
 91
-1056964608
340
13
 92
       -2
290
     1
 42
0.09
291
     1
 43
0.36
  3
Standard
 44
0.18
300

342
11
174
     1
178
     6
175
     1
176
     0
 93
-1056964608
 45
0.18
292
     0
297
     0
 46
0.18
 94
-1056964608
 47
1.0
 49
1.0
140
1.0
293
     1
141
0.0
294
     1
177
     0
142
1.0
295
     0
296
     0
143
0.125
271
     0
272
     9
273
     9
298
     0
  0
MLINESTYLE
  5
17
102
{ACAD_REACTORS
330
16
102
}
330
16
100
AcDbMlineStyle
  2
STANDARD
 70
     0
  3

 62
   256
 51
90.0
 52
90.0
 71
     2
 49
0.5
 62
   256
  6
BYLAYER
 49
-0.5
 62
   256
  6
BYLAYER
  0
ACDBPLACEHOLDER
  5
F
102
{ACAD_REACTORS
330
E
102
}
330
E
  0
SCALE
  5
8A8E
102
{ACAD_REACTORS
330
8A8D
102
}
330
8A8D
100
AcDbScale
 70
     0
300
1:1
140
1.0
141
1.0
290
     1
  0
SCALE
  5
8A8F
102
{ACAD_REACTORS
330
8A8D
102
}
330
8A8D
100
AcDbScale
 70
     0
300
1/128" = 1'-0"
140
0.0078125
141
12.0
290
     0
  0
SCALE
  5
8A90
102
{ACAD_REACTORS
330
8A8D
102
}
330
8A8D
100
AcDbScale
 70
     0
300
1/64" = 1'-0"
140
0.015625
141
12.0
290
     0
  0
SCALE
  5
8A91
102
{ACAD_REACTORS
330
8A8D
102
}
330
8A8D
100
AcDbScale
 70
     0
300
1/32" = 1'-0"
140
0.03125
141
12.0
290
     0
  0
SCALE
  5
8A92
102
{ACAD_REACTORS
330
8A8D
102
}
330
8A8D
100
AcDbScale
 70
     0
300
1/16" = 1'-0"
140
0.0625
141
12.0
290
     0
  0
SCALE
  5
8A93
102
{ACAD_REACTORS
330
8A8D
102
}
330
8A8D
100
AcDbScale
 70
     0
300
3/32" = 1'-0"
140
0.09375
141
12.0
290
     0
  0
SCALE
  5
8A94
102
{ACAD_REACTORS
330
8A8D
102
}
330
8A8D
100
AcDbScale
 70
     0
300
1/8" = 1'-0"
140
0.125
141
12.0
290
     0
  0
SCALE
  5
8A95
102
{ACAD_REACTORS
330
8A8D
102
}
330
8A8D
100
AcDbScale
 70
     0
300
3/16" = 1'-0"
140
0.1875
141
12.0
290
     0
  0
SCALE
  5
8A96
102
{ACAD_REACTORS
330
8A8D
102
}
330
8A8D
100
AcDbScale
 70
     0
300
1/4" = 1'-0"
140
0.25
141
12.0
290
     0
  0
SCALE
  5
8A97
102
{ACAD_REACTORS
330
8A8D
102
}
330
8A8D
100
AcDbScale
 70
     0
300
3/8" = 1'-0"
140
0.375
141
12.0
290
     0
  0
SCALE
  5
8A98
102
{ACAD_REACTORS
330
8A8D
102
}
330
8A8D
100
AcDbScale
 70
     0
300
1/2" = 1'-0"
140
0.5
141
12.0
290
     0
  0
SCALE
  5
8A99
102
{ACAD_REACTORS
330
8A8D
102
}
330
8A8D
100
AcDbScale
 70
     0
300
3/4" = 1'-0"
140
0.75
141
12.0
290
     0
  0
SCALE
  5
8A9A
102
{ACAD_REACTORS
330
8A8D
102
}
330
8A8D
100
AcDbScale
 70
     0
300
1" = 1'-0"
140
1.0
141
12.0
290
     0
  0
SCALE
  5
8A9B
102
{ACAD_REACTORS
330
8A8D
102
}
330
8A8D
100
AcDbScale
 70
     0
300
1-1/2" = 1'-0"
140
1.5
141
12.0
290
     0
  0
SCALE
  5
8A9C
102
{ACAD_REACTORS
330
8A8D
102
}
330
8A8D
100
AcDbScale
 70
     0
300
3" = 1'-0"
140
3.0
141
12.0
290
     0
  0
SCALE
  5
8A9D
102
{ACAD_REACTORS
330
8A8D
102
}
330
8A8D
100
AcDbScale
 70
     0
300
6" = 1'-0"
140
6.0
141
12.0
290
     0
  0
SCALE
  5
8A9E
102
{ACAD_REACTORS
330
8A8D
102
}
330
8A8D
100
AcDbScale
 70
     0
300
1'-0" = 1'-0"
140
12.0
141
12.0
290
     0
  0
ACDBSECTIONVIEWSTYLE
  5
8AA2
102
{ACAD_XDICTIONARY
360
1C465
102
}
102
{ACAD_REACTORS
330
8AA1
102
}
330
8AA1
100
AcDbModelDocViewStyle
 70
     0
  3
Imperial24
290
     0
100
AcDbSectionViewStyle
 70
     0
 71
     0
 90
       78
 71
     1
340
11
 62
   256
 40
0.24
340
0
340
0
 62
   256
 40
0.24
300
I, O, Q, S, X, Z
 40
0.48
 90
        3
 40
0.18
 90
        1
 71
     2
340
15
 90
       25
 62
   256
340
15
 90
       50
 62
   256
 40
0.24
 40
0.0
 40
0.24
 71
     3
340
11
 62
   256
 40
0.24
 90
        1
 40
0.75
 90
        1
300
%<\AcVar ViewType \f "%tc1">% %<\AcVar ViewSectionStartId>%-%<\AcVar ViewSectionEndId>%\PSCALE %<\AcVar ViewScale \f "%sn">%
 71
     4
 62
   256
 62
   257
300
ANSI31
 40
1.0
 90
        0
290
     0
290
     0
 90
        6
 40
0.0
 40
1.570796326794896
 40
0.2617993877991494
 40
1.308996938995747
 40
-0.2617993877991494
 40
1.832595714594044
  0
TABLESTYLE
  5
8A8C
102
{ACAD_XDICTIONARY
360
8AED
102
}
102
{ACAD_REACTORS
330
8A8B
102
}
330
8A8B
100
AcDbTableStyle
280
     0
  3
Standard
 70
     0
 71
     0
 40
0.06
 41
0.06
280
     0
281
     0
  7
STANDARD
140
0.18
170
     2
 62
     0
 63
     7
283
     0
 90
      512
 91
        0
  1

274
    -2
284
     1
 64
     0
275
    -2
285
     1
 65
     0
276
    -2
286
     1
 66
     0
277
    -2
287
     1
 67
     0
278
    -2
288
     1
 68
     0
279
    -2
289
     1
 69
     0
  7
STANDARD
140
0.25
170
     5
 62
     0
 63
     7
283
     0
 90
      512
 91
        0
  1

274
    -2
284
     1
 64
     0
275
    -2
285
     1
 65
     0
276
    -2
286
     1
 66
     0
277
    -2
287
     1
 67
     0
278
    -2
288
     1
 68
     0
279
    -2
289
     1
 69
     0
  7
STANDARD
140
0.18
170
     5
 62
     0
 63
     7
283
     0
 90
      512
 91
        0
  1

274
    -2
284
     1
 64
     0
275
    -2
285
     1
 65
     0
276
    -2
286
     1
 66
     0
277
    -2
287
     1
 67
     0
278
    -2
288
     1
 68
     0
279
    -2
289
     1
 69
     0
  0
VISUALSTYLE
  5
8A77
102
{ACAD_REACTORS
330
8A71
102
}
330
8A71
100
AcDbVisualStyle
  2
2dWireframe
 70
     4
177
     3
291
     0
 70
    58
 90
        0
176
     1
 90
        2
176
     1
 90
        0
176
     1
 90
        0
176
     1
 40
0.6
176
     1
 40
30.0
176
     1
 62
     7
420
 16777215
176
     1
 90
        1
176
     1
 90
        4
176
     1
 62
     7
176
     1
 62
   257
176
     1
 90
        1
176
     1
 90
        1
176
     1
 40
1.0
176
     1
 90
        0
176
     1
 62
   257
176
     1
 40
1.0
176
     1
 90
        1
176
     1
 90
        6
176
     1
 90
        2
176
     1
 62
     7
176
     1
 90
        5
176
     1
 90
        0
176
     1
 90
        0
176
     1
290
     0
176
     1
 90
        1
176
     1
 40
0.0
176
     1
 90
        0
176
     1
290
     1
176
     1
290
     1
176
     1
290
     0
176
     1
290
     0
176
     1
290
     0
176
     1
290
     0
176
     1
290
     0
176
     1
290
     0
176
     1
290
     0
176
     1
 90
       50
176
     1
 40
0.0
176
     1
 40
1.0
176
     1
 90
        0
176
     1
 62
    18
176
     1
 90
       50
176
     1
 90
        3
176
     1
 62
     5
420
      255
176
     1
290
     0
176
     1
 90
       50
176
     1
 90
       50
176
     1
 90
       50
176
     1
290
     0
176
     1
 90
       50
176
     1
 62
   256
176
     0
 40
1.0
176
     0
 90
        2
176
     1
  1
strokes_ogs.tif
176
     1
290
     0
176
     1
 40
1.0
176
     1
 40
1.0
176
     1
  0
VISUALSTYLE
  5
8B2B
102
{ACAD_REACTORS
330
8A71
102
}
330
8A71
100
AcDbVisualStyle
  2
3D Hidden
 70
     6
177
     3
291
     0
 70
    58
 90
        1
176
     1
 90
        2
176
     1
 90
        2
176
     1
 90
        0
176
     1
 40
0.6
176
     1
 40
30.0
176
     1
 62
     7
420
 16777215
176
     1
 90
        2
176
     1
 90
        2
176
     1
 62
     7
176
     1
 62
   257
176
     1
 90
        2
176
     1
 90
        1
176
     1
 40
179.0
176
     1
 90
        0
176
     1
 62
   257
176
     1
 40
1.0
176
     1
 90
        1
176
     1
 90
        6
176
     1
 90
        2
176
     1
 62
     7
176
     1
 90
        3
176
     1
 90
        0
176
     1
 90
        0
176
     1
290
     0
176
     1
 90
        1
176
     1
 40
0.0
176
     1
 90
        0
176
     1
290
     0
176
     1
290
     1
176
     1
290
     1
176
     1
290
     0
176
     1
290
     0
176
     1
290
     0
176
     1
290
     0
176
     1
290
     0
176
     1
290
     0
176
     1
 90
       50
176
     1
 40
0.0
176
     1
 40
1.0
176
     1
 90
        0
176
     1
 62
    18
176
     1
 90
       50
176
     1
 90
        3
176
     1
 62
     5
420
      255
176
     1
290
     0
176
     1
 90
       50
176
     1
 90
       50
176
     1
 90
       50
176
     1
290
     0
176
     1
 90
       50
176
     1
 62
   256
176
     0
 40
1.0
176
     0
 90
        2
176
     1
  1
strokes_ogs.tif
176
     1
290
     0
176
     1
 40
1.0
176
     1
 40
1.0
176
     1
  0
VISUALSTYLE
  5
8B2A
102
{ACAD_REACTORS
330
8A71
102
}
330
8A71
100
AcDbVisualStyle
  2
3dWireframe
 70
     5
177
     3
291
     0
 70
    58
 90
        0
176
     1
 90
        2
176
     1
 90
        0
176
     1
 90
        0
176
     1
 40
0.6
176
     1
 40
30.0
176
     1
 62
     7
420
 16777215
176
     1
 90
        1
176
     1
 90
        4
176
     1
 62
     7
176
     1
 62
   257
176
     1
 90
        1
176
     1
 90
        1
176
     1
 40
1.0
176
     1
 90
        0
176
     1
 62
   257
176
     1
 40
1.0
176
     1
 90
        1
176
     1
 90
        6
176
     1
 90
        2
176
     1
 62
     7
176
     1
 90
        5
176
     1
 90
        0
176
     1
 90
        0
176
     1
290
     0
176
     1
 90
        1
176
     1
 40
0.0
176
     1
 90
        0
176
     1
290
     0
176
     1
290
     1
176
     1
290
     1
176
     1
290
     0
176
     1
290
     0
176
     1
290
     0
176
     1
290
     0
176
     1
290
     0
176
     1
290
     0
176
     1
 90
       50
176
     1
 40
0.0
176
     1
 40
1.0
176
     1
 90
        0
176
     1
 62
    18
176
     1
 90
       50
176
     1
 90
        3
176
     1
 62
     5
420
      255
176
     1
290
     0
176
     1
 90
       50
176
     1
 90
       50
176
     1
 90
       50
176
     1
290
     0
176
     1
 90
       50
176
     1
 62
   256
176
     0
 40
1.0
176
     0
 90
        2
176
     1
  1
strokes_ogs.tif
176
     1
290
     0
176
     1
 40
1.0
176
     1
 40
1.0
176
     1
  0
VISUALSTYLE
  5
8A76
102
{ACAD_REACTORS
330
8A71
102
}
330
8A71
100
AcDbVisualStyle
  2
Basic
 70
     7
177
     3
291
     1
 70
    58
 90
        1
176
     1
 90
        0
176
     1
 90
        1
176
     1
 90
        0
176
     1
 40
0.6
176
     1
 40
30.0
176
     1
 62
     7
420
 16777215
176
     1
 90
        0
176
     1
 90
        4
176
     1
 62
     7
176
     1
 62
   257
176
     1
 90
        1
176
     1
 90
        1
176
     1
 40
1.0
176
     1
 90
        8
176
     1
 62
     7
176
     1
 40
1.0
176
     1
 90
        1
176
     1
 90
        6
176
     1
 90
        2
176
     1
 62
     7
176
     1
 90
        5
176
     1
 90
        0
176
     1
 90
        0
176
     1
290
     0
176
     1
 90
        1
176
     1
 40
0.0
176
     1
 90
        0
176
     1
290
     0
176
     1
290
     1
176
     1
290
     1
176
     1
290
     0
176
     1
290
     0
176
     1
290
     0
176
     1
290
     0
176
     1
290
     0
176
     1
290
     0
176
     1
 90
       50
176
     1
 40
0.0
176
     1
 40
1.0
176
     1
 90
        0
176
     1
 62
    18
176
     1
 90
       50
176
     1
 90
        3
176
     1
 62
     5
420
      255
176
     1
290
     0
176
     1
 90
       50
176
     1
 90
       50
176
     1
 90
       50
176
     1
290
     0
176
     1
 90
       50
176
     1
 62
   256
176
     0
 40
1.0
176
     0
 90
        2
176
     1
  1
strokes_ogs.tif
176
     1
290
     0
176
     1
 40
1.0
176
     1
 40
1.0
176
     1
  0
VISUALSTYLE
  5
8A7D
102
{ACAD_REACTORS
330
8A71
102
}
330
8A71
100
AcDbVisualStyle
  2
Brighten
 70
    12
177
     3
291
     1
 70
    58
 90
        2
176
     1
 90
        2
176
     1
 90
        0
176
     1
 90
        0
176
     1
 40
0.6
176
     1
 40
30.0
176
     1
 62
     7
420
 16777215
176
     1
 90
        1
176
     1
 90
        4
176
     1
 62
     7
176
     1
 62
   257
176
     1
 90
        1
176
     1
 90
        1
176
     1
 40
1.0
176
     1
 90
        8
176
     1
 62
     7
176
     1
 40
1.0
176
     1
 90
        1
176
     1
 90
        6
176
     1
 90
        2
176
     1
 62
     7
176
     1
 90
        5
176
     1
 90
        0
176
     1
 90
        0
176
     1
290
     0
176
     1
 90
        1
176
     1
 40
50.0
176
     1
 90
        0
176
     1
290
     0
176
     1
290
     1
176
     1
290
     1
176
     1
290
     0
176
     1
290
     0
176
     1
290
     0
176
     1
290
     0
176
     1
290
     0
176
     1
290
     0
176
     1
 90
       50
176
     1
 40
0.0
176
     1
 40
1.0
176
     1
 90
        0
176
     1
 62
    18
176
     1
 90
       50
176
     1
 90
        3
176
     1
 62
     5
420
      255
176
     1
290
     0
176
     1
 90
       50
176
     1
 90
       50
176
     1
 90
       50
176
     1
290
     0
176
     1
 90
       50
176
     1
 62
   256
176
     0
 40
1.0
176
     0
 90
        2
176
     1
  1
strokes_ogs.tif
176
     1
290
     0
176
     1
 40
1.0
176
     1
 40
1.0
176
     1
  0
VISUALSTYLE
  5
8A81
102
{ACAD_REACTORS
330
8A71
102
}
330
8A71
100
AcDbVisualStyle
  2
ColorChange
 70
    16
177
     3
291
     1
 70
    58
 90
        2
176
     1
 90
        2
176
     1
 90
        3
176
     1
 90
        0
176
     1
 40
0.6
176
     1
 40
30.0
176
     1
 62
     8
420
  8421504
176
     1
 90
        1
176
     1
 90
        4
176
     1
 62
     7
176
     1
 62
   257
176
     1
 90
        1
176
     1
 90
        1
176
     1
 40
1.0
176
     1
 90
        8
176
     1
 62
     8
420
  8421504
176
     1
 40
1.0
176
     1
 90
        1
176
     1
 90
        6
176
     1
 90
        2
176
     1
 62
     7
176
     1
 90
        5
176
     1
 90
        0
176
     1
 90
        0
176
     1
290
     0
176
     1
 90
        1
176
     1
 40
0.0
176
     1
 90
        0
176
     1
290
     0
176
     1
290
     1
176
     1
290
     1
176
     1
290
     0
176
     1
290
     0
176
     1
290
     0
176
     1
290
     0
176
     1
290
     0
176
     1
290
     0
176
     1
 90
       50
176
     1
 40
0.0
176
     1
 40
1.0
176
     1
 90
        0
176
     1
 62
    18
176
     1
 90
       50
176
     1
 90
        3
176
     1
 62
     5
420
      255
176
     1
290
     0
176
     1
 90
       50
176
     1
 90
       50
176
     1
 90
       50
176
     1
290
     0
176
     1
 90
       50
176
     1
 62
   256
176
     0
 40
1.0
176
     0
 90
        2
176
     1
  1
strokes_ogs.tif
176
     1
290
     0
176
     1
 40
1.0
176
     1
 40
1.0
176
     1
  0
VISUALSTYLE
  5
8A7A
102
{ACAD_REACTORS
330
8A71
102
}
330
8A71
100
AcDbVisualStyle
  2
Conceptual
 70
     9
177
     3
291
     0
 70
    58
 90
        3
176
     1
 90
        2
176
     1
 90
        0
176
     1
 90
        0
176
     1
 40
0.6
176
     1
 40
30.0
176
     1
 62
     7
420
 16777215
176
     1
 90
        2
176
     1
 90
        2
176
     1
 62
     7
176
     1
 62
   257
176
     1
 90
        1
176
     1
 90
        1
176
     1
 40
179.0
176
     1
 90
        8
176
     1
 62
     7
176
     1
 40
1.0
176
     1
 90
        1
176
     1
 90
        6
176
     1
 90
        2
176
     1
 62
     7
176
     1
 90
        3
176
     1
 90
        0
176
     1
 90
        0
176
     1
290
     0
176
     1
 90
        1
176
     1
 40
0.0
176
     1
 90
        0
176
     1
290
     0
176
     1
290
     1
176
     1
290
     1
176
     1
290
     0
176
     1
290
     0
176
     1
290
     0
176
     1
290
     0
176
     1
290
     0
176
     1
290
     0
176
     1
 90
       50
176
     1
 40
0.0
176
     1
 40
1.0
176
     1
 90
        0
176
     1
 62
    18
176
     1
 90
       50
176
     1
 90
        3
176
     1
 62
     5
420
      255
176
     1
290
     0
176
     1
 90
       50
176
     1
 90
       50
176
     1
 90
       50
176
     1
290
     0
176
     1
 90
       50
176
     1
 62
   256
176
     0
 40
1.0
176
     0
 90
        2
176
     1
  1
strokes_ogs.tif
176
     1
290
     0
176
     1
 40
1.0
176
     1
 40
1.0
176
     1
  0
VISUALSTYLE
  5
8A7C
102
{ACAD_REACTORS
330
8A71
102
}
330
8A71
100
AcDbVisualStyle
  2
Dim
 70
    11
177
     3
291
     1
 70
    58
 90
        2
176
     1
 90
        2
176
     1
 90
        0
176
     1
 90
        0
176
     1
 40
0.6
176
     1
 40
30.0
176
     1
 62
     7
420
 16777215
176
     1
 90
        1
176
     1
 90
        4
176
     1
 62
     7
176
     1
 62
   257
176
     1
 90
        1
176
     1
 90
        1
176
     1
 40
1.0
176
     1
 90
        8
176
     1
 62
     7
176
     1
 40
1.0
176
     1
 90
        1
176
     1
 90
        6
176
     1
 90
        2
176
     1
 62
     7
176
     1
 90
        5
176
     1
 90
        0
176
     1
 90
        0
176
     1
290
     0
176
     1
 90
        1
176
     1
 40
-50.0
176
     1
 90
        0
176
     1
290
     0
176
     1
290
     1
176
     1
290
     1
176
     1
290
     0
176
     1
290
     0
176
     1
290
     0
176
     1
290
     0
176
     1
290
     0
176
     1
290
     0
176
     1
 90
       50
176
     1
 40
0.0
176
     1
 40
1.0
176
     1
 90
        0
176
     1
 62
    18
176
     1
 90
       50
176
     1
 90
        3
176
     1
 62
     5
420
      255
176
     1
290
     0
176
     1
 90
       50
176
     1
 90
       50
176
     1
 90
       50
176
     1
290
     0
176
     1
 90
       50
176
     1
 62
   256
176
     0
 40
1.0
176
     0
 90
        2
176
     1
  1
strokes_ogs.tif
176
     1
290
     0
176
     1
 40
1.0
176
     1
 40
1.0
176
     1
  0
VISUALSTYLE
  5
8A89
102
{ACAD_REACTORS
330
8A71
102
}
330
8A71
100
AcDbVisualStyle
  2
EdgeColorOff
 70
    22
177
     3
291
     1
 70
    58
 90
        2
176
     0
 90
        2
176
     0
 90
        0
176
     0
 90
        0
176
     0
 40
0.6
176
     0
 40
30.0
176
     0
 62
     7
420
 16777215
176
     0
 90
        1
176
     0
 90
        4
176
     0
 62
     7
176
     0
 62
   257
176
     0
 90
        1
176
     0
 90
        1
176
     0
 40
1.0
176
     0
 90
        8
176
     2
 62
     7
176
     0
 40
1.0
176
     0
 90
        1
176
     0
 90
        6
176
     0
 90
        2
176
     0
 62
     7
176
     0
 90
        5
176
     0
 90
        0
176
     0
 90
        0
176
     0
290
     0
176
     0
 90
        1
176
     0
 40
0.0
176
     0
 90
        0
176
     0
290
     0
176
     1
290
     1
176
     1
290
     1
176
     1
290
     0
176
     1
290
     0
176
     1
290
     0
176
     1
290
     0
176
     1
290
     0
176
     1
290
     0
176
     1
 90
       50
176
     0
 40
0.0
176
     0
 40
1.0
176
     0
 90
        0
176
     0
 62
    18
176
     0
 90
       50
176
     0
 90
        3
176
     0
 62
     5
420
      255
176
     0
290
     0
176
     1
 90
       50
176
     0
 90
       50
176
     0
 90
       50
176
     0
290
     0
176
     1
 90
       50
176
     0
 62
   256
176
     0
 40
1.0
176
     0
 90
        2
176
     0
  1
strokes_ogs.tif
176
     0
290
     0
176
     1
 40
1.0
176
     0
 40
1.0
176
     0
  0
VISUALSTYLE
  5
8A80
102
{ACAD_REACTORS
330
8A71
102
}
330
8A71
100
AcDbVisualStyle
  2
Facepattern
 70
    15
177
     3
291
     1
 70
    58
 90
        2
176
     1
 90
        2
176
     1
 90
        0
176
     1
 90
        0
176
     1
 40
0.6
176
     1
 40
30.0
176
     1
 62
     7
420
 16777215
176
     1
 90
        1
176
     1
 90
        4
176
     1
 62
     7
176
     1
 62
   257
176
     1
 90
        1
176
     1
 90
        1
176
     1
 40
1.0
176
     1
 90
        8
176
     1
 62
     7
176
     1
 40
1.0
176
     1
 90
        1
176
     1
 90
        6
176
     1
 90
        2
176
     1
 62
     7
176
     1
 90
        5
176
     1
 90
        0
176
     1
 90
        0
176
     1
290
     0
176
     1
 90
        1
176
     1
 40
0.0
176
     1
 90
        0
176
     1
290
     0
176
     1
290
     1
176
     1
290
     1
176
     1
290
     0
176
     1
290
     0
176
     1
290
     0
176
     1
290
     0
176
     1
290
     0
176
     1
290
     0
176
     1
 90
       50
176
     1
 40
0.0
176
     1
 40
1.0
176
     1
 90
        0
176
     1
 62
    18
176
     1
 90
       50
176
     1
 90
        3
176
     1
 62
     5
420
      255
176
     1
290
     0
176
     1
 90
       50
176
     1
 90
       50
176
     1
 90
       50
176
     1
290
     0
176
     1
 90
       50
176
     1
 62
   256
176
     0
 40
1.0
176
     0
 90
        2
176
     1
  1
strokes_ogs.tif
176
     1
290
     0
176
     1
 40
1.0
176
     1
 40
1.0
176
     1
  0
VISUALSTYLE
  5
8A72
102
{ACAD_REACTORS
330
8A71
102
}
330
8A71
100
AcDbVisualStyle
  2
Flat
 70
     0
177
     3
291
     1
 70
    58
 90
        2
176
     1
 90
        1
176
     1
 90
        1
176
     1
 90
        2
176
     1
 40
0.6
176
     1
 40
30.0
176
     1
 62
     7
420
 16777215
176
     1
 90
        0
176
     1
 90
        0
176
     1
 62
     7
176
     1
 62
   257
176
     1
 90
        1
176
     1
 90
        1
176
     1
 40
1.0
176
     1
 90
        8
176
     1
 62
     7
176
     1
 40
1.0
176
     1
 90
        1
176
     1
 90
        6
176
     1
 90
        2
176
     1
 62
     7
176
     1
 90
        5
176
     1
 90
        0
176
     1
 90
        0
176
     1
290
     0
176
     1
 90
       13
176
     1
 40
0.0
176
     1
 90
        0
176
     1
290
     0
176
     1
290
     1
176
     1
290
     1
176
     1
290
     0
176
     1
290
     0
176
     1
290
     0
176
     1
290
     0
176
     1
290
     0
176
     1
290
     0
176
     1
 90
       50
176
     1
 40
0.0
176
     1
 40
1.0
176
     1
 90
        0
176
     1
 62
    18
176
     1
 90
       50
176
     1
 90
        3
176
     1
 62
     5
420
      255
176
     1
290
     0
176
     1
 90
       50
176
     1
 90
       50
176
     1
 90
       50
176
     1
290
     0
176
     1
 90
       50
176
     1
 62
   256
176
     0
 40
1.0
176
     0
 90
        2
176
     1
  1
strokes_ogs.tif
176
     1
290
     0
176
     1
 40
1.0
176
     1
 40
1.0
176
     1
  0
VISUALSTYLE
  5
8A73
102
{ACAD_REACTORS
330
8A71
102
}
330
8A71
100
AcDbVisualStyle
  2
FlatWithEdges
 70
     1
177
     3
291
     1
 70
    58
 90
        2
176
     1
 90
        1
176
     1
 90
        1
176
     1
 90
        2
176
     1
 40
0.6
176
     1
 40
30.0
176
     1
 62
     7
420
 16777215
176
     1
 90
        1
176
     1
 90
        0
176
     1
 62
     7
176
     1
 62
   257
176
     1
 90
        1
176
     1
 90
        1
176
     1
 40
1.0
176
     1
 90
        0
176
     1
 62
   257
176
     1
 40
1.0
176
     1
 90
        1
176
     1
 90
        6
176
     1
 90
        2
176
     1
 62
     7
176
     1
 90
        5
176
     1
 90
        0
176
     1
 90
        0
176
     1
290
     0
176
     1
 90
       13
176
     1
 40
0.0
176
     1
 90
        0
176
     1
290
     0
176
     1
290
     1
176
     1
290
     1
176
     1
290
     0
176
     1
290
     0
176
     1
290
     0
176
     1
290
     0
176
     1
290
     0
176
     1
290
     0
176
     1
 90
       50
176
     1
 40
0.0
176
     1
 40
1.0
176
     1
 90
        0
176
     1
 62
    18
176
     1
 90
       50
176
     1
 90
        3
176
     1
 62
     5
420
      255
176
     1
290
     0
176
     1
 90
       50
176
     1
 90
       50
176
     1
 90
       50
176
     1
290
     0
176
     1
 90
       50
176
     1
 62
   256
176
     0
 40
1.0
176
     0
 90
        2
176
     1
  1
strokes_ogs.tif
176
     1
290
     0
176
     1
 40
1.0
176
     1
 40
1.0
176
     1
  0
VISUALSTYLE
  5
8A74
102
{ACAD_REACTORS
330
8A71
102
}
330
8A71
100
AcDbVisualStyle
  2
Gouraud
 70
     2
177
     3
291
     1
 70
    58
 90
        2
176
     1
 90
        2
176
     1
 90
        1
176
     1
 90
        2
176
     1
 40
0.6
176
     1
 40
30.0
176
     1
 62
     7
420
 16777215
176
     1
 90
        0
176
     1
 90
        0
176
     1
 62
     7
176
     1
 62
   257
176
     1
 90
        1
176
     1
 90
        1
176
     1
 40
1.0
176
     1
 90
        0
176
     1
 62
     7
176
     1
 40
1.0
176
     1
 90
        1
176
     1
 90
        6
176
     1
 90
        2
176
     1
 62
     7
176
     1
 90
        5
176
     1
 90
        0
176
     1
 90
        0
176
     1
290
     0
176
     1
 90
       13
176
     1
 40
0.0
176
     1
 90
        0
176
     1
290
     0
176
     1
290
     1
176
     1
290
     1
176
     1
290
     0
176
     1
290
     0
176
     1
290
     0
176
     1
290
     0
176
     1
290
     0
176
     1
290
     0
176
     1
 90
       50
176
     1
 40
0.0
176
     1
 40
1.0
176
     1
 90
        0
176
     1
 62
    18
176
     1
 90
       50
176
     1
 90
        3
176
     1
 62
     5
420
      255
176
     1
290
     0
176
     1
 90
       50
176
     1
 90
       50
176
     1
 90
       50
176
     1
290
     0
176
     1
 90
       50
176
     1
 62
   256
176
     0
 40
1.0
176
     0
 90
        2
176
     1
  1
strokes_ogs.tif
176
     1
290
     0
176
     1
 40
1.0
176
     1
 40
1.0
176
     1
  0
VISUALSTYLE
  5
8A75
102
{ACAD_REACTORS
330
8A71
102
}
330
8A71
100
AcDbVisualStyle
  2
GouraudWithEdges
 70
     3
177
     3
291
     1
 70
    58
 90
        2
176
     1
 90
        2
176
     1
 90
        1
176
     1
 90
        2
176
     1
 40
0.6
176
     1
 40
30.0
176
     1
 62
     7
420
 16777215
176
     1
 90
        1
176
     1
 90
        0
176
     1
 62
     7
176
     1
 62
   257
176
     1
 90
        1
176
     1
 90
        1
176
     1
 40
1.0
176
     1
 90
        0
176
     1
 62
   257
176
     1
 40
1.0
176
     1
 90
        1
176
     1
 90
        6
176
     1
 90
        2
176
     1
 62
     7
176
     1
 90
        5
176
     1
 90
        0
176
     1
 90
        0
176
     1
290
     0
176
     1
 90
       13
176
     1
 40
0.0
176
     1
 90
        0
176
     1
290
     0
176
     1
290
     1
176
     1
290
     1
176
     1
290
     0
176
     1
290
     0
176
     1
290
     0
176
     1
290
     0
176
     1
290
     0
176
     1
290
     0
176
     1
 90
       50
176
     1
 40
0.0
176
     1
 40
1.0
176
     1
 90
        0
176
     1
 62
    18
176
     1
 90
       50
176
     1
 90
        3
176
     1
 62
     5
420
      255
176
     1
290
     0
176
     1
 90
       50
176
     1
 90
       50
176
     1
 90
       50
176
     1
290
     0
176
     1
 90
       50
176
     1
 62
   256
176
     0
 40
1.0
176
     0
 90
        2
176
     1
  1
strokes_ogs.tif
176
     1
290
     0
176
     1
 40
1.0
176
     1
 40
1.0
176
     1
  0
VISUALSTYLE
  5
8A79
102
{ACAD_REACTORS
330
8A71
102
}
330
8A71
100
AcDbVisualStyle
  2
Hidden
 70
     6
177
     3
291
     0
 70
    58
 90
        1
176
     1
 90
        2
176
     1
 90
        2
176
     1
 90
        0
176
     1
 40
0.6
176
     1
 40
30.0
176
     1
 62
     7
420
 16777215
176
     1
 90
        2
176
     1
 90
        2
176
     1
 62
     7
176
     1
 62
   257
176
     1
 90
        2
176
     1
 90
        1
176
     1
 40
40.0
176
     1
 90
        0
176
     1
 62
   257
176
     1
 40
1.0
176
     1
 90
        1
176
     1
 90
        6
176
     1
 90
        2
176
     1
 62
     7
176
     1
 90
        3
176
     1
 90
        0
176
     1
 90
        0
176
     1
290
     0
176
     1
 90
        1
176
     1
 40
0.0
176
     1
 90
        0
176
     1
290
     0
176
     1
290
     1
176
     1
290
     1
176
     1
290
     0
176
     1
290
     0
176
     1
290
     0
176
     1
290
     0
176
     1
290
     0
176
     1
290
     0
176
     1
 90
       50
176
     1
 40
0.0
176
     1
 40
1.0
176
     1
 90
        0
176
     1
 62
    18
176
     1
 90
       50
176
     1
 90
        3
176
     1
 62
     5
420
      255
176
     1
290
     0
176
     1
 90
       50
176
     1
 90
       50
176
     1
 90
       50
176
     1
290
     0
176
     1
 90
       50
176
     1
 62
   256
176
     0
 40
1.0
176
     0
 90
        2
176
     1
  1
strokes_ogs.tif
176
     1
290
     0
176
     1
 40
1.0
176
     1
 40
1.0
176
     1
  0
VISUALSTYLE
  5
8A87
102
{ACAD_REACTORS
330
8A71
102
}
330
8A71
100
AcDbVisualStyle
  2
JitterOff
 70
    20
177
     3
291
     1
 70
    58
 90
        2
176
     0
 90
        2
176
     0
 90
        0
176
     0
 90
        0
176
     0
 40
0.6
176
     0
 40
30.0
176
     0
 62
     7
420
 16777215
176
     0
 90
        1
176
     0
 90
        4
176
     0
 62
     7
176
     0
 62
   257
176
     0
 90
        1
176
     0
 90
        1
176
     0
 40
1.0
176
     0
 90
       10
176
     2
 62
     7
176
     0
 40
1.0
176
     0
 90
        1
176
     0
 90
        6
176
     0
 90
        2
176
     0
 62
     7
176
     0
 90
        5
176
     0
 90
        0
176
     0
 90
        0
176
     0
290
     0
176
     0
 90
        1
176
     0
 40
0.0
176
     0
 90
        0
176
     0
290
     0
176
     1
290
     1
176
     1
290
     1
176
     1
290
     0
176
     1
290
     0
176
     1
290
     0
176
     1
290
     0
176
     1
290
     0
176
     1
290
     0
176
     1
 90
       50
176
     0
 40
0.0
176
     0
 40
1.0
176
     0
 90
        0
176
     0
 62
    18
176
     0
 90
       50
176
     0
 90
        3
176
     0
 62
     5
420
      255
176
     0
290
     0
176
     1
 90
       50
176
     0
 90
       50
176
     0
 90
       50
176
     0
290
     0
176
     1
 90
       50
176
     0
 62
   256
176
     0
 40
1.0
176
     0
 90
        2
176
     0
  1
strokes_ogs.tif
176
     0
290
     0
176
     1
 40
1.0
176
     0
 40
1.0
176
     0
  0
VISUALSTYLE
  5
8A7F
102
{ACAD_REACTORS
330
8A71
102
}
330
8A71
100
AcDbVisualStyle
  2
Linepattern
 70
    14
177
     3
291
     1
 70
    58
 90
        2
176
     1
 90
        2
176
     1
 90
        0
176
     1
 90
        0
176
     1
 40
0.6
176
     1
 40
30.0
176
     1
 62
     7
420
 16777215
176
     1
 90
        1
176
     1
 90
        4
176
     1
 62
     7
176
     1
 62
   257
176
     1
 90
        7
176
     1
 90
        7
176
     1
 40
1.0
176
     1
 90
        8
176
     1
 62
     7
176
     1
 40
1.0
176
     1
 90
        1
176
     1
 90
        6
176
     1
 90
        2
176
     1
 62
     7
176
     1
 90
        5
176
     1
 90
        0
176
     1
 90
        0
176
     1
290
     0
176
     1
 90
        1
176
     1
 40
0.0
176
     1
 90
        0
176
     1
290
     0
176
     1
290
     1
176
     1
290
     1
176
     1
290
     0
176
     1
290
     0
176
     1
290
     0
176
     1
290
     0
176
     1
290
     0
176
     1
290
     0
176
     1
 90
       50
176
     1
 40
0.0
176
     1
 40
1.0
176
     1
 90
        0
176
     1
 62
    18
176
     1
 90
       50
176
     1
 90
        3
176
     1
 62
     5
420
      255
176
     1
290
     0
176
     1
 90
       50
176
     1
 90
       50
176
     1
 90
       50
176
     1
290
     0
176
     1
 90
       50
176
     1
 62
   256
176
     0
 40
1.0
176
     0
 90
        2
176
     1
  1
strokes_ogs.tif
176
     1
290
     0
176
     1
 40
1.0
176
     1
 40
1.0
176
     1
  0
VISUALSTYLE
  5
8A88
102
{ACAD_REACTORS
330
8A71
102
}
330
8A71
100
AcDbVisualStyle
  2
OverhangOff
 70
    21
177
     3
291
     1
 70
    58
 90
        2
176
     0
 90
        2
176
     0
 90
        0
176
     0
 90
        0
176
     0
 40
0.6
176
     0
 40
30.0
176
     0
 62
     7
420
 16777215
176
     0
 90
        1
176
     0
 90
        4
176
     0
 62
     7
176
     0
 62
   257
176
     0
 90
        1
176
     0
 90
        1
176
     0
 40
1.0
176
     0
 90
        9
176
     2
 62
     7
176
     0
 40
1.0
176
     0
 90
        1
176
     0
 90
        6
176
     0
 90
        2
176
     0
 62
     7
176
     0
 90
        5
176
     0
 90
        0
176
     0
 90
        0
176
     0
290
     0
176
     0
 90
        1
176
     0
 40
0.0
176
     0
 90
        0
176
     0
290
     0
176
     1
290
     1
176
     1
290
     1
176
     1
290
     0
176
     1
290
     0
176
     1
290
     0
176
     1
290
     0
176
     1
290
     0
176
     1
290
     0
176
     1
 90
       50
176
     0
 40
0.0
176
     0
 40
1.0
176
     0
 90
        0
176
     0
 62
    18
176
     0
 90
       50
176
     0
 90
        3
176
     0
 62
     5
420
      255
176
     0
290
     0
176
     1
 90
       50
176
     0
 90
       50
176
     0
 90
       50
176
     0
290
     0
176
     1
 90
       50
176
     0
 62
   256
176
     0
 40
1.0
176
     0
 90
        2
176
     0
  1
strokes_ogs.tif
176
     0
290
     0
176
     1
 40
1.0
176
     0
 40
1.0
176
     0
  0
VISUALSTYLE
  5
8A7B
102
{ACAD_REACTORS
330
8A71
102
}
330
8A71
100
AcDbVisualStyle
  2
Realistic
 70
     8
177
     3
291
     0
 70
    58
 90
        2
176
     1
 90
        3
176
     1
 90
        0
176
     1
 90
        2
176
     1
 40
0.6
176
     1
 40
30.0
176
     1
 62
     7
420
 16777215
176
     1
 90
        0
176
     1
 90
        0
176
     1
 62
     7
176
     1
 62
   257
176
     1
 90
        1
176
     1
 90
        1
176
     1
 40
1.0
176
     1
 90
        8
176
     1
 62
   257
176
     1
 40
1.0
176
     1
 90
        1
176
     1
 90
        6
176
     1
 90
        2
176
     1
 62
     7
176
     1
 90
        3
176
     1
 90
        0
176
     1
 90
        0
176
     1
290
     0
176
     1
 90
       13
176
     1
 40
0.0
176
     1
 90
        0
176
     1
290
     0
176
     1
290
     1
176
     1
290
     1
176
     1
290
     0
176
     1
290
     0
176
     1
290
     0
176
     1
290
     0
176
     1
290
     0
176
     1
290
     0
176
     1
 90
       50
176
     1
 40
0.0
176
     1
 40
1.0
176
     1
 90
        0
176
     1
 62
    18
176
     1
 90
       50
176
     1
 90
        3
176
     1
 62
     5
420
      255
176
     1
290
     0
176
     1
 90
       50
176
     1
 90
       50
176
     1
 90
       50
176
     1
290
     0
176
     1
 90
       50
176
     1
 62
   256
176
     0
 40
1.0
176
     0
 90
        2
176
     1
  1
strokes_ogs.tif
176
     1
290
     0
176
     1
 40
1.0
176
     1
 40
1.0
176
     1
  0
VISUALSTYLE
  5
8A86
102
{ACAD_REACTORS
330
8A71
102
}
330
8A71
100
AcDbVisualStyle
  2
Shaded
 70
    27
177
     3
291
     0
 70
    58
 90
        2
176
     1
 90
        2
176
     1
 90
        1
176
     1
 90
        2
176
     1
 40
0.6
176
     1
 40
30.0
176
     1
 62
     7
420
 16777215
176
     1
 90
        0
176
     1
 90
        4
176
     1
 62
     7
176
     1
 62
   257
176
     1
 90
        1
176
     1
 90
        1
176
     1
 40
1.0
176
     1
 90
        8
176
     1
 62
   257
176
     1
 40
1.0
176
     1
 90
        1
176
     1
 90
        6
176
     1
 90
        2
176
     1
 62
     8
420
  7895160
176
     1
 90
        3
176
     1
 90
        0
176
     1
 90
        0
176
     1
290
     0
176
     1
 90
        5
176
     1
 40
0.0
176
     1
 90
        0
176
     1
290
     0
176
     1
290
     1
176
     1
290
     1
176
     1
290
     0
176
     1
290
     0
176
     1
290
     0
176
     1
290
     0
176
     1
290
     0
176
     1
290
     0
176
     1
 90
       50
176
     1
 40
0.0
176
     1
 40
1.0
176
     1
 90
        0
176
     1
 62
    18
176
     1
 90
       50
176
     1
 90
        3
176
     1
 62
     5
420
      255
176
     1
290
     0
176
     1
 90
       50
176
     1
 90
       50
176
     1
 90
       50
176
     1
290
     0
176
     1
 90
       50
176
     1
 62
   256
176
     0
 40
1.0
176
     0
 90
        2
176
     1
  1
strokes_ogs.tif
176
     1
290
     0
176
     1
 40
1.0
176
     1
 40
1.0
176
     1
  0
VISUALSTYLE
  5
8A85
102
{ACAD_REACTORS
330
8A71
102
}
330
8A71
100
AcDbVisualStyle
  2
Shaded with edges
 70
    26
177
     3
291
     0
 70
    58
 90
        2
176
     1
 90
        2
176
     1
 90
        1
176
     1
 90
        2
176
     1
 40
0.6
176
     1
 40
30.0
176
     1
 62
     7
420
 16777215
176
     1
 90
        1
176
     1
 90
       10
176
     1
 62
     7
176
     1
 62
   257
176
     1
 90
        2
176
     1
 90
        1
176
     1
 40
1.0
176
     1
 90
        8
176
     1
 62
   257
176
     1
 40
1.0
176
     1
 90
        1
176
     1
 90
        6
176
     1
 90
        2
176
     1
 62
     7
176
     1
 90
        3
176
     1
 90
        0
176
     1
 90
        0
176
     1
290
     0
176
     1
 90
        5
176
     1
 40
0.0
176
     1
 90
        0
176
     1
290
     0
176
     1
290
     1
176
     1
290
     1
176
     1
290
     0
176
     1
290
     0
176
     1
290
     0
176
     1
290
     0
176
     1
290
     0
176
     1
290
     0
176
     1
 90
       50
176
     1
 40
0.0
176
     1
 40
1.0
176
     1
 90
        0
176
     1
 62
    18
176
     1
 90
       50
176
     1
 90
        3
176
     1
 62
     5
420
      255
176
     1
290
     0
176
     1
 90
       50
176
     1
 90
       50
176
     1
 90
       50
176
     1
290
     0
176
     1
 90
       50
176
     1
 62
   256
176
     0
 40
1.0
176
     0
 90
        2
176
     1
  1
strokes_ogs.tif
176
     1
290
     0
176
     1
 40
1.0
176
     1
 40
1.0
176
     1
  0
VISUALSTYLE
  5
8A82
102
{ACAD_REACTORS
330
8A71
102
}
330
8A71
100
AcDbVisualStyle
  2
Shades of Gray
 70
    23
177
     3
291
     0
 70
    58
 90
        2
176
     1
 90
        2
176
     1
 90
        3
176
     1
 90
        0
176
     1
 40
0.6
176
     1
 40
30.0
176
     1
 62
     7
420
 16777215
176
     1
 90
        2
176
     1
 90
        2
176
     1
 62
     7
176
     1
 62
     7
176
     1
 90
        1
176
     1
 90
        1
176
     1
 40
40.0
176
     1
 90
        8
176
     1
 62
     7
176
     1
 40
1.0
176
     1
 90
        1
176
     1
 90
        6
176
     1
 90
        2
176
     1
 62
     7
176
     1
 90
        3
176
     1
 90
        0
176
     1
 90
        0
176
     1
290
     0
176
     1
 90
        1
176
     1
 40
0.0
176
     1
 90
        0
176
     1
290
     0
176
     1
290
     1
176
     1
290
     1
176
     1
290
     0
176
     1
290
     0
176
     1
290
     0
176
     1
290
     0
176
     1
290
     0
176
     1
290
     0
176
     1
 90
       50
176
     1
 40
0.0
176
     1
 40
1.0
176
     1
 90
        0
176
     1
 62
    18
176
     1
 90
       50
176
     1
 90
        3
176
     1
 62
     5
420
      255
176
     1
290
     0
176
     1
 90
       50
176
     1
 90
       50
176
     1
 90
       50
176
     1
290
     0
176
     1
 90
       50
176
     1
 62
   256
176
     0
 40
1.0
176
     0
 90
        2
176
     1
  1
strokes_ogs.tif
176
     1
290
     0
176
     1
 40
1.0
176
     1
 40
1.0
176
     1
  0
VISUALSTYLE
  5
8A83
102
{ACAD_REACTORS
330
8A71
102
}
330
8A71
100
AcDbVisualStyle
  2
Sketchy
 70
    24
177
     3
291
     0
 70
    58
 90
        1
176
     1
 90
        2
176
     1
 90
        2
176
     1
 90
        0
176
     1
 40
0.6
176
     1
 40
30.0
176
     1
 62
     7
420
 16777215
176
     1
 90
        2
176
     1
 90
        2
176
     1
 62
     7
176
     1
 62
     7
176
     1
 90
        1
176
     1
 90
        1
176
     1
 40
40.0
176
     1
 90
       11
176
     1
 62
     7
176
     1
 40
1.0
176
     1
 90
        1
176
     1
 90
        6
176
     1
 90
        2
176
     1
 62
     7
176
     1
 90
        6
176
     1
 90
        0
176
     1
 90
        0
176
     1
290
     0
176
     1
 90
        1
176
     1
 40
0.0
176
     1
 90
        0
176
     1
290
     0
176
     1
290
     1
176
     1
290
     1
176
     1
290
     0
176
     1
290
     0
176
     1
290
     0
176
     1
290
     0
176
     1
290
     0
176
     1
290
     0
176
     1
 90
       50
176
     1
 40
0.0
176
     1
 40
1.0
176
     1
 90
        0
176
     1
 62
    18
176
     1
 90
       50
176
     1
 90
        3
176
     1
 62
     5
420
      255
176
     1
290
     0
176
     1
 90
       50
176
     1
 90
       50
176
     1
 90
       50
176
     1
290
     0
176
     1
 90
       50
176
     1
 62
   256
176
     0
 40
1.0
176
     0
 90
        2
176
     1
  1
strokes_ogs.tif
176
     1
290
     0
176
     1
 40
1.0
176
     1
 40
1.0
176
     1
  0
VISUALSTYLE
  5
8A7E
102
{ACAD_REACTORS
330
8A71
102
}
330
8A71
100
AcDbVisualStyle
  2
Thicken
 70
    13
177
     3
291
     1
 70
    58
 90
        2
176
     1
 90
        2
176
     1
 90
        0
176
     1
 90
        0
176
     1
 40
0.6
176
     1
 40
30.0
176
     1
 62
     7
420
 16777215
176
     1
 90
        1
176
     1
 90
        4
176
     1
 62
     7
176
     1
 62
   257
176
     1
 90
        1
176
     1
 90
        1
176
     1
 40
1.0
176
     1
 90
       12
176
     1
 62
     7
176
     1
 40
1.0
176
     1
 90
        1
176
     1
 90
        6
176
     1
 90
        2
176
     1
 62
     7
176
     1
 90
        5
176
     1
 90
        0
176
     1
 90
        0
176
     1
290
     0
176
     1
 90
        1
176
     1
 40
0.0
176
     1
 90
        0
176
     1
290
     0
176
     1
290
     1
176
     1
290
     1
176
     1
290
     0
176
     1
290
     0
176
     1
290
     0
176
     1
290
     0
176
     1
290
     0
176
     1
290
     0
176
     1
 90
       50
176
     1
 40
0.0
176
     1
 40
1.0
176
     1
 90
        0
176
     1
 62
    18
176
     1
 90
       50
176
     1
 90
        3
176
     1
 62
     5
420
      255
176
     1
290
     0
176
     1
 90
       50
176
     1
 90
       50
176
     1
 90
       50
176
     1
290
     0
176
     1
 90
       50
176
     1
 62
   256
176
     0
 40
1.0
176
     0
 90
        2
176
     1
  1
strokes_ogs.tif
176
     1
290
     0
176
     1
 40
1.0
176
     1
 40
1.0
176
     1
  0
VISUALSTYLE
  5
8A78
102
{ACAD_REACTORS
330
8A71
102
}
330
8A71
100
AcDbVisualStyle
  2
Wireframe
 70
     5
177
     3
291
     0
 70
    58
 90
        0
176
     1
 90
        2
176
     1
 90
        0
176
     1
 90
        0
176
     1
 40
0.6
176
     1
 40
30.0
176
     1
 62
     7
420
 16777215
176
     1
 90
        1
176
     1
 90
        4
176
     1
 62
     7
176
     1
 62
   257
176
     1
 90
        1
176
     1
 90
        1
176
     1
 40
1.0
176
     1
 90
        0
176
     1
 62
   257
176
     1
 40
1.0
176
     1
 90
        1
176
     1
 90
        6
176
     1
 90
        2
176
     1
 62
     7
176
     1
 90
        3
176
     1
 90
        0
176
     1
 90
        0
176
     1
290
     0
176
     1
 90
        1
176
     1
 40
0.0
176
     1
 90
        0
176
     1
290
     0
176
     1
290
     1
176
     1
290
     1
176
     1
290
     0
176
     1
290
     0
176
     1
290
     0
176
     1
290
     0
176
     1
290
     0
176
     1
290
     0
176
     1
 90
       50
176
     1
 40
0.0
176
     1
 40
1.0
176
     1
 90
        0
176
     1
 62
    18
176
     1
 90
       50
176
     1
 90
        3
176
     1
 62
     5
420
      255
176
     1
290
     0
176
     1
 90
       50
176
     1
 90
       50
176
     1
 90
       50
176
     1
290
     0
176
     1
 90
       50
176
     1
 62
   256
176
     0
 40
1.0
176
     0
 90
        2
176
     1
  1
strokes_ogs.tif
176
     1
290
     0
176
     1
 40
1.0
176
     1
 40
1.0
176
     1
  0
VISUALSTYLE
  5
8A84
102
{ACAD_REACTORS
330
8A71
102
}
330
8A71
100
AcDbVisualStyle
  2
X-Ray
 70
    25
177
     3
291
     0
 70
    58
 90
        2
176
     1
 90
        2
176
     1
 90
        1
176
     1
 90
        1
176
     1
 40
0.5
176
     1
 40
30.0
176
     1
 62
     7
420
 16777215
176
     1
 90
        1
176
     1
 90
        0
176
     1
 62
     7
176
     1
 62
   257
176
     1
 90
        1
176
     1
 90
        1
176
     1
 40
1.0
176
     1
 90
        8
176
     1
 62
     7
176
     1
 40
1.0
176
     1
 90
        1
176
     1
 90
        6
176
     1
 90
        2
176
     1
 62
     7
176
     1
 90
        3
176
     1
 90
        0
176
     1
 90
        0
176
     1
290
     0
176
     1
 90
       13
176
     1
 40
0.0
176
     1
 90
        0
176
     1
290
     0
176
     1
290
     1
176
     1
290
     1
176
     1
290
     0
176
     1
290
     0
176
     1
290
     0
176
     1
290
     0
176
     1
290
     0
176
     1
290
     0
176
     1
 90
       50
176
     1
 40
0.0
176
     1
 40
1.0
176
     1
 90
        0
176
     1
 62
    18
176
     1
 90
       50
176
     1
 90
        3
176
     1
 62
     5
420
      255
176
     1
290
     0
176
     1
 90
       50
176
     1
 90
       50
176
     1
 90
       50
176
     1
290
     0
176
     1
 90
       50
176
     1
 62
   256
176
     0
 40
1.0
176
     0
 90
        2
176
     1
  1
strokes_ogs.tif
176
     1
290
     0
176
     1
 40
1.0
176
     1
 40
1.0
176
     1
  0
DICTIONARYVAR
  5
8AE9
102
{ACAD_REACTORS
330
5697
102
}
330
5697
100
DictionaryVariables
280
     0
  1
1:1
  0
DICTIONARYVAR
  5
8AE5
102
{ACAD_REACTORS
330
5697
102
}
330
5697
100
DictionaryVariables
280
     0
  1
STANDARD
  0
DICTIONARYVAR
  5
8AE4
102
{ACAD_REACTORS
330
5697
102
}
330
5697
100
DictionaryVariables
280
     0
  1
STANDARD
  0
DICTIONARYVAR
  5
8AE6
102
{ACAD_REACTORS
330
5697
102
}
330
5697
100
DictionaryVariables
280
     0
  1
Imperial24
  0
DICTIONARYVAR
  5
8AE7
102
{ACAD_REACTORS
330
5697
102
}
330
5697
100
DictionaryVariables
280
     0
  1
Imperial24
  0
DICTIONARYVAR
  5
5698
102
{ACAD_REACTORS
330
5697
102
}
330
5697
100
DictionaryVariables
280
     0
  1
1
  0
DICTIONARYVAR
  5
8AEB
102
{ACAD_REACTORS
330
5697
102
}
330
5697
100
DictionaryVariables
280
     0
  1
1
  0
DICTIONARYVAR
  5
8AEC
102
{ACAD_REACTORS
330
5697
102
}
330
5697
100
DictionaryVariables
280
     0
  1
15
  0
DICTIONARYVAR
  5
8AEA
102
{ACAD_REACTORS
330
5697
102
}
330
5697
100
DictionaryVariables
280
     0
  1
0
  0
DICTIONARYVAR
  5
8AE8
102
{ACAD_REACTORS
330
5697
102
}
330
5697
100
DictionaryVariables
280
     0
  1
0
  0
DICTIONARY
  5
1C467
330
8AA4
100
AcDbDictionary
280
     1
281
     1
  3
ACAD_XREC_ROUNDTRIP
360
1C498
  0
DICTIONARY
  5
F3D2
330
8A4C
100
AcDbDictionary
280
     1
281
     1
  0
DICTIONARY
  5
8A62
330
8A61
100
AcDbDictionary
280
     1
281
     1
  3
BUMPTILE
360
8A64
  3
DIFFUSETILE
360
8A63
  3
OPACITYTILE
360
8A67
  3
REFLECTIONTILE
360
8A66
  3
REFRACTIONTILE
360
8A68
  3
SPECULARTILE
360
8A65
  0
DICTIONARY
  5
8A5A
330
8A59
100
AcDbDictionary
280
     1
281
     1
  3
BUMPTILE
360
8A5C
  3
DIFFUSETILE
360
8A5B
  3
OPACITYTILE
360
8A5F
  3
REFLECTIONTILE
360
8A5E
  3
REFRACTIONTILE
360
8A60
  3
SPECULARTILE
360
8A5D
  0
DICTIONARY
  5
8A6A
330
8A69
100
AcDbDictionary
280
     1
281
     1
  3
BUMPTILE
360
8A6C
  3
DIFFUSETILE
360
8A6B
  3
OPACITYTILE
360
8A6F
  3
REFLECTIONTILE
360
8A6E
  3
REFRACTIONTILE
360
8A70
  3
SPECULARTILE
360
8A6D
  0
DICTIONARY
  5
1C465
330
8AA2
100
AcDbDictionary
280
     1
281
     1
  3
ACAD_XREC_ROUNDTRIP
360
1C497
  0
DICTIONARY
  5
8AED
330
8A8C
100
AcDbDictionary
280
     1
281
     1
  3
ACAD_ROUNDTRIP_2008_TABLESTYLE_CELLSTYLEMAP
360
1C496
  0
XRECORD
  5
1C498
102
{ACAD_REACTORS
330
1C467
102
}
330
1C467
100
AcDbXrecord
280
     1
102
DISPLAYNAME
  1
Imperial24
102
FLAGS
 90
        0
  0
XRECORD
  5
8A64
102
{ACAD_REACTORS
330
8A62
102
}
330
8A62
100
AcDbXrecord
280
     1
270
     1
271
     1
  0
XRECORD
  5
8A63
102
{ACAD_REACTORS
330
8A62
102
}
330
8A62
100
AcDbXrecord
280
     1
270
     1
271
     1
  0
XRECORD
  5
8A67
102
{ACAD_REACTORS
330
8A62
102
}
330
8A62
100
AcDbXrecord
280
     1
270
     1
271
     1
  0
XRECORD
  5
8A66
102
{ACAD_REACTORS
330
8A62
102
}
330
8A62
100
AcDbXrecord
280
     1
270
     1
271
     1
  0
XRECORD
  5
8A68
102
{ACAD_REACTORS
330
8A62
102
}
330
8A62
100
AcDbXrecord
280
     1
270
     1
271
     1
  0
XRECORD
  5
8A65
102
{ACAD_REACTORS
330
8A62
102
}
330
8A62
100
AcDbXrecord
280
     1
270
     1
271
     1
  0
XRECORD
  5
8A5C
102
{ACAD_REACTORS
330
8A5A
102
}
330
8A5A
100
AcDbXrecord
280
     1
270
     1
271
     1
  0
XRECORD
  5
8A5B
102
{ACAD_REACTORS
330
8A5A
102
}
330
8A5A
100
AcDbXrecord
280
     1
270
     1
271
     1
  0
XRECORD
  5
8A5F
102
{ACAD_REACTORS
330
8A5A
102
}
330
8A5A
100
AcDbXrecord
280
     1
270
     1
271
     1
  0
XRECORD
  5
8A5E
102
{ACAD_REACTORS
330
8A5A
102
}
330
8A5A
100
AcDbXrecord
280
     1
270
     1
271
     1
  0
XRECORD
  5
8A60
102
{ACAD_REACTORS
330
8A5A
102
}
330
8A5A
100
AcDbXrecord
280
     1
270
     1
271
     1
  0
XRECORD
  5
8A5D
102
{ACAD_REACTORS
330
8A5A
102
}
330
8A5A
100
AcDbXrecord
280
     1
270
     1
271
     1
  0
XRECORD
  5
8A6C
102
{ACAD_REACTORS
330
8A6A
102
}
330
8A6A
100
AcDbXrecord
280
     1
270
     1
271
     1
  0
XRECORD
  5
8A6B
102
{ACAD_REACTORS
330
8A6A
102
}
330
8A6A
100
AcDbXrecord
280
     1
270
     1
271
     1
  0
XRECORD
  5
8A6F
102
{ACAD_REACTORS
330
8A6A
102
}
330
8A6A
100
AcDbXrecord
280
     1
270
     1
271
     1
  0
XRECORD
  5
8A6E
102
{ACAD_REACTORS
330
8A6A
102
}
330
8A6A
100
AcDbXrecord
280
     1
270
     1
271
     1
  0
XRECORD
  5
8A70
102
{ACAD_REACTORS
330
8A6A
102
}
330
8A6A
100
AcDbXrecord
280
     1
270
     1
271
     1
  0
XRECORD
  5
8A6D
102
{ACAD_REACTORS
330
8A6A
102
}
330
8A6A
100
AcDbXrecord
280
     1
270
     1
271
     1
  0
XRECORD
  5
1C497
102
{ACAD_REACTORS
330
1C465
102
}
330
1C465
100
AcDbXrecord
280
     1
102
DISPLAYNAME
  1
Imperial24
102
FLAGS
 90
        0
  0
CELLSTYLEMAP
  5
1C496
102
{ACAD_REACTORS
330
8AED
102
}
330
8AED
100
AcDbCellStyleMap
 90
        3
300
CELLSTYLE
  1
TABLEFORMAT_BEGIN
 90
        5
170
     1
 91
        0
 92
    32768
 62
   257
 93
        1
300
CONTENTFORMAT
  1
CONTENTFORMAT_BEGIN
 90
        0
 91
        0
 92
      512
 93
        0
300

 40
0.0
140
1.0
 94
        5
 62
     0
340
11
144
0.25
309
CONTENTFORMAT_END
171
     1
301
MARGIN
  1
CELLMARGIN_BEGIN
 40
0.06
 40
0.06
 40
0.06
 40
0.06
 40
0.18
 40
0.18
309
CELLMARGIN_END
 94
        6
 95
        1
302
GRIDFORMAT
  1
GRIDFORMAT_BEGIN
 90
        0
 91
        1
 62
     0
 92
       -2
340
0
 93
        0
 40
0.045
309
GRIDFORMAT_END
 95
        2
302
GRIDFORMAT
  1
GRIDFORMAT_BEGIN
 90
        0
 91
        1
 62
     0
 92
       -2
340
0
 93
        0
 40
0.045
309
GRIDFORMAT_END
 95
        4
302
GRIDFORMAT
  1
GRIDFORMAT_BEGIN
 90
        0
 91
        1
 62
     0
 92
       -2
340
0
 93
        0
 40
0.045
309
GRIDFORMAT_END
 95
        8
302
GRIDFORMAT
  1
GRIDFORMAT_BEGIN
 90
        0
 91
        1
 62
     0
 92
       -2
340
0
 93
        0
 40
0.045
309
GRIDFORMAT_END
 95
       16
302
GRIDFORMAT
  1
GRIDFORMAT_BEGIN
 90
        0
 91
        1
 62
     0
 92
       -2
340
0
 93
        0
 40
0.045
309
GRIDFORMAT_END
 95
       32
302
GRIDFORMAT
  1
GRIDFORMAT_BEGIN
 90
        0
 91
        1
 62
     0
 92
       -2
340
0
 93
        0
 40
0.045
309
GRIDFORMAT_END
309
TABLEFORMAT_END
  1
CELLSTYLE_BEGIN
 90
        1
 91
        1
300
_TITLE
309
CELLSTYLE_END
300
CELLSTYLE
  1
TABLEFORMAT_BEGIN
 90
        5
170
     1
 91
        0
 92
        0
 62
   257
 93
        1
300
CONTENTFORMAT
  1
CONTENTFORMAT_BEGIN
 90
        0
 91
        0
 92
      512
 93
        0
300

 40
0.0
140
1.0
 94
        5
 62
     0
340
11
144
0.18
309
CONTENTFORMAT_END
171
     1
301
MARGIN
  1
CELLMARGIN_BEGIN
 40
0.06
 40
0.06
 40
0.06
 40
0.06
 40
0.18
 40
0.18
309
CELLMARGIN_END
 94
        6
 95
        1
302
GRIDFORMAT
  1
GRIDFORMAT_BEGIN
 90
        0
 91
        1
 62
     0
 92
       -2
340
0
 93
        0
 40
0.045
309
GRIDFORMAT_END
 95
        2
302
GRIDFORMAT
  1
GRIDFORMAT_BEGIN
 90
        0
 91
        1
 62
     0
 92
       -2
340
0
 93
        0
 40
0.045
309
GRIDFORMAT_END
 95
        4
302
GRIDFORMAT
  1
GRIDFORMAT_BEGIN
 90
        0
 91
        1
 62
     0
 92
       -2
340
0
 93
        0
 40
0.045
309
GRIDFORMAT_END
 95
        8
302
GRIDFORMAT
  1
GRIDFORMAT_BEGIN
 90
        0
 91
        1
 62
     0
 92
       -2
340
0
 93
        0
 40
0.045
309
GRIDFORMAT_END
 95
       16
302
GRIDFORMAT
  1
GRIDFORMAT_BEGIN
 90
        0
 91
        1
 62
     0
 92
       -2
340
0
 93
        0
 40
0.045
309
GRIDFORMAT_END
 95
       32
302
GRIDFORMAT
  1
GRIDFORMAT_BEGIN
 90
        0
 91
        1
 62
     0
 92
       -2
340
0
 93
        0
 40
0.045
309
GRIDFORMAT_END
309
TABLEFORMAT_END
  1
CELLSTYLE_BEGIN
 90
        2
 91
        1
300
_HEADER
309
CELLSTYLE_END
300
CELLSTYLE
  1
TABLEFORMAT_BEGIN
 90
        5
170
     1
 91
        0
 92
        0
 62
   257
 93
        1
300
CONTENTFORMAT
  1
CONTENTFORMAT_BEGIN
 90
        0
 91
        0
 92
      512
 93
        0
300

 40
0.0
140
1.0
 94
        2
 62
     0
340
11
144
0.18
309
CONTENTFORMAT_END
171
     1
301
MARGIN
  1
CELLMARGIN_BEGIN
 40
0.06
 40
0.06
 40
0.06
 40
0.06
 40
0.18
 40
0.18
309
CELLMARGIN_END
 94
        6
 95
        1
302
GRIDFORMAT
  1
GRIDFORMAT_BEGIN
 90
        0
 91
        1
 62
     0
 92
       -2
340
0
 93
        0
 40
0.045
309
GRIDFORMAT_END
 95
        2
302
GRIDFORMAT
  1
GRIDFORMAT_BEGIN
 90
        0
 91
        1
 62
     0
 92
       -2
340
0
 93
        0
 40
0.045
309
GRIDFORMAT_END
 95
        4
302
GRIDFORMAT
  1
GRIDFORMAT_BEGIN
 90
        0
 91
        1
 62
     0
 92
       -2
340
0
 93
        0
 40
0.045
309
GRIDFORMAT_END
 95
        8
302
GRIDFORMAT
  1
GRIDFORMAT_BEGIN
 90
        0
 91
        1
 62
     0
 92
       -2
340
0
 93
        0
 40
0.045
309
GRIDFORMAT_END
 95
       16
302
GRIDFORMAT
  1
GRIDFORMAT_BEGIN
 90
        0
 91
        1
 62
     0
 92
       -2
340
0
 93
        0
 40
0.045
309
GRIDFORMAT_END
 95
       32
302
GRIDFORMAT
  1
GRIDFORMAT_BEGIN
 90
        0
 91
        1
 62
     0
 92
       -2
340
0
 93
        0
 40
0.045
309
GRIDFORMAT_END
309
TABLEFORMAT_END
  1
CELLSTYLE_BEGIN
 90
        3
 91
        2
300
_DATA
309
CELLSTYLE_END
  0
ENDSEC
  0
SECTION
  2
ACDSDATA
 70
     2
 71
     6
  0
ACDSSCHEMA
 90
        0
  1
AcDb_Thumbnail_Schema
  2
AcDbDs::ID
280
    10
 91
        8
  2
Thumbnail_Data
280
    15
 91
        0
101
ACDSRECORD
 95
        0
 90
        1
  2
AcDbDs::TreatedAsObjectData
280
     1
291
     1
101
ACDSRECORD
 95
        0
 90
        2
  2
AcDbDs::Legacy
280
     1
291
     1
101
ACDSRECORD
  1
AcDbDs::ID
 90
        3
  2
AcDs:Indexable
280
     1
291
     1
101
ACDSRECORD
  1
AcDbDs::ID
 90
        4
  2
AcDbDs::HandleAttribute
280
     7
282
     1
  0
ACDSSCHEMA
 90
        1
  1
AcDbDs::TreatedAsObjectDataSchema
  2
AcDbDs::TreatedAsObjectData
280
     1
 91
        0
  0
ACDSSCHEMA
 90
        2
  1
AcDbDs::LegacySchema
  2
AcDbDs::Legacy
280
     1
 91
        0
  0
ACDSSCHEMA
 90
        3
  1
AcDbDs::IndexedPropertySchema
  2
AcDs:Indexable
280
     1
 91
        0
  0
ACDSSCHEMA
 90
        4
  1
AcDbDs::HandleAttributeSchema
  2
AcDbDs::HandleAttribute
280
     7
 91
        1
284
     1
  0
ACDSRECORD
 90
        0
  2
AcDbDs::ID
280
    10
320
8A4C
  2
Thumbnail_Data
280
    15
 94
     1649
310
89504E470D0A1A0A0000000D49484452000001000000008608030000000532A42500000300504C5445000000000000FFFFFF0000000000000000000000000000000000000000000000000000330000660000990000CC0000FF0033000033330033660033990033CC0033FF0066000066330066660066990066CC0066FF0099
310
000099330099660099990099CC0099FF00CC0000CC3300CC6600CC9900CCCC00CCFF00FF0000FF3300FF6600FF9900FFCC00FFFF3300003300333300663300993300CC3300FF3333003333333333663333993333CC3333FF3366003366333366663366993366CC3366FF3399003399333399663399993399CC3399FF33CC00
310
33CC3333CC6633CC9933CCCC33CCFF33FF0033FF3333FF6633FF9933FFCC33FFFF6600006600336600666600996600CC6600FF6633006633336633666633996633CC6633FF6666006666336666666666996666CC6666FF6699006699336699666699996699CC6699FF66CC0066CC3366CC6666CC9966CCCC66CCFF66FF0066
310
FF3366FF6666FF9966FFCC66FFFF9900009900339900669900999900CC9900FF9933009933339933669933999933CC9933FF9966009966339966669966999966CC9966FF9999009999339999669999999999CC9999FF99CC0099CC3399CC6699CC9999CCCC99CCFF99FF0099FF3399FF6699FF9999FFCC99FFFFCC0000CC00
310
33CC0066CC0099CC00CCCC00FFCC3300CC3333CC3366CC3399CC33CCCC33FFCC6600CC6633CC6666CC6699CC66CCCC66FFCC9900CC9933CC9966CC9999CC99CCCC99FFCCCC00CCCC33CCCC66CCCC99CCCCCCCCCCFFCCFF00CCFF33CCFF66CCFF99CCFFCCCCFFFFFF0000FF0033FF0066FF0099FF00CCFF00FFFF3300FF3333
310
FF3366FF3399FF33CCFF33FFFF6600FF6633FF6666FF6699FF66CCFF66FFFF9900FF9933FF9966FF9999FF99CCFF99FFFFCC00FFCC33FFCC66FFCC99FFCCCCFFCCFFFFFF00FFFF33FFFF66FFFF99FFFFCCFFFFFF0000000D0D0D1A1A1A2828283535354343435050505D5D5D6B6B6B787878868686939393A1A1A1AEAEAEBB
310
BBBBC9C9C9D6D6D6E4E4E4F1F1F1FFFFFF000000000000000000000000000000000000000000000000000000000000C11FEF660000032C4944415478DAEDDD4B76AB300C06E0EE20DB60E2FDCF32F1363CD20A34F1FCFA41300F19482E13EB974AD22669CF091F92013BA67F041E7F066000DF857B3E060378FC2D18800118
310
800118C0A8009C6F5C6F80009CD69BE720FE55616480769B1580012EB67FCC416549778A0022C70A10CF7320AE43134008A14284501B021C80BABA2B80485700DA4A20277CF4B504625E903220D77BDEE865BB86BA5E67BB016D19505BBC0C90322095415EA96B009519E063A97F3080B2FD6B526780520884D408964DDD00
310
F277B84690725FDE920119C0B91B00AA1A41E7D2CA2C5D9B378E0449D581D0FC835FBDE408672FF02D80C2B3410330000330005480570EF7DA875B3FA51CA03B488C0140FD5172A036A031FCE75B187A64C800D25EC032001960731C60009000640037E2F4B8C8000C60F046D01B002240E75C48EE1A771A01E40CC84F8B00
310
3350E9140FE9A98006D05E8F65343DB4A15460805A2FBA00C4CF0989255013401B00F7003E3F4ED3F6A5610196155903305F95801E0027024C9700FBB565B046501780D0192C0238A5006ED52BECBA000E1EA00E972001ECD6F01480697800BF07D89D0CF169090C09E073B8BA1480FAF0F3F416C09F848E0C707819F05D23
310
C8E87B01C500BCEE098204288B5FA64E7501741E0A4F12C07409A0E974F8083001017C5B02BDCFD0A0B501A54FACF609464C8032C1AE441CBE53F45700CA738DF2AD7B02A5B90D10660D0000F07E686CFD27A3CE194A477F65A977DC1D1B540B2067C0B143543D00C3036C668BE101F07506E45FA9000B941E00BE09C0ED5A
310
2B9F845101B0C9E97E0988134A95003033DDC880E551DB492A00F8E4F27923C89B12585F79687480E34625FAE54A42E35E40E1B8511907E0C130808101FC03D3050C603C80363DD4A7AF5F268B8E0E40EF39FCBB05D05E20010825F07EC11C07F400CEAE268700C0F000302550AE21780060A00C9001028197C0CB000CC000
310
E08F04091AE0C76B6B8FF95159295000E033C01A4103300003000710CF0603D0D96090322000F509B204C0066000060003C0E02343CCC2D820E3F407B4B9919B12204000F1535F1000522001482F600258096096C0B3610006301600FA3F5FD71606600006801DFF00939585F5347953D60000000049454E44AE426082
  0
ENDSEC
  0
EOF
