  0
SECTION
  2
HEADER
  9
$ACADVER
  1
AC1027
  9
$ACADMAINTVER
 70
    55
  9
$DWGCODEPAGE
  3
ANSI_932
  9
$LASTSAVEDBY
  1
marketing
  9
$REQUIREDVERSIONS
160
                 0
  9
$INSBASE
 10
0.0
 20
0.0
 30
0.0
  9
$EXTMIN
 10
-0.0398626075648281
 20
-0.0288411999063101
 30
-0.0000000349181948
  9
$EXTMAX
 10
700.0608159313055
 20
1088.089040343226
 30
0.0000000814935747
  9
$LIMMIN
 10
-296.316999476111
 20
-370.7034300441653
  9
$LIMMAX
 10
623.3128432133979
 20
328.6261559379898
  9
$ORTHOMODE
 70
     1
  9
$REGENMODE
 70
     1
  9
$FILLMODE
 70
     1
  9
$QTEXTMODE
 70
     0
  9
$MIRRTEXT
 70
     1
  9
$LTSCALE
 40
10.0
  9
$ATTMODE
 70
     1
  9
$TEXTSIZE
 40
5.0
  9
$TRACEWID
 40
0.05
  9
$TEXTSTYLE
  7
STANDARD1
  9
$CLAYER
  8
30
  9
$CELTYPE
  6
BYLAYER
  9
$CECOLOR
 62
   256
  9
$CELTSCALE
 40
1.0
  9
$DISPSILH
 70
     0
  9
$DIMSCALE
 40
1.0
  9
$DIMASZ
 40
2.0
  9
$DIMEXO
 40
1.0
  9
$DIMDLI
 40
0.5
  9
$DIMRND
 40
0.0
  9
$DIMDLE
 40
0.0
  9
$DIMEXE
 40
0.5
  9
$DIMTP
 40
0.0
  9
$DIMTM
 40
0.0
  9
$DIMTXT
 40
8.0
  9
$DIMCEN
 40
0.09
  9
$DIMTSZ
 40
0.0
  9
$DIMTOL
 70
     0
  9
$DIMLIM
 70
     0
  9
$DIMTIH
 70
     0
  9
$DIMTOH
 70
     0
  9
$DIMSE1
 70
     0
  9
$DIMSE2
 70
     0
  9
$DIMTAD
 70
     3
  9
$DIMZIN
 70
    12
  9
$DIMBLK
  1
OPEN
  9
$DIMASO
 70
     1
  9
$DIMSHO
 70
     1
  9
$DIMPOST
  1

  9
$DIMAPOST
  1

  9
$DIMALT
 70
     0
  9
$DIMALTD
 70
     2
  9
$DIMALTF
 40
25.4
  9
$DIMLFAC
 40
1.0
  9
$DIMTOFL
 70
     0
  9
$DIMTVP
 40
0.0
  9
$DIMTIX
 70
     0
  9
$DIMSOXD
 70
     0
  9
$DIMSAH
 70
     0
  9
$DIMBLK1
  1

  9
$DIMBLK2
  1

  9
$DIMSTYLE
  2
STANDARD
  9
$DIMCLRD
 70
     0
  9
$DIMCLRE
 70
     0
  9
$DIMCLRT
 70
   256
  9
$DIMTFAC
 40
1.0
  9
$DIMGAP
 40
3.0
  9
$DIMJUST
 70
     0
  9
$DIMSD1
 70
     0
  9
$DIMSD2
 70
     0
  9
$DIMTOLJ
 70
     1
  9
$DIMTZIN
 70
     0
  9
$DIMALTZ
 70
     0
  9
$DIMALTTZ
 70
     0
  9
$DIMUPT
 70
     0
  9
$DIMDEC
 70
     1
  9
$DIMTDEC
 70
     1
  9
$DIMALTU
 70
     2
  9
$DIMALTTD
 70
     2
  9
$DIMTXSTY
  7
STANDARD
  9
$DIMAUNIT
 70
     0
  9
$DIMADEC
 70
     0
  9
$DIMALTRND
 40
0.0
  9
$DIMAZIN
 70
     0
  9
$DIMDSEP
 70
    46
  9
$DIMATFIT
 70
     3
  9
$DIMFRAC
 70
     0
  9
$DIMLDRBLK
  1
OPEN
  9
$DIMLUNIT
 70
     2
  9
$DIMLWD
 70
    -2
  9
$DIMLWE
 70
    -2
  9
$DIMTMOVE
 70
     0
  9
$DIMFXL
 40
1.0
  9
$DIMFXLON
 70
     0
  9
$DIMJOGANG
 40
0.7853981633974483
  9
$DIMTFILL
 70
     1
  9
$DIMTFILLCLR
 70
     0
  9
$DIMARCSYM
 70
     0
  9
$DIMLTYPE
  6

  9
$DIMLTEX1
  6

  9
$DIMLTEX2
  6

  9
$DIMTXTDIRECTION
 70
     0
  9
$LUNITS
 70
     2
  9
$LUPREC
 70
     4
  9
$SKETCHINC
 40
0.1
  9
$FILLETRAD
 40
0.0
  9
$AUNITS
 70
     0
  9
$AUPREC
 70
     0
  9
$MENU
  1
.
  9
$ELEVATION
 40
0.0
  9
$PELEVATION
 40
0.0
  9
$THICKNESS
 40
0.0
  9
$LIMCHECK
 70
     0
  9
$CHAMFERA
 40
0.0
  9
$CHAMFERB
 40
0.0
  9
$CHAMFERC
 40
0.0
  9
$CHAMFERD
 40
0.0
  9
$SKPOLY
 70
     0
  9
$TDCREATE
 40
2452286.555658658
  9
$TDUCREATE
 40
2452286.180658658
  9
$TDUPDATE
 40
2459244.396799410
  9
$TDUUPDATE
 40
2459244.021799410
  9
$TDINDWG
 40
1.9481253125
  9
$TDUSRTIMER
 40
1.9481228935
  9
$USRTIMER
 70
     1
  9
$ANGBASE
 50
0.0
  9
$ANGDIR
 70
     0
  9
$PDMODE
 70
     0
  9
$PDSIZE
 40
0.0
  9
$PLINEWID
 40
0.0
  9
$SPLFRAME
 70
     0
  9
$SPLINETYPE
 70
     6
  9
$SPLINESEGS
 70
     8
  9
$HANDSEED
  5
1C432
  9
$SURFTAB1
 70
     6
  9
$SURFTAB2
 70
     6
  9
$SURFTYPE
 70
     6
  9
$SURFU
 70
     6
  9
$SURFV
 70
     6
  9
$UCSBASE
  2

  9
$UCSNAME
  2

  9
$UCSORG
 10
0.0
 20
0.0
 30
0.0
  9
$UCSXDIR
 10
1.0
 20
0.0
 30
0.0
  9
$UCSYDIR
 10
0.0
 20
1.0
 30
0.0
  9
$UCSORTHOREF
  2

  9
$UCSORTHOVIEW
 70
     0
  9
$UCSORGTOP
 10
0.0
 20
0.0
 30
0.0
  9
$UCSORGBOTTOM
 10
0.0
 20
0.0
 30
0.0
  9
$UCSORGLEFT
 10
0.0
 20
0.0
 30
0.0
  9
$UCSORGRIGHT
 10
0.0
 20
0.0
 30
0.0
  9
$UCSORGFRONT
 10
0.0
 20
0.0
 30
0.0
  9
$UCSORGBACK
 10
0.0
 20
0.0
 30
0.0
  9
$PUCSBASE
  2

  9
$PUCSNAME
  2

  9
$PUCSORG
 10
0.0
 20
0.0
 30
0.0
  9
$PUCSXDIR
 10
1.0
 20
0.0
 30
0.0
  9
$PUCSYDIR
 10
0.0
 20
1.0
 30
0.0
  9
$PUCSORTHOREF
  2

  9
$PUCSORTHOVIEW
 70
     0
  9
$PUCSORGTOP
 10
0.0
 20
0.0
 30
0.0
  9
$PUCSORGBOTTOM
 10
0.0
 20
0.0
 30
0.0
  9
$PUCSORGLEFT
 10
0.0
 20
0.0
 30
0.0
  9
$PUCSORGRIGHT
 10
0.0
 20
0.0
 30
0.0
  9
$PUCSORGFRONT
 10
0.0
 20
0.0
 30
0.0
  9
$PUCSORGBACK
 10
0.0
 20
0.0
 30
0.0
  9
$USERI1
 70
     0
  9
$USERI2
 70
     0
  9
$USERI3
 70
     0
  9
$USERI4
 70
     0
  9
$USERI5
 70
     0
  9
$USERR1
 40
0.0
  9
$USERR2
 40
0.0
  9
$USERR3
 40
0.0
  9
$USERR4
 40
0.0
  9
$USERR5
 40
0.0
  9
$WORLDVIEW
 70
     1
  9
$SHADEDGE
 70
     3
  9
$SHADEDIF
 70
    70
  9
$TILEMODE
 70
     1
  9
$MAXACTVP
 70
    48
  9
$PINSBASE
 10
0.0
 20
0.0
 30
0.0
  9
$PLIMCHECK
 70
     0
  9
$PEXTMIN
 10
4.273573
 20
5.205245999999998
 30
0.0
  9
$PEXTMAX
 10
194.610095
 20
283.0697009999996
 30
0.0
  9
$PLIMMIN
 10
-5.873749
 20
-5.87375
  9
$PLIMMAX
 10
204.099579
 20
291.1369009999999
  9
$UNITMODE
 70
     0
  9
$VISRETAIN
 70
     1
  9
$PLINEGEN
 70
     0
  9
$PSLTSCALE
 70
     1
  9
$TREEDEPTH
 70
  3020
  9
$CMLSTYLE
  2
STANDARD
  9
$CMLJUST
 70
     0
  9
$CMLSCALE
 40
1.0
  9
$PROXYGRAPHICS
 70
     1
  9
$MEASUREMENT
 70
     0
  9
$CELWEIGHT
370
    -1
  9
$ENDCAPS
280
     0
  9
$JOINSTYLE
280
     0
  9
$LWDISPLAY
290
     0
  9
$INSUNITS
 70
     0
  9
$HYPERLINKBASE
  1

  9
$STYLESHEET
  1
MONOCHROME.CTB
  9
$XEDIT
290
     1
  9
$CEPSNTYPE
380
     0
  9
$PSTYLEMODE
290
     1
  9
$FINGERPRINTGUID
  2

  9
$VERSIONGUID
  2
{CC674B7B-EF76-4B38-8C19-56011954754D}
  9
$EXTNAMES
290
     1
  9
$PSVPSCALE
 40
0.0
  9
$OLESTARTUP
290
     0
  9
$SORTENTS
280
   127
  9
$INDEXCTL
280
     0
  9
$HIDETEXT
280
     0
  9
$XCLIPFRAME
280
     2
  9
$HALOGAP
280
     0
  9
$OBSCOLOR
 70
   257
  9
$OBSLTYPE
280
     0
  9
$INTERSECTIONDISPLAY
280
     0
  9
$INTERSECTIONCOLOR
 70
   257
  9
$DIMASSOC
280
     1
  9
$PROJECTNAME
  1

  9
$CAMERADISPLAY
290
     0
  9
$LENSLENGTH
 40
50.0
  9
$CAMERAHEIGHT
 40
0.0
  9
$STEPSPERSEC
 40
2.0
  9
$STEPSIZE
 40
6.0
  9
$3DDWFPREC
 40
2.0
  9
$PSOLWIDTH
 40
0.25
  9
$PSOLHEIGHT
 40
4.0
  9
$LOFTANG1
 40
1.570796326794896
  9
$LOFTANG2
 40
1.570796326794896
  9
$LOFTMAG1
 40
0.0
  9
$LOFTMAG2
 40
0.0
  9
$LOFTPARAM
 70
     7
  9
$LOFTNORMALS
280
     1
  9
$LATITUDE
 40
37.795
  9
$LONGITUDE
 40
-122.394
  9
$NORTHDIRECTION
 40
0.0
  9
$TIMEZONE
 70
 -8000
  9
$LIGHTGLYPHDISPLAY
280
     1
  9
$TILEMODELIGHTSYNCH
280
     1
  9
$CMATERIAL
347
8A59
  9
$SOLIDHIST
280
     0
  9
$SHOWHIST
280
     1
  9
$DWFFRAME
280
     2
  9
$DGNFRAME
280
     0
  9
$REALWORLDSCALE
290
     1
  9
$INTERFERECOLOR
 62
     1
  9
$INTERFEREOBJVS
345
8A7B
  9
$INTERFEREVPVS
346
8A78
  9
$CSHADOW
280
     0
  9
$SHADOWPLANELOCATION
 40
0.0
  0
ENDSEC
  0
SECTION
  2
CLASSES
  0
CLASS
  1
ACDBDICTIONARYWDFLT
  2
AcDbDictionaryWithDefault
  3
ObjectDBX Classes
 90
        0
 91
        1
280
     0
281
     0
  0
CLASS
  1
DICTIONARYVAR
  2
AcDbDictionaryVar
  3
ObjectDBX Classes
 90
        0
 91
       10
280
     0
281
     0
  0
CLASS
  1
MATERIAL
  2
AcDbMaterial
  3
ObjectDBX Classes
 90
     1153
 91
        3
280
     0
281
     0
  0
CLASS
  1
VISUALSTYLE
  2
AcDbVisualStyle
  3
ObjectDBX Classes
 90
     4095
 91
       26
280
     0
281
     0
  0
CLASS
  1
TABLESTYLE
  2
AcDbTableStyle
  3
ObjectDBX Classes
 90
     4095
 91
        1
280
     0
281
     0
  0
CLASS
  1
SCALE
  2
AcDbScale
  3
ObjectDBX Classes
 90
     1153
 91
       17
280
     0
281
     0
  0
CLASS
  1
MLEADERSTYLE
  2
AcDbMLeaderStyle
  3
ACDB_MLEADERSTYLE_CLASS
 90
     4095
 91
        1
280
     0
281
     0
  0
CLASS
  1
ACDBSECTIONVIEWSTYLE
  2
AcDbSectionViewStyle
  3
ObjectDBX Classes
 90
     1025
 91
        1
280
     0
281
     0
  0
CLASS
  1
ACDBDETAILVIEWSTYLE
  2
AcDbDetailViewStyle
  3
ObjectDBX Classes
 90
     1025
 91
        1
280
     0
281
     0
  0
CLASS
  1
CELLSTYLEMAP
  2
AcDbCellStyleMap
  3
ObjectDBX Classes
 90
     1152
 91
        2
280
     0
281
     0
  0
CLASS
  1
AEC_REFEDIT_STATUS_TRACKER
  2
AecDbRefEditStatusTracker
  3
AecArchBase70|Product Desc: Autodesk Architectural Desktop 2007 |Company: Autodesk,Inc. |WEB Address: www.autodesk.com
 90
      129
 91
        0
280
     0
281
     0
  0
CLASS
  1
NPOCOLLECTION
  2
AcDbImpNonPersistentObjectsCollection
  3
ObjectDBX Classes
 90
     1153
 91
        0
280
     0
281
     0
  0
CLASS
  1
SORTENTSTABLE
  2
AcDbSortentsTable
  3
ObjectDBX Classes
 90
        0
 91
        1
280
     0
281
     0
  0
CLASS
  1
MULTILEADER
  2
AcDbMLeader
  3
ACDB_MLEADER_CLASS
 90
     1025
 91
        1
280
     0
281
     1
  0
ENDSEC
  0
SECTION
  2
TABLES
  0
TABLE
  2
VPORT
  5
8
330
0
100
AcDbSymbolTable
 70
     1
  0
VPORT
  5
8A51
330
8
100
AcDbSymbolTableRecord
100
AcDbViewportTableRecord
  2
*Active
 70
     0
 10
0.0
 20
0.0
 11
1.0
 21
1.0
 12
350.0104766618704
 22
544.0300995716597
 13
0.0
 23
0.0
 14
1.0
 24
1.0
 15
10.0
 25
10.0
 16
0.0
 26
0.0
 36
1.0
 17
0.0
 27
0.0
 37
0.0
 40
1095.983793939829
 41
2.289505428226779
 42
50.0
 43
0.0
 44
0.0
 50
0.0
 51
0.0
 71
     0
 72
   100
 73
     1
 74
     1
 75
     0
 76
     0
 77
     0
 78
     0
281
     0
 65
     1
110
0.0
120
0.0
130
0.0
111
1.0
121
0.0
131
0.0
112
0.0
122
1.0
132
0.0
 79
     0
146
0.0
348
8A77
 60
     3
 61
     5
292
     1
282
     1
141
0.0
142
0.0
 63
   250
421
  3355443
1001
ACAD_NAV_VCDISPLAY
1070
     3
  0
ENDTAB
  0
TABLE
  2
LTYPE
  5
5
330
0
100
AcDbSymbolTable
 70
     9
  0
LTYPE
  5
13
330
5
100
AcDbSymbolTableRecord
100
AcDbLinetypeTableRecord
  2
BYBLOCK
 70
     0
  3

 72
    65
 73
     0
 40
0.0
  0
LTYPE
  5
14
330
5
100
AcDbSymbolTableRecord
100
AcDbLinetypeTableRecord
  2
BYLAYER
 70
     0
  3

 72
    65
 73
     0
 40
0.0
  0
LTYPE
  5
15
330
5
100
AcDbSymbolTableRecord
100
AcDbLinetypeTableRecord
  2
CONTINUOUS
 70
     0
  3
Solid line
 72
    65
 73
     0
 40
0.0
  0
LTYPE
  5
22
330
5
100
AcDbSymbolTableRecord
100
AcDbLinetypeTableRecord
  2
CONTINOUS
 70
     0
  3
Solid line
 72
    65
 73
     0
 40
0.0
  0
LTYPE
  5
23
330
5
100
AcDbSymbolTableRecord
100
AcDbLinetypeTableRecord
  2
DASHED
 70
     0
  3
__ __ __ __ __ __ __ __ __ __ __ __ __ __ __
 72
    65
 73
     2
 40
0.75
 49
0.5
 74
     0
 49
-0.25
 74
     0
  0
LTYPE
  5
24
330
5
100
AcDbSymbolTableRecord
100
AcDbLinetypeTableRecord
  2
DASHDOT
 70
     0
  3
__ . __ . __ . __ . __ . __ . __ . __ . __ . __
 72
    65
 73
     4
 40
1.0
 49
0.5
 74
     0
 49
-0.25
 74
     0
 49
0.0
 74
     0
 49
-0.25
 74
     0
  0
LTYPE
  5
4C47
330
5
100
AcDbSymbolTableRecord
100
AcDbLinetypeTableRecord
  2
DIVIDE
 70
     0
  3
Divide ____ . . ____ . . ____ . . ____ . . ____
 72
    65
 73
     6
 40
1.25
 49
0.5
 74
     0
 49
-0.25
 74
     0
 49
0.0
 74
     0
 49
-0.25
 74
     0
 49
0.0
 74
     0
 49
-0.25
 74
     0
  0
LTYPE
  5
912E
330
5
100
AcDbSymbolTableRecord
100
AcDbLinetypeTableRecord
  2
SLD-実線
 70
     0
  3
SolidWorks Line Style
 72
    65
 73
     0
 40
0.0
  0
LTYPE
  5
16BB3
330
5
100
AcDbSymbolTableRecord
100
AcDbLinetypeTableRecord
  2
HIDDEN
 70
     0
  3
Hidden __ __ __ __ __ __ __ __ __ __ __ __ __ __
 72
    65
 73
     2
 40
0.375
 49
0.25
 74
     0
 49
-0.125
 74
     0
  0
LTYPE
  5
1C39A
330
5
100
AcDbSymbolTableRecord
100
AcDbLinetypeTableRecord
  2
SLD-2点鎖線
 70
     0
  3
SolidWorks Line Style
 72
    65
 73
     6
 40
12.7
 49
6.349999999999997
 74
     0
 49
-1.27
 74
     0
 49
1.27
 74
     0
 49
-1.27
 74
     0
 49
1.27
 74
     0
 49
-1.27
 74
     0
  0
ENDTAB
  0
TABLE
  2
LAYER
  5
2
102
{ACAD_XDICTIONARY
360
F3CC
102
}
330
0
100
AcDbSymbolTable
 70
    13
  0
LAYER
  5
10
102
{ACAD_XDICTIONARY
360
8ACC
102
}
330
2
100
AcDbSymbolTableRecord
100
AcDbLayerTableRecord
  2
0
 70
     0
 62
     7
  6
CONTINOUS
370
    -3
390
F
347
8A69
348
0
  0
LAYER
  5
2F
102
{ACAD_XDICTIONARY
360
8ACE
102
}
330
2
100
AcDbSymbolTableRecord
100
AcDbLayerTableRecord
  2
10
 70
     0
 62
     4
  6
CONTINOUS
370
    -3
390
F
347
8A69
348
0
  0
LAYER
  5
31
102
{ACAD_XDICTIONARY
360
8AD0
102
}
330
2
100
AcDbSymbolTableRecord
100
AcDbLayerTableRecord
  2
12
 70
     0
 62
     3
  6
CONTINOUS
370
    -3
390
F
347
8A69
348
0
  0
LAYER
  5
35
102
{ACAD_XDICTIONARY
360
8AD2
102
}
330
2
100
AcDbSymbolTableRecord
100
AcDbLayerTableRecord
  2
16
 70
     0
 62
     6
  6
DASHDOT
370
    -3
390
F
347
8A69
348
0
  0
LAYER
  5
38
102
{ACAD_XDICTIONARY
360
8AD4
102
}
330
2
100
AcDbSymbolTableRecord
100
AcDbLayerTableRecord
  2
19
 70
     0
 62
     7
  6
CONTINOUS
370
    -3
390
F
347
8A69
348
0
  0
LAYER
  5
3D
102
{ACAD_XDICTIONARY
360
8AD6
102
}
330
2
100
AcDbSymbolTableRecord
100
AcDbLayerTableRecord
  2
24
 70
     0
 62
     7
  6
CONTINOUS
370
    -3
390
F
347
8A69
348
0
  0
LAYER
  5
3A2
102
{ACAD_XDICTIONARY
360
8AD8
102
}
330
2
100
AcDbSymbolTableRecord
100
AcDbLayerTableRecord
  2
30
 70
     0
 62
     9
  6
CONTINUOUS
370
    -3
390
F
347
8A69
348
0
  0
LAYER
  5
3A4
330
2
100
AcDbSymbolTableRecord
100
AcDbLayerTableRecord
  2
DEFPOINTS
 70
     0
 62
     7
  6
CONTINUOUS
290
     0
370
    -3
390
F
347
8A69
348
0
  0
LAYER
  5
3BBA
102
{ACAD_XDICTIONARY
360
8ADA
102
}
330
2
100
AcDbSymbolTableRecord
100
AcDbLayerTableRecord
  2
18
 70
     0
 62
     5
  6
DIVIDE
370
    -3
390
F
347
8A69
348
0
  0
LAYER
  5
67A8
102
{ACAD_XDICTIONARY
360
8ADC
102
}
330
2
100
AcDbSymbolTableRecord
100
AcDbLayerTableRecord
  2
11
 70
     0
 62
     1
  6
CONTINOUS
370
    -3
390
F
347
8A69
348
0
  0
LAYER
  5
7837
102
{ACAD_XDICTIONARY
360
8ADE
102
}
330
2
100
AcDbSymbolTableRecord
100
AcDbLayerTableRecord
  2
17
 70
     0
 62
     2
  6
DASHDOT
370
    -3
390
F
347
8A69
348
0
  0
LAYER
  5
9133
102
{ACAD_XDICTIONARY
360
9134
102
}
330
2
100
AcDbSymbolTableRecord
100
AcDbLayerTableRecord
  2
240
 70
     0
 62
     7
  6
SLD-実線
370
    -3
390
F
347
8A69
348
0
  0
LAYER
  5
17470
102
{ACAD_XDICTIONARY
360
17471
102
}
330
2
100
AcDbSymbolTableRecord
100
AcDbLayerTableRecord
  2
1
 70
     0
 62
     7
  6
CONTINUOUS
370
    -3
390
F
347
8A69
348
0
  0
ENDTAB
  0
TABLE
  2
STYLE
  5
3
330
0
100
AcDbSymbolTable
 70
     4
  0
STYLE
  5
11
330
3
100
AcDbSymbolTableRecord
100
AcDbTextStyleTableRecord
  2
STANDARD
 70
     0
 40
0.0
 41
1.0
 50
0.0
 71
     0
 42
2.0
  3
txt.shx
  4
bigfont.shx
  0
STYLE
  5
42
330
3
100
AcDbSymbolTableRecord
100
AcDbTextStyleTableRecord
  2
STANDARD1
 70
     0
 40
0.0
 41
1.0
 50
0.0
 71
     0
 42
5.0
  3
MONOTXT
  4
BIGFONT
  0
STYLE
  5
1171A
330
3
100
AcDbSymbolTableRecord
100
AcDbTextStyleTableRecord
  2
SLDTEXTSTYLE0
 70
     0
 40
0.0
 41
1.0
 50
0.0
 71
     0
 42
3.0
  3
MS UI Gothic.ttf
  4

1001
ACAD
1000
MS UI Gothic
1071
      306
  0
STYLE
  5
17474
330
3
100
AcDbSymbolTableRecord
100
AcDbTextStyleTableRecord
  2
UGMTXT
 70
     0
 40
0.0
 41
1.0
 50
0.0
 71
     0
 42
0.2
  3
ugmtxt
  4
bigfont
  0
ENDTAB
  0
TABLE
  2
VIEW
  5
6
330
0
100
AcDbSymbolTable
 70
     3
  0
VIEW
  5
230C
330
6
100
AcDbSymbolTableRecord
100
AcDbViewTableRecord
  2
OLE1
 70
     0
 40
148.912488
 10
429.497628
 20
2.560627
 41
103.145806
 11
0.0
 21
0.0
 31
1.0
 12
0.0
 22
0.0
 32
0.0
 42
50.0
 43
0.0
 44
0.0
 50
0.0
 71
     0
281
     0
 72
     0
 73
     0
348
8A77
  0
VIEW
  5
230E
330
6
100
AcDbSymbolTableRecord
100
AcDbViewTableRecord
  2
OLE2
 70
     0
 40
170.778692
 10
322.66497
 20
-5.978304
 41
102.467215
 11
0.0
 21
0.0
 31
1.0
 12
0.0
 22
0.0
 32
0.0
 42
50.0
 43
0.0
 44
0.0
 50
0.0
 71
     0
281
     0
 72
     0
 73
     0
348
8A77
  0
VIEW
  5
23AA
330
6
100
AcDbSymbolTableRecord
100
AcDbViewTableRecord
  2
OLE3
 70
     0
 40
591.7897389999998
 10
84.79698199999999
 20
-46.09335999999998
 41
388.792096
 11
0.0
 21
0.0
 31
1.0
 12
0.0
 22
0.0
 32
0.0
 42
50.0
 43
0.0
 44
0.0
 50
0.0
 71
     0
281
     0
 72
     0
 73
     0
348
8A77
  0
ENDTAB
  0
TABLE
  2
UCS
  5
7
330
0
100
AcDbSymbolTable
 70
     0
  0
ENDTAB
  0
TABLE
  2
APPID
  5
9
330
0
100
AcDbSymbolTable
 70
    11
  0
APPID
  5
12
330
9
100
AcDbSymbolTableRecord
100
AcDbRegAppTableRecord
  2
ACAD
 70
     0
  0
APPID
  5
ECD
330
9
100
AcDbSymbolTableRecord
100
AcDbRegAppTableRecord
  2
CONTENTBLOCKICON
 70
     0
  0
APPID
  5
8AA9
330
9
100
AcDbSymbolTableRecord
100
AcDbRegAppTableRecord
  2
ACAD_NAV_VCDISPLAY
 70
     0
  0
APPID
  5
1038A
330
9
100
AcDbSymbolTableRecord
100
AcDbRegAppTableRecord
  2
ACAD_EXEMPT_FROM_CAD_STANDARDS
 70
     0
  0
APPID
  5
10D03
330
9
100
AcDbSymbolTableRecord
100
AcDbRegAppTableRecord
  2
ACAD_PSEXT
 70
     0
  0
APPID
  5
1147C
330
9
100
AcDbSymbolTableRecord
100
AcDbRegAppTableRecord
  2
ACAD_DSTYLE_DIMJAG
 70
     0
  0
APPID
  5
1147D
330
9
100
AcDbSymbolTableRecord
100
AcDbRegAppTableRecord
  2
ACAD_DSTYLE_DIMTALN
 70
     0
  0
APPID
  5
16BC0
330
9
100
AcDbSymbolTableRecord
100
AcDbRegAppTableRecord
  2
DCO15
 70
     0
  0
APPID
  5
16BC1
330
9
100
AcDbSymbolTableRecord
100
AcDbRegAppTableRecord
  2
ACAD_MLEADERVER
 70
     0
  0
APPID
  5
16BC2
330
9
100
AcDbSymbolTableRecord
100
AcDbRegAppTableRecord
  2
ACAD_DSTYLE_DIMBREAK
 70
     0
  0
APPID
  5
17476
330
9
100
AcDbSymbolTableRecord
100
AcDbRegAppTableRecord
  2
ACAUTHENVIRON
 70
     0
  0
ENDTAB
  0
TABLE
  2
DIMSTYLE
  5
A
330
0
100
AcDbSymbolTable
 70
     3
100
AcDbDimStyleTable
 71
     2
340
175
340
1171B
  0
DIMSTYLE
105
175
102
{ACAD_REACTORS
330
18488
330
185E1
330
185E2
330
184C9
330
185DB
330
1A7E3
330
1A7E4
330
1ACEF
330
1ACF0
330
1ACFD
330
1ACFF
330
1AD00
330
1AD01
330
1AD02
330
1AD03
330
1AD04
330
1AD06
330
18484
330
18486
330
1BBEB
330
1BBEC
330
1BBED
330
1C24B
330
1C340
102
}
330
A
100
AcDbSymbolTableRecord
100
AcDbDimStyleTableRecord
  2
STANDARD
 70
     0
 41
2.0
 42
1.0
 43
0.5
 44
0.5
 69
     1
 73
     0
 74
     0
 77
     3
 78
    12
140
8.0
147
3.0
178
   256
271
     1
272
     1
340
11
341
3B2
342
3B2
1001
ACAD_DSTYLE_DIMJAG
1070
   388
1040
1.5
1001
ACAD_DSTYLE_DIMTALN
1070
   392
1070
     0
  0
DIMSTYLE
105
1171B
102
{ACAD_REACTORS
330
18480
330
18481
330
18482
330
18483
330
18485
330
1849B
330
197B6
330
19865
330
1990D
330
1AD05
102
}
330
A
100
AcDbSymbolTableRecord
100
AcDbDimStyleTableRecord
  2
STANDARD1
 70
     0
 41
2.0
 42
3.0
 43
0.5
 44
0.5
 77
     3
 78
    12
140
8.0
147
3.0
172
     1
271
     1
272
     1
289
     2
340
11
341
3B2
342
3B2
1001
ACAD_DSTYLE_DIMJAG
1070
   388
1040
1.5
1001
ACAD_DSTYLE_DIMTALN
1070
   392
1070
     0
  0
ENDTAB
  0
TABLE
  2
BLOCK_RECORD
  5
1
330
0
100
AcDbSymbolTable
 70
    44
  0
BLOCK_RECORD
  5
1E
102
{ACAD_XDICTIONARY
360
178
102
}
330
1
100
AcDbSymbolTableRecord
100
AcDbBlockTableRecord
  2
*MODEL_SPACE
340
8A4C
 70
     0
280
     1
281
     0
  0
BLOCK_RECORD
  5
1A
102
{ACAD_XDICTIONARY
360
17A
102
}
330
1
100
AcDbSymbolTableRecord
100
AcDbBlockTableRecord
  2
*PAPER_SPACE
340
8A4D
 70
     0
280
     1
281
     0
  0
BLOCK_RECORD
  5
3B2
330
1
100
AcDbSymbolTableRecord
100
AcDbBlockTableRecord
  2
_OPEN
340
0
102
{BLKREFS
331
1C3DA
331
1C3DB
331
1C3E9
331
1C3EA
331
1C404
331
1C405
331
1C416
331
1C417
331
1C428
331
1C429
331
1C1A7
331
1C1A8
331
1C1B1
331
1C1B2
331
1C1BA
331
1C1BB
331
1C1C3
331
1C1C4
331
1C1D5
331
1C1D6
331
1C1DE
331
1C1DF
331
1C22A
331
1C22B
331
1C233
331
1C234
331
1C36B
331
1C36C
331
1C374
331
1C375
331
1C388
331
1C389
331
1C245
331
1C246
331
1C253
331
1C254
331
1C2F0
331
1C2F8
331
1C2F9
331
1C301
331
1C302
331
1C348
331
1C347
331
1C069
331
1C06A
331
1C147
331
1C148
331
1C150
331
1C151
331
1C071
331
1C072
331
1C07A
331
1C07B
331
1C08C
331
1C08D
331
1C095
331
1C096
331
1C09E
331
1C09F
331
1C0A7
331
1C0AE
331
1C0B6
331
1C0B7
331
1C0FD
331
1C0FE
331
1C12A
331
1C12B
331
1C133
331
1C134
331
1C13C
331
1C13D
102
}
 70
     0
280
     1
281
     0
  0
BLOCK_RECORD
  5
175B4
330
1
100
AcDbSymbolTableRecord
100
AcDbBlockTableRecord
  2
SW_CENTERMARKSYMBOL_28
340
0
102
{BLKREFS
331
1851E
331
1856B
331
185B6
331
185B7
331
185B8
331
185B9
331
185BA
331
185BB
102
}
 70
     0
280
     1
281
     0
  0
BLOCK_RECORD
  5
175BF
330
1
100
AcDbSymbolTableRecord
100
AcDbBlockTableRecord
  2
SW_CENTERMARKSYMBOL_36
340
0
102
{BLKREFS
331
1856D
331
18520
102
}
 70
     0
280
     1
281
     0
  0
BLOCK_RECORD
  5
175CA
330
1
100
AcDbSymbolTableRecord
100
AcDbBlockTableRecord
  2
SW_CENTERMARKSYMBOL_37
340
0
102
{BLKREFS
331
1856E
331
18521
102
}
 70
     0
280
     1
281
     0
  0
BLOCK_RECORD
  5
178FC
330
1
100
AcDbSymbolTableRecord
100
AcDbBlockTableRecord
  2
SW_CENTERMARKSYMBOL_27
340
0
 70
     0
280
     1
281
     0
  0
BLOCK_RECORD
  5
17907
330
1
100
AcDbSymbolTableRecord
100
AcDbBlockTableRecord
  2
SW_CENTERMARKSYMBOL_35
340
0
102
{BLKREFS
331
1851F
331
1856C
102
}
 70
     0
280
     1
281
     0
  0
BLOCK_RECORD
  5
18606
330
1
100
AcDbSymbolTableRecord
100
AcDbBlockTableRecord
  2
*D6
340
0
 70
     0
280
     1
281
     0
  0
BLOCK_RECORD
  5
18614
330
1
100
AcDbSymbolTableRecord
100
AcDbBlockTableRecord
  2
*D7
340
0
 70
     0
280
     1
281
     0
  0
BLOCK_RECORD
  5
18620
330
1
100
AcDbSymbolTableRecord
100
AcDbBlockTableRecord
  2
*D8
340
0
 70
     0
280
     1
281
     0
  0
BLOCK_RECORD
  5
1862C
330
1
100
AcDbSymbolTableRecord
100
AcDbBlockTableRecord
  2
*D9
340
0
 70
     0
280
     1
281
     0
  0
BLOCK_RECORD
  5
18638
330
1
100
AcDbSymbolTableRecord
100
AcDbBlockTableRecord
  2
*D10
340
0
 70
     0
280
     1
281
     0
  0
BLOCK_RECORD
  5
18645
330
1
100
AcDbSymbolTableRecord
100
AcDbBlockTableRecord
  2
*D11
340
0
 70
     0
280
     1
281
     0
  0
BLOCK_RECORD
  5
1868E
330
1
100
AcDbSymbolTableRecord
100
AcDbBlockTableRecord
  2
*D12
340
0
 70
     0
280
     1
281
     0
  0
BLOCK_RECORD
  5
186B0
330
1
100
AcDbSymbolTableRecord
100
AcDbBlockTableRecord
  2
*D13
340
0
 70
     0
280
     1
281
     0
  0
BLOCK_RECORD
  5
186DE
330
1
100
AcDbSymbolTableRecord
100
AcDbBlockTableRecord
  2
*D14
340
0
 70
     0
280
     1
281
     0
  0
BLOCK_RECORD
  5
186EA
330
1
100
AcDbSymbolTableRecord
100
AcDbBlockTableRecord
  2
*D15
340
0
 70
     0
280
     1
281
     0
  0
BLOCK_RECORD
  5
186F6
330
1
100
AcDbSymbolTableRecord
100
AcDbBlockTableRecord
  2
*D16
340
0
 70
     0
280
     1
281
     0
  0
BLOCK_RECORD
  5
197B7
330
1
100
AcDbSymbolTableRecord
100
AcDbBlockTableRecord
  2
*D17
340
0
 70
     0
280
     1
281
     0
  0
BLOCK_RECORD
  5
19866
330
1
100
AcDbSymbolTableRecord
100
AcDbBlockTableRecord
  2
*D18
340
0
 70
     0
280
     1
281
     0
  0
BLOCK_RECORD
  5
1990E
330
1
100
AcDbSymbolTableRecord
100
AcDbBlockTableRecord
  2
*D19
340
0
 70
     0
280
     1
281
     0
  0
BLOCK_RECORD
  5
1A7E5
330
1
100
AcDbSymbolTableRecord
100
AcDbBlockTableRecord
  2
*D20
340
0
 70
     0
280
     1
281
     0
  0
BLOCK_RECORD
  5
1A7F1
330
1
100
AcDbSymbolTableRecord
100
AcDbBlockTableRecord
  2
*D21
340
0
 70
     0
280
     1
281
     0
  0
BLOCK_RECORD
  5
1AD2C
330
1
100
AcDbSymbolTableRecord
100
AcDbBlockTableRecord
  2
*D22
340
0
 70
     0
280
     1
281
     0
  0
BLOCK_RECORD
  5
1AD38
330
1
100
AcDbSymbolTableRecord
100
AcDbBlockTableRecord
  2
*D23
340
0
 70
     0
280
     1
281
     0
  0
BLOCK_RECORD
  5
1AD45
330
1
100
AcDbSymbolTableRecord
100
AcDbBlockTableRecord
  2
*D24
340
0
 70
     0
280
     1
281
     0
  0
BLOCK_RECORD
  5
1AD5D
330
1
100
AcDbSymbolTableRecord
100
AcDbBlockTableRecord
  2
*D25
340
0
 70
     0
280
     1
281
     0
  0
BLOCK_RECORD
  5
1AD69
330
1
100
AcDbSymbolTableRecord
100
AcDbBlockTableRecord
  2
*D26
340
0
 70
     0
280
     1
281
     0
  0
BLOCK_RECORD
  5
1AD75
330
1
100
AcDbSymbolTableRecord
100
AcDbBlockTableRecord
  2
*D27
340
0
 70
     0
280
     1
281
     0
  0
BLOCK_RECORD
  5
1AD81
330
1
100
AcDbSymbolTableRecord
100
AcDbBlockTableRecord
  2
*D28
340
0
 70
     0
280
     1
281
     0
  0
BLOCK_RECORD
  5
1AD8D
330
1
100
AcDbSymbolTableRecord
100
AcDbBlockTableRecord
  2
*D29
340
0
 70
     0
280
     1
281
     0
  0
BLOCK_RECORD
  5
1AD99
330
1
100
AcDbSymbolTableRecord
100
AcDbBlockTableRecord
  2
*D30
340
0
 70
     0
280
     1
281
     0
  0
BLOCK_RECORD
  5
1ADA5
330
1
100
AcDbSymbolTableRecord
100
AcDbBlockTableRecord
  2
*D31
340
0
 70
     0
280
     1
281
     0
  0
BLOCK_RECORD
  5
1ADB3
330
1
100
AcDbSymbolTableRecord
100
AcDbBlockTableRecord
  2
*D32
340
0
 70
     0
280
     1
281
     0
  0
BLOCK_RECORD
  5
1BBEE
330
1
100
AcDbSymbolTableRecord
100
AcDbBlockTableRecord
  2
*D33
340
0
 70
     0
280
     1
281
     0
  0
BLOCK_RECORD
  5
1BBFA
330
1
100
AcDbSymbolTableRecord
100
AcDbBlockTableRecord
  2
*D34
340
0
 70
     0
280
     1
281
     0
  0
BLOCK_RECORD
  5
1BC06
330
1
100
AcDbSymbolTableRecord
100
AcDbBlockTableRecord
  2
*D35
340
0
 70
     0
280
     1
281
     0
  0
BLOCK_RECORD
  5
1C18F
330
1
100
AcDbSymbolTableRecord
100
AcDbBlockTableRecord
  2
*D36
340
0
 70
     0
280
     1
281
     0
  0
BLOCK_RECORD
  5
1C1EE
330
1
100
AcDbSymbolTableRecord
100
AcDbBlockTableRecord
  2
*D37
340
0
 70
     0
280
     1
281
     0
  0
BLOCK_RECORD
  5
1C24C
330
1
100
AcDbSymbolTableRecord
100
AcDbBlockTableRecord
  2
*D38
340
0
 70
     0
280
     1
281
     0
  0
BLOCK_RECORD
  5
1C2B3
330
1
100
AcDbSymbolTableRecord
100
AcDbBlockTableRecord
  2
*D39
340
0
 70
     0
280
     1
281
     0
  0
BLOCK_RECORD
  5
1C2BD
330
1
100
AcDbSymbolTableRecord
100
AcDbBlockTableRecord
  2
*D40
340
0
 70
     0
280
     1
281
     0
  0
BLOCK_RECORD
  5
1C2C9
330
1
100
AcDbSymbolTableRecord
100
AcDbBlockTableRecord
  2
*D41
340
0
 70
     0
280
     1
281
     0
  0
BLOCK_RECORD
  5
1C341
330
1
100
AcDbSymbolTableRecord
100
AcDbBlockTableRecord
  2
*D42
340
0
 70
     0
280
     1
281
     0
  0
ENDTAB
  0
ENDSEC
  0
SECTION
  2
BLOCKS
  0
BLOCK
  5
1F
330
1E
100
AcDbEntity
  8
0
100
AcDbBlockBegin
  2
*MODEL_SPACE
 70
     0
 10
0.0
 20
0.0
 30
0.0
  3
*MODEL_SPACE
  1

  0
ENDBLK
  5
20
330
1E
100
AcDbEntity
  8
0
100
AcDbBlockEnd
  0
BLOCK
  5
1B
330
1A
100
AcDbEntity
 67
     1
  8
0
100
AcDbBlockBegin
  2
*PAPER_SPACE
 70
     0
 10
0.0
 20
0.0
 30
0.0
  3
*PAPER_SPACE
  1

  0
ENDBLK
  5
1C
330
1A
100
AcDbEntity
 67
     1
  8
0
100
AcDbBlockEnd
  0
BLOCK
  5
3B6
330
3B2
100
AcDbEntity
  8
0
100
AcDbBlockBegin
  2
_OPEN
 70
     0
 10
0.0
 20
0.0
 30
0.0
  3
_OPEN
  1

  0
LINE
  5
3B3
330
3B2
100
AcDbEntity
  8
30
  6
Continuous
 62
     0
100
AcDbLine
 10
-1.0
 20
0.166667
 30
0.0
 11
0.0
 21
0.0
 31
0.0
  0
LINE
  5
3B4
330
3B2
100
AcDbEntity
  8
30
  6
Continuous
 62
     0
100
AcDbLine
 10
-1.0
 20
-0.166667
 30
0.0
 11
0.0
 21
0.0
 31
0.0
  0
LINE
  5
3B5
330
3B2
100
AcDbEntity
  8
30
  6
Continuous
 62
     0
100
AcDbLine
 10
0.0
 20
0.0
 30
0.0
 11
-1.0
 21
0.0
 31
0.0
  0
ENDBLK
  5
3B7
330
3B2
100
AcDbEntity
  8
0
100
AcDbBlockEnd
  0
BLOCK
  5
175B5
330
175B4
100
AcDbEntity
  8
0
100
AcDbBlockBegin
  2
SW_CENTERMARKSYMBOL_28
 70
     0
 10
0.0
 20
0.0
 30
0.0
  3
SW_CENTERMARKSYMBOL_28
  1
SW_CENTERMARKSYMBOL_28
  0
LINE
  5
175B6
330
175B4
100
AcDbEntity
  8
240
 62
     0
100
AcDbLine
 10
0.0
 20
0.0
 30
0.0
 11
0.0
 21
0.5
 31
0.0
  0
LINE
  5
175B7
330
175B4
100
AcDbEntity
  8
240
 62
     0
100
AcDbLine
 10
0.0
 20
0.0
 30
0.0
 11
-0.5
 21
0.0
 31
0.0
  0
LINE
  5
175B8
330
175B4
100
AcDbEntity
  8
240
 62
     0
100
AcDbLine
 10
0.0
 20
0.0
 30
0.0
 11
0.0
 21
-0.5
 31
0.0
  0
LINE
  5
175B9
330
175B4
100
AcDbEntity
  8
240
 62
     0
100
AcDbLine
 10
0.0
 20
0.0
 30
0.0
 11
0.5
 21
0.0
 31
0.0
  0
LINE
  5
175BA
330
175B4
100
AcDbEntity
  8
240
 62
     0
100
AcDbLine
 10
0.0
 20
1.0
 30
0.0
 11
0.0
 21
1.423760430699999
 31
0.0
  0
LINE
  5
175BB
330
175B4
100
AcDbEntity
  8
240
 62
     0
100
AcDbLine
 10
-1.0
 20
0.0
 30
0.0
 11
-1.423760430699999
 21
0.0
 31
0.0
  0
LINE
  5
175BC
330
175B4
100
AcDbEntity
  8
240
 62
     0
100
AcDbLine
 10
0.0
 20
-1.0
 30
0.0
 11
0.0
 21
-1.423760430699999
 31
0.0
  0
LINE
  5
175BD
330
175B4
100
AcDbEntity
  8
240
 62
     0
100
AcDbLine
 10
1.0
 20
0.0
 30
0.0
 11
1.423760430699999
 21
0.0
 31
0.0
  0
ENDBLK
  5
175BE
330
175B4
100
AcDbEntity
  8
0
100
AcDbBlockEnd
  0
BLOCK
  5
175C0
330
175BF
100
AcDbEntity
  8
0
100
AcDbBlockBegin
  2
SW_CENTERMARKSYMBOL_36
 70
     0
 10
0.0
 20
0.0
 30
0.0
  3
SW_CENTERMARKSYMBOL_36
  1
SW_CENTERMARKSYMBOL_36
  0
LINE
  5
175C1
330
175BF
100
AcDbEntity
  8
240
 62
     0
100
AcDbLine
 10
0.0
 20
0.0
 30
0.0
 11
0.0
 21
0.5
 31
0.0
  0
LINE
  5
175C2
330
175BF
100
AcDbEntity
  8
240
 62
     0
100
AcDbLine
 10
0.0
 20
0.0
 30
0.0
 11
-0.5
 21
0.0
 31
0.0
  0
LINE
  5
175C3
330
175BF
100
AcDbEntity
  8
240
 62
     0
100
AcDbLine
 10
0.0
 20
0.0
 30
0.0
 11
0.0
 21
-0.5
 31
0.0
  0
LINE
  5
175C4
330
175BF
100
AcDbEntity
  8
240
 62
     0
100
AcDbLine
 10
0.0
 20
0.0
 30
0.0
 11
0.5
 21
0.0
 31
0.0
  0
LINE
  5
175C5
330
175BF
100
AcDbEntity
  8
240
 62
     0
100
AcDbLine
 10
0.0
 20
1.0
 30
0.0
 11
0.0
 21
1.9
 31
0.0
  0
LINE
  5
175C6
330
175BF
100
AcDbEntity
  8
240
 62
     0
100
AcDbLine
 10
-1.0
 20
0.0
 30
0.0
 11
-1.9
 21
0.0
 31
0.0
  0
LINE
  5
175C7
330
175BF
100
AcDbEntity
  8
240
 62
     0
100
AcDbLine
 10
0.0
 20
-1.0
 30
0.0
 11
0.0
 21
-1.9
 31
0.0
  0
LINE
  5
175C8
330
175BF
100
AcDbEntity
  8
240
 62
     0
100
AcDbLine
 10
1.0
 20
0.0
 30
0.0
 11
1.9
 21
0.0
 31
0.0
  0
ENDBLK
  5
175C9
330
175BF
100
AcDbEntity
  8
0
100
AcDbBlockEnd
  0
BLOCK
  5
175CB
330
175CA
100
AcDbEntity
  8
0
100
AcDbBlockBegin
  2
SW_CENTERMARKSYMBOL_37
 70
     0
 10
0.0
 20
0.0
 30
0.0
  3
SW_CENTERMARKSYMBOL_37
  1
SW_CENTERMARKSYMBOL_37
  0
LINE
  5
175CC
330
175CA
100
AcDbEntity
  8
240
 62
     0
100
AcDbLine
 10
0.0
 20
0.0
 30
0.0
 11
0.0
 21
0.5
 31
0.0
  0
LINE
  5
175CD
330
175CA
100
AcDbEntity
  8
240
 62
     0
100
AcDbLine
 10
0.0
 20
0.0
 30
0.0
 11
-0.5
 21
0.0
 31
0.0
  0
LINE
  5
175CE
330
175CA
100
AcDbEntity
  8
240
 62
     0
100
AcDbLine
 10
0.0
 20
0.0
 30
0.0
 11
0.0
 21
-0.5
 31
0.0
  0
LINE
  5
175CF
330
175CA
100
AcDbEntity
  8
240
 62
     0
100
AcDbLine
 10
0.0
 20
0.0
 30
0.0
 11
0.5
 21
0.0
 31
0.0
  0
LINE
  5
175D0
330
175CA
100
AcDbEntity
  8
240
 62
     0
100
AcDbLine
 10
0.0
 20
1.0
 30
0.0
 11
0.0
 21
1.9
 31
0.0
  0
LINE
  5
175D1
330
175CA
100
AcDbEntity
  8
240
 62
     0
100
AcDbLine
 10
-1.0
 20
0.0
 30
0.0
 11
-1.9
 21
0.0
 31
0.0
  0
LINE
  5
175D2
330
175CA
100
AcDbEntity
  8
240
 62
     0
100
AcDbLine
 10
0.0
 20
-1.0
 30
0.0
 11
0.0
 21
-1.9
 31
0.0
  0
LINE
  5
175D3
330
175CA
100
AcDbEntity
  8
240
 62
     0
100
AcDbLine
 10
1.0
 20
0.0
 30
0.0
 11
1.9
 21
0.0
 31
0.0
  0
ENDBLK
  5
175D4
330
175CA
100
AcDbEntity
  8
0
100
AcDbBlockEnd
  0
BLOCK
  5
178FD
330
178FC
100
AcDbEntity
  8
0
100
AcDbBlockBegin
  2
SW_CENTERMARKSYMBOL_27
 70
     0
 10
0.0
 20
0.0
 30
0.0
  3
SW_CENTERMARKSYMBOL_27
  1
SW_CENTERMARKSYMBOL_27
  0
LINE
  5
178FE
330
178FC
100
AcDbEntity
  8
240
 62
     0
100
AcDbLine
 10
0.0
 20
0.0
 30
0.0
 11
0.0
 21
0.5
 31
0.0
  0
LINE
  5
178FF
330
178FC
100
AcDbEntity
  8
240
 62
     0
100
AcDbLine
 10
0.0
 20
0.0
 30
0.0
 11
-0.5
 21
0.0
 31
0.0
  0
LINE
  5
17900
330
178FC
100
AcDbEntity
  8
240
 62
     0
100
AcDbLine
 10
0.0
 20
0.0
 30
0.0
 11
0.0
 21
-0.5
 31
0.0
  0
LINE
  5
17901
330
178FC
100
AcDbEntity
  8
240
 62
     0
100
AcDbLine
 10
0.0
 20
0.0
 30
0.0
 11
0.5
 21
0.0
 31
0.0
  0
LINE
  5
17902
330
178FC
100
AcDbEntity
  8
240
 62
     0
100
AcDbLine
 10
0.0
 20
1.0
 30
0.0
 11
0.0
 21
1.9
 31
0.0
  0
LINE
  5
17903
330
178FC
100
AcDbEntity
  8
240
 62
     0
100
AcDbLine
 10
-1.0
 20
0.0
 30
0.0
 11
-1.9
 21
0.0
 31
0.0
  0
LINE
  5
17904
330
178FC
100
AcDbEntity
  8
240
 62
     0
100
AcDbLine
 10
0.0
 20
-1.0
 30
0.0
 11
0.0
 21
-1.9
 31
0.0
  0
LINE
  5
17905
330
178FC
100
AcDbEntity
  8
240
 62
     0
100
AcDbLine
 10
1.0
 20
0.0
 30
0.0
 11
1.9
 21
0.0
 31
0.0
  0
ENDBLK
  5
17906
330
178FC
100
AcDbEntity
  8
0
100
AcDbBlockEnd
  0
BLOCK
  5
17908
330
17907
100
AcDbEntity
  8
0
100
AcDbBlockBegin
  2
SW_CENTERMARKSYMBOL_35
 70
     0
 10
0.0
 20
0.0
 30
0.0
  3
SW_CENTERMARKSYMBOL_35
  1
SW_CENTERMARKSYMBOL_35
  0
LINE
  5
17909
330
17907
100
AcDbEntity
  8
240
 62
     0
100
AcDbLine
 10
0.0
 20
0.0
 30
0.0
 11
0.0
 21
0.5
 31
0.0
  0
LINE
  5
1790A
330
17907
100
AcDbEntity
  8
240
 62
     0
100
AcDbLine
 10
0.0
 20
0.0
 30
0.0
 11
-0.5
 21
0.0
 31
0.0
  0
LINE
  5
1790B
330
17907
100
AcDbEntity
  8
240
 62
     0
100
AcDbLine
 10
0.0
 20
0.0
 30
0.0
 11
0.0
 21
-0.5
 31
0.0
  0
LINE
  5
1790C
330
17907
100
AcDbEntity
  8
240
 62
     0
100
AcDbLine
 10
0.0
 20
0.0
 30
0.0
 11
0.5
 21
0.0
 31
0.0
  0
LINE
  5
1790D
330
17907
100
AcDbEntity
  8
240
 62
     0
100
AcDbLine
 10
0.0
 20
1.0
 30
0.0
 11
0.0
 21
2.1
 31
0.0
  0
LINE
  5
1790E
330
17907
100
AcDbEntity
  8
240
 62
     0
100
AcDbLine
 10
-1.0
 20
0.0
 30
0.0
 11
-2.1
 21
0.0
 31
0.0
  0
LINE
  5
1790F
330
17907
100
AcDbEntity
  8
240
 62
     0
100
AcDbLine
 10
0.0
 20
-1.0
 30
0.0
 11
0.0
 21
-2.1
 31
0.0
  0
LINE
  5
17910
330
17907
100
AcDbEntity
  8
240
 62
     0
100
AcDbLine
 10
1.0
 20
0.0
 30
0.0
 11
2.1
 21
0.0
 31
0.0
  0
ENDBLK
  5
17911
330
17907
100
AcDbEntity
  8
0
100
AcDbBlockEnd
  0
BLOCK
  5
18607
330
18606
100
AcDbEntity
  8
0
100
AcDbBlockBegin
  2
*D6
 70
     1
 10
0.0
 20
0.0
 30
0.0
  3
*D6
  1

  0
LINE
  5
1C383
330
18606
100
AcDbEntity
  8
30
 62
     0
440
 16777216
370
    -2
100
AcDbLine
 10
267.668108297873
 20
890.7871132740934
 30
0.0
 11
267.668108297873
 21
837.7195894329066
 31
0.0
  0
LINE
  5
1C384
330
18606
100
AcDbEntity
  8
30
 62
     0
440
 16777216
370
    -2
100
AcDbLine
 10
272.668108297873
 20
882.7871132740934
 30
0.0
 11
272.668108297873
 21
837.7195894329066
 31
0.0
  0
LINE
  5
1C385
330
18606
100
AcDbEntity
  8
30
 62
     0
440
 16777216
370
    -2
100
AcDbLine
 10
274.668108297873
 20
838.2195894329065
 30
0.0
 11
276.668108297873
 21
838.2195894329065
 31
0.0
  0
LINE
  5
1C386
330
18606
100
AcDbEntity
  8
30
 62
     0
440
 16777216
370
    -2
100
AcDbLine
 10
265.668108297873
 20
838.2195894329065
 30
0.0
 11
252.3347749645394
 21
838.2195894329065
 31
0.0
  0
LINE
  5
1C387
330
18606
100
AcDbEntity
  8
30
 62
     0
440
 16777216
370
    -2
100
AcDbLine
 10
272.668108297873
 20
838.2195894329065
 30
0.0
 11
267.668108297873
 21
838.2195894329065
 31
0.0
  0
INSERT
  5
1C388
330
18606
100
AcDbEntity
  8
30
 62
     0
440
 16777216
370
    -2
100
AcDbBlockReference
  2
_OPEN
 10
272.668108297873
 20
838.2195894329065
 30
0.0
 41
2.0
 42
2.0
 43
2.0
 50
180.0
  0
INSERT
  5
1C389
330
18606
100
AcDbEntity
  8
30
 62
     0
440
 16777216
370
    -2
100
AcDbBlockReference
  2
_OPEN
 10
267.668108297873
 20
838.2195894329065
 30
0.0
 41
2.0
 42
2.0
 43
2.0
  0
MTEXT
  5
1C38A
330
18606
100
AcDbEntity
  8
30
 62
     0
440
 16777216
100
AcDbMText
 10
258.001441631206
 20
845.2195894329063
 30
0.0
 40
8.0
 41
0.0
 46
0.0
 71
     5
 72
     1
  1
\A1;5
 73
     1
 44
1.0
  0
POINT
  5
1C38B
330
18606
100
AcDbEntity
  8
DEFPOINTS
 62
     0
440
 16777216
100
AcDbPoint
 10
267.668108297873
 20
893.7871132740934
 30
0.0
  0
POINT
  5
1C38C
330
18606
100
AcDbEntity
  8
DEFPOINTS
 62
     0
440
 16777216
100
AcDbPoint
 10
272.668108297873
 20
885.7871132740935
 30
0.0
  0
POINT
  5
1C38D
330
18606
100
AcDbEntity
  8
DEFPOINTS
 62
     0
440
 16777216
100
AcDbPoint
 10
272.668108297873
 20
838.2195894329065
 30
0.0
  0
ENDBLK
  5
18608
330
18606
100
AcDbEntity
  8
0
100
AcDbBlockEnd
  0
BLOCK
  5
18615
330
18614
100
AcDbEntity
  8
0
100
AcDbBlockBegin
  2
*D7
 70
     1
 10
0.0
 20
0.0
 30
0.0
  3
*D7
  1

  0
LINE
  5
1C3E6
330
18614
100
AcDbEntity
  8
30
 62
     0
440
 16777216
370
    -2
100
AcDbLine
 10
272.668108297873
 20
877.7871132740934
 30
0.0
 11
272.668108297873
 21
837.7195894329064
 31
0.0
  0
LINE
  5
1C3E7
330
18614
100
AcDbEntity
  8
30
 62
     0
440
 16777216
370
    -2
100
AcDbLine
 10
315.668108297873
 20
863.2871132740934
 30
0.0
 11
315.668108297873
 21
837.7195894329064
 31
0.0
  0
LINE
  5
1C3E8
330
18614
100
AcDbEntity
  8
30
 62
     0
440
 16777216
370
    -2
100
AcDbLine
 10
274.668108297873
 20
838.2195894329065
 30
0.0
 11
313.668108297873
 21
838.2195894329065
 31
0.0
  0
INSERT
  5
1C3E9
330
18614
100
AcDbEntity
  8
30
 62
     0
440
 16777216
370
    -2
100
AcDbBlockReference
  2
_OPEN
 10
272.668108297873
 20
838.2195894329065
 30
0.0
 41
2.0
 42
2.0
 43
2.0
 50
180.0
  0
INSERT
  5
1C3EA
330
18614
100
AcDbEntity
  8
30
 62
     0
440
 16777216
370
    -2
100
AcDbBlockReference
  2
_OPEN
 10
315.668108297873
 20
838.2195894329065
 30
0.0
 41
2.0
 42
2.0
 43
2.0
  0
MTEXT
  5
1C3EB
330
18614
100
AcDbEntity
  8
30
 62
     0
440
 16777216
100
AcDbMText
 10
294.168108297873
 20
845.2195894329063
 30
0.0
 40
8.0
 41
0.0
 46
0.0
 71
     5
 72
     1
  1
\A1;43
 73
     1
 44
1.0
  0
POINT
  5
1C3EC
330
18614
100
AcDbEntity
  8
DEFPOINTS
 62
     0
440
 16777216
100
AcDbPoint
 10
272.668108297873
 20
880.7871132740933
 30
0.0
  0
POINT
  5
1C3ED
330
18614
100
AcDbEntity
  8
DEFPOINTS
 62
     0
440
 16777216
100
AcDbPoint
 10
315.668108297873
 20
866.2871132740935
 30
0.0
  0
POINT
  5
1C3EE
330
18614
100
AcDbEntity
  8
DEFPOINTS
 62
     0
440
 16777216
100
AcDbPoint
 10
315.668108297873
 20
838.2195894329065
 30
0.0
  0
ENDBLK
  5
18616
330
18614
100
AcDbEntity
  8
0
100
AcDbBlockEnd
  0
BLOCK
  5
18621
330
18620
100
AcDbEntity
  8
0
100
AcDbBlockBegin
  2
*D8
 70
     1
 10
0.0
 20
0.0
 30
0.0
  3
*D8
  1

  0
LINE
  5
1C371
330
18620
100
AcDbEntity
  8
30
 62
     0
440
 16777216
370
    -2
100
AcDbLine
 10
315.668108297873
 20
863.2871132740934
 30
0.0
 11
315.668108297873
 21
837.7195894329066
 31
0.0
  0
LINE
  5
1C372
330
18620
100
AcDbEntity
  8
30
 62
     0
440
 16777216
370
    -2
100
AcDbLine
 10
335.668108297873
 20
894.7871132740942
 30
0.0
 11
335.668108297873
 21
837.7195894329066
 31
0.0
  0
LINE
  5
1C373
330
18620
100
AcDbEntity
  8
30
 62
     0
440
 16777216
370
    -2
100
AcDbLine
 10
317.668108297873
 20
838.2195894329065
 30
0.0
 11
333.668108297873
 21
838.2195894329065
 31
0.0
  0
INSERT
  5
1C374
330
18620
100
AcDbEntity
  8
30
 62
     0
440
 16777216
370
    -2
100
AcDbBlockReference
  2
_OPEN
 10
315.668108297873
 20
838.2195894329065
 30
0.0
 41
2.0
 42
2.0
 43
2.0
 50
180.0
  0
INSERT
  5
1C375
330
18620
100
AcDbEntity
  8
30
 62
     0
440
 16777216
370
    -2
100
AcDbBlockReference
  2
_OPEN
 10
335.668108297873
 20
838.2195894329065
 30
0.0
 41
2.0
 42
2.0
 43
2.0
  0
MTEXT
  5
1C376
330
18620
100
AcDbEntity
  8
30
 62
     0
440
 16777216
100
AcDbMText
 10
325.668108297873
 20
845.2195894329063
 30
0.0
 40
8.0
 41
0.0
 46
0.0
 71
     5
 72
     1
  1
\A1;20
 73
     1
 44
1.0
  0
POINT
  5
1C377
330
18620
100
AcDbEntity
  8
DEFPOINTS
 62
     0
440
 16777216
100
AcDbPoint
 10
315.668108297873
 20
866.2871132740935
 30
0.0
  0
POINT
  5
1C378
330
18620
100
AcDbEntity
  8
DEFPOINTS
 62
     0
440
 16777216
100
AcDbPoint
 10
335.668108297873
 20
897.7871132740942
 30
0.0
  0
POINT
  5
1C379
330
18620
100
AcDbEntity
  8
DEFPOINTS
 62
     0
440
 16777216
100
AcDbPoint
 10
335.668108297873
 20
838.2195894329065
 30
0.0
  0
ENDBLK
  5
18622
330
18620
100
AcDbEntity
  8
0
100
AcDbBlockEnd
  0
BLOCK
  5
1862D
330
1862C
100
AcDbEntity
  8
0
100
AcDbBlockBegin
  2
*D9
 70
     1
 10
0.0
 20
0.0
 30
0.0
  3
*D9
  1

  0
LINE
  5
1C368
330
1862C
100
AcDbEntity
  8
30
 62
     0
440
 16777216
370
    -2
100
AcDbLine
 10
335.668108297873
 20
882.7871132740934
 30
0.0
 11
335.668108297873
 21
837.7195894329066
 31
0.0
  0
LINE
  5
1C369
330
1862C
100
AcDbEntity
  8
30
 62
     0
440
 16777216
370
    -2
100
AcDbLine
 10
371.668108297873
 20
901.7871132740935
 30
0.0
 11
371.668108297873
 21
837.7195894329066
 31
0.0
  0
LINE
  5
1C36A
330
1862C
100
AcDbEntity
  8
30
 62
     0
440
 16777216
370
    -2
100
AcDbLine
 10
337.668108297873
 20
838.2195894329065
 30
0.0
 11
369.668108297873
 21
838.2195894329065
 31
0.0
  0
INSERT
  5
1C36B
330
1862C
100
AcDbEntity
  8
30
 62
     0
440
 16777216
370
    -2
100
AcDbBlockReference
  2
_OPEN
 10
335.668108297873
 20
838.2195894329065
 30
0.0
 41
2.0
 42
2.0
 43
2.0
 50
180.0
  0
INSERT
  5
1C36C
330
1862C
100
AcDbEntity
  8
30
 62
     0
440
 16777216
370
    -2
100
AcDbBlockReference
  2
_OPEN
 10
371.668108297873
 20
838.2195894329065
 30
0.0
 41
2.0
 42
2.0
 43
2.0
  0
MTEXT
  5
1C36D
330
1862C
100
AcDbEntity
  8
30
 62
     0
440
 16777216
100
AcDbMText
 10
353.668108297873
 20
845.2195894329063
 30
0.0
 40
8.0
 41
0.0
 46
0.0
 71
     5
 72
     1
  1
\A1;36
 73
     1
 44
1.0
  0
POINT
  5
1C36E
330
1862C
100
AcDbEntity
  8
DEFPOINTS
 62
     0
440
 16777216
100
AcDbPoint
 10
335.668108297873
 20
885.7871132740935
 30
0.0
  0
POINT
  5
1C36F
330
1862C
100
AcDbEntity
  8
DEFPOINTS
 62
     0
440
 16777216
100
AcDbPoint
 10
371.668108297873
 20
904.7871132740938
 30
0.0
  0
POINT
  5
1C370
330
1862C
100
AcDbEntity
  8
DEFPOINTS
 62
     0
440
 16777216
100
AcDbPoint
 10
371.668108297873
 20
838.2195894329065
 30
0.0
  0
ENDBLK
  5
1862E
330
1862C
100
AcDbEntity
  8
0
100
AcDbBlockEnd
  0
BLOCK
  5
18639
330
18638
100
AcDbEntity
  8
0
100
AcDbBlockBegin
  2
*D10
 70
     1
 10
0.0
 20
0.0
 30
0.0
  3
*D10
  1

  0
LINE
  5
1C3D6
330
18638
100
AcDbEntity
  8
30
 62
     0
440
 16777216
370
    -2
100
AcDbLine
 10
315.668108297873
 20
991.7871132740936
 30
0.0
 11
315.668108297873
 21
1012.334586415286
 31
0.0
  0
LINE
  5
1C3D7
330
18638
100
AcDbEntity
  8
30
 62
     0
440
 16777216
370
    -2
100
AcDbLine
 10
331.6681082978738
 20
960.1513208894598
 30
0.0
 11
331.6681082978738
 21
1012.334586415286
 31
0.0
  0
LINE
  5
1C3D8
330
18638
100
AcDbEntity
  8
30
 62
     0
440
 16777216
370
    -2
100
AcDbLine
 10
317.668108297873
 20
1011.834586415286
 30
0.0
 11
329.6681082978738
 21
1011.834586415286
 31
0.0
  0
LINE
  5
1C3D9
330
18638
100
AcDbEntity
  8
30
 62
     0
440
 16777216
370
    -2
100
AcDbLine
 10
331.6681082978738
 20
1011.834586415286
 30
0.0
 11
350.3347749645405
 21
1011.834586415286
 31
0.0
  0
INSERT
  5
1C3DA
330
18638
100
AcDbEntity
  8
30
 62
     0
440
 16777216
370
    -2
100
AcDbBlockReference
  2
_OPEN
 10
315.668108297873
 20
1011.834586415286
 30
0.0
 41
2.0
 42
2.0
 43
2.0
 50
180.0
  0
INSERT
  5
1C3DB
330
18638
100
AcDbEntity
  8
30
 62
     0
440
 16777216
370
    -2
100
AcDbBlockReference
  2
_OPEN
 10
331.6681082978738
 20
1011.834586415286
 30
0.0
 41
2.0
 42
2.0
 43
2.0
  0
MTEXT
  5
1C3DC
330
18638
100
AcDbEntity
  8
30
 62
     0
440
 16777216
100
AcDbMText
 10
342.0014416312071
 20
1018.834586415286
 30
0.0
 40
8.0
 41
0.0
 46
0.0
 71
     5
 72
     1
  1
\A1;16
 73
     1
 44
1.0
  0
POINT
  5
1C3DD
330
18638
100
AcDbEntity
  8
DEFPOINTS
 62
     0
440
 16777216
100
AcDbPoint
 10
315.668108297873
 20
988.7871132740936
 30
0.0
  0
POINT
  5
1C3DE
330
18638
100
AcDbEntity
  8
DEFPOINTS
 62
     0
440
 16777216
100
AcDbPoint
 10
331.6681082978738
 20
957.1513208894597
 30
0.0
  0
POINT
  5
1C3DF
330
18638
100
AcDbEntity
  8
DEFPOINTS
 62
     0
440
 16777216
100
AcDbPoint
 10
331.6681082978738
 20
1011.834586415286
 30
0.0
  0
ENDBLK
  5
1863A
330
18638
100
AcDbEntity
  8
0
100
AcDbBlockEnd
  0
BLOCK
  5
18646
330
18645
100
AcDbEntity
  8
0
100
AcDbBlockBegin
  2
*D11
 70
     1
 10
0.0
 20
0.0
 30
0.0
  3
*D11
  1

  0
LINE
  5
1C066
330
18645
100
AcDbEntity
  8
30
  6
Continuous
 62
     0
440
 16777216
370
    -2
100
AcDbLine
 10
372.668108297873
 20
909.7871132740944
 30
0.0
 11
391.1681082978732
 21
909.7871132740944
 31
0.0
  0
LINE
  5
1C067
330
18645
100
AcDbEntity
  8
30
  6
Continuous
 62
     0
440
 16777216
370
    -2
100
AcDbLine
 10
382.668108297873
 20
929.7871132740938
 30
0.0
 11
391.1681082978732
 21
929.7871132740938
 31
0.0
  0
LINE
  5
1C068
330
18645
100
AcDbEntity
  8
30
  6
Continuous
 62
     0
440
 16777216
370
    -2
100
AcDbLine
 10
390.6681082978732
 20
911.7871132740942
 30
0.0
 11
390.6681082978732
 21
927.7871132740939
 31
0.0
  0
INSERT
  5
1C069
330
18645
100
AcDbEntity
  8
30
  6
Continuous
 62
     0
440
 16777216
370
    -2
100
AcDbBlockReference
  2
_OPEN
 10
390.6681082978732
 20
909.7871132740944
 30
0.0
 41
2.0
 42
2.0
 43
2.0
 50
270.0
  0
INSERT
  5
1C06A
330
18645
100
AcDbEntity
  8
30
  6
Continuous
 62
     0
440
 16777216
370
    -2
100
AcDbBlockReference
  2
_OPEN
 10
390.6681082978732
 20
929.7871132740938
 30
0.0
 41
2.0
 42
2.0
 43
2.0
 50
90.0
  0
POINT
  5
1C06B
330
18645
100
AcDbEntity
  8
DEFPOINTS
  6
Continuous
 62
     0
440
 16777216
100
AcDbPoint
 10
371.668108297873
 20
909.7871132740944
 30
0.0
  0
POINT
  5
1C06C
330
18645
100
AcDbEntity
  8
DEFPOINTS
  6
Continuous
 62
     0
440
 16777216
100
AcDbPoint
 10
381.668108297873
 20
929.7871132740938
 30
0.0
  0
POINT
  5
1C06D
330
18645
100
AcDbEntity
  8
DEFPOINTS
  6
Continuous
 62
     0
440
 16777216
100
AcDbPoint
 10
390.6681082978732
 20
929.7871132740938
 30
0.0
  0
ENDBLK
  5
18647
330
18645
100
AcDbEntity
  8
0
100
AcDbBlockEnd
  0
BLOCK
  5
1868F
330
1868E
100
AcDbEntity
  8
0
100
AcDbBlockBegin
  2
*D12
 70
     1
 10
0.0
 20
0.0
 30
0.0
  3
*D12
  1

  0
LINE
  5
1C06E
330
1868E
100
AcDbEntity
  8
30
 62
     0
440
 16777216
370
    -2
100
AcDbLine
 10
77.54186244243192
 20
147.3815230904321
 30
0.0
 11
77.54186244243192
 21
104.0210043087382
 31
0.0
  0
LINE
  5
1C06F
330
1868E
100
AcDbEntity
  8
30
 62
     0
440
 16777216
370
    -2
100
AcDbLine
 10
147.5418624424319
 20
147.3815230904321
 30
0.0
 11
147.5418624424319
 21
104.0210043087382
 31
0.0
  0
LINE
  5
1C070
330
1868E
100
AcDbEntity
  8
30
 62
     0
440
 16777216
370
    -2
100
AcDbLine
 10
79.54186244243192
 20
104.5210043087382
 30
0.0
 11
145.5418624424319
 21
104.5210043087382
 31
0.0
  0
INSERT
  5
1C071
330
1868E
100
AcDbEntity
  8
30
 62
     0
440
 16777216
370
    -2
100
AcDbBlockReference
  2
_OPEN
 10
77.54186244243192
 20
104.5210043087382
 30
0.0
 41
2.0
 42
2.0
 43
2.0
 50
180.0
  0
INSERT
  5
1C072
330
1868E
100
AcDbEntity
  8
30
 62
     0
440
 16777216
370
    -2
100
AcDbBlockReference
  2
_OPEN
 10
147.5418624424319
 20
104.5210043087382
 30
0.0
 41
2.0
 42
2.0
 43
2.0
  0
MTEXT
  5
1C073
330
1868E
100
AcDbEntity
  8
30
 62
     0
440
 16777216
100
AcDbMText
 10
112.5418624424319
 20
111.5210043087383
 30
0.0
 40
8.0
 41
0.0
 46
0.0
 71
     5
 72
     1
  1
\A1;70
 73
     1
 44
1.0
  0
POINT
  5
1C074
330
1868E
100
AcDbEntity
  8
DEFPOINTS
 62
     0
440
 16777216
100
AcDbPoint
 10
77.54186244243192
 20
150.3815230904321
 30
0.0
  0
POINT
  5
1C075
330
1868E
100
AcDbEntity
  8
DEFPOINTS
 62
     0
440
 16777216
100
AcDbPoint
 10
147.5418624424319
 20
150.3815230904321
 30
0.0
  0
POINT
  5
1C076
330
1868E
100
AcDbEntity
  8
DEFPOINTS
 62
     0
440
 16777216
100
AcDbPoint
 10
147.5418624424319
 20
104.5210043087382
 30
0.0
  0
ENDBLK
  5
18690
330
1868E
100
AcDbEntity
  8
0
100
AcDbBlockEnd
  0
BLOCK
  5
186B1
330
186B0
100
AcDbEntity
  8
0
100
AcDbBlockBegin
  2
*D13
 70
     1
 10
0.0
 20
0.0
 30
0.0
  3
*D13
  1

  0
LINE
  5
1C077
330
186B0
100
AcDbEntity
  8
30
 62
     0
440
 16777216
370
    -2
100
AcDbLine
 10
373.0198539946377
 20
273.3336198760027
 30
0.0
 11
437.1030255637298
 21
273.3336198760026
 31
0.0
  0
LINE
  5
1C078
330
186B0
100
AcDbEntity
  8
30
 62
     0
440
 16777216
370
    -2
100
AcDbLine
 10
373.0198539946377
 20
181.3336198760026
 30
0.0
 11
437.1030255637298
 21
181.3336198760026
 31
0.0
  0
LINE
  5
1C079
330
186B0
100
AcDbEntity
  8
30
 62
     0
440
 16777216
370
    -2
100
AcDbLine
 10
436.6030255637297
 20
271.3336198760026
 30
0.0
 11
436.6030255637297
 21
183.3336198760027
 31
0.0
  0
INSERT
  5
1C07A
330
186B0
100
AcDbEntity
  8
30
 62
     0
440
 16777216
370
    -2
100
AcDbBlockReference
  2
_OPEN
 10
436.6030255637297
 20
273.3336198760026
 30
0.0
 41
2.0
 42
2.0
 43
2.0
 50
90.0
  0
INSERT
  5
1C07B
330
186B0
100
AcDbEntity
  8
30
 62
     0
440
 16777216
370
    -2
100
AcDbBlockReference
  2
_OPEN
 10
436.6030255637297
 20
181.3336198760026
 30
0.0
 41
2.0
 42
2.0
 43
2.0
 50
270.0
  0
MTEXT
  5
1C07C
330
186B0
100
AcDbEntity
  8
30
440
 16777216
100
AcDbMText
 10
425.6030255637297
 20
227.3336198760027
 30
0.0
 40
8.0
 41
0.0
 46
0.0
 71
     2
 72
     1
  1
\A1;92
 11
0.0000000000000001
 21
1.0
 31
0.0
 73
     1
 44
1.0
 90
        3
 63
     9
421
 13158600
 45
1.25
441
        0
  0
POINT
  5
1C07D
330
186B0
100
AcDbEntity
  8
DEFPOINTS
 62
     0
440
 16777216
100
AcDbPoint
 10
372.0198539946377
 20
273.3336198760027
 30
0.0
  0
POINT
  5
1C07E
330
186B0
100
AcDbEntity
  8
DEFPOINTS
 62
     0
440
 16777216
100
AcDbPoint
 10
372.0198539946377
 20
181.3336198760026
 30
0.0
  0
POINT
  5
1C07F
330
186B0
100
AcDbEntity
  8
DEFPOINTS
 62
     0
440
 16777216
100
AcDbPoint
 10
436.6030255637297
 20
181.3336198760026
 30
0.0
  0
ENDBLK
  5
186B2
330
186B0
100
AcDbEntity
  8
0
100
AcDbBlockEnd
  0
BLOCK
  5
186DF
330
186DE
100
AcDbEntity
  8
0
100
AcDbBlockBegin
  2
*D14
 70
     1
 10
0.0
 20
0.0
 30
0.0
  3
*D14
  1

  0
LINE
  5
1C089
330
186DE
100
AcDbEntity
  8
30
 62
     0
440
 16777216
370
    -2
100
AcDbLine
 10
589.3203568032848
 20
273.3336198760027
 30
0.0
 11
620.9035283723769
 21
273.3336198760027
 31
0.0
  0
LINE
  5
1C08A
330
186DE
100
AcDbEntity
  8
30
 62
     0
440
 16777216
370
    -2
100
AcDbLine
 10
589.3203568032848
 20
181.3336198760026
 30
0.0
 11
620.9035283723769
 21
181.3336198760026
 31
0.0
  0
LINE
  5
1C08B
330
186DE
100
AcDbEntity
  8
30
 62
     0
440
 16777216
370
    -2
100
AcDbLine
 10
620.403528372377
 20
271.3336198760027
 30
0.0
 11
620.403528372377
 21
183.3336198760027
 31
0.0
  0
INSERT
  5
1C08C
330
186DE
100
AcDbEntity
  8
30
 62
     0
440
 16777216
370
    -2
100
AcDbBlockReference
  2
_OPEN
 10
620.403528372377
 20
273.3336198760027
 30
0.0
 41
2.0
 42
2.0
 43
2.0
 50
90.0
  0
INSERT
  5
1C08D
330
186DE
100
AcDbEntity
  8
30
 62
     0
440
 16777216
370
    -2
100
AcDbBlockReference
  2
_OPEN
 10
620.403528372377
 20
181.3336198760026
 30
0.0
 41
2.0
 42
2.0
 43
2.0
 50
270.0
  0
MTEXT
  5
1C08E
330
186DE
100
AcDbEntity
  8
30
440
 16777216
100
AcDbMText
 10
609.4035283723767
 20
227.3336198760027
 30
0.0
 40
8.0
 41
0.0
 46
0.0
 71
     2
 72
     1
  1
\A1;92
 11
0.0000000000000001
 21
1.0
 31
0.0
 73
     1
 44
1.0
 90
        3
 63
     9
421
 13158600
 45
1.25
441
        0
  0
POINT
  5
1C08F
330
186DE
100
AcDbEntity
  8
DEFPOINTS
 62
     0
440
 16777216
100
AcDbPoint
 10
588.320356803285
 20
273.3336198760027
 30
0.0
  0
POINT
  5
1C090
330
186DE
100
AcDbEntity
  8
DEFPOINTS
 62
     0
440
 16777216
100
AcDbPoint
 10
588.320356803285
 20
181.3336198760026
 30
0.0
  0
POINT
  5
1C091
330
186DE
100
AcDbEntity
  8
DEFPOINTS
 62
     0
440
 16777216
100
AcDbPoint
 10
620.403528372377
 20
181.3336198760026
 30
0.0
  0
ENDBLK
  5
186E0
330
186DE
100
AcDbEntity
  8
0
100
AcDbBlockEnd
  0
BLOCK
  5
186EB
330
186EA
100
AcDbEntity
  8
0
100
AcDbBlockBegin
  2
*D15
 70
     1
 10
0.0
 20
0.0
 30
0.0
  3
*D15
  1

  0
LINE
  5
1C092
330
186EA
100
AcDbEntity
  8
30
  6
Continuous
 62
     0
440
 16777216
370
    -2
100
AcDbLine
 10
537.320356803285
 20
182.3336197865026
 30
0.0
 11
537.320356803285
 21
41.49786256108789
 31
0.0
  0
LINE
  5
1C093
330
186EA
100
AcDbEntity
  8
30
  6
Continuous
 62
     0
440
 16777216
370
    -2
100
AcDbLine
 10
590.3203568032847
 20
182.3336197865026
 30
0.0
 11
590.3203568032847
 21
41.49786256108789
 31
0.0
  0
LINE
  5
1C094
330
186EA
100
AcDbEntity
  8
30
  6
Continuous
 62
     0
440
 16777216
370
    -2
100
AcDbLine
 10
539.3203568032848
 20
41.99786256108789
 30
0.0
 11
588.320356803285
 21
41.99786256108789
 31
0.0
  0
INSERT
  5
1C095
330
186EA
100
AcDbEntity
  8
30
  6
Continuous
 62
     0
440
 16777216
370
    -2
100
AcDbBlockReference
  2
_OPEN
 10
537.320356803285
 20
41.99786256108789
 30
0.0
 41
2.0
 42
2.0
 43
2.0
 50
180.0
  0
INSERT
  5
1C096
330
186EA
100
AcDbEntity
  8
30
  6
Continuous
 62
     0
440
 16777216
370
    -2
100
AcDbBlockReference
  2
_OPEN
 10
590.3203568032847
 20
41.99786256108789
 30
0.0
 41
2.0
 42
2.0
 43
2.0
  0
MTEXT
  5
1C097
330
186EA
100
AcDbEntity
  8
30
  6
Continuous
440
 16777216
100
AcDbMText
 10
563.8203568032849
 20
48.99786256108789
 30
0.0
 40
8.0
 41
0.0
 46
0.0
 71
     5
 72
     1
  1
\A1;53
 73
     1
 44
1.0
 90
        3
 63
     9
421
 13158600
 45
1.25
441
        0
  0
POINT
  5
1C098
330
186EA
100
AcDbEntity
  8
DEFPOINTS
  6
Continuous
 62
     0
440
 16777216
100
AcDbPoint
 10
537.320356803285
 20
183.3336197865026
 30
0.0
  0
POINT
  5
1C099
330
186EA
100
AcDbEntity
  8
DEFPOINTS
  6
Continuous
 62
     0
440
 16777216
100
AcDbPoint
 10
590.3203568032847
 20
183.3336197865026
 30
0.0
  0
POINT
  5
1C09A
330
186EA
100
AcDbEntity
  8
DEFPOINTS
  6
Continuous
 62
     0
440
 16777216
100
AcDbPoint
 10
590.3203568032847
 20
41.99786256108789
 30
0.0
  0
ENDBLK
  5
186EC
330
186EA
100
AcDbEntity
  8
0
100
AcDbBlockEnd
  0
BLOCK
  5
186F7
330
186F6
100
AcDbEntity
  8
0
100
AcDbBlockBegin
  2
*D16
 70
     1
 10
0.0
 20
0.0
 30
0.0
  3
*D16
  1

  0
LINE
  5
1C09B
330
186F6
100
AcDbEntity
  8
30
  6
Continuous
 62
     0
440
 16777216
370
    -2
100
AcDbLine
 10
288.5198539946377
 20
178.1665097051529
 30
0.0
 11
288.5198539946377
 21
38.00839113967686
 31
0.0
  0
LINE
  5
1C09C
330
186F6
100
AcDbEntity
  8
30
  6
Continuous
 62
     0
440
 16777216
370
    -2
100
AcDbLine
 10
406.5198539946377
 20
178.1665097051529
 30
0.0
 11
406.5198539946377
 21
38.00839113967686
 31
0.0
  0
LINE
  5
1C09D
330
186F6
100
AcDbEntity
  8
30
  6
Continuous
 62
     0
440
 16777216
370
    -2
100
AcDbLine
 10
290.5198539946377
 20
38.50839113967686
 30
0.0
 11
404.5198539946376
 21
38.50839113967686
 31
0.0
  0
INSERT
  5
1C09E
330
186F6
100
AcDbEntity
  8
30
  6
Continuous
 62
     0
440
 16777216
370
    -2
100
AcDbBlockReference
  2
_OPEN
 10
288.5198539946377
 20
38.50839113967686
 30
0.0
 41
2.0
 42
2.0
 43
2.0
 50
180.0
  0
INSERT
  5
1C09F
330
186F6
100
AcDbEntity
  8
30
  6
Continuous
 62
     0
440
 16777216
370
    -2
100
AcDbBlockReference
  2
_OPEN
 10
406.5198539946377
 20
38.50839113967686
 30
0.0
 41
2.0
 42
2.0
 43
2.0
  0
MTEXT
  5
1C0A0
330
186F6
100
AcDbEntity
  8
30
  6
Continuous
440
 16777216
100
AcDbMText
 10
347.5198539946378
 20
45.50839113967684
 30
0.0
 40
8.0
 41
0.0
 46
0.0
 71
     5
 72
     1
  1
\A1;118
 73
     1
 44
1.0
 90
        3
 63
     9
421
 13158600
 45
1.25
441
        0
  0
POINT
  5
1C0A1
330
186F6
100
AcDbEntity
  8
DEFPOINTS
  6
Continuous
 62
     0
440
 16777216
100
AcDbPoint
 10
288.5198539946377
 20
179.1665097051529
 30
0.0
  0
POINT
  5
1C0A2
330
186F6
100
AcDbEntity
  8
DEFPOINTS
  6
Continuous
 62
     0
440
 16777216
100
AcDbPoint
 10
406.5198539946377
 20
179.1665097051529
 30
0.0
  0
POINT
  5
1C0A3
330
186F6
100
AcDbEntity
  8
DEFPOINTS
  6
Continuous
 62
     0
440
 16777216
100
AcDbPoint
 10
406.5198539946377
 20
38.50839113967686
 30
0.0
  0
ENDBLK
  5
186F8
330
186F6
100
AcDbEntity
  8
0
100
AcDbBlockEnd
  0
BLOCK
  5
197B8
330
197B7
100
AcDbEntity
  8
0
100
AcDbBlockBegin
  2
*D17
 70
     1
 10
0.0
 20
0.0
 30
0.0
  3
*D17
  1

  0
LINE
  5
1C0A4
330
197B7
100
AcDbEntity
  8
30
  6
Continuous
 62
     0
440
 16777216
370
    -2
100
AcDbLine
 10
407.0198921664863
 20
274.2701849417842
 30
0.0
 11
427.6205335365133
 21
303.1527660576899
 31
0.0
  0
LINE
  5
1C0A5
330
197B7
100
AcDbEntity
  8
30
  6
Continuous
 62
     0
440
 16777216
370
    -2
100
AcDbLine
 10
427.6205335365133
 20
303.1527660576899
 30
0.0
 11
443.9538668698467
 21
303.1527660576899
 31
0.0
  0
LINE
  5
1C0A6
330
197B7
100
AcDbEntity
  8
30
  6
Continuous
 62
     0
440
 16777216
370
    -2
100
AcDbLine
 10
404.6971628095922
 20
271.0136640473236
 30
0.0
 11
405.8585274880917
 21
272.6419244946269
 31
0.0
  0
INSERT
  5
1C0A7
330
197B7
100
AcDbEntity
  8
30
  6
Continuous
 62
     0
440
 16777216
370
    -2
100
AcDbBlockReference
  2
_OPEN
 10
405.8585274880917
 20
272.6419244946269
 30
0.0
 41
2.0
 42
2.0
 43
2.0
 50
234.5014509348093
  0
MTEXT
  5
1C0A8
330
197B7
100
AcDbEntity
  8
30
  6
Continuous
 62
     0
440
 16777216
100
AcDbMText
 10
430.6205335365129
 20
314.1527660576902
 30
0.0
 40
8.0
 41
0.0
 46
0.0
 71
     1
 72
     1
  1
\A1;R2
 73
     1
 44
1.0
  0
POINT
  5
1C0A9
330
197B7
100
AcDbEntity
  8
DEFPOINTS
  6
Continuous
 62
     0
440
 16777216
100
AcDbPoint
 10
405.8585274880917
 20
272.6419244946269
 30
0.0
  0
POINT
  5
1C0AA
330
197B7
100
AcDbEntity
  8
DEFPOINTS
  6
Continuous
 62
     0
440
 16777216
100
AcDbPoint
 10
404.6971628095922
 20
271.0136640473236
 30
0.0
  0
ENDBLK
  5
197B9
330
197B7
100
AcDbEntity
  8
0
100
AcDbBlockEnd
  0
BLOCK
  5
19867
330
19866
100
AcDbEntity
  8
0
100
AcDbBlockBegin
  2
*D18
 70
     1
 10
0.0
 20
0.0
 30
0.0
  3
*D18
  1

  0
LINE
  5
1C0AB
330
19866
100
AcDbEntity
  8
30
  6
Continuous
 62
     0
440
 16777216
370
    -2
100
AcDbLine
 10
592.0572997225526
 20
276.0043542433364
 30
0.0
 11
612.6579410925756
 21
304.8869353592443
 31
0.0
  0
LINE
  5
1C0AC
330
19866
100
AcDbEntity
  8
30
  6
Continuous
 62
     0
440
 16777216
370
    -2
100
AcDbLine
 10
612.6579410925756
 20
304.8869353592443
 30
0.0
 11
628.9912744259087
 21
304.8869353592443
 31
0.0
  0
LINE
  5
1C0AD
330
19866
100
AcDbEntity
  8
30
  6
Continuous
 62
     0
440
 16777216
370
    -2
100
AcDbLine
 10
589.7345703656591
 20
272.7478333488753
 30
0.0
 11
590.895935044158
 21
274.3760937961789
 31
0.0
  0
INSERT
  5
1C0AE
330
19866
100
AcDbEntity
  8
30
  6
Continuous
 62
     0
440
 16777216
370
    -2
100
AcDbBlockReference
  2
_OPEN
 10
590.895935044158
 20
274.3760937961789
 30
0.0
 41
2.0
 42
2.0
 43
2.0
 50
234.501450934817
  0
MTEXT
  5
1C0AF
330
19866
100
AcDbEntity
  8
30
  6
Continuous
 62
     0
440
 16777216
100
AcDbMText
 10
615.6579410925743
 20
315.886935359245
 30
0.0
 40
8.0
 41
0.0
 46
0.0
 71
     1
 72
     1
  1
\A1;R2
 73
     1
 44
1.0
  0
POINT
  5
1C0B0
330
19866
100
AcDbEntity
  8
DEFPOINTS
  6
Continuous
 62
     0
440
 16777216
100
AcDbPoint
 10
590.895935044158
 20
274.3760937961789
 30
0.0
  0
POINT
  5
1C0B1
330
19866
100
AcDbEntity
  8
DEFPOINTS
  6
Continuous
 62
     0
440
 16777216
100
AcDbPoint
 10
589.7345703656591
 20
272.7478333488753
 30
0.0
  0
ENDBLK
  5
19868
330
19866
100
AcDbEntity
  8
0
100
AcDbBlockEnd
  0
BLOCK
  5
1990F
330
1990E
100
AcDbEntity
  8
0
100
AcDbBlockBegin
  2
*D19
 70
     1
 10
0.0
 20
0.0
 30
0.0
  3
*D19
  1

  0
LINE
  5
1C0B2
330
1990E
100
AcDbEntity
  8
30
  6
Continuous
 62
     0
440
 16777216
370
    -2
100
AcDbLine
 10
78.65400027190244
 20
163.5356740451281
 30
0.0
 11
78.99619652711455
 21
165.5061820311355
 31
0.0
  0
LINE
  5
1C0B3
330
1990E
100
AcDbEntity
  8
30
  6
Continuous
 62
     0
440
 16777216
370
    -2
100
AcDbLine
 10
76.42972461296412
 20
150.7273721357361
 30
0.0
 11
61.1697963096762
 21
62.85437490234528
 31
0.0
  0
LINE
  5
1C0B4
330
1990E
100
AcDbEntity
  8
30
  6
Continuous
 62
     0
440
 16777216
370
    -2
100
AcDbLine
 10
61.1697963096762
 20
62.85437490234528
 30
0.0
 11
12.83646297634288
 21
62.85437490234528
 31
0.0
  0
LINE
  5
1C0B5
330
1990E
100
AcDbEntity
  8
30
  6
Continuous
 62
     0
440
 16777216
370
    -2
100
AcDbLine
 10
78.31180401669036
 20
161.5651660591207
 30
0.0
 11
76.77192086817621
 21
152.6978801217435
 31
0.0
  0
INSERT
  5
1C0B6
330
1990E
100
AcDbEntity
  8
30
  6
Continuous
 62
     0
440
 16777216
370
    -2
100
AcDbBlockReference
  2
_OPEN
 10
78.31180401669036
 20
161.5651660591207
 30
0.0
 41
2.0
 42
2.0
 43
2.0
 50
260.1483273554565
  0
INSERT
  5
1C0B7
330
1990E
100
AcDbEntity
  8
30
  6
Continuous
 62
     0
440
 16777216
370
    -2
100
AcDbBlockReference
  2
_OPEN
 10
76.77192086817621
 20
152.6978801217435
 30
0.0
 41
2.0
 42
2.0
 43
2.0
 50
80.14832735545656
  0
MTEXT
  5
1C0B8
330
1990E
100
AcDbEntity
  8
30
  6
Continuous
 62
     0
440
 16777216
100
AcDbMText
 10
12.83646297634307
 20
73.8543749023452
 30
0.0
 40
8.0
 41
0.0
 46
0.0
 71
     1
 72
     1
  1
\A1;2X2-%%c6
 73
     1
 44
1.0
  0
POINT
  5
1C0B9
330
1990E
100
AcDbEntity
  8
DEFPOINTS
  6
Continuous
 62
     0
440
 16777216
100
AcDbPoint
 10
76.77192086817621
 20
152.6978801217435
 30
0.0
  0
POINT
  5
1C0BA
330
1990E
100
AcDbEntity
  8
DEFPOINTS
  6
Continuous
 62
     0
440
 16777216
100
AcDbPoint
 10
78.31180401669036
 20
161.5651660591207
 30
0.0
  0
ENDBLK
  5
19910
330
1990E
100
AcDbEntity
  8
0
100
AcDbBlockEnd
  0
BLOCK
  5
1A7E6
330
1A7E5
100
AcDbEntity
  8
0
100
AcDbBlockBegin
  2
*D20
 70
     1
 10
0.0
 20
0.0
 30
0.0
  3
*D20
  1

  0
LINE
  5
1C227
330
1A7E5
100
AcDbEntity
  8
30
  6
Continuous
 62
     0
440
 16777216
370
    -2
100
AcDbLine
 10
228.5962067710472
 20
754.1512697488046
 30
0.0
 11
254.9611592188279
 21
754.1512697488046
 31
0.0
  0
LINE
  5
1C228
330
1A7E5
100
AcDbEntity
  8
30
  6
Continuous
 62
     0
440
 16777216
370
    -2
100
AcDbLine
 10
228.7375323855269
 20
494.1512697488047
 30
0.0
 11
254.9611592188278
 21
494.1512697488047
 31
0.0
  0
LINE
  5
1C229
330
1A7E5
100
AcDbEntity
  8
30
  6
Continuous
 62
     0
440
 16777216
370
    -2
100
AcDbLine
 10
254.4611592188279
 20
752.1512697488048
 30
0.0
 11
254.4611592188278
 21
496.1512697488045
 31
0.0
  0
INSERT
  5
1C22A
330
1A7E5
100
AcDbEntity
  8
30
  6
Continuous
 62
     0
440
 16777216
370
    -2
100
AcDbBlockReference
  2
_OPEN
 10
254.4611592188279
 20
754.1512697488046
 30
0.0
 41
2.0
 42
2.0
 43
2.0
 50
90.0
  0
INSERT
  5
1C22B
330
1A7E5
100
AcDbEntity
  8
30
  6
Continuous
 62
     0
440
 16777216
370
    -2
100
AcDbBlockReference
  2
_OPEN
 10
254.4611592188278
 20
494.1512697488047
 30
0.0
 41
2.0
 42
2.0
 43
2.0
 50
270.0
  0
MTEXT
  5
1C22C
330
1A7E5
100
AcDbEntity
  8
30
  6
Continuous
440
 16777216
100
AcDbMText
 10
243.4611592188277
 20
624.1512697488047
 30
0.0
 40
8.0
 41
0.0
 46
0.0
 71
     2
 72
     1
  1
\A1;260
 11
0.0000000000000001
 21
1.0
 31
0.0
 73
     1
 44
1.0
 90
        3
 63
     9
421
 13158600
 45
1.25
441
        0
  0
POINT
  5
1C22D
330
1A7E5
100
AcDbEntity
  8
DEFPOINTS
  6
Continuous
 62
     0
440
 16777216
100
AcDbPoint
 10
227.5962067710472
 20
754.1512697488046
 30
0.0
  0
POINT
  5
1C22E
330
1A7E5
100
AcDbEntity
  8
DEFPOINTS
  6
Continuous
 62
     0
440
 16777216
100
AcDbPoint
 10
227.7375323855269
 20
494.1512697488047
 30
0.0
  0
POINT
  5
1C22F
330
1A7E5
100
AcDbEntity
  8
DEFPOINTS
  6
Continuous
 62
     0
440
 16777216
100
AcDbPoint
 10
254.4611592188278
 20
494.1512697488047
 30
0.0
  0
ENDBLK
  5
1A7E7
330
1A7E5
100
AcDbEntity
  8
0
100
AcDbBlockEnd
  0
BLOCK
  5
1A7F2
330
1A7F1
100
AcDbEntity
  8
0
100
AcDbBlockBegin
  2
*D21
 70
     1
 10
0.0
 20
0.0
 30
0.0
  3
*D21
  1

  0
LINE
  5
1C230
330
1A7F1
100
AcDbEntity
  8
30
 62
     0
440
 16777216
370
    -2
100
AcDbLine
 10
226.5918653869323
 20
767.1512753063052
 30
0.0
 11
279.4914983808524
 21
767.1512753063052
 31
0.0
  0
LINE
  5
1C231
330
1A7F1
100
AcDbEntity
  8
30
 62
     0
440
 16777216
370
    -2
100
AcDbLine
 10
226.5918653869323
 20
481.1512619543056
 30
0.0
 11
279.4914983808524
 21
481.1512619543056
 31
0.0
  0
LINE
  5
1C232
330
1A7F1
100
AcDbEntity
  8
30
 62
     0
440
 16777216
370
    -2
100
AcDbLine
 10
278.9914983808524
 20
765.1512753063052
 30
0.0
 11
278.9914983808523
 21
483.1512619543055
 31
0.0
  0
INSERT
  5
1C233
330
1A7F1
100
AcDbEntity
  8
30
 62
     0
440
 16777216
370
    -2
100
AcDbBlockReference
  2
_OPEN
 10
278.9914983808524
 20
767.1512753063052
 30
0.0
 41
2.0
 42
2.0
 43
2.0
 50
90.0
  0
INSERT
  5
1C234
330
1A7F1
100
AcDbEntity
  8
30
 62
     0
440
 16777216
370
    -2
100
AcDbBlockReference
  2
_OPEN
 10
278.9914983808523
 20
481.1512619543056
 30
0.0
 41
2.0
 42
2.0
 43
2.0
 50
270.0
  0
MTEXT
  5
1C235
330
1A7F1
100
AcDbEntity
  8
30
440
 16777216
100
AcDbMText
 10
271.9914983808523
 20
624.1512686303052
 30
0.0
 40
8.0
 41
0.0
 46
0.0
 71
     5
 72
     1
  1
\A1;286
 11
0.0000000000000001
 21
1.0
 31
0.0
 73
     1
 44
1.0
 90
        3
 63
     9
421
 13158600
 45
1.25
441
        0
  0
POINT
  5
1C236
330
1A7F1
100
AcDbEntity
  8
DEFPOINTS
 62
     0
440
 16777216
100
AcDbPoint
 10
225.5918653869323
 20
767.1512753063052
 30
0.0
  0
POINT
  5
1C237
330
1A7F1
100
AcDbEntity
  8
DEFPOINTS
 62
     0
440
 16777216
100
AcDbPoint
 10
225.5918653869323
 20
481.1512619543056
 30
0.0
  0
POINT
  5
1C238
330
1A7F1
100
AcDbEntity
  8
DEFPOINTS
 62
     0
440
 16777216
100
AcDbPoint
 10
278.9914983808523
 20
481.1512619543056
 30
0.0
  0
ENDBLK
  5
1A7F3
330
1A7F1
100
AcDbEntity
  8
0
100
AcDbBlockEnd
  0
BLOCK
  5
1AD2D
330
1AD2C
100
AcDbEntity
  8
0
100
AcDbBlockBegin
  2
*D22
 70
     1
 10
0.0
 20
0.0
 30
0.0
  3
*D22
  1

  0
LINE
  5
1C1A4
330
1AD2C
100
AcDbEntity
  8
30
 62
     0
440
 16777216
370
    -2
100
AcDbLine
 10
547.9545747383216
 20
483.2255996877671
 30
0.0
 11
547.9545747383216
 21
450.725599687767
 31
0.0
  0
LINE
  5
1C1A5
330
1AD2C
100
AcDbEntity
  8
30
 62
     0
440
 16777216
370
    -2
100
AcDbLine
 10
599.9545747383217
 20
483.2255996877673
 30
0.0
 11
599.9545747383217
 21
450.725599687767
 31
0.0
  0
LINE
  5
1C1A6
330
1AD2C
100
AcDbEntity
  8
30
 62
     0
440
 16777216
370
    -2
100
AcDbLine
 10
549.9545747383216
 20
451.225599687767
 30
0.0
 11
597.9545747383217
 21
451.225599687767
 31
0.0
  0
INSERT
  5
1C1A7
330
1AD2C
100
AcDbEntity
  8
30
 62
     0
440
 16777216
370
    -2
100
AcDbBlockReference
  2
_OPEN
 10
547.9545747383216
 20
451.225599687767
 30
0.0
 41
2.0
 42
2.0
 43
2.0
 50
180.0
  0
INSERT
  5
1C1A8
330
1AD2C
100
AcDbEntity
  8
30
 62
     0
440
 16777216
370
    -2
100
AcDbBlockReference
  2
_OPEN
 10
599.9545747383217
 20
451.225599687767
 30
0.0
 41
2.0
 42
2.0
 43
2.0
  0
MTEXT
  5
1C1A9
330
1AD2C
100
AcDbEntity
  8
30
440
 16777216
100
AcDbMText
 10
573.9545747383217
 20
458.2255996877671
 30
0.0
 40
8.0
 41
0.0
 46
0.0
 71
     5
 72
     1
  1
\A1;52
 73
     1
 44
1.0
 90
        3
 63
     9
421
 13158600
 45
1.25
441
        0
  0
POINT
  5
1C1AA
330
1AD2C
100
AcDbEntity
  8
DEFPOINTS
 62
     0
440
 16777216
100
AcDbPoint
 10
547.9545747383216
 20
484.225599687767
 30
0.0
  0
POINT
  5
1C1AB
330
1AD2C
100
AcDbEntity
  8
DEFPOINTS
 62
     0
440
 16777216
100
AcDbPoint
 10
599.9545747383217
 20
484.2255996877674
 30
0.0
  0
POINT
  5
1C1AC
330
1AD2C
100
AcDbEntity
  8
DEFPOINTS
 62
     0
440
 16777216
100
AcDbPoint
 10
599.9545747383217
 20
451.225599687767
 30
0.0
  0
ENDBLK
  5
1AD2E
330
1AD2C
100
AcDbEntity
  8
0
100
AcDbBlockEnd
  0
BLOCK
  5
1AD39
330
1AD38
100
AcDbEntity
  8
0
100
AcDbBlockBegin
  2
*D23
 70
     1
 10
0.0
 20
0.0
 30
0.0
  3
*D23
  1

  0
LINE
  5
1C1AD
330
1AD38
100
AcDbEntity
  8
30
 62
     0
440
 16777216
370
    -2
100
AcDbLine
 10
599.9545747383217
 20
482.2255996877673
 30
0.0
 11
599.9545747383217
 21
450.725599687767
 31
0.0
  0
LINE
  5
1C1AE
330
1AD38
100
AcDbEntity
  8
30
 62
     0
440
 16777216
370
    -2
100
AcDbLine
 10
603.9545747383217
 20
502.2255996877677
 30
0.0
 11
603.9545747383217
 21
450.725599687767
 31
0.0
  0
LINE
  5
1C1AF
330
1AD38
100
AcDbEntity
  8
30
 62
     0
440
 16777216
370
    -2
100
AcDbLine
 10
597.9545747383217
 20
451.225599687767
 30
0.0
 11
595.9545747383217
 21
451.225599687767
 31
0.0
  0
LINE
  5
1C1B0
330
1AD38
100
AcDbEntity
  8
30
 62
     0
440
 16777216
370
    -2
100
AcDbLine
 10
605.9545747383217
 20
451.225599687767
 30
0.0
 11
619.2879080716551
 21
451.225599687767
 31
0.0
  0
INSERT
  5
1C1B1
330
1AD38
100
AcDbEntity
  8
30
 62
     0
440
 16777216
370
    -2
100
AcDbBlockReference
  2
_OPEN
 10
599.9545747383217
 20
451.225599687767
 30
0.0
 41
2.0
 42
2.0
 43
2.0
  0
INSERT
  5
1C1B2
330
1AD38
100
AcDbEntity
  8
30
 62
     0
440
 16777216
370
    -2
100
AcDbBlockReference
  2
_OPEN
 10
603.9545747383217
 20
451.225599687767
 30
0.0
 41
2.0
 42
2.0
 43
2.0
 50
180.0
  0
MTEXT
  5
1C1B3
330
1AD38
100
AcDbEntity
  8
30
440
 16777216
100
AcDbMText
 10
613.6212414049882
 20
458.2255996877671
 30
0.0
 40
8.0
 41
0.0
 46
0.0
 71
     5
 72
     1
  1
\A1;4
 73
     1
 44
1.0
 90
        3
 63
     9
421
 13158600
 45
1.25
441
        0
  0
POINT
  5
1C1B4
330
1AD38
100
AcDbEntity
  8
DEFPOINTS
 62
     0
440
 16777216
100
AcDbPoint
 10
599.9545747383217
 20
483.2255996877673
 30
0.0
  0
POINT
  5
1C1B5
330
1AD38
100
AcDbEntity
  8
DEFPOINTS
 62
     0
440
 16777216
100
AcDbPoint
 10
603.9545747383217
 20
503.2255996877678
 30
0.0
  0
POINT
  5
1C1B6
330
1AD38
100
AcDbEntity
  8
DEFPOINTS
 62
     0
440
 16777216
100
AcDbPoint
 10
603.9545747383217
 20
451.225599687767
 30
0.0
  0
ENDBLK
  5
1AD3A
330
1AD38
100
AcDbEntity
  8
0
100
AcDbBlockEnd
  0
BLOCK
  5
1AD46
330
1AD45
100
AcDbEntity
  8
0
100
AcDbBlockBegin
  2
*D24
 70
     1
 10
0.0
 20
0.0
 30
0.0
  3
*D24
  1

  0
LINE
  5
1C0FA
330
1AD45
100
AcDbEntity
  8
30
  6
Continuous
 62
     0
440
 16777216
370
    -2
100
AcDbLine
 10
385.4545765263219
 20
667.2255996877671
 30
0.0
 11
327.9566686387263
 21
667.2255996877671
 31
0.0
  0
LINE
  5
1C0FB
330
1AD45
100
AcDbEntity
  8
30
  6
Continuous
 62
     0
440
 16777216
370
    -2
100
AcDbLine
 10
377.7408399109063
 20
577.2255996877671
 30
0.0
 11
327.9566686387262
 21
577.2255996877671
 31
0.0
  0
LINE
  5
1C0FC
330
1AD45
100
AcDbEntity
  8
30
  6
Continuous
 62
     0
440
 16777216
370
    -2
100
AcDbLine
 10
328.4566686387262
 20
665.2255996877671
 30
0.0
 11
328.4566686387262
 21
579.2255996877671
 31
0.0
  0
INSERT
  5
1C0FD
330
1AD45
100
AcDbEntity
  8
30
  6
Continuous
 62
     0
440
 16777216
370
    -2
100
AcDbBlockReference
  2
_OPEN
 10
328.4566686387262
 20
667.2255996877671
 30
0.0
 41
2.0
 42
2.0
 43
2.0
 50
90.0
  0
INSERT
  5
1C0FE
330
1AD45
100
AcDbEntity
  8
30
  6
Continuous
 62
     0
440
 16777216
370
    -2
100
AcDbBlockReference
  2
_OPEN
 10
328.4566686387262
 20
577.2255996877671
 30
0.0
 41
2.0
 42
2.0
 43
2.0
 50
270.0
  0
MTEXT
  5
1C0FF
330
1AD45
100
AcDbEntity
  8
30
  6
Continuous
440
 16777216
100
AcDbMText
 10
321.4566686387261
 20
622.2255996877674
 30
0.0
 40
8.0
 41
0.0
 46
0.0
 71
     5
 72
     1
  1
\A1;90
 11
0.0000000000000001
 21
1.0
 31
0.0
 73
     1
 44
1.0
 90
        3
 63
     9
421
 13158600
 45
1.25
441
        0
  0
POINT
  5
1C100
330
1AD45
100
AcDbEntity
  8
DEFPOINTS
  6
Continuous
 62
     0
440
 16777216
100
AcDbPoint
 10
386.4545765263219
 20
667.2255996877671
 30
0.0
  0
POINT
  5
1C101
330
1AD45
100
AcDbEntity
  8
DEFPOINTS
  6
Continuous
 62
     0
440
 16777216
100
AcDbPoint
 10
378.7408399109063
 20
577.2255996877671
 30
0.0
  0
POINT
  5
1C102
330
1AD45
100
AcDbEntity
  8
DEFPOINTS
  6
Continuous
 62
     0
440
 16777216
100
AcDbPoint
 10
328.4566686387262
 20
577.2255996877671
 30
0.0
  0
ENDBLK
  5
1AD47
330
1AD45
100
AcDbEntity
  8
0
100
AcDbBlockEnd
  0
BLOCK
  5
1AD5E
330
1AD5D
100
AcDbEntity
  8
0
100
AcDbBlockBegin
  2
*D25
 70
     1
 10
0.0
 20
0.0
 30
0.0
  3
*D25
  1

  0
LINE
  5
1C1B7
330
1AD5D
100
AcDbEntity
  8
30
  6
Continuous
 62
     0
440
 16777216
370
    -2
100
AcDbLine
 10
611.9545747383217
 20
736.2255996877678
 30
0.0
 11
628.0608649504435
 21
736.2255996877678
 31
0.0
  0
LINE
  5
1C1B8
330
1AD5D
100
AcDbEntity
  8
30
  6
Continuous
 62
     0
440
 16777216
370
    -2
100
AcDbLine
 10
611.9545747383217
 20
508.2255996877678
 30
0.0
 11
628.0608649504435
 21
508.2255996877678
 31
0.0
  0
LINE
  5
1C1B9
330
1AD5D
100
AcDbEntity
  8
30
  6
Continuous
 62
     0
440
 16777216
370
    -2
100
AcDbLine
 10
627.5608649504436
 20
734.2255996877678
 30
0.0
 11
627.5608649504436
 21
510.2255996877677
 31
0.0
  0
INSERT
  5
1C1BA
330
1AD5D
100
AcDbEntity
  8
30
  6
Continuous
 62
     0
440
 16777216
370
    -2
100
AcDbBlockReference
  2
_OPEN
 10
627.5608649504436
 20
736.2255996877678
 30
0.0
 41
2.0
 42
2.0
 43
2.0
 50
90.0
  0
INSERT
  5
1C1BB
330
1AD5D
100
AcDbEntity
  8
30
  6
Continuous
 62
     0
440
 16777216
370
    -2
100
AcDbBlockReference
  2
_OPEN
 10
627.5608649504436
 20
508.2255996877678
 30
0.0
 41
2.0
 42
2.0
 43
2.0
 50
270.0
  0
MTEXT
  5
1C1BC
330
1AD5D
100
AcDbEntity
  8
30
  6
Continuous
440
 16777216
100
AcDbMText
 10
620.5608649504437
 20
622.2255996877677
 30
0.0
 40
8.0
 41
0.0
 46
0.0
 71
     5
 72
     1
  1
\A1;228
 11
0.0000000000000001
 21
1.0
 31
0.0
 73
     1
 44
1.0
 90
        3
 63
     9
421
 13158600
 45
1.25
441
        0
  0
POINT
  5
1C1BD
330
1AD5D
100
AcDbEntity
  8
DEFPOINTS
  6
Continuous
 62
     0
440
 16777216
100
AcDbPoint
 10
610.9545747383217
 20
736.2255996877678
 30
0.0
  0
POINT
  5
1C1BE
330
1AD5D
100
AcDbEntity
  8
DEFPOINTS
  6
Continuous
 62
     0
440
 16777216
100
AcDbPoint
 10
610.9545747383217
 20
508.2255996877678
 30
0.0
  0
POINT
  5
1C1BF
330
1AD5D
100
AcDbEntity
  8
DEFPOINTS
  6
Continuous
 62
     0
440
 16777216
100
AcDbPoint
 10
627.5608649504436
 20
508.2255996877678
 30
0.0
  0
ENDBLK
  5
1AD5F
330
1AD5D
100
AcDbEntity
  8
0
100
AcDbBlockEnd
  0
BLOCK
  5
1AD6A
330
1AD69
100
AcDbEntity
  8
0
100
AcDbBlockBegin
  2
*D26
 70
     1
 10
0.0
 20
0.0
 30
0.0
  3
*D26
  1

  0
LINE
  5
1C1C0
330
1AD69
100
AcDbEntity
  8
30
 62
     0
440
 16777216
370
    -2
100
AcDbLine
 10
599.9545747383217
 20
760.2255996877671
 30
0.0
 11
650.3337479769397
 21
760.2255996877671
 31
0.0
  0
LINE
  5
1C1C1
330
1AD69
100
AcDbEntity
  8
30
 62
     0
440
 16777216
370
    -2
100
AcDbLine
 10
599.9545747383217
 20
484.2255996877674
 30
0.0
 11
650.3337479769397
 21
484.2255996877673
 31
0.0
  0
LINE
  5
1C1C2
330
1AD69
100
AcDbEntity
  8
30
 62
     0
440
 16777216
370
    -2
100
AcDbLine
 10
649.8337479769397
 20
758.2255996877671
 30
0.0
 11
649.8337479769397
 21
486.2255996877673
 31
0.0
  0
INSERT
  5
1C1C3
330
1AD69
100
AcDbEntity
  8
30
 62
     0
440
 16777216
370
    -2
100
AcDbBlockReference
  2
_OPEN
 10
649.8337479769397
 20
760.2255996877671
 30
0.0
 41
2.0
 42
2.0
 43
2.0
 50
90.0
  0
INSERT
  5
1C1C4
330
1AD69
100
AcDbEntity
  8
30
 62
     0
440
 16777216
370
    -2
100
AcDbBlockReference
  2
_OPEN
 10
649.8337479769397
 20
484.2255996877673
 30
0.0
 41
2.0
 42
2.0
 43
2.0
 50
270.0
  0
MTEXT
  5
1C1C5
330
1AD69
100
AcDbEntity
  8
30
440
 16777216
100
AcDbMText
 10
642.8337479769396
 20
622.2255996877674
 30
0.0
 40
8.0
 41
0.0
 46
0.0
 71
     5
 72
     1
  1
\A1;276
 11
0.0000000000000001
 21
1.0
 31
0.0
 73
     1
 44
1.0
 90
        3
 63
     9
421
 13158600
 45
1.25
441
        0
  0
POINT
  5
1C1C6
330
1AD69
100
AcDbEntity
  8
DEFPOINTS
 62
     0
440
 16777216
100
AcDbPoint
 10
598.9545747383218
 20
760.2255996877671
 30
0.0
  0
POINT
  5
1C1C7
330
1AD69
100
AcDbEntity
  8
DEFPOINTS
 62
     0
440
 16777216
100
AcDbPoint
 10
598.9545747383218
 20
484.2255996877674
 30
0.0
  0
POINT
  5
1C1C8
330
1AD69
100
AcDbEntity
  8
DEFPOINTS
 62
     0
440
 16777216
100
AcDbPoint
 10
649.8337479769397
 20
484.2255996877673
 30
0.0
  0
ENDBLK
  5
1AD6B
330
1AD69
100
AcDbEntity
  8
0
100
AcDbBlockEnd
  0
BLOCK
  5
1AD76
330
1AD75
100
AcDbEntity
  8
0
100
AcDbBlockBegin
  2
*D27
 70
     1
 10
0.0
 20
0.0
 30
0.0
  3
*D27
  1

  0
LINE
  5
1C1DB
330
1AD75
100
AcDbEntity
  8
30
 62
     0
440
 16777216
370
    -2
100
AcDbLine
 10
548.9545747383216
 20
779.7255996877667
 30
0.0
 11
674.2249246028151
 21
779.7255996877667
 31
0.0
  0
LINE
  5
1C1DC
330
1AD75
100
AcDbEntity
  8
30
 62
     0
440
 16777216
370
    -2
100
AcDbLine
 10
547.9545747383216
 20
464.7255996877671
 30
0.0
 11
674.224924602815
 21
464.7255996877671
 31
0.0
  0
LINE
  5
1C1DD
330
1AD75
100
AcDbEntity
  8
30
 62
     0
440
 16777216
370
    -2
100
AcDbLine
 10
673.7249246028151
 20
777.7255996877665
 30
0.0
 11
673.724924602815
 21
466.7255996877671
 31
0.0
  0
INSERT
  5
1C1DE
330
1AD75
100
AcDbEntity
  8
30
 62
     0
440
 16777216
370
    -2
100
AcDbBlockReference
  2
_OPEN
 10
673.7249246028151
 20
779.7255996877667
 30
0.0
 41
2.0
 42
2.0
 43
2.0
 50
90.0
  0
INSERT
  5
1C1DF
330
1AD75
100
AcDbEntity
  8
30
 62
     0
440
 16777216
370
    -2
100
AcDbBlockReference
  2
_OPEN
 10
673.724924602815
 20
464.7255996877671
 30
0.0
 41
2.0
 42
2.0
 43
2.0
 50
270.0
  0
MTEXT
  5
1C1E0
330
1AD75
100
AcDbEntity
  8
30
440
 16777216
100
AcDbMText
 10
666.7249246028147
 20
622.225599687767
 30
0.0
 40
8.0
 41
0.0
 46
0.0
 71
     5
 72
     1
  1
\A1;315
 11
0.0000000000000001
 21
1.0
 31
0.0
 73
     1
 44
1.0
 90
        3
 63
     9
421
 13158600
 45
1.25
441
        0
  0
POINT
  5
1C1E1
330
1AD75
100
AcDbEntity
  8
DEFPOINTS
 62
     0
440
 16777216
100
AcDbPoint
 10
547.9545747383216
 20
779.7255996877667
 30
0.0
  0
POINT
  5
1C1E2
330
1AD75
100
AcDbEntity
  8
DEFPOINTS
 62
     0
440
 16777216
100
AcDbPoint
 10
546.9545747383216
 20
464.7255996877671
 30
0.0
  0
POINT
  5
1C1E3
330
1AD75
100
AcDbEntity
  8
DEFPOINTS
 62
     0
440
 16777216
100
AcDbPoint
 10
673.724924602815
 20
464.7255996877671
 30
0.0
  0
ENDBLK
  5
1AD77
330
1AD75
100
AcDbEntity
  8
0
100
AcDbBlockEnd
  0
BLOCK
  5
1AD82
330
1AD81
100
AcDbEntity
  8
0
100
AcDbBlockBegin
  2
*D28
 70
     1
 10
0.0
 20
0.0
 30
0.0
  3
*D28
  1

  0
LINE
  5
1C127
330
1AD81
100
AcDbEntity
  8
30
  6
Continuous
 62
     0
440
 16777216
370
    -2
100
AcDbLine
 10
369.9545747383219
 20
623.7317024102846
 30
0.0
 11
369.9545747383219
 21
425.6855260624496
 31
0.0
  0
LINE
  5
1C128
330
1AD81
100
AcDbEntity
  8
30
  6
Continuous
 62
     0
440
 16777216
370
    -2
100
AcDbLine
 10
499.9545747383216
 20
491.2255996877672
 30
0.0
 11
499.9545747383216
 21
425.6855260624496
 31
0.0
  0
LINE
  5
1C129
330
1AD81
100
AcDbEntity
  8
30
  6
Continuous
 62
     0
440
 16777216
370
    -2
100
AcDbLine
 10
371.9545747383218
 20
426.1855260624498
 30
0.0
 11
497.9545747383217
 21
426.1855260624498
 31
0.0
  0
INSERT
  5
1C12A
330
1AD81
100
AcDbEntity
  8
30
  6
Continuous
 62
     0
440
 16777216
370
    -2
100
AcDbBlockReference
  2
_OPEN
 10
369.9545747383219
 20
426.1855260624498
 30
0.0
 41
2.0
 42
2.0
 43
2.0
 50
180.0
  0
INSERT
  5
1C12B
330
1AD81
100
AcDbEntity
  8
30
  6
Continuous
 62
     0
440
 16777216
370
    -2
100
AcDbBlockReference
  2
_OPEN
 10
499.9545747383216
 20
426.1855260624498
 30
0.0
 41
2.0
 42
2.0
 43
2.0
  0
MTEXT
  5
1C12C
330
1AD81
100
AcDbEntity
  8
30
  6
Continuous
440
 16777216
100
AcDbMText
 10
434.9545747383215
 20
437.1855260624498
 30
0.0
 40
8.0
 41
0.0
 46
0.0
 71
     2
 72
     1
  1
\A1;130
 73
     1
 44
1.0
 90
        3
 63
     9
421
 13158600
 45
1.25
441
        0
  0
POINT
  5
1C12D
330
1AD81
100
AcDbEntity
  8
DEFPOINTS
  6
Continuous
 62
     0
440
 16777216
100
AcDbPoint
 10
369.9545747383219
 20
624.7317024102847
 30
0.0
  0
POINT
  5
1C12E
330
1AD81
100
AcDbEntity
  8
DEFPOINTS
  6
Continuous
 62
     0
440
 16777216
100
AcDbPoint
 10
499.9545747383216
 20
492.225599687767
 30
0.0
  0
POINT
  5
1C12F
330
1AD81
100
AcDbEntity
  8
DEFPOINTS
  6
Continuous
 62
     0
440
 16777216
100
AcDbPoint
 10
499.9545747383216
 20
426.1855260624498
 30
0.0
  0
ENDBLK
  5
1AD83
330
1AD81
100
AcDbEntity
  8
0
100
AcDbBlockEnd
  0
BLOCK
  5
1AD8E
330
1AD8D
100
AcDbEntity
  8
0
100
AcDbBlockBegin
  2
*D29
 70
     1
 10
0.0
 20
0.0
 30
0.0
  3
*D29
  1

  0
LINE
  5
1C130
330
1AD8D
100
AcDbEntity
  8
30
  6
Continuous
 62
     0
440
 16777216
370
    -2
100
AcDbLine
 10
396.9545747383219
 20
541.0581950563103
 30
0.0
 11
396.9545747383219
 21
457.7255996877672
 31
0.0
  0
LINE
  5
1C131
330
1AD8D
100
AcDbEntity
  8
30
  6
Continuous
 62
     0
440
 16777216
370
    -2
100
AcDbLine
 10
499.9545747383216
 20
491.2255996877672
 30
0.0
 11
499.9545747383216
 21
457.7255996877672
 31
0.0
  0
LINE
  5
1C132
330
1AD8D
100
AcDbEntity
  8
30
  6
Continuous
 62
     0
440
 16777216
370
    -2
100
AcDbLine
 10
398.9545747383218
 20
458.2255996877671
 30
0.0
 11
497.9545747383217
 21
458.2255996877671
 31
0.0
  0
INSERT
  5
1C133
330
1AD8D
100
AcDbEntity
  8
30
  6
Continuous
 62
     0
440
 16777216
370
    -2
100
AcDbBlockReference
  2
_OPEN
 10
396.9545747383219
 20
458.2255996877671
 30
0.0
 41
2.0
 42
2.0
 43
2.0
 50
180.0
  0
INSERT
  5
1C134
330
1AD8D
100
AcDbEntity
  8
30
  6
Continuous
 62
     0
440
 16777216
370
    -2
100
AcDbBlockReference
  2
_OPEN
 10
499.9545747383216
 20
458.2255996877671
 30
0.0
 41
2.0
 42
2.0
 43
2.0
  0
MTEXT
  5
1C135
330
1AD8D
100
AcDbEntity
  8
30
  6
Continuous
440
 16777216
100
AcDbMText
 10
448.4545747383217
 20
469.2255996877671
 30
0.0
 40
8.0
 41
0.0
 46
0.0
 71
     2
 72
     1
  1
\A1;103
 73
     1
 44
1.0
 90
        3
 63
     9
421
 13158600
 45
1.25
441
        0
  0
POINT
  5
1C136
330
1AD8D
100
AcDbEntity
  8
DEFPOINTS
  6
Continuous
 62
     0
440
 16777216
100
AcDbPoint
 10
396.9545747383219
 20
542.0581950563103
 30
0.0
  0
POINT
  5
1C137
330
1AD8D
100
AcDbEntity
  8
DEFPOINTS
  6
Continuous
 62
     0
440
 16777216
100
AcDbPoint
 10
499.9545747383216
 20
492.225599687767
 30
0.0
  0
POINT
  5
1C138
330
1AD8D
100
AcDbEntity
  8
DEFPOINTS
  6
Continuous
 62
     0
440
 16777216
100
AcDbPoint
 10
499.9545747383216
 20
458.2255996877671
 30
0.0
  0
ENDBLK
  5
1AD8F
330
1AD8D
100
AcDbEntity
  8
0
100
AcDbBlockEnd
  0
BLOCK
  5
1AD9A
330
1AD99
100
AcDbEntity
  8
0
100
AcDbBlockBegin
  2
*D30
 70
     1
 10
0.0
 20
0.0
 30
0.0
  3
*D30
  1

  0
LINE
  5
1C139
330
1AD99
100
AcDbEntity
  8
30
  6
Continuous
 62
     0
440
 16777216
370
    -2
100
AcDbLine
 10
348.9610789688068
 20
633.7317024102847
 30
0.0
 11
348.9610789688068
 21
408.3614547366773
 31
0.0
  0
LINE
  5
1C13A
330
1AD99
100
AcDbEntity
  8
30
  6
Continuous
 62
     0
440
 16777216
370
    -2
100
AcDbLine
 10
499.9545747383216
 20
424.6855260624498
 30
0.0
 11
499.9545747383216
 21
408.3614547366773
 31
0.0
  0
LINE
  5
1C13B
330
1AD99
100
AcDbEntity
  8
30
  6
Continuous
 62
     0
440
 16777216
370
    -2
100
AcDbLine
 10
350.9610789688068
 20
408.8614547366772
 30
0.0
 11
497.9545747383217
 21
408.8614547366772
 31
0.0
  0
INSERT
  5
1C13C
330
1AD99
100
AcDbEntity
  8
30
  6
Continuous
 62
     0
440
 16777216
370
    -2
100
AcDbBlockReference
  2
_OPEN
 10
348.9610789688068
 20
408.8614547366772
 30
0.0
 41
2.0
 42
2.0
 43
2.0
 50
180.0
  0
INSERT
  5
1C13D
330
1AD99
100
AcDbEntity
  8
30
  6
Continuous
 62
     0
440
 16777216
370
    -2
100
AcDbBlockReference
  2
_OPEN
 10
499.9545747383216
 20
408.8614547366772
 30
0.0
 41
2.0
 42
2.0
 43
2.0
  0
MTEXT
  5
1C13E
330
1AD99
100
AcDbEntity
  8
30
  6
Continuous
440
 16777216
100
AcDbMText
 10
424.4578268535642
 20
415.8614547366775
 30
0.0
 40
8.0
 41
0.0
 46
0.0
 71
     5
 72
     1
  1
\A1;151
 73
     1
 44
1.0
 90
        3
 63
     9
421
 13158600
 45
1.25
441
        0
  0
POINT
  5
1C13F
330
1AD99
100
AcDbEntity
  8
DEFPOINTS
  6
Continuous
 62
     0
440
 16777216
100
AcDbPoint
 10
348.9610789688068
 20
634.7317024102847
 30
0.0
  0
POINT
  5
1C140
330
1AD99
100
AcDbEntity
  8
DEFPOINTS
  6
Continuous
 62
     0
440
 16777216
100
AcDbPoint
 10
499.9545747383216
 20
425.6855260624496
 30
0.0
  0
POINT
  5
1C141
330
1AD99
100
AcDbEntity
  8
DEFPOINTS
  6
Continuous
 62
     0
440
 16777216
100
AcDbPoint
 10
499.9545747383216
 20
408.8614547366772
 30
0.0
  0
ENDBLK
  5
1AD9B
330
1AD99
100
AcDbEntity
  8
0
100
AcDbBlockEnd
  0
BLOCK
  5
1ADA6
330
1ADA5
100
AcDbEntity
  8
0
100
AcDbBlockBegin
  2
*D31
 70
     1
 10
0.0
 20
0.0
 30
0.0
  3
*D31
  1

  0
LINE
  5
1C142
330
1ADA5
100
AcDbEntity
  8
30
  6
Continuous
 62
     0
440
 16777216
370
    -2
100
AcDbLine
 10
392.9545746193216
 20
568.7317024102847
 30
0.0
 11
392.9545746193216
 21
441.4861187994921
 31
0.0
  0
LINE
  5
1C143
330
1ADA5
100
AcDbEntity
  8
30
  6
Continuous
 62
     0
440
 16777216
370
    -2
100
AcDbLine
 10
384.9545746193216
 20
568.7317024102847
 30
0.0
 11
384.9545746193216
 21
441.4861187994921
 31
0.0
  0
LINE
  5
1C144
330
1ADA5
100
AcDbEntity
  8
30
  6
Continuous
 62
     0
440
 16777216
370
    -2
100
AcDbLine
 10
394.9545746193217
 20
441.9861187994921
 30
0.0
 11
396.9545746193217
 21
441.9861187994921
 31
0.0
  0
LINE
  5
1C145
330
1ADA5
100
AcDbEntity
  8
30
  6
Continuous
 62
     0
440
 16777216
370
    -2
100
AcDbLine
 10
382.9545746193216
 20
441.9861187994921
 30
0.0
 11
369.6212412859883
 21
441.9861187994921
 31
0.0
  0
LINE
  5
1C146
330
1ADA5
100
AcDbEntity
  8
30
  6
Continuous
 62
     0
440
 16777216
370
    -2
100
AcDbLine
 10
392.9545746193216
 20
441.9861187994921
 30
0.0
 11
384.9545746193216
 21
441.9861187994921
 31
0.0
  0
INSERT
  5
1C147
330
1ADA5
100
AcDbEntity
  8
30
  6
Continuous
 62
     0
440
 16777216
370
    -2
100
AcDbBlockReference
  2
_OPEN
 10
392.9545746193216
 20
441.9861187994921
 30
0.0
 41
2.0
 42
2.0
 43
2.0
 50
180.0
  0
INSERT
  5
1C148
330
1ADA5
100
AcDbEntity
  8
30
  6
Continuous
 62
     0
440
 16777216
370
    -2
100
AcDbBlockReference
  2
_OPEN
 10
384.9545746193216
 20
441.9861187994921
 30
0.0
 41
2.0
 42
2.0
 43
2.0
  0
MTEXT
  5
1C149
330
1ADA5
100
AcDbEntity
  8
30
  6
Continuous
 62
     0
440
 16777216
100
AcDbMText
 10
375.287907952655
 20
448.9861187994921
 30
0.0
 40
8.0
 41
0.0
 46
0.0
 71
     5
 72
     1
  1
\A1;8
 73
     1
 44
1.0
  0
POINT
  5
1C14A
330
1ADA5
100
AcDbEntity
  8
DEFPOINTS
  6
Continuous
 62
     0
440
 16777216
100
AcDbPoint
 10
392.9545746193216
 20
571.7317024102847
 30
0.0
  0
POINT
  5
1C14B
330
1ADA5
100
AcDbEntity
  8
DEFPOINTS
  6
Continuous
 62
     0
440
 16777216
100
AcDbPoint
 10
384.9545746193216
 20
571.7317024102847
 30
0.0
  0
POINT
  5
1C14C
330
1ADA5
100
AcDbEntity
  8
DEFPOINTS
  6
Continuous
 62
     0
440
 16777216
100
AcDbPoint
 10
384.9545746193216
 20
441.9861187994921
 30
0.0
  0
ENDBLK
  5
1ADA7
330
1ADA5
100
AcDbEntity
  8
0
100
AcDbBlockEnd
  0
BLOCK
  5
1ADB4
330
1ADB3
100
AcDbEntity
  8
0
100
AcDbBlockBegin
  2
*D32
 70
     1
 10
0.0
 20
0.0
 30
0.0
  3
*D32
  1

  0
LINE
  5
1C14D
330
1ADB3
100
AcDbEntity
  8
30
  6
Continuous
 62
     0
440
 16777216
370
    -2
100
AcDbLine
 10
392.9545746193216
 20
442.986118799492
 30
0.0
 11
392.9545746193216
 21
442.486118799492
 31
0.0
  0
LINE
  5
1C14E
330
1ADB3
100
AcDbEntity
  8
30
  6
Continuous
 62
     0
440
 16777216
370
    -2
100
AcDbLine
 10
499.9545747383216
 20
457.2255996877671
 30
0.0
 11
499.9545747383216
 21
441.4861187994921
 31
0.0
  0
LINE
  5
1C14F
330
1ADB3
100
AcDbEntity
  8
30
  6
Continuous
 62
     0
440
 16777216
370
    -2
100
AcDbLine
 10
394.9545746193217
 20
441.9861187994921
 30
0.0
 11
497.9545747383217
 21
441.9861187994921
 31
0.0
  0
INSERT
  5
1C150
330
1ADB3
100
AcDbEntity
  8
30
  6
Continuous
 62
     0
440
 16777216
370
    -2
100
AcDbBlockReference
  2
_OPEN
 10
392.9545746193216
 20
441.9861187994921
 30
0.0
 41
2.0
 42
2.0
 43
2.0
 50
180.0
  0
INSERT
  5
1C151
330
1ADB3
100
AcDbEntity
  8
30
  6
Continuous
 62
     0
440
 16777216
370
    -2
100
AcDbBlockReference
  2
_OPEN
 10
499.9545747383216
 20
441.9861187994921
 30
0.0
 41
2.0
 42
2.0
 43
2.0
  0
MTEXT
  5
1C152
330
1ADB3
100
AcDbEntity
  8
30
  6
Continuous
440
 16777216
100
AcDbMText
 10
446.4545746788217
 20
448.9861187994921
 30
0.0
 40
8.0
 41
0.0
 46
0.0
 71
     5
 72
     1
  1
\A1;107
 73
     1
 44
1.0
 90
        3
 63
     9
421
 13158600
 45
1.25
441
        0
  0
POINT
  5
1C153
330
1ADB3
100
AcDbEntity
  8
DEFPOINTS
  6
Continuous
 62
     0
440
 16777216
100
AcDbPoint
 10
392.9545746193216
 20
441.9861187994921
 30
0.0
  0
POINT
  5
1C154
330
1ADB3
100
AcDbEntity
  8
DEFPOINTS
  6
Continuous
 62
     0
440
 16777216
100
AcDbPoint
 10
499.9545747383216
 20
458.2255996877671
 30
0.0
  0
POINT
  5
1C155
330
1ADB3
100
AcDbEntity
  8
DEFPOINTS
  6
Continuous
 62
     0
440
 16777216
100
AcDbPoint
 10
499.9545747383216
 20
441.9861187994921
 30
0.0
  0
ENDBLK
  5
1ADB5
330
1ADB3
100
AcDbEntity
  8
0
100
AcDbBlockEnd
  0
BLOCK
  5
1BBEF
330
1BBEE
100
AcDbEntity
  8
0
100
AcDbBlockBegin
  2
*D33
 70
     1
 10
0.0
 20
0.0
 30
0.0
  3
*D33
  1

  0
LINE
  5
1C413
330
1BBEE
100
AcDbEntity
  8
30
 62
     0
440
 16777216
370
    -2
100
AcDbLine
 10
155.2918624424319
 20
297.1315230904322
 30
0.0
 11
260.1426767295962
 21
297.1315230904322
 31
0.0
  0
LINE
  5
1C414
330
1BBEE
100
AcDbEntity
  8
30
 62
     0
440
 16777216
370
    -2
100
AcDbLine
 10
155.2918624424319
 20
157.1315230904321
 30
0.0
 11
260.1426767295962
 21
157.131523090432
 31
0.0
  0
LINE
  5
1C415
330
1BBEE
100
AcDbEntity
  8
30
 62
     0
440
 16777216
370
    -2
100
AcDbLine
 10
259.6426767295962
 20
295.1315230904322
 30
0.0
 11
259.6426767295962
 21
159.1315230904321
 31
0.0
  0
INSERT
  5
1C416
330
1BBEE
100
AcDbEntity
  8
30
 62
     0
440
 16777216
370
    -2
100
AcDbBlockReference
  2
_OPEN
 10
259.6426767295962
 20
297.1315230904322
 30
0.0
 41
2.0
 42
2.0
 43
2.0
 50
90.0
  0
INSERT
  5
1C417
330
1BBEE
100
AcDbEntity
  8
30
 62
     0
440
 16777216
370
    -2
100
AcDbBlockReference
  2
_OPEN
 10
259.6426767295962
 20
157.131523090432
 30
0.0
 41
2.0
 42
2.0
 43
2.0
 50
270.0
  0
MTEXT
  5
1C418
330
1BBEE
100
AcDbEntity
  8
30
440
 16777216
100
AcDbMText
 10
252.6426767295962
 20
227.1315230904329
 30
0.0
 40
8.0
 41
0.0
 46
0.0
 71
     5
 72
     1
  1
\A1;140
 11
0.0000000000000001
 21
1.0
 31
0.0
 73
     1
 44
1.0
 90
        3
 63
     9
421
 13158600
 45
1.25
441
        0
  0
POINT
  5
1C419
330
1BBEE
100
AcDbEntity
  8
DEFPOINTS
 62
     0
440
 16777216
100
AcDbPoint
 10
154.2918624424319
 20
297.1315230904322
 30
0.0
  0
POINT
  5
1C41A
330
1BBEE
100
AcDbEntity
  8
DEFPOINTS
 62
     0
440
 16777216
100
AcDbPoint
 10
154.2918624424319
 20
157.1315230904321
 30
0.0
  0
POINT
  5
1C41B
330
1BBEE
100
AcDbEntity
  8
DEFPOINTS
 62
     0
440
 16777216
100
AcDbPoint
 10
259.6426767295962
 20
157.131523090432
 30
0.0
  0
ENDBLK
  5
1BBF0
330
1BBEE
100
AcDbEntity
  8
0
100
AcDbBlockEnd
  0
BLOCK
  5
1BBFB
330
1BBFA
100
AcDbEntity
  8
0
100
AcDbBlockBegin
  2
*D34
 70
     1
 10
0.0
 20
0.0
 30
0.0
  3
*D34
  1

  0
LINE
  5
1C425
330
1BBFA
100
AcDbEntity
  8
30
  6
Continuous
 62
     0
440
 16777216
370
    -2
100
AcDbLine
 10
157.2918624424319
 20
297.1315230904322
 30
0.0
 11
255.2517476631219
 21
297.1315230904322
 31
0.0
  0
LINE
  5
1C426
330
1BBFA
100
AcDbEntity
  8
30
  6
Continuous
 62
     0
440
 16777216
370
    -2
100
AcDbLine
 10
205.5586140014311
 20
272.1315230904321
 30
0.0
 11
255.2517476631219
 21
272.1315230904321
 31
0.0
  0
LINE
  5
1C427
330
1BBFA
100
AcDbEntity
  8
30
  6
Continuous
 62
     0
440
 16777216
370
    -2
100
AcDbLine
 10
254.7517476631219
 20
295.1315230904322
 30
0.0
 11
254.7517476631219
 21
274.1315230904321
 31
0.0
  0
INSERT
  5
1C428
330
1BBFA
100
AcDbEntity
  8
30
  6
Continuous
 62
     0
440
 16777216
370
    -2
100
AcDbBlockReference
  2
_OPEN
 10
254.7517476631219
 20
297.1315230904322
 30
0.0
 41
2.0
 42
2.0
 43
2.0
 50
90.0
  0
INSERT
  5
1C429
330
1BBFA
100
AcDbEntity
  8
30
  6
Continuous
 62
     0
440
 16777216
370
    -2
100
AcDbBlockReference
  2
_OPEN
 10
254.7517476631219
 20
272.1315230904321
 30
0.0
 41
2.0
 42
2.0
 43
2.0
 50
270.0
  0
MTEXT
  5
1C42A
330
1BBFA
100
AcDbEntity
  8
30
  6
Continuous
440
 16777216
100
AcDbMText
 10
243.7517476631219
 20
284.631523090433
 30
0.0
 40
8.0
 41
0.0
 46
0.0
 71
     2
 72
     1
  1
\A1;25
 11
0.0000000000000001
 21
1.0
 31
0.0
 73
     1
 44
1.0
 90
        3
 63
     9
421
 13158600
 45
1.25
441
        0
  0
POINT
  5
1C42B
330
1BBFA
100
AcDbEntity
  8
DEFPOINTS
  6
Continuous
 62
     0
440
 16777216
100
AcDbPoint
 10
156.2918624424319
 20
297.1315230904322
 30
0.0
  0
POINT
  5
1C42C
330
1BBFA
100
AcDbEntity
  8
DEFPOINTS
  6
Continuous
 62
     0
440
 16777216
100
AcDbPoint
 10
204.5586140014311
 20
272.1315230904321
 30
0.0
  0
POINT
  5
1C42D
330
1BBFA
100
AcDbEntity
  8
DEFPOINTS
  6
Continuous
 62
     0
440
 16777216
100
AcDbPoint
 10
254.7517476631219
 20
272.1315230904321
 30
0.0
  0
ENDBLK
  5
1BBFC
330
1BBFA
100
AcDbEntity
  8
0
100
AcDbBlockEnd
  0
BLOCK
  5
1BC07
330
1BC06
100
AcDbEntity
  8
0
100
AcDbBlockBegin
  2
*D35
 70
     1
 10
0.0
 20
0.0
 30
0.0
  3
*D35
  1

  0
LINE
  5
1C401
330
1BC06
100
AcDbEntity
  8
30
  6
Continuous
 62
     0
440
 16777216
370
    -2
100
AcDbLine
 10
174.381143784446
 20
157.1315230904321
 30
0.0
 11
255.9504555404855
 21
157.131523090432
 31
0.0
  0
LINE
  5
1C402
330
1BC06
100
AcDbEntity
  8
30
  6
Continuous
 62
     0
440
 16777216
370
    -2
100
AcDbLine
 10
197.5418624424319
 20
182.1315230904321
 30
0.0
 11
255.9504555404855
 21
182.1315230904321
 31
0.0
  0
LINE
  5
1C403
330
1BC06
100
AcDbEntity
  8
30
  6
Continuous
 62
     0
440
 16777216
370
    -2
100
AcDbLine
 10
255.4504555404855
 20
159.1315230904321
 30
0.0
 11
255.4504555404855
 21
180.1315230904321
 31
0.0
  0
INSERT
  5
1C404
330
1BC06
100
AcDbEntity
  8
30
  6
Continuous
 62
     0
440
 16777216
370
    -2
100
AcDbBlockReference
  2
_OPEN
 10
255.4504555404855
 20
157.131523090432
 30
0.0
 41
2.0
 42
2.0
 43
2.0
 50
270.0
  0
INSERT
  5
1C405
330
1BC06
100
AcDbEntity
  8
30
  6
Continuous
 62
     0
440
 16777216
370
    -2
100
AcDbBlockReference
  2
_OPEN
 10
255.4504555404855
 20
182.1315230904321
 30
0.0
 41
2.0
 42
2.0
 43
2.0
 50
90.0
  0
MTEXT
  5
1C406
330
1BC06
100
AcDbEntity
  8
30
  6
Continuous
440
 16777216
100
AcDbMText
 10
244.4504555404855
 20
169.6315230904335
 30
0.0
 40
8.0
 41
0.0
 46
0.0
 71
     2
 72
     1
  1
\A1;25
 11
0.0000000000000001
 21
1.0
 31
0.0
 73
     1
 44
1.0
 90
        3
 63
     9
421
 13158600
 45
1.25
441
        0
  0
POINT
  5
1C407
330
1BC06
100
AcDbEntity
  8
DEFPOINTS
  6
Continuous
 62
     0
440
 16777216
100
AcDbPoint
 10
173.381143784446
 20
157.1315230904321
 30
0.0
  0
POINT
  5
1C408
330
1BC06
100
AcDbEntity
  8
DEFPOINTS
  6
Continuous
 62
     0
440
 16777216
100
AcDbPoint
 10
196.5418624424319
 20
182.1315230904321
 30
0.0
  0
POINT
  5
1C409
330
1BC06
100
AcDbEntity
  8
DEFPOINTS
  6
Continuous
 62
     0
440
 16777216
100
AcDbPoint
 10
255.4504555404855
 20
182.1315230904321
 30
0.0
  0
ENDBLK
  5
1BC08
330
1BC06
100
AcDbEntity
  8
0
100
AcDbBlockEnd
  0
BLOCK
  5
1C190
330
1C18F
100
AcDbEntity
  8
0
100
AcDbBlockBegin
  2
*D36
 70
     1
 10
0.0
 20
0.0
 30
0.0
  3
*D36
  1

  0
LINE
  5
1C1D2
330
1C18F
100
AcDbEntity
  8
30
 62
     0
440
 16777216
370
    -2
100
AcDbLine
 10
396.9545775993211
 20
709.7256002116121
 30
0.0
 11
396.9545775993211
 21
794.6760361637461
 31
0.0
  0
LINE
  5
1C1D3
330
1C18F
100
AcDbEntity
  8
30
 62
     0
440
 16777216
370
    -2
100
AcDbLine
 10
547.9545747383216
 20
780.7255996877667
 30
0.0
 11
547.9545747383216
 21
794.6760361637461
 31
0.0
  0
LINE
  5
1C1D4
330
1C18F
100
AcDbEntity
  8
30
 62
     0
440
 16777216
370
    -2
100
AcDbLine
 10
398.9545775993211
 20
794.1760361637461
 30
0.0
 11
545.9545747383216
 21
794.1760361637461
 31
0.0
  0
INSERT
  5
1C1D5
330
1C18F
100
AcDbEntity
  8
30
 62
     0
440
 16777216
370
    -2
100
AcDbBlockReference
  2
_OPEN
 10
396.9545775993211
 20
794.1760361637461
 30
0.0
 41
2.0
 42
2.0
 43
2.0
 50
180.0
  0
INSERT
  5
1C1D6
330
1C18F
100
AcDbEntity
  8
30
 62
     0
440
 16777216
370
    -2
100
AcDbBlockReference
  2
_OPEN
 10
547.9545747383216
 20
794.1760361637461
 30
0.0
 41
2.0
 42
2.0
 43
2.0
  0
MTEXT
  5
1C1D7
330
1C18F
100
AcDbEntity
  8
30
440
 16777216
100
AcDbMText
 10
472.4545761688213
 20
801.1760361637461
 30
0.0
 40
8.0
 41
0.0
 46
0.0
 71
     5
 72
     1
  1
\A1;151
 73
     1
 44
1.0
 90
        3
 63
     9
421
 13158600
 45
1.25
441
        0
  0
POINT
  5
1C1D8
330
1C18F
100
AcDbEntity
  8
DEFPOINTS
 62
     0
440
 16777216
100
AcDbPoint
 10
396.9545775993211
 20
708.7256002116121
 30
0.0
  0
POINT
  5
1C1D9
330
1C18F
100
AcDbEntity
  8
DEFPOINTS
 62
     0
440
 16777216
100
AcDbPoint
 10
547.9545747383216
 20
779.7255996877667
 30
0.0
  0
POINT
  5
1C1DA
330
1C18F
100
AcDbEntity
  8
DEFPOINTS
 62
     0
440
 16777216
100
AcDbPoint
 10
547.9545747383216
 20
794.1760361637461
 30
0.0
  0
ENDBLK
  5
1C191
330
1C18F
100
AcDbEntity
  8
0
100
AcDbBlockEnd
  0
BLOCK
  5
1C1EF
330
1C1EE
100
AcDbEntity
  8
0
100
AcDbBlockBegin
  2
*D37
 70
     1
 10
0.0
 20
0.0
 30
0.0
  3
*D37
  1

  0
LINE
  5
1C242
330
1C1EE
100
AcDbEntity
  8
30
 62
     0
440
 16777216
370
    -2
100
AcDbLine
 10
42.59186468393219
 20
482.1512619543056
 30
0.0
 11
42.59186468393219
 21
433.2886974699579
 31
0.0
  0
LINE
  5
1C243
330
1C1EE
100
AcDbEntity
  8
30
 62
     0
440
 16777216
370
    -2
100
AcDbLine
 10
227.5918619894321
 20
482.1512619543056
 30
0.0
 11
227.5918619894321
 21
433.2886974699579
 31
0.0
  0
LINE
  5
1C244
330
1C1EE
100
AcDbEntity
  8
30
 62
     0
440
 16777216
370
    -2
100
AcDbLine
 10
44.59186468393219
 20
433.7886974699578
 30
0.0
 11
225.5918619894321
 21
433.7886974699578
 31
0.0
  0
INSERT
  5
1C245
330
1C1EE
100
AcDbEntity
  8
30
 62
     0
440
 16777216
370
    -2
100
AcDbBlockReference
  2
_OPEN
 10
42.59186468393219
 20
433.7886974699578
 30
0.0
 41
2.0
 42
2.0
 43
2.0
 50
180.0
  0
INSERT
  5
1C246
330
1C1EE
100
AcDbEntity
  8
30
 62
     0
440
 16777216
370
    -2
100
AcDbBlockReference
  2
_OPEN
 10
227.5918619894321
 20
433.7886974699578
 30
0.0
 41
2.0
 42
2.0
 43
2.0
  0
MTEXT
  5
1C247
330
1C1EE
100
AcDbEntity
  8
30
440
 16777216
100
AcDbMText
 10
135.0918633366821
 20
440.7886974699581
 30
0.0
 40
8.0
 41
0.0
 46
0.0
 71
     5
 72
     1
  1
\A1;185
 73
     1
 44
1.0
 90
        3
 63
     9
421
 13158600
 45
1.25
441
        0
  0
POINT
  5
1C248
330
1C1EE
100
AcDbEntity
  8
DEFPOINTS
 62
     0
440
 16777216
100
AcDbPoint
 10
42.59186468393219
 20
483.1512619543055
 30
0.0
  0
POINT
  5
1C249
330
1C1EE
100
AcDbEntity
  8
DEFPOINTS
 62
     0
440
 16777216
100
AcDbPoint
 10
227.5918619894321
 20
483.1512619543055
 30
0.0
  0
POINT
  5
1C24A
330
1C1EE
100
AcDbEntity
  8
DEFPOINTS
 62
     0
440
 16777216
100
AcDbPoint
 10
227.5918619894321
 20
433.7886974699578
 30
0.0
  0
ENDBLK
  5
1C1F0
330
1C1EE
100
AcDbEntity
  8
0
100
AcDbBlockEnd
  0
BLOCK
  5
1C24D
330
1C24C
100
AcDbEntity
  8
0
100
AcDbBlockBegin
  2
*D38
 70
     1
 10
0.0
 20
0.0
 30
0.0
  3
*D38
  1

  0
LINE
  5
1C24F
330
1C24C
100
AcDbEntity
  8
30
 62
     0
440
 16777216
370
    -2
100
AcDbLine
 10
135.0418624424319
 20
797.1512686303054
 30
0.0
 11
135.0418624424319
 21
821.2601116468594
 31
0.0
  0
LINE
  5
1C250
330
1C24C
100
AcDbEntity
  8
30
 62
     0
440
 16777216
370
    -2
100
AcDbLine
 10
112.5418624424319
 20
796.3612863520593
 30
0.0
 11
112.5418624424319
 21
821.2601116468594
 31
0.0
  0
LINE
  5
1C251
330
1C24C
100
AcDbEntity
  8
30
 62
     0
440
 16777216
370
    -2
100
AcDbLine
 10
133.0418624424319
 20
820.7601116468593
 30
0.0
 11
114.5418624424319
 21
820.7601116468593
 31
0.0
  0
LINE
  5
1C252
330
1C24C
100
AcDbEntity
  8
30
 62
     0
440
 16777216
370
    -2
100
AcDbLine
 10
112.5418624424319
 20
820.7601116468593
 30
0.0
 11
80.54186244243192
 21
820.7601116468593
 31
0.0
  0
INSERT
  5
1C253
330
1C24C
100
AcDbEntity
  8
30
 62
     0
440
 16777216
370
    -2
100
AcDbBlockReference
  2
_OPEN
 10
135.0418624424319
 20
820.7601116468593
 30
0.0
 41
2.0
 42
2.0
 43
2.0
  0
INSERT
  5
1C254
330
1C24C
100
AcDbEntity
  8
30
 62
     0
440
 16777216
370
    -2
100
AcDbBlockReference
  2
_OPEN
 10
112.5418624424319
 20
820.7601116468593
 30
0.0
 41
2.0
 42
2.0
 43
2.0
 50
180.0
  0
MTEXT
  5
1C255
330
1C24C
100
AcDbEntity
  8
30
440
 16777216
100
AcDbMText
 10
95.54186244243192
 20
827.7601116468593
 30
0.0
 40
8.0
 41
0.0
 46
0.0
 71
     5
 72
     1
  1
\A1;22.5
 73
     1
 44
1.0
 90
        3
 63
     9
421
 13158600
 45
1.25
441
        0
  0
POINT
  5
1C256
330
1C24C
100
AcDbEntity
  8
DEFPOINTS
 62
     0
440
 16777216
100
AcDbPoint
 10
135.0418624424319
 20
796.1512686303055
 30
0.0
  0
POINT
  5
1C257
330
1C24C
100
AcDbEntity
  8
DEFPOINTS
 62
     0
440
 16777216
100
AcDbPoint
 10
112.5418624424319
 20
795.3612863520588
 30
0.0
  0
POINT
  5
1C258
330
1C24C
100
AcDbEntity
  8
DEFPOINTS
 62
     0
440
 16777216
100
AcDbPoint
 10
112.5418624424319
 20
820.7601116468593
 30
0.0
  0
ENDBLK
  5
1C24E
330
1C24C
100
AcDbEntity
  8
0
100
AcDbBlockEnd
  0
BLOCK
  5
1C2B4
330
1C2B3
100
AcDbEntity
  8
0
100
AcDbBlockBegin
  2
*D39
 70
     1
 10
0.0
 20
0.0
 30
0.0
  3
*D39
  1

  0
LINE
  5
1C2EE
330
1C2B3
100
AcDbEntity
  8
30
  6
Continuous
 62
     0
370
    -2
100
AcDbLine
 10
660.5895710958122
 20
868.1739749631674
 30
0.0
 11
636.4066505503171
 21
838.0497893527751
 31
0.0
  0
MTEXT
  5
1C2EF
330
1C2B3
100
AcDbEntity
  8
30
  6
Continuous
100
AcDbMText
 10
648.2447381363807
 20
863.9781318770005
 30
0.0
 40
8.0
 41
0.0
 46
0.0
 71
     5
 72
     1
  1
\A1;∅11
 11
0.6260132997092887
 21
0.7798123803756187
 31
0.0
 73
     1
 44
1.0
 90
        3
 63
     9
421
 13158600
 45
1.25
441
        0
  0
INSERT
  5
1C2F0
330
1C2B3
100
AcDbEntity
  8
30
  6
Continuous
 62
     0
370
    -2
100
AcDbBlockReference
  2
_OPEN
 10
635.1546239508987
 20
836.4901645920237
 30
0.0
 41
2.0
 42
2.0
 43
2.0
 50
231.2434003354182
  0
LINE
  5
1C2F1
330
1C2B3
100
AcDbEntity
  8
30
  6
Continuous
 62
     0
370
    -2
100
AcDbLine
 10
631.621550802498
 20
832.2011964999585
 30
0.0
 11
631.8015508024982
 21
832.2011964999585
 31
0.0
  0
LINE
  5
1C2F2
330
1C2B3
100
AcDbEntity
  8
30
  6
Continuous
 62
     0
370
    -2
100
AcDbLine
 10
631.7115508024982
 20
832.1111964999584
 30
0.0
 11
631.7115508024981
 21
832.2911964999587
 31
0.0
  0
POINT
  5
1C2F3
330
1C2B3
100
AcDbEntity
  8
DEFPOINTS
  6
Continuous
 62
     0
100
AcDbPoint
 10
635.1546239508987
 20
836.4901645920237
 30
0.0
  0
POINT
  5
1C2F4
330
1C2B3
100
AcDbEntity
  8
DEFPOINTS
  6
Continuous
 62
     0
100
AcDbPoint
 10
628.2684776540971
 20
827.912228407893
 30
0.0
  0
ENDBLK
  5
1C2B5
330
1C2B3
100
AcDbEntity
  8
0
100
AcDbBlockEnd
  0
BLOCK
  5
1C2BE
330
1C2BD
100
AcDbEntity
  8
0
100
AcDbBlockBegin
  2
*D40
 70
     1
 10
0.0
 20
0.0
 30
0.0
  3
*D40
  1

  0
LINE
  5
1C2F5
330
1C2BD
100
AcDbEntity
  8
30
  6
Continuous
 62
     0
370
    -2
100
AcDbLine
 10
647.711550802497
 20
812.2011964999583
 30
0.0
 11
663.653880480686
 21
812.2011964999583
 31
0.0
  0
LINE
  5
1C2F6
330
1C2BD
100
AcDbEntity
  8
30
  6
Continuous
 62
     0
370
    -2
100
AcDbLine
 10
640.211550802497
 20
832.2011964999584
 30
0.0
 11
663.653880480686
 21
832.2011964999584
 31
0.0
  0
LINE
  5
1C2F7
330
1C2BD
100
AcDbEntity
  8
30
  6
Continuous
 62
     0
370
    -2
100
AcDbLine
 10
663.153880480686
 20
814.2011964999582
 30
0.0
 11
663.153880480686
 21
830.2011964999582
 31
0.0
  0
INSERT
  5
1C2F8
330
1C2BD
100
AcDbEntity
  8
30
  6
Continuous
 62
     0
370
    -2
100
AcDbBlockReference
  2
_OPEN
 10
663.153880480686
 20
812.2011964999583
 30
0.0
 41
2.0
 42
2.0
 43
2.0
 50
270.0
  0
INSERT
  5
1C2F9
330
1C2BD
100
AcDbEntity
  8
30
  6
Continuous
 62
     0
370
    -2
100
AcDbBlockReference
  2
_OPEN
 10
663.153880480686
 20
832.2011964999584
 30
0.0
 41
2.0
 42
2.0
 43
2.0
 50
90.0
  0
MTEXT
  5
1C2FA
330
1C2BD
100
AcDbEntity
  8
30
  6
Continuous
100
AcDbMText
 10
656.1538804806858
 20
822.2011964999586
 30
0.0
 40
8.0
 41
0.0
 46
0.0
 71
     5
 72
     1
  1
\A1;20
 11
0.0000000000000001
 21
1.0
 31
0.0
 73
     1
 44
1.0
 90
        3
 63
     9
421
 13158600
 45
1.25
441
        0
  0
POINT
  5
1C2FB
330
1C2BD
100
AcDbEntity
  8
DEFPOINTS
  6
Continuous
 62
     0
100
AcDbPoint
 10
646.7115508024972
 20
812.2011964999583
 30
0.0
  0
POINT
  5
1C2FC
330
1C2BD
100
AcDbEntity
  8
DEFPOINTS
  6
Continuous
 62
     0
100
AcDbPoint
 10
639.211550802497
 20
832.2011964999584
 30
0.0
  0
POINT
  5
1C2FD
330
1C2BD
100
AcDbEntity
  8
DEFPOINTS
  6
Continuous
 62
     0
100
AcDbPoint
 10
663.153880480686
 20
832.2011964999584
 30
0.0
  0
ENDBLK
  5
1C2BF
330
1C2BD
100
AcDbEntity
  8
0
100
AcDbBlockEnd
  0
BLOCK
  5
1C2CA
330
1C2C9
100
AcDbEntity
  8
0
100
AcDbBlockBegin
  2
*D41
 70
     1
 10
0.0
 20
0.0
 30
0.0
  3
*D41
  1

  0
LINE
  5
1C2FE
330
1C2C9
100
AcDbEntity
  8
30
  6
Continuous
 62
     0
370
    -2
100
AcDbLine
 10
616.7115508024973
 20
811.2011964999581
 30
0.0
 11
616.7115508024973
 21
796.1149164824639
 31
0.0
  0
LINE
  5
1C2FF
330
1C2C9
100
AcDbEntity
  8
30
  6
Continuous
 62
     0
370
    -2
100
AcDbLine
 10
646.7115508024972
 20
811.2011964999581
 30
0.0
 11
646.7115508024972
 21
796.1149164824639
 31
0.0
  0
LINE
  5
1C300
330
1C2C9
100
AcDbEntity
  8
30
  6
Continuous
 62
     0
370
    -2
100
AcDbLine
 10
618.711550802497
 20
796.6149164824636
 30
0.0
 11
644.711550802497
 21
796.6149164824636
 31
0.0
  0
INSERT
  5
1C301
330
1C2C9
100
AcDbEntity
  8
30
  6
Continuous
 62
     0
370
    -2
100
AcDbBlockReference
  2
_OPEN
 10
616.7115508024973
 20
796.6149164824636
 30
0.0
 41
2.0
 42
2.0
 43
2.0
 50
180.0
  0
INSERT
  5
1C302
330
1C2C9
100
AcDbEntity
  8
30
  6
Continuous
 62
     0
370
    -2
100
AcDbBlockReference
  2
_OPEN
 10
646.7115508024972
 20
796.6149164824636
 30
0.0
 41
2.0
 42
2.0
 43
2.0
  0
MTEXT
  5
1C303
330
1C2C9
100
AcDbEntity
  8
30
  6
Continuous
100
AcDbMText
 10
631.711550802497
 20
803.6149164824639
 30
0.0
 40
8.0
 41
0.0
 46
0.0
 71
     5
 72
     1
  1
\A1;30
 73
     1
 44
1.0
 90
        3
 63
     9
421
 13158600
 45
1.25
441
        0
  0
POINT
  5
1C304
330
1C2C9
100
AcDbEntity
  8
DEFPOINTS
  6
Continuous
 62
     0
100
AcDbPoint
 10
616.7115508024973
 20
812.2011964999583
 30
0.0
  0
POINT
  5
1C305
330
1C2C9
100
AcDbEntity
  8
DEFPOINTS
  6
Continuous
 62
     0
100
AcDbPoint
 10
646.7115508024972
 20
812.2011964999583
 30
0.0
  0
POINT
  5
1C306
330
1C2C9
100
AcDbEntity
  8
DEFPOINTS
  6
Continuous
 62
     0
100
AcDbPoint
 10
646.7115508024972
 20
796.6149164824636
 30
0.0
  0
ENDBLK
  5
1C2CB
330
1C2C9
100
AcDbEntity
  8
0
100
AcDbBlockEnd
  0
BLOCK
  5
1C342
330
1C341
100
AcDbEntity
  8
0
100
AcDbBlockBegin
  2
*D42
 70
     1
 10
0.0
 20
0.0
 30
0.0
  3
*D42
  1

  0
LINE
  5
1C344
330
1C341
100
AcDbEntity
  8
30
 62
     0
440
 16777216
370
    -2
100
AcDbLine
 10
547.9545747383216
 20
713.2255996877676
 30
0.0
 11
547.9545747383216
 21
815.9105228331723
 31
0.0
  0
LINE
  5
1C345
330
1C341
100
AcDbEntity
  8
30
 62
     0
440
 16777216
370
    -2
100
AcDbLine
 10
396.9545775993211
 20
709.7256002116121
 30
0.0
 11
396.9545775993211
 21
815.9105228331723
 31
0.0
  0
LINE
  5
1C346
330
1C341
100
AcDbEntity
  8
30
 62
     0
440
 16777216
370
    -2
100
AcDbLine
 10
545.9545747383216
 20
815.4105228331722
 30
0.0
 11
398.9545775993211
 21
815.4105228331722
 31
0.0
  0
INSERT
  5
1C347
330
1C341
100
AcDbEntity
  8
30
 62
     0
440
 16777216
370
    -2
100
AcDbBlockReference
  2
_OPEN
 10
547.9545747383216
 20
815.4105228331722
 30
0.0
 41
2.0
 42
2.0
 43
2.0
  0
INSERT
  5
1C348
330
1C341
100
AcDbEntity
  8
30
 62
     0
440
 16777216
370
    -2
100
AcDbBlockReference
  2
_OPEN
 10
396.9545775993211
 20
815.4105228331722
 30
0.0
 41
2.0
 42
2.0
 43
2.0
 50
180.0
  0
MTEXT
  5
1C349
330
1C341
100
AcDbEntity
  8
30
440
 16777216
100
AcDbMText
 10
472.4545761688213
 20
822.4105228331723
 30
0.0
 40
8.0
 41
0.0
 46
0.0
 71
     5
 72
     1
  1
\A1;151
 73
     1
 44
1.0
 90
        3
 63
     9
421
 13158600
 45
1.25
441
        0
  0
POINT
  5
1C34A
330
1C341
100
AcDbEntity
  8
DEFPOINTS
 62
     0
440
 16777216
100
AcDbPoint
 10
547.9545747383216
 20
712.2255996877676
 30
0.0
  0
POINT
  5
1C34B
330
1C341
100
AcDbEntity
  8
DEFPOINTS
 62
     0
440
 16777216
100
AcDbPoint
 10
396.9545775993211
 20
708.7256002116121
 30
0.0
  0
POINT
  5
1C34C
330
1C341
100
AcDbEntity
  8
DEFPOINTS
 62
     0
440
 16777216
100
AcDbPoint
 10
396.9545775993211
 20
815.4105228331722
 30
0.0
  0
ENDBLK
  5
1C343
330
1C341
100
AcDbEntity
  8
0
100
AcDbBlockEnd
  0
ENDSEC
  0
SECTION
  2
ENTITIES
  0
LINE
  5
183AE
330
1E
100
AcDbEntity
  8
16
 48
2.0
100
AcDbLine
 10
112.5418624424319
 20
454.123988331061
 30
0.0
 11
112.5418624424319
 21
795.3612863520588
 31
0.0
  0
LINE
  5
183B0
330
1E
100
AcDbEntity
  8
16
 48
2.0
100
AcDbLine
 10
233.0937053727157
 20
227.1315230904321
 30
0.0
 11
19.23512727885372
 21
227.1315230904321
 31
0.0
  0
LINE
  5
183B1
330
1E
100
AcDbEntity
  8
16
 48
2.0
100
AcDbLine
 10
238.0432227908477
 20
624.1512697488047
 30
0.0
 11
16.61715363591193
 21
624.1512686303052
 31
0.0
  0
LWPOLYLINE
  5
183B2
330
1E
100
AcDbEntity
  8
16
 48
2.0
100
AcDbPolyline
 90
        2
 70
     0
 43
0.0
 10
112.5418624424319
 20
47.65219309582801
 10
112.5418624424319
 20
403.4752730904321
  0
MTEXT
  5
183B3
330
1E
100
AcDbEntity
  8
19
  6
Continuous
100
AcDbMText
 10
488.8236585529567
 20
1042.151268630305
 30
0.0
 40
10.0
 41
346.2500090477107
 46
0.0
 71
     1
 72
     5
  1
PS400-CF 4P PMB\PPS400-NF 4P PMB\PPS400-GF 4P PMB\PPS400-NE 4P PMB\PPS400-GE 4P PMB\PPH400-CF 4P PMB\PPH400-CE 4P PMB\PPS630-NF 4P PMB\PPS630-GF 4P PMB\PPH630-CF 4P PMB
  7
STANDARD1
 73
     1
 44
1.0
  0
LINE
  5
1840C
330
1E
100
AcDbEntity
  8
18
 48
2.0
100
AcDbLine
 10
227.5418624424319
 20
370.1315230904322
 30
0.0
 11
227.5418624424319
 21
84.13152309043232
 31
0.0
  0
LINE
  5
1840D
330
1E
100
AcDbEntity
  8
18
 48
2.0
100
AcDbLine
 10
42.54186244243192
 20
370.1315230904322
 30
0.0
 11
42.54186244243192
 21
84.13152309043232
 31
0.0
  0
LINE
  5
1840E
330
1E
100
AcDbEntity
  8
18
 48
2.0
100
AcDbLine
 10
42.54186244243192
 20
84.1315230904321
 30
0.0
 11
82.54186244243191
 21
84.1315230904321
 31
0.0
  0
LINE
  5
1840F
330
1E
100
AcDbEntity
  8
18
 48
2.0
100
AcDbLine
 10
187.5418624424319
 20
84.1315230904321
 30
0.0
 11
227.5418624424319
 21
84.1315230904321
 31
0.0
  0
LINE
  5
18410
330
1E
100
AcDbEntity
  8
18
 48
2.0
100
AcDbLine
 10
127.5418624424319
 20
69.63152309043209
 30
0.0
 11
142.5418624424319
 21
69.63152309043209
 31
0.0
  0
LINE
  5
18411
330
1E
100
AcDbEntity
  8
18
 48
2.0
100
AcDbLine
 10
97.54186244243193
 20
84.1315230904321
 30
0.0
 11
127.5418624424319
 21
84.1315230904321
 31
0.0
  0
LINE
  5
18412
330
1E
100
AcDbEntity
  8
18
 48
2.0
100
AcDbLine
 10
97.54186244243193
 20
84.13152309043232
 30
0.0
 11
97.54186244243193
 21
69.63152309043209
 31
0.0
  0
LINE
  5
18413
330
1E
100
AcDbEntity
  8
18
 48
2.0
100
AcDbLine
 10
82.54186244243191
 20
84.13152309043232
 30
0.0
 11
82.54186244243191
 21
69.63152309043209
 31
0.0
  0
LINE
  5
18414
330
1E
100
AcDbEntity
  8
18
 48
2.0
100
AcDbLine
 10
82.54186244243191
 20
69.63152309043209
 30
0.0
 11
97.54186244243193
 21
69.63152309043209
 31
0.0
  0
LINE
  5
18415
330
1E
100
AcDbEntity
  8
18
 48
2.0
100
AcDbLine
 10
127.5418624424319
 20
84.13152309043232
 30
0.0
 11
127.5418624424319
 21
69.63152309043209
 31
0.0
  0
LINE
  5
18416
330
1E
100
AcDbEntity
  8
18
 48
2.0
100
AcDbLine
 10
142.5418624424319
 20
84.1315230904321
 30
0.0
 11
172.5418624424319
 21
84.1315230904321
 31
0.0
  0
LINE
  5
18417
330
1E
100
AcDbEntity
  8
18
 48
2.0
100
AcDbLine
 10
142.5418624424319
 20
84.13152309043232
 30
0.0
 11
142.5418624424319
 21
69.63152309043209
 31
0.0
  0
LINE
  5
18418
330
1E
100
AcDbEntity
  8
18
 48
2.0
100
AcDbLine
 10
187.5418624424319
 20
84.13152309043232
 30
0.0
 11
187.5418624424319
 21
69.63152309043209
 31
0.0
  0
LINE
  5
18419
330
1E
100
AcDbEntity
  8
18
 48
2.0
100
AcDbLine
 10
172.5418624424319
 20
84.13152309043232
 30
0.0
 11
172.5418624424319
 21
69.63152309043209
 31
0.0
  0
LINE
  5
1841A
330
1E
100
AcDbEntity
  8
18
 48
2.0
100
AcDbLine
 10
172.5418624424319
 20
69.63152309043209
 30
0.0
 11
187.5418624424319
 21
69.63152309043209
 31
0.0
  0
LINE
  5
1841B
330
1E
100
AcDbEntity
  8
18
 48
2.0
100
AcDbLine
 10
82.54186244243191
 20
370.1315230904322
 30
0.0
 11
42.54186244243192
 21
370.1315230904322
 31
0.0
  0
LINE
  5
1841C
330
1E
100
AcDbEntity
  8
18
 48
2.0
100
AcDbLine
 10
227.5418624424319
 20
370.1315230904322
 30
0.0
 11
187.5418624424319
 21
370.1315230904322
 31
0.0
  0
LINE
  5
1841D
330
1E
100
AcDbEntity
  8
18
 48
2.0
100
AcDbLine
 10
142.5418624424319
 20
384.6315230904322
 30
0.0
 11
127.5418624424319
 21
384.6315230904322
 31
0.0
  0
LINE
  5
1841E
330
1E
100
AcDbEntity
  8
18
 48
2.0
100
AcDbLine
 10
127.5418624424319
 20
370.1315230904322
 30
0.0
 11
97.54186244243193
 21
370.1315230904322
 31
0.0
  0
LINE
  5
1841F
330
1E
100
AcDbEntity
  8
18
 48
2.0
100
AcDbLine
 10
97.54186244243193
 20
384.6315230904322
 30
0.0
 11
97.54186244243193
 21
370.1315230904322
 31
0.0
  0
LINE
  5
18420
330
1E
100
AcDbEntity
  8
18
 48
2.0
100
AcDbLine
 10
82.54186244243191
 20
384.6315230904322
 30
0.0
 11
82.54186244243191
 21
370.1315230904322
 31
0.0
  0
LINE
  5
18421
330
1E
100
AcDbEntity
  8
18
 48
2.0
100
AcDbLine
 10
97.54186244243193
 20
384.6315230904322
 30
0.0
 11
82.54186244243191
 21
384.6315230904322
 31
0.0
  0
LINE
  5
18422
330
1E
100
AcDbEntity
  8
18
 48
2.0
100
AcDbLine
 10
127.5418624424319
 20
384.6315230904322
 30
0.0
 11
127.5418624424319
 21
370.1315230904322
 31
0.0
  0
LINE
  5
18423
330
1E
100
AcDbEntity
  8
18
 48
2.0
100
AcDbLine
 10
172.5418624424319
 20
370.1315230904322
 30
0.0
 11
142.5418624424319
 21
370.1315230904322
 31
0.0
  0
LINE
  5
18424
330
1E
100
AcDbEntity
  8
18
 48
2.0
100
AcDbLine
 10
142.5418624424319
 20
384.6315230904322
 30
0.0
 11
142.5418624424319
 21
370.1315230904322
 31
0.0
  0
LINE
  5
18425
330
1E
100
AcDbEntity
  8
18
 48
2.0
100
AcDbLine
 10
187.5418624424319
 20
384.6315230904322
 30
0.0
 11
187.5418624424319
 21
370.1315230904322
 31
0.0
  0
LINE
  5
18426
330
1E
100
AcDbEntity
  8
18
 48
2.0
100
AcDbLine
 10
172.5418624424319
 20
384.6315230904322
 30
0.0
 11
172.5418624424319
 21
370.1315230904322
 31
0.0
  0
LINE
  5
18427
330
1E
100
AcDbEntity
  8
18
 48
2.0
100
AcDbLine
 10
187.5418624424319
 20
384.6315230904322
 30
0.0
 11
172.5418624424319
 21
384.6315230904322
 31
0.0
  0
SPLINE
  5
18428
330
1E
100
AcDbEntity
  8
10
100
AcDbSpline
210
0.0
220
0.0
230
1.0
 70
     8
 71
     3
 72
    14
 73
    10
 74
     0
 42
0.000000001
 43
0.0000000001
 40
0.0
 40
0.0
 40
0.0
 40
0.0
 40
0.1428571428571429
 40
0.2857142857142857
 40
0.428571428571429
 40
0.5714285714285714
 40
0.7142857142857145
 40
0.8571428571428571
 40
1.0
 40
1.0
 40
1.0
 40
1.0
 10
315.668108297873
 20
988.7871132740936
 30
0.0
 10
302.668108297873
 20
978.7871132740942
 30
0.0
 10
282.668108297873
 20
980.7871132740942
 30
0.0
 10
278.668108297873
 20
962.7871132740938
 30
0.0
 10
254.668108297873
 20
962.7871132740938
 30
0.0
 10
248.668108297873
 20
942.7871132740939
 30
0.0
 10
240.668108297873
 20
934.7871132740939
 30
0.0
 10
248.668108297873
 20
920.7871132740939
 30
0.0
 10
238.668108297873
 20
906.787113274094
 30
0.0
 10
245.668108297873
 20
893.7871132740934
 30
0.0
  0
SPLINE
  5
18429
330
1E
100
AcDbEntity
  8
10
100
AcDbSpline
210
0.0
220
0.0
230
1.0
 70
     8
 71
     3
 72
     9
 73
     5
 74
     0
 42
0.000000001
 43
0.0000000001
 40
0.0
 40
0.0
 40
0.0
 40
0.0
 40
0.5
 40
1.0
 40
1.0
 40
1.0
 40
1.0
 10
325.668108297873
 20
933.7871132740934
 30
0.0
 10
320.668108297873
 20
924.7871132740939
 30
0.0
 10
328.668108297873
 20
912.7871132740938
 30
0.0
 10
320.668108297873
 20
898.787113274094
 30
0.0
 10
325.668108297873
 20
885.7871132740935
 30
0.0
  0
LINE
  5
1842A
330
1E
100
AcDbEntity
  8
12
100
AcDbLine
 10
341.668108297873
 20
918.7871132740939
 30
0.0
 11
341.668108297873
 21
900.7871132740939
 31
0.0
  0
LINE
  5
1842B
330
1E
100
AcDbEntity
  8
18
100
AcDbLine
 10
335.668108297873
 20
917.7871132740939
 30
0.0
 11
335.668108297873
 21
891.7871132740939
 31
0.0
  0
LINE
  5
1842C
330
1E
100
AcDbEntity
  8
10
100
AcDbLine
 10
272.668108297873
 20
964.47503820375
 30
0.0
 11
272.668108297873
 21
880.7871132740933
 31
0.0
  0
LINE
  5
1842D
330
1E
100
AcDbEntity
  8
10
100
AcDbLine
 10
267.668108297873
 20
963.0026332684622
 30
0.0
 11
267.668108297873
 21
893.7871132740934
 31
0.0
  0
LINE
  5
1842E
330
1E
100
AcDbEntity
  8
12
100
AcDbLine
 10
335.668108297873
 20
921.7871132740938
 30
0.0
 11
335.668108297873
 21
897.7871132740942
 31
0.0
  0
LINE
  5
1842F
330
1E
100
AcDbEntity
  8
10
100
AcDbLine
 10
367.668108297873
 20
923.787113274094
 30
0.0
 11
367.668108297873
 21
914.7871132740943
 31
0.0
  0
LINE
  5
18430
330
1E
100
AcDbEntity
  8
10
100
AcDbLine
 10
272.668108297873
 20
885.7871132740935
 30
0.0
 11
367.668108297873
 21
885.7871132740935
 31
0.0
  0
LINE
  5
18431
330
1E
100
AcDbEntity
  8
10
100
AcDbLine
 10
255.668108297873
 20
880.7871132740933
 30
0.0
 11
272.668108297873
 21
880.7871132740933
 31
0.0
  0
LINE
  5
18432
330
1E
100
AcDbEntity
  8
10
100
AcDbLine
 10
245.668108297853
 20
893.7871132740934
 30
0.0
 11
267.668108297873
 21
893.7871132740934
 31
0.0
  0
LINE
  5
18433
330
1E
100
AcDbEntity
  8
10
100
AcDbLine
 10
255.668108297873
 20
893.7871132740934
 30
0.0
 11
255.668108297873
 21
880.7871132740933
 31
0.0
  0
LINE
  5
18435
330
1E
100
AcDbEntity
  8
24
100
AcDbLine
 10
347.668108297873
 20
889.7871132740938
 30
0.0
 11
381.668108297873
 21
889.7871132740938
 31
0.0
  0
LINE
  5
18436
330
1E
100
AcDbEntity
  8
24
100
AcDbLine
 10
347.668108297873
 20
895.787113274094
 30
0.0
 11
381.668108297873
 21
895.787113274094
 31
0.0
  0
LINE
  5
18437
330
1E
100
AcDbEntity
  8
12
100
AcDbLine
 10
335.668108297873
 20
904.7871132740938
 30
0.0
 11
367.668108297873
 21
904.7871132740938
 31
0.0
  0
LINE
  5
18438
330
1E
100
AcDbEntity
  8
12
100
AcDbLine
 10
335.668108297873
 20
914.7871132740943
 30
0.0
 11
367.668108297873
 21
914.7871132740943
 31
0.0
  0
LINE
  5
18439
330
1E
100
AcDbEntity
  8
10
100
AcDbLine
 10
315.668108297873
 20
885.7871132740935
 30
0.0
 11
315.668108297873
 21
866.2871132740935
 31
0.0
  0
LINE
  5
1843A
330
1E
100
AcDbEntity
  8
10
100
AcDbLine
 10
302.668108297873
 20
885.7871132740935
 30
0.0
 11
302.668108297873
 21
866.2871132740935
 31
0.0
  0
LINE
  5
1843B
330
1E
100
AcDbEntity
  8
10
100
AcDbLine
 10
302.668108297873
 20
866.2871132740935
 30
0.0
 11
315.668108297873
 21
866.2871132740935
 31
0.0
  0
LINE
  5
1843C
330
1E
100
AcDbEntity
  8
12
100
AcDbLine
 10
323.1600121112842
 20
897.7871132740942
 30
0.0
 11
335.6681082978739
 21
897.7871132740942
 31
0.0
  0
ARC
  5
1843D
330
1E
100
AcDbEntity
  8
24
100
AcDbCircle
 10
347.668108297873
 20
901.7871132740939
 30
0.0
 40
12.0
100
AcDbArc
 50
180.0
 51
270.0
  0
ARC
  5
1843E
330
1E
100
AcDbEntity
  8
24
100
AcDbCircle
 10
347.668108297873
 20
901.7871132740939
 30
0.0
 40
6.0
100
AcDbArc
 50
180.0
 51
270.0
  0
LINE
  5
18440
330
1E
100
AcDbEntity
  8
12
100
AcDbLine
 10
341.668108297873
 20
900.7871132740939
 30
0.0
 11
346.168108297873
 21
900.7871132740939
 31
0.0
  0
LINE
  5
18441
330
1E
100
AcDbEntity
  8
12
100
AcDbLine
 10
341.668108297873
 20
918.7871132740939
 30
0.0
 11
346.168108297873
 21
918.7871132740939
 31
0.0
  0
LINE
  5
18442
330
1E
100
AcDbEntity
  8
12
100
AcDbLine
 10
343.668108297873
 20
918.7871132740939
 30
0.0
 11
343.668108297873
 21
900.7871132740939
 31
0.0
  0
LINE
  5
18443
330
1E
100
AcDbEntity
  8
12
100
AcDbLine
 10
346.168108297873
 20
900.8871132740942
 30
0.0
 11
355.168108297873
 21
900.8871132740942
 31
0.0
  0
LINE
  5
18444
330
1E
100
AcDbEntity
  8
12
100
AcDbLine
 10
346.168108297873
 20
905.3371132740942
 30
0.0
 11
355.168108297873
 21
905.3371132740942
 31
0.0
  0
LINE
  5
18445
330
1E
100
AcDbEntity
  8
12
100
AcDbLine
 10
346.168108297873
 20
918.687113274094
 30
0.0
 11
355.168108297873
 21
918.687113274094
 31
0.0
  0
LINE
  5
18446
330
1E
100
AcDbEntity
  8
12
100
AcDbLine
 10
346.168108297873
 20
914.237113274094
 30
0.0
 11
355.168108297873
 21
914.237113274094
 31
0.0
  0
LINE
  5
18447
330
1E
100
AcDbEntity
  8
12
100
AcDbLine
 10
355.168108297873
 20
918.687113274094
 30
0.0
 11
355.168108297873
 21
900.8871132740942
 31
0.0
  0
LINE
  5
18448
330
1E
100
AcDbEntity
  8
12
100
AcDbLine
 10
346.168108297873
 20
918.7871132740939
 30
0.0
 11
346.168108297873
 21
900.7871132740939
 31
0.0
  0
LINE
  5
18449
330
1E
100
AcDbEntity
  8
10
100
AcDbLine
 10
367.668108297873
 20
904.7871132740938
 30
0.0
 11
367.668108297873
 21
885.7871132740935
 31
0.0
  0
LINE
  5
1844B
330
1E
100
AcDbEntity
  8
12
100
AcDbLine
 10
367.668108297873
 20
904.7871132740938
 30
0.0
 11
371.668108297873
 21
904.7871132740938
 31
0.0
  0
LINE
  5
1844C
330
1E
100
AcDbEntity
  8
12
100
AcDbLine
 10
367.668108297873
 20
914.7871132740943
 30
0.0
 11
371.668108297873
 21
914.7871132740943
 31
0.0
  0
LINE
  5
1844D
330
1E
100
AcDbEntity
  8
12
100
AcDbLine
 10
371.668108297873
 20
914.7871132740943
 30
0.0
 11
371.668108297873
 21
904.7871132740942
 31
0.0
  0
LINE
  5
1844E
330
1E
100
AcDbEntity
  8
12
100
AcDbLine
 10
320.668108297873
 20
951.2871132740936
 30
0.0
 11
297.668108297873
 21
951.2871132740936
 31
0.0
  0
LINE
  5
1844F
330
1E
100
AcDbEntity
  8
12
100
AcDbLine
 10
320.668108297873
 20
956.2871132740935
 30
0.0
 11
297.668108297873
 21
956.2871132740935
 31
0.0
  0
LINE
  5
18450
330
1E
100
AcDbEntity
  8
10
100
AcDbLine
 10
272.668108297873
 20
933.7871132740934
 30
0.0
 11
367.668108297873
 21
933.7871132740934
 31
0.0
  0
LINE
  5
18451
330
1E
100
AcDbEntity
  8
12
100
AcDbLine
 10
297.668108297873
 20
958.7871132740934
 30
0.0
 11
296.668108297873
 21
958.7871132740934
 31
0.0
  0
LINE
  5
18452
330
1E
100
AcDbEntity
  8
12
100
AcDbLine
 10
297.668108297873
 20
948.7871132740933
 30
0.0
 11
296.668108297873
 21
948.7871132740933
 31
0.0
  0
LINE
  5
18453
330
1E
100
AcDbEntity
  8
12
100
AcDbLine
 10
297.668108297873
 20
948.7871132740933
 30
0.0
 11
297.668108297873
 21
958.7871132740934
 31
0.0
  0
LINE
  5
18454
330
1E
100
AcDbEntity
  8
12
100
AcDbLine
 10
296.668108297873
 20
948.7871132740933
 30
0.0
 11
296.668108297873
 21
958.7871132740934
 31
0.0
  0
LINE
  5
18455
330
1E
100
AcDbEntity
  8
12
100
AcDbLine
 10
292.668108297873
 20
949.2871132740935
 30
0.0
 11
292.668108297873
 21
958.2871132740935
 31
0.0
  0
LINE
  5
18456
330
1E
100
AcDbEntity
  8
12
100
AcDbLine
 10
296.668108297873
 20
958.2871132740935
 30
0.0
 11
292.668108297873
 21
958.2871132740935
 31
0.0
  0
LINE
  5
18457
330
1E
100
AcDbEntity
  8
12
100
AcDbLine
 10
296.668108297873
 20
949.2871132740935
 30
0.0
 11
292.668108297873
 21
949.2871132740935
 31
0.0
  0
LINE
  5
18458
330
1E
100
AcDbEntity
  8
24
100
AcDbLine
 10
347.668108297873
 20
929.7871132740938
 30
0.0
 11
381.668108297873
 21
929.7871132740938
 31
0.0
  0
LINE
  5
18459
330
1E
100
AcDbEntity
  8
24
100
AcDbLine
 10
347.668108297873
 20
923.787113274094
 30
0.0
 11
381.668108297873
 21
923.787113274094
 31
0.0
  0
LINE
  5
1845A
330
1E
100
AcDbEntity
  8
10
100
AcDbLine
 10
315.668108297873
 20
988.7871132740936
 30
0.0
 11
315.668108297873
 21
933.7871132740934
 31
0.0
  0
LINE
  5
1845B
330
1E
100
AcDbEntity
  8
12
100
AcDbLine
 10
320.668108297873
 20
938.7871132740933
 30
0.0
 11
320.668108297873
 21
968.7871132740934
 31
0.0
  0
LINE
  5
1845C
330
1E
100
AcDbEntity
  8
12
100
AcDbLine
 10
323.3289778853068
 20
921.7871132740938
 30
0.0
 11
335.6681082978739
 21
921.7871132740938
 31
0.0
  0
LINE
  5
1845D
330
1E
100
AcDbEntity
  8
12
100
AcDbLine
 10
331.6681082978738
 20
951.2871132740936
 30
0.0
 11
327.9681082978732
 21
951.2871132740936
 31
0.0
  0
LINE
  5
1845E
330
1E
100
AcDbEntity
  8
12
100
AcDbLine
 10
331.6681082978738
 20
956.2871132740935
 30
0.0
 11
327.9681082978732
 21
956.2871132740935
 31
0.0
  0
LINE
  5
1845F
330
1E
100
AcDbEntity
  8
12
100
AcDbLine
 10
320.668108297873
 20
938.7871132740936
 30
0.0
 11
315.668108297873
 21
938.7871132740936
 31
0.0
  0
LINE
  5
18460
330
1E
100
AcDbEntity
  8
12
100
AcDbLine
 10
327.9681082978732
 20
949.3871132740933
 30
0.0
 11
327.9681082978732
 21
958.1871132740936
 31
0.0
  0
LINE
  5
18461
330
1E
100
AcDbEntity
  8
12
100
AcDbLine
 10
322.9681082978732
 20
948.7871132740933
 30
0.0
 11
322.9681082978732
 21
958.7871132740934
 31
0.0
  0
LINE
  5
18462
330
1E
100
AcDbEntity
  8
12
100
AcDbLine
 10
327.9681082978732
 20
949.3871132740933
 30
0.0
 11
322.9681082978732
 21
949.3871132740933
 31
0.0
  0
LINE
  5
18463
330
1E
100
AcDbEntity
  8
12
100
AcDbLine
 10
322.9681082978723
 20
958.7871132740934
 30
0.0
 11
320.668108297873
 21
958.7871132740934
 31
0.0
  0
LINE
  5
18464
330
1E
100
AcDbEntity
  8
12
100
AcDbLine
 10
322.9681082978723
 20
948.7871132740933
 30
0.0
 11
320.668108297873
 21
948.7871132740933
 31
0.0
  0
LINE
  5
18465
330
1E
100
AcDbEntity
  8
12
100
AcDbLine
 10
327.9681082978732
 20
951.5871132740933
 30
0.0
 11
322.9681082978732
 21
951.5871132740933
 31
0.0
  0
LINE
  5
18466
330
1E
100
AcDbEntity
  8
12
100
AcDbLine
 10
327.9681082978732
 20
955.9871132740934
 30
0.0
 11
322.9681082978732
 21
955.9871132740934
 31
0.0
  0
LINE
  5
18467
330
1E
100
AcDbEntity
  8
12
100
AcDbLine
 10
327.9681082978732
 20
958.1871132740934
 30
0.0
 11
322.9681082978732
 21
958.1871132740934
 31
0.0
  0
LINE
  5
18468
330
1E
100
AcDbEntity
  8
12
100
AcDbLine
 10
321.668108297873
 20
948.7871132740933
 30
0.0
 11
321.668108297873
 21
958.7871132740934
 31
0.0
  0
ARC
  5
18469
330
1E
100
AcDbEntity
  8
24
100
AcDbCircle
 10
347.668108297873
 20
917.7871132740939
 30
0.0
 40
12.0
100
AcDbArc
 50
90.0
 51
180.0
  0
ARC
  5
1846A
330
1E
100
AcDbEntity
  8
24
100
AcDbCircle
 10
347.668108297873
 20
917.7871132740939
 30
0.0
 40
6.0
100
AcDbArc
 50
90.0
 51
180.0
  0
LINE
  5
1846B
330
1E
100
AcDbEntity
  8
18
100
AcDbLine
 10
335.668108297873
 20
914.7871132740943
 30
0.0
 11
341.668108297873
 21
914.7871132740943
 31
0.0
  0
LINE
  5
1846C
330
1E
100
AcDbEntity
  8
12
100
AcDbLine
 10
331.668108297873
 20
951.2871132740936
 30
0.0
 11
331.668108297873
 21
956.2871132740935
 31
0.0
  0
LINE
  5
1846D
330
1E
100
AcDbEntity
  8
12
100
AcDbLine
 10
355.668108297873
 20
973.7871132740933
 30
0.0
 11
325.668108297873
 21
973.7871132740933
 31
0.0
  0
LINE
  5
1846E
330
1E
100
AcDbEntity
  8
12
100
AcDbLine
 10
355.668108297873
 20
978.7871132740933
 30
0.0
 11
315.668108297873
 21
978.7871132740933
 31
0.0
  0
ARC
  5
1846F
330
1E
100
AcDbEntity
  8
12
100
AcDbCircle
 10
-325.668108297873
 20
968.7871132740934
 30
0.0
 40
5.0
210
0.0
220
0.0
230
-1.0
100
AcDbArc
 50
0.0
 51
90.0
  0
LINE
  5
18470
330
1E
100
AcDbEntity
  8
12
100
AcDbLine
 10
355.668108297873
 20
973.7871132740933
 30
0.0
 11
355.668108297873
 21
978.7871132740933
 31
0.0
  0
TEXT
  5
1847F
330
1E
100
AcDbEntity
  8
30
100
AcDbText
 10
340.5656681393202
 20
865.1047111938781
 30
0.0
 40
5.0
  1
M10 nut
 41
0.8216911764705923
  7
UGMTXT
100
AcDbText
  0
DIMENSION
  5
18480
330
1E
100
AcDbEntity
  8
30
100
AcDbDimension
280
     0
  2
*D6
 10
272.668108297873
 20
838.2195894329065
 30
0.0
 11
258.001441631206
 21
838.2195894329065
 31
0.0
 70
   160
 71
     5
 42
5.0
 73
     0
 74
     0
 75
     0
  3
STANDARD1
100
AcDbAlignedDimension
 13
267.668108297873
 23
893.7871132740934
 33
0.0
 14
272.668108297873
 24
885.7871132740935
 34
0.0
100
AcDbRotatedDimension
  0
DIMENSION
  5
18481
330
1E
100
AcDbEntity
  8
30
100
AcDbDimension
280
     0
  2
*D7
 10
315.668108297873
 20
838.2195894329065
 30
0.0
 11
294.168108297873
 21
845.2195894329063
 31
0.0
 70
    32
 71
     5
 42
43.0
 73
     0
 74
     0
 75
     0
  3
STANDARD1
100
AcDbAlignedDimension
 13
272.668108297873
 23
880.7871132740933
 33
0.0
 14
315.668108297873
 24
866.2871132740935
 34
0.0
100
AcDbRotatedDimension
  0
DIMENSION
  5
18482
330
1E
100
AcDbEntity
  8
30
100
AcDbDimension
280
     0
  2
*D8
 10
335.668108297873
 20
838.2195894329065
 30
0.0
 11
325.668108297873
 21
845.2195894329063
 31
0.0
 70
    32
 71
     5
 42
20.0
 73
     0
 74
     0
 75
     0
  3
STANDARD1
100
AcDbAlignedDimension
 13
315.668108297873
 23
866.2871132740935
 33
0.0
 14
335.668108297873
 24
897.7871132740942
 34
0.0
100
AcDbRotatedDimension
  0
DIMENSION
  5
18483
330
1E
100
AcDbEntity
  8
30
100
AcDbDimension
280
     0
  2
*D9
 10
371.668108297873
 20
838.2195894329065
 30
0.0
 11
353.668108297873
 21
845.2195894329063
 31
0.0
 70
    32
 71
     5
 42
36.0
 73
     0
 74
     0
 75
     0
  3
STANDARD1
100
AcDbAlignedDimension
 13
335.668108297873
 23
885.7871132740935
 33
0.0
 14
371.668108297873
 24
904.7871132740938
 34
0.0
100
AcDbRotatedDimension
  0
LEADER
  5
18484
330
1E
100
AcDbEntity
  8
30
  6
Continuous
100
AcDbLeader
  3
STANDARD
 76
     3
 10
346.168108297873
 20
900.7871132740939
 30
0.0
 10
338.668108297873
 20
863.2871132740934
 30
0.0
 10
368.668108297873
 20
863.2871132740934
 30
0.0
213
-39.0
223
-4.5
233
0.0
1001
ACAD
1000
DSTYLE
1002
{
1070
     5
1000
OPEN
1070
    77
1070
     0
1070
   147
1040
1.0
1070
   342
1005
3B2
1002
}
  0
DIMENSION
  5
18485
330
1E
100
AcDbEntity
  8
30
100
AcDbDimension
280
     0
  2
*D10
 10
331.6681082978738
 20
1011.834586415286
 30
0.0
 11
342.0014416312071
 21
1018.834586415286
 31
0.0
 70
    32
 71
     5
 42
16.00000000000079
 73
     0
 74
     0
 75
     0
  3
STANDARD1
100
AcDbAlignedDimension
 13
315.668108297873
 23
988.7871132740936
 33
0.0
 14
331.6681082978738
 24
957.1513208894597
 34
0.0
100
AcDbRotatedDimension
  0
LEADER
  5
18486
330
1E
100
AcDbEntity
  8
30
  6
Continuous
100
AcDbLeader
  3
STANDARD
 76
     3
 10
376.168108297873
 20
880.7871132740942
 30
0.0
 10
388.668108297873
 20
861.2871132740933
 30
0.0
 10
467.6681082978728
 20
861.2871132740933
 30
0.0
213
0.0
223
-2.5
233
0.0
1001
ACAD
1000
DSTYLE
1002
{
1070
     5
1000
OPEN
1070
    77
1070
     0
1070
   147
1040
1.0
1070
   342
1005
3B2
1002
}
  0
TEXT
  5
18487
330
1E
100
AcDbEntity
  8
30
100
AcDbText
 10
390.5656681393202
 20
863.1047111938782
 30
0.0
 40
5.0
  1
30 max. conductor width
 41
0.8216911764705923
  7
UGMTXT
100
AcDbText
  0
DIMENSION
  5
18488
330
1E
100
AcDbEntity
  8
30
  6
Continuous
100
AcDbDimension
280
     0
  2
*D11
 10
390.6681082978732
 20
929.7871132740938
 30
0.0
 11
390.668108297873
 21
922.2871132740934
 31
0.0
 70
   160
  1
 
 71
     5
 42
19.99999999999977
 73
     0
 74
     0
 75
     0
  3
STANDARD
100
AcDbAlignedDimension
 13
371.668108297873
 23
909.7871132740944
 33
0.0
 14
381.668108297873
 24
929.7871132740938
 34
0.0
 50
90.0
100
AcDbRotatedDimension
  0
TEXT
  5
18489
330
1E
100
AcDbEntity
  8
30
100
AcDbText
 10
398.7661832438198
 20
907.2871132740935
 30
0.0
 40
5.0
  1
20(max.)
 50
90.0
 41
0.8216911764705923
  7
UGMTXT
100
AcDbText
  0
CIRCLE
  5
1848F
330
1E
100
AcDbEntity
  8
12
100
AcDbCircle
 10
77.54186244243192
 20
157.1315230904321
 30
0.0
 40
2.75
  0
LINE
  5
18490
330
1E
100
AcDbEntity
  8
12
  6
DASHDOT
100
AcDbLine
 10
70.79186244243192
 20
157.1315230904321
 30
0.0
 11
84.29186244243192
 21
157.1315230904321
 31
0.0
  0
LINE
  5
18491
330
1E
100
AcDbEntity
  8
12
  6
DASHDOT
100
AcDbLine
 10
77.54186244243192
 20
163.8815230904321
 30
0.0
 11
77.54186244243192
 21
150.3815230904321
 31
0.0
  0
CIRCLE
  5
18492
330
1E
100
AcDbEntity
  8
12
100
AcDbCircle
 10
77.54186244243192
 20
297.1315230904322
 30
0.0
 40
2.75
  0
LINE
  5
18493
330
1E
100
AcDbEntity
  8
12
  6
DASHDOT
100
AcDbLine
 10
70.79186244243192
 20
297.1315230904322
 30
0.0
 11
84.29186244243192
 21
297.1315230904322
 31
0.0
  0
LINE
  5
18494
330
1E
100
AcDbEntity
  8
12
  6
DASHDOT
100
AcDbLine
 10
77.54186244243192
 20
303.8815230904323
 30
0.0
 11
77.54186244243192
 21
290.3815230904322
 31
0.0
  0
LINE
  5
18495
330
1E
100
AcDbEntity
  8
12
  6
DASHDOT
100
AcDbLine
 10
147.5418624424319
 20
163.8815230904321
 30
0.0
 11
147.5418624424319
 21
150.3815230904321
 31
0.0
  0
CIRCLE
  5
18496
330
1E
100
AcDbEntity
  8
12
100
AcDbCircle
 10
147.5418624424319
 20
157.1315230904321
 30
0.0
 40
2.75
  0
LINE
  5
18497
330
1E
100
AcDbEntity
  8
12
  6
DASHDOT
100
AcDbLine
 10
140.7918624424319
 20
157.1315230904321
 30
0.0
 11
154.2918624424319
 21
157.1315230904321
 31
0.0
  0
CIRCLE
  5
18498
330
1E
100
AcDbEntity
  8
12
100
AcDbCircle
 10
147.5418624424319
 20
297.1315230904322
 30
0.0
 40
2.75
  0
LINE
  5
18499
330
1E
100
AcDbEntity
  8
12
  6
DASHDOT
100
AcDbLine
 10
147.5418624424319
 20
303.8815230904323
 30
0.0
 11
147.5418624424319
 21
290.3815230904322
 31
0.0
  0
LINE
  5
1849A
330
1E
100
AcDbEntity
  8
12
  6
DASHDOT
100
AcDbLine
 10
140.7918624424319
 20
297.1315230904322
 30
0.0
 11
154.2918624424319
 21
297.1315230904322
 31
0.0
  0
DIMENSION
  5
1849B
330
1E
100
AcDbEntity
  8
30
100
AcDbDimension
280
     0
  2
*D12
 10
147.5418624424319
 20
104.5210043087382
 30
0.0
 11
112.5418624424319
 21
111.5210043087383
 31
0.0
 70
    32
 71
     5
 42
70.0
 73
     0
 74
     0
 75
     0
  3
STANDARD1
100
AcDbAlignedDimension
 13
77.54186244243192
 23
150.3815230904321
 33
0.0
 14
147.5418624424319
 24
150.3815230904321
 34
0.0
100
AcDbRotatedDimension
  0
LINE
  5
1849D
330
1E
100
AcDbEntity
  8
12
  6
HIDDEN
 48
2.0
100
AcDbLine
 10
239.8343049490013
 20
277.1315230904321
 30
0.0
 11
30.25166461789195
 21
277.1315230904321
 31
0.0
  0
LINE
  5
1849E
330
1E
100
AcDbEntity
  8
12
 48
2.0
100
AcDbLine
 10
242.1245027735395
 20
272.1315230904321
 30
0.0
 11
32.54186244243192
 21
272.1315230904321
 31
0.0
  0
LINE
  5
1849F
330
1E
100
AcDbEntity
  8
12
 48
2.0
100
AcDbLine
 10
242.1245027735395
 20
312.1315230904321
 30
0.0
 11
32.54186244243192
 21
312.1315230904321
 31
0.0
  0
SPLINE
  5
184A0
330
1E
100
AcDbEntity
  8
12
 48
2.0
100
AcDbSpline
210
0.0
220
0.0
230
1.0
 70
     8
 71
     3
 72
     9
 73
     5
 74
     0
 42
0.000000001
 43
0.0000000001
 40
0.0
 40
0.0
 40
0.0
 40
0.0
 40
0.5
 40
1.0
 40
1.0
 40
1.0
 40
1.0
 10
32.54186244243192
 20
312.1315230904321
 30
0.0
 10
26.04186244243192
 20
300.1315230904321
 30
0.0
 10
34.04186244243192
 20
288.1315230904322
 30
0.0
 10
28.04186244243192
 20
278.1315230904321
 30
0.0
 10
32.54186244243192
 20
272.1315230904321
 30
0.0
  0
SPLINE
  5
184A1
330
1E
100
AcDbEntity
  8
12
 48
2.0
100
AcDbSpline
210
0.0
220
0.0
230
1.0
 70
     8
 71
     3
 72
     9
 73
     5
 74
     0
 42
0.000000001
 43
0.0000000001
 40
0.0
 40
0.0
 40
0.0
 40
0.0
 40
0.5
 40
1.0
 40
1.0
 40
1.0
 40
1.0
 10
242.1245027735395
 20
312.1315230904321
 30
0.0
 10
235.6245027735395
 20
300.1315230904321
 30
0.0
 10
243.6245027735395
 20
288.1315230904322
 30
0.0
 10
237.6245027735395
 20
278.1315230904321
 30
0.0
 10
242.1245027735395
 20
272.1315230904321
 30
0.0
  0
LINE
  5
184A2
330
1E
100
AcDbEntity
  8
12
  6
HIDDEN
 48
2.0
100
AcDbLine
 10
30.259969015975
 20
177.1315230904321
 30
0.0
 11
239.259969015975
 21
177.1315230904321
 31
0.0
  0
LINE
  5
184A3
330
1E
100
AcDbEntity
  8
12
 48
2.0
100
AcDbLine
 10
32.54186244243192
 20
142.1315230904321
 30
0.0
 11
241.5418624424319
 21
142.1315230904321
 31
0.0
  0
LINE
  5
184A4
330
1E
100
AcDbEntity
  8
12
 48
2.0
100
AcDbLine
 10
32.54186244243192
 20
182.1315230904321
 30
0.0
 11
241.5418624424319
 21
182.1315230904321
 31
0.0
  0
SPLINE
  5
184A5
330
1E
100
AcDbEntity
  8
12
 48
2.0
100
AcDbSpline
210
0.0
220
0.0
230
1.0
 70
     8
 71
     3
 72
     9
 73
     5
 74
     0
 42
0.000000001
 43
0.0000000001
 40
0.0
 40
0.0
 40
0.0
 40
0.0
 40
0.5
 40
1.0
 40
1.0
 40
1.0
 40
1.0
 10
241.5418624424319
 20
182.1315230904321
 30
0.0
 10
235.0418624424319
 20
170.1315230904321
 30
0.0
 10
243.0418624424319
 20
160.1315230904321
 30
0.0
 10
237.0418624424319
 20
152.1315230904321
 30
0.0
 10
241.5418624424319
 20
142.1315230904321
 30
0.0
  0
SPLINE
  5
184A6
330
1E
100
AcDbEntity
  8
12
 48
2.0
100
AcDbSpline
210
0.0
220
0.0
230
1.0
 70
     8
 71
     3
 72
     9
 73
     5
 74
     0
 42
0.000000001
 43
0.0000000001
 40
0.0
 40
0.0
 40
0.0
 40
0.0
 40
0.5
 40
1.0
 40
1.0
 40
1.0
 40
1.0
 10
32.54186244243192
 20
182.1315230904321
 30
0.0
 10
26.04186244243192
 20
170.1315230904321
 30
0.0
 10
34.04186244243192
 20
160.1315230904321
 30
0.0
 10
28.04186244243192
 20
152.1315230904321
 30
0.0
 10
32.54186244243192
 20
142.1315230904321
 30
0.0
  0
LINE
  5
184A7
330
1E
100
AcDbEntity
  8
1
  6
ByBlock
 62
     0
100
AcDbLine
 10
247.6822775599867
 20
107.3204046747402
 30
0.0
 11
194.6088211961487
 21
107.3204046747402
 31
0.0
  0
LINE
  5
184A8
330
1E
100
AcDbEntity
  8
1
  6
ByBlock
 62
     0
100
AcDbLine
 10
179.09029013096
 20
149.1315230905427
 30
0.0
 11
194.6088211961487
 21
107.3204046747402
 31
0.0
  0
SOLID
  5
184A9
330
1E
100
AcDbEntity
  8
12
  6
ByBlock
 62
     0
100
AcDbTrace
 10
179.09029013096
 20
149.1315230905427
 30
0.0
 11
180.7636605443967
 21
144.3467267267418
 31
0.0
 12
179.1213822418967
 22
144.0626496393461
 32
0.0
 13
179.1213822418967
 23
144.0626496393461
 33
0.0
  0
TEXT
  5
184AB
330
1E
100
AcDbEntity
  8
30
100
AcDbText
 10
192.1795967273474
 20
111.0544639617527
 30
0.0
 40
6.25
  1
Mounting plate
 41
0.7125304878048843
  7
UGMTXT
100
AcDbText
  0
DIMENSION
  5
184C9
330
1E
100
AcDbEntity
  8
30
100
AcDbDimension
280
     0
  2
*D13
 10
436.6030255637297
 20
181.3336198760026
 30
0.0
 11
436.6030255637297
 21
227.3336198760027
 31
0.0
 70
   160
  1
<>
 71
     2
 42
91.99999999999995
 73
     0
 74
     0
 75
     0
  3
STANDARD
100
AcDbAlignedDimension
 13
372.0198539946377
 23
273.3336198760027
 33
0.0
 14
372.0198539946377
 24
181.3336198760026
 34
0.0
 50
90.0
100
AcDbRotatedDimension
  0
LINE
  5
184CA
330
1E
100
AcDbEntity
  8
16
 48
2.0
100
AcDbLine
 10
347.5198539946378
 20
398.0896002370028
 30
0.0
 11
347.5198539946378
 21
53.21857978400259
 31
0.0
  0
LWPOLYLINE
  5
184CC
330
1E
100
AcDbEntity
  8
11
 48
2.0
100
AcDbPolyline
 90
        8
 70
     1
 43
0.0
 10
404.5198539946376
 20
181.3336197865026
 42
0.4142135623730951
 10
406.5198539946377
 20
183.3336197865026
 10
406.5198539946377
 20
271.3336197865028
 42
0.4142135623730951
 10
404.5198539946376
 20
273.3336197865028
 10
290.5198539946377
 20
273.3336197865028
 42
0.4142135623730951
 10
288.5198539946377
 20
271.3336197865028
 10
288.5198539946377
 20
183.3336197865026
 42
0.4142135623730951
 10
290.5198539946377
 20
181.3336197865026
  0
LWPOLYLINE
  5
184CD
330
1E
100
AcDbEntity
  8
10
100
AcDbPolyline
 90
        6
 70
     0
 43
0.0
 10
82.79186175693212
 20
767.1512753063052
 10
82.79186175693212
 20
780.6519528918053
 42
-0.4142135623730951
 10
83.79186175693211
 20
781.6519528918052
 10
96.29186227143236
 20
781.6519528918052
 42
-0.4142135623730951
 10
97.29186227143237
 20
780.6519528918053
 10
97.29186227143237
 20
767.1512753063052
  0
CIRCLE
  5
184CE
330
1E
100
AcDbEntity
  8
10
  6
CONTINOUS
370
    30
100
AcDbCircle
 10
90.04186244243191
 20
774.1519540558051
 30
0.0
 40
3.275000000000004
  0
CIRCLE
  5
184CF
330
1E
100
AcDbEntity
  8
10
  6
CONTINOUS
370
    30
100
AcDbCircle
 10
180.1418624424319
 20
774.1519540558051
 30
0.0
 40
3.275000000000004
  0
CIRCLE
  5
184D0
330
1E
100
AcDbEntity
  8
10
  6
CONTINOUS
370
    30
100
AcDbCircle
 10
135.0418624424319
 20
774.1519540558051
 30
0.0
 40
3.275000000000004
  0
LINE
  5
184D1
330
1E
100
AcDbEntity
  8
10
  6
SLD-実線
 62
     7
370
    30
100
AcDbLine
 10
190.141863038432
 20
767.1512753063052
 30
0.0
 11
186.6418633964318
 21
767.1512753063052
 31
0.0
  0
LINE
  5
184D2
330
1E
100
AcDbEntity
  8
10
  6
CONTINOUS
100
AcDbLine
 10
200.1418609524322
 20
667.6512673788051
 30
0.0
 11
210.1418588664325
 21
667.6512673788051
 31
0.0
  0
LINE
  5
184D3
330
1E
100
AcDbEntity
  8
10
  6
CONTINOUS
100
AcDbLine
 10
210.1418588664325
 20
667.6512673788051
 30
0.0
 11
210.1418588664325
 21
679.6512693458048
 31
0.0
  0
LINE
  5
184D4
330
1E
100
AcDbEntity
  8
10
  6
CONTINOUS
100
AcDbLine
 10
210.1418588664325
 20
679.6512693458048
 30
0.0
 11
200.1418609524322
 21
679.6512693458048
 31
0.0
  0
LINE
  5
184D5
330
1E
100
AcDbEntity
  8
10
  6
CONTINOUS
100
AcDbLine
 10
200.1418609524322
 20
679.6512693458048
 30
0.0
 11
200.1418609524322
 21
667.6512673788051
 31
0.0
  0
LINE
  5
184D6
330
1E
100
AcDbEntity
  8
10
  6
CONTINOUS
100
AcDbLine
 10
202.8418619539321
 20
675.9606652253052
 30
0.0
 11
207.1418602374321
 21
669.6512677068052
 31
0.0
  0
LINE
  5
184D7
330
1E
100
AcDbEntity
  8
10
  6
CONTINOUS
100
AcDbLine
 10
207.1418602374321
 20
669.6512677068052
 30
0.0
 11
208.6418632769324
 21
669.6512677068052
 31
0.0
  0
LINE
  5
184D8
330
1E
100
AcDbEntity
  8
10
  6
CONTINOUS
100
AcDbLine
 10
208.6418632769324
 20
669.6512677068052
 30
0.0
 11
208.6418632769324
 21
677.6512690178052
 31
0.0
  0
LINE
  5
184D9
330
1E
100
AcDbEntity
  8
10
  6
CONTINOUS
100
AcDbLine
 10
208.6418632769324
 20
677.6512690178052
 30
0.0
 11
207.4418653154322
 21
677.6512690178052
 31
0.0
  0
LINE
  5
184DA
330
1E
100
AcDbEntity
  8
10
  6
CONTINOUS
100
AcDbLine
 10
207.4418653154322
 20
677.6512690178052
 30
0.0
 11
207.4418653154322
 21
671.3418714993053
 31
0.0
  0
LINE
  5
184DB
330
1E
100
AcDbEntity
  8
10
  6
CONTINOUS
100
AcDbLine
 10
207.4418653154322
 20
671.3418714993053
 30
0.0
 11
203.1418595814317
 21
677.6512690178052
 31
0.0
  0
LINE
  5
184DC
330
1E
100
AcDbEntity
  8
10
  6
CONTINOUS
100
AcDbLine
 10
201.6418639924319
 20
677.6512690178052
 30
0.0
 11
201.6418639924319
 21
669.6512677068052
 31
0.0
  0
LINE
  5
184DD
330
1E
100
AcDbEntity
  8
10
  6
CONTINOUS
100
AcDbLine
 10
201.6418639924319
 20
669.6512677068052
 30
0.0
 11
202.8418619539321
 21
669.6512677068052
 31
0.0
  0
LINE
  5
184DE
330
1E
100
AcDbEntity
  8
10
  6
CONTINOUS
100
AcDbLine
 10
202.8418619539321
 20
669.6512677068052
 30
0.0
 11
202.8418619539321
 21
675.9606652253052
 31
0.0
  0
LINE
  5
184DF
330
1E
100
AcDbEntity
  8
10
  6
CONTINOUS
100
AcDbLine
 10
203.1418595814317
 20
677.6512690178052
 30
0.0
 11
201.6418639924319
 21
677.6512690178052
 31
0.0
  0
LINE
  5
184E0
330
1E
100
AcDbEntity
  8
10
  6
CONTINOUS
100
AcDbLine
 10
131.6162428404322
 20
649.0063756993053
 30
0.0
 11
129.5418633664321
 21
649.0063756993053
 31
0.0
  0
LINE
  5
184E1
330
1E
100
AcDbEntity
  8
10
  6
CONTINOUS
100
AcDbLine
 10
95.5418615189319
 20
649.0063756993053
 30
0.0
 11
93.46748204493271
 21
649.0063756993053
 31
0.0
  0
ELLIPSE
  5
184E2
330
1E
100
AcDbEntity
  8
10
  6
CONTINOUS
100
AcDbEllipse
 10
112.4205729484319
 20
624.1512686303052
 30
0.0
 11
0.0
 21
1100.0
 31
0.0
210
0.0
220
0.0
230
1.0
 40
0.0174550649
 41
4.690677605249396
 42
4.734986454741448
  0
ELLIPSE
  5
184E3
330
1E
100
AcDbEntity
  8
10
  6
CONTINOUS
100
AcDbEllipse
 10
112.6631519369321
 20
624.1512686303052
 30
0.0
 11
0.0
 21
1100.0
 31
0.0
210
0.0
220
0.0
230
1.0
 40
0.0174550649
 41
1.548198852438138
 42
1.59250770193019
  0
LINE
  5
184E4
330
1E
100
AcDbEntity
  8
10
  6
CONTINOUS
100
AcDbLine
 10
131.6166190949316
 20
600.2706323108051
 30
0.0
 11
93.46710579043243
 21
600.2706323108051
 31
0.0
  0
LINE
  5
184E5
330
1E
100
AcDbEntity
  8
10
  6
CONTINOUS
100
AcDbLine
 10
227.5918619894321
 20
716.7769462163049
 30
0.0
 11
42.59186468393219
 21
716.7769462163049
 31
0.0
  0
ELLIPSE
  5
184E6
330
1E
100
AcDbEntity
  8
10
100
AcDbEllipse
 10
191.0404900964322
 20
752.6623744843052
 30
0.0
 11
0.9502067146467512
 21
0.3164782047172888
 31
0.0
210
0.0
220
0.0
230
1.0
 40
0.9984778551000625
 41
-0.3210503505480449
 42
1.248832587740261
  0
ELLIPSE
  5
184E7
330
1E
100
AcDbEntity
  8
10
100
AcDbEllipse
 10
214.0432347884325
 20
752.6623744843052
 30
0.0
 11
-0.9502067146467531
 21
0.3164782047172832
 31
0.0
210
0.0
220
0.0
230
1.0
 40
0.9984778551000623
 41
-1.248832587740268
 42
0.3210503505480384
  0
ARC
  5
184E8
330
1E
100
AcDbEntity
  8
10
100
AcDbCircle
 10
193.0418624424319
 20
728.6512686303055
 30
0.0
 40
1.000000000000085
100
AcDbArc
 50
180.0
 51
270.0
  0
ARC
  5
184E9
330
1E
100
AcDbEntity
  8
10
100
AcDbCircle
 10
212.0418624424319
 20
728.6512686303055
 30
0.0
 40
1.000000000000085
100
AcDbArc
 50
270.0
 51
0.0
  0
LINE
  5
184EA
330
1E
100
AcDbEntity
  8
10
100
AcDbLine
 10
192.0418596409326
 20
728.6512717893056
 30
0.0
 11
192.0418596409326
 21
752.6632935098055
 31
0.0
  0
LINE
  5
184EB
330
1E
100
AcDbEntity
  8
10
100
AcDbLine
 10
212.0418629194319
 20
727.6512697628052
 30
0.0
 11
193.0418616679325
 21
727.6512697628052
 31
0.0
  0
LINE
  5
184EC
330
1E
100
AcDbEntity
  8
10
100
AcDbLine
 10
213.0418649459316
 20
752.6632935098055
 30
0.0
 11
213.0418649459316
 21
728.6512717893056
 31
0.0
  0
LINE
  5
184ED
330
1E
100
AcDbEntity
  8
0
  6
SLD-実線
 62
     7
370
    30
100
AcDbLine
 10
219.6549166344317
 20
753.6625206763052
 30
0.0
 11
219.654953887432
 21
753.6625206763052
 31
0.0
  0
LINE
  5
184EE
330
1E
100
AcDbEntity
  8
10
100
AcDbLine
 10
227.5918619894321
 20
754.1512638623053
 30
0.0
 11
42.59186468393219
 21
754.1512638623053
 31
0.0
  0
LINE
  5
184EF
330
1E
100
AcDbEntity
  8
10
100
AcDbLine
 10
227.5918619894321
 20
753.6625206763052
 30
0.0
 11
214.1423214579323
 21
753.6625206763052
 31
0.0
  0
LINE
  5
184F0
330
1E
100
AcDbEntity
  8
10
  6
CONTINOUS
100
AcDbLine
 10
95.5418615189319
 20
644.1008240273052
 30
0.0
 11
129.5418633664321
 21
644.1008240273052
 31
0.0
  0
LINE
  5
184F1
330
1E
100
AcDbEntity
  8
10
  6
CONTINOUS
100
AcDbLine
 10
95.5418615189319
 20
655.6919344058051
 30
0.0
 11
129.5418633664321
 21
655.6919344058051
 31
0.0
  0
LINE
  5
184F2
330
1E
100
AcDbEntity
  8
10
  6
CONTINOUS
100
AcDbLine
 10
129.5418633664321
 20
655.6919344058051
 30
0.0
 11
129.5418633664321
 21
644.1008240273052
 31
0.0
  0
LINE
  5
184F3
330
1E
100
AcDbEntity
  8
10
  6
CONTINOUS
100
AcDbLine
 10
95.5418615189319
 20
655.6919344058051
 30
0.0
 11
95.5418615189319
 21
644.1008240273052
 31
0.0
  0
LINE
  5
184F4
330
1E
100
AcDbEntity
  8
0
  6
SLD-実線
 62
     7
370
    30
100
AcDbLine
 10
95.5418615189319
 20
644.1008240273052
 30
0.0
 11
95.5418615189319
 21
640.6541835808052
 31
0.0
  0
LINE
  5
184F5
330
1E
100
AcDbEntity
  8
0
  6
SLD-実線
 62
     7
370
    30
100
AcDbLine
 10
129.5418633664321
 20
640.6541835808052
 30
0.0
 11
129.5418633664321
 21
640.1299737683054
 31
0.0
  0
LINE
  5
184F6
330
1E
100
AcDbEntity
  8
0
  6
SLD-実線
 62
     7
370
    30
100
AcDbLine
 10
95.5418615189319
 20
640.1299737683054
 30
0.0
 11
95.5418615189319
 21
640.6541835808052
 31
0.0
  0
LINE
  5
184F7
330
1E
100
AcDbEntity
  8
0
  6
SLD-実線
 62
     7
370
    30
100
AcDbLine
 10
129.5418633664321
 20
640.1299737683054
 30
0.0
 11
129.5418633664321
 21
636.8826316958052
 31
0.0
  0
LINE
  5
184F8
330
1E
100
AcDbEntity
  8
0
  6
SLD-実線
 62
     7
370
    30
100
AcDbLine
 10
95.5418615189319
 20
640.1299737683054
 30
0.0
 11
95.5418615189319
 21
636.8826316958052
 31
0.0
  0
LINE
  5
184F9
330
1E
100
AcDbEntity
  8
0
  6
SLD-実線
 62
     7
370
    30
100
AcDbLine
 10
129.5418633664321
 20
636.8826316958052
 30
0.0
 11
129.5418633664321
 21
636.2076416903049
 31
0.0
  0
LINE
  5
184FA
330
1E
100
AcDbEntity
  8
0
  6
SLD-実線
 62
     7
370
    30
100
AcDbLine
 10
95.5418615189319
 20
636.2076416903049
 30
0.0
 11
95.5418615189319
 21
636.8826316958052
 31
0.0
  0
LINE
  5
184FB
330
1E
100
AcDbEntity
  8
0
  6
SLD-実線
 62
     7
370
    30
100
AcDbLine
 10
95.5418615189319
 20
635.9485216728054
 30
0.0
 11
129.5418633664321
 21
635.9485216728054
 31
0.0
  0
LINE
  5
184FC
330
1E
100
AcDbEntity
  8
0
  6
SLD-実線
 62
     7
370
    30
100
AcDbLine
 10
129.5418633664321
 20
636.2076416903049
 30
0.0
 11
129.5418633664321
 21
635.9485216728054
 31
0.0
  0
LINE
  5
184FD
330
1E
100
AcDbEntity
  8
0
  6
SLD-実線
 62
     7
370
    30
100
AcDbLine
 10
95.5418615189319
 20
636.2076416903049
 30
0.0
 11
95.5418615189319
 21
635.9485216728054
 31
0.0
  0
LINE
  5
184FE
330
1E
100
AcDbEntity
  8
10
100
AcDbLine
 10
193.5418626809323
 20
750.6512642198052
 30
0.0
 11
192.0418596409326
 21
749.1512686303051
 31
0.0
  0
LINE
  5
184FF
330
1E
100
AcDbEntity
  8
10
100
AcDbLine
 10
193.5418626809323
 20
750.6512642198052
 30
0.0
 11
211.5418619059319
 21
750.6512642198052
 31
0.0
  0
LINE
  5
18500
330
1E
100
AcDbEntity
  8
10
100
AcDbLine
 10
211.5418619059319
 20
750.6512642198052
 30
0.0
 11
213.0418649459316
 21
749.1512686303051
 31
0.0
  0
LINE
  5
18501
330
1E
100
AcDbEntity
  8
0
  6
SLD-実線
 62
     7
370
    30
100
AcDbLine
 10
126.8578568989323
 20
612.0585888913052
 30
0.0
 11
98.22586798593235
 21
612.0585888913052
 31
0.0
  0
LINE
  5
18502
330
1E
100
AcDbEntity
  8
0
  6
SLD-実線
 62
     7
370
    30
100
AcDbLine
 10
98.22958861993178
 20
617.3677282698052
 30
0.0
 11
98.24186251993253
 21
617.3974062608053
 31
0.0
  0
LINE
  5
18503
330
1E
100
AcDbEntity
  8
0
  6
SLD-実線
 62
     7
370
    30
100
AcDbLine
 10
98.22586798593235
 20
612.0585888913052
 30
0.0
 11
98.22958861993178
 21
617.3677282698052
 31
0.0
  0
LINE
  5
18504
330
1E
100
AcDbEntity
  8
0
  6
SLD-実線
 62
     7
370
    30
100
AcDbLine
 10
126.8541362654323
 20
617.3677282698052
 30
0.0
 11
126.8578568989323
 21
612.0585888913052
 31
0.0
  0
LINE
  5
18505
330
1E
100
AcDbEntity
  8
0
  6
SLD-実線
 62
     7
370
    30
100
AcDbLine
 10
126.8418623649322
 20
617.3974062608053
 30
0.0
 11
126.8541362654323
 21
617.3677282698052
 31
0.0
  0
SPLINE
  5
18506
330
1E
100
AcDbEntity
  8
0
  6
SLD-実線
 62
     7
370
    30
100
AcDbSpline
210
0.0
220
0.0
230
1.0
 70
     8
 71
     3
 72
     9
 73
     5
 74
     0
 42
0.000000001
 43
0.0000000001
 40
0.0
 40
0.0
 40
0.0
 40
0.0
 40
0.4468629695240698
 40
1.0
 40
1.0
 40
1.0
 40
1.0
 10
98.22438811460688
 20
635.9485216729382
 30
0.0
 10
98.22429733050832
 20
632.3916145411427
 30
0.0
 10
98.22409417181006
 20
624.4318877918364
 30
0.0
 10
98.22523625672147
 20
616.4652379357292
 30
0.0
 10
98.22586798617706
 20
612.0585888914802
 30
0.0
  0
SPLINE
  5
18507
330
1E
100
AcDbEntity
  8
0
  6
SLD-実線
 62
     7
370
    30
100
AcDbSpline
210
0.0
220
0.0
230
1.0
 70
     8
 71
     3
 72
    10
 73
     6
 74
     0
 42
0.000000001
 43
0.0000000001
 40
0.0
 40
0.0
 40
0.0
 40
0.0
 40
0.0558460472303805
 40
0.6089224971503443
 40
1.0
 40
1.0
 40
1.0
 40
1.0
 10
126.8578568989987
 20
612.0585888914802
 30
0.0
 10
126.8580926838403
 20
612.5025399260456
 30
0.0
 10
126.8606635854921
 20
617.3432007424642
 30
0.0
 10
126.8589730666917
 20
625.3283227392572
 30
0.0
 10
126.859232220555
 20
632.8379591848605
 30
0.0
 10
126.8593395645366
 20
635.9485216729382
 30
0.0
  0
SPLINE
  5
18508
330
1E
100
AcDbEntity
  8
0
  6
SLD-実線
 62
     7
370
    30
100
AcDbSpline
210
0.0
220
0.0
230
1.0
 70
     8
 71
     3
 72
     9
 73
     5
 74
     0
 42
0.000000001
 43
0.0000000001
 40
0.0
 40
0.0
 40
0.0
 40
0.0
 40
0.7124703380928576
 40
1.0
 40
1.0
 40
1.0
 40
1.0
 10
98.24186252007441
 20
617.3974062606731
 30
0.0
 10
98.24185818273509
 20
621.8095302794993
 30
0.0
 10
98.24185209498772
 20
628.0022428500139
 30
0.0
 10
98.24185512857091
 20
634.1739677104367
 30
0.0
 10
98.24185600081637
 20
635.9485216729382
 30
0.0
  0
LINE
  5
18509
330
1E
100
AcDbEntity
  8
10
  6
CONTINOUS
100
AcDbLine
 10
86.54186190593192
 20
579.1512668423052
 30
0.0
 11
86.54186190593192
 21
669.1512686303052
 31
0.0
  0
LINE
  5
1850A
330
1E
100
AcDbEntity
  8
10
  6
CONTINOUS
100
AcDbLine
 10
138.5418629789319
 20
669.1512686303052
 30
0.0
 11
138.5418629789319
 21
579.1512668423052
 31
0.0
  0
ARC
  5
1850B
330
1E
100
AcDbEntity
  8
0
  6
SLD-実線
 62
     7
370
    30
100
AcDbCircle
 10
55.74186244243175
 20
668.1512686303054
 30
0.0
 40
1.000000000000085
100
AcDbArc
 50
90.0
 51
180.0
  0
ARC
  5
1850C
330
1E
100
AcDbEntity
  8
0
  6
SLD-実線
 62
     7
370
    30
100
AcDbCircle
 10
169.3418624424321
 20
580.1512686303054
 30
0.0
 40
0.9999999999999428
100
AcDbArc
 50
270.0
 51
0.0
  0
ARC
  5
1850D
330
1E
100
AcDbEntity
  8
0
  6
SLD-実線
 62
     7
370
    30
100
AcDbCircle
 10
169.3418624424321
 20
668.1512686303054
 30
0.0
 40
0.9999999999999428
100
AcDbArc
 50
0.0
 51
90.0
  0
LINE
  5
1850E
330
1E
100
AcDbEntity
  8
10
  6
CONTINOUS
100
AcDbLine
 10
54.741863771932
 20
668.1512686303054
 30
0.0
 11
54.741863771932
 21
580.1512668423051
 31
0.0
  0
LINE
  5
1850F
330
1E
100
AcDbEntity
  8
0
  6
SLD-実線
 62
     7
370
    30
100
AcDbLine
 10
149.8731865134323
 20
579.1512668423052
 30
0.0
 11
169.3418628119325
 21
579.1512668423052
 31
0.0
  0
LINE
  5
18510
330
1E
100
AcDbEntity
  8
10
  6
CONTINOUS
100
AcDbLine
 10
170.341861113432
 20
580.1512668423051
 30
0.0
 11
170.341861113432
 21
668.1512686303054
 31
0.0
  0
ARC
  5
18511
330
1E
100
AcDbEntity
  8
10
  6
CONTINOUS
100
AcDbCircle
 10
169.341861113432
 20
580.1512668423051
 30
0.0
 40
1.0
100
AcDbArc
 50
270.0
 51
0.0
  0
ARC
  5
18512
330
1E
100
AcDbEntity
  8
10
  6
CONTINOUS
100
AcDbCircle
 10
169.341861113432
 20
668.1512686303054
 30
0.0
 40
1.0
100
AcDbArc
 50
0.0
 51
90.0
  0
ARC
  5
18513
330
1E
100
AcDbEntity
  8
10
  6
CONTINOUS
100
AcDbCircle
 10
169.341861113432
 20
580.1512668423051
 30
0.0
 40
1.0
100
AcDbArc
 50
270.0
 51
0.0
  0
LINE
  5
18514
330
1E
100
AcDbEntity
  8
10
  6
CONTINOUS
100
AcDbLine
 10
55.741863771932
 20
579.1512668423052
 30
0.0
 11
169.341861113432
 21
579.1512668423052
 31
0.0
  0
ARC
  5
18515
330
1E
100
AcDbEntity
  8
10
  6
CONTINOUS
100
AcDbCircle
 10
55.741863771932
 20
580.1512668423051
 30
0.0
 40
1.0
100
AcDbArc
 50
180.0
 51
270.0
  0
LINE
  5
18516
330
1E
100
AcDbEntity
  8
0
  6
SLD-実線
 62
     7
370
    30
100
AcDbLine
 10
169.3418628119325
 20
669.1512704188054
 30
0.0
 11
138.5418629789319
 21
669.1512704188054
 31
0.0
  0
LINE
  5
18517
330
1E
100
AcDbEntity
  8
0
  6
SLD-実線
 62
     7
370
    30
100
AcDbLine
 10
86.54186190593192
 20
669.1512704188054
 30
0.0
 11
55.74186207293221
 21
669.1512704188054
 31
0.0
  0
LINE
  5
18518
330
1E
100
AcDbEntity
  8
10
  6
CONTINOUS
100
AcDbLine
 10
182.4918602014319
 20
716.7769462163049
 30
0.0
 11
182.4918602014319
 21
531.5255910443057
 31
0.0
  0
LINE
  5
18519
330
1E
100
AcDbEntity
  8
10
  6
CONTINOUS
100
AcDbLine
 10
55.741863771932
 20
669.1512686303052
 30
0.0
 11
169.341861113432
 21
669.1512686303052
 31
0.0
  0
ARC
  5
1851A
330
1E
100
AcDbEntity
  8
10
  6
CONTINOUS
100
AcDbCircle
 10
55.741863771932
 20
668.1512686303054
 30
0.0
 40
1.0
100
AcDbArc
 50
90.0
 51
180.0
  0
INSERT
  5
1851E
330
1E
100
AcDbEntity
  8
17
100
AcDbBlockReference
  2
SW_CENTERMARKSYMBOL_28
 10
157.5418624424319
 20
738.1512686303055
 30
0.0
 41
5.0
 42
5.0
 43
5.0
  0
INSERT
  5
1851F
330
1E
100
AcDbEntity
  8
16
100
AcDbBlockReference
  2
SW_CENTERMARKSYMBOL_35
 10
180.1418624424319
 20
774.1512686303051
 30
0.0
 41
5.0
 42
5.0
 43
5.0
  0
INSERT
  5
18520
330
1E
100
AcDbEntity
  8
16
100
AcDbBlockReference
  2
SW_CENTERMARKSYMBOL_36
 10
135.0418624424319
 20
774.1512686303051
 30
0.0
 41
5.0
 42
5.0
 43
5.0
  0
INSERT
  5
18521
330
1E
100
AcDbEntity
  8
16
100
AcDbBlockReference
  2
SW_CENTERMARKSYMBOL_37
 10
90.04186244243191
 20
774.1512686303051
 30
0.0
 41
5.0
 42
5.0
 43
5.0
  0
LWPOLYLINE
  5
18522
330
1E
100
AcDbEntity
  8
10
100
AcDbPolyline
 90
        6
 70
     0
 43
0.0
 10
127.7918617569321
 20
767.1512753063052
 10
127.7918617569321
 20
780.6519528918053
 42
-0.4142135623730951
 10
128.7918617569321
 20
781.6519528918052
 10
141.2918622714324
 20
781.6519528918052
 42
-0.4142135623730951
 10
142.2918622714323
 20
780.6519528918053
 10
142.2918622714323
 20
767.1512753063052
  0
LWPOLYLINE
  5
18523
330
1E
100
AcDbEntity
  8
10
100
AcDbPolyline
 90
        6
 70
     0
 43
0.0
 10
172.8918617569321
 20
767.1512753063052
 10
172.8918617569321
 20
780.6519528918053
 42
-0.4142135623730951
 10
173.8918617569321
 20
781.6519528918052
 10
186.3918622714323
 20
781.6519528918052
 42
-0.4142135623730951
 10
187.3918622714323
 20
780.6519528918053
 10
187.3918622714323
 20
767.1512753063052
  0
LINE
  5
18524
330
1E
100
AcDbEntity
  8
10
  6
CONTINOUS
100
AcDbLine
 10
227.5918619894321
 20
531.5255910443057
 30
0.0
 11
42.59186468393219
 21
531.5255910443057
 31
0.0
  0
CIRCLE
  5
18525
330
1E
100
AcDbEntity
  8
24
  6
CONTINOUS
100
AcDbCircle
 10
202.5418624424319
 20
738.1512686303055
 30
0.0
 40
4.618802153517049
  0
LINE
  5
18526
330
1E
100
AcDbEntity
  8
12
  6
DASHED
100
AcDbLine
 10
143.2844418335544
 20
731.1512686303051
 30
0.0
 11
127.2844418335544
 21
731.1512686303051
 31
0.0
  0
LINE
  5
18527
330
1E
100
AcDbEntity
  8
12
  6
DASHED
100
AcDbLine
 10
135.0418624424319
 20
723.1512686303051
 30
0.0
 11
135.0418624424319
 21
739.1512686303054
 31
0.0
  0
LINE
  5
18528
330
1E
100
AcDbEntity
  8
12
  6
DASHED
100
AcDbLine
 10
127.0418624424319
 20
731.1512686303051
 30
0.0
 11
143.0418624424319
 21
731.1512686303051
 31
0.0
  0
CIRCLE
  5
18529
330
1E
100
AcDbEntity
  8
12
100
AcDbCircle
 10
135.0418624424319
 20
731.1512686303051
 30
0.0
 40
4.0
  0
LINE
  5
1852A
330
1E
100
AcDbEntity
  8
12
  6
DASHED
100
AcDbLine
 10
98.28444183355443
 20
731.1512686303051
 30
0.0
 11
82.2844418335544
 21
731.1512686303051
 31
0.0
  0
LINE
  5
1852B
330
1E
100
AcDbEntity
  8
12
  6
DASHED
100
AcDbLine
 10
90.04186244243191
 20
723.1512686303051
 30
0.0
 11
90.04186244243191
 21
739.1512686303054
 31
0.0
  0
LINE
  5
1852C
330
1E
100
AcDbEntity
  8
12
  6
DASHED
100
AcDbLine
 10
82.04186244243192
 20
731.1512686303051
 30
0.0
 11
98.04186244243192
 21
731.1512686303051
 31
0.0
  0
LINE
  5
1852D
330
1E
100
AcDbEntity
  8
12
  6
DASHED
100
AcDbLine
 10
172.1418624424319
 20
731.1512686303051
 30
0.0
 11
188.1418624424319
 21
731.1512686303051
 31
0.0
  0
CIRCLE
  5
1852E
330
1E
100
AcDbEntity
  8
12
100
AcDbCircle
 10
180.0418624424319
 20
731.1512686303051
 30
0.0
 40
4.0
  0
LINE
  5
1852F
330
1E
100
AcDbEntity
  8
12
  6
DASHED
100
AcDbLine
 10
180.0844418335544
 20
723.1512686303051
 30
0.0
 11
180.0844418335544
 21
739.1512686303054
 31
0.0
  0
CIRCLE
  5
18530
330
1E
100
AcDbEntity
  8
12
100
AcDbCircle
 10
89.79928305130943
 20
731.1512686303051
 30
0.0
 40
4.0
  0
ELLIPSE
  5
18531
330
1E
100
AcDbEntity
  8
10
100
AcDbEllipse
 10
146.0404900964322
 20
752.6623744843052
 30
0.0
 11
-0.950206714654343
 21
-0.3164782046944481
 31
0.0
210
0.0
220
0.0
230
1.0
 40
0.9984778550999999
 41
2.820542303065845
 42
4.390425241354074
  0
ELLIPSE
  5
18532
330
1E
100
AcDbEntity
  8
10
100
AcDbEllipse
 10
169.0432347884325
 20
752.6623744843052
 30
0.0
 11
0.950206714654343
 21
-0.3164782046944481
 31
0.0
210
0.0
220
0.0
230
1.0
 40
0.9984778550999999
 41
1.892760065825495
 42
3.462643004113779
  0
ARC
  5
18533
330
1E
100
AcDbEntity
  8
12
100
AcDbCircle
 10
148.0418624424319
 20
728.6512686303055
 30
0.0
 40
1.000000000000085
100
AcDbArc
 50
180.0
 51
270.0
  0
ARC
  5
18534
330
1E
100
AcDbEntity
  8
10
100
AcDbCircle
 10
167.0418624424319
 20
728.6512686303055
 30
0.0
 40
1.000000000000085
100
AcDbArc
 50
270.0
 51
0.0
  0
LINE
  5
18535
330
1E
100
AcDbEntity
  8
10
100
AcDbLine
 10
147.0418596409326
 20
728.6512717893056
 30
0.0
 11
147.0418596409326
 21
752.6632935098055
 31
0.0
  0
LINE
  5
18536
330
1E
100
AcDbEntity
  8
10
100
AcDbLine
 10
167.0418629194319
 20
727.6512697628052
 30
0.0
 11
148.0418616679326
 21
727.6512697628052
 31
0.0
  0
LINE
  5
18537
330
1E
100
AcDbEntity
  8
10
100
AcDbLine
 10
168.0418649459316
 20
752.6632935098055
 30
0.0
 11
168.0418649459316
 21
728.6512717893056
 31
0.0
  0
LINE
  5
18538
330
1E
100
AcDbEntity
  8
0
  6
SLD-実線
 62
     7
370
    30
100
AcDbLine
 10
174.6549166344317
 20
753.6625206763052
 30
0.0
 11
174.654953887432
 21
753.6625206763052
 31
0.0
  0
LINE
  5
18539
330
1E
100
AcDbEntity
  8
10
100
AcDbLine
 10
191.1414047383101
 20
753.6625268123096
 30
0.0
 11
169.0423214579323
 21
753.6625206763052
 31
0.0
  0
LINE
  5
1853A
330
1E
100
AcDbEntity
  8
10
100
AcDbLine
 10
148.5418626809323
 20
750.6512642198052
 30
0.0
 11
147.0418596409326
 21
749.1512686303051
 31
0.0
  0
LINE
  5
1853B
330
1E
100
AcDbEntity
  8
10
100
AcDbLine
 10
148.5418626809323
 20
750.6512642198052
 30
0.0
 11
166.5418619059319
 21
750.6512642198052
 31
0.0
  0
LINE
  5
1853C
330
1E
100
AcDbEntity
  8
10
100
AcDbLine
 10
166.5418619059319
 20
750.6512642198052
 30
0.0
 11
168.0418649459316
 21
749.1512686303051
 31
0.0
  0
ELLIPSE
  5
1853D
330
1E
100
AcDbEntity
  8
10
100
AcDbEllipse
 10
101.0404900964322
 20
752.6623744843052
 30
0.0
 11
-0.950206714654343
 21
-0.3164782046944481
 31
0.0
210
0.0
220
0.0
230
1.0
 40
0.9984778550999999
 41
2.820542303065845
 42
4.390425241354074
  0
ELLIPSE
  5
1853E
330
1E
100
AcDbEntity
  8
10
100
AcDbEllipse
 10
124.0432347884325
 20
752.6623744843052
 30
0.0
 11
0.950206714654343
 21
-0.3164782046944481
 31
0.0
210
0.0
220
0.0
230
1.0
 40
0.9984778550999999
 41
1.892760065825495
 42
3.462643004113779
  0
ARC
  5
1853F
330
1E
100
AcDbEntity
  8
10
100
AcDbCircle
 10
103.0418624424319
 20
728.6512686303055
 30
0.0
 40
1.000000000000085
100
AcDbArc
 50
180.0
 51
270.0
  0
ARC
  5
18540
330
1E
100
AcDbEntity
  8
10
100
AcDbCircle
 10
122.0418624424319
 20
728.6512686303055
 30
0.0
 40
1.000000000000085
100
AcDbArc
 50
270.0
 51
0.0
  0
LINE
  5
18541
330
1E
100
AcDbEntity
  8
10
100
AcDbLine
 10
102.0418596409326
 20
728.6512717893056
 30
0.0
 11
102.0418596409326
 21
752.6632935098055
 31
0.0
  0
LINE
  5
18542
330
1E
100
AcDbEntity
  8
10
100
AcDbLine
 10
122.0418629194319
 20
727.6512697628052
 30
0.0
 11
103.0418616679326
 21
727.6512697628052
 31
0.0
  0
LINE
  5
18543
330
1E
100
AcDbEntity
  8
10
100
AcDbLine
 10
123.0418649459316
 20
752.6632935098055
 30
0.0
 11
123.0418649459316
 21
728.6512717893056
 31
0.0
  0
LINE
  5
18544
330
1E
100
AcDbEntity
  8
0
  6
SLD-実線
 62
     7
370
    30
100
AcDbLine
 10
129.5549166344317
 20
753.6625206763052
 30
0.0
 11
129.554953887432
 21
753.6625206763052
 31
0.0
  0
LINE
  5
18545
330
1E
100
AcDbEntity
  8
10
100
AcDbLine
 10
146.0414047383101
 20
753.6625268123096
 30
0.0
 11
124.0423214579323
 21
753.6625206763052
 31
0.0
  0
LINE
  5
18546
330
1E
100
AcDbEntity
  8
10
100
AcDbLine
 10
103.5418626809323
 20
750.6512642198052
 30
0.0
 11
102.0418596409326
 21
749.1512686303051
 31
0.0
  0
LINE
  5
18547
330
1E
100
AcDbEntity
  8
10
100
AcDbLine
 10
103.5418626809323
 20
750.6512642198052
 30
0.0
 11
121.5418619059319
 21
750.6512642198052
 31
0.0
  0
LINE
  5
18548
330
1E
100
AcDbEntity
  8
10
100
AcDbLine
 10
121.5418619059319
 20
750.6512642198052
 30
0.0
 11
123.0418649459316
 21
749.1512686303051
 31
0.0
  0
ELLIPSE
  5
18549
330
1E
100
AcDbEntity
  8
10
100
AcDbEllipse
 10
56.04049017118268
 20
752.6623744843052
 30
0.0
 11
-0.950206714654343
 21
-0.3164782046944481
 31
0.0
210
0.0
220
0.0
230
1.0
 40
0.9984778550999999
 41
2.820542303065845
 42
4.390425241354074
  0
ELLIPSE
  5
1854A
330
1E
100
AcDbEntity
  8
10
100
AcDbEllipse
 10
79.04323486318208
 20
752.6623744843052
 30
0.0
 11
0.950206714654343
 21
-0.3164782046944481
 31
0.0
210
0.0
220
0.0
230
1.0
 40
0.9984778550999999
 41
1.892760065825495
 42
3.462643004113779
  0
ARC
  5
1854B
330
1E
100
AcDbEntity
  8
10
100
AcDbCircle
 10
58.04186251718238
 20
728.6512686303055
 30
0.0
 40
1.000000000000085
100
AcDbArc
 50
180.0
 51
270.0
  0
ARC
  5
1854C
330
1E
100
AcDbEntity
  8
10
100
AcDbCircle
 10
77.04186251718238
 20
728.6512686303055
 30
0.0
 40
1.000000000000085
100
AcDbArc
 50
270.0
 51
0.0
  0
LINE
  5
1854D
330
1E
100
AcDbEntity
  8
10
100
AcDbLine
 10
57.04185971568222
 20
728.6512717893056
 30
0.0
 11
57.04185971568222
 21
752.6632935098055
 31
0.0
  0
LINE
  5
1854E
330
1E
100
AcDbEntity
  8
10
100
AcDbLine
 10
77.04186299418144
 20
727.6512697628052
 30
0.0
 11
58.04186174268215
 21
727.6512697628052
 31
0.0
  0
LINE
  5
1854F
330
1E
100
AcDbEntity
  8
10
100
AcDbLine
 10
78.04186502068205
 20
752.6632935098055
 30
0.0
 11
78.04186502068205
 21
728.6512717893056
 31
0.0
  0
LINE
  5
18550
330
1E
100
AcDbEntity
  8
0
  6
SLD-実線
 62
     7
370
    30
100
AcDbLine
 10
84.55491670918126
 20
753.6625206763052
 30
0.0
 11
84.55495396218248
 21
753.6625206763052
 31
0.0
  0
LINE
  5
18551
330
1E
100
AcDbEntity
  8
10
100
AcDbLine
 10
101.0414047383101
 20
753.6625268123096
 30
0.0
 11
79.04232153268276
 21
753.6625206763052
 31
0.0
  0
LINE
  5
18552
330
1E
100
AcDbEntity
  8
10
100
AcDbLine
 10
42.59186468393219
 20
753.6625206763052
 30
0.0
 11
56.04140320418264
 21
753.6625206763052
 31
0.0
  0
LINE
  5
18553
330
1E
100
AcDbEntity
  8
10
100
AcDbLine
 10
58.54186275568281
 20
750.6512642198052
 30
0.0
 11
57.04185971568222
 21
749.1512686303051
 31
0.0
  0
LINE
  5
18554
330
1E
100
AcDbEntity
  8
10
100
AcDbLine
 10
58.54186275568281
 20
750.6512642198052
 30
0.0
 11
76.54186198068237
 21
750.6512642198052
 31
0.0
  0
LINE
  5
18555
330
1E
100
AcDbEntity
  8
10
100
AcDbLine
 10
76.54186198068237
 20
750.6512642198052
 30
0.0
 11
78.04186502068205
 21
749.1512686303051
 31
0.0
  0
CIRCLE
  5
18556
330
1E
100
AcDbEntity
  8
24
  6
CONTINOUS
100
AcDbCircle
 10
157.5418624424319
 20
738.1512686303055
 30
0.0
 40
4.618802153517049
  0
CIRCLE
  5
18557
330
1E
100
AcDbEntity
  8
24
  6
CONTINOUS
100
AcDbCircle
 10
112.5418622936822
 20
738.1512686303055
 30
0.0
 40
4.618802153517049
  0
CIRCLE
  5
18558
330
1E
100
AcDbEntity
  8
24
  6
CONTINOUS
100
AcDbCircle
 10
67.54186251718238
 20
738.1512686303055
 30
0.0
 40
4.618802153517049
  0
LWPOLYLINE
  5
18559
330
1E
100
AcDbEntity
  8
10
100
AcDbPolyline
 90
        6
 70
     0
 43
0.0
 10
82.79186175693212
 20
481.1512619543056
 10
82.79186175693212
 20
467.6505843688055
 42
0.4142135623730951
 10
83.79186175693211
 20
466.6505843688056
 10
96.29186227143236
 20
466.6505843688056
 42
0.4142135623730951
 10
97.29186227143237
 20
467.6505843688055
 10
97.29186227143237
 20
481.1512619543056
  0
CIRCLE
  5
1855A
330
1E
100
AcDbEntity
  8
10
  6
CONTINOUS
370
    30
100
AcDbCircle
 10
90.04186244243191
 20
474.1505832048057
 30
0.0
 40
3.275000000000004
  0
CIRCLE
  5
1855B
330
1E
100
AcDbEntity
  8
10
  6
CONTINOUS
370
    30
100
AcDbCircle
 10
180.1418624424319
 20
474.1505832048057
 30
0.0
 40
3.275000000000004
  0
CIRCLE
  5
1855C
330
1E
100
AcDbEntity
  8
10
  6
CONTINOUS
370
    30
100
AcDbCircle
 10
135.0418624424319
 20
474.1505832048057
 30
0.0
 40
3.275000000000004
  0
LINE
  5
1855D
330
1E
100
AcDbEntity
  8
10
  6
SLD-実線
 62
     7
370
    30
100
AcDbLine
 10
190.141863038432
 20
481.1512619543056
 30
0.0
 11
186.6418633964318
 21
481.1512619543056
 31
0.0
  0
ELLIPSE
  5
1855E
330
1E
100
AcDbEntity
  8
10
100
AcDbEllipse
 10
191.0404900964322
 20
495.6401627763056
 30
0.0
 11
-0.9502067146510558
 21
0.3164782047043598
 31
0.0
210
0.0
220
0.0
230
-1.0
 40
0.9984778550999513
 41
2.820542303055391
 42
4.390425241343677
  0
ELLIPSE
  5
1855F
330
1E
100
AcDbEntity
  8
10
100
AcDbEllipse
 10
214.0432347884325
 20
495.6401627763056
 30
0.0
 11
0.9502067146577239
 21
0.3164782046842609
 31
0.0
210
0.0
220
0.0
230
-1.0
 40
0.9984778550999999
 41
1.892760065814803
 42
3.462643004103006
  0
ARC
  5
18560
330
1E
100
AcDbEntity
  8
10
100
AcDbCircle
 10
193.0418624424319
 20
519.6512686303053
 30
0.0
 40
1.000000000000085
100
AcDbArc
 50
90.0
 51
180.0
  0
ARC
  5
18561
330
1E
100
AcDbEntity
  8
10
100
AcDbCircle
 10
212.0418624424319
 20
519.6512686303053
 30
0.0
 40
1.000000000000085
100
AcDbArc
 50
0.0
 51
90.0
  0
LINE
  5
18562
330
1E
100
AcDbEntity
  8
10
100
AcDbLine
 10
192.0418596409326
 20
519.6512654713053
 30
0.0
 11
192.0418596409326
 21
495.6392437508055
 31
0.0
  0
LINE
  5
18563
330
1E
100
AcDbEntity
  8
10
100
AcDbLine
 10
212.0418629194319
 20
520.6512674978056
 30
0.0
 11
193.0418616679325
 21
520.6512674978056
 31
0.0
  0
LINE
  5
18564
330
1E
100
AcDbEntity
  8
10
100
AcDbLine
 10
213.0418649459316
 20
495.6392437508055
 30
0.0
 11
213.0418649459316
 21
519.6512654713053
 31
0.0
  0
LINE
  5
18565
330
1E
100
AcDbEntity
  8
0
  6
SLD-実線
 62
     7
370
    30
100
AcDbLine
 10
219.6549166344317
 20
494.6400165843057
 30
0.0
 11
219.654953887432
 21
494.6400165843057
 31
0.0
  0
LINE
  5
18566
330
1E
100
AcDbEntity
  8
10
100
AcDbLine
 10
227.5918619894321
 20
494.1512733983055
 30
0.0
 11
42.59186468393219
 21
494.1512733983055
 31
0.0
  0
LINE
  5
18567
330
1E
100
AcDbEntity
  8
10
100
AcDbLine
 10
227.5918619894321
 20
494.6400165843057
 30
0.0
 11
214.0388124759015
 21
494.6400165843057
 31
0.0
  0
LINE
  5
18568
330
1E
100
AcDbEntity
  8
10
100
AcDbLine
 10
193.5418626809323
 20
497.6512730408057
 30
0.0
 11
192.0418596409326
 21
499.1512686303054
 31
0.0
  0
LINE
  5
18569
330
1E
100
AcDbEntity
  8
10
100
AcDbLine
 10
193.5418626809323
 20
497.6512730408057
 30
0.0
 11
211.5418619059319
 21
497.6512730408057
 31
0.0
  0
LINE
  5
1856A
330
1E
100
AcDbEntity
  8
10
100
AcDbLine
 10
211.5418619059319
 20
497.6512730408057
 30
0.0
 11
213.0418649459316
 21
499.1512686303054
 31
0.0
  0
INSERT
  5
1856B
330
1E
100
AcDbEntity
  8
17
100
AcDbBlockReference
  2
SW_CENTERMARKSYMBOL_28
 10
157.5418624424319
 20
510.1512686303053
 30
0.0
 41
-5.0
 42
5.0
 43
5.0
 50
180.0
  0
INSERT
  5
1856C
330
1E
100
AcDbEntity
  8
16
100
AcDbBlockReference
  2
SW_CENTERMARKSYMBOL_35
 10
180.1418624424319
 20
474.1512686303054
 30
0.0
 41
-5.0
 42
5.0
 43
5.0
 50
180.0
  0
INSERT
  5
1856D
330
1E
100
AcDbEntity
  8
16
100
AcDbBlockReference
  2
SW_CENTERMARKSYMBOL_36
 10
135.0418624424319
 20
474.1512686303054
 30
0.0
 41
-5.0
 42
5.0
 43
5.0
 50
180.0
  0
INSERT
  5
1856E
330
1E
100
AcDbEntity
  8
16
100
AcDbBlockReference
  2
SW_CENTERMARKSYMBOL_37
 10
90.04186244243191
 20
474.1512686303054
 30
0.0
 41
-5.0
 42
5.0
 43
5.0
 50
180.0
  0
LWPOLYLINE
  5
1856F
330
1E
100
AcDbEntity
  8
10
100
AcDbPolyline
 90
        6
 70
     0
 43
0.0
 10
127.7918617569321
 20
481.1512619543056
 10
127.7918617569321
 20
467.6505843688055
 42
0.4142135623730951
 10
128.7918617569321
 20
466.6505843688056
 10
141.2918622714324
 20
466.6505843688056
 42
0.4142135623730951
 10
142.2918622714323
 20
467.6505843688055
 10
142.2918622714323
 20
481.1512619543056
  0
LWPOLYLINE
  5
18570
330
1E
100
AcDbEntity
  8
10
100
AcDbPolyline
 90
        6
 70
     0
 43
0.0
 10
172.8918617569321
 20
481.1512619543056
 10
172.8918617569321
 20
467.6505843688055
 42
0.4142135623730951
 10
173.8918617569321
 20
466.6505843688056
 10
186.3918622714323
 20
466.6505843688056
 42
0.4142135623730951
 10
187.3918622714323
 20
467.6505843688055
 10
187.3918622714323
 20
481.1512619543056
  0
CIRCLE
  5
18571
330
1E
100
AcDbEntity
  8
24
  6
CONTINOUS
100
AcDbCircle
 10
202.5418624424319
 20
510.1512686303053
 30
0.0
 40
4.618802153517049
  0
LINE
  5
18572
330
1E
100
AcDbEntity
  8
12
  6
DASHED
100
AcDbLine
 10
143.2844418335544
 20
517.1512686303055
 30
0.0
 11
127.2844418335544
 21
517.1512686303055
 31
0.0
  0
LINE
  5
18573
330
1E
100
AcDbEntity
  8
12
  6
DASHED
100
AcDbLine
 10
135.0418624424319
 20
525.1512686303055
 30
0.0
 11
135.0418624424319
 21
509.1512686303055
 31
0.0
  0
LINE
  5
18574
330
1E
100
AcDbEntity
  8
12
  6
DASHED
100
AcDbLine
 10
127.0418624424319
 20
517.1512686303055
 30
0.0
 11
143.0418624424319
 21
517.1512686303055
 31
0.0
  0
CIRCLE
  5
18575
330
1E
100
AcDbEntity
  8
12
100
AcDbCircle
 10
135.0418624424319
 20
517.1512686303055
 30
0.0
 40
4.0
  0
LINE
  5
18576
330
1E
100
AcDbEntity
  8
12
  6
DASHED
100
AcDbLine
 10
98.28444183355443
 20
517.1512686303055
 30
0.0
 11
82.2844418335544
 21
517.1512686303055
 31
0.0
  0
LINE
  5
18577
330
1E
100
AcDbEntity
  8
12
  6
DASHED
100
AcDbLine
 10
90.04186244243191
 20
525.1512686303055
 30
0.0
 11
90.04186244243191
 21
509.1512686303055
 31
0.0
  0
LINE
  5
18578
330
1E
100
AcDbEntity
  8
12
  6
DASHED
100
AcDbLine
 10
82.04186244243192
 20
517.1512686303055
 30
0.0
 11
98.04186244243192
 21
517.1512686303055
 31
0.0
  0
LINE
  5
18579
330
1E
100
AcDbEntity
  8
12
  6
DASHED
100
AcDbLine
 10
172.1418624424319
 20
517.1512686303055
 30
0.0
 11
188.1418624424319
 21
517.1512686303055
 31
0.0
  0
CIRCLE
  5
1857A
330
1E
100
AcDbEntity
  8
12
100
AcDbCircle
 10
180.0418624424319
 20
517.1512686303055
 30
0.0
 40
4.0
  0
LINE
  5
1857B
330
1E
100
AcDbEntity
  8
12
  6
DASHED
100
AcDbLine
 10
180.0844418335544
 20
525.1512686303055
 30
0.0
 11
180.0844418335544
 21
509.1512686303055
 31
0.0
  0
CIRCLE
  5
1857C
330
1E
100
AcDbEntity
  8
12
100
AcDbCircle
 10
89.99928305130943
 20
517.1512686303055
 30
0.0
 40
4.0
  0
ELLIPSE
  5
1857D
330
1E
100
AcDbEntity
  8
10
100
AcDbEllipse
 10
146.0404900964322
 20
495.6401627763056
 30
0.0
 11
-0.950206714654343
 21
0.3164782046944481
 31
0.0
210
0.0
220
0.0
230
-1.0
 40
0.9984778550999999
 41
2.820542303065845
 42
4.390425241354074
  0
ELLIPSE
  5
1857E
330
1E
100
AcDbEntity
  8
10
100
AcDbEllipse
 10
169.0432347884325
 20
495.6401627763056
 30
0.0
 11
0.950206714654343
 21
0.3164782046944481
 31
0.0
210
0.0
220
0.0
230
-1.0
 40
0.9984778550999999
 41
1.892760065825495
 42
3.462643004113779
  0
ARC
  5
1857F
330
1E
100
AcDbEntity
  8
10
100
AcDbCircle
 10
148.0418624424319
 20
519.6512686303053
 30
0.0
 40
1.000000000000085
100
AcDbArc
 50
90.0
 51
180.0
  0
ARC
  5
18580
330
1E
100
AcDbEntity
  8
10
100
AcDbCircle
 10
167.0418624424319
 20
519.6512686303053
 30
0.0
 40
1.000000000000085
100
AcDbArc
 50
0.0
 51
90.0
  0
LINE
  5
18581
330
1E
100
AcDbEntity
  8
10
100
AcDbLine
 10
147.0418596409326
 20
519.6512654713053
 30
0.0
 11
147.0418596409326
 21
495.6392437508055
 31
0.0
  0
LINE
  5
18582
330
1E
100
AcDbEntity
  8
10
100
AcDbLine
 10
167.0418629194319
 20
520.6512674978056
 30
0.0
 11
148.0418616679326
 21
520.6512674978056
 31
0.0
  0
LINE
  5
18583
330
1E
100
AcDbEntity
  8
10
100
AcDbLine
 10
168.0418649459316
 20
495.6392437508055
 30
0.0
 11
168.0418649459316
 21
519.6512654713053
 31
0.0
  0
LINE
  5
18584
330
1E
100
AcDbEntity
  8
0
  6
SLD-実線
 62
     7
370
    30
100
AcDbLine
 10
174.6549166344317
 20
494.6400165843057
 30
0.0
 11
174.654953887432
 21
494.6400165843057
 31
0.0
  0
LINE
  5
18585
330
1E
100
AcDbEntity
  8
10
100
AcDbLine
 10
191.1414047383101
 20
494.6400104483013
 30
0.0
 11
169.0423214579323
 21
494.6400165843057
 31
0.0
  0
LINE
  5
18586
330
1E
100
AcDbEntity
  8
10
100
AcDbLine
 10
148.5418626809323
 20
497.6512730408057
 30
0.0
 11
147.0418596409326
 21
499.1512686303054
 31
0.0
  0
LINE
  5
18587
330
1E
100
AcDbEntity
  8
10
100
AcDbLine
 10
148.5418626809323
 20
497.6512730408057
 30
0.0
 11
166.5418619059319
 21
497.6512730408057
 31
0.0
  0
LINE
  5
18588
330
1E
100
AcDbEntity
  8
10
100
AcDbLine
 10
166.5418619059319
 20
497.6512730408057
 30
0.0
 11
168.0418649459316
 21
499.1512686303054
 31
0.0
  0
ELLIPSE
  5
18589
330
1E
100
AcDbEntity
  8
10
100
AcDbEllipse
 10
101.0404900964322
 20
495.6401627763056
 30
0.0
 11
-0.950206714654343
 21
0.3164782046944481
 31
0.0
210
0.0
220
0.0
230
-1.0
 40
0.9984778550999999
 41
2.820542303065845
 42
4.390425241354074
  0
ELLIPSE
  5
1858A
330
1E
100
AcDbEntity
  8
10
100
AcDbEllipse
 10
124.0432347884325
 20
495.6401627763056
 30
0.0
 11
0.950206714654343
 21
0.3164782046944481
 31
0.0
210
0.0
220
0.0
230
-1.0
 40
0.9984778550999999
 41
1.892760065825495
 42
3.462643004113779
  0
ARC
  5
1858B
330
1E
100
AcDbEntity
  8
10
100
AcDbCircle
 10
103.0418624424319
 20
519.6512686303053
 30
0.0
 40
1.000000000000085
100
AcDbArc
 50
90.0
 51
180.0
  0
ARC
  5
1858C
330
1E
100
AcDbEntity
  8
10
100
AcDbCircle
 10
122.0418624424319
 20
519.6512686303053
 30
0.0
 40
1.000000000000085
100
AcDbArc
 50
0.0
 51
90.0
  0
LINE
  5
1858D
330
1E
100
AcDbEntity
  8
10
100
AcDbLine
 10
102.0418596409326
 20
519.6512654713053
 30
0.0
 11
102.0418596409326
 21
495.6392437508055
 31
0.0
  0
LINE
  5
1858E
330
1E
100
AcDbEntity
  8
10
100
AcDbLine
 10
122.0418629194319
 20
520.6512674978056
 30
0.0
 11
103.0418616679326
 21
520.6512674978056
 31
0.0
  0
LINE
  5
1858F
330
1E
100
AcDbEntity
  8
10
100
AcDbLine
 10
123.0418649459316
 20
495.6392437508055
 30
0.0
 11
123.0418649459316
 21
519.6512654713053
 31
0.0
  0
LINE
  5
18590
330
1E
100
AcDbEntity
  8
0
  6
SLD-実線
 62
     7
370
    30
100
AcDbLine
 10
129.5549166344317
 20
494.6400165843057
 30
0.0
 11
129.554953887432
 21
494.6400165843057
 31
0.0
  0
LINE
  5
18591
330
1E
100
AcDbEntity
  8
10
100
AcDbLine
 10
146.0414047383101
 20
494.6400104483013
 30
0.0
 11
124.0423214579323
 21
494.6400165843057
 31
0.0
  0
LINE
  5
18592
330
1E
100
AcDbEntity
  8
10
100
AcDbLine
 10
103.5418626809323
 20
497.6512730408057
 30
0.0
 11
102.0418596409326
 21
499.1512686303054
 31
0.0
  0
LINE
  5
18593
330
1E
100
AcDbEntity
  8
10
100
AcDbLine
 10
103.5418626809323
 20
497.6512730408057
 30
0.0
 11
121.5418619059319
 21
497.6512730408057
 31
0.0
  0
LINE
  5
18594
330
1E
100
AcDbEntity
  8
10
100
AcDbLine
 10
121.5418619059319
 20
497.6512730408057
 30
0.0
 11
123.0418649459316
 21
499.1512686303054
 31
0.0
  0
ELLIPSE
  5
18595
330
1E
100
AcDbEntity
  8
10
100
AcDbEllipse
 10
56.04049017118268
 20
495.6401627763056
 30
0.0
 11
-0.950206714654343
 21
0.3164782046944481
 31
0.0
210
0.0
220
0.0
230
-1.0
 40
0.9984778550999999
 41
2.820542303065845
 42
4.390425241354074
  0
ELLIPSE
  5
18596
330
1E
100
AcDbEntity
  8
10
100
AcDbEllipse
 10
79.04323486318208
 20
495.6401627763056
 30
0.0
 11
0.950206714654343
 21
0.3164782046944481
 31
0.0
210
0.0
220
0.0
230
-1.0
 40
0.9984778550999999
 41
1.892760065825495
 42
3.462643004113779
  0
ARC
  5
18597
330
1E
100
AcDbEntity
  8
10
100
AcDbCircle
 10
58.04186251718238
 20
519.6512686303053
 30
0.0
 40
1.000000000000085
100
AcDbArc
 50
90.0
 51
180.0
  0
ARC
  5
18598
330
1E
100
AcDbEntity
  8
10
100
AcDbCircle
 10
77.04186251718238
 20
519.6512686303053
 30
0.0
 40
1.000000000000085
100
AcDbArc
 50
0.0
 51
90.0
  0
LINE
  5
18599
330
1E
100
AcDbEntity
  8
10
100
AcDbLine
 10
57.04185971568222
 20
519.6512654713053
 30
0.0
 11
57.04185971568222
 21
495.6392437508055
 31
0.0
  0
LINE
  5
1859A
330
1E
100
AcDbEntity
  8
10
100
AcDbLine
 10
77.04186299418144
 20
520.6512674978056
 30
0.0
 11
58.04186174268215
 21
520.6512674978056
 31
0.0
  0
LINE
  5
1859B
330
1E
100
AcDbEntity
  8
10
100
AcDbLine
 10
78.04186502068205
 20
495.6392437508055
 30
0.0
 11
78.04186502068205
 21
519.6512654713053
 31
0.0
  0
LINE
  5
1859C
330
1E
100
AcDbEntity
  8
0
  6
SLD-実線
 62
     7
370
    30
100
AcDbLine
 10
84.55491670918126
 20
494.6400165843057
 30
0.0
 11
84.55495396218248
 21
494.6400165843057
 31
0.0
  0
LINE
  5
1859D
330
1E
100
AcDbEntity
  8
10
100
AcDbLine
 10
101.0414047383101
 20
494.6400104483013
 30
0.0
 11
79.04232153268276
 21
494.6400165843057
 31
0.0
  0
LINE
  5
1859E
330
1E
100
AcDbEntity
  8
10
100
AcDbLine
 10
42.59186468393219
 20
494.6400165843057
 30
0.0
 11
56.04140320418264
 21
494.6400165843057
 31
0.0
  0
LINE
  5
1859F
330
1E
100
AcDbEntity
  8
10
100
AcDbLine
 10
58.54186275568281
 20
497.6512730408057
 30
0.0
 11
57.04185971568222
 21
499.1512686303054
 31
0.0
  0
LINE
  5
185A0
330
1E
100
AcDbEntity
  8
10
100
AcDbLine
 10
58.54186275568281
 20
497.6512730408057
 30
0.0
 11
76.54186198068237
 21
497.6512730408057
 31
0.0
  0
LINE
  5
185A1
330
1E
100
AcDbEntity
  8
10
100
AcDbLine
 10
76.54186198068237
 20
497.6512730408057
 30
0.0
 11
78.04186502068205
 21
499.1512686303054
 31
0.0
  0
CIRCLE
  5
185A2
330
1E
100
AcDbEntity
  8
24
  6
CONTINOUS
100
AcDbCircle
 10
157.5418624424319
 20
510.1512686303053
 30
0.0
 40
4.618802153517049
  0
CIRCLE
  5
185A4
330
1E
100
AcDbEntity
  8
24
  6
CONTINOUS
100
AcDbCircle
 10
112.5418622936822
 20
510.1512686303053
 30
0.0
 40
4.618802153517049
  0
CIRCLE
  5
185A6
330
1E
100
AcDbEntity
  8
24
  6
CONTINOUS
100
AcDbCircle
 10
67.54186251718238
 20
510.1512686303053
 30
0.0
 40
4.618802153517049
  0
POLYLINE
  5
185A7
330
1E
100
AcDbEntity
  8
10
100
AcDb2dPolyline
 66
     1
 10
0.0
 20
0.0
 30
0.0
  0
VERTEX
  5
185A8
330
185A7
100
AcDbEntity
  8
10
  6
Continuous
100
AcDbVertex
100
AcDb2dVertex
 10
42.59186468393219
 20
624.6512686300556
 30
0.0
  0
VERTEX
  5
185A9
330
185A7
100
AcDbEntity
  8
10
  6
Continuous
100
AcDbVertex
100
AcDb2dVertex
 10
42.49186468393218
 20
483.1512619543055
 30
0.0
 42
0.3801652597140261
  0
VERTEX
  5
185AA
330
185A7
100
AcDbEntity
  8
10
  6
Continuous
100
AcDbVertex
100
AcDb2dVertex
 10
44.59186468393219
 20
481.1512619543056
 30
0.0
  0
VERTEX
  5
185AB
330
185A7
100
AcDbEntity
  8
10
  6
Continuous
100
AcDbVertex
100
AcDb2dVertex
 10
225.5918653869323
 20
481.1512619543056
 30
0.0
 42
0.4142135623730951
  0
VERTEX
  5
185AC
330
185A7
100
AcDbEntity
  8
10
  6
Continuous
100
AcDbVertex
100
AcDb2dVertex
 10
227.5918619894321
 20
483.1512619543055
 30
0.0
  0
VERTEX
  5
185AD
330
185A7
100
AcDbEntity
  8
10
100
AcDbVertex
100
AcDb2dVertex
 10
227.5918619894321
 20
624.1512686303052
 30
0.0
  0
VERTEX
  5
185AE
330
185A7
100
AcDbEntity
  8
10
100
AcDbVertex
100
AcDb2dVertex
 10
227.5918619894321
 20
765.1512753063054
 30
0.0
 42
0.4142135623730951
  0
VERTEX
  5
185AF
330
185A7
100
AcDbEntity
  8
10
100
AcDbVertex
100
AcDb2dVertex
 10
225.5918653869323
 20
767.1512753063052
 30
0.0
  0
VERTEX
  5
185B0
330
185A7
100
AcDbEntity
  8
10
100
AcDbVertex
100
AcDb2dVertex
 10
44.59186468393219
 20
767.1512753063052
 30
0.0
 42
0.3801652597140537
  0
VERTEX
  5
185B1
330
185A7
100
AcDbEntity
  8
10
100
AcDbVertex
100
AcDb2dVertex
 10
42.49186468393218
 20
765.1512753063052
 30
0.0
  0
VERTEX
  5
185B2
330
185A7
100
AcDbEntity
  8
10
100
AcDbVertex
100
AcDb2dVertex
 10
42.59186468393219
 20
623.6512686305552
 30
0.0
  0
SEQEND
  5
185B3
330
185A7
100
AcDbEntity
  8
10
  0
LWPOLYLINE
  5
185B4
330
1E
100
AcDbEntity
  8
10
  6
Continuous
100
AcDbPolyline
 90
        4
 70
     1
 43
0.0
 10
131.8418622534318
 20
589.8012683088052
 10
137.7954158330258
 20
589.8012683088052
 10
137.7954158330258
 20
581.3477152397117
 10
131.8418622534318
 20
581.3477152397117
  0
LWPOLYLINE
  5
185B5
330
1E
100
AcDbEntity
  8
10
380
     2
100
AcDbPolyline
 90
        4
 70
     1
 43
0.0
 10
700.0
 20
0.0
 10
700.0
 20
1088.0
 10
0.0
 20
1088.0
 10
0.0
 20
0.0
  0
INSERT
  5
185B6
330
1E
100
AcDbEntity
  8
17
100
AcDbBlockReference
  2
SW_CENTERMARKSYMBOL_28
 10
112.5418622936822
 20
738.1512686303055
 30
0.0
 41
5.0
 42
5.0
 43
5.0
  0
INSERT
  5
185B7
330
1E
100
AcDbEntity
  8
17
100
AcDbBlockReference
  2
SW_CENTERMARKSYMBOL_28
 10
67.54186251718238
 20
738.1512686303055
 30
0.0
 41
5.0
 42
5.0
 43
5.0
  0
INSERT
  5
185B8
330
1E
100
AcDbEntity
  8
17
100
AcDbBlockReference
  2
SW_CENTERMARKSYMBOL_28
 10
202.5418624424319
 20
738.1512686303055
 30
0.0
 41
5.0
 42
5.0
 43
5.0
  0
INSERT
  5
185B9
330
1E
100
AcDbEntity
  8
17
100
AcDbBlockReference
  2
SW_CENTERMARKSYMBOL_28
 10
67.54186251718238
 20
510.1512686303053
 30
0.0
 41
5.0
 42
5.0
 43
5.0
  0
INSERT
  5
185BA
330
1E
100
AcDbEntity
  8
17
100
AcDbBlockReference
  2
SW_CENTERMARKSYMBOL_28
 10
112.5418624424319
 20
510.1512686303053
 30
0.0
 41
5.0
 42
5.0
 43
5.0
  0
INSERT
  5
185BB
330
1E
100
AcDbEntity
  8
17
100
AcDbBlockReference
  2
SW_CENTERMARKSYMBOL_28
 10
202.5418624424319
 20
510.1512686303053
 30
0.0
 41
5.0
 42
5.0
 43
5.0
  0
LWPOLYLINE
  5
185BC
330
1E
100
AcDbEntity
  8
10
  6
Continuous
100
AcDbPolyline
 90
        4
 70
     1
 43
0.0
 10
98.22438811460688
 20
635.9485216729382
 10
126.8578568989323
 20
635.9485216729382
 10
126.8578568989323
 20
612.0585888913052
 10
98.22438811460688
 20
612.0585888913052
  0
LWPOLYLINE
  5
185BD
330
1E
100
AcDbEntity
  8
10
  6
Continuous
100
AcDbPolyline
 90
        4
 70
     1
 43
0.0
 10
95.5418615189319
 20
644.1008240273052
 10
129.5418633664321
 20
644.1008240273052
 10
129.5418633664321
 20
635.9485216728054
 10
95.5418615189319
 20
635.9485216728054
  0
DIMENSION
  5
185DB
330
1E
100
AcDbEntity
  8
30
100
AcDbDimension
280
     0
  2
*D14
 10
620.403528372377
 20
181.3336198760026
 30
0.0
 11
620.403528372377
 21
227.3336198760027
 31
0.0
 70
   160
  1
<>
 71
     2
 42
91.99999999999995
 73
     0
 74
     0
 75
     0
  3
STANDARD
100
AcDbAlignedDimension
 13
588.320356803285
 23
273.3336198760027
 33
0.0
 14
588.320356803285
 24
181.3336198760026
 34
0.0
 50
90.0
100
AcDbRotatedDimension
  0
LINE
  5
185DC
330
1E
100
AcDbEntity
  8
16
 48
2.0
100
AcDbLine
 10
563.8203568032849
 20
398.0896002370028
 30
0.0
 11
563.8203568032849
 21
53.21857978400259
 31
0.0
  0
LINE
  5
185DD
330
1E
100
AcDbEntity
  8
16
 48
2.0
100
AcDbLine
 10
484.1028928452852
 20
227.3336198760027
 30
0.0
 11
686.4908730287733
 21
227.3336198760027
 31
0.0
  0
LWPOLYLINE
  5
185DE
330
1E
100
AcDbEntity
  8
11
 48
2.0
100
AcDbPolyline
 90
        8
 70
     1
 43
0.0
 10
588.320356803285
 20
181.3336197865026
 42
0.4142135623730951
 10
590.3203568032847
 20
183.3336197865026
 10
590.3203568032847
 20
271.3336197865028
 42
0.4142135623730951
 10
588.320356803285
 20
273.3336197865028
 10
539.3203568032848
 20
273.3336197865028
 42
0.4142135623730951
 10
537.320356803285
 20
271.3336197865028
 10
537.320356803285
 20
183.3336197865026
 42
0.4142135623730951
 10
539.3203568032848
 20
181.3336197865026
  0
MTEXT
  5
185DF
330
1E
100
AcDbEntity
  8
19
100
AcDbMText
 10
327.1089660203979
 20
26.95654655366195
 30
0.0
 40
10.0
 41
0.0
 46
0.0
 71
     1
 72
     1
  1
[Cutout A]
  7
SLDTEXTSTYLE0
 73
     1
 44
1.0
  0
MTEXT
  5
185E0
330
1E
100
AcDbEntity
  8
19
100
AcDbMText
 10
526.0103327135675
 20
26.95654655366195
 30
0.0
 40
10.0
 41
0.0
 46
0.0
 71
     1
 72
     1
  1
[Cutout B]
  7
SLDTEXTSTYLE0
 73
     1
 44
1.0
  0
DIMENSION
  5
185E1
330
1E
100
AcDbEntity
  8
30
  6
Continuous
100
AcDbDimension
280
     0
  2
*D15
 10
590.3203568032847
 20
41.99786256108789
 30
0.0
 11
563.8203568032849
 21
41.99786256108789
 31
0.0
 70
   160
 71
     5
 42
53.0
 73
     0
 74
     0
 75
     0
  3
STANDARD
100
AcDbAlignedDimension
 13
537.320356803285
 23
183.3336197865026
 33
0.0
 14
590.3203568032847
 24
183.3336197865026
 34
0.0
100
AcDbRotatedDimension
1001
ACAD
1000
DSTYLE
1002
{
1070
    79
1070
     3
1070
   140
1040
8.0
1002
}
  0
DIMENSION
  5
185E2
330
1E
100
AcDbEntity
  8
30
  6
Continuous
100
AcDbDimension
280
     0
  2
*D16
 10
406.5198539946377
 20
38.50839113967686
 30
0.0
 11
347.5198539946378
 21
38.50839113967686
 31
0.0
 70
   160
 71
     5
 42
118.0
 73
     0
 74
     0
 75
     0
  3
STANDARD
100
AcDbAlignedDimension
 13
288.5198539946377
 23
179.1665097051529
 33
0.0
 14
406.5198539946377
 24
179.1665097051529
 34
0.0
100
AcDbRotatedDimension
1001
ACAD
1000
DSTYLE
1002
{
1070
    79
1070
     3
1070
   140
1040
8.0
1002
}
  0
DIMENSION
  5
197B6
330
1E
100
AcDbEntity
  8
30
  6
Continuous
100
AcDbDimension
280
     0
  2
*D17
 10
404.6971628095922
 20
271.0136640473236
 30
0.0
 11
437.2872002031797
 21
303.1527660576902
 31
0.0
 70
   164
 71
     5
 42
2.000000000179454
 73
     0
 74
     0
 75
     0
  3
STANDARD1
100
AcDbRadialDimension
 15
405.8585274880917
 25
272.6419244946269
 35
0.0
 40
0.0
  0
DIMENSION
  5
19865
330
1E
100
AcDbEntity
  8
30
  6
Continuous
100
AcDbDimension
280
     0
  2
*D18
 10
589.7345703656591
 20
272.7478333488753
 30
0.0
 11
622.3246077592412
 21
304.8869353592449
 31
0.0
 70
   164
 71
     5
 42
2.000000000179738
 73
     0
 74
     0
 75
     0
  3
STANDARD1
100
AcDbRadialDimension
 15
590.895935044158
 25
274.3760937961789
 35
0.0
 40
0.0
  0
DIMENSION
  5
1990D
330
1E
100
AcDbEntity
  8
30
  6
Continuous
100
AcDbDimension
280
     0
  2
*D19
 10
78.31180401669036
 20
161.5651660591207
 30
0.0
 11
35.50312964300974
 21
62.85437490234524
 31
0.0
 70
   163
  1
2X2-%%c6
 71
     5
 42
9.000000000349215
 73
     0
 74
     0
 75
     0
  3
STANDARD1
100
AcDbDiametricDimension
 15
76.77192086817621
 25
152.6978801217435
 35
0.0
 40
0.0
  0
DIMENSION
  5
1A7E3
330
1E
100
AcDbEntity
  8
30
  6
Continuous
100
AcDbDimension
280
     0
  2
*D20
 10
254.4611592188278
 20
494.1512697488047
 30
0.0
 11
254.4611592188277
 21
624.1512697488047
 31
0.0
 70
   160
  1
<>
 71
     2
 42
260.0
 73
     0
 74
     0
 75
     0
  3
STANDARD
100
AcDbAlignedDimension
 13
227.5962067710472
 23
754.1512697488046
 33
0.0
 14
227.7375323855269
 24
494.1512697488047
 34
0.0
 50
90.0
100
AcDbRotatedDimension
  0
DIMENSION
  5
1A7E4
330
1E
100
AcDbEntity
  8
30
100
AcDbDimension
280
     0
  2
*D21
 10
278.9914983808523
 20
481.1512619543056
 30
0.0
 11
271.9914983808523
 21
624.1512686303052
 31
0.0
 70
    32
 71
     5
 42
286.0000133519997
 73
     0
 74
     0
 75
     0
  3
STANDARD
100
AcDbAlignedDimension
 13
225.5918653869323
 23
767.1512753063052
 33
0.0
 14
225.5918653869323
 24
481.1512619543056
 34
0.0
 50
90.0
100
AcDbRotatedDimension
  0
LWPOLYLINE
  5
1AB06
330
1E
100
AcDbEntity
  8
18
 48
2.0
100
AcDbPolyline
 90
       29
 70
     0
 43
0.0
 10
624.0703568032849
 20
89.33361987600255
 10
624.0703568032849
 20
69.83361987600267
 10
638.570356803285
 20
69.83361987600267
 10
638.570356803285
 20
89.33361987600255
 10
678.820356803285
 20
89.33361987600255
 10
678.820356803285
 20
365.3343053010027
 10
638.570356803285
 20
365.3343053010027
 10
638.570356803285
 20
384.8336198760027
 10
624.0703568032849
 20
384.8336198760027
 10
624.0703568032849
 20
365.3343053010027
 10
593.570356803285
 20
365.3336198760027
 10
593.570356803285
 20
384.8336198760027
 10
579.0703568032848
 20
384.8336198760027
 10
579.0703568032848
 20
365.3336198760027
 10
548.570356803285
 20
365.3336198760027
 10
548.570356803285
 20
384.8336198760027
 10
534.0703568032848
 20
384.8336198760027
 10
534.0703568032848
 20
365.3336198760027
 10
493.8203568032849
 20
365.3336198760027
 10
493.8203568032849
 20
89.33361987600255
 10
534.0703568032848
 20
89.33361987600255
 10
534.0703568032848
 20
69.83361987600267
 10
548.570356803285
 20
69.83361987600267
 10
548.570356803285
 20
89.33361987600255
 10
579.0703568032848
 20
89.33361987600255
 10
579.0703568032848
 20
69.83361987600267
 10
593.570356803285
 20
69.83361987600267
 10
593.570356803285
 20
89.33361987600255
 10
633.820356803285
 20
89.33361987600255
  0
LWPOLYLINE
  5
1AB22
330
1E
100
AcDbEntity
  8
16
 48
2.0
100
AcDbPolyline
 90
        2
 70
     0
 43
0.0
 10
267.802390036637
 20
227.3336198760027
 10
470.1903702201262
 20
227.3336198760027
  0
LWPOLYLINE
  5
1AB23
330
1E
100
AcDbEntity
  8
18
 48
2.0
100
AcDbPolyline
 90
       23
 70
     0
 43
0.0
 10
392.2082632663387
 20
365.2936988258244
 10
377.2698539946377
 20
365.3336198760027
 10
377.2698539946377
 20
384.8336198760027
 10
362.7698539946377
 20
384.8336198760027
 10
362.7698539946377
 20
365.3336198760027
 10
332.2698539946377
 20
365.3336198760027
 10
332.2698539946377
 20
384.8336198760027
 10
317.7698539946377
 20
384.8336198760027
 10
317.7698539946377
 20
365.3336198760027
 10
277.5198539946377
 20
365.3336198760027
 10
277.5198539946377
 20
89.33361987600255
 10
317.7698539946377
 20
89.33361987600255
 10
317.7698539946377
 20
69.83361987600267
 10
332.2698539946377
 20
69.83361987600267
 10
332.2698539946377
 20
89.33361987600255
 10
362.7698539946377
 20
89.33361987600255
 10
362.7698539946377
 20
69.83361987600267
 10
377.2698539946377
 20
69.83361987600267
 10
377.2698539946377
 20
89.33361987600255
 10
422.2698539946376
 20
89.33361987600255
 10
422.2698539946376
 20
69.83361987600267
 10
407.7698539946377
 20
69.83361987600267
 10
407.7698539946377
 20
89.33361987600255
  0
LWPOLYLINE
  5
1AB39
330
1E
100
AcDbEntity
  8
18
 48
2.0
100
AcDbPolyline
 90
        7
 70
     0
 43
0.0
 10
422.2698539946376
 20
89.33361987600255
 10
462.5198539946376
 20
89.33361987600255
 10
462.5198539946376
 20
365.3343053010027
 10
422.2698539946376
 20
365.3343053010027
 10
422.2698539946376
 20
384.8336198760027
 10
407.7698539946377
 20
384.8336198760027
 10
407.7698539946377
 20
365.3343053010027
  0
LINE
  5
1AC9B
330
1E
100
AcDbEntity
  8
16
 48
2.0
100
AcDbLine
 10
598.7498966394622
 20
622.2255996877671
 30
0.0
 11
355.5608649504439
 21
622.2255996877671
 31
0.0
  0
LINE
  5
1AC9C
330
1E
100
AcDbEntity
  8
12
100
AcDbLine
 10
547.9545747383216
 20
712.2255996877676
 30
0.0
 11
547.9545747383216
 21
532.2255996877671
 31
0.0
  0
LINE
  5
1AC9D
330
1E
100
AcDbEntity
  8
10
100
AcDbLine
 10
499.9545747383216
 20
765.2255996877671
 30
0.0
 11
499.9545747383216
 21
479.2255996877671
 31
0.0
  0
LINE
  5
1AC9E
330
1E
100
AcDbEntity
  8
12
  6
HIDDEN
100
AcDbLine
 10
571.9545747383206
 20
552.2255996877671
 30
0.0
 11
516.9545747383216
 21
552.2255996877671
 31
0.0
  0
LINE
  5
1AC9F
330
1E
100
AcDbEntity
  8
17
100
AcDbLine
 10
568.0638779532118
 20
508.2255996877678
 30
0.0
 11
611.9545747383217
 21
508.2255996877678
 31
0.0
  0
LINE
  5
1ACA0
330
1E
100
AcDbEntity
  8
12
  6
HIDDEN
100
AcDbLine
 10
560.254574738321
 20
547.825599687767
 30
0.0
 11
555.254574738321
 21
547.825599687767
 31
0.0
  0
LINE
  5
1ACA1
330
1E
100
AcDbEntity
  8
12
  6
HIDDEN
100
AcDbLine
 10
560.254574738321
 20
550.0255996877672
 30
0.0
 11
555.254574738321
 21
550.0255996877672
 31
0.0
  0
LINE
  5
1ACA2
330
1E
100
AcDbEntity
  8
12
  6
HIDDEN
100
AcDbLine
 10
560.254574738321
 20
554.4255996877672
 30
0.0
 11
555.254574738321
 21
554.4255996877672
 31
0.0
  0
LINE
  5
1ACA3
330
1E
100
AcDbEntity
  8
12
  6
HIDDEN
100
AcDbLine
 10
560.254574738321
 20
556.6255996877671
 30
0.0
 11
555.254574738321
 21
556.6255996877671
 31
0.0
  0
LINE
  5
1ACA4
330
1E
100
AcDbEntity
  8
10
100
AcDbLine
 10
499.9545747383216
 20
484.225599687767
 30
0.0
 11
599.9545747383217
 21
484.225599687767
 31
0.0
  0
LINE
  5
1ACA5
330
1E
100
AcDbEntity
  8
10
100
AcDbLine
 10
499.9545747383216
 20
532.2255996877671
 30
0.0
 11
599.9545747383217
 21
532.2255996877671
 31
0.0
  0
LINE
  5
1ACA6
330
1E
100
AcDbEntity
  8
10
100
AcDbLine
 10
547.9545747383216
 20
484.2255996877674
 30
0.0
 11
547.9545747383216
 21
464.7255996877671
 31
0.0
  0
LINE
  5
1ACA7
330
1E
100
AcDbEntity
  8
10
100
AcDbLine
 10
534.9545747383216
 20
484.2255996877674
 30
0.0
 11
534.9545747383216
 21
464.7255996877671
 31
0.0
  0
LINE
  5
1ACA8
330
1E
100
AcDbEntity
  8
10
100
AcDbLine
 10
482.9545747383217
 20
492.225599687767
 30
0.0
 11
482.9545747383217
 21
479.2255996877671
 31
0.0
  0
LINE
  5
1ACA9
330
1E
100
AcDbEntity
  8
10
100
AcDbLine
 10
482.9545747383217
 20
479.2255996877671
 30
0.0
 11
499.9545747383216
 21
479.2255996877671
 31
0.0
  0
LINE
  5
1ACAA
330
1E
100
AcDbEntity
  8
10
100
AcDbLine
 10
534.9545747383216
 20
464.7255996877671
 30
0.0
 11
547.9545747383216
 21
464.7255996877671
 31
0.0
  0
LINE
  5
1ACAB
330
1E
100
AcDbEntity
  8
12
  6
HIDDEN
100
AcDbLine
 10
528.9545747383216
 20
556.7255996877671
 30
0.0
 11
524.9545747383216
 21
556.7255996877671
 31
0.0
  0
LINE
  5
1ACAC
330
1E
100
AcDbEntity
  8
12
  6
HIDDEN
100
AcDbLine
 10
528.9545747383216
 20
547.7255996877671
 30
0.0
 11
524.9545747383216
 21
547.7255996877671
 31
0.0
  0
LINE
  5
1ACAD
330
1E
100
AcDbEntity
  8
12
  6
HIDDEN
100
AcDbLine
 10
524.9545747383216
 20
547.7255996877671
 30
0.0
 11
524.9545747383216
 21
556.7255996877671
 31
0.0
  0
LINE
  5
1ACAE
330
1E
100
AcDbEntity
  8
12
  6
HIDDEN
100
AcDbLine
 10
555.254574738321
 20
547.2255996877671
 30
0.0
 11
555.254574738321
 21
557.2255996877671
 31
0.0
  0
LINE
  5
1ACAF
330
1E
100
AcDbEntity
  8
12
  6
HIDDEN
100
AcDbLine
 10
553.9545747383216
 20
547.2255996877671
 30
0.0
 11
553.9545747383216
 21
557.2255996877671
 31
0.0
  0
LINE
  5
1ACB0
330
1E
100
AcDbEntity
  8
12
  6
HIDDEN
100
AcDbLine
 10
529.9545747383216
 20
547.2255996877671
 30
0.0
 11
529.9545747383216
 21
557.2255996877671
 31
0.0
  0
LINE
  5
1ACB1
330
1E
100
AcDbEntity
  8
12
  6
HIDDEN
100
AcDbLine
 10
528.9545747383216
 20
547.2255996877671
 30
0.0
 11
528.9545747383216
 21
557.2255996877671
 31
0.0
  0
LINE
  5
1ACB2
330
1E
100
AcDbEntity
  8
12
  6
HIDDEN
100
AcDbLine
 10
529.9545747383216
 20
547.2255996877671
 30
0.0
 11
528.9545747383216
 21
547.2255996877671
 31
0.0
  0
LINE
  5
1ACB3
330
1E
100
AcDbEntity
  8
12
  6
HIDDEN
100
AcDbLine
 10
555.254574738321
 20
547.2255996877671
 30
0.0
 11
552.9545747383216
 21
547.2255996877671
 31
0.0
  0
LINE
  5
1ACB4
330
1E
100
AcDbEntity
  8
12
  6
HIDDEN
100
AcDbLine
 10
552.9545747383216
 20
549.7255996877671
 30
0.0
 11
529.9545747383216
 21
549.7255996877671
 31
0.0
  0
LINE
  5
1ACB5
330
1E
100
AcDbEntity
  8
12
  6
HIDDEN
100
AcDbLine
 10
552.9545747383216
 20
554.7255996877671
 30
0.0
 11
529.9545747383216
 21
554.7255996877671
 31
0.0
  0
LINE
  5
1ACB6
330
1E
100
AcDbEntity
  8
12
  6
HIDDEN
100
AcDbLine
 10
529.9545747383216
 20
557.2255996877671
 30
0.0
 11
528.9545747383216
 21
557.2255996877671
 31
0.0
  0
LINE
  5
1ACB7
330
1E
100
AcDbEntity
  8
12
  6
HIDDEN
100
AcDbLine
 10
555.254574738321
 20
557.2255996877671
 30
0.0
 11
552.9545747383216
 21
557.2255996877671
 31
0.0
  0
LINE
  5
1ACB8
330
1E
100
AcDbEntity
  8
10
100
AcDbLine
 10
599.9545747383217
 20
532.2255996877671
 30
0.0
 11
599.9545747383217
 21
484.2255996877674
 31
0.0
  0
LINE
  5
1ACB9
330
1E
100
AcDbEntity
  8
10
100
AcDbLine
 10
603.9545747383217
 20
513.2255996877678
 30
0.0
 11
603.9545747383217
 21
503.225599687768
 31
0.0
  0
LINE
  5
1ACBA
330
1E
100
AcDbEntity
  8
10
100
AcDbLine
 10
599.9545747383217
 20
503.2255996877678
 30
0.0
 11
603.9545747383217
 21
503.2255996877678
 31
0.0
  0
LINE
  5
1ACBB
330
1E
100
AcDbEntity
  8
10
100
AcDbLine
 10
599.9545747383217
 20
513.2255996877678
 30
0.0
 11
603.9545747383217
 21
513.2255996877678
 31
0.0
  0
LINE
  5
1ACBC
330
1E
100
AcDbEntity
  8
12
  6
HIDDEN
100
AcDbLine
 10
560.254574738321
 20
547.825599687767
 30
0.0
 11
560.254574738321
 21
556.6255996877671
 31
0.0
  0
LINE
  5
1ACBD
330
1E
100
AcDbEntity
  8
12
  6
HIDDEN
100
AcDbLine
 10
563.9545747383217
 20
549.7255996877671
 30
0.0
 11
560.254574738321
 21
549.7255996877671
 31
0.0
  0
LINE
  5
1ACBE
330
1E
100
AcDbEntity
  8
12
  6
HIDDEN
100
AcDbLine
 10
563.9545747383217
 20
554.7255996877671
 30
0.0
 11
560.254574738321
 21
554.7255996877671
 31
0.0
  0
LINE
  5
1ACBF
330
1E
100
AcDbEntity
  8
12
  6
HIDDEN
100
AcDbLine
 10
563.9545747383207
 20
549.7255996877671
 30
0.0
 11
563.9545747383207
 21
554.7255996877671
 31
0.0
  0
LINE
  5
1ACC0
330
1E
100
AcDbEntity
  8
12
  6
HIDDEN
100
AcDbLine
 10
571.9545747383206
 20
692.2255996877671
 30
0.0
 11
516.9545747383216
 21
692.2255996877671
 31
0.0
  0
LINE
  5
1ACC1
330
1E
100
AcDbEntity
  8
17
100
AcDbLine
 10
611.9545747383217
 20
736.2255996877678
 30
0.0
 11
551.7006191872979
 21
736.2255996877678
 31
0.0
  0
LINE
  5
1ACC2
330
1E
100
AcDbEntity
  8
12
  6
HIDDEN
100
AcDbLine
 10
560.254574738321
 20
687.8255996877672
 30
0.0
 11
555.254574738321
 21
687.8255996877672
 31
0.0
  0
LINE
  5
1ACC3
330
1E
100
AcDbEntity
  8
12
  6
HIDDEN
100
AcDbLine
 10
560.254574738321
 20
690.0255996877667
 30
0.0
 11
555.254574738321
 21
690.0255996877667
 31
0.0
  0
LINE
  5
1ACC4
330
1E
100
AcDbEntity
  8
12
  6
HIDDEN
100
AcDbLine
 10
560.254574738321
 20
696.6255996877671
 30
0.0
 11
555.254574738321
 21
696.6255996877671
 31
0.0
  0
LINE
  5
1ACC5
330
1E
100
AcDbEntity
  8
12
  6
HIDDEN
100
AcDbLine
 10
560.254574738321
 20
694.4255996877672
 30
0.0
 11
555.254574738321
 21
694.4255996877672
 31
0.0
  0
LINE
  5
1ACC6
330
1E
100
AcDbEntity
  8
10
100
AcDbLine
 10
599.9545747383217
 20
712.2255996877671
 30
0.0
 11
499.9545747383216
 21
712.2255996877671
 31
0.0
  0
LINE
  5
1ACC7
330
1E
100
AcDbEntity
  8
10
100
AcDbLine
 10
599.9545747383217
 20
760.2255996877671
 30
0.0
 11
499.9545747383216
 21
760.2255996877671
 31
0.0
  0
LINE
  5
1ACC8
330
1E
100
AcDbEntity
  8
12
  6
HIDDEN
100
AcDbLine
 10
528.9545747383216
 20
687.7255996877671
 30
0.0
 11
524.9545747383216
 21
687.7255996877671
 31
0.0
  0
LINE
  5
1ACC9
330
1E
100
AcDbEntity
  8
12
  6
HIDDEN
100
AcDbLine
 10
528.9545747383216
 20
696.7255996877671
 30
0.0
 11
524.9545747383216
 21
696.7255996877671
 31
0.0
  0
LINE
  5
1ACCA
330
1E
100
AcDbEntity
  8
12
  6
HIDDEN
100
AcDbLine
 10
524.9545747383216
 20
696.7255996877671
 30
0.0
 11
524.9545747383216
 21
687.7255996877671
 31
0.0
  0
LINE
  5
1ACCB
330
1E
100
AcDbEntity
  8
12
  6
HIDDEN
100
AcDbLine
 10
552.9545747383216
 20
694.7255996877672
 30
0.0
 11
529.9545747383216
 21
694.7255996877672
 31
0.0
  0
LINE
  5
1ACCC
330
1E
100
AcDbEntity
  8
12
  6
HIDDEN
100
AcDbLine
 10
552.9545747383216
 20
689.7255996877671
 30
0.0
 11
529.9545747383216
 21
689.7255996877671
 31
0.0
  0
LINE
  5
1ACCD
330
1E
100
AcDbEntity
  8
12
  6
HIDDEN
100
AcDbLine
 10
529.9545747383216
 20
687.2255996877671
 30
0.0
 11
528.9545747383216
 21
687.2255996877671
 31
0.0
  0
LINE
  5
1ACCE
330
1E
100
AcDbEntity
  8
12
  6
HIDDEN
100
AcDbLine
 10
529.9545747383216
 20
697.2255996877671
 30
0.0
 11
528.9545747383216
 21
697.2255996877671
 31
0.0
  0
LINE
  5
1ACCF
330
1E
100
AcDbEntity
  8
12
  6
HIDDEN
100
AcDbLine
 10
528.9545747383216
 20
697.2255996877671
 30
0.0
 11
528.9545747383216
 21
687.2255996877671
 31
0.0
  0
LINE
  5
1ACD0
330
1E
100
AcDbEntity
  8
12
  6
HIDDEN
100
AcDbLine
 10
529.9545747383216
 20
697.2255996877671
 30
0.0
 11
529.9545747383216
 21
687.2255996877671
 31
0.0
  0
LINE
  5
1ACD1
330
1E
100
AcDbEntity
  8
12
  6
HIDDEN
100
AcDbLine
 10
555.254574738321
 20
697.2255996877671
 30
0.0
 11
552.9545747383216
 21
697.2255996877671
 31
0.0
  0
LINE
  5
1ACD2
330
1E
100
AcDbEntity
  8
12
  6
HIDDEN
100
AcDbLine
 10
555.254574738321
 20
687.2255996877671
 30
0.0
 11
552.9545747383216
 21
687.2255996877671
 31
0.0
  0
LINE
  5
1ACD3
330
1E
100
AcDbEntity
  8
12
  6
HIDDEN
100
AcDbLine
 10
555.254574738321
 20
697.2255996877671
 30
0.0
 11
555.254574738321
 21
687.2255996877671
 31
0.0
  0
LINE
  5
1ACD4
330
1E
100
AcDbEntity
  8
12
  6
HIDDEN
100
AcDbLine
 10
553.9545747383216
 20
697.2255996877671
 30
0.0
 11
553.9545747383216
 21
687.2255996877671
 31
0.0
  0
LINE
  5
1ACD5
330
1E
100
AcDbEntity
  8
10
100
AcDbLine
 10
499.9545747383216
 20
765.2255996877671
 30
0.0
 11
482.9545747383217
 21
765.2255996877671
 31
0.0
  0
LINE
  5
1ACD6
330
1E
100
AcDbEntity
  8
10
100
AcDbLine
 10
482.9545747383217
 20
765.2255996877671
 30
0.0
 11
482.9545747383217
 21
752.2255996877671
 31
0.0
  0
LINE
  5
1ACD7
330
1E
100
AcDbEntity
  8
10
100
AcDbLine
 10
534.9545747383216
 20
779.7255996877667
 30
0.0
 11
534.9545747383216
 21
760.2255996877671
 31
0.0
  0
LINE
  5
1ACD8
330
1E
100
AcDbEntity
  8
10
100
AcDbLine
 10
547.9545747383216
 20
779.7255996877667
 30
0.0
 11
547.9545747383216
 21
760.2255996877671
 31
0.0
  0
LINE
  5
1ACD9
330
1E
100
AcDbEntity
  8
10
100
AcDbLine
 10
547.9545747383216
 20
779.7255996877667
 30
0.0
 11
534.9545747383208
 21
779.7255996877667
 31
0.0
  0
LINE
  5
1ACDA
330
1E
100
AcDbEntity
  8
10
100
AcDbLine
 10
599.9545747383217
 20
760.2255996877671
 30
0.0
 11
599.9545747383217
 21
712.2255996877671
 31
0.0
  0
LINE
  5
1ACDB
330
1E
100
AcDbEntity
  8
12
  6
HIDDEN
100
AcDbLine
 10
560.254574738321
 20
696.6255996877671
 30
0.0
 11
560.254574738321
 21
687.8255996877672
 31
0.0
  0
LINE
  5
1ACDC
330
1E
100
AcDbEntity
  8
12
  6
HIDDEN
100
AcDbLine
 10
563.9545747383207
 20
694.7255996877672
 30
0.0
 11
563.9545747383207
 21
689.7255996877671
 31
0.0
  0
LINE
  5
1ACDD
330
1E
100
AcDbEntity
  8
12
  6
HIDDEN
100
AcDbLine
 10
563.9545747383217
 20
689.7255996877671
 30
0.0
 11
560.254574738321
 21
689.7255996877671
 31
0.0
  0
LINE
  5
1ACDE
330
1E
100
AcDbEntity
  8
12
  6
HIDDEN
100
AcDbLine
 10
563.9545747383217
 20
694.7255996877672
 30
0.0
 11
560.254574738321
 21
694.7255996877672
 31
0.0
  0
LINE
  5
1ACDF
330
1E
100
AcDbEntity
  8
10
100
AcDbLine
 10
603.9545747383217
 20
731.2255996877678
 30
0.0
 11
599.9545747383217
 21
731.2255996877678
 31
0.0
  0
LINE
  5
1ACE0
330
1E
100
AcDbEntity
  8
10
100
AcDbLine
 10
603.9545747383217
 20
741.2255996877678
 30
0.0
 11
599.9545747383217
 21
741.2255996877678
 31
0.0
  0
LINE
  5
1ACE1
330
1E
100
AcDbEntity
  8
10
100
AcDbLine
 10
603.9545747383217
 20
741.2255996877678
 30
0.0
 11
603.9545747383217
 21
731.2255996877678
 31
0.0
  0
DIMENSION
  5
1ACEF
330
1E
100
AcDbEntity
  8
30
100
AcDbDimension
280
     0
  2
*D22
 10
599.9545747383217
 20
451.225599687767
 30
0.0
 11
573.9545747383217
 21
458.2255996877671
 31
0.0
 70
    32
 71
     5
 42
52.0
 73
     0
 74
     0
 75
     0
  3
STANDARD
100
AcDbAlignedDimension
 13
547.9545747383216
 23
484.225599687767
 33
0.0
 14
599.9545747383217
 24
484.2255996877674
 34
0.0
100
AcDbRotatedDimension
1001
ACAD
1000
DSTYLE
1002
{
1070
   140
1040
8.0
1002
}
  0
DIMENSION
  5
1ACF0
330
1E
100
AcDbEntity
  8
30
100
AcDbDimension
280
     0
  2
*D23
 10
603.9545747383217
 20
451.225599687767
 30
0.0
 11
613.6212414049882
 21
458.2255996877671
 31
0.0
 70
    32
 71
     5
 42
4.0
 73
     0
 74
     0
 75
     0
  3
STANDARD
100
AcDbAlignedDimension
 13
599.9545747383217
 23
483.2255996877673
 33
0.0
 14
603.9545747383217
 24
503.2255996877678
 34
0.0
100
AcDbRotatedDimension
1001
ACAD
1000
DSTYLE
1002
{
1070
   140
1040
8.0
1002
}
  0
LWPOLYLINE
  5
1ACF1
330
1E
100
AcDbEntity
  8
10
  6
CONTINOUS
100
AcDbPolyline
 90
       11
 70
     1
 43
0.0
 10
399.9408659800993
 20
530.2571601793752
 10
402.9545747383217
 20
530.2255995087667
 10
402.9545747383217
 20
492.225599687767
 10
499.9545747383216
 20
492.225599687767
 10
499.9545747383216
 20
752.2255996877671
 10
402.9545747383217
 20
752.2255996877671
 10
402.9545747383217
 20
714.1837113399417
 10
399.8754760289367
 20
714.1514666183937
 42
0.2520626822056452
 10
396.9545775993211
 20
708.7256002116121
 10
396.9545747383219
 20
673.2255996877671
 10
396.9545775993211
 20
535.7255995525197
 42
0.2552568693989432
  0
LINE
  5
1ACF2
330
1E
100
AcDbEntity
  8
0
  6
SLD-実線
 62
     7
370
    30
100
AcDbLine
 10
392.9545768248226
 20
578.2570711787666
 30
0.0
 11
392.9545768248226
 21
666.1941281967666
 31
0.0
  0
LINE
  5
1ACF3
330
1E
100
AcDbEntity
  8
10
  6
CONTINOUS
100
AcDbLine
 10
385.4545765263229
 20
578.2255996877669
 30
0.0
 11
385.4545765263229
 21
666.225599687767
 31
0.0
  0
LINE
  5
1ACF4
330
1E
100
AcDbEntity
  8
10
  6
CONTINOUS
100
AcDbLine
 10
392.9545747383217
 20
667.225599687767
 30
0.0
 11
392.9545747383217
 21
577.2255996877669
 31
0.0
  0
LINE
  5
1ACF5
330
1E
100
AcDbEntity
  8
10
  6
CONTINOUS
100
AcDbLine
 10
386.4545765263228
 20
577.2255996877669
 30
0.0
 11
396.9545747383219
 21
577.2255996877669
 31
0.0
  0
ARC
  5
1ACF6
330
1E
100
AcDbEntity
  8
10
  6
CONTINOUS
100
AcDbCircle
 10
386.4545765263228
 20
578.2255996877669
 30
0.0
 40
1.0
100
AcDbArc
 50
180.0
 51
270.0
  0
LINE
  5
1ACF7
330
1E
100
AcDbEntity
  8
10
  6
CONTINOUS
100
AcDbLine
 10
386.4545765263228
 20
667.225599687767
 30
0.0
 11
396.9545747383219
 21
667.225599687767
 31
0.0
  0
ARC
  5
1ACF8
330
1E
100
AcDbEntity
  8
10
  6
CONTINOUS
100
AcDbCircle
 10
386.4545765263228
 20
666.225599687767
 30
0.0
 40
1.0
100
AcDbArc
 50
90.0
 51
180.0
  0
LWPOLYLINE
  5
1ACF9
330
1E
100
AcDbEntity
  8
10
  6
CONTINOUS
100
AcDbPolyline
 90
        8
 70
     1
 43
0.0
 10
376.1400094438841
 20
650.2120814796436
 10
366.7662058613024
 20
650.4698015211347
 10
352.6090780648027
 20
654.0868137456348
 10
349.503243938303
 20
642.4957033671351
 10
363.6145094783024
 20
638.5248531081352
 10
372.0524155632611
 20
634.9569614767357
 10
377.0710193263221
 20
634.0228527302667
 10
380.9533082588223
 20
648.5117397717667
  0
ARC
  5
1ACFA
330
1E
100
AcDbEntity
  8
10
  6
CONTINOUS
100
AcDbCircle
 10
430.0526870889989
 20
822.2547325701338
 30
0.0
 40
181.6640122735105
100
AcDbArc
 50
252.8048349791452
 51
255.7887474977473
  0
ARC
  5
1ACFB
330
1E
100
AcDbEntity
  8
10
  6
CONTINOUS
100
AcDbCircle
 10
371.8109085015712
 20
588.4133168673311
 30
0.0
 40
46.90130289725614
100
AcDbArc
 50
73.08805372624327
 51
83.24228441301258
  0
LWPOLYLINE
  5
1ACFC
330
1E
100
AcDbEntity
  8
10
  6
CONTINOUS
100
AcDbPolyline
 90
        3
 70
     0
 43
0.0
 10
376.3478208218221
 20
648.7104998957667
 10
372.9831732353223
 20
636.1534641537669
 10
377.3298394533222
 20
634.9887784507667
  0
DIMENSION
  5
1ACFD
330
1E
100
AcDbEntity
  8
30
  6
Continuous
100
AcDbDimension
280
     0
  2
*D24
 10
328.4566686387262
 20
577.2255996877671
 30
0.0
 11
328.4566686387261
 21
622.2255996877674
 31
0.0
 70
   160
 71
     5
 42
90.0
 73
     0
 74
     0
 75
     0
  3
STANDARD
100
AcDbAlignedDimension
 13
386.4545765263219
 23
667.2255996877671
 33
0.0
 14
378.7408399109063
 24
577.2255996877671
 34
0.0
 50
90.0
100
AcDbRotatedDimension
1001
ACAD
1000
DSTYLE
1002
{
1070
    79
1070
     3
1002
}
  0
DIMENSION
  5
1ACFF
330
1E
100
AcDbEntity
  8
30
  6
Continuous
100
AcDbDimension
280
     0
  2
*D25
 10
627.5608649504436
 20
508.2255996877678
 30
0.0
 11
620.5608649504437
 21
622.2255996877677
 31
0.0
 70
    32
 71
     5
 42
227.9999999999998
 73
     0
 74
     0
 75
     0
  3
STANDARD
100
AcDbAlignedDimension
 13
610.9545747383217
 23
736.2255996877678
 33
0.0
 14
610.9545747383217
 24
508.2255996877678
 34
0.0
 50
90.0
100
AcDbRotatedDimension
1001
ACAD
1000
DSTYLE
1002
{
1070
    79
1070
     3
1002
}
  0
DIMENSION
  5
1AD00
330
1E
100
AcDbEntity
  8
30
100
AcDbDimension
280
     0
  2
*D26
 10
649.8337479769397
 20
484.2255996877673
 30
0.0
 11
642.8337479769396
 21
622.2255996877674
 31
0.0
 70
    32
 71
     5
 42
275.9999999999998
 73
     0
 74
     0
 75
     0
  3
STANDARD
100
AcDbAlignedDimension
 13
598.9545747383218
 23
760.2255996877671
 33
0.0
 14
598.9545747383218
 24
484.2255996877674
 34
0.0
 50
90.0
100
AcDbRotatedDimension
  0
DIMENSION
  5
1AD01
330
1E
100
AcDbEntity
  8
30
100
AcDbDimension
280
     0
  2
*D27
 10
673.724924602815
 20
464.7255996877671
 30
0.0
 11
666.7249246028147
 21
622.225599687767
 31
0.0
 70
    32
 71
     5
 42
314.9999999999995
 73
     0
 74
     0
 75
     0
  3
STANDARD
100
AcDbAlignedDimension
 13
547.9545747383216
 23
779.7255996877667
 33
0.0
 14
546.9545747383216
 24
464.7255996877671
 34
0.0
 50
90.0
100
AcDbRotatedDimension
  0
DIMENSION
  5
1AD02
330
1E
100
AcDbEntity
  8
30
  6
Continuous
100
AcDbDimension
280
     0
  2
*D28
 10
499.9545747383216
 20
426.1855260624498
 30
0.0
 11
434.9545747383215
 21
426.1855260624498
 31
0.0
 70
   160
  1
<>
 71
     2
 42
130.0
 73
     0
 74
     0
 75
     0
  3
STANDARD
100
AcDbAlignedDimension
 13
369.9545747383219
 23
624.7317024102847
 33
0.0
 14
499.9545747383216
 24
492.225599687767
 34
0.0
100
AcDbRotatedDimension
1001
ACAD
1000
DSTYLE
1002
{
1070
    79
1070
     3
1002
}
  0
DIMENSION
  5
1AD03
330
1E
100
AcDbEntity
  8
30
  6
Continuous
100
AcDbDimension
280
     0
  2
*D29
 10
499.9545747383216
 20
458.2255996877671
 30
0.0
 11
448.4545747383217
 21
458.2255996877671
 31
0.0
 70
   160
  1
<>
 71
     2
 42
103.0
 73
     0
 74
     0
 75
     0
  3
STANDARD
100
AcDbAlignedDimension
 13
396.9545747383219
 23
542.0581950563103
 33
0.0
 14
499.9545747383216
 24
492.225599687767
 34
0.0
100
AcDbRotatedDimension
1001
ACAD
1000
DSTYLE
1002
{
1070
    79
1070
     3
1002
}
  0
DIMENSION
  5
1AD04
330
1E
100
AcDbEntity
  8
30
  6
Continuous
100
AcDbDimension
280
     0
  2
*D30
 10
499.9545747383216
 20
408.8614547366772
 30
0.0
 11
424.4578268535642
 21
415.8614547366775
 31
0.0
 70
    32
 71
     5
 42
150.993495769515
 73
     0
 74
     0
 75
     0
  3
STANDARD
100
AcDbAlignedDimension
 13
348.9610789688068
 23
634.7317024102847
 33
0.0
 14
499.9545747383216
 24
425.6855260624496
 34
0.0
100
AcDbRotatedDimension
1001
ACAD
1000
DSTYLE
1002
{
1070
    79
1070
     3
1002
}
  0
DIMENSION
  5
1AD05
330
1E
100
AcDbEntity
  8
30
  6
Continuous
100
AcDbDimension
280
     0
  2
*D31
 10
384.9545746193216
 20
441.9861187994921
 30
0.0
 11
375.287907952655
 21
448.9861187994921
 31
0.0
 70
    32
 71
     5
 42
8.0
 73
     0
 74
     0
 75
     0
  3
STANDARD1
100
AcDbAlignedDimension
 13
392.9545746193216
 23
571.7317024102847
 33
0.0
 14
384.9545746193216
 24
571.7317024102847
 34
0.0
100
AcDbRotatedDimension
  0
DIMENSION
  5
1AD06
330
1E
100
AcDbEntity
  8
30
  6
Continuous
100
AcDbDimension
280
     0
  2
*D32
 10
499.9545747383216
 20
441.9861187994921
 30
0.0
 11
446.4545746788217
 21
448.9861187994921
 31
0.0
 70
    32
 71
     5
 42
107.0000001190001
 73
     0
 74
     0
 75
     0
  3
STANDARD
100
AcDbAlignedDimension
 13
392.9545746193216
 23
441.9861187994921
 33
0.0
 14
499.9545747383216
 24
458.2255996877671
 34
0.0
100
AcDbRotatedDimension
1001
ACAD
1000
DSTYLE
1002
{
1070
    79
1070
     3
1002
}
  0
ARC
  5
1AD07
330
1E
100
AcDbEntity
  8
30
  6
Continuous
100
AcDbCircle
 10
370.1614270310812
 20
636.9239491752169
 30
0.0
 40
21.39637757822332
100
AcDbArc
 50
164.9058206776035
 51
187.7617629093311
  0
ARC
  5
1AD08
330
1E
100
AcDbEntity
  8
30
  6
Continuous
100
AcDbCircle
 10
400.034743790791
 20
622.0214612638142
 30
0.0
 40
30.29117494757552
100
AcDbArc
 50
153.2592132366423
 51
173.2332630719461
  0
DIMENSION
  5
1BBEB
330
1E
100
AcDbEntity
  8
30
100
AcDbDimension
280
     0
  2
*D33
 10
259.6426767295962
 20
157.131523090432
 30
0.0
 11
259.6426767295962
 21
227.1315230904329
 31
0.0
 70
   160
 71
     5
 42
140.0000000000001
 73
     0
 74
     0
 75
     0
  3
STANDARD
100
AcDbAlignedDimension
 13
154.2918624424319
 23
297.1315230904322
 33
0.0
 14
154.2918624424319
 24
157.1315230904321
 34
0.0
 50
90.0
100
AcDbRotatedDimension
1001
ACAD
1000
DSTYLE
1002
{
1070
   140
1040
8.0
1002
}
  0
DIMENSION
  5
1BBEC
330
1E
100
AcDbEntity
  8
30
  6
Continuous
100
AcDbDimension
280
     0
  2
*D34
 10
254.7517476631219
 20
272.1315230904321
 30
0.0
 11
254.7517476631219
 21
284.631523090433
 31
0.0
 70
   160
  1
<>
 71
     2
 42
25.00000000000011
 73
     0
 74
     0
 75
     0
  3
STANDARD
100
AcDbAlignedDimension
 13
156.2918624424319
 23
297.1315230904322
 33
0.0
 14
204.5586140014311
 24
272.1315230904321
 34
0.0
 50
90.0
100
AcDbRotatedDimension
  0
DIMENSION
  5
1BBED
330
1E
100
AcDbEntity
  8
30
  6
Continuous
100
AcDbDimension
280
     0
  2
*D35
 10
255.4504555404855
 20
182.1315230904321
 30
0.0
 11
255.4504555404855
 21
169.6315230904335
 31
0.0
 70
   160
  1
<>
 71
     2
 42
25.00000000000003
 73
     0
 74
     0
 75
     0
  3
STANDARD
100
AcDbAlignedDimension
 13
173.381143784446
 23
157.1315230904321
 33
0.0
 14
196.5418624424319
 24
182.1315230904321
 34
0.0
 50
90.0
100
AcDbRotatedDimension
  0
LINE
  5
1BDB6
330
1E
100
AcDbEntity
  8
16
100
AcDbLine
 10
135.0418624424319
 20
454.1239883310606
 30
0.0
 11
135.0418624424319
 21
796.1512686303055
 31
0.0
  0
DIMENSION
  5
1C24B
330
1E
100
AcDbEntity
  8
30
100
AcDbDimension
280
     0
  2
*D38
 10
112.5418624424319
 20
820.7601116468593
 30
0.0
 11
95.54186244243192
 21
827.7601116468593
 31
0.0
 70
    32
 71
     5
 42
22.5
 73
     0
 74
     0
 75
     0
  3
STANDARD
100
AcDbAlignedDimension
 13
135.0418624424319
 23
796.1512686303055
 33
0.0
 14
112.5418624424319
 24
795.3612863520588
 34
0.0
100
AcDbRotatedDimension
  0
DIMENSION
  5
1C340
330
1E
100
AcDbEntity
  8
30
100
AcDbDimension
280
     0
  2
*D42
 10
396.9545775993211
 20
815.4105228331722
 30
0.0
 11
472.4545761688213
 21
822.4105228331723
 31
0.0
 70
    32
 71
     5
 42
150.9999971390005
 73
     0
 74
     0
 75
     0
  3
STANDARD
100
AcDbAlignedDimension
 13
547.9545747383216
 23
712.2255996877676
 33
0.0
 14
396.9545775993211
 24
708.7256002116121
 34
0.0
100
AcDbRotatedDimension
  0
MULTILEADER
  5
1C34D
330
1E
100
AcDbEntity
  8
30
160
               676
310
A4020000170000000C00000016000000000000C00C00000033000000000000000C00000013000000993A0000EC000000260000009D162E40DA5C7640F113BCF396378E40000000000000000000000000000000000000000000000000000000000000F03F000000000000F03F000000000000000000000000000000004D0035
310
0020004D006F0075006E00740069006E006700200073006300720065007700000011000000010000000000000000001440000000000000F03F0000000000000000000000000000F03F000000000000000000000000000000000000000000000000000000000100000000000000000000007400780074002E00730068007800
310
000062006900670066006F006E0074002E0073006800780000000C00000033000000000000000C00000010000000060000000C00000016000000000000C00C00000012000000FF7F00000C00000013000000010000000C00000014000000010000005400000007000000030000007DE1A8A9AED874405DFA71B87AE88D4000
310
00000000000000DE985392B0BA7440D6530B024CE28D4000000000000000003FE0A6010DD3744008B1AA4302ED8D4000000000000000000C00000013000000891300003C0000000600000002000000DEE0A7D5DDD57440B3550E7EBEEA8D40000000000000000041837DB5FEF7754043691149EC448E400000000000000000
310
0C00000013000000112700003C000000060000000200000041837DB5FEF7754043691149EC448E400000000000000000610C579C695B764043691149EC448E4000000000000000000C00000016000000000000C00C00000012000000FF7F00000C00000017000000000000000C000000130000009A3A00000C000000160000
310
00000000C00C00000012000000FF7F00000C00000017000000FFFFFFFF0C0000003300000000000000
100
AcDbMLeader
270
     2
300
CONTEXT_DATA{
 40
1.0
 10
357.7132838630987
 20
968.6153737411736
 30
0.0
 41
5.0
140
2.0
145
0.09
174
     1
175
     6
176
     0
177
     0
290
     1
304
M5 Mounting screw
 11
0.0
 21
0.0
 31
1.0
340
11
 12
357.8032838630987
 22
971.9487070745072
 32
0.0
 13
1.0
 23
0.0
 33
0.0
 42
0.0
 43
0.0
 44
0.0
 45
1.0
170
     1
 90
-1073741824
171
     1
172
     5
 91
-1073741824
141
0.0
 92
        0
291
     0
292
     0
173
     0
293
     0
142
0.0
143
0.0
294
     0
295
     0
296
     0
110
351.4996848013725
120
968.6153737411736
130
0.0
111
1.0
121
0.0
131
0.0
112
0.0
122
1.0
132
0.0
297
     0
302
LEADER{
290
     1
291
     1
 10
351.4996848013725
 20
968.6153737411736
 30
0.0
 11
1.0
 21
0.0
 31
0.0
 90
        0
 40
6.213599061726186
304
LEADER_LINE{
 10
331.6681082978738
 20
956.2871132740935
 30
0.0
 91
        0
305
}
271
     0
303
}
272
     9
273
     9
301
}
340
8AA0
 90
   345728
170
     1
 91
-1056964608
341
13
171
    -2
290
     1
291
     1
 41
0.36
 42
2.0
172
     2
343
11
173
     1
 95
        6
174
     1
175
     0
 92
-1056964608
292
     0
 93
-1056964608
 10
1.0
 20
1.0
 30
1.0
 43
0.0
176
     0
293
     0
294
     0
178
     0
179
     1
 45
1.0
271
     0
272
     9
273
     9
295
     0
  0
LWPOLYLINE
  5
1C3A3
330
1E
100
AcDbEntity
  8
12
  6
SLD-2点鎖線
370
    15
100
AcDbPolyline
 90
        6
 70
     1
 43
0.0
 10
547.9545747383216
 20
667.2455996877673
 10
547.9545747383216
 20
707.2455996877671
 10
552.9545747383216
 20
707.2455996877671
 10
552.9545747383216
 20
672.2455996877673
 10
587.9545747383216
 20
672.2455996877673
 10
587.9545747383216
 20
667.2455996877673
  0
LWPOLYLINE
  5
1C3A6
330
1E
100
AcDbEntity
  8
12
  6
SLD-2点鎖線
370
    15
100
AcDbPolyline
 90
        6
 70
     1
 43
0.0
 10
547.9545747383216
 20
577.2055996877667
 10
547.9545747383216
 20
537.2055996877668
 10
552.9545747383216
 20
537.2055996877668
 10
552.9545747383216
 20
572.2055996877667
 10
587.9545747383216
 20
572.2055996877667
 10
587.9545747383216
 20
577.2055996877667
  0
LINE
  5
1C3C1
330
1E
100
AcDbEntity
  8
12
  6
DASHDOT
100
AcDbLine
 10
334.4021750139982
 20
953.7871132740935
 30
0.0
 11
289.5416380876304
 21
953.7871132740935
 31
0.0
  0
LINE
  5
1C3E3
330
1E
100
AcDbEntity
  8
24
100
AcDbLine
 10
381.668108297873
 20
889.7871132740938
 30
0.0
 11
381.668108297873
 21
895.787113274094
 31
0.0
  0
LINE
  5
1C3E4
330
1E
100
AcDbEntity
  8
24
100
AcDbLine
 10
381.668108297873
 20
929.7871132740938
 30
0.0
 11
381.668108297873
 21
923.787113274094
 31
0.0
  0
LINE
  5
1C3E5
330
1E
100
AcDbEntity
  8
10
100
AcDbLine
 10
367.668108297873
 20
929.7871132740938
 30
0.0
 11
367.668108297873
 21
933.7871132740934
 31
0.0
  0
VIEWPORT
  5
9AC
330
1A
100
AcDbEntity
 67
     1
  8
0
  6
Continuous
348
8A77
100
AcDbViewport
 10
171.999535
 20
144.1384739999999
 30
0.0
 40
488.867686
 41
292.351491
 68
     1
 69
     1
 12
171.999535
 22
144.1384739999999
 13
0.0
 23
0.0
 14
10.0
 24
10.0
 15
10.0
 25
10.0
 16
0.0
 26
0.0
 36
1.0
 17
0.0
 27
0.0
 37
0.0
 42
50.0
 43
0.0
 44
0.0
 45
292.351491
 50
0.0
 51
0.0
 72
   100
 90
    32800
  1

281
     0
 71
     1
 74
     0
110
0.0
120
0.0
130
0.0
111
1.0
121
0.0
131
0.0
112
0.0
122
1.0
132
0.0
 79
     0
146
0.0
170
     0
 61
     5
292
     1
282
     1
141
0.0
142
0.0
 63
   250
421
  3355443
  0
ENDSEC
  0
SECTION
  2
OBJECTS
  0
DICTIONARY
  5
C
330
0
100
AcDbDictionary
281
     1
  3
ACAD_CIP_PREVIOUS_PRODUCT_INFO
350
8AA8
  3
ACAD_COLOR
350
8A8A
  3
ACAD_DETAILVIEWSTYLE
350
8AA3
  3
ACAD_GROUP
350
D
  3
ACAD_LAYOUT
350
19
  3
ACAD_MATERIAL
350
8A58
  3
ACAD_MLEADERSTYLE
350
8A9F
  3
ACAD_MLINESTYLE
350
16
  3
ACAD_PLOTSETTINGS
350
18
  3
ACAD_PLOTSTYLENAME
350
E
  3
ACAD_SCALELIST
350
8A8D
  3
ACAD_SECTIONVIEWSTYLE
350
8AA1
  3
ACAD_TABLESTYLE
350
8A8B
  3
ACAD_VISUALSTYLE
350
8A71
  3
ACADDIM
350
6D5E
  3
ACDB_RECOMPOSE_DATA
350
1C431
  3
ACDBVARIABLEDICTIONARY
350
5697
  3
AEC_PROPERTY_SET_DEFS
350
BFC4
  0
DICTIONARY
  5
F3CC
330
2
100
AcDbDictionary
280
     1
281
     1
  3
ACAD_LAYERSTATES
360
F3CD
  0
DICTIONARY
  5
8ACC
330
10
100
AcDbDictionary
280
     1
281
     1
  3
ADSK_XREC_LAYER_RECONCILED
360
8ACD
  0
DICTIONARY
  5
8ACE
330
2F
100
AcDbDictionary
280
     1
281
     1
  3
ADSK_XREC_LAYER_RECONCILED
360
8ACF
  0
DICTIONARY
  5
8AD0
330
31
100
AcDbDictionary
280
     1
281
     1
  3
ADSK_XREC_LAYER_RECONCILED
360
8AD1
  0
DICTIONARY
  5
8AD2
330
35
100
AcDbDictionary
280
     1
281
     1
  3
ADSK_XREC_LAYER_RECONCILED
360
8AD3
  0
DICTIONARY
  5
8AD4
330
38
100
AcDbDictionary
280
     1
281
     1
  3
ADSK_XREC_LAYER_RECONCILED
360
8AD5
  0
DICTIONARY
  5
8AD6
330
3D
100
AcDbDictionary
280
     1
281
     1
  3
ADSK_XREC_LAYER_RECONCILED
360
8AD7
  0
DICTIONARY
  5
8AD8
330
3A2
100
AcDbDictionary
280
     1
281
     1
  3
ADSK_XREC_LAYER_RECONCILED
360
8AD9
  0
DICTIONARY
  5
8ADA
330
3BBA
100
AcDbDictionary
280
     1
281
     1
  3
ADSK_XREC_LAYER_RECONCILED
360
8ADB
  0
DICTIONARY
  5
8ADC
330
67A8
100
AcDbDictionary
280
     1
281
     1
  3
ADSK_XREC_LAYER_RECONCILED
360
8ADD
  0
DICTIONARY
  5
8ADE
330
7837
100
AcDbDictionary
280
     1
281
     1
  3
ADSK_XREC_LAYER_RECONCILED
360
8ADF
  0
DICTIONARY
  5
9134
330
9133
100
AcDbDictionary
280
     1
281
     1
  0
DICTIONARY
  5
17471
330
17470
100
AcDbDictionary
280
     1
281
     1
  0
DICTIONARY
  5
178
330
1E
100
AcDbDictionary
280
     1
281
     1
  3
ACAD_LAYOUTSELFREF
360
8A0F
  3
ACAD_SORTENTS
360
10338
  0
DICTIONARY
  5
17A
330
1A
100
AcDbDictionary
280
     1
281
     1
  3
ACAD_LAYOUTSELFREF
360
8A0E
  0
XRECORD
  5
8AA8
102
{ACAD_REACTORS
330
C
102
}
330
C
100
AcDbXrecord
280
     1
300
ACDLT
300
2014
300
ACDLT_F_S
  0
DICTIONARY
  5
8A8A
102
{ACAD_REACTORS
330
C
102
}
330
C
100
AcDbDictionary
281
     1
  0
DICTIONARY
  5
8AA3
102
{ACAD_REACTORS
330
C
102
}
330
C
100
AcDbDictionary
281
     1
  3
Imperial24
350
8AA4
  0
DICTIONARY
  5
D
102
{ACAD_REACTORS
330
C
102
}
330
C
100
AcDbDictionary
281
     1
  0
DICTIONARY
  5
19
102
{ACAD_REACTORS
330
C
102
}
330
C
100
AcDbDictionary
281
     1
  3
Model
350
8A4C
  3
ﾚｲｱｳﾄ1
350
8A4D
  0
DICTIONARY
  5
8A58
102
{ACAD_REACTORS
330
C
102
}
330
C
100
AcDbDictionary
281
     1
  3
ByBlock
350
8A61
  3
ByLayer
350
8A59
  3
Global
350
8A69
  0
DICTIONARY
  5
8A9F
102
{ACAD_REACTORS
330
C
102
}
330
C
100
AcDbDictionary
281
     1
  3
Standard
350
8AA0
  0
DICTIONARY
  5
16
102
{ACAD_REACTORS
330
C
102
}
330
C
100
AcDbDictionary
281
     1
  3
STANDARD
350
17
  0
DICTIONARY
  5
18
102
{ACAD_REACTORS
330
C
102
}
330
C
100
AcDbDictionary
281
     1
  0
ACDBDICTIONARYWDFLT
  5
E
102
{ACAD_REACTORS
330
C
102
}
330
C
100
AcDbDictionary
281
     1
  3
Normal
350
F
100
AcDbDictionaryWithDefault
340
F
  0
DICTIONARY
  5
8A8D
102
{ACAD_REACTORS
330
C
102
}
330
C
100
AcDbDictionary
281
     1
  3
A0
350
8A8E
  3
A1
350
8A8F
  3
A2
350
8A90
  3
A3
350
8A91
  3
A4
350
8A92
  3
A5
350
8A93
  3
A6
350
8A94
  3
A7
350
8A95
  3
A8
350
8A96
  3
A9
350
8A97
  3
B0
350
8A98
  3
B1
350
8A99
  3
B2
350
8A9A
  3
B3
350
8A9B
  3
B4
350
8A9C
  3
B5
350
8A9D
  3
B6
350
8A9E
  0
DICTIONARY
  5
8AA1
102
{ACAD_REACTORS
330
C
102
}
330
C
100
AcDbDictionary
281
     1
  3
Imperial24
350
8AA2
  0
DICTIONARY
  5
8A8B
102
{ACAD_REACTORS
330
C
102
}
330
C
100
AcDbDictionary
281
     1
  3
Standard
350
8A8C
  0
DICTIONARY
  5
8A71
102
{ACAD_REACTORS
330
C
102
}
330
C
100
AcDbDictionary
281
     1
  3
2dWireframe
350
8A77
  3
3D Hidden
350
8B2B
  3
3dWireframe
350
8B2A
  3
Basic
350
8A76
  3
Brighten
350
8A7D
  3
ColorChange
350
8A81
  3
Conceptual
350
8A7A
  3
Dim
350
8A7C
  3
EdgeColorOff
350
8A89
  3
Facepattern
350
8A80
  3
Flat
350
8A72
  3
FlatWithEdges
350
8A73
  3
Gouraud
350
8A74
  3
GouraudWithEdges
350
8A75
  3
Hidden
350
8A79
  3
JitterOff
350
8A87
  3
Linepattern
350
8A7F
  3
OverhangOff
350
8A88
  3
Realistic
350
8A7B
  3
Shaded
350
8A86
  3
Shaded with edges
350
8A85
  3
Shades of Gray
350
8A82
  3
Sketchy
350
8A83
  3
Thicken
350
8A7E
  3
Wireframe
350
8A78
  3
X-Ray
350
8A84
  0
XRECORD
  5
6D5E
102
{ACAD_REACTORS
330
C
102
}
330
C
100
AcDbXrecord
280
     1
 90
   990106
  3

 60
     0
 61
     0
 62
     1
 63
     3
 64
     0
 65
     0
 66
     0
 67
     3
 68
     1
 69
     0
 70
     0
 71
     0
 72
     0
 40
0.0
170
     0
340
0
  0
XRECORD
  5
1C431
102
{ACAD_REACTORS
330
C
102
}
330
C
100
AcDbXrecord
280
     1
 90
        1
330
8A8C
330
8AA2
330
8AA4
  0
DICTIONARY
  5
5697
102
{ACAD_REACTORS
330
C
102
}
330
C
100
AcDbDictionary
281
     1
  3
CANNOSCALE
350
8AE9
  3
CMLEADERSTYLE
350
8AE5
  3
CTABLESTYLE
350
8AE4
  3
CVIEWDETAILSTYLE
350
8AE6
  3
CVIEWSECTIONSTYLE
350
8AE7
  3
DIMASSOC
350
5698
  3
LAYEREVAL
350
8AEB
  3
LAYERNOTIFY
350
8AEC
  3
LIGHTINGUNITS
350
8AEA
  3
MSLTSCALE
350
8AE8
  0
DICTIONARY
  5
BFC4
102
{ACAD_REACTORS
330
C
102
}
330
C
100
AcDbDictionary
281
     1
  0
DICTIONARY
  5
F3CD
102
{ACAD_REACTORS
330
F3CC
102
}
330
F3CC
100
AcDbDictionary
281
     1
  0
XRECORD
  5
8ACD
102
{ACAD_REACTORS
330
8ACC
102
}
330
8ACC
100
AcDbXrecord
280
     1
290
     1
  0
XRECORD
  5
8ACF
102
{ACAD_REACTORS
330
8ACE
102
}
330
8ACE
100
AcDbXrecord
280
     1
290
     1
  0
XRECORD
  5
8AD1
102
{ACAD_REACTORS
330
8AD0
102
}
330
8AD0
100
AcDbXrecord
280
     1
290
     1
  0
XRECORD
  5
8AD3
102
{ACAD_REACTORS
330
8AD2
102
}
330
8AD2
100
AcDbXrecord
280
     1
290
     1
  0
XRECORD
  5
8AD5
102
{ACAD_REACTORS
330
8AD4
102
}
330
8AD4
100
AcDbXrecord
280
     1
290
     1
  0
XRECORD
  5
8AD7
102
{ACAD_REACTORS
330
8AD6
102
}
330
8AD6
100
AcDbXrecord
280
     1
290
     1
  0
XRECORD
  5
8AD9
102
{ACAD_REACTORS
330
8AD8
102
}
330
8AD8
100
AcDbXrecord
280
     1
290
     1
  0
XRECORD
  5
8ADB
102
{ACAD_REACTORS
330
8ADA
102
}
330
8ADA
100
AcDbXrecord
280
     1
290
     1
  0
XRECORD
  5
8ADD
102
{ACAD_REACTORS
330
8ADC
102
}
330
8ADC
100
AcDbXrecord
280
     1
290
     1
  0
XRECORD
  5
8ADF
102
{ACAD_REACTORS
330
8ADE
102
}
330
8ADE
100
AcDbXrecord
280
     1
290
     1
  0
XRECORD
  5
8A0F
102
{ACAD_REACTORS
330
178
102
}
330
178
100
AcDbXrecord
280
     1
340
1E
  0
SORTENTSTABLE
  5
10338
102
{ACAD_REACTORS
330
178
102
}
330
178
100
AcDbSortentsTable
330
1E
331
185DB
  5
18C35
331
1841E
  5
18827
331
1845D
  5
18873
331
18483
  5
18891
331
1849B
  5
188DC
331
18426
  5
1882F
331
18465
  5
18880
331
1846D
  5
18888
331
1842E
  5
18837
331
1AD02
  5
1BB36
331
18436
  5
1883F
331
1ACE1
  5
1ACF9
331
18554
  5
1897A
331
1859B
  5
18C1D
331
1850D
  5
18934
331
1ACA2
  5
1ACBA
331
1ACAA
  5
1ACC2
331
18515
  5
1893C
331
1855C
  5
18982
331
184D6
  5
188FC
331
1ACB2
  5
1ACCA
331
1852D
  5
18953
331
18564
  5
18996
331
184DE
  5
18904
331
1ACBA
  5
1ACD2
331
184E6
  5
1890C
331
18574
  5
189A6
331
1843E
  5
18847
331
18519
  5
18940
331
18569
  5
1899B
331
18446
  5
1884F
331
18527
  5
1894D
331
1A7E3
  5
1ACA5
331
184CC
  5
188F2
331
1840F
  5
18818
331
1844E
  5
18857
331
185B9
  5
18C2F
331
18417
  5
18820
331
18456
  5
1885F
331
1ACF3
  5
1BA9C
331
1ACFB
  5
1BABF
331
1857C
  5
189AE
331
184EE
  5
18915
331
18535
  5
1895B
331
1ACC2
  5
1ACDA
331
1ACCA
  5
1ACE2
331
18584
  5
18C06
331
1AB23
  5
188EE
331
1847F
  5
1888D
331
184F6
  5
1891D
331
1853D
  5
18963
331
1ACD2
  5
1ACEA
331
18545
  5
1896B
331
1858C
  5
18C0E
331
18497
  5
188D8
331
184FE
  5
18925
331
1AC9B
  5
1ACB3
331
1ACDA
  5
1ACF2
331
18506
  5
1892D
331
1854D
  5
18973
331
184A7
  5
188E8
331
18594
  5
18C16
331
185DC
  5
18C36
331
1845E
  5
18874
331
18484
  5
18892
331
1841F
  5
18828
331
18466
  5
18881
331
18427
  5
18830
331
1AD03
  5
1BB37
331
1842F
  5
18838
331
1846E
  5
18889
331
18437
  5
18840
331
1859C
  5
18C1E
331
1ACA3
  5
1ACBB
331
1850E
  5
18935
331
18555
  5
1897B
331
185A4
  5
18C26
331
1ACAB
  5
1ACC3
331
184D7
  5
188FD
331
18516
  5
1893D
331
1855D
  5
18983
331
18565
  5
18997
331
184DF
  5
18905
331
1852E
  5
18954
331
1ACB3
  5
1ACCB
331
1ACBB
  5
1ACD3
331
18575
  5
189A7
331
184E7
  5
1890E
331
1851A
  5
18941
331
183B0
  5
18811
331
18520
  5
18946
331
1856A
  5
1899C
331
18447
  5
18850
331
1844F
  5
18858
331
184CD
  5
188F3
331
18410
  5
18819
331
1A7E4
  5
1ACA6
331
185BA
  5
18C30
331
18457
  5
18860
331
1ACF4
  5
1BA9D
331
1ACFC
  5
1BAC0
331
18470
  5
1888B
331
1ACC3
  5
1ACDB
331
18536
  5
1895C
331
1857D
  5
18BFF
331
184EF
  5
18916
331
1ACCB
  5
1ACE3
331
184F7
  5
1891E
331
1853E
  5
18964
331
18490
  5
18899
331
18585
  5
18C07
331
1858D
  5
18C0F
331
184A0
  5
188E1
331
184FF
  5
18926
331
18546
  5
1896C
331
1ACD3
  5
1ACEB
331
1ACDB
  5
1ACF3
331
18595
  5
18C17
331
1AC9C
  5
1ACB4
331
18507
  5
1892E
331
1854E
  5
18974
331
18418
  5
18821
331
185DD
  5
18C37
331
18485
  5
18893
331
18420
  5
18829
331
1845F
  5
18875
331
1849D
  5
188DE
331
18428
  5
18831
331
18467
  5
18882
331
1846F
  5
1888A
331
18430
  5
18839
331
1AD04
  5
1BB38
331
184A8
  5
188E9
331
18556
  5
1897C
331
1859D
  5
18C1F
331
184D0
  5
188F6
331
1850F
  5
18936
331
1ACA4
  5
1ACBC
331
1ACAC
  5
1ACC4
331
18517
  5
1893E
331
1855E
  5
18984
331
184D8
  5
188FE
331
1ACB4
  5
1ACCC
331
1852F
  5
18955
331
18566
  5
18998
331
184E0
  5
18906
331
1ACBC
  5
1ACD4
331
18576
  5
189A8
331
18438
  5
18841
331
18440
  5
18849
331
183B1
  5
18812
331
1856B
  5
1899D
331
18448
  5
18851
331
18521
  5
18947
331
184CE
  5
188F4
331
18411
  5
1881A
331
18450
  5
18859
331
185BB
  5
18C31
331
1ACF5
  5
1BA9E
331
1ACFD
  5
1BAC1
331
184E8
  5
1890F
331
1857E
  5
18C00
331
184F0
  5
18917
331
18537
  5
1895D
331
1ACC4
  5
1ACDC
331
1ACCC
  5
1ACE4
331
1853F
  5
18965
331
18586
  5
18C08
331
18491
  5
1889A
331
184F8
  5
1891F
331
1ACD4
  5
1ACEC
331
18547
  5
1896D
331
1858E
  5
18C10
331
184A1
  5
188E2
331
18500
  5
18927
331
1AC9D
  5
1ACB5
331
1ACDC
  5
1ACF4
331
1854F
  5
18975
331
18596
  5
18C18
331
185DE
  5
18C38
331
18419
  5
18822
331
18458
  5
18861
331
18460
  5
18876
331
18486
  5
18894
331
18421
  5
1882A
331
18429
  5
18832
331
18468
  5
18883
331
1849E
  5
188DF
331
18431
  5
1883A
331
1AD05
  5
1BB39
331
18508
  5
1892F
331
184A9
  5
188EA
331
1859E
  5
18C20
331
1ACA5
  5
1ACBD
331
184D1
  5
188F7
331
18510
  5
18937
331
18557
  5
1897D
331
185A6
  5
18C28
331
1ACAD
  5
1ACC5
331
184D9
  5
188FF
331
18528
  5
1894E
331
1855F
  5
18985
331
18567
  5
18999
331
184E1
  5
18907
331
1ACB5
  5
1ACCD
331
1ACBD
  5
1ACD5
331
18577
  5
189A9
331
18439
  5
18842
331
1848F
  5
18898
331
183B2
  5
18813
331
18441
  5
1884A
331
18522
  5
18948
331
1856C
  5
1899E
331
18449
  5
18852
331
18451
  5
1885A
331
184CF
  5
188F5
331
18412
  5
1881B
331
185B4
  5
18C2A
331
185BC
  5
18C32
331
1ACF6
  5
1BA9F
331
18530
  5
18956
331
184E9
  5
18910
331
1AB06
  5
18C34
331
1ACC5
  5
1ACDD
331
18538
  5
1895E
331
1857F
  5
18C01
331
184F1
  5
18918
331
1ACCD
  5
1ACE5
331
184F9
  5
18920
331
18540
  5
18966
331
18492
  5
1889B
331
18587
  5
18C09
331
1858F
  5
18C11
331
184A2
  5
188E3
331
18501
  5
18928
331
18548
  5
1896E
331
1ACD5
  5
1ACED
331
1ACDD
  5
1ACF5
331
18597
  5
18C19
331
1AC9E
  5
1ACB6
331
1841A
  5
18823
331
18459
  5
18862
331
185DF
  5
18C39
331
18487
  5
18895
331
18422
  5
1882B
331
18461
  5
18877
331
1849F
  5
188E0
331
1842A
  5
18833
331
18469
  5
18884
331
18432
  5
1883B
331
1AD06
  5
1BB3A
331
18550
  5
18976
331
18509
  5
18930
331
18558
  5
1897E
331
1859F
  5
18C21
331
184D2
  5
188F8
331
18511
  5
18938
331
1ACA6
  5
1ACBE
331
1ACAE
  5
1ACC6
331
18529
  5
1894F
331
18560
  5
18986
331
184DA
  5
18900
331
185A7
  5
18C29
331
1ACB6
  5
1ACCE
331
184E2
  5
18908
331
18570
  5
189A2
331
1ACBE
  5
1ACD6
331
1843A
  5
18843
331
18488
  5
18896
331
18442
  5
1884B
331
185E0
  5
18C3A
331
183B3
  5
18814
331
1856D
  5
1899F
331
18523
  5
18949
331
185B5
  5
18C2B
331
18413
  5
1881C
331
18452
  5
1885B
331
19865
  5
1A288
331
1ACEF
  5
1AD07
331
185BD
  5
18C33
331
1990D
  5
1A2B4
331
1ACF7
  5
1BAA0
331
1ACFF
  5
1BAC3
331
184EA
  5
18911
331
18531
  5
18957
331
18578
  5
189AA
331
18580
  5
18C02
331
184F2
  5
18919
331
18539
  5
1895F
331
1ACC6
  5
1ACDE
331
1ACCE
  5
1ACE6
331
18541
  5
18967
331
18588
  5
18C0A
331
18493
  5
1889C
331
184FA
  5
18921
331
1ACD6
  5
1ACEE
331
18549
  5
1896F
331
18590
  5
18C12
331
184A3
  5
188E4
331
18502
  5
18929
331
1AC9F
  5
1ACB7
331
1ACDE
  5
1ACF6
331
18480
  5
1888E
331
1841B
  5
18824
331
1845A
  5
18870
331
18462
  5
18878
331
18498
  5
188D9
331
18423
  5
1882C
331
1842B
  5
18834
331
1846A
  5
18885
331
18433
  5
1883C
331
1AD07
  5
1BB3B
331
1850A
  5
18931
331
18551
  5
18977
331
184AB
  5
188EC
331
18598
  5
18C1A
331
185A0
  5
18C22
331
1ACA7
  5
1ACBF
331
184D3
  5
188F9
331
18512
  5
18939
331
18559
  5
1897F
331
18561
  5
18987
331
184DB
  5
18901
331
1852A
  5
18950
331
1ACAF
  5
1ACC7
331
18571
  5
189A3
331
184E3
  5
18909
331
1ACB7
  5
1ACCF
331
1ACBF
  5
1ACD7
331
1843B
  5
18844
331
18489
  5
18897
331
1851E
  5
18944
331
185E1
  5
18C3B
331
18443
  5
1884C
331
18524
  5
1894A
331
1844B
  5
18854
331
184C9
  5
188EF
331
1840C
  5
18815
331
1856E
  5
189A0
331
185B6
  5
18C2C
331
18453
  5
1885C
331
197B6
  5
1A172
331
18414
  5
1881D
331
1ACF0
  5
1AD08
331
1ACF8
  5
1BAA1
331
18532
  5
18958
331
18579
  5
189AB
331
184EB
  5
18912
331
1ACC7
  5
1ACDF
331
184F3
  5
1891A
331
1853A
  5
18960
331
18581
  5
18C03
331
1ACCF
  5
1ACE7
331
184FB
  5
18922
331
18542
  5
18968
331
18494
  5
188C0
331
18589
  5
18C0B
331
18591
  5
18C13
331
184A4
  5
188E5
331
18503
  5
1892A
331
1854A
  5
18970
331
1ACD7
  5
1ACEF
331
1ACDF
  5
1ACF7
331
1841C
  5
18825
331
1845B
  5
18871
331
18481
  5
1888F
331
18499
  5
188DA
331
18424
  5
1882D
331
18463
  5
18879
331
1AD00
  5
1BB15
331
1842C
  5
18835
331
1846B
  5
18886
331
18552
  5
18978
331
18599
  5
18C1B
331
1850B
  5
18932
331
1ACA0
  5
1ACB8
331
1ACA8
  5
1ACC0
331
1855A
  5
18980
331
185A1
  5
18C23
331
184D4
  5
188FA
331
18513
  5
1893A
331
1ACB0
  5
1ACC8
331
1852B
  5
18951
331
18562
  5
18988
331
184DC
  5
18902
331
1ACB8
  5
1ACD0
331
184E4
  5
1890A
331
18572
  5
189A4
331
1843C
  5
18845
331
1851F
  5
18945
331
18444
  5
1884D
331
185E2
  5
18C3C
331
18525
  5
1894B
331
1856F
  5
189A1
331
1840D
  5
18816
331
1844C
  5
18855
331
184CA
  5
188F0
331
185B7
  5
18C2D
331
18415
  5
1881E
331
18454
  5
1885D
331
1ACF1
  5
1BA98
331
1ACF9
  5
1BAA2
331
1857A
  5
189AC
331
184EC
  5
18913
331
18533
  5
18959
331
1ACC0
  5
1ACD8
331
18582
  5
18C04
331
184F4
  5
1891B
331
1853B
  5
18961
331
1ACC8
  5
1ACE0
331
1ACD0
  5
1ACE8
331
18543
  5
18969
331
1858A
  5
18C0C
331
18495
  5
188D6
331
184FC
  5
18923
331
1AB39
  5
188ED
331
1ACD8
  5
1ACF0
331
18504
  5
1892B
331
1854B
  5
18971
331
184A5
  5
188E6
331
18592
  5
18C14
331
1845C
  5
18872
331
18482
  5
18890
331
1841D
  5
18826
331
18464
  5
1887A
331
1849A
  5
188DB
331
18425
  5
1882E
331
1AD01
  5
1BB35
331
1842D
  5
18836
331
1846C
  5
18887
331
18435
  5
1883E
331
1ACA1
  5
1ACB9
331
1ACE0
  5
1ACF8
331
1850C
  5
18933
331
18553
  5
18979
331
1859A
  5
18C1C
331
185A2
  5
18C24
331
1ACA9
  5
1ACC1
331
184D5
  5
188FB
331
18514
  5
1893B
331
1855B
  5
18981
331
1AD08
  5
1BB3C
331
18563
  5
18989
331
184DD
  5
18903
331
1852C
  5
18952
331
1ACB1
  5
1ACC9
331
1ACB9
  5
1ACD1
331
18573
  5
189A5
331
184E5
  5
1890B
331
18518
  5
1893F
331
183AE
  5
18810
331
1843D
  5
18846
331
18568
  5
1899A
331
18445
  5
1884E
331
1844D
  5
18856
331
18526
  5
1894C
331
1840E
  5
18817
331
185B8
  5
18C2E
331
18455
  5
1885E
331
18416
  5
1881F
331
1ACF2
  5
1BA9B
331
1ACFA
  5
1BABE
331
1ACC1
  5
1ACD9
331
18534
  5
1895A
331
1857B
  5
189AD
331
184ED
  5
18914
331
1AB22
  5
188F1
331
1ACC9
  5
1ACE1
331
184F5
  5
1891C
331
1853C
  5
18962
331
18583
  5
18C05
331
1858B
  5
18C0D
331
184FD
  5
18924
331
18544
  5
1896A
331
1ACD1
  5
1ACE9
331
18496
  5
188D7
331
18593
  5
18C15
331
184A6
  5
188E7
331
18505
  5
1892C
331
1854C
  5
18972
331
1ACD9
  5
1ACF1
  0
XRECORD
  5
8A0E
102
{ACAD_REACTORS
330
17A
102
}
330
17A
100
AcDbXrecord
280
     1
340
1A
  0
ACDBDETAILVIEWSTYLE
  5
8AA4
102
{ACAD_XDICTIONARY
360
1C352
102
}
102
{ACAD_REACTORS
330
8AA3
102
}
330
8AA3
100
AcDbModelDocViewStyle
 70
     0
  3
Imperial24
290
     0
100
AcDbDetailViewStyle
 70
     0
 71
     0
 90
        3
 71
     1
340
11
 62
   256
 40
0.24
340
0
 62
   256
 40
0.24
300

 40
0.36
280
     3
 71
     2
340
15
 90
       25
 62
   256
 71
     3
340
11
 62
   256
 40
0.24
 90
        1
 40
0.75
 90
        1
300
%<\AcVar ViewType \f "%tc1">% %<\AcVar ViewDetailId>%\PSCALE %<\AcVar ViewScale \f "%sn">%
 71
     4
340
15
 90
       25
 62
   256
340
15
 90
       25
 62
   256
280
     0
  0
LAYOUT
  5
8A4C
102
{ACAD_XDICTIONARY
360
F3D2
102
}
102
{ACAD_REACTORS
330
19
102
}
330
19
100
AcDbPlotSettings
  1

  2
none_device
  4
Letter_(8.50_x_11.00_Inches)
  6

 40
6.349999904632567
 41
6.349999904632567
 42
6.350006103515625
 43
6.350006103515625
 44
215.8999938964844
 45
279.3999938964844
 46
0.0
 47
0.0
 48
0.0
 49
0.0
140
0.0
141
0.0
142
1.0
143
317.0449279872537
 70
 11952
 72
     0
 73
     1
 74
     0
  7
monochrome.ctb
 75
     0
147
0.0031541271022642
 76
     0
 77
     2
 78
   300
148
21198.07971653447
149
42574.72085005308
100
AcDbLayout
  1
Model
 70
     1
 71
     0
 10
0.0
 20
0.0
 11
12.0
 21
9.0
 12
0.0
 22
0.0
 32
0.0
 14
0.0
 24
0.0
 34
0.0
 15
0.0
 25
0.0
 35
0.0
146
0.0
 13
0.0
 23
0.0
 33
0.0
 16
1.0
 26
0.0
 36
0.0
 17
0.0
 27
1.0
 37
0.0
 76
     0
330
1E
331
8A51
1001
ACAD_PSEXT
1000
なし
1000
なし
1000
適切ではありません
1000
新しいプロッタ環境設定名を選択しない限り、レイアウトは印刷されません。
1070
     0
  0
LAYOUT
  5
8A4D
102
{ACAD_REACTORS
330
19
102
}
330
19
100
AcDbPlotSettings
  1

  2
Canon LBP3800 LIPSLX
  4

  6

 40
0.0
 41
0.0
 42
0.0
 43
0.0
 44
0.0
 45
0.0
 46
0.0
 47
0.0
 48
0.0
 49
0.0
140
0.0
141
0.0
142
1.0
143
1.0
 70
   688
 72
     0
 73
     0
 74
     5
  7
monochrome.ctb
 75
    16
147
1.0
 76
     0
 77
     2
 78
   300
148
0.0
149
0.0
100
AcDbLayout
  1
ﾚｲｱｳﾄ1
 70
     1
 71
     1
 10
-5.873749
 20
-5.87375
 11
204.099579
 21
291.1369009999999
 12
0.0
 22
0.0
 32
0.0
 14
4.273573
 24
5.205245999999998
 34
0.0
 15
194.610095
 25
283.0697009999996
 35
0.0
146
0.0
 13
0.0
 23
0.0
 33
0.0
 16
1.0
 26
0.0
 36
0.0
 17
0.0
 27
1.0
 37
0.0
 76
     0
330
1A
331
9AC
  0
MATERIAL
  5
8A61
102
{ACAD_XDICTIONARY
360
8A62
102
}
102
{ACAD_REACTORS
330
8A58
102
}
330
8A58
100
AcDbMaterial
  1
ByBlock
 72
     0
 43
0.0208333333333333
 43
0.0
 43
0.0
 43
0.0
 43
0.0
 43
0.0208333333333333
 43
0.0
 43
0.0
 43
0.0
 43
0.0
 43
1.0
 43
0.0
 43
0.0
 43
0.0
 43
0.0
 43
1.0
 77
     0
 47
0.0208333333333333
 47
0.0
 47
0.0
 47
0.0
 47
0.0
 47
0.0208333333333333
 47
0.0
 47
0.0
 47
0.0
 47
0.0
 47
1.0
 47
0.0
 47
0.0
 47
0.0
 47
0.0
 47
1.0
171
     0
 49
0.0208333333333333
 49
0.0
 49
0.0
 49
0.0
 49
0.0
 49
0.0208333333333333
 49
0.0
 49
0.0
 49
0.0
 49
0.0
 49
1.0
 49
0.0
 49
0.0
 49
0.0
 49
0.0
 49
1.0
175
     0
142
0.0208333333333333
142
0.0
142
0.0
142
0.0
142
0.0
142
0.0208333333333333
142
0.0
142
0.0
142
0.0
142
0.0
142
1.0
142
0.0
142
0.0
142
0.0
142
0.0
142
1.0
179
     0
144
0.0208333333333333
144
0.0
144
0.0
144
0.0
144
0.0
144
0.0208333333333333
144
0.0
144
0.0
144
0.0
144
0.0
144
1.0
144
0.0
144
0.0
144
0.0
144
0.0
144
1.0
147
0.0208333333333333
147
0.0
147
0.0
147
0.0
147
0.0
147
0.0208333333333333
147
0.0
147
0.0
147
0.0
147
0.0
147
1.0
147
0.0
147
0.0
147
0.0
147
0.0
147
1.0
  0
MATERIAL
  5
8A59
102
{ACAD_XDICTIONARY
360
8A5A
102
}
102
{ACAD_REACTORS
330
8A58
102
}
330
8A58
100
AcDbMaterial
  1
ByLayer
 72
     0
 43
0.0208333333333333
 43
0.0
 43
0.0
 43
0.0
 43
0.0
 43
0.0208333333333333
 43
0.0
 43
0.0
 43
0.0
 43
0.0
 43
1.0
 43
0.0
 43
0.0
 43
0.0
 43
0.0
 43
1.0
 77
     0
 47
0.0208333333333333
 47
0.0
 47
0.0
 47
0.0
 47
0.0
 47
0.0208333333333333
 47
0.0
 47
0.0
 47
0.0
 47
0.0
 47
1.0
 47
0.0
 47
0.0
 47
0.0
 47
0.0
 47
1.0
171
     0
 49
0.0208333333333333
 49
0.0
 49
0.0
 49
0.0
 49
0.0
 49
0.0208333333333333
 49
0.0
 49
0.0
 49
0.0
 49
0.0
 49
1.0
 49
0.0
 49
0.0
 49
0.0
 49
0.0
 49
1.0
175
     0
142
0.0208333333333333
142
0.0
142
0.0
142
0.0
142
0.0
142
0.0208333333333333
142
0.0
142
0.0
142
0.0
142
0.0
142
1.0
142
0.0
142
0.0
142
0.0
142
0.0
142
1.0
179
     0
144
0.0208333333333333
144
0.0
144
0.0
144
0.0
144
0.0
144
0.0208333333333333
144
0.0
144
0.0
144
0.0
144
0.0
144
1.0
144
0.0
144
0.0
144
0.0
144
0.0
144
1.0
147
0.0208333333333333
147
0.0
147
0.0
147
0.0
147
0.0
147
0.0208333333333333
147
0.0
147
0.0
147
0.0
147
0.0
147
1.0
147
0.0
147
0.0
147
0.0
147
0.0
147
1.0
  0
MATERIAL
  5
8A69
102
{ACAD_XDICTIONARY
360
8A6A
102
}
102
{ACAD_REACTORS
330
8A58
102
}
330
8A58
100
AcDbMaterial
  1
Global
 72
     0
 43
0.0208333333333333
 43
0.0
 43
0.0
 43
0.0
 43
0.0
 43
0.0208333333333333
 43
0.0
 43
0.0
 43
0.0
 43
0.0
 43
1.0
 43
0.0
 43
0.0
 43
0.0
 43
0.0
 43
1.0
 77
     0
 47
0.0208333333333333
 47
0.0
 47
0.0
 47
0.0
 47
0.0
 47
0.0208333333333333
 47
0.0
 47
0.0
 47
0.0
 47
0.0
 47
1.0
 47
0.0
 47
0.0
 47
0.0
 47
0.0
 47
1.0
171
     0
 49
0.0208333333333333
 49
0.0
 49
0.0
 49
0.0
 49
0.0
 49
0.0208333333333333
 49
0.0
 49
0.0
 49
0.0
 49
0.0
 49
1.0
 49
0.0
 49
0.0
 49
0.0
 49
0.0
 49
1.0
175
     0
142
0.0208333333333333
142
0.0
142
0.0
142
0.0
142
0.0
142
0.0208333333333333
142
0.0
142
0.0
142
0.0
142
0.0
142
1.0
142
0.0
142
0.0
142
0.0
142
0.0
142
1.0
179
     0
144
0.0208333333333333
144
0.0
144
0.0
144
0.0
144
0.0
144
0.0208333333333333
144
0.0
144
0.0
144
0.0
144
0.0
144
1.0
144
0.0
144
0.0
144
0.0
144
0.0
144
1.0
147
0.0208333333333333
147
0.0
147
0.0
147
0.0
147
0.0
147
0.0208333333333333
147
0.0
147
0.0
147
0.0
147
0.0
147
1.0
147
0.0
147
0.0
147
0.0
147
0.0
147
1.0
  0
MLEADERSTYLE
  5
8AA0
102
{ACAD_REACTORS
330
8A9F
330
1C34D
102
}
330
8A9F
100
AcDbMLeaderStyle
179
     2
170
     2
171
     1
172
     0
 90
        2
 40
0.0
 41
0.0
173
     1
 91
-1056964608
340
13
 92
       -2
290
     1
 42
0.09
291
     1
 43
0.36
  3
Standard
 44
0.18
300

342
11
174
     1
178
     6
175
     1
176
     0
 93
-1056964608
 45
0.18
292
     0
297
     0
 46
0.18
 94
-1056964608
 47
1.0
 49
1.0
140
1.0
293
     1
141
0.0
294
     1
177
     0
142
1.0
295
     0
296
     0
143
0.125
271
     0
272
     9
273
     9
298
     0
  0
MLINESTYLE
  5
17
102
{ACAD_REACTORS
330
16
102
}
330
16
100
AcDbMlineStyle
  2
STANDARD
 70
     0
  3

 62
   256
 51
90.0
 52
90.0
 71
     2
 49
0.5
 62
   256
  6
BYLAYER
 49
-0.5
 62
   256
  6
BYLAYER
  0
ACDBPLACEHOLDER
  5
F
102
{ACAD_REACTORS
330
E
102
}
330
E
  0
SCALE
  5
8A8E
102
{ACAD_REACTORS
330
8A8D
102
}
330
8A8D
100
AcDbScale
 70
     0
300
1:1
140
1.0
141
1.0
290
     1
  0
SCALE
  5
8A8F
102
{ACAD_REACTORS
330
8A8D
102
}
330
8A8D
100
AcDbScale
 70
     0
300
1/128" = 1'-0"
140
0.0078125
141
12.0
290
     0
  0
SCALE
  5
8A90
102
{ACAD_REACTORS
330
8A8D
102
}
330
8A8D
100
AcDbScale
 70
     0
300
1/64" = 1'-0"
140
0.015625
141
12.0
290
     0
  0
SCALE
  5
8A91
102
{ACAD_REACTORS
330
8A8D
102
}
330
8A8D
100
AcDbScale
 70
     0
300
1/32" = 1'-0"
140
0.03125
141
12.0
290
     0
  0
SCALE
  5
8A92
102
{ACAD_REACTORS
330
8A8D
102
}
330
8A8D
100
AcDbScale
 70
     0
300
1/16" = 1'-0"
140
0.0625
141
12.0
290
     0
  0
SCALE
  5
8A93
102
{ACAD_REACTORS
330
8A8D
102
}
330
8A8D
100
AcDbScale
 70
     0
300
3/32" = 1'-0"
140
0.09375
141
12.0
290
     0
  0
SCALE
  5
8A94
102
{ACAD_REACTORS
330
8A8D
102
}
330
8A8D
100
AcDbScale
 70
     0
300
1/8" = 1'-0"
140
0.125
141
12.0
290
     0
  0
SCALE
  5
8A95
102
{ACAD_REACTORS
330
8A8D
102
}
330
8A8D
100
AcDbScale
 70
     0
300
3/16" = 1'-0"
140
0.1875
141
12.0
290
     0
  0
SCALE
  5
8A96
102
{ACAD_REACTORS
330
8A8D
102
}
330
8A8D
100
AcDbScale
 70
     0
300
1/4" = 1'-0"
140
0.25
141
12.0
290
     0
  0
SCALE
  5
8A97
102
{ACAD_REACTORS
330
8A8D
102
}
330
8A8D
100
AcDbScale
 70
     0
300
3/8" = 1'-0"
140
0.375
141
12.0
290
     0
  0
SCALE
  5
8A98
102
{ACAD_REACTORS
330
8A8D
102
}
330
8A8D
100
AcDbScale
 70
     0
300
1/2" = 1'-0"
140
0.5
141
12.0
290
     0
  0
SCALE
  5
8A99
102
{ACAD_REACTORS
330
8A8D
102
}
330
8A8D
100
AcDbScale
 70
     0
300
3/4" = 1'-0"
140
0.75
141
12.0
290
     0
  0
SCALE
  5
8A9A
102
{ACAD_REACTORS
330
8A8D
102
}
330
8A8D
100
AcDbScale
 70
     0
300
1" = 1'-0"
140
1.0
141
12.0
290
     0
  0
SCALE
  5
8A9B
102
{ACAD_REACTORS
330
8A8D
102
}
330
8A8D
100
AcDbScale
 70
     0
300
1-1/2" = 1'-0"
140
1.5
141
12.0
290
     0
  0
SCALE
  5
8A9C
102
{ACAD_REACTORS
330
8A8D
102
}
330
8A8D
100
AcDbScale
 70
     0
300
3" = 1'-0"
140
3.0
141
12.0
290
     0
  0
SCALE
  5
8A9D
102
{ACAD_REACTORS
330
8A8D
102
}
330
8A8D
100
AcDbScale
 70
     0
300
6" = 1'-0"
140
6.0
141
12.0
290
     0
  0
SCALE
  5
8A9E
102
{ACAD_REACTORS
330
8A8D
102
}
330
8A8D
100
AcDbScale
 70
     0
300
1'-0" = 1'-0"
140
12.0
141
12.0
290
     0
  0
ACDBSECTIONVIEWSTYLE
  5
8AA2
102
{ACAD_XDICTIONARY
360
1C350
102
}
102
{ACAD_REACTORS
330
8AA1
102
}
330
8AA1
100
AcDbModelDocViewStyle
 70
     0
  3
Imperial24
290
     0
100
AcDbSectionViewStyle
 70
     0
 71
     0
 90
       78
 71
     1
340
11
 62
   256
 40
0.24
340
0
340
0
 62
   256
 40
0.24
300
I, O, Q, S, X, Z
 40
0.48
 90
        3
 40
0.18
 90
        1
 71
     2
340
15
 90
       25
 62
   256
340
15
 90
       50
 62
   256
 40
0.24
 40
0.0
 40
0.24
 71
     3
340
11
 62
   256
 40
0.24
 90
        1
 40
0.75
 90
        1
300
%<\AcVar ViewType \f "%tc1">% %<\AcVar ViewSectionStartId>%-%<\AcVar ViewSectionEndId>%\PSCALE %<\AcVar ViewScale \f "%sn">%
 71
     4
 62
   256
 62
   257
300
ANSI31
 40
1.0
 90
        0
290
     0
290
     0
 90
        6
 40
0.0
 40
1.570796326794896
 40
0.2617993877991494
 40
1.308996938995747
 40
-0.2617993877991494
 40
1.832595714594044
  0
TABLESTYLE
  5
8A8C
102
{ACAD_XDICTIONARY
360
8AED
102
}
102
{ACAD_REACTORS
330
8A8B
102
}
330
8A8B
100
AcDbTableStyle
280
     0
  3
Standard
 70
     0
 71
     0
 40
0.06
 41
0.06
280
     0
281
     0
  7
STANDARD
140
0.18
170
     2
 62
     0
 63
     7
283
     0
 90
      512
 91
        0
  1

274
    -2
284
     1
 64
     0
275
    -2
285
     1
 65
     0
276
    -2
286
     1
 66
     0
277
    -2
287
     1
 67
     0
278
    -2
288
     1
 68
     0
279
    -2
289
     1
 69
     0
  7
STANDARD
140
0.25
170
     5
 62
     0
 63
     7
283
     0
 90
      512
 91
        0
  1

274
    -2
284
     1
 64
     0
275
    -2
285
     1
 65
     0
276
    -2
286
     1
 66
     0
277
    -2
287
     1
 67
     0
278
    -2
288
     1
 68
     0
279
    -2
289
     1
 69
     0
  7
STANDARD
140
0.18
170
     5
 62
     0
 63
     7
283
     0
 90
      512
 91
        0
  1

274
    -2
284
     1
 64
     0
275
    -2
285
     1
 65
     0
276
    -2
286
     1
 66
     0
277
    -2
287
     1
 67
     0
278
    -2
288
     1
 68
     0
279
    -2
289
     1
 69
     0
  0
VISUALSTYLE
  5
8A77
102
{ACAD_REACTORS
330
8A71
102
}
330
8A71
100
AcDbVisualStyle
  2
2dWireframe
 70
     4
177
     3
291
     0
 70
    58
 90
        0
176
     1
 90
        2
176
     1
 90
        0
176
     1
 90
        0
176
     1
 40
0.6
176
     1
 40
30.0
176
     1
 62
     7
420
 16777215
176
     1
 90
        1
176
     1
 90
        4
176
     1
 62
     7
176
     1
 62
   257
176
     1
 90
        1
176
     1
 90
        1
176
     1
 40
1.0
176
     1
 90
        0
176
     1
 62
   257
176
     1
 40
1.0
176
     1
 90
        1
176
     1
 90
        6
176
     1
 90
        2
176
     1
 62
     7
176
     1
 90
        5
176
     1
 90
        0
176
     1
 90
        0
176
     1
290
     0
176
     1
 90
        1
176
     1
 40
0.0
176
     1
 90
        0
176
     1
290
     1
176
     1
290
     1
176
     1
290
     0
176
     1
290
     0
176
     1
290
     0
176
     1
290
     0
176
     1
290
     0
176
     1
290
     0
176
     1
290
     0
176
     1
 90
       50
176
     1
 40
0.0
176
     1
 40
1.0
176
     1
 90
        0
176
     1
 62
    18
176
     1
 90
       50
176
     1
 90
        3
176
     1
 62
     5
420
      255
176
     1
290
     0
176
     1
 90
       50
176
     1
 90
       50
176
     1
 90
       50
176
     1
290
     0
176
     1
 90
       50
176
     1
 62
   256
176
     0
 40
1.0
176
     0
 90
        2
176
     1
  1
strokes_ogs.tif
176
     1
290
     0
176
     1
 40
1.0
176
     1
 40
1.0
176
     1
  0
VISUALSTYLE
  5
8B2B
102
{ACAD_REACTORS
330
8A71
102
}
330
8A71
100
AcDbVisualStyle
  2
3D Hidden
 70
     6
177
     3
291
     0
 70
    58
 90
        1
176
     1
 90
        2
176
     1
 90
        2
176
     1
 90
        0
176
     1
 40
0.6
176
     1
 40
30.0
176
     1
 62
     7
420
 16777215
176
     1
 90
        2
176
     1
 90
        2
176
     1
 62
     7
176
     1
 62
   257
176
     1
 90
        2
176
     1
 90
        1
176
     1
 40
179.0
176
     1
 90
        0
176
     1
 62
   257
176
     1
 40
1.0
176
     1
 90
        1
176
     1
 90
        6
176
     1
 90
        2
176
     1
 62
     7
176
     1
 90
        3
176
     1
 90
        0
176
     1
 90
        0
176
     1
290
     0
176
     1
 90
        1
176
     1
 40
0.0
176
     1
 90
        0
176
     1
290
     0
176
     1
290
     1
176
     1
290
     1
176
     1
290
     0
176
     1
290
     0
176
     1
290
     0
176
     1
290
     0
176
     1
290
     0
176
     1
290
     0
176
     1
 90
       50
176
     1
 40
0.0
176
     1
 40
1.0
176
     1
 90
        0
176
     1
 62
    18
176
     1
 90
       50
176
     1
 90
        3
176
     1
 62
     5
420
      255
176
     1
290
     0
176
     1
 90
       50
176
     1
 90
       50
176
     1
 90
       50
176
     1
290
     0
176
     1
 90
       50
176
     1
 62
   256
176
     0
 40
1.0
176
     0
 90
        2
176
     1
  1
strokes_ogs.tif
176
     1
290
     0
176
     1
 40
1.0
176
     1
 40
1.0
176
     1
  0
VISUALSTYLE
  5
8B2A
102
{ACAD_REACTORS
330
8A71
102
}
330
8A71
100
AcDbVisualStyle
  2
3dWireframe
 70
     5
177
     3
291
     0
 70
    58
 90
        0
176
     1
 90
        2
176
     1
 90
        0
176
     1
 90
        0
176
     1
 40
0.6
176
     1
 40
30.0
176
     1
 62
     7
420
 16777215
176
     1
 90
        1
176
     1
 90
        4
176
     1
 62
     7
176
     1
 62
   257
176
     1
 90
        1
176
     1
 90
        1
176
     1
 40
1.0
176
     1
 90
        0
176
     1
 62
   257
176
     1
 40
1.0
176
     1
 90
        1
176
     1
 90
        6
176
     1
 90
        2
176
     1
 62
     7
176
     1
 90
        5
176
     1
 90
        0
176
     1
 90
        0
176
     1
290
     0
176
     1
 90
        1
176
     1
 40
0.0
176
     1
 90
        0
176
     1
290
     0
176
     1
290
     1
176
     1
290
     1
176
     1
290
     0
176
     1
290
     0
176
     1
290
     0
176
     1
290
     0
176
     1
290
     0
176
     1
290
     0
176
     1
 90
       50
176
     1
 40
0.0
176
     1
 40
1.0
176
     1
 90
        0
176
     1
 62
    18
176
     1
 90
       50
176
     1
 90
        3
176
     1
 62
     5
420
      255
176
     1
290
     0
176
     1
 90
       50
176
     1
 90
       50
176
     1
 90
       50
176
     1
290
     0
176
     1
 90
       50
176
     1
 62
   256
176
     0
 40
1.0
176
     0
 90
        2
176
     1
  1
strokes_ogs.tif
176
     1
290
     0
176
     1
 40
1.0
176
     1
 40
1.0
176
     1
  0
VISUALSTYLE
  5
8A76
102
{ACAD_REACTORS
330
8A71
102
}
330
8A71
100
AcDbVisualStyle
  2
Basic
 70
     7
177
     3
291
     1
 70
    58
 90
        1
176
     1
 90
        0
176
     1
 90
        1
176
     1
 90
        0
176
     1
 40
0.6
176
     1
 40
30.0
176
     1
 62
     7
420
 16777215
176
     1
 90
        0
176
     1
 90
        4
176
     1
 62
     7
176
     1
 62
   257
176
     1
 90
        1
176
     1
 90
        1
176
     1
 40
1.0
176
     1
 90
        8
176
     1
 62
     7
176
     1
 40
1.0
176
     1
 90
        1
176
     1
 90
        6
176
     1
 90
        2
176
     1
 62
     7
176
     1
 90
        5
176
     1
 90
        0
176
     1
 90
        0
176
     1
290
     0
176
     1
 90
        1
176
     1
 40
0.0
176
     1
 90
        0
176
     1
290
     0
176
     1
290
     1
176
     1
290
     1
176
     1
290
     0
176
     1
290
     0
176
     1
290
     0
176
     1
290
     0
176
     1
290
     0
176
     1
290
     0
176
     1
 90
       50
176
     1
 40
0.0
176
     1
 40
1.0
176
     1
 90
        0
176
     1
 62
    18
176
     1
 90
       50
176
     1
 90
        3
176
     1
 62
     5
420
      255
176
     1
290
     0
176
     1
 90
       50
176
     1
 90
       50
176
     1
 90
       50
176
     1
290
     0
176
     1
 90
       50
176
     1
 62
   256
176
     0
 40
1.0
176
     0
 90
        2
176
     1
  1
strokes_ogs.tif
176
     1
290
     0
176
     1
 40
1.0
176
     1
 40
1.0
176
     1
  0
VISUALSTYLE
  5
8A7D
102
{ACAD_REACTORS
330
8A71
102
}
330
8A71
100
AcDbVisualStyle
  2
Brighten
 70
    12
177
     3
291
     1
 70
    58
 90
        2
176
     1
 90
        2
176
     1
 90
        0
176
     1
 90
        0
176
     1
 40
0.6
176
     1
 40
30.0
176
     1
 62
     7
420
 16777215
176
     1
 90
        1
176
     1
 90
        4
176
     1
 62
     7
176
     1
 62
   257
176
     1
 90
        1
176
     1
 90
        1
176
     1
 40
1.0
176
     1
 90
        8
176
     1
 62
     7
176
     1
 40
1.0
176
     1
 90
        1
176
     1
 90
        6
176
     1
 90
        2
176
     1
 62
     7
176
     1
 90
        5
176
     1
 90
        0
176
     1
 90
        0
176
     1
290
     0
176
     1
 90
        1
176
     1
 40
50.0
176
     1
 90
        0
176
     1
290
     0
176
     1
290
     1
176
     1
290
     1
176
     1
290
     0
176
     1
290
     0
176
     1
290
     0
176
     1
290
     0
176
     1
290
     0
176
     1
290
     0
176
     1
 90
       50
176
     1
 40
0.0
176
     1
 40
1.0
176
     1
 90
        0
176
     1
 62
    18
176
     1
 90
       50
176
     1
 90
        3
176
     1
 62
     5
420
      255
176
     1
290
     0
176
     1
 90
       50
176
     1
 90
       50
176
     1
 90
       50
176
     1
290
     0
176
     1
 90
       50
176
     1
 62
   256
176
     0
 40
1.0
176
     0
 90
        2
176
     1
  1
strokes_ogs.tif
176
     1
290
     0
176
     1
 40
1.0
176
     1
 40
1.0
176
     1
  0
VISUALSTYLE
  5
8A81
102
{ACAD_REACTORS
330
8A71
102
}
330
8A71
100
AcDbVisualStyle
  2
ColorChange
 70
    16
177
     3
291
     1
 70
    58
 90
        2
176
     1
 90
        2
176
     1
 90
        3
176
     1
 90
        0
176
     1
 40
0.6
176
     1
 40
30.0
176
     1
 62
     8
420
  8421504
176
     1
 90
        1
176
     1
 90
        4
176
     1
 62
     7
176
     1
 62
   257
176
     1
 90
        1
176
     1
 90
        1
176
     1
 40
1.0
176
     1
 90
        8
176
     1
 62
     8
420
  8421504
176
     1
 40
1.0
176
     1
 90
        1
176
     1
 90
        6
176
     1
 90
        2
176
     1
 62
     7
176
     1
 90
        5
176
     1
 90
        0
176
     1
 90
        0
176
     1
290
     0
176
     1
 90
        1
176
     1
 40
0.0
176
     1
 90
        0
176
     1
290
     0
176
     1
290
     1
176
     1
290
     1
176
     1
290
     0
176
     1
290
     0
176
     1
290
     0
176
     1
290
     0
176
     1
290
     0
176
     1
290
     0
176
     1
 90
       50
176
     1
 40
0.0
176
     1
 40
1.0
176
     1
 90
        0
176
     1
 62
    18
176
     1
 90
       50
176
     1
 90
        3
176
     1
 62
     5
420
      255
176
     1
290
     0
176
     1
 90
       50
176
     1
 90
       50
176
     1
 90
       50
176
     1
290
     0
176
     1
 90
       50
176
     1
 62
   256
176
     0
 40
1.0
176
     0
 90
        2
176
     1
  1
strokes_ogs.tif
176
     1
290
     0
176
     1
 40
1.0
176
     1
 40
1.0
176
     1
  0
VISUALSTYLE
  5
8A7A
102
{ACAD_REACTORS
330
8A71
102
}
330
8A71
100
AcDbVisualStyle
  2
Conceptual
 70
     9
177
     3
291
     0
 70
    58
 90
        3
176
     1
 90
        2
176
     1
 90
        0
176
     1
 90
        0
176
     1
 40
0.6
176
     1
 40
30.0
176
     1
 62
     7
420
 16777215
176
     1
 90
        2
176
     1
 90
        2
176
     1
 62
     7
176
     1
 62
   257
176
     1
 90
        1
176
     1
 90
        1
176
     1
 40
179.0
176
     1
 90
        8
176
     1
 62
     7
176
     1
 40
1.0
176
     1
 90
        1
176
     1
 90
        6
176
     1
 90
        2
176
     1
 62
     7
176
     1
 90
        3
176
     1
 90
        0
176
     1
 90
        0
176
     1
290
     0
176
     1
 90
        1
176
     1
 40
0.0
176
     1
 90
        0
176
     1
290
     0
176
     1
290
     1
176
     1
290
     1
176
     1
290
     0
176
     1
290
     0
176
     1
290
     0
176
     1
290
     0
176
     1
290
     0
176
     1
290
     0
176
     1
 90
       50
176
     1
 40
0.0
176
     1
 40
1.0
176
     1
 90
        0
176
     1
 62
    18
176
     1
 90
       50
176
     1
 90
        3
176
     1
 62
     5
420
      255
176
     1
290
     0
176
     1
 90
       50
176
     1
 90
       50
176
     1
 90
       50
176
     1
290
     0
176
     1
 90
       50
176
     1
 62
   256
176
     0
 40
1.0
176
     0
 90
        2
176
     1
  1
strokes_ogs.tif
176
     1
290
     0
176
     1
 40
1.0
176
     1
 40
1.0
176
     1
  0
VISUALSTYLE
  5
8A7C
102
{ACAD_REACTORS
330
8A71
102
}
330
8A71
100
AcDbVisualStyle
  2
Dim
 70
    11
177
     3
291
     1
 70
    58
 90
        2
176
     1
 90
        2
176
     1
 90
        0
176
     1
 90
        0
176
     1
 40
0.6
176
     1
 40
30.0
176
     1
 62
     7
420
 16777215
176
     1
 90
        1
176
     1
 90
        4
176
     1
 62
     7
176
     1
 62
   257
176
     1
 90
        1
176
     1
 90
        1
176
     1
 40
1.0
176
     1
 90
        8
176
     1
 62
     7
176
     1
 40
1.0
176
     1
 90
        1
176
     1
 90
        6
176
     1
 90
        2
176
     1
 62
     7
176
     1
 90
        5
176
     1
 90
        0
176
     1
 90
        0
176
     1
290
     0
176
     1
 90
        1
176
     1
 40
-50.0
176
     1
 90
        0
176
     1
290
     0
176
     1
290
     1
176
     1
290
     1
176
     1
290
     0
176
     1
290
     0
176
     1
290
     0
176
     1
290
     0
176
     1
290
     0
176
     1
290
     0
176
     1
 90
       50
176
     1
 40
0.0
176
     1
 40
1.0
176
     1
 90
        0
176
     1
 62
    18
176
     1
 90
       50
176
     1
 90
        3
176
     1
 62
     5
420
      255
176
     1
290
     0
176
     1
 90
       50
176
     1
 90
       50
176
     1
 90
       50
176
     1
290
     0
176
     1
 90
       50
176
     1
 62
   256
176
     0
 40
1.0
176
     0
 90
        2
176
     1
  1
strokes_ogs.tif
176
     1
290
     0
176
     1
 40
1.0
176
     1
 40
1.0
176
     1
  0
VISUALSTYLE
  5
8A89
102
{ACAD_REACTORS
330
8A71
102
}
330
8A71
100
AcDbVisualStyle
  2
EdgeColorOff
 70
    22
177
     3
291
     1
 70
    58
 90
        2
176
     0
 90
        2
176
     0
 90
        0
176
     0
 90
        0
176
     0
 40
0.6
176
     0
 40
30.0
176
     0
 62
     7
420
 16777215
176
     0
 90
        1
176
     0
 90
        4
176
     0
 62
     7
176
     0
 62
   257
176
     0
 90
        1
176
     0
 90
        1
176
     0
 40
1.0
176
     0
 90
        8
176
     2
 62
     7
176
     0
 40
1.0
176
     0
 90
        1
176
     0
 90
        6
176
     0
 90
        2
176
     0
 62
     7
176
     0
 90
        5
176
     0
 90
        0
176
     0
 90
        0
176
     0
290
     0
176
     0
 90
        1
176
     0
 40
0.0
176
     0
 90
        0
176
     0
290
     0
176
     1
290
     1
176
     1
290
     1
176
     1
290
     0
176
     1
290
     0
176
     1
290
     0
176
     1
290
     0
176
     1
290
     0
176
     1
290
     0
176
     1
 90
       50
176
     0
 40
0.0
176
     0
 40
1.0
176
     0
 90
        0
176
     0
 62
    18
176
     0
 90
       50
176
     0
 90
        3
176
     0
 62
     5
420
      255
176
     0
290
     0
176
     1
 90
       50
176
     0
 90
       50
176
     0
 90
       50
176
     0
290
     0
176
     1
 90
       50
176
     0
 62
   256
176
     0
 40
1.0
176
     0
 90
        2
176
     0
  1
strokes_ogs.tif
176
     0
290
     0
176
     1
 40
1.0
176
     0
 40
1.0
176
     0
  0
VISUALSTYLE
  5
8A80
102
{ACAD_REACTORS
330
8A71
102
}
330
8A71
100
AcDbVisualStyle
  2
Facepattern
 70
    15
177
     3
291
     1
 70
    58
 90
        2
176
     1
 90
        2
176
     1
 90
        0
176
     1
 90
        0
176
     1
 40
0.6
176
     1
 40
30.0
176
     1
 62
     7
420
 16777215
176
     1
 90
        1
176
     1
 90
        4
176
     1
 62
     7
176
     1
 62
   257
176
     1
 90
        1
176
     1
 90
        1
176
     1
 40
1.0
176
     1
 90
        8
176
     1
 62
     7
176
     1
 40
1.0
176
     1
 90
        1
176
     1
 90
        6
176
     1
 90
        2
176
     1
 62
     7
176
     1
 90
        5
176
     1
 90
        0
176
     1
 90
        0
176
     1
290
     0
176
     1
 90
        1
176
     1
 40
0.0
176
     1
 90
        0
176
     1
290
     0
176
     1
290
     1
176
     1
290
     1
176
     1
290
     0
176
     1
290
     0
176
     1
290
     0
176
     1
290
     0
176
     1
290
     0
176
     1
290
     0
176
     1
 90
       50
176
     1
 40
0.0
176
     1
 40
1.0
176
     1
 90
        0
176
     1
 62
    18
176
     1
 90
       50
176
     1
 90
        3
176
     1
 62
     5
420
      255
176
     1
290
     0
176
     1
 90
       50
176
     1
 90
       50
176
     1
 90
       50
176
     1
290
     0
176
     1
 90
       50
176
     1
 62
   256
176
     0
 40
1.0
176
     0
 90
        2
176
     1
  1
strokes_ogs.tif
176
     1
290
     0
176
     1
 40
1.0
176
     1
 40
1.0
176
     1
  0
VISUALSTYLE
  5
8A72
102
{ACAD_REACTORS
330
8A71
102
}
330
8A71
100
AcDbVisualStyle
  2
Flat
 70
     0
177
     3
291
     1
 70
    58
 90
        2
176
     1
 90
        1
176
     1
 90
        1
176
     1
 90
        2
176
     1
 40
0.6
176
     1
 40
30.0
176
     1
 62
     7
420
 16777215
176
     1
 90
        0
176
     1
 90
        0
176
     1
 62
     7
176
     1
 62
   257
176
     1
 90
        1
176
     1
 90
        1
176
     1
 40
1.0
176
     1
 90
        8
176
     1
 62
     7
176
     1
 40
1.0
176
     1
 90
        1
176
     1
 90
        6
176
     1
 90
        2
176
     1
 62
     7
176
     1
 90
        5
176
     1
 90
        0
176
     1
 90
        0
176
     1
290
     0
176
     1
 90
       13
176
     1
 40
0.0
176
     1
 90
        0
176
     1
290
     0
176
     1
290
     1
176
     1
290
     1
176
     1
290
     0
176
     1
290
     0
176
     1
290
     0
176
     1
290
     0
176
     1
290
     0
176
     1
290
     0
176
     1
 90
       50
176
     1
 40
0.0
176
     1
 40
1.0
176
     1
 90
        0
176
     1
 62
    18
176
     1
 90
       50
176
     1
 90
        3
176
     1
 62
     5
420
      255
176
     1
290
     0
176
     1
 90
       50
176
     1
 90
       50
176
     1
 90
       50
176
     1
290
     0
176
     1
 90
       50
176
     1
 62
   256
176
     0
 40
1.0
176
     0
 90
        2
176
     1
  1
strokes_ogs.tif
176
     1
290
     0
176
     1
 40
1.0
176
     1
 40
1.0
176
     1
  0
VISUALSTYLE
  5
8A73
102
{ACAD_REACTORS
330
8A71
102
}
330
8A71
100
AcDbVisualStyle
  2
FlatWithEdges
 70
     1
177
     3
291
     1
 70
    58
 90
        2
176
     1
 90
        1
176
     1
 90
        1
176
     1
 90
        2
176
     1
 40
0.6
176
     1
 40
30.0
176
     1
 62
     7
420
 16777215
176
     1
 90
        1
176
     1
 90
        0
176
     1
 62
     7
176
     1
 62
   257
176
     1
 90
        1
176
     1
 90
        1
176
     1
 40
1.0
176
     1
 90
        0
176
     1
 62
   257
176
     1
 40
1.0
176
     1
 90
        1
176
     1
 90
        6
176
     1
 90
        2
176
     1
 62
     7
176
     1
 90
        5
176
     1
 90
        0
176
     1
 90
        0
176
     1
290
     0
176
     1
 90
       13
176
     1
 40
0.0
176
     1
 90
        0
176
     1
290
     0
176
     1
290
     1
176
     1
290
     1
176
     1
290
     0
176
     1
290
     0
176
     1
290
     0
176
     1
290
     0
176
     1
290
     0
176
     1
290
     0
176
     1
 90
       50
176
     1
 40
0.0
176
     1
 40
1.0
176
     1
 90
        0
176
     1
 62
    18
176
     1
 90
       50
176
     1
 90
        3
176
     1
 62
     5
420
      255
176
     1
290
     0
176
     1
 90
       50
176
     1
 90
       50
176
     1
 90
       50
176
     1
290
     0
176
     1
 90
       50
176
     1
 62
   256
176
     0
 40
1.0
176
     0
 90
        2
176
     1
  1
strokes_ogs.tif
176
     1
290
     0
176
     1
 40
1.0
176
     1
 40
1.0
176
     1
  0
VISUALSTYLE
  5
8A74
102
{ACAD_REACTORS
330
8A71
102
}
330
8A71
100
AcDbVisualStyle
  2
Gouraud
 70
     2
177
     3
291
     1
 70
    58
 90
        2
176
     1
 90
        2
176
     1
 90
        1
176
     1
 90
        2
176
     1
 40
0.6
176
     1
 40
30.0
176
     1
 62
     7
420
 16777215
176
     1
 90
        0
176
     1
 90
        0
176
     1
 62
     7
176
     1
 62
   257
176
     1
 90
        1
176
     1
 90
        1
176
     1
 40
1.0
176
     1
 90
        0
176
     1
 62
     7
176
     1
 40
1.0
176
     1
 90
        1
176
     1
 90
        6
176
     1
 90
        2
176
     1
 62
     7
176
     1
 90
        5
176
     1
 90
        0
176
     1
 90
        0
176
     1
290
     0
176
     1
 90
       13
176
     1
 40
0.0
176
     1
 90
        0
176
     1
290
     0
176
     1
290
     1
176
     1
290
     1
176
     1
290
     0
176
     1
290
     0
176
     1
290
     0
176
     1
290
     0
176
     1
290
     0
176
     1
290
     0
176
     1
 90
       50
176
     1
 40
0.0
176
     1
 40
1.0
176
     1
 90
        0
176
     1
 62
    18
176
     1
 90
       50
176
     1
 90
        3
176
     1
 62
     5
420
      255
176
     1
290
     0
176
     1
 90
       50
176
     1
 90
       50
176
     1
 90
       50
176
     1
290
     0
176
     1
 90
       50
176
     1
 62
   256
176
     0
 40
1.0
176
     0
 90
        2
176
     1
  1
strokes_ogs.tif
176
     1
290
     0
176
     1
 40
1.0
176
     1
 40
1.0
176
     1
  0
VISUALSTYLE
  5
8A75
102
{ACAD_REACTORS
330
8A71
102
}
330
8A71
100
AcDbVisualStyle
  2
GouraudWithEdges
 70
     3
177
     3
291
     1
 70
    58
 90
        2
176
     1
 90
        2
176
     1
 90
        1
176
     1
 90
        2
176
     1
 40
0.6
176
     1
 40
30.0
176
     1
 62
     7
420
 16777215
176
     1
 90
        1
176
     1
 90
        0
176
     1
 62
     7
176
     1
 62
   257
176
     1
 90
        1
176
     1
 90
        1
176
     1
 40
1.0
176
     1
 90
        0
176
     1
 62
   257
176
     1
 40
1.0
176
     1
 90
        1
176
     1
 90
        6
176
     1
 90
        2
176
     1
 62
     7
176
     1
 90
        5
176
     1
 90
        0
176
     1
 90
        0
176
     1
290
     0
176
     1
 90
       13
176
     1
 40
0.0
176
     1
 90
        0
176
     1
290
     0
176
     1
290
     1
176
     1
290
     1
176
     1
290
     0
176
     1
290
     0
176
     1
290
     0
176
     1
290
     0
176
     1
290
     0
176
     1
290
     0
176
     1
 90
       50
176
     1
 40
0.0
176
     1
 40
1.0
176
     1
 90
        0
176
     1
 62
    18
176
     1
 90
       50
176
     1
 90
        3
176
     1
 62
     5
420
      255
176
     1
290
     0
176
     1
 90
       50
176
     1
 90
       50
176
     1
 90
       50
176
     1
290
     0
176
     1
 90
       50
176
     1
 62
   256
176
     0
 40
1.0
176
     0
 90
        2
176
     1
  1
strokes_ogs.tif
176
     1
290
     0
176
     1
 40
1.0
176
     1
 40
1.0
176
     1
  0
VISUALSTYLE
  5
8A79
102
{ACAD_REACTORS
330
8A71
102
}
330
8A71
100
AcDbVisualStyle
  2
Hidden
 70
     6
177
     3
291
     0
 70
    58
 90
        1
176
     1
 90
        2
176
     1
 90
        2
176
     1
 90
        0
176
     1
 40
0.6
176
     1
 40
30.0
176
     1
 62
     7
420
 16777215
176
     1
 90
        2
176
     1
 90
        2
176
     1
 62
     7
176
     1
 62
   257
176
     1
 90
        2
176
     1
 90
        1
176
     1
 40
40.0
176
     1
 90
        0
176
     1
 62
   257
176
     1
 40
1.0
176
     1
 90
        1
176
     1
 90
        6
176
     1
 90
        2
176
     1
 62
     7
176
     1
 90
        3
176
     1
 90
        0
176
     1
 90
        0
176
     1
290
     0
176
     1
 90
        1
176
     1
 40
0.0
176
     1
 90
        0
176
     1
290
     0
176
     1
290
     1
176
     1
290
     1
176
     1
290
     0
176
     1
290
     0
176
     1
290
     0
176
     1
290
     0
176
     1
290
     0
176
     1
290
     0
176
     1
 90
       50
176
     1
 40
0.0
176
     1
 40
1.0
176
     1
 90
        0
176
     1
 62
    18
176
     1
 90
       50
176
     1
 90
        3
176
     1
 62
     5
420
      255
176
     1
290
     0
176
     1
 90
       50
176
     1
 90
       50
176
     1
 90
       50
176
     1
290
     0
176
     1
 90
       50
176
     1
 62
   256
176
     0
 40
1.0
176
     0
 90
        2
176
     1
  1
strokes_ogs.tif
176
     1
290
     0
176
     1
 40
1.0
176
     1
 40
1.0
176
     1
  0
VISUALSTYLE
  5
8A87
102
{ACAD_REACTORS
330
8A71
102
}
330
8A71
100
AcDbVisualStyle
  2
JitterOff
 70
    20
177
     3
291
     1
 70
    58
 90
        2
176
     0
 90
        2
176
     0
 90
        0
176
     0
 90
        0
176
     0
 40
0.6
176
     0
 40
30.0
176
     0
 62
     7
420
 16777215
176
     0
 90
        1
176
     0
 90
        4
176
     0
 62
     7
176
     0
 62
   257
176
     0
 90
        1
176
     0
 90
        1
176
     0
 40
1.0
176
     0
 90
       10
176
     2
 62
     7
176
     0
 40
1.0
176
     0
 90
        1
176
     0
 90
        6
176
     0
 90
        2
176
     0
 62
     7
176
     0
 90
        5
176
     0
 90
        0
176
     0
 90
        0
176
     0
290
     0
176
     0
 90
        1
176
     0
 40
0.0
176
     0
 90
        0
176
     0
290
     0
176
     1
290
     1
176
     1
290
     1
176
     1
290
     0
176
     1
290
     0
176
     1
290
     0
176
     1
290
     0
176
     1
290
     0
176
     1
290
     0
176
     1
 90
       50
176
     0
 40
0.0
176
     0
 40
1.0
176
     0
 90
        0
176
     0
 62
    18
176
     0
 90
       50
176
     0
 90
        3
176
     0
 62
     5
420
      255
176
     0
290
     0
176
     1
 90
       50
176
     0
 90
       50
176
     0
 90
       50
176
     0
290
     0
176
     1
 90
       50
176
     0
 62
   256
176
     0
 40
1.0
176
     0
 90
        2
176
     0
  1
strokes_ogs.tif
176
     0
290
     0
176
     1
 40
1.0
176
     0
 40
1.0
176
     0
  0
VISUALSTYLE
  5
8A7F
102
{ACAD_REACTORS
330
8A71
102
}
330
8A71
100
AcDbVisualStyle
  2
Linepattern
 70
    14
177
     3
291
     1
 70
    58
 90
        2
176
     1
 90
        2
176
     1
 90
        0
176
     1
 90
        0
176
     1
 40
0.6
176
     1
 40
30.0
176
     1
 62
     7
420
 16777215
176
     1
 90
        1
176
     1
 90
        4
176
     1
 62
     7
176
     1
 62
   257
176
     1
 90
        7
176
     1
 90
        7
176
     1
 40
1.0
176
     1
 90
        8
176
     1
 62
     7
176
     1
 40
1.0
176
     1
 90
        1
176
     1
 90
        6
176
     1
 90
        2
176
     1
 62
     7
176
     1
 90
        5
176
     1
 90
        0
176
     1
 90
        0
176
     1
290
     0
176
     1
 90
        1
176
     1
 40
0.0
176
     1
 90
        0
176
     1
290
     0
176
     1
290
     1
176
     1
290
     1
176
     1
290
     0
176
     1
290
     0
176
     1
290
     0
176
     1
290
     0
176
     1
290
     0
176
     1
290
     0
176
     1
 90
       50
176
     1
 40
0.0
176
     1
 40
1.0
176
     1
 90
        0
176
     1
 62
    18
176
     1
 90
       50
176
     1
 90
        3
176
     1
 62
     5
420
      255
176
     1
290
     0
176
     1
 90
       50
176
     1
 90
       50
176
     1
 90
       50
176
     1
290
     0
176
     1
 90
       50
176
     1
 62
   256
176
     0
 40
1.0
176
     0
 90
        2
176
     1
  1
strokes_ogs.tif
176
     1
290
     0
176
     1
 40
1.0
176
     1
 40
1.0
176
     1
  0
VISUALSTYLE
  5
8A88
102
{ACAD_REACTORS
330
8A71
102
}
330
8A71
100
AcDbVisualStyle
  2
OverhangOff
 70
    21
177
     3
291
     1
 70
    58
 90
        2
176
     0
 90
        2
176
     0
 90
        0
176
     0
 90
        0
176
     0
 40
0.6
176
     0
 40
30.0
176
     0
 62
     7
420
 16777215
176
     0
 90
        1
176
     0
 90
        4
176
     0
 62
     7
176
     0
 62
   257
176
     0
 90
        1
176
     0
 90
        1
176
     0
 40
1.0
176
     0
 90
        9
176
     2
 62
     7
176
     0
 40
1.0
176
     0
 90
        1
176
     0
 90
        6
176
     0
 90
        2
176
     0
 62
     7
176
     0
 90
        5
176
     0
 90
        0
176
     0
 90
        0
176
     0
290
     0
176
     0
 90
        1
176
     0
 40
0.0
176
     0
 90
        0
176
     0
290
     0
176
     1
290
     1
176
     1
290
     1
176
     1
290
     0
176
     1
290
     0
176
     1
290
     0
176
     1
290
     0
176
     1
290
     0
176
     1
290
     0
176
     1
 90
       50
176
     0
 40
0.0
176
     0
 40
1.0
176
     0
 90
        0
176
     0
 62
    18
176
     0
 90
       50
176
     0
 90
        3
176
     0
 62
     5
420
      255
176
     0
290
     0
176
     1
 90
       50
176
     0
 90
       50
176
     0
 90
       50
176
     0
290
     0
176
     1
 90
       50
176
     0
 62
   256
176
     0
 40
1.0
176
     0
 90
        2
176
     0
  1
strokes_ogs.tif
176
     0
290
     0
176
     1
 40
1.0
176
     0
 40
1.0
176
     0
  0
VISUALSTYLE
  5
8A7B
102
{ACAD_REACTORS
330
8A71
102
}
330
8A71
100
AcDbVisualStyle
  2
Realistic
 70
     8
177
     3
291
     0
 70
    58
 90
        2
176
     1
 90
        3
176
     1
 90
        0
176
     1
 90
        2
176
     1
 40
0.6
176
     1
 40
30.0
176
     1
 62
     7
420
 16777215
176
     1
 90
        0
176
     1
 90
        0
176
     1
 62
     7
176
     1
 62
   257
176
     1
 90
        1
176
     1
 90
        1
176
     1
 40
1.0
176
     1
 90
        8
176
     1
 62
   257
176
     1
 40
1.0
176
     1
 90
        1
176
     1
 90
        6
176
     1
 90
        2
176
     1
 62
     7
176
     1
 90
        3
176
     1
 90
        0
176
     1
 90
        0
176
     1
290
     0
176
     1
 90
       13
176
     1
 40
0.0
176
     1
 90
        0
176
     1
290
     0
176
     1
290
     1
176
     1
290
     1
176
     1
290
     0
176
     1
290
     0
176
     1
290
     0
176
     1
290
     0
176
     1
290
     0
176
     1
290
     0
176
     1
 90
       50
176
     1
 40
0.0
176
     1
 40
1.0
176
     1
 90
        0
176
     1
 62
    18
176
     1
 90
       50
176
     1
 90
        3
176
     1
 62
     5
420
      255
176
     1
290
     0
176
     1
 90
       50
176
     1
 90
       50
176
     1
 90
       50
176
     1
290
     0
176
     1
 90
       50
176
     1
 62
   256
176
     0
 40
1.0
176
     0
 90
        2
176
     1
  1
strokes_ogs.tif
176
     1
290
     0
176
     1
 40
1.0
176
     1
 40
1.0
176
     1
  0
VISUALSTYLE
  5
8A86
102
{ACAD_REACTORS
330
8A71
102
}
330
8A71
100
AcDbVisualStyle
  2
Shaded
 70
    27
177
     3
291
     0
 70
    58
 90
        2
176
     1
 90
        2
176
     1
 90
        1
176
     1
 90
        2
176
     1
 40
0.6
176
     1
 40
30.0
176
     1
 62
     7
420
 16777215
176
     1
 90
        0
176
     1
 90
        4
176
     1
 62
     7
176
     1
 62
   257
176
     1
 90
        1
176
     1
 90
        1
176
     1
 40
1.0
176
     1
 90
        8
176
     1
 62
   257
176
     1
 40
1.0
176
     1
 90
        1
176
     1
 90
        6
176
     1
 90
        2
176
     1
 62
     8
420
  7895160
176
     1
 90
        3
176
     1
 90
        0
176
     1
 90
        0
176
     1
290
     0
176
     1
 90
        5
176
     1
 40
0.0
176
     1
 90
        0
176
     1
290
     0
176
     1
290
     1
176
     1
290
     1
176
     1
290
     0
176
     1
290
     0
176
     1
290
     0
176
     1
290
     0
176
     1
290
     0
176
     1
290
     0
176
     1
 90
       50
176
     1
 40
0.0
176
     1
 40
1.0
176
     1
 90
        0
176
     1
 62
    18
176
     1
 90
       50
176
     1
 90
        3
176
     1
 62
     5
420
      255
176
     1
290
     0
176
     1
 90
       50
176
     1
 90
       50
176
     1
 90
       50
176
     1
290
     0
176
     1
 90
       50
176
     1
 62
   256
176
     0
 40
1.0
176
     0
 90
        2
176
     1
  1
strokes_ogs.tif
176
     1
290
     0
176
     1
 40
1.0
176
     1
 40
1.0
176
     1
  0
VISUALSTYLE
  5
8A85
102
{ACAD_REACTORS
330
8A71
102
}
330
8A71
100
AcDbVisualStyle
  2
Shaded with edges
 70
    26
177
     3
291
     0
 70
    58
 90
        2
176
     1
 90
        2
176
     1
 90
        1
176
     1
 90
        2
176
     1
 40
0.6
176
     1
 40
30.0
176
     1
 62
     7
420
 16777215
176
     1
 90
        1
176
     1
 90
       10
176
     1
 62
     7
176
     1
 62
   257
176
     1
 90
        2
176
     1
 90
        1
176
     1
 40
1.0
176
     1
 90
        8
176
     1
 62
   257
176
     1
 40
1.0
176
     1
 90
        1
176
     1
 90
        6
176
     1
 90
        2
176
     1
 62
     7
176
     1
 90
        3
176
     1
 90
        0
176
     1
 90
        0
176
     1
290
     0
176
     1
 90
        5
176
     1
 40
0.0
176
     1
 90
        0
176
     1
290
     0
176
     1
290
     1
176
     1
290
     1
176
     1
290
     0
176
     1
290
     0
176
     1
290
     0
176
     1
290
     0
176
     1
290
     0
176
     1
290
     0
176
     1
 90
       50
176
     1
 40
0.0
176
     1
 40
1.0
176
     1
 90
        0
176
     1
 62
    18
176
     1
 90
       50
176
     1
 90
        3
176
     1
 62
     5
420
      255
176
     1
290
     0
176
     1
 90
       50
176
     1
 90
       50
176
     1
 90
       50
176
     1
290
     0
176
     1
 90
       50
176
     1
 62
   256
176
     0
 40
1.0
176
     0
 90
        2
176
     1
  1
strokes_ogs.tif
176
     1
290
     0
176
     1
 40
1.0
176
     1
 40
1.0
176
     1
  0
VISUALSTYLE
  5
8A82
102
{ACAD_REACTORS
330
8A71
102
}
330
8A71
100
AcDbVisualStyle
  2
Shades of Gray
 70
    23
177
     3
291
     0
 70
    58
 90
        2
176
     1
 90
        2
176
     1
 90
        3
176
     1
 90
        0
176
     1
 40
0.6
176
     1
 40
30.0
176
     1
 62
     7
420
 16777215
176
     1
 90
        2
176
     1
 90
        2
176
     1
 62
     7
176
     1
 62
     7
176
     1
 90
        1
176
     1
 90
        1
176
     1
 40
40.0
176
     1
 90
        8
176
     1
 62
     7
176
     1
 40
1.0
176
     1
 90
        1
176
     1
 90
        6
176
     1
 90
        2
176
     1
 62
     7
176
     1
 90
        3
176
     1
 90
        0
176
     1
 90
        0
176
     1
290
     0
176
     1
 90
        1
176
     1
 40
0.0
176
     1
 90
        0
176
     1
290
     0
176
     1
290
     1
176
     1
290
     1
176
     1
290
     0
176
     1
290
     0
176
     1
290
     0
176
     1
290
     0
176
     1
290
     0
176
     1
290
     0
176
     1
 90
       50
176
     1
 40
0.0
176
     1
 40
1.0
176
     1
 90
        0
176
     1
 62
    18
176
     1
 90
       50
176
     1
 90
        3
176
     1
 62
     5
420
      255
176
     1
290
     0
176
     1
 90
       50
176
     1
 90
       50
176
     1
 90
       50
176
     1
290
     0
176
     1
 90
       50
176
     1
 62
   256
176
     0
 40
1.0
176
     0
 90
        2
176
     1
  1
strokes_ogs.tif
176
     1
290
     0
176
     1
 40
1.0
176
     1
 40
1.0
176
     1
  0
VISUALSTYLE
  5
8A83
102
{ACAD_REACTORS
330
8A71
102
}
330
8A71
100
AcDbVisualStyle
  2
Sketchy
 70
    24
177
     3
291
     0
 70
    58
 90
        1
176
     1
 90
        2
176
     1
 90
        2
176
     1
 90
        0
176
     1
 40
0.6
176
     1
 40
30.0
176
     1
 62
     7
420
 16777215
176
     1
 90
        2
176
     1
 90
        2
176
     1
 62
     7
176
     1
 62
     7
176
     1
 90
        1
176
     1
 90
        1
176
     1
 40
40.0
176
     1
 90
       11
176
     1
 62
     7
176
     1
 40
1.0
176
     1
 90
        1
176
     1
 90
        6
176
     1
 90
        2
176
     1
 62
     7
176
     1
 90
        6
176
     1
 90
        0
176
     1
 90
        0
176
     1
290
     0
176
     1
 90
        1
176
     1
 40
0.0
176
     1
 90
        0
176
     1
290
     0
176
     1
290
     1
176
     1
290
     1
176
     1
290
     0
176
     1
290
     0
176
     1
290
     0
176
     1
290
     0
176
     1
290
     0
176
     1
290
     0
176
     1
 90
       50
176
     1
 40
0.0
176
     1
 40
1.0
176
     1
 90
        0
176
     1
 62
    18
176
     1
 90
       50
176
     1
 90
        3
176
     1
 62
     5
420
      255
176
     1
290
     0
176
     1
 90
       50
176
     1
 90
       50
176
     1
 90
       50
176
     1
290
     0
176
     1
 90
       50
176
     1
 62
   256
176
     0
 40
1.0
176
     0
 90
        2
176
     1
  1
strokes_ogs.tif
176
     1
290
     0
176
     1
 40
1.0
176
     1
 40
1.0
176
     1
  0
VISUALSTYLE
  5
8A7E
102
{ACAD_REACTORS
330
8A71
102
}
330
8A71
100
AcDbVisualStyle
  2
Thicken
 70
    13
177
     3
291
     1
 70
    58
 90
        2
176
     1
 90
        2
176
     1
 90
        0
176
     1
 90
        0
176
     1
 40
0.6
176
     1
 40
30.0
176
     1
 62
     7
420
 16777215
176
     1
 90
        1
176
     1
 90
        4
176
     1
 62
     7
176
     1
 62
   257
176
     1
 90
        1
176
     1
 90
        1
176
     1
 40
1.0
176
     1
 90
       12
176
     1
 62
     7
176
     1
 40
1.0
176
     1
 90
        1
176
     1
 90
        6
176
     1
 90
        2
176
     1
 62
     7
176
     1
 90
        5
176
     1
 90
        0
176
     1
 90
        0
176
     1
290
     0
176
     1
 90
        1
176
     1
 40
0.0
176
     1
 90
        0
176
     1
290
     0
176
     1
290
     1
176
     1
290
     1
176
     1
290
     0
176
     1
290
     0
176
     1
290
     0
176
     1
290
     0
176
     1
290
     0
176
     1
290
     0
176
     1
 90
       50
176
     1
 40
0.0
176
     1
 40
1.0
176
     1
 90
        0
176
     1
 62
    18
176
     1
 90
       50
176
     1
 90
        3
176
     1
 62
     5
420
      255
176
     1
290
     0
176
     1
 90
       50
176
     1
 90
       50
176
     1
 90
       50
176
     1
290
     0
176
     1
 90
       50
176
     1
 62
   256
176
     0
 40
1.0
176
     0
 90
        2
176
     1
  1
strokes_ogs.tif
176
     1
290
     0
176
     1
 40
1.0
176
     1
 40
1.0
176
     1
  0
VISUALSTYLE
  5
8A78
102
{ACAD_REACTORS
330
8A71
102
}
330
8A71
100
AcDbVisualStyle
  2
Wireframe
 70
     5
177
     3
291
     0
 70
    58
 90
        0
176
     1
 90
        2
176
     1
 90
        0
176
     1
 90
        0
176
     1
 40
0.6
176
     1
 40
30.0
176
     1
 62
     7
420
 16777215
176
     1
 90
        1
176
     1
 90
        4
176
     1
 62
     7
176
     1
 62
   257
176
     1
 90
        1
176
     1
 90
        1
176
     1
 40
1.0
176
     1
 90
        0
176
     1
 62
   257
176
     1
 40
1.0
176
     1
 90
        1
176
     1
 90
        6
176
     1
 90
        2
176
     1
 62
     7
176
     1
 90
        3
176
     1
 90
        0
176
     1
 90
        0
176
     1
290
     0
176
     1
 90
        1
176
     1
 40
0.0
176
     1
 90
        0
176
     1
290
     0
176
     1
290
     1
176
     1
290
     1
176
     1
290
     0
176
     1
290
     0
176
     1
290
     0
176
     1
290
     0
176
     1
290
     0
176
     1
290
     0
176
     1
 90
       50
176
     1
 40
0.0
176
     1
 40
1.0
176
     1
 90
        0
176
     1
 62
    18
176
     1
 90
       50
176
     1
 90
        3
176
     1
 62
     5
420
      255
176
     1
290
     0
176
     1
 90
       50
176
     1
 90
       50
176
     1
 90
       50
176
     1
290
     0
176
     1
 90
       50
176
     1
 62
   256
176
     0
 40
1.0
176
     0
 90
        2
176
     1
  1
strokes_ogs.tif
176
     1
290
     0
176
     1
 40
1.0
176
     1
 40
1.0
176
     1
  0
VISUALSTYLE
  5
8A84
102
{ACAD_REACTORS
330
8A71
102
}
330
8A71
100
AcDbVisualStyle
  2
X-Ray
 70
    25
177
     3
291
     0
 70
    58
 90
        2
176
     1
 90
        2
176
     1
 90
        1
176
     1
 90
        1
176
     1
 40
0.5
176
     1
 40
30.0
176
     1
 62
     7
420
 16777215
176
     1
 90
        1
176
     1
 90
        0
176
     1
 62
     7
176
     1
 62
   257
176
     1
 90
        1
176
     1
 90
        1
176
     1
 40
1.0
176
     1
 90
        8
176
     1
 62
     7
176
     1
 40
1.0
176
     1
 90
        1
176
     1
 90
        6
176
     1
 90
        2
176
     1
 62
     7
176
     1
 90
        3
176
     1
 90
        0
176
     1
 90
        0
176
     1
290
     0
176
     1
 90
       13
176
     1
 40
0.0
176
     1
 90
        0
176
     1
290
     0
176
     1
290
     1
176
     1
290
     1
176
     1
290
     0
176
     1
290
     0
176
     1
290
     0
176
     1
290
     0
176
     1
290
     0
176
     1
290
     0
176
     1
 90
       50
176
     1
 40
0.0
176
     1
 40
1.0
176
     1
 90
        0
176
     1
 62
    18
176
     1
 90
       50
176
     1
 90
        3
176
     1
 62
     5
420
      255
176
     1
290
     0
176
     1
 90
       50
176
     1
 90
       50
176
     1
 90
       50
176
     1
290
     0
176
     1
 90
       50
176
     1
 62
   256
176
     0
 40
1.0
176
     0
 90
        2
176
     1
  1
strokes_ogs.tif
176
     1
290
     0
176
     1
 40
1.0
176
     1
 40
1.0
176
     1
  0
DICTIONARYVAR
  5
8AE9
102
{ACAD_REACTORS
330
5697
102
}
330
5697
100
DictionaryVariables
280
     0
  1
1:1
  0
DICTIONARYVAR
  5
8AE5
102
{ACAD_REACTORS
330
5697
102
}
330
5697
100
DictionaryVariables
280
     0
  1
STANDARD
  0
DICTIONARYVAR
  5
8AE4
102
{ACAD_REACTORS
330
5697
102
}
330
5697
100
DictionaryVariables
280
     0
  1
STANDARD
  0
DICTIONARYVAR
  5
8AE6
102
{ACAD_REACTORS
330
5697
102
}
330
5697
100
DictionaryVariables
280
     0
  1
Imperial24
  0
DICTIONARYVAR
  5
8AE7
102
{ACAD_REACTORS
330
5697
102
}
330
5697
100
DictionaryVariables
280
     0
  1
Imperial24
  0
DICTIONARYVAR
  5
5698
102
{ACAD_REACTORS
330
5697
102
}
330
5697
100
DictionaryVariables
280
     0
  1
1
  0
DICTIONARYVAR
  5
8AEB
102
{ACAD_REACTORS
330
5697
102
}
330
5697
100
DictionaryVariables
280
     0
  1
1
  0
DICTIONARYVAR
  5
8AEC
102
{ACAD_REACTORS
330
5697
102
}
330
5697
100
DictionaryVariables
280
     0
  1
15
  0
DICTIONARYVAR
  5
8AEA
102
{ACAD_REACTORS
330
5697
102
}
330
5697
100
DictionaryVariables
280
     0
  1
0
  0
DICTIONARYVAR
  5
8AE8
102
{ACAD_REACTORS
330
5697
102
}
330
5697
100
DictionaryVariables
280
     0
  1
0
  0
DICTIONARY
  5
1C352
330
8AA4
100
AcDbDictionary
280
     1
281
     1
  3
ACAD_XREC_ROUNDTRIP
360
1C430
  0
DICTIONARY
  5
F3D2
330
8A4C
100
AcDbDictionary
280
     1
281
     1
  0
DICTIONARY
  5
8A62
330
8A61
100
AcDbDictionary
280
     1
281
     1
  3
BUMPTILE
360
8A64
  3
DIFFUSETILE
360
8A63
  3
OPACITYTILE
360
8A67
  3
REFLECTIONTILE
360
8A66
  3
REFRACTIONTILE
360
8A68
  3
SPECULARTILE
360
8A65
  0
DICTIONARY
  5
8A5A
330
8A59
100
AcDbDictionary
280
     1
281
     1
  3
BUMPTILE
360
8A5C
  3
DIFFUSETILE
360
8A5B
  3
OPACITYTILE
360
8A5F
  3
REFLECTIONTILE
360
8A5E
  3
REFRACTIONTILE
360
8A60
  3
SPECULARTILE
360
8A5D
  0
DICTIONARY
  5
8A6A
330
8A69
100
AcDbDictionary
280
     1
281
     1
  3
BUMPTILE
360
8A6C
  3
DIFFUSETILE
360
8A6B
  3
OPACITYTILE
360
8A6F
  3
REFLECTIONTILE
360
8A6E
  3
REFRACTIONTILE
360
8A70
  3
SPECULARTILE
360
8A6D
  0
DICTIONARY
  5
1C350
330
8AA2
100
AcDbDictionary
280
     1
281
     1
  3
ACAD_XREC_ROUNDTRIP
360
1C42F
  0
DICTIONARY
  5
8AED
330
8A8C
100
AcDbDictionary
280
     1
281
     1
  3
ACAD_ROUNDTRIP_2008_TABLESTYLE_CELLSTYLEMAP
360
1C42E
  0
XRECORD
  5
1C430
102
{ACAD_REACTORS
330
1C352
102
}
330
1C352
100
AcDbXrecord
280
     1
102
DISPLAYNAME
  1
Imperial24
102
FLAGS
 90
        0
  0
XRECORD
  5
8A64
102
{ACAD_REACTORS
330
8A62
102
}
330
8A62
100
AcDbXrecord
280
     1
270
     1
271
     1
  0
XRECORD
  5
8A63
102
{ACAD_REACTORS
330
8A62
102
}
330
8A62
100
AcDbXrecord
280
     1
270
     1
271
     1
  0
XRECORD
  5
8A67
102
{ACAD_REACTORS
330
8A62
102
}
330
8A62
100
AcDbXrecord
280
     1
270
     1
271
     1
  0
XRECORD
  5
8A66
102
{ACAD_REACTORS
330
8A62
102
}
330
8A62
100
AcDbXrecord
280
     1
270
     1
271
     1
  0
XRECORD
  5
8A68
102
{ACAD_REACTORS
330
8A62
102
}
330
8A62
100
AcDbXrecord
280
     1
270
     1
271
     1
  0
XRECORD
  5
8A65
102
{ACAD_REACTORS
330
8A62
102
}
330
8A62
100
AcDbXrecord
280
     1
270
     1
271
     1
  0
XRECORD
  5
8A5C
102
{ACAD_REACTORS
330
8A5A
102
}
330
8A5A
100
AcDbXrecord
280
     1
270
     1
271
     1
  0
XRECORD
  5
8A5B
102
{ACAD_REACTORS
330
8A5A
102
}
330
8A5A
100
AcDbXrecord
280
     1
270
     1
271
     1
  0
XRECORD
  5
8A5F
102
{ACAD_REACTORS
330
8A5A
102
}
330
8A5A
100
AcDbXrecord
280
     1
270
     1
271
     1
  0
XRECORD
  5
8A5E
102
{ACAD_REACTORS
330
8A5A
102
}
330
8A5A
100
AcDbXrecord
280
     1
270
     1
271
     1
  0
XRECORD
  5
8A60
102
{ACAD_REACTORS
330
8A5A
102
}
330
8A5A
100
AcDbXrecord
280
     1
270
     1
271
     1
  0
XRECORD
  5
8A5D
102
{ACAD_REACTORS
330
8A5A
102
}
330
8A5A
100
AcDbXrecord
280
     1
270
     1
271
     1
  0
XRECORD
  5
8A6C
102
{ACAD_REACTORS
330
8A6A
102
}
330
8A6A
100
AcDbXrecord
280
     1
270
     1
271
     1
  0
XRECORD
  5
8A6B
102
{ACAD_REACTORS
330
8A6A
102
}
330
8A6A
100
AcDbXrecord
280
     1
270
     1
271
     1
  0
XRECORD
  5
8A6F
102
{ACAD_REACTORS
330
8A6A
102
}
330
8A6A
100
AcDbXrecord
280
     1
270
     1
271
     1
  0
XRECORD
  5
8A6E
102
{ACAD_REACTORS
330
8A6A
102
}
330
8A6A
100
AcDbXrecord
280
     1
270
     1
271
     1
  0
XRECORD
  5
8A70
102
{ACAD_REACTORS
330
8A6A
102
}
330
8A6A
100
AcDbXrecord
280
     1
270
     1
271
     1
  0
XRECORD
  5
8A6D
102
{ACAD_REACTORS
330
8A6A
102
}
330
8A6A
100
AcDbXrecord
280
     1
270
     1
271
     1
  0
XRECORD
  5
1C42F
102
{ACAD_REACTORS
330
1C350
102
}
330
1C350
100
AcDbXrecord
280
     1
102
DISPLAYNAME
  1
Imperial24
102
FLAGS
 90
        0
  0
CELLSTYLEMAP
  5
1C42E
102
{ACAD_REACTORS
330
8AED
102
}
330
8AED
100
AcDbCellStyleMap
 90
        3
300
CELLSTYLE
  1
TABLEFORMAT_BEGIN
 90
        5
170
     1
 91
        0
 92
    32768
 62
   257
 93
        1
300
CONTENTFORMAT
  1
CONTENTFORMAT_BEGIN
 90
        0
 91
        0
 92
      512
 93
        0
300

 40
0.0
140
1.0
 94
        5
 62
     0
340
11
144
0.25
309
CONTENTFORMAT_END
171
     1
301
MARGIN
  1
CELLMARGIN_BEGIN
 40
0.06
 40
0.06
 40
0.06
 40
0.06
 40
0.18
 40
0.18
309
CELLMARGIN_END
 94
        6
 95
        1
302
GRIDFORMAT
  1
GRIDFORMAT_BEGIN
 90
        0
 91
        1
 62
     0
 92
       -2
340
0
 93
        0
 40
0.045
309
GRIDFORMAT_END
 95
        2
302
GRIDFORMAT
  1
GRIDFORMAT_BEGIN
 90
        0
 91
        1
 62
     0
 92
       -2
340
0
 93
        0
 40
0.045
309
GRIDFORMAT_END
 95
        4
302
GRIDFORMAT
  1
GRIDFORMAT_BEGIN
 90
        0
 91
        1
 62
     0
 92
       -2
340
0
 93
        0
 40
0.045
309
GRIDFORMAT_END
 95
        8
302
GRIDFORMAT
  1
GRIDFORMAT_BEGIN
 90
        0
 91
        1
 62
     0
 92
       -2
340
0
 93
        0
 40
0.045
309
GRIDFORMAT_END
 95
       16
302
GRIDFORMAT
  1
GRIDFORMAT_BEGIN
 90
        0
 91
        1
 62
     0
 92
       -2
340
0
 93
        0
 40
0.045
309
GRIDFORMAT_END
 95
       32
302
GRIDFORMAT
  1
GRIDFORMAT_BEGIN
 90
        0
 91
        1
 62
     0
 92
       -2
340
0
 93
        0
 40
0.045
309
GRIDFORMAT_END
309
TABLEFORMAT_END
  1
CELLSTYLE_BEGIN
 90
        1
 91
        1
300
_TITLE
309
CELLSTYLE_END
300
CELLSTYLE
  1
TABLEFORMAT_BEGIN
 90
        5
170
     1
 91
        0
 92
        0
 62
   257
 93
        1
300
CONTENTFORMAT
  1
CONTENTFORMAT_BEGIN
 90
        0
 91
        0
 92
      512
 93
        0
300

 40
0.0
140
1.0
 94
        5
 62
     0
340
11
144
0.18
309
CONTENTFORMAT_END
171
     1
301
MARGIN
  1
CELLMARGIN_BEGIN
 40
0.06
 40
0.06
 40
0.06
 40
0.06
 40
0.18
 40
0.18
309
CELLMARGIN_END
 94
        6
 95
        1
302
GRIDFORMAT
  1
GRIDFORMAT_BEGIN
 90
        0
 91
        1
 62
     0
 92
       -2
340
0
 93
        0
 40
0.045
309
GRIDFORMAT_END
 95
        2
302
GRIDFORMAT
  1
GRIDFORMAT_BEGIN
 90
        0
 91
        1
 62
     0
 92
       -2
340
0
 93
        0
 40
0.045
309
GRIDFORMAT_END
 95
        4
302
GRIDFORMAT
  1
GRIDFORMAT_BEGIN
 90
        0
 91
        1
 62
     0
 92
       -2
340
0
 93
        0
 40
0.045
309
GRIDFORMAT_END
 95
        8
302
GRIDFORMAT
  1
GRIDFORMAT_BEGIN
 90
        0
 91
        1
 62
     0
 92
       -2
340
0
 93
        0
 40
0.045
309
GRIDFORMAT_END
 95
       16
302
GRIDFORMAT
  1
GRIDFORMAT_BEGIN
 90
        0
 91
        1
 62
     0
 92
       -2
340
0
 93
        0
 40
0.045
309
GRIDFORMAT_END
 95
       32
302
GRIDFORMAT
  1
GRIDFORMAT_BEGIN
 90
        0
 91
        1
 62
     0
 92
       -2
340
0
 93
        0
 40
0.045
309
GRIDFORMAT_END
309
TABLEFORMAT_END
  1
CELLSTYLE_BEGIN
 90
        2
 91
        1
300
_HEADER
309
CELLSTYLE_END
300
CELLSTYLE
  1
TABLEFORMAT_BEGIN
 90
        5
170
     1
 91
        0
 92
        0
 62
   257
 93
        1
300
CONTENTFORMAT
  1
CONTENTFORMAT_BEGIN
 90
        0
 91
        0
 92
      512
 93
        0
300

 40
0.0
140
1.0
 94
        2
 62
     0
340
11
144
0.18
309
CONTENTFORMAT_END
171
     1
301
MARGIN
  1
CELLMARGIN_BEGIN
 40
0.06
 40
0.06
 40
0.06
 40
0.06
 40
0.18
 40
0.18
309
CELLMARGIN_END
 94
        6
 95
        1
302
GRIDFORMAT
  1
GRIDFORMAT_BEGIN
 90
        0
 91
        1
 62
     0
 92
       -2
340
0
 93
        0
 40
0.045
309
GRIDFORMAT_END
 95
        2
302
GRIDFORMAT
  1
GRIDFORMAT_BEGIN
 90
        0
 91
        1
 62
     0
 92
       -2
340
0
 93
        0
 40
0.045
309
GRIDFORMAT_END
 95
        4
302
GRIDFORMAT
  1
GRIDFORMAT_BEGIN
 90
        0
 91
        1
 62
     0
 92
       -2
340
0
 93
        0
 40
0.045
309
GRIDFORMAT_END
 95
        8
302
GRIDFORMAT
  1
GRIDFORMAT_BEGIN
 90
        0
 91
        1
 62
     0
 92
       -2
340
0
 93
        0
 40
0.045
309
GRIDFORMAT_END
 95
       16
302
GRIDFORMAT
  1
GRIDFORMAT_BEGIN
 90
        0
 91
        1
 62
     0
 92
       -2
340
0
 93
        0
 40
0.045
309
GRIDFORMAT_END
 95
       32
302
GRIDFORMAT
  1
GRIDFORMAT_BEGIN
 90
        0
 91
        1
 62
     0
 92
       -2
340
0
 93
        0
 40
0.045
309
GRIDFORMAT_END
309
TABLEFORMAT_END
  1
CELLSTYLE_BEGIN
 90
        3
 91
        2
300
_DATA
309
CELLSTYLE_END
  0
ENDSEC
  0
SECTION
  2
ACDSDATA
 70
     2
 71
     6
  0
ACDSSCHEMA
 90
        0
  1
AcDb_Thumbnail_Schema
  2
AcDbDs::ID
280
    10
 91
        8
  2
Thumbnail_Data
280
    15
 91
        0
101
ACDSRECORD
 95
        0
 90
        1
  2
AcDbDs::TreatedAsObjectData
280
     1
291
     1
101
ACDSRECORD
 95
        0
 90
        2
  2
AcDbDs::Legacy
280
     1
291
     1
101
ACDSRECORD
  1
AcDbDs::ID
 90
        3
  2
AcDs:Indexable
280
     1
291
     1
101
ACDSRECORD
  1
AcDbDs::ID
 90
        4
  2
AcDbDs::HandleAttribute
280
     7
282
     1
  0
ACDSSCHEMA
 90
        1
  1
AcDbDs::TreatedAsObjectDataSchema
  2
AcDbDs::TreatedAsObjectData
280
     1
 91
        0
  0
ACDSSCHEMA
 90
        2
  1
AcDbDs::LegacySchema
  2
AcDbDs::Legacy
280
     1
 91
        0
  0
ACDSSCHEMA
 90
        3
  1
AcDbDs::IndexedPropertySchema
  2
AcDs:Indexable
280
     1
 91
        0
  0
ACDSSCHEMA
 90
        4
  1
AcDbDs::HandleAttributeSchema
  2
AcDbDs::HandleAttribute
280
     7
 91
        1
284
     1
  0
ACDSRECORD
 90
        0
  2
AcDbDs::ID
280
    10
320
8A4C
  2
Thumbnail_Data
280
    15
 94
     1737
310
89504E470D0A1A0A0000000D49484452000001000000008808030000003F38C55500000300504C5445000000000000FFFFFF0000000000000000000000000000000000000000000000000000330000660000990000CC0000FF0033000033330033660033990033CC0033FF0066000066330066660066990066CC0066FF0099
310
000099330099660099990099CC0099FF00CC0000CC3300CC6600CC9900CCCC00CCFF00FF0000FF3300FF6600FF9900FFCC00FFFF3300003300333300663300993300CC3300FF3333003333333333663333993333CC3333FF3366003366333366663366993366CC3366FF3399003399333399663399993399CC3399FF33CC00
310
33CC3333CC6633CC9933CCCC33CCFF33FF0033FF3333FF6633FF9933FFCC33FFFF6600006600336600666600996600CC6600FF6633006633336633666633996633CC6633FF6666006666336666666666996666CC6666FF6699006699336699666699996699CC6699FF66CC0066CC3366CC6666CC9966CCCC66CCFF66FF0066
310
FF3366FF6666FF9966FFCC66FFFF9900009900339900669900999900CC9900FF9933009933339933669933999933CC9933FF9966009966339966669966999966CC9966FF9999009999339999669999999999CC9999FF99CC0099CC3399CC6699CC9999CCCC99CCFF99FF0099FF3399FF6699FF9999FFCC99FFFFCC0000CC00
310
33CC0066CC0099CC00CCCC00FFCC3300CC3333CC3366CC3399CC33CCCC33FFCC6600CC6633CC6666CC6699CC66CCCC66FFCC9900CC9933CC9966CC9999CC99CCCC99FFCCCC00CCCC33CCCC66CCCC99CCCCCCCCCCFFCCFF00CCFF33CCFF66CCFF99CCFFCCCCFFFFFF0000FF0033FF0066FF0099FF00CCFF00FFFF3300FF3333
310
FF3366FF3399FF33CCFF33FFFF6600FF6633FF6666FF6699FF66CCFF66FFFF9900FF9933FF9966FF9999FF99CCFF99FFFFCC00FFCC33FFCC66FFCC99FFCCCCFFCCFFFFFF00FFFF33FFFF66FFFF99FFFFCCFFFFFF0000000D0D0D1A1A1A2828283535354343435050505D5D5D6B6B6B787878868686939393A1A1A1AEAEAEBB
310
BBBBC9C9C9D6D6D6E4E4E4F1F1F1FFFFFF000000000000000000000000000000000000000000000000000000000000C11FEF66000003844944415478DAED9C398EEB300C86E706BA861ADEBF4BA36BB8D209D8B81FEDBB3383011E1E42FE04BC3149A1CF2445918EBFBC72F902000000000000000000000000000000000000
310
00000000000000000000000000000000000000000000000080BF08FD5D8400F80FBF040000F844007790B48B47AD006E00D00580593500E60D80A61840C43CE53ACA2C20A849318090E75A4BAC37086600566D1E407589648C69815093054400E1608D720064ACE509801A17081340B40066CB4A8360CC0138EED9680510B6
310
940B1A95CB61DE452D0014449400F8E16E6BB08010F300E097B511A9005CD85FE7807872125900AECB918B29F04680A7F460981EE400A8AD2E578EF3BDE6B6429E3E960BE0A63CBE06606D055209188200843CDFD27D3BBAC8864C9FA680C8A3AF5C4128F11106E00A00AE04C0DEF406403E11072056C08A0BD864EC4700BD
310
2D2ECF02A2B8340D52BBC5270BA09E32E80140ED68A3C807408F00E45AC0380D0E0072C2A3024086E07C29865600F5437D00DA3887044813809C0AC77C67E80F7600C2D6022EB87EDAC23E9DBA0180E3A4894265734EE062E86801D509A45BC0BB207806207C1AD408E021139C0BE32A53E1D41CEA5FD4910A3F0390BB1658
310
4A620F00242F879FEA018B0B882D88C492D8D54A626F01C82C89D19D8AA17B51F4680175869403801FCBE20940D5964D60599CFDDC1819CB61B52B149F97F0F9C9C1CA4618002A00FC06A03F2920B533C4250F189D7CB280BC5B734341001E1F87E1B1357AF8A51000CFD26380560039E0B30A00EE6801EBB9930AC018678C
310
0987FE89493A3FE8668D3C007E01E037005E260053A49F645D1A6E536D1A410016EF367ED39983060000405A45687C33C034DCF4CC78D7A4944010000A43B36968E55F526601C01A00D830B471393001985D80A5B9C0EE01E1160F00788E012C3D06E4BCDFBC9A70E61101944B612E7098052280A67BF90E20685ED526844F
310
837A003867DC2CC1029C7BB5CB7E964EDBA51E17E0C50210030040F23458BA1E864FD3208B9C06CF89109F1221169908C55498B754581380DAF4CBADD1B21A5404200E8DEB32E7AE89905600918052003C3C1AA60EC0DC14D4670186F7B238B72238F7B238070D4B2B8B97F5FFDA19E2D607EA2F91C800A43546AAED2FBDC1
310
D9059AD2F54BE1CDD1F264CC0260FC4FA9F0F638F7D6B84E00FFF2979F02A0BF32E8A8900240FB9BA53F4C0000000000000000000000000000000000000040A37C03586E0CB3F85EC0830000000049454E44AE426082
  0
ENDSEC
  0
EOF
