  0
SECTION
  2
HEADER
  9
$ACADVER
  1
AC1027
  9
$ACADMAINTVER
 70
    55
  9
$DWGCODEPAGE
  3
ANSI_932
  9
$LASTSAVEDBY
  1
marketing
  9
$REQUIREDVERSIONS
160
                 0
  9
$INSBASE
 10
0.0
 20
0.0
 30
0.0
  9
$EXTMIN
 10
-0.0489046821076045
 20
-0.0401538084270214
 30
-0.0015258207003583
  9
$EXTMAX
 10
700.0304075016356
 20
1088.044519492248
 30
0.0000000349246037
  9
$LIMMIN
 10
-296.316999476111
 20
-370.7034300441653
  9
$LIMMAX
 10
623.3128432133979
 20
328.6261559379898
  9
$ORTHOMODE
 70
     1
  9
$REGENMODE
 70
     1
  9
$FILLMODE
 70
     1
  9
$QTEXTMODE
 70
     0
  9
$MIRRTEXT
 70
     1
  9
$LTSCALE
 40
10.0
  9
$ATTMODE
 70
     1
  9
$TEXTSIZE
 40
5.0
  9
$TRACEWID
 40
0.05
  9
$TEXTSTYLE
  7
STANDARD1
  9
$CLAYER
  8
30
  9
$CELTYPE
  6
BYLAYER
  9
$CECOLOR
 62
   256
  9
$CELTSCALE
 40
1.0
  9
$DISPSILH
 70
     0
  9
$DIMSCALE
 40
1.0
  9
$DIMASZ
 40
2.0
  9
$DIMEXO
 40
1.0
  9
$DIMDLI
 40
0.5
  9
$DIMRND
 40
0.0
  9
$DIMDLE
 40
0.0
  9
$DIMEXE
 40
0.5
  9
$DIMTP
 40
0.0
  9
$DIMTM
 40
0.0
  9
$DIMTXT
 40
8.0
  9
$DIMCEN
 40
0.09
  9
$DIMTSZ
 40
0.0
  9
$DIMTOL
 70
     0
  9
$DIMLIM
 70
     0
  9
$DIMTIH
 70
     0
  9
$DIMTOH
 70
     0
  9
$DIMSE1
 70
     0
  9
$DIMSE2
 70
     0
  9
$DIMTAD
 70
     3
  9
$DIMZIN
 70
    12
  9
$DIMBLK
  1
OPEN
  9
$DIMASO
 70
     1
  9
$DIMSHO
 70
     1
  9
$DIMPOST
  1

  9
$DIMAPOST
  1

  9
$DIMALT
 70
     0
  9
$DIMALTD
 70
     2
  9
$DIMALTF
 40
25.4
  9
$DIMLFAC
 40
1.0
  9
$DIMTOFL
 70
     0
  9
$DIMTVP
 40
0.0
  9
$DIMTIX
 70
     0
  9
$DIMSOXD
 70
     0
  9
$DIMSAH
 70
     0
  9
$DIMBLK1
  1

  9
$DIMBLK2
  1

  9
$DIMSTYLE
  2
STANDARD
  9
$DIMCLRD
 70
     0
  9
$DIMCLRE
 70
     0
  9
$DIMCLRT
 70
   256
  9
$DIMTFAC
 40
1.0
  9
$DIMGAP
 40
3.0
  9
$DIMJUST
 70
     0
  9
$DIMSD1
 70
     0
  9
$DIMSD2
 70
     0
  9
$DIMTOLJ
 70
     1
  9
$DIMTZIN
 70
     0
  9
$DIMALTZ
 70
     0
  9
$DIMALTTZ
 70
     0
  9
$DIMUPT
 70
     0
  9
$DIMDEC
 70
     1
  9
$DIMTDEC
 70
     1
  9
$DIMALTU
 70
     2
  9
$DIMALTTD
 70
     2
  9
$DIMTXSTY
  7
STANDARD
  9
$DIMAUNIT
 70
     0
  9
$DIMADEC
 70
     0
  9
$DIMALTRND
 40
0.0
  9
$DIMAZIN
 70
     0
  9
$DIMDSEP
 70
    46
  9
$DIMATFIT
 70
     3
  9
$DIMFRAC
 70
     0
  9
$DIMLDRBLK
  1
OPEN
  9
$DIMLUNIT
 70
     2
  9
$DIMLWD
 70
    -2
  9
$DIMLWE
 70
    -2
  9
$DIMTMOVE
 70
     0
  9
$DIMFXL
 40
1.0
  9
$DIMFXLON
 70
     0
  9
$DIMJOGANG
 40
0.7853981633974483
  9
$DIMTFILL
 70
     1
  9
$DIMTFILLCLR
 70
     0
  9
$DIMARCSYM
 70
     0
  9
$DIMLTYPE
  6

  9
$DIMLTEX1
  6

  9
$DIMLTEX2
  6

  9
$DIMTXTDIRECTION
 70
     0
  9
$LUNITS
 70
     2
  9
$LUPREC
 70
     4
  9
$SKETCHINC
 40
0.1
  9
$FILLETRAD
 40
0.0
  9
$AUNITS
 70
     0
  9
$AUPREC
 70
     0
  9
$MENU
  1
.
  9
$ELEVATION
 40
0.0
  9
$PELEVATION
 40
0.0
  9
$THICKNESS
 40
0.0
  9
$LIMCHECK
 70
     0
  9
$CHAMFERA
 40
0.0
  9
$CHAMFERB
 40
0.0
  9
$CHAMFERC
 40
0.0
  9
$CHAMFERD
 40
0.0
  9
$SKPOLY
 70
     0
  9
$TDCREATE
 40
2452286.555658658
  9
$TDUCREATE
 40
2452286.180658658
  9
$TDUPDATE
 40
2459244.341547234
  9
$TDUUPDATE
 40
2459243.966547234
  9
$TDINDWG
 40
1.8861821296
  9
$TDUSRTIMER
 40
1.8861795602
  9
$USRTIMER
 70
     1
  9
$ANGBASE
 50
0.0
  9
$ANGDIR
 70
     0
  9
$PDMODE
 70
     0
  9
$PDSIZE
 40
0.0
  9
$PLINEWID
 40
0.0
  9
$SPLFRAME
 70
     0
  9
$SPLINETYPE
 70
     6
  9
$SPLINESEGS
 70
     8
  9
$HANDSEED
  5
1C400
  9
$SURFTAB1
 70
     6
  9
$SURFTAB2
 70
     6
  9
$SURFTYPE
 70
     6
  9
$SURFU
 70
     6
  9
$SURFV
 70
     6
  9
$UCSBASE
  2

  9
$UCSNAME
  2

  9
$UCSORG
 10
0.0
 20
0.0
 30
0.0
  9
$UCSXDIR
 10
1.0
 20
0.0
 30
0.0
  9
$UCSYDIR
 10
0.0
 20
1.0
 30
0.0
  9
$UCSORTHOREF
  2

  9
$UCSORTHOVIEW
 70
     0
  9
$UCSORGTOP
 10
0.0
 20
0.0
 30
0.0
  9
$UCSORGBOTTOM
 10
0.0
 20
0.0
 30
0.0
  9
$UCSORGLEFT
 10
0.0
 20
0.0
 30
0.0
  9
$UCSORGRIGHT
 10
0.0
 20
0.0
 30
0.0
  9
$UCSORGFRONT
 10
0.0
 20
0.0
 30
0.0
  9
$UCSORGBACK
 10
0.0
 20
0.0
 30
0.0
  9
$PUCSBASE
  2

  9
$PUCSNAME
  2

  9
$PUCSORG
 10
0.0
 20
0.0
 30
0.0
  9
$PUCSXDIR
 10
1.0
 20
0.0
 30
0.0
  9
$PUCSYDIR
 10
0.0
 20
1.0
 30
0.0
  9
$PUCSORTHOREF
  2

  9
$PUCSORTHOVIEW
 70
     0
  9
$PUCSORGTOP
 10
0.0
 20
0.0
 30
0.0
  9
$PUCSORGBOTTOM
 10
0.0
 20
0.0
 30
0.0
  9
$PUCSORGLEFT
 10
0.0
 20
0.0
 30
0.0
  9
$PUCSORGRIGHT
 10
0.0
 20
0.0
 30
0.0
  9
$PUCSORGFRONT
 10
0.0
 20
0.0
 30
0.0
  9
$PUCSORGBACK
 10
0.0
 20
0.0
 30
0.0
  9
$USERI1
 70
     0
  9
$USERI2
 70
     0
  9
$USERI3
 70
     0
  9
$USERI4
 70
     0
  9
$USERI5
 70
     0
  9
$USERR1
 40
0.0
  9
$USERR2
 40
0.0
  9
$USERR3
 40
0.0
  9
$USERR4
 40
0.0
  9
$USERR5
 40
0.0
  9
$WORLDVIEW
 70
     1
  9
$SHADEDGE
 70
     3
  9
$SHADEDIF
 70
    70
  9
$TILEMODE
 70
     1
  9
$MAXACTVP
 70
    48
  9
$PINSBASE
 10
0.0
 20
0.0
 30
0.0
  9
$PLIMCHECK
 70
     0
  9
$PEXTMIN
 10
4.273573
 20
5.205245999999998
 30
0.0
  9
$PEXTMAX
 10
194.610095
 20
283.0697009999996
 30
0.0
  9
$PLIMMIN
 10
-5.873749
 20
-5.87375
  9
$PLIMMAX
 10
204.099579
 20
291.1369009999999
  9
$UNITMODE
 70
     0
  9
$VISRETAIN
 70
     1
  9
$PLINEGEN
 70
     0
  9
$PSLTSCALE
 70
     1
  9
$TREEDEPTH
 70
  3020
  9
$CMLSTYLE
  2
STANDARD
  9
$CMLJUST
 70
     0
  9
$CMLSCALE
 40
1.0
  9
$PROXYGRAPHICS
 70
     1
  9
$MEASUREMENT
 70
     0
  9
$CELWEIGHT
370
    -1
  9
$ENDCAPS
280
     0
  9
$JOINSTYLE
280
     0
  9
$LWDISPLAY
290
     0
  9
$INSUNITS
 70
     0
  9
$HYPERLINKBASE
  1

  9
$STYLESHEET
  1
MONOCHROME.CTB
  9
$XEDIT
290
     1
  9
$CEPSNTYPE
380
     0
  9
$PSTYLEMODE
290
     1
  9
$FINGERPRINTGUID
  2

  9
$VERSIONGUID
  2
{66ED1ABE-A721-4F2B-B9FF-32BC1F49346A}
  9
$EXTNAMES
290
     1
  9
$PSVPSCALE
 40
0.0
  9
$OLESTARTUP
290
     0
  9
$SORTENTS
280
   127
  9
$INDEXCTL
280
     0
  9
$HIDETEXT
280
     0
  9
$XCLIPFRAME
280
     2
  9
$HALOGAP
280
     0
  9
$OBSCOLOR
 70
   257
  9
$OBSLTYPE
280
     0
  9
$INTERSECTIONDISPLAY
280
     0
  9
$INTERSECTIONCOLOR
 70
   257
  9
$DIMASSOC
280
     1
  9
$PROJECTNAME
  1

  9
$CAMERADISPLAY
290
     0
  9
$LENSLENGTH
 40
50.0
  9
$CAMERAHEIGHT
 40
0.0
  9
$STEPSPERSEC
 40
2.0
  9
$STEPSIZE
 40
6.0
  9
$3DDWFPREC
 40
2.0
  9
$PSOLWIDTH
 40
0.25
  9
$PSOLHEIGHT
 40
4.0
  9
$LOFTANG1
 40
1.570796326794896
  9
$LOFTANG2
 40
1.570796326794896
  9
$LOFTMAG1
 40
0.0
  9
$LOFTMAG2
 40
0.0
  9
$LOFTPARAM
 70
     7
  9
$LOFTNORMALS
280
     1
  9
$LATITUDE
 40
37.795
  9
$LONGITUDE
 40
-122.394
  9
$NORTHDIRECTION
 40
0.0
  9
$TIMEZONE
 70
 -8000
  9
$LIGHTGLYPHDISPLAY
280
     1
  9
$TILEMODELIGHTSYNCH
280
     1
  9
$CMATERIAL
347
8A59
  9
$SOLIDHIST
280
     0
  9
$SHOWHIST
280
     1
  9
$DWFFRAME
280
     2
  9
$DGNFRAME
280
     0
  9
$REALWORLDSCALE
290
     1
  9
$INTERFERECOLOR
 62
     1
  9
$INTERFEREOBJVS
345
8A7B
  9
$INTERFEREVPVS
346
8A78
  9
$CSHADOW
280
     0
  9
$SHADOWPLANELOCATION
 40
0.0
  0
ENDSEC
  0
SECTION
  2
CLASSES
  0
CLASS
  1
ACDBDICTIONARYWDFLT
  2
AcDbDictionaryWithDefault
  3
ObjectDBX Classes
 90
        0
 91
        1
280
     0
281
     0
  0
CLASS
  1
DICTIONARYVAR
  2
AcDbDictionaryVar
  3
ObjectDBX Classes
 90
        0
 91
       10
280
     0
281
     0
  0
CLASS
  1
MATERIAL
  2
AcDbMaterial
  3
ObjectDBX Classes
 90
     1153
 91
        3
280
     0
281
     0
  0
CLASS
  1
VISUALSTYLE
  2
AcDbVisualStyle
  3
ObjectDBX Classes
 90
     4095
 91
       26
280
     0
281
     0
  0
CLASS
  1
TABLESTYLE
  2
AcDbTableStyle
  3
ObjectDBX Classes
 90
     4095
 91
        1
280
     0
281
     0
  0
CLASS
  1
SCALE
  2
AcDbScale
  3
ObjectDBX Classes
 90
     1153
 91
       17
280
     0
281
     0
  0
CLASS
  1
MLEADERSTYLE
  2
AcDbMLeaderStyle
  3
ACDB_MLEADERSTYLE_CLASS
 90
     4095
 91
        1
280
     0
281
     0
  0
CLASS
  1
ACDBSECTIONVIEWSTYLE
  2
AcDbSectionViewStyle
  3
ObjectDBX Classes
 90
     1025
 91
        1
280
     0
281
     0
  0
CLASS
  1
ACDBDETAILVIEWSTYLE
  2
AcDbDetailViewStyle
  3
ObjectDBX Classes
 90
     1025
 91
        1
280
     0
281
     0
  0
CLASS
  1
CELLSTYLEMAP
  2
AcDbCellStyleMap
  3
ObjectDBX Classes
 90
     1152
 91
        2
280
     0
281
     0
  0
CLASS
  1
AEC_REFEDIT_STATUS_TRACKER
  2
AecDbRefEditStatusTracker
  3
AecArchBase70|Product Desc: Autodesk Architectural Desktop 2007 |Company: Autodesk,Inc. |WEB Address: www.autodesk.com
 90
      129
 91
        0
280
     0
281
     0
  0
CLASS
  1
NPOCOLLECTION
  2
AcDbImpNonPersistentObjectsCollection
  3
ObjectDBX Classes
 90
     1153
 91
        0
280
     0
281
     0
  0
CLASS
  1
SORTENTSTABLE
  2
AcDbSortentsTable
  3
ObjectDBX Classes
 90
        0
 91
        3
280
     0
281
     0
  0
ENDSEC
  0
SECTION
  2
TABLES
  0
TABLE
  2
VPORT
  5
8
330
0
100
AcDbSymbolTable
 70
     1
  0
VPORT
  5
8A51
330
8
100
AcDbSymbolTableRecord
100
AcDbViewportTableRecord
  2
*Active
 70
     0
 10
0.0
 20
0.0
 11
1.0
 21
1.0
 12
420.515466552507
 22
511.7593151924752
 13
0.0
 23
0.0
 14
1.0
 24
1.0
 15
10.0
 25
10.0
 16
0.0
 26
0.0
 36
1.0
 17
0.0
 27
0.0
 37
0.0
 40
689.0628917972226
 41
2.289505428226779
 42
50.0
 43
0.0
 44
0.0
 50
0.0
 51
0.0
 71
     0
 72
   100
 73
     1
 74
     1
 75
     0
 76
     0
 77
     0
 78
     0
281
     0
 65
     1
110
0.0
120
0.0
130
0.0
111
1.0
121
0.0
131
0.0
112
0.0
122
1.0
132
0.0
 79
     0
146
0.0
348
8A77
 60
     3
 61
     5
292
     1
282
     1
141
0.0
142
0.0
 63
   250
421
  3355443
1001
ACAD_NAV_VCDISPLAY
1070
     3
  0
ENDTAB
  0
TABLE
  2
LTYPE
  5
5
330
0
100
AcDbSymbolTable
 70
     8
  0
LTYPE
  5
13
330
5
100
AcDbSymbolTableRecord
100
AcDbLinetypeTableRecord
  2
BYBLOCK
 70
     0
  3

 72
    65
 73
     0
 40
0.0
  0
LTYPE
  5
14
330
5
100
AcDbSymbolTableRecord
100
AcDbLinetypeTableRecord
  2
BYLAYER
 70
     0
  3

 72
    65
 73
     0
 40
0.0
  0
LTYPE
  5
15
330
5
100
AcDbSymbolTableRecord
100
AcDbLinetypeTableRecord
  2
CONTINUOUS
 70
     0
  3
Solid line
 72
    65
 73
     0
 40
0.0
  0
LTYPE
  5
22
330
5
100
AcDbSymbolTableRecord
100
AcDbLinetypeTableRecord
  2
CONTINOUS
 70
     0
  3
Solid line
 72
    65
 73
     0
 40
0.0
  0
LTYPE
  5
23
330
5
100
AcDbSymbolTableRecord
100
AcDbLinetypeTableRecord
  2
DASHED
 70
     0
  3
__ __ __ __ __ __ __ __ __ __ __ __ __ __ __
 72
    65
 73
     2
 40
0.75
 49
0.5
 74
     0
 49
-0.25
 74
     0
  0
LTYPE
  5
24
330
5
100
AcDbSymbolTableRecord
100
AcDbLinetypeTableRecord
  2
DASHDOT
 70
     0
  3
__ . __ . __ . __ . __ . __ . __ . __ . __ . __
 72
    65
 73
     4
 40
1.0
 49
0.5
 74
     0
 49
-0.25
 74
     0
 49
0.0
 74
     0
 49
-0.25
 74
     0
  0
LTYPE
  5
4C47
330
5
100
AcDbSymbolTableRecord
100
AcDbLinetypeTableRecord
  2
DIVIDE
 70
     0
  3
Divide ____ . . ____ . . ____ . . ____ . . ____
 72
    65
 73
     6
 40
1.25
 49
0.5
 74
     0
 49
-0.25
 74
     0
 49
0.0
 74
     0
 49
-0.25
 74
     0
 49
0.0
 74
     0
 49
-0.25
 74
     0
  0
LTYPE
  5
912E
330
5
100
AcDbSymbolTableRecord
100
AcDbLinetypeTableRecord
  2
SLD-実線
 70
     0
  3
SolidWorks Line Style
 72
    65
 73
     0
 40
0.0
  0
LTYPE
  5
912F
330
5
100
AcDbSymbolTableRecord
100
AcDbLinetypeTableRecord
  2
SLD-破線
 70
     0
  3
SolidWorks Line Style
 72
    65
 73
     2
 40
1.905
 49
1.27
 74
     0
 49
-0.635
 74
     0
  0
ENDTAB
  0
TABLE
  2
LAYER
  5
2
102
{ACAD_XDICTIONARY
360
F3CC
102
}
330
0
100
AcDbSymbolTable
 70
    12
  0
LAYER
  5
10
102
{ACAD_XDICTIONARY
360
8ACC
102
}
330
2
100
AcDbSymbolTableRecord
100
AcDbLayerTableRecord
  2
0
 70
     0
 62
     7
  6
CONTINOUS
370
    -3
390
F
347
8A69
348
0
  0
LAYER
  5
2F
102
{ACAD_XDICTIONARY
360
8ACE
102
}
330
2
100
AcDbSymbolTableRecord
100
AcDbLayerTableRecord
  2
10
 70
     0
 62
     4
  6
CONTINOUS
370
    -3
390
F
347
8A69
348
0
  0
LAYER
  5
31
102
{ACAD_XDICTIONARY
360
8AD0
102
}
330
2
100
AcDbSymbolTableRecord
100
AcDbLayerTableRecord
  2
12
 70
     0
 62
     3
  6
CONTINOUS
370
    -3
390
F
347
8A69
348
0
  0
LAYER
  5
35
102
{ACAD_XDICTIONARY
360
8AD2
102
}
330
2
100
AcDbSymbolTableRecord
100
AcDbLayerTableRecord
  2
16
 70
     0
 62
     6
  6
DASHDOT
370
    -3
390
F
347
8A69
348
0
  0
LAYER
  5
38
102
{ACAD_XDICTIONARY
360
8AD4
102
}
330
2
100
AcDbSymbolTableRecord
100
AcDbLayerTableRecord
  2
19
 70
     0
 62
     7
  6
CONTINOUS
370
    -3
390
F
347
8A69
348
0
  0
LAYER
  5
3D
102
{ACAD_XDICTIONARY
360
8AD6
102
}
330
2
100
AcDbSymbolTableRecord
100
AcDbLayerTableRecord
  2
24
 70
     0
 62
     7
  6
CONTINOUS
370
    -3
390
F
347
8A69
348
0
  0
LAYER
  5
3A2
102
{ACAD_XDICTIONARY
360
8AD8
102
}
330
2
100
AcDbSymbolTableRecord
100
AcDbLayerTableRecord
  2
30
 70
     0
 62
     9
  6
CONTINUOUS
370
    -3
390
F
347
8A69
348
0
  0
LAYER
  5
3A4
330
2
100
AcDbSymbolTableRecord
100
AcDbLayerTableRecord
  2
DEFPOINTS
 70
     0
 62
     7
  6
CONTINUOUS
290
     0
370
    -3
390
F
347
8A69
348
0
  0
LAYER
  5
3BBA
102
{ACAD_XDICTIONARY
360
8ADA
102
}
330
2
100
AcDbSymbolTableRecord
100
AcDbLayerTableRecord
  2
18
 70
     0
 62
     5
  6
DIVIDE
370
    -3
390
F
347
8A69
348
0
  0
LAYER
  5
67A8
102
{ACAD_XDICTIONARY
360
8ADC
102
}
330
2
100
AcDbSymbolTableRecord
100
AcDbLayerTableRecord
  2
11
 70
     0
 62
     1
  6
CONTINOUS
370
    -3
390
F
347
8A69
348
0
  0
LAYER
  5
7837
102
{ACAD_XDICTIONARY
360
8ADE
102
}
330
2
100
AcDbSymbolTableRecord
100
AcDbLayerTableRecord
  2
17
 70
     0
 62
     2
  6
DASHDOT
370
    -3
390
F
347
8A69
348
0
  0
LAYER
  5
9133
102
{ACAD_XDICTIONARY
360
9134
102
}
330
2
100
AcDbSymbolTableRecord
100
AcDbLayerTableRecord
  2
240
 70
     0
 62
     7
  6
SLD-実線
370
    -3
390
F
347
8A69
348
0
  0
ENDTAB
  0
TABLE
  2
STYLE
  5
3
330
0
100
AcDbSymbolTable
 70
     3
  0
STYLE
  5
11
330
3
100
AcDbSymbolTableRecord
100
AcDbTextStyleTableRecord
  2
STANDARD
 70
     0
 40
0.0
 41
1.0
 50
0.0
 71
     0
 42
2.0
  3
txt.shx
  4
bigfont.shx
  0
STYLE
  5
42
330
3
100
AcDbSymbolTableRecord
100
AcDbTextStyleTableRecord
  2
STANDARD1
 70
     0
 40
0.0
 41
1.0
 50
0.0
 71
     0
 42
5.0
  3
MONOTXT
  4
BIGFONT
  0
STYLE
  5
1171A
330
3
100
AcDbSymbolTableRecord
100
AcDbTextStyleTableRecord
  2
SLDTEXTSTYLE0
 70
     0
 40
0.0
 41
1.0
 50
0.0
 71
     0
 42
3.0
  3
MS UI Gothic.ttf
  4

1001
ACAD
1000
MS UI Gothic
1071
      306
  0
ENDTAB
  0
TABLE
  2
VIEW
  5
6
330
0
100
AcDbSymbolTable
 70
     3
  0
VIEW
  5
230C
330
6
100
AcDbSymbolTableRecord
100
AcDbViewTableRecord
  2
OLE1
 70
     0
 40
148.912488
 10
429.497628
 20
2.560627
 41
103.145806
 11
0.0
 21
0.0
 31
1.0
 12
0.0
 22
0.0
 32
0.0
 42
50.0
 43
0.0
 44
0.0
 50
0.0
 71
     0
281
     0
 72
     0
 73
     0
348
8A77
  0
VIEW
  5
230E
330
6
100
AcDbSymbolTableRecord
100
AcDbViewTableRecord
  2
OLE2
 70
     0
 40
170.778692
 10
322.66497
 20
-5.978304
 41
102.467215
 11
0.0
 21
0.0
 31
1.0
 12
0.0
 22
0.0
 32
0.0
 42
50.0
 43
0.0
 44
0.0
 50
0.0
 71
     0
281
     0
 72
     0
 73
     0
348
8A77
  0
VIEW
  5
23AA
330
6
100
AcDbSymbolTableRecord
100
AcDbViewTableRecord
  2
OLE3
 70
     0
 40
591.7897389999998
 10
84.79698199999999
 20
-46.09335999999998
 41
388.792096
 11
0.0
 21
0.0
 31
1.0
 12
0.0
 22
0.0
 32
0.0
 42
50.0
 43
0.0
 44
0.0
 50
0.0
 71
     0
281
     0
 72
     0
 73
     0
348
8A77
  0
ENDTAB
  0
TABLE
  2
UCS
  5
7
330
0
100
AcDbSymbolTable
 70
     0
  0
ENDTAB
  0
TABLE
  2
APPID
  5
9
330
0
100
AcDbSymbolTable
 70
    11
  0
APPID
  5
12
330
9
100
AcDbSymbolTableRecord
100
AcDbRegAppTableRecord
  2
ACAD
 70
     0
  0
APPID
  5
ECD
330
9
100
AcDbSymbolTableRecord
100
AcDbRegAppTableRecord
  2
CONTENTBLOCKICON
 70
     0
  0
APPID
  5
8AA9
330
9
100
AcDbSymbolTableRecord
100
AcDbRegAppTableRecord
  2
ACAD_NAV_VCDISPLAY
 70
     0
  0
APPID
  5
1038A
330
9
100
AcDbSymbolTableRecord
100
AcDbRegAppTableRecord
  2
ACAD_EXEMPT_FROM_CAD_STANDARDS
 70
     0
  0
APPID
  5
10D03
330
9
100
AcDbSymbolTableRecord
100
AcDbRegAppTableRecord
  2
ACAD_PSEXT
 70
     0
  0
APPID
  5
1147C
330
9
100
AcDbSymbolTableRecord
100
AcDbRegAppTableRecord
  2
ACAD_DSTYLE_DIMJAG
 70
     0
  0
APPID
  5
1147D
330
9
100
AcDbSymbolTableRecord
100
AcDbRegAppTableRecord
  2
ACAD_DSTYLE_DIMTALN
 70
     0
  0
APPID
  5
16BC0
330
9
100
AcDbSymbolTableRecord
100
AcDbRegAppTableRecord
  2
DCO15
 70
     0
  0
APPID
  5
16BC1
330
9
100
AcDbSymbolTableRecord
100
AcDbRegAppTableRecord
  2
ACAD_MLEADERVER
 70
     0
  0
APPID
  5
16BC2
330
9
100
AcDbSymbolTableRecord
100
AcDbRegAppTableRecord
  2
ACAD_DSTYLE_DIMBREAK
 70
     0
  0
APPID
  5
17476
330
9
100
AcDbSymbolTableRecord
100
AcDbRegAppTableRecord
  2
ACAUTHENVIRON
 70
     0
  0
ENDTAB
  0
TABLE
  2
DIMSTYLE
  5
A
330
0
100
AcDbSymbolTable
 70
     3
100
AcDbDimStyleTable
 71
     2
340
175
340
1171B
  0
DIMSTYLE
105
175
102
{ACAD_REACTORS
330
132B9
330
132BA
330
132CC
330
132CD
330
132D1
330
133F8
330
133F9
330
1343E
330
13441
330
13442
330
13443
330
13446
330
13481
330
13482
330
13483
330
13486
330
1349D
330
1349E
330
134A6
330
134A7
330
15D95
330
15D96
330
1684C
330
1684D
330
1684E
330
1684F
330
16850
330
16852
330
19A04
330
19A46
330
1C0DC
330
1C0FB
330
1C37F
330
1C38C
102
}
330
A
100
AcDbSymbolTableRecord
100
AcDbDimStyleTableRecord
  2
STANDARD
 70
     0
 41
2.0
 42
1.0
 43
0.5
 44
0.5
 69
     1
 73
     0
 74
     0
 77
     3
 78
    12
140
8.0
147
3.0
178
   256
271
     1
272
     1
340
11
341
3B2
342
3B2
1001
ACAD_DSTYLE_DIMJAG
1070
   388
1040
1.5
1001
ACAD_DSTYLE_DIMTALN
1070
   392
1070
     0
  0
DIMSTYLE
105
1171B
102
{ACAD_REACTORS
330
145FB
330
1461E
330
132BC
330
13440
330
133FA
330
13447
330
16851
330
1C0FC
330
1C39C
102
}
330
A
100
AcDbSymbolTableRecord
100
AcDbDimStyleTableRecord
  2
STANDARD1
 70
     0
 41
2.0
 42
3.0
 43
0.5
 44
0.5
 77
     3
 78
    12
140
8.0
147
3.0
172
     1
271
     1
272
     1
289
     2
340
11
341
3B2
342
3B2
1001
ACAD_DSTYLE_DIMJAG
1070
   388
1040
1.5
1001
ACAD_DSTYLE_DIMTALN
1070
   392
1070
     0
  0
ENDTAB
  0
TABLE
  2
BLOCK_RECORD
  5
1
330
0
100
AcDbSymbolTable
 70
    54
  0
BLOCK_RECORD
  5
1E
102
{ACAD_XDICTIONARY
360
178
102
}
330
1
100
AcDbSymbolTableRecord
100
AcDbBlockTableRecord
  2
*MODEL_SPACE
340
8A4C
 70
     0
280
     1
281
     0
  0
BLOCK_RECORD
  5
1A
102
{ACAD_XDICTIONARY
360
17A
102
}
330
1
100
AcDbSymbolTableRecord
100
AcDbBlockTableRecord
  2
*PAPER_SPACE
340
8A4D
 70
     0
280
     1
281
     0
  0
BLOCK_RECORD
  5
3B2
330
1
100
AcDbSymbolTableRecord
100
AcDbBlockTableRecord
  2
_OPEN
340
0
102
{BLKREFS
331
1C22E
331
1C22F
331
1C240
331
1C241
331
1C393
331
1C394
331
1C3C2
331
1C3C3
331
1C3CB
331
1C3CC
331
1C3D4
331
1C3D5
331
1BEFC
331
1BEFD
331
1BF0D
331
1BF0E
331
1BF16
331
1BF17
331
1BF1F
331
1BF20
331
1BF31
331
1BF32
331
1BF4C
331
1BF4D
331
1BF56
331
1BF57
331
1BF5F
331
1BF60
331
1BF67
331
1BF68
331
1BF70
331
1BF71
331
1BF79
331
1BF7A
331
1BF94
331
1BF95
331
1BF9F
331
1BFA0
331
1BFD5
331
1BFD6
331
1BFDE
331
1BFDF
331
1BFE7
331
1BFE8
331
1BFF0
331
1BFF1
331
1BFF9
331
1C000
331
1C064
331
1C065
331
1C06D
331
1C06E
331
1C089
331
1C08A
331
1C092
331
1C093
331
1C09B
331
1C09C
331
1C0A6
331
1C0A7
331
1C0AF
331
1C0B0
331
1C0B9
331
1C0BA
331
1C161
331
1C162
331
1C17A
331
1C17B
331
1C183
331
1C184
331
1C1A0
331
1C1A1
331
1C1AB
331
1C1AC
331
1C355
331
1C356
331
1C35E
331
1C35F
331
1C367
331
1C368
331
1C370
331
1C371
331
1C379
331
1C37A
331
1C386
331
1C387
331
1C2C3
331
1C2C4
331
1C2DA
331
1C2DB
102
}
 70
     0
280
     1
281
     0
  0
BLOCK_RECORD
  5
12F00
330
1
100
AcDbSymbolTableRecord
100
AcDbBlockTableRecord
  2
SW_CENTERMARKSYMBOL_20
340
0
102
{BLKREFS
331
13487
331
13493
102
}
 70
     0
280
     1
281
     0
  0
BLOCK_RECORD
  5
12F0B
330
1
100
AcDbSymbolTableRecord
100
AcDbBlockTableRecord
  2
SW_CENTERMARKSYMBOL_21
340
0
102
{BLKREFS
331
13494
331
13488
102
}
 70
     0
280
     1
281
     0
  0
BLOCK_RECORD
  5
12F16
330
1
100
AcDbSymbolTableRecord
100
AcDbBlockTableRecord
  2
SW_CENTERMARKSYMBOL_22
340
0
102
{BLKREFS
331
13495
331
13489
102
}
 70
     0
280
     1
281
     0
  0
BLOCK_RECORD
  5
12F21
330
1
100
AcDbSymbolTableRecord
100
AcDbBlockTableRecord
  2
SW_CENTERMARKSYMBOL_23
340
0
102
{BLKREFS
331
13496
331
1348A
102
}
 70
     0
280
     1
281
     0
  0
BLOCK_RECORD
  5
134A9
330
1
100
AcDbSymbolTableRecord
100
AcDbBlockTableRecord
  2
*D5
340
0
 70
     0
280
     1
281
     0
  0
BLOCK_RECORD
  5
134B5
330
1
100
AcDbSymbolTableRecord
100
AcDbBlockTableRecord
  2
*D6
340
0
 70
     0
280
     1
281
     0
  0
BLOCK_RECORD
  5
134C1
330
1
100
AcDbSymbolTableRecord
100
AcDbBlockTableRecord
  2
*D7
340
0
 70
     0
280
     1
281
     0
  0
BLOCK_RECORD
  5
134D7
330
1
100
AcDbSymbolTableRecord
100
AcDbBlockTableRecord
  2
*D8
340
0
 70
     0
280
     1
281
     0
  0
BLOCK_RECORD
  5
134E3
330
1
100
AcDbSymbolTableRecord
100
AcDbBlockTableRecord
  2
*D9
340
0
 70
     0
280
     1
281
     0
  0
BLOCK_RECORD
  5
134EF
330
1
100
AcDbSymbolTableRecord
100
AcDbBlockTableRecord
  2
*D10
340
0
 70
     0
280
     1
281
     0
  0
BLOCK_RECORD
  5
13507
330
1
100
AcDbSymbolTableRecord
100
AcDbBlockTableRecord
  2
*D11
340
0
 70
     0
280
     1
281
     0
  0
BLOCK_RECORD
  5
13513
330
1
100
AcDbSymbolTableRecord
100
AcDbBlockTableRecord
  2
*D12
340
0
 70
     0
280
     1
281
     0
  0
BLOCK_RECORD
  5
1352B
330
1
100
AcDbSymbolTableRecord
100
AcDbBlockTableRecord
  2
*D13
340
0
 70
     0
280
     1
281
     0
  0
BLOCK_RECORD
  5
13537
330
1
100
AcDbSymbolTableRecord
100
AcDbBlockTableRecord
  2
*D14
340
0
 70
     0
280
     1
281
     0
  0
BLOCK_RECORD
  5
13543
330
1
100
AcDbSymbolTableRecord
100
AcDbBlockTableRecord
  2
*D15
340
0
 70
     0
280
     1
281
     0
  0
BLOCK_RECORD
  5
1358A
330
1
100
AcDbSymbolTableRecord
100
AcDbBlockTableRecord
  2
*D16
340
0
 70
     0
280
     1
281
     0
  0
BLOCK_RECORD
  5
13596
330
1
100
AcDbSymbolTableRecord
100
AcDbBlockTableRecord
  2
*D17
340
0
 70
     0
280
     1
281
     0
  0
BLOCK_RECORD
  5
135A0
330
1
100
AcDbSymbolTableRecord
100
AcDbBlockTableRecord
  2
*D18
340
0
 70
     0
280
     1
281
     0
  0
BLOCK_RECORD
  5
135AD
330
1
100
AcDbSymbolTableRecord
100
AcDbBlockTableRecord
  2
*D19
340
0
 70
     0
280
     1
281
     0
  0
BLOCK_RECORD
  5
135B9
330
1
100
AcDbSymbolTableRecord
100
AcDbBlockTableRecord
  2
*D20
340
0
 70
     0
280
     1
281
     0
  0
BLOCK_RECORD
  5
135C5
330
1
100
AcDbSymbolTableRecord
100
AcDbBlockTableRecord
  2
*D21
340
0
 70
     0
280
     1
281
     0
  0
BLOCK_RECORD
  5
135D1
330
1
100
AcDbSymbolTableRecord
100
AcDbBlockTableRecord
  2
*D22
340
0
 70
     0
280
     1
281
     0
  0
BLOCK_RECORD
  5
135EA
330
1
100
AcDbSymbolTableRecord
100
AcDbBlockTableRecord
  2
*D23
340
0
 70
     0
280
     1
281
     0
  0
BLOCK_RECORD
  5
135F6
330
1
100
AcDbSymbolTableRecord
100
AcDbBlockTableRecord
  2
*D24
340
0
 70
     0
280
     1
281
     0
  0
BLOCK_RECORD
  5
13602
330
1
100
AcDbSymbolTableRecord
100
AcDbBlockTableRecord
  2
*D25
340
0
 70
     0
280
     1
281
     0
  0
BLOCK_RECORD
  5
13626
330
1
100
AcDbSymbolTableRecord
100
AcDbBlockTableRecord
  2
*D26
340
0
 70
     0
280
     1
281
     0
  0
BLOCK_RECORD
  5
13632
330
1
100
AcDbSymbolTableRecord
100
AcDbBlockTableRecord
  2
*D27
340
0
 70
     0
280
     1
281
     0
  0
BLOCK_RECORD
  5
1363E
330
1
100
AcDbSymbolTableRecord
100
AcDbBlockTableRecord
  2
*D28
340
0
 70
     0
280
     1
281
     0
  0
BLOCK_RECORD
  5
13654
330
1
100
AcDbSymbolTableRecord
100
AcDbBlockTableRecord
  2
*D29
340
0
 70
     0
280
     1
281
     0
  0
BLOCK_RECORD
  5
13660
330
1
100
AcDbSymbolTableRecord
100
AcDbBlockTableRecord
  2
*D30
340
0
 70
     0
280
     1
281
     0
  0
BLOCK_RECORD
  5
145FC
330
1
100
AcDbSymbolTableRecord
100
AcDbBlockTableRecord
  2
*D31
340
0
 70
     0
280
     1
281
     0
  0
BLOCK_RECORD
  5
1461F
330
1
100
AcDbSymbolTableRecord
100
AcDbBlockTableRecord
  2
*D32
340
0
 70
     0
280
     1
281
     0
  0
BLOCK_RECORD
  5
15D97
330
1
100
AcDbSymbolTableRecord
100
AcDbBlockTableRecord
  2
*D33
340
0
 70
     0
280
     1
281
     0
  0
BLOCK_RECORD
  5
15DA3
330
1
100
AcDbSymbolTableRecord
100
AcDbBlockTableRecord
  2
*D34
340
0
 70
     0
280
     1
281
     0
  0
BLOCK_RECORD
  5
16855
330
1
100
AcDbSymbolTableRecord
100
AcDbBlockTableRecord
  2
*D35
340
0
 70
     0
280
     1
281
     0
  0
BLOCK_RECORD
  5
16861
330
1
100
AcDbSymbolTableRecord
100
AcDbBlockTableRecord
  2
*D36
340
0
 70
     0
280
     1
281
     0
  0
BLOCK_RECORD
  5
1686E
330
1
100
AcDbSymbolTableRecord
100
AcDbBlockTableRecord
  2
*D37
340
0
 70
     0
280
     1
281
     0
  0
BLOCK_RECORD
  5
1687A
330
1
100
AcDbSymbolTableRecord
100
AcDbBlockTableRecord
  2
*D38
340
0
 70
     0
280
     1
281
     0
  0
BLOCK_RECORD
  5
16886
330
1
100
AcDbSymbolTableRecord
100
AcDbBlockTableRecord
  2
*D39
340
0
 70
     0
280
     1
281
     0
  0
BLOCK_RECORD
  5
16892
330
1
100
AcDbSymbolTableRecord
100
AcDbBlockTableRecord
  2
*D40
340
0
 70
     0
280
     1
281
     0
  0
BLOCK_RECORD
  5
168A0
330
1
100
AcDbSymbolTableRecord
100
AcDbBlockTableRecord
  2
*D41
340
0
 70
     0
280
     1
281
     0
  0
BLOCK_RECORD
  5
19A05
330
1
100
AcDbSymbolTableRecord
100
AcDbBlockTableRecord
  2
*D42
340
0
 70
     0
280
     1
281
     0
  0
BLOCK_RECORD
  5
19A47
330
1
100
AcDbSymbolTableRecord
100
AcDbBlockTableRecord
  2
*D43
340
0
 70
     0
280
     1
281
     0
  0
BLOCK_RECORD
  5
1BE4E
330
1
100
AcDbSymbolTableRecord
100
AcDbBlockTableRecord
  2
*D44
340
0
 70
     0
280
     1
281
     0
  0
BLOCK_RECORD
  5
1C0DD
330
1
100
AcDbSymbolTableRecord
100
AcDbBlockTableRecord
  2
*D45
340
0
 70
     0
280
     1
281
     0
  0
BLOCK_RECORD
  5
1C0FD
330
1
100
AcDbSymbolTableRecord
100
AcDbBlockTableRecord
  2
*D46
340
0
 70
     0
280
     1
281
     0
  0
BLOCK_RECORD
  5
1C109
330
1
100
AcDbSymbolTableRecord
100
AcDbBlockTableRecord
  2
*D47
340
0
 70
     0
280
     1
281
     0
  0
BLOCK_RECORD
  5
1C380
330
1
100
AcDbSymbolTableRecord
100
AcDbBlockTableRecord
  2
*D51
340
0
 70
     0
280
     1
281
     0
  0
BLOCK_RECORD
  5
1C38D
330
1
100
AcDbSymbolTableRecord
100
AcDbBlockTableRecord
  2
*D52
340
0
 70
     0
280
     1
281
     0
  0
BLOCK_RECORD
  5
1C39D
330
1
100
AcDbSymbolTableRecord
100
AcDbBlockTableRecord
  2
*D53
340
0
 70
     0
280
     1
281
     0
  0
ENDTAB
  0
ENDSEC
  0
SECTION
  2
BLOCKS
  0
BLOCK
  5
1F
330
1E
100
AcDbEntity
  8
0
100
AcDbBlockBegin
  2
*MODEL_SPACE
 70
     0
 10
0.0
 20
0.0
 30
0.0
  3
*MODEL_SPACE
  1

  0
ENDBLK
  5
20
330
1E
100
AcDbEntity
  8
0
100
AcDbBlockEnd
  0
BLOCK
  5
1B
330
1A
100
AcDbEntity
 67
     1
  8
0
100
AcDbBlockBegin
  2
*PAPER_SPACE
 70
     0
 10
0.0
 20
0.0
 30
0.0
  3
*PAPER_SPACE
  1

  0
ENDBLK
  5
1C
330
1A
100
AcDbEntity
 67
     1
  8
0
100
AcDbBlockEnd
  0
BLOCK
  5
3B6
330
3B2
100
AcDbEntity
  8
0
100
AcDbBlockBegin
  2
_OPEN
 70
     0
 10
0.0
 20
0.0
 30
0.0
  3
_OPEN
  1

  0
LINE
  5
3B3
330
3B2
100
AcDbEntity
  8
30
  6
Continuous
 62
     0
100
AcDbLine
 10
-1.0
 20
0.166667
 30
0.0
 11
0.0
 21
0.0
 31
0.0
  0
LINE
  5
3B4
330
3B2
100
AcDbEntity
  8
30
  6
Continuous
 62
     0
100
AcDbLine
 10
-1.0
 20
-0.166667
 30
0.0
 11
0.0
 21
0.0
 31
0.0
  0
LINE
  5
3B5
330
3B2
100
AcDbEntity
  8
30
  6
Continuous
 62
     0
100
AcDbLine
 10
0.0
 20
0.0
 30
0.0
 11
-1.0
 21
0.0
 31
0.0
  0
ENDBLK
  5
3B7
330
3B2
100
AcDbEntity
  8
0
100
AcDbBlockEnd
  0
BLOCK
  5
12F01
330
12F00
100
AcDbEntity
  8
0
100
AcDbBlockBegin
  2
SW_CENTERMARKSYMBOL_20
 70
     0
 10
0.0
 20
0.0
 30
0.0
  3
SW_CENTERMARKSYMBOL_20
  1
SW_CENTERMARKSYMBOL_20
  0
LINE
  5
12F02
330
12F00
100
AcDbEntity
  8
240
 62
     0
100
AcDbLine
 10
0.0
 20
0.0
 30
0.0
 11
0.0
 21
0.5
 31
0.0
  0
LINE
  5
12F03
330
12F00
100
AcDbEntity
  8
240
 62
     0
100
AcDbLine
 10
0.0
 20
0.0
 30
0.0
 11
-0.5
 21
0.0
 31
0.0
  0
LINE
  5
12F04
330
12F00
100
AcDbEntity
  8
240
 62
     0
100
AcDbLine
 10
0.0
 20
0.0
 30
0.0
 11
0.0
 21
-0.5
 31
0.0
  0
LINE
  5
12F05
330
12F00
100
AcDbEntity
  8
240
 62
     0
100
AcDbLine
 10
0.0
 20
0.0
 30
0.0
 11
0.5
 21
0.0
 31
0.0
  0
LINE
  5
12F06
330
12F00
100
AcDbEntity
  8
240
 62
     0
100
AcDbLine
 10
0.0
 20
1.0
 30
0.0
 11
0.0
 21
1.9
 31
0.0
  0
LINE
  5
12F07
330
12F00
100
AcDbEntity
  8
240
 62
     0
100
AcDbLine
 10
-1.0
 20
0.0
 30
0.0
 11
-1.9
 21
0.0
 31
0.0
  0
LINE
  5
12F08
330
12F00
100
AcDbEntity
  8
240
 62
     0
100
AcDbLine
 10
0.0
 20
-1.0
 30
0.0
 11
0.0
 21
-1.9
 31
0.0
  0
LINE
  5
12F09
330
12F00
100
AcDbEntity
  8
240
 62
     0
100
AcDbLine
 10
1.0
 20
0.0
 30
0.0
 11
1.9
 21
0.0
 31
0.0
  0
ENDBLK
  5
12F0A
330
12F00
100
AcDbEntity
  8
0
100
AcDbBlockEnd
  0
BLOCK
  5
12F0C
330
12F0B
100
AcDbEntity
  8
0
100
AcDbBlockBegin
  2
SW_CENTERMARKSYMBOL_21
 70
     0
 10
0.0
 20
0.0
 30
0.0
  3
SW_CENTERMARKSYMBOL_21
  1
SW_CENTERMARKSYMBOL_21
  0
LINE
  5
12F0D
330
12F0B
100
AcDbEntity
  8
240
 62
     0
100
AcDbLine
 10
0.0
 20
0.0
 30
0.0
 11
0.0
 21
0.5
 31
0.0
  0
LINE
  5
12F0E
330
12F0B
100
AcDbEntity
  8
240
 62
     0
100
AcDbLine
 10
0.0
 20
0.0
 30
0.0
 11
-0.5
 21
0.0
 31
0.0
  0
LINE
  5
12F0F
330
12F0B
100
AcDbEntity
  8
240
 62
     0
100
AcDbLine
 10
0.0
 20
0.0
 30
0.0
 11
0.0
 21
-0.5
 31
0.0
  0
LINE
  5
12F10
330
12F0B
100
AcDbEntity
  8
240
 62
     0
100
AcDbLine
 10
0.0
 20
0.0
 30
0.0
 11
0.5
 21
0.0
 31
0.0
  0
LINE
  5
12F11
330
12F0B
100
AcDbEntity
  8
240
 62
     0
100
AcDbLine
 10
0.0
 20
1.0
 30
0.0
 11
0.0
 21
1.9
 31
0.0
  0
LINE
  5
12F12
330
12F0B
100
AcDbEntity
  8
240
 62
     0
100
AcDbLine
 10
-1.0
 20
0.0
 30
0.0
 11
-1.9
 21
0.0
 31
0.0
  0
LINE
  5
12F13
330
12F0B
100
AcDbEntity
  8
240
 62
     0
100
AcDbLine
 10
0.0
 20
-1.0
 30
0.0
 11
0.0
 21
-1.9
 31
0.0
  0
LINE
  5
12F14
330
12F0B
100
AcDbEntity
  8
240
 62
     0
100
AcDbLine
 10
1.0
 20
0.0
 30
0.0
 11
1.9
 21
0.0
 31
0.0
  0
ENDBLK
  5
12F15
330
12F0B
100
AcDbEntity
  8
0
100
AcDbBlockEnd
  0
BLOCK
  5
12F17
330
12F16
100
AcDbEntity
  8
0
100
AcDbBlockBegin
  2
SW_CENTERMARKSYMBOL_22
 70
     0
 10
0.0
 20
0.0
 30
0.0
  3
SW_CENTERMARKSYMBOL_22
  1
SW_CENTERMARKSYMBOL_22
  0
LINE
  5
12F18
330
12F16
100
AcDbEntity
  8
240
 62
     0
100
AcDbLine
 10
0.0
 20
0.0
 30
0.0
 11
0.0
 21
0.5
 31
0.0
  0
LINE
  5
12F19
330
12F16
100
AcDbEntity
  8
240
 62
     0
100
AcDbLine
 10
0.0
 20
0.0
 30
0.0
 11
-0.5
 21
0.0
 31
0.0
  0
LINE
  5
12F1A
330
12F16
100
AcDbEntity
  8
240
 62
     0
100
AcDbLine
 10
0.0
 20
0.0
 30
0.0
 11
0.0
 21
-0.5
 31
0.0
  0
LINE
  5
12F1B
330
12F16
100
AcDbEntity
  8
240
 62
     0
100
AcDbLine
 10
0.0
 20
0.0
 30
0.0
 11
0.5
 21
0.0
 31
0.0
  0
LINE
  5
12F1C
330
12F16
100
AcDbEntity
  8
240
 62
     0
100
AcDbLine
 10
0.0
 20
1.0
 30
0.0
 11
0.0
 21
1.9
 31
0.0
  0
LINE
  5
12F1D
330
12F16
100
AcDbEntity
  8
240
 62
     0
100
AcDbLine
 10
-1.0
 20
0.0
 30
0.0
 11
-1.9
 21
0.0
 31
0.0
  0
LINE
  5
12F1E
330
12F16
100
AcDbEntity
  8
240
 62
     0
100
AcDbLine
 10
0.0
 20
-1.0
 30
0.0
 11
0.0
 21
-1.9
 31
0.0
  0
LINE
  5
12F1F
330
12F16
100
AcDbEntity
  8
240
 62
     0
100
AcDbLine
 10
1.0
 20
0.0
 30
0.0
 11
1.9
 21
0.0
 31
0.0
  0
ENDBLK
  5
12F20
330
12F16
100
AcDbEntity
  8
0
100
AcDbBlockEnd
  0
BLOCK
  5
12F22
330
12F21
100
AcDbEntity
  8
0
100
AcDbBlockBegin
  2
SW_CENTERMARKSYMBOL_23
 70
     0
 10
0.0
 20
0.0
 30
0.0
  3
SW_CENTERMARKSYMBOL_23
  1
SW_CENTERMARKSYMBOL_23
  0
LINE
  5
12F23
330
12F21
100
AcDbEntity
  8
240
 62
     0
100
AcDbLine
 10
0.0
 20
0.0
 30
0.0
 11
0.0
 21
0.5
 31
0.0
  0
LINE
  5
12F24
330
12F21
100
AcDbEntity
  8
240
 62
     0
100
AcDbLine
 10
0.0
 20
0.0
 30
0.0
 11
-0.5
 21
0.0
 31
0.0
  0
LINE
  5
12F25
330
12F21
100
AcDbEntity
  8
240
 62
     0
100
AcDbLine
 10
0.0
 20
0.0
 30
0.0
 11
0.0
 21
-0.5
 31
0.0
  0
LINE
  5
12F26
330
12F21
100
AcDbEntity
  8
240
 62
     0
100
AcDbLine
 10
0.0
 20
0.0
 30
0.0
 11
0.5
 21
0.0
 31
0.0
  0
LINE
  5
12F27
330
12F21
100
AcDbEntity
  8
240
 62
     0
100
AcDbLine
 10
0.0
 20
1.0
 30
0.0
 11
0.0
 21
1.9
 31
0.0
  0
LINE
  5
12F28
330
12F21
100
AcDbEntity
  8
240
 62
     0
100
AcDbLine
 10
-1.0
 20
0.0
 30
0.0
 11
-1.9
 21
0.0
 31
0.0
  0
LINE
  5
12F29
330
12F21
100
AcDbEntity
  8
240
 62
     0
100
AcDbLine
 10
0.0
 20
-1.0
 30
0.0
 11
0.0
 21
-1.9
 31
0.0
  0
LINE
  5
12F2A
330
12F21
100
AcDbEntity
  8
240
 62
     0
100
AcDbLine
 10
1.0
 20
0.0
 30
0.0
 11
1.9
 21
0.0
 31
0.0
  0
ENDBLK
  5
12F2B
330
12F21
100
AcDbEntity
  8
0
100
AcDbBlockEnd
  0
BLOCK
  5
134AA
330
134A9
100
AcDbEntity
  8
0
100
AcDbBlockBegin
  2
*D5
 70
     1
 10
0.0
 20
0.0
 30
0.0
  3
*D5
  1

  0
LINE
  5
1C23D
330
134A9
100
AcDbEntity
  8
30
  6
Continuous
 62
     0
440
 16777216
370
    -2
100
AcDbLine
 10
146.7792185113212
 20
318.4531278759597
 30
0.0
 11
260.4142741381239
 21
318.4531278759597
 31
0.0
  0
LINE
  5
1C23E
330
134A9
100
AcDbEntity
  8
30
  6
Continuous
 62
     0
440
 16777216
370
    -2
100
AcDbLine
 10
146.7792185113212
 20
104.4531278759598
 30
0.0
 11
260.4142741381238
 21
104.4531278759597
 31
0.0
  0
LINE
  5
1C23F
330
134A9
100
AcDbEntity
  8
30
  6
Continuous
 62
     0
440
 16777216
370
    -2
100
AcDbLine
 10
259.9142741381239
 20
316.4531278759597
 30
0.0
 11
259.9142741381238
 21
106.4531278759597
 31
0.0
  0
INSERT
  5
1C240
330
134A9
100
AcDbEntity
  8
30
  6
Continuous
 62
     0
440
 16777216
370
    -2
100
AcDbBlockReference
  2
_OPEN
 10
259.9142741381239
 20
318.4531278759597
 30
0.0
 41
2.0
 42
2.0
 43
2.0
 50
90.0
  0
INSERT
  5
1C241
330
134A9
100
AcDbEntity
  8
30
  6
Continuous
 62
     0
440
 16777216
370
    -2
100
AcDbBlockReference
  2
_OPEN
 10
259.9142741381238
 20
104.4531278759597
 30
0.0
 41
2.0
 42
2.0
 43
2.0
 50
270.0
  0
MTEXT
  5
1C242
330
134A9
100
AcDbEntity
  8
30
  6
Continuous
440
 16777216
100
AcDbMText
 10
252.9142741381238
 20
211.4531278759602
 30
0.0
 40
8.0
 41
0.0
 46
0.0
 71
     5
 72
     1
  1
\A1;214
 11
0.0000000000000001
 21
1.0
 31
0.0
 73
     1
 44
1.0
 90
        3
 63
     9
421
 13158600
 45
1.25
441
        0
  0
POINT
  5
1C243
330
134A9
100
AcDbEntity
  8
DEFPOINTS
  6
Continuous
 62
     0
440
 16777216
100
AcDbPoint
 10
145.7792185113212
 20
318.4531278759597
 30
0.0
  0
POINT
  5
1C244
330
134A9
100
AcDbEntity
  8
DEFPOINTS
  6
Continuous
 62
     0
440
 16777216
100
AcDbPoint
 10
145.7792185113212
 20
104.4531278759598
 30
0.0
  0
POINT
  5
1C245
330
134A9
100
AcDbEntity
  8
DEFPOINTS
  6
Continuous
 62
     0
440
 16777216
100
AcDbPoint
 10
259.9142741381238
 20
104.4531278759597
 30
0.0
  0
ENDBLK
  5
134AB
330
134A9
100
AcDbEntity
  8
0
100
AcDbBlockEnd
  0
BLOCK
  5
134B6
330
134B5
100
AcDbEntity
  8
0
100
AcDbBlockBegin
  2
*D6
 70
     1
 10
0.0
 20
0.0
 30
0.0
  3
*D6
  1

  0
LINE
  5
1C22B
330
134B5
100
AcDbEntity
  8
30
  6
Continuous
 62
     0
440
 16777216
370
    -2
100
AcDbLine
 10
100.7792185113212
 20
103.4531278759598
 30
0.0
 11
100.7792185113212
 21
52.24906144548903
 31
0.0
  0
LINE
  5
1C22C
330
134B5
100
AcDbEntity
  8
30
  6
Continuous
 62
     0
440
 16777216
370
    -2
100
AcDbLine
 10
145.7792185113212
 20
103.4531278759598
 30
0.0
 11
145.7792185113212
 21
52.24906144548903
 31
0.0
  0
LINE
  5
1C22D
330
134B5
100
AcDbEntity
  8
30
  6
Continuous
 62
     0
440
 16777216
370
    -2
100
AcDbLine
 10
102.7792185113212
 20
52.74906144548904
 30
0.0
 11
143.7792185113212
 21
52.74906144548904
 31
0.0
  0
INSERT
  5
1C22E
330
134B5
100
AcDbEntity
  8
30
  6
Continuous
 62
     0
440
 16777216
370
    -2
100
AcDbBlockReference
  2
_OPEN
 10
100.7792185113212
 20
52.74906144548904
 30
0.0
 41
2.0
 42
2.0
 43
2.0
 50
180.0
  0
INSERT
  5
1C22F
330
134B5
100
AcDbEntity
  8
30
  6
Continuous
 62
     0
440
 16777216
370
    -2
100
AcDbBlockReference
  2
_OPEN
 10
145.7792185113212
 20
52.74906144548904
 30
0.0
 41
2.0
 42
2.0
 43
2.0
  0
MTEXT
  5
1C230
330
134B5
100
AcDbEntity
  8
30
  6
Continuous
440
 16777216
100
AcDbMText
 10
123.2792185113212
 20
59.74906144548903
 30
0.0
 40
8.0
 41
0.0
 46
0.0
 71
     5
 72
     1
  1
\A1;45
 73
     1
 44
1.0
 90
        3
 63
     9
421
 13158600
 45
1.25
441
        0
  0
POINT
  5
1C231
330
134B5
100
AcDbEntity
  8
DEFPOINTS
  6
Continuous
 62
     0
440
 16777216
100
AcDbPoint
 10
100.7792185113212
 20
104.4531278759598
 30
0.0
  0
POINT
  5
1C232
330
134B5
100
AcDbEntity
  8
DEFPOINTS
  6
Continuous
 62
     0
440
 16777216
100
AcDbPoint
 10
145.7792185113212
 20
104.4531278759598
 30
0.0
  0
POINT
  5
1C233
330
134B5
100
AcDbEntity
  8
DEFPOINTS
  6
Continuous
 62
     0
440
 16777216
100
AcDbPoint
 10
145.7792185113212
 20
52.74906144548904
 30
0.0
  0
ENDBLK
  5
134B7
330
134B5
100
AcDbEntity
  8
0
100
AcDbBlockEnd
  0
BLOCK
  5
134C2
330
134C1
100
AcDbEntity
  8
0
100
AcDbBlockBegin
  2
*D7
 70
     1
 10
0.0
 20
0.0
 30
0.0
  3
*D7
  1

  0
LINE
  5
1BEF8
330
134C1
100
AcDbEntity
  8
30
  6
Continuous
 62
     0
440
 16777216
370
    -2
100
AcDbLine
 10
102.9955389769251
 20
313.9711725444391
 30
0.0
 11
103.8820671631665
 21
312.1783904118308
 31
0.0
  0
LINE
  5
1BEF9
330
134C1
100
AcDbEntity
  8
30
  6
Continuous
 62
     0
440
 16777216
370
    -2
100
AcDbLine
 10
98.56289804571822
 20
322.9350832074807
 30
0.0
 11
82.26271781475771
 21
355.8981320195629
 31
0.0
  0
LINE
  5
1BEFA
330
134C1
100
AcDbEntity
  8
30
  6
Continuous
 62
     0
440
 16777216
370
    -2
100
AcDbLine
 10
82.26271781475771
 20
355.8981320195629
 30
0.0
 11
65.92938448142439
 21
355.8981320195629
 31
0.0
  0
LINE
  5
1BEFB
330
134C1
100
AcDbEntity
  8
30
  6
Continuous
 62
     0
440
 16777216
370
    -2
100
AcDbLine
 10
102.1090107906837
 20
315.7639546770474
 30
0.0
 11
99.44942623195965
 21
321.1423010748724
 31
0.0
  0
INSERT
  5
1BEFC
330
134C1
100
AcDbEntity
  8
30
  6
Continuous
 62
     0
440
 16777216
370
    -2
100
AcDbBlockReference
  2
_OPEN
 10
102.1090107906837
 20
315.7639546770474
 30
0.0
 41
2.0
 42
2.0
 43
2.0
 50
116.3123293280506
  0
INSERT
  5
1BEFD
330
134C1
100
AcDbEntity
  8
30
  6
Continuous
 62
     0
440
 16777216
370
    -2
100
AcDbBlockReference
  2
_OPEN
 10
99.44942623195965
 20
321.1423010748724
 30
0.0
 41
2.0
 42
2.0
 43
2.0
 50
296.3123293280506
  0
MTEXT
  5
1BEFE
330
134C1
100
AcDbEntity
  8
30
  6
Continuous
 62
     0
440
 16777216
100
AcDbMText
 10
72.59605114809123
 20
362.898132019563
 30
0.0
 40
8.0
 41
0.0
 46
0.0
 71
     5
 72
     1
  1
\A1;M6
 73
     1
 44
1.0
  0
POINT
  5
1BEFF
330
134C1
100
AcDbEntity
  8
DEFPOINTS
  6
Continuous
 62
     0
440
 16777216
100
AcDbPoint
 10
99.44942623195965
 20
321.1423010748724
 30
0.0
  0
POINT
  5
1BF00
330
134C1
100
AcDbEntity
  8
DEFPOINTS
  6
Continuous
 62
     0
440
 16777216
100
AcDbPoint
 10
102.1090107906837
 20
315.7639546770474
 30
0.0
  0
ENDBLK
  5
134C3
330
134C1
100
AcDbEntity
  8
0
100
AcDbBlockEnd
  0
BLOCK
  5
134D8
330
134D7
100
AcDbEntity
  8
0
100
AcDbBlockBegin
  2
*D8
 70
     1
 10
0.0
 20
0.0
 30
0.0
  3
*D8
  1

  0
LINE
  5
1BF0A
330
134D7
100
AcDbEntity
  8
30
  6
Continuous
 62
     0
440
 16777216
370
    -2
100
AcDbLine
 10
131.2839548768724
 20
984.6282878389336
 30
0.0
 11
131.2839548768724
 21
1028.860500476664
 31
0.0
  0
LINE
  5
1BF0B
330
134D7
100
AcDbEntity
  8
30
  6
Continuous
 62
     0
440
 16777216
370
    -2
100
AcDbLine
 10
176.2839342723982
 20
984.6282878389336
 30
0.0
 11
176.2839342723982
 21
1028.860500476664
 31
0.0
  0
LINE
  5
1BF0C
330
134D7
100
AcDbEntity
  8
30
  6
Continuous
 62
     0
440
 16777216
370
    -2
100
AcDbLine
 10
133.2839548768725
 20
1028.360500476664
 30
0.0
 11
174.2839342723982
 21
1028.360500476664
 31
0.0
  0
INSERT
  5
1BF0D
330
134D7
100
AcDbEntity
  8
30
  6
Continuous
 62
     0
440
 16777216
370
    -2
100
AcDbBlockReference
  2
_OPEN
 10
131.2839548768724
 20
1028.360500476664
 30
0.0
 41
2.0
 42
2.0
 43
2.0
 50
180.0
  0
INSERT
  5
1BF0E
330
134D7
100
AcDbEntity
  8
30
  6
Continuous
 62
     0
440
 16777216
370
    -2
100
AcDbBlockReference
  2
_OPEN
 10
176.2839342723982
 20
1028.360500476664
 30
0.0
 41
2.0
 42
2.0
 43
2.0
  0
MTEXT
  5
1BF0F
330
134D7
100
AcDbEntity
  8
30
  6
Continuous
440
 16777216
100
AcDbMText
 10
153.7839445746354
 20
1035.360500476664
 30
0.0
 40
8.0
 41
0.0
 46
0.0
 71
     5
 72
     1
  1
\A1;45
 73
     1
 44
1.0
 90
        3
 63
     9
421
 13158600
 45
1.25
441
        0
  0
POINT
  5
1BF10
330
134D7
100
AcDbEntity
  8
DEFPOINTS
  6
Continuous
 62
     0
440
 16777216
100
AcDbPoint
 10
131.2839548768724
 20
983.6282878389337
 30
0.0
  0
POINT
  5
1BF11
330
134D7
100
AcDbEntity
  8
DEFPOINTS
  6
Continuous
 62
     0
440
 16777216
100
AcDbPoint
 10
176.2839342723982
 20
983.6282878389337
 30
0.0
  0
POINT
  5
1BF12
330
134D7
100
AcDbEntity
  8
DEFPOINTS
  6
Continuous
 62
     0
440
 16777216
100
AcDbPoint
 10
176.2839342723982
 20
1028.360500476664
 30
0.0
  0
ENDBLK
  5
134D9
330
134D7
100
AcDbEntity
  8
0
100
AcDbBlockEnd
  0
BLOCK
  5
134E4
330
134E3
100
AcDbEntity
  8
0
100
AcDbBlockBegin
  2
*D9
 70
     1
 10
0.0
 20
0.0
 30
0.0
  3
*D9
  1

  0
LINE
  5
1BF13
330
134E3
100
AcDbEntity
  8
30
  6
Continuous
 62
     0
440
 16777216
370
    -2
100
AcDbLine
 10
176.2839342723982
 20
984.6282878389336
 30
0.0
 11
176.2839342723982
 21
1028.860500476664
 31
0.0
  0
LINE
  5
1BF14
330
134E3
100
AcDbEntity
  8
30
  6
Continuous
 62
     0
440
 16777216
370
    -2
100
AcDbLine
 10
221.2839548768725
 20
978.5463040888553
 30
0.0
 11
221.2839548768725
 21
1028.860500476664
 31
0.0
  0
LINE
  5
1BF15
330
134E3
100
AcDbEntity
  8
30
  6
Continuous
 62
     0
440
 16777216
370
    -2
100
AcDbLine
 10
178.2839342723982
 20
1028.360500476664
 30
0.0
 11
219.2839548768725
 21
1028.360500476664
 31
0.0
  0
INSERT
  5
1BF16
330
134E3
100
AcDbEntity
  8
30
  6
Continuous
 62
     0
440
 16777216
370
    -2
100
AcDbBlockReference
  2
_OPEN
 10
176.2839342723982
 20
1028.360500476664
 30
0.0
 41
2.0
 42
2.0
 43
2.0
 50
180.0
  0
INSERT
  5
1BF17
330
134E3
100
AcDbEntity
  8
30
  6
Continuous
 62
     0
440
 16777216
370
    -2
100
AcDbBlockReference
  2
_OPEN
 10
221.2839548768725
 20
1028.360500476664
 30
0.0
 41
2.0
 42
2.0
 43
2.0
  0
MTEXT
  5
1BF18
330
134E3
100
AcDbEntity
  8
30
  6
Continuous
440
 16777216
100
AcDbMText
 10
198.7839445746353
 20
1035.360500476664
 30
0.0
 40
8.0
 41
0.0
 46
0.0
 71
     5
 72
     1
  1
\A1;45
 73
     1
 44
1.0
 90
        3
 63
     9
421
 13158600
 45
1.25
441
        0
  0
POINT
  5
1BF19
330
134E3
100
AcDbEntity
  8
DEFPOINTS
  6
Continuous
 62
     0
440
 16777216
100
AcDbPoint
 10
176.2839342723982
 20
983.6282878389337
 30
0.0
  0
POINT
  5
1BF1A
330
134E3
100
AcDbEntity
  8
DEFPOINTS
  6
Continuous
 62
     0
440
 16777216
100
AcDbPoint
 10
221.2839548768725
 20
977.5463040888553
 30
0.0
  0
POINT
  5
1BF1B
330
134E3
100
AcDbEntity
  8
DEFPOINTS
  6
Continuous
 62
     0
440
 16777216
100
AcDbPoint
 10
221.2839548768725
 20
1028.360500476664
 30
0.0
  0
ENDBLK
  5
134E5
330
134E3
100
AcDbEntity
  8
0
100
AcDbBlockEnd
  0
BLOCK
  5
134F0
330
134EF
100
AcDbEntity
  8
0
100
AcDbBlockBegin
  2
*D10
 70
     1
 10
0.0
 20
0.0
 30
0.0
  3
*D10
  1

  0
LINE
  5
1BF1C
330
134EF
100
AcDbEntity
  8
30
  6
Continuous
 62
     0
440
 16777216
370
    -2
100
AcDbLine
 10
221.2839342723983
 20
984.6282878389336
 30
0.0
 11
221.2839342723983
 21
1028.860500476664
 31
0.0
  0
LINE
  5
1BF1D
330
134EF
100
AcDbEntity
  8
30
  6
Continuous
 62
     0
440
 16777216
370
    -2
100
AcDbLine
 10
266.2839548768725
 20
978.5463040888553
 30
0.0
 11
266.2839548768725
 21
1028.860500476664
 31
0.0
  0
LINE
  5
1BF1E
330
134EF
100
AcDbEntity
  8
30
  6
Continuous
 62
     0
440
 16777216
370
    -2
100
AcDbLine
 10
223.2839342723983
 20
1028.360500476664
 30
0.0
 11
264.2839548768725
 21
1028.360500476664
 31
0.0
  0
INSERT
  5
1BF1F
330
134EF
100
AcDbEntity
  8
30
  6
Continuous
 62
     0
440
 16777216
370
    -2
100
AcDbBlockReference
  2
_OPEN
 10
221.2839342723983
 20
1028.360500476664
 30
0.0
 41
2.0
 42
2.0
 43
2.0
 50
180.0
  0
INSERT
  5
1BF20
330
134EF
100
AcDbEntity
  8
30
  6
Continuous
 62
     0
440
 16777216
370
    -2
100
AcDbBlockReference
  2
_OPEN
 10
266.2839548768725
 20
1028.360500476664
 30
0.0
 41
2.0
 42
2.0
 43
2.0
  0
MTEXT
  5
1BF21
330
134EF
100
AcDbEntity
  8
30
  6
Continuous
440
 16777216
100
AcDbMText
 10
243.7839445746354
 20
1035.360500476664
 30
0.0
 40
8.0
 41
0.0
 46
0.0
 71
     5
 72
     1
  1
\A1;45
 73
     1
 44
1.0
 90
        3
 63
     9
421
 13158600
 45
1.25
441
        0
  0
POINT
  5
1BF22
330
134EF
100
AcDbEntity
  8
DEFPOINTS
  6
Continuous
 62
     0
440
 16777216
100
AcDbPoint
 10
221.2839342723983
 20
983.6282878389337
 30
0.0
  0
POINT
  5
1BF23
330
134EF
100
AcDbEntity
  8
DEFPOINTS
  6
Continuous
 62
     0
440
 16777216
100
AcDbPoint
 10
266.2839548768725
 20
977.5463040888553
 30
0.0
  0
POINT
  5
1BF24
330
134EF
100
AcDbEntity
  8
DEFPOINTS
  6
Continuous
 62
     0
440
 16777216
100
AcDbPoint
 10
266.2839548768725
 20
1028.360500476664
 30
0.0
  0
ENDBLK
  5
134F1
330
134EF
100
AcDbEntity
  8
0
100
AcDbBlockEnd
  0
BLOCK
  5
13508
330
13507
100
AcDbEntity
  8
0
100
AcDbBlockBegin
  2
*D11
 70
     1
 10
0.0
 20
0.0
 30
0.0
  3
*D11
  1

  0
LINE
  5
1BF2E
330
13507
100
AcDbEntity
  8
30
  6
Continuous
 62
     0
440
 16777216
370
    -2
100
AcDbLine
 10
267.1626653823723
 20
728.4938972774823
 30
0.0
 11
315.8381544113755
 21
728.4938972774823
 31
0.0
  0
LINE
  5
1BF2F
330
13507
100
AcDbEntity
  8
30
  6
Continuous
 62
     0
440
 16777216
370
    -2
100
AcDbLine
 10
276.6626653823723
 20
500.4938972774821
 30
0.0
 11
315.8381544113755
 21
500.4938972774821
 31
0.0
  0
LINE
  5
1BF30
330
13507
100
AcDbEntity
  8
30
  6
Continuous
 62
     0
440
 16777216
370
    -2
100
AcDbLine
 10
315.3381544113755
 20
726.4938972774823
 30
0.0
 11
315.3381544113754
 21
502.4938972774822
 31
0.0
  0
INSERT
  5
1BF31
330
13507
100
AcDbEntity
  8
30
  6
Continuous
 62
     0
440
 16777216
370
    -2
100
AcDbBlockReference
  2
_OPEN
 10
315.3381544113755
 20
728.4938972774823
 30
0.0
 41
2.0
 42
2.0
 43
2.0
 50
90.0
  0
INSERT
  5
1BF32
330
13507
100
AcDbEntity
  8
30
  6
Continuous
 62
     0
440
 16777216
370
    -2
100
AcDbBlockReference
  2
_OPEN
 10
315.3381544113754
 20
500.4938972774821
 30
0.0
 41
2.0
 42
2.0
 43
2.0
 50
270.0
  0
MTEXT
  5
1BF33
330
13507
100
AcDbEntity
  8
30
  6
Continuous
440
 16777216
100
AcDbMText
 10
304.3381544113754
 20
614.4938972774822
 30
0.0
 40
8.0
 41
0.0
 46
0.0
 71
     2
 72
     1
  1
\A1;228
 11
0.0000000000000001
 21
1.0
 31
0.0
 73
     1
 44
1.0
 90
        3
 63
     9
421
 13158600
 45
1.25
441
        0
  0
POINT
  5
1BF34
330
13507
100
AcDbEntity
  8
DEFPOINTS
  6
Continuous
 62
     0
440
 16777216
100
AcDbPoint
 10
266.1626653823723
 20
728.4938972774823
 30
0.0
  0
POINT
  5
1BF35
330
13507
100
AcDbEntity
  8
DEFPOINTS
  6
Continuous
 62
     0
440
 16777216
100
AcDbPoint
 10
275.6626653823723
 20
500.4938972774821
 30
0.0
  0
POINT
  5
1BF36
330
13507
100
AcDbEntity
  8
DEFPOINTS
  6
Continuous
 62
     0
440
 16777216
100
AcDbPoint
 10
315.3381544113754
 20
500.4938972774821
 30
0.0
  0
ENDBLK
  5
13509
330
13507
100
AcDbEntity
  8
0
100
AcDbBlockEnd
  0
BLOCK
  5
13514
330
13513
100
AcDbEntity
  8
0
100
AcDbBlockBegin
  2
*D12
 70
     1
 10
0.0
 20
0.0
 30
0.0
  3
*D12
  1

  0
LINE
  5
1C2D7
330
13513
100
AcDbEntity
  8
30
  6
Continuous
 62
     0
440
 16777216
370
    -2
100
AcDbLine
 10
292.2839548768725
 20
744.4938972774812
 30
0.0
 11
337.1415147295639
 21
744.4938972774812
 31
0.0
  0
LINE
  5
1C2D8
330
13513
100
AcDbEntity
  8
30
  6
Continuous
 62
     0
440
 16777216
370
    -2
100
AcDbLine
 10
289.7627430558723
 20
484.4938972774821
 30
0.0
 11
337.1415147295639
 21
484.4938972774821
 31
0.0
  0
LINE
  5
1C2D9
330
13513
100
AcDbEntity
  8
30
  6
Continuous
 62
     0
440
 16777216
370
    -2
100
AcDbLine
 10
336.641514729564
 20
742.4938972774811
 30
0.0
 11
336.6415147295639
 21
486.4938972774821
 31
0.0
  0
INSERT
  5
1C2DA
330
13513
100
AcDbEntity
  8
30
  6
Continuous
 62
     0
440
 16777216
370
    -2
100
AcDbBlockReference
  2
_OPEN
 10
336.641514729564
 20
744.4938972774812
 30
0.0
 41
2.0
 42
2.0
 43
2.0
 50
90.0
  0
INSERT
  5
1C2DB
330
13513
100
AcDbEntity
  8
30
  6
Continuous
 62
     0
440
 16777216
370
    -2
100
AcDbBlockReference
  2
_OPEN
 10
336.6415147295639
 20
484.4938972774821
 30
0.0
 41
2.0
 42
2.0
 43
2.0
 50
270.0
  0
MTEXT
  5
1C2DC
330
13513
100
AcDbEntity
  8
30
  6
Continuous
440
 16777216
100
AcDbMText
 10
325.6415147295638
 20
614.4938972774822
 30
0.0
 40
8.0
 41
0.0
 46
0.0
 71
     2
 72
     1
  1
\A1;260
 11
0.0000000000000001
 21
1.0
 31
0.0
 73
     1
 44
1.0
 90
        3
 63
     9
421
 13158600
 45
1.25
441
        0
  0
POINT
  5
1C2DD
330
13513
100
AcDbEntity
  8
DEFPOINTS
  6
Continuous
 62
     0
440
 16777216
100
AcDbPoint
 10
291.2839548768725
 20
744.4938972774812
 30
0.0
  0
POINT
  5
1C2DE
330
13513
100
AcDbEntity
  8
DEFPOINTS
  6
Continuous
 62
     0
440
 16777216
100
AcDbPoint
 10
288.7627430558723
 20
484.4938972774821
 30
0.0
  0
POINT
  5
1C2DF
330
13513
100
AcDbEntity
  8
DEFPOINTS
  6
Continuous
 62
     0
440
 16777216
100
AcDbPoint
 10
336.6415147295639
 20
484.4938972774821
 30
0.0
  0
ENDBLK
  5
13515
330
13513
100
AcDbEntity
  8
0
100
AcDbBlockEnd
  0
BLOCK
  5
1352C
330
1352B
100
AcDbEntity
  8
0
100
AcDbBlockBegin
  2
*D13
 70
     1
 10
0.0
 20
0.0
 30
0.0
  3
*D13
  1

  0
LINE
  5
1BF49
330
1352B
100
AcDbEntity
  8
30
  6
Continuous
 62
     0
440
 16777216
370
    -2
100
AcDbLine
 10
552.1598456858654
 20
880.6412387693407
 30
0.0
 11
510.5450423250323
 21
880.6412387693407
 31
0.0
  0
LINE
  5
1BF4A
330
1352B
100
AcDbEntity
  8
30
  6
Continuous
 62
     0
440
 16777216
370
    -2
100
AcDbLine
 10
536.159845685866
 20
868.6412387693408
 30
0.0
 11
510.5450423250323
 21
868.6412387693408
 31
0.0
  0
LINE
  5
1BF4B
330
1352B
100
AcDbEntity
  8
30
  6
Continuous
 62
     0
440
 16777216
370
    -2
100
AcDbLine
 10
511.0450423250323
 20
878.641238769341
 30
0.0
 11
511.0450423250323
 21
870.641238769341
 31
0.0
  0
INSERT
  5
1BF4C
330
1352B
100
AcDbEntity
  8
30
  6
Continuous
 62
     0
440
 16777216
370
    -2
100
AcDbBlockReference
  2
_OPEN
 10
511.0450423250323
 20
880.6412387693407
 30
0.0
 41
2.0
 42
2.0
 43
2.0
 50
90.0
  0
INSERT
  5
1BF4D
330
1352B
100
AcDbEntity
  8
30
  6
Continuous
 62
     0
440
 16777216
370
    -2
100
AcDbBlockReference
  2
_OPEN
 10
511.0450423250323
 20
868.6412387693408
 30
0.0
 41
2.0
 42
2.0
 43
2.0
 50
270.0
  0
MTEXT
  5
1BF4E
330
1352B
100
AcDbEntity
  8
30
  6
Continuous
440
 16777216
100
AcDbMText
 10
486.7117089916988
 20
874.6412387693411
 30
0.0
 40
8.0
 41
0.0
 46
0.0
 71
     2
 72
     1
  1
\A1;12\P(MAX.)
 11
0.0000000000000001
 21
1.0
 31
0.0
 73
     1
 44
1.0
 90
        3
 63
     9
421
 13158600
 45
1.25
441
        0
  0
POINT
  5
1BF4F
330
1352B
100
AcDbEntity
  8
DEFPOINTS
  6
Continuous
 62
     0
440
 16777216
100
AcDbPoint
 10
553.1598456858654
 20
880.6412387693407
 30
0.0
  0
POINT
  5
1BF50
330
1352B
100
AcDbEntity
  8
DEFPOINTS
  6
Continuous
 62
     0
440
 16777216
100
AcDbPoint
 10
537.1598456858658
 20
868.6412387693408
 30
0.0
  0
POINT
  5
1BF51
330
1352B
100
AcDbEntity
  8
DEFPOINTS
  6
Continuous
 62
     0
440
 16777216
100
AcDbPoint
 10
511.0450423250323
 20
868.6412387693408
 30
0.0
  0
ENDBLK
  5
1352D
330
1352B
100
AcDbEntity
  8
0
100
AcDbBlockEnd
  0
BLOCK
  5
13538
330
13537
100
AcDbEntity
  8
0
100
AcDbBlockBegin
  2
*D14
 70
     1
 10
0.0
 20
0.0
 30
0.0
  3
*D14
  1

  0
LINE
  5
1BF52
330
13537
100
AcDbEntity
  8
30
  6
Continuous
 62
     0
440
 16777216
370
    -2
100
AcDbLine
 10
537.1598456858658
 20
867.6412387693408
 30
0.0
 11
537.1598456858658
 21
844.1403063710922
 31
0.0
  0
LINE
  5
1BF53
330
13537
100
AcDbEntity
  8
30
  6
Continuous
 62
     0
440
 16777216
370
    -2
100
AcDbLine
 10
569.1598456858654
 20
867.6412387693408
 30
0.0
 11
569.1598456858654
 21
844.1403063710922
 31
0.0
  0
LINE
  5
1BF54
330
13537
100
AcDbEntity
  8
30
  6
Continuous
 62
     0
440
 16777216
370
    -2
100
AcDbLine
 10
539.159845685866
 20
844.6403063710924
 30
0.0
 11
567.1598456858654
 21
844.6403063710924
 31
0.0
  0
LINE
  5
1BF55
330
13537
100
AcDbEntity
  8
30
  6
Continuous
 62
     0
440
 16777216
370
    -2
100
AcDbLine
 10
569.1598456858654
 20
844.6403063710924
 30
0.0
 11
611.8265123525323
 21
844.6403063710924
 31
0.0
  0
INSERT
  5
1BF56
330
13537
100
AcDbEntity
  8
30
  6
Continuous
 62
     0
440
 16777216
370
    -2
100
AcDbBlockReference
  2
_OPEN
 10
537.1598456858658
 20
844.6403063710924
 30
0.0
 41
2.0
 42
2.0
 43
2.0
 50
180.0
  0
INSERT
  5
1BF57
330
13537
100
AcDbEntity
  8
30
  6
Continuous
 62
     0
440
 16777216
370
    -2
100
AcDbBlockReference
  2
_OPEN
 10
569.1598456858654
 20
844.6403063710924
 30
0.0
 41
2.0
 42
2.0
 43
2.0
  0
MTEXT
  5
1BF58
330
13537
100
AcDbEntity
  8
30
  6
Continuous
440
 16777216
100
AcDbMText
 10
591.493179019199
 20
868.9736397044256
 30
0.0
 40
8.0
 41
0.0
 46
0.0
 71
     2
 72
     1
  1
\A1;32\P(MAX.)
 73
     1
 44
1.0
 90
        3
 63
     9
421
 13158600
 45
1.25
441
        0
  0
POINT
  5
1BF59
330
13537
100
AcDbEntity
  8
DEFPOINTS
  6
Continuous
 62
     0
440
 16777216
100
AcDbPoint
 10
537.1598456858658
 20
868.6412387693408
 30
0.0
  0
POINT
  5
1BF5A
330
13537
100
AcDbEntity
  8
DEFPOINTS
  6
Continuous
 62
     0
440
 16777216
100
AcDbPoint
 10
569.1598456858654
 20
868.6412387693408
 30
0.0
  0
POINT
  5
1BF5B
330
13537
100
AcDbEntity
  8
DEFPOINTS
  6
Continuous
 62
     0
440
 16777216
100
AcDbPoint
 10
569.1598456858654
 20
844.6403063710924
 30
0.0
  0
ENDBLK
  5
13539
330
13537
100
AcDbEntity
  8
0
100
AcDbBlockEnd
  0
BLOCK
  5
13544
330
13543
100
AcDbEntity
  8
0
100
AcDbBlockBegin
  2
*D15
 70
     1
 10
0.0
 20
0.0
 30
0.0
  3
*D15
  1

  0
LINE
  5
1BF5C
330
13543
100
AcDbEntity
  8
30
  6
Continuous
 62
     0
440
 16777216
370
    -2
100
AcDbLine
 10
550.5299150630038
 20
878.3318092040799
 30
0.0
 11
555.7897763092256
 21
882.9506683346002
 31
0.0
  0
LINE
  5
1BF5D
330
13543
100
AcDbEntity
  8
30
  6
Continuous
 62
     0
440
 16777216
370
    -2
100
AcDbLine
 10
557.2925938081906
 20
884.2703423719306
 30
0.0
 11
585.6267567560697
 21
909.1515133973953
 31
0.0
  0
LINE
  5
1BF5E
330
13543
100
AcDbEntity
  8
30
  6
Continuous
 62
     0
440
 16777216
370
    -2
100
AcDbLine
 10
585.6267567560697
 20
909.1515133973953
 30
0.0
 11
604.6267567560696
 21
909.1515133973947
 31
0.0
  0
INSERT
  5
1BF5F
330
13543
100
AcDbEntity
  8
30
  6
Continuous
 62
     0
440
 16777216
370
    -2
100
AcDbBlockReference
  2
_OPEN
 10
549.0270975640387
 20
877.0121351667494
 30
0.0
 41
2.0
 42
2.0
 43
2.0
 50
221.2874440940417
  0
INSERT
  5
1BF60
330
13543
100
AcDbEntity
  8
30
  6
Continuous
 62
     0
440
 16777216
370
    -2
100
AcDbBlockReference
  2
_OPEN
 10
557.2925938081906
 20
884.2703423719306
 30
0.0
 41
2.0
 42
2.0
 43
2.0
 50
41.28744409404164
  0
MTEXT
  5
1BF61
330
13543
100
AcDbEntity
  8
30
  6
Continuous
 62
     0
440
 16777216
100
AcDbMText
 10
588.6267567560699
 20
920.1515133973947
 30
0.0
 40
8.0
 41
0.0
 46
0.0
 71
     1
 72
     1
  1
\A1;∅11
 73
     1
 44
1.0
  0
POINT
  5
1BF62
330
13543
100
AcDbEntity
  8
DEFPOINTS
  6
Continuous
 62
     0
440
 16777216
100
AcDbPoint
 10
557.2925938081906
 20
884.2703423719306
 30
0.0
  0
POINT
  5
1BF63
330
13543
100
AcDbEntity
  8
DEFPOINTS
  6
Continuous
 62
     0
440
 16777216
100
AcDbPoint
 10
549.0270975640387
 20
877.0121351667494
 30
0.0
  0
ENDBLK
  5
13545
330
13543
100
AcDbEntity
  8
0
100
AcDbBlockEnd
  0
BLOCK
  5
1358B
330
1358A
100
AcDbEntity
  8
0
100
AcDbBlockBegin
  2
*D16
 70
     1
 10
0.0
 20
0.0
 30
0.0
  3
*D16
  1

  0
LINE
  5
1BF64
330
1358A
100
AcDbEntity
  8
30
  6
Continuous
 62
     0
440
 16777216
370
    -2
100
AcDbLine
 10
488.9016563561138
 20
659.4938972774825
 30
0.0
 11
444.0479839335562
 21
659.4938972774825
 31
0.0
  0
LINE
  5
1BF65
330
1358A
100
AcDbEntity
  8
30
  6
Continuous
 62
     0
440
 16777216
370
    -2
100
AcDbLine
 10
484.1203294766172
 20
569.4938972774822
 30
0.0
 11
444.0479839335562
 21
569.4938972774822
 31
0.0
  0
LINE
  5
1BF66
330
1358A
100
AcDbEntity
  8
30
  6
Continuous
 62
     0
440
 16777216
370
    -2
100
AcDbLine
 10
444.5479839335562
 20
657.4938972774822
 30
0.0
 11
444.5479839335562
 21
571.4938972774822
 31
0.0
  0
INSERT
  5
1BF67
330
1358A
100
AcDbEntity
  8
30
  6
Continuous
 62
     0
440
 16777216
370
    -2
100
AcDbBlockReference
  2
_OPEN
 10
444.5479839335562
 20
659.4938972774825
 30
0.0
 41
2.0
 42
2.0
 43
2.0
 50
90.0
  0
INSERT
  5
1BF68
330
1358A
100
AcDbEntity
  8
30
  6
Continuous
 62
     0
440
 16777216
370
    -2
100
AcDbBlockReference
  2
_OPEN
 10
444.5479839335562
 20
569.4938972774822
 30
0.0
 41
2.0
 42
2.0
 43
2.0
 50
270.0
  0
MTEXT
  5
1BF69
330
1358A
100
AcDbEntity
  8
30
  6
Continuous
440
 16777216
100
AcDbMText
 10
437.5479839335561
 20
614.4938972774825
 30
0.0
 40
8.0
 41
0.0
 46
0.0
 71
     5
 72
     1
  1
\A1;90
 11
0.0000000000000001
 21
1.0
 31
0.0
 73
     1
 44
1.0
 90
        3
 63
     9
421
 13158600
 45
1.25
441
        0
  0
POINT
  5
1BF6A
330
1358A
100
AcDbEntity
  8
DEFPOINTS
  6
Continuous
 62
     0
440
 16777216
100
AcDbPoint
 10
489.9016563561139
 20
659.4938972774825
 30
0.0
  0
POINT
  5
1BF6B
330
1358A
100
AcDbEntity
  8
DEFPOINTS
  6
Continuous
 62
     0
440
 16777216
100
AcDbPoint
 10
485.1203294766174
 20
569.4938972774822
 30
0.0
  0
POINT
  5
1BF6C
330
1358A
100
AcDbEntity
  8
DEFPOINTS
  6
Continuous
 62
     0
440
 16777216
100
AcDbPoint
 10
444.5479839335562
 20
569.4938972774822
 30
0.0
  0
ENDBLK
  5
1358C
330
1358A
100
AcDbEntity
  8
0
100
AcDbBlockEnd
  0
BLOCK
  5
13597
330
13596
100
AcDbEntity
  8
0
100
AcDbBlockBegin
  2
*D17
 70
     1
 10
0.0
 20
0.0
 30
0.0
  3
*D17
  1

  0
LINE
  5
1BF6D
330
13596
100
AcDbEntity
  8
30
  6
Continuous
 62
     0
440
 16777216
370
    -2
100
AcDbLine
 10
286.1150293344313
 20
770.2657964689308
 30
0.0
 11
291.452880419311
 21
778.7219980860342
 31
0.0
  0
LINE
  5
1BF6E
330
13596
100
AcDbEntity
  8
30
  6
Continuous
 62
     0
440
 16777216
370
    -2
100
AcDbLine
 10
292.5204506363218
 20
780.4132384095102
 30
0.0
 11
309.5667157622745
 21
807.4178611371797
 31
0.0
  0
LINE
  5
1BF6F
330
13596
100
AcDbEntity
  8
30
  6
Continuous
 62
     0
440
 16777216
370
    -2
100
AcDbLine
 10
309.5667157622745
 20
807.4178611371797
 30
0.0
 11
331.2333824289412
 21
807.4178611371797
 31
0.0
  0
INSERT
  5
1BF70
330
13596
100
AcDbEntity
  8
30
  6
Continuous
 62
     0
440
 16777216
370
    -2
100
AcDbBlockReference
  2
_OPEN
 10
285.0474591174204
 20
768.5745561454547
 30
0.0
 41
2.0
 42
2.0
 43
2.0
 50
237.7384420764081
  0
INSERT
  5
1BF71
330
13596
100
AcDbEntity
  8
30
  6
Continuous
 62
     0
440
 16777216
370
    -2
100
AcDbBlockReference
  2
_OPEN
 10
292.5204506363218
 20
780.4132384095102
 30
0.0
 41
2.0
 42
2.0
 43
2.0
 50
57.73844207640808
  0
MTEXT
  5
1BF72
330
13596
100
AcDbEntity
  8
30
  6
Continuous
 62
     0
440
 16777216
100
AcDbMText
 10
312.5667157622744
 20
818.4178611371795
 30
0.0
 40
8.0
 41
0.0
 46
0.0
 71
     1
 72
     1
  1
\A1;∅14
 73
     1
 44
1.0
  0
POINT
  5
1BF73
330
13596
100
AcDbEntity
  8
DEFPOINTS
  6
Continuous
 62
     0
440
 16777216
100
AcDbPoint
 10
292.5204506363218
 20
780.4132384095102
 30
0.0
  0
POINT
  5
1BF74
330
13596
100
AcDbEntity
  8
DEFPOINTS
  6
Continuous
 62
     0
440
 16777216
100
AcDbPoint
 10
285.0474591174204
 20
768.5745561454547
 30
0.0
  0
ENDBLK
  5
13598
330
13596
100
AcDbEntity
  8
0
100
AcDbBlockEnd
  0
BLOCK
  5
135A1
330
135A0
100
AcDbEntity
  8
0
100
AcDbBlockBegin
  2
*D18
 70
     1
 10
0.0
 20
0.0
 30
0.0
  3
*D18
  1

  0
LINE
  5
1BF75
330
135A0
100
AcDbEntity
  8
30
  6
Continuous
 62
     0
440
 16777216
370
    -2
100
AcDbLine
 10
101.3839548768724
 20
788.9938972774823
 30
0.0
 11
85.4777799803652
 21
788.9938972774823
 31
0.0
  0
LINE
  5
1BF76
330
135A0
100
AcDbEntity
  8
30
  6
Continuous
 62
     0
440
 16777216
370
    -2
100
AcDbLine
 10
105.7839548768725
 20
774.4938972774823
 30
0.0
 11
85.4777799803652
 21
774.4938972774823
 31
0.0
  0
LINE
  5
1BF77
330
135A0
100
AcDbEntity
  8
30
  6
Continuous
 62
     0
440
 16777216
370
    -2
100
AcDbLine
 10
85.97777998036518
 20
776.4938972774823
 30
0.0
 11
85.97777998036518
 21
786.9938972774823
 31
0.0
  0
LINE
  5
1BF78
330
135A0
100
AcDbEntity
  8
30
  6
Continuous
 62
     0
440
 16777216
370
    -2
100
AcDbLine
 10
85.97777998036518
 20
788.9938972774823
 30
0.0
 11
85.97777998036518
 21
826.8253050581346
 31
0.0
  0
INSERT
  5
1BF79
330
135A0
100
AcDbEntity
  8
30
  6
Continuous
 62
     0
440
 16777216
370
    -2
100
AcDbBlockReference
  2
_OPEN
 10
85.97777998036518
 20
774.4938972774823
 30
0.0
 41
2.0
 42
2.0
 43
2.0
 50
270.0
  0
INSERT
  5
1BF7A
330
135A0
100
AcDbEntity
  8
30
  6
Continuous
 62
     0
440
 16777216
370
    -2
100
AcDbBlockReference
  2
_OPEN
 10
85.97777998036518
 20
788.9938972774823
 30
0.0
 41
2.0
 42
2.0
 43
2.0
 50
90.0
  0
MTEXT
  5
1BF7B
330
135A0
100
AcDbEntity
  8
30
  6
Continuous
440
 16777216
100
AcDbMText
 10
74.97777998036507
 20
813.1586383914678
 30
0.0
 40
8.0
 41
0.0
 46
0.0
 71
     2
 72
     1
  1
\A1;14.5
 11
0.0000000000000001
 21
1.0
 31
0.0
 73
     1
 44
1.0
 90
        3
 63
     9
421
 13158600
 45
1.25
441
        0
  0
POINT
  5
1BF7C
330
135A0
100
AcDbEntity
  8
DEFPOINTS
  6
Continuous
 62
     0
440
 16777216
100
AcDbPoint
 10
102.3839548768724
 20
788.9938972774823
 30
0.0
  0
POINT
  5
1BF7D
330
135A0
100
AcDbEntity
  8
DEFPOINTS
  6
Continuous
 62
     0
440
 16777216
100
AcDbPoint
 10
106.7839548768725
 20
774.4938972774823
 30
0.0
  0
POINT
  5
1BF7E
330
135A0
100
AcDbEntity
  8
DEFPOINTS
  6
Continuous
 62
     0
440
 16777216
100
AcDbPoint
 10
85.97777998036518
 20
774.4938972774823
 30
0.0
  0
ENDBLK
  5
135A2
330
135A0
100
AcDbEntity
  8
0
100
AcDbBlockEnd
  0
BLOCK
  5
135AE
330
135AD
100
AcDbEntity
  8
0
100
AcDbBlockBegin
  2
*D19
 70
     1
 10
0.0
 20
0.0
 30
0.0
  3
*D19
  1

  0
LINE
  5
1C3D1
330
135AD
100
AcDbEntity
  8
30
  6
Continuous
 62
     0
440
 16777216
370
    -2
100
AcDbLine
 10
105.7839548768725
 20
774.4938972774823
 30
0.0
 11
85.4777799803652
 21
774.4938972774823
 31
0.0
  0
LINE
  5
1C3D2
330
135AD
100
AcDbEntity
  8
30
  6
Continuous
 62
     0
440
 16777216
370
    -2
100
AcDbLine
 10
105.2839548768724
 20
744.4938972774823
 30
0.0
 11
85.4777799803652
 21
744.4938972774823
 31
0.0
  0
LINE
  5
1C3D3
330
135AD
100
AcDbEntity
  8
30
  6
Continuous
 62
     0
440
 16777216
370
    -2
100
AcDbLine
 10
85.97777998036521
 20
772.4938972774823
 30
0.0
 11
85.97777998036521
 21
746.4938972774823
 31
0.0
  0
INSERT
  5
1C3D4
330
135AD
100
AcDbEntity
  8
30
  6
Continuous
 62
     0
440
 16777216
370
    -2
100
AcDbBlockReference
  2
_OPEN
 10
85.97777998036521
 20
774.4938972774823
 30
0.0
 41
2.0
 42
2.0
 43
2.0
 50
90.0
  0
INSERT
  5
1C3D5
330
135AD
100
AcDbEntity
  8
30
  6
Continuous
 62
     0
440
 16777216
370
    -2
100
AcDbBlockReference
  2
_OPEN
 10
85.97777998036521
 20
744.4938972774823
 30
0.0
 41
2.0
 42
2.0
 43
2.0
 50
270.0
  0
MTEXT
  5
1C3D6
330
135AD
100
AcDbEntity
  8
30
  6
Continuous
440
 16777216
100
AcDbMText
 10
74.97777998036508
 20
755.8634090609679
 30
0.0
 40
8.0
 41
0.0
 46
0.0
 71
     2
 72
     1
  1
\A1;30
 11
0.0000000000000001
 21
1.0
 31
0.0
 73
     1
 44
1.0
 90
        3
 63
     9
421
 13158600
 45
1.25
441
        0
  0
POINT
  5
1C3D7
330
135AD
100
AcDbEntity
  8
DEFPOINTS
  6
Continuous
 62
     0
440
 16777216
100
AcDbPoint
 10
106.7839548768725
 20
774.4938972774823
 30
0.0
  0
POINT
  5
1C3D8
330
135AD
100
AcDbEntity
  8
DEFPOINTS
  6
Continuous
 62
     0
440
 16777216
100
AcDbPoint
 10
106.2839548768724
 20
744.4938972774823
 30
0.0
  0
POINT
  5
1C3D9
330
135AD
100
AcDbEntity
  8
DEFPOINTS
  6
Continuous
 62
     0
440
 16777216
100
AcDbPoint
 10
85.97777998036521
 20
744.4938972774823
 30
0.0
  0
ENDBLK
  5
135AF
330
135AD
100
AcDbEntity
  8
0
100
AcDbBlockEnd
  0
BLOCK
  5
135BA
330
135B9
100
AcDbEntity
  8
0
100
AcDbBlockBegin
  2
*D20
 70
     1
 10
0.0
 20
0.0
 30
0.0
  3
*D20
  1

  0
LINE
  5
1C3C8
330
135B9
100
AcDbEntity
  8
30
  6
Continuous
 62
     0
440
 16777216
370
    -2
100
AcDbLine
 10
101.3839548768724
 20
788.9938972774823
 30
0.0
 11
65.38891751904715
 21
788.9938972774823
 31
0.0
  0
LINE
  5
1C3C9
330
135B9
100
AcDbEntity
  8
30
  6
Continuous
 62
     0
440
 16777216
370
    -2
100
AcDbLine
 10
105.2839548768724
 20
744.4938972774823
 30
0.0
 11
65.38891751904715
 21
744.4938972774823
 31
0.0
  0
LINE
  5
1C3CA
330
135B9
100
AcDbEntity
  8
30
  6
Continuous
 62
     0
440
 16777216
370
    -2
100
AcDbLine
 10
65.88891751904715
 20
786.9938972774823
 30
0.0
 11
65.88891751904715
 21
746.4938972774823
 31
0.0
  0
INSERT
  5
1C3CB
330
135B9
100
AcDbEntity
  8
30
  6
Continuous
 62
     0
440
 16777216
370
    -2
100
AcDbBlockReference
  2
_OPEN
 10
65.88891751904715
 20
788.9938972774823
 30
0.0
 41
2.0
 42
2.0
 43
2.0
 50
90.0
  0
INSERT
  5
1C3CC
330
135B9
100
AcDbEntity
  8
30
  6
Continuous
 62
     0
440
 16777216
370
    -2
100
AcDbBlockReference
  2
_OPEN
 10
65.88891751904715
 20
744.4938972774823
 30
0.0
 41
2.0
 42
2.0
 43
2.0
 50
270.0
  0
MTEXT
  5
1C3CD
330
135B9
100
AcDbEntity
  8
30
  6
Continuous
440
 16777216
100
AcDbMText
 10
54.88891751904703
 20
763.6742732701772
 30
0.0
 40
8.0
 41
0.0
 46
0.0
 71
     2
 72
     1
  1
\A1;44.5
 11
0.0000000000000001
 21
1.0
 31
0.0
 73
     1
 44
1.0
 90
        3
 63
     9
421
 13158600
 45
1.25
441
        0
  0
POINT
  5
1C3CE
330
135B9
100
AcDbEntity
  8
DEFPOINTS
  6
Continuous
 62
     0
440
 16777216
100
AcDbPoint
 10
102.3839548768724
 20
788.9938972774823
 30
0.0
  0
POINT
  5
1C3CF
330
135B9
100
AcDbEntity
  8
DEFPOINTS
  6
Continuous
 62
     0
440
 16777216
100
AcDbPoint
 10
106.2839548768724
 20
744.4938972774823
 30
0.0
  0
POINT
  5
1C3D0
330
135B9
100
AcDbEntity
  8
DEFPOINTS
  6
Continuous
 62
     0
440
 16777216
100
AcDbPoint
 10
65.88891751904715
 20
744.4938972774823
 30
0.0
  0
ENDBLK
  5
135BB
330
135B9
100
AcDbEntity
  8
0
100
AcDbBlockEnd
  0
BLOCK
  5
135C6
330
135C5
100
AcDbEntity
  8
0
100
AcDbBlockBegin
  2
*D21
 70
     1
 10
0.0
 20
0.0
 30
0.0
  3
*D21
  1

  0
LINE
  5
1BF91
330
135C5
100
AcDbEntity
  8
30
  6
Continuous
 62
     0
440
 16777216
370
    -2
100
AcDbLine
 10
601.8414768420711
 20
745.4938972774823
 30
0.0
 11
601.8414768420711
 21
807.6003177126066
 31
0.0
  0
LINE
  5
1BF92
330
135C5
100
AcDbEntity
  8
30
  6
Continuous
 62
     0
440
 16777216
370
    -2
100
AcDbLine
 10
565.8414768420711
 20
789.9938972774823
 30
0.0
 11
565.8414768420711
 21
807.6003177126066
 31
0.0
  0
LINE
  5
1BF93
330
135C5
100
AcDbEntity
  8
30
  6
Continuous
 62
     0
440
 16777216
370
    -2
100
AcDbLine
 10
599.8414768420712
 20
807.1003177126065
 30
0.0
 11
567.8414768420712
 21
807.1003177126065
 31
0.0
  0
INSERT
  5
1BF94
330
135C5
100
AcDbEntity
  8
30
  6
Continuous
 62
     0
440
 16777216
370
    -2
100
AcDbBlockReference
  2
_OPEN
 10
601.8414768420711
 20
807.1003177126065
 30
0.0
 41
2.0
 42
2.0
 43
2.0
  0
INSERT
  5
1BF95
330
135C5
100
AcDbEntity
  8
30
  6
Continuous
 62
     0
440
 16777216
370
    -2
100
AcDbBlockReference
  2
_OPEN
 10
565.8414768420711
 20
807.1003177126065
 30
0.0
 41
2.0
 42
2.0
 43
2.0
 50
180.0
  0
MTEXT
  5
1BF96
330
135C5
100
AcDbEntity
  8
30
  6
Continuous
440
 16777216
100
AcDbMText
 10
583.8414768420712
 20
814.1003177126066
 30
0.0
 40
8.0
 41
0.0
 46
0.0
 71
     5
 72
     1
  1
\A1;36
 73
     1
 44
1.0
 90
        3
 63
     9
421
 13158600
 45
1.25
441
        0
  0
POINT
  5
1BF97
330
135C5
100
AcDbEntity
  8
DEFPOINTS
  6
Continuous
 62
     0
440
 16777216
100
AcDbPoint
 10
601.8414768420711
 20
744.4938972774823
 30
0.0
  0
POINT
  5
1BF98
330
135C5
100
AcDbEntity
  8
DEFPOINTS
  6
Continuous
 62
     0
440
 16777216
100
AcDbPoint
 10
565.8414768420711
 20
788.9938972774825
 30
0.0
  0
POINT
  5
1BF99
330
135C5
100
AcDbEntity
  8
DEFPOINTS
  6
Continuous
 62
     0
440
 16777216
100
AcDbPoint
 10
565.8414768420711
 20
807.1003177126065
 30
0.0
  0
ENDBLK
  5
135C7
330
135C5
100
AcDbEntity
  8
0
100
AcDbBlockEnd
  0
BLOCK
  5
135D2
330
135D1
100
AcDbEntity
  8
0
100
AcDbBlockBegin
  2
*D22
 70
     1
 10
0.0
 20
0.0
 30
0.0
  3
*D22
  1

  0
LINE
  5
1BF9A
330
135D1
100
AcDbEntity
  8
30
  6
Continuous
 62
     0
440
 16777216
370
    -2
100
AcDbLine
 10
565.8414768420711
 20
791.9938972774823
 30
0.0
 11
565.8414768420711
 21
807.6003177126066
 31
0.0
  0
LINE
  5
1BF9B
330
135D1
100
AcDbEntity
  8
30
  6
Continuous
 62
     0
440
 16777216
370
    -2
100
AcDbLine
 10
557.8414768420712
 20
791.9938972774823
 30
0.0
 11
557.8414768420712
 21
807.6003177126066
 31
0.0
  0
LINE
  5
1BF9C
330
135D1
100
AcDbEntity
  8
30
  6
Continuous
 62
     0
440
 16777216
370
    -2
100
AcDbLine
 10
567.8414768420712
 20
807.1003177126065
 30
0.0
 11
569.8414768420711
 21
807.1003177126065
 31
0.0
  0
LINE
  5
1BF9D
330
135D1
100
AcDbEntity
  8
30
  6
Continuous
 62
     0
440
 16777216
370
    -2
100
AcDbLine
 10
555.8414768420711
 20
807.1003177126065
 30
0.0
 11
542.5081435087378
 21
807.1003177126065
 31
0.0
  0
LINE
  5
1BF9E
330
135D1
100
AcDbEntity
  8
30
  6
Continuous
 62
     0
440
 16777216
370
    -2
100
AcDbLine
 10
565.8414768420711
 20
807.1003177126065
 30
0.0
 11
557.8414768420712
 21
807.1003177126065
 31
0.0
  0
INSERT
  5
1BF9F
330
135D1
100
AcDbEntity
  8
30
  6
Continuous
 62
     0
440
 16777216
370
    -2
100
AcDbBlockReference
  2
_OPEN
 10
565.8414768420711
 20
807.1003177126065
 30
0.0
 41
2.0
 42
2.0
 43
2.0
 50
180.0
  0
INSERT
  5
1BFA0
330
135D1
100
AcDbEntity
  8
30
  6
Continuous
 62
     0
440
 16777216
370
    -2
100
AcDbBlockReference
  2
_OPEN
 10
557.8414768420712
 20
807.1003177126065
 30
0.0
 41
2.0
 42
2.0
 43
2.0
  0
MTEXT
  5
1BFA1
330
135D1
100
AcDbEntity
  8
30
  6
Continuous
 62
     0
440
 16777216
100
AcDbMText
 10
548.1748101754045
 20
814.1003177126066
 30
0.0
 40
8.0
 41
0.0
 46
0.0
 71
     5
 72
     1
  1
\A1;8
 73
     1
 44
1.0
  0
POINT
  5
1BFA2
330
135D1
100
AcDbEntity
  8
DEFPOINTS
  6
Continuous
 62
     0
440
 16777216
100
AcDbPoint
 10
565.8414768420711
 20
788.9938972774825
 30
0.0
  0
POINT
  5
1BFA3
330
135D1
100
AcDbEntity
  8
DEFPOINTS
  6
Continuous
 62
     0
440
 16777216
100
AcDbPoint
 10
557.8414768420712
 20
788.9938972774825
 30
0.0
  0
POINT
  5
1BFA4
330
135D1
100
AcDbEntity
  8
DEFPOINTS
  6
Continuous
 62
     0
440
 16777216
100
AcDbPoint
 10
557.8414768420712
 20
807.1003177126065
 30
0.0
  0
ENDBLK
  5
135D3
330
135D1
100
AcDbEntity
  8
0
100
AcDbBlockEnd
  0
BLOCK
  5
135EB
330
135EA
100
AcDbEntity
  8
0
100
AcDbBlockBegin
  2
*D23
 70
     1
 10
0.0
 20
0.0
 30
0.0
  3
*D23
  1

  0
LINE
  5
1C352
330
135EA
100
AcDbEntity
  8
30
  6
Continuous
 62
     0
440
 16777216
370
    -2
100
AcDbLine
 10
108.7839548768725
 20
784.9938972774823
 30
0.0
 11
108.7839548768725
 21
829.666869056567
 31
0.0
  0
LINE
  5
1C353
330
135EA
100
AcDbEntity
  8
30
  6
Continuous
 62
     0
440
 16777216
370
    -2
100
AcDbLine
 10
168.7839548768725
 20
784.9938972774823
 30
0.0
 11
168.7839548768725
 21
829.666869056567
 31
0.0
  0
LINE
  5
1C354
330
135EA
100
AcDbEntity
  8
30
  6
Continuous
 62
     0
440
 16777216
370
    -2
100
AcDbLine
 10
110.7839548768725
 20
829.166869056567
 30
0.0
 11
166.7839548768725
 21
829.166869056567
 31
0.0
  0
INSERT
  5
1C355
330
135EA
100
AcDbEntity
  8
30
  6
Continuous
 62
     0
440
 16777216
370
    -2
100
AcDbBlockReference
  2
_OPEN
 10
108.7839548768725
 20
829.166869056567
 30
0.0
 41
2.0
 42
2.0
 43
2.0
 50
180.0
  0
INSERT
  5
1C356
330
135EA
100
AcDbEntity
  8
30
  6
Continuous
 62
     0
440
 16777216
370
    -2
100
AcDbBlockReference
  2
_OPEN
 10
168.7839548768725
 20
829.166869056567
 30
0.0
 41
2.0
 42
2.0
 43
2.0
  0
MTEXT
  5
1C357
330
135EA
100
AcDbEntity
  8
30
  6
Continuous
440
 16777216
100
AcDbMText
 10
138.7839548768725
 20
840.1668690565671
 30
0.0
 40
8.0
 41
0.0
 46
0.0
 71
     2
 72
     1
  1
\A1;60
 73
     1
 44
1.0
 90
        3
 63
     9
421
 13158600
 45
1.25
441
        0
  0
POINT
  5
1C358
330
135EA
100
AcDbEntity
  8
DEFPOINTS
  6
Continuous
 62
     0
440
 16777216
100
AcDbPoint
 10
108.7839548768725
 20
783.9938972774823
 30
0.0
  0
POINT
  5
1C359
330
135EA
100
AcDbEntity
  8
DEFPOINTS
  6
Continuous
 62
     0
440
 16777216
100
AcDbPoint
 10
168.7839548768725
 20
783.9938972774823
 30
0.0
  0
POINT
  5
1C35A
330
135EA
100
AcDbEntity
  8
DEFPOINTS
  6
Continuous
 62
     0
440
 16777216
100
AcDbPoint
 10
168.7839548768725
 20
829.166869056567
 30
0.0
  0
ENDBLK
  5
135EC
330
135EA
100
AcDbEntity
  8
0
100
AcDbBlockEnd
  0
BLOCK
  5
135F7
330
135F6
100
AcDbEntity
  8
0
100
AcDbBlockBegin
  2
*D24
 70
     1
 10
0.0
 20
0.0
 30
0.0
  3
*D24
  1

  0
LINE
  5
1C364
330
135F6
100
AcDbEntity
  8
30
  6
Continuous
 62
     0
440
 16777216
370
    -2
100
AcDbLine
 10
168.7839548768725
 20
784.9938972774823
 30
0.0
 11
168.7839548768725
 21
829.666869056567
 31
0.0
  0
LINE
  5
1C365
330
135F6
100
AcDbEntity
  8
30
  6
Continuous
 62
     0
440
 16777216
370
    -2
100
AcDbLine
 10
228.7839548768725
 20
784.9938972774823
 30
0.0
 11
228.7839548768725
 21
829.666869056567
 31
0.0
  0
LINE
  5
1C366
330
135F6
100
AcDbEntity
  8
30
  6
Continuous
 62
     0
440
 16777216
370
    -2
100
AcDbLine
 10
170.7839548768725
 20
829.166869056567
 30
0.0
 11
226.7839548768725
 21
829.166869056567
 31
0.0
  0
INSERT
  5
1C367
330
135F6
100
AcDbEntity
  8
30
  6
Continuous
 62
     0
440
 16777216
370
    -2
100
AcDbBlockReference
  2
_OPEN
 10
168.7839548768725
 20
829.166869056567
 30
0.0
 41
2.0
 42
2.0
 43
2.0
 50
180.0
  0
INSERT
  5
1C368
330
135F6
100
AcDbEntity
  8
30
  6
Continuous
 62
     0
440
 16777216
370
    -2
100
AcDbBlockReference
  2
_OPEN
 10
228.7839548768725
 20
829.166869056567
 30
0.0
 41
2.0
 42
2.0
 43
2.0
  0
MTEXT
  5
1C369
330
135F6
100
AcDbEntity
  8
30
  6
Continuous
440
 16777216
100
AcDbMText
 10
198.7839548768724
 20
840.1668690565671
 30
0.0
 40
8.0
 41
0.0
 46
0.0
 71
     2
 72
     1
  1
\A1;60
 73
     1
 44
1.0
 90
        3
 63
     9
421
 13158600
 45
1.25
441
        0
  0
POINT
  5
1C36A
330
135F6
100
AcDbEntity
  8
DEFPOINTS
  6
Continuous
 62
     0
440
 16777216
100
AcDbPoint
 10
168.7839548768725
 20
783.9938972774823
 30
0.0
  0
POINT
  5
1C36B
330
135F6
100
AcDbEntity
  8
DEFPOINTS
  6
Continuous
 62
     0
440
 16777216
100
AcDbPoint
 10
228.7839548768725
 20
783.9938972774823
 30
0.0
  0
POINT
  5
1C36C
330
135F6
100
AcDbEntity
  8
DEFPOINTS
  6
Continuous
 62
     0
440
 16777216
100
AcDbPoint
 10
228.7839548768725
 20
829.166869056567
 30
0.0
  0
ENDBLK
  5
135F8
330
135F6
100
AcDbEntity
  8
0
100
AcDbBlockEnd
  0
BLOCK
  5
13603
330
13602
100
AcDbEntity
  8
0
100
AcDbBlockBegin
  2
*D25
 70
     1
 10
0.0
 20
0.0
 30
0.0
  3
*D25
  1

  0
LINE
  5
1C36D
330
13602
100
AcDbEntity
  8
30
  6
Continuous
 62
     0
440
 16777216
370
    -2
100
AcDbLine
 10
228.7839548768725
 20
784.9938972774823
 30
0.0
 11
228.7839548768725
 21
829.666869056567
 31
0.0
  0
LINE
  5
1C36E
330
13602
100
AcDbEntity
  8
30
  6
Continuous
 62
     0
440
 16777216
370
    -2
100
AcDbLine
 10
288.7839548768725
 20
784.9938972774823
 30
0.0
 11
288.7839548768725
 21
829.666869056567
 31
0.0
  0
LINE
  5
1C36F
330
13602
100
AcDbEntity
  8
30
  6
Continuous
 62
     0
440
 16777216
370
    -2
100
AcDbLine
 10
230.7839548768725
 20
829.166869056567
 30
0.0
 11
286.7839548768725
 21
829.166869056567
 31
0.0
  0
INSERT
  5
1C370
330
13602
100
AcDbEntity
  8
30
  6
Continuous
 62
     0
440
 16777216
370
    -2
100
AcDbBlockReference
  2
_OPEN
 10
228.7839548768725
 20
829.166869056567
 30
0.0
 41
2.0
 42
2.0
 43
2.0
 50
180.0
  0
INSERT
  5
1C371
330
13602
100
AcDbEntity
  8
30
  6
Continuous
 62
     0
440
 16777216
370
    -2
100
AcDbBlockReference
  2
_OPEN
 10
288.7839548768725
 20
829.166869056567
 30
0.0
 41
2.0
 42
2.0
 43
2.0
  0
MTEXT
  5
1C372
330
13602
100
AcDbEntity
  8
30
  6
Continuous
440
 16777216
100
AcDbMText
 10
258.7839548768725
 20
840.1668690565671
 30
0.0
 40
8.0
 41
0.0
 46
0.0
 71
     2
 72
     1
  1
\A1;60
 73
     1
 44
1.0
 90
        3
 63
     9
421
 13158600
 45
1.25
441
        0
  0
POINT
  5
1C373
330
13602
100
AcDbEntity
  8
DEFPOINTS
  6
Continuous
 62
     0
440
 16777216
100
AcDbPoint
 10
228.7839548768725
 20
783.9938972774823
 30
0.0
  0
POINT
  5
1C374
330
13602
100
AcDbEntity
  8
DEFPOINTS
  6
Continuous
 62
     0
440
 16777216
100
AcDbPoint
 10
288.7839548768725
 20
783.9938972774823
 30
0.0
  0
POINT
  5
1C375
330
13602
100
AcDbEntity
  8
DEFPOINTS
  6
Continuous
 62
     0
440
 16777216
100
AcDbPoint
 10
288.7839548768725
 20
829.166869056567
 30
0.0
  0
ENDBLK
  5
13604
330
13602
100
AcDbEntity
  8
0
100
AcDbBlockEnd
  0
BLOCK
  5
13627
330
13626
100
AcDbEntity
  8
0
100
AcDbBlockBegin
  2
*D26
 70
     1
 10
0.0
 20
0.0
 30
0.0
  3
*D26
  1

  0
LINE
  5
1C376
330
13626
100
AcDbEntity
  8
30
  6
Continuous
 62
     0
440
 16777216
370
    -2
100
AcDbLine
 10
176.2839548768725
 20
791.1234997461956
 30
0.0
 11
176.2839548768725
 21
810.3416481556765
 31
0.0
  0
LINE
  5
1C377
330
13626
100
AcDbEntity
  8
30
  6
Continuous
 62
     0
440
 16777216
370
    -2
100
AcDbLine
 10
228.7839548768725
 20
784.9938972774823
 30
0.0
 11
228.7839548768725
 21
810.3416481556765
 31
0.0
  0
LINE
  5
1C378
330
13626
100
AcDbEntity
  8
30
  6
Continuous
 62
     0
440
 16777216
370
    -2
100
AcDbLine
 10
178.2839548768725
 20
809.8416481556764
 30
0.0
 11
226.7839548768725
 21
809.8416481556764
 31
0.0
  0
INSERT
  5
1C379
330
13626
100
AcDbEntity
  8
30
  6
Continuous
 62
     0
440
 16777216
370
    -2
100
AcDbBlockReference
  2
_OPEN
 10
176.2839548768725
 20
809.8416481556764
 30
0.0
 41
2.0
 42
2.0
 43
2.0
 50
180.0
  0
INSERT
  5
1C37A
330
13626
100
AcDbEntity
  8
30
  6
Continuous
 62
     0
440
 16777216
370
    -2
100
AcDbBlockReference
  2
_OPEN
 10
228.7839548768725
 20
809.8416481556764
 30
0.0
 41
2.0
 42
2.0
 43
2.0
  0
MTEXT
  5
1C37B
330
13626
100
AcDbEntity
  8
30
  6
Continuous
440
 16777216
100
AcDbMText
 10
202.5339548768725
 20
820.8416481556763
 30
0.0
 40
8.0
 41
0.0
 46
0.0
 71
     2
 72
     1
  1
\A1;52.5
 73
     1
 44
1.0
 90
        3
 63
     9
421
 13158600
 45
1.25
441
        0
  0
POINT
  5
1C37C
330
13626
100
AcDbEntity
  8
DEFPOINTS
  6
Continuous
 62
     0
440
 16777216
100
AcDbPoint
 10
176.2839548768725
 20
790.1234997461956
 30
0.0
  0
POINT
  5
1C37D
330
13626
100
AcDbEntity
  8
DEFPOINTS
  6
Continuous
 62
     0
440
 16777216
100
AcDbPoint
 10
228.7839548768725
 20
783.9938972774823
 30
0.0
  0
POINT
  5
1C37E
330
13626
100
AcDbEntity
  8
DEFPOINTS
  6
Continuous
 62
     0
440
 16777216
100
AcDbPoint
 10
228.7839548768725
 20
809.8416481556764
 30
0.0
  0
ENDBLK
  5
13628
330
13626
100
AcDbEntity
  8
0
100
AcDbBlockEnd
  0
BLOCK
  5
13633
330
13632
100
AcDbEntity
  8
0
100
AcDbBlockBegin
  2
*D27
 70
     1
 10
0.0
 20
0.0
 30
0.0
  3
*D27
  1

  0
LINE
  5
1BFD2
330
13632
100
AcDbEntity
  8
30
  6
Continuous
 62
     0
440
 16777216
370
    -2
100
AcDbLine
 10
527.6008571329676
 20
163.07232407759
 30
0.0
 11
527.6008571329676
 21
48.86550365985056
 31
0.0
  0
LINE
  5
1BFD3
330
13632
100
AcDbEntity
  8
30
  6
Continuous
 62
     0
440
 16777216
370
    -2
100
AcDbLine
 10
580.6008571329676
 20
163.07232407759
 30
0.0
 11
580.6008571329676
 21
48.86550365985056
 31
0.0
  0
LINE
  5
1BFD4
330
13632
100
AcDbEntity
  8
30
  6
Continuous
 62
     0
440
 16777216
370
    -2
100
AcDbLine
 10
529.6008571329675
 20
49.36550365985056
 30
0.0
 11
578.6008571329675
 21
49.36550365985056
 31
0.0
  0
INSERT
  5
1BFD5
330
13632
100
AcDbEntity
  8
30
  6
Continuous
 62
     0
440
 16777216
370
    -2
100
AcDbBlockReference
  2
_OPEN
 10
527.6008571329676
 20
49.36550365985056
 30
0.0
 41
2.0
 42
2.0
 43
2.0
 50
180.0
  0
INSERT
  5
1BFD6
330
13632
100
AcDbEntity
  8
30
  6
Continuous
 62
     0
440
 16777216
370
    -2
100
AcDbBlockReference
  2
_OPEN
 10
580.6008571329676
 20
49.36550365985056
 30
0.0
 41
2.0
 42
2.0
 43
2.0
  0
MTEXT
  5
1BFD7
330
13632
100
AcDbEntity
  8
30
  6
Continuous
440
 16777216
100
AcDbMText
 10
554.1008571329675
 20
56.36550365985056
 30
0.0
 40
8.0
 41
0.0
 46
0.0
 71
     5
 72
     1
  1
\A1;53
 73
     1
 44
1.0
 90
        3
 63
     9
421
 13158600
 45
1.25
441
        0
  0
POINT
  5
1BFD8
330
13632
100
AcDbEntity
  8
DEFPOINTS
  6
Continuous
 62
     0
440
 16777216
100
AcDbPoint
 10
527.6008571329676
 20
164.07232407759
 30
0.0
  0
POINT
  5
1BFD9
330
13632
100
AcDbEntity
  8
DEFPOINTS
  6
Continuous
 62
     0
440
 16777216
100
AcDbPoint
 10
580.6008571329676
 20
164.07232407759
 30
0.0
  0
POINT
  5
1BFDA
330
13632
100
AcDbEntity
  8
DEFPOINTS
  6
Continuous
 62
     0
440
 16777216
100
AcDbPoint
 10
580.6008571329676
 20
49.36550365985056
 30
0.0
  0
ENDBLK
  5
13634
330
13632
100
AcDbEntity
  8
0
100
AcDbBlockEnd
  0
BLOCK
  5
1363F
330
1363E
100
AcDbEntity
  8
0
100
AcDbBlockBegin
  2
*D28
 70
     1
 10
0.0
 20
0.0
 30
0.0
  3
*D28
  1

  0
LINE
  5
1BFDB
330
1363E
100
AcDbEntity
  8
30
  6
Continuous
 62
     0
440
 16777216
370
    -2
100
AcDbLine
 10
581.6428397460659
 20
257.4531278759601
 30
0.0
 11
684.7664856549818
 21
257.45312787596
 31
0.0
  0
LINE
  5
1BFDC
330
1363E
100
AcDbEntity
  8
30
  6
Continuous
 62
     0
440
 16777216
370
    -2
100
AcDbLine
 10
581.6428397460659
 20
165.4531278759599
 30
0.0
 11
684.7664856549818
 21
165.4531278759599
 31
0.0
  0
LINE
  5
1BFDD
330
1363E
100
AcDbEntity
  8
30
  6
Continuous
 62
     0
440
 16777216
370
    -2
100
AcDbLine
 10
684.2664856549817
 20
255.4531278759601
 30
0.0
 11
684.2664856549817
 21
167.4531278759599
 31
0.0
  0
INSERT
  5
1BFDE
330
1363E
100
AcDbEntity
  8
30
  6
Continuous
 62
     0
440
 16777216
370
    -2
100
AcDbBlockReference
  2
_OPEN
 10
684.2664856549817
 20
257.45312787596
 30
0.0
 41
2.0
 42
2.0
 43
2.0
 50
90.0
  0
INSERT
  5
1BFDF
330
1363E
100
AcDbEntity
  8
30
  6
Continuous
 62
     0
440
 16777216
370
    -2
100
AcDbBlockReference
  2
_OPEN
 10
684.2664856549817
 20
165.4531278759599
 30
0.0
 41
2.0
 42
2.0
 43
2.0
 50
270.0
  0
MTEXT
  5
1BFE0
330
1363E
100
AcDbEntity
  8
30
  6
Continuous
440
 16777216
100
AcDbMText
 10
677.2664856549818
 20
211.45312787596
 30
0.0
 40
8.0
 41
0.0
 46
0.0
 71
     5
 72
     1
  1
\A1;92
 11
0.0000000000000001
 21
1.0
 31
0.0
 73
     1
 44
1.0
 90
        3
 63
     9
421
 13158600
 45
1.25
441
        0
  0
POINT
  5
1BFE1
330
1363E
100
AcDbEntity
  8
DEFPOINTS
  6
Continuous
 62
     0
440
 16777216
100
AcDbPoint
 10
580.6428397460657
 20
257.4531278759601
 30
0.0
  0
POINT
  5
1BFE2
330
1363E
100
AcDbEntity
  8
DEFPOINTS
  6
Continuous
 62
     0
440
 16777216
100
AcDbPoint
 10
580.6428397460657
 20
165.4531278759599
 30
0.0
  0
POINT
  5
1BFE3
330
1363E
100
AcDbEntity
  8
DEFPOINTS
  6
Continuous
 62
     0
440
 16777216
100
AcDbPoint
 10
684.2664856549817
 20
165.4531278759599
 30
0.0
  0
ENDBLK
  5
13640
330
1363E
100
AcDbEntity
  8
0
100
AcDbBlockEnd
  0
BLOCK
  5
13655
330
13654
100
AcDbEntity
  8
0
100
AcDbBlockBegin
  2
*D29
 70
     1
 10
0.0
 20
0.0
 30
0.0
  3
*D29
  1

  0
LINE
  5
1BFE4
330
13654
100
AcDbEntity
  8
30
  6
Continuous
 62
     0
440
 16777216
370
    -2
100
AcDbLine
 10
287.6615052345132
 20
163.07232407759
 30
0.0
 11
287.6615052345132
 21
48.86550365985056
 31
0.0
  0
LINE
  5
1BFE5
330
13654
100
AcDbEntity
  8
30
  6
Continuous
 62
     0
440
 16777216
370
    -2
100
AcDbLine
 10
405.6615052345129
 20
163.07232407759
 30
0.0
 11
405.6615052345129
 21
48.86550365985056
 31
0.0
  0
LINE
  5
1BFE6
330
13654
100
AcDbEntity
  8
30
  6
Continuous
 62
     0
440
 16777216
370
    -2
100
AcDbLine
 10
289.6615052345132
 20
49.36550365985056
 30
0.0
 11
403.6615052345132
 21
49.36550365985056
 31
0.0
  0
INSERT
  5
1BFE7
330
13654
100
AcDbEntity
  8
30
  6
Continuous
 62
     0
440
 16777216
370
    -2
100
AcDbBlockReference
  2
_OPEN
 10
287.6615052345132
 20
49.36550365985056
 30
0.0
 41
2.0
 42
2.0
 43
2.0
 50
180.0
  0
INSERT
  5
1BFE8
330
13654
100
AcDbEntity
  8
30
  6
Continuous
 62
     0
440
 16777216
370
    -2
100
AcDbBlockReference
  2
_OPEN
 10
405.6615052345129
 20
49.36550365985056
 30
0.0
 41
2.0
 42
2.0
 43
2.0
  0
MTEXT
  5
1BFE9
330
13654
100
AcDbEntity
  8
30
  6
Continuous
440
 16777216
100
AcDbMText
 10
346.6615052345133
 20
56.36550365985056
 30
0.0
 40
8.0
 41
0.0
 46
0.0
 71
     5
 72
     1
  1
\A1;118
 73
     1
 44
1.0
 90
        3
 63
     9
421
 13158600
 45
1.25
441
        0
  0
POINT
  5
1BFEA
330
13654
100
AcDbEntity
  8
DEFPOINTS
  6
Continuous
 62
     0
440
 16777216
100
AcDbPoint
 10
287.6615052345132
 20
164.07232407759
 30
0.0
  0
POINT
  5
1BFEB
330
13654
100
AcDbEntity
  8
DEFPOINTS
  6
Continuous
 62
     0
440
 16777216
100
AcDbPoint
 10
405.6615052345129
 20
164.07232407759
 30
0.0
  0
POINT
  5
1BFEC
330
13654
100
AcDbEntity
  8
DEFPOINTS
  6
Continuous
 62
     0
440
 16777216
100
AcDbPoint
 10
405.6615052345129
 20
49.36550365985056
 30
0.0
  0
ENDBLK
  5
13656
330
13654
100
AcDbEntity
  8
0
100
AcDbBlockEnd
  0
BLOCK
  5
13661
330
13660
100
AcDbEntity
  8
0
100
AcDbBlockBegin
  2
*D30
 70
     1
 10
0.0
 20
0.0
 30
0.0
  3
*D30
  1

  0
LINE
  5
1BFED
330
13660
100
AcDbEntity
  8
30
  6
Continuous
 62
     0
440
 16777216
370
    -2
100
AcDbLine
 10
406.7034878476112
 20
257.4531278759601
 30
0.0
 11
477.3045443571708
 21
257.4531278759601
 31
0.0
  0
LINE
  5
1BFEE
330
13660
100
AcDbEntity
  8
30
  6
Continuous
 62
     0
440
 16777216
370
    -2
100
AcDbLine
 10
406.7034878476112
 20
165.4531278759599
 30
0.0
 11
477.3045443571708
 21
165.4531278759599
 31
0.0
  0
LINE
  5
1BFEF
330
13660
100
AcDbEntity
  8
30
  6
Continuous
 62
     0
440
 16777216
370
    -2
100
AcDbLine
 10
476.8045443571709
 20
255.4531278759601
 30
0.0
 11
476.8045443571709
 21
167.4531278759599
 31
0.0
  0
INSERT
  5
1BFF0
330
13660
100
AcDbEntity
  8
30
  6
Continuous
 62
     0
440
 16777216
370
    -2
100
AcDbBlockReference
  2
_OPEN
 10
476.8045443571709
 20
257.4531278759601
 30
0.0
 41
2.0
 42
2.0
 43
2.0
 50
90.0
  0
INSERT
  5
1BFF1
330
13660
100
AcDbEntity
  8
30
  6
Continuous
 62
     0
440
 16777216
370
    -2
100
AcDbBlockReference
  2
_OPEN
 10
476.8045443571709
 20
165.4531278759599
 30
0.0
 41
2.0
 42
2.0
 43
2.0
 50
270.0
  0
MTEXT
  5
1BFF2
330
13660
100
AcDbEntity
  8
30
  6
Continuous
440
 16777216
100
AcDbMText
 10
469.8045443571706
 20
211.45312787596
 30
0.0
 40
8.0
 41
0.0
 46
0.0
 71
     5
 72
     1
  1
\A1;92
 11
0.0000000000000001
 21
1.0
 31
0.0
 73
     1
 44
1.0
 90
        3
 63
     9
421
 13158600
 45
1.25
441
        0
  0
POINT
  5
1BFF3
330
13660
100
AcDbEntity
  8
DEFPOINTS
  6
Continuous
 62
     0
440
 16777216
100
AcDbPoint
 10
405.7034878476112
 20
257.4531278759601
 30
0.0
  0
POINT
  5
1BFF4
330
13660
100
AcDbEntity
  8
DEFPOINTS
  6
Continuous
 62
     0
440
 16777216
100
AcDbPoint
 10
405.7034878476112
 20
165.4531278759599
 30
0.0
  0
POINT
  5
1BFF5
330
13660
100
AcDbEntity
  8
DEFPOINTS
  6
Continuous
 62
     0
440
 16777216
100
AcDbPoint
 10
476.8045443571709
 20
165.4531278759599
 30
0.0
  0
ENDBLK
  5
13662
330
13660
100
AcDbEntity
  8
0
100
AcDbBlockEnd
  0
BLOCK
  5
145FD
330
145FC
100
AcDbEntity
  8
0
100
AcDbBlockBegin
  2
*D31
 70
     1
 10
0.0
 20
0.0
 30
0.0
  3
*D31
  1

  0
LINE
  5
1BFF6
330
145FC
100
AcDbEntity
  8
30
  6
Continuous
 62
     0
440
 16777216
370
    -2
100
AcDbLine
 10
407.789312457087
 20
258.9754793793677
 30
0.0
 11
428.3899538271137
 21
287.8580604952747
 31
0.0
  0
LINE
  5
1BFF7
330
145FC
100
AcDbEntity
  8
30
  6
Continuous
 62
     0
440
 16777216
370
    -2
100
AcDbLine
 10
428.3899538271137
 20
287.8580604952747
 30
0.0
 11
444.7232871604471
 21
287.8580604952747
 31
0.0
  0
LINE
  5
1BFF8
330
145FC
100
AcDbEntity
  8
30
  6
Continuous
 62
     0
440
 16777216
370
    -2
100
AcDbLine
 10
405.4665831001933
 20
255.718958484907
 30
0.0
 11
406.6279477786925
 21
257.3472189322103
 31
0.0
  0
INSERT
  5
1BFF9
330
145FC
100
AcDbEntity
  8
30
  6
Continuous
 62
     0
440
 16777216
370
    -2
100
AcDbBlockReference
  2
_OPEN
 10
406.6279477786925
 20
257.3472189322103
 30
0.0
 41
2.0
 42
2.0
 43
2.0
 50
234.5014509348112
  0
MTEXT
  5
1BFFA
330
145FC
100
AcDbEntity
  8
30
  6
Continuous
 62
     0
440
 16777216
100
AcDbMText
 10
431.3899538271137
 20
298.8580604952748
 30
0.0
 40
8.0
 41
0.0
 46
0.0
 71
     1
 72
     1
  1
\A1;R2
 73
     1
 44
1.0
  0
POINT
  5
1BFFB
330
145FC
100
AcDbEntity
  8
DEFPOINTS
  6
Continuous
 62
     0
440
 16777216
100
AcDbPoint
 10
406.6279477786925
 20
257.3472189322103
 30
0.0
  0
POINT
  5
1BFFC
330
145FC
100
AcDbEntity
  8
DEFPOINTS
  6
Continuous
 62
     0
440
 16777216
100
AcDbPoint
 10
405.4665831001933
 20
255.718958484907
 30
0.0
  0
ENDBLK
  5
145FE
330
145FC
100
AcDbEntity
  8
0
100
AcDbBlockEnd
  0
BLOCK
  5
14620
330
1461F
100
AcDbEntity
  8
0
100
AcDbBlockBegin
  2
*D32
 70
     1
 10
0.0
 20
0.0
 30
0.0
  3
*D32
  1

  0
LINE
  5
1BFFD
330
1461F
100
AcDbEntity
  8
30
  6
Continuous
 62
     0
440
 16777216
370
    -2
100
AcDbLine
 10
581.1008953048163
 20
258.3896929417409
 30
0.0
 11
601.7015366748426
 21
287.2722740576478
 31
0.0
  0
LINE
  5
1BFFE
330
1461F
100
AcDbEntity
  8
30
  6
Continuous
 62
     0
440
 16777216
370
    -2
100
AcDbLine
 10
601.7015366748426
 20
287.2722740576478
 30
0.0
 11
618.034870008176
 21
287.2722740576478
 31
0.0
  0
LINE
  5
1BFFF
330
1461F
100
AcDbEntity
  8
30
  6
Continuous
 62
     0
440
 16777216
370
    -2
100
AcDbLine
 10
578.7781659479223
 20
255.1331720472802
 30
0.0
 11
579.9395306264214
 21
256.7614324945836
 31
0.0
  0
INSERT
  5
1C000
330
1461F
100
AcDbEntity
  8
30
  6
Continuous
 62
     0
440
 16777216
370
    -2
100
AcDbBlockReference
  2
_OPEN
 10
579.9395306264214
 20
256.7614324945836
 30
0.0
 41
2.0
 42
2.0
 43
2.0
 50
234.5014509348113
  0
MTEXT
  5
1C001
330
1461F
100
AcDbEntity
  8
30
  6
Continuous
 62
     0
440
 16777216
100
AcDbMText
 10
604.7015366748431
 20
298.2722740576477
 30
0.0
 40
8.0
 41
0.0
 46
0.0
 71
     1
 72
     1
  1
\A1;R2
 73
     1
 44
1.0
  0
POINT
  5
1C002
330
1461F
100
AcDbEntity
  8
DEFPOINTS
  6
Continuous
 62
     0
440
 16777216
100
AcDbPoint
 10
579.9395306264214
 20
256.7614324945836
 30
0.0
  0
POINT
  5
1C003
330
1461F
100
AcDbEntity
  8
DEFPOINTS
  6
Continuous
 62
     0
440
 16777216
100
AcDbPoint
 10
578.7781659479223
 20
255.1331720472802
 30
0.0
  0
ENDBLK
  5
14621
330
1461F
100
AcDbEntity
  8
0
100
AcDbBlockEnd
  0
BLOCK
  5
15D98
330
15D97
100
AcDbEntity
  8
0
100
AcDbBlockBegin
  2
*D33
 70
     1
 10
0.0
 20
0.0
 30
0.0
  3
*D33
  1

  0
LINE
  5
1C180
330
15D97
100
AcDbEntity
  8
30
  6
Continuous
 62
     0
440
 16777216
370
    -2
100
AcDbLine
 10
118.5265338653726
 20
569.4938972774822
 30
0.0
 11
118.5265338653726
 21
546.0386797269083
 31
0.0
  0
LINE
  5
1C181
330
15D97
100
AcDbEntity
  8
30
  6
Continuous
 62
     0
440
 16777216
370
    -2
100
AcDbLine
 10
234.5265338653726
 20
569.4938972774822
 30
0.0
 11
234.5265338653726
 21
546.0386797269083
 31
0.0
  0
LINE
  5
1C182
330
15D97
100
AcDbEntity
  8
30
  6
Continuous
 62
     0
440
 16777216
370
    -2
100
AcDbLine
 10
120.5265338653726
 20
546.5386797269083
 30
0.0
 11
232.5265338653726
 21
546.5386797269083
 31
0.0
  0
INSERT
  5
1C183
330
15D97
100
AcDbEntity
  8
30
  6
Continuous
 62
     0
440
 16777216
370
    -2
100
AcDbBlockReference
  2
_OPEN
 10
118.5265338653726
 20
546.5386797269083
 30
0.0
 41
2.0
 42
2.0
 43
2.0
 50
180.0
  0
INSERT
  5
1C184
330
15D97
100
AcDbEntity
  8
30
  6
Continuous
 62
     0
440
 16777216
370
    -2
100
AcDbBlockReference
  2
_OPEN
 10
234.5265338653726
 20
546.5386797269083
 30
0.0
 41
2.0
 42
2.0
 43
2.0
  0
MTEXT
  5
1C185
330
15D97
100
AcDbEntity
  8
30
  6
Continuous
440
 16777216
100
AcDbMText
 10
158.3043271808891
 20
553.538679726908
 30
0.0
 40
8.0
 41
0.0
 46
0.0
 71
     5
 72
     1
  1
\A1;116
 73
     1
 44
1.0
 90
        3
 63
     9
421
 13158600
 45
1.25
441
        0
  0
POINT
  5
1C186
330
15D97
100
AcDbEntity
  8
DEFPOINTS
  6
Continuous
 62
     0
440
 16777216
100
AcDbPoint
 10
118.5265338653726
 20
570.4938972774822
 30
0.0
  0
POINT
  5
1C187
330
15D97
100
AcDbEntity
  8
DEFPOINTS
  6
Continuous
 62
     0
440
 16777216
100
AcDbPoint
 10
234.5265338653726
 20
570.4938972774822
 30
0.0
  0
POINT
  5
1C188
330
15D97
100
AcDbEntity
  8
DEFPOINTS
  6
Continuous
 62
     0
440
 16777216
100
AcDbPoint
 10
234.5265338653726
 20
546.5386797269083
 30
0.0
  0
ENDBLK
  5
15D99
330
15D97
100
AcDbEntity
  8
0
100
AcDbBlockEnd
  0
BLOCK
  5
15DA4
330
15DA3
100
AcDbEntity
  8
0
100
AcDbBlockBegin
  2
*D34
 70
     1
 10
0.0
 20
0.0
 30
0.0
  3
*D34
  1

  0
LINE
  5
1C177
330
15DA3
100
AcDbEntity
  8
30
  6
Continuous
 62
     0
440
 16777216
370
    -2
100
AcDbLine
 10
202.0052443708723
 20
660.4938972774822
 30
0.0
 11
202.0052443708723
 21
670.7548986300044
 31
0.0
  0
LINE
  5
1C178
330
15DA3
100
AcDbEntity
  8
30
  6
Continuous
 62
     0
440
 16777216
370
    -2
100
AcDbLine
 10
151.0265338653726
 20
660.4938972774822
 30
0.0
 11
151.0265338653726
 21
670.7548986300044
 31
0.0
  0
LINE
  5
1C179
330
15DA3
100
AcDbEntity
  8
30
  6
Continuous
 62
     0
440
 16777216
370
    -2
100
AcDbLine
 10
200.0052443708723
 20
670.2548986300044
 30
0.0
 11
153.0265338653726
 21
670.2548986300044
 31
0.0
  0
INSERT
  5
1C17A
330
15DA3
100
AcDbEntity
  8
30
  6
Continuous
 62
     0
440
 16777216
370
    -2
100
AcDbBlockReference
  2
_OPEN
 10
202.0052443708723
 20
670.2548986300044
 30
0.0
 41
2.0
 42
2.0
 43
2.0
  0
INSERT
  5
1C17B
330
15DA3
100
AcDbEntity
  8
30
  6
Continuous
 62
     0
440
 16777216
370
    -2
100
AcDbBlockReference
  2
_OPEN
 10
151.0265338653726
 20
670.2548986300044
 30
0.0
 41
2.0
 42
2.0
 43
2.0
 50
180.0
  0
MTEXT
  5
1C17C
330
15DA3
100
AcDbEntity
  8
30
  6
Continuous
440
 16777216
100
AcDbMText
 10
188.1015093957831
 20
677.2548986300042
 30
0.0
 40
8.0
 41
0.0
 46
0.0
 71
     5
 72
     1
  1
\A1;51
 73
     1
 44
1.0
 90
        3
 63
     9
421
 13158600
 45
1.25
441
        0
  0
POINT
  5
1C17D
330
15DA3
100
AcDbEntity
  8
DEFPOINTS
  6
Continuous
 62
     0
440
 16777216
100
AcDbPoint
 10
202.0052443708723
 20
659.4938972774822
 30
0.0
  0
POINT
  5
1C17E
330
15DA3
100
AcDbEntity
  8
DEFPOINTS
  6
Continuous
 62
     0
440
 16777216
100
AcDbPoint
 10
151.0265338653726
 20
659.4938972774822
 30
0.0
  0
POINT
  5
1C17F
330
15DA3
100
AcDbEntity
  8
DEFPOINTS
  6
Continuous
 62
     0
440
 16777216
100
AcDbPoint
 10
151.0265338653726
 20
670.2548986300044
 30
0.0
  0
ENDBLK
  5
15DA5
330
15DA3
100
AcDbEntity
  8
0
100
AcDbBlockEnd
  0
BLOCK
  5
16856
330
16855
100
AcDbEntity
  8
0
100
AcDbBlockBegin
  2
*D35
 70
     1
 10
0.0
 20
0.0
 30
0.0
  3
*D35
  1

  0
LINE
  5
1C086
330
16855
100
AcDbEntity
  8
30
  6
Continuous
 62
     0
440
 16777216
370
    -2
100
AcDbLine
 10
471.8414768420711
 20
619.7339736219884
 30
0.0
 11
471.8414768420711
 21
371.3250925060379
 31
0.0
  0
LINE
  5
1C087
330
16855
100
AcDbEntity
  8
30
  6
Continuous
 62
     0
440
 16777216
370
    -2
100
AcDbLine
 10
601.8414768420711
 20
484.4938972774825
 30
0.0
 11
601.8414768420711
 21
371.3250925060379
 31
0.0
  0
LINE
  5
1C088
330
16855
100
AcDbEntity
  8
30
  6
Continuous
 62
     0
440
 16777216
370
    -2
100
AcDbLine
 10
473.8414768420711
 20
371.8250925060379
 30
0.0
 11
599.8414768420712
 21
371.8250925060379
 31
0.0
  0
INSERT
  5
1C089
330
16855
100
AcDbEntity
  8
30
  6
Continuous
 62
     0
440
 16777216
370
    -2
100
AcDbBlockReference
  2
_OPEN
 10
471.8414768420711
 20
371.8250925060379
 30
0.0
 41
2.0
 42
2.0
 43
2.0
 50
180.0
  0
INSERT
  5
1C08A
330
16855
100
AcDbEntity
  8
30
  6
Continuous
 62
     0
440
 16777216
370
    -2
100
AcDbBlockReference
  2
_OPEN
 10
601.8414768420711
 20
371.8250925060379
 30
0.0
 41
2.0
 42
2.0
 43
2.0
  0
MTEXT
  5
1C08B
330
16855
100
AcDbEntity
  8
30
  6
Continuous
440
 16777216
100
AcDbMText
 10
536.8414768420712
 20
382.8250925060379
 30
0.0
 40
8.0
 41
0.0
 46
0.0
 71
     2
 72
     1
  1
\A1;130
 73
     1
 44
1.0
 90
        3
 63
     9
421
 13158600
 45
1.25
441
        0
  0
POINT
  5
1C08C
330
16855
100
AcDbEntity
  8
DEFPOINTS
  6
Continuous
 62
     0
440
 16777216
100
AcDbPoint
 10
471.8414768420711
 20
620.7339736219884
 30
0.0
  0
POINT
  5
1C08D
330
16855
100
AcDbEntity
  8
DEFPOINTS
  6
Continuous
 62
     0
440
 16777216
100
AcDbPoint
 10
601.8414768420711
 20
485.4938972774824
 30
0.0
  0
POINT
  5
1C08E
330
16855
100
AcDbEntity
  8
DEFPOINTS
  6
Continuous
 62
     0
440
 16777216
100
AcDbPoint
 10
601.8414768420711
 20
371.8250925060379
 30
0.0
  0
ENDBLK
  5
16857
330
16855
100
AcDbEntity
  8
0
100
AcDbBlockEnd
  0
BLOCK
  5
16862
330
16861
100
AcDbEntity
  8
0
100
AcDbBlockBegin
  2
*D36
 70
     1
 10
0.0
 20
0.0
 30
0.0
  3
*D36
  1

  0
LINE
  5
1C0B5
330
16861
100
AcDbEntity
  8
30
  6
Continuous
 62
     0
440
 16777216
370
    -2
100
AcDbLine
 10
601.8414768420711
 20
484.4938972774825
 30
0.0
 11
601.8414768420711
 21
420.5009318869056
 31
0.0
  0
LINE
  5
1C0B6
330
16861
100
AcDbEntity
  8
30
  6
Continuous
 62
     0
440
 16777216
370
    -2
100
AcDbLine
 10
616.541476842071
 20
506.792909961811
 30
0.0
 11
616.541476842071
 21
420.5009318869056
 31
0.0
  0
LINE
  5
1C0B7
330
16861
100
AcDbEntity
  8
30
  6
Continuous
 62
     0
440
 16777216
370
    -2
100
AcDbLine
 10
603.8414768420712
 20
421.0009318869055
 30
0.0
 11
614.5414768420708
 21
421.0009318869055
 31
0.0
  0
LINE
  5
1C0B8
330
16861
100
AcDbEntity
  8
30
  6
Continuous
 62
     0
440
 16777216
370
    -2
100
AcDbLine
 10
616.541476842071
 20
421.0009318869055
 30
0.0
 11
657.668030011738
 21
421.0009318869055
 31
0.0
  0
INSERT
  5
1C0B9
330
16861
100
AcDbEntity
  8
30
  6
Continuous
 62
     0
440
 16777216
370
    -2
100
AcDbBlockReference
  2
_OPEN
 10
601.8414768420711
 20
421.0009318869055
 30
0.0
 41
2.0
 42
2.0
 43
2.0
 50
180.0
  0
INSERT
  5
1C0BA
330
16861
100
AcDbEntity
  8
30
  6
Continuous
 62
     0
440
 16777216
370
    -2
100
AcDbBlockReference
  2
_OPEN
 10
616.541476842071
 20
421.0009318869055
 30
0.0
 41
2.0
 42
2.0
 43
2.0
  0
MTEXT
  5
1C0BB
330
16861
100
AcDbEntity
  8
30
  6
Continuous
440
 16777216
100
AcDbMText
 10
644.0013633450712
 20
432.0009318869055
 30
0.0
 40
8.0
 41
0.0
 46
0.0
 71
     2
 72
     1
  1
\A1;14.7
 73
     1
 44
1.0
 90
        3
 63
     9
421
 13158600
 45
1.25
441
        0
  0
POINT
  5
1C0BC
330
16861
100
AcDbEntity
  8
DEFPOINTS
  6
Continuous
 62
     0
440
 16777216
100
AcDbPoint
 10
601.8414768420711
 20
485.4938972774824
 30
0.0
  0
POINT
  5
1C0BD
330
16861
100
AcDbEntity
  8
DEFPOINTS
  6
Continuous
 62
     0
440
 16777216
100
AcDbPoint
 10
616.541476842071
 20
507.792909961811
 30
0.0
  0
POINT
  5
1C0BE
330
16861
100
AcDbEntity
  8
DEFPOINTS
  6
Continuous
 62
     0
440
 16777216
100
AcDbPoint
 10
616.541476842071
 20
421.0009318869055
 30
0.0
  0
ENDBLK
  5
16863
330
16861
100
AcDbEntity
  8
0
100
AcDbBlockEnd
  0
BLOCK
  5
1686F
330
1686E
100
AcDbEntity
  8
0
100
AcDbBlockBegin
  2
*D37
 70
     1
 10
0.0
 20
0.0
 30
0.0
  3
*D37
  1

  0
LINE
  5
1C08F
330
1686E
100
AcDbEntity
  8
30
  6
Continuous
 62
     0
440
 16777216
370
    -2
100
AcDbLine
 10
498.8414768420711
 20
519.8194475888863
 30
0.0
 11
498.8414768420711
 21
403.3651661313552
 31
0.0
  0
LINE
  5
1C090
330
1686E
100
AcDbEntity
  8
30
  6
Continuous
 62
     0
440
 16777216
370
    -2
100
AcDbLine
 10
601.8414768420711
 20
484.4938972774825
 30
0.0
 11
601.8414768420711
 21
403.3651661313552
 31
0.0
  0
LINE
  5
1C091
330
1686E
100
AcDbEntity
  8
30
  6
Continuous
 62
     0
440
 16777216
370
    -2
100
AcDbLine
 10
500.8414768420711
 20
403.8651661313552
 30
0.0
 11
599.8414768420712
 21
403.8651661313552
 31
0.0
  0
INSERT
  5
1C092
330
1686E
100
AcDbEntity
  8
30
  6
Continuous
 62
     0
440
 16777216
370
    -2
100
AcDbBlockReference
  2
_OPEN
 10
498.8414768420711
 20
403.8651661313552
 30
0.0
 41
2.0
 42
2.0
 43
2.0
 50
180.0
  0
INSERT
  5
1C093
330
1686E
100
AcDbEntity
  8
30
  6
Continuous
 62
     0
440
 16777216
370
    -2
100
AcDbBlockReference
  2
_OPEN
 10
601.8414768420711
 20
403.8651661313552
 30
0.0
 41
2.0
 42
2.0
 43
2.0
  0
MTEXT
  5
1C094
330
1686E
100
AcDbEntity
  8
30
  6
Continuous
440
 16777216
100
AcDbMText
 10
550.3414768420707
 20
414.8651661313551
 30
0.0
 40
8.0
 41
0.0
 46
0.0
 71
     2
 72
     1
  1
\A1;103
 73
     1
 44
1.0
 90
        3
 63
     9
421
 13158600
 45
1.25
441
        0
  0
POINT
  5
1C095
330
1686E
100
AcDbEntity
  8
DEFPOINTS
  6
Continuous
 62
     0
440
 16777216
100
AcDbPoint
 10
498.8414768420711
 20
520.8194475888863
 30
0.0
  0
POINT
  5
1C096
330
1686E
100
AcDbEntity
  8
DEFPOINTS
  6
Continuous
 62
     0
440
 16777216
100
AcDbPoint
 10
601.8414768420711
 20
485.4938972774824
 30
0.0
  0
POINT
  5
1C097
330
1686E
100
AcDbEntity
  8
DEFPOINTS
  6
Continuous
 62
     0
440
 16777216
100
AcDbPoint
 10
601.8414768420711
 20
403.8651661313552
 30
0.0
  0
ENDBLK
  5
16870
330
1686E
100
AcDbEntity
  8
0
100
AcDbBlockEnd
  0
BLOCK
  5
1687B
330
1687A
100
AcDbEntity
  8
0
100
AcDbBlockBegin
  2
*D38
 70
     1
 10
0.0
 20
0.0
 30
0.0
  3
*D38
  1

  0
LINE
  5
1C15E
330
1687A
100
AcDbEntity
  8
30
  6
Continuous
 62
     0
440
 16777216
370
    -2
100
AcDbLine
 10
504.8414768420711
 20
484.4938972774825
 30
0.0
 11
504.8414768420711
 21
420.0324407635896
 31
0.0
  0
LINE
  5
1C15F
330
1687A
100
AcDbEntity
  8
30
  6
Continuous
 62
     0
440
 16777216
370
    -2
100
AcDbLine
 10
601.8414768420711
 20
484.4938972774825
 30
0.0
 11
601.8414768420711
 21
420.0324407635896
 31
0.0
  0
LINE
  5
1C160
330
1687A
100
AcDbEntity
  8
30
  6
Continuous
 62
     0
440
 16777216
370
    -2
100
AcDbLine
 10
506.8414768420711
 20
420.5324407635897
 30
0.0
 11
599.8414768420712
 21
420.5324407635897
 31
0.0
  0
INSERT
  5
1C161
330
1687A
100
AcDbEntity
  8
30
  6
Continuous
 62
     0
440
 16777216
370
    -2
100
AcDbBlockReference
  2
_OPEN
 10
504.8414768420711
 20
420.5324407635897
 30
0.0
 41
2.0
 42
2.0
 43
2.0
 50
180.0
  0
INSERT
  5
1C162
330
1687A
100
AcDbEntity
  8
30
  6
Continuous
 62
     0
440
 16777216
370
    -2
100
AcDbBlockReference
  2
_OPEN
 10
601.8414768420711
 20
420.5324407635897
 30
0.0
 41
2.0
 42
2.0
 43
2.0
  0
MTEXT
  5
1C163
330
1687A
100
AcDbEntity
  8
30
  6
Continuous
440
 16777216
100
AcDbMText
 10
525.7376969588131
 20
431.5324407635896
 30
0.0
 40
8.0
 41
0.0
 46
0.0
 71
     2
 72
     1
  1
\A1;97
 73
     1
 44
1.0
 90
        3
 63
     9
421
 13158600
 45
1.25
441
        0
  0
POINT
  5
1C164
330
1687A
100
AcDbEntity
  8
DEFPOINTS
  6
Continuous
 62
     0
440
 16777216
100
AcDbPoint
 10
504.8414768420711
 20
485.4938972774824
 30
0.0
  0
POINT
  5
1C165
330
1687A
100
AcDbEntity
  8
DEFPOINTS
  6
Continuous
 62
     0
440
 16777216
100
AcDbPoint
 10
601.8414768420711
 20
485.4938972774824
 30
0.0
  0
POINT
  5
1C166
330
1687A
100
AcDbEntity
  8
DEFPOINTS
  6
Continuous
 62
     0
440
 16777216
100
AcDbPoint
 10
601.8414768420711
 20
420.5324407635897
 30
0.0
  0
ENDBLK
  5
1687C
330
1687A
100
AcDbEntity
  8
0
100
AcDbBlockEnd
  0
BLOCK
  5
16887
330
16886
100
AcDbEntity
  8
0
100
AcDbBlockBegin
  2
*D39
 70
     1
 10
0.0
 20
0.0
 30
0.0
  3
*D39
  1

  0
LINE
  5
1C098
330
16886
100
AcDbEntity
  8
30
  6
Continuous
 62
     0
440
 16777216
370
    -2
100
AcDbLine
 10
450.8479810725561
 20
628.3025728199486
 30
0.0
 11
450.8479810725561
 21
354.0010211802655
 31
0.0
  0
LINE
  5
1C099
330
16886
100
AcDbEntity
  8
30
  6
Continuous
 62
     0
440
 16777216
370
    -2
100
AcDbLine
 10
601.8414768420711
 20
370.3250925060379
 30
0.0
 11
601.8414768420711
 21
354.0010211802655
 31
0.0
  0
LINE
  5
1C09A
330
16886
100
AcDbEntity
  8
30
  6
Continuous
 62
     0
440
 16777216
370
    -2
100
AcDbLine
 10
452.8479810725561
 20
354.5010211802655
 30
0.0
 11
599.8414768420712
 21
354.5010211802655
 31
0.0
  0
INSERT
  5
1C09B
330
16886
100
AcDbEntity
  8
30
  6
Continuous
 62
     0
440
 16777216
370
    -2
100
AcDbBlockReference
  2
_OPEN
 10
450.8479810725561
 20
354.5010211802655
 30
0.0
 41
2.0
 42
2.0
 43
2.0
 50
180.0
  0
INSERT
  5
1C09C
330
16886
100
AcDbEntity
  8
30
  6
Continuous
 62
     0
440
 16777216
370
    -2
100
AcDbBlockReference
  2
_OPEN
 10
601.8414768420711
 20
354.5010211802655
 30
0.0
 41
2.0
 42
2.0
 43
2.0
  0
MTEXT
  5
1C09D
330
16886
100
AcDbEntity
  8
30
  6
Continuous
440
 16777216
100
AcDbMText
 10
526.3447289573137
 20
361.5010211802655
 30
0.0
 40
8.0
 41
0.0
 46
0.0
 71
     5
 72
     1
  1
\A1;151
 73
     1
 44
1.0
 90
        3
 63
     9
421
 13158600
 45
1.25
441
        0
  0
POINT
  5
1C09E
330
16886
100
AcDbEntity
  8
DEFPOINTS
  6
Continuous
 62
     0
440
 16777216
100
AcDbPoint
 10
450.8479810725561
 20
629.3025728199486
 30
0.0
  0
POINT
  5
1C09F
330
16886
100
AcDbEntity
  8
DEFPOINTS
  6
Continuous
 62
     0
440
 16777216
100
AcDbPoint
 10
601.8414768420711
 20
371.3250925060379
 30
0.0
  0
POINT
  5
1C0A0
330
16886
100
AcDbEntity
  8
DEFPOINTS
  6
Continuous
 62
     0
440
 16777216
100
AcDbPoint
 10
601.8414768420711
 20
354.5010211802655
 30
0.0
  0
ENDBLK
  5
16888
330
16886
100
AcDbEntity
  8
0
100
AcDbBlockEnd
  0
BLOCK
  5
16893
330
16892
100
AcDbEntity
  8
0
100
AcDbBlockBegin
  2
*D40
 70
     1
 10
0.0
 20
0.0
 30
0.0
  3
*D40
  1

  0
LINE
  5
1C0A1
330
16892
100
AcDbEntity
  8
30
  6
Continuous
 62
     0
440
 16777216
370
    -2
100
AcDbLine
 10
494.8414767230708
 20
566.9915552563112
 30
0.0
 11
494.8414767230708
 21
387.1256852430802
 31
0.0
  0
LINE
  5
1C0A2
330
16892
100
AcDbEntity
  8
30
  6
Continuous
 62
     0
440
 16777216
370
    -2
100
AcDbLine
 10
486.8414767230709
 20
569.9915552563112
 30
0.0
 11
486.8414767230709
 21
387.1256852430802
 31
0.0
  0
LINE
  5
1C0A3
330
16892
100
AcDbEntity
  8
30
  6
Continuous
 62
     0
440
 16777216
370
    -2
100
AcDbLine
 10
496.8414767230711
 20
387.6256852430802
 30
0.0
 11
498.8414767230708
 21
387.6256852430802
 31
0.0
  0
LINE
  5
1C0A4
330
16892
100
AcDbEntity
  8
30
  6
Continuous
 62
     0
440
 16777216
370
    -2
100
AcDbLine
 10
484.841476723071
 20
387.6256852430802
 30
0.0
 11
471.5081433897378
 21
387.6256852430802
 31
0.0
  0
LINE
  5
1C0A5
330
16892
100
AcDbEntity
  8
30
  6
Continuous
 62
     0
440
 16777216
370
    -2
100
AcDbLine
 10
494.8414767230708
 20
387.6256852430802
 30
0.0
 11
486.8414767230709
 21
387.6256852430802
 31
0.0
  0
INSERT
  5
1C0A6
330
16892
100
AcDbEntity
  8
30
  6
Continuous
 62
     0
440
 16777216
370
    -2
100
AcDbBlockReference
  2
_OPEN
 10
494.8414767230708
 20
387.6256852430802
 30
0.0
 41
2.0
 42
2.0
 43
2.0
 50
180.0
  0
INSERT
  5
1C0A7
330
16892
100
AcDbEntity
  8
30
  6
Continuous
 62
     0
440
 16777216
370
    -2
100
AcDbBlockReference
  2
_OPEN
 10
486.8414767230709
 20
387.6256852430802
 30
0.0
 41
2.0
 42
2.0
 43
2.0
  0
MTEXT
  5
1C0A8
330
16892
100
AcDbEntity
  8
30
  6
Continuous
 62
     0
440
 16777216
100
AcDbMText
 10
477.1748100564043
 20
394.6256852430802
 30
0.0
 40
8.0
 41
0.0
 46
0.0
 71
     5
 72
     1
  1
\A1;8
 73
     1
 44
1.0
  0
POINT
  5
1C0A9
330
16892
100
AcDbEntity
  8
DEFPOINTS
  6
Continuous
 62
     0
440
 16777216
100
AcDbPoint
 10
494.8414767230708
 20
569.9915552563112
 30
0.0
  0
POINT
  5
1C0AA
330
16892
100
AcDbEntity
  8
DEFPOINTS
  6
Continuous
 62
     0
440
 16777216
100
AcDbPoint
 10
486.8414767230709
 20
572.9915552563112
 30
0.0
  0
POINT
  5
1C0AB
330
16892
100
AcDbEntity
  8
DEFPOINTS
  6
Continuous
 62
     0
440
 16777216
100
AcDbPoint
 10
486.8414767230709
 20
387.6256852430802
 30
0.0
  0
ENDBLK
  5
16894
330
16892
100
AcDbEntity
  8
0
100
AcDbBlockEnd
  0
BLOCK
  5
168A1
330
168A0
100
AcDbEntity
  8
0
100
AcDbBlockBegin
  2
*D41
 70
     1
 10
0.0
 20
0.0
 30
0.0
  3
*D41
  1

  0
LINE
  5
1C0AC
330
168A0
100
AcDbEntity
  8
30
  6
Continuous
 62
     0
440
 16777216
370
    -2
100
AcDbLine
 10
494.8414767230708
 20
388.6256852430802
 30
0.0
 11
494.8414767230708
 21
388.1256852430802
 31
0.0
  0
LINE
  5
1C0AD
330
168A0
100
AcDbEntity
  8
30
  6
Continuous
 62
     0
440
 16777216
370
    -2
100
AcDbLine
 10
601.8414768420711
 20
402.8651661313551
 30
0.0
 11
601.8414768420711
 21
387.1256852430802
 31
0.0
  0
LINE
  5
1C0AE
330
168A0
100
AcDbEntity
  8
30
  6
Continuous
 62
     0
440
 16777216
370
    -2
100
AcDbLine
 10
496.8414767230711
 20
387.6256852430802
 30
0.0
 11
599.8414768420712
 21
387.6256852430802
 31
0.0
  0
INSERT
  5
1C0AF
330
168A0
100
AcDbEntity
  8
30
  6
Continuous
 62
     0
440
 16777216
370
    -2
100
AcDbBlockReference
  2
_OPEN
 10
494.8414767230708
 20
387.6256852430802
 30
0.0
 41
2.0
 42
2.0
 43
2.0
 50
180.0
  0
INSERT
  5
1C0B0
330
168A0
100
AcDbEntity
  8
30
  6
Continuous
 62
     0
440
 16777216
370
    -2
100
AcDbBlockReference
  2
_OPEN
 10
601.8414768420711
 20
387.6256852430802
 30
0.0
 41
2.0
 42
2.0
 43
2.0
  0
MTEXT
  5
1C0B1
330
168A0
100
AcDbEntity
  8
30
  6
Continuous
440
 16777216
100
AcDbMText
 10
548.3414767825711
 20
394.6256852430802
 30
0.0
 40
8.0
 41
0.0
 46
0.0
 71
     5
 72
     1
  1
\A1;107
 73
     1
 44
1.0
 90
        3
 63
     9
421
 13158600
 45
1.25
441
        0
  0
POINT
  5
1C0B2
330
168A0
100
AcDbEntity
  8
DEFPOINTS
  6
Continuous
 62
     0
440
 16777216
100
AcDbPoint
 10
494.8414767230708
 20
387.6256852430802
 30
0.0
  0
POINT
  5
1C0B3
330
168A0
100
AcDbEntity
  8
DEFPOINTS
  6
Continuous
 62
     0
440
 16777216
100
AcDbPoint
 10
601.8414768420711
 20
403.8651661313552
 30
0.0
  0
POINT
  5
1C0B4
330
168A0
100
AcDbEntity
  8
DEFPOINTS
  6
Continuous
 62
     0
440
 16777216
100
AcDbPoint
 10
601.8414768420711
 20
387.6256852430802
 30
0.0
  0
ENDBLK
  5
168A2
330
168A0
100
AcDbEntity
  8
0
100
AcDbBlockEnd
  0
BLOCK
  5
19A06
330
19A05
100
AcDbEntity
  8
0
100
AcDbBlockBegin
  2
*D42
 70
     1
 10
0.0
 20
0.0
 30
0.0
  3
*D42
  1

  0
LINE
  5
1C061
330
19A05
100
AcDbEntity
  8
30
 62
     0
440
 16777216
370
    -2
100
AcDbLine
 10
176.2839548768725
 20
789.9939007344823
 30
0.0
 11
176.2839548768725
 21
847.8033542543663
 31
0.0
  0
LINE
  5
1C062
330
19A05
100
AcDbEntity
  8
30
 62
     0
440
 16777216
370
    -2
100
AcDbLine
 10
94.78395531787235
 20
789.9939007344823
 30
0.0
 11
94.78395531787235
 21
847.8033542543663
 31
0.0
  0
LINE
  5
1C063
330
19A05
100
AcDbEntity
  8
30
 62
     0
440
 16777216
370
    -2
100
AcDbLine
 10
174.2839548768725
 20
847.3033542543664
 30
0.0
 11
96.78395531787238
 21
847.3033542543664
 31
0.0
  0
INSERT
  5
1C064
330
19A05
100
AcDbEntity
  8
30
 62
     0
440
 16777216
370
    -2
100
AcDbBlockReference
  2
_OPEN
 10
176.2839548768725
 20
847.3033542543664
 30
0.0
 41
2.0
 42
2.0
 43
2.0
  0
INSERT
  5
1C065
330
19A05
100
AcDbEntity
  8
30
 62
     0
440
 16777216
370
    -2
100
AcDbBlockReference
  2
_OPEN
 10
94.78395531787235
 20
847.3033542543664
 30
0.0
 41
2.0
 42
2.0
 43
2.0
 50
180.0
  0
MTEXT
  5
1C066
330
19A05
100
AcDbEntity
  8
30
440
 16777216
100
AcDbMText
 10
135.5339550973724
 20
854.3033542543664
 30
0.0
 40
8.0
 41
0.0
 46
0.0
 71
     5
 72
     1
  1
\A1;81.5
 73
     1
 44
1.0
 90
        3
 63
     9
421
 13158600
 45
1.25
441
        0
  0
POINT
  5
1C067
330
19A05
100
AcDbEntity
  8
DEFPOINTS
 62
     0
440
 16777216
100
AcDbPoint
 10
176.2839548768725
 20
788.9939007344822
 30
0.0
  0
POINT
  5
1C068
330
19A05
100
AcDbEntity
  8
DEFPOINTS
 62
     0
440
 16777216
100
AcDbPoint
 10
94.78395531787235
 20
788.9939007344822
 30
0.0
  0
POINT
  5
1C069
330
19A05
100
AcDbEntity
  8
DEFPOINTS
 62
     0
440
 16777216
100
AcDbPoint
 10
94.78395531787235
 20
847.3033542543664
 30
0.0
  0
ENDBLK
  5
19A07
330
19A05
100
AcDbEntity
  8
0
100
AcDbBlockEnd
  0
BLOCK
  5
19A48
330
19A47
100
AcDbEntity
  8
0
100
AcDbBlockBegin
  2
*D43
 70
     1
 10
0.0
 20
0.0
 30
0.0
  3
*D43
  1

  0
LINE
  5
1C06A
330
19A47
100
AcDbEntity
  8
30
 62
     0
440
 16777216
370
    -2
100
AcDbLine
 10
176.2839548768725
 20
817.5354919076958
 30
0.0
 11
176.2839548768725
 21
847.7042992218567
 31
0.0
  0
LINE
  5
1C06B
330
19A47
100
AcDbEntity
  8
30
 62
     0
440
 16777216
370
    -2
100
AcDbLine
 10
302.7839487733722
 20
789.9939007344823
 30
0.0
 11
302.7839487733722
 21
847.7042992218567
 31
0.0
  0
LINE
  5
1C06C
330
19A47
100
AcDbEntity
  8
30
 62
     0
440
 16777216
370
    -2
100
AcDbLine
 10
178.2839548768725
 20
847.2042992218566
 30
0.0
 11
300.7839487733722
 21
847.2042992218566
 31
0.0
  0
INSERT
  5
1C06D
330
19A47
100
AcDbEntity
  8
30
 62
     0
440
 16777216
370
    -2
100
AcDbBlockReference
  2
_OPEN
 10
176.2839548768725
 20
847.2042992218566
 30
0.0
 41
2.0
 42
2.0
 43
2.0
 50
180.0
  0
INSERT
  5
1C06E
330
19A47
100
AcDbEntity
  8
30
 62
     0
440
 16777216
370
    -2
100
AcDbBlockReference
  2
_OPEN
 10
302.7839487733722
 20
847.2042992218566
 30
0.0
 41
2.0
 42
2.0
 43
2.0
  0
MTEXT
  5
1C06F
330
19A47
100
AcDbEntity
  8
30
440
 16777216
100
AcDbMText
 10
239.5339518251224
 20
854.2042992218567
 30
0.0
 40
8.0
 41
0.0
 46
0.0
 71
     5
 72
     1
  1
\A1;126.5
 73
     1
 44
1.0
 90
        3
 63
     9
421
 13158600
 45
1.25
441
        0
  0
POINT
  5
1C070
330
19A47
100
AcDbEntity
  8
DEFPOINTS
 62
     0
440
 16777216
100
AcDbPoint
 10
176.2839548768725
 20
816.5354919076959
 30
0.0
  0
POINT
  5
1C071
330
19A47
100
AcDbEntity
  8
DEFPOINTS
 62
     0
440
 16777216
100
AcDbPoint
 10
302.7839487733722
 20
788.9939007344822
 30
0.0
  0
POINT
  5
1C072
330
19A47
100
AcDbEntity
  8
DEFPOINTS
 62
     0
440
 16777216
100
AcDbPoint
 10
302.7839487733722
 20
847.2042992218566
 30
0.0
  0
ENDBLK
  5
19A49
330
19A47
100
AcDbEntity
  8
0
100
AcDbBlockEnd
  0
BLOCK
  5
1BE4F
330
1BE4E
100
AcDbEntity
  8
0
100
AcDbBlockBegin
  2
*D44
 70
     1
 10
0.0
 20
0.0
 30
0.0
  3
*D44
  1

  0
LINE
  5
1C2BF
330
1BE4E
100
AcDbEntity
  8
30
  6
Continuous
 62
     0
440
 16777216
370
    -2
100
AcDbLine
 10
199.0265338653726
 20
429.5743623362613
 30
0.0
 11
199.0265338653726
 21
397.113512039027
 31
0.0
  0
LINE
  5
1C2C0
330
1BE4E
100
AcDbEntity
  8
30
  6
Continuous
 62
     0
440
 16777216
370
    -2
100
AcDbLine
 10
176.5265338653725
 20
428.9285106981922
 30
0.0
 11
176.5265338653725
 21
397.113512039027
 31
0.0
  0
LINE
  5
1C2C1
330
1BE4E
100
AcDbEntity
  8
30
  6
Continuous
 62
     0
440
 16777216
370
    -2
100
AcDbLine
 10
197.0265338653726
 20
397.613512039027
 30
0.0
 11
178.5265338653725
 21
397.613512039027
 31
0.0
  0
LINE
  5
1C2C2
330
1BE4E
100
AcDbEntity
  8
30
  6
Continuous
 62
     0
440
 16777216
370
    -2
100
AcDbLine
 10
176.5265338653725
 20
397.613512039027
 30
0.0
 11
144.5265338653725
 21
397.613512039027
 31
0.0
  0
INSERT
  5
1C2C3
330
1BE4E
100
AcDbEntity
  8
30
  6
Continuous
 62
     0
440
 16777216
370
    -2
100
AcDbBlockReference
  2
_OPEN
 10
199.0265338653726
 20
397.613512039027
 30
0.0
 41
2.0
 42
2.0
 43
2.0
  0
INSERT
  5
1C2C4
330
1BE4E
100
AcDbEntity
  8
30
  6
Continuous
 62
     0
440
 16777216
370
    -2
100
AcDbBlockReference
  2
_OPEN
 10
176.5265338653725
 20
397.613512039027
 30
0.0
 41
2.0
 42
2.0
 43
2.0
 50
180.0
  0
MTEXT
  5
1C2C5
330
1BE4E
100
AcDbEntity
  8
30
  6
Continuous
440
 16777216
100
AcDbMText
 10
159.5265338653725
 20
404.6135120390269
 30
0.0
 40
8.0
 41
0.0
 46
0.0
 71
     5
 72
     1
  1
\A1;22.5
 73
     1
 44
1.0
 90
        3
 63
     9
421
 13158600
 45
1.25
441
        0
  0
POINT
  5
1C2C6
330
1BE4E
100
AcDbEntity
  8
DEFPOINTS
  6
Continuous
 62
     0
440
 16777216
100
AcDbPoint
 10
199.0265338653726
 20
430.5743623362614
 30
0.0
  0
POINT
  5
1C2C7
330
1BE4E
100
AcDbEntity
  8
DEFPOINTS
  6
Continuous
 62
     0
440
 16777216
100
AcDbPoint
 10
176.5265338653725
 20
429.9285106981923
 30
0.0
  0
POINT
  5
1C2C8
330
1BE4E
100
AcDbEntity
  8
DEFPOINTS
  6
Continuous
 62
     0
440
 16777216
100
AcDbPoint
 10
176.5265338653725
 20
397.613512039027
 30
0.0
  0
ENDBLK
  5
1BE50
330
1BE4E
100
AcDbEntity
  8
0
100
AcDbBlockEnd
  0
BLOCK
  5
1C0DE
330
1C0DD
100
AcDbEntity
  8
0
100
AcDbBlockBegin
  2
*D45
 70
     1
 10
0.0
 20
0.0
 30
0.0
  3
*D45
  1

  0
LINE
  5
1C35B
330
1C0DD
100
AcDbEntity
  8
30
 62
     0
440
 16777216
370
    -2
100
AcDbLine
 10
94.78395531787235
 20
789.9939007344823
 30
0.0
 11
94.78395531787235
 21
810.3416481556765
 31
0.0
  0
LINE
  5
1C35C
330
1C0DD
100
AcDbEntity
  8
30
 62
     0
440
 16777216
370
    -2
100
AcDbLine
 10
122.7839565218724
 20
789.9939007344823
 30
0.0
 11
122.7839565218724
 21
810.3416481556765
 31
0.0
  0
LINE
  5
1C35D
330
1C0DD
100
AcDbEntity
  8
30
 62
     0
440
 16777216
370
    -2
100
AcDbLine
 10
96.78395531787236
 20
809.8416481556764
 30
0.0
 11
120.7839565218724
 21
809.8416481556764
 31
0.0
  0
INSERT
  5
1C35E
330
1C0DD
100
AcDbEntity
  8
30
 62
     0
440
 16777216
370
    -2
100
AcDbBlockReference
  2
_OPEN
 10
94.78395531787235
 20
809.8416481556764
 30
0.0
 41
2.0
 42
2.0
 43
2.0
 50
180.0
  0
INSERT
  5
1C35F
330
1C0DD
100
AcDbEntity
  8
30
 62
     0
440
 16777216
370
    -2
100
AcDbBlockReference
  2
_OPEN
 10
122.7839565218724
 20
809.8416481556764
 30
0.0
 41
2.0
 42
2.0
 43
2.0
  0
MTEXT
  5
1C360
330
1C0DD
100
AcDbEntity
  8
30
440
 16777216
100
AcDbMText
 10
121.7474452093261
 20
816.8416481556764
 30
0.0
 40
8.0
 41
0.0
 46
0.0
 71
     5
 72
     1
  1
\A1;28
 73
     1
 44
1.0
 90
        3
 63
     9
421
 13158600
 45
1.25
441
        0
  0
POINT
  5
1C361
330
1C0DD
100
AcDbEntity
  8
DEFPOINTS
 62
     0
440
 16777216
100
AcDbPoint
 10
94.78395531787235
 20
788.9939007344822
 30
0.0
  0
POINT
  5
1C362
330
1C0DD
100
AcDbEntity
  8
DEFPOINTS
 62
     0
440
 16777216
100
AcDbPoint
 10
122.7839565218724
 20
788.9939007344822
 30
0.0
  0
POINT
  5
1C363
330
1C0DD
100
AcDbEntity
  8
DEFPOINTS
 62
     0
440
 16777216
100
AcDbPoint
 10
122.7839565218724
 20
809.8416481556764
 30
0.0
  0
ENDBLK
  5
1C0DF
330
1C0DD
100
AcDbEntity
  8
0
100
AcDbBlockEnd
  0
BLOCK
  5
1C0FE
330
1C0FD
100
AcDbEntity
  8
0
100
AcDbBlockBegin
  2
*D46
 70
     1
 10
0.0
 20
0.0
 30
0.0
  3
*D46
  1

  0
LINE
  5
1C19D
330
1C0FD
100
AcDbEntity
  8
30
  6
Continuous
 62
     0
440
 16777216
370
    -2
100
AcDbLine
 10
601.8414768420711
 20
400.3596769287236
 30
0.0
 11
601.8414768420711
 21
432.2848366307862
 31
0.0
  0
LINE
  5
1C19E
330
1C0FD
100
AcDbEntity
  8
30
  6
Continuous
 62
     0
440
 16777216
370
    -2
100
AcDbLine
 10
566.8337788638345
 20
438.8700558562873
 30
0.0
 11
566.8337788638345
 21
431.2848366307862
 31
0.0
  0
LINE
  5
1C19F
330
1C0FD
100
AcDbEntity
  8
30
  6
Continuous
 62
     0
440
 16777216
370
    -2
100
AcDbLine
 10
599.8414768420712
 20
431.7848366307862
 30
0.0
 11
568.8337788638347
 21
431.7848366307862
 31
0.0
  0
INSERT
  5
1C1A0
330
1C0FD
100
AcDbEntity
  8
30
  6
Continuous
 62
     0
440
 16777216
370
    -2
100
AcDbBlockReference
  2
_OPEN
 10
601.8414768420711
 20
431.7848366307862
 30
0.0
 41
2.0
 42
2.0
 43
2.0
  0
INSERT
  5
1C1A1
330
1C0FD
100
AcDbEntity
  8
30
  6
Continuous
 62
     0
440
 16777216
370
    -2
100
AcDbBlockReference
  2
_OPEN
 10
566.8337788638345
 20
431.7848366307862
 30
0.0
 41
2.0
 42
2.0
 43
2.0
 50
180.0
  0
MTEXT
  5
1C1A2
330
1C0FD
100
AcDbEntity
  8
30
  6
Continuous
440
 16777216
100
AcDbMText
 10
584.3376278529531
 20
438.7848366307862
 30
0.0
 40
8.0
 41
0.0
 46
0.0
 71
     5
 72
     1
  1
\A1;35
 73
     1
 44
1.0
 90
        3
 63
     9
421
 13158600
 45
1.25
441
        0
  0
POINT
  5
1C1A3
330
1C0FD
100
AcDbEntity
  8
DEFPOINTS
  6
Continuous
 62
     0
440
 16777216
100
AcDbPoint
 10
601.8414768420711
 20
399.3596769287236
 30
0.0
  0
POINT
  5
1C1A4
330
1C0FD
100
AcDbEntity
  8
DEFPOINTS
  6
Continuous
 62
     0
440
 16777216
100
AcDbPoint
 10
566.8337788638345
 20
439.8700558562874
 30
0.0
  0
POINT
  5
1C1A5
330
1C0FD
100
AcDbEntity
  8
DEFPOINTS
  6
Continuous
 62
     0
440
 16777216
100
AcDbPoint
 10
566.8337788638345
 20
431.7848366307862
 30
0.0
  0
ENDBLK
  5
1C0FF
330
1C0FD
100
AcDbEntity
  8
0
100
AcDbBlockEnd
  0
BLOCK
  5
1C10A
330
1C109
100
AcDbEntity
  8
0
100
AcDbBlockBegin
  2
*D47
 70
     1
 10
0.0
 20
0.0
 30
0.0
  3
*D47
  1

  0
LINE
  5
1C1A6
330
1C109
100
AcDbEntity
  8
30
  6
Continuous
 62
     0
440
 16777216
370
    -2
100
AcDbLine
 10
566.8337788638345
 20
436.8700558562871
 30
0.0
 11
566.8337788638345
 21
431.2848366307862
 31
0.0
  0
LINE
  5
1C1A7
330
1C109
100
AcDbEntity
  8
30
  6
Continuous
 62
     0
440
 16777216
370
    -2
100
AcDbLine
 10
558.8337788638348
 20
436.8700558562871
 30
0.0
 11
558.8337788638348
 21
431.2848366307862
 31
0.0
  0
LINE
  5
1C1A8
330
1C109
100
AcDbEntity
  8
30
  6
Continuous
 62
     0
440
 16777216
370
    -2
100
AcDbLine
 10
568.8337788638347
 20
431.7848366307862
 30
0.0
 11
570.8337788638345
 21
431.7848366307862
 31
0.0
  0
LINE
  5
1C1A9
330
1C109
100
AcDbEntity
  8
30
  6
Continuous
 62
     0
440
 16777216
370
    -2
100
AcDbLine
 10
556.8337788638348
 20
431.7848366307862
 30
0.0
 11
543.5004455305016
 21
431.7848366307862
 31
0.0
  0
LINE
  5
1C1AA
330
1C109
100
AcDbEntity
  8
30
  6
Continuous
 62
     0
440
 16777216
370
    -2
100
AcDbLine
 10
566.8337788638345
 20
431.7848366307862
 30
0.0
 11
558.8337788638348
 21
431.7848366307862
 31
0.0
  0
INSERT
  5
1C1AB
330
1C109
100
AcDbEntity
  8
30
  6
Continuous
 62
     0
440
 16777216
370
    -2
100
AcDbBlockReference
  2
_OPEN
 10
566.8337788638345
 20
431.7848366307862
 30
0.0
 41
2.0
 42
2.0
 43
2.0
 50
180.0
  0
INSERT
  5
1C1AC
330
1C109
100
AcDbEntity
  8
30
  6
Continuous
 62
     0
440
 16777216
370
    -2
100
AcDbBlockReference
  2
_OPEN
 10
558.8337788638348
 20
431.7848366307862
 30
0.0
 41
2.0
 42
2.0
 43
2.0
  0
MTEXT
  5
1C1AD
330
1C109
100
AcDbEntity
  8
30
  6
Continuous
 62
     0
440
 16777216
100
AcDbMText
 10
549.1671121971683
 20
438.7848366307862
 30
0.0
 40
8.0
 41
0.0
 46
0.0
 71
     5
 72
     1
  1
\A1;8
 73
     1
 44
1.0
  0
POINT
  5
1C1AE
330
1C109
100
AcDbEntity
  8
DEFPOINTS
  6
Continuous
 62
     0
440
 16777216
100
AcDbPoint
 10
566.8337788638345
 20
439.8700558562874
 30
0.0
  0
POINT
  5
1C1AF
330
1C109
100
AcDbEntity
  8
DEFPOINTS
  6
Continuous
 62
     0
440
 16777216
100
AcDbPoint
 10
558.8337788638348
 20
439.8700558562874
 30
0.0
  0
POINT
  5
1C1B0
330
1C109
100
AcDbEntity
  8
DEFPOINTS
  6
Continuous
 62
     0
440
 16777216
100
AcDbPoint
 10
558.8337788638348
 20
431.7848366307862
 30
0.0
  0
ENDBLK
  5
1C10B
330
1C109
100
AcDbEntity
  8
0
100
AcDbBlockEnd
  0
BLOCK
  5
1C381
330
1C380
100
AcDbEntity
  8
0
100
AcDbBlockBegin
  2
*D51
 70
     1
 10
0.0
 20
0.0
 30
0.0
  3
*D51
  1

  0
LINE
  5
1C383
330
1C380
100
AcDbEntity
  8
30
 62
     0
440
 16777216
370
    -2
100
AcDbLine
 10
292.2839548768725
 20
484.4938972774822
 30
0.0
 11
366.2859067016261
 21
484.4938972774822
 31
0.0
  0
LINE
  5
1C384
330
1C380
100
AcDbEntity
  8
30
 62
     0
440
 16777216
370
    -2
100
AcDbLine
 10
292.2839548768725
 20
744.4938972774823
 30
0.0
 11
366.2859067016262
 21
744.4938972774823
 31
0.0
  0
LINE
  5
1C385
330
1C380
100
AcDbEntity
  8
30
 62
     0
440
 16777216
370
    -2
100
AcDbLine
 10
365.7859067016261
 20
486.4938972774822
 30
0.0
 11
365.7859067016262
 21
742.4938972774823
 31
0.0
  0
INSERT
  5
1C386
330
1C380
100
AcDbEntity
  8
30
 62
     0
440
 16777216
370
    -2
100
AcDbBlockReference
  2
_OPEN
 10
365.7859067016261
 20
484.4938972774822
 30
0.0
 41
2.0
 42
2.0
 43
2.0
 50
270.0
  0
INSERT
  5
1C387
330
1C380
100
AcDbEntity
  8
30
 62
     0
440
 16777216
370
    -2
100
AcDbBlockReference
  2
_OPEN
 10
365.7859067016262
 20
744.4938972774823
 30
0.0
 41
2.0
 42
2.0
 43
2.0
 50
90.0
  0
MTEXT
  5
1C388
330
1C380
100
AcDbEntity
  8
30
440
 16777216
100
AcDbMText
 10
358.7859067016261
 20
614.4938972774824
 30
0.0
 40
8.0
 41
0.0
 46
0.0
 71
     5
 72
     1
  1
\A1;260
 11
0.0000000000000001
 21
1.0
 31
0.0
 73
     1
 44
1.0
 90
        3
 63
     9
421
 13158600
 45
1.25
441
        0
  0
POINT
  5
1C389
330
1C380
100
AcDbEntity
  8
DEFPOINTS
 62
     0
440
 16777216
100
AcDbPoint
 10
291.2839548768725
 20
484.4938972774822
 30
0.0
  0
POINT
  5
1C38A
330
1C380
100
AcDbEntity
  8
DEFPOINTS
 62
     0
440
 16777216
100
AcDbPoint
 10
291.2839548768725
 20
744.4938972774823
 30
0.0
  0
POINT
  5
1C38B
330
1C380
100
AcDbEntity
  8
DEFPOINTS
 62
     0
440
 16777216
100
AcDbPoint
 10
365.7859067016262
 20
744.4938972774823
 30
0.0
  0
ENDBLK
  5
1C382
330
1C380
100
AcDbEntity
  8
0
100
AcDbBlockEnd
  0
BLOCK
  5
1C38E
330
1C38D
100
AcDbEntity
  8
0
100
AcDbBlockBegin
  2
*D52
 70
     1
 10
0.0
 20
0.0
 30
0.0
  3
*D52
  1

  0
LINE
  5
1C390
330
1C38D
100
AcDbEntity
  8
30
 62
     0
440
 16777216
370
    -2
100
AcDbLine
 10
267.3006926589119
 20
500.4593253602949
 30
0.0
 11
336.7449214237558
 21
500.4593253602949
 31
0.0
  0
LINE
  5
1C391
330
1C38D
100
AcDbEntity
  8
30
 62
     0
440
 16777216
370
    -2
100
AcDbLine
 10
267.1006926589119
 20
728.4938972774823
 30
0.0
 11
336.7449214237559
 21
728.4938972774823
 31
0.0
  0
LINE
  5
1C392
330
1C38D
100
AcDbEntity
  8
30
 62
     0
440
 16777216
370
    -2
100
AcDbLine
 10
336.2449214237559
 20
502.4593253602948
 30
0.0
 11
336.2449214237559
 21
726.4938972774823
 31
0.0
  0
INSERT
  5
1C393
330
1C38D
100
AcDbEntity
  8
30
 62
     0
440
 16777216
370
    -2
100
AcDbBlockReference
  2
_OPEN
 10
336.2449214237559
 20
500.4593253602949
 30
0.0
 41
2.0
 42
2.0
 43
2.0
 50
270.0
  0
INSERT
  5
1C394
330
1C38D
100
AcDbEntity
  8
30
 62
     0
440
 16777216
370
    -2
100
AcDbBlockReference
  2
_OPEN
 10
336.2449214237559
 20
728.4938972774823
 30
0.0
 41
2.0
 42
2.0
 43
2.0
 50
90.0
  0
MTEXT
  5
1C395
330
1C38D
100
AcDbEntity
  8
30
440
 16777216
100
AcDbMText
 10
329.2449214237558
 20
614.4766113188886
 30
0.0
 40
8.0
 41
0.0
 46
0.0
 71
     5
 72
     1
  1
\A1;228
 11
0.0000000000000001
 21
1.0
 31
0.0
 73
     1
 44
1.0
 90
        3
 63
     9
421
 13158600
 45
1.25
441
        0
  0
POINT
  5
1C396
330
1C38D
100
AcDbEntity
  8
DEFPOINTS
 62
     0
440
 16777216
100
AcDbPoint
 10
266.3006926589119
 20
500.4593253602949
 30
0.0
  0
POINT
  5
1C397
330
1C38D
100
AcDbEntity
  8
DEFPOINTS
 62
     0
440
 16777216
100
AcDbPoint
 10
266.1006926589119
 20
728.4938972774823
 30
0.0
  0
POINT
  5
1C398
330
1C38D
100
AcDbEntity
  8
DEFPOINTS
 62
     0
440
 16777216
100
AcDbPoint
 10
336.2449214237559
 20
728.4938972774823
 30
0.0
  0
ENDBLK
  5
1C38F
330
1C38D
100
AcDbEntity
  8
0
100
AcDbBlockEnd
  0
BLOCK
  5
1C39E
330
1C39D
100
AcDbEntity
  8
0
100
AcDbBlockBegin
  2
*D53
 70
     1
 10
0.0
 20
0.0
 30
0.0
  3
*D53
  1

  0
LINE
  5
1C3BE
330
1C39D
100
AcDbEntity
  8
30
 62
     0
440
 16777216
370
    -2
100
AcDbLine
 10
176.2993083498884
 20
428.6198848996763
 30
0.0
 11
176.2993083498884
 21
402.3975721028604
 31
0.0
  0
LINE
  5
1C3BF
330
1C39D
100
AcDbEntity
  8
30
 62
     0
440
 16777216
370
    -2
100
AcDbLine
 10
198.7993083498884
 20
428.6198848996763
 30
0.0
 11
198.7993083498884
 21
402.3975721028604
 31
0.0
  0
LINE
  5
1C3C0
330
1C39D
100
AcDbEntity
  8
30
 62
     0
440
 16777216
370
    -2
100
AcDbLine
 10
196.7993083498884
 20
402.8975721028605
 30
0.0
 11
178.2993083498884
 21
402.8975721028605
 31
0.0
  0
LINE
  5
1C3C1
330
1C39D
100
AcDbEntity
  8
30
 62
     0
440
 16777216
370
    -2
100
AcDbLine
 10
176.2993083498884
 20
402.8975721028605
 30
0.0
 11
144.2993083498883
 21
402.8975721028605
 31
0.0
  0
INSERT
  5
1C3C2
330
1C39D
100
AcDbEntity
  8
30
 62
     0
440
 16777216
370
    -2
100
AcDbBlockReference
  2
_OPEN
 10
198.7993083498884
 20
402.8975721028605
 30
0.0
 41
2.0
 42
2.0
 43
2.0
  0
INSERT
  5
1C3C3
330
1C39D
100
AcDbEntity
  8
30
 62
     0
440
 16777216
370
    -2
100
AcDbBlockReference
  2
_OPEN
 10
176.2993083498884
 20
402.8975721028605
 30
0.0
 41
2.0
 42
2.0
 43
2.0
 50
180.0
  0
MTEXT
  5
1C3C4
330
1C39D
100
AcDbEntity
  8
30
 62
     0
440
 16777216
100
AcDbMText
 10
159.2993083498884
 20
409.8975721028605
 30
0.0
 40
8.0
 41
0.0
 46
0.0
 71
     5
 72
     1
  1
\A1;22.5
 73
     1
 44
1.0
  0
POINT
  5
1C3C5
330
1C39D
100
AcDbEntity
  8
DEFPOINTS
 62
     0
440
 16777216
100
AcDbPoint
 10
176.2993083498884
 20
431.6198848996763
 30
0.0
  0
POINT
  5
1C3C6
330
1C39D
100
AcDbEntity
  8
DEFPOINTS
 62
     0
440
 16777216
100
AcDbPoint
 10
198.7993083498884
 20
431.6198848996763
 30
0.0
  0
POINT
  5
1C3C7
330
1C39D
100
AcDbEntity
  8
DEFPOINTS
 62
     0
440
 16777216
100
AcDbPoint
 10
198.7993083498884
 20
402.8975721028605
 30
0.0
  0
ENDBLK
  5
1C39F
330
1C39D
100
AcDbEntity
  8
0
100
AcDbBlockEnd
  0
ENDSEC
  0
SECTION
  2
ENTITIES
  0
LINE
  5
132A7
330
1E
100
AcDbEntity
  8
16
 48
2.0
100
AcDbLine
 10
176.2993083498884
 20
431.6198848996763
 30
0.0
 11
176.0567293613883
 21
791.6852749359663
 31
0.0
  0
LINE
  5
132A8
330
1E
100
AcDbEntity
  8
16
100
AcDbLine
 10
248.0586105189354
 20
614.4938972774822
 30
0.0
 11
92.37807309571508
 21
614.4938972774822
 31
0.0
  0
LINE
  5
132A9
330
1E
100
AcDbEntity
  8
16
 48
2.0
100
AcDbLine
 10
632.890558563693
 20
614.4938972774824
 30
0.0
 11
478.1999418491921
 21
614.4938972774824
 31
0.0
  0
LINE
  5
132AA
330
1E
100
AcDbEntity
  8
16
 48
2.0
100
AcDbLine
 10
123.2792185113212
 20
76.17779104093324
 30
0.0
 11
123.2792185113212
 21
363.5282266901889
 31
0.0
  0
LINE
  5
132AB
330
1E
100
AcDbEntity
  8
16
 48
2.0
100
AcDbLine
 10
243.721947859708
 20
211.4531278759597
 30
0.0
 11
37.56848822804932
 21
211.4531278759597
 31
0.0
  0
CIRCLE
  5
132AC
330
1E
100
AcDbEntity
  8
12
 62
     3
100
AcDbCircle
 10
-145.7792185113212
 20
318.4531278759597
 30
0.0
 40
3.0
210
0.0
220
0.0
230
-1.0
  0
CIRCLE
  5
132AD
330
1E
100
AcDbEntity
  8
12
 62
     3
100
AcDbCircle
 10
100.7792185113212
 20
318.4531278759597
 30
0.0
 40
3.0
  0
LWPOLYLINE
  5
132AE
330
1E
100
AcDbEntity
  8
18
  6
DIVIDE
100
AcDbPolyline
 90
        4
 70
     1
 43
0.0
 10
238.2792185113213
 20
81.45312787595992
 10
238.2792185113213
 20
341.4531278759597
 10
53.27921851132123
 20
341.4531278759597
 10
53.27921851132123
 20
81.45312787595992
  0
LINE
  5
132AF
330
1E
100
AcDbEntity
  8
12
  6
DASHDOT
 62
     3
100
AcDbLine
 10
145.7792185113212
 20
325.4531278759597
 30
0.0
 11
145.7792185113212
 21
311.4531278759597
 31
0.0
  0
LINE
  5
132B0
330
1E
100
AcDbEntity
  8
12
  6
DASHDOT
 62
     3
100
AcDbLine
 10
100.7792185113212
 20
325.4531278759597
 30
0.0
 11
100.7792185113212
 21
311.4531278759597
 31
0.0
  0
LINE
  5
132B1
330
1E
100
AcDbEntity
  8
12
  6
DASHDOT
 62
     3
100
AcDbLine
 10
93.77921851132123
 20
104.4531278759598
 30
0.0
 11
107.7792185113212
 21
104.4531278759598
 31
0.0
  0
CIRCLE
  5
132B2
330
1E
100
AcDbEntity
  8
12
 62
     3
100
AcDbCircle
 10
-100.7792185113212
 20
104.4531278759598
 30
0.0
 40
3.0
210
0.0
220
0.0
230
-1.0
  0
LINE
  5
132B3
330
1E
100
AcDbEntity
  8
12
  6
DASHDOT
 62
     3
100
AcDbLine
 10
100.7792185113212
 20
111.4531278759598
 30
0.0
 11
100.7792185113212
 21
97.45312787595993
 31
0.0
  0
LINE
  5
132B4
330
1E
100
AcDbEntity
  8
12
  6
DASHDOT
 62
     3
100
AcDbLine
 10
138.7792185113212
 20
104.4531278759598
 30
0.0
 11
152.7792185113211
 21
104.4531278759598
 31
0.0
  0
CIRCLE
  5
132B5
330
1E
100
AcDbEntity
  8
12
 62
     3
100
AcDbCircle
 10
145.7792185113212
 20
104.4531278759598
 30
0.0
 40
3.0
  0
LINE
  5
132B6
330
1E
100
AcDbEntity
  8
12
  6
DASHDOT
 62
     3
100
AcDbLine
 10
145.7792185113212
 20
111.4531278759598
 30
0.0
 11
145.7792185113212
 21
97.45312787595993
 31
0.0
  0
LINE
  5
132B7
330
1E
100
AcDbEntity
  8
12
  6
DASHDOT
 62
     3
100
AcDbLine
 10
93.77921851132123
 20
318.4531278759597
 30
0.0
 11
107.7792185113212
 21
318.4531278759597
 31
0.0
  0
LINE
  5
132B8
330
1E
100
AcDbEntity
  8
12
  6
DASHDOT
 62
     3
100
AcDbLine
 10
138.7792185113212
 20
318.4531278759597
 30
0.0
 11
152.7792185113211
 21
318.4531278759597
 31
0.0
  0
DIMENSION
  5
132B9
330
1E
100
AcDbEntity
  8
30
  6
Continuous
100
AcDbDimension
280
     0
  2
*D5
 10
259.9142741381238
 20
104.4531278759597
 30
0.0
 11
259.9142741381238
 21
211.4531278759602
 31
0.0
 70
   160
 71
     5
 42
214.0
 73
     0
 74
     0
 75
     0
  3
STANDARD
100
AcDbAlignedDimension
 13
145.7792185113212
 23
318.4531278759597
 33
0.0
 14
145.7792185113212
 24
104.4531278759598
 34
0.0
 50
90.0
100
AcDbRotatedDimension
1001
ACAD
1000
DSTYLE
1002
{
1070
    79
1070
     3
1002
}
  0
DIMENSION
  5
132BA
330
1E
100
AcDbEntity
  8
30
  6
Continuous
100
AcDbDimension
280
     0
  2
*D6
 10
145.7792185113212
 20
52.74906144548904
 30
0.0
 11
123.2792185113212
 21
59.74906144548903
 31
0.0
 70
    32
 71
     5
 42
44.99999999999997
 73
     0
 74
     0
 75
     0
  3
STANDARD
100
AcDbAlignedDimension
 13
100.7792185113212
 23
104.4531278759598
 33
0.0
 14
145.7792185113212
 24
104.4531278759598
 34
0.0
100
AcDbRotatedDimension
1001
ACAD
1000
DSTYLE
1002
{
1070
    79
1070
     3
1002
}
  0
LINE
  5
132BB
330
1E
100
AcDbEntity
  8
16
100
AcDbLine
 10
176.2838938417126
 20
866.0093427669202
 30
0.0
 11
176.2839548768725
 21
1031.022908084376
 31
0.0
  0
DIMENSION
  5
132BC
330
1E
100
AcDbEntity
  8
30
  6
Continuous
100
AcDbDimension
280
     0
  2
*D7
 10
102.1090107906837
 20
315.7639546770474
 30
0.0
 11
72.59605114809123
 21
355.898132019563
 31
0.0
 70
   163
  1
M6
 71
     5
 42
6.000000000000142
 73
     0
 74
     0
 75
     0
  3
STANDARD1
100
AcDbDiametricDimension
 15
99.44942623195965
 25
321.1423010748724
 35
0.0
 40
0.0
  0
LINE
  5
132BD
330
1E
100
AcDbEntity
  8
10
  6
CONTINOUS
100
AcDbLine
 10
291.2839548768725
 20
916.5463040888553
 30
0.0
 11
106.2839486382495
 21
916.5463040888553
 31
0.0
  0
LINE
  5
132BE
330
1E
100
AcDbEntity
  8
10
  6
CONTINOUS
100
AcDbLine
 10
291.2839548768725
 20
910.5463040888553
 30
0.0
 11
106.2839486382495
 21
910.5463040888553
 31
0.0
  0
LINE
  5
132BF
330
1E
100
AcDbEntity
  8
10
  6
CONTINOUS
100
AcDbLine
 10
234.2839486382495
 20
906.5463040888554
 30
0.0
 11
118.2839486382495
 21
906.5463040888554
 31
0.0
  0
LINE
  5
132C0
330
1E
100
AcDbEntity
  8
10
  6
CONTINOUS
100
AcDbLine
 10
291.2839548768725
 20
1013.546304088855
 30
0.0
 11
106.2839486382495
 21
1013.546304088855
 31
0.0
  0
LINE
  5
132C1
330
1E
100
AcDbEntity
  8
10
  6
CONTINOUS
100
AcDbLine
 10
106.2839486382495
 20
910.5463040888553
 30
0.0
 11
106.2839486382495
 21
1013.546304088855
 31
0.0
  0
LINE
  5
132C2
330
1E
100
AcDbEntity
  8
10
  6
CONTINOUS
100
AcDbLine
 10
118.2839486382495
 20
906.5463040888554
 30
0.0
 11
118.2839486382495
 21
910.5463040888553
 31
0.0
  0
LINE
  5
132C3
330
1E
100
AcDbEntity
  8
10
  6
CONTINOUS
100
AcDbLine
 10
193.2839486382495
 20
874.0463040888551
 30
0.0
 11
159.2839486382495
 21
874.0463040888551
 31
0.0
  0
LINE
  5
132C4
330
1E
100
AcDbEntity
  8
10
  6
CONTINOUS
100
AcDbLine
 10
194.2839486382495
 20
902.5463040888553
 30
0.0
 11
158.2839486382495
 21
902.5463040888553
 31
0.0
  0
LINE
  5
132C5
330
1E
100
AcDbEntity
  8
10
  6
CONTINOUS
100
AcDbLine
 10
159.2839486382495
 20
874.0463040888551
 30
0.0
 11
159.2839486382495
 21
902.5463040888553
 31
0.0
  0
LINE
  5
132C6
330
1E
100
AcDbEntity
  8
10
  6
CONTINOUS
100
AcDbLine
 10
158.2839486382495
 20
902.5463040888553
 30
0.0
 11
158.2839486382495
 21
906.5463040888554
 31
0.0
  0
LINE
  5
132C7
330
1E
100
AcDbEntity
  8
10
  6
CONTINOUS
100
AcDbLine
 10
193.2839486382495
 20
874.0463040888551
 30
0.0
 11
193.2839486382495
 21
902.5463040888553
 31
0.0
  0
LINE
  5
132C8
330
1E
100
AcDbEntity
  8
10
  6
CONTINOUS
100
AcDbLine
 10
194.2839486382495
 20
902.5463040888553
 30
0.0
 11
194.2839486382495
 21
906.5463040888554
 31
0.0
  0
LINE
  5
132C9
330
1E
100
AcDbEntity
  8
10
  6
CONTINOUS
100
AcDbLine
 10
291.2839548768725
 20
910.5463040888553
 30
0.0
 11
291.2839548768725
 21
1013.546304088855
 31
0.0
  0
LINE
  5
132CA
330
1E
100
AcDbEntity
  8
10
  6
CONTINOUS
100
AcDbLine
 10
234.2839486382495
 20
906.5463040888554
 30
0.0
 11
234.2839486382495
 21
910.5463040888553
 31
0.0
  0
DIMENSION
  5
132CC
330
1E
100
AcDbEntity
  8
30
  6
Continuous
100
AcDbDimension
280
     0
  2
*D8
 10
176.2839342723982
 20
1028.360500476664
 30
0.0
 11
153.7839445746354
 21
1035.360500476664
 31
0.0
 70
    32
 71
     5
 42
44.99997939552577
 73
     0
 74
     0
 75
     0
  3
STANDARD
100
AcDbAlignedDimension
 13
131.2839548768724
 23
983.6282878389337
 33
0.0
 14
176.2839342723982
 24
983.6282878389337
 34
0.0
100
AcDbRotatedDimension
1001
ACAD
1000
DSTYLE
1002
{
1070
   287
1070
     4
1070
   287
1070
     4
1070
   287
1070
     4
1070
   287
1070
     4
1070
   287
1070
     4
1070
   287
1070
     4
1070
   287
1070
     4
1070
   279
1070
     1
1070
    79
1070
     3
1002
}
  0
DIMENSION
  5
132CD
330
1E
100
AcDbEntity
  8
30
  6
Continuous
100
AcDbDimension
280
     0
  2
*D9
 10
221.2839548768725
 20
1028.360500476664
 30
0.0
 11
198.7839445746353
 21
1035.360500476664
 31
0.0
 70
    32
 71
     5
 42
45.00002060447423
 73
     0
 74
     0
 75
     0
  3
STANDARD
100
AcDbAlignedDimension
 13
176.2839342723982
 23
983.6282878389337
 33
0.0
 14
221.2839548768725
 24
977.5463040888553
 34
0.0
100
AcDbRotatedDimension
1001
ACAD
1000
DSTYLE
1002
{
1070
   287
1070
     4
1070
   287
1070
     4
1070
   287
1070
     4
1070
   287
1070
     4
1070
   287
1070
     4
1070
   287
1070
     4
1070
   287
1070
     4
1070
   279
1070
     1
1070
    79
1070
     3
1002
}
  0
DIMENSION
  5
132D1
330
1E
100
AcDbEntity
  8
30
  6
Continuous
100
AcDbDimension
280
     0
  2
*D10
 10
266.2839548768725
 20
1028.360500476664
 30
0.0
 11
243.7839445746354
 21
1035.360500476664
 31
0.0
 70
    32
 71
     5
 42
45.00002060447423
 73
     0
 74
     0
 75
     0
  3
STANDARD
100
AcDbAlignedDimension
 13
221.2839342723983
 23
983.6282878389337
 33
0.0
 14
266.2839548768725
 24
977.5463040888553
 34
0.0
100
AcDbRotatedDimension
1001
ACAD
1000
DSTYLE
1002
{
1070
   287
1070
     4
1070
   287
1070
     4
1070
   287
1070
     4
1070
   287
1070
     4
1070
   287
1070
     4
1070
   287
1070
     4
1070
   287
1070
     4
1070
   279
1070
     1
1070
    79
1070
     3
1002
}
  0
MTEXT
  5
132D3
330
1E
100
AcDbEntity
  8
19
  6
Continuous
100
AcDbMText
 10
461.8663007774138
 20
1051.621797319407
 30
0.0
 40
10.0
 41
207.6172066293084
 46
0.0
 71
     1
 72
     5
  1
PS400-CF 4P FC+BAR\PPS400-NF 4P FC+BAR\PPS400-GF 4P FC+BAR\PPS400-NE 4P FC+BAR\PPS400-GE 4P FC+BAR\PPH400-CF 4P FC+BAR\PPH400-CE 4P FC+BAR
  7
STANDARD1
 73
     1
 44
1.0
  0
ELLIPSE
  5
132D6
330
1E
100
AcDbEntity
  8
10
  6
Continuous
100
AcDbEllipse
 10
176.0413758883724
 20
614.4938972774822
 30
0.0
 11
0.0
 21
1100.0
 31
0.0
210
0.0
220
0.0
230
1.0
 40
0.0174550649
 41
4.690677605249396
 42
4.734986455434412
  0
LINE
  5
132D7
330
1E
100
AcDbEntity
  8
0
  6
SLD-実線
 62
     7
370
    30
100
AcDbLine
 10
195.2236496363721
 20
590.8469689074821
 30
0.0
 11
195.237422034872
 21
590.6132609579819
 31
0.0
  0
LINE
  5
132D8
330
1E
100
AcDbEntity
  8
0
  6
SLD-実線
 62
     7
370
    30
100
AcDbLine
 10
157.0879087303719
 20
590.6132609579819
 30
0.0
 11
157.1016811288723
 21
590.8469689074821
 31
0.0
  0
ELLIPSE
  5
132D9
330
1E
100
AcDbEntity
  8
10
  6
Continuous
100
AcDbEllipse
 10
176.2839548768725
 20
614.4938972774822
 30
0.0
 11
0.0
 21
1100.0
 31
0.0
210
0.0
220
0.0
230
1.0
 40
0.0174550649
 41
1.548198852438138
 42
1.59250770193019
  0
LINE
  5
132DA
330
1E
100
AcDbEntity
  8
10
  6
Continuous
100
AcDbLine
 10
195.237422034872
 20
590.6132609579819
 30
0.0
 11
157.0879087303719
 21
590.6132609579819
 31
0.0
  0
LINE
  5
132DB
330
1E
100
AcDbEntity
  8
10
  6
Continuous
100
AcDbLine
 10
195.2370451406586
 20
639.3490043464821
 30
0.0
 11
157.0882849848722
 21
639.3490043464821
 31
0.0
  0
LINE
  5
132DC
330
1E
100
AcDbEntity
  8
0
  6
SLD-実線
 62
     7
370
    30
100
AcDbLine
 10
151.7044991708726
 20
569.4938954894821
 30
0.0
 11
200.6452415588719
 21
569.4938954894821
 31
0.0
  0
LINE
  5
132F4
330
1E
100
AcDbEntity
  8
10
  6
Continuous
100
AcDbLine
 10
159.1626644588723
 20
634.4434526744821
 30
0.0
 11
193.1626663063725
 21
634.4434526744821
 31
0.0
  0
LINE
  5
132F5
330
1E
100
AcDbEntity
  8
0
  6
SLD-実線
 62
     7
370
    30
100
AcDbLine
 10
159.1626644588723
 20
634.4434526744821
 30
0.0
 11
159.1626644588723
 21
630.9968122274822
 31
0.0
  0
LINE
  5
132F6
330
1E
100
AcDbEntity
  8
0
  6
SLD-実線
 62
     7
370
    30
100
AcDbLine
 10
193.1626663063725
 20
634.4434526744821
 30
0.0
 11
193.1626663063725
 21
630.9968122274822
 31
0.0
  0
LINE
  5
132F7
330
1E
100
AcDbEntity
  8
0
  6
SLD-実線
 62
     7
370
    30
100
AcDbLine
 10
159.1626644588723
 20
630.4726024154821
 30
0.0
 11
159.1626644588723
 21
630.9968122274822
 31
0.0
  0
LINE
  5
132F8
330
1E
100
AcDbEntity
  8
0
  6
SLD-実線
 62
     7
370
    30
100
AcDbLine
 10
193.1626663063725
 20
630.9968122274822
 30
0.0
 11
193.1626663063725
 21
630.4726024154821
 31
0.0
  0
LINE
  5
132F9
330
1E
100
AcDbEntity
  8
0
  6
SLD-実線
 62
     7
370
    30
100
AcDbLine
 10
159.1626644588723
 20
630.4726024154821
 30
0.0
 11
159.1626644588723
 21
627.2252603429822
 31
0.0
  0
LINE
  5
132FA
330
1E
100
AcDbEntity
  8
0
  6
SLD-実線
 62
     7
370
    30
100
AcDbLine
 10
193.1626663063725
 20
630.4726024154821
 30
0.0
 11
193.1626663063725
 21
627.2252603429822
 31
0.0
  0
LINE
  5
132FB
330
1E
100
AcDbEntity
  8
0
  6
SLD-実線
 62
     7
370
    30
100
AcDbLine
 10
159.1626644588723
 20
626.5502703369817
 30
0.0
 11
159.1626644588723
 21
627.2252603429822
 31
0.0
  0
LINE
  5
132FC
330
1E
100
AcDbEntity
  8
0
  6
SLD-実線
 62
     7
370
    30
100
AcDbLine
 10
159.1626644588723
 20
626.2911503199822
 30
0.0
 11
193.1626663063725
 21
626.2911503199822
 31
0.0
  0
LINE
  5
132FD
330
1E
100
AcDbEntity
  8
0
  6
SLD-実線
 62
     7
370
    30
100
AcDbLine
 10
159.1626644588723
 20
626.5502703369817
 30
0.0
 11
159.1626644588723
 21
626.2911503199822
 31
0.0
  0
LINE
  5
13304
330
1E
100
AcDbEntity
  8
0
  6
SLD-実線
 62
     7
370
    30
100
AcDbLine
 10
213.4939894533722
 20
569.4938954894821
 30
0.0
 11
232.962665751872
 21
569.4938954894821
 31
0.0
  0
ELLIPSE
  5
13305
330
1E
100
AcDbEntity
  8
0
  6
SLD-実線
 62
     7
370
    30
100
AcDbEllipse
 10
213.1645707358721
 20
569.4888227999821
 30
0.0
 11
0.50001900419673
 21
-0.0000375365147676
 31
0.0
210
0.0
220
0.0
230
1.0
 40
0.0135556861
 41
0.8515556230107677
 42
1.576334180670649
  0
LINE
  5
13306
330
1E
100
AcDbEntity
  8
0
  6
SLD-実線
 62
     7
370
    30
100
AcDbLine
 10
202.3637701278722
 20
569.4956016719821
 30
0.0
 11
213.1618015918721
 21
569.4956016719821
 31
0.0
  0
LINE
  5
13307
330
1E
100
AcDbEntity
  8
0
  6
SLD-実線
 62
     7
370
    30
100
AcDbLine
 10
232.962665751872
 20
659.4938990654821
 30
0.0
 11
202.1626659188723
 21
659.4938990654821
 31
0.0
  0
LINE
  5
13308
330
1E
100
AcDbEntity
  8
0
  6
SLD-実線
 62
     7
370
    30
100
AcDbLine
 10
150.1626648458723
 20
659.4938990654821
 30
0.0
 11
119.3626650128726
 21
659.4938990654821
 31
0.0
  0
LINE
  5
13309
330
1E
100
AcDbEntity
  8
10
  6
Continuous
100
AcDbLine
 10
246.0126631413727
 20
707.0223216132977
 30
0.0
 11
246.0126631413723
 21
522.5671234066436
 31
0.0
  0
LINE
  5
1330B
330
1E
100
AcDbEntity
  8
240
370
    30
100
AcDbLine
 10
150.6626653823723
 20
659.4938972774822
 30
0.0
 11
201.6626653823723
 21
659.4938972774822
 31
0.0
  0
LINE
  5
13312
330
1E
100
AcDbEntity
  8
16
100
AcDbLine
 10
248.0586105189354
 20
614.4938972774822
 30
0.0
 11
92.37807309571508
 21
614.4938972774822
 31
0.0
  0
LWPOLYLINE
  5
13314
330
1E
100
AcDbEntity
  8
10
  6
Continuous
100
AcDbPolyline
 90
        8
 70
     1
 43
0.0
 10
233.2839548768725
 20
569.4938972774822
 10
119.2839548768725
 20
569.4938972774822
 42
-0.4142135623730951
 10
118.2839548768725
 20
570.4938972774822
 10
118.2839548768725
 20
658.4938972774822
 42
-0.4142135623730951
 10
119.2839548768725
 20
659.4938972774822
 10
233.2839548768725
 20
659.4938972774822
 42
-0.4142135623730951
 10
234.2839548768725
 20
658.4938972774822
 10
234.2839548768725
 20
570.4938972774822
 42
-0.4142135623730951
  0
LINE
  5
13315
330
1E
100
AcDbEntity
  8
10
  6
Continuous
100
AcDbLine
 10
106.2839548768724
 20
707.0223216132977
 30
0.0
 11
291.2839548768725
 21
707.0223216132977
 31
0.0
  0
LINE
  5
13316
330
1E
100
AcDbEntity
  8
10
  6
Continuous
100
AcDbLine
 10
106.2839548768724
 20
522.5671234066436
 30
0.0
 11
291.2839548768725
 21
522.5671234066436
 31
0.0
  0
LINE
  5
13317
330
1E
100
AcDbEntity
  8
10
  6
Continuous
100
AcDbLine
 10
106.2839548768724
 20
744.4938972774823
 30
0.0
 11
106.2839548768724
 21
484.4938972774822
 31
0.0
  0
LINE
  5
1331A
330
1E
100
AcDbEntity
  8
10
  6
Continuous
100
AcDbLine
 10
291.2839548768725
 20
744.4938972774823
 30
0.0
 11
291.2839548768725
 21
484.4938972774822
 31
0.0
  0
CIRCLE
  5
1331B
330
1E
100
AcDbEntity
  8
10
  6
Continuous
100
AcDbCircle
 10
266.2839548768725
 20
688.0980442368567
 30
0.0
 40
8.0
  0
LINE
  5
1331C
330
1E
100
AcDbEntity
  8
10
  6
Continuous
100
AcDbLine
 10
201.7839548768725
 20
569.4938972774822
 30
0.0
 11
201.7839548768725
 21
659.4938972774822
 31
0.0
  0
LINE
  5
1331D
330
1E
100
AcDbEntity
  8
10
  6
Continuous
100
AcDbLine
 10
150.7839548768725
 20
569.4938972774822
 30
0.0
 11
150.7839548768725
 21
659.4938972774822
 31
0.0
  0
LINE
  5
1331E
330
1E
100
AcDbEntity
  8
10
  6
Continuous
100
AcDbLine
 10
267.8528128650787
 20
684.9849217097239
 30
0.0
 11
268.5708455483573
 21
685.7029543930026
 31
0.0
  0
LINE
  5
1331F
330
1E
100
AcDbEntity
  8
10
  6
Continuous
100
AcDbLine
 10
268.7839548768725
 20
686.2696171121107
 30
0.0
 11
269.7839548768725
 21
687.2696171121106
 31
0.0
  0
LINE
  5
13320
330
1E
100
AcDbEntity
  8
10
  6
Continuous
100
AcDbLine
 10
268.7839548768725
 20
687.6838306744839
 30
0.0
 11
269.7839548768725
 21
688.6838306744839
 31
0.0
  0
LINE
  5
13321
330
1E
100
AcDbEntity
  8
10
  6
Continuous
100
AcDbLine
 10
268.5807169045356
 20
683.9450587962145
 30
0.0
 11
269.7839548768725
 21
685.1482967685512
 31
0.0
  0
LINE
  5
13322
330
1E
100
AcDbEntity
  8
10
  6
Continuous
100
AcDbLine
 10
268.7839548768725
 20
685.9160637215174
 30
0.0
 11
269.7839548768725
 21
686.9160637215176
 31
0.0
  0
LINE
  5
13323
330
1E
100
AcDbEntity
  8
10
  6
Continuous
100
AcDbLine
 10
268.7839548768725
 20
688.3909374556706
 30
0.0
 11
269.7839548768725
 21
689.3909374556706
 31
0.0
  0
LINE
  5
13324
330
1E
100
AcDbEntity
  8
10
  6
Continuous
100
AcDbLine
 10
268.7839548768725
 20
687.3302772838907
 30
0.0
 11
269.7839548768725
 21
688.3302772838907
 31
0.0
  0
LINE
  5
13325
330
1E
100
AcDbEntity
  8
10
  6
Continuous
100
AcDbLine
 10
266.979328017731
 20
686.2327572059354
 30
0.0
 11
267.6973607010091
 21
686.9507898892138
 31
0.0
  0
LINE
  5
13326
330
1E
100
AcDbEntity
  8
10
  6
Continuous
100
AcDbLine
 10
266.6881664019479
 20
686.6487023713392
 30
0.0
 11
267.4061990852265
 21
687.3667350546176
 31
0.0
  0
LINE
  5
13327
330
1E
100
AcDbEntity
  8
10
  6
Continuous
100
AcDbLine
 10
267.1249088256222
 20
686.0247846232335
 30
0.0
 11
267.8429415089004
 21
686.7428173065117
 31
0.0
  0
LINE
  5
13328
330
1E
100
AcDbEntity
  8
10
  6
Continuous
100
AcDbLine
 10
267.9983936729704
 20
684.7769491270222
 30
0.0
 11
268.7164263562486
 21
685.4949818103007
 31
0.0
  0
LINE
  5
13329
330
1E
100
AcDbEntity
  8
10
  6
Continuous
100
AcDbLine
 10
268.4351360966443
 20
684.1530313789164
 30
0.0
 11
269.7839548768725
 21
685.5018501591447
 31
0.0
  0
LINE
  5
1332A
330
1E
100
AcDbEntity
  8
10
  6
Continuous
100
AcDbLine
 10
268.7839548768725
 20
688.037384065077
 30
0.0
 11
269.7839548768725
 21
689.037384065077
 31
0.0
  0
LINE
  5
1332B
330
1E
100
AcDbEntity
  8
10
  6
Continuous
100
AcDbLine
 10
267.2704896335135
 20
685.8168120405316
 30
0.0
 11
267.9885223167917
 21
686.5348447238101
 31
0.0
  0
LINE
  5
1332C
330
1E
100
AcDbEntity
  8
10
  6
Continuous
100
AcDbLine
 10
268.289555288753
 20
684.3610039616184
 30
0.0
 11
269.7839548768725
 21
685.8554035497377
 31
0.0
  0
LINE
  5
1332D
330
1E
100
AcDbEntity
  8
10
  6
Continuous
100
AcDbLine
 10
268.7839548768725
 20
686.623170502704
 30
0.0
 11
269.7839548768725
 21
687.623170502704
 31
0.0
  0
LINE
  5
1332E
330
1E
100
AcDbEntity
  8
10
  6
Continuous
100
AcDbLine
 10
268.7839548768725
 20
690.1587044086368
 30
0.0
 11
269.7839548768725
 21
691.1587044086368
 31
0.0
  0
LINE
  5
1332F
330
1E
100
AcDbEntity
  8
10
  6
Continuous
100
AcDbLine
 10
267.7072320571879
 20
685.1928942924256
 30
0.0
 11
268.425264740466
 21
685.9109269757042
 31
0.0
  0
LINE
  5
13330
330
1E
100
AcDbEntity
  8
10
  6
Continuous
100
AcDbLine
 10
268.7839548768725
 20
689.0980442368567
 30
0.0
 11
269.7839548768725
 21
690.0980442368567
 31
0.0
  0
LINE
  5
13331
330
1E
100
AcDbEntity
  8
10
  6
Continuous
100
AcDbLine
 10
266.3970047861653
 20
687.0646475367431
 30
0.0
 11
267.1150374694439
 21
687.7826802200212
 31
0.0
  0
LINE
  5
13332
330
1E
100
AcDbEntity
  8
10
  6
Continuous
100
AcDbLine
 10
268.7839548768725
 20
685.5625103309245
 30
0.0
 11
269.7839548768725
 21
686.5625103309245
 31
0.0
  0
LINE
  5
13333
330
1E
100
AcDbEntity
  8
10
  6
Continuous
100
AcDbLine
 10
268.7839548768725
 20
685.3985124951232
 30
0.0
 11
268.7839548768725
 21
693.0980442368567
 31
0.0
  0
LINE
  5
13334
330
1E
100
AcDbEntity
  8
10
  6
Continuous
100
AcDbLine
 10
267.5616512492961
 20
685.4008668751276
 30
0.0
 11
268.2796839325747
 21
686.1188995584061
 31
0.0
  0
LINE
  5
13335
330
1E
100
AcDbEntity
  8
10
  6
Continuous
100
AcDbLine
 10
268.7839548768725
 20
688.7444908462637
 30
0.0
 11
269.7839548768725
 21
689.7444908462637
 31
0.0
  0
LINE
  5
13336
330
1E
100
AcDbEntity
  8
10
  6
Continuous
100
AcDbLine
 10
266.5425855940565
 20
686.8566749540416
 30
0.0
 11
267.2606182773352
 21
687.5747076373198
 31
0.0
  0
LINE
  5
13337
330
1E
100
AcDbEntity
  8
10
  6
Continuous
100
AcDbLine
 10
268.7839548768725
 20
686.9767238932976
 30
0.0
 11
269.7839548768725
 21
687.9767238932976
 31
0.0
  0
LINE
  5
13338
330
1E
100
AcDbEntity
  8
10
  6
Continuous
100
AcDbLine
 10
268.7839548768725
 20
689.4515976274499
 30
0.0
 11
269.7839548768725
 21
690.4515976274499
 31
0.0
  0
LINE
  5
13339
330
1E
100
AcDbEntity
  8
10
  6
Continuous
100
AcDbLine
 10
266.8337472098392
 20
686.4407297886372
 30
0.0
 11
267.5517798931178
 21
687.1587624719158
 31
0.0
  0
LINE
  5
1333A
330
1E
100
AcDbEntity
  8
10
  6
Continuous
100
AcDbLine
 10
267.4160704414048
 20
685.6088394578297
 30
0.0
 11
268.1341031246834
 21
686.3268721411079
 31
0.0
  0
LINE
  5
1333B
330
1E
100
AcDbEntity
  8
10
  6
Continuous
100
AcDbLine
 10
268.7839548768725
 20
689.8051510180432
 30
0.0
 11
269.7839548768725
 21
690.8051510180434
 31
0.0
  0
LINE
  5
1333C
330
1E
100
AcDbEntity
  8
10
  6
Continuous
100
AcDbLine
 10
268.1439744808614
 20
684.5689765443201
 30
0.0
 11
269.7839548768725
 21
686.2089569403313
 31
0.0
  0
LINE
  5
1333D
330
1E
100
AcDbEntity
  8
10
  6
Continuous
100
AcDbLine
 10
265.5235199388176
 20
688.3124830329546
 30
0.0
 11
266.2415526220957
 21
689.0305157162329
 31
0.0
  0
LINE
  5
1333E
330
1E
100
AcDbEntity
  8
10
  6
Continuous
100
AcDbLine
 10
262.7839548768725
 20
690.1691120487218
 30
0.0
 11
264.3490021195084
 21
691.7341592913577
 31
0.0
  0
LINE
  5
1333F
330
1E
100
AcDbEntity
  8
10
  6
Continuous
100
AcDbLine
 10
262.7839548768725
 20
686.6335781427891
 30
0.0
 11
263.7839548768725
 21
687.6335781427891
 31
0.0
  0
LINE
  5
13340
330
1E
100
AcDbEntity
  8
10
  6
Continuous
100
AcDbLine
 10
264.2132926677955
 20
690.1842362772717
 30
0.0
 11
264.9313253510736
 21
690.9022689605502
 31
0.0
  0
LINE
  5
13341
330
1E
100
AcDbEntity
  8
10
  6
Continuous
100
AcDbLine
 10
262.7839548768725
 20
689.4620052675352
 30
0.0
 11
263.7839548768725
 21
690.4620052675352
 31
0.0
  0
LINE
  5
13342
330
1E
100
AcDbEntity
  8
10
  6
Continuous
100
AcDbLine
 10
262.7839548768725
 20
685.2193645804162
 30
0.0
 11
263.7839548768725
 21
686.2193645804162
 31
0.0
  0
LINE
  5
13343
330
1E
100
AcDbEntity
  8
10
  6
Continuous
100
AcDbLine
 10
265.3779391309263
 20
688.5204556156566
 30
0.0
 11
266.0959718142044
 21
689.2384882989348
 31
0.0
  0
LINE
  5
13344
330
1E
100
AcDbEntity
  8
10
  6
Continuous
100
AcDbLine
 10
262.7839548768725
 20
689.1084518769421
 30
0.0
 11
263.7839548768725
 21
690.1084518769421
 31
0.0
  0
LINE
  5
13345
330
1E
100
AcDbEntity
  8
10
  6
Continuous
100
AcDbLine
 10
262.7839548768725
 20
688.4013450957553
 30
0.0
 11
263.7839548768725
 21
689.4013450957555
 31
0.0
  0
LINE
  5
13346
330
1E
100
AcDbEntity
  8
10
  6
Continuous
100
AcDbLine
 10
262.7839548768725
 20
689.8155586581282
 30
0.0
 11
264.4945829273997
 21
691.526186708656
 31
0.0
  0
LINE
  5
13347
330
1E
100
AcDbEntity
  8
10
  6
Continuous
100
AcDbLine
 10
262.7839548768725
 20
688.0477917051622
 30
0.0
 11
263.7839548768725
 21
689.0477917051622
 31
0.0
  0
LINE
  5
13348
330
1E
100
AcDbEntity
  8
10
  6
Continuous
100
AcDbLine
 10
262.7839548768725
 20
683.8051510180434
 30
0.0
 11
263.7839548768725
 21
684.8051510180432
 31
0.0
  0
LINE
  5
13349
330
1E
100
AcDbEntity
  8
10
  6
Continuous
100
AcDbLine
 10
264.6500350914694
 20
689.5603185291662
 30
0.0
 11
265.3680677747479
 21
690.2783512124446
 31
0.0
  0
LINE
  5
1334A
330
1E
100
AcDbEntity
  8
10
  6
Continuous
100
AcDbLine
 10
262.7839548768725
 20
684.1587044086367
 30
0.0
 11
263.7839548768725
 21
685.1587044086368
 31
0.0
  0
LINE
  5
1334B
330
1E
100
AcDbEntity
  8
10
  6
Continuous
100
AcDbLine
 10
262.7839548768725
 20
687.6942383145691
 30
0.0
 11
263.7839548768725
 21
688.6942383145691
 31
0.0
  0
LINE
  5
1334C
330
1E
100
AcDbEntity
  8
10
  6
Continuous
100
AcDbLine
 10
264.7956158993606
 20
689.3523459464639
 30
0.0
 11
265.5136485826393
 21
690.0703786297424
 31
0.0
  0
LINE
  5
1334D
330
1E
100
AcDbEntity
  8
10
  6
Continuous
100
AcDbLine
 10
262.7839548768725
 20
684.5122577992297
 30
0.0
 11
263.7839548768725
 21
685.5122577992297
 31
0.0
  0
LINE
  5
1334E
330
1E
100
AcDbEntity
  8
10
  6
Continuous
100
AcDbLine
 10
265.0867775151437
 20
688.9364007810602
 30
0.0
 11
265.8048101984218
 21
689.6544334643387
 31
0.0
  0
LINE
  5
1334F
330
1E
100
AcDbEntity
  8
10
  6
Continuous
100
AcDbLine
 10
262.7839548768725
 20
688.7548984863489
 30
0.0
 11
263.7839548768725
 21
689.7548984863487
 31
0.0
  0
LINE
  5
13350
330
1E
100
AcDbEntity
  8
10
  6
Continuous
100
AcDbLine
 10
264.941196707252
 20
689.144373363762
 30
0.0
 11
265.6592293905305
 21
689.8624060470407
 31
0.0
  0
LINE
  5
13351
330
1E
100
AcDbEntity
  8
10
  6
Continuous
100
AcDbLine
 10
262.7839548768725
 20
685.9264713616028
 30
0.0
 11
263.7839548768725
 21
686.9264713616027
 31
0.0
  0
LINE
  5
13352
330
1E
100
AcDbEntity
  8
10
  6
Continuous
100
AcDbLine
 10
262.7839548768725
 20
686.2800247521959
 30
0.0
 11
263.7839548768725
 21
687.280024752196
 31
0.0
  0
LINE
  5
13353
330
1E
100
AcDbEntity
  8
10
  6
Continuous
100
AcDbLine
 10
262.7839548768725
 20
686.9871315333827
 30
0.0
 11
263.7839548768725
 21
687.9871315333827
 31
0.0
  0
LINE
  5
13354
330
1E
100
AcDbEntity
  8
10
  6
Continuous
100
AcDbLine
 10
262.7839548768725
 20
685.5729179710094
 30
0.0
 11
263.7839548768725
 21
686.5729179710097
 31
0.0
  0
LINE
  5
13355
330
1E
100
AcDbEntity
  8
10
  6
Continuous
100
AcDbLine
 10
264.3588734756868
 20
689.9762636945695
 30
0.0
 11
265.0769061589654
 21
690.6942963778482
 31
0.0
  0
LINE
  5
13356
330
1E
100
AcDbEntity
  8
10
  6
Continuous
100
AcDbLine
 10
265.2323583230345
 20
688.7284281983586
 30
0.0
 11
265.9503910063131
 21
689.4464608816368
 31
0.0
  0
LINE
  5
13357
330
1E
100
AcDbEntity
  8
10
  6
Continuous
100
AcDbLine
 10
262.7839548768725
 20
684.8658111898231
 30
0.0
 11
263.7839548768725
 21
685.8658111898231
 31
0.0
  0
LINE
  5
13358
330
1E
100
AcDbEntity
  8
10
  6
Continuous
100
AcDbLine
 10
262.7839548768725
 20
687.340684923976
 30
0.0
 11
263.7839548768725
 21
688.340684923976
 31
0.0
  0
LINE
  5
13359
330
1E
100
AcDbEntity
  8
10
  6
Continuous
100
AcDbLine
 10
264.5044542835781
 20
689.7682911118681
 30
0.0
 11
265.2224869668566
 21
690.4863237951465
 31
0.0
  0
LINE
  5
1335A
330
1E
100
AcDbEntity
  8
10
  6
Continuous
100
AcDbLine
 10
266.2514239782741
 20
687.2726201194449
 30
0.0
 11
266.9694566615525
 21
687.9906528027235
 31
0.0
  0
LINE
  5
1335B
330
1E
100
AcDbEntity
  8
10
  6
Continuous
100
AcDbLine
 10
263.394282657659
 20
693.0980442368567
 30
0.0
 11
268.7839548768725
 21
685.3985124951232
 31
0.0
  0
LINE
  5
1335C
330
1E
100
AcDbEntity
  8
10
  6
Continuous
100
AcDbLine
 10
266.1058431703827
 20
687.4805927021467
 30
0.0
 11
266.8238758536613
 21
688.1986253854254
 31
0.0
  0
LINE
  5
1335D
330
1E
100
AcDbEntity
  8
10
  6
Continuous
100
AcDbLine
 10
265.8146815546002
 20
687.8965378675508
 30
0.0
 11
266.5327142378787
 21
688.614570550829
 31
0.0
  0
LINE
  5
1335E
330
1E
100
AcDbEntity
  8
10
  6
Continuous
100
AcDbLine
 10
265.9602623624914
 20
687.6885652848487
 30
0.0
 11
266.67829504577
 21
688.4065979681272
 31
0.0
  0
LINE
  5
1335F
330
1E
100
AcDbEntity
  8
10
  6
Continuous
100
AcDbLine
 10
265.6691007467089
 20
688.1045104502525
 30
0.0
 11
266.3871334299874
 21
688.8225431335309
 31
0.0
  0
LINE
  5
13360
330
1E
100
AcDbEntity
  8
10
  6
Continuous
100
AcDbLine
 10
269.7839548768725
 20
683.0980442368568
 30
0.0
 11
269.173627096086
 21
683.0980442368568
 31
0.0
  0
LINE
  5
13361
330
1E
100
AcDbEntity
  8
10
  6
Continuous
100
AcDbLine
 10
269.501469298144
 20
683.0980442368568
 30
0.0
 11
269.7839548768725
 21
683.3805298155851
 31
0.0
  0
LINE
  5
13362
330
1E
100
AcDbEntity
  8
10
  6
Continuous
100
AcDbLine
 10
269.1479159075511
 20
683.0980442368568
 30
0.0
 11
269.7839548768725
 21
683.7340832061785
 31
0.0
  0
LINE
  5
13363
330
1E
100
AcDbEntity
  8
10
  6
Continuous
100
AcDbLine
 10
262.7839548768725
 20
683.0980442368568
 30
0.0
 11
263.7839548768725
 21
683.0980442368568
 31
0.0
  0
LINE
  5
13364
330
1E
100
AcDbEntity
  8
10
  6
Continuous
100
AcDbLine
 10
263.4910616580592
 20
683.0980442368568
 30
0.0
 11
263.7839548768725
 21
683.3909374556704
 31
0.0
  0
LINE
  5
13365
330
1E
100
AcDbEntity
  8
10
  6
Continuous
100
AcDbLine
 10
263.1375082674658
 20
683.0980442368568
 30
0.0
 11
263.7839548768725
 21
683.7444908462637
 31
0.0
  0
LINE
  5
13366
330
1E
100
AcDbEntity
  8
10
  6
Continuous
100
AcDbLine
 10
263.7839548768725
 20
690.7975759785902
 30
0.0
 11
263.7839548768725
 21
683.0980442368568
 31
0.0
  0
LINE
  5
13367
330
1E
100
AcDbEntity
  8
10
  6
Continuous
100
AcDbLine
 10
262.7839548768725
 20
683.45159762745
 30
0.0
 11
263.7839548768725
 21
684.45159762745
 31
0.0
  0
LINE
  5
13368
330
1E
100
AcDbEntity
  8
10
  6
Continuous
100
AcDbLine
 10
263.7839548768725
 20
690.7975759785902
 30
0.0
 11
269.173627096086
 21
683.0980442368568
 31
0.0
  0
LINE
  5
13369
330
1E
100
AcDbEntity
  8
10
  6
Continuous
100
AcDbLine
 10
268.8718785203182
 20
683.5291136308105
 30
0.0
 11
269.7839548768725
 21
684.4411899873647
 31
0.0
  0
LINE
  5
1336A
330
1E
100
AcDbEntity
  8
10
  6
Continuous
100
AcDbLine
 10
262.7839548768725
 20
683.0980442368568
 30
0.0
 11
262.7839548768725
 21
693.0980442368567
 31
0.0
  0
LINE
  5
1336B
330
1E
100
AcDbEntity
  8
10
  6
Continuous
100
AcDbLine
 10
269.7839548768725
 20
683.0980442368568
 30
0.0
 11
269.7839548768725
 21
693.0980442368567
 31
0.0
  0
LINE
  5
1336C
330
1E
100
AcDbEntity
  8
10
  6
Continuous
100
AcDbLine
 10
269.0174593282095
 20
683.3211410481087
 30
0.0
 11
269.7839548768725
 21
684.0876365967717
 31
0.0
  0
LINE
  5
1336D
330
1E
100
AcDbEntity
  8
10
  6
Continuous
100
AcDbLine
 10
262.7839548768725
 20
683.0980442368568
 30
0.0
 11
263.7839548768725
 21
684.0980442368568
 31
0.0
  0
LINE
  5
1336E
330
1E
100
AcDbEntity
  8
10
  6
Continuous
100
AcDbLine
 10
268.7262977124269
 20
683.7370862135125
 30
0.0
 11
269.7839548768725
 21
684.7947433779581
 31
0.0
  0
LINE
  5
13378
330
1E
100
AcDbEntity
  8
10
  6
Continuous
100
AcDbLine
 10
106.2839548768724
 20
744.4938972774812
 30
0.0
 11
119.4622076782498
 21
744.4938972774812
 31
0.0
  0
LWPOLYLINE
  5
133F1
330
1E
100
AcDbEntity
  8
10
  6
Continuous
100
AcDbPolyline
 90
        4
 70
     1
 43
0.0
 10
200.5839548768727
 20
574.0438972774821
 10
195.2839548768725
 20
574.0438972774821
 10
195.2839548768725
 20
580.6438972774822
 10
200.5839548768727
 20
580.6438972774822
  0
LWPOLYLINE
  5
133F2
330
1E
100
AcDbEntity
  8
10
  6
Continuous
100
AcDbPolyline
 90
        4
 70
     1
 43
0.0
 10
159.1626644588723
 20
634.4434526744821
 10
193.1626663063725
 20
634.4434526744821
 10
193.1626663063725
 20
626.2911503199822
 10
159.1626644588723
 20
626.2911503199822
  0
LINE
  5
133F4
330
1E
100
AcDbEntity
  8
24
  6
CONTINOUS
100
AcDbLine
 10
537.1598456858658
 20
868.6412387693408
 30
0.0
 11
569.1598456858654
 21
868.6412387693408
 31
0.0
  0
CIRCLE
  5
133F6
330
1E
100
AcDbEntity
  8
24
  6
CONTINOUS
100
AcDbCircle
 10
553.1598456858654
 20
880.6412387693407
 30
0.0
 40
5.499999999999785
  0
SPLINE
  5
133F7
330
1E
100
AcDbEntity
  8
24
  6
CONTINOUS
100
AcDbSpline
210
0.0
220
0.0
230
1.0
 70
     8
 71
     3
 72
     8
 73
     4
 74
     0
 42
0.000000001
 43
0.0000000001
 40
0.0
 40
0.0
 40
0.0
 40
0.0
 40
1.0
 40
1.0
 40
1.0
 40
1.0
 10
521.5912494194293
 20
907.2285348802095
 30
0.0
 10
541.1271277122831
 20
935.3480306198436
 30
0.0
 10
560.6371054766173
 20
891.4222841689579
 30
0.0
 10
579.1110294320051
 20
912.5732931999623
 30
0.0
  0
DIMENSION
  5
133F8
330
1E
100
AcDbEntity
  8
30
  6
Continuous
100
AcDbDimension
280
     0
  2
*D13
 10
511.0450423250323
 20
868.6412387693408
 30
0.0
 11
511.0450423250322
 21
874.6412387693411
 31
0.0
 70
   160
  1
<>\P(MAX.)
 71
     2
 42
12.0
 73
     0
 74
     0
 75
     0
  3
STANDARD
100
AcDbAlignedDimension
 13
553.1598456858654
 23
880.6412387693407
 33
0.0
 14
537.1598456858658
 24
868.6412387693408
 34
0.0
 50
90.0
100
AcDbRotatedDimension
1001
ACAD
1000
DSTYLE
1002
{
1070
    79
1070
     3
1002
}
  0
DIMENSION
  5
133F9
330
1E
100
AcDbEntity
  8
30
  6
Continuous
100
AcDbDimension
280
     0
  2
*D14
 10
569.1598456858654
 20
844.6403063710924
 30
0.0
 11
591.493179019199
 21
844.6403063710924
 31
0.0
 70
   160
  1
<>\P(MAX.)
 71
     2
 42
31.99999999999955
 73
     0
 74
     0
 75
     0
  3
STANDARD
100
AcDbAlignedDimension
 13
537.1598456858658
 23
868.6412387693408
 33
0.0
 14
569.1598456858654
 24
868.6412387693408
 34
0.0
100
AcDbRotatedDimension
1001
ACAD
1000
DSTYLE
1002
{
1070
    79
1070
     3
1002
}
  0
DIMENSION
  5
133FA
330
1E
100
AcDbEntity
  8
30
  6
Continuous
100
AcDbDimension
280
     0
  2
*D15
 10
549.0270975640387
 20
877.0121351667494
 30
0.0
 11
596.6267567560699
 21
909.1515133973947
 31
0.0
 70
   163
  1
<>
 71
     5
 42
10.99999999979263
 73
     0
 74
     0
 75
     0
  3
STANDARD1
100
AcDbDiametricDimension
 15
557.2925938081906
 25
884.2703423719306
 35
0.0
 40
0.0
  0
LINE
  5
133FB
330
1E
100
AcDbEntity
  8
24
  6
CONTINOUS
100
AcDbLine
 10
553.1598456861156
 20
888.0512387693407
 30
0.0
 11
553.1598456861156
 21
873.0512387693407
 31
0.0
  0
LINE
  5
133FC
330
1E
100
AcDbEntity
  8
24
  6
CONTINOUS
100
AcDbLine
 10
545.6598456861156
 20
880.551238769341
 30
0.0
 11
560.6598456861156
 21
880.551238769341
 31
0.0
  0
LINE
  5
1340E
330
1E
100
AcDbEntity
  8
0
  6
SLD-実線
 62
     7
370
    30
100
AcDbLine
 10
494.8414789285711
 20
570.5253687684819
 30
0.0
 11
494.8414789285711
 21
658.4624257864817
 31
0.0
  0
LINE
  5
13415
330
1E
100
AcDbEntity
  8
10
  6
CONTINOUS
100
AcDbLine
 10
487.3414786300712
 20
570.4938972774822
 30
0.0
 11
487.3414786300712
 21
658.4938972774822
 31
0.0
  0
LINE
  5
13416
330
1E
100
AcDbEntity
  8
0
  6
SLD-実線
 62
     7
370
    30
100
AcDbLine
 10
601.8414797030714
 20
513.9668715179821
 30
0.0
 11
601.8414797030714
 21
501.0209214869822
 31
0.0
  0
LINE
  5
1341A
330
1E
100
AcDbEntity
  8
10
  6
CONTINOUS
100
AcDbLine
 10
504.8414797030712
 20
514.3032399784821
 30
0.0
 11
519.8414797030713
 21
514.3032399784821
 31
0.0
  0
LINE
  5
1341C
330
1E
100
AcDbEntity
  8
10
  6
CONTINOUS
100
AcDbLine
 10
504.8414797030712
 20
500.6845545764821
 30
0.0
 11
519.8414797030713
 21
500.6845545764821
 31
0.0
  0
LINE
  5
1341D
330
1E
100
AcDbEntity
  8
240
  6
SLD-破線
370
     0
100
AcDbLine
 10
519.8414797030713
 20
514.3032399784821
 30
0.0
 11
519.8414797030713
 21
500.6845545764821
 31
0.0
  0
LINE
  5
1341E
330
1E
100
AcDbEntity
  8
10
  6
CONTINOUS
100
AcDbLine
 10
519.8414797030713
 20
500.6845545764821
 30
0.0
 11
519.8414797030713
 21
514.3032399784821
 31
0.0
  0
LINE
  5
13426
330
1E
100
AcDbEntity
  8
10
  6
CONTINOUS
100
AcDbLine
 10
494.8414768420711
 20
659.4938972774825
 30
0.0
 11
494.8414768420711
 21
569.4938972774822
 31
0.0
  0
LINE
  5
1342A
330
1E
100
AcDbEntity
  8
10
  6
CONTINOUS
100
AcDbLine
 10
488.3414786300713
 20
569.4938972774822
 30
0.0
 11
498.8414768420711
 21
569.4938972774822
 31
0.0
  0
ARC
  5
1342B
330
1E
100
AcDbEntity
  8
10
  6
CONTINOUS
100
AcDbCircle
 10
488.3414786300713
 20
570.4938972774822
 30
0.0
 40
1.0
100
AcDbArc
 50
180.0
 51
270.0
  0
LINE
  5
1342E
330
1E
100
AcDbEntity
  8
10
  6
CONTINOUS
100
AcDbLine
 10
488.3414786300713
 20
659.4938972774825
 30
0.0
 11
498.8414768420711
 21
659.4938972774825
 31
0.0
  0
ARC
  5
1342F
330
1E
100
AcDbEntity
  8
10
  6
CONTINOUS
100
AcDbCircle
 10
488.3414786300713
 20
658.4938972774822
 30
0.0
 40
1.0
100
AcDbArc
 50
90.0
 51
180.0
  0
LINE
  5
13432
330
1E
100
AcDbEntity
  8
12
  6
DASHED
100
AcDbLine
 10
516.5414768420704
 20
505.2438972774825
 30
0.0
 11
601.8414768420711
 21
505.2438972774825
 31
0.0
  0
LINE
  5
13433
330
1E
100
AcDbEntity
  8
12
  6
DASHED
100
AcDbLine
 10
516.5414768420704
 20
509.7438972774827
 30
0.0
 11
601.8414768420711
 21
509.7438972774827
 31
0.0
  0
LINE
  5
13434
330
1E
100
AcDbEntity
  8
12
  6
DASHED
100
AcDbLine
 10
500.8414768420711
 20
507.4938972774827
 30
0.0
 11
625.8414768420712
 21
507.4938972774827
 31
0.0
  0
LINE
  5
13435
330
1E
100
AcDbEntity
  8
12
  6
DASHED
100
AcDbLine
 10
504.8414768420711
 20
503.2438972774825
 30
0.0
 11
516.5414768420704
 21
503.2438972774825
 31
0.0
  0
LINE
  5
13436
330
1E
100
AcDbEntity
  8
12
  6
DASHED
100
AcDbLine
 10
504.8414768420711
 20
511.7438972774826
 30
0.0
 11
516.5414768420704
 21
511.7438972774826
 31
0.0
  0
LINE
  5
13437
330
1E
100
AcDbEntity
  8
12
  6
DASHED
100
AcDbLine
 10
510.5414768420703
 20
511.7438972774826
 30
0.0
 11
510.5414768420703
 21
503.2438972774825
 31
0.0
  0
LINE
  5
13438
330
1E
100
AcDbEntity
  8
12
  6
DASHED
100
AcDbLine
 10
516.5414768420704
 20
511.7438972774826
 30
0.0
 11
516.5414768420704
 21
503.2438972774825
 31
0.0
  0
LINE
  5
13439
330
1E
100
AcDbEntity
  8
12
  6
DASHED
100
AcDbLine
 10
516.5414768420704
 20
505.2438972774825
 30
0.0
 11
516.5414768420704
 21
503.2438972774825
 31
0.0
  0
LINE
  5
1343A
330
1E
100
AcDbEntity
  8
12
  6
DASHED
100
AcDbLine
 10
516.5414768420704
 20
511.7438972774826
 30
0.0
 11
516.5414768420704
 21
509.7438972774827
 31
0.0
  0
LINE
  5
1343B
330
1E
100
AcDbEntity
  8
12
  6
DASHED
100
AcDbLine
 10
601.8414768420711
 20
505.2438972774825
 30
0.0
 11
616.541476842071
 21
505.2438972774825
 31
0.0
  0
LINE
  5
1343C
330
1E
100
AcDbEntity
  8
12
  6
DASHED
100
AcDbLine
 10
601.8414768420711
 20
509.7438972774827
 30
0.0
 11
616.541476842071
 21
509.7438972774827
 31
0.0
  0
LINE
  5
1343D
330
1E
100
AcDbEntity
  8
10
  6
Continuous
100
AcDbLine
 10
616.541476842071
 20
509.7438972774827
 30
0.0
 11
616.541476842071
 21
505.2438972774825
 31
0.0
  0
DIMENSION
  5
1343E
330
1E
100
AcDbEntity
  8
30
  6
Continuous
100
AcDbDimension
280
     0
  2
*D16
 10
444.5479839335562
 20
569.4938972774822
 30
0.0
 11
437.5479839335561
 21
614.4938972774825
 31
0.0
 70
    32
 71
     5
 42
90.00000000000012
 73
     0
 74
     0
 75
     0
  3
STANDARD
100
AcDbAlignedDimension
 13
489.9016563561139
 23
659.4938972774825
 33
0.0
 14
485.1203294766174
 24
569.4938972774822
 34
0.0
 50
90.0
100
AcDbRotatedDimension
1001
ACAD
1000
DSTYLE
1002
{
1070
    79
1070
     3
1002
}
  0
LWPOLYLINE
  5
1343F
330
1E
100
AcDbEntity
  8
10
380
     2
100
AcDbPolyline
 90
        4
 70
     1
 43
0.0
 10
700.0
 20
0.0
 10
700.0
 20
1088.0
 10
0.0
 20
1088.0
 10
0.0
 20
0.0
  0
DIMENSION
  5
13440
330
1E
100
AcDbEntity
  8
30
  6
Continuous
100
AcDbDimension
280
     0
  2
*D17
 10
285.0474591174204
 20
768.5745561454547
 30
0.0
 11
321.9000490956077
 21
807.4178611371797
 31
0.0
 70
   163
  1
<>
 71
     5
 42
13.99999999967292
 73
     0
 74
     0
 75
     0
  3
STANDARD1
100
AcDbDiametricDimension
 15
292.5204506363218
 25
780.4132384095102
 35
0.0
 40
0.0
  0
DIMENSION
  5
13441
330
1E
100
AcDbEntity
  8
30
  6
Continuous
100
AcDbDimension
280
     0
  2
*D18
 10
85.97777998036518
 20
774.4938972774823
 30
0.0
 11
85.97777998036509
 21
813.1586383914678
 31
0.0
 70
   160
  1
<>
 71
     2
 42
14.5
 73
     0
 74
     0
 75
     0
  3
STANDARD
100
AcDbAlignedDimension
 13
102.3839548768724
 23
788.9938972774823
 33
0.0
 14
106.7839548768725
 24
774.4938972774823
 34
0.0
 50
90.0
100
AcDbRotatedDimension
1001
ACAD
1000
DSTYLE
1002
{
1070
    79
1070
     3
1002
}
  0
DIMENSION
  5
13442
330
1E
100
AcDbEntity
  8
30
  6
Continuous
100
AcDbDimension
280
     0
  2
*D19
 10
85.97777998036521
 20
744.4938972774823
 30
0.0
 11
85.97777998036509
 21
755.8634090609679
 31
0.0
 70
   160
  1
<>
 71
     2
 42
30.0
 73
     0
 74
     0
 75
     0
  3
STANDARD
100
AcDbAlignedDimension
 13
106.7839548768725
 23
774.4938972774823
 33
0.0
 14
106.2839548768724
 24
744.4938972774823
 34
0.0
 50
90.0
100
AcDbRotatedDimension
1001
ACAD
1000
DSTYLE
1002
{
1070
    79
1070
     3
1002
}
  0
DIMENSION
  5
13443
330
1E
100
AcDbEntity
  8
30
  6
Continuous
100
AcDbDimension
280
     0
  2
*D20
 10
65.88891751904715
 20
744.4938972774823
 30
0.0
 11
65.88891751904703
 21
763.6742732701772
 31
0.0
 70
   160
  1
<>
 71
     2
 42
44.5
 73
     0
 74
     0
 75
     0
  3
STANDARD
100
AcDbAlignedDimension
 13
102.3839548768724
 23
788.9938972774823
 33
0.0
 14
106.2839548768724
 24
744.4938972774823
 34
0.0
 50
90.0
100
AcDbRotatedDimension
1001
ACAD
1000
DSTYLE
1002
{
1070
    79
1070
     3
1002
}
  0
LINE
  5
13444
330
1E
100
AcDbEntity
  8
17
 62
     2
100
AcDbLine
 10
548.8414768420711
 20
774.4938972774823
 30
0.0
 11
572.8414768420711
 21
774.4938972774823
 31
0.0
  0
LWPOLYLINE
  5
13445
330
1E
100
AcDbEntity
  8
24
  6
Continuous
100
AcDbPolyline
 90
        4
 70
     0
 43
0.0
 10
565.8414768420711
 20
744.4938972774823
 10
565.8414768420711
 20
788.9938972774825
 10
557.8414768420712
 20
788.9938972774825
 10
557.8414768420712
 20
744.4938972774823
  0
DIMENSION
  5
13446
330
1E
100
AcDbEntity
  8
30
  6
Continuous
100
AcDbDimension
280
     0
  2
*D21
 10
565.8414768420711
 20
807.1003177126065
 30
0.0
 11
583.8414768420712
 21
814.1003177126066
 31
0.0
 70
    32
 71
     5
 42
36.0
 73
     0
 74
     0
 75
     0
  3
STANDARD
100
AcDbAlignedDimension
 13
601.8414768420711
 23
744.4938972774823
 33
0.0
 14
565.8414768420711
 24
788.9938972774825
 34
0.0
100
AcDbRotatedDimension
  0
DIMENSION
  5
13447
330
1E
100
AcDbEntity
  8
30
  6
Continuous
100
AcDbDimension
280
     0
  2
*D22
 10
557.8414768420712
 20
807.1003177126065
 30
0.0
 11
548.1748101754045
 21
814.1003177126066
 31
0.0
 70
    32
 71
     5
 42
8.0
 73
     0
 74
     0
 75
     0
  3
STANDARD1
100
AcDbAlignedDimension
 13
565.8414768420711
 23
788.9938972774825
 33
0.0
 14
557.8414768420712
 24
788.9938972774825
 34
0.0
100
AcDbRotatedDimension
  0
LINE
  5
13448
330
1E
100
AcDbEntity
  8
17
  6
DASHDOT
100
AcDbLine
 10
143.6432896959977
 20
980.6128689213373
 30
0.0
 11
118.9245396959977
 21
980.6128689213373
 31
0.0
  0
LINE
  5
13449
330
1E
100
AcDbEntity
  8
17
  6
DASHDOT
100
AcDbLine
 10
143.9497130754375
 20
980.6128689213373
 30
0.0
 11
118.9497130754375
 21
980.6128689213373
 31
0.0
  0
LINE
  5
1344A
330
1E
100
AcDbEntity
  8
24
  6
CONTINOUS
100
AcDbLine
 10
117.1496642473375
 20
980.6128689213373
 30
0.0
 11
145.1496642473375
 21
980.6128689213373
 31
0.0
  0
LWPOLYLINE
  5
1344B
330
1E
100
AcDbEntity
  8
24
  6
CONTINOUS
100
AcDbPolyline
 90
        2
 70
     0
 43
0.001
 10
117.1496642473375
 20
977.5463040888553
 10
145.1496642473375
 20
977.5463040888553
  0
LWPOLYLINE
  5
1344C
330
1E
100
AcDbEntity
  8
24
  6
CONTINOUS
100
AcDbPolyline
 90
        4
 70
     1
 43
0.0
 10
145.1496642473375
 20
977.5463040888553
 10
94.73390845737455
 20
977.5463040888553
 10
94.73390845737455
 20
969.5463040888553
 10
145.1496642473375
 20
969.5463040888553
  0
LWPOLYLINE
  5
1344D
330
1E
100
AcDbEntity
  8
10
  6
CONTINOUS
100
AcDbPolyline
 90
        2
 70
     0
 43
0.0
 10
117.1496642473375
 20
978.6128689213368
 10
117.1496642473375
 20
977.5463040888553
  0
LWPOLYLINE
  5
1344E
330
1E
100
AcDbEntity
  8
24
  6
CONTINOUS
100
AcDbPolyline
 90
        2
 70
     0
 43
0.001
 10
117.1496642473375
 20
980.6128689213373
 10
117.1496642473375
 20
977.5463040888553
  0
LWPOLYLINE
  5
1344F
330
1E
100
AcDbEntity
  8
10
  6
CONTINOUS
100
AcDbPolyline
 90
        2
 70
     0
 43
0.0
 10
162.1496642473374
 20
978.6128689213368
 10
162.1496642473374
 20
977.5463040888553
  0
LINE
  5
13450
330
1E
100
AcDbEntity
  8
24
  6
CONTINOUS
100
AcDbLine
 10
141.1859630754375
 20
980.6128689213373
 30
0.0
 11
127.7134630754376
 21
980.6128689213373
 31
0.0
  0
LINE
  5
13451
330
1E
100
AcDbEntity
  8
24
  6
CONTINOUS
100
AcDbLine
 10
125.4666541180149
 20
980.6128689213373
 30
0.0
 11
125.4666541180149
 21
977.5463040888553
 31
0.0
  0
LINE
  5
13452
330
1E
100
AcDbEntity
  8
24
  6
CONTINOUS
100
AcDbLine
 10
137.1011752739805
 20
980.6128689213373
 30
0.0
 11
137.1011752739805
 21
977.5463040888553
 31
0.0
  0
LWPOLYLINE
  5
13453
330
1E
100
AcDbEntity
  8
24
  6
CONTINOUS
100
AcDbPolyline
 90
        2
 70
     0
 43
0.001
 10
145.1496642473375
 20
980.6128689213373
 10
145.1496642473375
 20
977.5463040888553
  0
LINE
  5
13454
330
1E
100
AcDbEntity
  8
17
  6
DASHDOT
100
AcDbLine
 10
182.6432896959977
 20
980.6128689213373
 30
0.0
 11
163.9245396959977
 21
980.6128689213373
 31
0.0
  0
LINE
  5
13455
330
1E
100
AcDbEntity
  8
17
  6
DASHDOT
100
AcDbLine
 10
182.9497130754375
 20
980.6128689213373
 30
0.0
 11
163.9497130754375
 21
980.6128689213373
 31
0.0
  0
LINE
  5
13456
330
1E
100
AcDbEntity
  8
24
  6
CONTINOUS
100
AcDbLine
 10
162.1496642473374
 20
980.6128689213373
 30
0.0
 11
190.1496642473374
 21
980.6128689213373
 31
0.0
  0
LWPOLYLINE
  5
13457
330
1E
100
AcDbEntity
  8
24
  6
CONTINOUS
100
AcDbPolyline
 90
        2
 70
     0
 43
0.001
 10
162.1496642473374
 20
977.5463040888553
 10
190.1496642473374
 20
977.5463040888553
  0
LINE
  5
13458
330
1E
100
AcDbEntity
  8
24
  6
CONTINOUS
100
AcDbLine
 10
180.1859630754375
 20
980.6128689213373
 30
0.0
 11
166.7134630754376
 21
980.6128689213373
 31
0.0
  0
LWPOLYLINE
  5
13459
330
1E
100
AcDbEntity
  8
24
  6
CONTINOUS
100
AcDbPolyline
 90
        2
 70
     0
 43
0.001
 10
162.1496642473374
 20
980.6128689213373
 10
162.1496642473374
 20
977.5463040888553
  0
LINE
  5
1345A
330
1E
100
AcDbEntity
  8
24
  6
CONTINOUS
100
AcDbLine
 10
170.4666541180149
 20
980.6128689213373
 30
0.0
 11
170.4666541180149
 21
977.5463040888553
 31
0.0
  0
LINE
  5
1345B
330
1E
100
AcDbEntity
  8
24
  6
CONTINOUS
100
AcDbLine
 10
182.1011752739805
 20
980.6128689213373
 30
0.0
 11
182.1011752739805
 21
977.5463040888553
 31
0.0
  0
LWPOLYLINE
  5
1345C
330
1E
100
AcDbEntity
  8
24
  6
CONTINOUS
100
AcDbPolyline
 90
        2
 70
     0
 43
0.001
 10
190.1496642473374
 20
980.6128689213373
 10
190.1496642473374
 20
977.5463040888553
  0
LWPOLYLINE
  5
1345D
330
1E
100
AcDbEntity
  8
10
  6
CONTINOUS
100
AcDbPolyline
 90
        4
 70
     0
 43
0.0
 10
207.1496642473376
 20
978.6128689213368
 10
207.1496642473376
 20
922.546304088855
 10
235.1496642473376
 20
922.546304088855
 10
235.1496642473376
 20
969.5463040888553
  0
LINE
  5
1345E
330
1E
100
AcDbEntity
  8
24
  6
CONTINOUS
100
AcDbLine
 10
207.1496642473376
 20
980.6128689213373
 30
0.0
 11
235.1496642473376
 21
980.6128689213373
 31
0.0
  0
LWPOLYLINE
  5
1345F
330
1E
100
AcDbEntity
  8
24
  6
CONTINOUS
100
AcDbPolyline
 90
        2
 70
     0
 43
0.001
 10
207.1496642473376
 20
977.5463040888553
 10
235.1496642473376
 20
977.5463040888553
  0
LWPOLYLINE
  5
13462
330
1E
100
AcDbEntity
  8
24
  6
CONTINOUS
100
AcDbPolyline
 90
        2
 70
     0
 43
0.001
 10
207.1496642473376
 20
980.6128689213373
 10
207.1496642473376
 20
977.5463040888553
  0
LINE
  5
13463
330
1E
100
AcDbEntity
  8
24
  6
CONTINOUS
100
AcDbLine
 10
225.1859630754375
 20
980.6128689213373
 30
0.0
 11
217.7134630754376
 21
980.6128689213373
 31
0.0
  0
LINE
  5
13464
330
1E
100
AcDbEntity
  8
24
  6
CONTINOUS
100
AcDbLine
 10
215.466654118015
 20
980.6128689213373
 30
0.0
 11
215.466654118015
 21
977.5463040888553
 31
0.0
  0
LINE
  5
13465
330
1E
100
AcDbEntity
  8
24
  6
CONTINOUS
100
AcDbLine
 10
227.1011752739805
 20
980.6128689213373
 30
0.0
 11
227.1011752739805
 21
977.5463040888553
 31
0.0
  0
LWPOLYLINE
  5
13466
330
1E
100
AcDbEntity
  8
24
  6
CONTINOUS
100
AcDbPolyline
 90
        2
 70
     0
 43
0.001
 10
235.1496642473376
 20
980.6128689213373
 10
235.1496642473376
 20
977.5463040888553
  0
LINE
  5
13467
330
1E
100
AcDbEntity
  8
24
100
AcDbLine
 10
131.2839146959977
 20
989.9797392563726
 30
0.0
 11
131.2839146959977
 21
961.3223852445731
 31
0.0
  0
LINE
  5
13469
330
1E
100
AcDbEntity
  8
24
100
AcDbLine
 10
221.2839146959977
 20
989.9797392563726
 30
0.0
 11
221.2839146959977
 21
961.3223852445731
 31
0.0
  0
LINE
  5
1346A
330
1E
100
AcDbEntity
  8
24
100
AcDbLine
 10
266.2839209346207
 20
989.9797392563726
 30
0.0
 11
266.2839209346207
 21
961.9535978437292
 31
0.0
  0
LWPOLYLINE
  5
1346B
330
1E
100
AcDbEntity
  8
10
  6
CONTINOUS
100
AcDbPolyline
 90
        4
 70
     0
 43
0.0
 10
252.1496704859605
 20
978.6128689213368
 10
252.1496704859605
 20
922.546304088855
 10
280.1496704859605
 20
922.546304088855
 10
280.1496704859605
 20
969.5463040888553
  0
LINE
  5
1346C
330
1E
100
AcDbEntity
  8
17
  6
DASHDOT
100
AcDbLine
 10
278.9497193140605
 20
980.6128689213373
 30
0.0
 11
253.9497193140605
 21
980.6128689213373
 31
0.0
  0
LINE
  5
1346D
330
1E
100
AcDbEntity
  8
17
  6
DASHDOT
100
AcDbLine
 10
278.6432959346202
 20
980.6128689213373
 30
0.0
 11
253.9245459346207
 21
980.6128689213373
 31
0.0
  0
LWPOLYLINE
  5
1346E
330
1E
100
AcDbEntity
  8
24
  6
CONTINOUS
100
AcDbPolyline
 90
        2
 70
     0
 43
0.001
 10
252.1496704859605
 20
977.5463040888553
 10
280.1496704859605
 20
977.5463040888553
  0
LINE
  5
1346F
330
1E
100
AcDbEntity
  8
24
  6
CONTINOUS
100
AcDbLine
 10
252.1496704859605
 20
980.6128689213373
 30
0.0
 11
280.1496704859605
 21
980.6128689213373
 31
0.0
  0
LWPOLYLINE
  5
13470
330
1E
100
AcDbEntity
  8
24
  6
CONTINOUS
100
AcDbPolyline
 90
        2
 70
     0
 43
0.001
 10
252.1496704859605
 20
980.6128689213373
 10
252.1496704859605
 20
977.5463040888553
  0
LINE
  5
13471
330
1E
100
AcDbEntity
  8
24
  6
CONTINOUS
100
AcDbLine
 10
270.1859693140605
 20
980.6128689213373
 30
0.0
 11
262.7134693140606
 21
980.6128689213373
 31
0.0
  0
LINE
  5
13472
330
1E
100
AcDbEntity
  8
24
  6
CONTINOUS
100
AcDbLine
 10
260.4666603566379
 20
980.6128689213373
 30
0.0
 11
260.4666603566379
 21
977.5463040888553
 31
0.0
  0
LWPOLYLINE
  5
13473
330
1E
100
AcDbEntity
  8
24
  6
CONTINOUS
100
AcDbPolyline
 90
        2
 70
     0
 43
0.001
 10
280.1496704859605
 20
980.6128689213373
 10
280.1496704859605
 20
977.5463040888553
  0
LINE
  5
13474
330
1E
100
AcDbEntity
  8
24
  6
CONTINOUS
100
AcDbLine
 10
272.1011815126035
 20
980.6128689213373
 30
0.0
 11
272.1011815126035
 21
977.5463040888553
 31
0.0
  0
LWPOLYLINE
  5
13475
330
1E
100
AcDbEntity
  8
24
  6
CONTINOUS
100
AcDbPolyline
 90
        4
 70
     1
 43
0.0
 10
154.5996642473374
 20
977.5463040888553
 10
190.1496642473374
 20
977.5463040888553
 10
190.1496642473374
 20
969.5463040888553
 10
154.5996642473374
 20
969.5463040888553
  0
LWPOLYLINE
  5
13476
330
1E
100
AcDbEntity
  8
24
  6
CONTINOUS
100
AcDbPolyline
 90
        4
 70
     1
 43
0.0
 10
207.1496642473376
 20
977.5463040888553
 10
242.6496642473376
 20
977.5463040888553
 10
242.6496642473376
 20
969.5463040888553
 10
207.1496642473376
 20
969.5463040888553
  0
LWPOLYLINE
  5
13477
330
1E
100
AcDbEntity
  8
24
  6
CONTINOUS
100
AcDbPolyline
 90
        4
 70
     1
 43
0.0
 10
252.1496704859605
 20
977.5463040888553
 10
302.6496704859606
 20
977.5463040888553
 10
302.6496704859606
 20
969.5463040888553
 10
252.1496704859605
 20
969.5463040888553
  0
CIRCLE
  5
13479
330
1E
100
AcDbEntity
  8
24
  6
CONTINOUS
100
AcDbCircle
 10
288.7839548768725
 20
774.4938972774823
 30
0.0
 40
7.000000000000027
  0
LWPOLYLINE
  5
1347A
330
1E
100
AcDbEntity
  8
24
  6
CONTINOUS
100
AcDbPolyline
 90
        8
 70
     0
 43
0.0
 10
280.1839553298723
 20
744.4938972774812
 10
280.1839553298723
 20
747.4938985889822
 10
302.7839487733722
 20
770.4939004959822
 10
302.7839487733722
 20
788.9939007344822
 10
274.8839550198727
 20
788.9939007344822
 10
274.8839550198727
 20
770.4939004959822
 10
252.3839541258722
 20
747.4938985889822
 10
252.3839541258722
 20
744.4938972774812
  0
LWPOLYLINE
  5
1347B
330
1E
100
AcDbEntity
  8
24
  6
CONTINOUS
100
AcDbPolyline
 90
        8
 70
     0
 43
0.0
 10
190.1839545478724
 20
744.4938972774812
 10
190.1839545478724
 20
754.4938978734822
 10
182.6839547153722
 20
765.493890363482
 10
182.6839547153722
 20
788.9939007344822
 10
154.8839539768723
 20
788.9939007344822
 10
154.8839539768723
 20
765.493890363482
 10
162.3839552063728
 20
754.4938978734822
 10
162.3839552063728
 20
744.4938972774812
  0
CIRCLE
  5
1347C
330
1E
100
AcDbEntity
  8
24
  6
CONTINOUS
100
AcDbCircle
 10
168.7839548768725
 20
774.4938972774823
 30
0.0
 40
7.000000000000027
  0
CIRCLE
  5
1347D
330
1E
100
AcDbEntity
  8
24
  6
CONTINOUS
100
AcDbCircle
 10
108.7839548768725
 20
774.4938972774823
 30
0.0
 40
6.999999999999952
  0
LWPOLYLINE
  5
1347E
330
1E
100
AcDbEntity
  8
24
  6
CONTINOUS
100
AcDbPolyline
 90
        8
 70
     0
 43
0.0
 10
145.1839555533724
 20
744.4938972774812
 10
145.1839555533724
 20
747.4938985889822
 10
122.7839565218724
 20
770.4939004959822
 10
122.7839565218724
 20
788.9939007344822
 10
94.78395531787235
 20
788.9939007344822
 10
94.78395531787235
 20
770.4939004959822
 10
117.3839562123726
 20
747.4938985889822
 10
117.3839562123726
 20
744.4938972774812
  0
LWPOLYLINE
  5
1347F
330
1E
100
AcDbEntity
  8
24
  6
CONTINOUS
100
AcDbPolyline
 90
        8
 70
     0
 43
0.0
 10
235.1839535418721
 20
744.4938972774812
 10
235.1839535418721
 20
754.4938978734822
 10
242.6839538398726
 20
765.493890363482
 10
242.6839538398726
 20
788.9939007344822
 10
214.8839563613724
 20
788.9939007344822
 10
214.8839563613724
 20
765.493890363482
 10
207.3839542003725
 20
754.4938978734822
 10
207.3839542003725
 20
744.4938972774812
  0
CIRCLE
  5
13480
330
1E
100
AcDbEntity
  8
24
  6
CONTINOUS
100
AcDbCircle
 10
228.7839548768725
 20
774.4938972774823
 30
0.0
 40
6.999999999999884
  0
DIMENSION
  5
13481
330
1E
100
AcDbEntity
  8
30
  6
Continuous
100
AcDbDimension
280
     0
  2
*D23
 10
168.7839548768725
 20
829.166869056567
 30
0.0
 11
138.7839548768725
 21
829.166869056567
 31
0.0
 70
   160
  1
<>
 71
     2
 42
60.00000000000001
 73
     0
 74
     0
 75
     0
  3
STANDARD
100
AcDbAlignedDimension
 13
108.7839548768725
 23
783.9938972774823
 33
0.0
 14
168.7839548768725
 24
783.9938972774823
 34
0.0
100
AcDbRotatedDimension
1001
ACAD
1000
DSTYLE
1002
{
1070
    79
1070
     3
1002
}
  0
DIMENSION
  5
13482
330
1E
100
AcDbEntity
  8
30
  6
Continuous
100
AcDbDimension
280
     0
  2
*D24
 10
228.7839548768725
 20
829.166869056567
 30
0.0
 11
198.7839548768724
 21
829.166869056567
 31
0.0
 70
   160
  1
<>
 71
     2
 42
59.99999999999997
 73
     0
 74
     0
 75
     0
  3
STANDARD
100
AcDbAlignedDimension
 13
168.7839548768725
 23
783.9938972774823
 33
0.0
 14
228.7839548768725
 24
783.9938972774823
 34
0.0
100
AcDbRotatedDimension
1001
ACAD
1000
DSTYLE
1002
{
1070
    79
1070
     3
1002
}
  0
DIMENSION
  5
13483
330
1E
100
AcDbEntity
  8
30
  6
Continuous
100
AcDbDimension
280
     0
  2
*D25
 10
288.7839548768725
 20
829.166869056567
 30
0.0
 11
258.7839548768725
 21
829.166869056567
 31
0.0
 70
   160
  1
<>
 71
     2
 42
60.0
 73
     0
 74
     0
 75
     0
  3
STANDARD
100
AcDbAlignedDimension
 13
228.7839548768725
 23
783.9938972774823
 33
0.0
 14
288.7839548768725
 24
783.9938972774823
 34
0.0
100
AcDbRotatedDimension
1001
ACAD
1000
DSTYLE
1002
{
1070
    79
1070
     3
1002
}
  0
DIMENSION
  5
13486
330
1E
100
AcDbEntity
  8
30
  6
Continuous
100
AcDbDimension
280
     0
  2
*D26
 10
228.7839548768725
 20
809.8416481556764
 30
0.0
 11
202.5339548768725
 21
809.8416481556764
 31
0.0
 70
   160
  1
<>
 71
     2
 42
52.5
 73
     0
 74
     0
 75
     0
  3
STANDARD
100
AcDbAlignedDimension
 13
176.2839548768725
 23
790.1234997461956
 33
0.0
 14
228.7839548768725
 24
783.9938972774823
 34
0.0
100
AcDbRotatedDimension
1001
ACAD
1000
DSTYLE
1002
{
1070
    79
1070
     3
1002
}
  0
INSERT
  5
13487
330
1E
100
AcDbEntity
  8
17
  6
CONTINOUS
100
AcDbBlockReference
  2
SW_CENTERMARKSYMBOL_20
 10
108.7839548768725
 20
774.4938972774823
 30
0.0
 41
5.0
 42
5.0
 43
5.0
  0
INSERT
  5
13488
330
1E
100
AcDbEntity
  8
17
  6
CONTINOUS
100
AcDbBlockReference
  2
SW_CENTERMARKSYMBOL_21
 10
168.7839548768725
 20
774.4938972774823
 30
0.0
 41
5.0
 42
5.0
 43
5.0
  0
INSERT
  5
13489
330
1E
100
AcDbEntity
  8
17
  6
CONTINOUS
100
AcDbBlockReference
  2
SW_CENTERMARKSYMBOL_22
 10
228.7839548768725
 20
774.4938972774823
 30
0.0
 41
5.0
 42
5.0
 43
5.0
  0
INSERT
  5
1348A
330
1E
100
AcDbEntity
  8
17
  6
CONTINOUS
100
AcDbBlockReference
  2
SW_CENTERMARKSYMBOL_23
 10
288.7839548768725
 20
774.4938972774823
 30
0.0
 41
5.0
 42
5.0
 43
5.0
  0
CIRCLE
  5
1348B
330
1E
100
AcDbEntity
  8
24
  6
CONTINOUS
100
AcDbCircle
 10
288.7839548768725
 20
454.4938972774822
 30
0.0
 40
7.000000000000027
  0
LWPOLYLINE
  5
1348C
330
1E
100
AcDbEntity
  8
24
  6
CONTINOUS
100
AcDbPolyline
 90
        8
 70
     0
 43
0.0
 10
280.1839553298723
 20
484.4938972774831
 10
280.1839553298723
 20
481.4938959659822
 10
302.6839487733723
 20
458.4938940589821
 10
302.6839487733723
 20
439.9938938204821
 10
274.8839550198727
 20
439.9938938204821
 10
274.8839550198727
 20
458.4938940589821
 10
252.3839541258722
 20
481.4938959659822
 10
252.3839541258722
 20
484.4938972774833
  0
LWPOLYLINE
  5
1348D
330
1E
100
AcDbEntity
  8
24
  6
CONTINOUS
100
AcDbPolyline
 90
        8
 70
     0
 43
0.0
 10
190.1839545478724
 20
484.4938965977594
 10
190.1839545478724
 20
474.4938966814821
 10
182.6839547153722
 20
463.4939041914823
 10
182.6839547153722
 20
439.9938938204821
 10
154.8839539768723
 20
439.9938938204821
 10
154.8839539768723
 20
463.4939041914823
 10
162.3839552063728
 20
474.4938966814821
 10
162.3839552063728
 20
484.4938917998238
  0
CIRCLE
  5
1348E
330
1E
100
AcDbEntity
  8
24
  6
CONTINOUS
100
AcDbCircle
 10
168.7839548768725
 20
454.4938972774822
 30
0.0
 40
7.000000000000027
  0
CIRCLE
  5
1348F
330
1E
100
AcDbEntity
  8
24
  6
CONTINOUS
100
AcDbCircle
 10
108.7839548768725
 20
454.4938972774822
 30
0.0
 40
6.999999999999952
  0
LWPOLYLINE
  5
13490
330
1E
100
AcDbEntity
  8
24
  6
CONTINOUS
100
AcDbPolyline
 90
        8
 70
     0
 43
0.0
 10
145.1839555533724
 20
484.4938965968892
 10
145.1839555533724
 20
481.4938959659822
 10
122.6839565218724
 20
458.4938940589821
 10
122.6839565218724
 20
439.9938938204821
 10
94.88395531787228
 20
439.9938938204821
 10
94.88395531787228
 20
458.4938940589821
 10
117.3839562123726
 20
481.4938959659822
 10
117.3839562123726
 20
484.9826452319821
  0
LWPOLYLINE
  5
13491
330
1E
100
AcDbEntity
  8
24
  6
CONTINOUS
100
AcDbPolyline
 90
        8
 70
     0
 43
0.0
 10
235.1839535418721
 20
484.4938972774833
 10
235.1839535418721
 20
474.4938966814821
 10
242.6839538398726
 20
463.4939041914823
 10
242.6839538398726
 20
439.9938938204821
 10
214.8839563613724
 20
439.9938938204821
 10
214.8839563613724
 20
463.4939041914823
 10
207.3839542003725
 20
474.4938966814821
 10
207.3839542003725
 20
484.493891799929
  0
CIRCLE
  5
13492
330
1E
100
AcDbEntity
  8
24
  6
CONTINOUS
100
AcDbCircle
 10
228.7839548768725
 20
454.4938972774822
 30
0.0
 40
6.999999999999884
  0
INSERT
  5
13493
330
1E
100
AcDbEntity
  8
17
  6
CONTINOUS
100
AcDbBlockReference
  2
SW_CENTERMARKSYMBOL_20
 10
108.7839548768725
 20
454.4938972774822
 30
0.0
 41
-5.0
 42
5.0
 43
5.0
 50
180.0
  0
INSERT
  5
13494
330
1E
100
AcDbEntity
  8
17
  6
CONTINOUS
100
AcDbBlockReference
  2
SW_CENTERMARKSYMBOL_21
 10
168.7839548768725
 20
454.4938972774822
 30
0.0
 41
-5.0
 42
5.0
 43
5.0
 50
180.0
  0
INSERT
  5
13495
330
1E
100
AcDbEntity
  8
17
  6
CONTINOUS
100
AcDbBlockReference
  2
SW_CENTERMARKSYMBOL_22
 10
228.7839548768725
 20
454.4938972774822
 30
0.0
 41
-5.0
 42
5.0
 43
5.0
 50
180.0
  0
INSERT
  5
13496
330
1E
100
AcDbEntity
  8
17
  6
CONTINOUS
100
AcDbBlockReference
  2
SW_CENTERMARKSYMBOL_23
 10
288.7839548768725
 20
454.4938972774822
 30
0.0
 41
-5.0
 42
5.0
 43
5.0
 50
180.0
  0
LINE
  5
13497
330
1E
100
AcDbEntity
  8
17
 62
     2
100
AcDbLine
 10
549.8337788638348
 20
454.3700558562873
 30
0.0
 11
573.8337788638347
 21
454.3700558562873
 31
0.0
  0
LWPOLYLINE
  5
13498
330
1E
100
AcDbEntity
  8
24
  6
Continuous
100
AcDbPolyline
 90
        4
 70
     0
 43
0.0
 10
566.8337788638345
 20
484.3700558562873
 10
566.8337788638345
 20
439.8700558562874
 10
558.8337788638348
 20
439.8700558562874
 10
558.8337788638348
 20
484.3700558562873
  0
LINE
  5
13499
330
1E
100
AcDbEntity
  8
16
 48
2.0
100
AcDbLine
 10
680.1524161960323
 20
211.4531278759599
 30
0.0
 11
481.6300043027612
 21
211.4531278759602
 31
0.0
  0
LINE
  5
1349A
330
1E
100
AcDbEntity
  8
16
 48
2.0
100
AcDbLine
 10
554.1008571329675
 20
74.15175581298353
 30
0.0
 11
554.1008571329675
 21
347.8030552077525
 31
0.0
  0
LWPOLYLINE
  5
1349B
330
1E
100
AcDbEntity
  8
18
  6
DIVIDE
100
AcDbPolyline
 90
        4
 70
     1
 43
0.0
 10
669.1008571329676
 20
81.45312787595992
 10
669.1008571329676
 20
341.4531278759604
 10
484.1008571329675
 20
341.4531278759604
 10
484.1008571329675
 20
81.45312787595992
  0
LWPOLYLINE
  5
1349C
330
1E
100
AcDbEntity
  8
11
 48
2.0
100
AcDbPolyline
 90
        8
 70
     1
 43
0.0
 10
578.6008571329675
 20
165.4531278759599
 42
0.4142135623730951
 10
580.6008571329676
 20
167.4531278759599
 10
580.6008571329676
 20
255.4531278759601
 42
0.4142135623730951
 10
578.6008571329675
 20
257.4531278759601
 10
529.6008571329675
 20
257.4531278759601
 42
0.4142135623730951
 10
527.6008571329676
 20
255.4531278759601
 10
527.6008571329676
 20
167.4531278759599
 42
0.4142135623730951
 10
529.6008571329675
 20
165.4531278759599
  0
DIMENSION
  5
1349D
330
1E
100
AcDbEntity
  8
30
  6
Continuous
100
AcDbDimension
280
     0
  2
*D27
 10
580.6008571329676
 20
49.36550365985056
 30
0.0
 11
554.1008571329675
 21
49.36550365985056
 31
0.0
 70
   160
 71
     5
 42
53.0
 73
     0
 74
     0
 75
     0
  3
STANDARD
100
AcDbAlignedDimension
 13
527.6008571329676
 23
164.07232407759
 33
0.0
 14
580.6008571329676
 24
164.07232407759
 34
0.0
100
AcDbRotatedDimension
1001
ACAD
1000
DSTYLE
1002
{
1070
    79
1070
     3
1070
   140
1040
8.0
1002
}
  0
DIMENSION
  5
1349E
330
1E
100
AcDbEntity
  8
30
  6
Continuous
100
AcDbDimension
280
     0
  2
*D28
 10
684.2664856549817
 20
165.4531278759599
 30
0.0
 11
684.2664856549817
 21
211.45312787596
 31
0.0
 70
   160
 71
     5
 42
92.00000000000015
 73
     0
 74
     0
 75
     0
  3
STANDARD
100
AcDbAlignedDimension
 13
580.6428397460657
 23
257.4531278759601
 33
0.0
 14
580.6428397460657
 24
165.4531278759599
 34
0.0
 50
90.0
100
AcDbRotatedDimension
1001
ACAD
1000
DSTYLE
1002
{
1070
    79
1070
     3
1070
   140
1040
8.0
1002
}
  0
MTEXT
  5
134A0
330
1E
100
AcDbEntity
  8
19
100
AcDbMText
 10
327.1089660203979
 20
26.95654655366195
 30
0.0
 40
10.0
 41
0.0
 46
0.0
 71
     1
 72
     1
  1
[Cutout A]
  7
SLDTEXTSTYLE0
 73
     1
 44
1.0
  0
MTEXT
  5
134A1
330
1E
100
AcDbEntity
  8
19
100
AcDbMText
 10
526.0103327135675
 20
26.95654655366195
 30
0.0
 40
10.0
 41
0.0
 46
0.0
 71
     1
 72
     1
  1
[Cutout B]
  7
SLDTEXTSTYLE0
 73
     1
 44
1.0
  0
LINE
  5
134A2
330
1E
100
AcDbEntity
  8
16
 48
2.0
100
AcDbLine
 10
472.713064297578
 20
211.4531278759599
 30
0.0
 11
270.6115451867499
 21
211.4531278759599
 31
0.0
  0
LINE
  5
134A3
330
1E
100
AcDbEntity
  8
16
 48
2.0
100
AcDbLine
 10
346.6615052345133
 20
74.04488194903752
 30
0.0
 11
346.6615052345133
 21
347.8030552077525
 31
0.0
  0
LWPOLYLINE
  5
134A4
330
1E
100
AcDbEntity
  8
18
  6
DIVIDE
100
AcDbPolyline
 90
        4
 70
     1
 43
0.0
 10
461.6615052345132
 20
81.45312787595992
 10
461.6615052345132
 20
341.4531278759604
 10
276.6615052345132
 20
341.4531278759604
 10
276.6615052345132
 20
81.45312787595992
  0
LWPOLYLINE
  5
134A5
330
1E
100
AcDbEntity
  8
11
 48
2.0
100
AcDbPolyline
 90
        8
 70
     1
 43
0.0
 10
403.6615052345132
 20
165.4531278759599
 42
0.4142135623730951
 10
405.6615052345129
 20
167.4531278759599
 10
405.6615052345129
 20
255.4531278759601
 42
0.4142135623730951
 10
403.6615052345132
 20
257.4531278759601
 10
289.6615052345132
 20
257.4531278759601
 42
0.4142135623730951
 10
287.6615052345132
 20
255.4531278759601
 10
287.6615052345132
 20
167.4531278759599
 42
0.4142135623730951
 10
289.6615052345132
 20
165.4531278759599
  0
DIMENSION
  5
134A6
330
1E
100
AcDbEntity
  8
30
  6
Continuous
100
AcDbDimension
280
     0
  2
*D29
 10
405.6615052345129
 20
49.36550365985056
 30
0.0
 11
346.6615052345133
 21
49.36550365985056
 31
0.0
 70
   160
 71
     5
 42
118.0
 73
     0
 74
     0
 75
     0
  3
STANDARD
100
AcDbAlignedDimension
 13
287.6615052345132
 23
164.07232407759
 33
0.0
 14
405.6615052345129
 24
164.07232407759
 34
0.0
100
AcDbRotatedDimension
1001
ACAD
1000
DSTYLE
1002
{
1070
    79
1070
     3
1070
   140
1040
8.0
1002
}
  0
DIMENSION
  5
134A7
330
1E
100
AcDbEntity
  8
30
  6
Continuous
100
AcDbDimension
280
     0
  2
*D30
 10
476.8045443571709
 20
165.4531278759599
 30
0.0
 11
476.8045443571709
 21
211.45312787596
 31
0.0
 70
   160
 71
     5
 42
92.00000000000022
 73
     0
 74
     0
 75
     0
  3
STANDARD
100
AcDbAlignedDimension
 13
405.7034878476112
 23
257.4531278759601
 33
0.0
 14
405.7034878476112
 24
165.4531278759599
 34
0.0
 50
90.0
100
AcDbRotatedDimension
1001
ACAD
1000
DSTYLE
1002
{
1070
    79
1070
     3
1070
   140
1040
8.0
1002
}
  0
DIMENSION
  5
145FB
330
1E
100
AcDbEntity
  8
30
  6
Continuous
100
AcDbDimension
280
     0
  2
*D31
 10
405.4665831001933
 20
255.718958484907
 30
0.0
 11
438.0566204937803
 21
287.8580604952748
 31
0.0
 70
   164
 71
     5
 42
2.000000000179396
 73
     0
 74
     0
 75
     0
  3
STANDARD1
100
AcDbRadialDimension
 15
406.6279477786925
 25
257.3472189322103
 35
0.0
 40
0.0
  0
DIMENSION
  5
1461E
330
1E
100
AcDbEntity
  8
30
  6
Continuous
100
AcDbDimension
280
     0
  2
*D32
 10
578.7781659479223
 20
255.1331720472802
 30
0.0
 11
611.3682033415098
 21
287.2722740576477
 31
0.0
 70
   164
 71
     5
 42
2.000000000179511
 73
     0
 74
     0
 75
     0
  3
STANDARD1
100
AcDbRadialDimension
 15
579.9395306264214
 25
256.7614324945836
 35
0.0
 40
0.0
  0
DIMENSION
  5
15D95
330
1E
100
AcDbEntity
  8
30
  6
Continuous
100
AcDbDimension
280
     0
  2
*D33
 10
234.5265338653726
 20
546.5386797269083
 30
0.0
 11
158.3043271808891
 21
546.5386797269083
 31
0.0
 70
   160
 71
     5
 42
116.0
 73
     0
 74
     0
 75
     0
  3
STANDARD
100
AcDbAlignedDimension
 13
118.5265338653726
 23
570.4938972774822
 33
0.0
 14
234.5265338653726
 24
570.4938972774822
 34
0.0
100
AcDbRotatedDimension
  0
DIMENSION
  5
15D96
330
1E
100
AcDbEntity
  8
30
  6
Continuous
100
AcDbDimension
280
     0
  2
*D34
 10
151.0265338653726
 20
670.2548986300044
 30
0.0
 11
188.1015093957831
 21
670.2548986300044
 31
0.0
 70
   160
 71
     5
 42
50.97871050549976
 73
     0
 74
     0
 75
     0
  3
STANDARD
100
AcDbAlignedDimension
 13
202.0052443708723
 23
659.4938972774822
 33
0.0
 14
151.0265338653726
 24
659.4938972774822
 34
0.0
100
AcDbRotatedDimension
  0
LWPOLYLINE
  5
161FD
330
1E
100
AcDbEntity
  8
24
  6
Continuous
100
AcDbPolyline
 90
        4
 70
     0
 43
0.0
 10
569.1598456858654
 20
906.1463179553406
 10
569.1598456858654
 20
868.6412387693408
 10
537.1598456858658
 20
868.6412387693408
 10
537.1598456858658
 20
913.9502838508407
  0
DIMENSION
  5
1684C
330
1E
100
AcDbEntity
  8
30
  6
Continuous
100
AcDbDimension
280
     0
  2
*D35
 10
601.8414768420711
 20
371.8250925060379
 30
0.0
 11
536.8414768420712
 21
371.8250925060379
 31
0.0
 70
   160
  1
<>
 71
     2
 42
130.0
 73
     0
 74
     0
 75
     0
  3
STANDARD
100
AcDbAlignedDimension
 13
471.8414768420711
 23
620.7339736219884
 33
0.0
 14
601.8414768420711
 24
485.4938972774824
 34
0.0
100
AcDbRotatedDimension
1001
ACAD
1000
DSTYLE
1002
{
1070
    79
1070
     3
1002
}
  0
DIMENSION
  5
1684D
330
1E
100
AcDbEntity
  8
30
  6
Continuous
100
AcDbDimension
280
     0
  2
*D36
 10
616.541476842071
 20
421.0009318869055
 30
0.0
 11
644.0013633450712
 21
421.0009318869055
 31
0.0
 70
   160
  1
<>
 71
     2
 42
14.69999999999982
 73
     0
 74
     0
 75
     0
  3
STANDARD
100
AcDbAlignedDimension
 13
601.8414768420711
 23
485.4938972774824
 33
0.0
 14
616.541476842071
 24
507.792909961811
 34
0.0
100
AcDbRotatedDimension
1001
ACAD
1000
DSTYLE
1002
{
1070
    79
1070
     3
1002
}
  0
DIMENSION
  5
1684E
330
1E
100
AcDbEntity
  8
30
  6
Continuous
100
AcDbDimension
280
     0
  2
*D37
 10
601.8414768420711
 20
403.8651661313552
 30
0.0
 11
550.3414768420707
 21
403.8651661313552
 31
0.0
 70
   160
  1
<>
 71
     2
 42
103.0
 73
     0
 74
     0
 75
     0
  3
STANDARD
100
AcDbAlignedDimension
 13
498.8414768420711
 23
520.8194475888863
 33
0.0
 14
601.8414768420711
 24
485.4938972774824
 34
0.0
100
AcDbRotatedDimension
1001
ACAD
1000
DSTYLE
1002
{
1070
    79
1070
     3
1002
}
  0
DIMENSION
  5
1684F
330
1E
100
AcDbEntity
  8
30
  6
Continuous
100
AcDbDimension
280
     0
  2
*D38
 10
601.8414768420711
 20
420.5324407635897
 30
0.0
 11
525.7376969588131
 21
420.5324407635897
 31
0.0
 70
   160
  1
<>
 71
     2
 42
97.0
 73
     0
 74
     0
 75
     0
  3
STANDARD
100
AcDbAlignedDimension
 13
504.8414768420711
 23
485.4938972774824
 33
0.0
 14
601.8414768420711
 24
485.4938972774824
 34
0.0
100
AcDbRotatedDimension
1001
ACAD
1000
DSTYLE
1002
{
1070
    79
1070
     3
1002
}
  0
DIMENSION
  5
16850
330
1E
100
AcDbEntity
  8
30
  6
Continuous
100
AcDbDimension
280
     0
  2
*D39
 10
601.8414768420711
 20
354.5010211802655
 30
0.0
 11
526.3447289573137
 21
361.5010211802655
 31
0.0
 70
    32
 71
     5
 42
150.993495769515
 73
     0
 74
     0
 75
     0
  3
STANDARD
100
AcDbAlignedDimension
 13
450.8479810725561
 23
629.3025728199486
 33
0.0
 14
601.8414768420711
 24
371.3250925060379
 34
0.0
100
AcDbRotatedDimension
1001
ACAD
1000
DSTYLE
1002
{
1070
    79
1070
     3
1002
}
  0
DIMENSION
  5
16851
330
1E
100
AcDbEntity
  8
30
  6
Continuous
100
AcDbDimension
280
     0
  2
*D40
 10
486.8414767230709
 20
387.6256852430802
 30
0.0
 11
477.1748100564043
 21
394.6256852430802
 31
0.0
 70
    32
 71
     5
 42
8.0
 73
     0
 74
     0
 75
     0
  3
STANDARD1
100
AcDbAlignedDimension
 13
494.8414767230708
 23
569.9915552563112
 33
0.0
 14
486.8414767230709
 24
572.9915552563112
 34
0.0
100
AcDbRotatedDimension
  0
DIMENSION
  5
16852
330
1E
100
AcDbEntity
  8
30
  6
Continuous
100
AcDbDimension
280
     0
  2
*D41
 10
601.8414768420711
 20
387.6256852430802
 30
0.0
 11
548.3414767825711
 21
394.6256852430802
 31
0.0
 70
    32
 71
     5
 42
107.0000001190001
 73
     0
 74
     0
 75
     0
  3
STANDARD
100
AcDbAlignedDimension
 13
494.8414767230708
 23
387.6256852430802
 33
0.0
 14
601.8414768420711
 24
403.8651661313552
 34
0.0
100
AcDbRotatedDimension
1001
ACAD
1000
DSTYLE
1002
{
1070
    79
1070
     3
1002
}
  0
DIMENSION
  5
19A04
330
1E
100
AcDbEntity
  8
30
100
AcDbDimension
280
     0
  2
*D42
 10
94.78395531787235
 20
847.3033542543664
 30
0.0
 11
135.5339550973724
 21
854.3033542543664
 31
0.0
 70
    32
 71
     5
 42
81.49999955900012
 73
     0
 74
     0
 75
     0
  3
STANDARD
100
AcDbAlignedDimension
 13
176.2839548768725
 23
788.9939007344822
 33
0.0
 14
94.78395531787235
 24
788.9939007344822
 34
0.0
100
AcDbRotatedDimension
  0
DIMENSION
  5
19A46
330
1E
100
AcDbEntity
  8
30
100
AcDbDimension
280
     0
  2
*D43
 10
302.7839487733722
 20
847.2042992218566
 30
0.0
 11
239.5339518251224
 21
854.2042992218567
 31
0.0
 70
    32
 71
     5
 42
126.4999938964997
 73
     0
 74
     0
 75
     0
  3
STANDARD
100
AcDbAlignedDimension
 13
176.2839548768725
 23
816.5354919076959
 33
0.0
 14
302.7839487733722
 24
788.9939007344822
 34
0.0
100
AcDbRotatedDimension
  0
LWPOLYLINE
  5
19EFA
330
1E
100
AcDbEntity
  8
10
  6
CONTINOUS
100
AcDbPolyline
 90
       11
 70
     1
 43
0.0
 10
501.8277680838481
 20
522.5254577690903
 10
504.8414768420711
 20
522.4938970984821
 10
504.8414768420711
 20
484.4938972774825
 10
601.8414768420711
 20
484.4938972774825
 10
601.8414768420711
 20
744.4938972774823
 10
504.8414768420711
 20
744.4938972774823
 10
504.8414768420711
 20
706.4520089296571
 10
501.762378132686
 20
706.4197642081088
 42
0.2520626822056452
 10
498.8414797030708
 20
700.9938978013272
 10
498.8414768420711
 20
665.4938972774822
 10
498.8414797030708
 20
527.993897142235
 42
0.2552568693989432
  0
LWPOLYLINE
  5
1A715
330
1E
100
AcDbEntity
  8
10
  6
CONTINOUS
100
AcDbPolyline
 90
        8
 70
     1
 43
0.0
 10
478.0269115476335
 20
642.4803790693587
 10
468.6531079650522
 20
642.7380991108501
 10
454.4959801685518
 20
646.3551113353502
 10
451.390146042052
 20
634.7640009568502
 10
465.5014115820521
 20
630.7931506978502
 10
473.9393176670104
 20
627.2252590664511
 10
478.9579214300713
 20
626.2911503199817
 10
482.8402103625712
 20
640.7800373614819
  0
ARC
  5
1A716
330
1E
100
AcDbEntity
  8
10
  6
CONTINOUS
100
AcDbCircle
 10
531.9395891927483
 20
814.5230301598489
 30
0.0
 40
181.6640122735105
100
AcDbArc
 50
252.8048349791452
 51
255.7887474977204
  0
ARC
  5
1A717
330
1E
100
AcDbEntity
  8
10
  6
CONTINOUS
100
AcDbCircle
 10
473.6978106053202
 20
580.6816144570462
 30
0.0
 40
46.90130289725614
100
AcDbArc
 50
73.08805372621606
 51
83.24228441301258
  0
LWPOLYLINE
  5
1A718
330
1E
100
AcDbEntity
  8
10
  6
CONTINOUS
100
AcDbPolyline
 90
        3
 70
     0
 43
0.0
 10
478.2347229255715
 20
640.978797485482
 10
474.8700753390716
 20
628.4217617434817
 10
479.2167415570715
 20
627.257076040482
  0
ARC
  5
1A764
330
1E
100
AcDbEntity
  8
30
  6
Continuous
100
AcDbCircle
 10
481.2859096794781
 20
629.4073754285554
 30
0.0
 40
30.45797246508825
100
AcDbArc
 50
158.5216391137396
 51
182.0787469045397
  0
ARC
  5
1A765
330
1E
100
AcDbEntity
  8
30
  6
Continuous
100
AcDbCircle
 10
501.92164589454
 20
617.2897588535297
 30
0.0
 40
30.29117494757552
100
AcDbArc
 50
153.2592132366157
 51
173.2332630719459
  0
DIMENSION
  5
1C0DC
330
1E
100
AcDbEntity
  8
30
100
AcDbDimension
280
     0
  2
*D45
 10
122.7839565218724
 20
809.8416481556764
 30
0.0
 11
121.7474452093261
 21
809.8416481556764
 31
0.0
 70
   160
 71
     5
 42
28.00000120400006
 73
     0
 74
     0
 75
     0
  3
STANDARD
100
AcDbAlignedDimension
 13
94.78395531787235
 23
788.9939007344822
 33
0.0
 14
122.7839565218724
 24
788.9939007344822
 34
0.0
100
AcDbRotatedDimension
  0
DIMENSION
  5
1C0FB
330
1E
100
AcDbEntity
  8
30
  6
Continuous
100
AcDbDimension
280
     0
  2
*D46
 10
566.8337788638345
 20
431.7848366307862
 30
0.0
 11
584.3376278529531
 21
438.7848366307862
 31
0.0
 70
    32
 71
     5
 42
35.00769797823625
 73
     0
 74
     0
 75
     0
  3
STANDARD
100
AcDbAlignedDimension
 13
601.8414768420711
 23
399.3596769287236
 33
0.0
 14
566.8337788638345
 24
439.8700558562874
 34
0.0
100
AcDbRotatedDimension
  0
DIMENSION
  5
1C0FC
330
1E
100
AcDbEntity
  8
30
  6
Continuous
100
AcDbDimension
280
     0
  2
*D47
 10
558.8337788638348
 20
431.7848366307862
 30
0.0
 11
549.1671121971683
 21
438.7848366307862
 31
0.0
 70
    32
 71
     5
 42
8.0
 73
     0
 74
     0
 75
     0
  3
STANDARD1
100
AcDbAlignedDimension
 13
566.8337788638345
 23
439.8700558562874
 33
0.0
 14
558.8337788638348
 24
439.8700558562874
 34
0.0
100
AcDbRotatedDimension
  0
ELLIPSE
  5
1C28A
330
1E
100
AcDbEntity
  8
10
  6
Continuous
100
AcDbEllipse
 10
142.4640377283721
 20
743.4937449494768
 30
0.0
 11
0.9502067146544844
 21
-0.3164782046945192
 31
0.0
210
0.0
220
0.0
230
1.0
 40
0.9984778550999999
 41
1.892760065825351
 42
3.462643004113758
  0
ELLIPSE
  5
1C28B
330
1E
100
AcDbEntity
  8
10
  6
Continuous
100
AcDbEllipse
 10
187.4640377283721
 20
743.4937449494768
 30
0.0
 11
0.9502067146544844
 21
-0.3164782046945192
 31
0.0
210
0.0
220
0.0
230
1.0
 40
0.9984778550999999
 41
1.892760065825479
 42
3.462643004113771
  0
ELLIPSE
  5
1C28C
330
1E
100
AcDbEntity
  8
10
  6
Continuous
100
AcDbEllipse
 10
164.4612930363723
 20
743.4937449494768
 30
0.0
 11
-0.9502067146544844
 21
-0.316478204694448
 31
0.0
210
0.0
220
0.0
230
1.0
 40
0.9984778551000005
 41
2.820542303065916
 42
4.39042524135431
  0
ELLIPSE
  5
1C28D
330
1E
100
AcDbEntity
  8
10
  6
Continuous
100
AcDbEllipse
 10
119.4612930363723
 20
743.4937449494768
 30
0.0
 11
-0.9502067146544844
 21
-0.316478204694448
 31
0.0
210
0.0
220
0.0
230
1.0
 40
0.9984778551000005
 41
2.820542303065916
 42
4.39042524135431
  0
LINE
  5
1C28E
330
1E
100
AcDbEntity
  8
10
  6
Continuous
100
AcDbLine
 10
165.4626655238723
 20
718.9826402279767
 30
0.0
 11
165.4626653823659
 21
743.4946584770041
 31
0.0
  0
LINE
  5
1C28F
330
1E
100
AcDbEntity
  8
10
  6
Continuous
100
AcDbLine
 10
186.4626653823785
 20
743.4946584770041
 30
0.0
 11
186.4626652408723
 21
718.9826402279767
 31
0.0
  0
ARC
  5
1C290
330
1E
100
AcDbEntity
  8
10
  6
Continuous
100
AcDbCircle
 10
185.4626652408723
 20
718.9826402279767
 30
0.0
 40
1.0
100
AcDbArc
 50
270.0
 51
0.0
  0
LINE
  5
1C291
330
1E
100
AcDbEntity
  8
10
  6
Continuous
100
AcDbLine
 10
141.4626653823785
 20
743.4946584770042
 30
0.0
 11
141.4626662468721
 21
718.9826402279767
 31
0.0
  0
ARC
  5
1C292
330
1E
100
AcDbEntity
  8
0
  6
SLD-実線
 62
     7
370
    30
100
AcDbCircle
 10
140.4626653823722
 20
718.9826390954769
 30
0.0
 40
1.000000000000011
100
AcDbArc
 50
270.0
 51
0.0
  0
LINE
  5
1C293
330
1E
100
AcDbEntity
  8
10
  6
Continuous
100
AcDbLine
 10
185.4626652408723
 20
717.9826402279768
 30
0.0
 11
166.4626655238723
 21
717.9826402279768
 31
0.0
  0
ARC
  5
1C294
330
1E
100
AcDbEntity
  8
10
  6
Continuous
100
AcDbCircle
 10
166.4626655238723
 20
718.9826402279767
 30
0.0
 40
1.0
100
AcDbArc
 50
180.0
 51
270.0
  0
LINE
  5
1C295
330
1E
100
AcDbEntity
  8
10
  6
Continuous
100
AcDbLine
 10
140.4626662468722
 20
717.9826402279768
 30
0.0
 11
121.4626646673722
 21
717.9826402279768
 31
0.0
  0
ARC
  5
1C296
330
1E
100
AcDbEntity
  8
10
  6
Continuous
100
AcDbCircle
 10
121.4626646673722
 20
718.9826402279767
 30
0.0
 40
1.0
100
AcDbArc
 50
180.0
 51
270.0
  0
ARC
  5
1C297
330
1E
100
AcDbEntity
  8
10
  6
Continuous
100
AcDbCircle
 10
140.4626662468722
 20
718.9826402279767
 30
0.0
 40
1.0
100
AcDbArc
 50
270.0
 51
0.0
  0
LINE
  5
1C298
330
1E
100
AcDbEntity
  8
10
  6
Continuous
100
AcDbLine
 10
120.4626646673722
 20
718.9826402279767
 30
0.0
 11
120.4626653823659
 21
743.4946584770041
 31
0.0
  0
LINE
  5
1C29D
330
1E
100
AcDbEntity
  8
16
 48
2.0
100
AcDbLine
 10
248.0586105189352
 20
614.4938972774822
 30
0.0
 11
92.37807309571497
 21
614.4938972774822
 31
0.0
  0
LINE
  5
1C29E
330
1E
100
AcDbEntity
  8
24
  6
CONTINOUS
100
AcDbLine
 10
122.0839548768724
 20
728.4938972774823
 30
0.0
 11
140.0839548768724
 21
728.4938972774823
 31
0.0
  0
LINE
  5
1C2A0
330
1E
100
AcDbEntity
  8
24
  6
CONTINOUS
100
AcDbLine
 10
131.0839548768724
 20
737.4938972774823
 30
0.0
 11
131.0839548768724
 21
719.4938972774823
 31
0.0
  0
LINE
  5
1C2A1
330
1E
100
AcDbEntity
  8
12
  6
DASHDOT
100
AcDbLine
 10
161.5839548768724
 20
721.4938972774823
 30
0.0
 11
145.5839548768724
 21
721.4938972774823
 31
0.0
  0
LINE
  5
1C2A2
330
1E
100
AcDbEntity
  8
12
  6
DASHDOT
100
AcDbLine
 10
153.5839548768724
 20
713.4938972774823
 30
0.0
 11
153.5839548768724
 21
729.4938972774823
 31
0.0
  0
CIRCLE
  5
1C2A3
330
1E
100
AcDbEntity
  8
12
100
AcDbCircle
 10
153.5839548768724
 20
721.4938972774823
 30
0.0
 40
4.0
  0
LINE
  5
1C2A4
330
1E
100
AcDbEntity
  8
24
  6
CONTINOUS
100
AcDbLine
 10
176.0839548768723
 20
737.4938972774823
 30
0.0
 11
176.0839548768723
 21
719.4938972774823
 31
0.0
  0
LINE
  5
1C2A5
330
1E
100
AcDbEntity
  8
24
  6
CONTINOUS
100
AcDbLine
 10
167.0839548768724
 20
728.4938972774823
 30
0.0
 11
185.0839548768724
 21
728.4938972774823
 31
0.0
  0
LINE
  5
1C2A6
330
1E
100
AcDbEntity
  8
12
  6
DASHED
100
AcDbLine
 10
206.7839548768724
 20
721.4938972774823
 30
0.0
 11
190.7839548768724
 21
721.4938972774823
 31
0.0
  0
CIRCLE
  5
1C2A7
330
1E
100
AcDbEntity
  8
24
  6
CONTINOUS
100
AcDbCircle
 10
131.0839548768724
 20
728.4938972774823
 30
0.0
 40
4.618802153517049
  0
CIRCLE
  5
1C2A8
330
1E
100
AcDbEntity
  8
24
  6
CONTINOUS
100
AcDbCircle
 10
176.0839548768723
 20
728.4938972774823
 30
0.0
 40
4.618802153517049
  0
ELLIPSE
  5
1C2A9
330
1E
100
AcDbEntity
  8
10
  6
Continuous
100
AcDbEllipse
 10
209.56129263425
 20
743.4937449494766
 30
0.0
 11
-0.9502067146544844
 21
-0.3164782046945192
 31
0.0
210
0.0
220
0.0
230
-1.0
 40
0.9984778550999999
 41
1.892760065825479
 42
3.462643004113771
  0
ELLIPSE
  5
1C2AA
330
1E
100
AcDbEntity
  8
10
  6
Continuous
100
AcDbEllipse
 10
232.56403732625
 20
743.4937449494766
 30
0.0
 11
0.9502067146544844
 21
-0.316478204694448
 31
0.0
210
0.0
220
0.0
230
-1.0
 40
0.9984778551000005
 41
2.820542303065916
 42
4.39042524135431
  0
LINE
  5
1C2AB
330
1E
100
AcDbEntity
  8
10
  6
Continuous
100
AcDbLine
 10
231.5626648387499
 20
718.9826402279765
 30
0.0
 11
231.5626649802564
 21
743.494658477004
 31
0.0
  0
LINE
  5
1C2AC
330
1E
100
AcDbEntity
  8
10
  6
Continuous
100
AcDbLine
 10
210.5626649802436
 20
743.494658477004
 30
0.0
 11
210.5626651217499
 21
718.9826402279765
 31
0.0
  0
ARC
  5
1C2AD
330
1E
100
AcDbEntity
  8
10
  6
Continuous
100
AcDbCircle
 10
211.5626651217499
 20
718.9826402279765
 30
0.0
 40
1.0
100
AcDbArc
 50
180.0
 51
270.0
  0
LINE
  5
1C2AE
330
1E
100
AcDbEntity
  8
10
  6
Continuous
100
AcDbLine
 10
211.5626651217499
 20
717.9826402279767
 30
0.0
 11
230.56266483875
 21
717.9826402279767
 31
0.0
  0
ARC
  5
1C2AF
330
1E
100
AcDbEntity
  8
10
  6
Continuous
100
AcDbCircle
 10
230.56266483875
 20
718.9826402279765
 30
0.0
 40
1.0
100
AcDbArc
 50
270.0
 51
0.0
  0
LINE
  5
1C2B2
330
1E
100
AcDbEntity
  8
24
  6
CONTINOUS
100
AcDbLine
 10
221.1006926589119
 20
737.4938972774823
 30
0.0
 11
221.1006926589119
 21
719.4938972774823
 31
0.0
  0
LINE
  5
1C2B3
330
1E
100
AcDbEntity
  8
24
  6
CONTINOUS
100
AcDbLine
 10
230.1006926589119
 20
728.4938972774823
 30
0.0
 11
212.1006926589119
 21
728.4938972774823
 31
0.0
  0
LINE
  5
1C2B4
330
1E
100
AcDbEntity
  8
12
  6
DASHDOT
100
AcDbLine
 10
198.5413754857498
 20
713.4938972774823
 30
0.0
 11
198.5413754857498
 21
729.4938972774823
 31
0.0
  0
LINE
  5
1C2B5
330
1E
100
AcDbEntity
  8
12
  6
DASHDOT
100
AcDbLine
 10
190.5413754857499
 20
721.4938972774823
 30
0.0
 11
206.5413754857499
 21
721.4938972774823
 31
0.0
  0
CIRCLE
  5
1C2B6
330
1E
100
AcDbEntity
  8
12
100
AcDbCircle
 10
198.5413754857498
 20
721.4938972774823
 30
0.0
 40
4.0
  0
CIRCLE
  5
1C2B7
330
1E
100
AcDbEntity
  8
24
  6
CONTINOUS
100
AcDbCircle
 10
221.1006926589119
 20
728.4938972774823
 30
0.0
 40
4.618802153517049
  0
LINE
  5
1C2C9
330
1E
100
AcDbEntity
  8
16
 48
2.0
100
AcDbLine
 10
198.7993083498884
 20
431.6198848996763
 30
0.0
 11
198.5567293613883
 21
791.6852749359663
 31
0.0
  0
ELLIPSE
  5
1C2CD
330
1E
100
AcDbEntity
  8
10
  6
Continuous
100
AcDbEllipse
 10
254.56129263425
 20
743.4937449494766
 30
0.0
 11
-0.9502067146544844
 21
-0.3164782046945192
 31
0.0
210
0.0
220
0.0
230
-1.0
 40
0.9984778550999999
 41
1.892760065825479
 42
3.462643004113771
  0
ELLIPSE
  5
1C2CE
330
1E
100
AcDbEntity
  8
10
  6
Continuous
100
AcDbEllipse
 10
277.56403732625
 20
743.4937449494766
 30
0.0
 11
0.9502067146544844
 21
-0.316478204694448
 31
0.0
210
0.0
220
0.0
230
-1.0
 40
0.9984778551000005
 41
2.820542303065916
 42
4.39042524135431
  0
LINE
  5
1C2CF
330
1E
100
AcDbEntity
  8
10
  6
Continuous
100
AcDbLine
 10
276.5626648387499
 20
718.9826402279765
 30
0.0
 11
276.5626649802564
 21
743.494658477004
 31
0.0
  0
LINE
  5
1C2D0
330
1E
100
AcDbEntity
  8
10
  6
Continuous
100
AcDbLine
 10
255.5626649802436
 20
743.494658477004
 30
0.0
 11
255.5626651217499
 21
718.9826402279765
 31
0.0
  0
ARC
  5
1C2D1
330
1E
100
AcDbEntity
  8
10
  6
Continuous
100
AcDbCircle
 10
256.5626651217499
 20
718.9826402279765
 30
0.0
 40
1.0
100
AcDbArc
 50
180.0
 51
270.0
  0
LINE
  5
1C2D2
330
1E
100
AcDbEntity
  8
10
  6
Continuous
100
AcDbLine
 10
256.5626651217499
 20
717.9826402279767
 30
0.0
 11
275.56266483875
 21
717.9826402279767
 31
0.0
  0
ARC
  5
1C2D3
330
1E
100
AcDbEntity
  8
10
  6
Continuous
100
AcDbCircle
 10
275.56266483875
 20
718.9826402279765
 30
0.0
 40
1.0
100
AcDbArc
 50
270.0
 51
0.0
  0
LINE
  5
1C2D4
330
1E
100
AcDbEntity
  8
24
  6
CONTINOUS
100
AcDbLine
 10
266.1006926589119
 20
737.4938972774823
 30
0.0
 11
266.1006926589119
 21
719.4938972774823
 31
0.0
  0
LINE
  5
1C2D5
330
1E
100
AcDbEntity
  8
24
  6
CONTINOUS
100
AcDbLine
 10
275.1006926589119
 20
728.4938972774823
 30
0.0
 11
257.1006926589119
 21
728.4938972774823
 31
0.0
  0
CIRCLE
  5
1C2D6
330
1E
100
AcDbEntity
  8
24
  6
CONTINOUS
100
AcDbCircle
 10
266.1006926589119
 20
728.4938972774823
 30
0.0
 40
4.618802153517049
  0
ELLIPSE
  5
1C319
330
1E
100
AcDbEntity
  8
10
  6
Continuous
100
AcDbEllipse
 10
142.7480910268273
 20
485.4940434689832
 30
0.0
 11
0.9502067146544844
 21
0.3164782046945192
 31
0.0
210
0.0
220
0.0
230
-1.0
 40
0.9984778550999999
 41
1.892760065825351
 42
3.462643004113758
  0
ELLIPSE
  5
1C31A
330
1E
100
AcDbEntity
  8
10
  6
Continuous
100
AcDbEllipse
 10
187.7480910268273
 20
485.4940434689832
 30
0.0
 11
0.9502067146544844
 21
0.3164782046945192
 31
0.0
210
0.0
220
0.0
230
-1.0
 40
0.9984778550999999
 41
1.892760065825479
 42
3.462643004113771
  0
ELLIPSE
  5
1C31B
330
1E
100
AcDbEntity
  8
10
  6
Continuous
100
AcDbEllipse
 10
164.7453463348274
 20
485.4940434689832
 30
0.0
 11
-0.9502067146544844
 21
0.316478204694448
 31
0.0
210
0.0
220
0.0
230
-1.0
 40
0.9984778551000005
 41
2.820542303065916
 42
4.39042524135431
  0
ELLIPSE
  5
1C31C
330
1E
100
AcDbEntity
  8
10
  6
Continuous
100
AcDbEllipse
 10
119.7453463348275
 20
485.4940434689832
 30
0.0
 11
-0.9502067146544844
 21
0.316478204694448
 31
0.0
210
0.0
220
0.0
230
-1.0
 40
0.9984778551000005
 41
2.820542303065916
 42
4.39042524135431
  0
LINE
  5
1C31D
330
1E
100
AcDbEntity
  8
10
  6
Continuous
100
AcDbLine
 10
165.7467188223275
 20
509.9051481904832
 30
0.0
 11
165.7467188223275
 21
485.4931299414558
 31
0.0
  0
LINE
  5
1C31E
330
1E
100
AcDbEntity
  8
10
  6
Continuous
100
AcDbLine
 10
186.7467186808337
 20
485.4931299414558
 30
0.0
 11
186.7467185393275
 21
509.9051481904832
 31
0.0
  0
ARC
  5
1C31F
330
1E
100
AcDbEntity
  8
10
  6
Continuous
100
AcDbCircle
 10
185.7467185393274
 20
509.9051481904832
 30
0.0
 40
1.0
100
AcDbArc
 50
0.0
 51
90.0
  0
LINE
  5
1C320
330
1E
100
AcDbEntity
  8
10
  6
Continuous
100
AcDbLine
 10
141.7467186808337
 20
485.4931299414558
 30
0.0
 11
141.7467195453274
 21
509.9051481904832
 31
0.0
  0
ARC
  5
1C321
330
1E
100
AcDbEntity
  8
0
  6
SLD-実線
 62
     7
370
    30
100
AcDbCircle
 10
140.7467186808274
 20
509.9051493229831
 30
0.0
 40
1.000000000000011
100
AcDbArc
 50
0.0
 51
90.0
  0
LINE
  5
1C322
330
1E
100
AcDbEntity
  8
10
  6
Continuous
100
AcDbLine
 10
185.7467185393274
 20
510.9051481904832
 30
0.0
 11
166.7467188223275
 21
510.9051481904832
 31
0.0
  0
ARC
  5
1C323
330
1E
100
AcDbEntity
  8
10
  6
Continuous
100
AcDbCircle
 10
166.7467188223275
 20
509.9051481904832
 30
0.0
 40
1.0
100
AcDbArc
 50
90.0
 51
180.0
  0
LINE
  5
1C324
330
1E
100
AcDbEntity
  8
10
  6
Continuous
100
AcDbLine
 10
140.7467195453274
 20
510.9051481904832
 30
0.0
 11
121.7467179658273
 21
510.9051481904832
 31
0.0
  0
ARC
  5
1C325
330
1E
100
AcDbEntity
  8
10
  6
Continuous
100
AcDbCircle
 10
121.7467179658273
 20
509.9051481904832
 30
0.0
 40
1.0
100
AcDbArc
 50
90.0
 51
180.0
  0
ARC
  5
1C326
330
1E
100
AcDbEntity
  8
10
  6
Continuous
100
AcDbCircle
 10
140.7467195453274
 20
509.9051481904832
 30
0.0
 40
1.0
100
AcDbArc
 50
0.0
 51
90.0
  0
LINE
  5
1C327
330
1E
100
AcDbEntity
  8
10
  6
Continuous
100
AcDbLine
 10
120.7467179658273
 20
509.9051481904832
 30
0.0
 11
120.7467179658273
 21
485.4919347596679
 31
0.0
  0
LINE
  5
1C328
330
1E
100
AcDbEntity
  8
10
  6
Continuous
100
AcDbLine
 10
209.746260574583
 20
484.4938911409786
 30
0.0
 11
187.7471763849496
 21
484.4938972774833
 31
0.0
  0
LINE
  5
1C32C
330
1E
100
AcDbEntity
  8
24
  6
CONTINOUS
100
AcDbLine
 10
122.2626653823722
 20
500.4609181627149
 30
0.0
 11
140.2626653823721
 21
500.4609181627149
 31
0.0
  0
LINE
  5
1C32D
330
1E
100
AcDbEntity
  8
24
  6
CONTINOUS
100
AcDbLine
 10
131.2626653823722
 20
491.4609181627149
 30
0.0
 11
131.2626653823722
 21
509.4609181627149
 31
0.0
  0
LINE
  5
1C32E
330
1E
100
AcDbEntity
  8
12
  6
DASHDOT
100
AcDbLine
 10
161.7839548768724
 20
507.4593253602948
 30
0.0
 11
145.7839548768724
 21
507.4593253602948
 31
0.0
  0
CIRCLE
  5
1C32F
330
1E
100
AcDbEntity
  8
12
100
AcDbCircle
 10
153.7839548768724
 20
507.4593253602948
 30
0.0
 40
4.0
  0
LINE
  5
1C330
330
1E
100
AcDbEntity
  8
24
  6
CONTINOUS
100
AcDbLine
 10
176.2626653823722
 20
491.4593253602947
 30
0.0
 11
176.2626653823722
 21
509.4593253602949
 31
0.0
  0
LINE
  5
1C331
330
1E
100
AcDbEntity
  8
24
  6
CONTINOUS
100
AcDbLine
 10
167.2626653823721
 20
500.4593253602949
 30
0.0
 11
185.2626653823721
 21
500.4593253602949
 31
0.0
  0
LINE
  5
1C332
330
1E
100
AcDbEntity
  8
12
  6
DASHED
100
AcDbLine
 10
206.7839548768724
 20
507.4593253602948
 30
0.0
 11
190.7839548768724
 21
507.4593253602948
 31
0.0
  0
CIRCLE
  5
1C333
330
1E
100
AcDbEntity
  8
12
100
AcDbCircle
 10
198.7839548768723
 20
507.4593253602948
 30
0.0
 40
4.0
  0
CIRCLE
  5
1C334
330
1E
100
AcDbEntity
  8
24
  6
CONTINOUS
100
AcDbCircle
 10
131.2626653823722
 20
500.4609181627149
 30
0.0
 40
4.618802153517049
  0
CIRCLE
  5
1C335
330
1E
100
AcDbEntity
  8
24
  6
CONTINOUS
100
AcDbCircle
 10
176.2626653823722
 20
500.4593253602949
 30
0.0
 40
4.618802153517049
  0
ELLIPSE
  5
1C336
330
1E
100
AcDbEntity
  8
10
  6
Continuous
100
AcDbEllipse
 10
254.7453459327053
 20
485.4940434689832
 30
0.0
 11
-0.9502067146544844
 21
0.3164782046945192
 31
0.0
210
0.0
220
0.0
230
1.0
 40
0.9984778550999999
 41
1.892760065825479
 42
3.462643004113771
  0
ELLIPSE
  5
1C337
330
1E
100
AcDbEntity
  8
10
  6
Continuous
100
AcDbEllipse
 10
277.7480906247053
 20
485.4940434689832
 30
0.0
 11
0.9502067146544844
 21
0.316478204694448
 31
0.0
210
0.0
220
0.0
230
1.0
 40
0.9984778551000005
 41
2.820542303065916
 42
4.39042524135431
  0
LINE
  5
1C338
330
1E
100
AcDbEntity
  8
10
  6
Continuous
100
AcDbLine
 10
276.7467181372051
 20
509.9051481904832
 30
0.0
 11
276.7467182787116
 21
485.4931299414557
 31
0.0
  0
LINE
  5
1C339
330
1E
100
AcDbEntity
  8
10
  6
Continuous
100
AcDbLine
 10
255.7467182786989
 20
485.4931299414558
 30
0.0
 11
255.7467184202051
 21
509.9051481904832
 31
0.0
  0
ARC
  5
1C33A
330
1E
100
AcDbEntity
  8
10
  6
Continuous
100
AcDbCircle
 10
256.7467184202051
 20
509.9051481904832
 30
0.0
 40
1.0
100
AcDbArc
 50
90.0
 51
180.0
  0
LINE
  5
1C33B
330
1E
100
AcDbEntity
  8
10
  6
Continuous
100
AcDbLine
 10
256.7467184202051
 20
510.9051481904832
 30
0.0
 11
275.7467181372052
 21
510.9051481904832
 31
0.0
  0
ARC
  5
1C33C
330
1E
100
AcDbEntity
  8
10
  6
Continuous
100
AcDbCircle
 10
275.7467181372052
 20
509.9051481904832
 30
0.0
 40
1.0
100
AcDbArc
 50
0.0
 51
90.0
  0
LINE
  5
1C33E
330
1E
100
AcDbEntity
  8
24
  6
CONTINOUS
100
AcDbLine
 10
266.3006926589119
 20
491.4593253602947
 30
0.0
 11
266.3006926589119
 21
509.4593253602949
 31
0.0
  0
LINE
  5
1C33F
330
1E
100
AcDbEntity
  8
24
  6
CONTINOUS
100
AcDbLine
 10
275.1413754857499
 20
500.4593253602949
 30
0.0
 11
257.1413754857499
 21
500.4593253602949
 31
0.0
  0
LINE
  5
1C340
330
1E
100
AcDbEntity
  8
12
  6
DASHDOT
100
AcDbLine
 10
190.5413754857498
 20
507.4593253602948
 30
0.0
 11
206.5413754857499
 21
507.4593253602948
 31
0.0
  0
CIRCLE
  5
1C341
330
1E
100
AcDbEntity
  8
24
  6
CONTINOUS
100
AcDbCircle
 10
266.3006926589119
 20
500.4593253602949
 30
0.0
 40
4.618802153517049
  0
LINE
  5
1C342
330
1E
100
AcDbEntity
  8
12
  6
DASHDOT
100
AcDbLine
 10
198.7413754857499
 20
499.4593253602949
 30
0.0
 11
198.7413754857499
 21
515.4593253602948
 31
0.0
  0
LINE
  5
1C343
330
1E
100
AcDbEntity
  8
12
  6
DASHDOT
100
AcDbLine
 10
153.7839548768724
 20
499.4593253602949
 30
0.0
 11
153.7839548768724
 21
515.4593253602948
 31
0.0
  0
ELLIPSE
  5
1C348
330
1E
100
AcDbEntity
  8
10
  6
Continuous
100
AcDbEllipse
 10
209.7453459327053
 20
485.4940434689832
 30
0.0
 11
-0.9502067146544844
 21
0.3164782046945192
 31
0.0
210
0.0
220
0.0
230
1.0
 40
0.9984778550999999
 41
1.892760065825479
 42
3.462643004113771
  0
ELLIPSE
  5
1C349
330
1E
100
AcDbEntity
  8
10
  6
Continuous
100
AcDbEllipse
 10
232.7480906247052
 20
485.4940434689832
 30
0.0
 11
0.9502067146544844
 21
0.316478204694448
 31
0.0
210
0.0
220
0.0
230
1.0
 40
0.9984778551000005
 41
2.820542303065916
 42
4.39042524135431
  0
LINE
  5
1C34A
330
1E
100
AcDbEntity
  8
10
  6
Continuous
100
AcDbLine
 10
231.7467181372051
 20
509.9051481904832
 30
0.0
 11
231.7467182787116
 21
485.4931299414557
 31
0.0
  0
LINE
  5
1C34B
330
1E
100
AcDbEntity
  8
10
  6
Continuous
100
AcDbLine
 10
210.7467182786989
 20
485.4931299414558
 30
0.0
 11
210.7467184202051
 21
509.9051481904832
 31
0.0
  0
ARC
  5
1C34C
330
1E
100
AcDbEntity
  8
10
  6
Continuous
100
AcDbCircle
 10
211.7467184202051
 20
509.9051481904832
 30
0.0
 40
1.0
100
AcDbArc
 50
90.0
 51
180.0
  0
LINE
  5
1C34D
330
1E
100
AcDbEntity
  8
10
  6
Continuous
100
AcDbLine
 10
211.7467184202051
 20
510.9051481904832
 30
0.0
 11
230.7467181372052
 21
510.9051481904832
 31
0.0
  0
ARC
  5
1C34E
330
1E
100
AcDbEntity
  8
10
  6
Continuous
100
AcDbCircle
 10
230.7467181372052
 20
509.9051481904832
 30
0.0
 40
1.0
100
AcDbArc
 50
0.0
 51
90.0
  0
LINE
  5
1C34F
330
1E
100
AcDbEntity
  8
24
  6
CONTINOUS
100
AcDbLine
 10
221.3006926589119
 20
491.4593253602947
 30
0.0
 11
221.3006926589119
 21
509.4593253602949
 31
0.0
  0
LINE
  5
1C350
330
1E
100
AcDbEntity
  8
24
  6
CONTINOUS
100
AcDbLine
 10
230.1413754857499
 20
500.4593253602949
 30
0.0
 11
212.1413754857499
 21
500.4593253602949
 31
0.0
  0
CIRCLE
  5
1C351
330
1E
100
AcDbEntity
  8
24
  6
CONTINOUS
100
AcDbCircle
 10
221.3006926589119
 20
500.4593253602949
 30
0.0
 40
4.618802153517049
  0
DIMENSION
  5
1C37F
330
1E
100
AcDbEntity
  8
30
100
AcDbDimension
280
     0
  2
*D51
 10
365.7859067016262
 20
744.4938972774823
 30
0.0
 11
358.7859067016261
 21
614.4938972774824
 31
0.0
 70
    32
 71
     5
 42
260.0000000000002
 73
     0
 74
     0
 75
     0
  3
STANDARD
100
AcDbAlignedDimension
 13
291.2839548768725
 23
484.4938972774822
 33
0.0
 14
291.2839548768725
 24
744.4938972774823
 34
0.0
 50
90.0
100
AcDbRotatedDimension
  0
DIMENSION
  5
1C38C
330
1E
100
AcDbEntity
  8
30
100
AcDbDimension
280
     0
  2
*D52
 10
336.2449214237559
 20
728.4938972774823
 30
0.0
 11
329.2449214237558
 21
614.4766113188886
 31
0.0
 70
    32
 71
     5
 42
228.0345719171875
 73
     0
 74
     0
 75
     0
  3
STANDARD
100
AcDbAlignedDimension
 13
266.3006926589119
 23
500.4593253602949
 33
0.0
 14
266.1006926589119
 24
728.4938972774823
 34
0.0
 50
90.0
100
AcDbRotatedDimension
  0
DIMENSION
  5
1C39C
330
1E
100
AcDbEntity
  8
30
100
AcDbDimension
280
     0
  2
*D53
 10
198.7993083498884
 20
402.8975721028605
 30
0.0
 11
159.2993083498884
 21
402.8975721028605
 31
0.0
 70
   160
 71
     5
 42
22.5
 73
     0
 74
     0
 75
     0
  3
STANDARD1
100
AcDbAlignedDimension
 13
176.2993083498884
 23
431.6198848996763
 33
0.0
 14
198.7993083498884
 24
431.6198848996763
 34
0.0
100
AcDbRotatedDimension
  0
LINE
  5
1C3DF
330
1E
100
AcDbEntity
  8
10
100
AcDbLine
 10
142.4631230864945
 20
744.4938972774812
 30
0.0
 11
164.4622076782498
 21
744.4938972774812
 31
0.0
  0
LINE
  5
1C3E1
330
1E
100
AcDbEntity
  8
10
100
AcDbLine
 10
184.2533014562547
 20
727.8031515834257
 30
0.0
 11
206.25238604801
 21
727.8031515834257
 31
0.0
  0
LINE
  5
1C3E2
330
1E
100
AcDbEntity
  8
10
100
AcDbLine
 10
187.4631230864945
 20
744.4938972774811
 30
0.0
 11
209.4622076782499
 21
744.4938972774811
 31
0.0
  0
LINE
  5
1C3E3
330
1E
100
AcDbEntity
  8
10
100
AcDbLine
 10
232.4631230864945
 20
744.4938972774811
 30
0.0
 11
254.4622076782498
 21
744.4938972774811
 31
0.0
  0
LINE
  5
1C3E7
330
1E
100
AcDbEntity
  8
10
100
AcDbLine
 10
277.5631226843724
 20
744.4938972774811
 30
0.0
 11
291.2839548768725
 21
744.4938972774823
 31
0.0
  0
LINE
  5
1C3E8
330
1E
100
AcDbEntity
  8
10
  6
Continuous
100
AcDbLine
 10
106.2839548768724
 20
484.4938972774833
 30
0.0
 11
119.746260976705
 21
484.4938911409787
 31
0.0
  0
LINE
  5
1C3F1
330
1E
100
AcDbEntity
  8
10
100
AcDbLine
 10
142.7436685713695
 20
484.4938972774833
 30
0.0
 11
164.746260976705
 21
484.4938911409787
 31
0.0
  0
LINE
  5
1C3F3
330
1E
100
AcDbEntity
  8
10
100
AcDbLine
 10
232.4631230864945
 20
484.4938972774833
 30
0.0
 11
254.4622076782498
 21
484.4938972774833
 31
0.0
  0
LINE
  5
1C3F4
330
1E
100
AcDbEntity
  8
10
100
AcDbLine
 10
277.5631226843724
 20
484.4938972774833
 30
0.0
 11
291.2839548768725
 21
484.4938972774821
 31
0.0
  0
LWPOLYLINE
  5
1C3F5
330
1E
100
AcDbEntity
  8
10
  6
CONTINOUS
100
AcDbPolyline
 90
        4
 70
     0
 43
0.0
 10
117.1496642473375
 20
969.5463040888553
 10
117.1496642473375
 20
922.546304088855
 10
145.1496642473375
 20
922.546304088855
 10
145.1496642473375
 20
978.6128689213368
  0
LWPOLYLINE
  5
1C3F6
330
1E
100
AcDbEntity
  8
10
  6
CONTINOUS
100
AcDbPolyline
 90
        4
 70
     0
 43
0.0
 10
162.1496642473374
 20
969.5463040888553
 10
162.1496642473374
 20
922.546304088855
 10
190.1496642473374
 20
922.546304088855
 10
190.1496642473374
 20
978.6128689213368
  0
LWPOLYLINE
  5
1C3F7
330
1E
100
AcDbEntity
  8
10
  6
CONTINOUS
100
AcDbPolyline
 90
        2
 70
     0
 43
0.0
 10
235.1496642473376
 20
977.5463040888553
 10
235.1496642473376
 20
978.6128689213368
  0
LWPOLYLINE
  5
1C3F8
330
1E
100
AcDbEntity
  8
10
  6
CONTINOUS
100
AcDbPolyline
 90
        2
 70
     0
 43
0.0
 10
280.1496704859605
 20
977.5463040888553
 10
280.1496704859605
 20
978.6128689213368
  0
VIEWPORT
  5
9AC
330
1A
100
AcDbEntity
 67
     1
  8
0
  6
Continuous
348
8A77
100
AcDbViewport
 10
171.999535
 20
144.1384739999999
 30
0.0
 40
488.867686
 41
292.351491
 68
     1
 69
     1
 12
171.999535
 22
144.1384739999999
 13
0.0
 23
0.0
 14
10.0
 24
10.0
 15
10.0
 25
10.0
 16
0.0
 26
0.0
 36
1.0
 17
0.0
 27
0.0
 37
0.0
 42
50.0
 43
0.0
 44
0.0
 45
292.351491
 50
0.0
 51
0.0
 72
   100
 90
    32800
  1

281
     0
 71
     1
 74
     0
110
0.0
120
0.0
130
0.0
111
1.0
121
0.0
131
0.0
112
0.0
122
1.0
132
0.0
 79
     0
146
0.0
170
     0
 61
     5
292
     1
282
     1
141
0.0
142
0.0
 63
   250
421
  3355443
  0
ENDSEC
  0
SECTION
  2
OBJECTS
  0
DICTIONARY
  5
C
330
0
100
AcDbDictionary
281
     1
  3
ACAD_CIP_PREVIOUS_PRODUCT_INFO
350
8AA8
  3
ACAD_COLOR
350
8A8A
  3
ACAD_DETAILVIEWSTYLE
350
8AA3
  3
ACAD_GROUP
350
D
  3
ACAD_LAYOUT
350
19
  3
ACAD_MATERIAL
350
8A58
  3
ACAD_MLEADERSTYLE
350
8A9F
  3
ACAD_MLINESTYLE
350
16
  3
ACAD_PLOTSETTINGS
350
18
  3
ACAD_PLOTSTYLENAME
350
E
  3
ACAD_SCALELIST
350
8A8D
  3
ACAD_SECTIONVIEWSTYLE
350
8AA1
  3
ACAD_TABLESTYLE
350
8A8B
  3
ACAD_VISUALSTYLE
350
8A71
  3
ACADDIM
350
6D5E
  3
ACDB_RECOMPOSE_DATA
350
1C3FF
  3
ACDBVARIABLEDICTIONARY
350
5697
  3
AEC_PROPERTY_SET_DEFS
350
BFC4
  0
DICTIONARY
  5
F3CC
330
2
100
AcDbDictionary
280
     1
281
     1
  3
ACAD_LAYERSTATES
360
F3CD
  0
DICTIONARY
  5
8ACC
330
10
100
AcDbDictionary
280
     1
281
     1
  3
ADSK_XREC_LAYER_RECONCILED
360
8ACD
  0
DICTIONARY
  5
8ACE
330
2F
100
AcDbDictionary
280
     1
281
     1
  3
ADSK_XREC_LAYER_RECONCILED
360
8ACF
  0
DICTIONARY
  5
8AD0
330
31
100
AcDbDictionary
280
     1
281
     1
  3
ADSK_XREC_LAYER_RECONCILED
360
8AD1
  0
DICTIONARY
  5
8AD2
330
35
100
AcDbDictionary
280
     1
281
     1
  3
ADSK_XREC_LAYER_RECONCILED
360
8AD3
  0
DICTIONARY
  5
8AD4
330
38
100
AcDbDictionary
280
     1
281
     1
  3
ADSK_XREC_LAYER_RECONCILED
360
8AD5
  0
DICTIONARY
  5
8AD6
330
3D
100
AcDbDictionary
280
     1
281
     1
  3
ADSK_XREC_LAYER_RECONCILED
360
8AD7
  0
DICTIONARY
  5
8AD8
330
3A2
100
AcDbDictionary
280
     1
281
     1
  3
ADSK_XREC_LAYER_RECONCILED
360
8AD9
  0
DICTIONARY
  5
8ADA
330
3BBA
100
AcDbDictionary
280
     1
281
     1
  3
ADSK_XREC_LAYER_RECONCILED
360
8ADB
  0
DICTIONARY
  5
8ADC
330
67A8
100
AcDbDictionary
280
     1
281
     1
  3
ADSK_XREC_LAYER_RECONCILED
360
8ADD
  0
DICTIONARY
  5
8ADE
330
7837
100
AcDbDictionary
280
     1
281
     1
  3
ADSK_XREC_LAYER_RECONCILED
360
8ADF
  0
DICTIONARY
  5
9134
330
9133
100
AcDbDictionary
280
     1
281
     1
  0
DICTIONARY
  5
178
330
1E
100
AcDbDictionary
280
     1
281
     1
  3
ACAD_LAYOUTSELFREF
360
8A0F
  3
ACAD_SORTENTS
360
10338
  0
DICTIONARY
  5
17A
330
1A
100
AcDbDictionary
280
     1
281
     1
  3
ACAD_LAYOUTSELFREF
360
8A0E
  0
XRECORD
  5
8AA8
102
{ACAD_REACTORS
330
C
102
}
330
C
100
AcDbXrecord
280
     1
300
ACDLT
300
2014
300
ACDLT_F_S
  0
DICTIONARY
  5
8A8A
102
{ACAD_REACTORS
330
C
102
}
330
C
100
AcDbDictionary
281
     1
  0
DICTIONARY
  5
8AA3
102
{ACAD_REACTORS
330
C
102
}
330
C
100
AcDbDictionary
281
     1
  3
Imperial24
350
8AA4
  0
DICTIONARY
  5
D
102
{ACAD_REACTORS
330
C
102
}
330
C
100
AcDbDictionary
281
     1
  0
DICTIONARY
  5
19
102
{ACAD_REACTORS
330
C
102
}
330
C
100
AcDbDictionary
281
     1
  3
Model
350
8A4C
  3
ﾚｲｱｳﾄ1
350
8A4D
  0
DICTIONARY
  5
8A58
102
{ACAD_REACTORS
330
C
102
}
330
C
100
AcDbDictionary
281
     1
  3
ByBlock
350
8A61
  3
ByLayer
350
8A59
  3
Global
350
8A69
  0
DICTIONARY
  5
8A9F
102
{ACAD_REACTORS
330
C
102
}
330
C
100
AcDbDictionary
281
     1
  3
Standard
350
8AA0
  0
DICTIONARY
  5
16
102
{ACAD_REACTORS
330
C
102
}
330
C
100
AcDbDictionary
281
     1
  3
STANDARD
350
17
  0
DICTIONARY
  5
18
102
{ACAD_REACTORS
330
C
102
}
330
C
100
AcDbDictionary
281
     1
  0
ACDBDICTIONARYWDFLT
  5
E
102
{ACAD_REACTORS
330
C
102
}
330
C
100
AcDbDictionary
281
     1
  3
Normal
350
F
100
AcDbDictionaryWithDefault
340
F
  0
DICTIONARY
  5
8A8D
102
{ACAD_REACTORS
330
C
102
}
330
C
100
AcDbDictionary
281
     1
  3
A0
350
8A8E
  3
A1
350
8A8F
  3
A2
350
8A90
  3
A3
350
8A91
  3
A4
350
8A92
  3
A5
350
8A93
  3
A6
350
8A94
  3
A7
350
8A95
  3
A8
350
8A96
  3
A9
350
8A97
  3
B0
350
8A98
  3
B1
350
8A99
  3
B2
350
8A9A
  3
B3
350
8A9B
  3
B4
350
8A9C
  3
B5
350
8A9D
  3
B6
350
8A9E
  0
DICTIONARY
  5
8AA1
102
{ACAD_REACTORS
330
C
102
}
330
C
100
AcDbDictionary
281
     1
  3
Imperial24
350
8AA2
  0
DICTIONARY
  5
8A8B
102
{ACAD_REACTORS
330
C
102
}
330
C
100
AcDbDictionary
281
     1
  3
Standard
350
8A8C
  0
DICTIONARY
  5
8A71
102
{ACAD_REACTORS
330
C
102
}
330
C
100
AcDbDictionary
281
     1
  3
2dWireframe
350
8A77
  3
3D Hidden
350
8B2B
  3
3dWireframe
350
8B2A
  3
Basic
350
8A76
  3
Brighten
350
8A7D
  3
ColorChange
350
8A81
  3
Conceptual
350
8A7A
  3
Dim
350
8A7C
  3
EdgeColorOff
350
8A89
  3
Facepattern
350
8A80
  3
Flat
350
8A72
  3
FlatWithEdges
350
8A73
  3
Gouraud
350
8A74
  3
GouraudWithEdges
350
8A75
  3
Hidden
350
8A79
  3
JitterOff
350
8A87
  3
Linepattern
350
8A7F
  3
OverhangOff
350
8A88
  3
Realistic
350
8A7B
  3
Shaded
350
8A86
  3
Shaded with edges
350
8A85
  3
Shades of Gray
350
8A82
  3
Sketchy
350
8A83
  3
Thicken
350
8A7E
  3
Wireframe
350
8A78
  3
X-Ray
350
8A84
  0
XRECORD
  5
6D5E
102
{ACAD_REACTORS
330
C
102
}
330
C
100
AcDbXrecord
280
     1
 90
   990106
  3

 60
     0
 61
     0
 62
     1
 63
     3
 64
     0
 65
     0
 66
     0
 67
     3
 68
     1
 69
     0
 70
     0
 71
     0
 72
     0
 40
0.0
170
     0
340
0
  0
XRECORD
  5
1C3FF
102
{ACAD_REACTORS
330
C
102
}
330
C
100
AcDbXrecord
280
     1
 90
        1
330
8A8C
330
8AA2
330
8AA4
  0
DICTIONARY
  5
5697
102
{ACAD_REACTORS
330
C
102
}
330
C
100
AcDbDictionary
281
     1
  3
CANNOSCALE
350
8AE9
  3
CMLEADERSTYLE
350
8AE5
  3
CTABLESTYLE
350
8AE4
  3
CVIEWDETAILSTYLE
350
8AE6
  3
CVIEWSECTIONSTYLE
350
8AE7
  3
DIMASSOC
350
5698
  3
LAYEREVAL
350
8AEB
  3
LAYERNOTIFY
350
8AEC
  3
LIGHTINGUNITS
350
8AEA
  3
MSLTSCALE
350
8AE8
  0
DICTIONARY
  5
BFC4
102
{ACAD_REACTORS
330
C
102
}
330
C
100
AcDbDictionary
281
     1
  0
DICTIONARY
  5
F3CD
102
{ACAD_REACTORS
330
F3CC
102
}
330
F3CC
100
AcDbDictionary
281
     1
  0
XRECORD
  5
8ACD
102
{ACAD_REACTORS
330
8ACC
102
}
330
8ACC
100
AcDbXrecord
280
     1
290
     1
  0
XRECORD
  5
8ACF
102
{ACAD_REACTORS
330
8ACE
102
}
330
8ACE
100
AcDbXrecord
280
     1
290
     1
  0
XRECORD
  5
8AD1
102
{ACAD_REACTORS
330
8AD0
102
}
330
8AD0
100
AcDbXrecord
280
     1
290
     1
  0
XRECORD
  5
8AD3
102
{ACAD_REACTORS
330
8AD2
102
}
330
8AD2
100
AcDbXrecord
280
     1
290
     1
  0
XRECORD
  5
8AD5
102
{ACAD_REACTORS
330
8AD4
102
}
330
8AD4
100
AcDbXrecord
280
     1
290
     1
  0
XRECORD
  5
8AD7
102
{ACAD_REACTORS
330
8AD6
102
}
330
8AD6
100
AcDbXrecord
280
     1
290
     1
  0
XRECORD
  5
8AD9
102
{ACAD_REACTORS
330
8AD8
102
}
330
8AD8
100
AcDbXrecord
280
     1
290
     1
  0
XRECORD
  5
8ADB
102
{ACAD_REACTORS
330
8ADA
102
}
330
8ADA
100
AcDbXrecord
280
     1
290
     1
  0
XRECORD
  5
8ADD
102
{ACAD_REACTORS
330
8ADC
102
}
330
8ADC
100
AcDbXrecord
280
     1
290
     1
  0
XRECORD
  5
8ADF
102
{ACAD_REACTORS
330
8ADE
102
}
330
8ADE
100
AcDbXrecord
280
     1
290
     1
  0
XRECORD
  5
8A0F
102
{ACAD_REACTORS
330
178
102
}
330
178
100
AcDbXrecord
280
     1
340
1E
  0
SORTENTSTABLE
  5
10338
102
{ACAD_REACTORS
330
178
102
}
330
178
100
AcDbSortentsTable
330
1E
331
1C336
  5
1C33A
331
1C2AF
  5
1C2B5
331
1C3F5
  5
13A8D
331
1333F
  5
133E4
331
1344B
  5
13A8A
331
1C33E
  5
1C342
331
1C2B7
  5
1C2CF
331
19EFA
  5
1AB5C
331
133F4
  5
13A4E
331
1C34E
  5
1C37F
331
1C31B
  5
1C31F
331
132B8
  5
13360
331
13443
  5
13A82
331
132C8
  5
13370
331
132F8
  5
133A0
331
13453
  5
13A94
331
13483
  5
13AC8
331
132A9
  5
13351
331
13347
  5
133EC
331
1345B
  5
13A9C
331
1349B
  5
13AE3
331
132B1
  5
13359
331
13308
  5
133B0
331
1334F
  5
133F4
331
1C290
  5
1C294
331
13495
  5
13ADC
331
13463
  5
13AA5
331
13357
  5
133FC
331
1341C
  5
13A60
331
134A3
  5
13AEB
331
132C1
  5
13369
331
13320
  5
133C5
331
1C298
  5
1C2A1
331
1348B
  5
13ACE
331
1346B
  5
13AAF
331
1335F
  5
1340F
331
1C327
  5
1C32E
331
1C2A0
  5
1C2A4
331
1C32F
  5
1C333
331
13328
  5
133CD
331
133F8
  5
13A55
331
132D9
  5
13381
331
13473
  5
13AB8
331
13438
  5
13A72
331
13330
  5
133D5
331
13367
  5
1341A
331
1C2D2
  5
1C2D6
331
1C2A8
  5
1C2AC
331
1347B
  5
13AC0
331
13434
  5
13A6E
331
13338
  5
133DD
331
1C337
  5
1C33B
331
1C3F6
  5
13A90
331
1344C
  5
13A8B
331
1C33F
  5
1C343
331
1C34F
  5
1C38C
331
1C31C
  5
1C320
331
132B9
  5
13361
331
13340
  5
133E5
331
13444
  5
13A83
331
132C9
  5
13371
331
132F9
  5
133A1
331
13454
  5
13A95
331
132D1
  5
13379
331
132AA
  5
13352
331
13348
  5
133ED
331
1345C
  5
13A9D
331
13415
  5
13A5D
331
1349C
  5
13AE4
331
13309
  5
133B1
331
132B2
  5
1335A
331
13350
  5
133F5
331
1C291
  5
1C295
331
13496
  5
13ADD
331
13464
  5
13AA6
331
1C0FB
  5
1C28C
331
134A4
  5
161FD
331
132C2
  5
1336A
331
13321
  5
133C6
331
13358
  5
13408
331
1341D
  5
13A61
331
1C320
  5
1C324
331
1348C
  5
13ACF
331
1C3DF
  5
1C3E7
331
1346C
  5
13AB1
331
1C328
  5
1C32F
331
1C2A1
  5
1C2A5
331
1C3F8
  5
13AB0
331
13360
  5
13410
331
145FB
  5
1674C
331
132DA
  5
13382
331
13329
  5
133CE
331
133F9
  5
13A56
331
1C3E7
  5
1C3F4
331
13474
  5
13ABA
331
13368
  5
1341B
331
1684C
  5
17FF4
331
13439
  5
13A73
331
13331
  5
133D6
331
1C330
  5
1C334
331
1C2D3
  5
1C319
331
1C2A9
  5
1C2AD
331
1347C
  5
13AC1
331
13339
  5
133DE
331
13435
  5
13A6F
331
1C338
  5
1C33C
331
1C3F7
  5
13A9F
331
19A04
  5
1AB5A
331
13378
  5
13428
331
1344D
  5
13A8C
331
1C37F
  5
1C3E1
331
1C340
  5
1C348
331
133F6
  5
13A51
331
1C348
  5
1C34C
331
1C31D
  5
1C321
331
132BA
  5
13362
331
13445
  5
13A84
331
132CA
  5
13372
331
132FA
  5
133A2
331
13341
  5
133E6
331
13455
  5
13A96
331
132AB
  5
13353
331
13349
  5
133EE
331
1340E
  5
13A5C
331
1C350
  5
1C39C
331
1C28A
  5
1C28E
331
1345D
  5
13A9E
331
13416
  5
13A5E
331
1C0DC
  5
1C28B
331
1349D
  5
13AE6
331
132B3
  5
1335B
331
1331A
  5
133BF
331
13351
  5
133F6
331
1C292
  5
1C296
331
13497
  5
13ADE
331
1A764
  5
1C0FC
331
13465
  5
13AAA
331
13322
  5
133C7
331
1C0FC
  5
1C28D
331
134A5
  5
1625F
331
132C3
  5
1336B
331
13359
  5
13409
331
1341E
  5
13A62
331
1C321
  5
1C325
331
1348D
  5
13AD0
331
1346D
  5
13AB2
331
13426
  5
13A64
331
1C2A2
  5
1C2A6
331
13312
  5
133B7
331
1332A
  5
133CF
331
13361
  5
13411
331
15D95
  5
17FF1
331
133FA
  5
13A59
331
132DB
  5
13383
331
13475
  5
13ABB
331
1C3E8
  5
1C3F5
331
1684D
  5
17FF5
331
1343A
  5
13A74
331
13332
  5
133D7
331
13369
  5
1341C
331
1342E
  5
13A69
331
1C331
  5
1C335
331
1C2D4
  5
1C31A
331
1C2AA
  5
1C2AE
331
1347D
  5
13AC2
331
13436
  5
13A70
331
1333A
  5
133DF
331
1C339
  5
1C33E
331
1C2B2
  5
1C2B6
331
161FD
  5
17FF3
331
1344E
  5
13A8E
331
1C341
  5
1C349
331
133F7
  5
13A52
331
1C349
  5
1C34D
331
1C31E
  5
1C322
331
132BB
  5
13363
331
13342
  5
133E7
331
13446
  5
13A85
331
132FB
  5
133A3
331
1A715
  5
1ACA0
331
13456
  5
13A97
331
13486
  5
13AC9
331
132AC
  5
13354
331
132D3
  5
1337B
331
1334A
  5
133EF
331
1C351
  5
1C3DF
331
13490
  5
13AD6
331
1C28B
  5
1C28F
331
1345E
  5
13AA0
331
1331B
  5
133C0
331
13352
  5
133F7
331
1349E
  5
13AE7
331
1330B
  5
133B3
331
132B4
  5
1335C
331
1C293
  5
1C297
331
1A765
  5
1C28A
331
13466
  5
13AAB
331
134A6
  5
16745
331
132C4
  5
1336C
331
13323
  5
133C8
331
1335A
  5
1340A
331
1C322
  5
1C326
331
1348E
  5
13AD1
331
1346E
  5
13AB3
331
1C2A3
  5
1C2A7
331
1C3E1
  5
1C3E8
331
13362
  5
13412
331
15D96
  5
17FF2
331
132DC
  5
13384
331
133FB
  5
13A5A
331
1332B
  5
133D0
331
1C2CD
  5
1C2D1
331
13476
  5
13ABC
331
1684E
  5
17FF6
331
13333
  5
133D8
331
1336A
  5
1341D
331
1343B
  5
13A75
331
1342F
  5
13A6B
331
1C332
  5
1C336
331
1C2D5
  5
1C31B
331
1C2AB
  5
1C2AF
331
1347E
  5
13AC3
331
1C3F1
  5
1C3F6
331
13437
  5
13A71
331
1333B
  5
133E0
331
1C33A
  5
1C33F
331
1C2B3
  5
1C2B7
331
1344F
  5
13A8F
331
132F4
  5
1339C
331
1C342
  5
1C34A
331
1C34A
  5
1C34E
331
1C31F
  5
1C323
331
132BC
  5
13364
331
19A46
  5
1AB5B
331
132FC
  5
133A4
331
132CC
  5
13374
331
13447
  5
13A86
331
13343
  5
133E8
331
1A716
  5
1ACA1
331
13457
  5
13A98
331
13487
  5
13ACA
331
132AD
  5
13355
331
13304
  5
133AC
331
1334B
  5
133F0
331
1C28C
  5
1C290
331
13491
  5
13AD7
331
1345F
  5
13AA1
331
132B5
  5
1335D
331
1331C
  5
133C1
331
13353
  5
133F8
331
1C294
  5
1C298
331
13467
  5
13AAC
331
13324
  5
133C9
331
134A7
  5
16746
331
132C5
  5
1336D
331
1335B
  5
1340B
331
1C323
  5
1C327
331
1348F
  5
13AD3
331
1346F
  5
13AB4
331
1C2A4
  5
1C2A8
331
13314
  5
133B9
331
1C3E2
  5
1C3F1
331
1332C
  5
133D1
331
13363
  5
13413
331
133FC
  5
13A5B
331
1C2CE
  5
1C2D2
331
13477
  5
13ABD
331
1684F
  5
1A38E
331
1461E
  5
17FF0
331
13334
  5
133D9
331
1343C
  5
13A76
331
1336B
  5
1341E
331
1C333
  5
1C337
331
1C2D6
  5
1C31C
331
1C2AC
  5
1C2B2
331
1347F
  5
13AC4
331
13448
  5
13A87
331
1333C
  5
133E1
331
1C33B
  5
1C340
331
1C2B4
  5
1C2C9
331
133F1
  5
13A4B
331
132F5
  5
1339D
331
1C343
  5
1C34B
331
1C34B
  5
1C34F
331
13440
  5
13A7A
331
132BD
  5
13365
331
13450
  5
13A91
331
13480
  5
13AC5
331
132CD
  5
13378
331
132FD
  5
133A5
331
13344
  5
133E9
331
1A717
  5
1C0DC
331
13458
  5
13A99
331
1C38C
  5
1C3E2
331
13305
  5
133AD
331
13498
  5
13ADF
331
132AE
  5
13356
331
1334C
  5
133F1
331
1C28D
  5
1C291
331
13492
  5
13AD8
331
134A0
  5
13AE8
331
132B6
  5
1335E
331
1331D
  5
133C2
331
13354
  5
133F9
331
1C295
  5
1C29D
331
13488
  5
13ACB
331
1C39C
  5
1C3E3
331
132C6
  5
1336E
331
13325
  5
133CA
331
1335C
  5
1340C
331
1C324
  5
1C328
331
1C29D
  5
1C2A2
331
1C32C
  5
1C330
331
1C2A5
  5
1C2A9
331
13315
  5
133BA
331
1C3E3
  5
1C3F3
331
13470
  5
13AB5
331
1332D
  5
133D2
331
13364
  5
13414
331
1C2CF
  5
1C2D3
331
16850
  5
1A38F
331
13335
  5
133DA
331
1336C
  5
1341F
331
1343D
  5
13A77
331
1C334
  5
1C338
331
1C2AD
  5
1C2B3
331
1C3F3
  5
1C3F7
331
1333D
  5
133E2
331
13449
  5
13A88
331
1C33C
  5
1C341
331
1C2B5
  5
1C2CD
331
133F2
  5
13A4C
331
132F6
  5
1339E
331
1C34C
  5
1C350
331
1C319
  5
1C31D
331
132BE
  5
13366
331
13441
  5
13A80
331
13451
  5
13A92
331
13481
  5
13AC6
331
132A7
  5
1334F
331
13345
  5
133EA
331
1A718
  5
1C0FB
331
13459
  5
13A9A
331
13499
  5
13AE0
331
132AF
  5
13357
331
132D6
  5
1337E
331
13306
  5
133AE
331
1334D
  5
133F2
331
1C28E
  5
1C292
331
13493
  5
13AD9
331
1341A
  5
13A5F
331
134A1
  5
13AE9
331
132B7
  5
1335F
331
1331E
  5
133C3
331
13355
  5
133FA
331
1C296
  5
1C29E
331
13489
  5
13ACC
331
13469
  5
13AAD
331
13326
  5
133CB
331
132C7
  5
1336F
331
1335D
  5
1340D
331
1C325
  5
1C32C
331
1C29E
  5
1C2A3
331
1C32D
  5
1C331
331
1C2A6
  5
1C2AA
331
13316
  5
133BB
331
13471
  5
13AB6
331
1332E
  5
133D3
331
13365
  5
13415
331
1342A
  5
13A65
331
1C2D0
  5
1C2D4
331
13479
  5
13ABE
331
13432
  5
13A6C
331
16851
  5
1AA97
331
1343E
  5
13A78
331
13336
  5
133DB
331
1336D
  5
13420
331
1C335
  5
1C339
331
1C2AE
  5
1C2B4
331
1C3F4
  5
1C3F8
331
1344A
  5
13A89
331
1333E
  5
133E3
331
1C2B6
  5
1C2CE
331
132F7
  5
1339F
331
1C34D
  5
1C351
331
1C31A
  5
1C31E
331
13442
  5
13A81
331
132BF
  5
13367
331
13452
  5
13A93
331
13346
  5
133EB
331
13482
  5
13AC7
331
132A8
  5
13350
331
1345A
  5
13A9B
331
13307
  5
133AF
331
1349A
  5
13AE2
331
132B0
  5
13358
331
1334E
  5
133F3
331
132D7
  5
1337F
331
1C28F
  5
1C293
331
13494
  5
13ADB
331
13462
  5
13AA4
331
134A2
  5
13AEA
331
132C0
  5
13368
331
1331F
  5
133C4
331
13356
  5
133FB
331
1C297
  5
1C2A0
331
1348A
  5
13ACD
331
1346A
  5
13AAE
331
13327
  5
133CC
331
1335E
  5
1340E
331
1C326
  5
1C32D
331
1C32E
  5
1C332
331
1C2A7
  5
1C2AB
331
132D8
  5
13380
331
13317
  5
133BC
331
1C2C9
  5
1C2D0
331
13472
  5
13AB7
331
1342B
  5
13A66
331
1332F
  5
133D4
331
13366
  5
13416
331
1C2D1
  5
1C2D5
331
1347A
  5
13ABF
331
16852
  5
1AB59
331
13337
  5
133DC
331
1336E
  5
13421
331
13433
  5
13A6D
331
1343F
  5
13A79
  0
XRECORD
  5
8A0E
102
{ACAD_REACTORS
330
17A
102
}
330
17A
100
AcDbXrecord
280
     1
340
1A
  0
ACDBDETAILVIEWSTYLE
  5
8AA4
102
{ACAD_XDICTIONARY
360
1C249
102
}
102
{ACAD_REACTORS
330
8AA3
102
}
330
8AA3
100
AcDbModelDocViewStyle
 70
     0
  3
Imperial24
290
     0
100
AcDbDetailViewStyle
 70
     0
 71
     0
 90
        3
 71
     1
340
11
 62
   256
 40
0.24
340
0
 62
   256
 40
0.24
300

 40
0.36
280
     3
 71
     2
340
15
 90
       25
 62
   256
 71
     3
340
11
 62
   256
 40
0.24
 90
        1
 40
0.75
 90
        1
300
%<\AcVar ViewType \f "%tc1">% %<\AcVar ViewDetailId>%\PSCALE %<\AcVar ViewScale \f "%sn">%
 71
     4
340
15
 90
       25
 62
   256
340
15
 90
       25
 62
   256
280
     0
  0
LAYOUT
  5
8A4C
102
{ACAD_XDICTIONARY
360
F3D2
102
}
102
{ACAD_REACTORS
330
19
102
}
330
19
100
AcDbPlotSettings
  1

  2
none_device
  4
Letter_(8.50_x_11.00_Inches)
  6

 40
6.349999904632567
 41
6.349999904632567
 42
6.350006103515625
 43
6.350006103515625
 44
215.8999938964844
 45
279.3999938964844
 46
0.0
 47
0.0
 48
0.0
 49
0.0
140
0.0
141
0.0
142
1.0
143
317.0449279872537
 70
 11952
 72
     0
 73
     1
 74
     0
  7
monochrome.ctb
 75
     0
147
0.0031541271022642
 76
     0
 77
     2
 78
   300
148
21198.07971653447
149
42574.72085005308
100
AcDbLayout
  1
Model
 70
     1
 71
     0
 10
0.0
 20
0.0
 11
12.0
 21
9.0
 12
0.0
 22
0.0
 32
0.0
 14
0.0
 24
0.0
 34
0.0
 15
0.0
 25
0.0
 35
0.0
146
0.0
 13
0.0
 23
0.0
 33
0.0
 16
1.0
 26
0.0
 36
0.0
 17
0.0
 27
1.0
 37
0.0
 76
     0
330
1E
331
8A51
1001
ACAD_PSEXT
1000
なし
1000
なし
1000
適切ではありません
1000
新しいプロッタ環境設定名を選択しない限り、レイアウトは印刷されません。
1070
     0
  0
LAYOUT
  5
8A4D
102
{ACAD_REACTORS
330
19
102
}
330
19
100
AcDbPlotSettings
  1

  2
Canon LBP3800 LIPSLX
  4

  6

 40
0.0
 41
0.0
 42
0.0
 43
0.0
 44
0.0
 45
0.0
 46
0.0
 47
0.0
 48
0.0
 49
0.0
140
0.0
141
0.0
142
1.0
143
1.0
 70
   688
 72
     0
 73
     0
 74
     5
  7
monochrome.ctb
 75
    16
147
1.0
 76
     0
 77
     2
 78
   300
148
0.0
149
0.0
100
AcDbLayout
  1
ﾚｲｱｳﾄ1
 70
     1
 71
     1
 10
-5.873749
 20
-5.87375
 11
204.099579
 21
291.1369009999999
 12
0.0
 22
0.0
 32
0.0
 14
4.273573
 24
5.205245999999998
 34
0.0
 15
194.610095
 25
283.0697009999996
 35
0.0
146
0.0
 13
0.0
 23
0.0
 33
0.0
 16
1.0
 26
0.0
 36
0.0
 17
0.0
 27
1.0
 37
0.0
 76
     0
330
1A
331
9AC
  0
MATERIAL
  5
8A61
102
{ACAD_XDICTIONARY
360
8A62
102
}
102
{ACAD_REACTORS
330
8A58
102
}
330
8A58
100
AcDbMaterial
  1
ByBlock
 72
     0
 43
0.0208333333333333
 43
0.0
 43
0.0
 43
0.0
 43
0.0
 43
0.0208333333333333
 43
0.0
 43
0.0
 43
0.0
 43
0.0
 43
1.0
 43
0.0
 43
0.0
 43
0.0
 43
0.0
 43
1.0
 77
     0
 47
0.0208333333333333
 47
0.0
 47
0.0
 47
0.0
 47
0.0
 47
0.0208333333333333
 47
0.0
 47
0.0
 47
0.0
 47
0.0
 47
1.0
 47
0.0
 47
0.0
 47
0.0
 47
0.0
 47
1.0
171
     0
 49
0.0208333333333333
 49
0.0
 49
0.0
 49
0.0
 49
0.0
 49
0.0208333333333333
 49
0.0
 49
0.0
 49
0.0
 49
0.0
 49
1.0
 49
0.0
 49
0.0
 49
0.0
 49
0.0
 49
1.0
175
     0
142
0.0208333333333333
142
0.0
142
0.0
142
0.0
142
0.0
142
0.0208333333333333
142
0.0
142
0.0
142
0.0
142
0.0
142
1.0
142
0.0
142
0.0
142
0.0
142
0.0
142
1.0
179
     0
144
0.0208333333333333
144
0.0
144
0.0
144
0.0
144
0.0
144
0.0208333333333333
144
0.0
144
0.0
144
0.0
144
0.0
144
1.0
144
0.0
144
0.0
144
0.0
144
0.0
144
1.0
147
0.0208333333333333
147
0.0
147
0.0
147
0.0
147
0.0
147
0.0208333333333333
147
0.0
147
0.0
147
0.0
147
0.0
147
1.0
147
0.0
147
0.0
147
0.0
147
0.0
147
1.0
  0
MATERIAL
  5
8A59
102
{ACAD_XDICTIONARY
360
8A5A
102
}
102
{ACAD_REACTORS
330
8A58
102
}
330
8A58
100
AcDbMaterial
  1
ByLayer
 72
     0
 43
0.0208333333333333
 43
0.0
 43
0.0
 43
0.0
 43
0.0
 43
0.0208333333333333
 43
0.0
 43
0.0
 43
0.0
 43
0.0
 43
1.0
 43
0.0
 43
0.0
 43
0.0
 43
0.0
 43
1.0
 77
     0
 47
0.0208333333333333
 47
0.0
 47
0.0
 47
0.0
 47
0.0
 47
0.0208333333333333
 47
0.0
 47
0.0
 47
0.0
 47
0.0
 47
1.0
 47
0.0
 47
0.0
 47
0.0
 47
0.0
 47
1.0
171
     0
 49
0.0208333333333333
 49
0.0
 49
0.0
 49
0.0
 49
0.0
 49
0.0208333333333333
 49
0.0
 49
0.0
 49
0.0
 49
0.0
 49
1.0
 49
0.0
 49
0.0
 49
0.0
 49
0.0
 49
1.0
175
     0
142
0.0208333333333333
142
0.0
142
0.0
142
0.0
142
0.0
142
0.0208333333333333
142
0.0
142
0.0
142
0.0
142
0.0
142
1.0
142
0.0
142
0.0
142
0.0
142
0.0
142
1.0
179
     0
144
0.0208333333333333
144
0.0
144
0.0
144
0.0
144
0.0
144
0.0208333333333333
144
0.0
144
0.0
144
0.0
144
0.0
144
1.0
144
0.0
144
0.0
144
0.0
144
0.0
144
1.0
147
0.0208333333333333
147
0.0
147
0.0
147
0.0
147
0.0
147
0.0208333333333333
147
0.0
147
0.0
147
0.0
147
0.0
147
1.0
147
0.0
147
0.0
147
0.0
147
0.0
147
1.0
  0
MATERIAL
  5
8A69
102
{ACAD_XDICTIONARY
360
8A6A
102
}
102
{ACAD_REACTORS
330
8A58
102
}
330
8A58
100
AcDbMaterial
  1
Global
 72
     0
 43
0.0208333333333333
 43
0.0
 43
0.0
 43
0.0
 43
0.0
 43
0.0208333333333333
 43
0.0
 43
0.0
 43
0.0
 43
0.0
 43
1.0
 43
0.0
 43
0.0
 43
0.0
 43
0.0
 43
1.0
 77
     0
 47
0.0208333333333333
 47
0.0
 47
0.0
 47
0.0
 47
0.0
 47
0.0208333333333333
 47
0.0
 47
0.0
 47
0.0
 47
0.0
 47
1.0
 47
0.0
 47
0.0
 47
0.0
 47
0.0
 47
1.0
171
     0
 49
0.0208333333333333
 49
0.0
 49
0.0
 49
0.0
 49
0.0
 49
0.0208333333333333
 49
0.0
 49
0.0
 49
0.0
 49
0.0
 49
1.0
 49
0.0
 49
0.0
 49
0.0
 49
0.0
 49
1.0
175
     0
142
0.0208333333333333
142
0.0
142
0.0
142
0.0
142
0.0
142
0.0208333333333333
142
0.0
142
0.0
142
0.0
142
0.0
142
1.0
142
0.0
142
0.0
142
0.0
142
0.0
142
1.0
179
     0
144
0.0208333333333333
144
0.0
144
0.0
144
0.0
144
0.0
144
0.0208333333333333
144
0.0
144
0.0
144
0.0
144
0.0
144
1.0
144
0.0
144
0.0
144
0.0
144
0.0
144
1.0
147
0.0208333333333333
147
0.0
147
0.0
147
0.0
147
0.0
147
0.0208333333333333
147
0.0
147
0.0
147
0.0
147
0.0
147
1.0
147
0.0
147
0.0
147
0.0
147
0.0
147
1.0
  0
MLEADERSTYLE
  5
8AA0
102
{ACAD_REACTORS
330
8A9F
102
}
330
8A9F
100
AcDbMLeaderStyle
179
     2
170
     2
171
     1
172
     0
 90
        2
 40
0.0
 41
0.0
173
     1
 91
-1056964608
340
13
 92
       -2
290
     1
 42
0.09
291
     1
 43
0.36
  3
Standard
 44
0.18
300

342
11
174
     1
178
     6
175
     1
176
     0
 93
-1056964608
 45
0.18
292
     0
297
     0
 46
0.18
 94
-1056964608
 47
1.0
 49
1.0
140
1.0
293
     1
141
0.0
294
     1
177
     0
142
1.0
295
     0
296
     0
143
0.125
271
     0
272
     9
273
     9
298
     0
  0
MLINESTYLE
  5
17
102
{ACAD_REACTORS
330
16
102
}
330
16
100
AcDbMlineStyle
  2
STANDARD
 70
     0
  3

 62
   256
 51
90.0
 52
90.0
 71
     2
 49
0.5
 62
   256
  6
BYLAYER
 49
-0.5
 62
   256
  6
BYLAYER
  0
ACDBPLACEHOLDER
  5
F
102
{ACAD_REACTORS
330
E
102
}
330
E
  0
SCALE
  5
8A8E
102
{ACAD_REACTORS
330
8A8D
102
}
330
8A8D
100
AcDbScale
 70
     0
300
1:1
140
1.0
141
1.0
290
     1
  0
SCALE
  5
8A8F
102
{ACAD_REACTORS
330
8A8D
102
}
330
8A8D
100
AcDbScale
 70
     0
300
1/128" = 1'-0"
140
0.0078125
141
12.0
290
     0
  0
SCALE
  5
8A90
102
{ACAD_REACTORS
330
8A8D
102
}
330
8A8D
100
AcDbScale
 70
     0
300
1/64" = 1'-0"
140
0.015625
141
12.0
290
     0
  0
SCALE
  5
8A91
102
{ACAD_REACTORS
330
8A8D
102
}
330
8A8D
100
AcDbScale
 70
     0
300
1/32" = 1'-0"
140
0.03125
141
12.0
290
     0
  0
SCALE
  5
8A92
102
{ACAD_REACTORS
330
8A8D
102
}
330
8A8D
100
AcDbScale
 70
     0
300
1/16" = 1'-0"
140
0.0625
141
12.0
290
     0
  0
SCALE
  5
8A93
102
{ACAD_REACTORS
330
8A8D
102
}
330
8A8D
100
AcDbScale
 70
     0
300
3/32" = 1'-0"
140
0.09375
141
12.0
290
     0
  0
SCALE
  5
8A94
102
{ACAD_REACTORS
330
8A8D
102
}
330
8A8D
100
AcDbScale
 70
     0
300
1/8" = 1'-0"
140
0.125
141
12.0
290
     0
  0
SCALE
  5
8A95
102
{ACAD_REACTORS
330
8A8D
102
}
330
8A8D
100
AcDbScale
 70
     0
300
3/16" = 1'-0"
140
0.1875
141
12.0
290
     0
  0
SCALE
  5
8A96
102
{ACAD_REACTORS
330
8A8D
102
}
330
8A8D
100
AcDbScale
 70
     0
300
1/4" = 1'-0"
140
0.25
141
12.0
290
     0
  0
SCALE
  5
8A97
102
{ACAD_REACTORS
330
8A8D
102
}
330
8A8D
100
AcDbScale
 70
     0
300
3/8" = 1'-0"
140
0.375
141
12.0
290
     0
  0
SCALE
  5
8A98
102
{ACAD_REACTORS
330
8A8D
102
}
330
8A8D
100
AcDbScale
 70
     0
300
1/2" = 1'-0"
140
0.5
141
12.0
290
     0
  0
SCALE
  5
8A99
102
{ACAD_REACTORS
330
8A8D
102
}
330
8A8D
100
AcDbScale
 70
     0
300
3/4" = 1'-0"
140
0.75
141
12.0
290
     0
  0
SCALE
  5
8A9A
102
{ACAD_REACTORS
330
8A8D
102
}
330
8A8D
100
AcDbScale
 70
     0
300
1" = 1'-0"
140
1.0
141
12.0
290
     0
  0
SCALE
  5
8A9B
102
{ACAD_REACTORS
330
8A8D
102
}
330
8A8D
100
AcDbScale
 70
     0
300
1-1/2" = 1'-0"
140
1.5
141
12.0
290
     0
  0
SCALE
  5
8A9C
102
{ACAD_REACTORS
330
8A8D
102
}
330
8A8D
100
AcDbScale
 70
     0
300
3" = 1'-0"
140
3.0
141
12.0
290
     0
  0
SCALE
  5
8A9D
102
{ACAD_REACTORS
330
8A8D
102
}
330
8A8D
100
AcDbScale
 70
     0
300
6" = 1'-0"
140
6.0
141
12.0
290
     0
  0
SCALE
  5
8A9E
102
{ACAD_REACTORS
330
8A8D
102
}
330
8A8D
100
AcDbScale
 70
     0
300
1'-0" = 1'-0"
140
12.0
141
12.0
290
     0
  0
ACDBSECTIONVIEWSTYLE
  5
8AA2
102
{ACAD_XDICTIONARY
360
1C247
102
}
102
{ACAD_REACTORS
330
8AA1
102
}
330
8AA1
100
AcDbModelDocViewStyle
 70
     0
  3
Imperial24
290
     0
100
AcDbSectionViewStyle
 70
     0
 71
     0
 90
       78
 71
     1
340
11
 62
   256
 40
0.24
340
0
340
0
 62
   256
 40
0.24
300
I, O, Q, S, X, Z
 40
0.48
 90
        3
 40
0.18
 90
        1
 71
     2
340
15
 90
       25
 62
   256
340
15
 90
       50
 62
   256
 40
0.24
 40
0.0
 40
0.24
 71
     3
340
11
 62
   256
 40
0.24
 90
        1
 40
0.75
 90
        1
300
%<\AcVar ViewType \f "%tc1">% %<\AcVar ViewSectionStartId>%-%<\AcVar ViewSectionEndId>%\PSCALE %<\AcVar ViewScale \f "%sn">%
 71
     4
 62
   256
 62
   257
300
ANSI31
 40
1.0
 90
        0
290
     0
290
     0
 90
        6
 40
0.0
 40
1.570796326794896
 40
0.2617993877991494
 40
1.308996938995747
 40
-0.2617993877991494
 40
1.832595714594044
  0
TABLESTYLE
  5
8A8C
102
{ACAD_XDICTIONARY
360
8AED
102
}
102
{ACAD_REACTORS
330
8A8B
102
}
330
8A8B
100
AcDbTableStyle
280
     0
  3
Standard
 70
     0
 71
     0
 40
0.06
 41
0.06
280
     0
281
     0
  7
STANDARD
140
0.18
170
     2
 62
     0
 63
     7
283
     0
 90
      512
 91
        0
  1

274
    -2
284
     1
 64
     0
275
    -2
285
     1
 65
     0
276
    -2
286
     1
 66
     0
277
    -2
287
     1
 67
     0
278
    -2
288
     1
 68
     0
279
    -2
289
     1
 69
     0
  7
STANDARD
140
0.25
170
     5
 62
     0
 63
     7
283
     0
 90
      512
 91
        0
  1

274
    -2
284
     1
 64
     0
275
    -2
285
     1
 65
     0
276
    -2
286
     1
 66
     0
277
    -2
287
     1
 67
     0
278
    -2
288
     1
 68
     0
279
    -2
289
     1
 69
     0
  7
STANDARD
140
0.18
170
     5
 62
     0
 63
     7
283
     0
 90
      512
 91
        0
  1

274
    -2
284
     1
 64
     0
275
    -2
285
     1
 65
     0
276
    -2
286
     1
 66
     0
277
    -2
287
     1
 67
     0
278
    -2
288
     1
 68
     0
279
    -2
289
     1
 69
     0
  0
VISUALSTYLE
  5
8A77
102
{ACAD_REACTORS
330
8A71
102
}
330
8A71
100
AcDbVisualStyle
  2
2dWireframe
 70
     4
177
     3
291
     0
 70
    58
 90
        0
176
     1
 90
        2
176
     1
 90
        0
176
     1
 90
        0
176
     1
 40
0.6
176
     1
 40
30.0
176
     1
 62
     7
420
 16777215
176
     1
 90
        1
176
     1
 90
        4
176
     1
 62
     7
176
     1
 62
   257
176
     1
 90
        1
176
     1
 90
        1
176
     1
 40
1.0
176
     1
 90
        0
176
     1
 62
   257
176
     1
 40
1.0
176
     1
 90
        1
176
     1
 90
        6
176
     1
 90
        2
176
     1
 62
     7
176
     1
 90
        5
176
     1
 90
        0
176
     1
 90
        0
176
     1
290
     0
176
     1
 90
        1
176
     1
 40
0.0
176
     1
 90
        0
176
     1
290
     1
176
     1
290
     1
176
     1
290
     0
176
     1
290
     0
176
     1
290
     0
176
     1
290
     0
176
     1
290
     0
176
     1
290
     0
176
     1
290
     0
176
     1
 90
       50
176
     1
 40
0.0
176
     1
 40
1.0
176
     1
 90
        0
176
     1
 62
    18
176
     1
 90
       50
176
     1
 90
        3
176
     1
 62
     5
420
      255
176
     1
290
     0
176
     1
 90
       50
176
     1
 90
       50
176
     1
 90
       50
176
     1
290
     0
176
     1
 90
       50
176
     1
 62
   256
176
     0
 40
1.0
176
     0
 90
        2
176
     1
  1
strokes_ogs.tif
176
     1
290
     0
176
     1
 40
1.0
176
     1
 40
1.0
176
     1
1001
ACAD
1000
AcDbSavedByObjectVersion
1070
     0
  0
VISUALSTYLE
  5
8B2B
102
{ACAD_REACTORS
330
8A71
102
}
330
8A71
100
AcDbVisualStyle
  2
3D Hidden
 70
     6
177
     3
291
     0
 70
    58
 90
        1
176
     1
 90
        2
176
     1
 90
        2
176
     1
 90
        0
176
     1
 40
0.6
176
     1
 40
30.0
176
     1
 62
     7
420
 16777215
176
     1
 90
        2
176
     1
 90
        2
176
     1
 62
     7
176
     1
 62
   257
176
     1
 90
        2
176
     1
 90
        1
176
     1
 40
179.0
176
     1
 90
        0
176
     1
 62
   257
176
     1
 40
1.0
176
     1
 90
        1
176
     1
 90
        6
176
     1
 90
        2
176
     1
 62
     7
176
     1
 90
        3
176
     1
 90
        0
176
     1
 90
        0
176
     1
290
     0
176
     1
 90
        1
176
     1
 40
0.0
176
     1
 90
        0
176
     1
290
     0
176
     1
290
     1
176
     1
290
     1
176
     1
290
     0
176
     1
290
     0
176
     1
290
     0
176
     1
290
     0
176
     1
290
     0
176
     1
290
     0
176
     1
 90
       50
176
     1
 40
0.0
176
     1
 40
1.0
176
     1
 90
        0
176
     1
 62
    18
176
     1
 90
       50
176
     1
 90
        3
176
     1
 62
     5
420
      255
176
     1
290
     0
176
     1
 90
       50
176
     1
 90
       50
176
     1
 90
       50
176
     1
290
     0
176
     1
 90
       50
176
     1
 62
   256
176
     0
 40
1.0
176
     0
 90
        2
176
     1
  1
strokes_ogs.tif
176
     1
290
     0
176
     1
 40
1.0
176
     1
 40
1.0
176
     1
1001
ACAD
1000
AcDbSavedByObjectVersion
1070
     0
  0
VISUALSTYLE
  5
8B2A
102
{ACAD_REACTORS
330
8A71
102
}
330
8A71
100
AcDbVisualStyle
  2
3dWireframe
 70
     5
177
     3
291
     0
 70
    58
 90
        0
176
     1
 90
        2
176
     1
 90
        0
176
     1
 90
        0
176
     1
 40
0.6
176
     1
 40
30.0
176
     1
 62
     7
420
 16777215
176
     1
 90
        1
176
     1
 90
        4
176
     1
 62
     7
176
     1
 62
   257
176
     1
 90
        1
176
     1
 90
        1
176
     1
 40
1.0
176
     1
 90
        0
176
     1
 62
   257
176
     1
 40
1.0
176
     1
 90
        1
176
     1
 90
        6
176
     1
 90
        2
176
     1
 62
     7
176
     1
 90
        5
176
     1
 90
        0
176
     1
 90
        0
176
     1
290
     0
176
     1
 90
        1
176
     1
 40
0.0
176
     1
 90
        0
176
     1
290
     0
176
     1
290
     1
176
     1
290
     1
176
     1
290
     0
176
     1
290
     0
176
     1
290
     0
176
     1
290
     0
176
     1
290
     0
176
     1
290
     0
176
     1
 90
       50
176
     1
 40
0.0
176
     1
 40
1.0
176
     1
 90
        0
176
     1
 62
    18
176
     1
 90
       50
176
     1
 90
        3
176
     1
 62
     5
420
      255
176
     1
290
     0
176
     1
 90
       50
176
     1
 90
       50
176
     1
 90
       50
176
     1
290
     0
176
     1
 90
       50
176
     1
 62
   256
176
     0
 40
1.0
176
     0
 90
        2
176
     1
  1
strokes_ogs.tif
176
     1
290
     0
176
     1
 40
1.0
176
     1
 40
1.0
176
     1
1001
ACAD
1000
AcDbSavedByObjectVersion
1070
     0
  0
VISUALSTYLE
  5
8A76
102
{ACAD_REACTORS
330
8A71
102
}
330
8A71
100
AcDbVisualStyle
  2
Basic
 70
     7
177
     3
291
     1
 70
    58
 90
        1
176
     1
 90
        0
176
     1
 90
        1
176
     1
 90
        0
176
     1
 40
0.6
176
     1
 40
30.0
176
     1
 62
     7
420
 16777215
176
     1
 90
        0
176
     1
 90
        4
176
     1
 62
     7
176
     1
 62
   257
176
     1
 90
        1
176
     1
 90
        1
176
     1
 40
1.0
176
     1
 90
        8
176
     1
 62
     7
176
     1
 40
1.0
176
     1
 90
        1
176
     1
 90
        6
176
     1
 90
        2
176
     1
 62
     7
176
     1
 90
        5
176
     1
 90
        0
176
     1
 90
        0
176
     1
290
     0
176
     1
 90
        1
176
     1
 40
0.0
176
     1
 90
        0
176
     1
290
     0
176
     1
290
     1
176
     1
290
     1
176
     1
290
     0
176
     1
290
     0
176
     1
290
     0
176
     1
290
     0
176
     1
290
     0
176
     1
290
     0
176
     1
 90
       50
176
     1
 40
0.0
176
     1
 40
1.0
176
     1
 90
        0
176
     1
 62
    18
176
     1
 90
       50
176
     1
 90
        3
176
     1
 62
     5
420
      255
176
     1
290
     0
176
     1
 90
       50
176
     1
 90
       50
176
     1
 90
       50
176
     1
290
     0
176
     1
 90
       50
176
     1
 62
   256
176
     0
 40
1.0
176
     0
 90
        2
176
     1
  1
strokes_ogs.tif
176
     1
290
     0
176
     1
 40
1.0
176
     1
 40
1.0
176
     1
1001
ACAD
1000
AcDbSavedByObjectVersion
1070
     0
  0
VISUALSTYLE
  5
8A7D
102
{ACAD_REACTORS
330
8A71
102
}
330
8A71
100
AcDbVisualStyle
  2
Brighten
 70
    12
177
     3
291
     1
 70
    58
 90
        2
176
     1
 90
        2
176
     1
 90
        0
176
     1
 90
        0
176
     1
 40
0.6
176
     1
 40
30.0
176
     1
 62
     7
420
 16777215
176
     1
 90
        1
176
     1
 90
        4
176
     1
 62
     7
176
     1
 62
   257
176
     1
 90
        1
176
     1
 90
        1
176
     1
 40
1.0
176
     1
 90
        8
176
     1
 62
     7
176
     1
 40
1.0
176
     1
 90
        1
176
     1
 90
        6
176
     1
 90
        2
176
     1
 62
     7
176
     1
 90
        5
176
     1
 90
        0
176
     1
 90
        0
176
     1
290
     0
176
     1
 90
        1
176
     1
 40
50.0
176
     1
 90
        0
176
     1
290
     0
176
     1
290
     1
176
     1
290
     1
176
     1
290
     0
176
     1
290
     0
176
     1
290
     0
176
     1
290
     0
176
     1
290
     0
176
     1
290
     0
176
     1
 90
       50
176
     1
 40
0.0
176
     1
 40
1.0
176
     1
 90
        0
176
     1
 62
    18
176
     1
 90
       50
176
     1
 90
        3
176
     1
 62
     5
420
      255
176
     1
290
     0
176
     1
 90
       50
176
     1
 90
       50
176
     1
 90
       50
176
     1
290
     0
176
     1
 90
       50
176
     1
 62
   256
176
     0
 40
1.0
176
     0
 90
        2
176
     1
  1
strokes_ogs.tif
176
     1
290
     0
176
     1
 40
1.0
176
     1
 40
1.0
176
     1
1001
ACAD
1000
AcDbSavedByObjectVersion
1070
     0
  0
VISUALSTYLE
  5
8A81
102
{ACAD_REACTORS
330
8A71
102
}
330
8A71
100
AcDbVisualStyle
  2
ColorChange
 70
    16
177
     3
291
     1
 70
    58
 90
        2
176
     1
 90
        2
176
     1
 90
        3
176
     1
 90
        0
176
     1
 40
0.6
176
     1
 40
30.0
176
     1
 62
     8
420
  8421504
176
     1
 90
        1
176
     1
 90
        4
176
     1
 62
     7
176
     1
 62
   257
176
     1
 90
        1
176
     1
 90
        1
176
     1
 40
1.0
176
     1
 90
        8
176
     1
 62
     8
420
  8421504
176
     1
 40
1.0
176
     1
 90
        1
176
     1
 90
        6
176
     1
 90
        2
176
     1
 62
     7
176
     1
 90
        5
176
     1
 90
        0
176
     1
 90
        0
176
     1
290
     0
176
     1
 90
        1
176
     1
 40
0.0
176
     1
 90
        0
176
     1
290
     0
176
     1
290
     1
176
     1
290
     1
176
     1
290
     0
176
     1
290
     0
176
     1
290
     0
176
     1
290
     0
176
     1
290
     0
176
     1
290
     0
176
     1
 90
       50
176
     1
 40
0.0
176
     1
 40
1.0
176
     1
 90
        0
176
     1
 62
    18
176
     1
 90
       50
176
     1
 90
        3
176
     1
 62
     5
420
      255
176
     1
290
     0
176
     1
 90
       50
176
     1
 90
       50
176
     1
 90
       50
176
     1
290
     0
176
     1
 90
       50
176
     1
 62
   256
176
     0
 40
1.0
176
     0
 90
        2
176
     1
  1
strokes_ogs.tif
176
     1
290
     0
176
     1
 40
1.0
176
     1
 40
1.0
176
     1
1001
ACAD
1000
AcDbSavedByObjectVersion
1070
     0
  0
VISUALSTYLE
  5
8A7A
102
{ACAD_REACTORS
330
8A71
102
}
330
8A71
100
AcDbVisualStyle
  2
Conceptual
 70
     9
177
     3
291
     0
 70
    58
 90
        3
176
     1
 90
        2
176
     1
 90
        0
176
     1
 90
        0
176
     1
 40
0.6
176
     1
 40
30.0
176
     1
 62
     7
420
 16777215
176
     1
 90
        2
176
     1
 90
        2
176
     1
 62
     7
176
     1
 62
   257
176
     1
 90
        1
176
     1
 90
        1
176
     1
 40
179.0
176
     1
 90
        8
176
     1
 62
     7
176
     1
 40
1.0
176
     1
 90
        1
176
     1
 90
        6
176
     1
 90
        2
176
     1
 62
     7
176
     1
 90
        3
176
     1
 90
        0
176
     1
 90
        0
176
     1
290
     0
176
     1
 90
        1
176
     1
 40
0.0
176
     1
 90
        0
176
     1
290
     0
176
     1
290
     1
176
     1
290
     1
176
     1
290
     0
176
     1
290
     0
176
     1
290
     0
176
     1
290
     0
176
     1
290
     0
176
     1
290
     0
176
     1
 90
       50
176
     1
 40
0.0
176
     1
 40
1.0
176
     1
 90
        0
176
     1
 62
    18
176
     1
 90
       50
176
     1
 90
        3
176
     1
 62
     5
420
      255
176
     1
290
     0
176
     1
 90
       50
176
     1
 90
       50
176
     1
 90
       50
176
     1
290
     0
176
     1
 90
       50
176
     1
 62
   256
176
     0
 40
1.0
176
     0
 90
        2
176
     1
  1
strokes_ogs.tif
176
     1
290
     0
176
     1
 40
1.0
176
     1
 40
1.0
176
     1
1001
ACAD
1000
AcDbSavedByObjectVersion
1070
     0
  0
VISUALSTYLE
  5
8A7C
102
{ACAD_REACTORS
330
8A71
102
}
330
8A71
100
AcDbVisualStyle
  2
Dim
 70
    11
177
     3
291
     1
 70
    58
 90
        2
176
     1
 90
        2
176
     1
 90
        0
176
     1
 90
        0
176
     1
 40
0.6
176
     1
 40
30.0
176
     1
 62
     7
420
 16777215
176
     1
 90
        1
176
     1
 90
        4
176
     1
 62
     7
176
     1
 62
   257
176
     1
 90
        1
176
     1
 90
        1
176
     1
 40
1.0
176
     1
 90
        8
176
     1
 62
     7
176
     1
 40
1.0
176
     1
 90
        1
176
     1
 90
        6
176
     1
 90
        2
176
     1
 62
     7
176
     1
 90
        5
176
     1
 90
        0
176
     1
 90
        0
176
     1
290
     0
176
     1
 90
        1
176
     1
 40
-50.0
176
     1
 90
        0
176
     1
290
     0
176
     1
290
     1
176
     1
290
     1
176
     1
290
     0
176
     1
290
     0
176
     1
290
     0
176
     1
290
     0
176
     1
290
     0
176
     1
290
     0
176
     1
 90
       50
176
     1
 40
0.0
176
     1
 40
1.0
176
     1
 90
        0
176
     1
 62
    18
176
     1
 90
       50
176
     1
 90
        3
176
     1
 62
     5
420
      255
176
     1
290
     0
176
     1
 90
       50
176
     1
 90
       50
176
     1
 90
       50
176
     1
290
     0
176
     1
 90
       50
176
     1
 62
   256
176
     0
 40
1.0
176
     0
 90
        2
176
     1
  1
strokes_ogs.tif
176
     1
290
     0
176
     1
 40
1.0
176
     1
 40
1.0
176
     1
1001
ACAD
1000
AcDbSavedByObjectVersion
1070
     0
  0
VISUALSTYLE
  5
8A89
102
{ACAD_REACTORS
330
8A71
102
}
330
8A71
100
AcDbVisualStyle
  2
EdgeColorOff
 70
    22
177
     3
291
     1
 70
    58
 90
        2
176
     0
 90
        2
176
     0
 90
        0
176
     0
 90
        0
176
     0
 40
0.6
176
     0
 40
30.0
176
     0
 62
     7
420
 16777215
176
     0
 90
        1
176
     0
 90
        4
176
     0
 62
     7
176
     0
 62
   257
176
     0
 90
        1
176
     0
 90
        1
176
     0
 40
1.0
176
     0
 90
        8
176
     2
 62
     7
176
     0
 40
1.0
176
     0
 90
        1
176
     0
 90
        6
176
     0
 90
        2
176
     0
 62
     7
176
     0
 90
        5
176
     0
 90
        0
176
     0
 90
        0
176
     0
290
     0
176
     0
 90
        1
176
     0
 40
0.0
176
     0
 90
        0
176
     0
290
     0
176
     1
290
     1
176
     1
290
     1
176
     1
290
     0
176
     1
290
     0
176
     1
290
     0
176
     1
290
     0
176
     1
290
     0
176
     1
290
     0
176
     1
 90
       50
176
     0
 40
0.0
176
     0
 40
1.0
176
     0
 90
        0
176
     0
 62
    18
176
     0
 90
       50
176
     0
 90
        3
176
     0
 62
     5
420
      255
176
     0
290
     0
176
     1
 90
       50
176
     0
 90
       50
176
     0
 90
       50
176
     0
290
     0
176
     1
 90
       50
176
     0
 62
   256
176
     0
 40
1.0
176
     0
 90
        2
176
     0
  1
strokes_ogs.tif
176
     0
290
     0
176
     1
 40
1.0
176
     0
 40
1.0
176
     0
1001
ACAD
1000
AcDbSavedByObjectVersion
1070
     0
  0
VISUALSTYLE
  5
8A80
102
{ACAD_REACTORS
330
8A71
102
}
330
8A71
100
AcDbVisualStyle
  2
Facepattern
 70
    15
177
     3
291
     1
 70
    58
 90
        2
176
     1
 90
        2
176
     1
 90
        0
176
     1
 90
        0
176
     1
 40
0.6
176
     1
 40
30.0
176
     1
 62
     7
420
 16777215
176
     1
 90
        1
176
     1
 90
        4
176
     1
 62
     7
176
     1
 62
   257
176
     1
 90
        1
176
     1
 90
        1
176
     1
 40
1.0
176
     1
 90
        8
176
     1
 62
     7
176
     1
 40
1.0
176
     1
 90
        1
176
     1
 90
        6
176
     1
 90
        2
176
     1
 62
     7
176
     1
 90
        5
176
     1
 90
        0
176
     1
 90
        0
176
     1
290
     0
176
     1
 90
        1
176
     1
 40
0.0
176
     1
 90
        0
176
     1
290
     0
176
     1
290
     1
176
     1
290
     1
176
     1
290
     0
176
     1
290
     0
176
     1
290
     0
176
     1
290
     0
176
     1
290
     0
176
     1
290
     0
176
     1
 90
       50
176
     1
 40
0.0
176
     1
 40
1.0
176
     1
 90
        0
176
     1
 62
    18
176
     1
 90
       50
176
     1
 90
        3
176
     1
 62
     5
420
      255
176
     1
290
     0
176
     1
 90
       50
176
     1
 90
       50
176
     1
 90
       50
176
     1
290
     0
176
     1
 90
       50
176
     1
 62
   256
176
     0
 40
1.0
176
     0
 90
        2
176
     1
  1
strokes_ogs.tif
176
     1
290
     0
176
     1
 40
1.0
176
     1
 40
1.0
176
     1
1001
ACAD
1000
AcDbSavedByObjectVersion
1070
     0
  0
VISUALSTYLE
  5
8A72
102
{ACAD_REACTORS
330
8A71
102
}
330
8A71
100
AcDbVisualStyle
  2
Flat
 70
     0
177
     3
291
     1
 70
    58
 90
        2
176
     1
 90
        1
176
     1
 90
        1
176
     1
 90
        2
176
     1
 40
0.6
176
     1
 40
30.0
176
     1
 62
     7
420
 16777215
176
     1
 90
        0
176
     1
 90
        0
176
     1
 62
     7
176
     1
 62
   257
176
     1
 90
        1
176
     1
 90
        1
176
     1
 40
1.0
176
     1
 90
        8
176
     1
 62
     7
176
     1
 40
1.0
176
     1
 90
        1
176
     1
 90
        6
176
     1
 90
        2
176
     1
 62
     7
176
     1
 90
        5
176
     1
 90
        0
176
     1
 90
        0
176
     1
290
     0
176
     1
 90
       13
176
     1
 40
0.0
176
     1
 90
        0
176
     1
290
     0
176
     1
290
     1
176
     1
290
     1
176
     1
290
     0
176
     1
290
     0
176
     1
290
     0
176
     1
290
     0
176
     1
290
     0
176
     1
290
     0
176
     1
 90
       50
176
     1
 40
0.0
176
     1
 40
1.0
176
     1
 90
        0
176
     1
 62
    18
176
     1
 90
       50
176
     1
 90
        3
176
     1
 62
     5
420
      255
176
     1
290
     0
176
     1
 90
       50
176
     1
 90
       50
176
     1
 90
       50
176
     1
290
     0
176
     1
 90
       50
176
     1
 62
   256
176
     0
 40
1.0
176
     0
 90
        2
176
     1
  1
strokes_ogs.tif
176
     1
290
     0
176
     1
 40
1.0
176
     1
 40
1.0
176
     1
1001
ACAD
1000
AcDbSavedByObjectVersion
1070
     0
  0
VISUALSTYLE
  5
8A73
102
{ACAD_REACTORS
330
8A71
102
}
330
8A71
100
AcDbVisualStyle
  2
FlatWithEdges
 70
     1
177
     3
291
     1
 70
    58
 90
        2
176
     1
 90
        1
176
     1
 90
        1
176
     1
 90
        2
176
     1
 40
0.6
176
     1
 40
30.0
176
     1
 62
     7
420
 16777215
176
     1
 90
        1
176
     1
 90
        0
176
     1
 62
     7
176
     1
 62
   257
176
     1
 90
        1
176
     1
 90
        1
176
     1
 40
1.0
176
     1
 90
        0
176
     1
 62
   257
176
     1
 40
1.0
176
     1
 90
        1
176
     1
 90
        6
176
     1
 90
        2
176
     1
 62
     7
176
     1
 90
        5
176
     1
 90
        0
176
     1
 90
        0
176
     1
290
     0
176
     1
 90
       13
176
     1
 40
0.0
176
     1
 90
        0
176
     1
290
     0
176
     1
290
     1
176
     1
290
     1
176
     1
290
     0
176
     1
290
     0
176
     1
290
     0
176
     1
290
     0
176
     1
290
     0
176
     1
290
     0
176
     1
 90
       50
176
     1
 40
0.0
176
     1
 40
1.0
176
     1
 90
        0
176
     1
 62
    18
176
     1
 90
       50
176
     1
 90
        3
176
     1
 62
     5
420
      255
176
     1
290
     0
176
     1
 90
       50
176
     1
 90
       50
176
     1
 90
       50
176
     1
290
     0
176
     1
 90
       50
176
     1
 62
   256
176
     0
 40
1.0
176
     0
 90
        2
176
     1
  1
strokes_ogs.tif
176
     1
290
     0
176
     1
 40
1.0
176
     1
 40
1.0
176
     1
1001
ACAD
1000
AcDbSavedByObjectVersion
1070
     0
  0
VISUALSTYLE
  5
8A74
102
{ACAD_REACTORS
330
8A71
102
}
330
8A71
100
AcDbVisualStyle
  2
Gouraud
 70
     2
177
     3
291
     1
 70
    58
 90
        2
176
     1
 90
        2
176
     1
 90
        1
176
     1
 90
        2
176
     1
 40
0.6
176
     1
 40
30.0
176
     1
 62
     7
420
 16777215
176
     1
 90
        0
176
     1
 90
        0
176
     1
 62
     7
176
     1
 62
   257
176
     1
 90
        1
176
     1
 90
        1
176
     1
 40
1.0
176
     1
 90
        0
176
     1
 62
     7
176
     1
 40
1.0
176
     1
 90
        1
176
     1
 90
        6
176
     1
 90
        2
176
     1
 62
     7
176
     1
 90
        5
176
     1
 90
        0
176
     1
 90
        0
176
     1
290
     0
176
     1
 90
       13
176
     1
 40
0.0
176
     1
 90
        0
176
     1
290
     0
176
     1
290
     1
176
     1
290
     1
176
     1
290
     0
176
     1
290
     0
176
     1
290
     0
176
     1
290
     0
176
     1
290
     0
176
     1
290
     0
176
     1
 90
       50
176
     1
 40
0.0
176
     1
 40
1.0
176
     1
 90
        0
176
     1
 62
    18
176
     1
 90
       50
176
     1
 90
        3
176
     1
 62
     5
420
      255
176
     1
290
     0
176
     1
 90
       50
176
     1
 90
       50
176
     1
 90
       50
176
     1
290
     0
176
     1
 90
       50
176
     1
 62
   256
176
     0
 40
1.0
176
     0
 90
        2
176
     1
  1
strokes_ogs.tif
176
     1
290
     0
176
     1
 40
1.0
176
     1
 40
1.0
176
     1
1001
ACAD
1000
AcDbSavedByObjectVersion
1070
     0
  0
VISUALSTYLE
  5
8A75
102
{ACAD_REACTORS
330
8A71
102
}
330
8A71
100
AcDbVisualStyle
  2
GouraudWithEdges
 70
     3
177
     3
291
     1
 70
    58
 90
        2
176
     1
 90
        2
176
     1
 90
        1
176
     1
 90
        2
176
     1
 40
0.6
176
     1
 40
30.0
176
     1
 62
     7
420
 16777215
176
     1
 90
        1
176
     1
 90
        0
176
     1
 62
     7
176
     1
 62
   257
176
     1
 90
        1
176
     1
 90
        1
176
     1
 40
1.0
176
     1
 90
        0
176
     1
 62
   257
176
     1
 40
1.0
176
     1
 90
        1
176
     1
 90
        6
176
     1
 90
        2
176
     1
 62
     7
176
     1
 90
        5
176
     1
 90
        0
176
     1
 90
        0
176
     1
290
     0
176
     1
 90
       13
176
     1
 40
0.0
176
     1
 90
        0
176
     1
290
     0
176
     1
290
     1
176
     1
290
     1
176
     1
290
     0
176
     1
290
     0
176
     1
290
     0
176
     1
290
     0
176
     1
290
     0
176
     1
290
     0
176
     1
 90
       50
176
     1
 40
0.0
176
     1
 40
1.0
176
     1
 90
        0
176
     1
 62
    18
176
     1
 90
       50
176
     1
 90
        3
176
     1
 62
     5
420
      255
176
     1
290
     0
176
     1
 90
       50
176
     1
 90
       50
176
     1
 90
       50
176
     1
290
     0
176
     1
 90
       50
176
     1
 62
   256
176
     0
 40
1.0
176
     0
 90
        2
176
     1
  1
strokes_ogs.tif
176
     1
290
     0
176
     1
 40
1.0
176
     1
 40
1.0
176
     1
1001
ACAD
1000
AcDbSavedByObjectVersion
1070
     0
  0
VISUALSTYLE
  5
8A79
102
{ACAD_REACTORS
330
8A71
102
}
330
8A71
100
AcDbVisualStyle
  2
Hidden
 70
     6
177
     3
291
     0
 70
    58
 90
        1
176
     1
 90
        2
176
     1
 90
        2
176
     1
 90
        0
176
     1
 40
0.6
176
     1
 40
30.0
176
     1
 62
     7
420
 16777215
176
     1
 90
        2
176
     1
 90
        2
176
     1
 62
     7
176
     1
 62
   257
176
     1
 90
        2
176
     1
 90
        1
176
     1
 40
40.0
176
     1
 90
        0
176
     1
 62
   257
176
     1
 40
1.0
176
     1
 90
        1
176
     1
 90
        6
176
     1
 90
        2
176
     1
 62
     7
176
     1
 90
        3
176
     1
 90
        0
176
     1
 90
        0
176
     1
290
     0
176
     1
 90
        1
176
     1
 40
0.0
176
     1
 90
        0
176
     1
290
     0
176
     1
290
     1
176
     1
290
     1
176
     1
290
     0
176
     1
290
     0
176
     1
290
     0
176
     1
290
     0
176
     1
290
     0
176
     1
290
     0
176
     1
 90
       50
176
     1
 40
0.0
176
     1
 40
1.0
176
     1
 90
        0
176
     1
 62
    18
176
     1
 90
       50
176
     1
 90
        3
176
     1
 62
     5
420
      255
176
     1
290
     0
176
     1
 90
       50
176
     1
 90
       50
176
     1
 90
       50
176
     1
290
     0
176
     1
 90
       50
176
     1
 62
   256
176
     0
 40
1.0
176
     0
 90
        2
176
     1
  1
strokes_ogs.tif
176
     1
290
     0
176
     1
 40
1.0
176
     1
 40
1.0
176
     1
1001
ACAD
1000
AcDbSavedByObjectVersion
1070
     0
  0
VISUALSTYLE
  5
8A87
102
{ACAD_REACTORS
330
8A71
102
}
330
8A71
100
AcDbVisualStyle
  2
JitterOff
 70
    20
177
     3
291
     1
 70
    58
 90
        2
176
     0
 90
        2
176
     0
 90
        0
176
     0
 90
        0
176
     0
 40
0.6
176
     0
 40
30.0
176
     0
 62
     7
420
 16777215
176
     0
 90
        1
176
     0
 90
        4
176
     0
 62
     7
176
     0
 62
   257
176
     0
 90
        1
176
     0
 90
        1
176
     0
 40
1.0
176
     0
 90
       10
176
     2
 62
     7
176
     0
 40
1.0
176
     0
 90
        1
176
     0
 90
        6
176
     0
 90
        2
176
     0
 62
     7
176
     0
 90
        5
176
     0
 90
        0
176
     0
 90
        0
176
     0
290
     0
176
     0
 90
        1
176
     0
 40
0.0
176
     0
 90
        0
176
     0
290
     0
176
     1
290
     1
176
     1
290
     1
176
     1
290
     0
176
     1
290
     0
176
     1
290
     0
176
     1
290
     0
176
     1
290
     0
176
     1
290
     0
176
     1
 90
       50
176
     0
 40
0.0
176
     0
 40
1.0
176
     0
 90
        0
176
     0
 62
    18
176
     0
 90
       50
176
     0
 90
        3
176
     0
 62
     5
420
      255
176
     0
290
     0
176
     1
 90
       50
176
     0
 90
       50
176
     0
 90
       50
176
     0
290
     0
176
     1
 90
       50
176
     0
 62
   256
176
     0
 40
1.0
176
     0
 90
        2
176
     0
  1
strokes_ogs.tif
176
     0
290
     0
176
     1
 40
1.0
176
     0
 40
1.0
176
     0
1001
ACAD
1000
AcDbSavedByObjectVersion
1070
     0
  0
VISUALSTYLE
  5
8A7F
102
{ACAD_REACTORS
330
8A71
102
}
330
8A71
100
AcDbVisualStyle
  2
Linepattern
 70
    14
177
     3
291
     1
 70
    58
 90
        2
176
     1
 90
        2
176
     1
 90
        0
176
     1
 90
        0
176
     1
 40
0.6
176
     1
 40
30.0
176
     1
 62
     7
420
 16777215
176
     1
 90
        1
176
     1
 90
        4
176
     1
 62
     7
176
     1
 62
   257
176
     1
 90
        7
176
     1
 90
        7
176
     1
 40
1.0
176
     1
 90
        8
176
     1
 62
     7
176
     1
 40
1.0
176
     1
 90
        1
176
     1
 90
        6
176
     1
 90
        2
176
     1
 62
     7
176
     1
 90
        5
176
     1
 90
        0
176
     1
 90
        0
176
     1
290
     0
176
     1
 90
        1
176
     1
 40
0.0
176
     1
 90
        0
176
     1
290
     0
176
     1
290
     1
176
     1
290
     1
176
     1
290
     0
176
     1
290
     0
176
     1
290
     0
176
     1
290
     0
176
     1
290
     0
176
     1
290
     0
176
     1
 90
       50
176
     1
 40
0.0
176
     1
 40
1.0
176
     1
 90
        0
176
     1
 62
    18
176
     1
 90
       50
176
     1
 90
        3
176
     1
 62
     5
420
      255
176
     1
290
     0
176
     1
 90
       50
176
     1
 90
       50
176
     1
 90
       50
176
     1
290
     0
176
     1
 90
       50
176
     1
 62
   256
176
     0
 40
1.0
176
     0
 90
        2
176
     1
  1
strokes_ogs.tif
176
     1
290
     0
176
     1
 40
1.0
176
     1
 40
1.0
176
     1
1001
ACAD
1000
AcDbSavedByObjectVersion
1070
     0
  0
VISUALSTYLE
  5
8A88
102
{ACAD_REACTORS
330
8A71
102
}
330
8A71
100
AcDbVisualStyle
  2
OverhangOff
 70
    21
177
     3
291
     1
 70
    58
 90
        2
176
     0
 90
        2
176
     0
 90
        0
176
     0
 90
        0
176
     0
 40
0.6
176
     0
 40
30.0
176
     0
 62
     7
420
 16777215
176
     0
 90
        1
176
     0
 90
        4
176
     0
 62
     7
176
     0
 62
   257
176
     0
 90
        1
176
     0
 90
        1
176
     0
 40
1.0
176
     0
 90
        9
176
     2
 62
     7
176
     0
 40
1.0
176
     0
 90
        1
176
     0
 90
        6
176
     0
 90
        2
176
     0
 62
     7
176
     0
 90
        5
176
     0
 90
        0
176
     0
 90
        0
176
     0
290
     0
176
     0
 90
        1
176
     0
 40
0.0
176
     0
 90
        0
176
     0
290
     0
176
     1
290
     1
176
     1
290
     1
176
     1
290
     0
176
     1
290
     0
176
     1
290
     0
176
     1
290
     0
176
     1
290
     0
176
     1
290
     0
176
     1
 90
       50
176
     0
 40
0.0
176
     0
 40
1.0
176
     0
 90
        0
176
     0
 62
    18
176
     0
 90
       50
176
     0
 90
        3
176
     0
 62
     5
420
      255
176
     0
290
     0
176
     1
 90
       50
176
     0
 90
       50
176
     0
 90
       50
176
     0
290
     0
176
     1
 90
       50
176
     0
 62
   256
176
     0
 40
1.0
176
     0
 90
        2
176
     0
  1
strokes_ogs.tif
176
     0
290
     0
176
     1
 40
1.0
176
     0
 40
1.0
176
     0
1001
ACAD
1000
AcDbSavedByObjectVersion
1070
     0
  0
VISUALSTYLE
  5
8A7B
102
{ACAD_REACTORS
330
8A71
102
}
330
8A71
100
AcDbVisualStyle
  2
Realistic
 70
     8
177
     3
291
     0
 70
    58
 90
        2
176
     1
 90
        3
176
     1
 90
        0
176
     1
 90
        2
176
     1
 40
0.6
176
     1
 40
30.0
176
     1
 62
     7
420
 16777215
176
     1
 90
        0
176
     1
 90
        0
176
     1
 62
     7
176
     1
 62
   257
176
     1
 90
        1
176
     1
 90
        1
176
     1
 40
1.0
176
     1
 90
        8
176
     1
 62
   257
176
     1
 40
1.0
176
     1
 90
        1
176
     1
 90
        6
176
     1
 90
        2
176
     1
 62
     7
176
     1
 90
        3
176
     1
 90
        0
176
     1
 90
        0
176
     1
290
     0
176
     1
 90
       13
176
     1
 40
0.0
176
     1
 90
        0
176
     1
290
     0
176
     1
290
     1
176
     1
290
     1
176
     1
290
     0
176
     1
290
     0
176
     1
290
     0
176
     1
290
     0
176
     1
290
     0
176
     1
290
     0
176
     1
 90
       50
176
     1
 40
0.0
176
     1
 40
1.0
176
     1
 90
        0
176
     1
 62
    18
176
     1
 90
       50
176
     1
 90
        3
176
     1
 62
     5
420
      255
176
     1
290
     0
176
     1
 90
       50
176
     1
 90
       50
176
     1
 90
       50
176
     1
290
     0
176
     1
 90
       50
176
     1
 62
   256
176
     0
 40
1.0
176
     0
 90
        2
176
     1
  1
strokes_ogs.tif
176
     1
290
     0
176
     1
 40
1.0
176
     1
 40
1.0
176
     1
1001
ACAD
1000
AcDbSavedByObjectVersion
1070
     0
  0
VISUALSTYLE
  5
8A86
102
{ACAD_REACTORS
330
8A71
102
}
330
8A71
100
AcDbVisualStyle
  2
Shaded
 70
    27
177
     3
291
     0
 70
    58
 90
        2
176
     1
 90
        2
176
     1
 90
        1
176
     1
 90
        2
176
     1
 40
0.6
176
     1
 40
30.0
176
     1
 62
     7
420
 16777215
176
     1
 90
        0
176
     1
 90
        4
176
     1
 62
     7
176
     1
 62
   257
176
     1
 90
        1
176
     1
 90
        1
176
     1
 40
1.0
176
     1
 90
        8
176
     1
 62
   257
176
     1
 40
1.0
176
     1
 90
        1
176
     1
 90
        6
176
     1
 90
        2
176
     1
 62
     8
420
  7895160
176
     1
 90
        3
176
     1
 90
        0
176
     1
 90
        0
176
     1
290
     0
176
     1
 90
        5
176
     1
 40
0.0
176
     1
 90
        0
176
     1
290
     0
176
     1
290
     1
176
     1
290
     1
176
     1
290
     0
176
     1
290
     0
176
     1
290
     0
176
     1
290
     0
176
     1
290
     0
176
     1
290
     0
176
     1
 90
       50
176
     1
 40
0.0
176
     1
 40
1.0
176
     1
 90
        0
176
     1
 62
    18
176
     1
 90
       50
176
     1
 90
        3
176
     1
 62
     5
420
      255
176
     1
290
     0
176
     1
 90
       50
176
     1
 90
       50
176
     1
 90
       50
176
     1
290
     0
176
     1
 90
       50
176
     1
 62
   256
176
     0
 40
1.0
176
     0
 90
        2
176
     1
  1
strokes_ogs.tif
176
     1
290
     0
176
     1
 40
1.0
176
     1
 40
1.0
176
     1
1001
ACAD
1000
AcDbSavedByObjectVersion
1070
     0
  0
VISUALSTYLE
  5
8A85
102
{ACAD_REACTORS
330
8A71
102
}
330
8A71
100
AcDbVisualStyle
  2
Shaded with edges
 70
    26
177
     3
291
     0
 70
    58
 90
        2
176
     1
 90
        2
176
     1
 90
        1
176
     1
 90
        2
176
     1
 40
0.6
176
     1
 40
30.0
176
     1
 62
     7
420
 16777215
176
     1
 90
        1
176
     1
 90
       10
176
     1
 62
     7
176
     1
 62
   257
176
     1
 90
        2
176
     1
 90
        1
176
     1
 40
1.0
176
     1
 90
        8
176
     1
 62
   257
176
     1
 40
1.0
176
     1
 90
        1
176
     1
 90
        6
176
     1
 90
        2
176
     1
 62
     7
176
     1
 90
        3
176
     1
 90
        0
176
     1
 90
        0
176
     1
290
     0
176
     1
 90
        5
176
     1
 40
0.0
176
     1
 90
        0
176
     1
290
     0
176
     1
290
     1
176
     1
290
     1
176
     1
290
     0
176
     1
290
     0
176
     1
290
     0
176
     1
290
     0
176
     1
290
     0
176
     1
290
     0
176
     1
 90
       50
176
     1
 40
0.0
176
     1
 40
1.0
176
     1
 90
        0
176
     1
 62
    18
176
     1
 90
       50
176
     1
 90
        3
176
     1
 62
     5
420
      255
176
     1
290
     0
176
     1
 90
       50
176
     1
 90
       50
176
     1
 90
       50
176
     1
290
     0
176
     1
 90
       50
176
     1
 62
   256
176
     0
 40
1.0
176
     0
 90
        2
176
     1
  1
strokes_ogs.tif
176
     1
290
     0
176
     1
 40
1.0
176
     1
 40
1.0
176
     1
1001
ACAD
1000
AcDbSavedByObjectVersion
1070
     0
  0
VISUALSTYLE
  5
8A82
102
{ACAD_REACTORS
330
8A71
102
}
330
8A71
100
AcDbVisualStyle
  2
Shades of Gray
 70
    23
177
     3
291
     0
 70
    58
 90
        2
176
     1
 90
        2
176
     1
 90
        3
176
     1
 90
        0
176
     1
 40
0.6
176
     1
 40
30.0
176
     1
 62
     7
420
 16777215
176
     1
 90
        2
176
     1
 90
        2
176
     1
 62
     7
176
     1
 62
     7
176
     1
 90
        1
176
     1
 90
        1
176
     1
 40
40.0
176
     1
 90
        8
176
     1
 62
     7
176
     1
 40
1.0
176
     1
 90
        1
176
     1
 90
        6
176
     1
 90
        2
176
     1
 62
     7
176
     1
 90
        3
176
     1
 90
        0
176
     1
 90
        0
176
     1
290
     0
176
     1
 90
        1
176
     1
 40
0.0
176
     1
 90
        0
176
     1
290
     0
176
     1
290
     1
176
     1
290
     1
176
     1
290
     0
176
     1
290
     0
176
     1
290
     0
176
     1
290
     0
176
     1
290
     0
176
     1
290
     0
176
     1
 90
       50
176
     1
 40
0.0
176
     1
 40
1.0
176
     1
 90
        0
176
     1
 62
    18
176
     1
 90
       50
176
     1
 90
        3
176
     1
 62
     5
420
      255
176
     1
290
     0
176
     1
 90
       50
176
     1
 90
       50
176
     1
 90
       50
176
     1
290
     0
176
     1
 90
       50
176
     1
 62
   256
176
     0
 40
1.0
176
     0
 90
        2
176
     1
  1
strokes_ogs.tif
176
     1
290
     0
176
     1
 40
1.0
176
     1
 40
1.0
176
     1
1001
ACAD
1000
AcDbSavedByObjectVersion
1070
     0
  0
VISUALSTYLE
  5
8A83
102
{ACAD_REACTORS
330
8A71
102
}
330
8A71
100
AcDbVisualStyle
  2
Sketchy
 70
    24
177
     3
291
     0
 70
    58
 90
        1
176
     1
 90
        2
176
     1
 90
        2
176
     1
 90
        0
176
     1
 40
0.6
176
     1
 40
30.0
176
     1
 62
     7
420
 16777215
176
     1
 90
        2
176
     1
 90
        2
176
     1
 62
     7
176
     1
 62
     7
176
     1
 90
        1
176
     1
 90
        1
176
     1
 40
40.0
176
     1
 90
       11
176
     1
 62
     7
176
     1
 40
1.0
176
     1
 90
        1
176
     1
 90
        6
176
     1
 90
        2
176
     1
 62
     7
176
     1
 90
        6
176
     1
 90
        0
176
     1
 90
        0
176
     1
290
     0
176
     1
 90
        1
176
     1
 40
0.0
176
     1
 90
        0
176
     1
290
     0
176
     1
290
     1
176
     1
290
     1
176
     1
290
     0
176
     1
290
     0
176
     1
290
     0
176
     1
290
     0
176
     1
290
     0
176
     1
290
     0
176
     1
 90
       50
176
     1
 40
0.0
176
     1
 40
1.0
176
     1
 90
        0
176
     1
 62
    18
176
     1
 90
       50
176
     1
 90
        3
176
     1
 62
     5
420
      255
176
     1
290
     0
176
     1
 90
       50
176
     1
 90
       50
176
     1
 90
       50
176
     1
290
     0
176
     1
 90
       50
176
     1
 62
   256
176
     0
 40
1.0
176
     0
 90
        2
176
     1
  1
strokes_ogs.tif
176
     1
290
     0
176
     1
 40
1.0
176
     1
 40
1.0
176
     1
1001
ACAD
1000
AcDbSavedByObjectVersion
1070
     0
  0
VISUALSTYLE
  5
8A7E
102
{ACAD_REACTORS
330
8A71
102
}
330
8A71
100
AcDbVisualStyle
  2
Thicken
 70
    13
177
     3
291
     1
 70
    58
 90
        2
176
     1
 90
        2
176
     1
 90
        0
176
     1
 90
        0
176
     1
 40
0.6
176
     1
 40
30.0
176
     1
 62
     7
420
 16777215
176
     1
 90
        1
176
     1
 90
        4
176
     1
 62
     7
176
     1
 62
   257
176
     1
 90
        1
176
     1
 90
        1
176
     1
 40
1.0
176
     1
 90
       12
176
     1
 62
     7
176
     1
 40
1.0
176
     1
 90
        1
176
     1
 90
        6
176
     1
 90
        2
176
     1
 62
     7
176
     1
 90
        5
176
     1
 90
        0
176
     1
 90
        0
176
     1
290
     0
176
     1
 90
        1
176
     1
 40
0.0
176
     1
 90
        0
176
     1
290
     0
176
     1
290
     1
176
     1
290
     1
176
     1
290
     0
176
     1
290
     0
176
     1
290
     0
176
     1
290
     0
176
     1
290
     0
176
     1
290
     0
176
     1
 90
       50
176
     1
 40
0.0
176
     1
 40
1.0
176
     1
 90
        0
176
     1
 62
    18
176
     1
 90
       50
176
     1
 90
        3
176
     1
 62
     5
420
      255
176
     1
290
     0
176
     1
 90
       50
176
     1
 90
       50
176
     1
 90
       50
176
     1
290
     0
176
     1
 90
       50
176
     1
 62
   256
176
     0
 40
1.0
176
     0
 90
        2
176
     1
  1
strokes_ogs.tif
176
     1
290
     0
176
     1
 40
1.0
176
     1
 40
1.0
176
     1
1001
ACAD
1000
AcDbSavedByObjectVersion
1070
     0
  0
VISUALSTYLE
  5
8A78
102
{ACAD_REACTORS
330
8A71
102
}
330
8A71
100
AcDbVisualStyle
  2
Wireframe
 70
     5
177
     3
291
     0
 70
    58
 90
        0
176
     1
 90
        2
176
     1
 90
        0
176
     1
 90
        0
176
     1
 40
0.6
176
     1
 40
30.0
176
     1
 62
     7
420
 16777215
176
     1
 90
        1
176
     1
 90
        4
176
     1
 62
     7
176
     1
 62
   257
176
     1
 90
        1
176
     1
 90
        1
176
     1
 40
1.0
176
     1
 90
        0
176
     1
 62
   257
176
     1
 40
1.0
176
     1
 90
        1
176
     1
 90
        6
176
     1
 90
        2
176
     1
 62
     7
176
     1
 90
        3
176
     1
 90
        0
176
     1
 90
        0
176
     1
290
     0
176
     1
 90
        1
176
     1
 40
0.0
176
     1
 90
        0
176
     1
290
     0
176
     1
290
     1
176
     1
290
     1
176
     1
290
     0
176
     1
290
     0
176
     1
290
     0
176
     1
290
     0
176
     1
290
     0
176
     1
290
     0
176
     1
 90
       50
176
     1
 40
0.0
176
     1
 40
1.0
176
     1
 90
        0
176
     1
 62
    18
176
     1
 90
       50
176
     1
 90
        3
176
     1
 62
     5
420
      255
176
     1
290
     0
176
     1
 90
       50
176
     1
 90
       50
176
     1
 90
       50
176
     1
290
     0
176
     1
 90
       50
176
     1
 62
   256
176
     0
 40
1.0
176
     0
 90
        2
176
     1
  1
strokes_ogs.tif
176
     1
290
     0
176
     1
 40
1.0
176
     1
 40
1.0
176
     1
1001
ACAD
1000
AcDbSavedByObjectVersion
1070
     0
  0
VISUALSTYLE
  5
8A84
102
{ACAD_REACTORS
330
8A71
102
}
330
8A71
100
AcDbVisualStyle
  2
X-Ray
 70
    25
177
     3
291
     0
 70
    58
 90
        2
176
     1
 90
        2
176
     1
 90
        1
176
     1
 90
        1
176
     1
 40
0.5
176
     1
 40
30.0
176
     1
 62
     7
420
 16777215
176
     1
 90
        1
176
     1
 90
        0
176
     1
 62
     7
176
     1
 62
   257
176
     1
 90
        1
176
     1
 90
        1
176
     1
 40
1.0
176
     1
 90
        8
176
     1
 62
     7
176
     1
 40
1.0
176
     1
 90
        1
176
     1
 90
        6
176
     1
 90
        2
176
     1
 62
     7
176
     1
 90
        3
176
     1
 90
        0
176
     1
 90
        0
176
     1
290
     0
176
     1
 90
       13
176
     1
 40
0.0
176
     1
 90
        0
176
     1
290
     0
176
     1
290
     1
176
     1
290
     1
176
     1
290
     0
176
     1
290
     0
176
     1
290
     0
176
     1
290
     0
176
     1
290
     0
176
     1
290
     0
176
     1
 90
       50
176
     1
 40
0.0
176
     1
 40
1.0
176
     1
 90
        0
176
     1
 62
    18
176
     1
 90
       50
176
     1
 90
        3
176
     1
 62
     5
420
      255
176
     1
290
     0
176
     1
 90
       50
176
     1
 90
       50
176
     1
 90
       50
176
     1
290
     0
176
     1
 90
       50
176
     1
 62
   256
176
     0
 40
1.0
176
     0
 90
        2
176
     1
  1
strokes_ogs.tif
176
     1
290
     0
176
     1
 40
1.0
176
     1
 40
1.0
176
     1
1001
ACAD
1000
AcDbSavedByObjectVersion
1070
     0
  0
DICTIONARYVAR
  5
8AE9
102
{ACAD_REACTORS
330
5697
102
}
330
5697
100
DictionaryVariables
280
     0
  1
1:1
  0
DICTIONARYVAR
  5
8AE5
102
{ACAD_REACTORS
330
5697
102
}
330
5697
100
DictionaryVariables
280
     0
  1
STANDARD
  0
DICTIONARYVAR
  5
8AE4
102
{ACAD_REACTORS
330
5697
102
}
330
5697
100
DictionaryVariables
280
     0
  1
STANDARD
  0
DICTIONARYVAR
  5
8AE6
102
{ACAD_REACTORS
330
5697
102
}
330
5697
100
DictionaryVariables
280
     0
  1
Imperial24
  0
DICTIONARYVAR
  5
8AE7
102
{ACAD_REACTORS
330
5697
102
}
330
5697
100
DictionaryVariables
280
     0
  1
Imperial24
  0
DICTIONARYVAR
  5
5698
102
{ACAD_REACTORS
330
5697
102
}
330
5697
100
DictionaryVariables
280
     0
  1
1
  0
DICTIONARYVAR
  5
8AEB
102
{ACAD_REACTORS
330
5697
102
}
330
5697
100
DictionaryVariables
280
     0
  1
1
  0
DICTIONARYVAR
  5
8AEC
102
{ACAD_REACTORS
330
5697
102
}
330
5697
100
DictionaryVariables
280
     0
  1
15
  0
DICTIONARYVAR
  5
8AEA
102
{ACAD_REACTORS
330
5697
102
}
330
5697
100
DictionaryVariables
280
     0
  1
0
  0
DICTIONARYVAR
  5
8AE8
102
{ACAD_REACTORS
330
5697
102
}
330
5697
100
DictionaryVariables
280
     0
  1
0
  0
DICTIONARY
  5
1C249
330
8AA4
100
AcDbDictionary
280
     1
281
     1
  3
ACAD_XREC_ROUNDTRIP
360
1C3FE
  0
DICTIONARY
  5
F3D2
330
8A4C
100
AcDbDictionary
280
     1
281
     1
  0
DICTIONARY
  5
8A62
330
8A61
100
AcDbDictionary
280
     1
281
     1
  3
BUMPTILE
360
8A64
  3
DIFFUSETILE
360
8A63
  3
OPACITYTILE
360
8A67
  3
REFLECTIONTILE
360
8A66
  3
REFRACTIONTILE
360
8A68
  3
SPECULARTILE
360
8A65
  0
DICTIONARY
  5
8A5A
330
8A59
100
AcDbDictionary
280
     1
281
     1
  3
BUMPTILE
360
8A5C
  3
DIFFUSETILE
360
8A5B
  3
OPACITYTILE
360
8A5F
  3
REFLECTIONTILE
360
8A5E
  3
REFRACTIONTILE
360
8A60
  3
SPECULARTILE
360
8A5D
  0
DICTIONARY
  5
8A6A
330
8A69
100
AcDbDictionary
280
     1
281
     1
  3
BUMPTILE
360
8A6C
  3
DIFFUSETILE
360
8A6B
  3
OPACITYTILE
360
8A6F
  3
REFLECTIONTILE
360
8A6E
  3
REFRACTIONTILE
360
8A70
  3
SPECULARTILE
360
8A6D
  0
DICTIONARY
  5
1C247
330
8AA2
100
AcDbDictionary
280
     1
281
     1
  3
ACAD_XREC_ROUNDTRIP
360
1C3FD
  0
DICTIONARY
  5
8AED
330
8A8C
100
AcDbDictionary
280
     1
281
     1
  3
ACAD_ROUNDTRIP_2008_TABLESTYLE_CELLSTYLEMAP
360
1C3FC
  0
XRECORD
  5
1C3FE
102
{ACAD_REACTORS
330
1C249
102
}
330
1C249
100
AcDbXrecord
280
     1
102
DISPLAYNAME
  1
Imperial24
102
FLAGS
 90
        0
  0
XRECORD
  5
8A64
102
{ACAD_REACTORS
330
8A62
102
}
330
8A62
100
AcDbXrecord
280
     1
270
     1
271
     1
  0
XRECORD
  5
8A63
102
{ACAD_REACTORS
330
8A62
102
}
330
8A62
100
AcDbXrecord
280
     1
270
     1
271
     1
  0
XRECORD
  5
8A67
102
{ACAD_REACTORS
330
8A62
102
}
330
8A62
100
AcDbXrecord
280
     1
270
     1
271
     1
  0
XRECORD
  5
8A66
102
{ACAD_REACTORS
330
8A62
102
}
330
8A62
100
AcDbXrecord
280
     1
270
     1
271
     1
  0
XRECORD
  5
8A68
102
{ACAD_REACTORS
330
8A62
102
}
330
8A62
100
AcDbXrecord
280
     1
270
     1
271
     1
  0
XRECORD
  5
8A65
102
{ACAD_REACTORS
330
8A62
102
}
330
8A62
100
AcDbXrecord
280
     1
270
     1
271
     1
  0
XRECORD
  5
8A5C
102
{ACAD_REACTORS
330
8A5A
102
}
330
8A5A
100
AcDbXrecord
280
     1
270
     1
271
     1
  0
XRECORD
  5
8A5B
102
{ACAD_REACTORS
330
8A5A
102
}
330
8A5A
100
AcDbXrecord
280
     1
270
     1
271
     1
  0
XRECORD
  5
8A5F
102
{ACAD_REACTORS
330
8A5A
102
}
330
8A5A
100
AcDbXrecord
280
     1
270
     1
271
     1
  0
XRECORD
  5
8A5E
102
{ACAD_REACTORS
330
8A5A
102
}
330
8A5A
100
AcDbXrecord
280
     1
270
     1
271
     1
  0
XRECORD
  5
8A60
102
{ACAD_REACTORS
330
8A5A
102
}
330
8A5A
100
AcDbXrecord
280
     1
270
     1
271
     1
  0
XRECORD
  5
8A5D
102
{ACAD_REACTORS
330
8A5A
102
}
330
8A5A
100
AcDbXrecord
280
     1
270
     1
271
     1
  0
XRECORD
  5
8A6C
102
{ACAD_REACTORS
330
8A6A
102
}
330
8A6A
100
AcDbXrecord
280
     1
270
     1
271
     1
  0
XRECORD
  5
8A6B
102
{ACAD_REACTORS
330
8A6A
102
}
330
8A6A
100
AcDbXrecord
280
     1
270
     1
271
     1
  0
XRECORD
  5
8A6F
102
{ACAD_REACTORS
330
8A6A
102
}
330
8A6A
100
AcDbXrecord
280
     1
270
     1
271
     1
  0
XRECORD
  5
8A6E
102
{ACAD_REACTORS
330
8A6A
102
}
330
8A6A
100
AcDbXrecord
280
     1
270
     1
271
     1
  0
XRECORD
  5
8A70
102
{ACAD_REACTORS
330
8A6A
102
}
330
8A6A
100
AcDbXrecord
280
     1
270
     1
271
     1
  0
XRECORD
  5
8A6D
102
{ACAD_REACTORS
330
8A6A
102
}
330
8A6A
100
AcDbXrecord
280
     1
270
     1
271
     1
  0
XRECORD
  5
1C3FD
102
{ACAD_REACTORS
330
1C247
102
}
330
1C247
100
AcDbXrecord
280
     1
102
DISPLAYNAME
  1
Imperial24
102
FLAGS
 90
        0
  0
CELLSTYLEMAP
  5
1C3FC
102
{ACAD_REACTORS
330
8AED
102
}
330
8AED
100
AcDbCellStyleMap
 90
        3
300
CELLSTYLE
  1
TABLEFORMAT_BEGIN
 90
        5
170
     1
 91
        0
 92
    32768
 62
   257
 93
        1
300
CONTENTFORMAT
  1
CONTENTFORMAT_BEGIN
 90
        0
 91
        0
 92
      512
 93
        0
300

 40
0.0
140
1.0
 94
        5
 62
     0
340
11
144
0.25
309
CONTENTFORMAT_END
171
     1
301
MARGIN
  1
CELLMARGIN_BEGIN
 40
0.06
 40
0.06
 40
0.06
 40
0.06
 40
0.18
 40
0.18
309
CELLMARGIN_END
 94
        6
 95
        1
302
GRIDFORMAT
  1
GRIDFORMAT_BEGIN
 90
        0
 91
        1
 62
     0
 92
       -2
340
0
 93
        0
 40
0.045
309
GRIDFORMAT_END
 95
        2
302
GRIDFORMAT
  1
GRIDFORMAT_BEGIN
 90
        0
 91
        1
 62
     0
 92
       -2
340
0
 93
        0
 40
0.045
309
GRIDFORMAT_END
 95
        4
302
GRIDFORMAT
  1
GRIDFORMAT_BEGIN
 90
        0
 91
        1
 62
     0
 92
       -2
340
0
 93
        0
 40
0.045
309
GRIDFORMAT_END
 95
        8
302
GRIDFORMAT
  1
GRIDFORMAT_BEGIN
 90
        0
 91
        1
 62
     0
 92
       -2
340
0
 93
        0
 40
0.045
309
GRIDFORMAT_END
 95
       16
302
GRIDFORMAT
  1
GRIDFORMAT_BEGIN
 90
        0
 91
        1
 62
     0
 92
       -2
340
0
 93
        0
 40
0.045
309
GRIDFORMAT_END
 95
       32
302
GRIDFORMAT
  1
GRIDFORMAT_BEGIN
 90
        0
 91
        1
 62
     0
 92
       -2
340
0
 93
        0
 40
0.045
309
GRIDFORMAT_END
309
TABLEFORMAT_END
  1
CELLSTYLE_BEGIN
 90
        1
 91
        1
300
_TITLE
309
CELLSTYLE_END
300
CELLSTYLE
  1
TABLEFORMAT_BEGIN
 90
        5
170
     1
 91
        0
 92
        0
 62
   257
 93
        1
300
CONTENTFORMAT
  1
CONTENTFORMAT_BEGIN
 90
        0
 91
        0
 92
      512
 93
        0
300

 40
0.0
140
1.0
 94
        5
 62
     0
340
11
144
0.18
309
CONTENTFORMAT_END
171
     1
301
MARGIN
  1
CELLMARGIN_BEGIN
 40
0.06
 40
0.06
 40
0.06
 40
0.06
 40
0.18
 40
0.18
309
CELLMARGIN_END
 94
        6
 95
        1
302
GRIDFORMAT
  1
GRIDFORMAT_BEGIN
 90
        0
 91
        1
 62
     0
 92
       -2
340
0
 93
        0
 40
0.045
309
GRIDFORMAT_END
 95
        2
302
GRIDFORMAT
  1
GRIDFORMAT_BEGIN
 90
        0
 91
        1
 62
     0
 92
       -2
340
0
 93
        0
 40
0.045
309
GRIDFORMAT_END
 95
        4
302
GRIDFORMAT
  1
GRIDFORMAT_BEGIN
 90
        0
 91
        1
 62
     0
 92
       -2
340
0
 93
        0
 40
0.045
309
GRIDFORMAT_END
 95
        8
302
GRIDFORMAT
  1
GRIDFORMAT_BEGIN
 90
        0
 91
        1
 62
     0
 92
       -2
340
0
 93
        0
 40
0.045
309
GRIDFORMAT_END
 95
       16
302
GRIDFORMAT
  1
GRIDFORMAT_BEGIN
 90
        0
 91
        1
 62
     0
 92
       -2
340
0
 93
        0
 40
0.045
309
GRIDFORMAT_END
 95
       32
302
GRIDFORMAT
  1
GRIDFORMAT_BEGIN
 90
        0
 91
        1
 62
     0
 92
       -2
340
0
 93
        0
 40
0.045
309
GRIDFORMAT_END
309
TABLEFORMAT_END
  1
CELLSTYLE_BEGIN
 90
        2
 91
        1
300
_HEADER
309
CELLSTYLE_END
300
CELLSTYLE
  1
TABLEFORMAT_BEGIN
 90
        5
170
     1
 91
        0
 92
        0
 62
   257
 93
        1
300
CONTENTFORMAT
  1
CONTENTFORMAT_BEGIN
 90
        0
 91
        0
 92
      512
 93
        0
300

 40
0.0
140
1.0
 94
        2
 62
     0
340
11
144
0.18
309
CONTENTFORMAT_END
171
     1
301
MARGIN
  1
CELLMARGIN_BEGIN
 40
0.06
 40
0.06
 40
0.06
 40
0.06
 40
0.18
 40
0.18
309
CELLMARGIN_END
 94
        6
 95
        1
302
GRIDFORMAT
  1
GRIDFORMAT_BEGIN
 90
        0
 91
        1
 62
     0
 92
       -2
340
0
 93
        0
 40
0.045
309
GRIDFORMAT_END
 95
        2
302
GRIDFORMAT
  1
GRIDFORMAT_BEGIN
 90
        0
 91
        1
 62
     0
 92
       -2
340
0
 93
        0
 40
0.045
309
GRIDFORMAT_END
 95
        4
302
GRIDFORMAT
  1
GRIDFORMAT_BEGIN
 90
        0
 91
        1
 62
     0
 92
       -2
340
0
 93
        0
 40
0.045
309
GRIDFORMAT_END
 95
        8
302
GRIDFORMAT
  1
GRIDFORMAT_BEGIN
 90
        0
 91
        1
 62
     0
 92
       -2
340
0
 93
        0
 40
0.045
309
GRIDFORMAT_END
 95
       16
302
GRIDFORMAT
  1
GRIDFORMAT_BEGIN
 90
        0
 91
        1
 62
     0
 92
       -2
340
0
 93
        0
 40
0.045
309
GRIDFORMAT_END
 95
       32
302
GRIDFORMAT
  1
GRIDFORMAT_BEGIN
 90
        0
 91
        1
 62
     0
 92
       -2
340
0
 93
        0
 40
0.045
309
GRIDFORMAT_END
309
TABLEFORMAT_END
  1
CELLSTYLE_BEGIN
 90
        3
 91
        2
300
_DATA
309
CELLSTYLE_END
  0
ENDSEC
  0
SECTION
  2
ACDSDATA
 70
     2
 71
     6
  0
ACDSSCHEMA
 90
        0
  1
AcDb_Thumbnail_Schema
  2
AcDbDs::ID
280
    10
 91
        8
  2
Thumbnail_Data
280
    15
 91
        0
101
ACDSRECORD
 95
        0
 90
        1
  2
AcDbDs::TreatedAsObjectData
280
     1
291
     1
101
ACDSRECORD
 95
        0
 90
        2
  2
AcDbDs::Legacy
280
     1
291
     1
101
ACDSRECORD
  1
AcDbDs::ID
 90
        3
  2
AcDs:Indexable
280
     1
291
     1
101
ACDSRECORD
  1
AcDbDs::ID
 90
        4
  2
AcDbDs::HandleAttribute
280
     7
282
     1
  0
ACDSSCHEMA
 90
        1
  1
AcDbDs::TreatedAsObjectDataSchema
  2
AcDbDs::TreatedAsObjectData
280
     1
 91
        0
  0
ACDSSCHEMA
 90
        2
  1
AcDbDs::LegacySchema
  2
AcDbDs::Legacy
280
     1
 91
        0
  0
ACDSSCHEMA
 90
        3
  1
AcDbDs::IndexedPropertySchema
  2
AcDs:Indexable
280
     1
 91
        0
  0
ACDSSCHEMA
 90
        4
  1
AcDbDs::HandleAttributeSchema
  2
AcDbDs::HandleAttribute
280
     7
 91
        1
284
     1
  0
ACDSRECORD
 90
        0
  2
AcDbDs::ID
280
    10
320
8A4C
  2
Thumbnail_Data
280
    15
 94
     1497
310
89504E470D0A1A0A0000000D49484452000001000000005C0803000000B6979B6C00000300504C5445000000000000FFFFFF0000000000000000000000000000000000000000000000000000330000660000990000CC0000FF0033000033330033660033990033CC0033FF0066000066330066660066990066CC0066FF0099
310
000099330099660099990099CC0099FF00CC0000CC3300CC6600CC9900CCCC00CCFF00FF0000FF3300FF6600FF9900FFCC00FFFF3300003300333300663300993300CC3300FF3333003333333333663333993333CC3333FF3366003366333366663366993366CC3366FF3399003399333399663399993399CC3399FF33CC00
310
33CC3333CC6633CC9933CCCC33CCFF33FF0033FF3333FF6633FF9933FFCC33FFFF6600006600336600666600996600CC6600FF6633006633336633666633996633CC6633FF6666006666336666666666996666CC6666FF6699006699336699666699996699CC6699FF66CC0066CC3366CC6666CC9966CCCC66CCFF66FF0066
310
FF3366FF6666FF9966FFCC66FFFF9900009900339900669900999900CC9900FF9933009933339933669933999933CC9933FF9966009966339966669966999966CC9966FF9999009999339999669999999999CC9999FF99CC0099CC3399CC6699CC9999CCCC99CCFF99FF0099FF3399FF6699FF9999FFCC99FFFFCC0000CC00
310
33CC0066CC0099CC00CCCC00FFCC3300CC3333CC3366CC3399CC33CCCC33FFCC6600CC6633CC6666CC6699CC66CCCC66FFCC9900CC9933CC9966CC9999CC99CCCC99FFCCCC00CCCC33CCCC66CCCC99CCCCCCCCCCFFCCFF00CCFF33CCFF66CCFF99CCFFCCCCFFFFFF0000FF0033FF0066FF0099FF00CCFF00FFFF3300FF3333
310
FF3366FF3399FF33CCFF33FFFF6600FF6633FF6666FF6699FF66CCFF66FFFF9900FF9933FF9966FF9999FF99CCFF99FFFFCC00FFCC33FFCC66FFCC99FFCCCCFFCCFFFFFF00FFFF33FFFF66FFFF99FFFFCCFFFFFF0000000D0D0D1A1A1A2828283535354343435050505D5D5D6B6B6B787878868686939393A1A1A1AEAEAEBB
310
BBBBC9C9C9D6D6D6E4E4E4F1F1F1FFFFFF000000000000000000000000000000000000000000000000000000000000C11FEF66000002944944415478DAED9B3B92C3200C8673035F8386FB7769B806152750B3FD2201B6C02433BB3329A25F1A2780ED86CF7A82FD28E0F270000EC001380007E0001CC0FF24FE51EC01F8E8
310
ED0EE09B0010F543CB8F12E300E814480031D275400228F5C1F70311408C396F631D0E80880DA00880711407000DE09EEEE672A607701A20F3AF621E8074D36E7A75EA1500442DB0ADF538358400D053E025133E015837019A65A305FDA45900BD18EC2D5C39AC9EFD4E07D409CB00CA98F90E80790DC854A2FCB2B4F75068
310
DA098E895FBFF5A6681C0051AC9D9A0849739F250000D2A9F0EC03A612D96E2D907318C70A605E39325B0CC510D906023F6C0D208200E0BF949AC2CF000A0E00420610ABE59724CE4E0190F80002A0F6C404260037F76F1A4075821DC0950246100D481C01124B85D0C3601DB005B4D37C15C704CE3C4000209A8072823000
310
88FD5DB504428D02BC1CC026800B8057C392583F681ED04D60CE042F2F681F400E21A7C0FF33008A812552002887D35A0ED3A90291804C6005D04E9A06C03BA25509525B13D46F8E35B7785A855D005901C80B005914360E4032414AAD9D3540ED1A587F5394D27AB54D5D6D17D97E53740F605881ED28F0426E3BC656F705
310
DE01E8AD6D0054D26B00F635E0380E3A8694E38D580520014072FDDA3FB8190A71CC23B30002A510BAB78304A0E6A801541A63244E000D008103206D02046402CF2E23FC5D7D220C007DF89421B749FA3CB20FA0CC006802605403D2912E6100BDFB94CDB1D6B6736E020E0002002D5180D0A2002D7900978A84940A430208
310
6735880980ABC161E68800644184C682C8581CD12D995E1029F33702D43340B53F568C7F30B100501F4FC000F8D0ED0EE00B006C85BF95DE0FCC0130200EC001380007E0001C800370000EC00180CA2F78BE4BFC1BB3AE580000000049454E44AE426082
  0
ENDSEC
  0
EOF
