  0
SECTION
  2
HEADER
  9
$ACADVER
  1
AC1027
  9
$ACADMAINTVER
 70
    55
  9
$DWGCODEPAGE
  3
ANSI_932
  9
$LASTSAVEDBY
  1
marketing
  9
$REQUIREDVERSIONS
160
                 0
  9
$INSBASE
 10
0.0
 20
0.0
 30
0.0
  9
$EXTMIN
 10
-0.0308202570590766
 20
-0.017528246125039
 30
-0.0000000000112498
  9
$EXTMAX
 10
700.01520769439
 20
1088.022265519889
 30
0.0000000000002956
  9
$LIMMIN
 10
-296.316999476111
 20
-370.7034300441653
  9
$LIMMAX
 10
623.3128432133979
 20
328.6261559379898
  9
$ORTHOMODE
 70
     1
  9
$REGENMODE
 70
     1
  9
$FILLMODE
 70
     1
  9
$QTEXTMODE
 70
     0
  9
$MIRRTEXT
 70
     1
  9
$LTSCALE
 40
10.0
  9
$ATTMODE
 70
     1
  9
$TEXTSIZE
 40
5.0
  9
$TRACEWID
 40
0.05
  9
$TEXTSTYLE
  7
STANDARD1
  9
$CLAYER
  8
30
  9
$CELTYPE
  6
BYLAYER
  9
$CECOLOR
 62
   256
  9
$CELTSCALE
 40
1.0
  9
$DISPSILH
 70
     0
  9
$DIMSCALE
 40
1.0
  9
$DIMASZ
 40
2.0
  9
$DIMEXO
 40
1.0
  9
$DIMDLI
 40
0.5
  9
$DIMRND
 40
0.0
  9
$DIMDLE
 40
0.0
  9
$DIMEXE
 40
0.5
  9
$DIMTP
 40
0.0
  9
$DIMTM
 40
0.0
  9
$DIMTXT
 40
8.0
  9
$DIMCEN
 40
0.09
  9
$DIMTSZ
 40
0.0
  9
$DIMTOL
 70
     0
  9
$DIMLIM
 70
     0
  9
$DIMTIH
 70
     0
  9
$DIMTOH
 70
     0
  9
$DIMSE1
 70
     0
  9
$DIMSE2
 70
     0
  9
$DIMTAD
 70
     3
  9
$DIMZIN
 70
    12
  9
$DIMBLK
  1
OPEN
  9
$DIMASO
 70
     1
  9
$DIMSHO
 70
     1
  9
$DIMPOST
  1

  9
$DIMAPOST
  1

  9
$DIMALT
 70
     0
  9
$DIMALTD
 70
     2
  9
$DIMALTF
 40
25.4
  9
$DIMLFAC
 40
1.0
  9
$DIMTOFL
 70
     0
  9
$DIMTVP
 40
0.0
  9
$DIMTIX
 70
     0
  9
$DIMSOXD
 70
     0
  9
$DIMSAH
 70
     0
  9
$DIMBLK1
  1

  9
$DIMBLK2
  1

  9
$DIMSTYLE
  2
STANDARD
  9
$DIMCLRD
 70
     0
  9
$DIMCLRE
 70
     0
  9
$DIMCLRT
 70
   256
  9
$DIMTFAC
 40
1.0
  9
$DIMGAP
 40
3.0
  9
$DIMJUST
 70
     0
  9
$DIMSD1
 70
     0
  9
$DIMSD2
 70
     0
  9
$DIMTOLJ
 70
     1
  9
$DIMTZIN
 70
     0
  9
$DIMALTZ
 70
     0
  9
$DIMALTTZ
 70
     0
  9
$DIMUPT
 70
     0
  9
$DIMDEC
 70
     1
  9
$DIMTDEC
 70
     1
  9
$DIMALTU
 70
     2
  9
$DIMALTTD
 70
     2
  9
$DIMTXSTY
  7
STANDARD
  9
$DIMAUNIT
 70
     0
  9
$DIMADEC
 70
     0
  9
$DIMALTRND
 40
0.0
  9
$DIMAZIN
 70
     0
  9
$DIMDSEP
 70
    46
  9
$DIMATFIT
 70
     3
  9
$DIMFRAC
 70
     0
  9
$DIMLDRBLK
  1
OPEN
  9
$DIMLUNIT
 70
     2
  9
$DIMLWD
 70
    -2
  9
$DIMLWE
 70
    -2
  9
$DIMTMOVE
 70
     0
  9
$DIMFXL
 40
1.0
  9
$DIMFXLON
 70
     0
  9
$DIMJOGANG
 40
0.7853981633974483
  9
$DIMTFILL
 70
     1
  9
$DIMTFILLCLR
 70
     0
  9
$DIMARCSYM
 70
     0
  9
$DIMLTYPE
  6

  9
$DIMLTEX1
  6

  9
$DIMLTEX2
  6

  9
$DIMTXTDIRECTION
 70
     0
  9
$LUNITS
 70
     2
  9
$LUPREC
 70
     4
  9
$SKETCHINC
 40
0.1
  9
$FILLETRAD
 40
0.0
  9
$AUNITS
 70
     0
  9
$AUPREC
 70
     0
  9
$MENU
  1
.
  9
$ELEVATION
 40
0.0
  9
$PELEVATION
 40
0.0
  9
$THICKNESS
 40
0.0
  9
$LIMCHECK
 70
     0
  9
$CHAMFERA
 40
0.0
  9
$CHAMFERB
 40
0.0
  9
$CHAMFERC
 40
0.0
  9
$CHAMFERD
 40
0.0
  9
$SKPOLY
 70
     0
  9
$TDCREATE
 40
2452286.555658658
  9
$TDUCREATE
 40
2452286.180658658
  9
$TDUPDATE
 40
2459244.409767859
  9
$TDUUPDATE
 40
2459244.034767859
  9
$TDINDWG
 40
1.9164692708
  9
$TDUSRTIMER
 40
1.9164663310
  9
$USRTIMER
 70
     1
  9
$ANGBASE
 50
0.0
  9
$ANGDIR
 70
     0
  9
$PDMODE
 70
     0
  9
$PDSIZE
 40
0.0
  9
$PLINEWID
 40
0.0
  9
$SPLFRAME
 70
     0
  9
$SPLINETYPE
 70
     6
  9
$SPLINESEGS
 70
     8
  9
$HANDSEED
  5
1C388
  9
$SURFTAB1
 70
     6
  9
$SURFTAB2
 70
     6
  9
$SURFTYPE
 70
     6
  9
$SURFU
 70
     6
  9
$SURFV
 70
     6
  9
$UCSBASE
  2

  9
$UCSNAME
  2

  9
$UCSORG
 10
0.0
 20
0.0
 30
0.0
  9
$UCSXDIR
 10
1.0
 20
0.0
 30
0.0
  9
$UCSYDIR
 10
0.0
 20
1.0
 30
0.0
  9
$UCSORTHOREF
  2

  9
$UCSORTHOVIEW
 70
     0
  9
$UCSORGTOP
 10
0.0
 20
0.0
 30
0.0
  9
$UCSORGBOTTOM
 10
0.0
 20
0.0
 30
0.0
  9
$UCSORGLEFT
 10
0.0
 20
0.0
 30
0.0
  9
$UCSORGRIGHT
 10
0.0
 20
0.0
 30
0.0
  9
$UCSORGFRONT
 10
0.0
 20
0.0
 30
0.0
  9
$UCSORGBACK
 10
0.0
 20
0.0
 30
0.0
  9
$PUCSBASE
  2

  9
$PUCSNAME
  2

  9
$PUCSORG
 10
0.0
 20
0.0
 30
0.0
  9
$PUCSXDIR
 10
1.0
 20
0.0
 30
0.0
  9
$PUCSYDIR
 10
0.0
 20
1.0
 30
0.0
  9
$PUCSORTHOREF
  2

  9
$PUCSORTHOVIEW
 70
     0
  9
$PUCSORGTOP
 10
0.0
 20
0.0
 30
0.0
  9
$PUCSORGBOTTOM
 10
0.0
 20
0.0
 30
0.0
  9
$PUCSORGLEFT
 10
0.0
 20
0.0
 30
0.0
  9
$PUCSORGRIGHT
 10
0.0
 20
0.0
 30
0.0
  9
$PUCSORGFRONT
 10
0.0
 20
0.0
 30
0.0
  9
$PUCSORGBACK
 10
0.0
 20
0.0
 30
0.0
  9
$USERI1
 70
     0
  9
$USERI2
 70
     0
  9
$USERI3
 70
     0
  9
$USERI4
 70
     0
  9
$USERI5
 70
     0
  9
$USERR1
 40
0.0
  9
$USERR2
 40
0.0
  9
$USERR3
 40
0.0
  9
$USERR4
 40
0.0
  9
$USERR5
 40
0.0
  9
$WORLDVIEW
 70
     1
  9
$SHADEDGE
 70
     3
  9
$SHADEDIF
 70
    70
  9
$TILEMODE
 70
     1
  9
$MAXACTVP
 70
    48
  9
$PINSBASE
 10
0.0
 20
0.0
 30
0.0
  9
$PLIMCHECK
 70
     0
  9
$PEXTMIN
 10
4.273573
 20
5.205245999999998
 30
0.0
  9
$PEXTMAX
 10
194.610095
 20
283.0697009999996
 30
0.0
  9
$PLIMMIN
 10
-5.873749
 20
-5.87375
  9
$PLIMMAX
 10
204.099579
 20
291.1369009999999
  9
$UNITMODE
 70
     0
  9
$VISRETAIN
 70
     1
  9
$PLINEGEN
 70
     0
  9
$PSLTSCALE
 70
     1
  9
$TREEDEPTH
 70
  3020
  9
$CMLSTYLE
  2
STANDARD
  9
$CMLJUST
 70
     0
  9
$CMLSCALE
 40
1.0
  9
$PROXYGRAPHICS
 70
     1
  9
$MEASUREMENT
 70
     0
  9
$CELWEIGHT
370
    -1
  9
$ENDCAPS
280
     0
  9
$JOINSTYLE
280
     0
  9
$LWDISPLAY
290
     0
  9
$INSUNITS
 70
     0
  9
$HYPERLINKBASE
  1

  9
$STYLESHEET
  1
MONOCHROME.CTB
  9
$XEDIT
290
     1
  9
$CEPSNTYPE
380
     0
  9
$PSTYLEMODE
290
     1
  9
$FINGERPRINTGUID
  2

  9
$VERSIONGUID
  2
{9FF4C861-1055-40D8-A26F-24386D5536A2}
  9
$EXTNAMES
290
     1
  9
$PSVPSCALE
 40
0.0
  9
$OLESTARTUP
290
     0
  9
$SORTENTS
280
   127
  9
$INDEXCTL
280
     0
  9
$HIDETEXT
280
     0
  9
$XCLIPFRAME
280
     2
  9
$HALOGAP
280
     0
  9
$OBSCOLOR
 70
   257
  9
$OBSLTYPE
280
     0
  9
$INTERSECTIONDISPLAY
280
     0
  9
$INTERSECTIONCOLOR
 70
   257
  9
$DIMASSOC
280
     1
  9
$PROJECTNAME
  1

  9
$CAMERADISPLAY
290
     0
  9
$LENSLENGTH
 40
50.0
  9
$CAMERAHEIGHT
 40
0.0
  9
$STEPSPERSEC
 40
2.0
  9
$STEPSIZE
 40
6.0
  9
$3DDWFPREC
 40
2.0
  9
$PSOLWIDTH
 40
0.25
  9
$PSOLHEIGHT
 40
4.0
  9
$LOFTANG1
 40
1.570796326794896
  9
$LOFTANG2
 40
1.570796326794896
  9
$LOFTMAG1
 40
0.0
  9
$LOFTMAG2
 40
0.0
  9
$LOFTPARAM
 70
     7
  9
$LOFTNORMALS
280
     1
  9
$LATITUDE
 40
37.795
  9
$LONGITUDE
 40
-122.394
  9
$NORTHDIRECTION
 40
0.0
  9
$TIMEZONE
 70
 -8000
  9
$LIGHTGLYPHDISPLAY
280
     1
  9
$TILEMODELIGHTSYNCH
280
     1
  9
$CMATERIAL
347
8A59
  9
$SOLIDHIST
280
     0
  9
$SHOWHIST
280
     1
  9
$DWFFRAME
280
     2
  9
$DGNFRAME
280
     0
  9
$REALWORLDSCALE
290
     1
  9
$INTERFERECOLOR
 62
     1
  9
$INTERFEREOBJVS
345
8A7B
  9
$INTERFEREVPVS
346
8A78
  9
$CSHADOW
280
     0
  9
$SHADOWPLANELOCATION
 40
0.0
  0
ENDSEC
  0
SECTION
  2
CLASSES
  0
CLASS
  1
ACDBDICTIONARYWDFLT
  2
AcDbDictionaryWithDefault
  3
ObjectDBX Classes
 90
        0
 91
        1
280
     0
281
     0
  0
CLASS
  1
DICTIONARYVAR
  2
AcDbDictionaryVar
  3
ObjectDBX Classes
 90
        0
 91
       10
280
     0
281
     0
  0
CLASS
  1
MATERIAL
  2
AcDbMaterial
  3
ObjectDBX Classes
 90
     1153
 91
        3
280
     0
281
     0
  0
CLASS
  1
VISUALSTYLE
  2
AcDbVisualStyle
  3
ObjectDBX Classes
 90
     4095
 91
       26
280
     0
281
     0
  0
CLASS
  1
TABLESTYLE
  2
AcDbTableStyle
  3
ObjectDBX Classes
 90
     4095
 91
        1
280
     0
281
     0
  0
CLASS
  1
SCALE
  2
AcDbScale
  3
ObjectDBX Classes
 90
     1153
 91
       17
280
     0
281
     0
  0
CLASS
  1
MLEADERSTYLE
  2
AcDbMLeaderStyle
  3
ACDB_MLEADERSTYLE_CLASS
 90
     4095
 91
        1
280
     0
281
     0
  0
CLASS
  1
ACDBSECTIONVIEWSTYLE
  2
AcDbSectionViewStyle
  3
ObjectDBX Classes
 90
     1025
 91
        1
280
     0
281
     0
  0
CLASS
  1
ACDBDETAILVIEWSTYLE
  2
AcDbDetailViewStyle
  3
ObjectDBX Classes
 90
     1025
 91
        1
280
     0
281
     0
  0
CLASS
  1
CELLSTYLEMAP
  2
AcDbCellStyleMap
  3
ObjectDBX Classes
 90
     1152
 91
        2
280
     0
281
     0
  0
CLASS
  1
AEC_REFEDIT_STATUS_TRACKER
  2
AecDbRefEditStatusTracker
  3
AecArchBase70|Product Desc: Autodesk Architectural Desktop 2007 |Company: Autodesk,Inc. |WEB Address: www.autodesk.com
 90
      129
 91
        0
280
     0
281
     0
  0
CLASS
  1
NPOCOLLECTION
  2
AcDbImpNonPersistentObjectsCollection
  3
ObjectDBX Classes
 90
     1153
 91
        0
280
     0
281
     0
  0
CLASS
  1
SORTENTSTABLE
  2
AcDbSortentsTable
  3
ObjectDBX Classes
 90
        0
 91
        1
280
     0
281
     0
  0
ENDSEC
  0
SECTION
  2
TABLES
  0
TABLE
  2
VPORT
  5
8
330
0
100
AcDbSymbolTable
 70
     1
  0
VPORT
  5
8A51
330
8
100
AcDbSymbolTableRecord
100
AcDbViewportTableRecord
  2
*Active
 70
     0
 10
0.0
 20
0.0
 11
1.0
 21
1.0
 12
349.9921937186657
 22
544.0023686368816
 13
0.0
 23
0.0
 14
1.0
 24
1.0
 15
10.0
 25
10.0
 16
0.0
 26
0.0
 36
1.0
 17
0.0
 27
0.0
 37
0.0
 40
1095.905141672756
 41
2.289505428226779
 42
50.0
 43
0.0
 44
0.0
 50
0.0
 51
0.0
 71
     0
 72
   100
 73
     1
 74
     1
 75
     0
 76
     0
 77
     0
 78
     0
281
     0
 65
     1
110
0.0
120
0.0
130
0.0
111
1.0
121
0.0
131
0.0
112
0.0
122
1.0
132
0.0
 79
     0
146
0.0
348
8A77
 60
     3
 61
     5
292
     1
282
     1
141
0.0
142
0.0
 63
   250
421
  3355443
1001
ACAD_NAV_VCDISPLAY
1070
     3
  0
ENDTAB
  0
TABLE
  2
LTYPE
  5
5
330
0
100
AcDbSymbolTable
 70
     8
  0
LTYPE
  5
13
330
5
100
AcDbSymbolTableRecord
100
AcDbLinetypeTableRecord
  2
BYBLOCK
 70
     0
  3

 72
    65
 73
     0
 40
0.0
  0
LTYPE
  5
14
330
5
100
AcDbSymbolTableRecord
100
AcDbLinetypeTableRecord
  2
BYLAYER
 70
     0
  3

 72
    65
 73
     0
 40
0.0
  0
LTYPE
  5
15
330
5
100
AcDbSymbolTableRecord
100
AcDbLinetypeTableRecord
  2
CONTINUOUS
 70
     0
  3
Solid line
 72
    65
 73
     0
 40
0.0
  0
LTYPE
  5
22
330
5
100
AcDbSymbolTableRecord
100
AcDbLinetypeTableRecord
  2
CONTINOUS
 70
     0
  3
Solid line
 72
    65
 73
     0
 40
0.0
  0
LTYPE
  5
23
330
5
100
AcDbSymbolTableRecord
100
AcDbLinetypeTableRecord
  2
DASHED
 70
     0
  3
__ __ __ __ __ __ __ __ __ __ __ __ __ __ __
 72
    65
 73
     2
 40
0.75
 49
0.5
 74
     0
 49
-0.25
 74
     0
  0
LTYPE
  5
24
330
5
100
AcDbSymbolTableRecord
100
AcDbLinetypeTableRecord
  2
DASHDOT
 70
     0
  3
__ . __ . __ . __ . __ . __ . __ . __ . __ . __
 72
    65
 73
     4
 40
1.0
 49
0.5
 74
     0
 49
-0.25
 74
     0
 49
0.0
 74
     0
 49
-0.25
 74
     0
  0
LTYPE
  5
4C47
330
5
100
AcDbSymbolTableRecord
100
AcDbLinetypeTableRecord
  2
DIVIDE
 70
     0
  3
Divide ____ . . ____ . . ____ . . ____ . . ____
 72
    65
 73
     6
 40
1.25
 49
0.5
 74
     0
 49
-0.25
 74
     0
 49
0.0
 74
     0
 49
-0.25
 74
     0
 49
0.0
 74
     0
 49
-0.25
 74
     0
  0
LTYPE
  5
912E
330
5
100
AcDbSymbolTableRecord
100
AcDbLinetypeTableRecord
  2
SLD-実線
 70
     0
  3
SolidWorks Line Style
 72
    65
 73
     0
 40
0.0
  0
LTYPE
  5
1391B
330
5
100
AcDbSymbolTableRecord
100
AcDbLinetypeTableRecord
  2
CENTER
 70
     0
  3
Center ____ _ ____ _ ____ _ ____ _ ____ _ ____
 72
    65
 73
     4
 40
50.8
 49
31.75
 74
     0
 49
-6.349999999999997
 74
     0
 49
6.349999999999997
 74
     0
 49
-6.349999999999997
 74
     0
  0
ENDTAB
  0
TABLE
  2
LAYER
  5
2
102
{ACAD_XDICTIONARY
360
F3CC
102
}
330
0
100
AcDbSymbolTable
 70
    14
  0
LAYER
  5
10
102
{ACAD_XDICTIONARY
360
8ACC
102
}
330
2
100
AcDbSymbolTableRecord
100
AcDbLayerTableRecord
  2
0
 70
     0
 62
     7
  6
CONTINOUS
370
    -3
390
F
347
8A69
348
0
  0
LAYER
  5
2F
102
{ACAD_XDICTIONARY
360
8ACE
102
}
330
2
100
AcDbSymbolTableRecord
100
AcDbLayerTableRecord
  2
10
 70
     0
 62
     4
  6
CONTINOUS
370
    -3
390
F
347
8A69
348
0
  0
LAYER
  5
31
102
{ACAD_XDICTIONARY
360
8AD0
102
}
330
2
100
AcDbSymbolTableRecord
100
AcDbLayerTableRecord
  2
12
 70
     0
 62
     3
  6
CONTINOUS
370
    -3
390
F
347
8A69
348
0
  0
LAYER
  5
35
102
{ACAD_XDICTIONARY
360
8AD2
102
}
330
2
100
AcDbSymbolTableRecord
100
AcDbLayerTableRecord
  2
16
 70
     0
 62
     6
  6
DASHDOT
370
    -3
390
F
347
8A69
348
0
  0
LAYER
  5
38
102
{ACAD_XDICTIONARY
360
8AD4
102
}
330
2
100
AcDbSymbolTableRecord
100
AcDbLayerTableRecord
  2
19
 70
     0
 62
     7
  6
CONTINOUS
370
    -3
390
F
347
8A69
348
0
  0
LAYER
  5
3A2
102
{ACAD_XDICTIONARY
360
8AD8
102
}
330
2
100
AcDbSymbolTableRecord
100
AcDbLayerTableRecord
  2
30
 70
     0
 62
     9
  6
CONTINUOUS
370
    -3
390
F
347
8A69
348
0
  0
LAYER
  5
3A4
330
2
100
AcDbSymbolTableRecord
100
AcDbLayerTableRecord
  2
DEFPOINTS
 70
     0
 62
     7
  6
CONTINUOUS
290
     0
370
    -3
390
F
347
8A69
348
0
  0
LAYER
  5
3BBA
102
{ACAD_XDICTIONARY
360
8ADA
102
}
330
2
100
AcDbSymbolTableRecord
100
AcDbLayerTableRecord
  2
18
 70
     0
 62
     5
  6
DIVIDE
370
    -3
390
F
347
8A69
348
0
  0
LAYER
  5
67A8
102
{ACAD_XDICTIONARY
360
8ADC
102
}
330
2
100
AcDbSymbolTableRecord
100
AcDbLayerTableRecord
  2
11
 70
     0
 62
     1
  6
CONTINOUS
370
    -3
390
F
347
8A69
348
0
  0
LAYER
  5
7837
102
{ACAD_XDICTIONARY
360
8ADE
102
}
330
2
100
AcDbSymbolTableRecord
100
AcDbLayerTableRecord
  2
17
 70
     0
 62
     2
  6
DASHDOT
370
    -3
390
F
347
8A69
348
0
  0
LAYER
  5
9133
102
{ACAD_XDICTIONARY
360
9134
102
}
330
2
100
AcDbSymbolTableRecord
100
AcDbLayerTableRecord
  2
240
 70
     0
 62
     7
  6
SLD-実線
370
    -3
390
F
347
8A69
348
0
  0
LAYER
  5
1391C
102
{ACAD_XDICTIONARY
360
1391D
102
}
330
2
100
AcDbSymbolTableRecord
100
AcDbLayerTableRecord
  2
21
 70
     0
 62
     7
  6
CONTINUOUS
370
    -3
390
F
347
8A69
348
0
  0
LAYER
  5
1391E
102
{ACAD_XDICTIONARY
360
1391F
102
}
330
2
100
AcDbSymbolTableRecord
100
AcDbLayerTableRecord
  2
22
 70
     0
 62
     3
  6
CONTINUOUS
370
    -3
390
F
347
8A69
348
0
  0
LAYER
  5
1C354
330
2
100
AcDbSymbolTableRecord
100
AcDbLayerTableRecord
  2
24
 70
     0
 62
     7
  6
CONTINOUS
370
    -3
390
F
347
8A69
348
0
1001
AcAecLayerStandard
1000

1000

1001
AcCmTransparency
1071
        0
  0
ENDTAB
  0
TABLE
  2
STYLE
  5
3
330
0
100
AcDbSymbolTable
 70
     3
  0
STYLE
  5
11
330
3
100
AcDbSymbolTableRecord
100
AcDbTextStyleTableRecord
  2
STANDARD
 70
     0
 40
0.0
 41
1.0
 50
0.0
 71
     0
 42
2.0
  3
txt.shx
  4
bigfont.shx
  0
STYLE
  5
42
330
3
100
AcDbSymbolTableRecord
100
AcDbTextStyleTableRecord
  2
STANDARD1
 70
     0
 40
0.0
 41
1.0
 50
0.0
 71
     0
 42
5.0
  3
MONOTXT
  4
BIGFONT
  0
STYLE
  5
1171A
330
3
100
AcDbSymbolTableRecord
100
AcDbTextStyleTableRecord
  2
SLDTEXTSTYLE0
 70
     0
 40
0.0
 41
1.0
 50
0.0
 71
     0
 42
3.0
  3
MS UI Gothic.ttf
  4

1001
ACAD
1000
MS UI Gothic
1071
      306
  0
ENDTAB
  0
TABLE
  2
VIEW
  5
6
330
0
100
AcDbSymbolTable
 70
     3
  0
VIEW
  5
230C
330
6
100
AcDbSymbolTableRecord
100
AcDbViewTableRecord
  2
OLE1
 70
     0
 40
148.912488
 10
429.497628
 20
2.560627
 41
103.145806
 11
0.0
 21
0.0
 31
1.0
 12
0.0
 22
0.0
 32
0.0
 42
50.0
 43
0.0
 44
0.0
 50
0.0
 71
     0
281
     0
 72
     0
 73
     0
348
8A77
  0
VIEW
  5
230E
330
6
100
AcDbSymbolTableRecord
100
AcDbViewTableRecord
  2
OLE2
 70
     0
 40
170.778692
 10
322.66497
 20
-5.978304
 41
102.467215
 11
0.0
 21
0.0
 31
1.0
 12
0.0
 22
0.0
 32
0.0
 42
50.0
 43
0.0
 44
0.0
 50
0.0
 71
     0
281
     0
 72
     0
 73
     0
348
8A77
  0
VIEW
  5
23AA
330
6
100
AcDbSymbolTableRecord
100
AcDbViewTableRecord
  2
OLE3
 70
     0
 40
591.7897389999998
 10
84.79698199999999
 20
-46.09335999999998
 41
388.792096
 11
0.0
 21
0.0
 31
1.0
 12
0.0
 22
0.0
 32
0.0
 42
50.0
 43
0.0
 44
0.0
 50
0.0
 71
     0
281
     0
 72
     0
 73
     0
348
8A77
  0
ENDTAB
  0
TABLE
  2
UCS
  5
7
330
0
100
AcDbSymbolTable
 70
     0
  0
ENDTAB
  0
TABLE
  2
APPID
  5
9
330
0
100
AcDbSymbolTable
 70
    14
  0
APPID
  5
12
330
9
100
AcDbSymbolTableRecord
100
AcDbRegAppTableRecord
  2
ACAD
 70
     0
  0
APPID
  5
ECD
330
9
100
AcDbSymbolTableRecord
100
AcDbRegAppTableRecord
  2
CONTENTBLOCKICON
 70
     0
  0
APPID
  5
8AA9
330
9
100
AcDbSymbolTableRecord
100
AcDbRegAppTableRecord
  2
ACAD_NAV_VCDISPLAY
 70
     0
  0
APPID
  5
1038A
330
9
100
AcDbSymbolTableRecord
100
AcDbRegAppTableRecord
  2
ACAD_EXEMPT_FROM_CAD_STANDARDS
 70
     0
  0
APPID
  5
10D03
330
9
100
AcDbSymbolTableRecord
100
AcDbRegAppTableRecord
  2
ACAD_PSEXT
 70
     0
  0
APPID
  5
1147C
330
9
100
AcDbSymbolTableRecord
100
AcDbRegAppTableRecord
  2
ACAD_DSTYLE_DIMJAG
 70
     0
  0
APPID
  5
1147D
330
9
100
AcDbSymbolTableRecord
100
AcDbRegAppTableRecord
  2
ACAD_DSTYLE_DIMTALN
 70
     0
  0
APPID
  5
16BC0
330
9
100
AcDbSymbolTableRecord
100
AcDbRegAppTableRecord
  2
DCO15
 70
     0
  0
APPID
  5
16BC1
330
9
100
AcDbSymbolTableRecord
100
AcDbRegAppTableRecord
  2
ACAD_MLEADERVER
 70
     0
  0
APPID
  5
16BC2
330
9
100
AcDbSymbolTableRecord
100
AcDbRegAppTableRecord
  2
ACAD_DSTYLE_DIMBREAK
 70
     0
  0
APPID
  5
17476
330
9
100
AcDbSymbolTableRecord
100
AcDbRegAppTableRecord
  2
ACAUTHENVIRON
 70
     0
  0
APPID
  5
1C2CC
330
9
100
AcDbSymbolTableRecord
100
AcDbRegAppTableRecord
  2
AcadAnnoMonitorAlertIconDisabled
 70
     0
  0
APPID
  5
1C355
330
9
100
AcDbSymbolTableRecord
100
AcDbRegAppTableRecord
  2
AcAecLayerStandard
 70
     0
  0
APPID
  5
1C356
330
9
100
AcDbSymbolTableRecord
100
AcDbRegAppTableRecord
  2
AcCmTransparency
 70
     0
  0
ENDTAB
  0
TABLE
  2
DIMSTYLE
  5
A
330
0
100
AcDbSymbolTable
 70
     3
100
AcDbDimStyleTable
 71
     2
340
175
340
1171B
  0
DIMSTYLE
105
175
102
{ACAD_REACTORS
330
13A79
330
13A7A
330
13A85
330
13A87
330
13A88
330
13B29
330
13B2A
330
13B2B
330
13B42
330
13B43
330
13B4F
330
13B50
330
15127
330
13B1F
330
15DC1
330
15DC2
330
19BDD
330
19FF3
330
1A172
330
1A17F
330
1A1C2
330
1A1CF
330
1A38D
330
1A38E
330
1A38F
330
1A391
330
1BD5E
330
1BD5F
330
1C067
330
1C09A
102
}
330
A
100
AcDbSymbolTableRecord
100
AcDbDimStyleTableRecord
  2
STANDARD
 70
     0
 41
2.0
 42
1.0
 43
0.5
 44
0.5
 69
     1
 73
     0
 74
     0
 77
     3
 78
    12
140
8.0
147
3.0
178
   256
271
     1
272
     1
340
11
341
3B2
342
3B2
1001
ACAD_DSTYLE_DIMJAG
1070
   388
1040
1.5
1001
ACAD_DSTYLE_DIMTALN
1070
   392
1070
     0
  0
DIMSTYLE
105
1171B
102
{ACAD_REACTORS
330
14641
330
14664
330
13B28
330
13A86
330
1A390
102
}
330
A
100
AcDbSymbolTableRecord
100
AcDbDimStyleTableRecord
  2
STANDARD1
 70
     0
 41
2.0
 42
3.0
 43
0.5
 44
0.5
 77
     3
 78
    12
140
8.0
147
3.0
172
     1
271
     1
272
     1
289
     2
340
11
341
3B2
342
3B2
1001
ACAD_DSTYLE_DIMJAG
1070
   388
1040
1.5
1001
ACAD_DSTYLE_DIMTALN
1070
   392
1070
     0
  0
ENDTAB
  0
TABLE
  2
BLOCK_RECORD
  5
1
330
0
100
AcDbSymbolTable
 70
    38
  0
BLOCK_RECORD
  5
1E
102
{ACAD_XDICTIONARY
360
178
102
}
330
1
100
AcDbSymbolTableRecord
100
AcDbBlockTableRecord
  2
*MODEL_SPACE
340
8A4C
 70
     0
280
     1
281
     0
  0
BLOCK_RECORD
  5
1A
102
{ACAD_XDICTIONARY
360
17A
102
}
330
1
100
AcDbSymbolTableRecord
100
AcDbBlockTableRecord
  2
*PAPER_SPACE
340
8A4D
 70
     0
280
     1
281
     0
  0
BLOCK_RECORD
  5
3B2
330
1
100
AcDbSymbolTableRecord
100
AcDbBlockTableRecord
  2
_OPEN
340
0
102
{BLKREFS
331
1BFE2
331
1BFE3
331
1C02C
331
1C02D
331
1C03F
331
1C040
331
1C049
331
1C04A
331
1C06F
331
1C070
331
1C078
331
1C079
331
1C081
331
1C082
331
1C190
331
1C191
331
1C1AC
331
1C1AD
331
1C1BE
331
1C1BF
331
1C1C7
331
1C1C8
331
1C1D0
331
1C1D1
331
1C1D9
331
1C1DA
331
1C1EB
331
1C1EC
331
1C1F4
331
1C1F5
331
1C1FD
331
1C1FE
331
1C206
331
1C207
331
1C20F
331
1C210
331
1C218
331
1C219
331
1C221
331
1C222
331
1C267
331
1C268
331
1C311
331
1C312
331
1C323
331
1C324
331
1C32C
331
1C32D
331
1C2AD
331
1C2AE
331
1C2B6
331
1C2B7
331
1C2C5
331
1C2C6
331
1C2DB
331
1C2DC
331
1C2FF
331
1C300
331
1BEFA
331
1BEFB
331
1BF16
331
1BF17
331
1BF20
331
1BF21
331
1BF29
331
1BF2A
331
1BF3A
331
1BF3B
331
1BFA6
331
1BFAD
331
1BFBD
331
1BFBE
331
1BFC6
331
1BFC7
331
1C36E
331
1C36F
331
1C37E
331
1C37F
102
}
 70
     0
280
     1
281
     0
  0
BLOCK_RECORD
  5
13B5E
330
1
100
AcDbSymbolTableRecord
100
AcDbBlockTableRecord
  2
*D1
340
0
 70
     0
280
     1
281
     0
  0
BLOCK_RECORD
  5
13B6A
330
1
100
AcDbSymbolTableRecord
100
AcDbBlockTableRecord
  2
*D2
340
0
 70
     0
280
     1
281
     0
  0
BLOCK_RECORD
  5
13BEF
330
1
100
AcDbSymbolTableRecord
100
AcDbBlockTableRecord
  2
*D3
340
0
 70
     0
280
     1
281
     0
  0
BLOCK_RECORD
  5
13BFB
330
1
100
AcDbSymbolTableRecord
100
AcDbBlockTableRecord
  2
*D4
340
0
 70
     0
280
     1
281
     0
  0
BLOCK_RECORD
  5
13C05
330
1
100
AcDbSymbolTableRecord
100
AcDbBlockTableRecord
  2
*D5
340
0
 70
     0
280
     1
281
     0
  0
BLOCK_RECORD
  5
13C11
330
1
100
AcDbSymbolTableRecord
100
AcDbBlockTableRecord
  2
*D6
340
0
 70
     0
280
     1
281
     0
  0
BLOCK_RECORD
  5
13C1D
330
1
100
AcDbSymbolTableRecord
100
AcDbBlockTableRecord
  2
*D7
340
0
 70
     0
280
     1
281
     0
  0
BLOCK_RECORD
  5
13C2B
330
1
100
AcDbSymbolTableRecord
100
AcDbBlockTableRecord
  2
*D8
340
0
 70
     0
280
     1
281
     0
  0
BLOCK_RECORD
  5
13C35
330
1
100
AcDbSymbolTableRecord
100
AcDbBlockTableRecord
  2
*D9
340
0
 70
     0
280
     1
281
     0
  0
BLOCK_RECORD
  5
13C41
330
1
100
AcDbSymbolTableRecord
100
AcDbBlockTableRecord
  2
*D10
340
0
 70
     0
280
     1
281
     0
  0
BLOCK_RECORD
  5
13C4D
330
1
100
AcDbSymbolTableRecord
100
AcDbBlockTableRecord
  2
*D11
340
0
 70
     0
280
     1
281
     0
  0
BLOCK_RECORD
  5
13C59
330
1
100
AcDbSymbolTableRecord
100
AcDbBlockTableRecord
  2
*D12
340
0
 70
     0
280
     1
281
     0
  0
BLOCK_RECORD
  5
13C65
330
1
100
AcDbSymbolTableRecord
100
AcDbBlockTableRecord
  2
*D13
340
0
 70
     0
280
     1
281
     0
  0
BLOCK_RECORD
  5
13C7B
330
1
100
AcDbSymbolTableRecord
100
AcDbBlockTableRecord
  2
*D14
340
0
 70
     0
280
     1
281
     0
  0
BLOCK_RECORD
  5
13C87
330
1
100
AcDbSymbolTableRecord
100
AcDbBlockTableRecord
  2
*D15
340
0
 70
     0
280
     1
281
     0
  0
BLOCK_RECORD
  5
14642
330
1
100
AcDbSymbolTableRecord
100
AcDbBlockTableRecord
  2
*D16
340
0
 70
     0
280
     1
281
     0
  0
BLOCK_RECORD
  5
14665
330
1
100
AcDbSymbolTableRecord
100
AcDbBlockTableRecord
  2
*D17
340
0
 70
     0
280
     1
281
     0
  0
BLOCK_RECORD
  5
15128
330
1
100
AcDbSymbolTableRecord
100
AcDbBlockTableRecord
  2
*D18
340
0
 70
     0
280
     1
281
     0
  0
BLOCK_RECORD
  5
15DC3
330
1
100
AcDbSymbolTableRecord
100
AcDbBlockTableRecord
  2
*D19
340
0
 70
     0
280
     1
281
     0
  0
BLOCK_RECORD
  5
15DCF
330
1
100
AcDbSymbolTableRecord
100
AcDbBlockTableRecord
  2
*D20
340
0
 70
     0
280
     1
281
     0
  0
BLOCK_RECORD
  5
19BDE
330
1
100
AcDbSymbolTableRecord
100
AcDbBlockTableRecord
  2
*D21
340
0
 70
     0
280
     1
281
     0
  0
BLOCK_RECORD
  5
19FF5
330
1
100
AcDbSymbolTableRecord
100
AcDbBlockTableRecord
  2
*D22
340
0
 70
     0
280
     1
281
     0
  0
BLOCK_RECORD
  5
1A173
330
1
100
AcDbSymbolTableRecord
100
AcDbBlockTableRecord
  2
*D23
340
0
 70
     0
280
     1
281
     0
  0
BLOCK_RECORD
  5
1A180
330
1
100
AcDbSymbolTableRecord
100
AcDbBlockTableRecord
  2
*D24
340
0
 70
     0
280
     1
281
     0
  0
BLOCK_RECORD
  5
1A1C3
330
1
100
AcDbSymbolTableRecord
100
AcDbBlockTableRecord
  2
*D25
340
0
 70
     0
280
     1
281
     0
  0
BLOCK_RECORD
  5
1A1D0
330
1
100
AcDbSymbolTableRecord
100
AcDbBlockTableRecord
  2
*D26
340
0
 70
     0
280
     1
281
     0
  0
BLOCK_RECORD
  5
1A392
330
1
100
AcDbSymbolTableRecord
100
AcDbBlockTableRecord
  2
*D27
340
0
 70
     0
280
     1
281
     0
  0
BLOCK_RECORD
  5
1A39E
330
1
100
AcDbSymbolTableRecord
100
AcDbBlockTableRecord
  2
*D28
340
0
 70
     0
280
     1
281
     0
  0
BLOCK_RECORD
  5
1A3AA
330
1
100
AcDbSymbolTableRecord
100
AcDbBlockTableRecord
  2
*D29
340
0
 70
     0
280
     1
281
     0
  0
BLOCK_RECORD
  5
1A3B6
330
1
100
AcDbSymbolTableRecord
100
AcDbBlockTableRecord
  2
*D30
340
0
 70
     0
280
     1
281
     0
  0
BLOCK_RECORD
  5
1A3C4
330
1
100
AcDbSymbolTableRecord
100
AcDbBlockTableRecord
  2
*D31
340
0
 70
     0
280
     1
281
     0
  0
BLOCK_RECORD
  5
1BD60
330
1
100
AcDbSymbolTableRecord
100
AcDbBlockTableRecord
  2
*D32
340
0
 70
     0
280
     1
281
     0
  0
BLOCK_RECORD
  5
1BD6D
330
1
100
AcDbSymbolTableRecord
100
AcDbBlockTableRecord
  2
*D33
340
0
 70
     0
280
     1
281
     0
  0
BLOCK_RECORD
  5
1C068
330
1
100
AcDbSymbolTableRecord
100
AcDbBlockTableRecord
  2
*D34
340
0
 70
     0
280
     1
281
     0
  0
BLOCK_RECORD
  5
1C09B
330
1
100
AcDbSymbolTableRecord
100
AcDbBlockTableRecord
  2
*D35
340
0
 70
     0
280
     1
281
     0
  0
BLOCK_RECORD
  5
1C227
330
1
100
AcDbSymbolTableRecord
100
AcDbBlockTableRecord
  2
$AUDIT_BAD_BLOCK_RECORD1
340
0
 70
     0
280
     1
281
     0
  0
ENDTAB
  0
ENDSEC
  0
SECTION
  2
BLOCKS
  0
BLOCK
  5
1F
330
1E
100
AcDbEntity
  8
0
100
AcDbBlockBegin
  2
*MODEL_SPACE
 70
     0
 10
0.0
 20
0.0
 30
0.0
  3
*MODEL_SPACE
  1

  0
ENDBLK
  5
20
330
1E
100
AcDbEntity
  8
0
100
AcDbBlockEnd
  0
BLOCK
  5
1B
330
1A
100
AcDbEntity
 67
     1
  8
0
100
AcDbBlockBegin
  2
*PAPER_SPACE
 70
     0
 10
0.0
 20
0.0
 30
0.0
  3
*PAPER_SPACE
  1

  0
ENDBLK
  5
1C
330
1A
100
AcDbEntity
 67
     1
  8
0
100
AcDbBlockEnd
  0
BLOCK
  5
3B6
330
3B2
100
AcDbEntity
  8
0
100
AcDbBlockBegin
  2
_OPEN
 70
     0
 10
0.0
 20
0.0
 30
0.0
  3
_OPEN
  1

  0
LINE
  5
3B3
330
3B2
100
AcDbEntity
  8
30
  6
Continuous
 62
     0
100
AcDbLine
 10
-1.0
 20
0.166667
 30
0.0
 11
0.0
 21
0.0
 31
0.0
  0
LINE
  5
3B4
330
3B2
100
AcDbEntity
  8
30
  6
Continuous
 62
     0
100
AcDbLine
 10
-1.0
 20
-0.166667
 30
0.0
 11
0.0
 21
0.0
 31
0.0
  0
LINE
  5
3B5
330
3B2
100
AcDbEntity
  8
30
  6
Continuous
 62
     0
100
AcDbLine
 10
0.0
 20
0.0
 30
0.0
 11
-1.0
 21
0.0
 31
0.0
  0
ENDBLK
  5
3B7
330
3B2
100
AcDbEntity
  8
0
100
AcDbBlockEnd
  0
BLOCK
  5
13B5F
330
13B5E
100
AcDbEntity
  8
0
100
AcDbBlockBegin
  2
*D1
 70
     1
 10
0.0
 20
0.0
 30
0.0
  3
*D1
  1

  0
LINE
  5
1C37A
330
13B5E
100
AcDbEntity
  8
30
  6
Continuous
 62
     0
440
 16777216
370
    -2
100
AcDbLine
 10
645.0623810060892
 20
510.4938972774816
 30
0.0
 11
662.7204823418228
 21
510.4938972774816
 31
0.0
  0
LINE
  5
1C37B
330
13B5E
100
AcDbEntity
  8
30
  6
Continuous
 62
     0
440
 16777216
370
    -2
100
AcDbLine
 10
645.0623810060892
 20
480.4938972774817
 30
0.0
 11
662.7204823418228
 21
480.4938972774817
 31
0.0
  0
LINE
  5
1C37C
330
13B5E
100
AcDbEntity
  8
30
  6
Continuous
 62
     0
440
 16777216
370
    -2
100
AcDbLine
 10
662.2204823418228
 20
482.4938972774816
 30
0.0
 11
662.2204823418228
 21
508.4938972774816
 31
0.0
  0
LINE
  5
1C37D
330
13B5E
100
AcDbEntity
  8
30
  6
Continuous
 62
     0
440
 16777216
370
    -2
100
AcDbLine
 10
662.2204823418228
 20
510.4938972774816
 30
0.0
 11
662.2204823418228
 21
530.70419876933
 31
0.0
  0
INSERT
  5
1C37E
330
13B5E
100
AcDbEntity
  8
30
  6
Continuous
 62
     0
440
 16777216
370
    -2
100
AcDbBlockReference
  2
_OPEN
 10
662.2204823418228
 20
480.4938972774817
 30
0.0
 41
2.0
 42
2.0
 43
2.0
 50
270.0
  0
INSERT
  5
1C37F
330
13B5E
100
AcDbEntity
  8
30
  6
Continuous
 62
     0
440
 16777216
370
    -2
100
AcDbBlockReference
  2
_OPEN
 10
662.2204823418228
 20
510.4938972774816
 30
0.0
 41
2.0
 42
2.0
 43
2.0
 50
90.0
  0
MTEXT
  5
1C380
330
13B5E
100
AcDbEntity
  8
30
  6
Continuous
440
 16777216
100
AcDbMText
 10
655.2204823418227
 20
521.7041987693301
 30
0.0
 40
8.0
 41
0.0
 46
0.0
 71
     5
 72
     1
  1
\A1;30
 11
0.0000000000000001
 21
1.0
 31
0.0
 73
     1
 44
1.0
 90
        3
 63
     9
421
 13158600
 45
1.25
441
        0
  0
POINT
  5
1C381
330
13B5E
100
AcDbEntity
  8
DEFPOINTS
  6
Continuous
 62
     0
440
 16777216
100
AcDbPoint
 10
644.0623810060892
 20
510.4938972774816
 30
0.0
  0
POINT
  5
1C382
330
13B5E
100
AcDbEntity
  8
DEFPOINTS
  6
Continuous
 62
     0
440
 16777216
100
AcDbPoint
 10
644.0623810060892
 20
480.4938972774817
 30
0.0
  0
POINT
  5
1C383
330
13B5E
100
AcDbEntity
  8
DEFPOINTS
  6
Continuous
 62
     0
440
 16777216
100
AcDbPoint
 10
662.2204823418228
 20
480.4938972774817
 30
0.0
  0
ENDBLK
  5
13B60
330
13B5E
100
AcDbEntity
  8
0
100
AcDbBlockEnd
  0
BLOCK
  5
13B6B
330
13B6A
100
AcDbEntity
  8
0
100
AcDbBlockBegin
  2
*D2
 70
     1
 10
0.0
 20
0.0
 30
0.0
  3
*D2
  1

  0
LINE
  5
1C264
330
13B6A
100
AcDbEntity
  8
30
  6
Continuous
 62
     0
440
 16777216
370
    -2
100
AcDbLine
 10
652.0623810060892
 20
723.4938972774823
 30
0.0
 11
676.035802806794
 21
723.4938972774823
 31
0.0
  0
LINE
  5
1C265
330
13B6A
100
AcDbEntity
  8
30
  6
Continuous
 62
     0
440
 16777216
370
    -2
100
AcDbLine
 10
641.2493909686816
 20
495.4938972774816
 30
0.0
 11
676.035802806794
 21
495.4938972774816
 31
0.0
  0
LINE
  5
1C266
330
13B6A
100
AcDbEntity
  8
30
  6
Continuous
 62
     0
440
 16777216
370
    -2
100
AcDbLine
 10
675.535802806794
 20
721.4938972774823
 30
0.0
 11
675.535802806794
 21
497.4938972774817
 31
0.0
  0
INSERT
  5
1C267
330
13B6A
100
AcDbEntity
  8
30
  6
Continuous
 62
     0
440
 16777216
370
    -2
100
AcDbBlockReference
  2
_OPEN
 10
675.535802806794
 20
723.4938972774823
 30
0.0
 41
2.0
 42
2.0
 43
2.0
 50
90.0
  0
INSERT
  5
1C268
330
13B6A
100
AcDbEntity
  8
30
  6
Continuous
 62
     0
440
 16777216
370
    -2
100
AcDbBlockReference
  2
_OPEN
 10
675.535802806794
 20
495.4938972774816
 30
0.0
 41
2.0
 42
2.0
 43
2.0
 50
270.0
  0
MTEXT
  5
1C269
330
13B6A
100
AcDbEntity
  8
30
  6
Continuous
440
 16777216
100
AcDbMText
 10
668.5358028067938
 20
609.4938972774822
 30
0.0
 40
8.0
 41
0.0
 46
0.0
 71
     5
 72
     1
  1
\A1;228
 11
0.0000000000000001
 21
1.0
 31
0.0
 73
     1
 44
1.0
 90
        3
 63
     9
421
 13158600
 45
1.25
441
        0
  0
POINT
  5
1C26A
330
13B6A
100
AcDbEntity
  8
DEFPOINTS
  6
Continuous
 62
     0
440
 16777216
100
AcDbPoint
 10
651.0623810060892
 20
723.4938972774823
 30
0.0
  0
POINT
  5
1C26B
330
13B6A
100
AcDbEntity
  8
DEFPOINTS
  6
Continuous
 62
     0
440
 16777216
100
AcDbPoint
 10
640.2493909686817
 20
495.4938972774816
 30
0.0
  0
POINT
  5
1C26C
330
13B6A
100
AcDbEntity
  8
DEFPOINTS
  6
Continuous
 62
     0
440
 16777216
100
AcDbPoint
 10
675.535802806794
 20
495.4938972774816
 30
0.0
  0
ENDBLK
  5
13B6C
330
13B6A
100
AcDbEntity
  8
0
100
AcDbBlockEnd
  0
BLOCK
  5
13BF0
330
13BEF
100
AcDbEntity
  8
0
100
AcDbBlockBegin
  2
*D3
 70
     1
 10
0.0
 20
0.0
 30
0.0
  3
*D3
  1

  0
LINE
  5
1C18D
330
13BEF
100
AcDbEntity
  8
30
  6
Continuous
 62
     0
440
 16777216
370
    -2
100
AcDbLine
 10
217.684731904862
 20
739.4938972774824
 30
0.0
 11
262.7038707992793
 21
739.4938972774824
 31
0.0
  0
LINE
  5
1C18E
330
13BEF
100
AcDbEntity
  8
30
  6
Continuous
 62
     0
440
 16777216
370
    -2
100
AcDbLine
 10
217.684731904862
 20
479.4938972774822
 30
0.0
 11
262.7038707992792
 21
479.4938972774822
 31
0.0
  0
LINE
  5
1C18F
330
13BEF
100
AcDbEntity
  8
30
  6
Continuous
 62
     0
440
 16777216
370
    -2
100
AcDbLine
 10
262.2038707992794
 20
737.4938972774823
 30
0.0
 11
262.2038707992792
 21
481.4938972774823
 31
0.0
  0
INSERT
  5
1C190
330
13BEF
100
AcDbEntity
  8
30
  6
Continuous
 62
     0
440
 16777216
370
    -2
100
AcDbBlockReference
  2
_OPEN
 10
262.2038707992794
 20
739.4938972774824
 30
0.0
 41
2.0
 42
2.0
 43
2.0
 50
90.0
  0
INSERT
  5
1C191
330
13BEF
100
AcDbEntity
  8
30
  6
Continuous
 62
     0
440
 16777216
370
    -2
100
AcDbBlockReference
  2
_OPEN
 10
262.2038707992792
 20
479.4938972774822
 30
0.0
 41
2.0
 42
2.0
 43
2.0
 50
270.0
  0
MTEXT
  5
1C192
330
13BEF
100
AcDbEntity
  8
30
  6
Continuous
440
 16777216
100
AcDbMText
 10
255.2038707992791
 20
609.4938972774822
 30
0.0
 40
8.0
 41
0.0
 46
0.0
 71
     5
 72
     1
  1
\A1;260
 11
0.0000000000000001
 21
1.0
 31
0.0
 73
     1
 44
1.0
 90
        3
 63
     9
421
 13158600
 45
1.25
441
        0
  0
POINT
  5
1C193
330
13BEF
100
AcDbEntity
  8
DEFPOINTS
  6
Continuous
 62
     0
440
 16777216
100
AcDbPoint
 10
216.684731904862
 20
739.4938972774824
 30
0.0
  0
POINT
  5
1C194
330
13BEF
100
AcDbEntity
  8
DEFPOINTS
  6
Continuous
 62
     0
440
 16777216
100
AcDbPoint
 10
216.684731904862
 20
479.4938972774822
 30
0.0
  0
POINT
  5
1C195
330
13BEF
100
AcDbEntity
  8
DEFPOINTS
  6
Continuous
 62
     0
440
 16777216
100
AcDbPoint
 10
262.2038707992792
 20
479.4938972774822
 30
0.0
  0
ENDBLK
  5
13BF1
330
13BEF
100
AcDbEntity
  8
0
100
AcDbBlockEnd
  0
BLOCK
  5
13BFC
330
13BFB
100
AcDbEntity
  8
0
100
AcDbBlockBegin
  2
*D4
 70
     1
 10
0.0
 20
0.0
 30
0.0
  3
*D4
  1

  0
LINE
  5
1BF37
330
13BFB
100
AcDbEntity
  8
30
  6
Continuous
 62
     0
440
 16777216
370
    -2
100
AcDbLine
 10
111.4206531527698
 20
109.9224391679274
 30
0.0
 11
91.14725660097507
 21
85.16381658399295
 31
0.0
  0
LINE
  5
1BF38
330
13BFB
100
AcDbEntity
  8
30
  6
Continuous
 62
     0
440
 16777216
370
    -2
100
AcDbLine
 10
89.88016931648797
 20
83.61640267249704
 30
0.0
 11
69.22995260248045
 21
58.39759335298493
 31
0.0
  0
LINE
  5
1BF39
330
13BFB
100
AcDbEntity
  8
30
  6
Continuous
 62
     0
440
 16777216
370
    -2
100
AcDbLine
 10
69.22995260248045
 20
58.39759335298493
 30
0.0
 11
44.89661926914711
 21
58.39759335298493
 31
0.0
  0
INSERT
  5
1BF3A
330
13BFB
100
AcDbEntity
  8
30
  6
Continuous
 62
     0
440
 16777216
370
    -2
100
AcDbBlockReference
  2
_OPEN
 10
112.687740437257
 20
111.4698530794233
 30
0.0
 41
2.0
 42
2.0
 43
2.0
 50
50.68794736315002
  0
INSERT
  5
1BF3B
330
13BFB
100
AcDbEntity
  8
30
  6
Continuous
 62
     0
440
 16777216
370
    -2
100
AcDbBlockReference
  2
_OPEN
 10
89.88016931648797
 20
83.61640267249704
 30
0.0
 41
2.0
 42
2.0
 43
2.0
 50
230.6879473631501
  0
MTEXT
  5
1BF3C
330
13BFB
100
AcDbEntity
  8
30
  6
Continuous
 62
     0
440
 16777216
100
AcDbMText
 10
55.56328593581381
 20
65.39759335298493
 30
0.0
 40
8.0
 41
0.0
 46
0.0
 71
     5
 72
     1
  1
\A1;∅36
 73
     1
 44
1.0
  0
POINT
  5
1BF3D
330
13BFB
100
AcDbEntity
  8
DEFPOINTS
  6
Continuous
 62
     0
440
 16777216
100
AcDbPoint
 10
89.88016931648797
 20
83.61640267249704
 30
0.0
  0
POINT
  5
1BF3E
330
13BFB
100
AcDbEntity
  8
DEFPOINTS
  6
Continuous
 62
     0
440
 16777216
100
AcDbPoint
 10
112.687740437257
 20
111.4698530794233
 30
0.0
  0
ENDBLK
  5
13BFD
330
13BFB
100
AcDbEntity
  8
0
100
AcDbBlockEnd
  0
BLOCK
  5
13C06
330
13C05
100
AcDbEntity
  8
0
100
AcDbBlockBegin
  2
*D5
 70
     1
 10
0.0
 20
0.0
 30
0.0
  3
*D5
  1

  0
LINE
  5
1C30E
330
13C05
100
AcDbEntity
  8
30
  6
Continuous
 62
     0
440
 16777216
370
    -2
100
AcDbLine
 10
192.2839548768725
 20
325.4531278759599
 30
0.0
 11
262.8578649905313
 21
325.4531278759599
 31
0.0
  0
LINE
  5
1C30F
330
13C05
100
AcDbEntity
  8
30
  6
Continuous
 62
     0
440
 16777216
370
    -2
100
AcDbLine
 10
192.2839548768725
 20
97.45312787595993
 30
0.0
 11
262.8578649905312
 21
97.45312787595993
 31
0.0
  0
LINE
  5
1C310
330
13C05
100
AcDbEntity
  8
30
  6
Continuous
 62
     0
440
 16777216
370
    -2
100
AcDbLine
 10
262.3578649905312
 20
323.4531278759599
 30
0.0
 11
262.3578649905312
 21
99.45312787595995
 31
0.0
  0
INSERT
  5
1C311
330
13C05
100
AcDbEntity
  8
30
  6
Continuous
 62
     0
440
 16777216
370
    -2
100
AcDbBlockReference
  2
_OPEN
 10
262.3578649905312
 20
325.4531278759599
 30
0.0
 41
2.0
 42
2.0
 43
2.0
 50
90.0
  0
INSERT
  5
1C312
330
13C05
100
AcDbEntity
  8
30
  6
Continuous
 62
     0
440
 16777216
370
    -2
100
AcDbBlockReference
  2
_OPEN
 10
262.3578649905312
 20
97.45312787595993
 30
0.0
 41
2.0
 42
2.0
 43
2.0
 50
270.0
  0
MTEXT
  5
1C313
330
13C05
100
AcDbEntity
  8
30
  6
Continuous
440
 16777216
100
AcDbMText
 10
255.3578649905312
 20
211.4531278759599
 30
0.0
 40
8.0
 41
0.0
 46
0.0
 71
     5
 72
     1
  1
\A1;228
 11
0.0000000000000001
 21
1.0
 31
0.0
 73
     1
 44
1.0
 90
        3
 63
     9
421
 13158600
 45
1.25
441
        0
  0
POINT
  5
1C314
330
13C05
100
AcDbEntity
  8
DEFPOINTS
  6
Continuous
 62
     0
440
 16777216
100
AcDbPoint
 10
191.2839548768724
 20
325.4531278759599
 30
0.0
  0
POINT
  5
1C315
330
13C05
100
AcDbEntity
  8
DEFPOINTS
  6
Continuous
 62
     0
440
 16777216
100
AcDbPoint
 10
191.2839548768724
 20
97.45312787595993
 30
0.0
  0
POINT
  5
1C316
330
13C05
100
AcDbEntity
  8
DEFPOINTS
  6
Continuous
 62
     0
440
 16777216
100
AcDbPoint
 10
262.3578649905312
 20
97.45312787595993
 30
0.0
  0
ENDBLK
  5
13C07
330
13C05
100
AcDbEntity
  8
0
100
AcDbBlockEnd
  0
BLOCK
  5
13C12
330
13C11
100
AcDbEntity
  8
0
100
AcDbBlockBegin
  2
*D6
 70
     1
 10
0.0
 20
0.0
 30
0.0
  3
*D6
  1

  0
LINE
  5
1C2FC
330
13C11
100
AcDbEntity
  8
30
  6
Continuous
 62
     0
440
 16777216
370
    -2
100
AcDbLine
 10
169.7839548768725
 20
318.4531278759599
 30
0.0
 11
246.1051020748128
 21
318.4531278759599
 31
0.0
  0
LINE
  5
1C2FD
330
13C11
100
AcDbEntity
  8
30
  6
Continuous
 62
     0
440
 16777216
370
    -2
100
AcDbLine
 10
169.7839548768725
 20
104.4531278759599
 30
0.0
 11
246.1051020748128
 21
104.4531278759599
 31
0.0
  0
LINE
  5
1C2FE
330
13C11
100
AcDbEntity
  8
30
  6
Continuous
 62
     0
440
 16777216
370
    -2
100
AcDbLine
 10
245.6051020748128
 20
316.4531278759599
 30
0.0
 11
245.6051020748128
 21
106.4531278759599
 31
0.0
  0
INSERT
  5
1C2FF
330
13C11
100
AcDbEntity
  8
30
  6
Continuous
 62
     0
440
 16777216
370
    -2
100
AcDbBlockReference
  2
_OPEN
 10
245.6051020748128
 20
318.4531278759599
 30
0.0
 41
2.0
 42
2.0
 43
2.0
 50
90.0
  0
INSERT
  5
1C300
330
13C11
100
AcDbEntity
  8
30
  6
Continuous
 62
     0
440
 16777216
370
    -2
100
AcDbBlockReference
  2
_OPEN
 10
245.6051020748128
 20
104.4531278759599
 30
0.0
 41
2.0
 42
2.0
 43
2.0
 50
270.0
  0
MTEXT
  5
1C301
330
13C11
100
AcDbEntity
  8
30
  6
Continuous
440
 16777216
100
AcDbMText
 10
238.6051020748128
 20
211.4531278759599
 30
0.0
 40
8.0
 41
0.0
 46
0.0
 71
     5
 72
     1
  1
\A1;214
 11
0.0000000000000001
 21
1.0
 31
0.0
 73
     1
 44
1.0
 90
        3
 63
     9
421
 13158600
 45
1.25
441
        0
  0
POINT
  5
1C302
330
13C11
100
AcDbEntity
  8
DEFPOINTS
  6
Continuous
 62
     0
440
 16777216
100
AcDbPoint
 10
168.7839548768725
 20
318.4531278759599
 30
0.0
  0
POINT
  5
1C303
330
13C11
100
AcDbEntity
  8
DEFPOINTS
  6
Continuous
 62
     0
440
 16777216
100
AcDbPoint
 10
168.7839548768725
 20
104.4531278759599
 30
0.0
  0
POINT
  5
1C304
330
13C11
100
AcDbEntity
  8
DEFPOINTS
  6
Continuous
 62
     0
440
 16777216
100
AcDbPoint
 10
245.6051020748128
 20
104.4531278759599
 30
0.0
  0
ENDBLK
  5
13C13
330
13C11
100
AcDbEntity
  8
0
100
AcDbBlockEnd
  0
BLOCK
  5
13C1E
330
13C1D
100
AcDbEntity
  8
0
100
AcDbBlockBegin
  2
*D7
 70
     1
 10
0.0
 20
0.0
 30
0.0
  3
*D7
  1

  0
LINE
  5
1C1A8
330
13C1D
100
AcDbEntity
  8
30
  6
Continuous
 62
     0
440
 16777216
370
    -2
100
AcDbLine
 10
172.7839144437002
 20
927.4358928866996
 30
0.0
 11
239.3965507973826
 21
927.4358928866996
 31
0.0
  0
LINE
  5
1C1A9
330
13C1D
100
AcDbEntity
  8
30
  6
Continuous
 62
     0
440
 16777216
370
    -2
100
AcDbLine
 10
214.8405987001329
 20
912.7359342129096
 30
0.0
 11
239.3965507973826
 21
912.7359342129096
 31
0.0
  0
LINE
  5
1C1AA
330
13C1D
100
AcDbEntity
  8
30
  6
Continuous
 62
     0
440
 16777216
370
    -2
100
AcDbLine
 10
238.8965507973826
 20
925.4358928866992
 30
0.0
 11
238.8965507973826
 21
914.7359342129099
 31
0.0
  0
LINE
  5
1C1AB
330
13C1D
100
AcDbEntity
  8
30
  6
Continuous
 62
     0
440
 16777216
370
    -2
100
AcDbLine
 10
238.8965507973826
 20
912.7359342129096
 30
0.0
 11
238.8965507973826
 21
883.4026008795765
 31
0.0
  0
INSERT
  5
1C1AC
330
13C1D
100
AcDbEntity
  8
30
  6
Continuous
 62
     0
440
 16777216
370
    -2
100
AcDbBlockReference
  2
_OPEN
 10
238.8965507973826
 20
927.4358928866996
 30
0.0
 41
2.0
 42
2.0
 43
2.0
 50
90.0
  0
INSERT
  5
1C1AD
330
13C1D
100
AcDbEntity
  8
30
  6
Continuous
 62
     0
440
 16777216
370
    -2
100
AcDbBlockReference
  2
_OPEN
 10
238.8965507973826
 20
912.7359342129096
 30
0.0
 41
2.0
 42
2.0
 43
2.0
 50
270.0
  0
MTEXT
  5
1C1AE
330
13C1D
100
AcDbEntity
  8
30
  6
Continuous
440
 16777216
100
AcDbMText
 10
231.8965507973825
 20
897.0692675462432
 30
0.0
 40
8.0
 41
0.0
 46
0.0
 71
     5
 72
     1
  1
\A1;14.7
 11
0.0000000000000001
 21
1.0
 31
0.0
 73
     1
 44
1.0
 90
        3
 63
     9
421
 13158600
 45
1.25
441
        0
  0
POINT
  5
1C1AF
330
13C1D
100
AcDbEntity
  8
DEFPOINTS
  6
Continuous
 62
     0
440
 16777216
100
AcDbPoint
 10
171.7839144437002
 20
927.4358928866996
 30
0.0
  0
POINT
  5
1C1B0
330
13C1D
100
AcDbEntity
  8
DEFPOINTS
  6
Continuous
 62
     0
440
 16777216
100
AcDbPoint
 10
213.8405987001329
 20
912.7359342129096
 30
0.0
  0
POINT
  5
1C1B1
330
13C1D
100
AcDbEntity
  8
DEFPOINTS
  6
Continuous
 62
     0
440
 16777216
100
AcDbPoint
 10
238.8965507973826
 20
912.7359342129096
 30
0.0
  0
ENDBLK
  5
13C1F
330
13C1D
100
AcDbEntity
  8
0
100
AcDbBlockEnd
  0
BLOCK
  5
13C2C
330
13C2B
100
AcDbEntity
  8
0
100
AcDbBlockBegin
  2
*D8
 70
     1
 10
0.0
 20
0.0
 30
0.0
  3
*D8
  1

  0
LINE
  5
1C2D7
330
13C2B
100
AcDbEntity
  8
30
  6
Continuous
 62
     0
440
 16777216
370
    -2
100
AcDbLine
 10
123.782594313314
 20
313.4531280610732
 30
0.0
 11
123.7820500878921
 21
311.4531281351186
 31
0.0
  0
LINE
  5
1C2D8
330
13C2B
100
AcDbEntity
  8
30
  6
Continuous
 62
     0
440
 16777216
370
    -2
100
AcDbLine
 10
123.7853154404238
 20
323.4531276908461
 30
0.0
 11
123.7950349836875
 21
359.1719401971549
 31
0.0
  0
LINE
  5
1C2D9
330
13C2B
100
AcDbEntity
  8
30
  6
Continuous
 62
     0
440
 16777216
370
    -2
100
AcDbLine
 10
123.7950349836875
 20
359.1719401971549
 30
0.0
 11
107.4617016503542
 21
359.1719401971549
 31
0.0
  0
LINE
  5
1C2DA
330
13C2B
100
AcDbEntity
  8
30
  6
Continuous
 62
     0
440
 16777216
370
    -2
100
AcDbLine
 10
123.783138538736
 20
315.4531279870279
 30
0.0
 11
123.7847712150018
 21
321.4531277648914
 31
0.0
  0
INSERT
  5
1C2DB
330
13C2B
100
AcDbEntity
  8
30
  6
Continuous
 62
     0
440
 16777216
370
    -2
100
AcDbBlockReference
  2
_OPEN
 10
123.783138538736
 20
315.4531279870279
 30
0.0
 41
2.0
 42
2.0
 43
2.0
 50
89.98440908991687
  0
INSERT
  5
1C2DC
330
13C2B
100
AcDbEntity
  8
30
  6
Continuous
 62
     0
440
 16777216
370
    -2
100
AcDbBlockReference
  2
_OPEN
 10
123.7847712150018
 20
321.4531277648914
 30
0.0
 41
2.0
 42
2.0
 43
2.0
 50
269.9844090899169
  0
MTEXT
  5
1C2DD
330
13C2B
100
AcDbEntity
  8
30
  6
Continuous
 62
     0
440
 16777216
100
AcDbMText
 10
114.1283683170209
 20
366.1719401971549
 30
0.0
 40
8.0
 41
0.0
 46
0.0
 71
     5
 72
     1
  1
\A1;M6
 73
     1
 44
1.0
  0
POINT
  5
1C2DE
330
13C2B
100
AcDbEntity
  8
DEFPOINTS
  6
Continuous
 62
     0
440
 16777216
100
AcDbPoint
 10
123.7847712150018
 20
321.4531277648914
 30
0.0
  0
POINT
  5
1C2DF
330
13C2B
100
AcDbEntity
  8
DEFPOINTS
  6
Continuous
 62
     0
440
 16777216
100
AcDbPoint
 10
123.783138538736
 20
315.4531279870279
 30
0.0
  0
ENDBLK
  5
13C2D
330
13C2B
100
AcDbEntity
  8
0
100
AcDbBlockEnd
  0
BLOCK
  5
13C36
330
13C35
100
AcDbEntity
  8
0
100
AcDbBlockBegin
  2
*D9
 70
     1
 10
0.0
 20
0.0
 30
0.0
  3
*D9
  1

  0
LINE
  5
1C2C2
330
13C35
100
AcDbEntity
  8
30
  6
Continuous
 62
     0
440
 16777216
370
    -2
100
AcDbLine
 10
76.68473190486202
 20
478.4938972774822
 30
0.0
 11
76.68473190486202
 21
435.3615143370715
 31
0.0
  0
LINE
  5
1C2C3
330
13C35
100
AcDbEntity
  8
30
  6
Continuous
 62
     0
440
 16777216
370
    -2
100
AcDbLine
 10
216.684731904862
 20
478.4938972774822
 30
0.0
 11
216.684731904862
 21
435.3615143370715
 31
0.0
  0
LINE
  5
1C2C4
330
13C35
100
AcDbEntity
  8
30
  6
Continuous
 62
     0
440
 16777216
370
    -2
100
AcDbLine
 10
78.68473190486202
 20
435.8615143370715
 30
0.0
 11
214.684731904862
 21
435.8615143370715
 31
0.0
  0
INSERT
  5
1C2C5
330
13C35
100
AcDbEntity
  8
30
  6
Continuous
 62
     0
440
 16777216
370
    -2
100
AcDbBlockReference
  2
_OPEN
 10
76.68473190486202
 20
435.8615143370715
 30
0.0
 41
2.0
 42
2.0
 43
2.0
 50
180.0
  0
INSERT
  5
1C2C6
330
13C35
100
AcDbEntity
  8
30
  6
Continuous
 62
     0
440
 16777216
370
    -2
100
AcDbBlockReference
  2
_OPEN
 10
216.684731904862
 20
435.8615143370715
 30
0.0
 41
2.0
 42
2.0
 43
2.0
  0
MTEXT
  5
1C2C7
330
13C35
100
AcDbEntity
  8
30
  6
Continuous
440
 16777216
100
AcDbMText
 10
146.684731904862
 20
442.8615143370715
 30
0.0
 40
8.0
 41
0.0
 46
0.0
 71
     5
 72
     1
  1
\A1;140
 73
     1
 44
1.0
 90
        3
 63
     9
421
 13158600
 45
1.25
441
        0
  0
POINT
  5
1C2C8
330
13C35
100
AcDbEntity
  8
DEFPOINTS
  6
Continuous
 62
     0
440
 16777216
100
AcDbPoint
 10
76.68473190486202
 20
479.4938972774822
 30
0.0
  0
POINT
  5
1C2C9
330
13C35
100
AcDbEntity
  8
DEFPOINTS
  6
Continuous
 62
     0
440
 16777216
100
AcDbPoint
 10
216.684731904862
 20
479.4938972774822
 30
0.0
  0
POINT
  5
1C2CA
330
13C35
100
AcDbEntity
  8
DEFPOINTS
  6
Continuous
 62
     0
440
 16777216
100
AcDbPoint
 10
216.684731904862
 20
435.8615143370715
 30
0.0
  0
ENDBLK
  5
13C37
330
13C35
100
AcDbEntity
  8
0
100
AcDbBlockEnd
  0
BLOCK
  5
13C42
330
13C41
100
AcDbEntity
  8
0
100
AcDbBlockBegin
  2
*D10
 70
     1
 10
0.0
 20
0.0
 30
0.0
  3
*D10
  1

  0
LINE
  5
1C1BB
330
13C41
100
AcDbEntity
  8
30
  6
Continuous
 62
     0
440
 16777216
370
    -2
100
AcDbLine
 10
101.2838938417126
 20
979.2359342129097
 30
0.0
 11
101.2838938417126
 21
1040.799470425412
 31
0.0
  0
LINE
  5
1C1BC
330
13C41
100
AcDbEntity
  8
30
  6
Continuous
 62
     0
440
 16777216
370
    -2
100
AcDbLine
 10
146.2838938417126
 20
1019.23593421291
 30
0.0
 11
146.2838938417126
 21
1040.799470425412
 31
0.0
  0
LINE
  5
1C1BD
330
13C41
100
AcDbEntity
  8
30
  6
Continuous
 62
     0
440
 16777216
370
    -2
100
AcDbLine
 10
103.2838938417126
 20
1040.299470425412
 30
0.0
 11
144.2838938417126
 21
1040.299470425412
 31
0.0
  0
INSERT
  5
1C1BE
330
13C41
100
AcDbEntity
  8
30
  6
Continuous
 62
     0
440
 16777216
370
    -2
100
AcDbBlockReference
  2
_OPEN
 10
101.2838938417126
 20
1040.299470425412
 30
0.0
 41
2.0
 42
2.0
 43
2.0
 50
180.0
  0
INSERT
  5
1C1BF
330
13C41
100
AcDbEntity
  8
30
  6
Continuous
 62
     0
440
 16777216
370
    -2
100
AcDbBlockReference
  2
_OPEN
 10
146.2838938417126
 20
1040.299470425412
 30
0.0
 41
2.0
 42
2.0
 43
2.0
  0
MTEXT
  5
1C1C0
330
13C41
100
AcDbEntity
  8
30
  6
Continuous
440
 16777216
100
AcDbMText
 10
123.7838938417126
 20
1047.299470425412
 30
0.0
 40
8.0
 41
0.0
 46
0.0
 71
     5
 72
     1
  1
\A1;45
 73
     1
 44
1.0
 90
        3
 63
     9
421
 13158600
 45
1.25
441
        0
  0
POINT
  5
1C1C1
330
13C41
100
AcDbEntity
  8
DEFPOINTS
  6
Continuous
 62
     0
440
 16777216
100
AcDbPoint
 10
101.2838938417126
 20
978.2359342129096
 30
0.0
  0
POINT
  5
1C1C2
330
13C41
100
AcDbEntity
  8
DEFPOINTS
  6
Continuous
 62
     0
440
 16777216
100
AcDbPoint
 10
146.2838938417126
 20
1018.23593421291
 30
0.0
  0
POINT
  5
1C1C3
330
13C41
100
AcDbEntity
  8
DEFPOINTS
  6
Continuous
 62
     0
440
 16777216
100
AcDbPoint
 10
146.2838938417126
 20
1040.299470425412
 30
0.0
  0
ENDBLK
  5
13C43
330
13C41
100
AcDbEntity
  8
0
100
AcDbBlockEnd
  0
BLOCK
  5
13C4E
330
13C4D
100
AcDbEntity
  8
0
100
AcDbBlockBegin
  2
*D11
 70
     1
 10
0.0
 20
0.0
 30
0.0
  3
*D11
  1

  0
LINE
  5
1C1C4
330
13C4D
100
AcDbEntity
  8
30
  6
Continuous
 62
     0
440
 16777216
370
    -2
100
AcDbLine
 10
146.2838938417126
 20
1019.23593421291
 30
0.0
 11
146.2838938417126
 21
1040.799470425412
 31
0.0
  0
LINE
  5
1C1C5
330
13C4D
100
AcDbEntity
  8
30
  6
Continuous
 62
     0
440
 16777216
370
    -2
100
AcDbLine
 10
191.2838938417126
 20
979.2359342129097
 30
0.0
 11
191.2838938417126
 21
1040.799470425412
 31
0.0
  0
LINE
  5
1C1C6
330
13C4D
100
AcDbEntity
  8
30
  6
Continuous
 62
     0
440
 16777216
370
    -2
100
AcDbLine
 10
148.2838938417126
 20
1040.299470425412
 30
0.0
 11
189.2838938417126
 21
1040.299470425412
 31
0.0
  0
INSERT
  5
1C1C7
330
13C4D
100
AcDbEntity
  8
30
  6
Continuous
 62
     0
440
 16777216
370
    -2
100
AcDbBlockReference
  2
_OPEN
 10
146.2838938417126
 20
1040.299470425412
 30
0.0
 41
2.0
 42
2.0
 43
2.0
 50
180.0
  0
INSERT
  5
1C1C8
330
13C4D
100
AcDbEntity
  8
30
  6
Continuous
 62
     0
440
 16777216
370
    -2
100
AcDbBlockReference
  2
_OPEN
 10
191.2838938417126
 20
1040.299470425412
 30
0.0
 41
2.0
 42
2.0
 43
2.0
  0
MTEXT
  5
1C1C9
330
13C4D
100
AcDbEntity
  8
30
  6
Continuous
440
 16777216
100
AcDbMText
 10
168.7838938417126
 20
1047.299470425412
 30
0.0
 40
8.0
 41
0.0
 46
0.0
 71
     5
 72
     1
  1
\A1;45
 73
     1
 44
1.0
 90
        3
 63
     9
421
 13158600
 45
1.25
441
        0
  0
POINT
  5
1C1CA
330
13C4D
100
AcDbEntity
  8
DEFPOINTS
  6
Continuous
 62
     0
440
 16777216
100
AcDbPoint
 10
146.2838938417126
 20
1018.23593421291
 30
0.0
  0
POINT
  5
1C1CB
330
13C4D
100
AcDbEntity
  8
DEFPOINTS
  6
Continuous
 62
     0
440
 16777216
100
AcDbPoint
 10
191.2838938417126
 20
978.2359342129096
 30
0.0
  0
POINT
  5
1C1CC
330
13C4D
100
AcDbEntity
  8
DEFPOINTS
  6
Continuous
 62
     0
440
 16777216
100
AcDbPoint
 10
191.2838938417126
 20
1040.299470425412
 30
0.0
  0
ENDBLK
  5
13C4F
330
13C4D
100
AcDbEntity
  8
0
100
AcDbBlockEnd
  0
BLOCK
  5
13C5A
330
13C59
100
AcDbEntity
  8
0
100
AcDbBlockBegin
  2
*D12
 70
     1
 10
0.0
 20
0.0
 30
0.0
  3
*D12
  1

  0
LINE
  5
1C1CD
330
13C59
100
AcDbEntity
  8
30
  6
Continuous
 62
     0
440
 16777216
370
    -2
100
AcDbLine
 10
554.4021999079522
 20
163.07232407759
 30
0.0
 11
554.4021999079522
 21
52.43855233525096
 31
0.0
  0
LINE
  5
1C1CE
330
13C59
100
AcDbEntity
  8
30
  6
Continuous
 62
     0
440
 16777216
370
    -2
100
AcDbLine
 10
607.4021999079523
 20
163.07232407759
 30
0.0
 11
607.4021999079523
 21
52.43855233525096
 31
0.0
  0
LINE
  5
1C1CF
330
13C59
100
AcDbEntity
  8
30
  6
Continuous
 62
     0
440
 16777216
370
    -2
100
AcDbLine
 10
556.4021999079523
 20
52.93855233525096
 30
0.0
 11
605.4021999079523
 21
52.93855233525096
 31
0.0
  0
INSERT
  5
1C1D0
330
13C59
100
AcDbEntity
  8
30
  6
Continuous
 62
     0
440
 16777216
370
    -2
100
AcDbBlockReference
  2
_OPEN
 10
554.4021999079522
 20
52.93855233525096
 30
0.0
 41
2.0
 42
2.0
 43
2.0
 50
180.0
  0
INSERT
  5
1C1D1
330
13C59
100
AcDbEntity
  8
30
  6
Continuous
 62
     0
440
 16777216
370
    -2
100
AcDbBlockReference
  2
_OPEN
 10
607.4021999079523
 20
52.93855233525096
 30
0.0
 41
2.0
 42
2.0
 43
2.0
  0
MTEXT
  5
1C1D2
330
13C59
100
AcDbEntity
  8
30
  6
Continuous
440
 16777216
100
AcDbMText
 10
579.1679215434315
 20
59.93855233525096
 30
0.0
 40
8.0
 41
0.0
 46
0.0
 71
     5
 72
     1
  1
\A1;53
 73
     1
 44
1.0
 90
        3
 63
     9
421
 13158600
 45
1.25
441
        0
  0
POINT
  5
1C1D3
330
13C59
100
AcDbEntity
  8
DEFPOINTS
  6
Continuous
 62
     0
440
 16777216
100
AcDbPoint
 10
554.4021999079522
 20
164.07232407759
 30
0.0
  0
POINT
  5
1C1D4
330
13C59
100
AcDbEntity
  8
DEFPOINTS
  6
Continuous
 62
     0
440
 16777216
100
AcDbPoint
 10
607.4021999079523
 20
164.07232407759
 30
0.0
  0
POINT
  5
1C1D5
330
13C59
100
AcDbEntity
  8
DEFPOINTS
  6
Continuous
 62
     0
440
 16777216
100
AcDbPoint
 10
607.4021999079523
 20
52.93855233525096
 30
0.0
  0
ENDBLK
  5
13C5B
330
13C59
100
AcDbEntity
  8
0
100
AcDbBlockEnd
  0
BLOCK
  5
13C66
330
13C65
100
AcDbEntity
  8
0
100
AcDbBlockBegin
  2
*D13
 70
     1
 10
0.0
 20
0.0
 30
0.0
  3
*D13
  1

  0
LINE
  5
1C1D6
330
13C65
100
AcDbEntity
  8
30
  6
Continuous
 62
     0
440
 16777216
370
    -2
100
AcDbLine
 10
608.4441825210506
 20
257.4531278759601
 30
0.0
 11
676.5365452419858
 21
257.45312787596
 31
0.0
  0
LINE
  5
1C1D7
330
13C65
100
AcDbEntity
  8
30
  6
Continuous
 62
     0
440
 16777216
370
    -2
100
AcDbLine
 10
608.4441825210506
 20
165.4531278759599
 30
0.0
 11
676.5365452419854
 21
165.4531278759599
 31
0.0
  0
LINE
  5
1C1D8
330
13C65
100
AcDbEntity
  8
30
  6
Continuous
 62
     0
440
 16777216
370
    -2
100
AcDbLine
 10
676.0365452419854
 20
255.4531278759601
 30
0.0
 11
676.0365452419854
 21
167.4531278759599
 31
0.0
  0
INSERT
  5
1C1D9
330
13C65
100
AcDbEntity
  8
30
  6
Continuous
 62
     0
440
 16777216
370
    -2
100
AcDbBlockReference
  2
_OPEN
 10
676.0365452419856
 20
257.45312787596
 30
0.0
 41
2.0
 42
2.0
 43
2.0
 50
90.0
  0
INSERT
  5
1C1DA
330
13C65
100
AcDbEntity
  8
30
  6
Continuous
 62
     0
440
 16777216
370
    -2
100
AcDbBlockReference
  2
_OPEN
 10
676.0365452419854
 20
165.4531278759599
 30
0.0
 41
2.0
 42
2.0
 43
2.0
 50
270.0
  0
MTEXT
  5
1C1DB
330
13C65
100
AcDbEntity
  8
30
  6
Continuous
440
 16777216
100
AcDbMText
 10
669.0365452419854
 20
210.2280183345199
 30
0.0
 40
8.0
 41
0.0
 46
0.0
 71
     5
 72
     1
  1
\A1;92
 11
0.0000000000000001
 21
1.0
 31
0.0
 73
     1
 44
1.0
 90
        3
 63
     9
421
 13158600
 45
1.25
441
        0
  0
POINT
  5
1C1DC
330
13C65
100
AcDbEntity
  8
DEFPOINTS
  6
Continuous
 62
     0
440
 16777216
100
AcDbPoint
 10
607.4441825210506
 20
257.4531278759601
 30
0.0
  0
POINT
  5
1C1DD
330
13C65
100
AcDbEntity
  8
DEFPOINTS
  6
Continuous
 62
     0
440
 16777216
100
AcDbPoint
 10
607.4441825210506
 20
165.4531278759599
 30
0.0
  0
POINT
  5
1C1DE
330
13C65
100
AcDbEntity
  8
DEFPOINTS
  6
Continuous
 62
     0
440
 16777216
100
AcDbPoint
 10
676.0365452419854
 20
165.4531278759599
 30
0.0
  0
ENDBLK
  5
13C67
330
13C65
100
AcDbEntity
  8
0
100
AcDbBlockEnd
  0
BLOCK
  5
13C7C
330
13C7B
100
AcDbEntity
  8
0
100
AcDbBlockBegin
  2
*D14
 70
     1
 10
0.0
 20
0.0
 30
0.0
  3
*D14
  1

  0
LINE
  5
1C329
330
13C7B
100
AcDbEntity
  8
30
  6
Continuous
 62
     0
440
 16777216
370
    -2
100
AcDbLine
 10
324.180286651309
 20
163.07232407759
 30
0.0
 11
324.180286651309
 21
51.93855233525096
 31
0.0
  0
LINE
  5
1C32A
330
13C7B
100
AcDbEntity
  8
30
  6
Continuous
 62
     0
440
 16777216
370
    -2
100
AcDbLine
 10
442.1802866513089
 20
163.07232407759
 30
0.0
 11
442.1802866513089
 21
51.93855233525096
 31
0.0
  0
LINE
  5
1C32B
330
13C7B
100
AcDbEntity
  8
30
  6
Continuous
 62
     0
440
 16777216
370
    -2
100
AcDbLine
 10
326.180286651309
 20
52.43855233525096
 30
0.0
 11
440.1802866513088
 21
52.43855233525096
 31
0.0
  0
INSERT
  5
1C32C
330
13C7B
100
AcDbEntity
  8
30
  6
Continuous
 62
     0
440
 16777216
370
    -2
100
AcDbBlockReference
  2
_OPEN
 10
324.180286651309
 20
52.43855233525096
 30
0.0
 41
2.0
 42
2.0
 43
2.0
 50
180.0
  0
INSERT
  5
1C32D
330
13C7B
100
AcDbEntity
  8
30
  6
Continuous
 62
     0
440
 16777216
370
    -2
100
AcDbBlockReference
  2
_OPEN
 10
442.1802866513089
 20
52.43855233525096
 30
0.0
 41
2.0
 42
2.0
 43
2.0
  0
MTEXT
  5
1C32E
330
13C7B
100
AcDbEntity
  8
30
  6
Continuous
440
 16777216
100
AcDbMText
 10
381.4460082867881
 20
59.43855233525096
 30
0.0
 40
8.0
 41
0.0
 46
0.0
 71
     5
 72
     1
  1
\A1;118
 73
     1
 44
1.0
 90
        3
 63
     9
421
 13158600
 45
1.25
441
        0
  0
POINT
  5
1C32F
330
13C7B
100
AcDbEntity
  8
DEFPOINTS
  6
Continuous
 62
     0
440
 16777216
100
AcDbPoint
 10
324.180286651309
 20
164.07232407759
 30
0.0
  0
POINT
  5
1C330
330
13C7B
100
AcDbEntity
  8
DEFPOINTS
  6
Continuous
 62
     0
440
 16777216
100
AcDbPoint
 10
442.1802866513089
 20
164.07232407759
 30
0.0
  0
POINT
  5
1C331
330
13C7B
100
AcDbEntity
  8
DEFPOINTS
  6
Continuous
 62
     0
440
 16777216
100
AcDbPoint
 10
442.1802866513089
 20
52.43855233525096
 30
0.0
  0
ENDBLK
  5
13C7D
330
13C7B
100
AcDbEntity
  8
0
100
AcDbBlockEnd
  0
BLOCK
  5
13C88
330
13C87
100
AcDbEntity
  8
0
100
AcDbBlockBegin
  2
*D15
 70
     1
 10
0.0
 20
0.0
 30
0.0
  3
*D15
  1

  0
LINE
  5
1C1E8
330
13C87
100
AcDbEntity
  8
30
  6
Continuous
 62
     0
440
 16777216
370
    -2
100
AcDbLine
 10
443.2222692644073
 20
257.4531278759601
 30
0.0
 11
478.8146319853423
 21
257.4531278759601
 31
0.0
  0
LINE
  5
1C1E9
330
13C87
100
AcDbEntity
  8
30
  6
Continuous
 62
     0
440
 16777216
370
    -2
100
AcDbLine
 10
443.2222692644073
 20
165.4531278759599
 30
0.0
 11
478.8146319853423
 21
165.4531278759599
 31
0.0
  0
LINE
  5
1C1EA
330
13C87
100
AcDbEntity
  8
30
  6
Continuous
 62
     0
440
 16777216
370
    -2
100
AcDbLine
 10
478.3146319853422
 20
255.4531278759601
 30
0.0
 11
478.3146319853422
 21
167.4531278759599
 31
0.0
  0
INSERT
  5
1C1EB
330
13C87
100
AcDbEntity
  8
30
  6
Continuous
 62
     0
440
 16777216
370
    -2
100
AcDbBlockReference
  2
_OPEN
 10
478.3146319853422
 20
257.4531278759601
 30
0.0
 41
2.0
 42
2.0
 43
2.0
 50
90.0
  0
INSERT
  5
1C1EC
330
13C87
100
AcDbEntity
  8
30
  6
Continuous
 62
     0
440
 16777216
370
    -2
100
AcDbBlockReference
  2
_OPEN
 10
478.3146319853422
 20
165.4531278759599
 30
0.0
 41
2.0
 42
2.0
 43
2.0
 50
270.0
  0
MTEXT
  5
1C1ED
330
13C87
100
AcDbEntity
  8
30
  6
Continuous
440
 16777216
100
AcDbMText
 10
471.3146319853422
 20
210.2280183345199
 30
0.0
 40
8.0
 41
0.0
 46
0.0
 71
     5
 72
     1
  1
\A1;92
 11
0.0000000000000001
 21
1.0
 31
0.0
 73
     1
 44
1.0
 90
        3
 63
     9
421
 13158600
 45
1.25
441
        0
  0
POINT
  5
1C1EE
330
13C87
100
AcDbEntity
  8
DEFPOINTS
  6
Continuous
 62
     0
440
 16777216
100
AcDbPoint
 10
442.2222692644072
 20
257.4531278759601
 30
0.0
  0
POINT
  5
1C1EF
330
13C87
100
AcDbEntity
  8
DEFPOINTS
  6
Continuous
 62
     0
440
 16777216
100
AcDbPoint
 10
442.2222692644072
 20
165.4531278759599
 30
0.0
  0
POINT
  5
1C1F0
330
13C87
100
AcDbEntity
  8
DEFPOINTS
  6
Continuous
 62
     0
440
 16777216
100
AcDbPoint
 10
478.3146319853422
 20
165.4531278759599
 30
0.0
  0
ENDBLK
  5
13C89
330
13C87
100
AcDbEntity
  8
0
100
AcDbBlockEnd
  0
BLOCK
  5
14643
330
14642
100
AcDbEntity
  8
0
100
AcDbBlockBegin
  2
*D16
 70
     1
 10
0.0
 20
0.0
 30
0.0
  3
*D16
  1

  0
LINE
  5
1BFA3
330
14642
100
AcDbEntity
  8
30
  6
Continuous
 62
     0
440
 16777216
370
    -2
100
AcDbLine
 10
442.680324823157
 20
258.3896929417408
 30
0.0
 11
463.2809661931829
 21
287.2722740576486
 31
0.0
  0
LINE
  5
1BFA4
330
14642
100
AcDbEntity
  8
30
  6
Continuous
 62
     0
440
 16777216
370
    -2
100
AcDbLine
 10
463.2809661931829
 20
287.2722740576486
 30
0.0
 11
479.6142995265163
 21
287.2722740576486
 31
0.0
  0
LINE
  5
1BFA5
330
14642
100
AcDbEntity
  8
30
  6
Continuous
 62
     0
440
 16777216
370
    -2
100
AcDbLine
 10
440.3575954662636
 20
255.1331720472806
 30
0.0
 11
441.5189601447622
 21
256.7614324945834
 31
0.0
  0
INSERT
  5
1BFA6
330
14642
100
AcDbEntity
  8
30
  6
Continuous
 62
     0
440
 16777216
370
    -2
100
AcDbBlockReference
  2
_OPEN
 10
441.5189601447622
 20
256.7614324945834
 30
0.0
 41
2.0
 42
2.0
 43
2.0
 50
234.5014509348128
  0
MTEXT
  5
1BFA7
330
14642
100
AcDbEntity
  8
30
  6
Continuous
 62
     0
440
 16777216
100
AcDbMText
 10
466.2809661931829
 20
298.2722740576487
 30
0.0
 40
8.0
 41
0.0
 46
0.0
 71
     1
 72
     1
  1
\A1;R2
 73
     1
 44
1.0
  0
POINT
  5
1BFA8
330
14642
100
AcDbEntity
  8
DEFPOINTS
  6
Continuous
 62
     0
440
 16777216
100
AcDbPoint
 10
441.5189601447622
 20
256.7614324945834
 30
0.0
  0
POINT
  5
1BFA9
330
14642
100
AcDbEntity
  8
DEFPOINTS
  6
Continuous
 62
     0
440
 16777216
100
AcDbPoint
 10
440.3575954662636
 20
255.1331720472806
 30
0.0
  0
ENDBLK
  5
14644
330
14642
100
AcDbEntity
  8
0
100
AcDbBlockEnd
  0
BLOCK
  5
14666
330
14665
100
AcDbEntity
  8
0
100
AcDbBlockBegin
  2
*D17
 70
     1
 10
0.0
 20
0.0
 30
0.0
  3
*D17
  1

  0
LINE
  5
1BFAA
330
14665
100
AcDbEntity
  8
30
  6
Continuous
 62
     0
440
 16777216
370
    -2
100
AcDbLine
 10
607.9022380798012
 20
258.3896929417412
 30
0.0
 11
628.5028794498272
 21
287.2722740576486
 31
0.0
  0
LINE
  5
1BFAB
330
14665
100
AcDbEntity
  8
30
  6
Continuous
 62
     0
440
 16777216
370
    -2
100
AcDbLine
 10
628.5028794498272
 20
287.2722740576486
 30
0.0
 11
644.8362127831607
 21
287.2722740576487
 31
0.0
  0
LINE
  5
1BFAC
330
14665
100
AcDbEntity
  8
30
  6
Continuous
 62
     0
440
 16777216
370
    -2
100
AcDbLine
 10
605.579508722908
 20
255.1331720472809
 30
0.0
 11
606.7408734014064
 21
256.7614324945838
 31
0.0
  0
INSERT
  5
1BFAD
330
14665
100
AcDbEntity
  8
30
  6
Continuous
 62
     0
440
 16777216
370
    -2
100
AcDbBlockReference
  2
_OPEN
 10
606.7408734014064
 20
256.7614324945838
 30
0.0
 41
2.0
 42
2.0
 43
2.0
 50
234.5014509348121
  0
MTEXT
  5
1BFAE
330
14665
100
AcDbEntity
  8
30
  6
Continuous
 62
     0
440
 16777216
100
AcDbMText
 10
631.5028794498282
 20
298.2722740576483
 30
0.0
 40
8.0
 41
0.0
 46
0.0
 71
     1
 72
     1
  1
\A1;R2
 73
     1
 44
1.0
  0
POINT
  5
1BFAF
330
14665
100
AcDbEntity
  8
DEFPOINTS
  6
Continuous
 62
     0
440
 16777216
100
AcDbPoint
 10
606.7408734014064
 20
256.7614324945838
 30
0.0
  0
POINT
  5
1BFB0
330
14665
100
AcDbEntity
  8
DEFPOINTS
  6
Continuous
 62
     0
440
 16777216
100
AcDbPoint
 10
605.579508722908
 20
255.1331720472809
 30
0.0
  0
ENDBLK
  5
14667
330
14665
100
AcDbEntity
  8
0
100
AcDbBlockEnd
  0
BLOCK
  5
15129
330
15128
100
AcDbEntity
  8
0
100
AcDbBlockBegin
  2
*D18
 70
     1
 10
0.0
 20
0.0
 30
0.0
  3
*D18
  1

  0
LINE
  5
1C1F1
330
15128
100
AcDbEntity
  8
30
  6
Continuous
 62
     0
440
 16777216
370
    -2
100
AcDbLine
 10
205.7472896283243
 20
654.4938972774822
 30
0.0
 11
236.6458941330681
 21
654.4938972774822
 31
0.0
  0
LINE
  5
1C1F2
330
15128
100
AcDbEntity
  8
30
  6
Continuous
 62
     0
440
 16777216
370
    -2
100
AcDbLine
 10
205.7472896283243
 20
564.4938972774822
 30
0.0
 11
236.645894133068
 21
564.4938972774822
 31
0.0
  0
LINE
  5
1C1F3
330
15128
100
AcDbEntity
  8
30
  6
Continuous
 62
     0
440
 16777216
370
    -2
100
AcDbLine
 10
236.1458941330681
 20
652.4938972774822
 30
0.0
 11
236.145894133068
 21
566.4938972774822
 31
0.0
  0
INSERT
  5
1C1F4
330
15128
100
AcDbEntity
  8
30
  6
Continuous
 62
     0
440
 16777216
370
    -2
100
AcDbBlockReference
  2
_OPEN
 10
236.1458941330681
 20
654.4938972774822
 30
0.0
 41
2.0
 42
2.0
 43
2.0
 50
90.0
  0
INSERT
  5
1C1F5
330
15128
100
AcDbEntity
  8
30
  6
Continuous
 62
     0
440
 16777216
370
    -2
100
AcDbBlockReference
  2
_OPEN
 10
236.145894133068
 20
564.4938972774822
 30
0.0
 41
2.0
 42
2.0
 43
2.0
 50
270.0
  0
MTEXT
  5
1C1F6
330
15128
100
AcDbEntity
  8
30
  6
Continuous
440
 16777216
100
AcDbMText
 10
229.145894133068
 20
607.8660477208098
 30
0.0
 40
8.0
 41
0.0
 46
0.0
 71
     5
 72
     1
  1
\A1;90
 11
0.0000000000000001
 21
1.0
 31
0.0
 73
     1
 44
1.0
 90
        3
 63
     9
421
 13158600
 45
1.25
441
        0
  0
POINT
  5
1C1F7
330
15128
100
AcDbEntity
  8
DEFPOINTS
  6
Continuous
 62
     0
440
 16777216
100
AcDbPoint
 10
204.7472896283243
 20
654.4938972774822
 30
0.0
  0
POINT
  5
1C1F8
330
15128
100
AcDbEntity
  8
DEFPOINTS
  6
Continuous
 62
     0
440
 16777216
100
AcDbPoint
 10
204.7472896283243
 20
564.4938972774822
 30
0.0
  0
POINT
  5
1C1F9
330
15128
100
AcDbEntity
  8
DEFPOINTS
  6
Continuous
 62
     0
440
 16777216
100
AcDbPoint
 10
236.145894133068
 20
564.4938972774822
 30
0.0
  0
ENDBLK
  5
1512A
330
15128
100
AcDbEntity
  8
0
100
AcDbBlockEnd
  0
BLOCK
  5
15DC4
330
15DC3
100
AcDbEntity
  8
0
100
AcDbBlockBegin
  2
*D19
 70
     1
 10
0.0
 20
0.0
 30
0.0
  3
*D19
  1

  0
LINE
  5
1BFBA
330
15DC3
100
AcDbEntity
  8
30
  6
Continuous
 62
     0
440
 16777216
370
    -2
100
AcDbLine
 10
88.92731089336212
 20
564.4938972774822
 30
0.0
 11
88.92731089336212
 21
540.1551184310098
 31
0.0
  0
LINE
  5
1BFBB
330
15DC3
100
AcDbEntity
  8
30
  6
Continuous
 62
     0
440
 16777216
370
    -2
100
AcDbLine
 10
204.9273108933621
 20
564.4938972774822
 30
0.0
 11
204.9273108933621
 21
540.1551184310098
 31
0.0
  0
LINE
  5
1BFBC
330
15DC3
100
AcDbEntity
  8
30
  6
Continuous
 62
     0
440
 16777216
370
    -2
100
AcDbLine
 10
90.92731089336211
 20
540.6551184310098
 30
0.0
 11
202.9273108933621
 21
540.6551184310098
 31
0.0
  0
INSERT
  5
1BFBD
330
15DC3
100
AcDbEntity
  8
30
  6
Continuous
 62
     0
440
 16777216
370
    -2
100
AcDbBlockReference
  2
_OPEN
 10
88.92731089336212
 20
540.6551184310098
 30
0.0
 41
2.0
 42
2.0
 43
2.0
 50
180.0
  0
INSERT
  5
1BFBE
330
15DC3
100
AcDbEntity
  8
30
  6
Continuous
 62
     0
440
 16777216
370
    -2
100
AcDbBlockReference
  2
_OPEN
 10
204.9273108933621
 20
540.6551184310098
 30
0.0
 41
2.0
 42
2.0
 43
2.0
  0
MTEXT
  5
1BFBF
330
15DC3
100
AcDbEntity
  8
30
  6
Continuous
440
 16777216
100
AcDbMText
 10
146.9273108933621
 20
547.6551184310095
 30
0.0
 40
8.0
 41
0.0
 46
0.0
 71
     5
 72
     1
  1
\A1;116
 73
     1
 44
1.0
 90
        3
 63
     9
421
 13158600
 45
1.25
441
        0
  0
POINT
  5
1BFC0
330
15DC3
100
AcDbEntity
  8
DEFPOINTS
  6
Continuous
 62
     0
440
 16777216
100
AcDbPoint
 10
88.92731089336212
 20
565.4938972774822
 30
0.0
  0
POINT
  5
1BFC1
330
15DC3
100
AcDbEntity
  8
DEFPOINTS
  6
Continuous
 62
     0
440
 16777216
100
AcDbPoint
 10
204.9273108933621
 20
565.4938972774822
 30
0.0
  0
POINT
  5
1BFC2
330
15DC3
100
AcDbEntity
  8
DEFPOINTS
  6
Continuous
 62
     0
440
 16777216
100
AcDbPoint
 10
204.9273108933621
 20
540.6551184310098
 30
0.0
  0
ENDBLK
  5
15DC5
330
15DC3
100
AcDbEntity
  8
0
100
AcDbBlockEnd
  0
BLOCK
  5
15DD0
330
15DCF
100
AcDbEntity
  8
0
100
AcDbBlockBegin
  2
*D20
 70
     1
 10
0.0
 20
0.0
 30
0.0
  3
*D20
  1

  0
LINE
  5
1BFC3
330
15DCF
100
AcDbEntity
  8
30
  6
Continuous
 62
     0
440
 16777216
370
    -2
100
AcDbLine
 10
172.4060213988618
 20
655.4938972774822
 30
0.0
 11
172.4060213988618
 21
667.0210103932864
 31
0.0
  0
LINE
  5
1BFC4
330
15DCF
100
AcDbEntity
  8
30
  6
Continuous
 62
     0
440
 16777216
370
    -2
100
AcDbLine
 10
121.4273108933621
 20
655.4938972774822
 30
0.0
 11
121.4273108933621
 21
667.0210103932864
 31
0.0
  0
LINE
  5
1BFC5
330
15DCF
100
AcDbEntity
  8
30
  6
Continuous
 62
     0
440
 16777216
370
    -2
100
AcDbLine
 10
170.4060213988618
 20
666.5210103932865
 30
0.0
 11
123.4273108933621
 21
666.5210103932865
 31
0.0
  0
INSERT
  5
1BFC6
330
15DCF
100
AcDbEntity
  8
30
  6
Continuous
 62
     0
440
 16777216
370
    -2
100
AcDbBlockReference
  2
_OPEN
 10
172.4060213988618
 20
666.5210103932865
 30
0.0
 41
2.0
 42
2.0
 43
2.0
  0
INSERT
  5
1BFC7
330
15DCF
100
AcDbEntity
  8
30
  6
Continuous
 62
     0
440
 16777216
370
    -2
100
AcDbBlockReference
  2
_OPEN
 10
121.4273108933621
 20
666.5210103932865
 30
0.0
 41
2.0
 42
2.0
 43
2.0
 50
180.0
  0
MTEXT
  5
1BFC8
330
15DCF
100
AcDbEntity
  8
30
  6
Continuous
440
 16777216
100
AcDbMText
 10
146.916666146112
 20
673.5210103932862
 30
0.0
 40
8.0
 41
0.0
 46
0.0
 71
     5
 72
     1
  1
\A1;51
 73
     1
 44
1.0
 90
        3
 63
     9
421
 13158600
 45
1.25
441
        0
  0
POINT
  5
1BFC9
330
15DCF
100
AcDbEntity
  8
DEFPOINTS
  6
Continuous
 62
     0
440
 16777216
100
AcDbPoint
 10
172.4060213988618
 20
654.4938972774822
 30
0.0
  0
POINT
  5
1BFCA
330
15DCF
100
AcDbEntity
  8
DEFPOINTS
  6
Continuous
 62
     0
440
 16777216
100
AcDbPoint
 10
121.4273108933621
 20
654.4938972774822
 30
0.0
  0
POINT
  5
1BFCB
330
15DCF
100
AcDbEntity
  8
DEFPOINTS
  6
Continuous
 62
     0
440
 16777216
100
AcDbPoint
 10
121.4273108933621
 20
666.5210103932865
 30
0.0
  0
ENDBLK
  5
15DD1
330
15DCF
100
AcDbEntity
  8
0
100
AcDbBlockEnd
  0
BLOCK
  5
19BDF
330
19BDE
100
AcDbEntity
  8
0
100
AcDbBlockBegin
  2
*D21
 70
     1
 10
0.0
 20
0.0
 30
0.0
  3
*D21
  1

  0
LINE
  5
1C36A
330
19BDE
100
AcDbEntity
  8
30
  6
Continuous
 62
     0
440
 16777216
370
    -2
100
AcDbLine
 10
645.0623810060898
 20
727.4938972774823
 30
0.0
 11
661.7126651760973
 21
727.4938972774823
 31
0.0
  0
LINE
  5
1C36B
330
19BDE
100
AcDbEntity
  8
30
  6
Continuous
 62
     0
440
 16777216
370
    -2
100
AcDbLine
 10
645.0623810060898
 20
719.4938972774823
 30
0.0
 11
661.7126651760973
 21
719.4938972774823
 31
0.0
  0
LINE
  5
1C36C
330
19BDE
100
AcDbEntity
  8
30
  6
Continuous
 62
     0
440
 16777216
370
    -2
100
AcDbLine
 10
661.2126651760973
 20
729.4938972774823
 30
0.0
 11
661.2126651760973
 21
731.4938972774823
 31
0.0
  0
LINE
  5
1C36D
330
19BDE
100
AcDbEntity
  8
30
  6
Continuous
 62
     0
440
 16777216
370
    -2
100
AcDbLine
 10
661.2126651760973
 20
717.4938972774823
 30
0.0
 11
661.2126651760973
 21
704.1605639441489
 31
0.0
  0
INSERT
  5
1C36E
330
19BDE
100
AcDbEntity
  8
30
  6
Continuous
 62
     0
440
 16777216
370
    -2
100
AcDbBlockReference
  2
_OPEN
 10
661.2126651760973
 20
727.4938972774823
 30
0.0
 41
2.0
 42
2.0
 43
2.0
 50
270.0
  0
INSERT
  5
1C36F
330
19BDE
100
AcDbEntity
  8
30
  6
Continuous
 62
     0
440
 16777216
370
    -2
100
AcDbBlockReference
  2
_OPEN
 10
661.2126651760973
 20
719.4938972774823
 30
0.0
 41
2.0
 42
2.0
 43
2.0
 50
90.0
  0
MTEXT
  5
1C370
330
19BDE
100
AcDbEntity
  8
30
  6
Continuous
440
 16777216
100
AcDbMText
 10
654.2126651760971
 20
709.8272306108158
 30
0.0
 40
8.0
 41
0.0
 46
0.0
 71
     5
 72
     1
  1
\A1;8
 11
0.0000000000000001
 21
1.0
 31
0.0
 73
     1
 44
1.0
 90
        3
 63
     9
421
 13158600
 45
1.25
441
        0
  0
POINT
  5
1C371
330
19BDE
100
AcDbEntity
  8
DEFPOINTS
  6
Continuous
 62
     0
440
 16777216
100
AcDbPoint
 10
644.0623810060898
 20
727.4938972774823
 30
0.0
  0
POINT
  5
1C372
330
19BDE
100
AcDbEntity
  8
DEFPOINTS
  6
Continuous
 62
     0
440
 16777216
100
AcDbPoint
 10
644.0623810060898
 20
719.4938972774823
 30
0.0
  0
POINT
  5
1C373
330
19BDE
100
AcDbEntity
  8
DEFPOINTS
  6
Continuous
 62
     0
440
 16777216
100
AcDbPoint
 10
661.2126651760973
 20
719.4938972774823
 30
0.0
  0
ENDBLK
  5
19BE0
330
19BDE
100
AcDbEntity
  8
0
100
AcDbBlockEnd
  0
BLOCK
  5
19FF6
330
19FF5
100
AcDbEntity
  8
0
100
AcDbBlockBegin
  2
*D22
 70
     1
 10
0.0
 20
0.0
 30
0.0
  3
*D22
  1

  0
LINE
  5
1C1FA
330
19FF5
100
AcDbEntity
  8
30
  6
Continuous
 62
     0
440
 16777216
370
    -2
100
AcDbLine
 10
418.5623827940899
 20
654.4938972774822
 30
0.0
 11
361.0644749064946
 21
654.4938972774822
 31
0.0
  0
LINE
  5
1C1FB
330
19FF5
100
AcDbEntity
  8
30
  6
Continuous
 62
     0
440
 16777216
370
    -2
100
AcDbLine
 10
410.8486461786737
 20
564.4938972774822
 30
0.0
 11
361.0644749064946
 21
564.4938972774822
 31
0.0
  0
LINE
  5
1C1FC
330
19FF5
100
AcDbEntity
  8
30
  6
Continuous
 62
     0
440
 16777216
370
    -2
100
AcDbLine
 10
361.5644749064947
 20
652.4938972774822
 30
0.0
 11
361.5644749064946
 21
566.4938972774822
 31
0.0
  0
INSERT
  5
1C1FD
330
19FF5
100
AcDbEntity
  8
30
  6
Continuous
 62
     0
440
 16777216
370
    -2
100
AcDbBlockReference
  2
_OPEN
 10
361.5644749064947
 20
654.4938972774822
 30
0.0
 41
2.0
 42
2.0
 43
2.0
 50
90.0
  0
INSERT
  5
1C1FE
330
19FF5
100
AcDbEntity
  8
30
  6
Continuous
 62
     0
440
 16777216
370
    -2
100
AcDbBlockReference
  2
_OPEN
 10
361.5644749064946
 20
564.4938972774822
 30
0.0
 41
2.0
 42
2.0
 43
2.0
 50
270.0
  0
MTEXT
  5
1C1FF
330
19FF5
100
AcDbEntity
  8
30
  6
Continuous
440
 16777216
100
AcDbMText
 10
354.5644749064945
 20
609.4938972774825
 30
0.0
 40
8.0
 41
0.0
 46
0.0
 71
     5
 72
     1
  1
\A1;90
 11
0.0000000000000001
 21
1.0
 31
0.0
 73
     1
 44
1.0
 90
        3
 63
     9
421
 13158600
 45
1.25
441
        0
  0
POINT
  5
1C200
330
19FF5
100
AcDbEntity
  8
DEFPOINTS
  6
Continuous
 62
     0
440
 16777216
100
AcDbPoint
 10
419.5623827940899
 20
654.4938972774822
 30
0.0
  0
POINT
  5
1C201
330
19FF5
100
AcDbEntity
  8
DEFPOINTS
  6
Continuous
 62
     0
440
 16777216
100
AcDbPoint
 10
411.8486461786737
 20
564.4938972774822
 30
0.0
  0
POINT
  5
1C202
330
19FF5
100
AcDbEntity
  8
DEFPOINTS
  6
Continuous
 62
     0
440
 16777216
100
AcDbPoint
 10
361.5644749064946
 20
564.4938972774822
 30
0.0
  0
ENDBLK
  5
19FF7
330
19FF5
100
AcDbEntity
  8
0
100
AcDbBlockEnd
  0
BLOCK
  5
1A174
330
1A173
100
AcDbEntity
  8
0
100
AcDbBlockBegin
  2
*D23
 70
     1
 10
0.0
 20
0.0
 30
0.0
  3
*D23
  1

  0
LINE
  5
1C07E
330
1A173
100
AcDbEntity
  8
30
 62
     0
440
 16777216
370
    -2
100
AcDbLine
 10
75.28389384171259
 20
912.7359342129096
 30
0.0
 11
61.82055810114842
 21
912.7359342129096
 31
0.0
  0
LINE
  5
1C07F
330
1A173
100
AcDbEntity
  8
30
 62
     0
440
 16777216
370
    -2
100
AcDbLine
 10
89.78389384171256
 20
967.7359342129101
 30
0.0
 11
61.82055810114843
 21
967.7359342129101
 31
0.0
  0
LINE
  5
1C080
330
1A173
100
AcDbEntity
  8
30
 62
     0
440
 16777216
370
    -2
100
AcDbLine
 10
62.32055810114843
 20
914.7359342129099
 30
0.0
 11
62.32055810114843
 21
965.7359342129099
 31
0.0
  0
INSERT
  5
1C081
330
1A173
100
AcDbEntity
  8
30
 62
     0
440
 16777216
370
    -2
100
AcDbBlockReference
  2
_OPEN
 10
62.32055810114843
 20
912.7359342129096
 30
0.0
 41
2.0
 42
2.0
 43
2.0
 50
270.0
  0
INSERT
  5
1C082
330
1A173
100
AcDbEntity
  8
30
 62
     0
440
 16777216
370
    -2
100
AcDbBlockReference
  2
_OPEN
 10
62.32055810114843
 20
967.7359342129101
 30
0.0
 41
2.0
 42
2.0
 43
2.0
 50
90.0
  0
MTEXT
  5
1C083
330
1A173
100
AcDbEntity
  8
30
440
 16777216
100
AcDbMText
 10
55.32055810114828
 20
940.2359342129097
 30
0.0
 40
8.0
 41
0.0
 46
0.0
 71
     5
 72
     1
  1
\A1;55
 11
0.0000000000000001
 21
1.0
 31
0.0
 73
     1
 44
1.0
 90
        3
 63
     9
421
 13158600
 45
1.25
441
        0
  0
POINT
  5
1C084
330
1A173
100
AcDbEntity
  8
DEFPOINTS
 62
     0
440
 16777216
100
AcDbPoint
 10
76.28389384171258
 20
912.7359342129096
 30
0.0
  0
POINT
  5
1C085
330
1A173
100
AcDbEntity
  8
DEFPOINTS
 62
     0
440
 16777216
100
AcDbPoint
 10
90.78389384171257
 20
967.7359342129101
 30
0.0
  0
POINT
  5
1C086
330
1A173
100
AcDbEntity
  8
DEFPOINTS
 62
     0
440
 16777216
100
AcDbPoint
 10
62.32055810114843
 20
967.7359342129101
 30
0.0
  0
ENDBLK
  5
1A175
330
1A173
100
AcDbEntity
  8
0
100
AcDbBlockEnd
  0
BLOCK
  5
1A181
330
1A180
100
AcDbEntity
  8
0
100
AcDbBlockBegin
  2
*D24
 70
     1
 10
0.0
 20
0.0
 30
0.0
  3
*D24
  1

  0
LINE
  5
1C2B3
330
1A180
100
AcDbEntity
  8
30
 62
     0
440
 16777216
370
    -2
100
AcDbLine
 10
217.2840159120328
 20
912.7359342129096
 30
0.0
 11
259.591197905358
 21
912.7359342129096
 31
0.0
  0
LINE
  5
1C2B4
330
1A180
100
AcDbEntity
  8
30
 62
     0
440
 16777216
370
    -2
100
AcDbLine
 10
147.2840159120323
 20
1007.73593421291
 30
0.0
 11
259.591197905358
 21
1007.73593421291
 31
0.0
  0
LINE
  5
1C2B5
330
1A180
100
AcDbEntity
  8
30
 62
     0
440
 16777216
370
    -2
100
AcDbLine
 10
259.0911979053581
 20
914.7359342129096
 30
0.0
 11
259.0911979053581
 21
1005.73593421291
 31
0.0
  0
INSERT
  5
1C2B6
330
1A180
100
AcDbEntity
  8
30
 62
     0
440
 16777216
370
    -2
100
AcDbBlockReference
  2
_OPEN
 10
259.0911979053581
 20
912.7359342129096
 30
0.0
 41
2.0
 42
2.0
 43
2.0
 50
270.0
  0
INSERT
  5
1C2B7
330
1A180
100
AcDbEntity
  8
30
 62
     0
440
 16777216
370
    -2
100
AcDbBlockReference
  2
_OPEN
 10
259.0911979053581
 20
1007.73593421291
 30
0.0
 41
2.0
 42
2.0
 43
2.0
 50
90.0
  0
MTEXT
  5
1C2B8
330
1A180
100
AcDbEntity
  8
30
440
 16777216
100
AcDbMText
 10
252.0911979053579
 20
960.2359342129096
 30
0.0
 40
8.0
 41
0.0
 46
0.0
 71
     5
 72
     1
  1
\A1;95
 11
0.0000000000000001
 21
1.0
 31
0.0
 73
     1
 44
1.0
 90
        3
 63
     9
421
 13158600
 45
1.25
441
        0
  0
POINT
  5
1C2B9
330
1A180
100
AcDbEntity
  8
DEFPOINTS
 62
     0
440
 16777216
100
AcDbPoint
 10
216.2840159120328
 20
912.7359342129096
 30
0.0
  0
POINT
  5
1C2BA
330
1A180
100
AcDbEntity
  8
DEFPOINTS
 62
     0
440
 16777216
100
AcDbPoint
 10
146.2840159120323
 20
1007.73593421291
 30
0.0
  0
POINT
  5
1C2BB
330
1A180
100
AcDbEntity
  8
DEFPOINTS
 62
     0
440
 16777216
100
AcDbPoint
 10
259.0911979053581
 20
1007.73593421291
 30
0.0
  0
ENDBLK
  5
1A182
330
1A180
100
AcDbEntity
  8
0
100
AcDbBlockEnd
  0
BLOCK
  5
1A1C4
330
1A1C3
100
AcDbEntity
  8
0
100
AcDbBlockBegin
  2
*D25
 70
     1
 10
0.0
 20
0.0
 30
0.0
  3
*D25
  1

  0
LINE
  5
1C075
330
1A1C3
100
AcDbEntity
  8
30
 62
     0
440
 16777216
370
    -2
100
AcDbLine
 10
75.28389384171259
 20
912.7359342129096
 30
0.0
 11
42.8984660562155
 21
912.7359342129096
 31
0.0
  0
LINE
  5
1C076
330
1A1C3
100
AcDbEntity
  8
30
 62
     0
440
 16777216
370
    -2
100
AcDbLine
 10
85.28389384171259
 20
983.7359342129101
 30
0.0
 11
42.8984660562155
 21
983.7359342129101
 31
0.0
  0
LINE
  5
1C077
330
1A1C3
100
AcDbEntity
  8
30
 62
     0
440
 16777216
370
    -2
100
AcDbLine
 10
43.39846605621549
 20
914.7359342129099
 30
0.0
 11
43.39846605621549
 21
981.7359342129099
 31
0.0
  0
INSERT
  5
1C078
330
1A1C3
100
AcDbEntity
  8
30
 62
     0
440
 16777216
370
    -2
100
AcDbBlockReference
  2
_OPEN
 10
43.39846605621549
 20
912.7359342129096
 30
0.0
 41
2.0
 42
2.0
 43
2.0
 50
270.0
  0
INSERT
  5
1C079
330
1A1C3
100
AcDbEntity
  8
30
 62
     0
440
 16777216
370
    -2
100
AcDbBlockReference
  2
_OPEN
 10
43.39846605621549
 20
983.7359342129101
 30
0.0
 41
2.0
 42
2.0
 43
2.0
 50
90.0
  0
MTEXT
  5
1C07A
330
1A1C3
100
AcDbEntity
  8
30
440
 16777216
100
AcDbMText
 10
36.39846605621535
 20
948.23593421291
 30
0.0
 40
8.0
 41
0.0
 46
0.0
 71
     5
 72
     1
  1
\A1;71
 11
0.0000000000000001
 21
1.0
 31
0.0
 73
     1
 44
1.0
 90
        3
 63
     9
421
 13158600
 45
1.25
441
        0
  0
POINT
  5
1C07B
330
1A1C3
100
AcDbEntity
  8
DEFPOINTS
 62
     0
440
 16777216
100
AcDbPoint
 10
76.28389384171258
 20
912.7359342129096
 30
0.0
  0
POINT
  5
1C07C
330
1A1C3
100
AcDbEntity
  8
DEFPOINTS
 62
     0
440
 16777216
100
AcDbPoint
 10
86.28389384171256
 20
983.7359342129101
 30
0.0
  0
POINT
  5
1C07D
330
1A1C3
100
AcDbEntity
  8
DEFPOINTS
 62
     0
440
 16777216
100
AcDbPoint
 10
43.39846605621549
 20
983.7359342129101
 30
0.0
  0
ENDBLK
  5
1A1C5
330
1A1C3
100
AcDbEntity
  8
0
100
AcDbBlockEnd
  0
BLOCK
  5
1A1D1
330
1A1D0
100
AcDbEntity
  8
0
100
AcDbBlockBegin
  2
*D26
 70
     1
 10
0.0
 20
0.0
 30
0.0
  3
*D26
  1

  0
LINE
  5
1C2AA
330
1A1D0
100
AcDbEntity
  8
30
 62
     0
440
 16777216
370
    -2
100
AcDbLine
 10
217.2840159120324
 20
912.7359342129096
 30
0.0
 11
279.4910105470935
 21
912.7359342129096
 31
0.0
  0
LINE
  5
1C2AB
330
1A1D0
100
AcDbEntity
  8
30
 62
     0
440
 16777216
370
    -2
100
AcDbLine
 10
162.2840159120324
 20
1023.73593421291
 30
0.0
 11
279.4910105470935
 21
1023.73593421291
 31
0.0
  0
LINE
  5
1C2AC
330
1A1D0
100
AcDbEntity
  8
30
 62
     0
440
 16777216
370
    -2
100
AcDbLine
 10
278.9910105470935
 20
914.7359342129096
 30
0.0
 11
278.9910105470935
 21
1021.73593421291
 31
0.0
  0
INSERT
  5
1C2AD
330
1A1D0
100
AcDbEntity
  8
30
 62
     0
440
 16777216
370
    -2
100
AcDbBlockReference
  2
_OPEN
 10
278.9910105470935
 20
912.7359342129096
 30
0.0
 41
2.0
 42
2.0
 43
2.0
 50
270.0
  0
INSERT
  5
1C2AE
330
1A1D0
100
AcDbEntity
  8
30
 62
     0
440
 16777216
370
    -2
100
AcDbBlockReference
  2
_OPEN
 10
278.9910105470935
 20
1023.73593421291
 30
0.0
 41
2.0
 42
2.0
 43
2.0
 50
90.0
  0
MTEXT
  5
1C2AF
330
1A1D0
100
AcDbEntity
  8
30
440
 16777216
100
AcDbMText
 10
271.9910105470934
 20
968.2359342129096
 30
0.0
 40
8.0
 41
0.0
 46
0.0
 71
     5
 72
     1
  1
\A1;111
 11
0.0000000000000001
 21
1.0
 31
0.0
 73
     1
 44
1.0
 90
        3
 63
     9
421
 13158600
 45
1.25
441
        0
  0
POINT
  5
1C2B0
330
1A1D0
100
AcDbEntity
  8
DEFPOINTS
 62
     0
440
 16777216
100
AcDbPoint
 10
216.2840159120324
 20
912.7359342129096
 30
0.0
  0
POINT
  5
1C2B1
330
1A1D0
100
AcDbEntity
  8
DEFPOINTS
 62
     0
440
 16777216
100
AcDbPoint
 10
161.2840159120324
 20
1023.73593421291
 30
0.0
  0
POINT
  5
1C2B2
330
1A1D0
100
AcDbEntity
  8
DEFPOINTS
 62
     0
440
 16777216
100
AcDbPoint
 10
278.9910105470935
 20
1023.73593421291
 30
0.0
  0
ENDBLK
  5
1A1D2
330
1A1D0
100
AcDbEntity
  8
0
100
AcDbBlockEnd
  0
BLOCK
  5
1A393
330
1A392
100
AcDbEntity
  8
0
100
AcDbBlockBegin
  2
*D27
 70
     1
 10
0.0
 20
0.0
 30
0.0
  3
*D27
  1

  0
LINE
  5
1C203
330
1A392
100
AcDbEntity
  8
30
  6
Continuous
 62
     0
440
 16777216
370
    -2
100
AcDbLine
 10
403.0623810060896
 20
611.0000000000001
 30
0.0
 11
403.0623810060896
 21
412.9538236521652
 31
0.0
  0
LINE
  5
1C204
330
1A392
100
AcDbEntity
  8
30
  6
Continuous
 62
     0
440
 16777216
370
    -2
100
AcDbLine
 10
533.0623810060897
 20
478.4938972774822
 30
0.0
 11
533.0623810060897
 21
412.9538236521652
 31
0.0
  0
LINE
  5
1C205
330
1A392
100
AcDbEntity
  8
30
  6
Continuous
 62
     0
440
 16777216
370
    -2
100
AcDbLine
 10
405.0623810060897
 20
413.4538236521652
 30
0.0
 11
531.0623810060897
 21
413.4538236521652
 31
0.0
  0
INSERT
  5
1C206
330
1A392
100
AcDbEntity
  8
30
  6
Continuous
 62
     0
440
 16777216
370
    -2
100
AcDbBlockReference
  2
_OPEN
 10
403.0623810060896
 20
413.4538236521652
 30
0.0
 41
2.0
 42
2.0
 43
2.0
 50
180.0
  0
INSERT
  5
1C207
330
1A392
100
AcDbEntity
  8
30
  6
Continuous
 62
     0
440
 16777216
370
    -2
100
AcDbBlockReference
  2
_OPEN
 10
533.0623810060897
 20
413.4538236521652
 30
0.0
 41
2.0
 42
2.0
 43
2.0
  0
MTEXT
  5
1C208
330
1A392
100
AcDbEntity
  8
30
  6
Continuous
440
 16777216
100
AcDbMText
 10
468.0623810060897
 20
424.4538236521651
 30
0.0
 40
8.0
 41
0.0
 46
0.0
 71
     2
 72
     1
  1
\A1;130
 73
     1
 44
1.0
 90
        3
 63
     9
421
 13158600
 45
1.25
441
        0
  0
POINT
  5
1C209
330
1A392
100
AcDbEntity
  8
DEFPOINTS
  6
Continuous
 62
     0
440
 16777216
100
AcDbPoint
 10
403.0623810060896
 20
612.0
 30
0.0
  0
POINT
  5
1C20A
330
1A392
100
AcDbEntity
  8
DEFPOINTS
  6
Continuous
 62
     0
440
 16777216
100
AcDbPoint
 10
533.0623810060897
 20
479.4938972774824
 30
0.0
  0
POINT
  5
1C20B
330
1A392
100
AcDbEntity
  8
DEFPOINTS
  6
Continuous
 62
     0
440
 16777216
100
AcDbPoint
 10
533.0623810060897
 20
413.4538236521652
 30
0.0
  0
ENDBLK
  5
1A394
330
1A392
100
AcDbEntity
  8
0
100
AcDbBlockEnd
  0
BLOCK
  5
1A39F
330
1A39E
100
AcDbEntity
  8
0
100
AcDbBlockBegin
  2
*D28
 70
     1
 10
0.0
 20
0.0
 30
0.0
  3
*D28
  1

  0
LINE
  5
1C20C
330
1A39E
100
AcDbEntity
  8
30
  6
Continuous
 62
     0
440
 16777216
370
    -2
100
AcDbLine
 10
430.0623810060897
 20
528.3264926460256
 30
0.0
 11
430.0623810060897
 21
444.9938972774822
 31
0.0
  0
LINE
  5
1C20D
330
1A39E
100
AcDbEntity
  8
30
  6
Continuous
 62
     0
440
 16777216
370
    -2
100
AcDbLine
 10
533.0623810060897
 20
478.4938972774822
 30
0.0
 11
533.0623810060897
 21
444.9938972774822
 31
0.0
  0
LINE
  5
1C20E
330
1A39E
100
AcDbEntity
  8
30
  6
Continuous
 62
     0
440
 16777216
370
    -2
100
AcDbLine
 10
432.0623810060896
 20
445.4938972774824
 30
0.0
 11
531.0623810060897
 21
445.4938972774824
 31
0.0
  0
INSERT
  5
1C20F
330
1A39E
100
AcDbEntity
  8
30
  6
Continuous
 62
     0
440
 16777216
370
    -2
100
AcDbBlockReference
  2
_OPEN
 10
430.0623810060897
 20
445.4938972774824
 30
0.0
 41
2.0
 42
2.0
 43
2.0
 50
180.0
  0
INSERT
  5
1C210
330
1A39E
100
AcDbEntity
  8
30
  6
Continuous
 62
     0
440
 16777216
370
    -2
100
AcDbBlockReference
  2
_OPEN
 10
533.0623810060897
 20
445.4938972774824
 30
0.0
 41
2.0
 42
2.0
 43
2.0
  0
MTEXT
  5
1C211
330
1A39E
100
AcDbEntity
  8
30
  6
Continuous
440
 16777216
100
AcDbMText
 10
481.562381006089
 20
456.4938972774823
 30
0.0
 40
8.0
 41
0.0
 46
0.0
 71
     2
 72
     1
  1
\A1;103
 73
     1
 44
1.0
 90
        3
 63
     9
421
 13158600
 45
1.25
441
        0
  0
POINT
  5
1C212
330
1A39E
100
AcDbEntity
  8
DEFPOINTS
  6
Continuous
 62
     0
440
 16777216
100
AcDbPoint
 10
430.0623810060897
 20
529.3264926460254
 30
0.0
  0
POINT
  5
1C213
330
1A39E
100
AcDbEntity
  8
DEFPOINTS
  6
Continuous
 62
     0
440
 16777216
100
AcDbPoint
 10
533.0623810060897
 20
479.4938972774824
 30
0.0
  0
POINT
  5
1C214
330
1A39E
100
AcDbEntity
  8
DEFPOINTS
  6
Continuous
 62
     0
440
 16777216
100
AcDbPoint
 10
533.0623810060897
 20
445.4938972774824
 30
0.0
  0
ENDBLK
  5
1A3A0
330
1A39E
100
AcDbEntity
  8
0
100
AcDbBlockEnd
  0
BLOCK
  5
1A3AB
330
1A3AA
100
AcDbEntity
  8
0
100
AcDbBlockBegin
  2
*D29
 70
     1
 10
0.0
 20
0.0
 30
0.0
  3
*D29
  1

  0
LINE
  5
1C215
330
1A3AA
100
AcDbEntity
  8
30
  6
Continuous
 62
     0
440
 16777216
370
    -2
100
AcDbLine
 10
382.0688852365742
 20
621.0
 30
0.0
 11
382.0688852365742
 21
395.6297523263928
 31
0.0
  0
LINE
  5
1C216
330
1A3AA
100
AcDbEntity
  8
30
  6
Continuous
 62
     0
440
 16777216
370
    -2
100
AcDbLine
 10
533.0623810060897
 20
411.9538236521651
 30
0.0
 11
533.0623810060897
 21
395.6297523263928
 31
0.0
  0
LINE
  5
1C217
330
1A3AA
100
AcDbEntity
  8
30
  6
Continuous
 62
     0
440
 16777216
370
    -2
100
AcDbLine
 10
384.0688852365742
 20
396.1297523263928
 30
0.0
 11
531.0623810060897
 21
396.1297523263928
 31
0.0
  0
INSERT
  5
1C218
330
1A3AA
100
AcDbEntity
  8
30
  6
Continuous
 62
     0
440
 16777216
370
    -2
100
AcDbBlockReference
  2
_OPEN
 10
382.0688852365742
 20
396.1297523263928
 30
0.0
 41
2.0
 42
2.0
 43
2.0
 50
180.0
  0
INSERT
  5
1C219
330
1A3AA
100
AcDbEntity
  8
30
  6
Continuous
 62
     0
440
 16777216
370
    -2
100
AcDbBlockReference
  2
_OPEN
 10
533.0623810060897
 20
396.1297523263928
 30
0.0
 41
2.0
 42
2.0
 43
2.0
  0
MTEXT
  5
1C21A
330
1A3AA
100
AcDbEntity
  8
30
  6
Continuous
440
 16777216
100
AcDbMText
 10
457.565633121332
 20
403.1297523263928
 30
0.0
 40
8.0
 41
0.0
 46
0.0
 71
     5
 72
     1
  1
\A1;151
 73
     1
 44
1.0
 90
        3
 63
     9
421
 13158600
 45
1.25
441
        0
  0
POINT
  5
1C21B
330
1A3AA
100
AcDbEntity
  8
DEFPOINTS
  6
Continuous
 62
     0
440
 16777216
100
AcDbPoint
 10
382.0688852365742
 20
622.0000000000001
 30
0.0
  0
POINT
  5
1C21C
330
1A3AA
100
AcDbEntity
  8
DEFPOINTS
  6
Continuous
 62
     0
440
 16777216
100
AcDbPoint
 10
533.0623810060897
 20
412.9538236521652
 30
0.0
  0
POINT
  5
1C21D
330
1A3AA
100
AcDbEntity
  8
DEFPOINTS
  6
Continuous
 62
     0
440
 16777216
100
AcDbPoint
 10
533.0623810060897
 20
396.1297523263928
 30
0.0
  0
ENDBLK
  5
1A3AC
330
1A3AA
100
AcDbEntity
  8
0
100
AcDbBlockEnd
  0
BLOCK
  5
1A3B7
330
1A3B6
100
AcDbEntity
  8
0
100
AcDbBlockBegin
  2
*D30
 70
     1
 10
0.0
 20
0.0
 30
0.0
  3
*D30
  1

  0
LINE
  5
1C027
330
1A3B6
100
AcDbEntity
  8
30
  6
Continuous
 62
     0
440
 16777216
370
    -2
100
AcDbLine
 10
426.0623808870896
 20
556.0000000000001
 30
0.0
 11
426.0623808870896
 21
428.7544163892071
 31
0.0
  0
LINE
  5
1C028
330
1A3B6
100
AcDbEntity
  8
30
  6
Continuous
 62
     0
440
 16777216
370
    -2
100
AcDbLine
 10
418.0623808870896
 20
556.0000000000001
 30
0.0
 11
418.0623808870896
 21
428.7544163892071
 31
0.0
  0
LINE
  5
1C029
330
1A3B6
100
AcDbEntity
  8
30
  6
Continuous
 62
     0
440
 16777216
370
    -2
100
AcDbLine
 10
428.0623808870894
 20
429.2544163892071
 30
0.0
 11
430.0623808870896
 21
429.2544163892071
 31
0.0
  0
LINE
  5
1C02A
330
1A3B6
100
AcDbEntity
  8
30
  6
Continuous
 62
     0
440
 16777216
370
    -2
100
AcDbLine
 10
416.0623808870894
 20
429.2544163892071
 30
0.0
 11
402.7290475537562
 21
429.2544163892071
 31
0.0
  0
LINE
  5
1C02B
330
1A3B6
100
AcDbEntity
  8
30
  6
Continuous
 62
     0
440
 16777216
370
    -2
100
AcDbLine
 10
426.0623808870896
 20
429.2544163892071
 30
0.0
 11
418.0623808870896
 21
429.2544163892071
 31
0.0
  0
INSERT
  5
1C02C
330
1A3B6
100
AcDbEntity
  8
30
  6
Continuous
 62
     0
440
 16777216
370
    -2
100
AcDbBlockReference
  2
_OPEN
 10
426.0623808870896
 20
429.2544163892071
 30
0.0
 41
2.0
 42
2.0
 43
2.0
 50
180.0
  0
INSERT
  5
1C02D
330
1A3B6
100
AcDbEntity
  8
30
  6
Continuous
 62
     0
440
 16777216
370
    -2
100
AcDbBlockReference
  2
_OPEN
 10
418.0623808870896
 20
429.2544163892071
 30
0.0
 41
2.0
 42
2.0
 43
2.0
  0
MTEXT
  5
1C02E
330
1A3B6
100
AcDbEntity
  8
30
  6
Continuous
 62
     0
440
 16777216
100
AcDbMText
 10
408.3957142204229
 20
436.2544163892073
 30
0.0
 40
8.0
 41
0.0
 46
0.0
 71
     5
 72
     1
  1
\A1;8
 73
     1
 44
1.0
  0
POINT
  5
1C02F
330
1A3B6
100
AcDbEntity
  8
DEFPOINTS
  6
Continuous
 62
     0
440
 16777216
100
AcDbPoint
 10
426.0623808870896
 20
559.0000000000001
 30
0.0
  0
POINT
  5
1C030
330
1A3B6
100
AcDbEntity
  8
DEFPOINTS
  6
Continuous
 62
     0
440
 16777216
100
AcDbPoint
 10
418.0623808870896
 20
559.0000000000001
 30
0.0
  0
POINT
  5
1C031
330
1A3B6
100
AcDbEntity
  8
DEFPOINTS
  6
Continuous
 62
     0
440
 16777216
100
AcDbPoint
 10
418.0623808870896
 20
429.2544163892071
 30
0.0
  0
ENDBLK
  5
1A3B8
330
1A3B6
100
AcDbEntity
  8
0
100
AcDbBlockEnd
  0
BLOCK
  5
1A3C5
330
1A3C4
100
AcDbEntity
  8
0
100
AcDbBlockBegin
  2
*D31
 70
     1
 10
0.0
 20
0.0
 30
0.0
  3
*D31
  1

  0
LINE
  5
1C21E
330
1A3C4
100
AcDbEntity
  8
30
  6
Continuous
 62
     0
440
 16777216
370
    -2
100
AcDbLine
 10
426.0623808870896
 20
430.2544163892074
 30
0.0
 11
426.0623808870896
 21
429.7544163892074
 31
0.0
  0
LINE
  5
1C21F
330
1A3C4
100
AcDbEntity
  8
30
  6
Continuous
 62
     0
440
 16777216
370
    -2
100
AcDbLine
 10
533.0623810060897
 20
444.4938972774822
 30
0.0
 11
533.0623810060897
 21
428.7544163892071
 31
0.0
  0
LINE
  5
1C220
330
1A3C4
100
AcDbEntity
  8
30
  6
Continuous
 62
     0
440
 16777216
370
    -2
100
AcDbLine
 10
428.0623808870894
 20
429.2544163892071
 30
0.0
 11
531.0623810060897
 21
429.2544163892071
 31
0.0
  0
INSERT
  5
1C221
330
1A3C4
100
AcDbEntity
  8
30
  6
Continuous
 62
     0
440
 16777216
370
    -2
100
AcDbBlockReference
  2
_OPEN
 10
426.0623808870896
 20
429.2544163892071
 30
0.0
 41
2.0
 42
2.0
 43
2.0
 50
180.0
  0
INSERT
  5
1C222
330
1A3C4
100
AcDbEntity
  8
30
  6
Continuous
 62
     0
440
 16777216
370
    -2
100
AcDbBlockReference
  2
_OPEN
 10
533.0623810060897
 20
429.2544163892071
 30
0.0
 41
2.0
 42
2.0
 43
2.0
  0
MTEXT
  5
1C223
330
1A3C4
100
AcDbEntity
  8
30
  6
Continuous
440
 16777216
100
AcDbMText
 10
479.5623809465896
 20
436.2544163892073
 30
0.0
 40
8.0
 41
0.0
 46
0.0
 71
     5
 72
     1
  1
\A1;107
 73
     1
 44
1.0
 90
        3
 63
     9
421
 13158600
 45
1.25
441
        0
  0
POINT
  5
1C224
330
1A3C4
100
AcDbEntity
  8
DEFPOINTS
  6
Continuous
 62
     0
440
 16777216
100
AcDbPoint
 10
426.0623808870896
 20
429.2544163892071
 30
0.0
  0
POINT
  5
1C225
330
1A3C4
100
AcDbEntity
  8
DEFPOINTS
  6
Continuous
 62
     0
440
 16777216
100
AcDbPoint
 10
533.0623810060897
 20
445.4938972774824
 30
0.0
  0
POINT
  5
1C226
330
1A3C4
100
AcDbEntity
  8
DEFPOINTS
  6
Continuous
 62
     0
440
 16777216
100
AcDbPoint
 10
533.0623810060897
 20
429.2544163892071
 30
0.0
  0
ENDBLK
  5
1A3C6
330
1A3C4
100
AcDbEntity
  8
0
100
AcDbBlockEnd
  0
BLOCK
  5
1BD61
330
1BD60
100
AcDbEntity
  8
0
100
AcDbBlockBegin
  2
*D32
 70
     1
 10
0.0
 20
0.0
 30
0.0
  3
*D32
  1

  0
LINE
  5
1C03B
330
1BD60
100
AcDbEntity
  8
30
  6
Continuous
 62
     0
440
 16777216
370
    -2
100
AcDbLine
 10
86.28389384171256
 20
984.2359342129093
 30
0.0
 11
86.28389384171256
 21
1014.016297317981
 31
0.0
  0
LINE
  5
1C03C
330
1BD60
100
AcDbEntity
  8
30
  6
Continuous
 62
     0
440
 16777216
370
    -2
100
AcDbLine
 10
116.2838938417126
 20
984.2359342129096
 30
0.0
 11
116.2838938417126
 21
1014.016297317981
 31
0.0
  0
LINE
  5
1C03D
330
1BD60
100
AcDbEntity
  8
30
  6
Continuous
 62
     0
440
 16777216
370
    -2
100
AcDbLine
 10
114.2838938417126
 20
1013.516297317981
 30
0.0
 11
88.28389384171257
 21
1013.516297317981
 31
0.0
  0
LINE
  5
1C03E
330
1BD60
100
AcDbEntity
  8
30
  6
Continuous
 62
     0
440
 16777216
370
    -2
100
AcDbLine
 10
86.28389384171256
 20
1013.516297317981
 30
0.0
 11
58.46711686567414
 21
1013.516297317981
 31
0.0
  0
INSERT
  5
1C03F
330
1BD60
100
AcDbEntity
  8
30
  6
Continuous
 62
     0
440
 16777216
370
    -2
100
AcDbBlockReference
  2
_OPEN
 10
116.2838938417126
 20
1013.516297317981
 30
0.0
 41
2.0
 42
2.0
 43
2.0
  0
INSERT
  5
1C040
330
1BD60
100
AcDbEntity
  8
30
  6
Continuous
 62
     0
440
 16777216
370
    -2
100
AcDbBlockReference
  2
_OPEN
 10
86.28389384171256
 20
1013.516297317981
 30
0.0
 41
2.0
 42
2.0
 43
2.0
 50
180.0
  0
MTEXT
  5
1C041
330
1BD60
100
AcDbEntity
  8
30
  6
Continuous
440
 16777216
100
AcDbMText
 10
67.46711686567414
 20
1024.516297317981
 30
0.0
 40
8.0
 41
0.0
 46
0.0
 71
     2
 72
     1
  1
\A1;30
 73
     1
 44
1.0
 90
        3
 63
     9
421
 13158600
 45
1.25
441
        0
  0
POINT
  5
1C042
330
1BD60
100
AcDbEntity
  8
DEFPOINTS
  6
Continuous
 62
     0
440
 16777216
100
AcDbPoint
 10
86.28389384171256
 20
983.2359342129096
 30
0.0
  0
POINT
  5
1C043
330
1BD60
100
AcDbEntity
  8
DEFPOINTS
  6
Continuous
 62
     0
440
 16777216
100
AcDbPoint
 10
116.2838938417126
 20
983.2359342129096
 30
0.0
  0
POINT
  5
1C044
330
1BD60
100
AcDbEntity
  8
DEFPOINTS
  6
Continuous
 62
     0
440
 16777216
100
AcDbPoint
 10
116.2838938417126
 20
1013.516297317981
 30
0.0
  0
ENDBLK
  5
1BD62
330
1BD60
100
AcDbEntity
  8
0
100
AcDbBlockEnd
  0
BLOCK
  5
1BD6E
330
1BD6D
100
AcDbEntity
  8
0
100
AcDbBlockBegin
  2
*D33
 70
     1
 10
0.0
 20
0.0
 30
0.0
  3
*D33
  1

  0
LINE
  5
1C045
330
1BD6D
100
AcDbEntity
  8
30
  6
Continuous
 62
     0
440
 16777216
370
    -2
100
AcDbLine
 10
94.78389384171256
 20
973.2359342129097
 30
0.0
 11
94.78389384171256
 21
997.14243479751
 31
0.0
  0
LINE
  5
1C046
330
1BD6D
100
AcDbEntity
  8
30
  6
Continuous
 62
     0
440
 16777216
370
    -2
100
AcDbLine
 10
107.7838938417126
 20
973.23593421291
 30
0.0
 11
107.7838938417126
 21
997.14243479751
 31
0.0
  0
LINE
  5
1C047
330
1BD6D
100
AcDbEntity
  8
30
  6
Continuous
 62
     0
440
 16777216
370
    -2
100
AcDbLine
 10
105.7838938417126
 20
996.6424347975101
 30
0.0
 11
96.78389384171259
 21
996.6424347975101
 31
0.0
  0
LINE
  5
1C048
330
1BD6D
100
AcDbEntity
  8
30
  6
Continuous
 62
     0
440
 16777216
370
    -2
100
AcDbLine
 10
94.78389384171256
 20
996.6424347975101
 30
0.0
 11
59.43216068716507
 21
996.6424347975101
 31
0.0
  0
INSERT
  5
1C049
330
1BD6D
100
AcDbEntity
  8
30
  6
Continuous
 62
     0
440
 16777216
370
    -2
100
AcDbBlockReference
  2
_OPEN
 10
107.7838938417126
 20
996.6424347975101
 30
0.0
 41
2.0
 42
2.0
 43
2.0
  0
INSERT
  5
1C04A
330
1BD6D
100
AcDbEntity
  8
30
  6
Continuous
 62
     0
440
 16777216
370
    -2
100
AcDbBlockReference
  2
_OPEN
 10
94.78389384171256
 20
996.6424347975101
 30
0.0
 41
2.0
 42
2.0
 43
2.0
 50
180.0
  0
MTEXT
  5
1C04B
330
1BD6D
100
AcDbEntity
  8
30
  6
Continuous
440
 16777216
100
AcDbMText
 10
67.76549402049841
 20
1007.64243479751
 30
0.0
 40
8.0
 41
0.0
 46
0.0
 71
     2
 72
     1
  1
\A1;13
 73
     1
 44
1.0
 90
        3
 63
     9
421
 13158600
 45
1.25
441
        0
  0
POINT
  5
1C04C
330
1BD6D
100
AcDbEntity
  8
DEFPOINTS
  6
Continuous
 62
     0
440
 16777216
100
AcDbPoint
 10
94.78389384171256
 20
972.2359342129092
 30
0.0
  0
POINT
  5
1C04D
330
1BD6D
100
AcDbEntity
  8
DEFPOINTS
  6
Continuous
 62
     0
440
 16777216
100
AcDbPoint
 10
107.7838938417126
 20
972.2359342129101
 30
0.0
  0
POINT
  5
1C04E
330
1BD6D
100
AcDbEntity
  8
DEFPOINTS
  6
Continuous
 62
     0
440
 16777216
100
AcDbPoint
 10
107.7838938417126
 20
996.6424347975101
 30
0.0
  0
ENDBLK
  5
1BD6F
330
1BD6D
100
AcDbEntity
  8
0
100
AcDbBlockEnd
  0
BLOCK
  5
1C069
330
1C068
100
AcDbEntity
  8
0
100
AcDbBlockBegin
  2
*D34
 70
     1
 10
0.0
 20
0.0
 30
0.0
  3
*D34
  1

  0
LINE
  5
1C06B
330
1C068
100
AcDbEntity
  8
30
 62
     0
440
 16777216
370
    -2
100
AcDbLine
 10
100.2838938417126
 20
974.7359342129099
 30
0.0
 11
75.67630088363649
 21
974.7359342129099
 31
0.0
  0
LINE
  5
1C06C
330
1C068
100
AcDbEntity
  8
30
 62
     0
440
 16777216
370
    -2
100
AcDbLine
 10
100.2838938417126
 20
960.73593421291
 30
0.0
 11
75.67630088363649
 21
960.73593421291
 31
0.0
  0
LINE
  5
1C06D
330
1C068
100
AcDbEntity
  8
30
 62
     0
440
 16777216
370
    -2
100
AcDbLine
 10
76.17630088363648
 20
972.73593421291
 30
0.0
 11
76.17630088363648
 21
962.7359342129096
 31
0.0
  0
LINE
  5
1C06E
330
1C068
100
AcDbEntity
  8
30
 62
     0
440
 16777216
370
    -2
100
AcDbLine
 10
76.17630088363648
 20
960.73593421291
 30
0.0
 11
76.17630088363648
 21
942.0692675462433
 31
0.0
  0
INSERT
  5
1C06F
330
1C068
100
AcDbEntity
  8
30
 62
     0
440
 16777216
370
    -2
100
AcDbBlockReference
  2
_OPEN
 10
76.17630088363648
 20
974.7359342129099
 30
0.0
 41
2.0
 42
2.0
 43
2.0
 50
90.0
  0
INSERT
  5
1C070
330
1C068
100
AcDbEntity
  8
30
 62
     0
440
 16777216
370
    -2
100
AcDbBlockReference
  2
_OPEN
 10
76.17630088363648
 20
960.73593421291
 30
0.0
 41
2.0
 42
2.0
 43
2.0
 50
270.0
  0
MTEXT
  5
1C071
330
1C068
100
AcDbEntity
  8
30
440
 16777216
100
AcDbMText
 10
69.17630088363633
 20
950.4026008795763
 30
0.0
 40
8.0
 41
0.0
 46
0.0
 71
     5
 72
     1
  1
\A1;14
 11
0.0000000000000001
 21
1.0
 31
0.0
 73
     1
 44
1.0
 90
        3
 63
     9
421
 13158600
 45
1.25
441
        0
  0
POINT
  5
1C072
330
1C068
100
AcDbEntity
  8
DEFPOINTS
 62
     0
440
 16777216
100
AcDbPoint
 10
101.2838938417126
 20
974.7359342129099
 30
0.0
  0
POINT
  5
1C073
330
1C068
100
AcDbEntity
  8
DEFPOINTS
 62
     0
440
 16777216
100
AcDbPoint
 10
101.2838938417126
 20
960.73593421291
 30
0.0
  0
POINT
  5
1C074
330
1C068
100
AcDbEntity
  8
DEFPOINTS
 62
     0
440
 16777216
100
AcDbPoint
 10
76.17630088363648
 20
960.73593421291
 30
0.0
  0
ENDBLK
  5
1C06A
330
1C068
100
AcDbEntity
  8
0
100
AcDbBlockEnd
  0
BLOCK
  5
1C09C
330
1C09B
100
AcDbEntity
  8
0
100
AcDbBlockBegin
  2
*D35
 70
     1
 10
0.0
 20
0.0
 30
0.0
  3
*D35
  1

  0
LINE
  5
1C320
330
1C09B
100
AcDbEntity
  8
30
 62
     0
440
 16777216
370
    -2
100
AcDbLine
 10
123.783954876872
 20
103.4531278759599
 30
0.0
 11
123.783954876872
 21
51.85729237196483
 31
0.0
  0
LINE
  5
1C321
330
1C09B
100
AcDbEntity
  8
30
 62
     0
440
 16777216
370
    -2
100
AcDbLine
 10
168.7839548768725
 20
103.4531278759599
 30
0.0
 11
168.7839548768725
 21
51.85729237196483
 31
0.0
  0
LINE
  5
1C322
330
1C09B
100
AcDbEntity
  8
30
 62
     0
440
 16777216
370
    -2
100
AcDbLine
 10
125.783954876872
 20
52.35729237196482
 30
0.0
 11
166.7839548768725
 21
52.35729237196482
 31
0.0
  0
INSERT
  5
1C323
330
1C09B
100
AcDbEntity
  8
30
 62
     0
440
 16777216
370
    -2
100
AcDbBlockReference
  2
_OPEN
 10
123.783954876872
 20
52.35729237196482
 30
0.0
 41
2.0
 42
2.0
 43
2.0
 50
180.0
  0
INSERT
  5
1C324
330
1C09B
100
AcDbEntity
  8
30
 62
     0
440
 16777216
370
    -2
100
AcDbBlockReference
  2
_OPEN
 10
168.7839548768725
 20
52.35729237196482
 30
0.0
 41
2.0
 42
2.0
 43
2.0
  0
MTEXT
  5
1C325
330
1C09B
100
AcDbEntity
  8
30
440
 16777216
100
AcDbMText
 10
146.2839548768722
 20
59.35729237196483
 30
0.0
 40
8.0
 41
0.0
 46
0.0
 71
     5
 72
     1
  1
\A1;45
 73
     1
 44
1.0
 90
        3
 63
     9
421
 13158600
 45
1.25
441
        0
  0
POINT
  5
1C326
330
1C09B
100
AcDbEntity
  8
DEFPOINTS
 62
     0
440
 16777216
100
AcDbPoint
 10
123.783954876872
 20
104.4531278759599
 30
0.0
  0
POINT
  5
1C327
330
1C09B
100
AcDbEntity
  8
DEFPOINTS
 62
     0
440
 16777216
100
AcDbPoint
 10
168.7839548768725
 20
104.4531278759599
 30
0.0
  0
POINT
  5
1C328
330
1C09B
100
AcDbEntity
  8
DEFPOINTS
 62
     0
440
 16777216
100
AcDbPoint
 10
168.7839548768725
 20
52.35729237196482
 30
0.0
  0
ENDBLK
  5
1C09D
330
1C09B
100
AcDbEntity
  8
0
100
AcDbBlockEnd
  0
BLOCK
  5
1C228
330
1C227
100
AcDbEntity
  8
0
100
AcDbBlockBegin
  2
$AUDIT_BAD_BLOCK_RECORD1
 70
     0
 10
0.0
 20
0.0
 30
0.0
  3
$AUDIT_BAD_BLOCK_RECORD1
  1

  0
LINE
  5
1BEF7
330
1C227
100
AcDbEntity
  8
30
 62
     0
370
    -2
100
AcDbLine
 10
628.0623810060895
 20
506.9938972774818
 30
0.0
 11
628.0623810060895
 21
533.0244151820552
 31
0.0
  0
LINE
  5
1BEF8
330
1C227
100
AcDbEntity
  8
30
 62
     0
370
    -2
100
AcDbLine
 10
588.0623810060892
 20
506.9938972774833
 30
0.0
 11
588.0623810060892
 21
533.0244151820552
 31
0.0
  0
LINE
  5
1BEF9
330
1C227
100
AcDbEntity
  8
30
 62
     0
370
    -2
100
AcDbLine
 10
626.0623810060898
 20
532.5244151820552
 30
0.0
 11
590.0623810060892
 21
532.5244151820552
 31
0.0
  0
INSERT
  5
1BEFA
330
1C227
100
AcDbEntity
  8
30
 62
     0
370
    -2
100
AcDbBlockReference
  2
_OPEN
 10
628.0623810060895
 20
532.5244151820552
 30
0.0
 41
2.0
 42
2.0
 43
2.0
  0
INSERT
  5
1BEFB
330
1C227
100
AcDbEntity
  8
30
 62
     0
370
    -2
100
AcDbBlockReference
  2
_OPEN
 10
588.0623810060892
 20
532.5244151820552
 30
0.0
 41
2.0
 42
2.0
 43
2.0
 50
180.0
  0
MTEXT
  5
1BEFC
330
1C227
100
AcDbEntity
  8
30
100
AcDbMText
 10
608.0623810060894
 20
539.5244151820555
 30
0.0
 40
8.0
 41
0.0
 46
0.0
 71
     5
 72
     1
  1
\A1;40
 73
     1
 44
1.0
 90
        3
 63
     9
421
 13158600
 45
1.25
441
        0
  0
POINT
  5
1BEFD
330
1C227
100
AcDbEntity
  8
DEFPOINTS
 62
     0
100
AcDbPoint
 10
628.0623810060895
 20
505.9938972774818
 30
0.0
  0
POINT
  5
1BEFE
330
1C227
100
AcDbEntity
  8
DEFPOINTS
 62
     0
100
AcDbPoint
 10
588.0623810060892
 20
505.9938972774832
 30
0.0
  0
POINT
  5
1BEFF
330
1C227
100
AcDbEntity
  8
DEFPOINTS
 62
     0
100
AcDbPoint
 10
588.0623810060892
 20
532.5244151820552
 30
0.0
  0
LINE
  5
1BF12
330
1C227
100
AcDbEntity
  8
30
  6
Continuous
 62
     0
370
    -2
100
AcDbLine
 10
588.0623810060892
 20
479.1208575802171
 30
0.0
 11
588.0623810060892
 21
464.3279822828141
 31
0.0
  0
LINE
  5
1BF13
330
1C227
100
AcDbEntity
  8
30
  6
Continuous
 62
     0
370
    -2
100
AcDbLine
 10
603.0623810060895
 20
474.6208575802171
 30
0.0
 11
603.0623810060895
 21
464.3279822828141
 31
0.0
  0
LINE
  5
1BF14
330
1C227
100
AcDbEntity
  8
30
  6
Continuous
 62
     0
370
    -2
100
AcDbLine
 10
590.0623810060892
 20
464.8279822828142
 30
0.0
 11
601.0623810060898
 21
464.8279822828142
 31
0.0
  0
LINE
  5
1BF15
330
1C227
100
AcDbEntity
  8
30
  6
Continuous
 62
     0
370
    -2
100
AcDbLine
 10
603.0623810060895
 20
464.8279822828142
 30
0.0
 11
621.7290476727562
 21
464.8279822828142
 31
0.0
  0
INSERT
  5
1BF16
330
1C227
100
AcDbEntity
  8
30
  6
Continuous
 62
     0
370
    -2
100
AcDbBlockReference
  2
_OPEN
 10
588.0623810060892
 20
464.8279822828142
 30
0.0
 41
2.0
 42
2.0
 43
2.0
 50
180.0
  0
INSERT
  5
1BF17
330
1C227
100
AcDbEntity
  8
30
  6
Continuous
 62
     0
370
    -2
100
AcDbBlockReference
  2
_OPEN
 10
603.0623810060895
 20
464.8279822828142
 30
0.0
 41
2.0
 42
2.0
 43
2.0
  0
MTEXT
  5
1BF18
330
1C227
100
AcDbEntity
  8
30
  6
Continuous
 62
     0
100
AcDbMText
 10
613.3957143394232
 20
471.8279822828141
 30
0.0
 40
8.0
 41
0.0
 46
0.0
 71
     5
 72
     1
  1
\A1;15
 73
     1
 44
1.0
  0
POINT
  5
1BF19
330
1C227
100
AcDbEntity
  8
DEFPOINTS
  6
Continuous
 62
     0
100
AcDbPoint
 10
588.0623810060892
 20
482.1208575802171
 30
0.0
  0
POINT
  5
1BF1A
330
1C227
100
AcDbEntity
  8
DEFPOINTS
  6
Continuous
 62
     0
100
AcDbPoint
 10
603.0623810060895
 20
477.6208575802171
 30
0.0
  0
POINT
  5
1BF1B
330
1C227
100
AcDbEntity
  8
DEFPOINTS
  6
Continuous
 62
     0
100
AcDbPoint
 10
603.0623810060895
 20
464.8279822828142
 30
0.0
  0
LINE
  5
1BF1C
330
1C227
100
AcDbEntity
  8
30
  6
Continuous
 62
     0
370
    -2
100
AcDbLine
 10
628.0623810060895
 20
478.5462406152491
 30
0.0
 11
628.0623810060895
 21
463.5926062960958
 31
0.0
  0
LINE
  5
1BF1D
330
1C227
100
AcDbEntity
  8
30
  6
Continuous
 62
     0
370
    -2
100
AcDbLine
 10
643.0623810060892
 20
474.0462406152492
 30
0.0
 11
643.0623810060892
 21
463.5926062960958
 31
0.0
  0
LINE
  5
1BF1E
330
1C227
100
AcDbEntity
  8
30
  6
Continuous
 62
     0
370
    -2
100
AcDbLine
 10
630.0623810060898
 20
464.0926062960958
 30
0.0
 11
641.0623810060892
 21
464.0926062960958
 31
0.0
  0
LINE
  5
1BF1F
330
1C227
100
AcDbEntity
  8
30
  6
Continuous
 62
     0
370
    -2
100
AcDbLine
 10
643.0623810060892
 20
464.0926062960958
 30
0.0
 11
661.7290476727559
 21
464.0926062960958
 31
0.0
  0
INSERT
  5
1BF20
330
1C227
100
AcDbEntity
  8
30
  6
Continuous
 62
     0
370
    -2
100
AcDbBlockReference
  2
_OPEN
 10
628.0623810060895
 20
464.0926062960958
 30
0.0
 41
2.0
 42
2.0
 43
2.0
 50
180.0
  0
INSERT
  5
1BF21
330
1C227
100
AcDbEntity
  8
30
  6
Continuous
 62
     0
370
    -2
100
AcDbBlockReference
  2
_OPEN
 10
643.0623810060892
 20
464.0926062960958
 30
0.0
 41
2.0
 42
2.0
 43
2.0
  0
MTEXT
  5
1BF22
330
1C227
100
AcDbEntity
  8
30
  6
Continuous
 62
     0
100
AcDbMText
 10
653.3957143394226
 20
471.0926062960957
 30
0.0
 40
8.0
 41
0.0
 46
0.0
 71
     5
 72
     1
  1
\A1;15
 73
     1
 44
1.0
  0
POINT
  5
1BF23
330
1C227
100
AcDbEntity
  8
DEFPOINTS
  6
Continuous
 62
     0
100
AcDbPoint
 10
628.0623810060895
 20
481.5462406152493
 30
0.0
  0
POINT
  5
1BF24
330
1C227
100
AcDbEntity
  8
DEFPOINTS
  6
Continuous
 62
     0
100
AcDbPoint
 10
643.0623810060892
 20
477.0462406152493
 30
0.0
  0
POINT
  5
1BF25
330
1C227
100
AcDbEntity
  8
DEFPOINTS
  6
Continuous
 62
     0
100
AcDbPoint
 10
643.0623810060892
 20
464.0926062960958
 30
0.0
  0
LINE
  5
1BF26
330
1C227
100
AcDbEntity
  8
30
  6
Continuous
 62
     0
370
    -2
100
AcDbLine
 10
626.5008253186776
 20
491.2735248016088
 30
0.0
 11
629.6239366935042
 21
499.7142697533544
 31
0.0
  0
LINE
  5
1BF27
330
1C227
100
AcDbEntity
  8
30
  6
Continuous
 62
     0
370
    -2
100
AcDbLine
 10
630.3179614434657
 20
501.5899908537423
 30
0.0
 11
643.7561516889212
 21
537.9090082891101
 31
0.0
  0
LINE
  5
1BF28
330
1C227
100
AcDbEntity
  8
30
  6
Continuous
 62
     0
370
    -2
100
AcDbLine
 10
643.7561516889212
 20
537.9090082891101
 30
0.0
 11
665.4228183555881
 21
537.9090082891101
 31
0.0
  0
INSERT
  5
1BF29
330
1C227
100
AcDbEntity
  8
30
  6
Continuous
 62
     0
370
    -2
100
AcDbBlockReference
  2
_OPEN
 10
625.8068005687157
 20
489.3978037012208
 30
0.0
 41
2.0
 42
2.0
 43
2.0
 50
249.6953128842914
  0
INSERT
  5
1BF2A
330
1C227
100
AcDbEntity
  8
30
  6
Continuous
 62
     0
370
    -2
100
AcDbBlockReference
  2
_OPEN
 10
630.3179614434657
 20
501.5899908537423
 30
0.0
 41
2.0
 42
2.0
 43
2.0
 50
69.69531288429156
  0
MTEXT
  5
1BF2B
330
1C227
100
AcDbEntity
  8
30
  6
Continuous
 62
     0
100
AcDbMText
 10
656.0894850222547
 20
544.9090082891099
 30
0.0
 40
8.0
 41
0.0
 46
0.0
 71
     5
 72
     1
  1
\A1;∅13
 73
     1
 44
1.0
  0
POINT
  5
1BF2C
330
1C227
100
AcDbEntity
  8
DEFPOINTS
  6
Continuous
 62
     0
100
AcDbPoint
 10
630.3179614434657
 20
501.5899908537423
 30
0.0
  0
POINT
  5
1BF2D
330
1C227
100
AcDbEntity
  8
DEFPOINTS
  6
Continuous
 62
     0
100
AcDbPoint
 10
625.8068005687157
 20
489.3978037012208
 30
0.0
  0
LINE
  5
1BFDF
330
1C227
100
AcDbEntity
  8
30
 62
     0
370
    -2
100
AcDbLine
 10
435.0623810060897
 20
701.4520089296572
 30
0.0
 11
342.2784271903879
 21
701.4520089296572
 31
0.0
  0
LINE
  5
1BFE0
330
1C227
100
AcDbEntity
  8
30
 62
     0
370
    -2
100
AcDbLine
 10
435.0623810060897
 20
517.4938970984818
 30
0.0
 11
342.2784271903879
 21
517.4938970984818
 31
0.0
  0
LINE
  5
1BFE1
330
1C227
100
AcDbEntity
  8
30
 62
     0
370
    -2
100
AcDbLine
 10
342.778427190388
 20
699.4520089296571
 30
0.0
 11
342.7784271903879
 21
519.4938970984821
 31
0.0
  0
INSERT
  5
1BFE2
330
1C227
100
AcDbEntity
  8
30
 62
     0
370
    -2
100
AcDbBlockReference
  2
_OPEN
 10
342.778427190388
 20
701.4520089296572
 30
0.0
 41
2.0
 42
2.0
 43
2.0
 50
90.0
  0
INSERT
  5
1BFE3
330
1C227
100
AcDbEntity
  8
30
 62
     0
370
    -2
100
AcDbBlockReference
  2
_OPEN
 10
342.7784271903879
 20
517.4938970984818
 30
0.0
 41
2.0
 42
2.0
 43
2.0
 50
270.0
  0
MTEXT
  5
1BFE4
330
1C227
100
AcDbEntity
  8
30
100
AcDbMText
 10
335.7784271903879
 20
609.4729530140697
 30
0.0
 40
8.0
 41
0.0
 46
0.0
 71
     5
 72
     1
  1
\A1;184
 11
0.0000000000000001
 21
1.0
 31
0.0
 73
     1
 44
1.0
 90
        3
 63
     9
421
 13158600
 45
1.25
441
        0
  0
POINT
  5
1BFE5
330
1C227
100
AcDbEntity
  8
DEFPOINTS
 62
     0
100
AcDbPoint
 10
436.0623810060896
 20
701.4520089296572
 30
0.0
  0
POINT
  5
1BFE6
330
1C227
100
AcDbEntity
  8
DEFPOINTS
 62
     0
100
AcDbPoint
 10
436.0623810060896
 20
517.4938970984818
 30
0.0
  0
POINT
  5
1BFE7
330
1C227
100
AcDbEntity
  8
DEFPOINTS
 62
     0
100
AcDbPoint
 10
342.7784271903879
 20
517.4938970984818
 30
0.0
  0
ENDBLK
  5
1C229
330
1C227
100
AcDbEntity
  8
0
100
AcDbBlockEnd
  0
ENDSEC
  0
SECTION
  2
ENTITIES
  0
LINE
  5
13A3C
330
1E
100
AcDbEntity
  8
16
 48
2.0
100
AcDbLine
 10
146.684731904862
 20
468.0322661367616
 30
0.0
 11
146.684731904862
 21
747.1050996313242
 31
0.0
  0
LINE
  5
13A3D
330
1E
100
AcDbEntity
  8
16
 48
2.0
100
AcDbLine
 10
219.3771633897149
 20
609.4938972774822
 30
0.0
 11
62.77885012370461
 21
609.4938972774822
 31
0.0
  0
LINE
  5
13A3E
330
1E
100
AcDbEntity
  8
16
 48
2.0
100
AcDbLine
 10
557.1109182784603
 20
609.4938972774825
 30
0.0
 11
395.1718838605366
 21
609.4938972774825
 31
0.0
  0
LINE
  5
13A3F
330
1E
100
AcDbEntity
  8
16
 48
2.0
100
AcDbLine
 10
146.2839548768725
 20
73.428861630764
 30
0.0
 11
146.2839548768725
 21
363.5282266901891
 31
0.0
  0
LINE
  5
13A40
330
1E
100
AcDbEntity
  8
16
 48
2.0
100
AcDbLine
 10
229.1741446301098
 20
211.4531278759599
 30
0.0
 11
69.00062237024258
 21
211.4531278759599
 31
0.0
  0
LINE
  5
13A41
330
1E
100
AcDbEntity
  8
16
 48
2.0
100
AcDbLine
 10
146.2838938417126
 20
757.928515317409
 30
0.0
 11
146.2839548768725
 21
1028.269456240591
 31
0.0
  0
MTEXT
  5
13A42
330
1E
100
AcDbEntity
  8
19
  6
Continuous
100
AcDbMText
 10
468.9255324443627
 20
1028.777972880424
 30
0.0
 40
10.0
 41
222.4136141959097
 46
33.24212607274502
 71
     1
 72
     5
  1
PS400-CF 3P RC\PPS400-NF 3P RC\PPS400-GF 3P RC\PPS400-NE 3P RC\PPS400-GE 3P RC\PPH400-CF 3P RC\PPH400-CE 3P RC
  7
STANDARD1
 73
     1
 44
1.0
  0
LINE
  5
13A47
330
1E
100
AcDbEntity
  8
17
100
AcDbLine
 10
524.9889392144605
 20
495.4938972774818
 30
0.0
 11
638.5623810060898
 21
495.4938972774818
 31
0.0
  0
LINE
  5
13A48
330
1E
100
AcDbEntity
  8
24
100
AcDbLine
 10
608.0623810060895
 20
510.4938972774816
 30
0.0
 11
644.0623810060892
 21
510.4938972774816
 31
0.0
  0
LINE
  5
13A49
330
1E
100
AcDbEntity
  8
24
100
AcDbLine
 10
608.0623810060895
 20
480.4938972774817
 30
0.0
 11
644.0623810060892
 21
480.4938972774817
 31
0.0
  0
LINE
  5
13A4C
330
1E
100
AcDbEntity
  8
24
100
AcDbLine
 10
533.0623810060897
 20
507.4938972774833
 30
0.0
 11
564.0623810060898
 21
507.4938972774833
 31
0.0
  0
LINE
  5
13A4D
330
1E
100
AcDbEntity
  8
24
100
AcDbLine
 10
533.0623810060897
 20
483.4938972774831
 30
0.0
 11
564.0623810060898
 21
483.4938972774831
 31
0.0
  0
LINE
  5
13A4E
330
1E
100
AcDbEntity
  8
24
100
AcDbLine
 10
533.0623810060897
 20
483.4938972774831
 30
0.0
 11
533.0623810060897
 21
507.4938972774833
 31
0.0
  0
LINE
  5
13A50
330
1E
100
AcDbEntity
  8
24
100
AcDbLine
 10
571.5623810060898
 20
510.4938972774831
 30
0.0
 11
604.0623810060894
 21
510.4938972774831
 31
0.0
  0
LINE
  5
13A51
330
1E
100
AcDbEntity
  8
24
100
AcDbLine
 10
571.5623810060898
 20
480.4938972774831
 30
0.0
 11
604.0623810060894
 21
480.4938972774831
 31
0.0
  0
LINE
  5
13A52
330
1E
100
AcDbEntity
  8
24
100
AcDbLine
 10
571.5623810060898
 20
510.4938972774831
 30
0.0
 11
604.0623810060894
 21
510.4938972774831
 31
0.0
  0
LINE
  5
13A53
330
1E
100
AcDbEntity
  8
24
100
AcDbLine
 10
571.5623810060898
 20
480.4938972774831
 30
0.0
 11
604.0623810060894
 21
480.4938972774831
 31
0.0
  0
LINE
  5
13A55
330
1E
100
AcDbEntity
  8
24
100
AcDbLine
 10
564.0623810060898
 20
483.4938972774831
 30
0.0
 11
564.0623810060898
 21
507.4938972774833
 31
0.0
  0
LINE
  5
13A56
330
1E
100
AcDbEntity
  8
24
100
AcDbLine
 10
564.0623810060898
 20
486.9938972774833
 30
0.0
 11
565.0623810060898
 21
486.9938972774833
 31
0.0
  0
ARC
  5
13A57
330
1E
100
AcDbEntity
  8
24
100
AcDbCircle
 10
571.5623810060898
 20
486.9938972774833
 30
0.0
 40
6.5
100
AcDbArc
 50
180.0
 51
270.0
  0
LINE
  5
13A58
330
1E
100
AcDbEntity
  8
24
100
AcDbLine
 10
564.0623810060898
 20
503.9938972774833
 30
0.0
 11
565.0623810060898
 21
503.9938972774833
 31
0.0
  0
ARC
  5
13A59
330
1E
100
AcDbEntity
  8
24
100
AcDbCircle
 10
571.5623810060898
 20
503.9938972774833
 30
0.0
 40
6.5
100
AcDbArc
 50
90.0
 51
180.0
  0
LINE
  5
13A5A
330
1E
100
AcDbEntity
  8
17
100
AcDbLine
 10
589.0623810060892
 20
505.9938972774832
 30
0.0
 11
589.0623810060892
 21
484.9938972774831
 31
0.0
  0
LINE
  5
13A5B
330
1E
100
AcDbEntity
  8
24
100
AcDbLine
 10
604.0623810060894
 20
480.4938972774831
 30
0.0
 11
604.0623810060894
 21
510.4938972774831
 31
0.0
  0
LINE
  5
13A5C
330
1E
100
AcDbEntity
  8
17
100
AcDbLine
 10
629.0623810060894
 20
505.9938972774818
 30
0.0
 11
629.0623810060894
 21
484.9938972774817
 31
0.0
  0
LINE
  5
13A5D
330
1E
100
AcDbEntity
  8
24
100
AcDbLine
 10
644.0623810060892
 20
480.4938972774817
 30
0.0
 11
644.0623810060892
 21
510.4938972774816
 31
0.0
  0
LINE
  5
13A60
330
1E
100
AcDbEntity
  8
24
100
AcDbLine
 10
608.0623810060895
 20
727.4938972774823
 30
0.0
 11
644.0623810060892
 21
727.4938972774823
 31
0.0
  0
LINE
  5
13A61
330
1E
100
AcDbEntity
  8
24
100
AcDbLine
 10
608.0623810060895
 20
719.4938972774823
 30
0.0
 11
644.0623810060892
 21
719.4938972774823
 31
0.0
  0
LINE
  5
13A62
330
1E
100
AcDbEntity
  8
17
100
AcDbLine
 10
589.0623810060892
 20
735.4938972774824
 30
0.0
 11
589.0623810060892
 21
711.4938972774823
 31
0.0
  0
LINE
  5
13A63
330
1E
100
AcDbEntity
  8
24
100
AcDbLine
 10
604.0623810060894
 20
719.4938972774823
 30
0.0
 11
604.0623810060894
 21
727.4938972774823
 31
0.0
  0
LINE
  5
13A64
330
1E
100
AcDbEntity
  8
24
100
AcDbLine
 10
563.0623810060898
 20
711.4938972774832
 30
0.0
 11
563.0623810060898
 21
735.4938972774832
 31
0.0
  0
LINE
  5
13A65
330
1E
100
AcDbEntity
  8
24
100
AcDbLine
 10
533.0623810060897
 20
711.4938972774832
 30
0.0
 11
533.0623810060897
 21
735.4938972774832
 31
0.0
  0
LINE
  5
13A6B
330
1E
100
AcDbEntity
  8
24
100
AcDbLine
 10
533.0623810060897
 20
711.4938972774832
 30
0.0
 11
563.0623810060898
 21
711.4938972774832
 31
0.0
  0
LINE
  5
13A6C
330
1E
100
AcDbEntity
  8
24
100
AcDbLine
 10
564.0623810060898
 20
719.4938972774823
 30
0.0
 11
604.0623810060894
 21
719.4938972774823
 31
0.0
  0
LINE
  5
13A6D
330
1E
100
AcDbEntity
  8
24
100
AcDbLine
 10
564.0623810060898
 20
714.9938972774832
 30
0.0
 11
564.0623810060898
 21
719.4938972774823
 31
0.0
  0
LINE
  5
13A6E
330
1E
100
AcDbEntity
  8
24
100
AcDbLine
 10
563.0623810060898
 20
714.9938972774832
 30
0.0
 11
564.0623810060898
 21
714.9938972774832
 31
0.0
  0
LINE
  5
13A70
330
1E
100
AcDbEntity
  8
24
100
AcDbLine
 10
533.0623810060897
 20
735.4938972774832
 30
0.0
 11
563.0623810060898
 21
735.4938972774832
 31
0.0
  0
LINE
  5
13A71
330
1E
100
AcDbEntity
  8
24
100
AcDbLine
 10
532.6616039781006
 20
733.1093561932171
 30
0.0
 11
536.6616039781006
 21
733.1093561932171
 31
0.0
  0
LINE
  5
13A72
330
1E
100
AcDbEntity
  8
24
100
AcDbLine
 10
564.0623810060898
 20
727.4938972774823
 30
0.0
 11
604.0623810060894
 21
727.4938972774823
 31
0.0
  0
LINE
  5
13A73
330
1E
100
AcDbEntity
  8
24
100
AcDbLine
 10
564.0623810060898
 20
731.9938972774832
 30
0.0
 11
564.0623810060898
 21
727.4938972774823
 31
0.0
  0
LINE
  5
13A74
330
1E
100
AcDbEntity
  8
24
100
AcDbLine
 10
563.0623810060898
 20
731.9938972774832
 30
0.0
 11
564.0623810060898
 21
731.9938972774832
 31
0.0
  0
LINE
  5
13A75
330
1E
100
AcDbEntity
  8
17
100
AcDbLine
 10
629.0623810060894
 20
735.4938972774824
 30
0.0
 11
629.0623810060894
 21
711.4938972774823
 31
0.0
  0
LINE
  5
13A76
330
1E
100
AcDbEntity
  8
24
100
AcDbLine
 10
644.0623810060892
 20
719.4938972774823
 30
0.0
 11
644.0623810060892
 21
727.4938972774823
 31
0.0
  0
DIMENSION
  5
13A79
330
1E
100
AcDbEntity
  8
30
  6
Continuous
100
AcDbDimension
280
     0
  2
*D1
 10
662.2204823418228
 20
480.4938972774817
 30
0.0
 11
662.2204823418227
 21
521.7041987693301
 31
0.0
 70
   160
 71
     5
 42
29.99999999999995
 73
     0
 74
     0
 75
     0
  3
STANDARD
100
AcDbAlignedDimension
 13
644.0623810060892
 23
510.4938972774816
 33
0.0
 14
644.0623810060892
 24
480.4938972774817
 34
0.0
 50
90.0
100
AcDbRotatedDimension
1001
ACAD
1000
DSTYLE
1002
{
1070
    79
1070
     3
1002
}
  0
DIMENSION
  5
13A7A
330
1E
100
AcDbEntity
  8
30
  6
Continuous
100
AcDbDimension
280
     0
  2
*D2
 10
675.535802806794
 20
495.4938972774816
 30
0.0
 11
668.5358028067938
 21
609.4938972774822
 31
0.0
 70
    32
 71
     5
 42
228.0000000000007
 73
     0
 74
     0
 75
     0
  3
STANDARD
100
AcDbAlignedDimension
 13
651.0623810060892
 23
723.4938972774823
 33
0.0
 14
640.2493909686817
 24
495.4938972774816
 34
0.0
 50
90.0
100
AcDbRotatedDimension
1001
ACAD
1000
DSTYLE
1002
{
1070
    79
1070
     3
1002
}
  0
DIMENSION
  5
13A85
330
1E
100
AcDbEntity
  8
30
  6
Continuous
100
AcDbDimension
280
     0
  2
*D3
 10
262.2038707992792
 20
479.4938972774822
 30
0.0
 11
255.2038707992791
 21
609.4938972774822
 31
0.0
 70
    32
 71
     5
 42
260.0
 73
     0
 74
     0
 75
     0
  3
STANDARD
100
AcDbAlignedDimension
 13
216.684731904862
 23
739.4938972774824
 33
0.0
 14
216.684731904862
 24
479.4938972774822
 34
0.0
 50
90.0
100
AcDbRotatedDimension
1001
ACAD
1000
DSTYLE
1002
{
1070
    79
1070
     3
1002
}
  0
DIMENSION
  5
13A86
330
1E
100
AcDbEntity
  8
30
  6
Continuous
100
AcDbDimension
280
     0
  2
*D4
 10
112.687740437257
 20
111.4698530794233
 30
0.0
 11
55.56328593581381
 21
58.39759335298492
 31
0.0
 70
   163
 71
     5
 42
36.0000000000005
 73
     0
 74
     0
 75
     0
  3
STANDARD1
100
AcDbDiametricDimension
 15
89.88016931648797
 25
83.61640267249704
 35
0.0
 40
0.0
  0
DIMENSION
  5
13A87
330
1E
100
AcDbEntity
  8
30
  6
Continuous
100
AcDbDimension
280
     0
  2
*D5
 10
262.3578649905312
 20
97.45312787595993
 30
0.0
 11
262.3578649905312
 21
211.4531278759599
 31
0.0
 70
   160
 71
     5
 42
227.9999999999999
 73
     0
 74
     0
 75
     0
  3
STANDARD
100
AcDbAlignedDimension
 13
191.2839548768724
 23
325.4531278759599
 33
0.0
 14
191.2839548768724
 24
97.45312787595993
 34
0.0
 50
90.0
100
AcDbRotatedDimension
1001
ACAD
1000
DSTYLE
1002
{
1070
    79
1070
     3
1002
}
  0
DIMENSION
  5
13A88
330
1E
100
AcDbEntity
  8
30
  6
Continuous
100
AcDbDimension
280
     0
  2
*D6
 10
245.6051020748128
 20
104.4531278759599
 30
0.0
 11
238.6051020748128
 21
211.4531278759599
 31
0.0
 70
    32
 71
     5
 42
214.0
 73
     0
 74
     0
 75
     0
  3
STANDARD
100
AcDbAlignedDimension
 13
168.7839548768725
 23
318.4531278759599
 33
0.0
 14
168.7839548768725
 24
104.4531278759599
 34
0.0
 50
90.0
100
AcDbRotatedDimension
1001
ACAD
1000
DSTYLE
1002
{
1070
    79
1070
     3
1002
}
  0
LINE
  5
13A89
330
1E
100
AcDbEntity
  8
10
  6
CONTINOUS
100
AcDbLine
 10
76.68473190486202
 20
739.4938972774824
 30
0.0
 11
76.68473190486202
 21
479.4938972774822
 31
0.0
  0
LINE
  5
13A8A
330
1E
100
AcDbEntity
  8
10
  6
CONTINOUS
100
AcDbLine
 10
76.68473190486202
 20
479.4938972774822
 30
0.0
 11
216.634733049062
 21
479.4938972774821
 31
0.0
  0
LINE
  5
13A8B
330
1E
100
AcDbEntity
  8
10
  6
CONTINOUS
100
AcDbLine
 10
137.684731904862
 20
495.4938972774822
 30
0.0
 11
155.684731904862
 21
495.4938972774822
 31
0.0
  0
LINE
  5
13A8C
330
1E
100
AcDbEntity
  8
12
  6
DASHED
100
AcDbLine
 10
132.184731904862
 20
502.4938972774823
 30
0.0
 11
116.184731904862
 21
502.4938972774823
 31
0.0
  0
CIRCLE
  5
13A8D
330
1E
100
AcDbEntity
  8
12
  6
DASHED
100
AcDbCircle
 10
124.184731904862
 20
502.4938972774823
 30
0.0
 40
4.0
  0
LINE
  5
13A8E
330
1E
100
AcDbEntity
  8
10
  6
CONTINOUS
100
AcDbLine
 10
101.684731904862
 20
486.4938972774822
 30
0.0
 11
101.684731904862
 21
504.4938972774822
 31
0.0
  0
CIRCLE
  5
13A8F
330
1E
100
AcDbEntity
  8
10
  6
CONTINOUS
100
AcDbCircle
 10
101.684731904862
 20
495.4938972774822
 30
0.0
 40
5.0
  0
LINE
  5
13A90
330
1E
100
AcDbEntity
  8
10
  6
CONTINOUS
100
AcDbLine
 10
92.68473190486202
 20
495.4938972774822
 30
0.0
 11
110.684731904862
 21
495.4938972774822
 31
0.0
  0
LINE
  5
13A91
330
1E
100
AcDbEntity
  8
10
  6
CONTINOUS
100
AcDbLine
 10
146.684731904862
 20
486.4938972774822
 30
0.0
 11
146.684731904862
 21
504.4938972774822
 31
0.0
  0
CIRCLE
  5
13A92
330
1E
100
AcDbEntity
  8
10
  6
CONTINOUS
100
AcDbCircle
 10
146.684731904862
 20
495.4938972774822
 30
0.0
 40
5.0
  0
LINE
  5
13A93
330
1E
100
AcDbEntity
  8
12
  6
DASHED
100
AcDbLine
 10
124.184731904862
 20
510.4938972774824
 30
0.0
 11
124.184731904862
 21
494.4938972774822
 31
0.0
  0
LINE
  5
13A94
330
1E
100
AcDbEntity
  8
10
  6
CONTINOUS
100
AcDbLine
 10
182.684731904862
 20
495.4938972774822
 30
0.0
 11
200.684731904862
 21
495.4938972774822
 31
0.0
  0
LINE
  5
13A95
330
1E
100
AcDbEntity
  8
12
  6
DASHED
100
AcDbLine
 10
177.184731904862
 20
502.4938972774823
 30
0.0
 11
161.184731904862
 21
502.4938972774823
 31
0.0
  0
CIRCLE
  5
13A96
330
1E
100
AcDbEntity
  8
12
  6
DASHED
100
AcDbCircle
 10
169.184731904862
 20
502.4938972774823
 30
0.0
 40
4.0
  0
LINE
  5
13A97
330
1E
100
AcDbEntity
  8
12
  6
DASHED
100
AcDbLine
 10
169.184731904862
 20
510.4938972774824
 30
0.0
 11
169.184731904862
 21
494.4938972774822
 31
0.0
  0
LINE
  5
13A98
330
1E
100
AcDbEntity
  8
10
  6
CONTINOUS
100
AcDbLine
 10
191.684731904862
 20
486.4938972774822
 30
0.0
 11
191.684731904862
 21
504.4938972774822
 31
0.0
  0
CIRCLE
  5
13A99
330
1E
100
AcDbEntity
  8
10
  6
CONTINOUS
100
AcDbCircle
 10
191.684731904862
 20
495.4938972774822
 30
0.0
 40
5.0
  0
LINE
  5
13A9A
330
1E
100
AcDbEntity
  8
10
  6
CONTINOUS
100
AcDbLine
 10
216.634733049062
 20
739.4938972774824
 30
0.0
 11
76.68473190486202
 21
739.4938972774824
 31
0.0
  0
LINE
  5
13A9B
330
1E
100
AcDbEntity
  8
10
  6
CONTINOUS
100
AcDbLine
 10
88.68473190486202
 20
654.4938972774822
 30
0.0
 11
88.68473190486202
 21
564.4938972774822
 31
0.0
  0
LINE
  5
13A9C
330
1E
100
AcDbEntity
  8
10
  6
CONTINOUS
100
AcDbLine
 10
191.684731904862
 20
714.4938972774824
 30
0.0
 11
191.684731904862
 21
732.4938972774823
 31
0.0
  0
LINE
  5
13A9D
330
1E
100
AcDbEntity
  8
10
  6
CONTINOUS
100
AcDbLine
 10
146.684731904862
 20
714.4938972774824
 30
0.0
 11
146.684731904862
 21
732.4938972774823
 31
0.0
  0
LINE
  5
13A9E
330
1E
100
AcDbEntity
  8
10
  6
CONTINOUS
100
AcDbLine
 10
101.684731904862
 20
714.4938972774824
 30
0.0
 11
101.684731904862
 21
732.4938972774823
 31
0.0
  0
CIRCLE
  5
13A9F
330
1E
100
AcDbEntity
  8
10
  6
CONTINOUS
100
AcDbCircle
 10
-191.684731904862
 20
723.4938972774823
 30
0.0
 40
5.0
210
0.0
220
0.0
230
-1.0
  0
CIRCLE
  5
13AA0
330
1E
100
AcDbEntity
  8
10
  6
CONTINOUS
100
AcDbCircle
 10
-146.684731904862
 20
723.4938972774823
 30
0.0
 40
5.0
210
0.0
220
0.0
230
-1.0
  0
CIRCLE
  5
13AA1
330
1E
100
AcDbEntity
  8
10
  6
CONTINOUS
100
AcDbCircle
 10
-101.684731904862
 20
723.4938972774823
 30
0.0
 40
5.0
210
0.0
220
0.0
230
-1.0
  0
LINE
  5
13AA2
330
1E
100
AcDbEntity
  8
10
  6
CONTINOUS
100
AcDbLine
 10
204.684731904862
 20
654.4938972774822
 30
0.0
 11
204.684731904862
 21
564.4938972774822
 31
0.0
  0
LINE
  5
13AA3
330
1E
100
AcDbEntity
  8
10
  6
CONTINOUS
100
AcDbLine
 10
172.184731904862
 20
564.4938972774822
 30
0.0
 11
172.184731904862
 21
654.4938972774822
 31
0.0
  0
LINE
  5
13AA4
330
1E
100
AcDbEntity
  8
10
  6
CONTINOUS
100
AcDbLine
 10
121.1847319048624
 20
564.4938972774822
 30
0.0
 11
121.184731904862
 21
654.4938972774822
 31
0.0
  0
LINE
  5
13AA5
330
1E
100
AcDbEntity
  8
10
  6
CONTINOUS
100
AcDbLine
 10
128.684731904862
 20
575.4938972774822
 30
0.0
 11
128.684731904862
 21
643.4938972774822
 31
0.0
  0
LINE
  5
13AA6
330
1E
100
AcDbEntity
  8
10
  6
CONTINOUS
100
AcDbLine
 10
164.684731904862
 20
575.4938972774822
 30
0.0
 11
164.684731904862
 21
643.4938972774822
 31
0.0
  0
LINE
  5
13AA7
330
1E
100
AcDbEntity
  8
10
  6
CONTINOUS
100
AcDbLine
 10
129.684731904862
 20
632.4727330660596
 30
0.0
 11
129.684731904862
 21
642.3025575975274
 31
0.0
  0
LINE
  5
13AA8
330
1E
100
AcDbEntity
  8
10
  6
CONTINOUS
100
AcDbLine
 10
163.684731904862
 20
632.4727330660596
 30
0.0
 11
163.684731904862
 21
642.3025575975274
 31
0.0
  0
LINE
  5
13AA9
330
1E
100
AcDbEntity
  8
10
  6
CONTINOUS
100
AcDbLine
 10
88.68473190486202
 20
564.4938972774822
 30
0.0
 11
204.684731904862
 21
564.4938972774822
 31
0.0
  0
LINE
  5
13AAA
330
1E
100
AcDbEntity
  8
10
  6
CONTINOUS
100
AcDbLine
 10
163.6847319048625
 20
632.4727330660596
 30
0.0
 11
129.684731904862
 21
632.4727330660596
 31
0.0
  0
LINE
  5
13AAB
330
1E
100
AcDbEntity
  8
10
  6
CONTINOUS
100
AcDbLine
 10
164.684731904862
 20
575.4938972774822
 30
0.0
 11
128.684731904862
 21
575.4938972774822
 31
0.0
  0
LINE
  5
13AAC
330
1E
100
AcDbEntity
  8
10
  6
CONTINOUS
100
AcDbLine
 10
137.684731904862
 20
723.4938972774823
 30
0.0
 11
155.684731904862
 21
723.4938972774823
 31
0.0
  0
LINE
  5
13AAD
330
1E
100
AcDbEntity
  8
10
  6
CONTINOUS
100
AcDbLine
 10
88.68473190486202
 20
654.4938972774822
 30
0.0
 11
204.684731904862
 21
654.4938972774822
 31
0.0
  0
LINE
  5
13AAE
330
1E
100
AcDbEntity
  8
10
  6
CONTINOUS
100
AcDbLine
 10
164.684731904862
 20
643.4938972774822
 30
0.0
 11
128.684731904862
 21
643.4938972774822
 31
0.0
  0
LINE
  5
13AAF
330
1E
100
AcDbEntity
  8
10
  6
CONTINOUS
100
AcDbLine
 10
163.684731904862
 20
642.3025575975274
 30
0.0
 11
129.684731904862
 21
642.3025575975274
 31
0.0
  0
LINE
  5
13AB0
330
1E
100
AcDbEntity
  8
12
  6
DASHED
100
AcDbLine
 10
132.184731904862
 20
716.4938972774823
 30
0.0
 11
116.184731904862
 21
716.4938972774823
 31
0.0
  0
CIRCLE
  5
13AB1
330
1E
100
AcDbEntity
  8
12
  6
DASHED
100
AcDbCircle
 10
-124.184731904862
 20
716.4938972774823
 30
0.0
 40
4.0
210
0.0
220
0.0
230
-1.0
  0
LINE
  5
13AB2
330
1E
100
AcDbEntity
  8
10
  6
CONTINOUS
100
AcDbLine
 10
92.68473190486202
 20
723.4938972774823
 30
0.0
 11
110.684731904862
 21
723.4938972774823
 31
0.0
  0
LINE
  5
13AB3
330
1E
100
AcDbEntity
  8
12
  6
DASHED
100
AcDbLine
 10
124.184731904862
 20
724.4938972774823
 30
0.0
 11
124.184731904862
 21
708.4938972774823
 31
0.0
  0
LINE
  5
13AB4
330
1E
100
AcDbEntity
  8
10
  6
CONTINOUS
100
AcDbLine
 10
182.684731904862
 20
723.4938972774823
 30
0.0
 11
200.684731904862
 21
723.4938972774823
 31
0.0
  0
LINE
  5
13AB5
330
1E
100
AcDbEntity
  8
12
  6
DASHED
100
AcDbLine
 10
177.184731904862
 20
716.4938972774823
 30
0.0
 11
161.184731904862
 21
716.4938972774823
 31
0.0
  0
CIRCLE
  5
13AB6
330
1E
100
AcDbEntity
  8
12
  6
DASHED
100
AcDbCircle
 10
-169.184731904862
 20
716.4938972774823
 30
0.0
 40
4.0
210
0.0
220
0.0
230
-1.0
  0
LINE
  5
13AB7
330
1E
100
AcDbEntity
  8
12
  6
DASHED
100
AcDbLine
 10
169.184731904862
 20
724.4938972774823
 30
0.0
 11
169.184731904862
 21
708.4938972774823
 31
0.0
  0
LINE
  5
13ABE
330
1E
100
AcDbEntity
  8
16
100
AcDbLine
 10
79.28395487687248
 20
97.45312787595993
 30
0.0
 11
213.1824067436282
 21
97.45312787595993
 31
0.0
  0
ARC
  5
13ABF
330
1E
100
AcDbEntity
  8
22
100
AcDbCircle
 10
-101.2839548768725
 20
97.45312787595993
 30
0.0
 40
18.0
210
0.0
220
0.0
230
-1.0
100
AcDbArc
 50
206.3877999612475
 51
180.0
  0
ARC
  5
13AC1
330
1E
100
AcDbEntity
  8
22
100
AcDbCircle
 10
-146.2839548768725
 20
97.45312787595993
 30
0.0
 40
18.0
210
0.0
220
0.0
230
-1.0
100
AcDbArc
 50
0.0
 51
180.0
  0
ARC
  5
13AC2
330
1E
100
AcDbEntity
  8
22
100
AcDbCircle
 10
-146.2839548768725
 20
97.45312787595993
 30
0.0
 40
18.0
210
0.0
220
0.0
230
-1.0
100
AcDbArc
 50
206.3877999612475
 51
333.6122000387567
  0
LINE
  5
13AC4
330
1E
100
AcDbEntity
  8
16
100
AcDbLine
 10
101.2839548768725
 20
119.4531278759599
 30
0.0
 11
101.2839548768725
 21
75.45312787595992
 31
0.0
  0
LINE
  5
13AC5
330
1E
100
AcDbEntity
  8
22
100
AcDbLine
 10
117.4084703734693
 20
89.45312787595993
 30
0.0
 11
130.1594393802752
 21
89.45312787595993
 31
0.0
  0
LINE
  5
13AC6
330
1E
100
AcDbEntity
  8
22
100
AcDbLine
 10
119.283954876872
 20
97.45312787595993
 30
0.0
 11
128.2839548768725
 21
97.45312787595993
 31
0.0
  0
LINE
  5
13AC7
330
1E
100
AcDbEntity
  8
22
  6
DASHDOT
100
AcDbLine
 10
116.783954876872
 20
104.4531278759599
 30
0.0
 11
130.783954876872
 21
104.4531278759599
 31
0.0
  0
LINE
  5
13AC8
330
1E
100
AcDbEntity
  8
22
  6
DASHDOT
100
AcDbLine
 10
123.783954876872
 20
111.4531278759599
 30
0.0
 11
123.783954876872
 21
97.45312787595993
 31
0.0
  0
CIRCLE
  5
13AC9
330
1E
100
AcDbEntity
  8
22
100
AcDbCircle
 10
-123.783954876872
 20
104.4531278759599
 30
0.0
 40
3.0
210
0.0
220
0.0
230
-1.0
  0
LINE
  5
13ACA
330
1E
100
AcDbEntity
  8
16
100
AcDbLine
 10
191.2839548768724
 20
119.4531278759599
 30
0.0
 11
191.2839548768724
 21
75.45312787595992
 31
0.0
  0
LINE
  5
13ACE
330
1E
100
AcDbEntity
  8
22
100
AcDbLine
 10
162.4084703734693
 20
89.45312787595993
 30
0.0
 11
175.1594393802752
 21
89.45312787595993
 31
0.0
  0
LINE
  5
13ACF
330
1E
100
AcDbEntity
  8
22
100
AcDbLine
 10
164.2839548768725
 20
97.45312787595993
 30
0.0
 11
173.2839548768725
 21
97.45312787595993
 31
0.0
  0
LINE
  5
13AD0
330
1E
100
AcDbEntity
  8
22
  6
DASHDOT
100
AcDbLine
 10
161.783954876872
 20
104.4531278759599
 30
0.0
 11
175.7839548768725
 21
104.4531278759599
 31
0.0
  0
CIRCLE
  5
13AD1
330
1E
100
AcDbEntity
  8
22
100
AcDbCircle
 10
168.7839548768725
 20
104.4531278759599
 30
0.0
 40
3.0
  0
LINE
  5
13AD2
330
1E
100
AcDbEntity
  8
22
  6
DASHDOT
100
AcDbLine
 10
168.7839548768725
 20
111.4531278759599
 30
0.0
 11
168.7839548768725
 21
97.45312787595993
 31
0.0
  0
LINE
  5
13AD8
330
1E
100
AcDbEntity
  8
16
100
AcDbLine
 10
101.2839548768725
 20
347.4531278759599
 30
0.0
 11
101.2839548768725
 21
303.4531278759599
 31
0.0
  0
ARC
  5
13AD9
330
1E
100
AcDbEntity
  8
22
100
AcDbCircle
 10
101.2839548768725
 20
325.4531278759599
 30
0.0
 40
18.0
100
AcDbArc
 50
26.38779996124752
 51
0.0
  0
LINE
  5
13ADA
330
1E
100
AcDbEntity
  8
16
100
AcDbLine
 10
191.2839548768724
 20
347.4531278759599
 30
0.0
 11
191.2839548768724
 21
303.4531278759599
 31
0.0
  0
LINE
  5
13ADB
330
1E
100
AcDbEntity
  8
16
100
AcDbLine
 10
79.28395487687248
 20
325.4531278759599
 30
0.0
 11
216.283954876872
 21
325.4531278759599
 31
0.0
  0
ARC
  5
13ADD
330
1E
100
AcDbEntity
  8
22
100
AcDbCircle
 10
146.2839548768725
 20
325.4531278759599
 30
0.0
 40
18.0
100
AcDbArc
 50
180.0
 51
0.0
  0
LINE
  5
13ADE
330
1E
100
AcDbEntity
  8
22
100
AcDbLine
 10
119.283954876872
 20
325.4531278759599
 30
0.0
 11
128.2839548768725
 21
325.4531278759599
 31
0.0
  0
LINE
  5
13ADF
330
1E
100
AcDbEntity
  8
22
  6
DASHDOT
100
AcDbLine
 10
116.783954876872
 20
318.4531278759599
 30
0.0
 11
130.783954876872
 21
318.4531278759599
 31
0.0
  0
LINE
  5
13AE0
330
1E
100
AcDbEntity
  8
22
100
AcDbLine
 10
123.783954876872
 20
325.4531278759599
 30
0.0
 11
123.783954876872
 21
311.4531278759599
 31
0.0
  0
CIRCLE
  5
13AE1
330
1E
100
AcDbEntity
  8
22
100
AcDbCircle
 10
123.783954876872
 20
318.4531278759599
 30
0.0
 40
3.0
  0
LINE
  5
13AE4
330
1E
100
AcDbEntity
  8
22
100
AcDbLine
 10
164.2839548768725
 20
325.4531278759599
 30
0.0
 11
173.2839548768725
 21
325.4531278759599
 31
0.0
  0
LINE
  5
13AE5
330
1E
100
AcDbEntity
  8
22
  6
DASHDOT
100
AcDbLine
 10
161.783954876872
 20
318.4531278759599
 30
0.0
 11
175.7839548768725
 21
318.4531278759599
 31
0.0
  0
CIRCLE
  5
13AE6
330
1E
100
AcDbEntity
  8
22
100
AcDbCircle
 10
-168.7839548768725
 20
318.4531278759599
 30
0.0
 40
3.0
210
0.0
220
0.0
230
-1.0
  0
LINE
  5
13AE7
330
1E
100
AcDbEntity
  8
22
  6
DASHDOT
100
AcDbLine
 10
168.7839548768725
 20
325.4531278759599
 30
0.0
 11
168.7839548768725
 21
311.4531278759599
 31
0.0
  0
ARC
  5
13AE8
330
1E
100
AcDbEntity
  8
22
100
AcDbCircle
 10
146.2839548768725
 20
325.4531278759599
 30
0.0
 40
18.0
100
AcDbArc
 50
26.38779996124752
 51
153.6122000387566
  0
LINE
  5
13AE9
330
1E
100
AcDbEntity
  8
22
100
AcDbLine
 10
117.4084703734693
 20
333.4531278759599
 30
0.0
 11
130.1594393802752
 21
333.4531278759599
 31
0.0
  0
LINE
  5
13AEB
330
1E
100
AcDbEntity
  8
22
100
AcDbLine
 10
162.4084703734693
 20
333.4531278759599
 30
0.0
 11
175.1594393802752
 21
333.4531278759599
 31
0.0
  0
LINE
  5
13AEC
330
1E
100
AcDbEntity
  8
24
100
AcDbLine
 10
179.2838938417126
 20
912.7359342129096
 30
0.0
 11
179.2838938417126
 21
942.7359342129101
 31
0.0
  0
LINE
  5
13AED
330
1E
100
AcDbEntity
  8
24
100
AcDbLine
 10
203.2838938417126
 20
912.7359342129096
 30
0.0
 11
203.2838938417126
 21
942.7359342129101
 31
0.0
  0
LINE
  5
13AEE
330
1E
100
AcDbEntity
  8
24
100
AcDbLine
 10
159.2838938417126
 20
912.7359342129096
 30
0.0
 11
159.2838938417126
 21
945.5455184530864
 31
0.0
  0
LINE
  5
13AEF
330
1E
100
AcDbEntity
  8
24
100
AcDbLine
 10
89.28389384171259
 20
912.7359342129096
 30
0.0
 11
89.28389384171259
 21
942.7359342129101
 31
0.0
  0
LINE
  5
13AF0
330
1E
100
AcDbEntity
  8
24
100
AcDbLine
 10
113.2838938417126
 20
912.7359342129096
 30
0.0
 11
113.2838938417126
 21
942.7359342129101
 31
0.0
  0
LINE
  5
13AF1
330
1E
100
AcDbEntity
  8
24
100
AcDbLine
 10
133.2838938417126
 20
912.7359342129096
 30
0.0
 11
133.2838938417126
 21
945.5455184530864
 31
0.0
  0
LINE
  5
13AF2
330
1E
100
AcDbEntity
  8
10
  6
CONTINOUS
100
AcDbLine
 10
76.28389384171258
 20
815.7359342129096
 30
0.0
 11
216.2838938417122
 21
815.7359342129096
 31
0.0
  0
LINE
  5
13AF3
330
1E
100
AcDbEntity
  8
10
  6
CONTINOUS
100
AcDbLine
 10
76.28389384171258
 20
809.7359342129097
 30
0.0
 11
216.2838938417122
 21
809.7359342129097
 31
0.0
  0
LINE
  5
13AF4
330
1E
100
AcDbEntity
  8
10
  6
CONTINOUS
100
AcDbLine
 10
88.28389384171257
 20
805.73593421291
 30
0.0
 11
204.2838938417126
 21
805.73593421291
 31
0.0
  0
LINE
  5
13AF5
330
1E
100
AcDbEntity
  8
10
  6
CONTINOUS
100
AcDbLine
 10
76.28389384171214
 20
912.7359342129096
 30
0.0
 11
216.2838938417122
 21
912.7359342129096
 31
0.0
  0
LINE
  5
13AF6
330
1E
100
AcDbEntity
  8
10
  6
CONTINOUS
100
AcDbLine
 10
76.28389384171258
 20
809.7359342129097
 30
0.0
 11
76.28389384171258
 21
912.7359342129096
 31
0.0
  0
LINE
  5
13AF7
330
1E
100
AcDbEntity
  8
10
  6
CONTINOUS
100
AcDbLine
 10
88.28389384171257
 20
805.73593421291
 30
0.0
 11
88.28389384171257
 21
809.7359342129097
 31
0.0
  0
LINE
  5
13AF8
330
1E
100
AcDbEntity
  8
10
  6
CONTINOUS
100
AcDbLine
 10
204.2838938417126
 20
805.73593421291
 30
0.0
 11
204.2838938417126
 21
809.7359342129097
 31
0.0
  0
LINE
  5
13AF9
330
1E
100
AcDbEntity
  8
10
  6
CONTINOUS
100
AcDbLine
 10
216.2838938417122
 20
809.7359342129097
 30
0.0
 11
216.2838938417122
 21
912.7359342129096
 31
0.0
  0
ARC
  5
13AFA
330
1E
100
AcDbEntity
  8
24
100
AcDbCircle
 10
92.78389384171259
 20
950.2359342129096
 30
0.0
 40
6.5
100
AcDbArc
 50
180.0
 51
270.0
  0
LINE
  5
13AFB
330
1E
100
AcDbEntity
  8
24
100
AcDbLine
 10
86.28389384171256
 20
983.7359342129101
 30
0.0
 11
116.2838938417126
 21
983.7359342129101
 31
0.0
  0
LINE
  5
13AFC
330
1E
100
AcDbEntity
  8
24
100
AcDbLine
 10
86.28389384171256
 20
950.2359342129096
 30
0.0
 11
86.28389384171256
 21
983.7359342129101
 31
0.0
  0
LINE
  5
13AFD
330
1E
100
AcDbEntity
  8
24
100
AcDbLine
 10
86.28389384171256
 20
950.2359342129096
 30
0.0
 11
86.28389384171256
 21
983.7359342129101
 31
0.0
  0
LINE
  5
13AFF
330
1E
100
AcDbEntity
  8
24
100
AcDbLine
 10
131.2838938417126
 20
1023.73593421291
 30
0.0
 11
161.2838938417126
 21
1023.73593421291
 31
0.0
  0
LINE
  5
13B00
330
1E
100
AcDbEntity
  8
24
100
AcDbLine
 10
131.2838938417126
 20
984.7359342129101
 30
0.0
 11
161.2838938417126
 21
984.7359342129101
 31
0.0
  0
LINE
  5
13B01
330
1E
100
AcDbEntity
  8
17
100
AcDbLine
 10
135.7838938417126
 20
1007.73593421291
 30
0.0
 11
156.7838938417126
 21
1007.73593421291
 31
0.0
  0
LINE
  5
13B02
330
1E
100
AcDbEntity
  8
24
100
AcDbLine
 10
116.2838938417126
 20
950.2359342129096
 30
0.0
 11
116.2838938417126
 21
983.7359342129101
 31
0.0
  0
LINE
  5
13B03
330
1E
100
AcDbEntity
  8
24
100
AcDbLine
 10
116.2838938417126
 20
950.2359342129096
 30
0.0
 11
116.2838938417126
 21
983.7359342129101
 31
0.0
  0
LINE
  5
13B04
330
1E
100
AcDbEntity
  8
24
100
AcDbLine
 10
131.2838938417126
 20
950.2359342129096
 30
0.0
 11
131.2838938417126
 21
1023.73593421291
 31
0.0
  0
LINE
  5
13B05
330
1E
100
AcDbEntity
  8
24
100
AcDbLine
 10
131.2838938417126
 20
950.2359342129096
 30
0.0
 11
131.2838938417126
 21
1023.73593421291
 31
0.0
  0
LINE
  5
13B06
330
1E
100
AcDbEntity
  8
17
100
AcDbLine
 10
101.2838938417126
 20
957.2359342129097
 30
0.0
 11
101.2838938417126
 21
978.2359342129096
 31
0.0
  0
LINE
  5
13B07
330
1E
100
AcDbEntity
  8
24
100
AcDbLine
 10
89.28389384171259
 20
942.7359342129101
 30
0.0
 11
113.2838938417126
 21
942.7359342129101
 31
0.0
  0
LINE
  5
13B08
330
1E
100
AcDbEntity
  8
24
100
AcDbLine
 10
92.78389384171259
 20
942.7359342129101
 30
0.0
 11
92.78389384171259
 21
943.73593421291
 31
0.0
  0
LINE
  5
13B09
330
1E
100
AcDbEntity
  8
24
100
AcDbLine
 10
109.7838938417126
 20
942.7359342129101
 30
0.0
 11
109.7838938417126
 21
943.73593421291
 31
0.0
  0
ARC
  5
13B0A
330
1E
100
AcDbEntity
  8
24
100
AcDbCircle
 10
109.7838938417126
 20
950.2359342129096
 30
0.0
 40
6.5
100
AcDbArc
 50
270.0
 51
0.0
  0
LINE
  5
13B0B
330
1E
100
AcDbEntity
  8
17
100
AcDbLine
 10
90.78389384171257
 20
967.7359342129101
 30
0.0
 11
111.7838938417126
 21
967.7359342129101
 31
0.0
  0
ARC
  5
13B0D
330
1E
100
AcDbEntity
  8
24
100
AcDbCircle
 10
137.7838938417126
 20
950.2359342129096
 30
0.0
 40
6.5
100
AcDbArc
 50
180.0
 51
226.1869385396015
  0
LINE
  5
13B0F
330
1E
100
AcDbEntity
  8
24
100
AcDbLine
 10
176.2838938417126
 20
950.2359342129096
 30
0.0
 11
176.2838938417126
 21
983.7359342129101
 31
0.0
  0
LINE
  5
13B10
330
1E
100
AcDbEntity
  8
24
100
AcDbLine
 10
206.2838938417126
 20
950.2359342129096
 30
0.0
 11
206.2838938417126
 21
983.7359342129101
 31
0.0
  0
LINE
  5
13B11
330
1E
100
AcDbEntity
  8
24
100
AcDbLine
 10
176.2838938417126
 20
950.2359342129096
 30
0.0
 11
176.2838938417126
 21
983.7359342129101
 31
0.0
  0
LINE
  5
13B12
330
1E
100
AcDbEntity
  8
24
100
AcDbLine
 10
206.2838938417126
 20
950.2359342129096
 30
0.0
 11
206.2838938417126
 21
983.7359342129101
 31
0.0
  0
LINE
  5
13B13
330
1E
100
AcDbEntity
  8
24
100
AcDbLine
 10
161.2838938417126
 20
950.2359342129096
 30
0.0
 11
161.2838938417126
 21
1023.73593421291
 31
0.0
  0
LINE
  5
13B14
330
1E
100
AcDbEntity
  8
24
100
AcDbLine
 10
161.2838938417126
 20
950.2359342129096
 30
0.0
 11
161.2838938417126
 21
1023.73593421291
 31
0.0
  0
LINE
  5
13B15
330
1E
100
AcDbEntity
  8
24
100
AcDbLine
 10
179.2838938417126
 20
942.7359342129101
 30
0.0
 11
203.2838938417126
 21
942.7359342129101
 31
0.0
  0
LINE
  5
13B16
330
1E
100
AcDbEntity
  8
17
100
AcDbLine
 10
180.7838938417126
 20
967.7359342129101
 30
0.0
 11
201.7838938417126
 21
967.7359342129101
 31
0.0
  0
ARC
  5
13B17
330
1E
100
AcDbEntity
  8
24
100
AcDbCircle
 10
154.7838938417126
 20
950.2359342129096
 30
0.0
 40
6.5
100
AcDbArc
 50
313.8130614603985
 51
0.0
  0
LINE
  5
13B18
330
1E
100
AcDbEntity
  8
24
100
AcDbLine
 10
182.7838938417126
 20
942.7359342129101
 30
0.0
 11
182.7838938417126
 21
943.73593421291
 31
0.0
  0
ARC
  5
13B19
330
1E
100
AcDbEntity
  8
24
100
AcDbCircle
 10
182.7838938417126
 20
950.2359342129096
 30
0.0
 40
6.5
100
AcDbArc
 50
180.0
 51
270.0
  0
LINE
  5
13B1A
330
1E
100
AcDbEntity
  8
17
100
AcDbLine
 10
191.2838938417126
 20
957.2359342129097
 30
0.0
 11
191.2838938417126
 21
978.2359342129096
 31
0.0
  0
ARC
  5
13B1B
330
1E
100
AcDbEntity
  8
24
100
AcDbCircle
 10
199.7838938417126
 20
950.2359342129096
 30
0.0
 40
6.5
100
AcDbArc
 50
270.0
 51
0.0
  0
LINE
  5
13B1C
330
1E
100
AcDbEntity
  8
24
100
AcDbLine
 10
199.7838938417126
 20
942.7359342129101
 30
0.0
 11
199.7838938417126
 21
943.73593421291
 31
0.0
  0
LINE
  5
13B1E
330
1E
100
AcDbEntity
  8
24
100
AcDbLine
 10
176.2838938417126
 20
983.7359342129101
 30
0.0
 11
206.2838938417126
 21
983.7359342129101
 31
0.0
  0
DIMENSION
  5
13B1F
330
1E
100
AcDbEntity
  8
30
  6
Continuous
100
AcDbDimension
280
     0
  2
*D7
 10
238.8965507973826
 20
912.7359342129096
 30
0.0
 11
231.8965507973825
 21
897.0692675462432
 31
0.0
 70
    32
 71
     5
 42
14.69995867378952
 73
     0
 74
     0
 75
     0
  3
STANDARD
100
AcDbAlignedDimension
 13
171.7839144437002
 23
927.4358928866996
 33
0.0
 14
213.8405987001329
 24
912.7359342129096
 34
0.0
 50
90.0
100
AcDbRotatedDimension
1001
ACAD
1000
DSTYLE
1002
{
1070
    79
1070
     3
1002
}
  0
LINE
  5
13B20
330
1E
100
AcDbEntity
  8
18
100
AcDbLine
 10
227.4182317373734
 20
915.9359176824256
 30
0.0
 11
65.87844330255393
 21
915.9359176824256
 31
0.0
  0
LINE
  5
13B21
330
1E
100
AcDbEntity
  8
12
100
AcDbLine
 10
125.7839144437002
 20
927.4358928866996
 30
0.0
 11
121.783935106805
 21
927.4358928866996
 31
0.0
  0
LINE
  5
13B22
330
1E
100
AcDbEntity
  8
12
100
AcDbLine
 10
125.7839144437002
 20
912.7359342129096
 30
0.0
 11
125.7839144437002
 21
927.4358928866996
 31
0.0
  0
LINE
  5
13B23
330
1E
100
AcDbEntity
  8
12
100
AcDbLine
 10
121.783935106805
 20
912.7359342129096
 30
0.0
 11
121.783935106805
 21
927.4358928866996
 31
0.0
  0
LINE
  5
13B24
330
1E
100
AcDbEntity
  8
12
100
AcDbLine
 10
167.783935106805
 20
912.7359342129096
 30
0.0
 11
167.783935106805
 21
927.4358928866996
 31
0.0
  0
LINE
  5
13B25
330
1E
100
AcDbEntity
  8
12
100
AcDbLine
 10
171.7839144437002
 20
912.7359342129096
 30
0.0
 11
171.7839144437002
 21
927.4358928866996
 31
0.0
  0
LINE
  5
13B26
330
1E
100
AcDbEntity
  8
12
100
AcDbLine
 10
171.7839144437002
 20
927.4358928866996
 30
0.0
 11
167.783935106805
 21
927.4358928866996
 31
0.0
  0
LINE
  5
13B27
330
1E
100
AcDbEntity
  8
18
100
AcDbLine
 10
228.3166627116379
 20
912.7359342129096
 30
0.0
 11
64.59598696385183
 21
912.7359342129096
 31
0.0
  0
DIMENSION
  5
13B28
330
1E
100
AcDbEntity
  8
30
  6
Continuous
100
AcDbDimension
280
     0
  2
*D8
 10
123.783138538736
 20
315.4531279870279
 30
0.0
 11
114.1283683170209
 21
359.1719401971549
 31
0.0
 70
   163
  1
M6
 71
     5
 42
5.999999999999602
 73
     0
 74
     0
 75
     0
  3
STANDARD1
100
AcDbDiametricDimension
 15
123.7847712150018
 25
321.4531277648914
 35
0.0
 40
0.0
  0
DIMENSION
  5
13B29
330
1E
100
AcDbEntity
  8
30
  6
Continuous
100
AcDbDimension
280
     0
  2
*D9
 10
216.684731904862
 20
435.8615143370715
 30
0.0
 11
146.684731904862
 21
442.8615143370715
 31
0.0
 70
    32
 71
     5
 42
139.9999999999999
 73
     0
 74
     0
 75
     0
  3
STANDARD
100
AcDbAlignedDimension
 13
76.68473190486202
 23
479.4938972774822
 33
0.0
 14
216.684731904862
 24
479.4938972774822
 34
0.0
100
AcDbRotatedDimension
1001
ACAD
1000
DSTYLE
1002
{
1070
    79
1070
     3
1002
}
  0
DIMENSION
  5
13B2A
330
1E
100
AcDbEntity
  8
30
  6
Continuous
100
AcDbDimension
280
     0
  2
*D10
 10
146.2838938417126
 20
1040.299470425412
 30
0.0
 11
123.7838938417126
 21
1047.299470425412
 31
0.0
 70
    32
 71
     5
 42
45.0
 73
     0
 74
     0
 75
     0
  3
STANDARD
100
AcDbAlignedDimension
 13
101.2838938417126
 23
978.2359342129096
 33
0.0
 14
146.2838938417126
 24
1018.23593421291
 34
0.0
100
AcDbRotatedDimension
1001
ACAD
1000
DSTYLE
1002
{
1070
    79
1070
     3
1002
}
  0
DIMENSION
  5
13B2B
330
1E
100
AcDbEntity
  8
30
  6
Continuous
100
AcDbDimension
280
     0
  2
*D11
 10
191.2838938417126
 20
1040.299470425412
 30
0.0
 11
168.7838938417126
 21
1047.299470425412
 31
0.0
 70
    32
 71
     5
 42
45.0
 73
     0
 74
     0
 75
     0
  3
STANDARD
100
AcDbAlignedDimension
 13
146.2838938417126
 23
1018.23593421291
 33
0.0
 14
191.2838938417126
 24
978.2359342129096
 34
0.0
100
AcDbRotatedDimension
1001
ACAD
1000
DSTYLE
1002
{
1070
   287
1070
     4
1070
   287
1070
     4
1070
   287
1070
     4
1070
   287
1070
     4
1070
   287
1070
     4
1070
   287
1070
     4
1070
   279
1070
     1
1070
    79
1070
     3
1002
}
  0
LWPOLYLINE
  5
13B2C
330
1E
100
AcDbEntity
  8
10
380
     2
100
AcDbPolyline
 90
        4
 70
     1
 43
0.0
 10
700.0
 20
0.0
 10
700.0
 20
1088.0
 10
0.0
 20
1088.0
 10
0.0
 20
0.0
  0
LWPOLYLINE
  5
13B2D
330
1E
100
AcDbEntity
  8
10
  6
CONTINOUS
100
AcDbPolyline
 90
        4
 70
     0
 43
0.0
 10
129.3088764252507
 20
798.2359339149097
 10
129.2838929179124
 20
763.7742419393097
 10
163.2838947655123
 20
763.7742419393097
 10
163.3088764252506
 20
798.2359339149097
  0
LWPOLYLINE
  5
13B2E
330
1E
100
AcDbEntity
  8
10
  6
CONTINOUS
100
AcDbPolyline
 90
        4
 70
     0
 43
0.0
 10
120.7838943187125
 20
805.73593421291
 10
120.7838943183124
 20
798.2359339149097
 10
171.7838933647121
 20
798.2359339149097
 10
171.7838933647121
 20
805.73593421291
  0
LINE
  5
13B36
330
1E
100
AcDbEntity
  8
10
  6
CONTINOUS
100
AcDbLine
 10
216.634733049062
 20
479.4938972774822
 30
0.0
 11
216.634733049062
 21
739.4938972774824
 31
0.0
  0
LINE
  5
13B37
330
1E
100
AcDbEntity
  8
10
  6
CONTINOUS
100
AcDbLine
 10
216.634733049062
 20
700.8854235566824
 30
0.0
 11
76.68473160666234
 21
700.8854235566823
 31
0.0
  0
LINE
  5
13B38
330
1E
100
AcDbEntity
  8
10
  6
CONTINOUS
100
AcDbLine
 10
216.634733049062
 20
518.1023709982823
 30
0.0
 11
76.68473160666234
 21
518.1023709982823
 31
0.0
  0
LINE
  5
13B39
330
1E
100
AcDbEntity
  8
16
 48
2.0
100
AcDbLine
 10
658.3362588670442
 20
211.4531278759599
 30
0.0
 11
504.109640277059
 21
211.4531278759599
 31
0.0
  0
LINE
  5
13B3A
330
1E
100
AcDbEntity
  8
16
 48
2.0
100
AcDbLine
 10
580.9021999079523
 20
74.14136379110414
 30
0.0
 11
580.9021999079523
 21
360.9247412967406
 31
0.0
  0
ARC
  5
13B40
330
1E
100
AcDbEntity
  8
18
  6
DIVIDE
100
AcDbCircle
 10
649.6309081724521
 20
340.4531278759604
 30
0.0
 40
1.0
100
AcDbArc
 50
0.0
 51
90.0
  0
LWPOLYLINE
  5
13B41
330
1E
100
AcDbEntity
  8
11
 48
2.0
100
AcDbPolyline
 90
        8
 70
     1
 43
0.0
 10
605.4021999079523
 20
165.4531278759599
 42
0.4142135623730951
 10
607.4021999079523
 20
167.4531278759599
 10
607.4021999079523
 20
255.4531278759601
 42
0.4142135623730951
 10
605.4021999079523
 20
257.4531278759601
 10
556.4021999079523
 20
257.4531278759601
 42
0.4142135623730951
 10
554.4021999079522
 20
255.4531278759601
 10
554.4021999079522
 20
167.4531278759599
 42
0.4142135623730951
 10
556.4021999079523
 20
165.4531278759599
  0
DIMENSION
  5
13B42
330
1E
100
AcDbEntity
  8
30
  6
Continuous
100
AcDbDimension
280
     0
  2
*D12
 10
607.4021999079523
 20
52.93855233525096
 30
0.0
 11
579.1679215434315
 21
52.93855233525096
 31
0.0
 70
   160
 71
     5
 42
53.0
 73
     0
 74
     0
 75
     0
  3
STANDARD
100
AcDbAlignedDimension
 13
554.4021999079522
 23
164.07232407759
 33
0.0
 14
607.4021999079523
 24
164.07232407759
 34
0.0
100
AcDbRotatedDimension
1001
ACAD
1000
DSTYLE
1002
{
1070
    79
1070
     3
1002
}
  0
DIMENSION
  5
13B43
330
1E
100
AcDbEntity
  8
30
  6
Continuous
100
AcDbDimension
280
     0
  2
*D13
 10
676.0365452419854
 20
165.4531278759599
 30
0.0
 11
676.0365452419854
 21
210.2280183345199
 31
0.0
 70
   160
 71
     5
 42
92.00000000000015
 73
     0
 74
     0
 75
     0
  3
STANDARD
100
AcDbAlignedDimension
 13
607.4441825210506
 23
257.4531278759601
 33
0.0
 14
607.4441825210506
 24
165.4531278759599
 34
0.0
 50
90.0
100
AcDbRotatedDimension
1001
ACAD
1000
DSTYLE
1002
{
1070
    79
1070
     3
1002
}
  0
MTEXT
  5
13B45
330
1E
100
AcDbEntity
  8
240
100
AcDbMText
 10
347.6030770928883
 20
20.24371800343738
 30
0.0
 40
10.0
 41
0.0
 46
0.0
 71
     1
 72
     1
  1
[Cutout A]
  7
SLDTEXTSTYLE0
 73
     1
 44
1.0
  0
MTEXT
  5
13B46
330
1E
100
AcDbEntity
  8
240
100
AcDbMText
 10
538.3019560454377
 20
20.24371800343738
 30
0.0
 40
10.0
 41
0.0
 46
0.0
 71
     1
 72
     1
  1
[Cutout B]
  7
SLDTEXTSTYLE0
 73
     1
 44
1.0
  0
LINE
  5
13B47
330
1E
100
AcDbEntity
  8
16
 48
2.0
100
AcDbLine
 10
383.180286651309
 20
72.8194136814077
 30
0.0
 11
383.180286651309
 21
360.9247412967406
 31
0.0
  0
ARC
  5
13B4C
330
1E
100
AcDbEntity
  8
18
  6
DIVIDE
100
AcDbCircle
 10
451.9089949158087
 20
82.45312787595992
 30
0.0
 40
1.0
100
AcDbArc
 50
270.0
 51
0.0
  0
ARC
  5
13B4D
330
1E
100
AcDbEntity
  8
18
  6
DIVIDE
100
AcDbCircle
 10
451.9089949158087
 20
340.4531278759604
 30
0.0
 40
1.0
100
AcDbArc
 50
0.0
 51
90.0
  0
LWPOLYLINE
  5
13B4E
330
1E
100
AcDbEntity
  8
11
 48
2.0
100
AcDbPolyline
 90
        8
 70
     1
 43
0.0
 10
440.1802866513088
 20
165.4531278759599
 42
0.4142135623730951
 10
442.1802866513089
 20
167.4531278759599
 10
442.1802866513089
 20
255.4531278759601
 42
0.4142135623730951
 10
440.1802866513088
 20
257.4531278759601
 10
326.180286651309
 20
257.4531278759601
 42
0.4142135623730951
 10
324.180286651309
 20
255.4531278759601
 10
324.180286651309
 20
167.4531278759599
 42
0.4142135623730951
 10
326.180286651309
 20
165.4531278759599
  0
DIMENSION
  5
13B4F
330
1E
100
AcDbEntity
  8
30
  6
Continuous
100
AcDbDimension
280
     0
  2
*D14
 10
442.1802866513089
 20
52.43855233525096
 30
0.0
 11
381.4460082867881
 21
52.43855233525096
 31
0.0
 70
   160
 71
     5
 42
117.9999999999999
 73
     0
 74
     0
 75
     0
  3
STANDARD
100
AcDbAlignedDimension
 13
324.180286651309
 23
164.07232407759
 33
0.0
 14
442.1802866513089
 24
164.07232407759
 34
0.0
100
AcDbRotatedDimension
1001
ACAD
1000
DSTYLE
1002
{
1070
    79
1070
     3
1002
}
  0
DIMENSION
  5
13B50
330
1E
100
AcDbEntity
  8
30
  6
Continuous
100
AcDbDimension
280
     0
  2
*D15
 10
478.3146319853422
 20
165.4531278759599
 30
0.0
 11
478.3146319853422
 21
210.2280183345199
 31
0.0
 70
   160
 71
     5
 42
92.00000000000022
 73
     0
 74
     0
 75
     0
  3
STANDARD
100
AcDbAlignedDimension
 13
442.2222692644072
 23
257.4531278759601
 33
0.0
 14
442.2222692644072
 24
165.4531278759599
 34
0.0
 50
90.0
100
AcDbRotatedDimension
1001
ACAD
1000
DSTYLE
1002
{
1070
    79
1070
     3
1002
}
  0
LINE
  5
144CB
330
1E
100
AcDbEntity
  8
16
 48
2.0
100
AcDbLine
 10
460.2635399234268
 20
211.4531278759599
 30
0.0
 11
291.2723001336353
 21
211.4531278759599
 31
0.0
  0
DIMENSION
  5
14641
330
1E
100
AcDbEntity
  8
30
  6
Continuous
100
AcDbDimension
280
     0
  2
*D16
 10
440.3575954662636
 20
255.1331720472806
 30
0.0
 11
472.9476328598496
 21
287.2722740576486
 31
0.0
 70
   164
 71
     5
 42
2.000000000178713
 73
     0
 74
     0
 75
     0
  3
STANDARD1
100
AcDbRadialDimension
 15
441.5189601447622
 25
256.7614324945834
 35
0.0
 40
0.0
  0
DIMENSION
  5
14664
330
1E
100
AcDbEntity
  8
30
  6
Continuous
100
AcDbDimension
280
     0
  2
*D17
 10
605.579508722908
 20
255.1331720472809
 30
0.0
 11
638.169546116495
 21
287.2722740576482
 31
0.0
 70
   164
 71
     5
 42
2.000000000178943
 73
     0
 74
     0
 75
     0
  3
STANDARD1
100
AcDbRadialDimension
 15
606.7408734014064
 25
256.7614324945838
 35
0.0
 40
0.0
  0
DIMENSION
  5
15127
330
1E
100
AcDbEntity
  8
30
  6
Continuous
100
AcDbDimension
280
     0
  2
*D18
 10
236.145894133068
 20
564.4938972774822
 30
0.0
 11
236.1458941330679
 21
607.8660477208098
 31
0.0
 70
   160
 71
     5
 42
90.00000000000012
 73
     0
 74
     0
 75
     0
  3
STANDARD
100
AcDbAlignedDimension
 13
204.7472896283243
 23
654.4938972774822
 33
0.0
 14
204.7472896283243
 24
564.4938972774822
 34
0.0
 50
90.0
100
AcDbRotatedDimension
1001
ACAD
1000
DSTYLE
1002
{
1070
    79
1070
     3
1070
   140
1040
8.0
1002
}
  0
DIMENSION
  5
15DC1
330
1E
100
AcDbEntity
  8
30
  6
Continuous
100
AcDbDimension
280
     0
  2
*D19
 10
204.9273108933621
 20
540.6551184310098
 30
0.0
 11
146.9273108933621
 21
547.6551184310095
 31
0.0
 70
    32
 71
     5
 42
116.0
 73
     0
 74
     0
 75
     0
  3
STANDARD
100
AcDbAlignedDimension
 13
88.92731089336212
 23
565.4938972774822
 33
0.0
 14
204.9273108933621
 24
565.4938972774822
 34
0.0
100
AcDbRotatedDimension
  0
DIMENSION
  5
15DC2
330
1E
100
AcDbEntity
  8
30
  6
Continuous
100
AcDbDimension
280
     0
  2
*D20
 10
121.4273108933621
 20
666.5210103932865
 30
0.0
 11
146.916666146112
 21
673.5210103932862
 31
0.0
 70
    32
 71
     5
 42
50.97871050549976
 73
     0
 74
     0
 75
     0
  3
STANDARD
100
AcDbAlignedDimension
 13
172.4060213988618
 23
654.4938972774822
 33
0.0
 14
121.4273108933621
 24
654.4938972774822
 34
0.0
100
AcDbRotatedDimension
  0
DIMENSION
  5
19BDD
330
1E
100
AcDbEntity
  8
30
  6
Continuous
100
AcDbDimension
280
     0
  2
*D21
 10
661.2126651760973
 20
719.4938972774823
 30
0.0
 11
654.2126651760971
 21
709.8272306108158
 31
0.0
 70
    32
 71
     5
 42
8.0
 73
     0
 74
     0
 75
     0
  3
STANDARD
100
AcDbAlignedDimension
 13
644.0623810060898
 23
727.4938972774823
 33
0.0
 14
644.0623810060898
 24
719.4938972774823
 34
0.0
 50
90.0
100
AcDbRotatedDimension
  0
LINE
  5
19C4D
330
1E
100
AcDbEntity
  8
0
  6
SLD-実線
 62
     7
370
    30
100
AcDbLine
 10
426.0623830925901
 20
565.5253687684819
 30
0.0
 11
426.0623830925901
 21
653.462425786482
 31
0.0
  0
LINE
  5
19C52
330
1E
100
AcDbEntity
  8
10
  6
CONTINOUS
100
AcDbLine
 10
418.5623827940903
 20
565.4938972774822
 30
0.0
 11
418.5623827940903
 21
653.4938972774822
 31
0.0
  0
LINE
  5
19C59
330
1E
100
AcDbEntity
  8
10
  6
CONTINOUS
100
AcDbLine
 10
426.0623810060899
 20
654.4938972774822
 30
0.0
 11
426.0623810060899
 21
564.4938972774822
 31
0.0
  0
LINE
  5
19C5B
330
1E
100
AcDbEntity
  8
10
  6
CONTINOUS
100
AcDbLine
 10
419.5623827940903
 20
564.4938972774822
 30
0.0
 11
430.0623810060899
 21
564.4938972774822
 31
0.0
  0
ARC
  5
19C5C
330
1E
100
AcDbEntity
  8
10
  6
CONTINOUS
100
AcDbCircle
 10
419.5623827940903
 20
565.4938972774822
 30
0.0
 40
1.0
100
AcDbArc
 50
180.0
 51
270.0
  0
LINE
  5
19C5D
330
1E
100
AcDbEntity
  8
10
  6
CONTINOUS
100
AcDbLine
 10
419.5623827940903
 20
654.4938972774822
 30
0.0
 11
430.0623810060899
 21
654.4938972774822
 31
0.0
  0
ARC
  5
19C5E
330
1E
100
AcDbEntity
  8
10
  6
CONTINOUS
100
AcDbCircle
 10
419.5623827940903
 20
653.4938972774822
 30
0.0
 40
1.0
100
AcDbArc
 50
90.0
 51
180.0
  0
LWPOLYLINE
  5
19C67
330
1E
100
AcDbEntity
  8
10
  6
CONTINOUS
100
AcDbPolyline
 90
        8
 70
     1
 43
0.0
 10
409.2478157116518
 20
637.4803790693589
 10
399.8740121290706
 20
637.7380991108502
 10
385.7168843325703
 20
641.3551113353502
 10
382.6110502060706
 20
629.7640009568502
 10
396.7223157460708
 20
625.7931506978502
 10
405.1602218310286
 20
622.2252590664512
 10
410.1788255940901
 20
621.2911503199817
 10
414.0611145265896
 20
635.780037361482
  0
ARC
  5
19C68
330
1E
100
AcDbEntity
  8
10
  6
CONTINOUS
100
AcDbCircle
 10
463.1604933567668
 20
809.5230301598489
 30
0.0
 40
181.6640122735105
100
AcDbArc
 50
252.8048349791452
 51
255.7887474977204
  0
ARC
  5
19C69
330
1E
100
AcDbEntity
  8
10
  6
CONTINOUS
100
AcDbCircle
 10
404.9187147693387
 20
575.6816144570462
 30
0.0
 40
46.90130289725614
100
AcDbArc
 50
73.08805372621606
 51
83.24228441301258
  0
LWPOLYLINE
  5
19C6A
330
1E
100
AcDbEntity
  8
10
  6
CONTINOUS
100
AcDbPolyline
 90
        3
 70
     0
 43
0.0
 10
409.45562708959
 20
635.9787974854821
 10
406.0909795030902
 20
623.4217617434823
 10
410.43764572109
 20
622.2570760404821
  0
LINE
  5
19EE4
330
1E
100
AcDbEntity
  8
18
100
AcDbLine
 10
537.0623810060897
 20
752.2997177028092
 30
0.0
 11
537.0623810060897
 21
457.9611182989693
 31
0.0
  0
LINE
  5
19EE5
330
1E
100
AcDbEntity
  8
18
100
AcDbLine
 10
533.0623810060897
 20
751.9353275574037
 30
0.0
 11
533.0623810060897
 21
457.9611182989693
 31
0.0
  0
LWPOLYLINE
  5
19EFC
330
1E
100
AcDbEntity
  8
10
  6
CONTINOUS
100
AcDbPolyline
 90
       11
 70
     1
 43
0.0
 10
433.0486722478665
 20
517.5254577690903
 10
436.0623810060896
 20
517.4938970984818
 10
436.0623810060896
 20
479.4938972774824
 10
533.0623810060897
 20
479.4938972774824
 10
533.0623810060897
 20
739.4938972774824
 10
436.0623810060896
 20
739.4938972774824
 10
436.0623810060896
 20
701.4520089296572
 10
432.9832822967047
 20
701.4197642081088
 42
0.2520626822056452
 10
430.0623838670894
 20
695.9938978013272
 10
430.0623810060897
 20
660.4938972774824
 10
430.0623838670894
 20
522.993897142235
 42
0.2552568693989432
  0
DIMENSION
  5
19FF3
330
1E
100
AcDbEntity
  8
30
  6
Continuous
100
AcDbDimension
280
     0
  2
*D22
 10
361.5644749064946
 20
564.4938972774822
 30
0.0
 11
361.5644749064945
 21
609.4938972774825
 31
0.0
 70
   160
 71
     5
 42
90.0
 73
     0
 74
     0
 75
     0
  3
STANDARD
100
AcDbAlignedDimension
 13
419.5623827940899
 23
654.4938972774822
 33
0.0
 14
411.8486461786737
 24
564.4938972774822
 34
0.0
 50
90.0
100
AcDbRotatedDimension
1001
ACAD
1000
DSTYLE
1002
{
1070
    79
1070
     3
1002
}
  0
DIMENSION
  5
1A172
330
1E
100
AcDbEntity
  8
30
100
AcDbDimension
280
     0
  2
*D23
 10
62.32055810114843
 20
967.7359342129101
 30
0.0
 11
55.32055810114828
 21
940.2359342129097
 31
0.0
 70
    32
 71
     5
 42
55.0
 73
     0
 74
     0
 75
     0
  3
STANDARD
100
AcDbAlignedDimension
 13
76.28389384171258
 23
912.7359342129096
 33
0.0
 14
90.78389384171257
 24
967.7359342129101
 34
0.0
 50
90.0
100
AcDbRotatedDimension
  0
DIMENSION
  5
1A17F
330
1E
100
AcDbEntity
  8
30
100
AcDbDimension
280
     0
  2
*D24
 10
259.0911979053581
 20
1007.73593421291
 30
0.0
 11
252.0911979053579
 21
960.2359342129096
 31
0.0
 70
    32
 71
     5
 42
95.0000000000003
 73
     0
 74
     0
 75
     0
  3
STANDARD
100
AcDbAlignedDimension
 13
216.2840159120328
 23
912.7359342129096
 33
0.0
 14
146.2840159120323
 24
1007.73593421291
 34
0.0
 50
90.0
100
AcDbRotatedDimension
  0
DIMENSION
  5
1A1C2
330
1E
100
AcDbEntity
  8
30
100
AcDbDimension
280
     0
  2
*D25
 10
43.39846605621549
 20
983.7359342129101
 30
0.0
 11
36.39846605621535
 21
948.23593421291
 31
0.0
 70
    32
 71
     5
 42
71.0
 73
     0
 74
     0
 75
     0
  3
STANDARD
100
AcDbAlignedDimension
 13
76.28389384171258
 23
912.7359342129096
 33
0.0
 14
86.28389384171256
 24
983.7359342129101
 34
0.0
 50
90.0
100
AcDbRotatedDimension
  0
DIMENSION
  5
1A1CF
330
1E
100
AcDbEntity
  8
30
100
AcDbDimension
280
     0
  2
*D26
 10
278.9910105470935
 20
1023.73593421291
 30
0.0
 11
271.9910105470934
 21
968.2359342129096
 31
0.0
 70
    32
 71
     5
 42
111.0000000000003
 73
     0
 74
     0
 75
     0
  3
STANDARD
100
AcDbAlignedDimension
 13
216.2840159120324
 23
912.7359342129096
 33
0.0
 14
161.2840159120324
 24
1023.73593421291
 34
0.0
 50
90.0
100
AcDbRotatedDimension
  0
DIMENSION
  5
1A38D
330
1E
100
AcDbEntity
  8
30
  6
Continuous
100
AcDbDimension
280
     0
  2
*D27
 10
533.0623810060897
 20
413.4538236521652
 30
0.0
 11
468.0623810060897
 21
413.4538236521652
 31
0.0
 70
   160
  1
<>
 71
     2
 42
130.0
 73
     0
 74
     0
 75
     0
  3
STANDARD
100
AcDbAlignedDimension
 13
403.0623810060896
 23
612.0
 33
0.0
 14
533.0623810060897
 24
479.4938972774824
 34
0.0
100
AcDbRotatedDimension
1001
ACAD
1000
DSTYLE
1002
{
1070
    79
1070
     3
1002
}
  0
DIMENSION
  5
1A38E
330
1E
100
AcDbEntity
  8
30
  6
Continuous
100
AcDbDimension
280
     0
  2
*D28
 10
533.0623810060897
 20
445.4938972774824
 30
0.0
 11
481.562381006089
 21
445.4938972774824
 31
0.0
 70
   160
  1
<>
 71
     2
 42
103.0
 73
     0
 74
     0
 75
     0
  3
STANDARD
100
AcDbAlignedDimension
 13
430.0623810060897
 23
529.3264926460254
 33
0.0
 14
533.0623810060897
 24
479.4938972774824
 34
0.0
100
AcDbRotatedDimension
1001
ACAD
1000
DSTYLE
1002
{
1070
    79
1070
     3
1002
}
  0
DIMENSION
  5
1A38F
330
1E
100
AcDbEntity
  8
30
  6
Continuous
100
AcDbDimension
280
     0
  2
*D29
 10
533.0623810060897
 20
396.1297523263928
 30
0.0
 11
457.565633121332
 21
403.1297523263928
 31
0.0
 70
    32
 71
     5
 42
150.9934957695154
 73
     0
 74
     0
 75
     0
  3
STANDARD
100
AcDbAlignedDimension
 13
382.0688852365742
 23
622.0000000000001
 33
0.0
 14
533.0623810060897
 24
412.9538236521652
 34
0.0
100
AcDbRotatedDimension
1001
ACAD
1000
DSTYLE
1002
{
1070
    79
1070
     3
1002
}
  0
DIMENSION
  5
1A390
330
1E
100
AcDbEntity
  8
30
  6
Continuous
100
AcDbDimension
280
     0
  2
*D30
 10
418.0623808870896
 20
429.2544163892071
 30
0.0
 11
408.3957142204229
 21
436.2544163892073
 31
0.0
 70
    32
 71
     5
 42
8.0
 73
     0
 74
     0
 75
     0
  3
STANDARD1
100
AcDbAlignedDimension
 13
426.0623808870896
 23
559.0000000000001
 33
0.0
 14
418.0623808870896
 24
559.0000000000001
 34
0.0
100
AcDbRotatedDimension
  0
DIMENSION
  5
1A391
330
1E
100
AcDbEntity
  8
30
  6
Continuous
100
AcDbDimension
280
     0
  2
*D31
 10
533.0623810060897
 20
429.2544163892071
 30
0.0
 11
479.5623809465896
 21
436.2544163892073
 31
0.0
 70
    32
 71
     5
 42
107.0000001190001
 73
     0
 74
     0
 75
     0
  3
STANDARD
100
AcDbAlignedDimension
 13
426.0623808870896
 23
429.2544163892071
 33
0.0
 14
533.0623810060897
 24
445.4938972774824
 34
0.0
100
AcDbRotatedDimension
1001
ACAD
1000
DSTYLE
1002
{
1070
    79
1070
     3
1002
}
  0
ARC
  5
1A4B6
330
1E
100
AcDbEntity
  8
30
  6
Continuous
100
AcDbCircle
 10
408.0683640421788
 20
623.8847430514994
 30
0.0
 40
26.12738986710587
100
AcDbArc
 50
166.9957822805596
 51
185.6718013063773
  0
ARC
  5
1A4B7
330
1E
100
AcDbEntity
  8
30
  6
Continuous
100
AcDbCircle
 10
433.1425500585591
 20
609.2897588535296
 30
0.0
 40
30.29117494757552
100
AcDbArc
 50
153.2592132366111
 51
173.2332630719459
  0
LWPOLYLINE
  5
1BA98
330
1E
100
AcDbEntity
  8
18
  6
DIVIDE
100
AcDbPolyline
 90
        4
 70
     1
 43
0.0
 10
452.9089949158088
 20
81.45312787595992
 10
452.9089949158088
 20
341.4531278759604
 10
313.180286651309
 20
341.4531278759604
 10
313.180286651309
 20
81.45312787595992
  0
LWPOLYLINE
  5
1BA9E
330
1E
100
AcDbEntity
  8
18
  6
DIVIDE
100
AcDbPolyline
 90
        4
 70
     1
 43
0.0
 10
650.6309081724521
 20
82.23943424843975
 10
650.6309081724521
 20
342.2394342484401
 10
510.9021999079523
 20
342.2394342484401
 10
510.9021999079523
 20
82.23943424843975
  0
LWPOLYLINE
  5
1BA9F
330
1E
100
AcDbEntity
  8
18
  6
DIVIDE
100
AcDbPolyline
 90
        4
 70
     1
 43
0.0
 10
216.283954876872
 20
81.45312787595974
 10
216.283954876872
 20
341.4531278759599
 10
76.28395487687203
 20
341.4531278759599
 10
76.28395487687203
 20
81.45312787595974
  0
DIMENSION
  5
1BD5E
330
1E
100
AcDbEntity
  8
30
  6
Continuous
100
AcDbDimension
280
     0
  2
*D32
 10
116.2838938417126
 20
1013.516297317981
 30
0.0
 11
67.46711686567414
 21
1013.516297317981
 31
0.0
 70
   160
  1
<>
 71
     2
 42
30.0
 73
     0
 74
     0
 75
     0
  3
STANDARD
100
AcDbAlignedDimension
 13
86.28389384171256
 23
983.2359342129096
 33
0.0
 14
116.2838938417126
 24
983.2359342129096
 34
0.0
100
AcDbRotatedDimension
  0
DIMENSION
  5
1BD5F
330
1E
100
AcDbEntity
  8
30
  6
Continuous
100
AcDbDimension
280
     0
  2
*D33
 10
107.7838938417126
 20
996.6424347975101
 30
0.0
 11
67.76549402049841
 21
996.6424347975101
 31
0.0
 70
   160
  1
<>
 71
     2
 42
13.0
 73
     0
 74
     0
 75
     0
  3
STANDARD
100
AcDbAlignedDimension
 13
94.78389384171256
 23
972.2359342129092
 33
0.0
 14
107.7838938417126
 24
972.2359342129101
 34
0.0
100
AcDbRotatedDimension
  0
DIMENSION
  5
1C067
330
1E
100
AcDbEntity
  8
30
100
AcDbDimension
280
     0
  2
*D34
 10
76.17630088363648
 20
960.73593421291
 30
0.0
 11
69.17630088363633
 21
950.4026008795763
 31
0.0
 70
    32
 71
     5
 42
14.0
 73
     0
 74
     0
 75
     0
  3
STANDARD
100
AcDbAlignedDimension
 13
101.2838938417126
 23
974.7359342129099
 33
0.0
 14
101.2838938417126
 24
960.73593421291
 34
0.0
 50
90.0
100
AcDbRotatedDimension
  0
ELLIPSE
  5
1C094
330
1E
100
AcDbEntity
  8
24
  6
CONTINOUS
100
AcDbEllipse
 10
101.2838938417126
 20
967.7359342129097
 30
0.0
 11
0.0
 21
-7.0
 31
0.0
210
0.0
220
0.0
230
1.0
 40
0.9285714285714286
 41
0.0
 42
6.283185307179584
  0
ELLIPSE
  5
1C095
330
1E
100
AcDbEntity
  8
24
  6
CONTINOUS
100
AcDbEllipse
 10
146.2838938417126
 20
1007.73593421291
 30
0.0
 11
0.0
 21
-7.0
 31
0.0
210
0.0
220
0.0
230
1.0
 40
0.9285714285714286
 41
0.0
 42
6.283185307179584
  0
ELLIPSE
  5
1C096
330
1E
100
AcDbEntity
  8
24
  6
CONTINOUS
100
AcDbEllipse
 10
191.2838938417126
 20
967.7359342129101
 30
0.0
 11
0.0
 21
-7.0
 31
0.0
210
0.0
220
0.0
230
1.0
 40
0.9285714285714286
 41
0.0
 42
6.283185307179584
  0
ELLIPSE
  5
1C098
330
1E
100
AcDbEntity
  8
24
  6
CONTINOUS
100
AcDbEllipse
 10
589.0623810060892
 20
495.4938972774832
 30
0.0
 11
0.0
 21
-7.0
 31
0.0
210
0.0
220
0.0
230
1.0
 40
0.9285714285714286
 41
0.0
 42
6.283185307179584
  0
ELLIPSE
  5
1C099
330
1E
100
AcDbEntity
  8
24
  6
CONTINOUS
100
AcDbEllipse
 10
629.0623810060894
 20
495.4938972774818
 30
0.0
 11
0.0
 21
-7.0
 31
0.0
210
0.0
220
0.0
230
1.0
 40
0.9285714285714286
 41
0.0
 42
6.283185307179584
  0
DIMENSION
  5
1C09A
330
1E
100
AcDbEntity
  8
30
100
AcDbDimension
280
     0
  2
*D35
 10
168.7839548768725
 20
52.35729237196482
 30
0.0
 11
146.2839548768722
 21
59.35729237196483
 31
0.0
 70
    32
 71
     5
 42
45.00000000000049
 73
     0
 74
     0
 75
     0
  3
STANDARD
100
AcDbAlignedDimension
 13
123.783954876872
 23
104.4531278759599
 33
0.0
 14
168.7839548768725
 24
104.4531278759599
 34
0.0
100
AcDbRotatedDimension
  0
ARC
  5
1C2CB
330
1E
100
AcDbEntity
  8
22
100
AcDbCircle
 10
191.2839548768724
 20
325.4531278759599
 30
0.0
 40
18.0
100
AcDbArc
 50
180.0
 51
153.6122000387521
  0
ARC
  5
1C2E0
330
1E
100
AcDbEntity
  8
22
100
AcDbCircle
 10
-191.2839548768724
 20
97.45312787595993
 30
0.0
 40
18.0
210
0.0
220
0.0
230
-1.0
100
AcDbArc
 50
0.000000000000007
 51
333.6122000387522
  0
LINE
  5
1C345
330
1E
100
AcDbEntity
  8
17
100
AcDbLine
 10
524.9889392144605
 20
723.4938972774819
 30
0.0
 11
652.0623810060892
 21
723.4938972774823
 31
0.0
  0
VIEWPORT
  5
9AC
330
1A
100
AcDbEntity
 67
     1
  8
0
  6
Continuous
348
8A77
100
AcDbViewport
 10
171.999535
 20
144.1384739999999
 30
0.0
 40
488.867686
 41
292.351491
 68
     1
 69
     1
 12
171.999535
 22
144.1384739999999
 13
0.0
 23
0.0
 14
10.0
 24
10.0
 15
10.0
 25
10.0
 16
0.0
 26
0.0
 36
1.0
 17
0.0
 27
0.0
 37
0.0
 42
50.0
 43
0.0
 44
0.0
 45
292.351491
 50
0.0
 51
0.0
 72
   100
 90
    32800
  1

281
     0
 71
     1
 74
     0
110
0.0
120
0.0
130
0.0
111
1.0
121
0.0
131
0.0
112
0.0
122
1.0
132
0.0
 79
     0
146
0.0
170
     0
 61
     5
348
8A77
292
     1
282
     1
141
0.0
142
0.0
 63
   250
421
  3355443
  0
ENDSEC
  0
SECTION
  2
OBJECTS
  0
DICTIONARY
  5
C
330
0
100
AcDbDictionary
281
     1
  3
ACAD_CIP_PREVIOUS_PRODUCT_INFO
350
8AA8
  3
ACAD_COLOR
350
8A8A
  3
ACAD_DETAILVIEWSTYLE
350
8AA3
  3
ACAD_GROUP
350
D
  3
ACAD_LAYOUT
350
19
  3
ACAD_MATERIAL
350
8A58
  3
ACAD_MLEADERSTYLE
350
8A9F
  3
ACAD_MLINESTYLE
350
16
  3
ACAD_PLOTSETTINGS
350
18
  3
ACAD_PLOTSTYLENAME
350
E
  3
ACAD_SCALELIST
350
8A8D
  3
ACAD_SECTIONVIEWSTYLE
350
8AA1
  3
ACAD_TABLESTYLE
350
8A8B
  3
ACAD_VISUALSTYLE
350
8A71
  3
ACADDIM
350
6D5E
  3
ACDB_RECOMPOSE_DATA
350
1C387
  3
ACDBVARIABLEDICTIONARY
350
5697
  3
AEC_PROPERTY_SET_DEFS
350
BFC4
  0
DICTIONARY
  5
F3CC
330
2
100
AcDbDictionary
280
     1
281
     1
  3
ACAD_LAYERSTATES
360
F3CD
  0
DICTIONARY
  5
8ACC
330
10
100
AcDbDictionary
280
     1
281
     1
  3
ADSK_XREC_LAYER_RECONCILED
360
8ACD
  0
DICTIONARY
  5
8ACE
330
2F
100
AcDbDictionary
280
     1
281
     1
  3
ADSK_XREC_LAYER_RECONCILED
360
8ACF
  0
DICTIONARY
  5
8AD0
330
31
100
AcDbDictionary
280
     1
281
     1
  3
ADSK_XREC_LAYER_RECONCILED
360
8AD1
  0
DICTIONARY
  5
8AD2
330
35
100
AcDbDictionary
280
     1
281
     1
  3
ADSK_XREC_LAYER_RECONCILED
360
8AD3
  0
DICTIONARY
  5
8AD4
330
38
100
AcDbDictionary
280
     1
281
     1
  3
ADSK_XREC_LAYER_RECONCILED
360
8AD5
  0
DICTIONARY
  5
8AD8
330
3A2
100
AcDbDictionary
280
     1
281
     1
  3
ADSK_XREC_LAYER_RECONCILED
360
8AD9
  0
DICTIONARY
  5
8ADA
330
3BBA
100
AcDbDictionary
280
     1
281
     1
  3
ADSK_XREC_LAYER_RECONCILED
360
8ADB
  0
DICTIONARY
  5
8ADC
330
67A8
100
AcDbDictionary
280
     1
281
     1
  3
ADSK_XREC_LAYER_RECONCILED
360
8ADD
  0
DICTIONARY
  5
8ADE
330
7837
100
AcDbDictionary
280
     1
281
     1
  3
ADSK_XREC_LAYER_RECONCILED
360
8ADF
  0
DICTIONARY
  5
9134
330
9133
100
AcDbDictionary
280
     1
281
     1
  0
DICTIONARY
  5
1391D
330
1391C
100
AcDbDictionary
280
     1
281
     1
  0
DICTIONARY
  5
1391F
330
1391E
100
AcDbDictionary
280
     1
281
     1
  0
DICTIONARY
  5
178
330
1E
100
AcDbDictionary
280
     1
281
     1
  3
ACAD_LAYOUTSELFREF
360
8A0F
  3
ACAD_SORTENTS
360
10338
  0
DICTIONARY
  5
17A
330
1A
100
AcDbDictionary
280
     1
281
     1
  3
ACAD_LAYOUTSELFREF
360
8A0E
  0
XRECORD
  5
8AA8
102
{ACAD_REACTORS
330
C
102
}
330
C
100
AcDbXrecord
280
     1
300
ACDLT
300
2014
300
ACDLT_F_S
  0
DICTIONARY
  5
8A8A
102
{ACAD_REACTORS
330
C
102
}
330
C
100
AcDbDictionary
281
     1
  0
DICTIONARY
  5
8AA3
102
{ACAD_REACTORS
330
C
102
}
330
C
100
AcDbDictionary
281
     1
  3
Imperial24
350
8AA4
  0
DICTIONARY
  5
D
102
{ACAD_REACTORS
330
C
102
}
330
C
100
AcDbDictionary
281
     1
  0
DICTIONARY
  5
19
102
{ACAD_REACTORS
330
C
102
}
330
C
100
AcDbDictionary
281
     1
  3
Model
350
8A4C
  3
ﾚｲｱｳﾄ1
350
8A4D
  0
DICTIONARY
  5
8A58
102
{ACAD_REACTORS
330
C
102
}
330
C
100
AcDbDictionary
281
     1
  3
ByBlock
350
8A61
  3
ByLayer
350
8A59
  3
Global
350
8A69
  0
DICTIONARY
  5
8A9F
102
{ACAD_REACTORS
330
C
102
}
330
C
100
AcDbDictionary
281
     1
  3
Standard
350
8AA0
  0
DICTIONARY
  5
16
102
{ACAD_REACTORS
330
C
102
}
330
C
100
AcDbDictionary
281
     1
  3
STANDARD
350
17
  0
DICTIONARY
  5
18
102
{ACAD_REACTORS
330
C
102
}
330
C
100
AcDbDictionary
281
     1
  0
ACDBDICTIONARYWDFLT
  5
E
102
{ACAD_REACTORS
330
C
102
}
330
C
100
AcDbDictionary
281
     1
  3
Normal
350
F
100
AcDbDictionaryWithDefault
340
F
  0
DICTIONARY
  5
8A8D
102
{ACAD_REACTORS
330
C
102
}
330
C
100
AcDbDictionary
281
     1
  3
A0
350
8A8E
  3
A1
350
8A8F
  3
A2
350
8A90
  3
A3
350
8A91
  3
A4
350
8A92
  3
A5
350
8A93
  3
A6
350
8A94
  3
A7
350
8A95
  3
A8
350
8A96
  3
A9
350
8A97
  3
B0
350
8A98
  3
B1
350
8A99
  3
B2
350
8A9A
  3
B3
350
8A9B
  3
B4
350
8A9C
  3
B5
350
8A9D
  3
B6
350
8A9E
  0
DICTIONARY
  5
8AA1
102
{ACAD_REACTORS
330
C
102
}
330
C
100
AcDbDictionary
281
     1
  3
Imperial24
350
8AA2
  0
DICTIONARY
  5
8A8B
102
{ACAD_REACTORS
330
C
102
}
330
C
100
AcDbDictionary
281
     1
  3
Standard
350
8A8C
  0
DICTIONARY
  5
8A71
102
{ACAD_REACTORS
330
C
102
}
330
C
100
AcDbDictionary
281
     1
  3
2dWireframe
350
8A77
  3
3D Hidden
350
8B2B
  3
3dWireframe
350
8B2A
  3
Basic
350
8A76
  3
Brighten
350
8A7D
  3
ColorChange
350
8A81
  3
Conceptual
350
8A7A
  3
Dim
350
8A7C
  3
EdgeColorOff
350
8A89
  3
Facepattern
350
8A80
  3
Flat
350
8A72
  3
FlatWithEdges
350
8A73
  3
Gouraud
350
8A74
  3
GouraudWithEdges
350
8A75
  3
Hidden
350
8A79
  3
JitterOff
350
8A87
  3
Linepattern
350
8A7F
  3
OverhangOff
350
8A88
  3
Realistic
350
8A7B
  3
Shaded
350
8A86
  3
Shaded with edges
350
8A85
  3
Shades of Gray
350
8A82
  3
Sketchy
350
8A83
  3
Thicken
350
8A7E
  3
Wireframe
350
8A78
  3
X-Ray
350
8A84
  0
XRECORD
  5
6D5E
102
{ACAD_REACTORS
330
C
102
}
330
C
100
AcDbXrecord
280
     1
 90
   990106
  3

 60
     0
 61
     0
 62
     1
 63
     3
 64
     0
 65
     0
 66
     0
 67
     3
 68
     1
 69
     0
 70
     0
 71
     0
 72
     0
 40
0.0
170
     0
340
0
  0
XRECORD
  5
1C387
102
{ACAD_REACTORS
330
C
102
}
330
C
100
AcDbXrecord
280
     1
 90
        1
330
8A8C
330
8AA2
330
8AA4
  0
DICTIONARY
  5
5697
102
{ACAD_REACTORS
330
C
102
}
330
C
100
AcDbDictionary
281
     1
  3
CANNOSCALE
350
8AE9
  3
CMLEADERSTYLE
350
8AE5
  3
CTABLESTYLE
350
8AE4
  3
CVIEWDETAILSTYLE
350
8AE6
  3
CVIEWSECTIONSTYLE
350
8AE7
  3
DIMASSOC
350
5698
  3
LAYEREVAL
350
8AEB
  3
LAYERNOTIFY
350
8AEC
  3
LIGHTINGUNITS
350
8AEA
  3
MSLTSCALE
350
8AE8
  0
DICTIONARY
  5
BFC4
102
{ACAD_REACTORS
330
C
102
}
330
C
100
AcDbDictionary
281
     1
  0
DICTIONARY
  5
F3CD
102
{ACAD_REACTORS
330
F3CC
102
}
330
F3CC
100
AcDbDictionary
281
     1
  0
XRECORD
  5
8ACD
102
{ACAD_REACTORS
330
8ACC
102
}
330
8ACC
100
AcDbXrecord
280
     1
290
     1
  0
XRECORD
  5
8ACF
102
{ACAD_REACTORS
330
8ACE
102
}
330
8ACE
100
AcDbXrecord
280
     1
290
     1
  0
XRECORD
  5
8AD1
102
{ACAD_REACTORS
330
8AD0
102
}
330
8AD0
100
AcDbXrecord
280
     1
290
     1
  0
XRECORD
  5
8AD3
102
{ACAD_REACTORS
330
8AD2
102
}
330
8AD2
100
AcDbXrecord
280
     1
290
     1
  0
XRECORD
  5
8AD5
102
{ACAD_REACTORS
330
8AD4
102
}
330
8AD4
100
AcDbXrecord
280
     1
290
     1
  0
XRECORD
  5
8AD9
102
{ACAD_REACTORS
330
8AD8
102
}
330
8AD8
100
AcDbXrecord
280
     1
290
     1
  0
XRECORD
  5
8ADB
102
{ACAD_REACTORS
330
8ADA
102
}
330
8ADA
100
AcDbXrecord
280
     1
290
     1
  0
XRECORD
  5
8ADD
102
{ACAD_REACTORS
330
8ADC
102
}
330
8ADC
100
AcDbXrecord
280
     1
290
     1
  0
XRECORD
  5
8ADF
102
{ACAD_REACTORS
330
8ADE
102
}
330
8ADE
100
AcDbXrecord
280
     1
290
     1
  0
XRECORD
  5
8A0F
102
{ACAD_REACTORS
330
178
102
}
330
178
100
AcDbXrecord
280
     1
340
1E
  0
SORTENTSTABLE
  5
10338
102
{ACAD_REACTORS
330
178
102
}
330
178
100
AcDbSortentsTable
330
1E
331
19EFC
  5
1AA98
331
13ABF
  5
14056
331
13AF6
  5
14093
331
19C4D
  5
1A518
331
13A70
  5
13B1B
331
13AC7
  5
14060
331
13B06
  5
140A3
331
13B29
  5
140EA
331
13B41
  5
140FE
331
13A90
  5
13B3A
331
13A41
  5
13AF1
331
13A98
  5
13B42
331
13ACF
  5
14068
331
13B16
  5
140B3
331
13A49
  5
13AF5
331
13AA0
  5
13B4B
331
19C5D
  5
1A62C
331
13AA8
  5
1403F
331
13ADF
  5
14077
331
13A51
  5
13AFD
331
13B26
  5
140C8
331
13AE7
  5
14084
331
13B36
  5
140F0
331
13B19
  5
140B6
331
15DC1
  5
16747
331
1A390
  5
1AB42
331
13A7A
  5
13B24
331
13A8A
  5
13B2D
331
13AB0
  5
14049
331
13A59
  5
13B07
331
19EE5
  5
1AA95
331
13A61
  5
13B10
331
13AEF
  5
1408C
331
13AF7
  5
14094
331
13AFF
  5
1409C
331
13A71
  5
13B1C
331
13B07
  5
140A4
331
13B2A
  5
140EB
331
13B42
  5
140FF
331
13AC8
  5
14061
331
13A91
  5
13B3B
331
13A99
  5
13B43
331
13AD0
  5
14069
331
13A42
  5
13AF2
331
13B0F
  5
140AC
331
13B17
  5
140B4
331
19C5E
  5
1A639
331
13AA1
  5
13B4C
331
13AD8
  5
14070
331
13B27
  5
140CF
331
13A52
  5
13AFE
331
13AA9
  5
14040
331
13AE0
  5
14078
331
13B37
  5
140F5
331
13B1A
  5
140B7
331
1A391
  5
1AB43
331
15DC2
  5
16748
331
13A8B
  5
13B2E
331
13AE8
  5
14085
331
13A5A
  5
13B09
331
13AB1
  5
1404A
331
13AF0
  5
1408D
331
13A62
  5
13B11
331
13AC1
  5
14058
331
13AF8
  5
14095
331
1A4B6
  5
1AB44
331
13A72
  5
13B1D
331
13B00
  5
1409D
331
1BA9E
  5
1BB3D
331
1A172
  5
1AB37
331
14641
  5
16260
331
1A1C2
  5
1AB39
331
13B2B
  5
140EC
331
13B43
  5
14102
331
13B08
  5
140A5
331
13A92
  5
13B3C
331
13AC9
  5
14062
331
13B10
  5
140AD
331
13A9A
  5
13B45
331
13AD1
  5
1406A
331
13AD9
  5
14071
331
13B20
  5
140C2
331
13AA2
  5
13B4D
331
19C67
  5
1A65B
331
13AAA
  5
14041
331
13AE1
  5
1407E
331
13A53
  5
13AFF
331
13B1B
  5
140B8
331
19FF3
  5
1AB0E
331
13A8C
  5
13B36
331
13B38
  5
140F9
331
13AB2
  5
1404B
331
13AE9
  5
14086
331
13A5B
  5
13B0A
331
13A63
  5
13B12
331
13AF1
  5
1408E
331
13AF9
  5
14096
331
13A6B
  5
13B17
331
13AC2
  5
14059
331
1A4B7
  5
1AB45
331
13B01
  5
1409E
331
13A73
  5
13B1E
331
1BA9F
  5
14051
331
13B2C
  5
140ED
331
13B4C
  5
1410F
331
13ACA
  5
14063
331
13B09
  5
140A6
331
13A3C
  5
13AEC
331
13A93
  5
13B3D
331
13A9B
  5
13B46
331
13AD2
  5
1406B
331
13B11
  5
140AE
331
13B21
  5
140C3
331
13A4C
  5
13AF8
331
13AA3
  5
13B4E
331
13ADA
  5
14072
331
13AAB
  5
14044
331
19C68
  5
1A65C
331
13B1C
  5
140B9
331
13A85
  5
13B28
331
13A8D
  5
13B37
331
13B39
  5
140FA
331
13A5C
  5
13B0B
331
13AB3
  5
1404C
331
13AF2
  5
1408F
331
13A64
  5
13B14
331
13AFA
  5
14097
331
13A6C
  5
13B18
331
1BA98
  5
1410E
331
13A74
  5
13B1F
331
13B02
  5
1409F
331
13B2D
  5
140EE
331
13B45
  5
14105
331
13B4D
  5
14110
331
13B0A
  5
140A7
331
13A3D
  5
13AED
331
13A94
  5
13B3E
331
13B12
  5
140AF
331
13A9C
  5
13B47
331
19C59
  5
1A51A
331
13ADB
  5
14073
331
13B22
  5
140C4
331
13A4D
  5
13AF9
331
13AA4
  5
13B4F
331
13AAC
  5
14045
331
19C69
  5
1A65D
331
13A55
  5
13B01
331
15127
  5
16264
331
19BDD
  5
1A517
331
13A86
  5
13B29
331
13A8E
  5
13B38
331
13B3A
  5
140FB
331
13A5D
  5
13B0C
331
13AB4
  5
1404D
331
13AEB
  5
14088
331
13A65
  5
13B15
331
13AF3
  5
14090
331
13AFB
  5
14098
331
13A6D
  5
13B19
331
13AC4
  5
1405C
331
13B03
  5
140A0
331
13A75
  5
13B20
331
14664
  5
16261
331
13B2E
  5
140EF
331
13B46
  5
1410B
331
13B4E
  5
14111
331
19C52
  5
1A519
331
13B0B
  5
140A8
331
13A3E
  5
13AEE
331
13A95
  5
13B3F
331
13A9D
  5
13B48
331
13B13
  5
140B0
331
13B23
  5
140C5
331
13A4E
  5
13AFA
331
13AA5
  5
13B50
331
13AE4
  5
14081
331
13A56
  5
13B04
331
13AAD
  5
14046
331
19C6A
  5
1A65E
331
13B50
  5
14113
331
1A38D
  5
1AB3F
331
13B1E
  5
140BB
331
13A87
  5
13B2A
331
13A8F
  5
13B39
331
13AEC
  5
14089
331
13AB5
  5
1404E
331
13AF4
  5
14091
331
144CB
  5
15DC2
331
13A6E
  5
13B1A
331
13AC5
  5
1405E
331
13AFC
  5
14099
331
13A76
  5
13B21
331
13B04
  5
140A1
331
13B47
  5
1410C
331
13B4F
  5
14112
331
13A3F
  5
13AEF
331
13A96
  5
13B40
331
13B14
  5
140B1
331
13A47
  5
13AF3
331
13A9E
  5
13B49
331
19C5B
  5
1A51B
331
13ADD
  5
14075
331
13B24
  5
140C6
331
13AA6
  5
1403A
331
13AAE
  5
14047
331
13AE5
  5
14082
331
13A57
  5
13B05
331
13B1F
  5
140BC
331
1A38E
  5
1AB40
331
13A88
  5
13B2B
331
13AB6
  5
1404F
331
13AED
  5
1408A
331
13AF5
  5
14092
331
13ABE
  5
14055
331
13AFD
  5
1409A
331
13AC6
  5
1405F
331
13B05
  5
140A2
331
1A17F
  5
1AB38
331
13B28
  5
140D5
331
13B40
  5
140FD
331
1A1CF
  5
1AB3A
331
13A97
  5
13B41
331
13ACE
  5
14067
331
13A40
  5
13AF0
331
13B0D
  5
140AA
331
19C5C
  5
1A616
331
13A9F
  5
13B4A
331
13A48
  5
13AF4
331
13B15
  5
140B2
331
13B25
  5
140C7
331
13A50
  5
13AFC
331
13AA7
  5
1403B
331
13ADE
  5
14076
331
13AE6
  5
14083
331
13AAF
  5
14048
331
13B18
  5
140B5
331
1A38F
  5
1AB41
331
13A79
  5
13B23
331
13A89
  5
13B2C
331
13A58
  5
13B06
331
19EE4
  5
1AA94
331
13AEE
  5
1408B
331
13A60
  5
13B0F
331
13AB7
  5
14050
  0
XRECORD
  5
8A0E
102
{ACAD_REACTORS
330
17A
102
}
330
17A
100
AcDbXrecord
280
     1
340
1A
  0
ACDBDETAILVIEWSTYLE
  5
8AA4
102
{ACAD_XDICTIONARY
360
1C29E
102
}
102
{ACAD_REACTORS
330
8AA3
102
}
330
8AA3
100
AcDbModelDocViewStyle
 70
     0
  3
Imperial24
290
     0
100
AcDbDetailViewStyle
 70
     0
 71
     0
 90
        3
 71
     1
340
11
 62
   256
 40
0.24
340
0
 62
   256
 40
0.24
300

 40
0.36
280
     3
 71
     2
340
15
 90
       25
 62
   256
 71
     3
340
11
 62
   256
 40
0.24
 90
        1
 40
0.75
 90
        1
300
%<\AcVar ViewType \f "%tc1">% %<\AcVar ViewDetailId>%\PSCALE %<\AcVar ViewScale \f "%sn">%
 71
     4
340
15
 90
       25
 62
   256
340
15
 90
       25
 62
   256
280
     0
  0
LAYOUT
  5
8A4C
102
{ACAD_XDICTIONARY
360
F3D2
102
}
102
{ACAD_REACTORS
330
19
102
}
330
19
100
AcDbPlotSettings
  1

  2
none_device
  4
Letter_(8.50_x_11.00_Inches)
  6

 40
6.349999904632567
 41
6.349999904632567
 42
6.350006103515625
 43
6.350006103515625
 44
215.8999938964844
 45
279.3999938964844
 46
0.0
 47
0.0
 48
0.0
 49
0.0
140
0.0
141
0.0
142
1.0
143
317.0449279872537
 70
 11952
 72
     0
 73
     1
 74
     0
  7
monochrome.ctb
 75
     0
147
0.0031541271022642
 76
     0
 77
     2
 78
   300
148
21198.07971653447
149
42574.72085005308
100
AcDbLayout
  1
Model
 70
     1
 71
     0
 10
0.0
 20
0.0
 11
12.0
 21
9.0
 12
0.0
 22
0.0
 32
0.0
 14
0.0
 24
0.0
 34
0.0
 15
0.0
 25
0.0
 35
0.0
146
0.0
 13
0.0
 23
0.0
 33
0.0
 16
1.0
 26
0.0
 36
0.0
 17
0.0
 27
1.0
 37
0.0
 76
     0
330
1E
331
8A51
1001
ACAD_PSEXT
1000
なし
1000
なし
1000
適切ではありません
1000
新しいプロッタ環境設定名を選択しない限り、レイアウトは印刷されません。
1070
     0
  0
LAYOUT
  5
8A4D
102
{ACAD_REACTORS
330
19
102
}
330
19
100
AcDbPlotSettings
  1

  2
Canon LBP3800 LIPSLX
  4

  6

 40
0.0
 41
0.0
 42
0.0
 43
0.0
 44
0.0
 45
0.0
 46
0.0
 47
0.0
 48
0.0
 49
0.0
140
0.0
141
0.0
142
1.0
143
1.0
 70
   688
 72
     0
 73
     0
 74
     5
  7
monochrome.ctb
 75
    16
147
1.0
 76
     0
 77
     2
 78
   300
148
0.0
149
0.0
100
AcDbLayout
  1
ﾚｲｱｳﾄ1
 70
     1
 71
     1
 10
-5.873749
 20
-5.87375
 11
204.099579
 21
291.1369009999999
 12
0.0
 22
0.0
 32
0.0
 14
4.273573
 24
5.205245999999998
 34
0.0
 15
194.610095
 25
283.0697009999996
 35
0.0
146
0.0
 13
0.0
 23
0.0
 33
0.0
 16
1.0
 26
0.0
 36
0.0
 17
0.0
 27
1.0
 37
0.0
 76
     0
330
1A
331
9AC
  0
MATERIAL
  5
8A61
102
{ACAD_XDICTIONARY
360
8A62
102
}
102
{ACAD_REACTORS
330
8A58
102
}
330
8A58
100
AcDbMaterial
  1
ByBlock
 72
     0
 43
0.0208333333333333
 43
0.0
 43
0.0
 43
0.0
 43
0.0
 43
0.0208333333333333
 43
0.0
 43
0.0
 43
0.0
 43
0.0
 43
1.0
 43
0.0
 43
0.0
 43
0.0
 43
0.0
 43
1.0
 77
     0
 47
0.0208333333333333
 47
0.0
 47
0.0
 47
0.0
 47
0.0
 47
0.0208333333333333
 47
0.0
 47
0.0
 47
0.0
 47
0.0
 47
1.0
 47
0.0
 47
0.0
 47
0.0
 47
0.0
 47
1.0
171
     0
 49
0.0208333333333333
 49
0.0
 49
0.0
 49
0.0
 49
0.0
 49
0.0208333333333333
 49
0.0
 49
0.0
 49
0.0
 49
0.0
 49
1.0
 49
0.0
 49
0.0
 49
0.0
 49
0.0
 49
1.0
175
     0
142
0.0208333333333333
142
0.0
142
0.0
142
0.0
142
0.0
142
0.0208333333333333
142
0.0
142
0.0
142
0.0
142
0.0
142
1.0
142
0.0
142
0.0
142
0.0
142
0.0
142
1.0
179
     0
144
0.0208333333333333
144
0.0
144
0.0
144
0.0
144
0.0
144
0.0208333333333333
144
0.0
144
0.0
144
0.0
144
0.0
144
1.0
144
0.0
144
0.0
144
0.0
144
0.0
144
1.0
147
0.0208333333333333
147
0.0
147
0.0
147
0.0
147
0.0
147
0.0208333333333333
147
0.0
147
0.0
147
0.0
147
0.0
147
1.0
147
0.0
147
0.0
147
0.0
147
0.0
147
1.0
  0
MATERIAL
  5
8A59
102
{ACAD_XDICTIONARY
360
8A5A
102
}
102
{ACAD_REACTORS
330
8A58
102
}
330
8A58
100
AcDbMaterial
  1
ByLayer
 72
     0
 43
0.0208333333333333
 43
0.0
 43
0.0
 43
0.0
 43
0.0
 43
0.0208333333333333
 43
0.0
 43
0.0
 43
0.0
 43
0.0
 43
1.0
 43
0.0
 43
0.0
 43
0.0
 43
0.0
 43
1.0
 77
     0
 47
0.0208333333333333
 47
0.0
 47
0.0
 47
0.0
 47
0.0
 47
0.0208333333333333
 47
0.0
 47
0.0
 47
0.0
 47
0.0
 47
1.0
 47
0.0
 47
0.0
 47
0.0
 47
0.0
 47
1.0
171
     0
 49
0.0208333333333333
 49
0.0
 49
0.0
 49
0.0
 49
0.0
 49
0.0208333333333333
 49
0.0
 49
0.0
 49
0.0
 49
0.0
 49
1.0
 49
0.0
 49
0.0
 49
0.0
 49
0.0
 49
1.0
175
     0
142
0.0208333333333333
142
0.0
142
0.0
142
0.0
142
0.0
142
0.0208333333333333
142
0.0
142
0.0
142
0.0
142
0.0
142
1.0
142
0.0
142
0.0
142
0.0
142
0.0
142
1.0
179
     0
144
0.0208333333333333
144
0.0
144
0.0
144
0.0
144
0.0
144
0.0208333333333333
144
0.0
144
0.0
144
0.0
144
0.0
144
1.0
144
0.0
144
0.0
144
0.0
144
0.0
144
1.0
147
0.0208333333333333
147
0.0
147
0.0
147
0.0
147
0.0
147
0.0208333333333333
147
0.0
147
0.0
147
0.0
147
0.0
147
1.0
147
0.0
147
0.0
147
0.0
147
0.0
147
1.0
  0
MATERIAL
  5
8A69
102
{ACAD_XDICTIONARY
360
8A6A
102
}
102
{ACAD_REACTORS
330
8A58
102
}
330
8A58
100
AcDbMaterial
  1
Global
 72
     0
 43
0.0208333333333333
 43
0.0
 43
0.0
 43
0.0
 43
0.0
 43
0.0208333333333333
 43
0.0
 43
0.0
 43
0.0
 43
0.0
 43
1.0
 43
0.0
 43
0.0
 43
0.0
 43
0.0
 43
1.0
 77
     0
 47
0.0208333333333333
 47
0.0
 47
0.0
 47
0.0
 47
0.0
 47
0.0208333333333333
 47
0.0
 47
0.0
 47
0.0
 47
0.0
 47
1.0
 47
0.0
 47
0.0
 47
0.0
 47
0.0
 47
1.0
171
     0
 49
0.0208333333333333
 49
0.0
 49
0.0
 49
0.0
 49
0.0
 49
0.0208333333333333
 49
0.0
 49
0.0
 49
0.0
 49
0.0
 49
1.0
 49
0.0
 49
0.0
 49
0.0
 49
0.0
 49
1.0
175
     0
142
0.0208333333333333
142
0.0
142
0.0
142
0.0
142
0.0
142
0.0208333333333333
142
0.0
142
0.0
142
0.0
142
0.0
142
1.0
142
0.0
142
0.0
142
0.0
142
0.0
142
1.0
179
     0
144
0.0208333333333333
144
0.0
144
0.0
144
0.0
144
0.0
144
0.0208333333333333
144
0.0
144
0.0
144
0.0
144
0.0
144
1.0
144
0.0
144
0.0
144
0.0
144
0.0
144
1.0
147
0.0208333333333333
147
0.0
147
0.0
147
0.0
147
0.0
147
0.0208333333333333
147
0.0
147
0.0
147
0.0
147
0.0
147
1.0
147
0.0
147
0.0
147
0.0
147
0.0
147
1.0
  0
MLEADERSTYLE
  5
8AA0
102
{ACAD_REACTORS
330
8A9F
102
}
330
8A9F
100
AcDbMLeaderStyle
179
     2
170
     2
171
     1
172
     0
 90
        2
 40
0.0
 41
0.0
173
     1
 91
-1056964608
340
13
 92
       -2
290
     1
 42
0.09
291
     1
 43
0.36
  3
Standard
 44
0.18
300

342
11
174
     1
178
     6
175
     1
176
     0
 93
-1056964608
 45
0.18
292
     0
297
     0
 46
0.18
 94
-1056964608
 47
1.0
 49
1.0
140
1.0
293
     1
141
0.0
294
     1
177
     0
142
1.0
295
     0
296
     0
143
0.125
271
     0
272
     9
273
     9
298
     0
  0
MLINESTYLE
  5
17
102
{ACAD_REACTORS
330
16
102
}
330
16
100
AcDbMlineStyle
  2
STANDARD
 70
     0
  3

 62
   256
 51
90.0
 52
90.0
 71
     2
 49
0.5
 62
   256
  6
BYLAYER
 49
-0.5
 62
   256
  6
BYLAYER
  0
ACDBPLACEHOLDER
  5
F
102
{ACAD_REACTORS
330
E
102
}
330
E
  0
SCALE
  5
8A8E
102
{ACAD_REACTORS
330
8A8D
102
}
330
8A8D
100
AcDbScale
 70
     0
300
1:1
140
1.0
141
1.0
290
     1
  0
SCALE
  5
8A8F
102
{ACAD_REACTORS
330
8A8D
102
}
330
8A8D
100
AcDbScale
 70
     0
300
1/128" = 1'-0"
140
0.0078125
141
12.0
290
     0
  0
SCALE
  5
8A90
102
{ACAD_REACTORS
330
8A8D
102
}
330
8A8D
100
AcDbScale
 70
     0
300
1/64" = 1'-0"
140
0.015625
141
12.0
290
     0
  0
SCALE
  5
8A91
102
{ACAD_REACTORS
330
8A8D
102
}
330
8A8D
100
AcDbScale
 70
     0
300
1/32" = 1'-0"
140
0.03125
141
12.0
290
     0
  0
SCALE
  5
8A92
102
{ACAD_REACTORS
330
8A8D
102
}
330
8A8D
100
AcDbScale
 70
     0
300
1/16" = 1'-0"
140
0.0625
141
12.0
290
     0
  0
SCALE
  5
8A93
102
{ACAD_REACTORS
330
8A8D
102
}
330
8A8D
100
AcDbScale
 70
     0
300
3/32" = 1'-0"
140
0.09375
141
12.0
290
     0
  0
SCALE
  5
8A94
102
{ACAD_REACTORS
330
8A8D
102
}
330
8A8D
100
AcDbScale
 70
     0
300
1/8" = 1'-0"
140
0.125
141
12.0
290
     0
  0
SCALE
  5
8A95
102
{ACAD_REACTORS
330
8A8D
102
}
330
8A8D
100
AcDbScale
 70
     0
300
3/16" = 1'-0"
140
0.1875
141
12.0
290
     0
  0
SCALE
  5
8A96
102
{ACAD_REACTORS
330
8A8D
102
}
330
8A8D
100
AcDbScale
 70
     0
300
1/4" = 1'-0"
140
0.25
141
12.0
290
     0
  0
SCALE
  5
8A97
102
{ACAD_REACTORS
330
8A8D
102
}
330
8A8D
100
AcDbScale
 70
     0
300
3/8" = 1'-0"
140
0.375
141
12.0
290
     0
  0
SCALE
  5
8A98
102
{ACAD_REACTORS
330
8A8D
102
}
330
8A8D
100
AcDbScale
 70
     0
300
1/2" = 1'-0"
140
0.5
141
12.0
290
     0
  0
SCALE
  5
8A99
102
{ACAD_REACTORS
330
8A8D
102
}
330
8A8D
100
AcDbScale
 70
     0
300
3/4" = 1'-0"
140
0.75
141
12.0
290
     0
  0
SCALE
  5
8A9A
102
{ACAD_REACTORS
330
8A8D
102
}
330
8A8D
100
AcDbScale
 70
     0
300
1" = 1'-0"
140
1.0
141
12.0
290
     0
  0
SCALE
  5
8A9B
102
{ACAD_REACTORS
330
8A8D
102
}
330
8A8D
100
AcDbScale
 70
     0
300
1-1/2" = 1'-0"
140
1.5
141
12.0
290
     0
  0
SCALE
  5
8A9C
102
{ACAD_REACTORS
330
8A8D
102
}
330
8A8D
100
AcDbScale
 70
     0
300
3" = 1'-0"
140
3.0
141
12.0
290
     0
  0
SCALE
  5
8A9D
102
{ACAD_REACTORS
330
8A8D
102
}
330
8A8D
100
AcDbScale
 70
     0
300
6" = 1'-0"
140
6.0
141
12.0
290
     0
  0
SCALE
  5
8A9E
102
{ACAD_REACTORS
330
8A8D
102
}
330
8A8D
100
AcDbScale
 70
     0
300
1'-0" = 1'-0"
140
12.0
141
12.0
290
     0
  0
ACDBSECTIONVIEWSTYLE
  5
8AA2
102
{ACAD_XDICTIONARY
360
1C29C
102
}
102
{ACAD_REACTORS
330
8AA1
102
}
330
8AA1
100
AcDbModelDocViewStyle
 70
     0
  3
Imperial24
290
     0
100
AcDbSectionViewStyle
 70
     0
 71
     0
 90
       78
 71
     1
340
11
 62
   256
 40
0.24
340
0
340
0
 62
   256
 40
0.24
300
I, O, Q, S, X, Z
 40
0.48
 90
        3
 40
0.18
 90
        1
 71
     2
340
15
 90
       25
 62
   256
340
15
 90
       50
 62
   256
 40
0.24
 40
0.0
 40
0.24
 71
     3
340
11
 62
   256
 40
0.24
 90
        1
 40
0.75
 90
        1
300
%<\AcVar ViewType \f "%tc1">% %<\AcVar ViewSectionStartId>%-%<\AcVar ViewSectionEndId>%\PSCALE %<\AcVar ViewScale \f "%sn">%
 71
     4
 62
   256
 62
   257
300
ANSI31
 40
1.0
 90
        0
290
     0
290
     0
 90
        6
 40
0.0
 40
1.570796326794896
 40
0.2617993877991494
 40
1.308996938995747
 40
-0.2617993877991494
 40
1.832595714594044
  0
TABLESTYLE
  5
8A8C
102
{ACAD_XDICTIONARY
360
8AED
102
}
102
{ACAD_REACTORS
330
8A8B
102
}
330
8A8B
100
AcDbTableStyle
280
     0
  3
Standard
 70
     0
 71
     0
 40
0.06
 41
0.06
280
     0
281
     0
  7
STANDARD
140
0.18
170
     2
 62
     0
 63
     7
283
     0
 90
      512
 91
        0
  1

274
    -2
284
     1
 64
     0
275
    -2
285
     1
 65
     0
276
    -2
286
     1
 66
     0
277
    -2
287
     1
 67
     0
278
    -2
288
     1
 68
     0
279
    -2
289
     1
 69
     0
  7
STANDARD
140
0.25
170
     5
 62
     0
 63
     7
283
     0
 90
      512
 91
        0
  1

274
    -2
284
     1
 64
     0
275
    -2
285
     1
 65
     0
276
    -2
286
     1
 66
     0
277
    -2
287
     1
 67
     0
278
    -2
288
     1
 68
     0
279
    -2
289
     1
 69
     0
  7
STANDARD
140
0.18
170
     5
 62
     0
 63
     7
283
     0
 90
      512
 91
        0
  1

274
    -2
284
     1
 64
     0
275
    -2
285
     1
 65
     0
276
    -2
286
     1
 66
     0
277
    -2
287
     1
 67
     0
278
    -2
288
     1
 68
     0
279
    -2
289
     1
 69
     0
  0
VISUALSTYLE
  5
8A77
102
{ACAD_REACTORS
330
8A71
102
}
330
8A71
100
AcDbVisualStyle
  2
2dWireframe
 70
     4
177
     3
291
     0
 70
    58
 90
        0
176
     1
 90
        2
176
     1
 90
        0
176
     1
 90
        0
176
     1
 40
0.6
176
     1
 40
30.0
176
     1
 62
     7
420
 16777215
176
     1
 90
        1
176
     1
 90
        4
176
     1
 62
     7
176
     1
 62
   257
176
     1
 90
        1
176
     1
 90
        1
176
     1
 40
1.0
176
     1
 90
        0
176
     1
 62
   257
176
     1
 40
1.0
176
     1
 90
        1
176
     1
 90
        6
176
     1
 90
        2
176
     1
 62
     7
176
     1
 90
        5
176
     1
 90
        0
176
     1
 90
        0
176
     1
290
     0
176
     1
 90
        1
176
     1
 40
0.0
176
     1
 90
        0
176
     1
290
     1
176
     1
290
     1
176
     1
290
     0
176
     1
290
     0
176
     1
290
     0
176
     1
290
     0
176
     1
290
     0
176
     1
290
     0
176
     1
290
     0
176
     1
 90
       50
176
     1
 40
0.0
176
     1
 40
1.0
176
     1
 90
        0
176
     1
 62
    18
176
     1
 90
       50
176
     1
 90
        3
176
     1
 62
     5
420
      255
176
     1
290
     0
176
     1
 90
       50
176
     1
 90
       50
176
     1
 90
       50
176
     1
290
     0
176
     1
 90
       50
176
     1
 62
   256
176
     0
 40
1.0
176
     0
 90
        2
176
     1
  1
strokes_ogs.tif
176
     1
290
     0
176
     1
 40
1.0
176
     1
 40
1.0
176
     1
  0
VISUALSTYLE
  5
8B2B
102
{ACAD_REACTORS
330
8A71
102
}
330
8A71
100
AcDbVisualStyle
  2
3D Hidden
 70
     6
177
     3
291
     0
 70
    58
 90
        1
176
     1
 90
        2
176
     1
 90
        2
176
     1
 90
        0
176
     1
 40
0.6
176
     1
 40
30.0
176
     1
 62
     7
420
 16777215
176
     1
 90
        2
176
     1
 90
        2
176
     1
 62
     7
176
     1
 62
   257
176
     1
 90
        2
176
     1
 90
        1
176
     1
 40
179.0
176
     1
 90
        0
176
     1
 62
   257
176
     1
 40
1.0
176
     1
 90
        1
176
     1
 90
        6
176
     1
 90
        2
176
     1
 62
     7
176
     1
 90
        3
176
     1
 90
        0
176
     1
 90
        0
176
     1
290
     0
176
     1
 90
        1
176
     1
 40
0.0
176
     1
 90
        0
176
     1
290
     0
176
     1
290
     1
176
     1
290
     1
176
     1
290
     0
176
     1
290
     0
176
     1
290
     0
176
     1
290
     0
176
     1
290
     0
176
     1
290
     0
176
     1
 90
       50
176
     1
 40
0.0
176
     1
 40
1.0
176
     1
 90
        0
176
     1
 62
    18
176
     1
 90
       50
176
     1
 90
        3
176
     1
 62
     5
420
      255
176
     1
290
     0
176
     1
 90
       50
176
     1
 90
       50
176
     1
 90
       50
176
     1
290
     0
176
     1
 90
       50
176
     1
 62
   256
176
     0
 40
1.0
176
     0
 90
        2
176
     1
  1
strokes_ogs.tif
176
     1
290
     0
176
     1
 40
1.0
176
     1
 40
1.0
176
     1
  0
VISUALSTYLE
  5
8B2A
102
{ACAD_REACTORS
330
8A71
102
}
330
8A71
100
AcDbVisualStyle
  2
3dWireframe
 70
     5
177
     3
291
     0
 70
    58
 90
        0
176
     1
 90
        2
176
     1
 90
        0
176
     1
 90
        0
176
     1
 40
0.6
176
     1
 40
30.0
176
     1
 62
     7
420
 16777215
176
     1
 90
        1
176
     1
 90
        4
176
     1
 62
     7
176
     1
 62
   257
176
     1
 90
        1
176
     1
 90
        1
176
     1
 40
1.0
176
     1
 90
        0
176
     1
 62
   257
176
     1
 40
1.0
176
     1
 90
        1
176
     1
 90
        6
176
     1
 90
        2
176
     1
 62
     7
176
     1
 90
        5
176
     1
 90
        0
176
     1
 90
        0
176
     1
290
     0
176
     1
 90
        1
176
     1
 40
0.0
176
     1
 90
        0
176
     1
290
     0
176
     1
290
     1
176
     1
290
     1
176
     1
290
     0
176
     1
290
     0
176
     1
290
     0
176
     1
290
     0
176
     1
290
     0
176
     1
290
     0
176
     1
 90
       50
176
     1
 40
0.0
176
     1
 40
1.0
176
     1
 90
        0
176
     1
 62
    18
176
     1
 90
       50
176
     1
 90
        3
176
     1
 62
     5
420
      255
176
     1
290
     0
176
     1
 90
       50
176
     1
 90
       50
176
     1
 90
       50
176
     1
290
     0
176
     1
 90
       50
176
     1
 62
   256
176
     0
 40
1.0
176
     0
 90
        2
176
     1
  1
strokes_ogs.tif
176
     1
290
     0
176
     1
 40
1.0
176
     1
 40
1.0
176
     1
  0
VISUALSTYLE
  5
8A76
102
{ACAD_REACTORS
330
8A71
102
}
330
8A71
100
AcDbVisualStyle
  2
Basic
 70
     7
177
     3
291
     1
 70
    58
 90
        1
176
     1
 90
        0
176
     1
 90
        1
176
     1
 90
        0
176
     1
 40
0.6
176
     1
 40
30.0
176
     1
 62
     7
420
 16777215
176
     1
 90
        0
176
     1
 90
        4
176
     1
 62
     7
176
     1
 62
   257
176
     1
 90
        1
176
     1
 90
        1
176
     1
 40
1.0
176
     1
 90
        8
176
     1
 62
     7
176
     1
 40
1.0
176
     1
 90
        1
176
     1
 90
        6
176
     1
 90
        2
176
     1
 62
     7
176
     1
 90
        5
176
     1
 90
        0
176
     1
 90
        0
176
     1
290
     0
176
     1
 90
        1
176
     1
 40
0.0
176
     1
 90
        0
176
     1
290
     0
176
     1
290
     1
176
     1
290
     1
176
     1
290
     0
176
     1
290
     0
176
     1
290
     0
176
     1
290
     0
176
     1
290
     0
176
     1
290
     0
176
     1
 90
       50
176
     1
 40
0.0
176
     1
 40
1.0
176
     1
 90
        0
176
     1
 62
    18
176
     1
 90
       50
176
     1
 90
        3
176
     1
 62
     5
420
      255
176
     1
290
     0
176
     1
 90
       50
176
     1
 90
       50
176
     1
 90
       50
176
     1
290
     0
176
     1
 90
       50
176
     1
 62
   256
176
     0
 40
1.0
176
     0
 90
        2
176
     1
  1
strokes_ogs.tif
176
     1
290
     0
176
     1
 40
1.0
176
     1
 40
1.0
176
     1
  0
VISUALSTYLE
  5
8A7D
102
{ACAD_REACTORS
330
8A71
102
}
330
8A71
100
AcDbVisualStyle
  2
Brighten
 70
    12
177
     3
291
     1
 70
    58
 90
        2
176
     1
 90
        2
176
     1
 90
        0
176
     1
 90
        0
176
     1
 40
0.6
176
     1
 40
30.0
176
     1
 62
     7
420
 16777215
176
     1
 90
        1
176
     1
 90
        4
176
     1
 62
     7
176
     1
 62
   257
176
     1
 90
        1
176
     1
 90
        1
176
     1
 40
1.0
176
     1
 90
        8
176
     1
 62
     7
176
     1
 40
1.0
176
     1
 90
        1
176
     1
 90
        6
176
     1
 90
        2
176
     1
 62
     7
176
     1
 90
        5
176
     1
 90
        0
176
     1
 90
        0
176
     1
290
     0
176
     1
 90
        1
176
     1
 40
50.0
176
     1
 90
        0
176
     1
290
     0
176
     1
290
     1
176
     1
290
     1
176
     1
290
     0
176
     1
290
     0
176
     1
290
     0
176
     1
290
     0
176
     1
290
     0
176
     1
290
     0
176
     1
 90
       50
176
     1
 40
0.0
176
     1
 40
1.0
176
     1
 90
        0
176
     1
 62
    18
176
     1
 90
       50
176
     1
 90
        3
176
     1
 62
     5
420
      255
176
     1
290
     0
176
     1
 90
       50
176
     1
 90
       50
176
     1
 90
       50
176
     1
290
     0
176
     1
 90
       50
176
     1
 62
   256
176
     0
 40
1.0
176
     0
 90
        2
176
     1
  1
strokes_ogs.tif
176
     1
290
     0
176
     1
 40
1.0
176
     1
 40
1.0
176
     1
  0
VISUALSTYLE
  5
8A81
102
{ACAD_REACTORS
330
8A71
102
}
330
8A71
100
AcDbVisualStyle
  2
ColorChange
 70
    16
177
     3
291
     1
 70
    58
 90
        2
176
     1
 90
        2
176
     1
 90
        3
176
     1
 90
        0
176
     1
 40
0.6
176
     1
 40
30.0
176
     1
 62
     8
420
  8421504
176
     1
 90
        1
176
     1
 90
        4
176
     1
 62
     7
176
     1
 62
   257
176
     1
 90
        1
176
     1
 90
        1
176
     1
 40
1.0
176
     1
 90
        8
176
     1
 62
     8
420
  8421504
176
     1
 40
1.0
176
     1
 90
        1
176
     1
 90
        6
176
     1
 90
        2
176
     1
 62
     7
176
     1
 90
        5
176
     1
 90
        0
176
     1
 90
        0
176
     1
290
     0
176
     1
 90
        1
176
     1
 40
0.0
176
     1
 90
        0
176
     1
290
     0
176
     1
290
     1
176
     1
290
     1
176
     1
290
     0
176
     1
290
     0
176
     1
290
     0
176
     1
290
     0
176
     1
290
     0
176
     1
290
     0
176
     1
 90
       50
176
     1
 40
0.0
176
     1
 40
1.0
176
     1
 90
        0
176
     1
 62
    18
176
     1
 90
       50
176
     1
 90
        3
176
     1
 62
     5
420
      255
176
     1
290
     0
176
     1
 90
       50
176
     1
 90
       50
176
     1
 90
       50
176
     1
290
     0
176
     1
 90
       50
176
     1
 62
   256
176
     0
 40
1.0
176
     0
 90
        2
176
     1
  1
strokes_ogs.tif
176
     1
290
     0
176
     1
 40
1.0
176
     1
 40
1.0
176
     1
  0
VISUALSTYLE
  5
8A7A
102
{ACAD_REACTORS
330
8A71
102
}
330
8A71
100
AcDbVisualStyle
  2
Conceptual
 70
     9
177
     3
291
     0
 70
    58
 90
        3
176
     1
 90
        2
176
     1
 90
        0
176
     1
 90
        0
176
     1
 40
0.6
176
     1
 40
30.0
176
     1
 62
     7
420
 16777215
176
     1
 90
        2
176
     1
 90
        2
176
     1
 62
     7
176
     1
 62
   257
176
     1
 90
        1
176
     1
 90
        1
176
     1
 40
179.0
176
     1
 90
        8
176
     1
 62
     7
176
     1
 40
1.0
176
     1
 90
        1
176
     1
 90
        6
176
     1
 90
        2
176
     1
 62
     7
176
     1
 90
        3
176
     1
 90
        0
176
     1
 90
        0
176
     1
290
     0
176
     1
 90
        1
176
     1
 40
0.0
176
     1
 90
        0
176
     1
290
     0
176
     1
290
     1
176
     1
290
     1
176
     1
290
     0
176
     1
290
     0
176
     1
290
     0
176
     1
290
     0
176
     1
290
     0
176
     1
290
     0
176
     1
 90
       50
176
     1
 40
0.0
176
     1
 40
1.0
176
     1
 90
        0
176
     1
 62
    18
176
     1
 90
       50
176
     1
 90
        3
176
     1
 62
     5
420
      255
176
     1
290
     0
176
     1
 90
       50
176
     1
 90
       50
176
     1
 90
       50
176
     1
290
     0
176
     1
 90
       50
176
     1
 62
   256
176
     0
 40
1.0
176
     0
 90
        2
176
     1
  1
strokes_ogs.tif
176
     1
290
     0
176
     1
 40
1.0
176
     1
 40
1.0
176
     1
  0
VISUALSTYLE
  5
8A7C
102
{ACAD_REACTORS
330
8A71
102
}
330
8A71
100
AcDbVisualStyle
  2
Dim
 70
    11
177
     3
291
     1
 70
    58
 90
        2
176
     1
 90
        2
176
     1
 90
        0
176
     1
 90
        0
176
     1
 40
0.6
176
     1
 40
30.0
176
     1
 62
     7
420
 16777215
176
     1
 90
        1
176
     1
 90
        4
176
     1
 62
     7
176
     1
 62
   257
176
     1
 90
        1
176
     1
 90
        1
176
     1
 40
1.0
176
     1
 90
        8
176
     1
 62
     7
176
     1
 40
1.0
176
     1
 90
        1
176
     1
 90
        6
176
     1
 90
        2
176
     1
 62
     7
176
     1
 90
        5
176
     1
 90
        0
176
     1
 90
        0
176
     1
290
     0
176
     1
 90
        1
176
     1
 40
-50.0
176
     1
 90
        0
176
     1
290
     0
176
     1
290
     1
176
     1
290
     1
176
     1
290
     0
176
     1
290
     0
176
     1
290
     0
176
     1
290
     0
176
     1
290
     0
176
     1
290
     0
176
     1
 90
       50
176
     1
 40
0.0
176
     1
 40
1.0
176
     1
 90
        0
176
     1
 62
    18
176
     1
 90
       50
176
     1
 90
        3
176
     1
 62
     5
420
      255
176
     1
290
     0
176
     1
 90
       50
176
     1
 90
       50
176
     1
 90
       50
176
     1
290
     0
176
     1
 90
       50
176
     1
 62
   256
176
     0
 40
1.0
176
     0
 90
        2
176
     1
  1
strokes_ogs.tif
176
     1
290
     0
176
     1
 40
1.0
176
     1
 40
1.0
176
     1
  0
VISUALSTYLE
  5
8A89
102
{ACAD_REACTORS
330
8A71
102
}
330
8A71
100
AcDbVisualStyle
  2
EdgeColorOff
 70
    22
177
     3
291
     1
 70
    58
 90
        2
176
     0
 90
        2
176
     0
 90
        0
176
     0
 90
        0
176
     0
 40
0.6
176
     0
 40
30.0
176
     0
 62
     7
420
 16777215
176
     0
 90
        1
176
     0
 90
        4
176
     0
 62
     7
176
     0
 62
   257
176
     0
 90
        1
176
     0
 90
        1
176
     0
 40
1.0
176
     0
 90
        8
176
     2
 62
     7
176
     0
 40
1.0
176
     0
 90
        1
176
     0
 90
        6
176
     0
 90
        2
176
     0
 62
     7
176
     0
 90
        5
176
     0
 90
        0
176
     0
 90
        0
176
     0
290
     0
176
     0
 90
        1
176
     0
 40
0.0
176
     0
 90
        0
176
     0
290
     0
176
     1
290
     1
176
     1
290
     1
176
     1
290
     0
176
     1
290
     0
176
     1
290
     0
176
     1
290
     0
176
     1
290
     0
176
     1
290
     0
176
     1
 90
       50
176
     0
 40
0.0
176
     0
 40
1.0
176
     0
 90
        0
176
     0
 62
    18
176
     0
 90
       50
176
     0
 90
        3
176
     0
 62
     5
420
      255
176
     0
290
     0
176
     1
 90
       50
176
     0
 90
       50
176
     0
 90
       50
176
     0
290
     0
176
     1
 90
       50
176
     0
 62
   256
176
     0
 40
1.0
176
     0
 90
        2
176
     0
  1
strokes_ogs.tif
176
     0
290
     0
176
     1
 40
1.0
176
     0
 40
1.0
176
     0
  0
VISUALSTYLE
  5
8A80
102
{ACAD_REACTORS
330
8A71
102
}
330
8A71
100
AcDbVisualStyle
  2
Facepattern
 70
    15
177
     3
291
     1
 70
    58
 90
        2
176
     1
 90
        2
176
     1
 90
        0
176
     1
 90
        0
176
     1
 40
0.6
176
     1
 40
30.0
176
     1
 62
     7
420
 16777215
176
     1
 90
        1
176
     1
 90
        4
176
     1
 62
     7
176
     1
 62
   257
176
     1
 90
        1
176
     1
 90
        1
176
     1
 40
1.0
176
     1
 90
        8
176
     1
 62
     7
176
     1
 40
1.0
176
     1
 90
        1
176
     1
 90
        6
176
     1
 90
        2
176
     1
 62
     7
176
     1
 90
        5
176
     1
 90
        0
176
     1
 90
        0
176
     1
290
     0
176
     1
 90
        1
176
     1
 40
0.0
176
     1
 90
        0
176
     1
290
     0
176
     1
290
     1
176
     1
290
     1
176
     1
290
     0
176
     1
290
     0
176
     1
290
     0
176
     1
290
     0
176
     1
290
     0
176
     1
290
     0
176
     1
 90
       50
176
     1
 40
0.0
176
     1
 40
1.0
176
     1
 90
        0
176
     1
 62
    18
176
     1
 90
       50
176
     1
 90
        3
176
     1
 62
     5
420
      255
176
     1
290
     0
176
     1
 90
       50
176
     1
 90
       50
176
     1
 90
       50
176
     1
290
     0
176
     1
 90
       50
176
     1
 62
   256
176
     0
 40
1.0
176
     0
 90
        2
176
     1
  1
strokes_ogs.tif
176
     1
290
     0
176
     1
 40
1.0
176
     1
 40
1.0
176
     1
  0
VISUALSTYLE
  5
8A72
102
{ACAD_REACTORS
330
8A71
102
}
330
8A71
100
AcDbVisualStyle
  2
Flat
 70
     0
177
     3
291
     1
 70
    58
 90
        2
176
     1
 90
        1
176
     1
 90
        1
176
     1
 90
        2
176
     1
 40
0.6
176
     1
 40
30.0
176
     1
 62
     7
420
 16777215
176
     1
 90
        0
176
     1
 90
        0
176
     1
 62
     7
176
     1
 62
   257
176
     1
 90
        1
176
     1
 90
        1
176
     1
 40
1.0
176
     1
 90
        8
176
     1
 62
     7
176
     1
 40
1.0
176
     1
 90
        1
176
     1
 90
        6
176
     1
 90
        2
176
     1
 62
     7
176
     1
 90
        5
176
     1
 90
        0
176
     1
 90
        0
176
     1
290
     0
176
     1
 90
       13
176
     1
 40
0.0
176
     1
 90
        0
176
     1
290
     0
176
     1
290
     1
176
     1
290
     1
176
     1
290
     0
176
     1
290
     0
176
     1
290
     0
176
     1
290
     0
176
     1
290
     0
176
     1
290
     0
176
     1
 90
       50
176
     1
 40
0.0
176
     1
 40
1.0
176
     1
 90
        0
176
     1
 62
    18
176
     1
 90
       50
176
     1
 90
        3
176
     1
 62
     5
420
      255
176
     1
290
     0
176
     1
 90
       50
176
     1
 90
       50
176
     1
 90
       50
176
     1
290
     0
176
     1
 90
       50
176
     1
 62
   256
176
     0
 40
1.0
176
     0
 90
        2
176
     1
  1
strokes_ogs.tif
176
     1
290
     0
176
     1
 40
1.0
176
     1
 40
1.0
176
     1
  0
VISUALSTYLE
  5
8A73
102
{ACAD_REACTORS
330
8A71
102
}
330
8A71
100
AcDbVisualStyle
  2
FlatWithEdges
 70
     1
177
     3
291
     1
 70
    58
 90
        2
176
     1
 90
        1
176
     1
 90
        1
176
     1
 90
        2
176
     1
 40
0.6
176
     1
 40
30.0
176
     1
 62
     7
420
 16777215
176
     1
 90
        1
176
     1
 90
        0
176
     1
 62
     7
176
     1
 62
   257
176
     1
 90
        1
176
     1
 90
        1
176
     1
 40
1.0
176
     1
 90
        0
176
     1
 62
   257
176
     1
 40
1.0
176
     1
 90
        1
176
     1
 90
        6
176
     1
 90
        2
176
     1
 62
     7
176
     1
 90
        5
176
     1
 90
        0
176
     1
 90
        0
176
     1
290
     0
176
     1
 90
       13
176
     1
 40
0.0
176
     1
 90
        0
176
     1
290
     0
176
     1
290
     1
176
     1
290
     1
176
     1
290
     0
176
     1
290
     0
176
     1
290
     0
176
     1
290
     0
176
     1
290
     0
176
     1
290
     0
176
     1
 90
       50
176
     1
 40
0.0
176
     1
 40
1.0
176
     1
 90
        0
176
     1
 62
    18
176
     1
 90
       50
176
     1
 90
        3
176
     1
 62
     5
420
      255
176
     1
290
     0
176
     1
 90
       50
176
     1
 90
       50
176
     1
 90
       50
176
     1
290
     0
176
     1
 90
       50
176
     1
 62
   256
176
     0
 40
1.0
176
     0
 90
        2
176
     1
  1
strokes_ogs.tif
176
     1
290
     0
176
     1
 40
1.0
176
     1
 40
1.0
176
     1
  0
VISUALSTYLE
  5
8A74
102
{ACAD_REACTORS
330
8A71
102
}
330
8A71
100
AcDbVisualStyle
  2
Gouraud
 70
     2
177
     3
291
     1
 70
    58
 90
        2
176
     1
 90
        2
176
     1
 90
        1
176
     1
 90
        2
176
     1
 40
0.6
176
     1
 40
30.0
176
     1
 62
     7
420
 16777215
176
     1
 90
        0
176
     1
 90
        0
176
     1
 62
     7
176
     1
 62
   257
176
     1
 90
        1
176
     1
 90
        1
176
     1
 40
1.0
176
     1
 90
        0
176
     1
 62
     7
176
     1
 40
1.0
176
     1
 90
        1
176
     1
 90
        6
176
     1
 90
        2
176
     1
 62
     7
176
     1
 90
        5
176
     1
 90
        0
176
     1
 90
        0
176
     1
290
     0
176
     1
 90
       13
176
     1
 40
0.0
176
     1
 90
        0
176
     1
290
     0
176
     1
290
     1
176
     1
290
     1
176
     1
290
     0
176
     1
290
     0
176
     1
290
     0
176
     1
290
     0
176
     1
290
     0
176
     1
290
     0
176
     1
 90
       50
176
     1
 40
0.0
176
     1
 40
1.0
176
     1
 90
        0
176
     1
 62
    18
176
     1
 90
       50
176
     1
 90
        3
176
     1
 62
     5
420
      255
176
     1
290
     0
176
     1
 90
       50
176
     1
 90
       50
176
     1
 90
       50
176
     1
290
     0
176
     1
 90
       50
176
     1
 62
   256
176
     0
 40
1.0
176
     0
 90
        2
176
     1
  1
strokes_ogs.tif
176
     1
290
     0
176
     1
 40
1.0
176
     1
 40
1.0
176
     1
  0
VISUALSTYLE
  5
8A75
102
{ACAD_REACTORS
330
8A71
102
}
330
8A71
100
AcDbVisualStyle
  2
GouraudWithEdges
 70
     3
177
     3
291
     1
 70
    58
 90
        2
176
     1
 90
        2
176
     1
 90
        1
176
     1
 90
        2
176
     1
 40
0.6
176
     1
 40
30.0
176
     1
 62
     7
420
 16777215
176
     1
 90
        1
176
     1
 90
        0
176
     1
 62
     7
176
     1
 62
   257
176
     1
 90
        1
176
     1
 90
        1
176
     1
 40
1.0
176
     1
 90
        0
176
     1
 62
   257
176
     1
 40
1.0
176
     1
 90
        1
176
     1
 90
        6
176
     1
 90
        2
176
     1
 62
     7
176
     1
 90
        5
176
     1
 90
        0
176
     1
 90
        0
176
     1
290
     0
176
     1
 90
       13
176
     1
 40
0.0
176
     1
 90
        0
176
     1
290
     0
176
     1
290
     1
176
     1
290
     1
176
     1
290
     0
176
     1
290
     0
176
     1
290
     0
176
     1
290
     0
176
     1
290
     0
176
     1
290
     0
176
     1
 90
       50
176
     1
 40
0.0
176
     1
 40
1.0
176
     1
 90
        0
176
     1
 62
    18
176
     1
 90
       50
176
     1
 90
        3
176
     1
 62
     5
420
      255
176
     1
290
     0
176
     1
 90
       50
176
     1
 90
       50
176
     1
 90
       50
176
     1
290
     0
176
     1
 90
       50
176
     1
 62
   256
176
     0
 40
1.0
176
     0
 90
        2
176
     1
  1
strokes_ogs.tif
176
     1
290
     0
176
     1
 40
1.0
176
     1
 40
1.0
176
     1
  0
VISUALSTYLE
  5
8A79
102
{ACAD_REACTORS
330
8A71
102
}
330
8A71
100
AcDbVisualStyle
  2
Hidden
 70
     6
177
     3
291
     0
 70
    58
 90
        1
176
     1
 90
        2
176
     1
 90
        2
176
     1
 90
        0
176
     1
 40
0.6
176
     1
 40
30.0
176
     1
 62
     7
420
 16777215
176
     1
 90
        2
176
     1
 90
        2
176
     1
 62
     7
176
     1
 62
   257
176
     1
 90
        2
176
     1
 90
        1
176
     1
 40
40.0
176
     1
 90
        0
176
     1
 62
   257
176
     1
 40
1.0
176
     1
 90
        1
176
     1
 90
        6
176
     1
 90
        2
176
     1
 62
     7
176
     1
 90
        3
176
     1
 90
        0
176
     1
 90
        0
176
     1
290
     0
176
     1
 90
        1
176
     1
 40
0.0
176
     1
 90
        0
176
     1
290
     0
176
     1
290
     1
176
     1
290
     1
176
     1
290
     0
176
     1
290
     0
176
     1
290
     0
176
     1
290
     0
176
     1
290
     0
176
     1
290
     0
176
     1
 90
       50
176
     1
 40
0.0
176
     1
 40
1.0
176
     1
 90
        0
176
     1
 62
    18
176
     1
 90
       50
176
     1
 90
        3
176
     1
 62
     5
420
      255
176
     1
290
     0
176
     1
 90
       50
176
     1
 90
       50
176
     1
 90
       50
176
     1
290
     0
176
     1
 90
       50
176
     1
 62
   256
176
     0
 40
1.0
176
     0
 90
        2
176
     1
  1
strokes_ogs.tif
176
     1
290
     0
176
     1
 40
1.0
176
     1
 40
1.0
176
     1
  0
VISUALSTYLE
  5
8A87
102
{ACAD_REACTORS
330
8A71
102
}
330
8A71
100
AcDbVisualStyle
  2
JitterOff
 70
    20
177
     3
291
     1
 70
    58
 90
        2
176
     0
 90
        2
176
     0
 90
        0
176
     0
 90
        0
176
     0
 40
0.6
176
     0
 40
30.0
176
     0
 62
     7
420
 16777215
176
     0
 90
        1
176
     0
 90
        4
176
     0
 62
     7
176
     0
 62
   257
176
     0
 90
        1
176
     0
 90
        1
176
     0
 40
1.0
176
     0
 90
       10
176
     2
 62
     7
176
     0
 40
1.0
176
     0
 90
        1
176
     0
 90
        6
176
     0
 90
        2
176
     0
 62
     7
176
     0
 90
        5
176
     0
 90
        0
176
     0
 90
        0
176
     0
290
     0
176
     0
 90
        1
176
     0
 40
0.0
176
     0
 90
        0
176
     0
290
     0
176
     1
290
     1
176
     1
290
     1
176
     1
290
     0
176
     1
290
     0
176
     1
290
     0
176
     1
290
     0
176
     1
290
     0
176
     1
290
     0
176
     1
 90
       50
176
     0
 40
0.0
176
     0
 40
1.0
176
     0
 90
        0
176
     0
 62
    18
176
     0
 90
       50
176
     0
 90
        3
176
     0
 62
     5
420
      255
176
     0
290
     0
176
     1
 90
       50
176
     0
 90
       50
176
     0
 90
       50
176
     0
290
     0
176
     1
 90
       50
176
     0
 62
   256
176
     0
 40
1.0
176
     0
 90
        2
176
     0
  1
strokes_ogs.tif
176
     0
290
     0
176
     1
 40
1.0
176
     0
 40
1.0
176
     0
  0
VISUALSTYLE
  5
8A7F
102
{ACAD_REACTORS
330
8A71
102
}
330
8A71
100
AcDbVisualStyle
  2
Linepattern
 70
    14
177
     3
291
     1
 70
    58
 90
        2
176
     1
 90
        2
176
     1
 90
        0
176
     1
 90
        0
176
     1
 40
0.6
176
     1
 40
30.0
176
     1
 62
     7
420
 16777215
176
     1
 90
        1
176
     1
 90
        4
176
     1
 62
     7
176
     1
 62
   257
176
     1
 90
        7
176
     1
 90
        7
176
     1
 40
1.0
176
     1
 90
        8
176
     1
 62
     7
176
     1
 40
1.0
176
     1
 90
        1
176
     1
 90
        6
176
     1
 90
        2
176
     1
 62
     7
176
     1
 90
        5
176
     1
 90
        0
176
     1
 90
        0
176
     1
290
     0
176
     1
 90
        1
176
     1
 40
0.0
176
     1
 90
        0
176
     1
290
     0
176
     1
290
     1
176
     1
290
     1
176
     1
290
     0
176
     1
290
     0
176
     1
290
     0
176
     1
290
     0
176
     1
290
     0
176
     1
290
     0
176
     1
 90
       50
176
     1
 40
0.0
176
     1
 40
1.0
176
     1
 90
        0
176
     1
 62
    18
176
     1
 90
       50
176
     1
 90
        3
176
     1
 62
     5
420
      255
176
     1
290
     0
176
     1
 90
       50
176
     1
 90
       50
176
     1
 90
       50
176
     1
290
     0
176
     1
 90
       50
176
     1
 62
   256
176
     0
 40
1.0
176
     0
 90
        2
176
     1
  1
strokes_ogs.tif
176
     1
290
     0
176
     1
 40
1.0
176
     1
 40
1.0
176
     1
  0
VISUALSTYLE
  5
8A88
102
{ACAD_REACTORS
330
8A71
102
}
330
8A71
100
AcDbVisualStyle
  2
OverhangOff
 70
    21
177
     3
291
     1
 70
    58
 90
        2
176
     0
 90
        2
176
     0
 90
        0
176
     0
 90
        0
176
     0
 40
0.6
176
     0
 40
30.0
176
     0
 62
     7
420
 16777215
176
     0
 90
        1
176
     0
 90
        4
176
     0
 62
     7
176
     0
 62
   257
176
     0
 90
        1
176
     0
 90
        1
176
     0
 40
1.0
176
     0
 90
        9
176
     2
 62
     7
176
     0
 40
1.0
176
     0
 90
        1
176
     0
 90
        6
176
     0
 90
        2
176
     0
 62
     7
176
     0
 90
        5
176
     0
 90
        0
176
     0
 90
        0
176
     0
290
     0
176
     0
 90
        1
176
     0
 40
0.0
176
     0
 90
        0
176
     0
290
     0
176
     1
290
     1
176
     1
290
     1
176
     1
290
     0
176
     1
290
     0
176
     1
290
     0
176
     1
290
     0
176
     1
290
     0
176
     1
290
     0
176
     1
 90
       50
176
     0
 40
0.0
176
     0
 40
1.0
176
     0
 90
        0
176
     0
 62
    18
176
     0
 90
       50
176
     0
 90
        3
176
     0
 62
     5
420
      255
176
     0
290
     0
176
     1
 90
       50
176
     0
 90
       50
176
     0
 90
       50
176
     0
290
     0
176
     1
 90
       50
176
     0
 62
   256
176
     0
 40
1.0
176
     0
 90
        2
176
     0
  1
strokes_ogs.tif
176
     0
290
     0
176
     1
 40
1.0
176
     0
 40
1.0
176
     0
  0
VISUALSTYLE
  5
8A7B
102
{ACAD_REACTORS
330
8A71
102
}
330
8A71
100
AcDbVisualStyle
  2
Realistic
 70
     8
177
     3
291
     0
 70
    58
 90
        2
176
     1
 90
        3
176
     1
 90
        0
176
     1
 90
        2
176
     1
 40
0.6
176
     1
 40
30.0
176
     1
 62
     7
420
 16777215
176
     1
 90
        0
176
     1
 90
        0
176
     1
 62
     7
176
     1
 62
   257
176
     1
 90
        1
176
     1
 90
        1
176
     1
 40
1.0
176
     1
 90
        8
176
     1
 62
   257
176
     1
 40
1.0
176
     1
 90
        1
176
     1
 90
        6
176
     1
 90
        2
176
     1
 62
     7
176
     1
 90
        3
176
     1
 90
        0
176
     1
 90
        0
176
     1
290
     0
176
     1
 90
       13
176
     1
 40
0.0
176
     1
 90
        0
176
     1
290
     0
176
     1
290
     1
176
     1
290
     1
176
     1
290
     0
176
     1
290
     0
176
     1
290
     0
176
     1
290
     0
176
     1
290
     0
176
     1
290
     0
176
     1
 90
       50
176
     1
 40
0.0
176
     1
 40
1.0
176
     1
 90
        0
176
     1
 62
    18
176
     1
 90
       50
176
     1
 90
        3
176
     1
 62
     5
420
      255
176
     1
290
     0
176
     1
 90
       50
176
     1
 90
       50
176
     1
 90
       50
176
     1
290
     0
176
     1
 90
       50
176
     1
 62
   256
176
     0
 40
1.0
176
     0
 90
        2
176
     1
  1
strokes_ogs.tif
176
     1
290
     0
176
     1
 40
1.0
176
     1
 40
1.0
176
     1
  0
VISUALSTYLE
  5
8A86
102
{ACAD_REACTORS
330
8A71
102
}
330
8A71
100
AcDbVisualStyle
  2
Shaded
 70
    27
177
     3
291
     0
 70
    58
 90
        2
176
     1
 90
        2
176
     1
 90
        1
176
     1
 90
        2
176
     1
 40
0.6
176
     1
 40
30.0
176
     1
 62
     7
420
 16777215
176
     1
 90
        0
176
     1
 90
        4
176
     1
 62
     7
176
     1
 62
   257
176
     1
 90
        1
176
     1
 90
        1
176
     1
 40
1.0
176
     1
 90
        8
176
     1
 62
   257
176
     1
 40
1.0
176
     1
 90
        1
176
     1
 90
        6
176
     1
 90
        2
176
     1
 62
     8
420
  7895160
176
     1
 90
        3
176
     1
 90
        0
176
     1
 90
        0
176
     1
290
     0
176
     1
 90
        5
176
     1
 40
0.0
176
     1
 90
        0
176
     1
290
     0
176
     1
290
     1
176
     1
290
     1
176
     1
290
     0
176
     1
290
     0
176
     1
290
     0
176
     1
290
     0
176
     1
290
     0
176
     1
290
     0
176
     1
 90
       50
176
     1
 40
0.0
176
     1
 40
1.0
176
     1
 90
        0
176
     1
 62
    18
176
     1
 90
       50
176
     1
 90
        3
176
     1
 62
     5
420
      255
176
     1
290
     0
176
     1
 90
       50
176
     1
 90
       50
176
     1
 90
       50
176
     1
290
     0
176
     1
 90
       50
176
     1
 62
   256
176
     0
 40
1.0
176
     0
 90
        2
176
     1
  1
strokes_ogs.tif
176
     1
290
     0
176
     1
 40
1.0
176
     1
 40
1.0
176
     1
  0
VISUALSTYLE
  5
8A85
102
{ACAD_REACTORS
330
8A71
102
}
330
8A71
100
AcDbVisualStyle
  2
Shaded with edges
 70
    26
177
     3
291
     0
 70
    58
 90
        2
176
     1
 90
        2
176
     1
 90
        1
176
     1
 90
        2
176
     1
 40
0.6
176
     1
 40
30.0
176
     1
 62
     7
420
 16777215
176
     1
 90
        1
176
     1
 90
       10
176
     1
 62
     7
176
     1
 62
   257
176
     1
 90
        2
176
     1
 90
        1
176
     1
 40
1.0
176
     1
 90
        8
176
     1
 62
   257
176
     1
 40
1.0
176
     1
 90
        1
176
     1
 90
        6
176
     1
 90
        2
176
     1
 62
     7
176
     1
 90
        3
176
     1
 90
        0
176
     1
 90
        0
176
     1
290
     0
176
     1
 90
        5
176
     1
 40
0.0
176
     1
 90
        0
176
     1
290
     0
176
     1
290
     1
176
     1
290
     1
176
     1
290
     0
176
     1
290
     0
176
     1
290
     0
176
     1
290
     0
176
     1
290
     0
176
     1
290
     0
176
     1
 90
       50
176
     1
 40
0.0
176
     1
 40
1.0
176
     1
 90
        0
176
     1
 62
    18
176
     1
 90
       50
176
     1
 90
        3
176
     1
 62
     5
420
      255
176
     1
290
     0
176
     1
 90
       50
176
     1
 90
       50
176
     1
 90
       50
176
     1
290
     0
176
     1
 90
       50
176
     1
 62
   256
176
     0
 40
1.0
176
     0
 90
        2
176
     1
  1
strokes_ogs.tif
176
     1
290
     0
176
     1
 40
1.0
176
     1
 40
1.0
176
     1
  0
VISUALSTYLE
  5
8A82
102
{ACAD_REACTORS
330
8A71
102
}
330
8A71
100
AcDbVisualStyle
  2
Shades of Gray
 70
    23
177
     3
291
     0
 70
    58
 90
        2
176
     1
 90
        2
176
     1
 90
        3
176
     1
 90
        0
176
     1
 40
0.6
176
     1
 40
30.0
176
     1
 62
     7
420
 16777215
176
     1
 90
        2
176
     1
 90
        2
176
     1
 62
     7
176
     1
 62
     7
176
     1
 90
        1
176
     1
 90
        1
176
     1
 40
40.0
176
     1
 90
        8
176
     1
 62
     7
176
     1
 40
1.0
176
     1
 90
        1
176
     1
 90
        6
176
     1
 90
        2
176
     1
 62
     7
176
     1
 90
        3
176
     1
 90
        0
176
     1
 90
        0
176
     1
290
     0
176
     1
 90
        1
176
     1
 40
0.0
176
     1
 90
        0
176
     1
290
     0
176
     1
290
     1
176
     1
290
     1
176
     1
290
     0
176
     1
290
     0
176
     1
290
     0
176
     1
290
     0
176
     1
290
     0
176
     1
290
     0
176
     1
 90
       50
176
     1
 40
0.0
176
     1
 40
1.0
176
     1
 90
        0
176
     1
 62
    18
176
     1
 90
       50
176
     1
 90
        3
176
     1
 62
     5
420
      255
176
     1
290
     0
176
     1
 90
       50
176
     1
 90
       50
176
     1
 90
       50
176
     1
290
     0
176
     1
 90
       50
176
     1
 62
   256
176
     0
 40
1.0
176
     0
 90
        2
176
     1
  1
strokes_ogs.tif
176
     1
290
     0
176
     1
 40
1.0
176
     1
 40
1.0
176
     1
  0
VISUALSTYLE
  5
8A83
102
{ACAD_REACTORS
330
8A71
102
}
330
8A71
100
AcDbVisualStyle
  2
Sketchy
 70
    24
177
     3
291
     0
 70
    58
 90
        1
176
     1
 90
        2
176
     1
 90
        2
176
     1
 90
        0
176
     1
 40
0.6
176
     1
 40
30.0
176
     1
 62
     7
420
 16777215
176
     1
 90
        2
176
     1
 90
        2
176
     1
 62
     7
176
     1
 62
     7
176
     1
 90
        1
176
     1
 90
        1
176
     1
 40
40.0
176
     1
 90
       11
176
     1
 62
     7
176
     1
 40
1.0
176
     1
 90
        1
176
     1
 90
        6
176
     1
 90
        2
176
     1
 62
     7
176
     1
 90
        6
176
     1
 90
        0
176
     1
 90
        0
176
     1
290
     0
176
     1
 90
        1
176
     1
 40
0.0
176
     1
 90
        0
176
     1
290
     0
176
     1
290
     1
176
     1
290
     1
176
     1
290
     0
176
     1
290
     0
176
     1
290
     0
176
     1
290
     0
176
     1
290
     0
176
     1
290
     0
176
     1
 90
       50
176
     1
 40
0.0
176
     1
 40
1.0
176
     1
 90
        0
176
     1
 62
    18
176
     1
 90
       50
176
     1
 90
        3
176
     1
 62
     5
420
      255
176
     1
290
     0
176
     1
 90
       50
176
     1
 90
       50
176
     1
 90
       50
176
     1
290
     0
176
     1
 90
       50
176
     1
 62
   256
176
     0
 40
1.0
176
     0
 90
        2
176
     1
  1
strokes_ogs.tif
176
     1
290
     0
176
     1
 40
1.0
176
     1
 40
1.0
176
     1
  0
VISUALSTYLE
  5
8A7E
102
{ACAD_REACTORS
330
8A71
102
}
330
8A71
100
AcDbVisualStyle
  2
Thicken
 70
    13
177
     3
291
     1
 70
    58
 90
        2
176
     1
 90
        2
176
     1
 90
        0
176
     1
 90
        0
176
     1
 40
0.6
176
     1
 40
30.0
176
     1
 62
     7
420
 16777215
176
     1
 90
        1
176
     1
 90
        4
176
     1
 62
     7
176
     1
 62
   257
176
     1
 90
        1
176
     1
 90
        1
176
     1
 40
1.0
176
     1
 90
       12
176
     1
 62
     7
176
     1
 40
1.0
176
     1
 90
        1
176
     1
 90
        6
176
     1
 90
        2
176
     1
 62
     7
176
     1
 90
        5
176
     1
 90
        0
176
     1
 90
        0
176
     1
290
     0
176
     1
 90
        1
176
     1
 40
0.0
176
     1
 90
        0
176
     1
290
     0
176
     1
290
     1
176
     1
290
     1
176
     1
290
     0
176
     1
290
     0
176
     1
290
     0
176
     1
290
     0
176
     1
290
     0
176
     1
290
     0
176
     1
 90
       50
176
     1
 40
0.0
176
     1
 40
1.0
176
     1
 90
        0
176
     1
 62
    18
176
     1
 90
       50
176
     1
 90
        3
176
     1
 62
     5
420
      255
176
     1
290
     0
176
     1
 90
       50
176
     1
 90
       50
176
     1
 90
       50
176
     1
290
     0
176
     1
 90
       50
176
     1
 62
   256
176
     0
 40
1.0
176
     0
 90
        2
176
     1
  1
strokes_ogs.tif
176
     1
290
     0
176
     1
 40
1.0
176
     1
 40
1.0
176
     1
  0
VISUALSTYLE
  5
8A78
102
{ACAD_REACTORS
330
8A71
102
}
330
8A71
100
AcDbVisualStyle
  2
Wireframe
 70
     5
177
     3
291
     0
 70
    58
 90
        0
176
     1
 90
        2
176
     1
 90
        0
176
     1
 90
        0
176
     1
 40
0.6
176
     1
 40
30.0
176
     1
 62
     7
420
 16777215
176
     1
 90
        1
176
     1
 90
        4
176
     1
 62
     7
176
     1
 62
   257
176
     1
 90
        1
176
     1
 90
        1
176
     1
 40
1.0
176
     1
 90
        0
176
     1
 62
   257
176
     1
 40
1.0
176
     1
 90
        1
176
     1
 90
        6
176
     1
 90
        2
176
     1
 62
     7
176
     1
 90
        3
176
     1
 90
        0
176
     1
 90
        0
176
     1
290
     0
176
     1
 90
        1
176
     1
 40
0.0
176
     1
 90
        0
176
     1
290
     0
176
     1
290
     1
176
     1
290
     1
176
     1
290
     0
176
     1
290
     0
176
     1
290
     0
176
     1
290
     0
176
     1
290
     0
176
     1
290
     0
176
     1
 90
       50
176
     1
 40
0.0
176
     1
 40
1.0
176
     1
 90
        0
176
     1
 62
    18
176
     1
 90
       50
176
     1
 90
        3
176
     1
 62
     5
420
      255
176
     1
290
     0
176
     1
 90
       50
176
     1
 90
       50
176
     1
 90
       50
176
     1
290
     0
176
     1
 90
       50
176
     1
 62
   256
176
     0
 40
1.0
176
     0
 90
        2
176
     1
  1
strokes_ogs.tif
176
     1
290
     0
176
     1
 40
1.0
176
     1
 40
1.0
176
     1
  0
VISUALSTYLE
  5
8A84
102
{ACAD_REACTORS
330
8A71
102
}
330
8A71
100
AcDbVisualStyle
  2
X-Ray
 70
    25
177
     3
291
     0
 70
    58
 90
        2
176
     1
 90
        2
176
     1
 90
        1
176
     1
 90
        1
176
     1
 40
0.5
176
     1
 40
30.0
176
     1
 62
     7
420
 16777215
176
     1
 90
        1
176
     1
 90
        0
176
     1
 62
     7
176
     1
 62
   257
176
     1
 90
        1
176
     1
 90
        1
176
     1
 40
1.0
176
     1
 90
        8
176
     1
 62
     7
176
     1
 40
1.0
176
     1
 90
        1
176
     1
 90
        6
176
     1
 90
        2
176
     1
 62
     7
176
     1
 90
        3
176
     1
 90
        0
176
     1
 90
        0
176
     1
290
     0
176
     1
 90
       13
176
     1
 40
0.0
176
     1
 90
        0
176
     1
290
     0
176
     1
290
     1
176
     1
290
     1
176
     1
290
     0
176
     1
290
     0
176
     1
290
     0
176
     1
290
     0
176
     1
290
     0
176
     1
290
     0
176
     1
 90
       50
176
     1
 40
0.0
176
     1
 40
1.0
176
     1
 90
        0
176
     1
 62
    18
176
     1
 90
       50
176
     1
 90
        3
176
     1
 62
     5
420
      255
176
     1
290
     0
176
     1
 90
       50
176
     1
 90
       50
176
     1
 90
       50
176
     1
290
     0
176
     1
 90
       50
176
     1
 62
   256
176
     0
 40
1.0
176
     0
 90
        2
176
     1
  1
strokes_ogs.tif
176
     1
290
     0
176
     1
 40
1.0
176
     1
 40
1.0
176
     1
  0
DICTIONARYVAR
  5
8AE9
102
{ACAD_REACTORS
330
5697
102
}
330
5697
100
DictionaryVariables
280
     0
  1
1:1
  0
DICTIONARYVAR
  5
8AE5
102
{ACAD_REACTORS
330
5697
102
}
330
5697
100
DictionaryVariables
280
     0
  1
STANDARD
  0
DICTIONARYVAR
  5
8AE4
102
{ACAD_REACTORS
330
5697
102
}
330
5697
100
DictionaryVariables
280
     0
  1
STANDARD
  0
DICTIONARYVAR
  5
8AE6
102
{ACAD_REACTORS
330
5697
102
}
330
5697
100
DictionaryVariables
280
     0
  1
Imperial24
  0
DICTIONARYVAR
  5
8AE7
102
{ACAD_REACTORS
330
5697
102
}
330
5697
100
DictionaryVariables
280
     0
  1
Imperial24
  0
DICTIONARYVAR
  5
5698
102
{ACAD_REACTORS
330
5697
102
}
330
5697
100
DictionaryVariables
280
     0
  1
1
  0
DICTIONARYVAR
  5
8AEB
102
{ACAD_REACTORS
330
5697
102
}
330
5697
100
DictionaryVariables
280
     0
  1
1
  0
DICTIONARYVAR
  5
8AEC
102
{ACAD_REACTORS
330
5697
102
}
330
5697
100
DictionaryVariables
280
     0
  1
15
  0
DICTIONARYVAR
  5
8AEA
102
{ACAD_REACTORS
330
5697
102
}
330
5697
100
DictionaryVariables
280
     0
  1
0
  0
DICTIONARYVAR
  5
8AE8
102
{ACAD_REACTORS
330
5697
102
}
330
5697
100
DictionaryVariables
280
     0
  1
0
  0
DICTIONARY
  5
1C29E
330
8AA4
100
AcDbDictionary
280
     1
281
     1
  3
ACAD_XREC_ROUNDTRIP
360
1C386
  0
DICTIONARY
  5
F3D2
330
8A4C
100
AcDbDictionary
280
     1
281
     1
  0
DICTIONARY
  5
8A62
330
8A61
100
AcDbDictionary
280
     1
281
     1
  3
BUMPTILE
360
8A64
  3
DIFFUSETILE
360
8A63
  3
OPACITYTILE
360
8A67
  3
REFLECTIONTILE
360
8A66
  3
REFRACTIONTILE
360
8A68
  3
SPECULARTILE
360
8A65
  0
DICTIONARY
  5
8A5A
330
8A59
100
AcDbDictionary
280
     1
281
     1
  3
BUMPTILE
360
8A5C
  3
DIFFUSETILE
360
8A5B
  3
OPACITYTILE
360
8A5F
  3
REFLECTIONTILE
360
8A5E
  3
REFRACTIONTILE
360
8A60
  3
SPECULARTILE
360
8A5D
  0
DICTIONARY
  5
8A6A
330
8A69
100
AcDbDictionary
280
     1
281
     1
  3
BUMPTILE
360
8A6C
  3
DIFFUSETILE
360
8A6B
  3
OPACITYTILE
360
8A6F
  3
REFLECTIONTILE
360
8A6E
  3
REFRACTIONTILE
360
8A70
  3
SPECULARTILE
360
8A6D
  0
DICTIONARY
  5
1C29C
330
8AA2
100
AcDbDictionary
280
     1
281
     1
  3
ACAD_XREC_ROUNDTRIP
360
1C385
  0
DICTIONARY
  5
8AED
330
8A8C
100
AcDbDictionary
280
     1
281
     1
  3
ACAD_ROUNDTRIP_2008_TABLESTYLE_CELLSTYLEMAP
360
1C384
  0
XRECORD
  5
1C386
102
{ACAD_REACTORS
330
1C29E
102
}
330
1C29E
100
AcDbXrecord
280
     1
102
DISPLAYNAME
  1
Imperial24
102
FLAGS
 90
        0
  0
XRECORD
  5
8A64
102
{ACAD_REACTORS
330
8A62
102
}
330
8A62
100
AcDbXrecord
280
     1
270
     1
271
     1
  0
XRECORD
  5
8A63
102
{ACAD_REACTORS
330
8A62
102
}
330
8A62
100
AcDbXrecord
280
     1
270
     1
271
     1
  0
XRECORD
  5
8A67
102
{ACAD_REACTORS
330
8A62
102
}
330
8A62
100
AcDbXrecord
280
     1
270
     1
271
     1
  0
XRECORD
  5
8A66
102
{ACAD_REACTORS
330
8A62
102
}
330
8A62
100
AcDbXrecord
280
     1
270
     1
271
     1
  0
XRECORD
  5
8A68
102
{ACAD_REACTORS
330
8A62
102
}
330
8A62
100
AcDbXrecord
280
     1
270
     1
271
     1
  0
XRECORD
  5
8A65
102
{ACAD_REACTORS
330
8A62
102
}
330
8A62
100
AcDbXrecord
280
     1
270
     1
271
     1
  0
XRECORD
  5
8A5C
102
{ACAD_REACTORS
330
8A5A
102
}
330
8A5A
100
AcDbXrecord
280
     1
270
     1
271
     1
  0
XRECORD
  5
8A5B
102
{ACAD_REACTORS
330
8A5A
102
}
330
8A5A
100
AcDbXrecord
280
     1
270
     1
271
     1
  0
XRECORD
  5
8A5F
102
{ACAD_REACTORS
330
8A5A
102
}
330
8A5A
100
AcDbXrecord
280
     1
270
     1
271
     1
  0
XRECORD
  5
8A5E
102
{ACAD_REACTORS
330
8A5A
102
}
330
8A5A
100
AcDbXrecord
280
     1
270
     1
271
     1
  0
XRECORD
  5
8A60
102
{ACAD_REACTORS
330
8A5A
102
}
330
8A5A
100
AcDbXrecord
280
     1
270
     1
271
     1
  0
XRECORD
  5
8A5D
102
{ACAD_REACTORS
330
8A5A
102
}
330
8A5A
100
AcDbXrecord
280
     1
270
     1
271
     1
  0
XRECORD
  5
8A6C
102
{ACAD_REACTORS
330
8A6A
102
}
330
8A6A
100
AcDbXrecord
280
     1
270
     1
271
     1
  0
XRECORD
  5
8A6B
102
{ACAD_REACTORS
330
8A6A
102
}
330
8A6A
100
AcDbXrecord
280
     1
270
     1
271
     1
  0
XRECORD
  5
8A6F
102
{ACAD_REACTORS
330
8A6A
102
}
330
8A6A
100
AcDbXrecord
280
     1
270
     1
271
     1
  0
XRECORD
  5
8A6E
102
{ACAD_REACTORS
330
8A6A
102
}
330
8A6A
100
AcDbXrecord
280
     1
270
     1
271
     1
  0
XRECORD
  5
8A70
102
{ACAD_REACTORS
330
8A6A
102
}
330
8A6A
100
AcDbXrecord
280
     1
270
     1
271
     1
  0
XRECORD
  5
8A6D
102
{ACAD_REACTORS
330
8A6A
102
}
330
8A6A
100
AcDbXrecord
280
     1
270
     1
271
     1
  0
XRECORD
  5
1C385
102
{ACAD_REACTORS
330
1C29C
102
}
330
1C29C
100
AcDbXrecord
280
     1
102
DISPLAYNAME
  1
Imperial24
102
FLAGS
 90
        0
  0
CELLSTYLEMAP
  5
1C384
102
{ACAD_REACTORS
330
8AED
102
}
330
8AED
100
AcDbCellStyleMap
 90
        3
300
CELLSTYLE
  1
TABLEFORMAT_BEGIN
 90
        5
170
     1
 91
        0
 92
    32768
 62
   257
 93
        1
300
CONTENTFORMAT
  1
CONTENTFORMAT_BEGIN
 90
        0
 91
        0
 92
      512
 93
        0
300

 40
0.0
140
1.0
 94
        5
 62
     0
340
11
144
0.25
309
CONTENTFORMAT_END
171
     1
301
MARGIN
  1
CELLMARGIN_BEGIN
 40
0.06
 40
0.06
 40
0.06
 40
0.06
 40
0.18
 40
0.18
309
CELLMARGIN_END
 94
        6
 95
        1
302
GRIDFORMAT
  1
GRIDFORMAT_BEGIN
 90
        0
 91
        1
 62
     0
 92
       -2
340
0
 93
        0
 40
0.045
309
GRIDFORMAT_END
 95
        2
302
GRIDFORMAT
  1
GRIDFORMAT_BEGIN
 90
        0
 91
        1
 62
     0
 92
       -2
340
0
 93
        0
 40
0.045
309
GRIDFORMAT_END
 95
        4
302
GRIDFORMAT
  1
GRIDFORMAT_BEGIN
 90
        0
 91
        1
 62
     0
 92
       -2
340
0
 93
        0
 40
0.045
309
GRIDFORMAT_END
 95
        8
302
GRIDFORMAT
  1
GRIDFORMAT_BEGIN
 90
        0
 91
        1
 62
     0
 92
       -2
340
0
 93
        0
 40
0.045
309
GRIDFORMAT_END
 95
       16
302
GRIDFORMAT
  1
GRIDFORMAT_BEGIN
 90
        0
 91
        1
 62
     0
 92
       -2
340
0
 93
        0
 40
0.045
309
GRIDFORMAT_END
 95
       32
302
GRIDFORMAT
  1
GRIDFORMAT_BEGIN
 90
        0
 91
        1
 62
     0
 92
       -2
340
0
 93
        0
 40
0.045
309
GRIDFORMAT_END
309
TABLEFORMAT_END
  1
CELLSTYLE_BEGIN
 90
        1
 91
        1
300
_TITLE
309
CELLSTYLE_END
300
CELLSTYLE
  1
TABLEFORMAT_BEGIN
 90
        5
170
     1
 91
        0
 92
        0
 62
   257
 93
        1
300
CONTENTFORMAT
  1
CONTENTFORMAT_BEGIN
 90
        0
 91
        0
 92
      512
 93
        0
300

 40
0.0
140
1.0
 94
        5
 62
     0
340
11
144
0.18
309
CONTENTFORMAT_END
171
     1
301
MARGIN
  1
CELLMARGIN_BEGIN
 40
0.06
 40
0.06
 40
0.06
 40
0.06
 40
0.18
 40
0.18
309
CELLMARGIN_END
 94
        6
 95
        1
302
GRIDFORMAT
  1
GRIDFORMAT_BEGIN
 90
        0
 91
        1
 62
     0
 92
       -2
340
0
 93
        0
 40
0.045
309
GRIDFORMAT_END
 95
        2
302
GRIDFORMAT
  1
GRIDFORMAT_BEGIN
 90
        0
 91
        1
 62
     0
 92
       -2
340
0
 93
        0
 40
0.045
309
GRIDFORMAT_END
 95
        4
302
GRIDFORMAT
  1
GRIDFORMAT_BEGIN
 90
        0
 91
        1
 62
     0
 92
       -2
340
0
 93
        0
 40
0.045
309
GRIDFORMAT_END
 95
        8
302
GRIDFORMAT
  1
GRIDFORMAT_BEGIN
 90
        0
 91
        1
 62
     0
 92
       -2
340
0
 93
        0
 40
0.045
309
GRIDFORMAT_END
 95
       16
302
GRIDFORMAT
  1
GRIDFORMAT_BEGIN
 90
        0
 91
        1
 62
     0
 92
       -2
340
0
 93
        0
 40
0.045
309
GRIDFORMAT_END
 95
       32
302
GRIDFORMAT
  1
GRIDFORMAT_BEGIN
 90
        0
 91
        1
 62
     0
 92
       -2
340
0
 93
        0
 40
0.045
309
GRIDFORMAT_END
309
TABLEFORMAT_END
  1
CELLSTYLE_BEGIN
 90
        2
 91
        1
300
_HEADER
309
CELLSTYLE_END
300
CELLSTYLE
  1
TABLEFORMAT_BEGIN
 90
        5
170
     1
 91
        0
 92
        0
 62
   257
 93
        1
300
CONTENTFORMAT
  1
CONTENTFORMAT_BEGIN
 90
        0
 91
        0
 92
      512
 93
        0
300

 40
0.0
140
1.0
 94
        2
 62
     0
340
11
144
0.18
309
CONTENTFORMAT_END
171
     1
301
MARGIN
  1
CELLMARGIN_BEGIN
 40
0.06
 40
0.06
 40
0.06
 40
0.06
 40
0.18
 40
0.18
309
CELLMARGIN_END
 94
        6
 95
        1
302
GRIDFORMAT
  1
GRIDFORMAT_BEGIN
 90
        0
 91
        1
 62
     0
 92
       -2
340
0
 93
        0
 40
0.045
309
GRIDFORMAT_END
 95
        2
302
GRIDFORMAT
  1
GRIDFORMAT_BEGIN
 90
        0
 91
        1
 62
     0
 92
       -2
340
0
 93
        0
 40
0.045
309
GRIDFORMAT_END
 95
        4
302
GRIDFORMAT
  1
GRIDFORMAT_BEGIN
 90
        0
 91
        1
 62
     0
 92
       -2
340
0
 93
        0
 40
0.045
309
GRIDFORMAT_END
 95
        8
302
GRIDFORMAT
  1
GRIDFORMAT_BEGIN
 90
        0
 91
        1
 62
     0
 92
       -2
340
0
 93
        0
 40
0.045
309
GRIDFORMAT_END
 95
       16
302
GRIDFORMAT
  1
GRIDFORMAT_BEGIN
 90
        0
 91
        1
 62
     0
 92
       -2
340
0
 93
        0
 40
0.045
309
GRIDFORMAT_END
 95
       32
302
GRIDFORMAT
  1
GRIDFORMAT_BEGIN
 90
        0
 91
        1
 62
     0
 92
       -2
340
0
 93
        0
 40
0.045
309
GRIDFORMAT_END
309
TABLEFORMAT_END
  1
CELLSTYLE_BEGIN
 90
        3
 91
        2
300
_DATA
309
CELLSTYLE_END
  0
ENDSEC
  0
SECTION
  2
ACDSDATA
 70
     2
 71
     6
  0
ACDSSCHEMA
 90
        0
  1
AcDb_Thumbnail_Schema
  2
AcDbDs::ID
280
    10
 91
        8
  2
Thumbnail_Data
280
    15
 91
        0
101
ACDSRECORD
 95
        0
 90
        1
  2
AcDbDs::TreatedAsObjectData
280
     1
291
     1
101
ACDSRECORD
 95
        0
 90
        2
  2
AcDbDs::Legacy
280
     1
291
     1
101
ACDSRECORD
  1
AcDbDs::ID
 90
        3
  2
AcDs:Indexable
280
     1
291
     1
101
ACDSRECORD
  1
AcDbDs::ID
 90
        4
  2
AcDbDs::HandleAttribute
280
     7
282
     1
  0
ACDSSCHEMA
 90
        1
  1
AcDbDs::TreatedAsObjectDataSchema
  2
AcDbDs::TreatedAsObjectData
280
     1
 91
        0
  0
ACDSSCHEMA
 90
        2
  1
AcDbDs::LegacySchema
  2
AcDbDs::Legacy
280
     1
 91
        0
  0
ACDSSCHEMA
 90
        3
  1
AcDbDs::IndexedPropertySchema
  2
AcDs:Indexable
280
     1
 91
        0
  0
ACDSSCHEMA
 90
        4
  1
AcDbDs::HandleAttributeSchema
  2
AcDbDs::HandleAttribute
280
     7
 91
        1
284
     1
  0
ACDSRECORD
 90
        0
  2
AcDbDs::ID
280
    10
320
8A4C
  2
Thumbnail_Data
280
    15
 94
     1789
310
89504E470D0A1A0A0000000D49484452000001000000008808030000003F38C55500000300504C5445000000000000FFFFFF0000000000000000000000000000000000000000000000000000330000660000990000CC0000FF0033000033330033660033990033CC0033FF0066000066330066660066990066CC0066FF0099
310
000099330099660099990099CC0099FF00CC0000CC3300CC6600CC9900CCCC00CCFF00FF0000FF3300FF6600FF9900FFCC00FFFF3300003300333300663300993300CC3300FF3333003333333333663333993333CC3333FF3366003366333366663366993366CC3366FF3399003399333399663399993399CC3399FF33CC00
310
33CC3333CC6633CC9933CCCC33CCFF33FF0033FF3333FF6633FF9933FFCC33FFFF6600006600336600666600996600CC6600FF6633006633336633666633996633CC6633FF6666006666336666666666996666CC6666FF6699006699336699666699996699CC6699FF66CC0066CC3366CC6666CC9966CCCC66CCFF66FF0066
310
FF3366FF6666FF9966FFCC66FFFF9900009900339900669900999900CC9900FF9933009933339933669933999933CC9933FF9966009966339966669966999966CC9966FF9999009999339999669999999999CC9999FF99CC0099CC3399CC6699CC9999CCCC99CCFF99FF0099FF3399FF6699FF9999FFCC99FFFFCC0000CC00
310
33CC0066CC0099CC00CCCC00FFCC3300CC3333CC3366CC3399CC33CCCC33FFCC6600CC6633CC6666CC6699CC66CCCC66FFCC9900CC9933CC9966CC9999CC99CCCC99FFCCCC00CCCC33CCCC66CCCC99CCCCCCCCCCFFCCFF00CCFF33CCFF66CCFF99CCFFCCCCFFFFFF0000FF0033FF0066FF0099FF00CCFF00FFFF3300FF3333
310
FF3366FF3399FF33CCFF33FFFF6600FF6633FF6666FF6699FF66CCFF66FFFF9900FF9933FF9966FF9999FF99CCFF99FFFFCC00FFCC33FFCC66FFCC99FFCCCCFFCCFFFFFF00FFFF33FFFF66FFFF99FFFFCCFFFFFF0000000D0D0D1A1A1A2828283535354343435050505D5D5D6B6B6B787878868686939393A1A1A1AEAEAEBB
310
BBBBC9C9C9D6D6D6E4E4E4F1F1F1FFFFFF000000000000000000000000000000000000000000000000000000000000C11FEF66000003B84944415478DAED9D4B92E3200C86FB065C838DEFBFCB866B78C509FE0DFBE169037E74BA335393FC922AC60971BB8A0F098484D35F5EB87C290005A00014800250000A4001280005
310
A0001480025000AFC9F217E4B301BCC52D14C05B00005A21130062DB91442C80EEB89090A494F1CC0420753B62CBD0CB0580C009204958D7AEF992006003109A095C03A03481C2A034EB3B00841A90BB3FAA7F6C53ECDF35B7ED743260D5803CFDAD49FF5DF06BB1836B00811640C800823C0068F61F822B0ABEF9055206C1
310
A802C5FE13001FE40D82A96DF16523002BD10F48ED35BDDC7A82BE165C7E403DB9FAE9472B2205A000F800C88B07280005A00014806C002FE47A3822422FA4BA7832434B3481E5B55B280005F0D1007E97EB66CA0EBB67FEC418FE69F02C1EB27F6B42F06BAC59A91CA1A8FC36362E1D5B9CECB4A343029065CDB9441E00D6
310
DA7C7C03C02FC6EF003C885C611BC700DB3EDD01D84C8008C0C115C66108E834A013B02E8670395D10036843BF5000D9A02115409AFC5B3125864A9A841E401B08F39438A406731317D100302C12880194D5600630B8C24896710E80C41374CBE2F2E1D2D90DB9D1B483CE217F596431A9E4023069C0018067D780A3090C56
310
7E038067393C03C0930064CC020200600E87CC8E10D801D4A696596F7285E10500E8452280DBE5F02500A290D86D40240358B801C497B5F164CB44780F20C703734CD0730545978BA0E8410342DA515C9FAF200A8B974F4F004841D1B51C20F104719B182900B62FCDB667365FC601C0777EC0211C36CE02605C0B00770F8C
310
3500B56404702FF5894AB4894F26805D03BC6A805400E7238408007773840400BD0148D4807F7E8BB700F08B9F4E600380AB4D52EEB68A05808DA39BCD6789008CB1D6201EF9CDE6EB0E0FD399932A4303C07A6BA3062489E506A0EF6E73ACF2340072CB619BB4C94E0E00D30388CDAA79014100FC36005A7F0920A9455F05
310
300118FAF514002600100600D395203301057006E0B14B5D07A52BF7CF86252C7E0960AF7E98DCE91940AA7AB42B15002380BA369C01F823008E31C019D78B29E6EE66015CBEF2E15AC13A066CAEF0A801389A00EB20D816433A082A00E10070EA08418E23846EE9B74F836986D87D6505A0008803227200D84E2402D882A2
310
1883A28234A086C53186C5E5006889118C8991EE7706C19B18690A8FD6AFBBE0FA2D26869F0DA0B6EB90FCAFBBE80F00FA070A78F6079CEC7E38DF1A34EE95A206F0D35B7C3680FF770B05F0C600A61F113EA9FA7000D2FFCFD0278A0250000A4001280005A00014800250000A40012800052050FE00F5CF3A6B13E9231F00
310
00000049454E44AE426082
  0
ENDSEC
  0
EOF
