  0
SECTION
  2
HEADER
  9
$ACADVER
  1
AC1027
  9
$ACADMAINTVER
 70
    55
  9
$DWGCODEPAGE
  3
ANSI_932
  9
$LASTSAVEDBY
  1
marketing
  9
$REQUIREDVERSIONS
160
                 0
  9
$INSBASE
 10
0.0
 20
0.0
 30
0.0
  9
$EXTMIN
 10
-0.0221737342690176
 20
-0.1128295549060567
 30
-0.0000000349181948
  9
$EXTMAX
 10
840.0693616355207
 20
1305.702322809207
 30
0.0000000814935747
  9
$LIMMIN
 10
-296.316999476111
 20
-370.7034300441653
  9
$LIMMAX
 10
623.3128432133979
 20
328.6261559379898
  9
$ORTHOMODE
 70
     1
  9
$REGENMODE
 70
     1
  9
$FILLMODE
 70
     1
  9
$QTEXTMODE
 70
     0
  9
$MIRRTEXT
 70
     1
  9
$LTSCALE
 40
10.0
  9
$ATTMODE
 70
     1
  9
$TEXTSIZE
 40
5.0
  9
$TRACEWID
 40
0.05
  9
$TEXTSTYLE
  7
STANDARD1
  9
$CLAYER
  8
30
  9
$CELTYPE
  6
BYLAYER
  9
$CECOLOR
 62
   256
  9
$CELTSCALE
 40
1.0
  9
$DISPSILH
 70
     0
  9
$DIMSCALE
 40
1.0
  9
$DIMASZ
 40
2.0
  9
$DIMEXO
 40
1.0
  9
$DIMDLI
 40
0.5
  9
$DIMRND
 40
0.0
  9
$DIMDLE
 40
0.0
  9
$DIMEXE
 40
0.5
  9
$DIMTP
 40
0.0
  9
$DIMTM
 40
0.0
  9
$DIMTXT
 40
8.0
  9
$DIMCEN
 40
0.09
  9
$DIMTSZ
 40
0.0
  9
$DIMTOL
 70
     0
  9
$DIMLIM
 70
     0
  9
$DIMTIH
 70
     0
  9
$DIMTOH
 70
     0
  9
$DIMSE1
 70
     0
  9
$DIMSE2
 70
     0
  9
$DIMTAD
 70
     3
  9
$DIMZIN
 70
    12
  9
$DIMBLK
  1
OPEN
  9
$DIMASO
 70
     1
  9
$DIMSHO
 70
     1
  9
$DIMPOST
  1

  9
$DIMAPOST
  1

  9
$DIMALT
 70
     0
  9
$DIMALTD
 70
     2
  9
$DIMALTF
 40
25.4
  9
$DIMLFAC
 40
1.0
  9
$DIMTOFL
 70
     0
  9
$DIMTVP
 40
0.0
  9
$DIMTIX
 70
     0
  9
$DIMSOXD
 70
     0
  9
$DIMSAH
 70
     0
  9
$DIMBLK1
  1

  9
$DIMBLK2
  1

  9
$DIMSTYLE
  2
STANDARD
  9
$DIMCLRD
 70
     0
  9
$DIMCLRE
 70
     0
  9
$DIMCLRT
 70
   256
  9
$DIMTFAC
 40
1.0
  9
$DIMGAP
 40
3.0
  9
$DIMJUST
 70
     0
  9
$DIMSD1
 70
     0
  9
$DIMSD2
 70
     0
  9
$DIMTOLJ
 70
     1
  9
$DIMTZIN
 70
     0
  9
$DIMALTZ
 70
     0
  9
$DIMALTTZ
 70
     0
  9
$DIMUPT
 70
     0
  9
$DIMDEC
 70
     1
  9
$DIMTDEC
 70
     1
  9
$DIMALTU
 70
     2
  9
$DIMALTTD
 70
     2
  9
$DIMTXSTY
  7
STANDARD
  9
$DIMAUNIT
 70
     0
  9
$DIMADEC
 70
     0
  9
$DIMALTRND
 40
0.0
  9
$DIMAZIN
 70
     0
  9
$DIMDSEP
 70
    46
  9
$DIMATFIT
 70
     3
  9
$DIMFRAC
 70
     0
  9
$DIMLDRBLK
  1
OPEN
  9
$DIMLUNIT
 70
     2
  9
$DIMLWD
 70
    -2
  9
$DIMLWE
 70
    -2
  9
$DIMTMOVE
 70
     0
  9
$DIMFXL
 40
1.0
  9
$DIMFXLON
 70
     0
  9
$DIMJOGANG
 40
0.7853981633974483
  9
$DIMTFILL
 70
     1
  9
$DIMTFILLCLR
 70
     0
  9
$DIMARCSYM
 70
     0
  9
$DIMLTYPE
  6

  9
$DIMLTEX1
  6

  9
$DIMLTEX2
  6

  9
$DIMTXTDIRECTION
 70
     0
  9
$LUNITS
 70
     2
  9
$LUPREC
 70
     4
  9
$SKETCHINC
 40
0.1
  9
$FILLETRAD
 40
0.0
  9
$AUNITS
 70
     0
  9
$AUPREC
 70
     0
  9
$MENU
  1
.
  9
$ELEVATION
 40
0.0
  9
$PELEVATION
 40
0.0
  9
$THICKNESS
 40
0.0
  9
$LIMCHECK
 70
     0
  9
$CHAMFERA
 40
0.0
  9
$CHAMFERB
 40
0.0
  9
$CHAMFERC
 40
0.0
  9
$CHAMFERD
 40
0.0
  9
$SKPOLY
 70
     0
  9
$TDCREATE
 40
2452286.555658658
  9
$TDUCREATE
 40
2452286.180658658
  9
$TDUPDATE
 40
2459244.408176412
  9
$TDUUPDATE
 40
2459244.033176412
  9
$TDINDWG
 40
1.9197684375
  9
$TDUSRTIMER
 40
1.9197658102
  9
$USRTIMER
 70
     1
  9
$ANGBASE
 50
0.0
  9
$ANGDIR
 70
     0
  9
$PDMODE
 70
     0
  9
$PDSIZE
 40
0.0
  9
$PLINEWID
 40
0.0
  9
$SPLFRAME
 70
     0
  9
$SPLINETYPE
 70
     6
  9
$SPLINESEGS
 70
     8
  9
$HANDSEED
  5
1C40E
  9
$SURFTAB1
 70
     6
  9
$SURFTAB2
 70
     6
  9
$SURFTYPE
 70
     6
  9
$SURFU
 70
     6
  9
$SURFV
 70
     6
  9
$UCSBASE
  2

  9
$UCSNAME
  2

  9
$UCSORG
 10
0.0
 20
0.0
 30
0.0
  9
$UCSXDIR
 10
1.0
 20
0.0
 30
0.0
  9
$UCSYDIR
 10
0.0
 20
1.0
 30
0.0
  9
$UCSORTHOREF
  2

  9
$UCSORTHOVIEW
 70
     0
  9
$UCSORGTOP
 10
0.0
 20
0.0
 30
0.0
  9
$UCSORGBOTTOM
 10
0.0
 20
0.0
 30
0.0
  9
$UCSORGLEFT
 10
0.0
 20
0.0
 30
0.0
  9
$UCSORGRIGHT
 10
0.0
 20
0.0
 30
0.0
  9
$UCSORGFRONT
 10
0.0
 20
0.0
 30
0.0
  9
$UCSORGBACK
 10
0.0
 20
0.0
 30
0.0
  9
$PUCSBASE
  2

  9
$PUCSNAME
  2

  9
$PUCSORG
 10
0.0
 20
0.0
 30
0.0
  9
$PUCSXDIR
 10
1.0
 20
0.0
 30
0.0
  9
$PUCSYDIR
 10
0.0
 20
1.0
 30
0.0
  9
$PUCSORTHOREF
  2

  9
$PUCSORTHOVIEW
 70
     0
  9
$PUCSORGTOP
 10
0.0
 20
0.0
 30
0.0
  9
$PUCSORGBOTTOM
 10
0.0
 20
0.0
 30
0.0
  9
$PUCSORGLEFT
 10
0.0
 20
0.0
 30
0.0
  9
$PUCSORGRIGHT
 10
0.0
 20
0.0
 30
0.0
  9
$PUCSORGFRONT
 10
0.0
 20
0.0
 30
0.0
  9
$PUCSORGBACK
 10
0.0
 20
0.0
 30
0.0
  9
$USERI1
 70
     0
  9
$USERI2
 70
     0
  9
$USERI3
 70
     0
  9
$USERI4
 70
     0
  9
$USERI5
 70
     0
  9
$USERR1
 40
0.0
  9
$USERR2
 40
0.0
  9
$USERR3
 40
0.0
  9
$USERR4
 40
0.0
  9
$USERR5
 40
0.0
  9
$WORLDVIEW
 70
     1
  9
$SHADEDGE
 70
     3
  9
$SHADEDIF
 70
    70
  9
$TILEMODE
 70
     1
  9
$MAXACTVP
 70
    48
  9
$PINSBASE
 10
0.0
 20
0.0
 30
0.0
  9
$PLIMCHECK
 70
     0
  9
$PEXTMIN
 10
4.273573
 20
5.205245999999998
 30
0.0
  9
$PEXTMAX
 10
194.610095
 20
283.0697009999996
 30
0.0
  9
$PLIMMIN
 10
-5.873749
 20
-5.87375
  9
$PLIMMAX
 10
204.099579
 20
291.1369009999999
  9
$UNITMODE
 70
     0
  9
$VISRETAIN
 70
     1
  9
$PLINEGEN
 70
     0
  9
$PSLTSCALE
 70
     1
  9
$TREEDEPTH
 70
  3020
  9
$CMLSTYLE
  2
STANDARD
  9
$CMLJUST
 70
     0
  9
$CMLSCALE
 40
1.0
  9
$PROXYGRAPHICS
 70
     1
  9
$MEASUREMENT
 70
     0
  9
$CELWEIGHT
370
    -1
  9
$ENDCAPS
280
     0
  9
$JOINSTYLE
280
     0
  9
$LWDISPLAY
290
     0
  9
$INSUNITS
 70
     0
  9
$HYPERLINKBASE
  1

  9
$STYLESHEET
  1
MONOCHROME.CTB
  9
$XEDIT
290
     1
  9
$CEPSNTYPE
380
     0
  9
$PSTYLEMODE
290
     1
  9
$FINGERPRINTGUID
  2

  9
$VERSIONGUID
  2
{FC6FEA99-BEAF-4C35-AF69-D9A2E0EDB7EA}
  9
$EXTNAMES
290
     1
  9
$PSVPSCALE
 40
0.0
  9
$OLESTARTUP
290
     0
  9
$SORTENTS
280
   127
  9
$INDEXCTL
280
     0
  9
$HIDETEXT
280
     0
  9
$XCLIPFRAME
280
     2
  9
$HALOGAP
280
     0
  9
$OBSCOLOR
 70
   257
  9
$OBSLTYPE
280
     0
  9
$INTERSECTIONDISPLAY
280
     0
  9
$INTERSECTIONCOLOR
 70
   257
  9
$DIMASSOC
280
     1
  9
$PROJECTNAME
  1

  9
$CAMERADISPLAY
290
     0
  9
$LENSLENGTH
 40
50.0
  9
$CAMERAHEIGHT
 40
0.0
  9
$STEPSPERSEC
 40
2.0
  9
$STEPSIZE
 40
6.0
  9
$3DDWFPREC
 40
2.0
  9
$PSOLWIDTH
 40
0.25
  9
$PSOLHEIGHT
 40
4.0
  9
$LOFTANG1
 40
1.570796326794896
  9
$LOFTANG2
 40
1.570796326794896
  9
$LOFTMAG1
 40
0.0
  9
$LOFTMAG2
 40
0.0
  9
$LOFTPARAM
 70
     7
  9
$LOFTNORMALS
280
     1
  9
$LATITUDE
 40
37.795
  9
$LONGITUDE
 40
-122.394
  9
$NORTHDIRECTION
 40
0.0
  9
$TIMEZONE
 70
 -8000
  9
$LIGHTGLYPHDISPLAY
280
     1
  9
$TILEMODELIGHTSYNCH
280
     1
  9
$CMATERIAL
347
8A59
  9
$SOLIDHIST
280
     0
  9
$SHOWHIST
280
     1
  9
$DWFFRAME
280
     2
  9
$DGNFRAME
280
     0
  9
$REALWORLDSCALE
290
     1
  9
$INTERFERECOLOR
 62
     1
  9
$INTERFEREOBJVS
345
8A7B
  9
$INTERFEREVPVS
346
8A78
  9
$CSHADOW
280
     0
  9
$SHADOWPLANELOCATION
 40
0.0
  0
ENDSEC
  0
SECTION
  2
CLASSES
  0
CLASS
  1
ACDBDICTIONARYWDFLT
  2
AcDbDictionaryWithDefault
  3
ObjectDBX Classes
 90
        0
 91
        1
280
     0
281
     0
  0
CLASS
  1
DICTIONARYVAR
  2
AcDbDictionaryVar
  3
ObjectDBX Classes
 90
        0
 91
       10
280
     0
281
     0
  0
CLASS
  1
MATERIAL
  2
AcDbMaterial
  3
ObjectDBX Classes
 90
     1153
 91
        3
280
     0
281
     0
  0
CLASS
  1
VISUALSTYLE
  2
AcDbVisualStyle
  3
ObjectDBX Classes
 90
     4095
 91
       26
280
     0
281
     0
  0
CLASS
  1
TABLESTYLE
  2
AcDbTableStyle
  3
ObjectDBX Classes
 90
     4095
 91
        1
280
     0
281
     0
  0
CLASS
  1
SCALE
  2
AcDbScale
  3
ObjectDBX Classes
 90
     1153
 91
       17
280
     0
281
     0
  0
CLASS
  1
MLEADERSTYLE
  2
AcDbMLeaderStyle
  3
ACDB_MLEADERSTYLE_CLASS
 90
     4095
 91
        1
280
     0
281
     0
  0
CLASS
  1
ACDBSECTIONVIEWSTYLE
  2
AcDbSectionViewStyle
  3
ObjectDBX Classes
 90
     1025
 91
        1
280
     0
281
     0
  0
CLASS
  1
ACDBDETAILVIEWSTYLE
  2
AcDbDetailViewStyle
  3
ObjectDBX Classes
 90
     1025
 91
        1
280
     0
281
     0
  0
CLASS
  1
CELLSTYLEMAP
  2
AcDbCellStyleMap
  3
ObjectDBX Classes
 90
     1152
 91
        2
280
     0
281
     0
  0
CLASS
  1
AEC_REFEDIT_STATUS_TRACKER
  2
AecDbRefEditStatusTracker
  3
AecArchBase70|Product Desc: Autodesk Architectural Desktop 2007 |Company: Autodesk,Inc. |WEB Address: www.autodesk.com
 90
      129
 91
        0
280
     0
281
     0
  0
CLASS
  1
NPOCOLLECTION
  2
AcDbImpNonPersistentObjectsCollection
  3
ObjectDBX Classes
 90
     1153
 91
        0
280
     0
281
     0
  0
CLASS
  1
SORTENTSTABLE
  2
AcDbSortentsTable
  3
ObjectDBX Classes
 90
        0
 91
        3
280
     0
281
     0
  0
ENDSEC
  0
SECTION
  2
TABLES
  0
TABLE
  2
VPORT
  5
8
330
0
100
AcDbSymbolTable
 70
     1
  0
VPORT
  5
8A51
330
8
100
AcDbSymbolTableRecord
100
AcDbViewportTableRecord
  2
*Active
 70
     0
 10
0.0
 20
0.0
 11
1.0
 21
1.0
 12
420.023593950626
 22
652.7947466271506
 13
0.0
 23
0.0
 14
1.0
 24
1.0
 15
10.0
 25
10.0
 16
0.0
 26
0.0
 36
1.0
 17
0.0
 27
0.0
 37
0.0
 40
1315.254779971565
 41
2.289505428226779
 42
50.0
 43
0.0
 44
0.0
 50
0.0
 51
0.0
 71
     0
 72
   100
 73
     1
 74
     1
 75
     0
 76
     0
 77
     0
 78
     0
281
     0
 65
     1
110
0.0
120
0.0
130
0.0
111
1.0
121
0.0
131
0.0
112
0.0
122
1.0
132
0.0
 79
     0
146
0.0
348
8A77
 60
     3
 61
     5
292
     1
282
     1
141
0.0
142
0.0
 63
   250
421
  3355443
1001
ACAD_NAV_VCDISPLAY
1070
     3
  0
ENDTAB
  0
TABLE
  2
LTYPE
  5
5
330
0
100
AcDbSymbolTable
 70
    14
  0
LTYPE
  5
13
330
5
100
AcDbSymbolTableRecord
100
AcDbLinetypeTableRecord
  2
BYBLOCK
 70
     0
  3

 72
    65
 73
     0
 40
0.0
  0
LTYPE
  5
14
330
5
100
AcDbSymbolTableRecord
100
AcDbLinetypeTableRecord
  2
BYLAYER
 70
     0
  3

 72
    65
 73
     0
 40
0.0
  0
LTYPE
  5
15
330
5
100
AcDbSymbolTableRecord
100
AcDbLinetypeTableRecord
  2
CONTINUOUS
 70
     0
  3
Solid line
 72
    65
 73
     0
 40
0.0
  0
LTYPE
  5
22
330
5
100
AcDbSymbolTableRecord
100
AcDbLinetypeTableRecord
  2
CONTINOUS
 70
     0
  3
Solid line
 72
    65
 73
     0
 40
0.0
  0
LTYPE
  5
23
330
5
100
AcDbSymbolTableRecord
100
AcDbLinetypeTableRecord
  2
DASHED
 70
     0
  3
__ __ __ __ __ __ __ __ __ __ __ __ __ __ __
 72
    65
 73
     2
 40
0.75
 49
0.5
 74
     0
 49
-0.25
 74
     0
  0
LTYPE
  5
24
330
5
100
AcDbSymbolTableRecord
100
AcDbLinetypeTableRecord
  2
DASHDOT
 70
     0
  3
__ . __ . __ . __ . __ . __ . __ . __ . __ . __
 72
    65
 73
     4
 40
1.0
 49
0.5
 74
     0
 49
-0.25
 74
     0
 49
0.0
 74
     0
 49
-0.25
 74
     0
  0
LTYPE
  5
4C47
330
5
100
AcDbSymbolTableRecord
100
AcDbLinetypeTableRecord
  2
DIVIDE
 70
     0
  3
Divide ____ . . ____ . . ____ . . ____ . . ____
 72
    65
 73
     6
 40
1.25
 49
0.5
 74
     0
 49
-0.25
 74
     0
 49
0.0
 74
     0
 49
-0.25
 74
     0
 49
0.0
 74
     0
 49
-0.25
 74
     0
  0
LTYPE
  5
912E
330
5
100
AcDbSymbolTableRecord
100
AcDbLinetypeTableRecord
  2
SLD-実線
 70
     0
  3
SolidWorks Line Style
 72
    65
 73
     0
 40
0.0
  0
LTYPE
  5
912F
330
5
100
AcDbSymbolTableRecord
100
AcDbLinetypeTableRecord
  2
SLD-破線
 70
     0
  3
SolidWorks Line Style
 72
    65
 73
     2
 40
1.905
 49
1.27
 74
     0
 49
-0.635
 74
     0
  0
LTYPE
  5
9130
330
5
100
AcDbSymbolTableRecord
100
AcDbLinetypeTableRecord
  2
SLD-2点鎖線
 70
     0
  3
SolidWorks Line Style
 72
    65
 73
     6
 40
12.7
 49
6.349999999999997
 74
     0
 49
-1.27
 74
     0
 49
1.27
 74
     0
 49
-1.27
 74
     0
 49
1.27
 74
     0
 49
-1.27
 74
     0
  0
LTYPE
  5
1391B
330
5
100
AcDbSymbolTableRecord
100
AcDbLinetypeTableRecord
  2
CENTER
 70
     0
  3
Center ____ _ ____ _ ____ _ ____ _ ____ _ ____
 72
    65
 73
     4
 40
50.8
 49
31.75
 74
     0
 49
-6.349999999999997
 74
     0
 49
6.349999999999997
 74
     0
 49
-6.349999999999997
 74
     0
  0
LTYPE
  5
16BB0
330
5
100
AcDbSymbolTableRecord
100
AcDbLinetypeTableRecord
  2
PHANTOM
 70
     0
  3
Phantom ______  __  __  ______  __  __  ______
 72
    65
 73
     6
 40
2.5
 49
1.25
 74
     0
 49
-0.25
 74
     0
 49
0.25
 74
     0
 49
-0.25
 74
     0
 49
0.25
 74
     0
 49
-0.25
 74
     0
  0
LTYPE
  5
16BB1
330
5
100
AcDbSymbolTableRecord
100
AcDbLinetypeTableRecord
  2
SLD-鎖線
 70
     0
  3
SolidWorks Line Style
 72
    65
 73
     4
 40
10.16
 49
6.349999999999997
 74
     0
 49
-1.27
 74
     0
 49
1.27
 74
     0
 49
-1.27
 74
     0
  0
LTYPE
  5
16BB2
330
5
100
AcDbSymbolTableRecord
100
AcDbLinetypeTableRecord
  2
SLD-1点鎖線(中心線)
 70
     0
  3
SolidWorks Line Style
 72
    65
 73
     4
 40
34.29
 49
30.48
 74
     0
 49
-1.27
 74
     0
 49
1.27
 74
     0
 49
-1.27
 74
     0
  0
LTYPE
  5
16BB3
330
5
100
AcDbSymbolTableRecord
100
AcDbLinetypeTableRecord
  2
HIDDEN
 70
     0
  3
Hidden __ __ __ __ __ __ __ __ __ __ __ __ __ __
 72
    65
 73
     2
 40
0.375
 49
0.25
 74
     0
 49
-0.125
 74
     0
  0
ENDTAB
  0
TABLE
  2
LAYER
  5
2
102
{ACAD_XDICTIONARY
360
F3CC
102
}
330
0
100
AcDbSymbolTable
 70
    23
  0
LAYER
  5
10
102
{ACAD_XDICTIONARY
360
8ACC
102
}
330
2
100
AcDbSymbolTableRecord
100
AcDbLayerTableRecord
  2
0
 70
     0
 62
     7
  6
CONTINOUS
370
    -3
390
F
347
8A69
348
0
  0
LAYER
  5
2F
102
{ACAD_XDICTIONARY
360
8ACE
102
}
330
2
100
AcDbSymbolTableRecord
100
AcDbLayerTableRecord
  2
10
 70
     0
 62
     4
  6
CONTINOUS
370
    -3
390
F
347
8A69
348
0
  0
LAYER
  5
31
102
{ACAD_XDICTIONARY
360
8AD0
102
}
330
2
100
AcDbSymbolTableRecord
100
AcDbLayerTableRecord
  2
12
 70
     0
 62
     3
  6
CONTINOUS
370
    -3
390
F
347
8A69
348
0
  0
LAYER
  5
35
102
{ACAD_XDICTIONARY
360
8AD2
102
}
330
2
100
AcDbSymbolTableRecord
100
AcDbLayerTableRecord
  2
16
 70
     0
 62
     6
  6
DASHDOT
370
    -3
390
F
347
8A69
348
0
  0
LAYER
  5
38
102
{ACAD_XDICTIONARY
360
8AD4
102
}
330
2
100
AcDbSymbolTableRecord
100
AcDbLayerTableRecord
  2
19
 70
     0
 62
     7
  6
CONTINOUS
370
    -3
390
F
347
8A69
348
0
  0
LAYER
  5
3D
102
{ACAD_XDICTIONARY
360
8AD6
102
}
330
2
100
AcDbSymbolTableRecord
100
AcDbLayerTableRecord
  2
24
 70
     0
 62
     7
  6
CONTINOUS
370
    -3
390
F
347
8A69
348
0
  0
LAYER
  5
3A2
102
{ACAD_XDICTIONARY
360
8AD8
102
}
330
2
100
AcDbSymbolTableRecord
100
AcDbLayerTableRecord
  2
30
 70
     0
 62
     9
  6
CONTINUOUS
370
    -3
390
F
347
8A69
348
0
  0
LAYER
  5
3A4
330
2
100
AcDbSymbolTableRecord
100
AcDbLayerTableRecord
  2
DEFPOINTS
 70
     0
 62
     7
  6
CONTINUOUS
290
     0
370
    -3
390
F
347
8A69
348
0
  0
LAYER
  5
3BBA
102
{ACAD_XDICTIONARY
360
8ADA
102
}
330
2
100
AcDbSymbolTableRecord
100
AcDbLayerTableRecord
  2
18
 70
     0
 62
     5
  6
DIVIDE
370
    -3
390
F
347
8A69
348
0
  0
LAYER
  5
67A8
102
{ACAD_XDICTIONARY
360
8ADC
102
}
330
2
100
AcDbSymbolTableRecord
100
AcDbLayerTableRecord
  2
11
 70
     0
 62
     1
  6
CONTINOUS
370
    -3
390
F
347
8A69
348
0
  0
LAYER
  5
7837
102
{ACAD_XDICTIONARY
360
8ADE
102
}
330
2
100
AcDbSymbolTableRecord
100
AcDbLayerTableRecord
  2
17
 70
     0
 62
     2
  6
DASHDOT
370
    -3
390
F
347
8A69
348
0
  0
LAYER
  5
9133
102
{ACAD_XDICTIONARY
360
9134
102
}
330
2
100
AcDbSymbolTableRecord
100
AcDbLayerTableRecord
  2
240
 70
     0
 62
     7
  6
SLD-実線
370
    -3
390
F
347
8A69
348
0
  0
LAYER
  5
1391C
102
{ACAD_XDICTIONARY
360
1391D
102
}
330
2
100
AcDbSymbolTableRecord
100
AcDbLayerTableRecord
  2
21
 70
     0
 62
     7
  6
CONTINUOUS
370
    -3
390
F
347
8A69
348
0
  0
LAYER
  5
16BB4
102
{ACAD_XDICTIONARY
360
16BB5
102
}
330
2
100
AcDbSymbolTableRecord
100
AcDbLayerTableRecord
  2
5
 70
     0
 62
     7
  6
CONTINUOUS
370
    -3
390
F
347
8A69
348
0
  0
LAYER
  5
16BB6
102
{ACAD_XDICTIONARY
360
16BB7
102
}
330
2
100
AcDbSymbolTableRecord
100
AcDbLayerTableRecord
  2
130
 70
     0
 62
     4
  6
CONTINUOUS
370
    -3
390
F
347
8A69
348
0
  0
LAYER
  5
16BB8
102
{ACAD_XDICTIONARY
360
16BB9
102
}
330
2
100
AcDbSymbolTableRecord
100
AcDbLayerTableRecord
  2
131
 70
     0
 62
     4
  6
PHANTOM
370
    -3
390
F
347
8A69
348
0
  0
LAYER
  5
16BBA
102
{ACAD_XDICTIONARY
360
16BBB
102
}
330
2
100
AcDbSymbolTableRecord
100
AcDbLayerTableRecord
  2
13
 70
     0
 62
     3
  6
CONTINUOUS
370
    -3
390
F
347
8A69
348
0
  0
LAYER
  5
16BBC
102
{ACAD_XDICTIONARY
360
16BBD
102
}
330
2
100
AcDbSymbolTableRecord
100
AcDbLayerTableRecord
  2
SLD-0
 70
     0
 62
     7
  6
SLD-実線
370
    -3
390
F
347
8A69
348
0
  0
LAYER
  5
16BBE
102
{ACAD_XDICTIONARY
360
16BBF
102
}
330
2
100
AcDbSymbolTableRecord
100
AcDbLayerTableRecord
  2
113
 70
     0
 62
   113
  6
CONTINUOUS
370
    -3
390
F
347
8A69
348
0
  0
LAYER
  5
16F0F
102
{ACAD_XDICTIONARY
360
16F10
102
}
330
2
100
AcDbSymbolTableRecord
100
AcDbLayerTableRecord
  2
2
 70
     0
 62
     7
  6
CONTINUOUS
370
    -3
390
F
347
8A69
348
0
  0
LAYER
  5
17470
102
{ACAD_XDICTIONARY
360
17471
102
}
330
2
100
AcDbSymbolTableRecord
100
AcDbLayerTableRecord
  2
1
 70
     0
 62
     7
  6
CONTINUOUS
370
    -3
390
F
347
8A69
348
0
  0
LAYER
  5
17472
102
{ACAD_XDICTIONARY
360
17473
102
}
330
2
100
AcDbSymbolTableRecord
100
AcDbLayerTableRecord
  2
TOP
 70
     0
 62
     7
  6
CONTINUOUS
370
    -3
390
F
347
8A69
348
0
  0
LAYER
  5
17E9F
102
{ACAD_XDICTIONARY
360
17EA0
102
}
330
2
100
AcDbSymbolTableRecord
100
AcDbLayerTableRecord
  2
L10_
 70
     0
 62
     7
  6
CONTINUOUS
370
    -3
390
F
347
8A69
348
0
  0
ENDTAB
  0
TABLE
  2
STYLE
  5
3
330
0
100
AcDbSymbolTable
 70
     5
  0
STYLE
  5
11
330
3
100
AcDbSymbolTableRecord
100
AcDbTextStyleTableRecord
  2
STANDARD
 70
     0
 40
0.0
 41
1.0
 50
0.0
 71
     0
 42
2.0
  3
txt.shx
  4
bigfont.shx
  0
STYLE
  5
42
330
3
100
AcDbSymbolTableRecord
100
AcDbTextStyleTableRecord
  2
STANDARD1
 70
     0
 40
0.0
 41
1.0
 50
0.0
 71
     0
 42
5.0
  3
MONOTXT
  4
BIGFONT
  0
STYLE
  5
11719
330
3
100
AcDbSymbolTableRecord
100
AcDbTextStyleTableRecord
  2
blockfont
 70
     0
 40
0.0
 41
1.0
 50
0.0
 71
     0
 42
0.2
  3
simplex.shx
  4
bigfont
  0
STYLE
  5
1171A
330
3
100
AcDbSymbolTableRecord
100
AcDbTextStyleTableRecord
  2
SLDTEXTSTYLE0
 70
     0
 40
0.0
 41
1.0
 50
0.0
 71
     0
 42
3.0
  3
MS UI Gothic.ttf
  4

1001
ACAD
1000
MS UI Gothic
1071
      306
  0
STYLE
  5
17474
330
3
100
AcDbSymbolTableRecord
100
AcDbTextStyleTableRecord
  2
UGMTXT
 70
     0
 40
0.0
 41
1.0
 50
0.0
 71
     0
 42
0.2
  3
ugmtxt
  4
bigfont
  0
ENDTAB
  0
TABLE
  2
VIEW
  5
6
330
0
100
AcDbSymbolTable
 70
     3
  0
VIEW
  5
230C
330
6
100
AcDbSymbolTableRecord
100
AcDbViewTableRecord
  2
OLE1
 70
     0
 40
148.912488
 10
429.497628
 20
2.560627
 41
103.145806
 11
0.0
 21
0.0
 31
1.0
 12
0.0
 22
0.0
 32
0.0
 42
50.0
 43
0.0
 44
0.0
 50
0.0
 71
     0
281
     0
 72
     0
 73
     0
348
8A77
  0
VIEW
  5
230E
330
6
100
AcDbSymbolTableRecord
100
AcDbViewTableRecord
  2
OLE2
 70
     0
 40
170.778692
 10
322.66497
 20
-5.978304
 41
102.467215
 11
0.0
 21
0.0
 31
1.0
 12
0.0
 22
0.0
 32
0.0
 42
50.0
 43
0.0
 44
0.0
 50
0.0
 71
     0
281
     0
 72
     0
 73
     0
348
8A77
  0
VIEW
  5
23AA
330
6
100
AcDbSymbolTableRecord
100
AcDbViewTableRecord
  2
OLE3
 70
     0
 40
591.7897389999998
 10
84.79698199999999
 20
-46.09335999999998
 41
388.792096
 11
0.0
 21
0.0
 31
1.0
 12
0.0
 22
0.0
 32
0.0
 42
50.0
 43
0.0
 44
0.0
 50
0.0
 71
     0
281
     0
 72
     0
 73
     0
348
8A77
  0
ENDTAB
  0
TABLE
  2
UCS
  5
7
330
0
100
AcDbSymbolTable
 70
     0
  0
ENDTAB
  0
TABLE
  2
APPID
  5
9
330
0
100
AcDbSymbolTable
 70
    12
  0
APPID
  5
12
330
9
100
AcDbSymbolTableRecord
100
AcDbRegAppTableRecord
  2
ACAD
 70
     0
  0
APPID
  5
ECD
330
9
100
AcDbSymbolTableRecord
100
AcDbRegAppTableRecord
  2
CONTENTBLOCKICON
 70
     0
  0
APPID
  5
8AA9
330
9
100
AcDbSymbolTableRecord
100
AcDbRegAppTableRecord
  2
ACAD_NAV_VCDISPLAY
 70
     0
  0
APPID
  5
1038A
330
9
100
AcDbSymbolTableRecord
100
AcDbRegAppTableRecord
  2
ACAD_EXEMPT_FROM_CAD_STANDARDS
 70
     0
  0
APPID
  5
10D03
330
9
100
AcDbSymbolTableRecord
100
AcDbRegAppTableRecord
  2
ACAD_PSEXT
 70
     0
  0
APPID
  5
1147C
330
9
100
AcDbSymbolTableRecord
100
AcDbRegAppTableRecord
  2
ACAD_DSTYLE_DIMJAG
 70
     0
  0
APPID
  5
1147D
330
9
100
AcDbSymbolTableRecord
100
AcDbRegAppTableRecord
  2
ACAD_DSTYLE_DIMTALN
 70
     0
  0
APPID
  5
16BC0
330
9
100
AcDbSymbolTableRecord
100
AcDbRegAppTableRecord
  2
DCO15
 70
     0
  0
APPID
  5
16BC1
330
9
100
AcDbSymbolTableRecord
100
AcDbRegAppTableRecord
  2
ACAD_MLEADERVER
 70
     0
  0
APPID
  5
16BC2
330
9
100
AcDbSymbolTableRecord
100
AcDbRegAppTableRecord
  2
ACAD_DSTYLE_DIMBREAK
 70
     0
  0
APPID
  5
17476
330
9
100
AcDbSymbolTableRecord
100
AcDbRegAppTableRecord
  2
ACAUTHENVIRON
 70
     0
  0
APPID
  5
1C1A7
330
9
100
AcDbSymbolTableRecord
100
AcDbRegAppTableRecord
  2
ACAD_DSTYLE_DIMRADIAL_EXTENSION
 70
     0
  0
ENDTAB
  0
TABLE
  2
DIMSTYLE
  5
A
330
0
100
AcDbSymbolTable
 70
     5
100
AcDbDimStyleTable
 71
     2
340
175
340
1171B
  0
DIMSTYLE
105
175
102
{ACAD_REACTORS
330
193FB
330
193FD
330
1941D
330
1941E
330
1944B
330
1944C
330
1944D
330
1944F
330
19450
330
1947D
330
194B0
330
194B1
330
194B2
330
194B3
330
194C7
330
194C8
330
194C9
330
194CA
330
19947
330
1C08F
330
1C09F
330
1C1FE
330
1C20B
102
}
330
A
100
AcDbSymbolTableRecord
100
AcDbDimStyleTableRecord
  2
STANDARD
 70
     0
 41
2.0
 42
1.0
 43
0.5
 44
0.5
 69
     1
 73
     0
 74
     0
 77
     3
 78
    12
140
8.0
147
3.0
178
   256
271
     1
272
     1
340
11
341
3B2
342
3B2
1001
ACAD_DSTYLE_DIMJAG
1070
   388
1040
1.5
1001
ACAD_DSTYLE_DIMTALN
1070
   392
1070
     0
  0
DIMSTYLE
105
1171B
102
{ACAD_REACTORS
330
194BE
330
1C1A8
102
}
330
A
100
AcDbSymbolTableRecord
100
AcDbDimStyleTableRecord
  2
STANDARD1
 70
     0
 41
2.0
 42
3.0
 43
0.5
 44
0.5
 77
     3
 78
    12
140
8.0
147
3.0
172
     1
271
     1
272
     1
289
     2
340
11
341
3B2
342
3B2
1001
ACAD_DSTYLE_DIMJAG
1070
   388
1040
1.5
1001
ACAD_DSTYLE_DIMTALN
1070
   392
1070
     0
  0
DIMSTYLE
105
16F11
330
A
100
AcDbSymbolTableRecord
100
AcDbDimStyleTableRecord
  2
SLDDIMSTYLE6
 70
     0
 41
2.0
 44
0.0
 45
0.000000001
146
2.0
147
0.0
173
     1
271
     0
272
     0
276
     2
340
11
  0
DIMSTYLE
105
17475
330
A
100
AcDbSymbolTableRecord
100
AcDbDimStyleTableRecord
  2
SLDDIMSTYLE4
 70
     0
 41
2.0
 44
0.0
 45
0.000000001
 73
     0
 74
     0
 77
     3
 78
    12
 79
     3
140
2.5
141
0.0
144
10.0
147
0.625
173
     1
271
     1
272
     1
276
     2
279
     1
284
    12
340
1171A
  0
ENDTAB
  0
TABLE
  2
BLOCK_RECORD
  5
1
330
0
100
AcDbSymbolTable
 70
    61
  0
BLOCK_RECORD
  5
1E
102
{ACAD_XDICTIONARY
360
178
102
}
330
1
100
AcDbSymbolTableRecord
100
AcDbBlockTableRecord
  2
*MODEL_SPACE
340
8A4C
 70
     0
280
     1
281
     0
  0
BLOCK_RECORD
  5
1A
102
{ACAD_XDICTIONARY
360
17A
102
}
330
1
100
AcDbSymbolTableRecord
100
AcDbBlockTableRecord
  2
*PAPER_SPACE
340
8A4D
 70
     0
280
     1
281
     0
  0
BLOCK_RECORD
  5
3B2
330
1
100
AcDbSymbolTableRecord
100
AcDbBlockTableRecord
  2
_OPEN
340
0
102
{BLKREFS
331
1C1B8
331
1C1BF
331
1C205
331
1C206
331
1C21B
331
1C21C
331
1C284
331
1C285
331
1C2B4
331
1C2B5
331
1C2BD
331
1C2BE
331
1C2C6
331
1C2C7
331
1C2CF
331
1C2D0
331
1C3AB
331
1C3AC
331
1C33F
331
1C340
331
1C348
331
1C349
331
1BF46
331
1BF47
331
1BF73
331
1BF74
331
1BF7C
331
1BF7D
331
1BF85
331
1BF86
331
1BF98
331
1BF99
331
1BFA0
331
1BFA1
331
1C062
331
1C063
331
1C074
331
1C075
331
1C0B8
331
1C0B9
331
1C1B7
331
1C3C0
331
1C3C1
331
1C3C9
331
1C3CA
331
1C3D3
331
1C3D4
331
1C3A2
331
1C3A3
331
1C375
331
1C376
331
1C2F3
331
1C2F4
331
1C2FC
331
1C2FD
331
1C3F2
331
1C3F3
331
1C404
331
1C405
102
}
 70
     0
280
     1
281
     0
  0
BLOCK_RECORD
  5
126D7
330
1
100
AcDbSymbolTableRecord
100
AcDbBlockTableRecord
  2
SW_CENTERMARKSYMBOL_9
340
0
 70
     0
280
     1
281
     0
  0
BLOCK_RECORD
  5
126E2
330
1
100
AcDbSymbolTableRecord
100
AcDbBlockTableRecord
  2
SW_CENTERMARKSYMBOL_10
340
0
 70
     0
280
     1
281
     0
  0
BLOCK_RECORD
  5
126ED
330
1
100
AcDbSymbolTableRecord
100
AcDbBlockTableRecord
  2
SW_CENTERMARKSYMBOL_11
340
0
 70
     0
280
     1
281
     0
  0
BLOCK_RECORD
  5
126F8
330
1
100
AcDbSymbolTableRecord
100
AcDbBlockTableRecord
  2
SW_CENTERMARKSYMBOL_12
340
0
 70
     0
280
     1
281
     0
  0
BLOCK_RECORD
  5
12F00
330
1
100
AcDbSymbolTableRecord
100
AcDbBlockTableRecord
  2
SW_CENTERMARKSYMBOL_20
340
0
 70
     0
280
     1
281
     0
  0
BLOCK_RECORD
  5
16972
330
1
100
AcDbSymbolTableRecord
100
AcDbBlockTableRecord
  2
_DOT
340
0
 70
     0
280
     1
281
     0
  0
BLOCK_RECORD
  5
1697A
330
1
100
AcDbSymbolTableRecord
100
AcDbBlockTableRecord
  2
SW_CENTERMARKSYMBOL_54
340
0
 70
     0
280
     1
281
     0
  0
BLOCK_RECORD
  5
16985
330
1
100
AcDbSymbolTableRecord
100
AcDbBlockTableRecord
  2
SW_CENTERMARKSYMBOL_55
340
0
 70
     0
280
     1
281
     0
  0
BLOCK_RECORD
  5
16990
102
{ACAD_XDICTIONARY
360
16991
102
}
330
1
100
AcDbSymbolTableRecord
100
AcDbBlockTableRecord
  2
m5screw1
340
0
 70
     0
280
     1
281
     0
  0
BLOCK_RECORD
  5
169C0
330
1
100
AcDbSymbolTableRecord
100
AcDbBlockTableRecord
  2
SW_CENTERMARKSYMBOL_56
340
0
 70
     0
280
     1
281
     0
  0
BLOCK_RECORD
  5
169CB
330
1
100
AcDbSymbolTableRecord
100
AcDbBlockTableRecord
  2
SW_CENTERMARKSYMBOL_57
340
0
 70
     0
280
     1
281
     0
  0
BLOCK_RECORD
  5
16D04
102
{ACAD_XDICTIONARY
360
16D05
102
}
330
1
100
AcDbSymbolTableRecord
100
AcDbBlockTableRecord
  2
A$C3F0A4506
340
0
 70
     0
280
     1
281
     0
  0
BLOCK_RECORD
  5
1709C
330
1
100
AcDbSymbolTableRecord
100
AcDbBlockTableRecord
  2
SW_CENTERMARKSYMBOL_13
340
0
 70
     0
280
     1
281
     0
  0
BLOCK_RECORD
  5
170A7
330
1
100
AcDbSymbolTableRecord
100
AcDbBlockTableRecord
  2
SW_CENTERMARKSYMBOL_14
340
0
 70
     0
280
     1
281
     0
  0
BLOCK_RECORD
  5
172BE
330
1
100
AcDbSymbolTableRecord
100
AcDbBlockTableRecord
  2
SW_CENTERMARKSYMBOL_0
340
0
 70
     0
280
     1
281
     0
  0
BLOCK_RECORD
  5
172C9
330
1
100
AcDbSymbolTableRecord
100
AcDbBlockTableRecord
  2
SW_CENTERMARKSYMBOL_1
340
0
 70
     0
280
     1
281
     0
  0
BLOCK_RECORD
  5
172D4
330
1
100
AcDbSymbolTableRecord
100
AcDbBlockTableRecord
  2
SW_CENTERMARKSYMBOL_2
340
0
 70
     0
280
     1
281
     0
  0
BLOCK_RECORD
  5
172DF
330
1
100
AcDbSymbolTableRecord
100
AcDbBlockTableRecord
  2
SW_CENTERMARKSYMBOL_3
340
0
 70
     0
280
     1
281
     0
  0
BLOCK_RECORD
  5
175B4
330
1
100
AcDbSymbolTableRecord
100
AcDbBlockTableRecord
  2
SW_CENTERMARKSYMBOL_28
340
0
 70
     0
280
     1
281
     0
  0
BLOCK_RECORD
  5
175BF
330
1
100
AcDbSymbolTableRecord
100
AcDbBlockTableRecord
  2
SW_CENTERMARKSYMBOL_36
340
0
 70
     0
280
     1
281
     0
  0
BLOCK_RECORD
  5
175CA
330
1
100
AcDbSymbolTableRecord
100
AcDbBlockTableRecord
  2
SW_CENTERMARKSYMBOL_37
340
0
 70
     0
280
     1
281
     0
  0
BLOCK_RECORD
  5
178FC
330
1
100
AcDbSymbolTableRecord
100
AcDbBlockTableRecord
  2
SW_CENTERMARKSYMBOL_27
340
0
102
{BLKREFS
331
194CC
331
194D8
102
}
 70
     0
280
     1
281
     0
  0
BLOCK_RECORD
  5
17907
330
1
100
AcDbSymbolTableRecord
100
AcDbBlockTableRecord
  2
SW_CENTERMARKSYMBOL_35
340
0
 70
     0
280
     1
281
     0
  0
BLOCK_RECORD
  5
17CD4
330
1
100
AcDbSymbolTableRecord
100
AcDbBlockTableRecord
  2
SW_CENTERMARKSYMBOL_4
340
0
102
{BLKREFS
331
194B4
102
}
 70
     0
280
     1
281
     0
  0
BLOCK_RECORD
  5
17CDF
330
1
100
AcDbSymbolTableRecord
100
AcDbBlockTableRecord
  2
SW_CENTERMARKSYMBOL_5
340
0
102
{BLKREFS
331
194B5
102
}
 70
     0
280
     1
281
     0
  0
BLOCK_RECORD
  5
17CEA
330
1
100
AcDbSymbolTableRecord
100
AcDbBlockTableRecord
  2
SW_CENTERMARKSYMBOL_6
340
0
102
{BLKREFS
331
194B6
102
}
 70
     0
280
     1
281
     0
  0
BLOCK_RECORD
  5
17CF5
330
1
100
AcDbSymbolTableRecord
100
AcDbBlockTableRecord
  2
SW_CENTERMARKSYMBOL_7
340
0
102
{BLKREFS
331
194B7
102
}
 70
     0
280
     1
281
     0
  0
BLOCK_RECORD
  5
17D00
330
1
100
AcDbSymbolTableRecord
100
AcDbBlockTableRecord
  2
SW_CENTERMARKSYMBOL_26
340
0
102
{BLKREFS
331
194CB
331
194D7
102
}
 70
     0
280
     1
281
     0
  0
BLOCK_RECORD
  5
17D0B
330
1
100
AcDbSymbolTableRecord
100
AcDbBlockTableRecord
  2
SW_CENTERMARKSYMBOL_29
340
0
 70
     0
280
     1
281
     0
  0
BLOCK_RECORD
  5
194F1
330
1
100
AcDbSymbolTableRecord
100
AcDbBlockTableRecord
  2
*D30
340
0
 70
     0
280
     1
281
     0
  0
BLOCK_RECORD
  5
1950B
330
1
100
AcDbSymbolTableRecord
100
AcDbBlockTableRecord
  2
*D31
340
0
 70
     0
280
     1
281
     0
  0
BLOCK_RECORD
  5
19517
330
1
100
AcDbSymbolTableRecord
100
AcDbBlockTableRecord
  2
*D32
340
0
 70
     0
280
     1
281
     0
  0
BLOCK_RECORD
  5
19523
330
1
100
AcDbSymbolTableRecord
100
AcDbBlockTableRecord
  2
*D33
340
0
 70
     0
280
     1
281
     0
  0
BLOCK_RECORD
  5
1952F
330
1
100
AcDbSymbolTableRecord
100
AcDbBlockTableRecord
  2
*D34
340
0
 70
     0
280
     1
281
     0
  0
BLOCK_RECORD
  5
1953B
330
1
100
AcDbSymbolTableRecord
100
AcDbBlockTableRecord
  2
*D35
340
0
 70
     0
280
     1
281
     0
  0
BLOCK_RECORD
  5
19547
330
1
100
AcDbSymbolTableRecord
100
AcDbBlockTableRecord
  2
*D36
340
0
 70
     0
280
     1
281
     0
  0
BLOCK_RECORD
  5
1955F
330
1
100
AcDbSymbolTableRecord
100
AcDbBlockTableRecord
  2
*D37
340
0
 70
     0
280
     1
281
     0
  0
BLOCK_RECORD
  5
1956C
330
1
100
AcDbSymbolTableRecord
100
AcDbBlockTableRecord
  2
*D38
340
0
 70
     0
280
     1
281
     0
  0
BLOCK_RECORD
  5
1958E
330
1
100
AcDbSymbolTableRecord
100
AcDbBlockTableRecord
  2
*D39
340
0
 70
     0
280
     1
281
     0
  0
BLOCK_RECORD
  5
1959B
330
1
100
AcDbSymbolTableRecord
100
AcDbBlockTableRecord
  2
*D40
340
0
 70
     0
280
     1
281
     0
  0
BLOCK_RECORD
  5
195A7
330
1
100
AcDbSymbolTableRecord
100
AcDbBlockTableRecord
  2
*D41
340
0
 70
     0
280
     1
281
     0
  0
BLOCK_RECORD
  5
195B3
330
1
100
AcDbSymbolTableRecord
100
AcDbBlockTableRecord
  2
*D42
340
0
 70
     0
280
     1
281
     0
  0
BLOCK_RECORD
  5
195BF
330
1
100
AcDbSymbolTableRecord
100
AcDbBlockTableRecord
  2
*D43
340
0
 70
     0
280
     1
281
     0
  0
BLOCK_RECORD
  5
195D7
330
1
100
AcDbSymbolTableRecord
100
AcDbBlockTableRecord
  2
*D44
340
0
 70
     0
280
     1
281
     0
  0
BLOCK_RECORD
  5
195E1
330
1
100
AcDbSymbolTableRecord
100
AcDbBlockTableRecord
  2
*D45
340
0
 70
     0
280
     1
281
     0
  0
BLOCK_RECORD
  5
195ED
330
1
100
AcDbSymbolTableRecord
100
AcDbBlockTableRecord
  2
*D46
340
0
 70
     0
280
     1
281
     0
  0
BLOCK_RECORD
  5
195F9
330
1
100
AcDbSymbolTableRecord
100
AcDbBlockTableRecord
  2
*D47
340
0
 70
     0
280
     1
281
     0
  0
BLOCK_RECORD
  5
19605
330
1
100
AcDbSymbolTableRecord
100
AcDbBlockTableRecord
  2
*D48
340
0
 70
     0
280
     1
281
     0
  0
BLOCK_RECORD
  5
19611
330
1
100
AcDbSymbolTableRecord
100
AcDbBlockTableRecord
  2
*D49
340
0
 70
     0
280
     1
281
     0
  0
BLOCK_RECORD
  5
1961D
330
1
100
AcDbSymbolTableRecord
100
AcDbBlockTableRecord
  2
*D50
340
0
 70
     0
280
     1
281
     0
  0
BLOCK_RECORD
  5
19633
330
1
100
AcDbSymbolTableRecord
100
AcDbBlockTableRecord
  2
*D51
340
0
 70
     0
280
     1
281
     0
  0
BLOCK_RECORD
  5
1963F
330
1
100
AcDbSymbolTableRecord
100
AcDbBlockTableRecord
  2
*D52
340
0
 70
     0
280
     1
281
     0
  0
BLOCK_RECORD
  5
197DA
330
1
100
AcDbSymbolTableRecord
100
AcDbBlockTableRecord
  2
*D53
340
0
 70
     0
280
     1
281
     0
  0
BLOCK_RECORD
  5
19948
330
1
100
AcDbSymbolTableRecord
100
AcDbBlockTableRecord
  2
*D54
340
0
 70
     0
280
     1
281
     0
  0
BLOCK_RECORD
  5
1C090
330
1
100
AcDbSymbolTableRecord
100
AcDbBlockTableRecord
  2
*D55
340
0
 70
     0
280
     1
281
     0
  0
BLOCK_RECORD
  5
1C0A0
330
1
100
AcDbSymbolTableRecord
100
AcDbBlockTableRecord
  2
*D56
340
0
 70
     0
280
     1
281
     0
  0
BLOCK_RECORD
  5
1C1A9
330
1
100
AcDbSymbolTableRecord
100
AcDbBlockTableRecord
  2
*D57
340
0
 70
     0
280
     1
281
     0
  0
BLOCK_RECORD
  5
1C1FF
330
1
100
AcDbSymbolTableRecord
100
AcDbBlockTableRecord
  2
*D58
340
0
 70
     0
280
     1
281
     0
  0
BLOCK_RECORD
  5
1C20C
330
1
100
AcDbSymbolTableRecord
100
AcDbBlockTableRecord
  2
*D59
340
0
 70
     0
280
     1
281
     0
  0
ENDTAB
  0
ENDSEC
  0
SECTION
  2
BLOCKS
  0
BLOCK
  5
1F
330
1E
100
AcDbEntity
  8
0
100
AcDbBlockBegin
  2
*MODEL_SPACE
 70
     0
 10
0.0
 20
0.0
 30
0.0
  3
*MODEL_SPACE
  1

  0
ENDBLK
  5
20
330
1E
100
AcDbEntity
  8
0
100
AcDbBlockEnd
  0
BLOCK
  5
1B
330
1A
100
AcDbEntity
 67
     1
  8
0
100
AcDbBlockBegin
  2
*PAPER_SPACE
 70
     0
 10
0.0
 20
0.0
 30
0.0
  3
*PAPER_SPACE
  1

  0
ENDBLK
  5
1C
330
1A
100
AcDbEntity
 67
     1
  8
0
100
AcDbBlockEnd
  0
BLOCK
  5
3B6
330
3B2
100
AcDbEntity
  8
0
100
AcDbBlockBegin
  2
_OPEN
 70
     0
 10
0.0
 20
0.0
 30
0.0
  3
_OPEN
  1

  0
LINE
  5
3B3
330
3B2
100
AcDbEntity
  8
30
  6
Continuous
 62
     0
100
AcDbLine
 10
-1.0
 20
0.166667
 30
0.0
 11
0.0
 21
0.0
 31
0.0
  0
LINE
  5
3B4
330
3B2
100
AcDbEntity
  8
30
  6
Continuous
 62
     0
100
AcDbLine
 10
-1.0
 20
-0.166667
 30
0.0
 11
0.0
 21
0.0
 31
0.0
  0
LINE
  5
3B5
330
3B2
100
AcDbEntity
  8
30
  6
Continuous
 62
     0
100
AcDbLine
 10
0.0
 20
0.0
 30
0.0
 11
-1.0
 21
0.0
 31
0.0
  0
ENDBLK
  5
3B7
330
3B2
100
AcDbEntity
  8
0
100
AcDbBlockEnd
  0
BLOCK
  5
126D8
330
126D7
100
AcDbEntity
  8
0
100
AcDbBlockBegin
  2
SW_CENTERMARKSYMBOL_9
 70
     0
 10
0.0
 20
0.0
 30
0.0
  3
SW_CENTERMARKSYMBOL_9
  1
SW_CENTERMARKSYMBOL_9
  0
LINE
  5
126D9
330
126D7
100
AcDbEntity
  8
240
 62
     0
100
AcDbLine
 10
0.0
 20
0.0
 30
0.0
 11
0.0
 21
0.5
 31
0.0
  0
LINE
  5
126DA
330
126D7
100
AcDbEntity
  8
240
 62
     0
100
AcDbLine
 10
0.0
 20
0.0
 30
0.0
 11
-0.5
 21
0.0
 31
0.0
  0
LINE
  5
126DB
330
126D7
100
AcDbEntity
  8
240
 62
     0
100
AcDbLine
 10
0.0
 20
0.0
 30
0.0
 11
0.0
 21
-0.5
 31
0.0
  0
LINE
  5
126DC
330
126D7
100
AcDbEntity
  8
240
 62
     0
100
AcDbLine
 10
0.0
 20
0.0
 30
0.0
 11
0.5
 21
0.0
 31
0.0
  0
LINE
  5
126DD
330
126D7
100
AcDbEntity
  8
240
 62
     0
100
AcDbLine
 10
0.0
 20
1.0
 30
0.0
 11
0.0
 21
1.9
 31
0.0
  0
LINE
  5
126DE
330
126D7
100
AcDbEntity
  8
240
 62
     0
100
AcDbLine
 10
-1.0
 20
0.0
 30
0.0
 11
-1.9
 21
0.0
 31
0.0
  0
LINE
  5
126DF
330
126D7
100
AcDbEntity
  8
240
 62
     0
100
AcDbLine
 10
0.0
 20
-1.0
 30
0.0
 11
0.0
 21
-1.9
 31
0.0
  0
LINE
  5
126E0
330
126D7
100
AcDbEntity
  8
240
 62
     0
100
AcDbLine
 10
1.0
 20
0.0
 30
0.0
 11
1.9
 21
0.0
 31
0.0
  0
ENDBLK
  5
126E1
330
126D7
100
AcDbEntity
  8
0
100
AcDbBlockEnd
  0
BLOCK
  5
126E3
330
126E2
100
AcDbEntity
  8
0
100
AcDbBlockBegin
  2
SW_CENTERMARKSYMBOL_10
 70
     0
 10
0.0
 20
0.0
 30
0.0
  3
SW_CENTERMARKSYMBOL_10
  1
SW_CENTERMARKSYMBOL_10
  0
LINE
  5
126E4
330
126E2
100
AcDbEntity
  8
240
 62
     0
100
AcDbLine
 10
0.0
 20
0.0
 30
0.0
 11
0.0
 21
0.5
 31
0.0
  0
LINE
  5
126E5
330
126E2
100
AcDbEntity
  8
240
 62
     0
100
AcDbLine
 10
0.0
 20
0.0
 30
0.0
 11
-0.5
 21
0.0
 31
0.0
  0
LINE
  5
126E6
330
126E2
100
AcDbEntity
  8
240
 62
     0
100
AcDbLine
 10
0.0
 20
0.0
 30
0.0
 11
0.0
 21
-0.5
 31
0.0
  0
LINE
  5
126E7
330
126E2
100
AcDbEntity
  8
240
 62
     0
100
AcDbLine
 10
0.0
 20
0.0
 30
0.0
 11
0.5
 21
0.0
 31
0.0
  0
LINE
  5
126E8
330
126E2
100
AcDbEntity
  8
240
 62
     0
100
AcDbLine
 10
0.0
 20
1.0
 30
0.0
 11
0.0
 21
1.9
 31
0.0
  0
LINE
  5
126E9
330
126E2
100
AcDbEntity
  8
240
 62
     0
100
AcDbLine
 10
-1.0
 20
0.0
 30
0.0
 11
-1.9
 21
0.0
 31
0.0
  0
LINE
  5
126EA
330
126E2
100
AcDbEntity
  8
240
 62
     0
100
AcDbLine
 10
0.0
 20
-1.0
 30
0.0
 11
0.0
 21
-1.9
 31
0.0
  0
LINE
  5
126EB
330
126E2
100
AcDbEntity
  8
240
 62
     0
100
AcDbLine
 10
1.0
 20
0.0
 30
0.0
 11
1.9
 21
0.0
 31
0.0
  0
ENDBLK
  5
126EC
330
126E2
100
AcDbEntity
  8
0
100
AcDbBlockEnd
  0
BLOCK
  5
126EE
330
126ED
100
AcDbEntity
  8
0
100
AcDbBlockBegin
  2
SW_CENTERMARKSYMBOL_11
 70
     0
 10
0.0
 20
0.0
 30
0.0
  3
SW_CENTERMARKSYMBOL_11
  1
SW_CENTERMARKSYMBOL_11
  0
LINE
  5
126EF
330
126ED
100
AcDbEntity
  8
240
 62
     0
100
AcDbLine
 10
0.0
 20
0.0
 30
0.0
 11
0.0
 21
0.5
 31
0.0
  0
LINE
  5
126F0
330
126ED
100
AcDbEntity
  8
240
 62
     0
100
AcDbLine
 10
0.0
 20
0.0
 30
0.0
 11
-0.5
 21
0.0
 31
0.0
  0
LINE
  5
126F1
330
126ED
100
AcDbEntity
  8
240
 62
     0
100
AcDbLine
 10
0.0
 20
0.0
 30
0.0
 11
0.0
 21
-0.5
 31
0.0
  0
LINE
  5
126F2
330
126ED
100
AcDbEntity
  8
240
 62
     0
100
AcDbLine
 10
0.0
 20
0.0
 30
0.0
 11
0.5
 21
0.0
 31
0.0
  0
LINE
  5
126F3
330
126ED
100
AcDbEntity
  8
240
 62
     0
100
AcDbLine
 10
0.0
 20
1.0
 30
0.0
 11
0.0
 21
1.9
 31
0.0
  0
LINE
  5
126F4
330
126ED
100
AcDbEntity
  8
240
 62
     0
100
AcDbLine
 10
-1.0
 20
0.0
 30
0.0
 11
-1.9
 21
0.0
 31
0.0
  0
LINE
  5
126F5
330
126ED
100
AcDbEntity
  8
240
 62
     0
100
AcDbLine
 10
0.0
 20
-1.0
 30
0.0
 11
0.0
 21
-1.9
 31
0.0
  0
LINE
  5
126F6
330
126ED
100
AcDbEntity
  8
240
 62
     0
100
AcDbLine
 10
1.0
 20
0.0
 30
0.0
 11
1.9
 21
0.0
 31
0.0
  0
ENDBLK
  5
126F7
330
126ED
100
AcDbEntity
  8
0
100
AcDbBlockEnd
  0
BLOCK
  5
126F9
330
126F8
100
AcDbEntity
  8
0
100
AcDbBlockBegin
  2
SW_CENTERMARKSYMBOL_12
 70
     0
 10
0.0
 20
0.0
 30
0.0
  3
SW_CENTERMARKSYMBOL_12
  1
SW_CENTERMARKSYMBOL_12
  0
LINE
  5
126FA
330
126F8
100
AcDbEntity
  8
240
 62
     0
100
AcDbLine
 10
0.0
 20
0.0
 30
0.0
 11
0.0
 21
0.5
 31
0.0
  0
LINE
  5
126FB
330
126F8
100
AcDbEntity
  8
240
 62
     0
100
AcDbLine
 10
0.0
 20
0.0
 30
0.0
 11
-0.5
 21
0.0
 31
0.0
  0
LINE
  5
126FC
330
126F8
100
AcDbEntity
  8
240
 62
     0
100
AcDbLine
 10
0.0
 20
0.0
 30
0.0
 11
0.0
 21
-0.5
 31
0.0
  0
LINE
  5
126FD
330
126F8
100
AcDbEntity
  8
240
 62
     0
100
AcDbLine
 10
0.0
 20
0.0
 30
0.0
 11
0.5
 21
0.0
 31
0.0
  0
LINE
  5
126FE
330
126F8
100
AcDbEntity
  8
240
 62
     0
100
AcDbLine
 10
0.0
 20
1.0
 30
0.0
 11
0.0
 21
1.9
 31
0.0
  0
LINE
  5
126FF
330
126F8
100
AcDbEntity
  8
240
 62
     0
100
AcDbLine
 10
-1.0
 20
0.0
 30
0.0
 11
-1.9
 21
0.0
 31
0.0
  0
LINE
  5
12700
330
126F8
100
AcDbEntity
  8
240
 62
     0
100
AcDbLine
 10
0.0
 20
-1.0
 30
0.0
 11
0.0
 21
-1.9
 31
0.0
  0
LINE
  5
12701
330
126F8
100
AcDbEntity
  8
240
 62
     0
100
AcDbLine
 10
1.0
 20
0.0
 30
0.0
 11
1.9
 21
0.0
 31
0.0
  0
ENDBLK
  5
12702
330
126F8
100
AcDbEntity
  8
0
100
AcDbBlockEnd
  0
BLOCK
  5
12F01
330
12F00
100
AcDbEntity
  8
0
100
AcDbBlockBegin
  2
SW_CENTERMARKSYMBOL_20
 70
     0
 10
0.0
 20
0.0
 30
0.0
  3
SW_CENTERMARKSYMBOL_20
  1
SW_CENTERMARKSYMBOL_20
  0
LINE
  5
12F02
330
12F00
100
AcDbEntity
  8
240
 62
     0
100
AcDbLine
 10
0.0
 20
0.0
 30
0.0
 11
0.0
 21
0.5
 31
0.0
  0
LINE
  5
12F03
330
12F00
100
AcDbEntity
  8
240
 62
     0
100
AcDbLine
 10
0.0
 20
0.0
 30
0.0
 11
-0.5
 21
0.0
 31
0.0
  0
LINE
  5
12F04
330
12F00
100
AcDbEntity
  8
240
 62
     0
100
AcDbLine
 10
0.0
 20
0.0
 30
0.0
 11
0.0
 21
-0.5
 31
0.0
  0
LINE
  5
12F05
330
12F00
100
AcDbEntity
  8
240
 62
     0
100
AcDbLine
 10
0.0
 20
0.0
 30
0.0
 11
0.5
 21
0.0
 31
0.0
  0
LINE
  5
12F06
330
12F00
100
AcDbEntity
  8
240
 62
     0
100
AcDbLine
 10
0.0
 20
1.0
 30
0.0
 11
0.0
 21
1.9
 31
0.0
  0
LINE
  5
12F07
330
12F00
100
AcDbEntity
  8
240
 62
     0
100
AcDbLine
 10
-1.0
 20
0.0
 30
0.0
 11
-1.9
 21
0.0
 31
0.0
  0
LINE
  5
12F08
330
12F00
100
AcDbEntity
  8
240
 62
     0
100
AcDbLine
 10
0.0
 20
-1.0
 30
0.0
 11
0.0
 21
-1.9
 31
0.0
  0
LINE
  5
12F09
330
12F00
100
AcDbEntity
  8
240
 62
     0
100
AcDbLine
 10
1.0
 20
0.0
 30
0.0
 11
1.9
 21
0.0
 31
0.0
  0
ENDBLK
  5
12F0A
330
12F00
100
AcDbEntity
  8
0
100
AcDbBlockEnd
  0
BLOCK
  5
16973
330
16972
100
AcDbEntity
  8
0
100
AcDbBlockBegin
  2
_DOT
 70
     0
 10
0.0
 20
0.0
 30
0.0
  3
_DOT
  1
_DOT
  0
POLYLINE
  5
16974
330
16972
100
AcDbEntity
  8
0
  6
ByBlock
 62
     0
100
AcDb2dPolyline
 66
     1
 10
0.0
 20
0.0
 30
0.0
 70
     1
 40
0.5
 41
0.5
  0
VERTEX
  5
16975
330
16974
100
AcDbEntity
  8
0
  6
ByBlock
 62
     0
100
AcDbVertex
100
AcDb2dVertex
 10
-0.25
 20
0.0
 30
0.0
 42
1.0
  0
VERTEX
  5
16976
330
16974
100
AcDbEntity
  8
0
  6
ByBlock
 62
     0
100
AcDbVertex
100
AcDb2dVertex
 10
0.25
 20
0.0
 30
0.0
 42
1.0
  0
SEQEND
  5
16977
330
16974
100
AcDbEntity
  8
0
  6
ByBlock
 62
     0
  0
LINE
  5
16978
330
16972
100
AcDbEntity
  8
0
  6
ByBlock
 62
     0
370
    -2
100
AcDbLine
 10
-0.5
 20
0.0
 30
0.0
 11
-1.0
 21
0.0
 31
0.0
  0
ENDBLK
  5
16979
330
16972
100
AcDbEntity
  8
0
100
AcDbBlockEnd
  0
BLOCK
  5
1697B
330
1697A
100
AcDbEntity
  8
0
100
AcDbBlockBegin
  2
SW_CENTERMARKSYMBOL_54
 70
     0
 10
0.0
 20
0.0
 30
0.0
  3
SW_CENTERMARKSYMBOL_54
  1
SW_CENTERMARKSYMBOL_54
  0
LINE
  5
1697C
330
1697A
100
AcDbEntity
  8
SLD-0
 62
     0
100
AcDbLine
 10
0.0
 20
0.0
 30
0.0
 11
0.0
 21
1.25
 31
0.0
  0
LINE
  5
1697D
330
1697A
100
AcDbEntity
  8
SLD-0
 62
     0
100
AcDbLine
 10
0.0
 20
0.0
 30
0.0
 11
-1.25
 21
0.0
 31
0.0
  0
LINE
  5
1697E
330
1697A
100
AcDbEntity
  8
SLD-0
 62
     0
100
AcDbLine
 10
0.0
 20
0.0
 30
0.0
 11
0.0
 21
-1.25
 31
0.0
  0
LINE
  5
1697F
330
1697A
100
AcDbEntity
  8
SLD-0
 62
     0
100
AcDbLine
 10
0.0
 20
0.0
 30
0.0
 11
1.25
 21
0.0
 31
0.0
  0
LINE
  5
16980
330
1697A
100
AcDbEntity
  8
SLD-0
 62
     0
100
AcDbLine
 10
0.0
 20
2.5
 30
0.0
 11
0.0
 21
2.75
 31
0.0
  0
LINE
  5
16981
330
1697A
100
AcDbEntity
  8
SLD-0
 62
     0
100
AcDbLine
 10
-2.5
 20
0.0
 30
0.0
 11
-2.75
 21
0.0
 31
0.0
  0
LINE
  5
16982
330
1697A
100
AcDbEntity
  8
SLD-0
 62
     0
100
AcDbLine
 10
0.0
 20
-2.5
 30
0.0
 11
0.0
 21
-2.75
 31
0.0
  0
LINE
  5
16983
330
1697A
100
AcDbEntity
  8
SLD-0
 62
     0
100
AcDbLine
 10
2.5
 20
0.0
 30
0.0
 11
2.75
 21
0.0
 31
0.0
  0
ENDBLK
  5
16984
330
1697A
100
AcDbEntity
  8
0
100
AcDbBlockEnd
  0
BLOCK
  5
16986
330
16985
100
AcDbEntity
  8
0
100
AcDbBlockBegin
  2
SW_CENTERMARKSYMBOL_55
 70
     0
 10
0.0
 20
0.0
 30
0.0
  3
SW_CENTERMARKSYMBOL_55
  1
SW_CENTERMARKSYMBOL_55
  0
LINE
  5
16987
330
16985
100
AcDbEntity
  8
SLD-0
 62
     0
100
AcDbLine
 10
0.0
 20
0.0
 30
0.0
 11
0.0
 21
1.25
 31
0.0
  0
LINE
  5
16988
330
16985
100
AcDbEntity
  8
SLD-0
 62
     0
100
AcDbLine
 10
0.0
 20
0.0
 30
0.0
 11
-1.25
 21
0.0
 31
0.0
  0
LINE
  5
16989
330
16985
100
AcDbEntity
  8
SLD-0
 62
     0
100
AcDbLine
 10
0.0
 20
0.0
 30
0.0
 11
0.0
 21
-1.25
 31
0.0
  0
LINE
  5
1698A
330
16985
100
AcDbEntity
  8
SLD-0
 62
     0
100
AcDbLine
 10
0.0
 20
0.0
 30
0.0
 11
1.25
 21
0.0
 31
0.0
  0
LINE
  5
1698B
330
16985
100
AcDbEntity
  8
SLD-0
 62
     0
100
AcDbLine
 10
0.0
 20
2.5
 30
0.0
 11
0.0
 21
2.75
 31
0.0
  0
LINE
  5
1698C
330
16985
100
AcDbEntity
  8
SLD-0
 62
     0
100
AcDbLine
 10
-2.5
 20
0.0
 30
0.0
 11
-2.75
 21
0.0
 31
0.0
  0
LINE
  5
1698D
330
16985
100
AcDbEntity
  8
SLD-0
 62
     0
100
AcDbLine
 10
0.0
 20
-2.5
 30
0.0
 11
0.0
 21
-2.75
 31
0.0
  0
LINE
  5
1698E
330
16985
100
AcDbEntity
  8
SLD-0
 62
     0
100
AcDbLine
 10
2.5
 20
0.0
 30
0.0
 11
2.75
 21
0.0
 31
0.0
  0
ENDBLK
  5
1698F
330
16985
100
AcDbEntity
  8
0
100
AcDbBlockEnd
  0
BLOCK
  5
16993
330
16990
100
AcDbEntity
  8
0
100
AcDbBlockBegin
  2
m5screw1
 70
     0
 10
0.0
 20
0.0
 30
0.0
  3
m5screw1
  1

  0
LINE
  5
16994
330
16990
100
AcDbEntity
  8
0
  6
SLD-実線
370
    15
100
AcDbLine
 10
15.50000160939999
 20
-2.499999478499999
 30
0.0
 11
16.00000262259982
 21
-1.999998465300049
 31
0.0
  0
LINE
  5
16995
330
16990
100
AcDbEntity
  8
0
  6
SLD-実線
370
    15
100
AcDbLine
 10
16.00000262259982
 20
2.000002190499968
 30
0.0
 11
15.50000160939999
 21
2.499999478499999
 31
0.0
  0
LINE
  5
16996
330
16990
100
AcDbEntity
  8
0
  6
SLD-実線
370
    15
100
AcDbLine
 10
0.0
 20
-2.499999478499999
 30
0.0
 11
3.199998289399898
 21
-2.499999478499999
 31
0.0
  0
LINE
  5
16997
330
16990
100
AcDbEntity
  8
0
  6
SLD-実線
370
    15
100
AcDbLine
 10
9.199999272799914
 20
-2.499999478499999
 30
0.0
 11
15.50000160939999
 21
-2.499999478499999
 31
0.0
  0
LINE
  5
16998
330
16990
100
AcDbEntity
  8
0
  6
SLD-実線
370
    15
100
AcDbLine
 10
15.50000160939999
 20
2.499999478499999
 30
0.0
 11
9.199999272799914
 21
2.499999478499999
 31
0.0
  0
LINE
  5
16999
330
16990
100
AcDbEntity
  8
0
  6
SLD-実線
370
    15
100
AcDbLine
 10
3.199998289399898
 20
2.499999478499999
 30
0.0
 11
0.0
 21
2.499999478499999
 31
0.0
  0
ARC
  5
1699A
330
16990
100
AcDbEntity
  8
0
  6
SLD-実線
370
    15
100
AcDbCircle
 10
4.324999582799819
 20
-4.424999627499971
 30
0.0
 40
0.1750000000001818
100
AcDbArc
 50
270.0
 51
0.0
  0
ARC
  5
1699B
330
16990
100
AcDbEntity
  8
0
  6
SLD-実線
370
    15
100
AcDbCircle
 10
4.324999582799819
 20
4.425000372499936
 30
0.0
 40
0.1750000000001818
100
AcDbArc
 50
0.0
 51
90.0
  0
LINE
  5
1699C
330
16990
100
AcDbEntity
  8
0
  6
SLD-実線
370
    15
100
AcDbLine
 10
3.375001251599996
 20
-4.599997773699953
 30
0.0
 11
4.324998706599896
 21
-4.599997773699953
 31
0.0
  0
LINE
  5
1699D
330
16990
100
AcDbEntity
  8
0
  6
SLD-実線
370
    15
100
AcDbLine
 10
4.324998706599896
 20
4.600001499100073
 30
0.0
 11
3.375001251599996
 21
4.600001499100073
 31
0.0
  0
ARC
  5
1699E
330
16990
100
AcDbEntity
  8
0
  6
SLD-実線
370
    15
100
AcDbCircle
 10
3.374999582799773
 20
-4.424999627499971
 30
0.0
 40
0.1750000000000682
100
AcDbArc
 50
180.0
 51
270.0
  0
ARC
  5
1699F
330
16990
100
AcDbEntity
  8
0
  6
SLD-実線
370
    15
100
AcDbCircle
 10
3.374999582799773
 20
4.425000372499936
 30
0.0
 40
0.1749999999999546
100
AcDbArc
 50
90.0
 51
180.0
  0
LINE
  5
169A0
330
16990
100
AcDbEntity
  8
0
  6
SLD-実線
370
    15
100
AcDbLine
 10
15.50000160939999
 20
-2.499999478499999
 30
0.0
 11
15.50000160939999
 21
2.499999478499999
 31
0.0
  0
LINE
  5
169A1
330
16990
100
AcDbEntity
  8
0
  6
SLD-実線
370
    15
100
AcDbLine
 10
16.00000262259982
 20
2.000002190499968
 30
0.0
 11
16.00000262259982
 21
-1.999998465300049
 31
0.0
  0
LINE
  5
169A2
330
16990
100
AcDbEntity
  8
0
  6
SLD-実線
370
    15
100
AcDbLine
 10
9.199999272799914
 20
2.000002190499968
 30
0.0
 11
9.199999272799914
 21
-1.999998465300049
 31
0.0
  0
SPLINE
  5
169A3
330
16990
100
AcDbEntity
  8
0
  6
SLD-実線
370
    15
100
AcDbSpline
210
0.0
220
0.0
230
1.0
 70
     8
 71
     3
 72
     9
 73
     5
 74
     0
 42
0.000000001
 43
0.0000000001
 40
0.0
 40
0.0
 40
0.0
 40
0.0
 40
0.6771006943045183
 40
1.0
 40
1.0
 40
1.0
 40
1.0
 10
9.199999272808099
 20
-1.999998465204214
 30
0.0
 10
9.179040304209593
 20
-1.56778935288372
 30
0.0
 10
9.148086313503654
 20
-0.9294661079722461
 30
0.0
 10
9.011308131972782
 20
-0.3024597483417324
 30
0.0
 10
8.96714255212214
 20
-0.0999998301505798
 30
0.0
  0
SPLINE
  5
169A4
330
16990
100
AcDbEntity
  8
0
  6
SLD-実線
370
    15
100
AcDbSpline
210
0.0
220
0.0
230
1.0
 70
     8
 71
     3
 72
    11
 73
     7
 74
     0
 42
0.000000001
 43
0.0000000001
 40
0.0
 40
0.0
 40
0.0
 40
0.0
 40
0.3033008138334113
 40
0.6069089828308042
 40
0.9049150680745647
 40
1.0
 40
1.0
 40
1.0
 40
1.0
 10
8.96714255212214
 20
0.099999830102945
 30
0.0
 10
8.963614850737712
 20
0.080806419733392
 30
0.0
 10
8.956555873111936
 20
0.0424001490176238
 30
0.0
 10
8.95576945176549
 20
-0.0226580828731926
 30
0.0
 10
8.960809023061527
 20
-0.0704117374939983
 30
0.0
 10
8.965908933012542
 20
-0.0942367814356544
 30
0.0
 10
8.96714255212214
 20
-0.0999998301505798
 30
0.0
  0
LINE
  5
169A5
330
16990
100
AcDbEntity
  8
0
  6
SLD-実線
370
    15
100
AcDbLine
 10
8.967142552199902
 20
0.0999998300999892
 30
0.0
 11
9.199999272799914
 21
2.000002190499968
 31
0.0
  0
LINE
  5
169A6
330
16990
100
AcDbEntity
  8
0
  6
SLD-実線
370
    15
100
AcDbLine
 10
4.499997943599963
 20
-0.0999998300999892
 30
0.0
 11
4.499997943599963
 21
0.0999998300999892
 31
0.0
  0
LINE
  5
169A7
330
16990
100
AcDbEntity
  8
0
  6
SLD-実線
370
    15
100
AcDbLine
 10
8.967142552199902
 20
-3.900000825499944
 30
0.0
 11
9.199999272799914
 21
-1.999998465300049
 31
0.0
  0
LINE
  5
169A8
330
16990
100
AcDbEntity
  8
0
  6
SLD-実線
370
    15
100
AcDbLine
 10
4.499997943599963
 20
-0.0999998300999892
 30
0.0
 11
4.499997943599963
 21
-0.3612581640999792
 31
0.0
  0
LINE
  5
169A9
330
16990
100
AcDbEntity
  8
0
  6
SLD-実線
370
    15
100
AcDbLine
 10
4.499997943599963
 20
-3.638738766300036
 30
0.0
 11
4.499997943599963
 21
-3.900000825499944
 31
0.0
  0
SPLINE
  5
169AA
330
16990
100
AcDbEntity
  8
0
  6
SLD-実線
370
    15
100
AcDbSpline
210
0.0
220
0.0
230
1.0
 70
     8
 71
     3
 72
     9
 73
     5
 74
     0
 42
0.000000001
 43
0.0000000001
 40
0.0
 40
0.0
 40
0.0
 40
0.0
 40
0.6770988321148445
 40
1.0
 40
1.0
 40
1.0
 40
1.0
 10
9.199999272808099
 20
2.000002190446764
 30
0.0
 10
9.179040014920019
 20
2.432209980872983
 30
0.0
 10
9.148085511835004
 20
3.07053302904063
 30
0.0
 10
9.011308128833434
 20
3.69753965402225
 30
0.0
 10
8.96714255212214
 20
3.900000825500626
 30
0.0
  0
LINE
  5
169AB
330
16990
100
AcDbEntity
  8
0
  6
SLD-実線
370
    15
100
AcDbLine
 10
4.499997943599963
 20
3.900000825500056
 30
0.0
 11
4.499997943599963
 21
3.638738766300036
 31
0.0
  0
LINE
  5
169AC
330
16990
100
AcDbEntity
  8
0
  6
SLD-実線
370
    15
100
AcDbLine
 10
4.499997943599963
 20
0.3612618893000103
 30
0.0
 11
4.499997943599963
 21
0.0999998300999892
 31
0.0
  0
SPLINE
  5
169AD
330
16990
100
AcDbEntity
  8
0
  6
SLD-実線
370
    15
100
AcDbSpline
210
0.0
220
0.0
230
1.0
 70
    24
 71
     3
 72
     9
 73
     5
 74
     0
 42
0.000000001
 43
0.0000000001
 40
0.0
 40
0.0
 40
0.0
 40
0.0
 40
0.7858524886117994
 40
1.0
 40
1.0
 40
1.0
 40
1.0
 10
9.199999272808099
 20
-3.999998793029758
 30
0.0
 10
9.171952321175467
 20
-3.999998793029758
 30
0.0
 10
9.136262478566095
 20
-3.999998793029758
 30
0.0
 10
8.996971391727129
 20
-3.999998793029758
 30
0.0
 10
8.96714255212214
 20
-3.999998793029758
 30
0.0
  0
SPLINE
  5
169AE
330
16990
100
AcDbEntity
  8
0
  6
SLD-実線
370
    15
100
AcDbSpline
210
0.0
220
0.0
230
1.0
 70
     8
 71
     3
 72
    11
 73
     7
 74
     0
 42
0.000000001
 43
0.0000000001
 40
0.0
 40
0.0
 40
0.0
 40
0.0
 40
0.3032948817092764
 40
0.6069007806173136
 40
0.9049251941525932
 40
1.0
 40
1.0
 40
1.0
 40
1.0
 10
8.96714255212214
 20
-3.900000825548261
 30
0.0
 10
8.963614819430631
 20
-3.917281063541223
 30
0.0
 10
8.956555736494237
 20
-3.951859259744706
 30
0.0
 10
8.955769817165219
 20
-3.986138454351986
 30
0.0
 10
8.960808302420216
 20
-3.998992385496363
 30
0.0
 10
8.965908919176627
 20
-3.999802789154328
 30
0.0
 10
8.96714255212214
 20
-3.999998793029758
 30
0.0
  0
LINE
  5
169AF
330
16990
100
AcDbEntity
  8
0
  6
SLD-実線
370
    15
100
AcDbLine
 10
9.199999272799914
 20
-1.999998465300049
 30
0.0
 11
9.199999272799914
 21
-3.999998793100017
 31
0.0
  0
SPLINE
  5
169B0
330
16990
100
AcDbEntity
  8
0
  6
SLD-実線
370
    15
100
AcDbSpline
210
0.0
220
0.0
230
1.0
 70
     8
 71
     3
 72
    11
 73
     7
 74
     0
 42
0.000000001
 43
0.0000000001
 40
0.0
 40
0.0
 40
0.0
 40
0.0
 40
0.303297341374236
 40
0.6069057263081482
 40
0.9049195301906271
 40
1.0
 40
1.0
 40
1.0
 40
1.0
 10
8.96714255212214
 20
3.999998792982238
 30
0.0
 10
8.963614837932254
 20
3.998087219072033
 30
0.0
 10
8.956555791740351
 20
3.994262110856368
 30
0.0
 10
8.955769607909587
 20
3.963479847629796
 30
0.0
 10
8.960808710141916
 20
3.928584420112258
 30
0.0
 10
8.965908926910515
 20
3.905567974642678
 30
0.0
 10
8.96714255212214
 20
3.900000825500626
 30
0.0
  0
SPLINE
  5
169B1
330
16990
100
AcDbEntity
  8
0
  6
SLD-実線
370
    15
100
AcDbSpline
210
0.0
220
0.0
230
1.0
 70
    24
 71
     3
 72
     9
 73
     5
 74
     0
 42
0.000000001
 43
0.0000000001
 40
0.0
 40
0.0
 40
0.0
 40
0.0
 40
0.2141475113882007
 40
1.0
 40
1.0
 40
1.0
 40
1.0
 10
8.96714255212214
 20
3.999998792982238
 30
0.0
 10
8.996971391727129
 20
3.999998792982238
 30
0.0
 10
9.136262478566095
 20
3.999998792982238
 30
0.0
 10
9.171952321175467
 20
3.999998792982238
 30
0.0
 10
9.199999272808099
 20
3.999998792982238
 30
0.0
  0
LINE
  5
169B2
330
16990
100
AcDbEntity
  8
0
  6
SLD-実線
370
    15
100
AcDbLine
 10
9.199999272799914
 20
3.999998792900043
 30
0.0
 11
9.199999272799914
 21
2.000002190499968
 31
0.0
  0
LINE
  5
169B3
330
16990
100
AcDbEntity
  8
0
  6
SLD-実線
370
    15
100
AcDbLine
 10
8.967142552199902
 20
-3.999998793100017
 30
0.0
 11
4.499997943599963
 21
-3.999998793100017
 31
0.0
  0
LINE
  5
169B4
330
16990
100
AcDbEntity
  8
0
  6
SLD-実線
370
    15
100
AcDbLine
 10
4.499997943599963
 20
-3.999998793100017
 30
0.0
 11
4.499997943599963
 21
-3.900000825499944
 31
0.0
  0
LINE
  5
169B5
330
16990
100
AcDbEntity
  8
0
  6
SLD-実線
370
    15
100
AcDbLine
 10
4.499997943599963
 20
3.999998792900043
 30
0.0
 11
8.967142552199902
 21
3.999998792900043
 31
0.0
  0
LINE
  5
169B6
330
16990
100
AcDbEntity
  8
0
  6
SLD-実線
370
    15
100
AcDbLine
 10
4.499997943599963
 20
3.900000825500056
 30
0.0
 11
4.499997943599963
 21
3.999998792900043
 31
0.0
  0
LINE
  5
169B7
330
16990
100
AcDbEntity
  8
0
  6
SLD-実線
370
    15
100
AcDbLine
 10
4.499997943599963
 20
-4.424998536700002
 30
0.0
 11
4.499997943599963
 21
-3.999998793100017
 31
0.0
  0
LINE
  5
169B8
330
16990
100
AcDbEntity
  8
0
  6
SLD-実線
370
    15
100
AcDbLine
 10
4.499997943599963
 20
-3.638738766300036
 30
0.0
 11
4.499997943599963
 21
-0.3612581640999792
 31
0.0
  0
LINE
  5
169B9
330
16990
100
AcDbEntity
  8
0
  6
SLD-実線
370
    15
100
AcDbLine
 10
4.499997943599963
 20
0.3612618893000103
 30
0.0
 11
4.499997943599963
 21
3.638738766300036
 31
0.0
  0
LINE
  5
169BA
330
16990
100
AcDbEntity
  8
0
  6
SLD-実線
370
    15
100
AcDbLine
 10
4.499997943599963
 20
3.999998792900043
 30
0.0
 11
4.499997943599963
 21
4.424998536700002
 31
0.0
  0
LINE
  5
169BB
330
16990
100
AcDbEntity
  8
0
  6
SLD-実線
370
    15
100
AcDbLine
 10
3.199998289399898
 20
-4.424998536700002
 30
0.0
 11
3.199998289399898
 21
4.424998536700002
 31
0.0
  0
LINE
  5
169BC
330
16990
100
AcDbEntity
  8
0
370
    15
100
AcDbLine
 10
4.499999582799773
 20
0.7763407795000035
 30
0.0
 11
3.199999582799819
 21
0.1217328332999727
 31
0.0
  0
LINE
  5
169BD
330
16990
100
AcDbEntity
  8
0
370
    15
100
AcDbLine
 10
4.499999582799773
 20
0.0688290700999801
 30
0.0
 11
3.199999582799819
 21
-0.5857788763000258
 31
0.0
  0
LINE
  5
169BE
330
16990
100
AcDbEntity
  8
0
100
AcDbLine
 10
0.0
 20
2.499999478499999
 30
0.0
 11
0.0
 21
-2.499999478499999
 31
0.0
  0
ENDBLK
  5
169BF
330
16990
100
AcDbEntity
  8
0
100
AcDbBlockEnd
  0
BLOCK
  5
169C1
330
169C0
100
AcDbEntity
  8
0
100
AcDbBlockBegin
  2
SW_CENTERMARKSYMBOL_56
 70
     0
 10
0.0
 20
0.0
 30
0.0
  3
SW_CENTERMARKSYMBOL_56
  1
SW_CENTERMARKSYMBOL_56
  0
LINE
  5
169C2
330
169C0
100
AcDbEntity
  8
SLD-0
 62
     0
100
AcDbLine
 10
0.0
 20
0.0
 30
0.0
 11
0.0
 21
1.25
 31
0.0
  0
LINE
  5
169C3
330
169C0
100
AcDbEntity
  8
SLD-0
 62
     0
100
AcDbLine
 10
0.0
 20
0.0
 30
0.0
 11
-1.25
 21
0.0
 31
0.0
  0
LINE
  5
169C4
330
169C0
100
AcDbEntity
  8
SLD-0
 62
     0
100
AcDbLine
 10
0.0
 20
0.0
 30
0.0
 11
0.0
 21
-1.25
 31
0.0
  0
LINE
  5
169C5
330
169C0
100
AcDbEntity
  8
SLD-0
 62
     0
100
AcDbLine
 10
0.0
 20
0.0
 30
0.0
 11
1.25
 21
0.0
 31
0.0
  0
LINE
  5
169C6
330
169C0
100
AcDbEntity
  8
SLD-0
 62
     0
100
AcDbLine
 10
0.0
 20
2.5
 30
0.0
 11
0.0
 21
2.75
 31
0.0
  0
LINE
  5
169C7
330
169C0
100
AcDbEntity
  8
SLD-0
 62
     0
100
AcDbLine
 10
-2.5
 20
0.0
 30
0.0
 11
-2.75
 21
0.0
 31
0.0
  0
LINE
  5
169C8
330
169C0
100
AcDbEntity
  8
SLD-0
 62
     0
100
AcDbLine
 10
0.0
 20
-2.5
 30
0.0
 11
0.0
 21
-2.75
 31
0.0
  0
LINE
  5
169C9
330
169C0
100
AcDbEntity
  8
SLD-0
 62
     0
100
AcDbLine
 10
2.5
 20
0.0
 30
0.0
 11
2.75
 21
0.0
 31
0.0
  0
ENDBLK
  5
169CA
330
169C0
100
AcDbEntity
  8
0
100
AcDbBlockEnd
  0
BLOCK
  5
169CC
330
169CB
100
AcDbEntity
  8
0
100
AcDbBlockBegin
  2
SW_CENTERMARKSYMBOL_57
 70
     0
 10
0.0
 20
0.0
 30
0.0
  3
SW_CENTERMARKSYMBOL_57
  1
SW_CENTERMARKSYMBOL_57
  0
LINE
  5
169CD
330
169CB
100
AcDbEntity
  8
SLD-0
 62
     0
100
AcDbLine
 10
0.0
 20
0.0
 30
0.0
 11
0.0
 21
1.25
 31
0.0
  0
LINE
  5
169CE
330
169CB
100
AcDbEntity
  8
SLD-0
 62
     0
100
AcDbLine
 10
0.0
 20
0.0
 30
0.0
 11
-1.25
 21
0.0
 31
0.0
  0
LINE
  5
169CF
330
169CB
100
AcDbEntity
  8
SLD-0
 62
     0
100
AcDbLine
 10
0.0
 20
0.0
 30
0.0
 11
0.0
 21
-1.25
 31
0.0
  0
LINE
  5
169D0
330
169CB
100
AcDbEntity
  8
SLD-0
 62
     0
100
AcDbLine
 10
0.0
 20
0.0
 30
0.0
 11
1.25
 21
0.0
 31
0.0
  0
LINE
  5
169D1
330
169CB
100
AcDbEntity
  8
SLD-0
 62
     0
100
AcDbLine
 10
0.0
 20
2.5
 30
0.0
 11
0.0
 21
2.75
 31
0.0
  0
LINE
  5
169D2
330
169CB
100
AcDbEntity
  8
SLD-0
 62
     0
100
AcDbLine
 10
-2.5
 20
0.0
 30
0.0
 11
-2.75
 21
0.0
 31
0.0
  0
LINE
  5
169D3
330
169CB
100
AcDbEntity
  8
SLD-0
 62
     0
100
AcDbLine
 10
0.0
 20
-2.5
 30
0.0
 11
0.0
 21
-2.75
 31
0.0
  0
LINE
  5
169D4
330
169CB
100
AcDbEntity
  8
SLD-0
 62
     0
100
AcDbLine
 10
2.5
 20
0.0
 30
0.0
 11
2.75
 21
0.0
 31
0.0
  0
ENDBLK
  5
169D5
330
169CB
100
AcDbEntity
  8
0
100
AcDbBlockEnd
  0
BLOCK
  5
16D07
330
16D04
100
AcDbEntity
  8
0
100
AcDbBlockBegin
  2
A$C3F0A4506
 70
     0
 10
0.0
 20
0.0
 30
0.0
  3
A$C3F0A4506
  1

  0
CIRCLE
  5
16D08
330
16D04
100
AcDbEntity
  8
24
100
AcDbCircle
 10
104.8249999970513
 20
3.500304608093308
 30
0.0
 40
2.0
  0
ARC
  5
16D09
330
16D04
100
AcDbEntity
  8
24
100
AcDbCircle
 10
104.8249999970513
 20
3.500304608093308
 30
0.0
 40
3.275000000000013
100
AcDbArc
 50
130.2387981259013
 51
49.76120187409872
  0
CIRCLE
  5
16D0A
330
16D04
100
AcDbEntity
  8
24
100
AcDbCircle
 10
69.82499999705135
 20
3.500304608093308
 30
0.0
 40
2.25
  0
LWPOLYLINE
  5
16D0B
330
16D04
100
AcDbEntity
  8
0
  6
SLD-実線
 62
     7
370
    15
100
AcDbPolyline
 90
        2
 70
     0
 43
0.0
 10
106.8249986856514
 20
6.000303416093293
 10
106.4838962048512
 20
6.000303416093293
  0
LWPOLYLINE
  5
16D0C
330
16D04
100
AcDbEntity
  8
0
  6
SLD-実線
 62
     7
370
    15
100
AcDbPolyline
 90
        2
 70
     0
 43
0.0
 10
66.32484769225141
 20
6.000303416093293
 10
66.30839308505129
 20
6.000303416093293
  0
LWPOLYLINE
  5
16D0D
330
16D04
100
AcDbEntity
  8
13
100
AcDbPolyline
 90
        4
 70
     0
 43
0.0
 10
108.3416053444513
 20
6.000303416093293
 10
108.3251507372514
 20
6.000303416093293
 10
106.4838962048512
 20
6.000303416093293
 10
66.31662038865136
 20
6.000303416093293
  0
LWPOLYLINE
  5
16D0E
330
16D04
100
AcDbEntity
  8
13
100
AcDbPolyline
 90
      480
 70
     0
 43
0.0
 10
108.342298248414
 20
6.000452427687667
 10
108.3958023229479
 20
6.007671649155297
 10
108.4491388854715
 20
6.015355719630277
 10
108.5021404239749
 20
6.023969488119937
 10
108.5546394264477
 20
6.033977803631612
 10
108.6064683808801
 20
6.045845515172651
 10
108.6574597752616
 20
6.060037471750391
 10
108.7074460975823
 20
6.077018522372156
 10
108.7562623416991
 20
6.097232149909877
 10
108.8037860261467
 20
6.12075925294723
 10
108.8499301845641
 20
6.147377912524127
 10
108.8946089402676
 20
6.176856918602352
 10
108.937736416574
 20
6.208965061143715
 10
108.9792267367995
 20
6.243471130110002
 10
109.018994024261
 20
6.280143915463012
 10
109.0569494011272
 20
6.318755156328839
 10
109.0929349620303
 20
6.359144423733575
 10
109.1267237734315
 20
6.401219121226437
 10
109.1580859005175
 20
6.444889601645535
 10
109.1867914084752
 20
6.490066217828967
 10
109.2126103624911
 20
6.536659322614852
 10
109.2353128277522
 20
6.584579268841295
 10
109.2546788179119
 20
6.633735411762637
 10
109.2707959753813
 20
6.684006259120827
 10
109.284111008013
 20
6.735234313325462
 10
109.2950909366134
 20
6.787260039902136
 10
109.3042027819884
 20
6.839923904376441
 10
109.3119135649448
 20
6.893066372273978
 10
109.3186903062885
 20
6.946527909120334
 10
109.3250000268514
 20
7.0001489804933
 10
109.3250000268258
 20
12.8004557774687
 10
109.3226734018033
 20
12.83868185254008
 10
109.3200062726471
 20
12.87685044956881
 10
109.3166581352237
 20
12.91490409051223
 10
109.3122884853998
 20
12.95278529732766
 10
109.3065568190413
 20
12.99043659197243
 10
109.2991436751799
 20
13.02780110926519
 10
109.2899804947651
 20
13.06482929129394
 10
109.2791636213209
 20
13.10147638277048
 10
109.2667922861587
 20
13.13769771251061
 10
109.2529657205903
 20
13.17344860933008
 10
109.2377819356625
 20
13.20868423849766
 10
109.2213040216108
 20
13.24335508498891
 10
109.203555853088
 20
13.27740637787577
 10
109.184559221904
 20
13.3107830670753
 10
109.1643359198689
 20
13.34343010250453
 10
109.1429077387924
 20
13.37529243408057
 10
109.120296470485
 20
13.40631501172043
 10
109.0965239067565
 20
13.4364427853412
 10
109.0716118394167
 20
13.46562070485992
 10
109.0455820602759
 20
13.49379372019367
 10
109.0184570540293
 20
13.52090750456775
 10
108.9902752003778
 20
13.54692432412597
 10
108.961090751087
 20
13.57182301398212
 10
108.9309586462193
 20
13.59558312776847
 10
108.899933825837
 20
13.61818421911729
 10
108.8680712300027
 20
13.63960584166089
 10
108.8354257987787
 20
13.65982754903152
 10
108.8020524722275
 20
13.67882889486149
 10
108.7680061904116
 20
13.69658943278306
 10
108.7333418933933
 20
13.71308871642854
 10
108.6981142219866
 20
13.72830404827264
 10
108.6623722240465
 20
13.7421706566398
 10
108.6261599890958
 20
13.75458646980811
 10
108.5895214349116
 20
13.76544812406266
 10
108.5525004792705
 20
13.77465225568857
 10
108.5151410865134
 20
13.78209697970839
 10
108.4774918895842
 20
13.78782867345104
 10
108.4396101106955
 20
13.79216648631536
 10
108.4015538953369
 20
13.79545888852092
 10
108.3633813889985
 20
13.79805435028731
 10
108.3251507372514
 20
13.80030134189327
 10
107.8248479753772
 20
13.8003013418341
 10
107.7866217229358
 20
13.79797624508185
 10
107.7484529500602
 20
13.79531057913984
 10
107.7103991363161
 20
13.7919637748183
 10
107.6725177612693
 20
13.78759526292745
 10
107.6348663044854
 20
13.78186447427746
 10
107.5975016328916
 20
13.77445190005023
 10
107.5604733121129
 20
13.76528902471653
 10
107.523826110656
 20
13.75447224090111
 10
107.4876047130941
 20
13.7421008265965
 10
107.4518538039999
 20
13.72827405979522
 10
107.4166182310348
 20
13.7130899974125
 10
107.3819475081356
 20
13.69661175903126
 10
107.3478963888881
 20
13.678863233937
 10
107.3145199051246
 20
13.65986622812829
 10
107.2818730886773
 20
13.63964254760373
 10
107.2500109713786
 20
13.6182139983619
 10
107.2189885850608
 20
13.59560238640139
 10
107.1888609615563
 20
13.57182951772078
 10
107.1596831326973
 20
13.54691719831866
 10
107.1315101303159
 20
13.52088723419361
 10
107.1043962644769
 20
13.49376212302207
 10
107.0783792767885
 20
13.46558024020743
 10
107.0534803582757
 20
13.43639582175282
 10
107.0297199817701
 20
13.40626379191368
 10
107.0071186201029
 20
13.37523907494552
 10
106.985696746106
 20
13.3433765951038
 10
106.9654748326106
 20
13.310731276644
 10
106.9464733524484
 20
13.2773580438216
 10
106.9287127784506
 20
13.24331182089206
 10
106.9122135834491
 20
13.20864753211089
 10
106.8969984893216
 20
13.17341980346992
 10
106.8831322364504
 20
13.13767768855848
 10
106.8707168072393
 20
13.1014653020102
 10
106.8598554734785
 20
13.06482658746306
 10
106.8506515069584
 20
13.02780548855505
 10
106.8432067011806
 20
12.99044599536626
 10
106.8374746362891
 20
12.95279675426881
 10
106.8331362125974
 20
12.9149149781833
 10
106.8298430198056
 20
12.87685880085676
 10
106.8272466476136
 20
12.83868635603623
 10
106.8249986856514
 20
12.80045577749326
 10
106.8249986857214
 20
9.500154046835923
 10
106.8226729526981
 20
9.461928977038738
 10
106.8200067063194
 20
9.423761340284961
 10
106.8166594332302
 20
9.385708569618033
 10
106.8122906200754
 20
9.347828098081388
 10
106.8065597534994
 20
9.310177358718448
 10
106.7991473531442
 20
9.272813184984819
 10
106.7899848239988
 20
9.235785258345316
 10
106.7791685128653
 20
9.199138558267025
 10
106.7667976573398
 20
9.162917981809187
 10
106.7529714950177
 20
9.12716842603101
 10
106.7377880460055
 20
9.091934941486243
 10
106.7213104467817
 20
9.057266976669318
 10
106.7035626359518
 20
9.023218921932091
 10
106.6845664681043
 20
8.989845430368195
 10
106.6643437978275
 20
8.95720115507126
 10
106.6429164797097
 20
8.92534074913491
 10
106.6203063683389
 20
8.894318865652769
 10
106.5965353183035
 20
8.864190157718482
 10
106.5716251841919
 20
8.835009278425664
 10
106.5455978205922
 20
8.806830880867947
 10
106.5184757648788
 20
8.779708935308491
 10
106.4902972679998
 20
8.753681697414727
 10
106.4611162997534
 20
8.728771702981525
 10
106.4309875137795
 20
8.705000803917926
 10
106.3999655637178
 20
8.682390852132986
 10
106.368105103208
 20
8.660963699535741
 10
106.3354607858898
 20
8.640741198035241
 10
106.3020872654028
 20
8.621745199540526
 10
106.268039195387
 20
8.603997555960646
 10
106.2333712294818
 20
8.587520119204638
 10
106.1981377576794
 20
8.572336830923497
 10
106.1623882252629
 20
8.558510825852945
 10
106.1261676846547
 20
8.546140057717522
 10
106.0895210354838
 20
8.535323691322332
 10
106.0524931773792
 20
8.526160891472477
 10
106.0151290926314
 20
8.5187479226324
 10
105.9774784661527
 20
8.513016048716082
 10
105.939598127823
 20
8.508645838644959
 10
105.9015455056053
 20
8.505296876457753
 10
105.8633780274619
 20
8.50262874619316
 10
105.8251531214515
 20
8.500301031893291
 10
93.82484940588858
 20
8.500301031889712
 10
93.78662432573662
 20
8.502627736175732
 10
93.74845666601947
 20
8.505294896975732
 10
93.71040384717195
 20
8.50864297080372
 10
93.67252328962887
 20
8.513012414173694
 10
93.63487241382506
 20
8.518743683599666
 10
93.59750804279928
 20
8.526156208935312
 10
93.56047987399687
 20
8.535318619207195
 10
93.52383292034165
 20
8.546134661472777
 10
93.4876121126614
 20
8.558505193242892
 10
93.45186238178385
 20
8.572331072028362
 10
93.41662881100944
 20
8.587514370319389
 10
93.38196085374216
 20
8.603991983860012
 10
93.34791287478857
 20
8.621739944995972
 10
93.31453950015021
 20
8.640736367411172
 10
93.28189535582884
 20
8.660959364789531
 10
93.25003506782605
 20
8.682387050814952
 10
93.21901326214355
 20
8.704997539171337
 10
93.18888456478282
 20
8.728768943542602
 10
93.15970360174558
 20
8.753679377612662
 10
93.13152499903356
 20
8.779706955065407
 10
93.10440270058995
 20
8.8068291073109
 10
93.07837496744808
 20
8.8350075778933
 10
93.05346438019251
 20
8.864188424953033
 10
93.02969283784182
 20
8.894317024849128
 10
93.00708223941455
 20
8.9253387539406
 10
92.98565448392947
 20
8.957198988586476
 10
92.96543147040484
 20
8.989843105145787
 10
92.94643509785942
 20
9.023216479977547
 10
92.92868726531173
 20
9.05726448944079
 10
92.91220987178041
 20
9.091932509894533
 10
92.89702690439957
 20
9.127166179443122
 10
92.88320149323112
 20
9.162916042757645
 10
92.87083153220535
 20
9.199137002160702
 10
92.86001612368963
 20
9.235784111452536
 10
92.85085437005159
 20
9.272812424433382
 10
92.84344246963462
 20
9.310176912534423
 10
92.83771160160382
 20
9.347827866621756
 10
92.83334233180664
 20
9.385708469224375
 10
92.82999426068476
 20
9.423761308213457
 10
92.8273269886796
 20
9.461928971460174
 10
92.82500011625154
 20
9.500154046893275
 10
92.82500011623287
 20
12.80045577746849
 10
92.82267349117136
 20
12.83868184791985
 10
92.82000636213499
 20
12.87685044054674
 10
92.81665822514911
 20
12.9149040775247
 10
92.81228857623878
 20
12.95278528102924
 10
92.80655691142909
 20
12.99043657323589
 10
92.79914376983708
 20
13.02780108912019
 10
92.78998059209811
 20
13.06482927021059
 10
92.7791637213868
 20
13.10147636019493
 10
92.76679238867485
 20
13.13769768685723
 10
92.7529658249343
 20
13.17344857798148
 10
92.73778204089408
 20
13.20868419784933
 10
92.72130412690286
 20
13.24335503170217
 10
92.70355595810631
 20
13.27740631027081
 10
92.68455932681886
 20
13.31078298520391
 10
92.66433602535437
 20
13.34343000815014
 10
92.64290784602712
 20
13.37529233075821
 10
92.62029658115123
 20
13.40631490467675
 10
92.59652402304096
 20
13.43644268155446
 10
92.57161196401025
 20
13.46562061304002
 10
92.54558219637328
 20
13.49379365078211
 10
92.51845720527342
 20
13.52090746956862
 10
92.49027536972041
 20
13.5469243333823
 10
92.46109093973243
 20
13.57182307154328
 10
92.43095885358583
 20
13.59558323173942
 10
92.39993404955646
 20
13.61818436165853
 10
92.36807146592061
 20
13.63960600898843
 10
92.33542604095418
 20
13.65982772141697
 10
92.30205271293334
 20
13.67882904663197
 10
92.26800642013404
 20
13.69658953232125
 10
92.2333421008326
 20
13.71308872617263
 10
92.19811439429134
 20
13.72830392568658
 10
92.16237235113441
 20
13.74217037181142
 10
92.12616006744609
 20
13.7545860207633
 10
92.08952146769345
 20
13.76544753727624
 10
92.05250047634342
 20
13.77465158608421
 10
92.01514106434229
 20
13.78209630893986
 10
91.97749186688827
 20
13.78782806796227
 10
91.93961010270149
 20
13.79216599202228
 10
91.90155391346536
 20
13.79545853986048
 10
91.8633814408629
 20
13.79805417021749
 10
91.82515082665132
 20
13.80030134189327
 10
82.82484760284807
 20
13.80030134183369
 10
82.78662134640851
 20
13.79797632654763
 10
82.74845256917933
 20
13.79531073855623
 10
82.71039875037081
 20
13.79196400515416
 10
82.67251736919353
 20
13.78759555363611
 10
82.6348659048576
 20
13.7818648112968
 10
82.59750122448213
 20
13.77445226143174
 10
82.56047289909588
 20
13.76528937350515
 10
82.52382570540905
 20
13.75447254199122
 10
82.48760433621759
 20
13.74210104802213
 10
82.45185348431709
 20
13.72827417272993
 10
82.41661800524445
 20
13.71308997628478
 10
82.38194741092854
 20
13.69661158431548
 10
82.34789644188891
 20
13.67886289499903
 10
82.31452011630722
 20
13.65986572335134
 10
82.28187345236575
 20
13.6396418843883
 10
82.25001146824615
 20
13.61821319312582
 10
82.21898918213048
 20
13.59560146457978
 10
82.18886161220064
 20
13.5718285137661
 10
82.15968377663864
 20
13.54691615570068
 10
82.13151069362641
 20
13.5208862053994
 10
82.1043966602075
 20
13.49376116921261
 10
82.0783794222865
 20
13.46557942059186
 10
82.05348019407052
 20
13.43639518145078
 10
82.02971947251739
 20
13.4062633613096
 10
82.0071177545849
 20
13.37523886968858
 10
81.98569553723075
 20
13.34337661610792
 10
81.96547331741269
 20
13.3107315100879
 10
81.94647159208853
 20
13.27735846114871
 10
81.92871085821581
 20
13.24331237881062
 10
81.91221161275256
 20
13.20864817259385
 10
81.89699659995481
 20
13.17342045478506
 10
81.88313055329571
 20
13.13767828406752
 10
81.87071542412011
 20
13.10146579659149
 10
81.85985445244794
 20
13.06482695806377
 10
81.85065087829903
 20
13.02780573419118
 10
81.84320646359536
 20
12.99044613702509
 10
81.83747477006567
 20
12.95279682531323
 10
81.83313670052132
 20
12.91491500680171
 10
81.82984384896611
 20
12.87685880819044
 10
81.82724780940361
 20
12.83868635617934
 10
81.82500017585139
 20
12.80045577749326
 10
81.82500017583754
 20
9.500154046835467
 10
81.82267401572312
 20
9.461928991862166
 10
81.82000735977998
 20
9.423761369083095
 10
81.81665971217967
 20
9.385708610692539
 10
81.8122905770932
 20
9.347828148884772
 10
81.80655945869217
 20
9.310177415854056
 10
81.79914689242639
 20
9.272813244100515
 10
81.78998428002548
 20
9.235785312824267
 10
81.77916795318298
 20
9.199138598347435
 10
81.7667971342097
 20
9.162917994567957
 10
81.75297104541654
 20
9.127168395383748
 10
81.73778769178557
 20
9.09193484831249
 10
81.72131019958667
 20
9.057266802360594
 10
81.70356250292185
 20
9.023218652355927
 10
81.68456645219487
 20
8.989845056076894
 10
81.66434389780921
 20
8.957200671301869
 10
81.6429166901687
 20
8.925340155809237
 10
81.62030667967689
 20
8.894318167377397
 10
81.59653571673755
 20
8.864189363784726
 10
81.57162565175429
 20
8.835008402809616
 10
81.54559833513076
 20
8.806829942230463
 10
81.51847630036945
 20
8.77970795668974
 10
81.49029779912288
 20
8.753680701822814
 10
81.46111680501794
 20
8.728770710433963
 10
81.43098797554499
 20
8.704999831426766
 10
81.39996596819447
 20
8.68238991370481
 10
81.36810544045635
 20
8.660962806171673
 10
81.33546104982121
 20
8.640740357730948
 10
81.30208745377922
 20
8.621744417286206
 10
81.26803930982076
 20
8.603996833741042
 10
81.23337127543596
 20
8.587519455999029
 10
81.19813774424562
 20
8.572336223333252
 10
81.16238816189627
 20
8.558510272791366
 10
81.12616757875207
 20
8.546139560770811
 10
81.08952089233332
 20
8.535323254500482
 10
81.05249300015975
 20
8.526160521209298
 10
81.01512888245961
 20
8.518747626628423
 10
80.97747822323379
 20
8.513015822460728
 10
80.93959785234074
 20
8.508645675106322
 10
80.90154519769749
 20
8.505296770361887
 10
80.86337768722058
 20
8.502628694024124
 10
80.82515274885157
 20
8.500301031893291
 10
68.82484717071441
 20
8.500301031889485
 10
68.78662212995516
 20
8.502627737989996
 10
68.74845451410556
 20
8.505294912202067
 10
68.71040174807524
 20
8.508643022637214
 10
68.67252125677385
 20
8.513012537406964
 10
68.63487046511102
 20
8.518743924622832
 10
68.59750619969371
 20
8.52615662018448
 10
68.56047815179943
 20
8.535319230794852
 10
68.52383132229886
 20
8.546135480661027
 10
68.48761062988728
 20
8.558506205272401
 10
68.45186099326031
 20
8.572332240118392
 10
68.41662748401017
 20
8.587515636827149
 10
68.38195955417302
 20
8.603993289005082
 10
68.3479115777709
 20
8.621741239650212
 10
68.31453819049205
 20
8.640737613052849
 10
68.28189402802525
 20
8.660960533503292
 10
68.25003372605897
 20
8.682388125291844
 10
68.21901192028156
 20
8.70499851270879
 10
68.18888324638179
 20
8.728769820044446
 10
68.15970234004804
 20
8.75368017158911
 10
68.13152383696888
 20
8.779707691633076
 10
68.10440169007472
 20
8.806829821665925
 10
68.07837415525637
 20
8.835008305154815
 10
68.05346379491561
 20
8.864189191096008
 10
68.02969248940667
 20
8.894317846395381
 10
68.00708211908363
 20
8.925339637958792
 10
67.98565456430094
 20
8.957199932692105
 10
67.9654317054126
 20
8.989844097501174
 10
67.94643542277288
 20
9.023217499291881
 10
67.92868759673592
 20
9.057265504970068
 10
67.91221010765593
 20
9.091933481441607
 10
67.89702692633387
 20
9.127167058163983
 10
67.88320120569665
 20
9.162916785711187
 10
67.87083089493683
 20
9.199137584927255
 10
67.86001515264399
 20
9.235784528551633
 10
67.85085313740774
 20
9.272812689323755
 10
67.84344110309644
 20
9.310177057429909
 10
67.83771025039039
 20
9.347827932189167
 10
67.83334111823592
 20
9.38570848902966
 10
67.82999327649543
 20
9.423761307431083
 10
67.82732629503072
 20
9.461928966873122
 10
67.82499974365134
 20
9.500154046893275
 10
67.82499974370387
 20
12.80045577746831
 10
67.82267354507848
 20
12.83868186701121
 10
67.82000682490411
 20
12.87685047795407
 10
67.81665906163174
 20
12.91490413169679
 10
67.81228973371231
 20
12.9527853496393
 10
67.806558319597
 20
12.99043665318151
 10
67.79914534259501
 20
13.027801176391
 10
67.78998224656446
 20
13.06482935825078
 10
67.77916538943464
 20
13.10147643879876
 10
67.76679401708929
 20
13.13769774214834
 10
67.75296737541191
 20
13.1734485924129
 10
67.7377834898889
 20
13.20868415034808
 10
67.72130546111998
 20
13.24335490179676
 10
67.70355716939434
 20
13.27740608271983
 10
67.68456041189381
 20
13.31078265024137
 10
67.66433698580022
 20
13.34342956148548
 10
67.64290868829539
 20
13.37529177357623
 10
67.62029731656105
 20
13.40631424363769
 10
67.59652466777925
 20
13.43644192879393
 10
67.57161253913159
 20
13.46561978616906
 10
67.54558272780002
 20
13.49379277288712
 10
67.51845772345596
 20
13.52090656887191
 10
67.49027590430308
 20
13.54692343801552
 10
67.46109151558993
 20
13.5718222057511
 10
67.4309594907578
 20
13.59558241582608
 10
67.39993476324753
 20
13.61818361198787
 10
67.36807226650046
 20
13.63960533798387
 10
67.33542693395747
 20
13.65982713756154
 10
67.3020536990598
 20
13.67882855446829
 10
67.2680074952484
 20
13.69658913245151
 10
67.23334325596443
 20
13.71308841525866
 10
67.19811561586983
 20
13.72830369673675
 10
67.16237362494337
 20
13.74217021630691
 10
67.12616138189867
 20
13.75458592880383
 10
67.08952281393
 20
13.76544749746576
 10
67.05250184823114
 20
13.77465158553094
 10
67.0151424584692
 20
13.78209633331465
 10
66.97749328177883
 20
13.78782810368827
 10
66.93961153731198
 20
13.79216602828202
 10
66.90155536701263
 20
13.79545856854084
 10
66.86338291282504
 20
13.79805418590974
 10
66.82515231665149
 20
13.80030134189327
 10
66.32484769225515
 20
13.80030134183369
 10
66.2866214445678
 20
13.79797630511098
 10
66.24845267484136
 20
13.79531070048244
 10
66.21039886103663
 20
13.79196396004224
 10
66.1725174811146
 20
13.78759551588455
 10
66.134866013036
 20
13.78186480010352
 10
66.09750132281056
 20
13.7744523000748
 10
66.06047298202134
 20
13.76528948116434
 10
66.0238257690188
 20
13.7544727285635
 10
65.9876043782582
 20
13.74210131403962
 10
65.95185350419503
 20
13.72827450936003
 10
65.91661800400527
 20
13.71309036570107
 10
65.88194739126446
 20
13.69661200596562
 10
65.84789640847588
 20
13.6788633301688
 10
65.81452007585244
 20
13.6598661551894
 10
65.78187341360706
 20
13.63964229790621
 10
65.75001144195254
 20
13.61821357519805
 10
65.71898918110206
 20
13.59560180394369
 10
65.68886165126821
 20
13.57182880102197
 10
65.659683872664
 20
13.54691638331166
 10
65.63151086550239
 20
13.52088636769155
 10
65.60439692866089
 20
13.49376126237038
 10
65.57837980498539
 20
13.46557944290608
 10
65.55348070053492
 20
13.43639513376164
 10
65.52972010388214
 20
13.40626324704114
 10
65.50711850359959
 20
13.37523869484867
 10
65.48569638826005
 20
13.34337638928827
 10
65.46547424643609
 20
13.31073124246405
 10
65.44647256670021
 20
13.27735816648009
 10
65.4287118376252
 20
13.24331207344044
 10
65.41221254778361
 20
13.20864787544919
 10
65.39699743399136
 20
13.17342018707732
 10
65.38313123846172
 20
13.13767806389081
 10
65.37071593482972
 20
13.10146563423975
 10
65.35985478582017
 20
13.06482685587574
 10
65.35065105415789
 20
13.02780568655046
 10
65.3432065243519
 20
12.99044613039834
 10
65.33747476947223
 20
12.95279684207101
 10
65.333136683298
 20
12.91491503223789
 10
65.3298438486529
 20
12.87685883127543
 10
65.32724784836045
 20
12.83868636956009
 10
65.32500026525133
 20
12.80045577749326
 10
65.3250002652444
 20
7.000148980440719
 10
65.33130936663804
 20
6.94652805710394
 10
65.33808551699417
 20
6.893066660730949
 10
65.34579576527528
 20
6.839924318285563
 10
65.3549071604441
 20
6.787260556731553
 10
65.36588675146311
 20
6.735234903032732
 10
65.3792015872948
 20
6.684006884152878
 10
65.39531871690167
 20
6.633736027055802
 10
65.41468482808318
 20
6.584579818487227
 10
65.43738736125454
 20
6.536659748084389
 10
65.46320632790752
 20
6.490066500660852
 10
65.49191182095376
 20
6.444889767174045
 10
65.52327393330472
 20
6.401219238581425
 10
65.55706275787156
 20
6.359144605840405
 10
65.593048387566
 20
6.318755559908431
 10
65.63100391516491
 20
6.280144738635223
 10
65.6707714341361
 20
6.243472562108342
 10
65.71226204073878
 20
6.208967234717377
 10
65.75538983151854
 20
6.176859908157012
 10
65.80006890302058
 20
6.147381734121934
 10
65.84621335179043
 20
6.120763864306836
 10
65.89373727437316
 20
6.097237450406402
 10
65.94255367470771
 20
6.077024324689118
 10
65.99254003629801
 20
6.060043346651097
 10
66.04353136328416
 20
6.045851046586554
 10
66.09536016143363
 20
6.033982644833235
 10
66.14785893651379
 20
6.023973361728897
 10
66.20086019429186
 20
6.015358417611292
 10
66.25419644053522
 20
6.007673032818187
 10
66.30770018101123
 20
6.000452427687326
  0
ELLIPSE
  5
16D0F
330
16D04
100
AcDbEntity
  8
13
100
AcDbEllipse
 10
2.000304656051524
 20
0.0006092642933098
 30
0.0
 11
1.414644379919874
 21
1.414644376680483
 31
0.0
210
0.0
220
0.0
230
1.0
 40
0.9996954599
 41
2.356346783853188
 42
3.926838524154459
  0
ELLIPSE
  5
16D10
330
16D04
100
AcDbEntity
  8
13
100
AcDbEllipse
 10
137.7369706654514
 20
0.0006092642933098
 30
0.0
 11
1.414644378415573
 21
-1.414644378414263
 31
0.0
210
0.0
220
0.0
230
1.0
 40
0.9996954599
 41
5.497939437056287
 42
7.068431177269406
  0
LWPOLYLINE
  5
16D11
330
16D04
100
AcDbEntity
  8
13
100
AcDbPolyline
 90
        4
 70
     1
 43
0.0
 10
121.3249982684514
 20
12.00030812489331
 10
121.3249982684514
 20
0.0003061578933128
 10
111.3250003546514
 20
0.0003061578933128
 10
111.3250003546514
 20
12.00030812489331
  0
LWPOLYLINE
  5
16D12
330
16D04
100
AcDbEntity
  8
13
100
AcDbPolyline
 90
        4
 70
     1
 43
0.0
 10
63.32499993745148
 20
12.00030812489331
 10
63.32499993745148
 20
0.0003061578933128
 10
53.32500004445146
 20
0.0003061578933128
 10
53.32500004445146
 20
12.00030812489331
  0
LWPOLYLINE
  5
16D13
330
16D04
100
AcDbEntity
  8
13
100
AcDbPolyline
 90
        4
 70
     1
 43
0.0
 10
35.57499957985158
 20
0.0003061578933128
 10
35.57499957985158
 20
12.00030812489331
 10
51.32499994945135
 20
12.00030812489331
 10
51.32499994945135
 20
0.0003061578933128
  0
LWPOLYLINE
  5
16D14
330
16D04
100
AcDbEntity
  8
13
100
AcDbPolyline
 90
        4
 70
     1
 43
0.0
 10
18.32499814925142
 20
0.0003061578933128
 10
18.32499814925142
 20
12.00030812489331
 10
34.07500026525133
 20
12.00030812489331
 10
34.07500026525133
 20
0.0003061578933128
  0
LWPOLYLINE
  5
16D15
330
16D04
100
AcDbEntity
  8
13
100
AcDbPolyline
 90
        2
 70
     0
 43
0.0
 10
16.32500154665138
 20
0.0003061578933128
 10
1.824998238651343
 20
0.0003061578933128
  0
LWPOLYLINE
  5
16D16
330
16D04
100
AcDbEntity
  8
13
100
AcDbPolyline
 90
        5
 70
     0
 43
0.0
 10
1.912300416851508
 20
11.91300222149329
 10
1.824998238651343
 20
12.00030812489331
 10
16.32500154665138
 20
12.00030812489331
 10
16.32500154665138
 20
0.0003061578933128
 10
16.2376993686513
 20
0.0876046106932975
  0
LWPOLYLINE
  5
16D17
330
16D04
100
AcDbEntity
  8
13
100
AcDbPolyline
 90
        3
 70
     0
 43
0.0
 10
1.912300416851508
 20
0.0876046106932975
 10
1.824998238651343
 20
0.0003061578933128
 10
1.824998238651343
 20
12.00030812489331
  0
LWPOLYLINE
  5
16D18
330
16D04
100
AcDbEntity
  8
13
100
AcDbPolyline
 90
        2
 70
     0
 43
0.0
 10
137.7375799312624
 20
-1.999695391919743
 10
1.999695388834195
 20
-1.999695391756809
  0
LWPOLYLINE
  5
16D19
330
16D04
100
AcDbEntity
  8
13
100
AcDbPolyline
 90
        4
 70
     1
 43
0.0
 10
137.1351004928514
 20
12.00030812489331
 10
123.3250023216514
 20
12.00030812489331
 10
123.3250023216514
 20
0.0003061578933128
 10
137.1351004928514
 20
0.0003061578933128
  0
ENDBLK
  5
16D1A
330
16D04
100
AcDbEntity
  8
0
100
AcDbBlockEnd
  0
BLOCK
  5
1709D
330
1709C
100
AcDbEntity
  8
0
100
AcDbBlockBegin
  2
SW_CENTERMARKSYMBOL_13
 70
     0
 10
0.0
 20
0.0
 30
0.0
  3
SW_CENTERMARKSYMBOL_13
  1
SW_CENTERMARKSYMBOL_13
  0
LINE
  5
1709E
330
1709C
100
AcDbEntity
  8
SLD-0
 62
     0
100
AcDbLine
 10
0.0
 20
0.0
 30
0.0
 11
0.0
 21
1.25
 31
0.0
  0
LINE
  5
1709F
330
1709C
100
AcDbEntity
  8
SLD-0
 62
     0
100
AcDbLine
 10
0.0
 20
0.0
 30
0.0
 11
-1.25
 21
0.0
 31
0.0
  0
LINE
  5
170A0
330
1709C
100
AcDbEntity
  8
SLD-0
 62
     0
100
AcDbLine
 10
0.0
 20
0.0
 30
0.0
 11
0.0
 21
-1.25
 31
0.0
  0
LINE
  5
170A1
330
1709C
100
AcDbEntity
  8
SLD-0
 62
     0
100
AcDbLine
 10
0.0
 20
0.0
 30
0.0
 11
1.25
 21
0.0
 31
0.0
  0
LINE
  5
170A2
330
1709C
100
AcDbEntity
  8
SLD-0
 62
     0
100
AcDbLine
 10
0.0
 20
2.5
 30
0.0
 11
0.0
 21
3.5
 31
0.0
  0
LINE
  5
170A3
330
1709C
100
AcDbEntity
  8
SLD-0
 62
     0
100
AcDbLine
 10
-2.5
 20
0.0
 30
0.0
 11
-3.5
 21
0.0
 31
0.0
  0
LINE
  5
170A4
330
1709C
100
AcDbEntity
  8
SLD-0
 62
     0
100
AcDbLine
 10
0.0
 20
-2.5
 30
0.0
 11
0.0
 21
-3.5
 31
0.0
  0
LINE
  5
170A5
330
1709C
100
AcDbEntity
  8
SLD-0
 62
     0
100
AcDbLine
 10
2.5
 20
0.0
 30
0.0
 11
3.5
 21
0.0
 31
0.0
  0
ENDBLK
  5
170A6
330
1709C
100
AcDbEntity
  8
0
100
AcDbBlockEnd
  0
BLOCK
  5
170A8
330
170A7
100
AcDbEntity
  8
0
100
AcDbBlockBegin
  2
SW_CENTERMARKSYMBOL_14
 70
     0
 10
0.0
 20
0.0
 30
0.0
  3
SW_CENTERMARKSYMBOL_14
  1
SW_CENTERMARKSYMBOL_14
  0
LINE
  5
170A9
330
170A7
100
AcDbEntity
  8
SLD-0
 62
     0
100
AcDbLine
 10
0.0
 20
0.0
 30
0.0
 11
0.0
 21
1.25
 31
0.0
  0
LINE
  5
170AA
330
170A7
100
AcDbEntity
  8
SLD-0
 62
     0
100
AcDbLine
 10
0.0
 20
0.0
 30
0.0
 11
-1.25
 21
0.0
 31
0.0
  0
LINE
  5
170AB
330
170A7
100
AcDbEntity
  8
SLD-0
 62
     0
100
AcDbLine
 10
0.0
 20
0.0
 30
0.0
 11
0.0
 21
-1.25
 31
0.0
  0
LINE
  5
170AC
330
170A7
100
AcDbEntity
  8
SLD-0
 62
     0
100
AcDbLine
 10
0.0
 20
0.0
 30
0.0
 11
1.25
 21
0.0
 31
0.0
  0
LINE
  5
170AD
330
170A7
100
AcDbEntity
  8
SLD-0
 62
     0
100
AcDbLine
 10
0.0
 20
2.5
 30
0.0
 11
0.0
 21
3.5
 31
0.0
  0
LINE
  5
170AE
330
170A7
100
AcDbEntity
  8
SLD-0
 62
     0
100
AcDbLine
 10
-2.5
 20
0.0
 30
0.0
 11
-3.5
 21
0.0
 31
0.0
  0
LINE
  5
170AF
330
170A7
100
AcDbEntity
  8
SLD-0
 62
     0
100
AcDbLine
 10
0.0
 20
-2.5
 30
0.0
 11
0.0
 21
-3.5
 31
0.0
  0
LINE
  5
170B0
330
170A7
100
AcDbEntity
  8
SLD-0
 62
     0
100
AcDbLine
 10
2.5
 20
0.0
 30
0.0
 11
3.5
 21
0.0
 31
0.0
  0
ENDBLK
  5
170B1
330
170A7
100
AcDbEntity
  8
0
100
AcDbBlockEnd
  0
BLOCK
  5
172BF
330
172BE
100
AcDbEntity
  8
0
100
AcDbBlockBegin
  2
SW_CENTERMARKSYMBOL_0
 70
     0
 10
0.0
 20
0.0
 30
0.0
  3
SW_CENTERMARKSYMBOL_0
  1
SW_CENTERMARKSYMBOL_0
  0
LINE
  5
172C0
330
172BE
100
AcDbEntity
  8
240
 62
     0
100
AcDbLine
 10
0.0
 20
0.0
 30
0.0
 11
0.0
 21
2.5
 31
0.0
  0
LINE
  5
172C1
330
172BE
100
AcDbEntity
  8
240
 62
     0
100
AcDbLine
 10
0.0
 20
0.0
 30
0.0
 11
-2.5
 21
0.0
 31
0.0
  0
LINE
  5
172C2
330
172BE
100
AcDbEntity
  8
240
 62
     0
100
AcDbLine
 10
0.0
 20
0.0
 30
0.0
 11
0.0
 21
-2.5
 31
0.0
  0
LINE
  5
172C3
330
172BE
100
AcDbEntity
  8
240
 62
     0
100
AcDbLine
 10
0.0
 20
0.0
 30
0.0
 11
2.5
 21
0.0
 31
0.0
  0
LINE
  5
172C4
330
172BE
100
AcDbEntity
  8
240
 62
     0
100
AcDbLine
 10
0.0
 20
2.5
 30
0.0
 11
0.0
 21
3.6
 31
0.0
  0
LINE
  5
172C5
330
172BE
100
AcDbEntity
  8
240
 62
     0
100
AcDbLine
 10
-2.5
 20
0.0
 30
0.0
 11
-3.6
 21
0.0
 31
0.0
  0
LINE
  5
172C6
330
172BE
100
AcDbEntity
  8
240
 62
     0
100
AcDbLine
 10
0.0
 20
-2.5
 30
0.0
 11
0.0
 21
-3.6
 31
0.0
  0
LINE
  5
172C7
330
172BE
100
AcDbEntity
  8
240
 62
     0
100
AcDbLine
 10
2.5
 20
0.0
 30
0.0
 11
3.6
 21
0.0
 31
0.0
  0
ENDBLK
  5
172C8
330
172BE
100
AcDbEntity
  8
0
100
AcDbBlockEnd
  0
BLOCK
  5
172CA
330
172C9
100
AcDbEntity
  8
0
100
AcDbBlockBegin
  2
SW_CENTERMARKSYMBOL_1
 70
     0
 10
0.0
 20
0.0
 30
0.0
  3
SW_CENTERMARKSYMBOL_1
  1
SW_CENTERMARKSYMBOL_1
  0
LINE
  5
172CB
330
172C9
100
AcDbEntity
  8
240
 62
     0
100
AcDbLine
 10
0.0
 20
0.0
 30
0.0
 11
0.0
 21
2.5
 31
0.0
  0
LINE
  5
172CC
330
172C9
100
AcDbEntity
  8
240
 62
     0
100
AcDbLine
 10
0.0
 20
0.0
 30
0.0
 11
-2.5
 21
0.0
 31
0.0
  0
LINE
  5
172CD
330
172C9
100
AcDbEntity
  8
240
 62
     0
100
AcDbLine
 10
0.0
 20
0.0
 30
0.0
 11
0.0
 21
-2.5
 31
0.0
  0
LINE
  5
172CE
330
172C9
100
AcDbEntity
  8
240
 62
     0
100
AcDbLine
 10
0.0
 20
0.0
 30
0.0
 11
2.5
 21
0.0
 31
0.0
  0
LINE
  5
172CF
330
172C9
100
AcDbEntity
  8
240
 62
     0
100
AcDbLine
 10
0.0
 20
2.5
 30
0.0
 11
0.0
 21
3.1
 31
0.0
  0
LINE
  5
172D0
330
172C9
100
AcDbEntity
  8
240
 62
     0
100
AcDbLine
 10
-2.5
 20
0.0
 30
0.0
 11
-3.1
 21
0.0
 31
0.0
  0
LINE
  5
172D1
330
172C9
100
AcDbEntity
  8
240
 62
     0
100
AcDbLine
 10
0.0
 20
-2.5
 30
0.0
 11
0.0
 21
-3.1
 31
0.0
  0
LINE
  5
172D2
330
172C9
100
AcDbEntity
  8
240
 62
     0
100
AcDbLine
 10
2.5
 20
0.0
 30
0.0
 11
3.1
 21
0.0
 31
0.0
  0
ENDBLK
  5
172D3
330
172C9
100
AcDbEntity
  8
0
100
AcDbBlockEnd
  0
BLOCK
  5
172D5
330
172D4
100
AcDbEntity
  8
0
100
AcDbBlockBegin
  2
SW_CENTERMARKSYMBOL_2
 70
     0
 10
0.0
 20
0.0
 30
0.0
  3
SW_CENTERMARKSYMBOL_2
  1
SW_CENTERMARKSYMBOL_2
  0
LINE
  5
172D6
330
172D4
100
AcDbEntity
  8
240
 62
     0
100
AcDbLine
 10
0.0
 20
0.0
 30
0.0
 11
0.0
 21
2.5
 31
0.0
  0
LINE
  5
172D7
330
172D4
100
AcDbEntity
  8
240
 62
     0
100
AcDbLine
 10
0.0
 20
0.0
 30
0.0
 11
-2.5
 21
0.0
 31
0.0
  0
LINE
  5
172D8
330
172D4
100
AcDbEntity
  8
240
 62
     0
100
AcDbLine
 10
0.0
 20
0.0
 30
0.0
 11
0.0
 21
-2.5
 31
0.0
  0
LINE
  5
172D9
330
172D4
100
AcDbEntity
  8
240
 62
     0
100
AcDbLine
 10
0.0
 20
0.0
 30
0.0
 11
2.5
 21
0.0
 31
0.0
  0
LINE
  5
172DA
330
172D4
100
AcDbEntity
  8
240
 62
     0
100
AcDbLine
 10
0.0
 20
2.5
 30
0.0
 11
0.0
 21
3.1
 31
0.0
  0
LINE
  5
172DB
330
172D4
100
AcDbEntity
  8
240
 62
     0
100
AcDbLine
 10
-2.5
 20
0.0
 30
0.0
 11
-3.1
 21
0.0
 31
0.0
  0
LINE
  5
172DC
330
172D4
100
AcDbEntity
  8
240
 62
     0
100
AcDbLine
 10
0.0
 20
-2.5
 30
0.0
 11
0.0
 21
-3.1
 31
0.0
  0
LINE
  5
172DD
330
172D4
100
AcDbEntity
  8
240
 62
     0
100
AcDbLine
 10
2.5
 20
0.0
 30
0.0
 11
3.1
 21
0.0
 31
0.0
  0
ENDBLK
  5
172DE
330
172D4
100
AcDbEntity
  8
0
100
AcDbBlockEnd
  0
BLOCK
  5
172E0
330
172DF
100
AcDbEntity
  8
0
100
AcDbBlockBegin
  2
SW_CENTERMARKSYMBOL_3
 70
     0
 10
0.0
 20
0.0
 30
0.0
  3
SW_CENTERMARKSYMBOL_3
  1
SW_CENTERMARKSYMBOL_3
  0
LINE
  5
172E1
330
172DF
100
AcDbEntity
  8
240
 62
     0
100
AcDbLine
 10
0.0
 20
0.0
 30
0.0
 11
0.0
 21
2.5
 31
0.0
  0
LINE
  5
172E2
330
172DF
100
AcDbEntity
  8
240
 62
     0
100
AcDbLine
 10
0.0
 20
0.0
 30
0.0
 11
-2.5
 21
0.0
 31
0.0
  0
LINE
  5
172E3
330
172DF
100
AcDbEntity
  8
240
 62
     0
100
AcDbLine
 10
0.0
 20
0.0
 30
0.0
 11
0.0
 21
-2.5
 31
0.0
  0
LINE
  5
172E4
330
172DF
100
AcDbEntity
  8
240
 62
     0
100
AcDbLine
 10
0.0
 20
0.0
 30
0.0
 11
2.5
 21
0.0
 31
0.0
  0
LINE
  5
172E5
330
172DF
100
AcDbEntity
  8
240
 62
     0
100
AcDbLine
 10
0.0
 20
2.5
 30
0.0
 11
0.0
 21
3.1
 31
0.0
  0
LINE
  5
172E6
330
172DF
100
AcDbEntity
  8
240
 62
     0
100
AcDbLine
 10
-2.5
 20
0.0
 30
0.0
 11
-3.1
 21
0.0
 31
0.0
  0
LINE
  5
172E7
330
172DF
100
AcDbEntity
  8
240
 62
     0
100
AcDbLine
 10
0.0
 20
-2.5
 30
0.0
 11
0.0
 21
-3.1
 31
0.0
  0
LINE
  5
172E8
330
172DF
100
AcDbEntity
  8
240
 62
     0
100
AcDbLine
 10
2.5
 20
0.0
 30
0.0
 11
3.1
 21
0.0
 31
0.0
  0
ENDBLK
  5
172E9
330
172DF
100
AcDbEntity
  8
0
100
AcDbBlockEnd
  0
BLOCK
  5
175B5
330
175B4
100
AcDbEntity
  8
0
100
AcDbBlockBegin
  2
SW_CENTERMARKSYMBOL_28
 70
     0
 10
0.0
 20
0.0
 30
0.0
  3
SW_CENTERMARKSYMBOL_28
  1
SW_CENTERMARKSYMBOL_28
  0
LINE
  5
175B6
330
175B4
100
AcDbEntity
  8
240
 62
     0
100
AcDbLine
 10
0.0
 20
0.0
 30
0.0
 11
0.0
 21
0.5
 31
0.0
  0
LINE
  5
175B7
330
175B4
100
AcDbEntity
  8
240
 62
     0
100
AcDbLine
 10
0.0
 20
0.0
 30
0.0
 11
-0.5
 21
0.0
 31
0.0
  0
LINE
  5
175B8
330
175B4
100
AcDbEntity
  8
240
 62
     0
100
AcDbLine
 10
0.0
 20
0.0
 30
0.0
 11
0.0
 21
-0.5
 31
0.0
  0
LINE
  5
175B9
330
175B4
100
AcDbEntity
  8
240
 62
     0
100
AcDbLine
 10
0.0
 20
0.0
 30
0.0
 11
0.5
 21
0.0
 31
0.0
  0
LINE
  5
175BA
330
175B4
100
AcDbEntity
  8
240
 62
     0
100
AcDbLine
 10
0.0
 20
1.0
 30
0.0
 11
0.0
 21
1.423760430699999
 31
0.0
  0
LINE
  5
175BB
330
175B4
100
AcDbEntity
  8
240
 62
     0
100
AcDbLine
 10
-1.0
 20
0.0
 30
0.0
 11
-1.423760430699999
 21
0.0
 31
0.0
  0
LINE
  5
175BC
330
175B4
100
AcDbEntity
  8
240
 62
     0
100
AcDbLine
 10
0.0
 20
-1.0
 30
0.0
 11
0.0
 21
-1.423760430699999
 31
0.0
  0
LINE
  5
175BD
330
175B4
100
AcDbEntity
  8
240
 62
     0
100
AcDbLine
 10
1.0
 20
0.0
 30
0.0
 11
1.423760430699999
 21
0.0
 31
0.0
  0
ENDBLK
  5
175BE
330
175B4
100
AcDbEntity
  8
0
100
AcDbBlockEnd
  0
BLOCK
  5
175C0
330
175BF
100
AcDbEntity
  8
0
100
AcDbBlockBegin
  2
SW_CENTERMARKSYMBOL_36
 70
     0
 10
0.0
 20
0.0
 30
0.0
  3
SW_CENTERMARKSYMBOL_36
  1
SW_CENTERMARKSYMBOL_36
  0
LINE
  5
175C1
330
175BF
100
AcDbEntity
  8
240
 62
     0
100
AcDbLine
 10
0.0
 20
0.0
 30
0.0
 11
0.0
 21
0.5
 31
0.0
  0
LINE
  5
175C2
330
175BF
100
AcDbEntity
  8
240
 62
     0
100
AcDbLine
 10
0.0
 20
0.0
 30
0.0
 11
-0.5
 21
0.0
 31
0.0
  0
LINE
  5
175C3
330
175BF
100
AcDbEntity
  8
240
 62
     0
100
AcDbLine
 10
0.0
 20
0.0
 30
0.0
 11
0.0
 21
-0.5
 31
0.0
  0
LINE
  5
175C4
330
175BF
100
AcDbEntity
  8
240
 62
     0
100
AcDbLine
 10
0.0
 20
0.0
 30
0.0
 11
0.5
 21
0.0
 31
0.0
  0
LINE
  5
175C5
330
175BF
100
AcDbEntity
  8
240
 62
     0
100
AcDbLine
 10
0.0
 20
1.0
 30
0.0
 11
0.0
 21
1.9
 31
0.0
  0
LINE
  5
175C6
330
175BF
100
AcDbEntity
  8
240
 62
     0
100
AcDbLine
 10
-1.0
 20
0.0
 30
0.0
 11
-1.9
 21
0.0
 31
0.0
  0
LINE
  5
175C7
330
175BF
100
AcDbEntity
  8
240
 62
     0
100
AcDbLine
 10
0.0
 20
-1.0
 30
0.0
 11
0.0
 21
-1.9
 31
0.0
  0
LINE
  5
175C8
330
175BF
100
AcDbEntity
  8
240
 62
     0
100
AcDbLine
 10
1.0
 20
0.0
 30
0.0
 11
1.9
 21
0.0
 31
0.0
  0
ENDBLK
  5
175C9
330
175BF
100
AcDbEntity
  8
0
100
AcDbBlockEnd
  0
BLOCK
  5
175CB
330
175CA
100
AcDbEntity
  8
0
100
AcDbBlockBegin
  2
SW_CENTERMARKSYMBOL_37
 70
     0
 10
0.0
 20
0.0
 30
0.0
  3
SW_CENTERMARKSYMBOL_37
  1
SW_CENTERMARKSYMBOL_37
  0
LINE
  5
175CC
330
175CA
100
AcDbEntity
  8
240
 62
     0
100
AcDbLine
 10
0.0
 20
0.0
 30
0.0
 11
0.0
 21
0.5
 31
0.0
  0
LINE
  5
175CD
330
175CA
100
AcDbEntity
  8
240
 62
     0
100
AcDbLine
 10
0.0
 20
0.0
 30
0.0
 11
-0.5
 21
0.0
 31
0.0
  0
LINE
  5
175CE
330
175CA
100
AcDbEntity
  8
240
 62
     0
100
AcDbLine
 10
0.0
 20
0.0
 30
0.0
 11
0.0
 21
-0.5
 31
0.0
  0
LINE
  5
175CF
330
175CA
100
AcDbEntity
  8
240
 62
     0
100
AcDbLine
 10
0.0
 20
0.0
 30
0.0
 11
0.5
 21
0.0
 31
0.0
  0
LINE
  5
175D0
330
175CA
100
AcDbEntity
  8
240
 62
     0
100
AcDbLine
 10
0.0
 20
1.0
 30
0.0
 11
0.0
 21
1.9
 31
0.0
  0
LINE
  5
175D1
330
175CA
100
AcDbEntity
  8
240
 62
     0
100
AcDbLine
 10
-1.0
 20
0.0
 30
0.0
 11
-1.9
 21
0.0
 31
0.0
  0
LINE
  5
175D2
330
175CA
100
AcDbEntity
  8
240
 62
     0
100
AcDbLine
 10
0.0
 20
-1.0
 30
0.0
 11
0.0
 21
-1.9
 31
0.0
  0
LINE
  5
175D3
330
175CA
100
AcDbEntity
  8
240
 62
     0
100
AcDbLine
 10
1.0
 20
0.0
 30
0.0
 11
1.9
 21
0.0
 31
0.0
  0
ENDBLK
  5
175D4
330
175CA
100
AcDbEntity
  8
0
100
AcDbBlockEnd
  0
BLOCK
  5
178FD
330
178FC
100
AcDbEntity
  8
0
100
AcDbBlockBegin
  2
SW_CENTERMARKSYMBOL_27
 70
     0
 10
0.0
 20
0.0
 30
0.0
  3
SW_CENTERMARKSYMBOL_27
  1
SW_CENTERMARKSYMBOL_27
  0
LINE
  5
178FE
330
178FC
100
AcDbEntity
  8
240
 62
     0
100
AcDbLine
 10
0.0
 20
0.0
 30
0.0
 11
0.0
 21
0.5
 31
0.0
  0
LINE
  5
178FF
330
178FC
100
AcDbEntity
  8
240
 62
     0
100
AcDbLine
 10
0.0
 20
0.0
 30
0.0
 11
-0.5
 21
0.0
 31
0.0
  0
LINE
  5
17900
330
178FC
100
AcDbEntity
  8
240
 62
     0
100
AcDbLine
 10
0.0
 20
0.0
 30
0.0
 11
0.0
 21
-0.5
 31
0.0
  0
LINE
  5
17901
330
178FC
100
AcDbEntity
  8
240
 62
     0
100
AcDbLine
 10
0.0
 20
0.0
 30
0.0
 11
0.5
 21
0.0
 31
0.0
  0
LINE
  5
17902
330
178FC
100
AcDbEntity
  8
240
 62
     0
100
AcDbLine
 10
0.0
 20
1.0
 30
0.0
 11
0.0
 21
1.9
 31
0.0
  0
LINE
  5
17903
330
178FC
100
AcDbEntity
  8
240
 62
     0
100
AcDbLine
 10
-1.0
 20
0.0
 30
0.0
 11
-1.9
 21
0.0
 31
0.0
  0
LINE
  5
17904
330
178FC
100
AcDbEntity
  8
240
 62
     0
100
AcDbLine
 10
0.0
 20
-1.0
 30
0.0
 11
0.0
 21
-1.9
 31
0.0
  0
LINE
  5
17905
330
178FC
100
AcDbEntity
  8
240
 62
     0
100
AcDbLine
 10
1.0
 20
0.0
 30
0.0
 11
1.9
 21
0.0
 31
0.0
  0
ENDBLK
  5
17906
330
178FC
100
AcDbEntity
  8
0
100
AcDbBlockEnd
  0
BLOCK
  5
17908
330
17907
100
AcDbEntity
  8
0
100
AcDbBlockBegin
  2
SW_CENTERMARKSYMBOL_35
 70
     0
 10
0.0
 20
0.0
 30
0.0
  3
SW_CENTERMARKSYMBOL_35
  1
SW_CENTERMARKSYMBOL_35
  0
LINE
  5
17909
330
17907
100
AcDbEntity
  8
240
 62
     0
100
AcDbLine
 10
0.0
 20
0.0
 30
0.0
 11
0.0
 21
0.5
 31
0.0
  0
LINE
  5
1790A
330
17907
100
AcDbEntity
  8
240
 62
     0
100
AcDbLine
 10
0.0
 20
0.0
 30
0.0
 11
-0.5
 21
0.0
 31
0.0
  0
LINE
  5
1790B
330
17907
100
AcDbEntity
  8
240
 62
     0
100
AcDbLine
 10
0.0
 20
0.0
 30
0.0
 11
0.0
 21
-0.5
 31
0.0
  0
LINE
  5
1790C
330
17907
100
AcDbEntity
  8
240
 62
     0
100
AcDbLine
 10
0.0
 20
0.0
 30
0.0
 11
0.5
 21
0.0
 31
0.0
  0
LINE
  5
1790D
330
17907
100
AcDbEntity
  8
240
 62
     0
100
AcDbLine
 10
0.0
 20
1.0
 30
0.0
 11
0.0
 21
2.1
 31
0.0
  0
LINE
  5
1790E
330
17907
100
AcDbEntity
  8
240
 62
     0
100
AcDbLine
 10
-1.0
 20
0.0
 30
0.0
 11
-2.1
 21
0.0
 31
0.0
  0
LINE
  5
1790F
330
17907
100
AcDbEntity
  8
240
 62
     0
100
AcDbLine
 10
0.0
 20
-1.0
 30
0.0
 11
0.0
 21
-2.1
 31
0.0
  0
LINE
  5
17910
330
17907
100
AcDbEntity
  8
240
 62
     0
100
AcDbLine
 10
1.0
 20
0.0
 30
0.0
 11
2.1
 21
0.0
 31
0.0
  0
ENDBLK
  5
17911
330
17907
100
AcDbEntity
  8
0
100
AcDbBlockEnd
  0
BLOCK
  5
17CD5
330
17CD4
100
AcDbEntity
  8
0
100
AcDbBlockBegin
  2
SW_CENTERMARKSYMBOL_4
 70
     0
 10
0.0
 20
0.0
 30
0.0
  3
SW_CENTERMARKSYMBOL_4
  1
SW_CENTERMARKSYMBOL_4
  0
LINE
  5
17CD6
330
17CD4
100
AcDbEntity
  8
SLD-0
 62
     0
100
AcDbLine
 10
0.0
 20
0.0
 30
0.0
 11
0.0
 21
0.5
 31
0.0
  0
LINE
  5
17CD7
330
17CD4
100
AcDbEntity
  8
SLD-0
 62
     0
100
AcDbLine
 10
0.0
 20
0.0
 30
0.0
 11
-0.5
 21
0.0
 31
0.0
  0
LINE
  5
17CD8
330
17CD4
100
AcDbEntity
  8
SLD-0
 62
     0
100
AcDbLine
 10
0.0
 20
0.0
 30
0.0
 11
0.0
 21
-0.5
 31
0.0
  0
LINE
  5
17CD9
330
17CD4
100
AcDbEntity
  8
SLD-0
 62
     0
100
AcDbLine
 10
0.0
 20
0.0
 30
0.0
 11
0.5
 21
0.0
 31
0.0
  0
LINE
  5
17CDA
330
17CD4
100
AcDbEntity
  8
SLD-0
 62
     0
100
AcDbLine
 10
0.0
 20
1.0
 30
0.0
 11
0.0
 21
1.1
 31
0.0
  0
LINE
  5
17CDB
330
17CD4
100
AcDbEntity
  8
SLD-0
 62
     0
100
AcDbLine
 10
-1.0
 20
0.0
 30
0.0
 11
-1.1
 21
0.0
 31
0.0
  0
LINE
  5
17CDC
330
17CD4
100
AcDbEntity
  8
SLD-0
 62
     0
100
AcDbLine
 10
0.0
 20
-1.0
 30
0.0
 11
0.0
 21
-1.1
 31
0.0
  0
LINE
  5
17CDD
330
17CD4
100
AcDbEntity
  8
SLD-0
 62
     0
100
AcDbLine
 10
1.0
 20
0.0
 30
0.0
 11
1.1
 21
0.0
 31
0.0
  0
ENDBLK
  5
17CDE
330
17CD4
100
AcDbEntity
  8
0
100
AcDbBlockEnd
  0
BLOCK
  5
17CE0
330
17CDF
100
AcDbEntity
  8
0
100
AcDbBlockBegin
  2
SW_CENTERMARKSYMBOL_5
 70
     0
 10
0.0
 20
0.0
 30
0.0
  3
SW_CENTERMARKSYMBOL_5
  1
SW_CENTERMARKSYMBOL_5
  0
LINE
  5
17CE1
330
17CDF
100
AcDbEntity
  8
SLD-0
 62
     0
100
AcDbLine
 10
0.0
 20
0.0
 30
0.0
 11
0.0
 21
0.5
 31
0.0
  0
LINE
  5
17CE2
330
17CDF
100
AcDbEntity
  8
SLD-0
 62
     0
100
AcDbLine
 10
0.0
 20
0.0
 30
0.0
 11
-0.5
 21
0.0
 31
0.0
  0
LINE
  5
17CE3
330
17CDF
100
AcDbEntity
  8
SLD-0
 62
     0
100
AcDbLine
 10
0.0
 20
0.0
 30
0.0
 11
0.0
 21
-0.5
 31
0.0
  0
LINE
  5
17CE4
330
17CDF
100
AcDbEntity
  8
SLD-0
 62
     0
100
AcDbLine
 10
0.0
 20
0.0
 30
0.0
 11
0.5
 21
0.0
 31
0.0
  0
LINE
  5
17CE5
330
17CDF
100
AcDbEntity
  8
SLD-0
 62
     0
100
AcDbLine
 10
0.0
 20
1.0
 30
0.0
 11
0.0
 21
1.1
 31
0.0
  0
LINE
  5
17CE6
330
17CDF
100
AcDbEntity
  8
SLD-0
 62
     0
100
AcDbLine
 10
-1.0
 20
0.0
 30
0.0
 11
-1.1
 21
0.0
 31
0.0
  0
LINE
  5
17CE7
330
17CDF
100
AcDbEntity
  8
SLD-0
 62
     0
100
AcDbLine
 10
0.0
 20
-1.0
 30
0.0
 11
0.0
 21
-1.1
 31
0.0
  0
LINE
  5
17CE8
330
17CDF
100
AcDbEntity
  8
SLD-0
 62
     0
100
AcDbLine
 10
1.0
 20
0.0
 30
0.0
 11
1.1
 21
0.0
 31
0.0
  0
ENDBLK
  5
17CE9
330
17CDF
100
AcDbEntity
  8
0
100
AcDbBlockEnd
  0
BLOCK
  5
17CEB
330
17CEA
100
AcDbEntity
  8
0
100
AcDbBlockBegin
  2
SW_CENTERMARKSYMBOL_6
 70
     0
 10
0.0
 20
0.0
 30
0.0
  3
SW_CENTERMARKSYMBOL_6
  1
SW_CENTERMARKSYMBOL_6
  0
LINE
  5
17CEC
330
17CEA
100
AcDbEntity
  8
SLD-0
 62
     0
100
AcDbLine
 10
0.0
 20
0.0
 30
0.0
 11
0.0
 21
0.5
 31
0.0
  0
LINE
  5
17CED
330
17CEA
100
AcDbEntity
  8
SLD-0
 62
     0
100
AcDbLine
 10
0.0
 20
0.0
 30
0.0
 11
-0.5
 21
0.0
 31
0.0
  0
LINE
  5
17CEE
330
17CEA
100
AcDbEntity
  8
SLD-0
 62
     0
100
AcDbLine
 10
0.0
 20
0.0
 30
0.0
 11
0.0
 21
-0.5
 31
0.0
  0
LINE
  5
17CEF
330
17CEA
100
AcDbEntity
  8
SLD-0
 62
     0
100
AcDbLine
 10
0.0
 20
0.0
 30
0.0
 11
0.5
 21
0.0
 31
0.0
  0
LINE
  5
17CF0
330
17CEA
100
AcDbEntity
  8
SLD-0
 62
     0
100
AcDbLine
 10
0.0
 20
1.0
 30
0.0
 11
0.0
 21
1.1
 31
0.0
  0
LINE
  5
17CF1
330
17CEA
100
AcDbEntity
  8
SLD-0
 62
     0
100
AcDbLine
 10
-1.0
 20
0.0
 30
0.0
 11
-1.1
 21
0.0
 31
0.0
  0
LINE
  5
17CF2
330
17CEA
100
AcDbEntity
  8
SLD-0
 62
     0
100
AcDbLine
 10
0.0
 20
-1.0
 30
0.0
 11
0.0
 21
-1.1
 31
0.0
  0
LINE
  5
17CF3
330
17CEA
100
AcDbEntity
  8
SLD-0
 62
     0
100
AcDbLine
 10
1.0
 20
0.0
 30
0.0
 11
1.1
 21
0.0
 31
0.0
  0
ENDBLK
  5
17CF4
330
17CEA
100
AcDbEntity
  8
0
100
AcDbBlockEnd
  0
BLOCK
  5
17CF6
330
17CF5
100
AcDbEntity
  8
0
100
AcDbBlockBegin
  2
SW_CENTERMARKSYMBOL_7
 70
     0
 10
0.0
 20
0.0
 30
0.0
  3
SW_CENTERMARKSYMBOL_7
  1
SW_CENTERMARKSYMBOL_7
  0
LINE
  5
17CF7
330
17CF5
100
AcDbEntity
  8
SLD-0
 62
     0
100
AcDbLine
 10
0.0
 20
0.0
 30
0.0
 11
0.0
 21
0.5
 31
0.0
  0
LINE
  5
17CF8
330
17CF5
100
AcDbEntity
  8
SLD-0
 62
     0
100
AcDbLine
 10
0.0
 20
0.0
 30
0.0
 11
-0.5
 21
0.0
 31
0.0
  0
LINE
  5
17CF9
330
17CF5
100
AcDbEntity
  8
SLD-0
 62
     0
100
AcDbLine
 10
0.0
 20
0.0
 30
0.0
 11
0.0
 21
-0.5
 31
0.0
  0
LINE
  5
17CFA
330
17CF5
100
AcDbEntity
  8
SLD-0
 62
     0
100
AcDbLine
 10
0.0
 20
0.0
 30
0.0
 11
0.5
 21
0.0
 31
0.0
  0
LINE
  5
17CFB
330
17CF5
100
AcDbEntity
  8
SLD-0
 62
     0
100
AcDbLine
 10
0.0
 20
1.0
 30
0.0
 11
0.0
 21
1.1
 31
0.0
  0
LINE
  5
17CFC
330
17CF5
100
AcDbEntity
  8
SLD-0
 62
     0
100
AcDbLine
 10
-1.0
 20
0.0
 30
0.0
 11
-1.1
 21
0.0
 31
0.0
  0
LINE
  5
17CFD
330
17CF5
100
AcDbEntity
  8
SLD-0
 62
     0
100
AcDbLine
 10
0.0
 20
-1.0
 30
0.0
 11
0.0
 21
-1.1
 31
0.0
  0
LINE
  5
17CFE
330
17CF5
100
AcDbEntity
  8
SLD-0
 62
     0
100
AcDbLine
 10
1.0
 20
0.0
 30
0.0
 11
1.1
 21
0.0
 31
0.0
  0
ENDBLK
  5
17CFF
330
17CF5
100
AcDbEntity
  8
0
100
AcDbBlockEnd
  0
BLOCK
  5
17D01
330
17D00
100
AcDbEntity
  8
0
100
AcDbBlockBegin
  2
SW_CENTERMARKSYMBOL_26
 70
     0
 10
0.0
 20
0.0
 30
0.0
  3
SW_CENTERMARKSYMBOL_26
  1
SW_CENTERMARKSYMBOL_26
  0
LINE
  5
17D02
330
17D00
100
AcDbEntity
  8
SLD-0
 62
     0
100
AcDbLine
 10
0.0
 20
0.0
 30
0.0
 11
0.0
 21
0.5
 31
0.0
  0
LINE
  5
17D03
330
17D00
100
AcDbEntity
  8
SLD-0
 62
     0
100
AcDbLine
 10
0.0
 20
0.0
 30
0.0
 11
-0.5
 21
0.0
 31
0.0
  0
LINE
  5
17D04
330
17D00
100
AcDbEntity
  8
SLD-0
 62
     0
100
AcDbLine
 10
0.0
 20
0.0
 30
0.0
 11
0.0
 21
-0.5
 31
0.0
  0
LINE
  5
17D05
330
17D00
100
AcDbEntity
  8
SLD-0
 62
     0
100
AcDbLine
 10
0.0
 20
0.0
 30
0.0
 11
0.5
 21
0.0
 31
0.0
  0
LINE
  5
17D06
330
17D00
100
AcDbEntity
  8
SLD-0
 62
     0
100
AcDbLine
 10
0.0
 20
1.0
 30
0.0
 11
0.0
 21
1.199999999999999
 31
0.0
  0
LINE
  5
17D07
330
17D00
100
AcDbEntity
  8
SLD-0
 62
     0
100
AcDbLine
 10
-1.0
 20
0.0
 30
0.0
 11
-1.199999999999999
 21
0.0
 31
0.0
  0
LINE
  5
17D08
330
17D00
100
AcDbEntity
  8
SLD-0
 62
     0
100
AcDbLine
 10
0.0
 20
-1.0
 30
0.0
 11
0.0
 21
-1.199999999999999
 31
0.0
  0
LINE
  5
17D09
330
17D00
100
AcDbEntity
  8
SLD-0
 62
     0
100
AcDbLine
 10
1.0
 20
0.0
 30
0.0
 11
1.199999999999999
 21
0.0
 31
0.0
  0
ENDBLK
  5
17D0A
330
17D00
100
AcDbEntity
  8
0
100
AcDbBlockEnd
  0
BLOCK
  5
17D0C
330
17D0B
100
AcDbEntity
  8
0
100
AcDbBlockBegin
  2
SW_CENTERMARKSYMBOL_29
 70
     0
 10
0.0
 20
0.0
 30
0.0
  3
SW_CENTERMARKSYMBOL_29
  1
SW_CENTERMARKSYMBOL_29
  0
LINE
  5
17D0D
330
17D0B
100
AcDbEntity
  8
SLD-0
 62
     0
100
AcDbLine
 10
0.0
 20
0.0
 30
0.0
 11
0.0
 21
0.5
 31
0.0
  0
LINE
  5
17D0E
330
17D0B
100
AcDbEntity
  8
SLD-0
 62
     0
100
AcDbLine
 10
0.0
 20
0.0
 30
0.0
 11
-0.5
 21
0.0
 31
0.0
  0
LINE
  5
17D0F
330
17D0B
100
AcDbEntity
  8
SLD-0
 62
     0
100
AcDbLine
 10
0.0
 20
0.0
 30
0.0
 11
0.0
 21
-0.5
 31
0.0
  0
LINE
  5
17D10
330
17D0B
100
AcDbEntity
  8
SLD-0
 62
     0
100
AcDbLine
 10
0.0
 20
0.0
 30
0.0
 11
0.5
 21
0.0
 31
0.0
  0
LINE
  5
17D11
330
17D0B
100
AcDbEntity
  8
SLD-0
 62
     0
100
AcDbLine
 10
0.0
 20
1.0
 30
0.0
 11
0.0
 21
1.199999999999999
 31
0.0
  0
LINE
  5
17D12
330
17D0B
100
AcDbEntity
  8
SLD-0
 62
     0
100
AcDbLine
 10
-1.0
 20
0.0
 30
0.0
 11
-1.199999999999999
 21
0.0
 31
0.0
  0
LINE
  5
17D13
330
17D0B
100
AcDbEntity
  8
SLD-0
 62
     0
100
AcDbLine
 10
0.0
 20
-1.0
 30
0.0
 11
0.0
 21
-1.199999999999999
 31
0.0
  0
LINE
  5
17D14
330
17D0B
100
AcDbEntity
  8
SLD-0
 62
     0
100
AcDbLine
 10
1.0
 20
0.0
 30
0.0
 11
1.199999999999999
 21
0.0
 31
0.0
  0
ENDBLK
  5
17D15
330
17D0B
100
AcDbEntity
  8
0
100
AcDbBlockEnd
  0
BLOCK
  5
194F2
330
194F1
100
AcDbEntity
  8
0
100
AcDbBlockBegin
  2
*D30
 70
     1
 10
0.0
 20
0.0
 30
0.0
  3
*D30
  1

  0
LINE
  5
1C3C5
330
194F1
100
AcDbEntity
  8
30
  6
Continuous
 62
     0
440
 16777216
370
    -2
100
AcDbLine
 10
238.0
 20
1150.972719700754
 30
0.0
 11
238.0
 21
1216.606928680402
 31
0.0
  0
LINE
  5
1C3C6
330
194F1
100
AcDbEntity
  8
30
  6
Continuous
 62
     0
440
 16777216
370
    -2
100
AcDbLine
 10
268.0
 20
1150.972719700755
 30
0.0
 11
268.0
 21
1216.606928680402
 31
0.0
  0
LINE
  5
1C3C7
330
194F1
100
AcDbEntity
  8
30
  6
Continuous
 62
     0
440
 16777216
370
    -2
100
AcDbLine
 10
240.0
 20
1216.106928680402
 30
0.0
 11
266.0
 21
1216.106928680402
 31
0.0
  0
LINE
  5
1C3C8
330
194F1
100
AcDbEntity
  8
30
  6
Continuous
 62
     0
440
 16777216
370
    -2
100
AcDbLine
 10
268.0
 20
1216.106928680402
 30
0.0
 11
288.0
 21
1216.106928680402
 31
0.0
  0
INSERT
  5
1C3C9
330
194F1
100
AcDbEntity
  8
30
  6
Continuous
 62
     0
440
 16777216
370
    -2
100
AcDbBlockReference
  2
_OPEN
 10
238.0
 20
1216.106928680402
 30
0.0
 41
2.0
 42
2.0
 43
2.0
 50
180.0
  0
INSERT
  5
1C3CA
330
194F1
100
AcDbEntity
  8
30
  6
Continuous
 62
     0
440
 16777216
370
    -2
100
AcDbBlockReference
  2
_OPEN
 10
268.0
 20
1216.106928680402
 30
0.0
 41
2.0
 42
2.0
 43
2.0
  0
MTEXT
  5
1C3CB
330
194F1
100
AcDbEntity
  8
30
  6
Continuous
440
 16777216
100
AcDbMText
 10
279.0
 20
1227.106928680402
 30
0.0
 40
8.0
 41
0.0
 46
0.0
 71
     2
 72
     1
  1
\A1;30
 73
     1
 44
1.0
 90
        3
 63
     9
421
 13158600
 45
1.25
441
        0
  0
POINT
  5
1C3CC
330
194F1
100
AcDbEntity
  8
DEFPOINTS
  6
Continuous
 62
     0
440
 16777216
100
AcDbPoint
 10
238.0
 20
1149.972719700754
 30
0.0
  0
POINT
  5
1C3CD
330
194F1
100
AcDbEntity
  8
DEFPOINTS
  6
Continuous
 62
     0
440
 16777216
100
AcDbPoint
 10
268.0
 20
1149.972719700755
 30
0.0
  0
POINT
  5
1C3CE
330
194F1
100
AcDbEntity
  8
DEFPOINTS
  6
Continuous
 62
     0
440
 16777216
100
AcDbPoint
 10
268.0
 20
1216.106928680402
 30
0.0
  0
ENDBLK
  5
194F3
330
194F1
100
AcDbEntity
  8
0
100
AcDbBlockEnd
  0
BLOCK
  5
1950C
330
1950B
100
AcDbEntity
  8
0
100
AcDbBlockBegin
  2
*D31
 70
     1
 10
0.0
 20
0.0
 30
0.0
  3
*D31
  1

  0
LINE
  5
1C372
330
1950B
100
AcDbEntity
  8
30
  6
Continuous
 62
     0
440
 16777216
370
    -2
100
AcDbLine
 10
221.8003930448431
 20
1173.472719700755
 30
0.0
 11
311.0077674990237
 21
1173.472719700755
 31
0.0
  0
LINE
  5
1C373
330
1950B
100
AcDbEntity
  8
30
  6
Continuous
 62
     0
440
 16777216
370
    -2
100
AcDbLine
 10
278.9999998794992
 20
1078.472719700755
 30
0.0
 11
311.0077674990237
 21
1078.472719700755
 31
0.0
  0
LINE
  5
1C374
330
1950B
100
AcDbEntity
  8
30
  6
Continuous
 62
     0
440
 16777216
370
    -2
100
AcDbLine
 10
310.5077674990237
 20
1171.472719700755
 30
0.0
 11
310.5077674990237
 21
1080.472719700755
 31
0.0
  0
INSERT
  5
1C375
330
1950B
100
AcDbEntity
  8
30
  6
Continuous
 62
     0
440
 16777216
370
    -2
100
AcDbBlockReference
  2
_OPEN
 10
310.5077674990237
 20
1173.472719700755
 30
0.0
 41
2.0
 42
2.0
 43
2.0
 50
90.0
  0
INSERT
  5
1C376
330
1950B
100
AcDbEntity
  8
30
  6
Continuous
 62
     0
440
 16777216
370
    -2
100
AcDbBlockReference
  2
_OPEN
 10
310.5077674990237
 20
1078.472719700755
 30
0.0
 41
2.0
 42
2.0
 43
2.0
 50
270.0
  0
MTEXT
  5
1C377
330
1950B
100
AcDbEntity
  8
30
  6
Continuous
440
 16777216
100
AcDbMText
 10
299.5077674990235
 20
1125.972719700755
 30
0.0
 40
8.0
 41
0.0
 46
0.0
 71
     2
 72
     1
  1
\A1;95
 11
0.0000000000000001
 21
1.0
 31
0.0
 73
     1
 44
1.0
 90
        3
 63
     9
421
 13158600
 45
1.25
441
        0
  0
POINT
  5
1C378
330
1950B
100
AcDbEntity
  8
DEFPOINTS
  6
Continuous
 62
     0
440
 16777216
100
AcDbPoint
 10
220.8003930448431
 20
1173.472719700755
 30
0.0
  0
POINT
  5
1C379
330
1950B
100
AcDbEntity
  8
DEFPOINTS
  6
Continuous
 62
     0
440
 16777216
100
AcDbPoint
 10
277.9999998794992
 20
1078.472719700755
 30
0.0
  0
POINT
  5
1C37A
330
1950B
100
AcDbEntity
  8
DEFPOINTS
  6
Continuous
 62
     0
440
 16777216
100
AcDbPoint
 10
310.5077674990237
 20
1078.472719700755
 30
0.0
  0
ENDBLK
  5
1950D
330
1950B
100
AcDbEntity
  8
0
100
AcDbBlockEnd
  0
BLOCK
  5
19518
330
19517
100
AcDbEntity
  8
0
100
AcDbBlockBegin
  2
*D32
 70
     1
 10
0.0
 20
0.0
 30
0.0
  3
*D32
  1

  0
LINE
  5
1C3A8
330
19517
100
AcDbEntity
  8
30
  6
Continuous
 62
     0
440
 16777216
370
    -2
100
AcDbLine
 10
163.0
 20
1144.972719700755
 30
0.0
 11
163.0
 21
1243.051531008732
 31
0.0
  0
LINE
  5
1C3A9
330
19517
100
AcDbEntity
  8
30
  6
Continuous
 62
     0
440
 16777216
370
    -2
100
AcDbLine
 10
208.0
 20
1184.972719700755
 30
0.0
 11
208.0
 21
1243.051531008732
 31
0.0
  0
LINE
  5
1C3AA
330
19517
100
AcDbEntity
  8
30
  6
Continuous
 62
     0
440
 16777216
370
    -2
100
AcDbLine
 10
165.0
 20
1242.551531008732
 30
0.0
 11
206.0
 21
1242.551531008732
 31
0.0
  0
INSERT
  5
1C3AB
330
19517
100
AcDbEntity
  8
30
  6
Continuous
 62
     0
440
 16777216
370
    -2
100
AcDbBlockReference
  2
_OPEN
 10
163.0
 20
1242.551531008732
 30
0.0
 41
2.0
 42
2.0
 43
2.0
 50
180.0
  0
INSERT
  5
1C3AC
330
19517
100
AcDbEntity
  8
30
  6
Continuous
 62
     0
440
 16777216
370
    -2
100
AcDbBlockReference
  2
_OPEN
 10
208.0
 20
1242.551531008732
 30
0.0
 41
2.0
 42
2.0
 43
2.0
  0
MTEXT
  5
1C3AD
330
19517
100
AcDbEntity
  8
30
  6
Continuous
440
 16777216
100
AcDbMText
 10
185.5
 20
1249.551531008732
 30
0.0
 40
8.0
 41
0.0
 46
0.0
 71
     5
 72
     1
  1
\A1;45
 73
     1
 44
1.0
 90
        3
 63
     9
421
 13158600
 45
1.25
441
        0
  0
POINT
  5
1C3AE
330
19517
100
AcDbEntity
  8
DEFPOINTS
  6
Continuous
 62
     0
440
 16777216
100
AcDbPoint
 10
163.0
 20
1143.972719700755
 30
0.0
  0
POINT
  5
1C3AF
330
19517
100
AcDbEntity
  8
DEFPOINTS
  6
Continuous
 62
     0
440
 16777216
100
AcDbPoint
 10
208.0
 20
1183.972719700755
 30
0.0
  0
POINT
  5
1C3B0
330
19517
100
AcDbEntity
  8
DEFPOINTS
  6
Continuous
 62
     0
440
 16777216
100
AcDbPoint
 10
208.0
 20
1242.551531008732
 30
0.0
  0
ENDBLK
  5
19519
330
19517
100
AcDbEntity
  8
0
100
AcDbBlockEnd
  0
BLOCK
  5
19524
330
19523
100
AcDbEntity
  8
0
100
AcDbBlockBegin
  2
*D33
 70
     1
 10
0.0
 20
0.0
 30
0.0
  3
*D33
  1

  0
LINE
  5
1C3BC
330
19523
100
AcDbEntity
  8
30
  6
Continuous
 62
     0
440
 16777216
370
    -2
100
AcDbLine
 10
208.0
 20
1184.972719700755
 30
0.0
 11
208.0
 21
1243.051531008732
 31
0.0
  0
LINE
  5
1C3BD
330
19523
100
AcDbEntity
  8
30
  6
Continuous
 62
     0
440
 16777216
370
    -2
100
AcDbLine
 10
253.0
 20
1144.972719700755
 30
0.0
 11
253.0
 21
1243.051531008732
 31
0.0
  0
LINE
  5
1C3BE
330
19523
100
AcDbEntity
  8
30
  6
Continuous
 62
     0
440
 16777216
370
    -2
100
AcDbLine
 10
210.0
 20
1242.551531008732
 30
0.0
 11
251.0
 21
1242.551531008732
 31
0.0
  0
MTEXT
  5
1C3BF
330
19523
100
AcDbEntity
  8
30
  6
Continuous
440
 16777216
100
AcDbMText
 10
230.5
 20
1249.551531008732
 30
0.0
 40
8.0
 41
0.0
 46
0.0
 71
     5
 72
     1
  1
\A1;45
 73
     1
 44
1.0
 90
        3
 63
     9
421
 13158600
 45
1.25
441
        0
  0
INSERT
  5
1C3C0
330
19523
100
AcDbEntity
  8
30
  6
Continuous
 62
     0
440
 16777216
370
    -2
100
AcDbBlockReference
  2
_OPEN
 10
208.0
 20
1242.551531008732
 30
0.0
 41
2.0
 42
2.0
 43
2.0
 50
180.0
  0
INSERT
  5
1C3C1
330
19523
100
AcDbEntity
  8
30
  6
Continuous
 62
     0
440
 16777216
370
    -2
100
AcDbBlockReference
  2
_OPEN
 10
253.0
 20
1242.551531008732
 30
0.0
 41
2.0
 42
2.0
 43
2.0
  0
POINT
  5
1C3C2
330
19523
100
AcDbEntity
  8
DEFPOINTS
  6
Continuous
 62
     0
440
 16777216
100
AcDbPoint
 10
208.0
 20
1183.972719700755
 30
0.0
  0
POINT
  5
1C3C3
330
19523
100
AcDbEntity
  8
DEFPOINTS
  6
Continuous
 62
     0
440
 16777216
100
AcDbPoint
 10
253.0
 20
1143.972719700755
 30
0.0
  0
POINT
  5
1C3C4
330
19523
100
AcDbEntity
  8
DEFPOINTS
  6
Continuous
 62
     0
440
 16777216
100
AcDbPoint
 10
253.0
 20
1242.551531008732
 30
0.0
  0
ENDBLK
  5
19525
330
19523
100
AcDbEntity
  8
0
100
AcDbBlockEnd
  0
BLOCK
  5
19530
330
1952F
100
AcDbEntity
  8
0
100
AcDbBlockBegin
  2
*D34
 70
     1
 10
0.0
 20
0.0
 30
0.0
  3
*D34
  1

  0
LINE
  5
1C2C3
330
1952F
100
AcDbEntity
  8
30
  6
Continuous
 62
     0
440
 16777216
370
    -2
100
AcDbLine
 10
548.2444162702521
 20
506.7251032693912
 30
0.0
 11
548.2444162702521
 21
458.360972394007
 31
0.0
  0
LINE
  5
1C2C4
330
1952F
100
AcDbEntity
  8
30
  6
Continuous
 62
     0
440
 16777216
370
    -2
100
AcDbLine
 10
750.2444162702523
 20
568.9838920533913
 30
0.0
 11
750.2444162702523
 21
458.360972394007
 31
0.0
  0
LINE
  5
1C2C5
330
1952F
100
AcDbEntity
  8
30
  6
Continuous
 62
     0
440
 16777216
370
    -2
100
AcDbLine
 10
550.2444162702523
 20
458.8609723940071
 30
0.0
 11
748.2444162702522
 21
458.8609723940071
 31
0.0
  0
INSERT
  5
1C2C6
330
1952F
100
AcDbEntity
  8
30
  6
Continuous
 62
     0
440
 16777216
370
    -2
100
AcDbBlockReference
  2
_OPEN
 10
548.2444162702521
 20
458.8609723940071
 30
0.0
 41
2.0
 42
2.0
 43
2.0
 50
180.0
  0
INSERT
  5
1C2C7
330
1952F
100
AcDbEntity
  8
30
  6
Continuous
 62
     0
440
 16777216
370
    -2
100
AcDbBlockReference
  2
_OPEN
 10
750.2444162702523
 20
458.8609723940071
 30
0.0
 41
2.0
 42
2.0
 43
2.0
  0
MTEXT
  5
1C2C8
330
1952F
100
AcDbEntity
  8
30
  6
Continuous
440
 16777216
100
AcDbMText
 10
649.2444162702522
 20
469.860972394007
 30
0.0
 40
8.0
 41
0.0
 46
0.0
 71
     2
 72
     1
  1
\A1;202
 73
     1
 44
1.0
 90
        3
 63
     9
421
 13158600
 45
1.25
441
        0
  0
POINT
  5
1C2C9
330
1952F
100
AcDbEntity
  8
DEFPOINTS
  6
Continuous
 62
     0
440
 16777216
100
AcDbPoint
 10
548.2444162702521
 20
507.7251032693911
 30
0.0
  0
POINT
  5
1C2CA
330
1952F
100
AcDbEntity
  8
DEFPOINTS
  6
Continuous
 62
     0
440
 16777216
100
AcDbPoint
 10
750.2444162702523
 20
569.9838920533911
 30
0.0
  0
POINT
  5
1C2CB
330
1952F
100
AcDbEntity
  8
DEFPOINTS
  6
Continuous
 62
     0
440
 16777216
100
AcDbPoint
 10
750.2444162702523
 20
458.8609723940071
 30
0.0
  0
ENDBLK
  5
19531
330
1952F
100
AcDbEntity
  8
0
100
AcDbBlockEnd
  0
BLOCK
  5
1953C
330
1953B
100
AcDbEntity
  8
0
100
AcDbBlockBegin
  2
*D35
 70
     1
 10
0.0
 20
0.0
 30
0.0
  3
*D35
  1

  0
LINE
  5
1C2CC
330
1953B
100
AcDbEntity
  8
30
  6
Continuous
 62
     0
440
 16777216
370
    -2
100
AcDbLine
 10
488.2444162702523
 20
698.839221577391
 30
0.0
 11
488.2444162702523
 21
458.360972394007
 31
0.0
  0
LINE
  5
1C2CD
330
1953B
100
AcDbEntity
  8
30
  6
Continuous
 62
     0
440
 16777216
370
    -2
100
AcDbLine
 10
548.2444162702521
 20
506.7251032693912
 30
0.0
 11
548.2444162702521
 21
458.360972394007
 31
0.0
  0
LINE
  5
1C2CE
330
1953B
100
AcDbEntity
  8
30
  6
Continuous
 62
     0
440
 16777216
370
    -2
100
AcDbLine
 10
490.2444162702521
 20
458.8609723940071
 30
0.0
 11
546.2444162702523
 21
458.8609723940071
 31
0.0
  0
INSERT
  5
1C2CF
330
1953B
100
AcDbEntity
  8
30
  6
Continuous
 62
     0
440
 16777216
370
    -2
100
AcDbBlockReference
  2
_OPEN
 10
488.2444162702523
 20
458.8609723940071
 30
0.0
 41
2.0
 42
2.0
 43
2.0
 50
180.0
  0
INSERT
  5
1C2D0
330
1953B
100
AcDbEntity
  8
30
  6
Continuous
 62
     0
440
 16777216
370
    -2
100
AcDbBlockReference
  2
_OPEN
 10
548.2444162702521
 20
458.8609723940071
 30
0.0
 41
2.0
 42
2.0
 43
2.0
  0
MTEXT
  5
1C2D1
330
1953B
100
AcDbEntity
  8
30
  6
Continuous
440
 16777216
100
AcDbMText
 10
518.2444162702521
 20
469.860972394007
 30
0.0
 40
8.0
 41
0.0
 46
0.0
 71
     2
 72
     1
  1
\A1;60
 73
     1
 44
1.0
 90
        3
 63
     9
421
 13158600
 45
1.25
441
        0
  0
POINT
  5
1C2D2
330
1953B
100
AcDbEntity
  8
DEFPOINTS
  6
Continuous
 62
     0
440
 16777216
100
AcDbPoint
 10
488.2444162702523
 20
699.839221577391
 30
0.0
  0
POINT
  5
1C2D3
330
1953B
100
AcDbEntity
  8
DEFPOINTS
  6
Continuous
 62
     0
440
 16777216
100
AcDbPoint
 10
548.2444162702521
 20
507.7251032693911
 30
0.0
  0
POINT
  5
1C2D4
330
1953B
100
AcDbEntity
  8
DEFPOINTS
  6
Continuous
 62
     0
440
 16777216
100
AcDbPoint
 10
548.2444162702521
 20
458.8609723940071
 30
0.0
  0
ENDBLK
  5
1953D
330
1953B
100
AcDbEntity
  8
0
100
AcDbBlockEnd
  0
BLOCK
  5
19548
330
19547
100
AcDbEntity
  8
0
100
AcDbBlockBegin
  2
*D36
 70
     1
 10
0.0
 20
0.0
 30
0.0
  3
*D36
  1

  0
LINE
  5
1C2BA
330
19547
100
AcDbEntity
  8
30
  6
Continuous
 62
     0
440
 16777216
370
    -2
100
AcDbLine
 10
710.2444162702522
 20
568.9838920533913
 30
0.0
 11
710.2444162702522
 21
488.6498876953909
 31
0.0
  0
LINE
  5
1C2BB
330
19547
100
AcDbEntity
  8
30
  6
Continuous
 62
     0
440
 16777216
370
    -2
100
AcDbLine
 10
548.2444162702521
 20
506.7251032693912
 30
0.0
 11
548.2444162702521
 21
488.6498876953909
 31
0.0
  0
LINE
  5
1C2BC
330
19547
100
AcDbEntity
  8
30
  6
Continuous
 62
     0
440
 16777216
370
    -2
100
AcDbLine
 10
708.2444162702522
 20
489.1498876953908
 30
0.0
 11
550.2444162702523
 21
489.1498876953908
 31
0.0
  0
INSERT
  5
1C2BD
330
19547
100
AcDbEntity
  8
30
  6
Continuous
 62
     0
440
 16777216
370
    -2
100
AcDbBlockReference
  2
_OPEN
 10
710.2444162702522
 20
489.1498876953908
 30
0.0
 41
2.0
 42
2.0
 43
2.0
  0
INSERT
  5
1C2BE
330
19547
100
AcDbEntity
  8
30
  6
Continuous
 62
     0
440
 16777216
370
    -2
100
AcDbBlockReference
  2
_OPEN
 10
548.2444162702521
 20
489.1498876953908
 30
0.0
 41
2.0
 42
2.0
 43
2.0
 50
180.0
  0
MTEXT
  5
1C2BF
330
19547
100
AcDbEntity
  8
30
  6
Continuous
440
 16777216
100
AcDbMText
 10
629.2444162702523
 20
500.149887695391
 30
0.0
 40
8.0
 41
0.0
 46
0.0
 71
     2
 72
     1
  1
\A1;162
 73
     1
 44
1.0
 90
        3
 63
     9
421
 13158600
 45
1.25
441
        0
  0
POINT
  5
1C2C0
330
19547
100
AcDbEntity
  8
DEFPOINTS
  6
Continuous
 62
     0
440
 16777216
100
AcDbPoint
 10
710.2444162702522
 20
569.9838920533911
 30
0.0
  0
POINT
  5
1C2C1
330
19547
100
AcDbEntity
  8
DEFPOINTS
  6
Continuous
 62
     0
440
 16777216
100
AcDbPoint
 10
548.2444162702521
 20
507.7251032693911
 30
0.0
  0
POINT
  5
1C2C2
330
19547
100
AcDbEntity
  8
DEFPOINTS
  6
Continuous
 62
     0
440
 16777216
100
AcDbPoint
 10
548.2444162702521
 20
489.1498876953908
 30
0.0
  0
ENDBLK
  5
19549
330
19547
100
AcDbEntity
  8
0
100
AcDbBlockEnd
  0
BLOCK
  5
19560
330
1955F
100
AcDbEntity
  8
0
100
AcDbBlockBegin
  2
*D37
 70
     1
 10
0.0
 20
0.0
 30
0.0
  3
*D37
  1

  0
LINE
  5
1C2B0
330
1955F
100
AcDbEntity
  8
30
  6
Continuous
 62
     0
440
 16777216
370
    -2
100
AcDbLine
 10
533.2444162702521
 20
556.9838920533912
 30
0.0
 11
533.2444162702521
 21
488.6498876953909
 31
0.0
  0
LINE
  5
1C2B1
330
1955F
100
AcDbEntity
  8
30
  6
Continuous
 62
     0
440
 16777216
370
    -2
100
AcDbLine
 10
548.2444162702521
 20
506.7251032693912
 30
0.0
 11
548.2444162702521
 21
488.6498876953909
 31
0.0
  0
LINE
  5
1C2B2
330
1955F
100
AcDbEntity
  8
30
  6
Continuous
 62
     0
440
 16777216
370
    -2
100
AcDbLine
 10
546.2444162702523
 20
489.1498876953908
 30
0.0
 11
535.2444162702521
 21
489.1498876953908
 31
0.0
  0
LINE
  5
1C2B3
330
1955F
100
AcDbEntity
  8
30
  6
Continuous
 62
     0
440
 16777216
370
    -2
100
AcDbLine
 10
533.2444162702521
 20
489.1498876953908
 30
0.0
 11
514.5777496035856
 21
489.1498876953908
 31
0.0
  0
INSERT
  5
1C2B4
330
1955F
100
AcDbEntity
  8
30
  6
Continuous
 62
     0
440
 16777216
370
    -2
100
AcDbBlockReference
  2
_OPEN
 10
548.2444162702521
 20
489.1498876953908
 30
0.0
 41
2.0
 42
2.0
 43
2.0
  0
INSERT
  5
1C2B5
330
1955F
100
AcDbEntity
  8
30
  6
Continuous
 62
     0
440
 16777216
370
    -2
100
AcDbBlockReference
  2
_OPEN
 10
533.2444162702521
 20
489.1498876953908
 30
0.0
 41
2.0
 42
2.0
 43
2.0
 50
180.0
  0
MTEXT
  5
1C2B6
330
1955F
100
AcDbEntity
  8
30
  6
Continuous
440
 16777216
100
AcDbMText
 10
522.9110829369187
 20
500.149887695391
 30
0.0
 40
8.0
 41
0.0
 46
0.0
 71
     2
 72
     1
  1
\A1;15
 73
     1
 44
1.0
 90
        3
 63
     9
421
 13158600
 45
1.25
441
        0
  0
POINT
  5
1C2B7
330
1955F
100
AcDbEntity
  8
DEFPOINTS
  6
Continuous
 62
     0
440
 16777216
100
AcDbPoint
 10
533.2444162702521
 20
557.983892053391
 30
0.0
  0
POINT
  5
1C2B8
330
1955F
100
AcDbEntity
  8
DEFPOINTS
  6
Continuous
 62
     0
440
 16777216
100
AcDbPoint
 10
548.2444162702521
 20
507.7251032693911
 30
0.0
  0
POINT
  5
1C2B9
330
1955F
100
AcDbEntity
  8
DEFPOINTS
  6
Continuous
 62
     0
440
 16777216
100
AcDbPoint
 10
548.2444162702521
 20
489.1498876953908
 30
0.0
  0
ENDBLK
  5
19561
330
1955F
100
AcDbEntity
  8
0
100
AcDbBlockEnd
  0
BLOCK
  5
1956D
330
1956C
100
AcDbEntity
  8
0
100
AcDbBlockBegin
  2
*D38
 70
     1
 10
0.0
 20
0.0
 30
0.0
  3
*D38
  1

  0
LINE
  5
1BF43
330
1956C
100
AcDbEntity
  8
30
  6
Continuous
 62
     0
440
 16777216
370
    -2
100
AcDbLine
 10
773.9978368750071
 20
808.9838920533908
 30
0.0
 11
811.0091498567529
 21
808.9838920533908
 31
0.0
  0
LINE
  5
1BF44
330
1956C
100
AcDbEntity
  8
30
  6
Continuous
 62
     0
440
 16777216
370
    -2
100
AcDbLine
 10
757.5041539577522
 20
580.9838920533916
 30
0.0
 11
811.0091498567527
 21
580.9838920533913
 31
0.0
  0
LINE
  5
1BF45
330
1956C
100
AcDbEntity
  8
30
  6
Continuous
 62
     0
440
 16777216
370
    -2
100
AcDbLine
 10
810.5091498567528
 20
806.9838920533907
 30
0.0
 11
810.5091498567528
 21
582.9838920533915
 31
0.0
  0
INSERT
  5
1BF46
330
1956C
100
AcDbEntity
  8
30
  6
Continuous
 62
     0
440
 16777216
370
    -2
100
AcDbBlockReference
  2
_OPEN
 10
810.5091498567528
 20
808.9838920533908
 30
0.0
 41
2.0
 42
2.0
 43
2.0
 50
90.0
  0
INSERT
  5
1BF47
330
1956C
100
AcDbEntity
  8
30
  6
Continuous
 62
     0
440
 16777216
370
    -2
100
AcDbBlockReference
  2
_OPEN
 10
810.5091498567528
 20
580.9838920533913
 30
0.0
 41
2.0
 42
2.0
 43
2.0
 50
270.0
  0
MTEXT
  5
1BF48
330
1956C
100
AcDbEntity
  8
30
  6
Continuous
440
 16777216
100
AcDbMText
 10
799.5091498567526
 20
694.9838920533911
 30
0.0
 40
8.0
 41
0.0
 46
0.0
 71
     2
 72
     1
  1
\A1;228
 11
0.0000000000000001
 21
1.0
 31
0.0
 73
     1
 44
1.0
 90
        3
 63
     9
421
 13158600
 45
1.25
441
        0
  0
POINT
  5
1BF49
330
1956C
100
AcDbEntity
  8
DEFPOINTS
  6
Continuous
 62
     0
440
 16777216
100
AcDbPoint
 10
772.9978368750071
 20
808.9838920533908
 30
0.0
  0
POINT
  5
1BF4A
330
1956C
100
AcDbEntity
  8
DEFPOINTS
  6
Continuous
 62
     0
440
 16777216
100
AcDbPoint
 10
756.5041539577522
 20
580.9838920533916
 30
0.0
  0
POINT
  5
1BF4B
330
1956C
100
AcDbEntity
  8
DEFPOINTS
  6
Continuous
 62
     0
440
 16777216
100
AcDbPoint
 10
810.5091498567528
 20
580.9838920533913
 30
0.0
  0
ENDBLK
  5
1956E
330
1956C
100
AcDbEntity
  8
0
100
AcDbBlockEnd
  0
BLOCK
  5
1958F
330
1958E
100
AcDbEntity
  8
0
100
AcDbBlockBegin
  2
*D39
 70
     1
 10
0.0
 20
0.0
 30
0.0
  3
*D39
  1

  0
LINE
  5
1C3EE
330
1958E
100
AcDbEntity
  8
30
  6
Continuous
 62
     0
440
 16777216
370
    -2
100
AcDbLine
 10
751.2444162702522
 20
812.9838872848909
 30
0.0
 11
767.8947004402597
 21
812.9838872848909
 31
0.0
  0
LINE
  5
1C3EF
330
1958E
100
AcDbEntity
  8
30
  6
Continuous
 62
     0
440
 16777216
370
    -2
100
AcDbLine
 10
751.2444162702522
 20
804.9838872848907
 30
0.0
 11
767.8947004402597
 21
804.9838872848907
 31
0.0
  0
LINE
  5
1C3F0
330
1958E
100
AcDbEntity
  8
30
  6
Continuous
 62
     0
440
 16777216
370
    -2
100
AcDbLine
 10
767.3947004402597
 20
814.9838872848908
 30
0.0
 11
767.3947004402597
 21
816.9838872848909
 31
0.0
  0
LINE
  5
1C3F1
330
1958E
100
AcDbEntity
  8
30
  6
Continuous
 62
     0
440
 16777216
370
    -2
100
AcDbLine
 10
767.3947004402597
 20
802.9838872848907
 30
0.0
 11
767.3947004402597
 21
789.6505539515573
 31
0.0
  0
INSERT
  5
1C3F2
330
1958E
100
AcDbEntity
  8
30
  6
Continuous
 62
     0
440
 16777216
370
    -2
100
AcDbBlockReference
  2
_OPEN
 10
767.3947004402597
 20
812.9838872848909
 30
0.0
 41
2.0
 42
2.0
 43
2.0
 50
270.0
  0
INSERT
  5
1C3F3
330
1958E
100
AcDbEntity
  8
30
  6
Continuous
 62
     0
440
 16777216
370
    -2
100
AcDbBlockReference
  2
_OPEN
 10
767.3947004402597
 20
804.9838872848907
 30
0.0
 41
2.0
 42
2.0
 43
2.0
 50
90.0
  0
MTEXT
  5
1C3F4
330
1958E
100
AcDbEntity
  8
30
  6
Continuous
440
 16777216
100
AcDbMText
 10
760.3947004402595
 20
795.3172206182243
 30
0.0
 40
8.0
 41
0.0
 46
0.0
 71
     5
 72
     1
  1
\A1;8
 11
0.0000000000000001
 21
1.0
 31
0.0
 73
     1
 44
1.0
 90
        3
 63
     9
421
 13158600
 45
1.25
441
        0
  0
POINT
  5
1C3F5
330
1958E
100
AcDbEntity
  8
DEFPOINTS
  6
Continuous
 62
     0
440
 16777216
100
AcDbPoint
 10
750.2444162702523
 20
812.9838872848909
 30
0.0
  0
POINT
  5
1C3F6
330
1958E
100
AcDbEntity
  8
DEFPOINTS
  6
Continuous
 62
     0
440
 16777216
100
AcDbPoint
 10
750.2444162702523
 20
804.9838872848907
 30
0.0
  0
POINT
  5
1C3F7
330
1958E
100
AcDbEntity
  8
DEFPOINTS
  6
Continuous
 62
     0
440
 16777216
100
AcDbPoint
 10
767.3947004402597
 20
804.9838872848907
 30
0.0
  0
ENDBLK
  5
19590
330
1958E
100
AcDbEntity
  8
0
100
AcDbBlockEnd
  0
BLOCK
  5
1959C
330
1959B
100
AcDbEntity
  8
0
100
AcDbBlockBegin
  2
*D40
 70
     1
 10
0.0
 20
0.0
 30
0.0
  3
*D40
  1

  0
LINE
  5
1C0B5
330
1959B
100
AcDbEntity
  8
30
  6
Continuous
 62
     0
440
 16777216
370
    -2
100
AcDbLine
 10
265.9999998795003
 20
649.4222084225002
 30
0.0
 11
265.9999998795003
 21
463.0882040644997
 31
0.0
  0
LINE
  5
1C0B6
330
1959B
100
AcDbEntity
  8
30
  6
Continuous
 62
     0
440
 16777216
370
    -2
100
AcDbLine
 10
149.9999998794999
 20
649.4222084225002
 30
0.0
 11
149.9999998794999
 21
463.0882040644997
 31
0.0
  0
LINE
  5
1C0B7
330
1959B
100
AcDbEntity
  8
30
  6
Continuous
 62
     0
440
 16777216
370
    -2
100
AcDbLine
 10
263.9999998795003
 20
463.5882040644997
 30
0.0
 11
151.9999998794999
 21
463.5882040644997
 31
0.0
  0
INSERT
  5
1C0B8
330
1959B
100
AcDbEntity
  8
30
  6
Continuous
 62
     0
440
 16777216
370
    -2
100
AcDbBlockReference
  2
_OPEN
 10
265.9999998795003
 20
463.5882040644997
 30
0.0
 41
2.0
 42
2.0
 43
2.0
  0
INSERT
  5
1C0B9
330
1959B
100
AcDbEntity
  8
30
  6
Continuous
 62
     0
440
 16777216
370
    -2
100
AcDbBlockReference
  2
_OPEN
 10
149.9999998794999
 20
463.5882040644997
 30
0.0
 41
2.0
 42
2.0
 43
2.0
 50
180.0
  0
MTEXT
  5
1C0BA
330
1959B
100
AcDbEntity
  8
30
  6
Continuous
440
 16777216
100
AcDbMText
 10
207.9999998794992
 20
474.5882040644993
 30
0.0
 40
8.0
 41
0.0
 46
0.0
 71
     2
 72
     1
  1
\A1;116
 73
     1
 44
1.0
 90
        3
 63
     9
421
 13158600
 45
1.25
441
        0
  0
POINT
  5
1C0BB
330
1959B
100
AcDbEntity
  8
DEFPOINTS
  6
Continuous
 62
     0
440
 16777216
100
AcDbPoint
 10
265.9999998795003
 20
650.4222084225002
 30
0.0
  0
POINT
  5
1C0BC
330
1959B
100
AcDbEntity
  8
DEFPOINTS
  6
Continuous
 62
     0
440
 16777216
100
AcDbPoint
 10
149.9999998794999
 20
650.4222084225002
 30
0.0
  0
POINT
  5
1C0BD
330
1959B
100
AcDbEntity
  8
DEFPOINTS
  6
Continuous
 62
     0
440
 16777216
100
AcDbPoint
 10
149.9999998794999
 20
463.5882040644997
 30
0.0
  0
ENDBLK
  5
1959D
330
1959B
100
AcDbEntity
  8
0
100
AcDbBlockEnd
  0
BLOCK
  5
195A8
330
195A7
100
AcDbEntity
  8
0
100
AcDbBlockBegin
  2
*D41
 70
     1
 10
0.0
 20
0.0
 30
0.0
  3
*D41
  1

  0
LINE
  5
1BF70
330
195A7
100
AcDbEntity
  8
30
  6
Continuous
 62
     0
440
 16777216
370
    -2
100
AcDbLine
 10
233.4999998794992
 20
659.2222084224994
 30
0.0
 11
233.4999998794992
 21
488.0882040644997
 31
0.0
  0
LINE
  5
1BF71
330
195A7
100
AcDbEntity
  8
30
  6
Continuous
 62
     0
440
 16777216
370
    -2
100
AcDbLine
 10
182.4999998794992
 20
648.4222084224998
 30
0.0
 11
182.4999998794992
 21
488.0882040644997
 31
0.0
  0
LINE
  5
1BF72
330
195A7
100
AcDbEntity
  8
30
  6
Continuous
 62
     0
440
 16777216
370
    -2
100
AcDbLine
 10
231.4999998794992
 20
488.5882040644997
 30
0.0
 11
184.4999998794992
 21
488.5882040644997
 31
0.0
  0
INSERT
  5
1BF73
330
195A7
100
AcDbEntity
  8
30
  6
Continuous
 62
     0
440
 16777216
370
    -2
100
AcDbBlockReference
  2
_OPEN
 10
233.4999998794992
 20
488.5882040644997
 30
0.0
 41
2.0
 42
2.0
 43
2.0
  0
INSERT
  5
1BF74
330
195A7
100
AcDbEntity
  8
30
  6
Continuous
 62
     0
440
 16777216
370
    -2
100
AcDbBlockReference
  2
_OPEN
 10
182.4999998794992
 20
488.5882040644997
 30
0.0
 41
2.0
 42
2.0
 43
2.0
 50
180.0
  0
MTEXT
  5
1BF75
330
195A7
100
AcDbEntity
  8
30
  6
Continuous
440
 16777216
100
AcDbMText
 10
207.9999998794992
 20
499.5882040644993
 30
0.0
 40
8.0
 41
0.0
 46
0.0
 71
     2
 72
     1
  1
\A1;51
 73
     1
 44
1.0
 90
        3
 63
     9
421
 13158600
 45
1.25
441
        0
  0
POINT
  5
1BF76
330
195A7
100
AcDbEntity
  8
DEFPOINTS
  6
Continuous
 62
     0
440
 16777216
100
AcDbPoint
 10
233.4999998794992
 20
660.2222084224994
 30
0.0
  0
POINT
  5
1BF77
330
195A7
100
AcDbEntity
  8
DEFPOINTS
  6
Continuous
 62
     0
440
 16777216
100
AcDbPoint
 10
182.4999998794992
 20
649.4222084224998
 30
0.0
  0
POINT
  5
1BF78
330
195A7
100
AcDbEntity
  8
DEFPOINTS
  6
Continuous
 62
     0
440
 16777216
100
AcDbPoint
 10
182.4999998794992
 20
488.5882040644997
 30
0.0
  0
ENDBLK
  5
195A9
330
195A7
100
AcDbEntity
  8
0
100
AcDbBlockEnd
  0
BLOCK
  5
195B4
330
195B3
100
AcDbEntity
  8
0
100
AcDbBlockBegin
  2
*D42
 70
     1
 10
0.0
 20
0.0
 30
0.0
  3
*D42
  1

  0
LINE
  5
1BF79
330
195B3
100
AcDbEntity
  8
30
  6
Continuous
 62
     0
440
 16777216
370
    -2
100
AcDbLine
 10
307.5013457885016
 20
549.4222084224998
 30
0.0
 11
365.5000498794998
 21
549.4222084224998
 31
0.0
  0
LINE
  5
1BF7A
330
195B3
100
AcDbEntity
  8
30
  6
Continuous
 62
     0
440
 16777216
370
    -2
100
AcDbLine
 10
304.7899998795001
 20
839.4222084224997
 30
0.0
 11
365.5000498794999
 21
839.4222084224997
 31
0.0
  0
LINE
  5
1BF7B
330
195B3
100
AcDbEntity
  8
30
  6
Continuous
 62
     0
440
 16777216
370
    -2
100
AcDbLine
 10
365.0000498794998
 20
551.4222084224996
 30
0.0
 11
365.0000498794999
 21
837.4222084224996
 31
0.0
  0
INSERT
  5
1BF7C
330
195B3
100
AcDbEntity
  8
30
  6
Continuous
 62
     0
440
 16777216
370
    -2
100
AcDbBlockReference
  2
_OPEN
 10
365.0000498794998
 20
549.4222084224998
 30
0.0
 41
2.0
 42
2.0
 43
2.0
 50
270.0
  0
INSERT
  5
1BF7D
330
195B3
100
AcDbEntity
  8
30
  6
Continuous
 62
     0
440
 16777216
370
    -2
100
AcDbBlockReference
  2
_OPEN
 10
365.0000498794999
 20
839.4222084224997
 30
0.0
 41
2.0
 42
2.0
 43
2.0
 50
90.0
  0
MTEXT
  5
1BF7E
330
195B3
100
AcDbEntity
  8
30
  6
Continuous
440
 16777216
100
AcDbMText
 10
354.0000498794999
 20
694.4222084224996
 30
0.0
 40
8.0
 41
0.0
 46
0.0
 71
     2
 72
     1
  1
\A1;290
 11
0.0000000000000001
 21
1.0
 31
0.0
 73
     1
 44
1.0
 90
        3
 63
     9
421
 13158600
 45
1.25
441
        0
  0
POINT
  5
1BF7F
330
195B3
100
AcDbEntity
  8
DEFPOINTS
  6
Continuous
 62
     0
440
 16777216
100
AcDbPoint
 10
306.5013457885016
 20
549.4222084224998
 30
0.0
  0
POINT
  5
1BF80
330
195B3
100
AcDbEntity
  8
DEFPOINTS
  6
Continuous
 62
     0
440
 16777216
100
AcDbPoint
 10
303.7899998795001
 20
839.4222084224997
 30
0.0
  0
POINT
  5
1BF81
330
195B3
100
AcDbEntity
  8
DEFPOINTS
  6
Continuous
 62
     0
440
 16777216
100
AcDbPoint
 10
365.0000498794999
 20
839.4222084224997
 30
0.0
  0
ENDBLK
  5
195B5
330
195B3
100
AcDbEntity
  8
0
100
AcDbBlockEnd
  0
BLOCK
  5
195C0
330
195BF
100
AcDbEntity
  8
0
100
AcDbBlockBegin
  2
*D43
 70
     1
 10
0.0
 20
0.0
 30
0.0
  3
*D43
  1

  0
LINE
  5
1BF82
330
195BF
100
AcDbEntity
  8
30
  6
Continuous
 62
     0
440
 16777216
370
    -2
100
AcDbLine
 10
110.9999998794992
 20
549.6222084224998
 30
0.0
 11
110.9999998794992
 21
438.0882040644997
 31
0.0
  0
LINE
  5
1BF83
330
195BF
100
AcDbEntity
  8
30
  6
Continuous
 62
     0
440
 16777216
370
    -2
100
AcDbLine
 10
304.9999998794992
 20
547.1817983749097
 30
0.0
 11
304.9999998794992
 21
438.0882040644997
 31
0.0
  0
LINE
  5
1BF84
330
195BF
100
AcDbEntity
  8
30
  6
Continuous
 62
     0
440
 16777216
370
    -2
100
AcDbLine
 10
112.9999998794992
 20
438.5882040644997
 30
0.0
 11
302.9999998794992
 21
438.5882040644997
 31
0.0
  0
INSERT
  5
1BF85
330
195BF
100
AcDbEntity
  8
30
  6
Continuous
 62
     0
440
 16777216
370
    -2
100
AcDbBlockReference
  2
_OPEN
 10
110.9999998794992
 20
438.5882040644997
 30
0.0
 41
2.0
 42
2.0
 43
2.0
 50
180.0
  0
INSERT
  5
1BF86
330
195BF
100
AcDbEntity
  8
30
  6
Continuous
 62
     0
440
 16777216
370
    -2
100
AcDbBlockReference
  2
_OPEN
 10
304.9999998794992
 20
438.5882040644997
 30
0.0
 41
2.0
 42
2.0
 43
2.0
  0
MTEXT
  5
1BF87
330
195BF
100
AcDbEntity
  8
30
  6
Continuous
440
 16777216
100
AcDbMText
 10
207.3756575222051
 20
449.5882040644993
 30
0.0
 40
8.0
 41
0.0
 46
0.0
 71
     2
 72
     1
  1
\A1;194
 73
     1
 44
1.0
 90
        3
 63
     9
421
 13158600
 45
1.25
441
        0
  0
POINT
  5
1BF88
330
195BF
100
AcDbEntity
  8
DEFPOINTS
  6
Continuous
 62
     0
440
 16777216
100
AcDbPoint
 10
110.9999998794992
 20
550.6222084224998
 30
0.0
  0
POINT
  5
1BF89
330
195BF
100
AcDbEntity
  8
DEFPOINTS
  6
Continuous
 62
     0
440
 16777216
100
AcDbPoint
 10
304.9999998794992
 20
548.1817983749095
 30
0.0
  0
POINT
  5
1BF8A
330
195BF
100
AcDbEntity
  8
DEFPOINTS
  6
Continuous
 62
     0
440
 16777216
100
AcDbPoint
 10
304.9999998794992
 20
438.5882040644997
 30
0.0
  0
ENDBLK
  5
195C1
330
195BF
100
AcDbEntity
  8
0
100
AcDbBlockEnd
  0
BLOCK
  5
195D8
330
195D7
100
AcDbEntity
  8
0
100
AcDbBlockBegin
  2
*D44
 70
     1
 10
0.0
 20
0.0
 30
0.0
  3
*D44
  1

  0
LINE
  5
1BF94
330
195D7
100
AcDbEntity
  8
30
  6
Continuous
 62
     0
440
 16777216
370
    -2
100
AcDbLine
 10
291.892670598645
 20
766.155794748397
 30
0.0
 11
290.6718235874246
 21
764.5716443214507
 31
0.0
  0
LINE
  5
1BF95
330
195D7
100
AcDbEntity
  8
30
  6
Continuous
 62
     0
440
 16777216
370
    -2
100
AcDbLine
 10
298.6073291603572
 20
774.8686220966029
 30
0.0
 11
308.4899998794983
 21
787.6922084225006
 31
0.0
  0
LINE
  5
1BF96
330
195D7
100
AcDbEntity
  8
30
  6
Continuous
 62
     0
440
 16777216
370
    -2
100
AcDbLine
 10
308.4899998794983
 20
787.6922084225006
 30
0.0
 11
324.8233332128316
 21
787.6922084225006
 31
0.0
  0
LINE
  5
1BF97
330
195D7
100
AcDbEntity
  8
30
  6
Continuous
 62
     0
440
 16777216
370
    -2
100
AcDbLine
 10
293.1135176098653
 20
767.7399451753433
 30
0.0
 11
297.3864821491368
 21
773.2844716696567
 31
0.0
  0
INSERT
  5
1BF98
330
195D7
100
AcDbEntity
  8
30
  6
Continuous
 62
     0
440
 16777216
370
    -2
100
AcDbBlockReference
  2
_OPEN
 10
293.1135176098653
 20
767.7399451753433
 30
0.0
 41
2.0
 42
2.0
 43
2.0
 50
52.37986851961662
  0
INSERT
  5
1BF99
330
195D7
100
AcDbEntity
  8
30
  6
Continuous
 62
     0
440
 16777216
370
    -2
100
AcDbBlockReference
  2
_OPEN
 10
297.3864821491368
 20
773.2844716696567
 30
0.0
 41
2.0
 42
2.0
 43
2.0
 50
232.3798685196166
  0
MTEXT
  5
1BF9A
330
195D7
100
AcDbEntity
  8
30
  6
Continuous
 62
     0
440
 16777216
100
AcDbMText
 10
318.1566665461649
 20
794.6922084225008
 30
0.0
 40
8.0
 41
0.0
 46
0.0
 71
     5
 72
     1
  1
\A1;M6
 73
     1
 44
1.0
  0
POINT
  5
1BF9B
330
195D7
100
AcDbEntity
  8
DEFPOINTS
  6
Continuous
 62
     0
440
 16777216
100
AcDbPoint
 10
297.3864821491368
 20
773.2844716696567
 30
0.0
  0
POINT
  5
1BF9C
330
195D7
100
AcDbEntity
  8
DEFPOINTS
  6
Continuous
 62
     0
440
 16777216
100
AcDbPoint
 10
293.1135176098653
 20
767.7399451753433
 30
0.0
  0
ENDBLK
  5
195D9
330
195D7
100
AcDbEntity
  8
0
100
AcDbBlockEnd
  0
BLOCK
  5
195E2
330
195E1
100
AcDbEntity
  8
0
100
AcDbBlockBegin
  2
*D45
 70
     1
 10
0.0
 20
0.0
 30
0.0
  3
*D45
  1

  0
LINE
  5
1BF9D
330
195E1
100
AcDbEntity
  8
30
  6
Continuous
 62
     0
440
 16777216
370
    -2
100
AcDbLine
 10
128.5
 20
109.0
 30
0.0
 11
128.5
 21
63.66599564199987
 31
0.0
  0
LINE
  5
1BF9E
330
195E1
100
AcDbEntity
  8
30
  6
Continuous
 62
     0
440
 16777216
370
    -2
100
AcDbLine
 10
287.48359012525
 20
110.0
 30
0.0
 11
287.48359012525
 21
63.66599564199987
 31
0.0
  0
LINE
  5
1BF9F
330
195E1
100
AcDbEntity
  8
30
  6
Continuous
 62
     0
440
 16777216
370
    -2
100
AcDbLine
 10
130.5
 20
64.16599564199987
 30
0.0
 11
285.48359012525
 21
64.16599564199987
 31
0.0
  0
INSERT
  5
1BFA0
330
195E1
100
AcDbEntity
  8
30
  6
Continuous
 62
     0
440
 16777216
370
    -2
100
AcDbBlockReference
  2
_OPEN
 10
128.5
 20
64.16599564199987
 30
0.0
 41
2.0
 42
2.0
 43
2.0
 50
180.0
  0
INSERT
  5
1BFA1
330
195E1
100
AcDbEntity
  8
30
  6
Continuous
 62
     0
440
 16777216
370
    -2
100
AcDbBlockReference
  2
_OPEN
 10
287.48359012525
 20
64.16599564199987
 30
0.0
 41
2.0
 42
2.0
 43
2.0
  0
MTEXT
  5
1BFA2
330
195E1
100
AcDbEntity
  8
30
  6
Continuous
440
 16777216
100
AcDbMText
 10
207.991795062625
 20
75.16599564199987
 30
0.0
 40
8.0
 41
0.0
 46
0.0
 71
     2
 72
     1
  1
\A1;159
 73
     1
 44
1.0
 90
        3
 63
     9
421
 13158600
 45
1.25
441
        0
  0
POINT
  5
1BFA3
330
195E1
100
AcDbEntity
  8
DEFPOINTS
  6
Continuous
 62
     0
440
 16777216
100
AcDbPoint
 10
128.5
 20
110.0
 30
0.0
  0
POINT
  5
1BFA4
330
195E1
100
AcDbEntity
  8
DEFPOINTS
  6
Continuous
 62
     0
440
 16777216
100
AcDbPoint
 10
287.48359012525
 20
111.0
 30
0.0
  0
POINT
  5
1BFA5
330
195E1
100
AcDbEntity
  8
DEFPOINTS
  6
Continuous
 62
     0
440
 16777216
100
AcDbPoint
 10
287.48359012525
 20
64.16599564199987
 30
0.0
  0
ENDBLK
  5
195E3
330
195E1
100
AcDbEntity
  8
0
100
AcDbBlockEnd
  0
BLOCK
  5
195EE
330
195ED
100
AcDbEntity
  8
0
100
AcDbBlockBegin
  2
*D46
 70
     1
 10
0.0
 20
0.0
 30
0.0
  3
*D46
  1

  0
LINE
  5
1C345
330
195ED
100
AcDbEntity
  8
30
  6
Continuous
 62
     0
440
 16777216
370
    -2
100
AcDbLine
 10
291.2436444501345
 20
379.0
 30
0.0
 11
415.9502694639868
 21
379.0
 31
0.0
  0
LINE
  5
1C346
330
195ED
100
AcDbEntity
  8
30
  6
Continuous
 62
     0
440
 16777216
370
    -2
100
AcDbLine
 10
292.2436444501345
 20
111.0
 30
0.0
 11
415.9502694639868
 21
110.9999999999999
 31
0.0
  0
LINE
  5
1C347
330
195ED
100
AcDbEntity
  8
30
  6
Continuous
 62
     0
440
 16777216
370
    -2
100
AcDbLine
 10
415.4502694639869
 20
377.0
 30
0.0
 11
415.4502694639868
 21
112.9999999999999
 31
0.0
  0
INSERT
  5
1C348
330
195ED
100
AcDbEntity
  8
30
  6
Continuous
 62
     0
440
 16777216
370
    -2
100
AcDbBlockReference
  2
_OPEN
 10
415.4502694639869
 20
379.0
 30
0.0
 41
2.0
 42
2.0
 43
2.0
 50
90.0
  0
INSERT
  5
1C349
330
195ED
100
AcDbEntity
  8
30
  6
Continuous
 62
     0
440
 16777216
370
    -2
100
AcDbBlockReference
  2
_OPEN
 10
415.4502694639868
 20
110.9999999999999
 30
0.0
 41
2.0
 42
2.0
 43
2.0
 50
270.0
  0
MTEXT
  5
1C34A
330
195ED
100
AcDbEntity
  8
30
  6
Continuous
440
 16777216
100
AcDbMText
 10
404.4502694639868
 20
245.0
 30
0.0
 40
8.0
 41
0.0
 46
0.0
 71
     2
 72
     1
  1
\A1;268
 11
0.0000000000000001
 21
1.0
 31
0.0
 73
     1
 44
1.0
 90
        3
 63
     9
421
 13158600
 45
1.25
441
        0
  0
POINT
  5
1C34B
330
195ED
100
AcDbEntity
  8
DEFPOINTS
  6
Continuous
 62
     0
440
 16777216
100
AcDbPoint
 10
290.2436444501345
 20
379.0
 30
0.0
  0
POINT
  5
1C34C
330
195ED
100
AcDbEntity
  8
DEFPOINTS
  6
Continuous
 62
     0
440
 16777216
100
AcDbPoint
 10
291.2436444501345
 20
111.0
 30
0.0
  0
POINT
  5
1C34D
330
195ED
100
AcDbEntity
  8
DEFPOINTS
  6
Continuous
 62
     0
440
 16777216
100
AcDbPoint
 10
415.4502694639868
 20
110.9999999999999
 30
0.0
  0
ENDBLK
  5
195EF
330
195ED
100
AcDbEntity
  8
0
100
AcDbBlockEnd
  0
BLOCK
  5
195FA
330
195F9
100
AcDbEntity
  8
0
100
AcDbBlockBegin
  2
*D47
 70
     1
 10
0.0
 20
0.0
 30
0.0
  3
*D47
  1

  0
LINE
  5
1C33C
330
195F9
100
AcDbEntity
  8
30
  6
Continuous
 62
     0
440
 16777216
370
    -2
100
AcDbLine
 10
122.0
 20
168.0
 30
0.0
 11
122.0
 21
38.66599564199987
 31
0.0
  0
LINE
  5
1C33D
330
195F9
100
AcDbEntity
  8
30
  6
Continuous
 62
     0
440
 16777216
370
    -2
100
AcDbLine
 10
294.0
 20
168.0
 30
0.0
 11
294.0
 21
38.66599564199987
 31
0.0
  0
LINE
  5
1C33E
330
195F9
100
AcDbEntity
  8
30
  6
Continuous
 62
     0
440
 16777216
370
    -2
100
AcDbLine
 10
124.0
 20
39.16599564199987
 30
0.0
 11
292.0
 21
39.16599564199987
 31
0.0
  0
INSERT
  5
1C33F
330
195F9
100
AcDbEntity
  8
30
  6
Continuous
 62
     0
440
 16777216
370
    -2
100
AcDbBlockReference
  2
_OPEN
 10
122.0
 20
39.16599564199987
 30
0.0
 41
2.0
 42
2.0
 43
2.0
 50
180.0
  0
INSERT
  5
1C340
330
195F9
100
AcDbEntity
  8
30
  6
Continuous
 62
     0
440
 16777216
370
    -2
100
AcDbBlockReference
  2
_OPEN
 10
294.0
 20
39.16599564199987
 30
0.0
 41
2.0
 42
2.0
 43
2.0
  0
MTEXT
  5
1C341
330
195F9
100
AcDbEntity
  8
30
  6
Continuous
440
 16777216
100
AcDbMText
 10
208.0
 20
50.16599564199986
 30
0.0
 40
8.0
 41
0.0
 46
0.0
 71
     2
 72
     1
  1
\A1;172
 73
     1
 44
1.0
 90
        3
 63
     9
421
 13158600
 45
1.25
441
        0
  0
POINT
  5
1C342
330
195F9
100
AcDbEntity
  8
DEFPOINTS
  6
Continuous
 62
     0
440
 16777216
100
AcDbPoint
 10
122.0
 20
169.0
 30
0.0
  0
POINT
  5
1C343
330
195F9
100
AcDbEntity
  8
DEFPOINTS
  6
Continuous
 62
     0
440
 16777216
100
AcDbPoint
 10
294.0
 20
169.0
 30
0.0
  0
POINT
  5
1C344
330
195F9
100
AcDbEntity
  8
DEFPOINTS
  6
Continuous
 62
     0
440
 16777216
100
AcDbPoint
 10
294.0
 20
39.16599564199987
 30
0.0
  0
ENDBLK
  5
195FB
330
195F9
100
AcDbEntity
  8
0
100
AcDbBlockEnd
  0
BLOCK
  5
19606
330
19605
100
AcDbEntity
  8
0
100
AcDbBlockBegin
  2
*D48
 70
     1
 10
0.0
 20
0.0
 30
0.0
  3
*D48
  1

  0
LINE
  5
1C401
330
19605
100
AcDbEntity
  8
30
  6
Continuous
 62
     0
440
 16777216
370
    -2
100
AcDbLine
 10
295.0
 20
321.0
 30
0.0
 11
368.2949254852557
 21
321.0
 31
0.0
  0
LINE
  5
1C402
330
19605
100
AcDbEntity
  8
30
  6
Continuous
 62
     0
440
 16777216
370
    -2
100
AcDbLine
 10
295.0
 20
169.0
 30
0.0
 11
368.2949254852557
 21
168.9999999999999
 31
0.0
  0
LINE
  5
1C403
330
19605
100
AcDbEntity
  8
30
  6
Continuous
 62
     0
440
 16777216
370
    -2
100
AcDbLine
 10
367.7949254852557
 20
319.0
 30
0.0
 11
367.7949254852557
 21
170.9999999999999
 31
0.0
  0
INSERT
  5
1C404
330
19605
100
AcDbEntity
  8
30
  6
Continuous
 62
     0
440
 16777216
370
    -2
100
AcDbBlockReference
  2
_OPEN
 10
367.7949254852557
 20
321.0
 30
0.0
 41
2.0
 42
2.0
 43
2.0
 50
90.0
  0
INSERT
  5
1C405
330
19605
100
AcDbEntity
  8
30
  6
Continuous
 62
     0
440
 16777216
370
    -2
100
AcDbBlockReference
  2
_OPEN
 10
367.7949254852557
 20
168.9999999999999
 30
0.0
 41
2.0
 42
2.0
 43
2.0
 50
270.0
  0
MTEXT
  5
1C406
330
19605
100
AcDbEntity
  8
30
  6
Continuous
440
 16777216
100
AcDbMText
 10
356.7949254852556
 20
245.0
 30
0.0
 40
8.0
 41
0.0
 46
0.0
 71
     2
 72
     1
  1
\A1;152
 11
0.0000000000000001
 21
1.0
 31
0.0
 73
     1
 44
1.0
 90
        3
 63
     9
421
 13158600
 45
1.25
441
        0
  0
POINT
  5
1C407
330
19605
100
AcDbEntity
  8
DEFPOINTS
  6
Continuous
 62
     0
440
 16777216
100
AcDbPoint
 10
294.0
 20
321.0
 30
0.0
  0
POINT
  5
1C408
330
19605
100
AcDbEntity
  8
DEFPOINTS
  6
Continuous
 62
     0
440
 16777216
100
AcDbPoint
 10
294.0
 20
169.0
 30
0.0
  0
POINT
  5
1C409
330
19605
100
AcDbEntity
  8
DEFPOINTS
  6
Continuous
 62
     0
440
 16777216
100
AcDbPoint
 10
367.7949254852557
 20
168.9999999999999
 30
0.0
  0
ENDBLK
  5
19607
330
19605
100
AcDbEntity
  8
0
100
AcDbBlockEnd
  0
BLOCK
  5
19612
330
19611
100
AcDbEntity
  8
0
100
AcDbBlockBegin
  2
*D49
 70
     1
 10
0.0
 20
0.0
 30
0.0
  3
*D49
  1

  0
LINE
  5
1C05F
330
19611
100
AcDbEntity
  8
30
  6
Continuous
 62
     0
370
    -2
100
AcDbLine
 10
679.5679818804674
 20
196.6191962016301
 30
0.0
 11
679.5679818804674
 21
71.9291245030821
 31
0.0
  0
LINE
  5
1C060
330
19611
100
AcDbEntity
  8
30
  6
Continuous
 62
     0
370
    -2
100
AcDbLine
 10
732.5679818804672
 20
196.6191962016301
 30
0.0
 11
732.5679818804672
 21
71.9291245030821
 31
0.0
  0
LINE
  5
1C061
330
19611
100
AcDbEntity
  8
30
  6
Continuous
 62
     0
370
    -2
100
AcDbLine
 10
681.5679818804674
 20
72.42912450308209
 30
0.0
 11
730.5679818804674
 21
72.42912450308209
 31
0.0
  0
INSERT
  5
1C062
330
19611
100
AcDbEntity
  8
30
  6
Continuous
 62
     0
370
    -2
100
AcDbBlockReference
  2
_OPEN
 10
679.5679818804674
 20
72.42912450308209
 30
0.0
 41
2.0
 42
2.0
 43
2.0
 50
180.0
  0
INSERT
  5
1C063
330
19611
100
AcDbEntity
  8
30
  6
Continuous
 62
     0
370
    -2
100
AcDbBlockReference
  2
_OPEN
 10
732.5679818804672
 20
72.42912450308209
 30
0.0
 41
2.0
 42
2.0
 43
2.0
  0
MTEXT
  5
1C064
330
19611
100
AcDbEntity
  8
30
  6
Continuous
100
AcDbMText
 10
704.3337035159462
 20
79.4291245030821
 30
0.0
 40
8.0
 41
0.0
 46
0.0
 71
     5
 72
     1
  1
\A1;53
 73
     1
 44
1.0
 90
        3
 63
     9
421
 13158600
 45
1.25
441
        0
  0
POINT
  5
1C065
330
19611
100
AcDbEntity
  8
DEFPOINTS
  6
Continuous
 62
     0
100
AcDbPoint
 10
679.5679818804674
 20
197.6191962016301
 30
0.0
  0
POINT
  5
1C066
330
19611
100
AcDbEntity
  8
DEFPOINTS
  6
Continuous
 62
     0
100
AcDbPoint
 10
732.5679818804672
 20
197.6191962016301
 30
0.0
  0
POINT
  5
1C067
330
19611
100
AcDbEntity
  8
DEFPOINTS
  6
Continuous
 62
     0
100
AcDbPoint
 10
732.5679818804672
 20
72.42912450308209
 30
0.0
  0
ENDBLK
  5
19613
330
19611
100
AcDbEntity
  8
0
100
AcDbBlockEnd
  0
BLOCK
  5
1961E
330
1961D
100
AcDbEntity
  8
0
100
AcDbBlockBegin
  2
*D50
 70
     1
 10
0.0
 20
0.0
 30
0.0
  3
*D50
  1

  0
LINE
  5
1C2F0
330
1961D
100
AcDbEntity
  8
30
  6
Continuous
 62
     0
370
    -2
100
AcDbLine
 10
733.6099644935657
 20
291.0000000000002
 30
0.0
 11
825.8736669391275
 21
291.0000000000002
 31
0.0
  0
LINE
  5
1C2F1
330
1961D
100
AcDbEntity
  8
30
  6
Continuous
 62
     0
370
    -2
100
AcDbLine
 10
733.6099644935657
 20
199.0
 30
0.0
 11
825.8736669391272
 21
199.0
 31
0.0
  0
LINE
  5
1C2F2
330
1961D
100
AcDbEntity
  8
30
  6
Continuous
 62
     0
370
    -2
100
AcDbLine
 10
825.3736669391273
 20
289.0000000000002
 30
0.0
 11
825.3736669391273
 21
201.0
 31
0.0
  0
INSERT
  5
1C2F3
330
1961D
100
AcDbEntity
  8
30
  6
Continuous
 62
     0
370
    -2
100
AcDbBlockReference
  2
_OPEN
 10
825.3736669391273
 20
291.0000000000002
 30
0.0
 41
2.0
 42
2.0
 43
2.0
 50
90.0
  0
INSERT
  5
1C2F4
330
1961D
100
AcDbEntity
  8
30
  6
Continuous
 62
     0
370
    -2
100
AcDbBlockReference
  2
_OPEN
 10
825.3736669391273
 20
199.0
 30
0.0
 41
2.0
 42
2.0
 43
2.0
 50
270.0
  0
MTEXT
  5
1C2F5
330
1961D
100
AcDbEntity
  8
30
  6
Continuous
100
AcDbMText
 10
818.3736669391274
 20
243.77489045856
 30
0.0
 40
8.0
 41
0.0
 46
0.0
 71
     5
 72
     1
  1
\A1;92
 11
0.0000000000000001
 21
1.0
 31
0.0
 73
     1
 44
1.0
 90
        3
 63
     9
421
 13158600
 45
1.25
441
        0
  0
POINT
  5
1C2F6
330
1961D
100
AcDbEntity
  8
DEFPOINTS
  6
Continuous
 62
     0
100
AcDbPoint
 10
732.6099644935657
 20
291.0000000000002
 30
0.0
  0
POINT
  5
1C2F7
330
1961D
100
AcDbEntity
  8
DEFPOINTS
  6
Continuous
 62
     0
100
AcDbPoint
 10
732.6099644935657
 20
199.0
 30
0.0
  0
POINT
  5
1C2F8
330
1961D
100
AcDbEntity
  8
DEFPOINTS
  6
Continuous
 62
     0
100
AcDbPoint
 10
825.3736669391273
 20
199.0
 30
0.0
  0
ENDBLK
  5
1961F
330
1961D
100
AcDbEntity
  8
0
100
AcDbBlockEnd
  0
BLOCK
  5
19634
330
19633
100
AcDbEntity
  8
0
100
AcDbBlockBegin
  2
*D51
 70
     1
 10
0.0
 20
0.0
 30
0.0
  3
*D51
  1

  0
LINE
  5
1C071
330
19633
100
AcDbEntity
  8
30
  6
Continuous
 62
     0
370
    -2
100
AcDbLine
 10
421.3024410750084
 20
196.6191962016301
 30
0.0
 11
421.3024410750084
 21
71.9291245030821
 31
0.0
  0
LINE
  5
1C072
330
19633
100
AcDbEntity
  8
30
  6
Continuous
 62
     0
370
    -2
100
AcDbLine
 10
539.3024410750085
 20
196.6191962016301
 30
0.0
 11
539.3024410750085
 21
71.9291245030821
 31
0.0
  0
LINE
  5
1C073
330
19633
100
AcDbEntity
  8
30
  6
Continuous
 62
     0
370
    -2
100
AcDbLine
 10
423.3024410750084
 20
72.42912450308209
 30
0.0
 11
537.3024410750083
 21
72.42912450308209
 31
0.0
  0
INSERT
  5
1C074
330
19633
100
AcDbEntity
  8
30
  6
Continuous
 62
     0
370
    -2
100
AcDbBlockReference
  2
_OPEN
 10
421.3024410750084
 20
72.42912450308209
 30
0.0
 41
2.0
 42
2.0
 43
2.0
 50
180.0
  0
INSERT
  5
1C075
330
19633
100
AcDbEntity
  8
30
  6
Continuous
 62
     0
370
    -2
100
AcDbBlockReference
  2
_OPEN
 10
539.3024410750085
 20
72.42912450308209
 30
0.0
 41
2.0
 42
2.0
 43
2.0
  0
MTEXT
  5
1C076
330
19633
100
AcDbEntity
  8
30
  6
Continuous
100
AcDbMText
 10
478.5681627104874
 20
79.4291245030821
 30
0.0
 40
8.0
 41
0.0
 46
0.0
 71
     5
 72
     1
  1
\A1;118
 73
     1
 44
1.0
 90
        3
 63
     9
421
 13158600
 45
1.25
441
        0
  0
POINT
  5
1C077
330
19633
100
AcDbEntity
  8
DEFPOINTS
  6
Continuous
 62
     0
100
AcDbPoint
 10
421.3024410750084
 20
197.6191962016301
 30
0.0
  0
POINT
  5
1C078
330
19633
100
AcDbEntity
  8
DEFPOINTS
  6
Continuous
 62
     0
100
AcDbPoint
 10
539.3024410750085
 20
197.6191962016301
 30
0.0
  0
POINT
  5
1C079
330
19633
100
AcDbEntity
  8
DEFPOINTS
  6
Continuous
 62
     0
100
AcDbPoint
 10
539.3024410750085
 20
72.42912450308209
 30
0.0
  0
ENDBLK
  5
19635
330
19633
100
AcDbEntity
  8
0
100
AcDbBlockEnd
  0
BLOCK
  5
19640
330
1963F
100
AcDbEntity
  8
0
100
AcDbBlockBegin
  2
*D52
 70
     1
 10
0.0
 20
0.0
 30
0.0
  3
*D52
  1

  0
LINE
  5
1C2F9
330
1963F
100
AcDbEntity
  8
30
  6
Continuous
 62
     0
370
    -2
100
AcDbLine
 10
540.3444236881068
 20
291.0000000000002
 30
0.0
 11
598.7311799604632
 21
291.0000000000002
 31
0.0
  0
LINE
  5
1C2FA
330
1963F
100
AcDbEntity
  8
30
  6
Continuous
 62
     0
370
    -2
100
AcDbLine
 10
540.3444236881068
 20
199.0
 30
0.0
 11
598.7311799604631
 21
199.0
 31
0.0
  0
LINE
  5
1C2FB
330
1963F
100
AcDbEntity
  8
30
  6
Continuous
 62
     0
370
    -2
100
AcDbLine
 10
598.2311799604632
 20
289.0000000000002
 30
0.0
 11
598.2311799604631
 21
201.0
 31
0.0
  0
INSERT
  5
1C2FC
330
1963F
100
AcDbEntity
  8
30
  6
Continuous
 62
     0
370
    -2
100
AcDbBlockReference
  2
_OPEN
 10
598.2311799604632
 20
291.0000000000002
 30
0.0
 41
2.0
 42
2.0
 43
2.0
 50
90.0
  0
INSERT
  5
1C2FD
330
1963F
100
AcDbEntity
  8
30
  6
Continuous
 62
     0
370
    -2
100
AcDbBlockReference
  2
_OPEN
 10
598.2311799604631
 20
199.0
 30
0.0
 41
2.0
 42
2.0
 43
2.0
 50
270.0
  0
MTEXT
  5
1C2FE
330
1963F
100
AcDbEntity
  8
30
  6
Continuous
100
AcDbMText
 10
591.2311799604631
 20
243.77489045856
 30
0.0
 40
8.0
 41
0.0
 46
0.0
 71
     5
 72
     1
  1
\A1;92
 11
0.0000000000000001
 21
1.0
 31
0.0
 73
     1
 44
1.0
 90
        3
 63
     9
421
 13158600
 45
1.25
441
        0
  0
POINT
  5
1C2FF
330
1963F
100
AcDbEntity
  8
DEFPOINTS
  6
Continuous
 62
     0
100
AcDbPoint
 10
539.3444236881069
 20
291.0000000000002
 30
0.0
  0
POINT
  5
1C300
330
1963F
100
AcDbEntity
  8
DEFPOINTS
  6
Continuous
 62
     0
100
AcDbPoint
 10
539.3444236881069
 20
199.0
 30
0.0
  0
POINT
  5
1C301
330
1963F
100
AcDbEntity
  8
DEFPOINTS
  6
Continuous
 62
     0
100
AcDbPoint
 10
598.2311799604631
 20
199.0
 30
0.0
  0
ENDBLK
  5
19641
330
1963F
100
AcDbEntity
  8
0
100
AcDbBlockEnd
  0
BLOCK
  5
197DB
330
197DA
100
AcDbEntity
  8
0
100
AcDbBlockBegin
  2
*D53
 70
     1
 10
0.0
 20
0.0
 30
0.0
  3
*D53
  1

  0
LINE
  5
1C1BC
330
197DA
100
AcDbEntity
  8
30
  6
Continuous
 62
     0
370
    -2
100
AcDbLine
 10
539.6983572884201
 20
292.008374265068
 30
0.0
 11
558.903120616886
 21
320.8191461816887
 31
0.0
  0
LINE
  5
1C1BD
330
197DA
100
AcDbEntity
  8
30
  6
Continuous
 62
     0
370
    -2
100
AcDbLine
 10
558.903120616886
 20
320.8191461816887
 30
0.0
 11
575.2364539502194
 21
320.8191461816887
 31
0.0
  0
LINE
  5
1C1BE
330
197DA
100
AcDbEntity
  8
30
  6
Continuous
 62
     0
370
    -2
100
AcDbLine
 10
537.4797498899643
 20
288.6800441713202
 30
0.0
 11
538.5890535892417
 21
290.3442092182686
 31
0.0
  0
INSERT
  5
1C1BF
330
197DA
100
AcDbEntity
  8
30
  6
Continuous
 62
     0
370
    -2
100
AcDbBlockReference
  2
_OPEN
 10
538.5890535892417
 20
290.3442092182686
 30
0.0
 41
2.0
 42
2.0
 43
2.0
 50
236.3132616051689
  0
MTEXT
  5
1C1C0
330
197DA
100
AcDbEntity
  8
30
  6
Continuous
 62
     0
100
AcDbMText
 10
561.9031206168853
 20
331.819146181689
 30
0.0
 40
8.0
 41
0.0
 46
0.0
 71
     1
 72
     1
  1
\A1;R2
 73
     1
 44
1.0
  0
POINT
  5
1C1C1
330
197DA
100
AcDbEntity
  8
DEFPOINTS
  6
Continuous
 62
     0
100
AcDbPoint
 10
538.5890535892417
 20
290.3442092182686
 30
0.0
  0
POINT
  5
1C1C2
330
197DA
100
AcDbEntity
  8
DEFPOINTS
  6
Continuous
 62
     0
100
AcDbPoint
 10
537.4797498899643
 20
288.6800441713202
 30
0.0
  0
ENDBLK
  5
197DC
330
197DA
100
AcDbEntity
  8
0
100
AcDbBlockEnd
  0
BLOCK
  5
19949
330
19948
100
AcDbEntity
  8
0
100
AcDbBlockBegin
  2
*D54
 70
     1
 10
0.0
 20
0.0
 30
0.0
  3
*D54
  1

  0
LINE
  5
1C280
330
19948
100
AcDbEntity
  8
30
  6
Continuous
 62
     0
440
 16777216
370
    -2
100
AcDbLine
 10
162.0
 20
1140.472719700755
 30
0.0
 11
134.4230509054862
 21
1140.472719700755
 31
0.0
  0
LINE
  5
1C281
330
19948
100
AcDbEntity
  8
30
  6
Continuous
 62
     0
440
 16777216
370
    -2
100
AcDbLine
 10
162.0
 20
1126.472719700755
 30
0.0
 11
134.4230509054862
 21
1126.472719700755
 31
0.0
  0
LINE
  5
1C282
330
19948
100
AcDbEntity
  8
30
  6
Continuous
 62
     0
440
 16777216
370
    -2
100
AcDbLine
 10
134.9230509054861
 20
1138.472719700755
 30
0.0
 11
134.9230509054861
 21
1128.472719700755
 31
0.0
  0
LINE
  5
1C283
330
19948
100
AcDbEntity
  8
30
  6
Continuous
 62
     0
440
 16777216
370
    -2
100
AcDbLine
 10
134.9230509054861
 20
1126.472719700755
 30
0.0
 11
134.9230509054861
 21
1107.806053034088
 31
0.0
  0
INSERT
  5
1C284
330
19948
100
AcDbEntity
  8
30
  6
Continuous
 62
     0
440
 16777216
370
    -2
100
AcDbBlockReference
  2
_OPEN
 10
134.9230509054861
 20
1140.472719700755
 30
0.0
 41
2.0
 42
2.0
 43
2.0
 50
90.0
  0
INSERT
  5
1C285
330
19948
100
AcDbEntity
  8
30
  6
Continuous
 62
     0
440
 16777216
370
    -2
100
AcDbBlockReference
  2
_OPEN
 10
134.9230509054861
 20
1126.472719700755
 30
0.0
 41
2.0
 42
2.0
 43
2.0
 50
270.0
  0
MTEXT
  5
1C286
330
19948
100
AcDbEntity
  8
30
  6
Continuous
440
 16777216
100
AcDbMText
 10
127.923050905486
 20
1116.139386367422
 30
0.0
 40
8.0
 41
0.0
 46
0.0
 71
     5
 72
     1
  1
\A1;14
 11
0.0000000000000001
 21
1.0
 31
0.0
 73
     1
 44
1.0
 90
        3
 63
     9
421
 13158600
 45
1.25
441
        0
  0
POINT
  5
1C287
330
19948
100
AcDbEntity
  8
DEFPOINTS
  6
Continuous
 62
     0
440
 16777216
100
AcDbPoint
 10
163.0
 20
1140.472719700755
 30
0.0
  0
POINT
  5
1C288
330
19948
100
AcDbEntity
  8
DEFPOINTS
  6
Continuous
 62
     0
440
 16777216
100
AcDbPoint
 10
163.0
 20
1126.472719700755
 30
0.0
  0
POINT
  5
1C289
330
19948
100
AcDbEntity
  8
DEFPOINTS
  6
Continuous
 62
     0
440
 16777216
100
AcDbPoint
 10
134.9230509054861
 20
1126.472719700755
 30
0.0
  0
ENDBLK
  5
1994A
330
19948
100
AcDbEntity
  8
0
100
AcDbBlockEnd
  0
BLOCK
  5
1C091
330
1C090
100
AcDbEntity
  8
0
100
AcDbBlockBegin
  2
*D55
 70
     1
 10
0.0
 20
0.0
 30
0.0
  3
*D55
  1

  0
LINE
  5
1C3CF
330
1C090
100
AcDbEntity
  8
30
 62
     0
440
 16777216
370
    -2
100
AcDbLine
 10
169.5
 20
1134.472719700755
 30
0.0
 11
169.5
 21
1179.684279338757
 31
0.0
  0
LINE
  5
1C3D0
330
1C090
100
AcDbEntity
  8
30
 62
     0
440
 16777216
370
    -2
100
AcDbLine
 10
156.5
 20
1134.472719700755
 30
0.0
 11
156.5
 21
1179.684279338757
 31
0.0
  0
LINE
  5
1C3D1
330
1C090
100
AcDbEntity
  8
30
 62
     0
440
 16777216
370
    -2
100
AcDbLine
 10
167.5
 20
1179.184279338757
 30
0.0
 11
158.5
 21
1179.184279338757
 31
0.0
  0
LINE
  5
1C3D2
330
1C090
100
AcDbEntity
  8
30
 62
     0
440
 16777216
370
    -2
100
AcDbLine
 10
156.5
 20
1179.184279338757
 30
0.0
 11
137.8333333333333
 21
1179.184279338757
 31
0.0
  0
INSERT
  5
1C3D3
330
1C090
100
AcDbEntity
  8
30
 62
     0
440
 16777216
370
    -2
100
AcDbBlockReference
  2
_OPEN
 10
169.5
 20
1179.184279338757
 30
0.0
 41
2.0
 42
2.0
 43
2.0
  0
INSERT
  5
1C3D4
330
1C090
100
AcDbEntity
  8
30
 62
     0
440
 16777216
370
    -2
100
AcDbBlockReference
  2
_OPEN
 10
156.5
 20
1179.184279338757
 30
0.0
 41
2.0
 42
2.0
 43
2.0
 50
180.0
  0
MTEXT
  5
1C3D5
330
1C090
100
AcDbEntity
  8
30
440
 16777216
100
AcDbMText
 10
146.1666666666666
 20
1186.184279338757
 30
0.0
 40
8.0
 41
0.0
 46
0.0
 71
     5
 72
     1
  1
\A1;13
 73
     1
 44
1.0
 90
        3
 63
     9
421
 13158600
 45
1.25
441
        0
  0
POINT
  5
1C3D6
330
1C090
100
AcDbEntity
  8
DEFPOINTS
 62
     0
440
 16777216
100
AcDbPoint
 10
169.5
 20
1133.472719700755
 30
0.0
  0
POINT
  5
1C3D7
330
1C090
100
AcDbEntity
  8
DEFPOINTS
 62
     0
440
 16777216
100
AcDbPoint
 10
156.5
 20
1133.472719700755
 30
0.0
  0
POINT
  5
1C3D8
330
1C090
100
AcDbEntity
  8
DEFPOINTS
 62
     0
440
 16777216
100
AcDbPoint
 10
156.5
 20
1179.184279338757
 30
0.0
  0
ENDBLK
  5
1C092
330
1C090
100
AcDbEntity
  8
0
100
AcDbBlockEnd
  0
BLOCK
  5
1C0A1
330
1C0A0
100
AcDbEntity
  8
0
100
AcDbBlockBegin
  2
*D56
 70
     1
 10
0.0
 20
0.0
 30
0.0
  3
*D56
  1

  0
LINE
  5
1C39F
330
1C0A0
100
AcDbEntity
  8
30
 62
     0
440
 16777216
370
    -2
100
AcDbLine
 10
278.9999998794992
 20
1078.472719700755
 30
0.0
 11
363.3497621071711
 21
1078.472719700755
 31
0.0
  0
LINE
  5
1C3A0
330
1C0A0
100
AcDbEntity
  8
30
 62
     0
440
 16777216
370
    -2
100
AcDbLine
 10
224.0
 20
1189.472719700755
 30
0.0
 11
363.3497621071711
 21
1189.472719700755
 31
0.0
  0
LINE
  5
1C3A1
330
1C0A0
100
AcDbEntity
  8
30
 62
     0
440
 16777216
370
    -2
100
AcDbLine
 10
362.849762107171
 20
1080.472719700755
 30
0.0
 11
362.849762107171
 21
1187.472719700755
 31
0.0
  0
INSERT
  5
1C3A2
330
1C0A0
100
AcDbEntity
  8
30
 62
     0
440
 16777216
370
    -2
100
AcDbBlockReference
  2
_OPEN
 10
362.849762107171
 20
1078.472719700755
 30
0.0
 41
2.0
 42
2.0
 43
2.0
 50
270.0
  0
INSERT
  5
1C3A3
330
1C0A0
100
AcDbEntity
  8
30
 62
     0
440
 16777216
370
    -2
100
AcDbBlockReference
  2
_OPEN
 10
362.849762107171
 20
1189.472719700755
 30
0.0
 41
2.0
 42
2.0
 43
2.0
 50
90.0
  0
MTEXT
  5
1C3A4
330
1C0A0
100
AcDbEntity
  8
30
440
 16777216
100
AcDbMText
 10
355.8497621071708
 20
1133.972719700755
 30
0.0
 40
8.0
 41
0.0
 46
0.0
 71
     5
 72
     1
  1
\A1;111
 11
0.0000000000000001
 21
1.0
 31
0.0
 73
     1
 44
1.0
 90
        3
 63
     9
421
 13158600
 45
1.25
441
        0
  0
POINT
  5
1C3A5
330
1C0A0
100
AcDbEntity
  8
DEFPOINTS
 62
     0
440
 16777216
100
AcDbPoint
 10
277.9999998794992
 20
1078.472719700755
 30
0.0
  0
POINT
  5
1C3A6
330
1C0A0
100
AcDbEntity
  8
DEFPOINTS
 62
     0
440
 16777216
100
AcDbPoint
 10
223.0
 20
1189.472719700755
 30
0.0
  0
POINT
  5
1C3A7
330
1C0A0
100
AcDbEntity
  8
DEFPOINTS
 62
     0
440
 16777216
100
AcDbPoint
 10
362.849762107171
 20
1189.472719700755
 30
0.0
  0
ENDBLK
  5
1C0A2
330
1C0A0
100
AcDbEntity
  8
0
100
AcDbBlockEnd
  0
BLOCK
  5
1C1AA
330
1C1A9
100
AcDbEntity
  8
0
100
AcDbBlockBegin
  2
*D57
 70
     1
 10
0.0
 20
0.0
 30
0.0
  3
*D57
  1

  0
LINE
  5
1C1B3
330
1C1A9
100
AcDbEntity
  8
30
  6
Continuous
 62
     0
440
 16777216
370
    -2
100
AcDbLine
 10
291.7656930798675
 20
315.9742788988396
 30
0.0
 11
290.9532178361829
 21
314.1467439529632
 31
0.0
  0
LINE
  5
1C1B4
330
1C1A9
100
AcDbEntity
  8
30
  6
Continuous
 62
     0
440
 16777216
370
    -2
100
AcDbLine
 10
296.2343069201326
 20
326.0257211011603
 30
0.0
 11
305.0736322997718
 21
345.9083897176279
 31
0.0
  0
LINE
  5
1C1B5
330
1C1A9
100
AcDbEntity
  8
30
  6
Continuous
 62
     0
440
 16777216
370
    -2
100
AcDbLine
 10
305.0736322997718
 20
345.9083897176279
 30
0.0
 11
321.4069656331052
 21
345.9083897176279
 31
0.0
  0
LINE
  5
1C1B6
330
1C1A9
100
AcDbEntity
  8
30
  6
Continuous
 62
     0
440
 16777216
370
    -2
100
AcDbLine
 10
292.5781683235521
 20
317.8018138447161
 30
0.0
 11
295.421831676448
 21
324.1981861552838
 31
0.0
  0
INSERT
  5
1C1B7
330
1C1A9
100
AcDbEntity
  8
30
  6
Continuous
 62
     0
440
 16777216
370
    -2
100
AcDbBlockReference
  2
_OPEN
 10
292.5781683235521
 20
317.8018138447161
 30
0.0
 41
2.0
 42
2.0
 43
2.0
 50
66.03129382973131
  0
INSERT
  5
1C1B8
330
1C1A9
100
AcDbEntity
  8
30
  6
Continuous
 62
     0
440
 16777216
370
    -2
100
AcDbBlockReference
  2
_OPEN
 10
295.421831676448
 20
324.1981861552838
 30
0.0
 41
2.0
 42
2.0
 43
2.0
 50
246.0312938297314
  0
MTEXT
  5
1C1B9
330
1C1A9
100
AcDbEntity
  8
30
  6
Continuous
 62
     0
440
 16777216
100
AcDbMText
 10
314.7402989664386
 20
352.9083897176279
 30
0.0
 40
8.0
 41
0.0
 46
0.0
 71
     5
 72
     1
  1
\A1;∅7
 73
     1
 44
1.0
  0
POINT
  5
1C1BA
330
1C1A9
100
AcDbEntity
  8
DEFPOINTS
  6
Continuous
 62
     0
440
 16777216
100
AcDbPoint
 10
295.421831676448
 20
324.1981861552838
 30
0.0
  0
POINT
  5
1C1BB
330
1C1A9
100
AcDbEntity
  8
DEFPOINTS
  6
Continuous
 62
     0
440
 16777216
100
AcDbPoint
 10
292.5781683235521
 20
317.8018138447161
 30
0.0
  0
ENDBLK
  5
1C1AB
330
1C1A9
100
AcDbEntity
  8
0
100
AcDbBlockEnd
  0
BLOCK
  5
1C200
330
1C1FF
100
AcDbEntity
  8
0
100
AcDbBlockBegin
  2
*D58
 70
     1
 10
0.0
 20
0.0
 30
0.0
  3
*D58
  1

  0
LINE
  5
1C202
330
1C1FF
100
AcDbEntity
  8
30
 62
     0
440
 16777216
370
    -2
100
AcDbLine
 10
150.0
 20
1078.472719700755
 30
0.0
 11
113.9462781005641
 21
1078.472719700755
 31
0.0
  0
LINE
  5
1C203
330
1C1FF
100
AcDbEntity
  8
30
 62
     0
440
 16777216
370
    -2
100
AcDbLine
 10
151.5
 20
1133.472719700755
 30
0.0
 11
113.9462781005641
 21
1133.472719700755
 31
0.0
  0
LINE
  5
1C204
330
1C1FF
100
AcDbEntity
  8
30
 62
     0
440
 16777216
370
    -2
100
AcDbLine
 10
114.446278100564
 20
1080.472719700755
 30
0.0
 11
114.4462781005641
 21
1131.472719700755
 31
0.0
  0
INSERT
  5
1C205
330
1C1FF
100
AcDbEntity
  8
30
 62
     0
440
 16777216
370
    -2
100
AcDbBlockReference
  2
_OPEN
 10
114.446278100564
 20
1078.472719700755
 30
0.0
 41
2.0
 42
2.0
 43
2.0
 50
270.0
  0
INSERT
  5
1C206
330
1C1FF
100
AcDbEntity
  8
30
 62
     0
440
 16777216
370
    -2
100
AcDbBlockReference
  2
_OPEN
 10
114.4462781005641
 20
1133.472719700755
 30
0.0
 41
2.0
 42
2.0
 43
2.0
 50
90.0
  0
MTEXT
  5
1C207
330
1C1FF
100
AcDbEntity
  8
30
440
 16777216
100
AcDbMText
 10
107.4462781005639
 20
1105.972719700755
 30
0.0
 40
8.0
 41
0.0
 46
0.0
 71
     5
 72
     1
  1
\A1;55
 11
0.0000000000000001
 21
1.0
 31
0.0
 73
     1
 44
1.0
 90
        3
 63
     9
421
 13158600
 45
1.25
441
        0
  0
POINT
  5
1C208
330
1C1FF
100
AcDbEntity
  8
DEFPOINTS
 62
     0
440
 16777216
100
AcDbPoint
 10
151.0
 20
1078.472719700755
 30
0.0
  0
POINT
  5
1C209
330
1C1FF
100
AcDbEntity
  8
DEFPOINTS
 62
     0
440
 16777216
100
AcDbPoint
 10
152.5
 20
1133.472719700755
 30
0.0
  0
POINT
  5
1C20A
330
1C1FF
100
AcDbEntity
  8
DEFPOINTS
 62
     0
440
 16777216
100
AcDbPoint
 10
114.4462781005641
 20
1133.472719700755
 30
0.0
  0
ENDBLK
  5
1C201
330
1C1FF
100
AcDbEntity
  8
0
100
AcDbBlockEnd
  0
BLOCK
  5
1C20D
330
1C20C
100
AcDbEntity
  8
0
100
AcDbBlockBegin
  2
*D59
 70
     1
 10
0.0
 20
0.0
 30
0.0
  3
*D59
  1

  0
LINE
  5
1C218
330
1C20C
100
AcDbEntity
  8
30
 62
     0
440
 16777216
370
    -2
100
AcDbLine
 10
150.0
 20
1078.472719700755
 30
0.0
 11
94.30250615825292
 21
1078.472719700755
 31
0.0
  0
LINE
  5
1C219
330
1C20C
100
AcDbEntity
  8
30
 62
     0
440
 16777216
370
    -2
100
AcDbLine
 10
155.5
 20
1149.472719700755
 30
0.0
 11
94.30250615825299
 21
1149.472719700755
 31
0.0
  0
LINE
  5
1C21A
330
1C20C
100
AcDbEntity
  8
30
 62
     0
440
 16777216
370
    -2
100
AcDbLine
 10
94.80250615825294
 20
1080.472719700755
 30
0.0
 11
94.80250615825298
 21
1147.472719700755
 31
0.0
  0
INSERT
  5
1C21B
330
1C20C
100
AcDbEntity
  8
30
 62
     0
440
 16777216
370
    -2
100
AcDbBlockReference
  2
_OPEN
 10
94.80250615825294
 20
1078.472719700755
 30
0.0
 41
2.0
 42
2.0
 43
2.0
 50
270.0
  0
INSERT
  5
1C21C
330
1C20C
100
AcDbEntity
  8
30
 62
     0
440
 16777216
370
    -2
100
AcDbBlockReference
  2
_OPEN
 10
94.80250615825298
 20
1149.472719700755
 30
0.0
 41
2.0
 42
2.0
 43
2.0
 50
90.0
  0
MTEXT
  5
1C21D
330
1C20C
100
AcDbEntity
  8
30
440
 16777216
100
AcDbMText
 10
87.80250615825279
 20
1113.972719700755
 30
0.0
 40
8.0
 41
0.0
 46
0.0
 71
     5
 72
     1
  1
\A1;71
 11
0.0000000000000001
 21
1.0
 31
0.0
 73
     1
 44
1.0
 90
        3
 63
     9
421
 13158600
 45
1.25
441
        0
  0
POINT
  5
1C21E
330
1C20C
100
AcDbEntity
  8
DEFPOINTS
 62
     0
440
 16777216
100
AcDbPoint
 10
151.0
 20
1078.472719700755
 30
0.0
  0
POINT
  5
1C21F
330
1C20C
100
AcDbEntity
  8
DEFPOINTS
 62
     0
440
 16777216
100
AcDbPoint
 10
156.5
 20
1149.472719700755
 30
0.0
  0
POINT
  5
1C220
330
1C20C
100
AcDbEntity
  8
DEFPOINTS
 62
     0
440
 16777216
100
AcDbPoint
 10
94.80250615825298
 20
1149.472719700755
 30
0.0
  0
ENDBLK
  5
1C20E
330
1C20C
100
AcDbEntity
  8
0
100
AcDbBlockEnd
  0
ENDSEC
  0
SECTION
  2
ENTITIES
  0
LINE
  5
193D9
330
1E
100
AcDbEntity
  8
16
 48
2.0
100
AcDbLine
 10
208.0
 20
524.9727197007554
 30
0.0
 11
208.0
 21
881.4499999999997
 31
0.0
  0
LINE
  5
193DA
330
1E
100
AcDbEntity
  8
16
 48
2.0
100
AcDbLine
 10
327.8497158299924
 20
695.0
 30
0.0
 11
67.89349508295527
 21
695.0
 31
0.0
  0
MTEXT
  5
193DB
330
1E
100
AcDbEntity
  8
19
  6
Continuous
100
AcDbMText
 10
648.5048758842804
 20
1114.378315015508
 30
0.0
 40
10.0
 41
211.0740950219097
 46
0.0
 71
     1
 72
     5
  1
PS400-CF 3P FP\PPS400-NF 3P FP\PPS400-GF 3P FP\PPS400-NE 3P FP\PPS400-GE 3P FP\PPH400-CF 3P FP\PPH400-CE 3P FP
 73
     1
 44
1.0
  0
LINE
  5
193DC
330
1E
100
AcDbEntity
  8
16
 48
2.0
100
AcDbLine
 10
208.0
 20
912.972719700755
 30
0.0
 11
208.0
 21
1196.912254659595
 31
0.0
  0
LINE
  5
193DD
330
1E
100
AcDbEntity
  8
18
100
AcDbLine
 10
84.27938457101845
 20
994.4727197007553
 30
0.0
 11
321.2472799888019
 21
994.4727197007553
 31
0.0
  0
LINE
  5
193DE
330
1E
100
AcDbEntity
  8
18
100
AcDbLine
 10
321.2472799888019
 20
990.4727197007547
 30
0.0
 11
84.27938457101845
 21
990.4727197007547
 31
0.0
  0
LINE
  5
193DF
330
1E
100
AcDbEntity
  8
10
  6
Continuous
100
AcDbLine
 10
142.0010914860004
 20
1095.472719700755
 30
0.0
 11
148.0010914860004
 21
1095.472719700755
 31
0.0
  0
LINE
  5
193E0
330
1E
100
AcDbEntity
  8
10
  6
Continuous
100
AcDbLine
 10
111.0
 20
990.4727197007547
 30
0.0
 11
304.9999998794992
 21
990.4727197007552
 31
0.0
  0
LINE
  5
193E1
330
1E
100
AcDbEntity
  8
10
  6
Continuous
100
AcDbLine
 10
113.0
 20
975.9727197007553
 30
0.0
 11
302.9999998794992
 21
975.9727197007553
 31
0.0
  0
ARC
  5
193E2
330
1E
100
AcDbEntity
  8
10
  6
Continuous
100
AcDbCircle
 10
113.0
 20
977.9727197007547
 30
0.0
 40
2.0
100
AcDbArc
 50
180.0
 51
270.0
  0
LINE
  5
193E3
330
1E
100
AcDbEntity
  8
10
  6
Continuous
100
AcDbLine
 10
111.0
 20
990.4727197007547
 30
0.0
 11
111.0
 21
977.9727197007547
 31
0.0
  0
LINE
  5
193E4
330
1E
100
AcDbEntity
  8
10
  6
Continuous
100
AcDbLine
 10
304.9999998794992
 20
990.4727197007552
 30
0.0
 11
304.9999998794992
 21
977.9727197007552
 31
0.0
  0
ARC
  5
193E5
330
1E
100
AcDbEntity
  8
10
  6
Continuous
100
AcDbCircle
 10
302.9999998794992
 20
977.9727197007552
 30
0.0
 40
2.0
100
AcDbArc
 50
270.0
 51
0.0
  0
LINE
  5
193E6
330
1E
100
AcDbEntity
  8
10
  6
Continuous
100
AcDbLine
 10
283.9999998794992
 20
1084.172719700755
 30
0.0
 11
283.9999998794992
 21
990.4727197007552
 31
0.0
  0
LINE
  5
193E7
330
1E
100
AcDbEntity
  8
10
  6
Continuous
100
AcDbLine
 10
151.0010914860004
 20
1087.172719700755
 30
0.0
 11
135.0
 21
1087.172719700755
 31
0.0
  0
ARC
  5
193E8
330
1E
100
AcDbEntity
  8
10
  6
Continuous
100
AcDbCircle
 10
135.0
 20
1084.172719700755
 30
0.0
 40
2.999999999999971
100
AcDbArc
 50
90.0
 51
180.0
  0
LINE
  5
193E9
330
1E
100
AcDbEntity
  8
10
  6
Continuous
100
AcDbLine
 10
132.0
 20
1084.172719700755
 30
0.0
 11
132.0
 21
990.4727197007547
 31
0.0
  0
LINE
  5
193EA
330
1E
100
AcDbEntity
  8
10
  6
Continuous
100
AcDbLine
 10
191.0
 20
957.6402737702547
 30
0.0
 11
225.0
 21
957.6402737702547
 31
0.0
  0
LINE
  5
193EB
330
1E
100
AcDbEntity
  8
10
  6
Continuous
100
AcDbLine
 10
225.0
 20
933.011023436755
 30
0.0
 11
225.0
 21
957.6402737702547
 31
0.0
  0
LINE
  5
193EC
330
1E
100
AcDbEntity
  8
10
  6
Continuous
100
AcDbLine
 10
191.0
 20
957.6402737702547
 30
0.0
 11
191.0
 21
933.011023436755
 31
0.0
  0
LINE
  5
193ED
330
1E
100
AcDbEntity
  8
10
  6
Continuous
100
AcDbLine
 10
191.0
 20
933.011023436755
 30
0.0
 11
225.0
 21
933.011023436755
 31
0.0
  0
LINE
  5
193EE
330
1E
100
AcDbEntity
  8
10
  6
Continuous
100
AcDbLine
 10
221.8000000000002
 20
957.6402737702547
 30
0.0
 11
221.8000000000002
 21
967.2478268297552
 31
0.0
  0
LINE
  5
193EF
330
1E
100
AcDbEntity
  8
10
  6
Continuous
100
AcDbLine
 10
194.2000000000007
 20
967.2478268297552
 30
0.0
 11
194.2000000000007
 21
957.6402737702547
 31
0.0
  0
LINE
  5
193F0
330
1E
100
AcDbEntity
  8
10
  6
Continuous
100
AcDbLine
 10
182.5
 20
974.9727197007548
 30
0.0
 11
182.5
 21
967.4727197007547
 31
0.0
  0
LINE
  5
193F1
330
1E
100
AcDbEntity
  8
10
  6
Continuous
100
AcDbLine
 10
182.5
 20
967.4727197007547
 30
0.0
 11
233.5
 21
967.4727197007547
 31
0.0
  0
LINE
  5
193F2
330
1E
100
AcDbEntity
  8
10
  6
Continuous
100
AcDbLine
 10
233.5
 20
974.9727197007548
 30
0.0
 11
233.5
 21
967.4727197007547
 31
0.0
  0
LINE
  5
193F3
330
1E
100
AcDbEntity
  8
10
  6
Continuous
100
AcDbLine
 10
264.8000000000002
 20
974.9727197007548
 30
0.0
 11
233.5
 21
974.9727197007548
 31
0.0
  0
LINE
  5
193F4
330
1E
100
AcDbEntity
  8
10
  6
Continuous
100
AcDbLine
 10
182.5
 20
974.9727197007548
 30
0.0
 11
151.1999999999998
 21
974.9727197007548
 31
0.0
  0
LINE
  5
193F5
330
1E
100
AcDbEntity
  8
10
  6
Continuous
100
AcDbLine
 10
150.1999999999998
 20
975.9727197007553
 30
0.0
 11
150.1999999999998
 21
974.9727197007548
 31
0.0
  0
LINE
  5
193F6
330
1E
100
AcDbEntity
  8
10
  6
Continuous
100
AcDbLine
 10
150.1999999999998
 20
974.9727197007548
 30
0.0
 11
151.1999999999998
 21
974.9727197007548
 31
0.0
  0
LINE
  5
193F7
330
1E
100
AcDbEntity
  8
10
  6
Continuous
100
AcDbLine
 10
265.8000000000002
 20
974.9727197007548
 30
0.0
 11
265.8000000000002
 21
975.9727197007553
 31
0.0
  0
LINE
  5
193F8
330
1E
100
AcDbEntity
  8
10
  6
Continuous
100
AcDbLine
 10
264.8000000000002
 20
974.9727197007548
 30
0.0
 11
265.8000000000002
 21
974.9727197007548
 31
0.0
  0
LINE
  5
193F9
330
1E
100
AcDbEntity
  8
10
  6
Continuous
100
AcDbLine
 10
138.0
 20
990.4727197007547
 30
0.0
 11
138.0
 21
1078.472719700755
 31
0.0
  0
LINE
  5
193FA
330
1E
100
AcDbEntity
  8
10
  6
Continuous
100
AcDbLine
 10
277.9999998794992
 20
1078.472719700755
 30
0.0
 11
277.9999998794992
 21
990.4727197007547
 31
0.0
  0
DIMENSION
  5
193FB
330
1E
100
AcDbEntity
  8
30
  6
Continuous
100
AcDbDimension
280
     0
  2
*D30
 10
268.0
 20
1216.106928680402
 30
0.0
 11
279.0
 21
1216.106928680402
 31
0.0
 70
   160
  1
<>
 71
     2
 42
30.0
 73
     0
 74
     0
 75
     0
  3
STANDARD
100
AcDbAlignedDimension
 13
238.0
 23
1149.972719700754
 33
0.0
 14
268.0
 24
1149.972719700755
 34
0.0
100
AcDbRotatedDimension
  0
DIMENSION
  5
193FD
330
1E
100
AcDbEntity
  8
30
  6
Continuous
100
AcDbDimension
280
     0
  2
*D31
 10
310.5077674990237
 20
1078.472719700755
 30
0.0
 11
310.5077674990235
 21
1125.972719700755
 31
0.0
 70
   160
  1
<>
 71
     2
 42
95.0
 73
     0
 74
     0
 75
     0
  3
STANDARD
100
AcDbAlignedDimension
 13
220.8003930448431
 23
1173.472719700755
 33
0.0
 14
277.9999998794992
 24
1078.472719700755
 34
0.0
 50
270.0
100
AcDbRotatedDimension
  0
LWPOLYLINE
  5
193FE
330
1E
100
AcDbEntity
  8
24
  6
Continuous
100
AcDbPolyline
 90
        2
 70
     0
 43
0.0
 10
148.0
 20
1149.472719700755
 10
178.0
 20
1149.472719700755
  0
LINE
  5
193FF
330
1E
100
AcDbEntity
  8
17
 48
3.0
100
AcDbLine
 10
152.5
 20
1133.472719700755
 30
0.0
 11
173.5
 21
1133.472719700755
 31
0.0
  0
LINE
  5
19400
330
1E
100
AcDbEntity
  8
24
  6
Continuous
100
AcDbLine
 10
148.0
 20
1115.972719700755
 30
0.0
 11
148.0
 21
1149.472719700755
 31
0.0
  0
LWPOLYLINE
  5
19401
330
1E
100
AcDbEntity
  8
24
  6
Continuous
100
AcDbPolyline
 90
        2
 70
     0
 43
0.0
 10
148.0
 20
1115.972719700755
 10
148.0
 20
1149.472719700755
  0
LWPOLYLINE
  5
19402
330
1E
100
AcDbEntity
  8
24
  6
Continuous
100
AcDbPolyline
 90
        4
 70
     0
 43
0.0
 10
151.0
 20
1078.472719700755
 10
151.0
 20
1108.472719700755
 10
175.0
 20
1108.472719700755
 10
175.0
 20
1078.472719700755
  0
LWPOLYLINE
  5
19403
330
1E
100
AcDbEntity
  8
24
  6
Continuous
100
AcDbPolyline
 90
        2
 70
     0
 43
0.0
 10
148.0
 20
1115.972719700755
 42
0.4142135623730951
 10
154.5
 20
1109.472719700755
  0
LWPOLYLINE
  5
19404
330
1E
100
AcDbEntity
  8
24
  6
Continuous
100
AcDbPolyline
 90
        2
 70
     0
 43
0.0
 10
154.5
 20
1108.472719700755
 10
154.5
 20
1109.472719700755
  0
LINE
  5
19405
330
1E
100
AcDbEntity
  8
17
 48
0.5
100
AcDbLine
 10
163.0
 20
1068.623455736086
 30
0.0
 11
163.0
 21
1143.972719700755
 31
0.0
  0
LINE
  5
19407
330
1E
100
AcDbEntity
  8
24
  6
Continuous
100
AcDbLine
 10
178.0
 20
1115.972719700755
 30
0.0
 11
178.0
 21
1149.472719700755
 31
0.0
  0
LWPOLYLINE
  5
19408
330
1E
100
AcDbEntity
  8
24
  6
Continuous
100
AcDbPolyline
 90
        2
 70
     0
 43
0.0
 10
178.0
 20
1115.972719700755
 10
178.0
 20
1149.472719700755
  0
LINE
  5
19409
330
1E
100
AcDbEntity
  8
24
  6
Continuous
100
AcDbLine
 10
238.0
 20
1115.972719700755
 30
0.0
 11
238.0
 21
1149.472719700755
 31
0.0
  0
LINE
  5
1940A
330
1E
100
AcDbEntity
  8
24
  6
Continuous
100
AcDbLine
 10
268.0
 20
1115.972719700755
 30
0.0
 11
268.0
 21
1149.472719700755
 31
0.0
  0
LINE
  5
1940B
330
1E
100
AcDbEntity
  8
24
  6
Continuous
100
AcDbLine
 10
193.0
 20
1115.972719700755
 30
0.0
 11
193.0
 21
1189.472719700755
 31
0.0
  0
LINE
  5
1940C
330
1E
100
AcDbEntity
  8
24
  6
Continuous
100
AcDbLine
 10
223.0
 20
1115.972719700755
 30
0.0
 11
223.0
 21
1189.472719700755
 31
0.0
  0
LINE
  5
1940D
330
1E
100
AcDbEntity
  8
10
  6
Continuous
100
AcDbLine
 10
221.0
 20
1081.672719700755
 30
0.0
 11
241.0
 21
1081.672719700755
 31
0.0
  0
LWPOLYLINE
  5
1940E
330
1E
100
AcDbEntity
  8
24
  6
Continuous
100
AcDbPolyline
 90
        8
 70
     0
 43
0.0
 10
195.0
 20
1078.472719700755
 10
194.9999999999991
 20
1111.282303940932
 42
-0.204301876884642
 10
193.0
 20
1115.972719700755
 10
193.0
 20
1189.472719700755
 10
223.0
 20
1189.472719700755
 10
223.0
 20
1115.972719700755
 42
-0.204301876884642
 10
221.0
 20
1111.282303940932
 10
221.0
 20
1078.472719700755
  0
LWPOLYLINE
  5
1940F
330
1E
100
AcDbEntity
  8
24
  6
Continuous
100
AcDbPolyline
 90
        2
 70
     0
 43
0.0
 10
171.5
 20
1108.472719700755
 10
171.5
 20
1109.472719700755
  0
LWPOLYLINE
  5
19410
330
1E
100
AcDbEntity
  8
24
  6
Continuous
100
AcDbPolyline
 90
        2
 70
     0
 43
0.0
 10
171.5
 20
1109.472719700755
 42
0.4142135623730951
 10
178.0
 20
1115.972719700755
  0
LINE
  5
19412
330
1E
100
AcDbEntity
  8
24
  6
Continuous
100
AcDbLine
 10
241.0
 20
1078.472719700755
 30
0.0
 11
241.0
 21
1108.472719700755
 31
0.0
  0
LINE
  5
19413
330
1E
100
AcDbEntity
  8
24
  6
Continuous
100
AcDbLine
 10
265.0
 20
1078.472719700755
 30
0.0
 11
265.0
 21
1108.472719700755
 31
0.0
  0
LINE
  5
19414
330
1E
100
AcDbEntity
  8
24
  6
Continuous
100
AcDbLine
 10
241.0
 20
1108.472719700755
 30
0.0
 11
265.0
 21
1108.472719700755
 31
0.0
  0
LWPOLYLINE
  5
19415
330
1E
100
AcDbEntity
  8
24
  6
Continuous
100
AcDbPolyline
 90
        8
 70
     0
 43
0.0
 10
244.5
 20
1108.472719700755
 10
244.5
 20
1109.472719700755
 42
-0.4142135623730951
 10
238.0
 20
1115.972719700755
 10
238.0
 20
1149.472719700755
 10
268.0
 20
1149.472719700755
 10
268.0
 20
1115.972719700755
 42
-0.4142135623730951
 10
261.5
 20
1109.472719700755
 10
261.5
 20
1108.472719700755
  0
LINE
  5
19418
330
1E
100
AcDbEntity
  8
24
  6
Continuous
100
AcDbLine
 10
193.0
 20
1149.472719700755
 30
0.0
 11
223.0
 21
1149.472719700755
 31
0.0
  0
LINE
  5
19419
330
1E
100
AcDbEntity
  8
17
 48
0.5
100
AcDbLine
 10
197.5
 20
1173.472719700755
 30
0.0
 11
218.5
 21
1173.472719700755
 31
0.0
  0
LINE
  5
1941A
330
1E
100
AcDbEntity
  8
17
 48
0.5
100
AcDbLine
 10
242.5
 20
1133.472719700755
 30
0.0
 11
263.5
 21
1133.472719700755
 31
0.0
  0
LINE
  5
1941C
330
1E
100
AcDbEntity
  8
17
 48
0.5
100
AcDbLine
 10
253.0
 20
1069.506175212103
 30
0.0
 11
253.0
 21
1143.972719700755
 31
0.0
  0
DIMENSION
  5
1941D
330
1E
100
AcDbEntity
  8
30
  6
Continuous
100
AcDbDimension
280
     0
  2
*D32
 10
208.0
 20
1242.551531008732
 30
0.0
 11
185.5
 21
1249.551531008732
 31
0.0
 70
    32
 71
     5
 42
45.0
 73
     0
 74
     0
 75
     0
  3
STANDARD
100
AcDbAlignedDimension
 13
163.0
 23
1143.972719700755
 33
0.0
 14
208.0
 24
1183.972719700755
 34
0.0
100
AcDbRotatedDimension
  0
DIMENSION
  5
1941E
330
1E
100
AcDbEntity
  8
30
  6
Continuous
100
AcDbDimension
280
     0
  2
*D33
 10
253.0
 20
1242.551531008732
 30
0.0
 11
230.5
 21
1242.551531008732
 31
0.0
 70
   160
 71
     5
 42
45.0
 73
     0
 74
     0
 75
     0
  3
STANDARD
100
AcDbAlignedDimension
 13
208.0
 23
1183.972719700755
 33
0.0
 14
253.0
 24
1143.972719700755
 34
0.0
100
AcDbRotatedDimension
1001
ACAD
1000
DSTYLE
1002
{
1070
   279
1070
     1
1002
}
  0
LINE
  5
1941F
330
1E
100
AcDbEntity
  8
10
  6
Continuous
100
AcDbLine
 10
138.0
 20
1078.472719700755
 30
0.0
 11
277.9999998794992
 21
1078.472719700755
 31
0.0
  0
LINE
  5
19420
330
1E
100
AcDbEntity
  8
10
  6
Continuous
100
AcDbLine
 10
139.0010914860004
 20
1087.172719700755
 30
0.0
 11
139.0010914860004
 21
1093.947719700755
 31
0.0
  0
LINE
  5
19421
330
1E
100
AcDbEntity
  8
24
  6
Continuous
100
AcDbLine
 10
151.0010914860004
 20
1087.172719700755
 30
0.0
 11
151.0010914860004
 21
1093.947719700755
 31
0.0
  0
LINE
  5
19422
330
1E
100
AcDbEntity
  8
10
  6
Continuous
100
AcDbLine
 10
142.0010914860004
 20
1093.947719700755
 30
0.0
 11
142.0010914860004
 21
1095.472719700755
 31
0.0
  0
LINE
  5
19423
330
1E
100
AcDbEntity
  8
10
  6
Continuous
100
AcDbLine
 10
148.0010914860004
 20
1093.947719700755
 30
0.0
 11
148.0010914860004
 21
1095.472719700755
 31
0.0
  0
LINE
  5
19424
330
1E
100
AcDbEntity
  8
10
  6
Continuous
100
AcDbLine
 10
139.0010914860004
 20
1093.947719700755
 30
0.0
 11
151.0010914860004
 21
1093.947719700755
 31
0.0
  0
LINE
  5
19425
330
1E
100
AcDbEntity
  8
10
  6
Continuous
100
AcDbLine
 10
175.0
 20
1081.672719700755
 30
0.0
 11
195.0
 21
1081.672719700755
 31
0.0
  0
LINE
  5
19426
330
1E
100
AcDbEntity
  8
10
  6
Continuous
100
AcDbLine
 10
274.9999998794992
 20
1095.472719700755
 30
0.0
 11
268.9999998794992
 21
1095.472719700755
 31
0.0
  0
LINE
  5
19427
330
1E
100
AcDbEntity
  8
10
  6
Continuous
100
AcDbLine
 10
265.9999998794992
 20
1087.172719700755
 30
0.0
 11
280.9999998794992
 21
1087.172719700755
 31
0.0
  0
ARC
  5
19428
330
1E
100
AcDbEntity
  8
10
  6
Continuous
100
AcDbCircle
 10
280.9999998794992
 20
1084.172719700755
 30
0.0
 40
2.999999999999971
100
AcDbArc
 50
0.0
 51
90.0
  0
LINE
  5
19429
330
1E
100
AcDbEntity
  8
10
  6
Continuous
100
AcDbLine
 10
277.9999998794992
 20
1087.172719700755
 30
0.0
 11
277.9999998794992
 21
1093.947719700755
 31
0.0
  0
LINE
  5
1942A
330
1E
100
AcDbEntity
  8
10
  6
Continuous
100
AcDbLine
 10
265.9999998794992
 20
1087.172719700755
 30
0.0
 11
265.9999998794992
 21
1093.947719700755
 31
0.0
  0
LINE
  5
1942B
330
1E
100
AcDbEntity
  8
10
  6
Continuous
100
AcDbLine
 10
274.9999998794992
 20
1093.947719700755
 30
0.0
 11
274.9999998794992
 21
1095.472719700755
 31
0.0
  0
LINE
  5
1942C
330
1E
100
AcDbEntity
  8
10
  6
Continuous
100
AcDbLine
 10
268.9999998794992
 20
1093.947719700755
 30
0.0
 11
268.9999998794992
 21
1095.472719700755
 31
0.0
  0
LINE
  5
1942D
330
1E
100
AcDbEntity
  8
10
  6
Continuous
100
AcDbLine
 10
277.9999998794992
 20
1093.947719700755
 30
0.0
 11
265.9999998794992
 21
1093.947719700755
 31
0.0
  0
LINE
  5
1942E
330
1E
100
AcDbEntity
  8
10
  6
Continuous
100
AcDbLine
 10
535.2444141247523
 20
549.9838962258913
 30
0.0
 11
547.7444171047518
 21
549.9838962258913
 31
0.0
  0
ARC
  5
1942F
330
1E
100
AcDbEntity
  8
10
  6
Continuous
100
AcDbCircle
 10
535.2444162702521
 20
551.9838920533912
 30
0.0
 40
2.00000000000017
100
AcDbArc
 50
180.0
 51
270.0
  0
LINE
  5
19430
330
1E
100
AcDbEntity
  8
10
  6
Continuous
100
AcDbLine
 10
533.2444162702521
 20
551.9838920533912
 30
0.0
 11
533.2444162702521
 21
837.9838920533908
 31
0.0
  0
LINE
  5
19431
330
1E
100
AcDbEntity
  8
10
  6
Continuous
100
AcDbLine
 10
535.2444141247523
 20
839.9838878813911
 30
0.0
 11
547.7444171047518
 21
839.9838878813911
 31
0.0
  0
LINE
  5
19432
330
1E
100
AcDbEntity
  8
10
  6
Continuous
100
AcDbLine
 10
547.7444171047518
 20
549.9838962258913
 30
0.0
 11
547.7444171047518
 21
839.9838878813911
 31
0.0
  0
ARC
  5
19433
330
1E
100
AcDbEntity
  8
10
  6
Continuous
100
AcDbCircle
 10
535.2444162702521
 20
837.9838920533908
 30
0.0
 40
2.00000000000017
100
AcDbArc
 50
90.0
 51
180.0
  0
LINE
  5
19434
330
1E
100
AcDbEntity
  8
10
  6
Continuous
100
AcDbLine
 10
642.4444161897517
 20
797.0838918388913
 30
0.0
 11
642.4444161897517
 21
790.9838928878907
 31
0.0
  0
LINE
  5
19435
330
1E
100
AcDbEntity
  8
10
  6
Continuous
100
AcDbLine
 10
510.8241239072293
 20
709.2999878508894
 30
0.0
 11
524.7444151977523
 21
705.5700492224159
 31
0.0
  0
LINE
  5
19436
330
1E
100
AcDbEntity
  8
10
  6
Continuous
100
AcDbLine
 10
524.7444151977523
 20
719.028646166009
 30
0.0
 11
514.1887701862279
 21
721.8570187127256
 31
0.0
  0
LINE
  5
19437
330
1E
100
AcDbEntity
  8
10
  6
Continuous
100
AcDbLine
 10
639.2444162702522
 20
564.9838968218914
 30
0.0
 11
547.7444171047518
 21
564.9838968218914
 31
0.0
  0
LINE
  5
19438
330
1E
100
AcDbEntity
  8
0
  6
SLD-実線
 62
     7
370
    15
100
AcDbLine
 10
554.9944131707525
 20
610.9838931858907
 30
0.0
 11
554.9944131707525
 21
610.7338889538907
 31
0.0
  0
LINE
  5
19439
330
1E
100
AcDbEntity
  8
10
  6
Continuous
100
AcDbLine
 10
548.2444162702521
 20
824.9838872848908
 30
0.0
 11
639.2444162702522
 21
824.9838872848908
 31
0.0
  0
LINE
  5
1943A
330
1E
100
AcDbEntity
  8
10
  6
Continuous
100
AcDbLine
 10
639.2444162702522
 20
824.9838872848908
 30
0.0
 11
639.2444162702522
 21
790.9838928878907
 31
0.0
  0
LINE
  5
1943B
330
1E
100
AcDbEntity
  8
10
  6
Continuous
100
AcDbLine
 10
639.2444162702522
 20
564.9838968218914
 30
0.0
 11
639.2444162702522
 21
610.9838931858907
 31
0.0
  0
LINE
  5
1943C
330
1E
100
AcDbEntity
  8
10
  6
Continuous
100
AcDbLine
 10
533.2444162702521
 20
649.983890265391
 30
0.0
 11
524.7444151977523
 21
649.983890265391
 31
0.0
  0
LINE
  5
1943D
330
1E
100
AcDbEntity
  8
10
  6
Continuous
100
AcDbLine
 10
524.7444151977523
 20
649.983890265391
 30
0.0
 11
524.7444151977523
 21
739.9838938418911
 31
0.0
  0
LINE
  5
1943E
330
1E
100
AcDbEntity
  8
10
  6
Continuous
100
AcDbLine
 10
524.7444151977523
 20
739.9838938418911
 30
0.0
 11
533.2444162702521
 21
739.9838938418911
 31
0.0
  0
LINE
  5
1943F
330
1E
100
AcDbEntity
  8
0
  6
SLD-実線
 62
     7
370
    15
100
AcDbLine
 10
548.4444140532523
 20
817.9838954508907
 30
0.0
 11
548.2444181182517
 21
817.9838954508907
 31
0.0
  0
LINE
  5
19440
330
1E
100
AcDbEntity
  8
10
  6
Continuous
100
AcDbLine
 10
644.4444162847521
 20
790.9838928878907
 30
0.0
 11
644.4444162847521
 21
610.9838931858907
 31
0.0
  0
LINE
  5
19441
330
1E
100
AcDbEntity
  8
10
  6
Continuous
100
AcDbLine
 10
644.4444162847521
 20
790.9838928878907
 30
0.0
 11
547.7444171047518
 21
790.9838928878907
 31
0.0
  0
LINE
  5
19442
330
1E
100
AcDbEntity
  8
10
  6
Continuous
100
AcDbLine
 10
644.4444162847521
 20
610.9838931858907
 30
0.0
 11
547.7444171047518
 21
610.9838931858907
 31
0.0
  0
LWPOLYLINE
  5
19443
330
1E
100
AcDbEntity
  8
10
  6
Continuous
100
AcDbPolyline
 90
        4
 70
     0
 43
0.0
 10
506.2515824177526
 20
723.4661447853909
 10
493.3885424472519
 20
726.9127852323909
 10
490.2827232217521
 20
715.3216748538913
 10
503.1457631922521
 20
711.8750344068907
  0
LWPOLYLINE
  5
19444
330
1E
100
AcDbEntity
  8
10
  6
Continuous
100
AcDbPolyline
 90
        3
 70
     0
 43
0.0
 10
513.9809637407513
 20
723.3586031048908
 10
507.5960901246451
 20
723.2960282867143
 42
-0.0680752126951837
 10
506.25158578624
 20
723.4661450409453
  0
LWPOLYLINE
  5
19445
330
1E
100
AcDbEntity
  8
10
  6
Continuous
100
AcDbPolyline
 90
        8
 70
     0
 43
0.0
 10
503.1457572447643
 20
711.8750351253366
 42
-0.0682353784346023
 10
504.3979351289927
 20
711.3484855017097
 10
509.8884744797167
 20
708.1063722108617
 42
0.1119594399650148
 10
511.9934858161101
 20
707.4284938976343
 10
514.9119733907528
 20
707.1693734303912
 10
518.7942548727513
 20
721.6582614033914
 10
516.138511371676
 20
722.8924953000626
 42
0.1117445099478536
 10
513.9809574488217
 20
723.3586030938188
  0
LINE
  5
19446
330
1E
100
AcDbEntity
  8
10
  6
Continuous
100
AcDbLine
 10
514.1887701862279
 20
721.8570187127256
 30
0.0
 11
510.8241239072293
 21
709.2999878508894
 31
0.0
  0
LINE
  5
19447
330
1E
100
AcDbEntity
  8
18
100
AcDbLine
 10
548.2444162702521
 20
884.7675694548909
 30
0.0
 11
548.2444162702521
 21
507.7251032693911
 31
0.0
  0
LINE
  5
19448
330
1E
100
AcDbEntity
  8
18
100
AcDbLine
 10
552.2444162702521
 20
884.7675694548909
 30
0.0
 11
552.2444162702521
 21
507.7251032693911
 31
0.0
  0
ARC
  5
19449
330
1E
100
AcDbEntity
  8
30
370
     0
100
AcDbCircle
 10
548.0640249167527
 20
699.839221577391
 30
0.0
 40
59.81960864609329
100
AcDbArc
 50
165.0000000000055
 51
180.4369424226018
  0
DIMENSION
  5
1944B
330
1E
100
AcDbEntity
  8
30
  6
Continuous
100
AcDbDimension
280
     0
  2
*D34
 10
750.2444162702523
 20
458.8609723940071
 30
0.0
 11
649.2444162702522
 21
458.8609723940071
 31
0.0
 70
   160
  1
<>
 71
     2
 42
202.0
 73
     0
 74
     0
 75
     0
  3
STANDARD
100
AcDbAlignedDimension
 13
548.2444162702521
 23
507.7251032693911
 33
0.0
 14
750.2444162702523
 24
569.9838920533911
 34
0.0
100
AcDbRotatedDimension
  0
DIMENSION
  5
1944C
330
1E
100
AcDbEntity
  8
30
  6
Continuous
100
AcDbDimension
280
     0
  2
*D35
 10
548.2444162702521
 20
458.8609723940071
 30
0.0
 11
518.2444162702521
 21
458.8609723940071
 31
0.0
 70
   160
  1
<>
 71
     2
 42
60.0
 73
     0
 74
     0
 75
     0
  3
STANDARD
100
AcDbAlignedDimension
 13
488.2444162702523
 23
699.839221577391
 33
0.0
 14
548.2444162702521
 24
507.7251032693911
 34
0.0
100
AcDbRotatedDimension
  0
DIMENSION
  5
1944D
330
1E
100
AcDbEntity
  8
30
  6
Continuous
100
AcDbDimension
280
     0
  2
*D36
 10
548.2444162702521
 20
489.1498876953908
 30
0.0
 11
629.2444162702523
 21
489.1498876953908
 31
0.0
 70
   160
  1
<>
 71
     2
 42
162.0
 73
     0
 74
     0
 75
     0
  3
STANDARD
100
AcDbAlignedDimension
 13
710.2444162702522
 23
569.9838920533911
 33
0.0
 14
548.2444162702521
 24
507.7251032693911
 34
0.0
100
AcDbRotatedDimension
  0
DIMENSION
  5
1944F
330
1E
100
AcDbEntity
  8
30
  6
Continuous
100
AcDbDimension
280
     0
  2
*D37
 10
548.2444162702521
 20
489.1498876953908
 30
0.0
 11
522.9110829369187
 21
489.1498876953908
 31
0.0
 70
   160
  1
<>
 71
     2
 42
15.0
 73
     0
 74
     0
 75
     0
  3
STANDARD
100
AcDbAlignedDimension
 13
533.2444162702521
 23
557.983892053391
 33
0.0
 14
548.2444162702521
 24
507.7251032693911
 34
0.0
100
AcDbRotatedDimension
  0
DIMENSION
  5
19450
330
1E
100
AcDbEntity
  8
30
  6
Continuous
100
AcDbDimension
280
     0
  2
*D38
 10
810.5091498567528
 20
580.9838920533913
 30
0.0
 11
810.5091498567526
 21
694.9838920533911
 31
0.0
 70
   160
  1
<>
 71
     2
 42
227.9999999999992
 73
     0
 74
     0
 75
     0
  3
STANDARD
100
AcDbAlignedDimension
 13
772.9978368750071
 23
808.9838920533908
 33
0.0
 14
756.5041539577522
 24
580.9838920533916
 34
0.0
 50
90.0
100
AcDbRotatedDimension
  0
LINE
  5
19451
330
1E
100
AcDbEntity
  8
16
 48
2.0
100
AcDbLine
 10
509.869420230927
 20
694.9838920533911
 30
0.0
 11
657.0768276970666
 21
694.9838920533911
 31
0.0
  0
LWPOLYLINE
  5
19452
330
1E
100
AcDbEntity
  8
10
100
AcDbPolyline
 90
        4
 70
     1
 43
0.0
 10
651.0444162847525
 20
786.9088920533908
 10
644.4444162847521
 20
786.9088920533908
 10
644.4444162847521
 20
774.9088920533908
 10
651.0444162847525
 20
774.9088920533908
  0
LWPOLYLINE
  5
19453
330
1E
100
AcDbEntity
  8
10
100
AcDbPolyline
 90
        4
 70
     0
 43
0.0
 10
651.0444162847525
 20
777.9088920533908
 10
654.0444162847525
 20
777.9088920533908
 10
654.0444162847525
 20
783.9088920533908
 10
651.0444162847525
 20
783.9088920533908
  0
LWPOLYLINE
  5
19454
330
1E
100
AcDbEntity
  8
10
100
AcDbPolyline
 90
        4
 70
     1
 43
0.0
 10
651.0444162847525
 20
615.0588940203906
 10
644.4444162847521
 20
615.0588940203906
 10
644.4444162847521
 20
627.0588940203906
 10
651.0444162847525
 20
627.0588940203906
  0
LWPOLYLINE
  5
19455
330
1E
100
AcDbEntity
  8
10
100
AcDbPolyline
 90
        4
 70
     0
 43
0.0
 10
651.0444162847525
 20
624.0588940203906
 10
654.0444162847525
 20
624.0588940203906
 10
654.0444162847525
 20
618.0588940203906
 10
651.0444162847525
 20
618.0588940203906
  0
LINE
  5
19456
330
1E
100
AcDbEntity
  8
24
  6
Continuous
100
AcDbLine
 10
639.2444162702522
 20
592.9999999999991
 30
0.0
 11
670.2444162702522
 21
592.9999999999991
 31
0.0
  0
LINE
  5
19457
330
1E
100
AcDbEntity
  8
24
  6
Continuous
100
AcDbLine
 10
639.2444162702522
 20
568.9999999999994
 30
0.0
 11
670.2444162702522
 21
568.9999999999994
 31
0.0
  0
LINE
  5
19458
330
1E
100
AcDbEntity
  8
24
  6
Continuous
100
AcDbLine
 10
639.2444162702522
 20
568.9999999999994
 30
0.0
 11
639.2444162702522
 21
592.9999999999991
 31
0.0
  0
LINE
  5
19459
330
1E
100
AcDbEntity
  8
24
  6
Continuous
100
AcDbLine
 10
714.2444162702522
 20
595.9999999999978
 30
0.0
 11
750.2444162702523
 21
595.9999999999978
 31
0.0
  0
LINE
  5
1945A
330
1E
100
AcDbEntity
  8
24
  6
Continuous
100
AcDbLine
 10
714.2444162702522
 20
565.9999999999978
 30
0.0
 11
750.2444162702523
 21
565.9999999999978
 31
0.0
  0
LINE
  5
1945B
330
1E
100
AcDbEntity
  8
24
  6
Continuous
100
AcDbLine
 10
677.7444162702522
 20
595.9999999999991
 30
0.0
 11
710.2444162702522
 21
595.9999999999991
 31
0.0
  0
LINE
  5
1945C
330
1E
100
AcDbEntity
  8
24
  6
Continuous
100
AcDbLine
 10
677.7444162702522
 20
565.9999999999992
 30
0.0
 11
710.2444162702522
 21
565.9999999999992
 31
0.0
  0
LINE
  5
1945D
330
1E
100
AcDbEntity
  8
24
  6
Continuous
100
AcDbLine
 10
677.7444162702522
 20
595.9999999999991
 30
0.0
 11
710.2444162702522
 21
595.9999999999991
 31
0.0
  0
LINE
  5
1945E
330
1E
100
AcDbEntity
  8
24
  6
Continuous
100
AcDbLine
 10
677.7444162702522
 20
565.9999999999992
 30
0.0
 11
710.2444162702522
 21
565.9999999999992
 31
0.0
  0
LINE
  5
1945F
330
1E
100
AcDbEntity
  8
24
  6
Continuous
100
AcDbLine
 10
670.2444162702522
 20
568.9999999999994
 30
0.0
 11
670.2444162702522
 21
592.9999999999991
 31
0.0
  0
ARC
  5
19460
330
1E
100
AcDbEntity
  8
24
  6
Continuous
100
AcDbCircle
 10
677.7444162702522
 20
572.4999999999994
 30
0.0
 40
6.5
100
AcDbArc
 50
180.0
 51
270.0
  0
LINE
  5
19461
330
1E
100
AcDbEntity
  8
24
  6
Continuous
100
AcDbLine
 10
670.2444162702522
 20
572.4999999999994
 30
0.0
 11
671.2444162702523
 21
572.4999999999994
 31
0.0
  0
ARC
  5
19462
330
1E
100
AcDbEntity
  8
24
  6
Continuous
100
AcDbCircle
 10
677.7444162702522
 20
589.4999999999994
 30
0.0
 40
6.5
100
AcDbArc
 50
90.0
 51
180.0
  0
LINE
  5
19463
330
1E
100
AcDbEntity
  8
24
  6
Continuous
100
AcDbLine
 10
670.2444162702522
 20
589.4999999999994
 30
0.0
 11
671.2444162702523
 21
589.4999999999994
 31
0.0
  0
LINE
  5
19465
330
1E
100
AcDbEntity
  8
17
100
AcDbLine
 10
695.2444162702522
 20
591.4999999999992
 30
0.0
 11
695.2444162702522
 21
570.4999999999994
 31
0.0
  0
LINE
  5
19466
330
1E
100
AcDbEntity
  8
24
  6
Continuous
100
AcDbLine
 10
710.2444162702522
 20
565.9999999999992
 30
0.0
 11
710.2444162702522
 21
595.9999999999991
 31
0.0
  0
LINE
  5
19467
330
1E
100
AcDbEntity
  8
17
100
AcDbLine
 10
684.7444162702522
 20
580.9999999999992
 30
0.0
 11
705.7444162702522
 21
580.9999999999992
 31
0.0
  0
LINE
  5
19469
330
1E
100
AcDbEntity
  8
17
100
AcDbLine
 10
735.2444162702522
 20
591.4999999999978
 30
0.0
 11
735.2444162702522
 21
570.4999999999978
 31
0.0
  0
LINE
  5
1946A
330
1E
100
AcDbEntity
  8
24
  6
Continuous
100
AcDbLine
 10
750.2444162702523
 20
565.9999999999978
 30
0.0
 11
750.2444162702523
 21
595.9999999999978
 31
0.0
  0
LINE
  5
1946B
330
1E
100
AcDbEntity
  8
17
100
AcDbLine
 10
724.7444162702522
 20
580.9999999999978
 30
0.0
 11
745.7444162702522
 21
580.9999999999978
 31
0.0
  0
LINE
  5
1946E
330
1E
100
AcDbEntity
  8
24
  6
Continuous
100
AcDbLine
 10
639.2444162702522
 20
820.9838872848916
 30
0.0
 11
669.2444162702522
 21
820.9838872848916
 31
0.0
  0
LINE
  5
1946F
330
1E
100
AcDbEntity
  8
24
  6
Continuous
100
AcDbLine
 10
639.2444162702522
 20
796.9838872848916
 30
0.0
 11
669.2444162702522
 21
796.9838872848916
 31
0.0
  0
LINE
  5
19470
330
1E
100
AcDbEntity
  8
24
  6
Continuous
100
AcDbLine
 10
714.2444162702522
 20
812.9838872848909
 30
0.0
 11
750.2444162702523
 21
812.9838872848909
 31
0.0
  0
LINE
  5
19471
330
1E
100
AcDbEntity
  8
24
  6
Continuous
100
AcDbLine
 10
714.2444162702522
 20
804.9838872848907
 30
0.0
 11
750.2444162702523
 21
804.9838872848907
 31
0.0
  0
LINE
  5
19472
330
1E
100
AcDbEntity
  8
24
  6
Continuous
100
AcDbLine
 10
670.2444162702522
 20
804.9838872848907
 30
0.0
 11
709.2444162702522
 21
804.9838872848907
 31
0.0
  0
LINE
  5
19473
330
1E
100
AcDbEntity
  8
24
  6
Continuous
100
AcDbLine
 10
670.2444162702522
 20
812.9838872848909
 30
0.0
 11
709.2444162702522
 21
812.9838872848909
 31
0.0
  0
LINE
  5
19474
330
1E
100
AcDbEntity
  8
24
  6
Continuous
100
AcDbLine
 10
669.2444162702522
 20
796.9838872848916
 30
0.0
 11
669.2444162702522
 21
820.9838872848916
 31
0.0
  0
LINE
  5
19475
330
1E
100
AcDbEntity
  8
24
  6
Continuous
100
AcDbLine
 10
670.2444162702522
 20
800.4838872848917
 30
0.0
 11
670.2444162702522
 21
804.9838872848907
 31
0.0
  0
LINE
  5
19476
330
1E
100
AcDbEntity
  8
24
  6
Continuous
100
AcDbLine
 10
669.2444162702522
 20
800.4838872848917
 30
0.0
 11
670.2444162702522
 21
800.4838872848917
 31
0.0
  0
LINE
  5
19477
330
1E
100
AcDbEntity
  8
24
  6
Continuous
100
AcDbLine
 10
670.2444162702522
 20
817.4838872848917
 30
0.0
 11
670.2444162702522
 21
812.9838872848909
 31
0.0
  0
LINE
  5
19478
330
1E
100
AcDbEntity
  8
24
  6
Continuous
100
AcDbLine
 10
669.2444162702522
 20
817.4838872848917
 30
0.0
 11
670.2444162702522
 21
817.4838872848917
 31
0.0
  0
LINE
  5
19479
330
1E
100
AcDbEntity
  8
17
100
AcDbLine
 10
694.2444162702522
 20
820.9838872848909
 30
0.0
 11
694.2444162702522
 21
796.9838872848908
 31
0.0
  0
LINE
  5
1947A
330
1E
100
AcDbEntity
  8
24
  6
Continuous
100
AcDbLine
 10
709.2444162702522
 20
804.9838872848907
 30
0.0
 11
709.2444162702522
 21
812.9838872848909
 31
0.0
  0
LINE
  5
1947B
330
1E
100
AcDbEntity
  8
17
100
AcDbLine
 10
735.2444162702522
 20
820.9838872848909
 30
0.0
 11
735.2444162702522
 21
796.9838872848908
 31
0.0
  0
LINE
  5
1947C
330
1E
100
AcDbEntity
  8
24
  6
Continuous
100
AcDbLine
 10
750.2444162702523
 20
804.9838872848907
 30
0.0
 11
750.2444162702523
 21
812.9838872848909
 31
0.0
  0
DIMENSION
  5
1947D
330
1E
100
AcDbEntity
  8
30
  6
Continuous
100
AcDbDimension
280
     0
  2
*D39
 10
767.3947004402597
 20
804.9838872848907
 30
0.0
 11
760.3947004402595
 21
795.3172206182243
 31
0.0
 70
    32
 71
     5
 42
8.000000000000113
 73
     0
 74
     0
 75
     0
  3
STANDARD
100
AcDbAlignedDimension
 13
750.2444162702523
 23
812.9838872848909
 33
0.0
 14
750.2444162702523
 24
804.9838872848907
 34
0.0
 50
90.0
100
AcDbRotatedDimension
  0
ARC
  5
1947F
330
1E
100
AcDbEntity
  8
10
  6
Continuous
100
AcDbCircle
 10
111.9999998794992
 20
838.4222084224997
 30
0.0
 40
1.0
100
AcDbArc
 50
90.0
 51
180.0
  0
ARC
  5
19481
330
1E
100
AcDbEntity
  8
10
  6
Continuous
100
AcDbCircle
 10
303.9999998794992
 20
838.4222084224997
 30
0.0
 40
1.0
100
AcDbArc
 50
0.0
 51
90.0
  0
ARC
  5
19482
330
1E
100
AcDbEntity
  8
10
  6
Continuous
100
AcDbCircle
 10
303.9999998794992
 20
550.4222084224998
 30
0.0
 40
1.0
100
AcDbArc
 50
270.0
 51
0.0
  0
LWPOLYLINE
  5
19483
330
1E
100
AcDbEntity
  8
10
  6
Continuous
100
AcDbPolyline
 90
        8
 70
     1
 43
0.0
 10
149.9999998794999
 20
654.4222084224998
 10
149.9999998794999
 20
734.4222084224997
 42
-0.4142135623730959
 10
157.9999998794999
 20
742.4222084224997
 10
257.9999998795003
 20
742.4222084224997
 42
-0.4142135623730959
 10
265.9999998795003
 20
734.4222084224997
 10
265.9999998795003
 20
654.4222084224998
 42
-0.4142135623730959
 10
257.9999998795003
 20
646.4222084224997
 10
157.9999998794999
 20
646.4222084224997
 42
-0.4142135623730961
  0
ARC
  5
19485
330
1E
100
AcDbEntity
  8
10
  6
Continuous
100
AcDbCircle
 10
111.9999998794992
 20
550.4222084224998
 30
0.0
 40
1.0
100
AcDbArc
 50
180.0
 51
270.0
  0
LINE
  5
19487
330
1E
100
AcDbEntity
  8
0
  6
SLD-実線
 62
     7
370
    15
100
AcDbLine
 10
190.9999998794992
 20
714.759991935
 30
0.0
 11
224.9999998794992
 21
714.759991935
 31
0.0
  0
LINE
  5
19488
330
1E
100
AcDbEntity
  8
0
  6
SLD-実線
 62
     7
370
    15
100
AcDbLine
 10
190.9999998794992
 20
714.759991935
 30
0.0
 11
190.9999998794992
 21
711.3133514944998
 31
0.0
  0
LINE
  5
19489
330
1E
100
AcDbEntity
  8
0
  6
SLD-実線
 62
     7
370
    15
100
AcDbLine
 10
224.9999998794992
 20
714.759991935
 30
0.0
 11
224.9999998794992
 21
711.3133514944998
 31
0.0
  0
LINE
  5
1948A
330
1E
100
AcDbEntity
  8
0
  6
SLD-実線
 62
     7
370
    15
100
AcDbLine
 10
190.9999998794992
 20
710.7891413244998
 30
0.0
 11
190.9999998794992
 21
711.3133514944998
 31
0.0
  0
LINE
  5
1948B
330
1E
100
AcDbEntity
  8
0
  6
SLD-実線
 62
     7
370
    15
100
AcDbLine
 10
224.9999998794992
 20
711.3133514944998
 30
0.0
 11
224.9999998794992
 21
710.7891413244998
 31
0.0
  0
LINE
  5
1948C
330
1E
100
AcDbEntity
  8
0
  6
SLD-実線
 62
     7
370
    15
100
AcDbLine
 10
190.9999998794992
 20
710.7891413244998
 30
0.0
 11
190.9999998794992
 21
707.5417997214999
 31
0.0
  0
LINE
  5
1948D
330
1E
100
AcDbEntity
  8
0
  6
SLD-実線
 62
     7
370
    15
100
AcDbLine
 10
224.9999998794992
 20
710.7891413244998
 30
0.0
 11
224.9999998794992
 21
707.5417997214999
 31
0.0
  0
LINE
  5
1948E
330
1E
100
AcDbEntity
  8
0
  6
SLD-実線
 62
     7
370
    15
100
AcDbLine
 10
190.9999998794992
 20
706.8668102794998
 30
0.0
 11
190.9999998794992
 21
707.5417997214999
 31
0.0
  0
LINE
  5
1948F
330
1E
100
AcDbEntity
  8
0
  6
SLD-実線
 62
     7
370
    15
100
AcDbLine
 10
224.9999998794992
 20
707.5417997214999
 30
0.0
 11
224.9999998794992
 21
706.8668102794998
 31
0.0
  0
LINE
  5
19490
330
1E
100
AcDbEntity
  8
0
  6
SLD-実線
 62
     7
370
    15
100
AcDbLine
 10
190.9999998794992
 20
706.6076899269996
 30
0.0
 11
224.9999998794992
 21
706.6076899269996
 31
0.0
  0
LINE
  5
19491
330
1E
100
AcDbEntity
  8
0
  6
SLD-実線
 62
     7
370
    15
100
AcDbLine
 10
190.9999998794992
 20
706.8668102794998
 30
0.0
 11
190.9999998794992
 21
706.6076899269996
 31
0.0
  0
LINE
  5
19492
330
1E
100
AcDbEntity
  8
0
  6
SLD-実線
 62
     7
370
    15
100
AcDbLine
 10
224.9999998794992
 20
706.8668102794998
 30
0.0
 11
224.9999998794992
 21
706.6076899269996
 31
0.0
  0
SPLINE
  5
19493
330
1E
100
AcDbEntity
  8
0
  6
SLD-実線
 62
     7
370
    15
100
AcDbSpline
210
0.0
220
0.0
230
1.0
 70
     8
 71
     3
 72
    10
 73
     6
 74
     0
 42
0.000000001
 43
0.0000000001
 40
0.0
 40
0.0
 40
0.0
 40
0.0
 40
0.0549524182025154
 40
0.5991790915272667
 40
1.0
 40
1.0
 40
1.0
 40
1.0
 10
222.3159942565653
 20
682.3295290358733
 30
0.0
 10
222.3162301416996
 20
682.7734801352085
 30
0.0
 10
222.3188021384449
 20
687.6141445696985
 30
0.0
 10
222.3170937066461
 20
695.7289380638802
 30
0.0
 10
222.3173628775239
 20
703.3678256786352
 30
0.0
 10
222.3174770403639
 20
706.6076899272093
 30
0.0
  0
LINE
  5
19494
330
1E
100
AcDbEntity
  8
0
  6
SLD-実線
 62
     7
370
    15
100
AcDbLine
 10
222.3122736210007
 20
687.6386679094999
 30
0.0
 11
222.3159942564998
 21
682.3295290360001
 31
0.0
  0
LINE
  5
19495
330
1E
100
AcDbEntity
  8
0
  6
SLD-実線
 62
     7
370
    15
100
AcDbLine
 10
222.2999998795003
 20
687.6683458990001
 30
0.0
 11
222.3122736210007
 21
687.6386679094999
 31
0.0
  0
SPLINE
  5
19496
330
1E
100
AcDbEntity
  8
0
  6
SLD-実線
 62
     7
370
    15
100
AcDbSpline
210
0.0
220
0.0
230
1.0
 70
     8
 71
     3
 72
    10
 73
     6
 74
     0
 42
0.000000001
 43
0.0000000001
 40
0.0
 40
0.0
 40
0.0
 40
0.0
 40
0.1037573332374767
 40
0.5512410042426053
 40
1.0
 40
1.0
 40
1.0
 40
1.0
 10
222.3000072265622
 20
706.6076899272093
 30
0.0
 10
222.3000077158013
 20
705.9560239368356
 30
0.0
 10
222.3000103150225
 20
702.4938588661316
 30
0.0
 10
222.3000056011333
 20
696.1632323148838
 30
0.0
 10
222.3000017885443
 20
690.5026596425877
 30
0.0
 10
222.2999998795367
 20
687.6683458991824
 30
0.0
  0
SPLINE
  5
19497
330
1E
100
AcDbEntity
  8
0
  6
SLD-実線
 62
     7
370
    15
100
AcDbSpline
210
0.0
220
0.0
230
1.0
 70
     8
 71
     3
 72
    11
 73
     7
 74
     0
 42
0.000000001
 43
0.0000000001
 40
0.0
 40
0.0
 40
0.0
 40
0.0
 40
0.2207587343771531
 40
0.4964412195536669
 40
0.770222791530177
 40
1.0
 40
1.0
 40
1.0
 40
1.0
 10
226.7930163020937
 20
670.7222084226117
 30
0.0
 10
226.7930409160472
 20
674.2582234705927
 30
0.0
 10
226.7930962677947
 20
682.2099977355263
 30
0.0
 10
226.7931539049696
 20
694.674013558049
 30
0.0
 10
226.7931708429169
 20
707.2817598370156
 30
0.0
 10
226.7931292655922
 20
715.3435569682232
 30
0.0
 10
226.7931102935854
 20
719.0222084226117
 30
0.0
  0
LINE
  5
19498
330
1E
100
AcDbEntity
  8
0
  6
SLD-実線
 62
     7
370
    15
100
AcDbLine
 10
193.6877261379995
 20
687.6386679094999
 30
0.0
 11
193.6999998794999
 21
687.6683458990001
 31
0.0
  0
LINE
  5
19499
330
1E
100
AcDbEntity
  8
0
  6
SLD-実線
 62
     7
370
    15
100
AcDbLine
 10
193.6840055025004
 20
682.3295290360001
 30
0.0
 11
193.6877261379995
 21
687.6386679094999
 31
0.0
  0
SPLINE
  5
1949A
330
1E
100
AcDbEntity
  8
0
  6
SLD-実線
 62
     7
370
    15
100
AcDbSpline
210
0.0
220
0.0
230
1.0
 70
     8
 71
     3
 72
     9
 73
     5
 74
     0
 42
0.000000001
 43
0.0000000001
 40
0.0
 40
0.0
 40
0.0
 40
0.0
 40
0.4557108991456318
 40
1.0
 40
1.0
 40
1.0
 40
1.0
 10
193.6825255518579
 20
706.6076899272093
 30
0.0
 10
193.6824294848156
 20
702.9213995440332
 30
0.0
 10
193.6822186778263
 20
694.8323009727955
 30
0.0
 10
193.6833757310414
 20
686.7361666867957
 30
0.0
 10
193.684005502495
 20
682.3295290358727
 30
0.0
  0
LINE
  5
1949B
330
1E
100
AcDbEntity
  8
0
  6
SLD-実線
 62
     7
370
    15
100
AcDbLine
 10
222.3159942564998
 20
682.3295290360001
 30
0.0
 11
193.6840055025004
 21
682.3295290360001
 31
0.0
  0
LINE
  5
1949C
330
1E
100
AcDbEntity
  8
10
  6
Continuous
100
AcDbLine
 10
182.4999998794992
 20
727.5846872199998
 30
0.0
 11
233.4999998794992
 21
727.5846872199998
 31
0.0
  0
LINE
  5
1949D
330
1E
100
AcDbEntity
  8
10
  6
Continuous
100
AcDbLine
 10
182.4999998794992
 20
661.2597296249996
 30
0.0
 11
233.4999998794992
 21
661.2597296249996
 31
0.0
  0
LINE
  5
1949E
330
1E
100
AcDbEntity
  8
0
  6
SLD-実線
 62
     7
370
    15
100
AcDbLine
 10
190.9999998794992
 20
719.0222084224997
 30
0.0
 11
188.9999998794992
 21
719.0222084224997
 31
0.0
  0
LINE
  5
1949F
330
1E
100
AcDbEntity
  8
0
  6
SLD-実線
 62
     7
370
    15
100
AcDbLine
 10
226.9999998794992
 20
670.7222084224994
 30
0.0
 11
188.9999998794992
 21
670.7222084224994
 31
0.0
  0
LINE
  5
194A0
330
1E
100
AcDbEntity
  8
0
  6
SLD-実線
 62
     7
370
    15
100
AcDbLine
 10
182.4999998794992
 20
661.2597296249996
 30
0.0
 11
182.4999998794992
 21
663.9222084224997
 31
0.0
  0
LINE
  5
194A1
330
1E
100
AcDbEntity
  8
0
  6
SLD-実線
 62
     7
370
    15
100
AcDbLine
 10
182.4999998794992
 20
672.5222084224997
 30
0.0
 11
182.4999998794992
 21
727.5846872199998
 31
0.0
  0
LINE
  5
194A2
330
1E
100
AcDbEntity
  8
0
  6
SLD-実線
 62
     7
370
    15
100
AcDbLine
 10
188.9999998794992
 20
670.7222084224994
 30
0.0
 11
188.9999998794992
 21
719.0222084224997
 31
0.0
  0
LINE
  5
194A3
330
1E
100
AcDbEntity
  8
0
  6
SLD-実線
 62
     7
370
    15
100
AcDbLine
 10
233.4999998794992
 20
661.2597296249996
 30
0.0
 11
233.4999998794992
 21
716.6222084224997
 31
0.0
  0
LINE
  5
194A4
330
1E
100
AcDbEntity
  8
0
  6
SLD-実線
 62
     7
370
    15
100
AcDbLine
 10
226.9999998794992
 20
651.3222084224999
 30
0.0
 11
233.4999998794992
 21
651.3222084224999
 31
0.0
  0
LINE
  5
194A5
330
1E
100
AcDbEntity
  8
0
  6
SLD-実線
 62
     7
370
    15
100
AcDbLine
 10
226.9999998794992
 20
660.2222084224994
 30
0.0
 11
226.9999998794992
 21
651.3222084224999
 31
0.0
  0
LINE
  5
194A6
330
1E
100
AcDbEntity
  8
0
  6
SLD-実線
 62
     7
370
    15
100
AcDbLine
 10
233.4999998794992
 20
649.4222084224998
 30
0.0
 11
233.4999998794992
 21
651.3222084224999
 31
0.0
  0
LINE
  5
194A7
330
1E
100
AcDbEntity
  8
0
  6
SLD-実線
 62
     7
370
    15
100
AcDbLine
 10
182.4999998794992
 20
649.4222084224998
 30
0.0
 11
182.4999998794992
 21
661.2597296249996
 31
0.0
  0
LINE
  5
194A8
330
1E
100
AcDbEntity
  8
0
  6
SLD-実線
 62
     7
370
    15
100
AcDbLine
 10
182.4999998794992
 20
739.4222084224996
 30
0.0
 11
233.4999998794992
 21
739.4222084224996
 31
0.0
  0
LINE
  5
194A9
330
1E
100
AcDbEntity
  8
0
  6
SLD-実線
 62
     7
370
    15
100
AcDbLine
 10
182.4999998794992
 20
727.5846872199998
 30
0.0
 11
182.4999998794992
 21
739.4222084224996
 31
0.0
  0
LINE
  5
194AA
330
1E
100
AcDbEntity
  8
0
  6
SLD-実線
 62
     7
370
    15
100
AcDbLine
 10
233.4999998794992
 20
727.5846872199998
 30
0.0
 11
233.4999998794992
 21
739.4222084224996
 31
0.0
  0
LINE
  5
194AB
330
1E
100
AcDbEntity
  8
0
  6
SLD-実線
 62
     7
370
    15
100
AcDbLine
 10
233.4999998794992
 20
716.6222084224997
 30
0.0
 11
233.4999998794992
 21
725.2222084224995
 31
0.0
  0
CIRCLE
  5
194AC
330
1E
100
AcDbEntity
  8
L10_
  6
HIDDEN
 62
     3
100
AcDbCircle
 10
121.9999998794992
 20
770.4222084225002
 30
0.0
 40
2.999999999999993
  0
CIRCLE
  5
194AD
330
1E
100
AcDbEntity
  8
L10_
  6
HIDDEN
 62
     3
100
AcDbCircle
 10
121.9999998794992
 20
618.4222084224992
 30
0.0
 40
3.000000000000036
  0
CIRCLE
  5
194AE
330
1E
100
AcDbEntity
  8
L10_
  6
HIDDEN
 62
     3
100
AcDbCircle
 10
293.9999998794992
 20
770.4222084225002
 30
0.0
 40
2.999999999999993
  0
CIRCLE
  5
194AF
330
1E
100
AcDbEntity
  8
L10_
  6
HIDDEN
 62
     3
100
AcDbCircle
 10
293.9999998794992
 20
618.4222084224992
 30
0.0
 40
2.9999999999999
  0
DIMENSION
  5
194B0
330
1E
100
AcDbEntity
  8
30
  6
Continuous
100
AcDbDimension
280
     0
  2
*D40
 10
149.9999998794999
 20
463.5882040644997
 30
0.0
 11
207.9999998794992
 21
463.5882040644997
 31
0.0
 70
   160
  1
<>
 71
     2
 42
116.0000000000003
 73
     0
 74
     0
 75
     0
  3
STANDARD
100
AcDbAlignedDimension
 13
265.9999998795003
 23
650.4222084225002
 33
0.0
 14
149.9999998794999
 24
650.4222084225002
 34
0.0
100
AcDbRotatedDimension
  0
DIMENSION
  5
194B1
330
1E
100
AcDbEntity
  8
30
  6
Continuous
100
AcDbDimension
280
     0
  2
*D41
 10
182.4999998794992
 20
488.5882040644997
 30
0.0
 11
207.9999998794992
 21
488.5882040644997
 31
0.0
 70
   160
  1
<>
 71
     2
 42
51.0
 73
     0
 74
     0
 75
     0
  3
STANDARD
100
AcDbAlignedDimension
 13
233.4999998794992
 23
660.2222084224994
 33
0.0
 14
182.4999998794992
 24
649.4222084224998
 34
0.0
100
AcDbRotatedDimension
  0
DIMENSION
  5
194B2
330
1E
100
AcDbEntity
  8
30
  6
Continuous
100
AcDbDimension
280
     0
  2
*D42
 10
365.0000498794999
 20
839.4222084224997
 30
0.0
 11
365.0000498794998
 21
694.4222084224996
 31
0.0
 70
   160
  1
<>
 71
     2
 42
290.0
 73
     0
 74
     0
 75
     0
  3
STANDARD
100
AcDbAlignedDimension
 13
306.5013457885016
 23
549.4222084224998
 33
0.0
 14
303.7899998795001
 24
839.4222084224997
 34
0.0
 50
90.0
100
AcDbRotatedDimension
  0
DIMENSION
  5
194B3
330
1E
100
AcDbEntity
  8
30
  6
Continuous
100
AcDbDimension
280
     0
  2
*D43
 10
304.9999998794992
 20
438.5882040644997
 30
0.0
 11
207.3756575222051
 21
438.5882040644997
 31
0.0
 70
   160
  1
<>
 71
     2
 42
194.0
 73
     0
 74
     0
 75
     0
  3
STANDARD
100
AcDbAlignedDimension
 13
110.9999998794992
 23
550.6222084224998
 33
0.0
 14
304.9999998794992
 24
548.1817983749095
 34
0.0
100
AcDbRotatedDimension
  0
INSERT
  5
194B4
330
1E
100
AcDbEntity
  8
L10_
  6
Continuous
 62
     3
100
AcDbBlockReference
  2
SW_CENTERMARKSYMBOL_4
 10
121.9999998794992
 20
618.4222084224992
 30
0.0
 41
5.0
 42
5.0
 43
5.0
  0
INSERT
  5
194B5
330
1E
100
AcDbEntity
  8
L10_
  6
Continuous
 62
     3
100
AcDbBlockReference
  2
SW_CENTERMARKSYMBOL_5
 10
293.9999998794992
 20
770.4222084225002
 30
0.0
 41
5.0
 42
5.0
 43
5.0
  0
INSERT
  5
194B6
330
1E
100
AcDbEntity
  8
L10_
  6
Continuous
 62
     3
100
AcDbBlockReference
  2
SW_CENTERMARKSYMBOL_6
 10
121.9999998794992
 20
770.4222084225002
 30
0.0
 41
5.0
 42
5.0
 43
5.0
  0
INSERT
  5
194B7
330
1E
100
AcDbEntity
  8
L10_
  6
Continuous
 62
     3
100
AcDbBlockReference
  2
SW_CENTERMARKSYMBOL_7
 10
293.9999998794992
 20
618.4222084224992
 30
0.0
 41
5.0
 42
5.0
 43
5.0
  0
LWPOLYLINE
  5
194B8
330
1E
100
AcDbEntity
  8
10
  6
Continuous
100
AcDbPolyline
 90
        4
 70
     1
 43
0.0
 10
182.4999998794992
 20
739.4222084224996
 10
233.4999998794992
 20
739.4222084224996
 10
233.4999998794992
 20
649.4222084224998
 10
182.4999998794992
 20
649.4222084224998
  0
LWPOLYLINE
  5
194B9
330
1E
100
AcDbEntity
  8
10
  6
Continuous
100
AcDbPolyline
 90
        4
 70
     1
 43
0.0
 10
188.9999998794992
 20
719.0222084224997
 10
226.7930163020937
 20
719.0222084224997
 10
226.7930163020937
 20
670.7222084226117
 10
188.9999998794992
 20
670.7222084226117
  0
LWPOLYLINE
  5
194BA
330
1E
100
AcDbEntity
  8
10
  6
Continuous
100
AcDbPolyline
 90
        4
 70
     1
 43
0.0
 10
190.9999998794992
 20
714.759991935
 10
224.9999998794992
 20
714.759991935
 10
224.9999998794992
 20
706.6076899269996
 10
190.9999998794992
 20
706.6076899269996
  0
LWPOLYLINE
  5
194BB
330
1E
100
AcDbEntity
  8
10
  6
Continuous
100
AcDbPolyline
 90
        4
 70
     1
 43
0.0
 10
193.6825255518579
 20
706.6076899269996
 10
222.3159942564998
 20
706.6076899269996
 10
222.3159942564998
 20
682.3295290360001
 10
193.6825255518579
 20
682.3295290360001
  0
LWPOLYLINE
  5
194BC
330
1E
100
AcDbEntity
  8
10
  6
Continuous
100
AcDbPolyline
 90
        4
 70
     1
 43
0.0
 10
233.4999998794992
 20
651.3222084224999
 10
226.9999998794992
 20
651.3222084224999
 10
226.9999998794992
 20
660.2222084224994
 10
233.4999998794992
 20
660.2222084224994
  0
DIMENSION
  5
194BE
330
1E
100
AcDbEntity
  8
30
  6
Continuous
100
AcDbDimension
280
     0
  2
*D44
 10
293.1135176098653
 20
767.7399451753433
 30
0.0
 11
318.1566665461649
 21
787.6922084225008
 31
0.0
 70
   163
  1
M6
 71
     5
 42
7.000000000000794
 73
     0
 74
     0
 75
     0
  3
STANDARD1
100
AcDbDiametricDimension
 15
297.3864821491368
 25
773.2844716696567
 35
0.0
 40
0.0
  0
LWPOLYLINE
  5
194C0
330
1E
100
AcDbEntity
  8
11
  6
Continuous
100
AcDbPolyline
 90
        4
 70
     1
 43
0.0
 10
128.5
 20
111.0
 10
287.48359012525
 20
111.0
 10
287.48359012525
 20
379.0
 10
128.5
 20
379.0
  0
LINE
  5
194C1
330
1E
100
AcDbEntity
  8
16
 48
2.0
100
AcDbLine
 10
101.7886198040005
 20
245.0
 30
0.0
 11
317.7611714446539
 21
245.0
 31
0.0
  0
LINE
  5
194C2
330
1E
100
AcDbEntity
  8
16
 48
2.0
100
AcDbLine
 10
208.0
 20
403.9535396429996
 30
0.0
 11
208.0
 21
87.74490701349987
 31
0.0
  0
CIRCLE
  5
194C5
330
1E
100
AcDbEntity
  8
12
  6
Continuous
100
AcDbCircle
 10
122.0
 20
321.0
 30
0.0
 40
3.500000000000055
  0
CIRCLE
  5
194C6
330
1E
100
AcDbEntity
  8
12
  6
Continuous
100
AcDbCircle
 10
122.0
 20
169.0
 30
0.0
 40
3.499999999999907
  0
DIMENSION
  5
194C7
330
1E
100
AcDbEntity
  8
30
  6
Continuous
100
AcDbDimension
280
     0
  2
*D45
 10
287.48359012525
 20
64.16599564199987
 30
0.0
 11
207.991795062625
 21
64.16599564199987
 31
0.0
 70
   160
  1
<>
 71
     2
 42
158.98359012525
 73
     0
 74
     0
 75
     0
  3
STANDARD
100
AcDbAlignedDimension
 13
128.5
 23
110.0
 33
0.0
 14
287.48359012525
 24
111.0
 34
0.0
100
AcDbRotatedDimension
  0
DIMENSION
  5
194C8
330
1E
100
AcDbEntity
  8
30
  6
Continuous
100
AcDbDimension
280
     0
  2
*D46
 10
415.4502694639868
 20
110.9999999999999
 30
0.0
 11
415.4502694639868
 21
245.0
 31
0.0
 70
   160
  1
<>
 71
     2
 42
268.0
 73
     0
 74
     0
 75
     0
  3
STANDARD
100
AcDbAlignedDimension
 13
290.2436444501345
 23
379.0
 33
0.0
 14
291.2436444501345
 24
111.0
 34
0.0
 50
90.0
100
AcDbRotatedDimension
  0
DIMENSION
  5
194C9
330
1E
100
AcDbEntity
  8
30
  6
Continuous
100
AcDbDimension
280
     0
  2
*D47
 10
294.0
 20
39.16599564199987
 30
0.0
 11
208.0
 21
39.16599564199987
 31
0.0
 70
   160
  1
<>
 71
     2
 42
172.0
 73
     0
 74
     0
 75
     0
  3
STANDARD
100
AcDbAlignedDimension
 13
122.0
 23
169.0
 33
0.0
 14
294.0
 24
169.0
 34
0.0
100
AcDbRotatedDimension
  0
DIMENSION
  5
194CA
330
1E
100
AcDbEntity
  8
30
  6
Continuous
100
AcDbDimension
280
     0
  2
*D48
 10
367.7949254852557
 20
168.9999999999999
 30
0.0
 11
367.7949254852557
 21
245.0
 31
0.0
 70
   160
  1
<>
 71
     2
 42
152.0
 73
     0
 74
     0
 75
     0
  3
STANDARD
100
AcDbAlignedDimension
 13
294.0
 23
321.0
 33
0.0
 14
294.0
 24
169.0
 34
0.0
 50
90.0
100
AcDbRotatedDimension
  0
INSERT
  5
194CB
330
1E
100
AcDbEntity
  8
12
  6
DASHDOT
100
AcDbBlockReference
  2
SW_CENTERMARKSYMBOL_26
 10
122.0
 20
169.0
 30
0.0
 41
5.0
 42
5.0
 43
5.0
  0
INSERT
  5
194CC
330
1E
100
AcDbEntity
  8
12
  6
DASHDOT
100
AcDbBlockReference
  2
SW_CENTERMARKSYMBOL_27
 10
122.0
 20
321.0
 30
0.0
 41
5.0
 42
5.0
 43
5.0
  0
LWPOLYLINE
  5
194CD
330
1E
100
AcDbEntity
  8
10
380
     2
100
AcDbPolyline
 90
        4
 70
     1
 43
0.0
 10
840.0
 20
0.0
 10
840.0
 20
1305.6
 10
0.0
 20
1305.6
 10
0.0
 20
0.0
  0
CIRCLE
  5
194D5
330
1E
100
AcDbEntity
  8
12
  6
Continuous
100
AcDbCircle
 10
294.0
 20
321.0
 30
0.0
 40
3.500000000000055
  0
CIRCLE
  5
194D6
330
1E
100
AcDbEntity
  8
12
  6
Continuous
100
AcDbCircle
 10
294.0
 20
169.0
 30
0.0
 40
3.499999999999907
  0
INSERT
  5
194D7
330
1E
100
AcDbEntity
  8
12
  6
DASHDOT
100
AcDbBlockReference
  2
SW_CENTERMARKSYMBOL_26
 10
294.0
 20
169.0
 30
0.0
 41
5.0
 42
5.0
 43
5.0
  0
INSERT
  5
194D8
330
1E
100
AcDbEntity
  8
12
  6
DASHDOT
100
AcDbBlockReference
  2
SW_CENTERMARKSYMBOL_27
 10
294.0
 20
321.0
 30
0.0
 41
5.0
 42
5.0
 43
5.0
  0
DIMENSION
  5
19947
330
1E
100
AcDbEntity
  8
30
  6
Continuous
100
AcDbDimension
280
     0
  2
*D54
 10
134.9230509054861
 20
1126.472719700755
 30
0.0
 11
134.9230509054859
 21
1116.139386367422
 31
0.0
 70
   160
 71
     5
 42
14.0
 73
     0
 74
     0
 75
     0
  3
STANDARD
100
AcDbAlignedDimension
 13
163.0
 23
1140.472719700755
 33
0.0
 14
163.0
 24
1126.472719700755
 34
0.0
 50
90.0
100
AcDbRotatedDimension
  0
LWPOLYLINE
  5
19F03
330
1E
100
AcDbEntity
  8
10
  6
Continuous
100
AcDbPolyline
 90
        4
 70
     1
 43
0.0
 10
110.9999998794992
 20
839.4222084224997
 10
304.9999998794992
 20
839.4222084224997
 10
304.9999998794992
 20
549.4222084224998
 10
110.9999998794992
 20
549.4222084224998
  0
LWPOLYLINE
  5
1AB55
330
1E
100
AcDbEntity
  8
18
100
AcDbPolyline
 90
        8
 70
     1
 43
0.0
 10
111.0
 20
108.0
 10
111.0
 20
382.0
 42
-0.4142135623730951
 10
119.0
 20
390.0
 10
297.0
 20
390.0000000000002
 42
-0.414213562373093
 10
305.0
 20
382.0000000000002
 10
305.0
 20
107.9999999999999
 42
-0.4142135623730919
 10
297.0
 20
99.99999999999987
 10
118.9999999999991
 20
99.99999999999994
 42
-0.4142135623730959
  0
ELLIPSE
  5
1C08E
330
1E
100
AcDbEntity
  8
24
  6
ByBlock
100
AcDbEllipse
 10
163.0
 20
1133.472719700755
 30
0.0
 11
0.0000000000000009
 21
7.0
 31
0.0
210
0.0
220
0.0
230
1.0
 40
0.9285714285714286
 41
0.0
 42
6.283185307179584
  0
DIMENSION
  5
1C08F
330
1E
100
AcDbEntity
  8
30
100
AcDbDimension
280
     0
  2
*D55
 10
156.5
 20
1179.184279338757
 30
0.0
 11
146.1666666666666
 21
1186.184279338757
 31
0.0
 70
    32
 71
     5
 42
13.0
 73
     0
 74
     0
 75
     0
  3
STANDARD
100
AcDbAlignedDimension
 13
169.5
 23
1133.472719700755
 33
0.0
 14
156.5
 24
1133.472719700755
 34
0.0
100
AcDbRotatedDimension
  0
ELLIPSE
  5
1C09D
330
1E
100
AcDbEntity
  8
24
  6
ByBlock
100
AcDbEllipse
 10
208.0
 20
1173.472719700755
 30
0.0
 11
0.0000000000000009
 21
7.0
 31
0.0
210
0.0
220
0.0
230
1.0
 40
0.9285714285714286
 41
0.0
 42
6.283185307179584
  0
ELLIPSE
  5
1C09E
330
1E
100
AcDbEntity
  8
24
  6
ByBlock
100
AcDbEllipse
 10
253.0
 20
1133.472719700755
 30
0.0
 11
0.0000000000000009
 21
7.0
 31
0.0
210
0.0
220
0.0
230
1.0
 40
0.9285714285714286
 41
0.0
 42
6.283185307179584
  0
DIMENSION
  5
1C09F
330
1E
100
AcDbEntity
  8
30
100
AcDbDimension
280
     0
  2
*D56
 10
362.849762107171
 20
1189.472719700755
 30
0.0
 11
355.8497621071708
 21
1133.972719700755
 31
0.0
 70
    32
 71
     5
 42
111.0
 73
     0
 74
     0
 75
     0
  3
STANDARD
100
AcDbAlignedDimension
 13
277.9999998794992
 23
1078.472719700755
 33
0.0
 14
223.0
 24
1189.472719700755
 34
0.0
 50
90.0
100
AcDbRotatedDimension
  0
DIMENSION
  5
1C1A8
330
1E
100
AcDbEntity
  8
30
  6
Continuous
100
AcDbDimension
280
     0
  2
*D57
 10
292.5781683235521
 20
317.8018138447161
 30
0.0
 11
314.7402989664386
 21
345.9083897176279
 31
0.0
 70
   163
 71
     5
 42
7.00000000000017
 73
     0
 74
     0
 75
     0
  3
STANDARD1
100
AcDbDiametricDimension
 15
295.421831676448
 25
324.1981861552838
 35
0.0
 40
0.0
1001
ACAD_DSTYLE_DIMRADIAL_EXTENSION
1070
   387
1070
     1
1070
   388
1040
0.0
1070
   390
1040
0.0
  0
DIMENSION
  5
1C1FE
330
1E
100
AcDbEntity
  8
30
100
AcDbDimension
280
     0
  2
*D58
 10
114.4462781005641
 20
1133.472719700755
 30
0.0
 11
107.4462781005639
 21
1105.972719700755
 31
0.0
 70
    32
 71
     5
 42
55.0
 73
     0
 74
     0
 75
     0
  3
STANDARD
100
AcDbAlignedDimension
 13
151.0
 23
1078.472719700755
 33
0.0
 14
152.5
 24
1133.472719700755
 34
0.0
 50
90.0
100
AcDbRotatedDimension
  0
DIMENSION
  5
1C20B
330
1E
100
AcDbEntity
  8
30
100
AcDbDimension
280
     0
  2
*D59
 10
94.80250615825298
 20
1149.472719700755
 30
0.0
 11
87.80250615825279
 21
1113.972719700755
 31
0.0
 70
    32
 71
     5
 42
71.0
 73
     0
 74
     0
 75
     0
  3
STANDARD
100
AcDbAlignedDimension
 13
151.0
 23
1078.472719700755
 33
0.0
 14
156.5
 24
1149.472719700755
 34
0.0
 50
90.0
100
AcDbRotatedDimension
  0
ELLIPSE
  5
1C2DE
330
1E
100
AcDbEntity
  8
24
  6
CONTINOUS
100
AcDbEllipse
 10
695.244416270252
 20
580.9999999999992
 30
0.0
 11
-7.0
 21
0.0000000000000013
 31
0.0
210
0.0
220
0.0
230
1.0
 40
0.9285714285714286
 41
0.0
 42
6.283185307179584
  0
ELLIPSE
  5
1C2E6
330
1E
100
AcDbEntity
  8
24
  6
CONTINOUS
100
AcDbEllipse
 10
735.244416270252
 20
580.9999999999978
 30
0.0
 11
-7.0
 21
0.0000000000000013
 31
0.0
210
0.0
220
0.0
230
1.0
 40
0.9285714285714286
 41
0.0
 42
6.283185307179584
  0
VIEWPORT
  5
9AC
330
1A
100
AcDbEntity
 67
     1
  8
0
  6
Continuous
348
8A77
100
AcDbViewport
 10
171.999535
 20
144.1384739999999
 30
0.0
 40
488.867686
 41
292.351491
 68
     1
 69
     1
 12
171.999535
 22
144.1384739999999
 13
0.0
 23
0.0
 14
10.0
 24
10.0
 15
10.0
 25
10.0
 16
0.0
 26
0.0
 36
1.0
 17
0.0
 27
0.0
 37
0.0
 42
50.0
 43
0.0
 44
0.0
 45
292.351491
 50
0.0
 51
0.0
 72
   100
 90
    32800
  1

281
     0
 71
     1
 74
     0
110
0.0
120
0.0
130
0.0
111
1.0
121
0.0
131
0.0
112
0.0
122
1.0
132
0.0
 79
     0
146
0.0
170
     0
 61
     5
348
8A77
292
     1
282
     1
141
0.0
142
0.0
 63
   250
421
  3355443
  0
ENDSEC
  0
SECTION
  2
OBJECTS
  0
DICTIONARY
  5
C
330
0
100
AcDbDictionary
281
     1
  3
ACAD_CIP_PREVIOUS_PRODUCT_INFO
350
8AA8
  3
ACAD_COLOR
350
8A8A
  3
ACAD_DETAILVIEWSTYLE
350
8AA3
  3
ACAD_GROUP
350
D
  3
ACAD_LAYOUT
350
19
  3
ACAD_MATERIAL
350
8A58
  3
ACAD_MLEADERSTYLE
350
8A9F
  3
ACAD_MLINESTYLE
350
16
  3
ACAD_PLOTSETTINGS
350
18
  3
ACAD_PLOTSTYLENAME
350
E
  3
ACAD_SCALELIST
350
8A8D
  3
ACAD_SECTIONVIEWSTYLE
350
8AA1
  3
ACAD_TABLESTYLE
350
8A8B
  3
ACAD_VISUALSTYLE
350
8A71
  3
ACADDIM
350
6D5E
  3
ACDB_RECOMPOSE_DATA
350
1C40D
  3
ACDBVARIABLEDICTIONARY
350
5697
  3
AEC_PROPERTY_SET_DEFS
350
BFC4
  0
DICTIONARY
  5
F3CC
330
2
100
AcDbDictionary
280
     1
281
     1
  3
ACAD_LAYERSTATES
360
F3CD
  0
DICTIONARY
  5
8ACC
330
10
100
AcDbDictionary
280
     1
281
     1
  3
ADSK_XREC_LAYER_RECONCILED
360
8ACD
  0
DICTIONARY
  5
8ACE
330
2F
100
AcDbDictionary
280
     1
281
     1
  3
ADSK_XREC_LAYER_RECONCILED
360
8ACF
  0
DICTIONARY
  5
8AD0
330
31
100
AcDbDictionary
280
     1
281
     1
  3
ADSK_XREC_LAYER_RECONCILED
360
8AD1
  0
DICTIONARY
  5
8AD2
330
35
100
AcDbDictionary
280
     1
281
     1
  3
ADSK_XREC_LAYER_RECONCILED
360
8AD3
  0
DICTIONARY
  5
8AD4
330
38
100
AcDbDictionary
280
     1
281
     1
  3
ADSK_XREC_LAYER_RECONCILED
360
8AD5
  0
DICTIONARY
  5
8AD6
330
3D
100
AcDbDictionary
280
     1
281
     1
  3
ADSK_XREC_LAYER_RECONCILED
360
8AD7
  0
DICTIONARY
  5
8AD8
330
3A2
100
AcDbDictionary
280
     1
281
     1
  3
ADSK_XREC_LAYER_RECONCILED
360
8AD9
  0
DICTIONARY
  5
8ADA
330
3BBA
100
AcDbDictionary
280
     1
281
     1
  3
ADSK_XREC_LAYER_RECONCILED
360
8ADB
  0
DICTIONARY
  5
8ADC
330
67A8
100
AcDbDictionary
280
     1
281
     1
  3
ADSK_XREC_LAYER_RECONCILED
360
8ADD
  0
DICTIONARY
  5
8ADE
330
7837
100
AcDbDictionary
280
     1
281
     1
  3
ADSK_XREC_LAYER_RECONCILED
360
8ADF
  0
DICTIONARY
  5
9134
330
9133
100
AcDbDictionary
280
     1
281
     1
  0
DICTIONARY
  5
1391D
330
1391C
100
AcDbDictionary
280
     1
281
     1
  0
DICTIONARY
  5
16BB5
330
16BB4
100
AcDbDictionary
280
     1
281
     1
  0
DICTIONARY
  5
16BB7
330
16BB6
100
AcDbDictionary
280
     1
281
     1
  0
DICTIONARY
  5
16BB9
330
16BB8
100
AcDbDictionary
280
     1
281
     1
  0
DICTIONARY
  5
16BBB
330
16BBA
100
AcDbDictionary
280
     1
281
     1
  0
DICTIONARY
  5
16BBD
330
16BBC
100
AcDbDictionary
280
     1
281
     1
  0
DICTIONARY
  5
16BBF
330
16BBE
100
AcDbDictionary
280
     1
281
     1
  0
DICTIONARY
  5
16F10
330
16F0F
100
AcDbDictionary
280
     1
281
     1
  0
DICTIONARY
  5
17471
330
17470
100
AcDbDictionary
280
     1
281
     1
  0
DICTIONARY
  5
17473
330
17472
100
AcDbDictionary
280
     1
281
     1
  0
DICTIONARY
  5
17EA0
330
17E9F
100
AcDbDictionary
280
     1
281
     1
  0
DICTIONARY
  5
178
330
1E
100
AcDbDictionary
280
     1
281
     1
  3
ACAD_LAYOUTSELFREF
360
8A0F
  3
ACAD_SORTENTS
360
10338
  0
DICTIONARY
  5
17A
330
1A
100
AcDbDictionary
280
     1
281
     1
  3
ACAD_LAYOUTSELFREF
360
8A0E
  0
DICTIONARY
  5
16991
330
16990
100
AcDbDictionary
280
     1
281
     1
  3
ACAD_SORTENTS
360
16992
  0
DICTIONARY
  5
16D05
330
16D04
100
AcDbDictionary
280
     1
281
     1
  3
ACAD_SORTENTS
360
16D06
  0
XRECORD
  5
8AA8
102
{ACAD_REACTORS
330
C
102
}
330
C
100
AcDbXrecord
280
     1
300
ACDLT
300
2014
300
ACDLT_F_S
  0
DICTIONARY
  5
8A8A
102
{ACAD_REACTORS
330
C
102
}
330
C
100
AcDbDictionary
281
     1
  0
DICTIONARY
  5
8AA3
102
{ACAD_REACTORS
330
C
102
}
330
C
100
AcDbDictionary
281
     1
  3
Imperial24
350
8AA4
  0
DICTIONARY
  5
D
102
{ACAD_REACTORS
330
C
102
}
330
C
100
AcDbDictionary
281
     1
  0
DICTIONARY
  5
19
102
{ACAD_REACTORS
330
C
102
}
330
C
100
AcDbDictionary
281
     1
  3
Model
350
8A4C
  3
ﾚｲｱｳﾄ1
350
8A4D
  0
DICTIONARY
  5
8A58
102
{ACAD_REACTORS
330
C
102
}
330
C
100
AcDbDictionary
281
     1
  3
ByBlock
350
8A61
  3
ByLayer
350
8A59
  3
Global
350
8A69
  0
DICTIONARY
  5
8A9F
102
{ACAD_REACTORS
330
C
102
}
330
C
100
AcDbDictionary
281
     1
  3
Standard
350
8AA0
  0
DICTIONARY
  5
16
102
{ACAD_REACTORS
330
C
102
}
330
C
100
AcDbDictionary
281
     1
  3
STANDARD
350
17
  0
DICTIONARY
  5
18
102
{ACAD_REACTORS
330
C
102
}
330
C
100
AcDbDictionary
281
     1
  0
ACDBDICTIONARYWDFLT
  5
E
102
{ACAD_REACTORS
330
C
102
}
330
C
100
AcDbDictionary
281
     1
  3
Normal
350
F
100
AcDbDictionaryWithDefault
340
F
  0
DICTIONARY
  5
8A8D
102
{ACAD_REACTORS
330
C
102
}
330
C
100
AcDbDictionary
281
     1
  3
A0
350
8A8E
  3
A1
350
8A8F
  3
A2
350
8A90
  3
A3
350
8A91
  3
A4
350
8A92
  3
A5
350
8A93
  3
A6
350
8A94
  3
A7
350
8A95
  3
A8
350
8A96
  3
A9
350
8A97
  3
B0
350
8A98
  3
B1
350
8A99
  3
B2
350
8A9A
  3
B3
350
8A9B
  3
B4
350
8A9C
  3
B5
350
8A9D
  3
B6
350
8A9E
  0
DICTIONARY
  5
8AA1
102
{ACAD_REACTORS
330
C
102
}
330
C
100
AcDbDictionary
281
     1
  3
Imperial24
350
8AA2
  0
DICTIONARY
  5
8A8B
102
{ACAD_REACTORS
330
C
102
}
330
C
100
AcDbDictionary
281
     1
  3
Standard
350
8A8C
  0
DICTIONARY
  5
8A71
102
{ACAD_REACTORS
330
C
102
}
330
C
100
AcDbDictionary
281
     1
  3
2dWireframe
350
8A77
  3
3D Hidden
350
8B2B
  3
3dWireframe
350
8B2A
  3
Basic
350
8A76
  3
Brighten
350
8A7D
  3
ColorChange
350
8A81
  3
Conceptual
350
8A7A
  3
Dim
350
8A7C
  3
EdgeColorOff
350
8A89
  3
Facepattern
350
8A80
  3
Flat
350
8A72
  3
FlatWithEdges
350
8A73
  3
Gouraud
350
8A74
  3
GouraudWithEdges
350
8A75
  3
Hidden
350
8A79
  3
JitterOff
350
8A87
  3
Linepattern
350
8A7F
  3
OverhangOff
350
8A88
  3
Realistic
350
8A7B
  3
Shaded
350
8A86
  3
Shaded with edges
350
8A85
  3
Shades of Gray
350
8A82
  3
Sketchy
350
8A83
  3
Thicken
350
8A7E
  3
Wireframe
350
8A78
  3
X-Ray
350
8A84
  0
XRECORD
  5
6D5E
102
{ACAD_REACTORS
330
C
102
}
330
C
100
AcDbXrecord
280
     1
 90
   990106
  3

 60
     0
 61
     0
 62
     1
 63
     3
 64
     0
 65
     0
 66
     0
 67
     3
 68
     1
 69
     0
 70
     0
 71
     0
 72
     0
 40
0.0
170
     0
340
0
  0
XRECORD
  5
1C40D
102
{ACAD_REACTORS
330
C
102
}
330
C
100
AcDbXrecord
280
     1
 90
        1
330
8A8C
330
8AA2
330
8AA4
  0
DICTIONARY
  5
5697
102
{ACAD_REACTORS
330
C
102
}
330
C
100
AcDbDictionary
281
     1
  3
CANNOSCALE
350
8AE9
  3
CMLEADERSTYLE
350
8AE5
  3
CTABLESTYLE
350
8AE4
  3
CVIEWDETAILSTYLE
350
8AE6
  3
CVIEWSECTIONSTYLE
350
8AE7
  3
DIMASSOC
350
5698
  3
LAYEREVAL
350
8AEB
  3
LAYERNOTIFY
350
8AEC
  3
LIGHTINGUNITS
350
8AEA
  3
MSLTSCALE
350
8AE8
  0
DICTIONARY
  5
BFC4
102
{ACAD_REACTORS
330
C
102
}
330
C
100
AcDbDictionary
281
     1
  0
DICTIONARY
  5
F3CD
102
{ACAD_REACTORS
330
F3CC
102
}
330
F3CC
100
AcDbDictionary
281
     1
  0
XRECORD
  5
8ACD
102
{ACAD_REACTORS
330
8ACC
102
}
330
8ACC
100
AcDbXrecord
280
     1
290
     1
  0
XRECORD
  5
8ACF
102
{ACAD_REACTORS
330
8ACE
102
}
330
8ACE
100
AcDbXrecord
280
     1
290
     1
  0
XRECORD
  5
8AD1
102
{ACAD_REACTORS
330
8AD0
102
}
330
8AD0
100
AcDbXrecord
280
     1
290
     1
  0
XRECORD
  5
8AD3
102
{ACAD_REACTORS
330
8AD2
102
}
330
8AD2
100
AcDbXrecord
280
     1
290
     1
  0
XRECORD
  5
8AD5
102
{ACAD_REACTORS
330
8AD4
102
}
330
8AD4
100
AcDbXrecord
280
     1
290
     1
  0
XRECORD
  5
8AD7
102
{ACAD_REACTORS
330
8AD6
102
}
330
8AD6
100
AcDbXrecord
280
     1
290
     1
  0
XRECORD
  5
8AD9
102
{ACAD_REACTORS
330
8AD8
102
}
330
8AD8
100
AcDbXrecord
280
     1
290
     1
  0
XRECORD
  5
8ADB
102
{ACAD_REACTORS
330
8ADA
102
}
330
8ADA
100
AcDbXrecord
280
     1
290
     1
  0
XRECORD
  5
8ADD
102
{ACAD_REACTORS
330
8ADC
102
}
330
8ADC
100
AcDbXrecord
280
     1
290
     1
  0
XRECORD
  5
8ADF
102
{ACAD_REACTORS
330
8ADE
102
}
330
8ADE
100
AcDbXrecord
280
     1
290
     1
  0
XRECORD
  5
8A0F
102
{ACAD_REACTORS
330
178
102
}
330
178
100
AcDbXrecord
280
     1
340
1E
  0
SORTENTSTABLE
  5
10338
102
{ACAD_REACTORS
330
178
102
}
330
178
100
AcDbSortentsTable
330
1E
331
1947C
  5
19793
331
194BB
  5
19EFC
331
194B4
  5
19E42
331
194CC
  5
1A0CD
331
194D5
  5
1A0D0
331
19400
  5
1946D
331
1945F
  5
194D3
331
1949E
  5
19C67
331
19408
  5
19475
331
19410
  5
1947D
331
19467
  5
194DB
331
194A6
  5
19E2B
331
194AE
  5
19E3B
331
19420
  5
1948D
331
1946F
  5
194E4
331
193FD
  5
1946A
331
1941D
  5
1948A
331
1944D
  5
194C1
331
19455
  5
194C9
331
193D9
  5
19446
331
19428
  5
1949C
331
19477
  5
194ED
331
193E1
  5
1944E
331
19430
  5
194A4
331
19438
  5
194AC
331
19487
  5
1990D
331
193E9
  5
19456
331
19440
  5
194B4
331
1948F
  5
19BA8
331
193F1
  5
1945E
331
19497
  5
19C4E
331
1947D
  5
197B6
331
194B5
  5
19E43
331
194BC
  5
19EFE
331
194C5
  5
1A071
331
194CD
  5
1A0CE
331
194D6
  5
1A0D1
331
19401
  5
1946E
331
19458
  5
194CC
331
1949F
  5
19C6A
331
19409
  5
19476
331
19460
  5
194D4
331
194A7
  5
19E33
331
194AF
  5
19E3C
331
19421
  5
1948F
331
193FE
  5
1946B
331
1941E
  5
1948B
331
19456
  5
194CA
331
19429
  5
1949D
331
19470
  5
194E5
331
193DA
  5
19447
331
193E2
  5
1944F
331
19431
  5
194A5
331
193EA
  5
19457
331
19439
  5
194AD
331
19488
  5
19947
331
19490
  5
19BC5
331
193F2
  5
1945F
331
19441
  5
194B5
331
194B6
  5
19EED
331
194C6
  5
1A072
331
194D8
  5
1A0D3
331
194D7
  5
1A0D2
331
19459
  5
194CD
331
19498
  5
19C50
331
19402
  5
1946F
331
19461
  5
194D5
331
194A0
  5
19C6B
331
1940A
  5
19477
331
19412
  5
1947F
331
19469
  5
194DD
331
194A8
  5
19E34
331
19422
  5
19490
331
193FF
  5
1946C
331
1941F
  5
1948C
331
1944F
  5
194C3
331
19457
  5
194CB
331
19471
  5
194E6
331
193DB
  5
19448
331
1942A
  5
1949E
331
19481
  5
1981F
331
193E3
  5
19450
331
19432
  5
194A6
331
1943A
  5
194AE
331
19489
  5
19A04
331
193EB
  5
19458
331
193F3
  5
19460
331
19442
  5
194B6
331
19491
  5
19BDD
331
1947F
  5
197FC
331
194B7
  5
19EEE
331
194BE
  5
19F01
331
194C7
  5
1A073
331
19403
  5
19470
331
1945A
  5
194CE
331
19499
  5
19C52
331
194A1
  5
19C6D
331
1940B
  5
19478
331
19462
  5
194D6
331
1946A
  5
194DE
331
194A9
  5
19E35
331
19413
  5
19480
331
19423
  5
19493
331
193F8
  5
19465
331
19947
  5
1A38D
331
19418
  5
19485
331
19448
  5
194BC
331
19450
  5
194C4
331
1942B
  5
1949F
331
19472
  5
194E7
331
193DC
  5
19449
331
193E4
  5
19451
331
19433
  5
194A7
331
19482
  5
19842
331
1948A
  5
19A46
331
193EC
  5
19459
331
1943B
  5
194AF
331
19492
  5
19C49
331
193F4
  5
19461
331
19443
  5
194B7
331
19478
  5
194EE
331
194B0
  5
19E3D
331
194C0
  5
19F02
331
194C8
  5
1A074
331
1945B
  5
194CF
331
1949A
  5
19C53
331
19404
  5
19471
331
1940C
  5
19479
331
19463
  5
194D7
331
194A2
  5
19CAF
331
19414
  5
19481
331
1946B
  5
194E0
331
194AA
  5
19E36
331
19424
  5
19494
331
193F9
  5
19466
331
19419
  5
19486
331
19449
  5
194BD
331
19451
  5
194C5
331
19473
  5
194E9
331
193DD
  5
1944A
331
1942C
  5
194A0
331
19483
  5
19865
331
193E5
  5
19452
331
19434
  5
194A8
331
1943C
  5
194B0
331
1948B
  5
19AA3
331
193ED
  5
1945A
331
193F5
  5
19462
331
19444
  5
194B8
331
19493
  5
19C4A
331
19479
  5
194EF
331
194B1
  5
19E3E
331
194B8
  5
19EEF
331
194C1
  5
1A06D
331
194C9
  5
1A075
331
1949B
  5
19C5A
331
19405
  5
19472
331
1945C
  5
194D0
331
194A3
  5
19CB0
331
1940D
  5
1947A
331
194AB
  5
19E37
331
19415
  5
19482
331
19425
  5
19495
331
19F03
  5
197D9
331
193FA
  5
19467
331
1941A
  5
19487
331
19452
  5
194C6
331
1942D
  5
194A1
331
19474
  5
194EA
331
193DE
  5
1944B
331
193E6
  5
19453
331
19435
  5
194A9
331
1948C
  5
19AA6
331
193EE
  5
1945B
331
1943D
  5
194B1
331
19494
  5
19C4B
331
193F6
  5
19463
331
19445
  5
194B9
331
1947A
  5
194F0
331
194B9
  5
19EF0
331
194B2
  5
19E3F
331
194C2
  5
1A06E
331
194CA
  5
1A0CB
331
1945D
  5
194D1
331
1949C
  5
19C5B
331
1940E
  5
1947B
331
19465
  5
194D9
331
194A4
  5
19CC3
331
194AC
  5
19E38
331
19426
  5
19498
331
193FB
  5
19468
331
1944B
  5
194BF
331
19453
  5
194C7
331
19475
  5
194EB
331
193DF
  5
1944C
331
1942E
  5
194A2
331
19436
  5
194AA
331
19485
  5
198EE
331
193E7
  5
19454
331
1943E
  5
194B2
331
1948D
  5
19B87
331
193EF
  5
1945C
331
193F7
  5
19464
331
19446
  5
194BA
331
19495
  5
19C4C
331
1947B
  5
19770
331
194B3
  5
19E40
331
194BA
  5
19EF8
331
194CB
  5
1A0CC
331
1949D
  5
19C5C
331
19407
  5
19474
331
1945E
  5
194D2
331
194A5
  5
19E2A
331
1940F
  5
1947C
331
19466
  5
194DA
331
1946E
  5
194E3
331
194AD
  5
19E39
331
19427
  5
1949B
331
1941C
  5
19489
331
1944C
  5
194C0
331
19454
  5
194C8
331
1AB55
  5
1A0CF
331
1942F
  5
194A3
331
19476
  5
194EC
331
193E0
  5
1944D
331
193E8
  5
19455
331
19437
  5
194AB
331
1948E
  5
19B9B
331
193F0
  5
1945D
331
1943F
  5
194B3
331
19447
  5
194BB
331
19496
  5
19C4D
  0
XRECORD
  5
8A0E
102
{ACAD_REACTORS
330
17A
102
}
330
17A
100
AcDbXrecord
280
     1
340
1A
  0
SORTENTSTABLE
  5
16992
102
{ACAD_REACTORS
330
16991
102
}
330
16991
100
AcDbSortentsTable
330
16990
  0
SORTENTSTABLE
  5
16D06
102
{ACAD_REACTORS
330
16D05
102
}
330
16D05
100
AcDbSortentsTable
330
16D04
  0
ACDBDETAILVIEWSTYLE
  5
8AA4
102
{ACAD_XDICTIONARY
360
1C3DC
102
}
102
{ACAD_REACTORS
330
8AA3
102
}
330
8AA3
100
AcDbModelDocViewStyle
 70
     0
  3
Imperial24
290
     0
100
AcDbDetailViewStyle
 70
     0
 71
     0
 90
        3
 71
     1
340
11
 62
   256
 40
0.24
340
0
 62
   256
 40
0.24
300

 40
0.36
280
     3
 71
     2
340
15
 90
       25
 62
   256
 71
     3
340
11
 62
   256
 40
0.24
 90
        1
 40
0.75
 90
        1
300
%<\AcVar ViewType \f "%tc1">% %<\AcVar ViewDetailId>%\PSCALE %<\AcVar ViewScale \f "%sn">%
 71
     4
340
15
 90
       25
 62
   256
340
15
 90
       25
 62
   256
280
     0
  0
LAYOUT
  5
8A4C
102
{ACAD_XDICTIONARY
360
F3D2
102
}
102
{ACAD_REACTORS
330
19
102
}
330
19
100
AcDbPlotSettings
  1

  2
none_device
  4
Letter_(8.50_x_11.00_Inches)
  6

 40
6.349999904632567
 41
6.349999904632567
 42
6.350006103515625
 43
6.350006103515625
 44
215.8999938964844
 45
279.3999938964844
 46
0.0
 47
0.0
 48
0.0
 49
0.0
140
0.0
141
0.0
142
1.0
143
317.0449279872537
 70
 11952
 72
     0
 73
     1
 74
     0
  7
monochrome.ctb
 75
     0
147
0.0031541271022642
 76
     0
 77
     2
 78
   300
148
21198.07971653447
149
42574.72085005308
100
AcDbLayout
  1
Model
 70
     1
 71
     0
 10
0.0
 20
0.0
 11
12.0
 21
9.0
 12
0.0
 22
0.0
 32
0.0
 14
0.0
 24
0.0
 34
0.0
 15
0.0
 25
0.0
 35
0.0
146
0.0
 13
0.0
 23
0.0
 33
0.0
 16
1.0
 26
0.0
 36
0.0
 17
0.0
 27
1.0
 37
0.0
 76
     0
330
1E
331
8A51
1001
ACAD_PSEXT
1000
なし
1000
なし
1000
適切ではありません
1000
新しいプロッタ環境設定名を選択しない限り、レイアウトは印刷されません。
1070
     0
  0
LAYOUT
  5
8A4D
102
{ACAD_REACTORS
330
19
102
}
330
19
100
AcDbPlotSettings
  1

  2
Canon LBP3800 LIPSLX
  4

  6

 40
0.0
 41
0.0
 42
0.0
 43
0.0
 44
0.0
 45
0.0
 46
0.0
 47
0.0
 48
0.0
 49
0.0
140
0.0
141
0.0
142
1.0
143
1.0
 70
   688
 72
     0
 73
     0
 74
     5
  7
monochrome.ctb
 75
    16
147
1.0
 76
     0
 77
     2
 78
   300
148
0.0
149
0.0
100
AcDbLayout
  1
ﾚｲｱｳﾄ1
 70
     1
 71
     1
 10
-5.873749
 20
-5.87375
 11
204.099579
 21
291.1369009999999
 12
0.0
 22
0.0
 32
0.0
 14
4.273573
 24
5.205245999999998
 34
0.0
 15
194.610095
 25
283.0697009999996
 35
0.0
146
0.0
 13
0.0
 23
0.0
 33
0.0
 16
1.0
 26
0.0
 36
0.0
 17
0.0
 27
1.0
 37
0.0
 76
     0
330
1A
331
9AC
  0
MATERIAL
  5
8A61
102
{ACAD_XDICTIONARY
360
8A62
102
}
102
{ACAD_REACTORS
330
8A58
102
}
330
8A58
100
AcDbMaterial
  1
ByBlock
 72
     0
 43
0.0208333333333333
 43
0.0
 43
0.0
 43
0.0
 43
0.0
 43
0.0208333333333333
 43
0.0
 43
0.0
 43
0.0
 43
0.0
 43
1.0
 43
0.0
 43
0.0
 43
0.0
 43
0.0
 43
1.0
 77
     0
 47
0.0208333333333333
 47
0.0
 47
0.0
 47
0.0
 47
0.0
 47
0.0208333333333333
 47
0.0
 47
0.0
 47
0.0
 47
0.0
 47
1.0
 47
0.0
 47
0.0
 47
0.0
 47
0.0
 47
1.0
171
     0
 49
0.0208333333333333
 49
0.0
 49
0.0
 49
0.0
 49
0.0
 49
0.0208333333333333
 49
0.0
 49
0.0
 49
0.0
 49
0.0
 49
1.0
 49
0.0
 49
0.0
 49
0.0
 49
0.0
 49
1.0
175
     0
142
0.0208333333333333
142
0.0
142
0.0
142
0.0
142
0.0
142
0.0208333333333333
142
0.0
142
0.0
142
0.0
142
0.0
142
1.0
142
0.0
142
0.0
142
0.0
142
0.0
142
1.0
179
     0
144
0.0208333333333333
144
0.0
144
0.0
144
0.0
144
0.0
144
0.0208333333333333
144
0.0
144
0.0
144
0.0
144
0.0
144
1.0
144
0.0
144
0.0
144
0.0
144
0.0
144
1.0
147
0.0208333333333333
147
0.0
147
0.0
147
0.0
147
0.0
147
0.0208333333333333
147
0.0
147
0.0
147
0.0
147
0.0
147
1.0
147
0.0
147
0.0
147
0.0
147
0.0
147
1.0
  0
MATERIAL
  5
8A59
102
{ACAD_XDICTIONARY
360
8A5A
102
}
102
{ACAD_REACTORS
330
8A58
102
}
330
8A58
100
AcDbMaterial
  1
ByLayer
 72
     0
 43
0.0208333333333333
 43
0.0
 43
0.0
 43
0.0
 43
0.0
 43
0.0208333333333333
 43
0.0
 43
0.0
 43
0.0
 43
0.0
 43
1.0
 43
0.0
 43
0.0
 43
0.0
 43
0.0
 43
1.0
 77
     0
 47
0.0208333333333333
 47
0.0
 47
0.0
 47
0.0
 47
0.0
 47
0.0208333333333333
 47
0.0
 47
0.0
 47
0.0
 47
0.0
 47
1.0
 47
0.0
 47
0.0
 47
0.0
 47
0.0
 47
1.0
171
     0
 49
0.0208333333333333
 49
0.0
 49
0.0
 49
0.0
 49
0.0
 49
0.0208333333333333
 49
0.0
 49
0.0
 49
0.0
 49
0.0
 49
1.0
 49
0.0
 49
0.0
 49
0.0
 49
0.0
 49
1.0
175
     0
142
0.0208333333333333
142
0.0
142
0.0
142
0.0
142
0.0
142
0.0208333333333333
142
0.0
142
0.0
142
0.0
142
0.0
142
1.0
142
0.0
142
0.0
142
0.0
142
0.0
142
1.0
179
     0
144
0.0208333333333333
144
0.0
144
0.0
144
0.0
144
0.0
144
0.0208333333333333
144
0.0
144
0.0
144
0.0
144
0.0
144
1.0
144
0.0
144
0.0
144
0.0
144
0.0
144
1.0
147
0.0208333333333333
147
0.0
147
0.0
147
0.0
147
0.0
147
0.0208333333333333
147
0.0
147
0.0
147
0.0
147
0.0
147
1.0
147
0.0
147
0.0
147
0.0
147
0.0
147
1.0
  0
MATERIAL
  5
8A69
102
{ACAD_XDICTIONARY
360
8A6A
102
}
102
{ACAD_REACTORS
330
8A58
102
}
330
8A58
100
AcDbMaterial
  1
Global
 72
     0
 43
0.0208333333333333
 43
0.0
 43
0.0
 43
0.0
 43
0.0
 43
0.0208333333333333
 43
0.0
 43
0.0
 43
0.0
 43
0.0
 43
1.0
 43
0.0
 43
0.0
 43
0.0
 43
0.0
 43
1.0
 77
     0
 47
0.0208333333333333
 47
0.0
 47
0.0
 47
0.0
 47
0.0
 47
0.0208333333333333
 47
0.0
 47
0.0
 47
0.0
 47
0.0
 47
1.0
 47
0.0
 47
0.0
 47
0.0
 47
0.0
 47
1.0
171
     0
 49
0.0208333333333333
 49
0.0
 49
0.0
 49
0.0
 49
0.0
 49
0.0208333333333333
 49
0.0
 49
0.0
 49
0.0
 49
0.0
 49
1.0
 49
0.0
 49
0.0
 49
0.0
 49
0.0
 49
1.0
175
     0
142
0.0208333333333333
142
0.0
142
0.0
142
0.0
142
0.0
142
0.0208333333333333
142
0.0
142
0.0
142
0.0
142
0.0
142
1.0
142
0.0
142
0.0
142
0.0
142
0.0
142
1.0
179
     0
144
0.0208333333333333
144
0.0
144
0.0
144
0.0
144
0.0
144
0.0208333333333333
144
0.0
144
0.0
144
0.0
144
0.0
144
1.0
144
0.0
144
0.0
144
0.0
144
0.0
144
1.0
147
0.0208333333333333
147
0.0
147
0.0
147
0.0
147
0.0
147
0.0208333333333333
147
0.0
147
0.0
147
0.0
147
0.0
147
1.0
147
0.0
147
0.0
147
0.0
147
0.0
147
1.0
  0
MLEADERSTYLE
  5
8AA0
102
{ACAD_REACTORS
330
8A9F
102
}
330
8A9F
100
AcDbMLeaderStyle
179
     2
170
     2
171
     1
172
     0
 90
        2
 40
0.0
 41
0.0
173
     1
 91
-1056964608
340
13
 92
       -2
290
     1
 42
0.09
291
     1
 43
0.36
  3
Standard
 44
0.18
300

342
11
174
     1
178
     6
175
     1
176
     0
 93
-1056964608
 45
0.18
292
     0
297
     0
 46
0.18
 94
-1056964608
 47
1.0
 49
1.0
140
1.0
293
     1
141
0.0
294
     1
177
     0
142
1.0
295
     0
296
     0
143
0.125
271
     0
272
     9
273
     9
298
     0
  0
MLINESTYLE
  5
17
102
{ACAD_REACTORS
330
16
102
}
330
16
100
AcDbMlineStyle
  2
STANDARD
 70
     0
  3

 62
   256
 51
90.0
 52
90.0
 71
     2
 49
0.5
 62
   256
  6
BYLAYER
 49
-0.5
 62
   256
  6
BYLAYER
  0
ACDBPLACEHOLDER
  5
F
102
{ACAD_REACTORS
330
E
102
}
330
E
  0
SCALE
  5
8A8E
102
{ACAD_REACTORS
330
8A8D
102
}
330
8A8D
100
AcDbScale
 70
     0
300
1:1
140
1.0
141
1.0
290
     1
  0
SCALE
  5
8A8F
102
{ACAD_REACTORS
330
8A8D
102
}
330
8A8D
100
AcDbScale
 70
     0
300
1/128" = 1'-0"
140
0.0078125
141
12.0
290
     0
  0
SCALE
  5
8A90
102
{ACAD_REACTORS
330
8A8D
102
}
330
8A8D
100
AcDbScale
 70
     0
300
1/64" = 1'-0"
140
0.015625
141
12.0
290
     0
  0
SCALE
  5
8A91
102
{ACAD_REACTORS
330
8A8D
102
}
330
8A8D
100
AcDbScale
 70
     0
300
1/32" = 1'-0"
140
0.03125
141
12.0
290
     0
  0
SCALE
  5
8A92
102
{ACAD_REACTORS
330
8A8D
102
}
330
8A8D
100
AcDbScale
 70
     0
300
1/16" = 1'-0"
140
0.0625
141
12.0
290
     0
  0
SCALE
  5
8A93
102
{ACAD_REACTORS
330
8A8D
102
}
330
8A8D
100
AcDbScale
 70
     0
300
3/32" = 1'-0"
140
0.09375
141
12.0
290
     0
  0
SCALE
  5
8A94
102
{ACAD_REACTORS
330
8A8D
102
}
330
8A8D
100
AcDbScale
 70
     0
300
1/8" = 1'-0"
140
0.125
141
12.0
290
     0
  0
SCALE
  5
8A95
102
{ACAD_REACTORS
330
8A8D
102
}
330
8A8D
100
AcDbScale
 70
     0
300
3/16" = 1'-0"
140
0.1875
141
12.0
290
     0
  0
SCALE
  5
8A96
102
{ACAD_REACTORS
330
8A8D
102
}
330
8A8D
100
AcDbScale
 70
     0
300
1/4" = 1'-0"
140
0.25
141
12.0
290
     0
  0
SCALE
  5
8A97
102
{ACAD_REACTORS
330
8A8D
102
}
330
8A8D
100
AcDbScale
 70
     0
300
3/8" = 1'-0"
140
0.375
141
12.0
290
     0
  0
SCALE
  5
8A98
102
{ACAD_REACTORS
330
8A8D
102
}
330
8A8D
100
AcDbScale
 70
     0
300
1/2" = 1'-0"
140
0.5
141
12.0
290
     0
  0
SCALE
  5
8A99
102
{ACAD_REACTORS
330
8A8D
102
}
330
8A8D
100
AcDbScale
 70
     0
300
3/4" = 1'-0"
140
0.75
141
12.0
290
     0
  0
SCALE
  5
8A9A
102
{ACAD_REACTORS
330
8A8D
102
}
330
8A8D
100
AcDbScale
 70
     0
300
1" = 1'-0"
140
1.0
141
12.0
290
     0
  0
SCALE
  5
8A9B
102
{ACAD_REACTORS
330
8A8D
102
}
330
8A8D
100
AcDbScale
 70
     0
300
1-1/2" = 1'-0"
140
1.5
141
12.0
290
     0
  0
SCALE
  5
8A9C
102
{ACAD_REACTORS
330
8A8D
102
}
330
8A8D
100
AcDbScale
 70
     0
300
3" = 1'-0"
140
3.0
141
12.0
290
     0
  0
SCALE
  5
8A9D
102
{ACAD_REACTORS
330
8A8D
102
}
330
8A8D
100
AcDbScale
 70
     0
300
6" = 1'-0"
140
6.0
141
12.0
290
     0
  0
SCALE
  5
8A9E
102
{ACAD_REACTORS
330
8A8D
102
}
330
8A8D
100
AcDbScale
 70
     0
300
1'-0" = 1'-0"
140
12.0
141
12.0
290
     0
  0
ACDBSECTIONVIEWSTYLE
  5
8AA2
102
{ACAD_XDICTIONARY
360
1C3DA
102
}
102
{ACAD_REACTORS
330
8AA1
102
}
330
8AA1
100
AcDbModelDocViewStyle
 70
     0
  3
Imperial24
290
     0
100
AcDbSectionViewStyle
 70
     0
 71
     0
 90
       78
 71
     1
340
11
 62
   256
 40
0.24
340
0
340
0
 62
   256
 40
0.24
300
I, O, Q, S, X, Z
 40
0.48
 90
        3
 40
0.18
 90
        1
 71
     2
340
15
 90
       25
 62
   256
340
15
 90
       50
 62
   256
 40
0.24
 40
0.0
 40
0.24
 71
     3
340
11
 62
   256
 40
0.24
 90
        1
 40
0.75
 90
        1
300
%<\AcVar ViewType \f "%tc1">% %<\AcVar ViewSectionStartId>%-%<\AcVar ViewSectionEndId>%\PSCALE %<\AcVar ViewScale \f "%sn">%
 71
     4
 62
   256
 62
   257
300
ANSI31
 40
1.0
 90
        0
290
     0
290
     0
 90
        6
 40
0.0
 40
1.570796326794896
 40
0.2617993877991494
 40
1.308996938995747
 40
-0.2617993877991494
 40
1.832595714594044
  0
TABLESTYLE
  5
8A8C
102
{ACAD_XDICTIONARY
360
8AED
102
}
102
{ACAD_REACTORS
330
8A8B
102
}
330
8A8B
100
AcDbTableStyle
280
     0
  3
Standard
 70
     0
 71
     0
 40
0.06
 41
0.06
280
     0
281
     0
  7
STANDARD
140
0.18
170
     2
 62
     0
 63
     7
283
     0
 90
      512
 91
        0
  1

274
    -2
284
     1
 64
     0
275
    -2
285
     1
 65
     0
276
    -2
286
     1
 66
     0
277
    -2
287
     1
 67
     0
278
    -2
288
     1
 68
     0
279
    -2
289
     1
 69
     0
  7
STANDARD
140
0.25
170
     5
 62
     0
 63
     7
283
     0
 90
      512
 91
        0
  1

274
    -2
284
     1
 64
     0
275
    -2
285
     1
 65
     0
276
    -2
286
     1
 66
     0
277
    -2
287
     1
 67
     0
278
    -2
288
     1
 68
     0
279
    -2
289
     1
 69
     0
  7
STANDARD
140
0.18
170
     5
 62
     0
 63
     7
283
     0
 90
      512
 91
        0
  1

274
    -2
284
     1
 64
     0
275
    -2
285
     1
 65
     0
276
    -2
286
     1
 66
     0
277
    -2
287
     1
 67
     0
278
    -2
288
     1
 68
     0
279
    -2
289
     1
 69
     0
  0
VISUALSTYLE
  5
8A77
102
{ACAD_REACTORS
330
8A71
102
}
330
8A71
100
AcDbVisualStyle
  2
2dWireframe
 70
     4
177
     3
291
     0
 70
    58
 90
        0
176
     1
 90
        2
176
     1
 90
        0
176
     1
 90
        0
176
     1
 40
0.6
176
     1
 40
30.0
176
     1
 62
     7
420
 16777215
176
     1
 90
        1
176
     1
 90
        4
176
     1
 62
     7
176
     1
 62
   257
176
     1
 90
        1
176
     1
 90
        1
176
     1
 40
1.0
176
     1
 90
        0
176
     1
 62
   257
176
     1
 40
1.0
176
     1
 90
        1
176
     1
 90
        6
176
     1
 90
        2
176
     1
 62
     7
176
     1
 90
        5
176
     1
 90
        0
176
     1
 90
        0
176
     1
290
     0
176
     1
 90
        1
176
     1
 40
0.0
176
     1
 90
        0
176
     1
290
     1
176
     1
290
     1
176
     1
290
     0
176
     1
290
     0
176
     1
290
     0
176
     1
290
     0
176
     1
290
     0
176
     1
290
     0
176
     1
290
     0
176
     1
 90
       50
176
     1
 40
0.0
176
     1
 40
1.0
176
     1
 90
        0
176
     1
 62
    18
176
     1
 90
       50
176
     1
 90
        3
176
     1
 62
     5
420
      255
176
     1
290
     0
176
     1
 90
       50
176
     1
 90
       50
176
     1
 90
       50
176
     1
290
     0
176
     1
 90
       50
176
     1
 62
   256
176
     0
 40
1.0
176
     0
 90
        2
176
     1
  1
strokes_ogs.tif
176
     1
290
     0
176
     1
 40
1.0
176
     1
 40
1.0
176
     1
  0
VISUALSTYLE
  5
8B2B
102
{ACAD_REACTORS
330
8A71
102
}
330
8A71
100
AcDbVisualStyle
  2
3D Hidden
 70
     6
177
     3
291
     0
 70
    58
 90
        1
176
     1
 90
        2
176
     1
 90
        2
176
     1
 90
        0
176
     1
 40
0.6
176
     1
 40
30.0
176
     1
 62
     7
420
 16777215
176
     1
 90
        2
176
     1
 90
        2
176
     1
 62
     7
176
     1
 62
   257
176
     1
 90
        2
176
     1
 90
        1
176
     1
 40
179.0
176
     1
 90
        0
176
     1
 62
   257
176
     1
 40
1.0
176
     1
 90
        1
176
     1
 90
        6
176
     1
 90
        2
176
     1
 62
     7
176
     1
 90
        3
176
     1
 90
        0
176
     1
 90
        0
176
     1
290
     0
176
     1
 90
        1
176
     1
 40
0.0
176
     1
 90
        0
176
     1
290
     0
176
     1
290
     1
176
     1
290
     1
176
     1
290
     0
176
     1
290
     0
176
     1
290
     0
176
     1
290
     0
176
     1
290
     0
176
     1
290
     0
176
     1
 90
       50
176
     1
 40
0.0
176
     1
 40
1.0
176
     1
 90
        0
176
     1
 62
    18
176
     1
 90
       50
176
     1
 90
        3
176
     1
 62
     5
420
      255
176
     1
290
     0
176
     1
 90
       50
176
     1
 90
       50
176
     1
 90
       50
176
     1
290
     0
176
     1
 90
       50
176
     1
 62
   256
176
     0
 40
1.0
176
     0
 90
        2
176
     1
  1
strokes_ogs.tif
176
     1
290
     0
176
     1
 40
1.0
176
     1
 40
1.0
176
     1
  0
VISUALSTYLE
  5
8B2A
102
{ACAD_REACTORS
330
8A71
102
}
330
8A71
100
AcDbVisualStyle
  2
3dWireframe
 70
     5
177
     3
291
     0
 70
    58
 90
        0
176
     1
 90
        2
176
     1
 90
        0
176
     1
 90
        0
176
     1
 40
0.6
176
     1
 40
30.0
176
     1
 62
     7
420
 16777215
176
     1
 90
        1
176
     1
 90
        4
176
     1
 62
     7
176
     1
 62
   257
176
     1
 90
        1
176
     1
 90
        1
176
     1
 40
1.0
176
     1
 90
        0
176
     1
 62
   257
176
     1
 40
1.0
176
     1
 90
        1
176
     1
 90
        6
176
     1
 90
        2
176
     1
 62
     7
176
     1
 90
        5
176
     1
 90
        0
176
     1
 90
        0
176
     1
290
     0
176
     1
 90
        1
176
     1
 40
0.0
176
     1
 90
        0
176
     1
290
     0
176
     1
290
     1
176
     1
290
     1
176
     1
290
     0
176
     1
290
     0
176
     1
290
     0
176
     1
290
     0
176
     1
290
     0
176
     1
290
     0
176
     1
 90
       50
176
     1
 40
0.0
176
     1
 40
1.0
176
     1
 90
        0
176
     1
 62
    18
176
     1
 90
       50
176
     1
 90
        3
176
     1
 62
     5
420
      255
176
     1
290
     0
176
     1
 90
       50
176
     1
 90
       50
176
     1
 90
       50
176
     1
290
     0
176
     1
 90
       50
176
     1
 62
   256
176
     0
 40
1.0
176
     0
 90
        2
176
     1
  1
strokes_ogs.tif
176
     1
290
     0
176
     1
 40
1.0
176
     1
 40
1.0
176
     1
  0
VISUALSTYLE
  5
8A76
102
{ACAD_REACTORS
330
8A71
102
}
330
8A71
100
AcDbVisualStyle
  2
Basic
 70
     7
177
     3
291
     1
 70
    58
 90
        1
176
     1
 90
        0
176
     1
 90
        1
176
     1
 90
        0
176
     1
 40
0.6
176
     1
 40
30.0
176
     1
 62
     7
420
 16777215
176
     1
 90
        0
176
     1
 90
        4
176
     1
 62
     7
176
     1
 62
   257
176
     1
 90
        1
176
     1
 90
        1
176
     1
 40
1.0
176
     1
 90
        8
176
     1
 62
     7
176
     1
 40
1.0
176
     1
 90
        1
176
     1
 90
        6
176
     1
 90
        2
176
     1
 62
     7
176
     1
 90
        5
176
     1
 90
        0
176
     1
 90
        0
176
     1
290
     0
176
     1
 90
        1
176
     1
 40
0.0
176
     1
 90
        0
176
     1
290
     0
176
     1
290
     1
176
     1
290
     1
176
     1
290
     0
176
     1
290
     0
176
     1
290
     0
176
     1
290
     0
176
     1
290
     0
176
     1
290
     0
176
     1
 90
       50
176
     1
 40
0.0
176
     1
 40
1.0
176
     1
 90
        0
176
     1
 62
    18
176
     1
 90
       50
176
     1
 90
        3
176
     1
 62
     5
420
      255
176
     1
290
     0
176
     1
 90
       50
176
     1
 90
       50
176
     1
 90
       50
176
     1
290
     0
176
     1
 90
       50
176
     1
 62
   256
176
     0
 40
1.0
176
     0
 90
        2
176
     1
  1
strokes_ogs.tif
176
     1
290
     0
176
     1
 40
1.0
176
     1
 40
1.0
176
     1
  0
VISUALSTYLE
  5
8A7D
102
{ACAD_REACTORS
330
8A71
102
}
330
8A71
100
AcDbVisualStyle
  2
Brighten
 70
    12
177
     3
291
     1
 70
    58
 90
        2
176
     1
 90
        2
176
     1
 90
        0
176
     1
 90
        0
176
     1
 40
0.6
176
     1
 40
30.0
176
     1
 62
     7
420
 16777215
176
     1
 90
        1
176
     1
 90
        4
176
     1
 62
     7
176
     1
 62
   257
176
     1
 90
        1
176
     1
 90
        1
176
     1
 40
1.0
176
     1
 90
        8
176
     1
 62
     7
176
     1
 40
1.0
176
     1
 90
        1
176
     1
 90
        6
176
     1
 90
        2
176
     1
 62
     7
176
     1
 90
        5
176
     1
 90
        0
176
     1
 90
        0
176
     1
290
     0
176
     1
 90
        1
176
     1
 40
50.0
176
     1
 90
        0
176
     1
290
     0
176
     1
290
     1
176
     1
290
     1
176
     1
290
     0
176
     1
290
     0
176
     1
290
     0
176
     1
290
     0
176
     1
290
     0
176
     1
290
     0
176
     1
 90
       50
176
     1
 40
0.0
176
     1
 40
1.0
176
     1
 90
        0
176
     1
 62
    18
176
     1
 90
       50
176
     1
 90
        3
176
     1
 62
     5
420
      255
176
     1
290
     0
176
     1
 90
       50
176
     1
 90
       50
176
     1
 90
       50
176
     1
290
     0
176
     1
 90
       50
176
     1
 62
   256
176
     0
 40
1.0
176
     0
 90
        2
176
     1
  1
strokes_ogs.tif
176
     1
290
     0
176
     1
 40
1.0
176
     1
 40
1.0
176
     1
  0
VISUALSTYLE
  5
8A81
102
{ACAD_REACTORS
330
8A71
102
}
330
8A71
100
AcDbVisualStyle
  2
ColorChange
 70
    16
177
     3
291
     1
 70
    58
 90
        2
176
     1
 90
        2
176
     1
 90
        3
176
     1
 90
        0
176
     1
 40
0.6
176
     1
 40
30.0
176
     1
 62
     8
420
  8421504
176
     1
 90
        1
176
     1
 90
        4
176
     1
 62
     7
176
     1
 62
   257
176
     1
 90
        1
176
     1
 90
        1
176
     1
 40
1.0
176
     1
 90
        8
176
     1
 62
     8
420
  8421504
176
     1
 40
1.0
176
     1
 90
        1
176
     1
 90
        6
176
     1
 90
        2
176
     1
 62
     7
176
     1
 90
        5
176
     1
 90
        0
176
     1
 90
        0
176
     1
290
     0
176
     1
 90
        1
176
     1
 40
0.0
176
     1
 90
        0
176
     1
290
     0
176
     1
290
     1
176
     1
290
     1
176
     1
290
     0
176
     1
290
     0
176
     1
290
     0
176
     1
290
     0
176
     1
290
     0
176
     1
290
     0
176
     1
 90
       50
176
     1
 40
0.0
176
     1
 40
1.0
176
     1
 90
        0
176
     1
 62
    18
176
     1
 90
       50
176
     1
 90
        3
176
     1
 62
     5
420
      255
176
     1
290
     0
176
     1
 90
       50
176
     1
 90
       50
176
     1
 90
       50
176
     1
290
     0
176
     1
 90
       50
176
     1
 62
   256
176
     0
 40
1.0
176
     0
 90
        2
176
     1
  1
strokes_ogs.tif
176
     1
290
     0
176
     1
 40
1.0
176
     1
 40
1.0
176
     1
  0
VISUALSTYLE
  5
8A7A
102
{ACAD_REACTORS
330
8A71
102
}
330
8A71
100
AcDbVisualStyle
  2
Conceptual
 70
     9
177
     3
291
     0
 70
    58
 90
        3
176
     1
 90
        2
176
     1
 90
        0
176
     1
 90
        0
176
     1
 40
0.6
176
     1
 40
30.0
176
     1
 62
     7
420
 16777215
176
     1
 90
        2
176
     1
 90
        2
176
     1
 62
     7
176
     1
 62
   257
176
     1
 90
        1
176
     1
 90
        1
176
     1
 40
179.0
176
     1
 90
        8
176
     1
 62
     7
176
     1
 40
1.0
176
     1
 90
        1
176
     1
 90
        6
176
     1
 90
        2
176
     1
 62
     7
176
     1
 90
        3
176
     1
 90
        0
176
     1
 90
        0
176
     1
290
     0
176
     1
 90
        1
176
     1
 40
0.0
176
     1
 90
        0
176
     1
290
     0
176
     1
290
     1
176
     1
290
     1
176
     1
290
     0
176
     1
290
     0
176
     1
290
     0
176
     1
290
     0
176
     1
290
     0
176
     1
290
     0
176
     1
 90
       50
176
     1
 40
0.0
176
     1
 40
1.0
176
     1
 90
        0
176
     1
 62
    18
176
     1
 90
       50
176
     1
 90
        3
176
     1
 62
     5
420
      255
176
     1
290
     0
176
     1
 90
       50
176
     1
 90
       50
176
     1
 90
       50
176
     1
290
     0
176
     1
 90
       50
176
     1
 62
   256
176
     0
 40
1.0
176
     0
 90
        2
176
     1
  1
strokes_ogs.tif
176
     1
290
     0
176
     1
 40
1.0
176
     1
 40
1.0
176
     1
  0
VISUALSTYLE
  5
8A7C
102
{ACAD_REACTORS
330
8A71
102
}
330
8A71
100
AcDbVisualStyle
  2
Dim
 70
    11
177
     3
291
     1
 70
    58
 90
        2
176
     1
 90
        2
176
     1
 90
        0
176
     1
 90
        0
176
     1
 40
0.6
176
     1
 40
30.0
176
     1
 62
     7
420
 16777215
176
     1
 90
        1
176
     1
 90
        4
176
     1
 62
     7
176
     1
 62
   257
176
     1
 90
        1
176
     1
 90
        1
176
     1
 40
1.0
176
     1
 90
        8
176
     1
 62
     7
176
     1
 40
1.0
176
     1
 90
        1
176
     1
 90
        6
176
     1
 90
        2
176
     1
 62
     7
176
     1
 90
        5
176
     1
 90
        0
176
     1
 90
        0
176
     1
290
     0
176
     1
 90
        1
176
     1
 40
-50.0
176
     1
 90
        0
176
     1
290
     0
176
     1
290
     1
176
     1
290
     1
176
     1
290
     0
176
     1
290
     0
176
     1
290
     0
176
     1
290
     0
176
     1
290
     0
176
     1
290
     0
176
     1
 90
       50
176
     1
 40
0.0
176
     1
 40
1.0
176
     1
 90
        0
176
     1
 62
    18
176
     1
 90
       50
176
     1
 90
        3
176
     1
 62
     5
420
      255
176
     1
290
     0
176
     1
 90
       50
176
     1
 90
       50
176
     1
 90
       50
176
     1
290
     0
176
     1
 90
       50
176
     1
 62
   256
176
     0
 40
1.0
176
     0
 90
        2
176
     1
  1
strokes_ogs.tif
176
     1
290
     0
176
     1
 40
1.0
176
     1
 40
1.0
176
     1
  0
VISUALSTYLE
  5
8A89
102
{ACAD_REACTORS
330
8A71
102
}
330
8A71
100
AcDbVisualStyle
  2
EdgeColorOff
 70
    22
177
     3
291
     1
 70
    58
 90
        2
176
     0
 90
        2
176
     0
 90
        0
176
     0
 90
        0
176
     0
 40
0.6
176
     0
 40
30.0
176
     0
 62
     7
420
 16777215
176
     0
 90
        1
176
     0
 90
        4
176
     0
 62
     7
176
     0
 62
   257
176
     0
 90
        1
176
     0
 90
        1
176
     0
 40
1.0
176
     0
 90
        8
176
     2
 62
     7
176
     0
 40
1.0
176
     0
 90
        1
176
     0
 90
        6
176
     0
 90
        2
176
     0
 62
     7
176
     0
 90
        5
176
     0
 90
        0
176
     0
 90
        0
176
     0
290
     0
176
     0
 90
        1
176
     0
 40
0.0
176
     0
 90
        0
176
     0
290
     0
176
     1
290
     1
176
     1
290
     1
176
     1
290
     0
176
     1
290
     0
176
     1
290
     0
176
     1
290
     0
176
     1
290
     0
176
     1
290
     0
176
     1
 90
       50
176
     0
 40
0.0
176
     0
 40
1.0
176
     0
 90
        0
176
     0
 62
    18
176
     0
 90
       50
176
     0
 90
        3
176
     0
 62
     5
420
      255
176
     0
290
     0
176
     1
 90
       50
176
     0
 90
       50
176
     0
 90
       50
176
     0
290
     0
176
     1
 90
       50
176
     0
 62
   256
176
     0
 40
1.0
176
     0
 90
        2
176
     0
  1
strokes_ogs.tif
176
     0
290
     0
176
     1
 40
1.0
176
     0
 40
1.0
176
     0
  0
VISUALSTYLE
  5
8A80
102
{ACAD_REACTORS
330
8A71
102
}
330
8A71
100
AcDbVisualStyle
  2
Facepattern
 70
    15
177
     3
291
     1
 70
    58
 90
        2
176
     1
 90
        2
176
     1
 90
        0
176
     1
 90
        0
176
     1
 40
0.6
176
     1
 40
30.0
176
     1
 62
     7
420
 16777215
176
     1
 90
        1
176
     1
 90
        4
176
     1
 62
     7
176
     1
 62
   257
176
     1
 90
        1
176
     1
 90
        1
176
     1
 40
1.0
176
     1
 90
        8
176
     1
 62
     7
176
     1
 40
1.0
176
     1
 90
        1
176
     1
 90
        6
176
     1
 90
        2
176
     1
 62
     7
176
     1
 90
        5
176
     1
 90
        0
176
     1
 90
        0
176
     1
290
     0
176
     1
 90
        1
176
     1
 40
0.0
176
     1
 90
        0
176
     1
290
     0
176
     1
290
     1
176
     1
290
     1
176
     1
290
     0
176
     1
290
     0
176
     1
290
     0
176
     1
290
     0
176
     1
290
     0
176
     1
290
     0
176
     1
 90
       50
176
     1
 40
0.0
176
     1
 40
1.0
176
     1
 90
        0
176
     1
 62
    18
176
     1
 90
       50
176
     1
 90
        3
176
     1
 62
     5
420
      255
176
     1
290
     0
176
     1
 90
       50
176
     1
 90
       50
176
     1
 90
       50
176
     1
290
     0
176
     1
 90
       50
176
     1
 62
   256
176
     0
 40
1.0
176
     0
 90
        2
176
     1
  1
strokes_ogs.tif
176
     1
290
     0
176
     1
 40
1.0
176
     1
 40
1.0
176
     1
  0
VISUALSTYLE
  5
8A72
102
{ACAD_REACTORS
330
8A71
102
}
330
8A71
100
AcDbVisualStyle
  2
Flat
 70
     0
177
     3
291
     1
 70
    58
 90
        2
176
     1
 90
        1
176
     1
 90
        1
176
     1
 90
        2
176
     1
 40
0.6
176
     1
 40
30.0
176
     1
 62
     7
420
 16777215
176
     1
 90
        0
176
     1
 90
        0
176
     1
 62
     7
176
     1
 62
   257
176
     1
 90
        1
176
     1
 90
        1
176
     1
 40
1.0
176
     1
 90
        8
176
     1
 62
     7
176
     1
 40
1.0
176
     1
 90
        1
176
     1
 90
        6
176
     1
 90
        2
176
     1
 62
     7
176
     1
 90
        5
176
     1
 90
        0
176
     1
 90
        0
176
     1
290
     0
176
     1
 90
       13
176
     1
 40
0.0
176
     1
 90
        0
176
     1
290
     0
176
     1
290
     1
176
     1
290
     1
176
     1
290
     0
176
     1
290
     0
176
     1
290
     0
176
     1
290
     0
176
     1
290
     0
176
     1
290
     0
176
     1
 90
       50
176
     1
 40
0.0
176
     1
 40
1.0
176
     1
 90
        0
176
     1
 62
    18
176
     1
 90
       50
176
     1
 90
        3
176
     1
 62
     5
420
      255
176
     1
290
     0
176
     1
 90
       50
176
     1
 90
       50
176
     1
 90
       50
176
     1
290
     0
176
     1
 90
       50
176
     1
 62
   256
176
     0
 40
1.0
176
     0
 90
        2
176
     1
  1
strokes_ogs.tif
176
     1
290
     0
176
     1
 40
1.0
176
     1
 40
1.0
176
     1
  0
VISUALSTYLE
  5
8A73
102
{ACAD_REACTORS
330
8A71
102
}
330
8A71
100
AcDbVisualStyle
  2
FlatWithEdges
 70
     1
177
     3
291
     1
 70
    58
 90
        2
176
     1
 90
        1
176
     1
 90
        1
176
     1
 90
        2
176
     1
 40
0.6
176
     1
 40
30.0
176
     1
 62
     7
420
 16777215
176
     1
 90
        1
176
     1
 90
        0
176
     1
 62
     7
176
     1
 62
   257
176
     1
 90
        1
176
     1
 90
        1
176
     1
 40
1.0
176
     1
 90
        0
176
     1
 62
   257
176
     1
 40
1.0
176
     1
 90
        1
176
     1
 90
        6
176
     1
 90
        2
176
     1
 62
     7
176
     1
 90
        5
176
     1
 90
        0
176
     1
 90
        0
176
     1
290
     0
176
     1
 90
       13
176
     1
 40
0.0
176
     1
 90
        0
176
     1
290
     0
176
     1
290
     1
176
     1
290
     1
176
     1
290
     0
176
     1
290
     0
176
     1
290
     0
176
     1
290
     0
176
     1
290
     0
176
     1
290
     0
176
     1
 90
       50
176
     1
 40
0.0
176
     1
 40
1.0
176
     1
 90
        0
176
     1
 62
    18
176
     1
 90
       50
176
     1
 90
        3
176
     1
 62
     5
420
      255
176
     1
290
     0
176
     1
 90
       50
176
     1
 90
       50
176
     1
 90
       50
176
     1
290
     0
176
     1
 90
       50
176
     1
 62
   256
176
     0
 40
1.0
176
     0
 90
        2
176
     1
  1
strokes_ogs.tif
176
     1
290
     0
176
     1
 40
1.0
176
     1
 40
1.0
176
     1
  0
VISUALSTYLE
  5
8A74
102
{ACAD_REACTORS
330
8A71
102
}
330
8A71
100
AcDbVisualStyle
  2
Gouraud
 70
     2
177
     3
291
     1
 70
    58
 90
        2
176
     1
 90
        2
176
     1
 90
        1
176
     1
 90
        2
176
     1
 40
0.6
176
     1
 40
30.0
176
     1
 62
     7
420
 16777215
176
     1
 90
        0
176
     1
 90
        0
176
     1
 62
     7
176
     1
 62
   257
176
     1
 90
        1
176
     1
 90
        1
176
     1
 40
1.0
176
     1
 90
        0
176
     1
 62
     7
176
     1
 40
1.0
176
     1
 90
        1
176
     1
 90
        6
176
     1
 90
        2
176
     1
 62
     7
176
     1
 90
        5
176
     1
 90
        0
176
     1
 90
        0
176
     1
290
     0
176
     1
 90
       13
176
     1
 40
0.0
176
     1
 90
        0
176
     1
290
     0
176
     1
290
     1
176
     1
290
     1
176
     1
290
     0
176
     1
290
     0
176
     1
290
     0
176
     1
290
     0
176
     1
290
     0
176
     1
290
     0
176
     1
 90
       50
176
     1
 40
0.0
176
     1
 40
1.0
176
     1
 90
        0
176
     1
 62
    18
176
     1
 90
       50
176
     1
 90
        3
176
     1
 62
     5
420
      255
176
     1
290
     0
176
     1
 90
       50
176
     1
 90
       50
176
     1
 90
       50
176
     1
290
     0
176
     1
 90
       50
176
     1
 62
   256
176
     0
 40
1.0
176
     0
 90
        2
176
     1
  1
strokes_ogs.tif
176
     1
290
     0
176
     1
 40
1.0
176
     1
 40
1.0
176
     1
  0
VISUALSTYLE
  5
8A75
102
{ACAD_REACTORS
330
8A71
102
}
330
8A71
100
AcDbVisualStyle
  2
GouraudWithEdges
 70
     3
177
     3
291
     1
 70
    58
 90
        2
176
     1
 90
        2
176
     1
 90
        1
176
     1
 90
        2
176
     1
 40
0.6
176
     1
 40
30.0
176
     1
 62
     7
420
 16777215
176
     1
 90
        1
176
     1
 90
        0
176
     1
 62
     7
176
     1
 62
   257
176
     1
 90
        1
176
     1
 90
        1
176
     1
 40
1.0
176
     1
 90
        0
176
     1
 62
   257
176
     1
 40
1.0
176
     1
 90
        1
176
     1
 90
        6
176
     1
 90
        2
176
     1
 62
     7
176
     1
 90
        5
176
     1
 90
        0
176
     1
 90
        0
176
     1
290
     0
176
     1
 90
       13
176
     1
 40
0.0
176
     1
 90
        0
176
     1
290
     0
176
     1
290
     1
176
     1
290
     1
176
     1
290
     0
176
     1
290
     0
176
     1
290
     0
176
     1
290
     0
176
     1
290
     0
176
     1
290
     0
176
     1
 90
       50
176
     1
 40
0.0
176
     1
 40
1.0
176
     1
 90
        0
176
     1
 62
    18
176
     1
 90
       50
176
     1
 90
        3
176
     1
 62
     5
420
      255
176
     1
290
     0
176
     1
 90
       50
176
     1
 90
       50
176
     1
 90
       50
176
     1
290
     0
176
     1
 90
       50
176
     1
 62
   256
176
     0
 40
1.0
176
     0
 90
        2
176
     1
  1
strokes_ogs.tif
176
     1
290
     0
176
     1
 40
1.0
176
     1
 40
1.0
176
     1
  0
VISUALSTYLE
  5
8A79
102
{ACAD_REACTORS
330
8A71
102
}
330
8A71
100
AcDbVisualStyle
  2
Hidden
 70
     6
177
     3
291
     0
 70
    58
 90
        1
176
     1
 90
        2
176
     1
 90
        2
176
     1
 90
        0
176
     1
 40
0.6
176
     1
 40
30.0
176
     1
 62
     7
420
 16777215
176
     1
 90
        2
176
     1
 90
        2
176
     1
 62
     7
176
     1
 62
   257
176
     1
 90
        2
176
     1
 90
        1
176
     1
 40
40.0
176
     1
 90
        0
176
     1
 62
   257
176
     1
 40
1.0
176
     1
 90
        1
176
     1
 90
        6
176
     1
 90
        2
176
     1
 62
     7
176
     1
 90
        3
176
     1
 90
        0
176
     1
 90
        0
176
     1
290
     0
176
     1
 90
        1
176
     1
 40
0.0
176
     1
 90
        0
176
     1
290
     0
176
     1
290
     1
176
     1
290
     1
176
     1
290
     0
176
     1
290
     0
176
     1
290
     0
176
     1
290
     0
176
     1
290
     0
176
     1
290
     0
176
     1
 90
       50
176
     1
 40
0.0
176
     1
 40
1.0
176
     1
 90
        0
176
     1
 62
    18
176
     1
 90
       50
176
     1
 90
        3
176
     1
 62
     5
420
      255
176
     1
290
     0
176
     1
 90
       50
176
     1
 90
       50
176
     1
 90
       50
176
     1
290
     0
176
     1
 90
       50
176
     1
 62
   256
176
     0
 40
1.0
176
     0
 90
        2
176
     1
  1
strokes_ogs.tif
176
     1
290
     0
176
     1
 40
1.0
176
     1
 40
1.0
176
     1
  0
VISUALSTYLE
  5
8A87
102
{ACAD_REACTORS
330
8A71
102
}
330
8A71
100
AcDbVisualStyle
  2
JitterOff
 70
    20
177
     3
291
     1
 70
    58
 90
        2
176
     0
 90
        2
176
     0
 90
        0
176
     0
 90
        0
176
     0
 40
0.6
176
     0
 40
30.0
176
     0
 62
     7
420
 16777215
176
     0
 90
        1
176
     0
 90
        4
176
     0
 62
     7
176
     0
 62
   257
176
     0
 90
        1
176
     0
 90
        1
176
     0
 40
1.0
176
     0
 90
       10
176
     2
 62
     7
176
     0
 40
1.0
176
     0
 90
        1
176
     0
 90
        6
176
     0
 90
        2
176
     0
 62
     7
176
     0
 90
        5
176
     0
 90
        0
176
     0
 90
        0
176
     0
290
     0
176
     0
 90
        1
176
     0
 40
0.0
176
     0
 90
        0
176
     0
290
     0
176
     1
290
     1
176
     1
290
     1
176
     1
290
     0
176
     1
290
     0
176
     1
290
     0
176
     1
290
     0
176
     1
290
     0
176
     1
290
     0
176
     1
 90
       50
176
     0
 40
0.0
176
     0
 40
1.0
176
     0
 90
        0
176
     0
 62
    18
176
     0
 90
       50
176
     0
 90
        3
176
     0
 62
     5
420
      255
176
     0
290
     0
176
     1
 90
       50
176
     0
 90
       50
176
     0
 90
       50
176
     0
290
     0
176
     1
 90
       50
176
     0
 62
   256
176
     0
 40
1.0
176
     0
 90
        2
176
     0
  1
strokes_ogs.tif
176
     0
290
     0
176
     1
 40
1.0
176
     0
 40
1.0
176
     0
  0
VISUALSTYLE
  5
8A7F
102
{ACAD_REACTORS
330
8A71
102
}
330
8A71
100
AcDbVisualStyle
  2
Linepattern
 70
    14
177
     3
291
     1
 70
    58
 90
        2
176
     1
 90
        2
176
     1
 90
        0
176
     1
 90
        0
176
     1
 40
0.6
176
     1
 40
30.0
176
     1
 62
     7
420
 16777215
176
     1
 90
        1
176
     1
 90
        4
176
     1
 62
     7
176
     1
 62
   257
176
     1
 90
        7
176
     1
 90
        7
176
     1
 40
1.0
176
     1
 90
        8
176
     1
 62
     7
176
     1
 40
1.0
176
     1
 90
        1
176
     1
 90
        6
176
     1
 90
        2
176
     1
 62
     7
176
     1
 90
        5
176
     1
 90
        0
176
     1
 90
        0
176
     1
290
     0
176
     1
 90
        1
176
     1
 40
0.0
176
     1
 90
        0
176
     1
290
     0
176
     1
290
     1
176
     1
290
     1
176
     1
290
     0
176
     1
290
     0
176
     1
290
     0
176
     1
290
     0
176
     1
290
     0
176
     1
290
     0
176
     1
 90
       50
176
     1
 40
0.0
176
     1
 40
1.0
176
     1
 90
        0
176
     1
 62
    18
176
     1
 90
       50
176
     1
 90
        3
176
     1
 62
     5
420
      255
176
     1
290
     0
176
     1
 90
       50
176
     1
 90
       50
176
     1
 90
       50
176
     1
290
     0
176
     1
 90
       50
176
     1
 62
   256
176
     0
 40
1.0
176
     0
 90
        2
176
     1
  1
strokes_ogs.tif
176
     1
290
     0
176
     1
 40
1.0
176
     1
 40
1.0
176
     1
  0
VISUALSTYLE
  5
8A88
102
{ACAD_REACTORS
330
8A71
102
}
330
8A71
100
AcDbVisualStyle
  2
OverhangOff
 70
    21
177
     3
291
     1
 70
    58
 90
        2
176
     0
 90
        2
176
     0
 90
        0
176
     0
 90
        0
176
     0
 40
0.6
176
     0
 40
30.0
176
     0
 62
     7
420
 16777215
176
     0
 90
        1
176
     0
 90
        4
176
     0
 62
     7
176
     0
 62
   257
176
     0
 90
        1
176
     0
 90
        1
176
     0
 40
1.0
176
     0
 90
        9
176
     2
 62
     7
176
     0
 40
1.0
176
     0
 90
        1
176
     0
 90
        6
176
     0
 90
        2
176
     0
 62
     7
176
     0
 90
        5
176
     0
 90
        0
176
     0
 90
        0
176
     0
290
     0
176
     0
 90
        1
176
     0
 40
0.0
176
     0
 90
        0
176
     0
290
     0
176
     1
290
     1
176
     1
290
     1
176
     1
290
     0
176
     1
290
     0
176
     1
290
     0
176
     1
290
     0
176
     1
290
     0
176
     1
290
     0
176
     1
 90
       50
176
     0
 40
0.0
176
     0
 40
1.0
176
     0
 90
        0
176
     0
 62
    18
176
     0
 90
       50
176
     0
 90
        3
176
     0
 62
     5
420
      255
176
     0
290
     0
176
     1
 90
       50
176
     0
 90
       50
176
     0
 90
       50
176
     0
290
     0
176
     1
 90
       50
176
     0
 62
   256
176
     0
 40
1.0
176
     0
 90
        2
176
     0
  1
strokes_ogs.tif
176
     0
290
     0
176
     1
 40
1.0
176
     0
 40
1.0
176
     0
  0
VISUALSTYLE
  5
8A7B
102
{ACAD_REACTORS
330
8A71
102
}
330
8A71
100
AcDbVisualStyle
  2
Realistic
 70
     8
177
     3
291
     0
 70
    58
 90
        2
176
     1
 90
        3
176
     1
 90
        0
176
     1
 90
        2
176
     1
 40
0.6
176
     1
 40
30.0
176
     1
 62
     7
420
 16777215
176
     1
 90
        0
176
     1
 90
        0
176
     1
 62
     7
176
     1
 62
   257
176
     1
 90
        1
176
     1
 90
        1
176
     1
 40
1.0
176
     1
 90
        8
176
     1
 62
   257
176
     1
 40
1.0
176
     1
 90
        1
176
     1
 90
        6
176
     1
 90
        2
176
     1
 62
     7
176
     1
 90
        3
176
     1
 90
        0
176
     1
 90
        0
176
     1
290
     0
176
     1
 90
       13
176
     1
 40
0.0
176
     1
 90
        0
176
     1
290
     0
176
     1
290
     1
176
     1
290
     1
176
     1
290
     0
176
     1
290
     0
176
     1
290
     0
176
     1
290
     0
176
     1
290
     0
176
     1
290
     0
176
     1
 90
       50
176
     1
 40
0.0
176
     1
 40
1.0
176
     1
 90
        0
176
     1
 62
    18
176
     1
 90
       50
176
     1
 90
        3
176
     1
 62
     5
420
      255
176
     1
290
     0
176
     1
 90
       50
176
     1
 90
       50
176
     1
 90
       50
176
     1
290
     0
176
     1
 90
       50
176
     1
 62
   256
176
     0
 40
1.0
176
     0
 90
        2
176
     1
  1
strokes_ogs.tif
176
     1
290
     0
176
     1
 40
1.0
176
     1
 40
1.0
176
     1
  0
VISUALSTYLE
  5
8A86
102
{ACAD_REACTORS
330
8A71
102
}
330
8A71
100
AcDbVisualStyle
  2
Shaded
 70
    27
177
     3
291
     0
 70
    58
 90
        2
176
     1
 90
        2
176
     1
 90
        1
176
     1
 90
        2
176
     1
 40
0.6
176
     1
 40
30.0
176
     1
 62
     7
420
 16777215
176
     1
 90
        0
176
     1
 90
        4
176
     1
 62
     7
176
     1
 62
   257
176
     1
 90
        1
176
     1
 90
        1
176
     1
 40
1.0
176
     1
 90
        8
176
     1
 62
   257
176
     1
 40
1.0
176
     1
 90
        1
176
     1
 90
        6
176
     1
 90
        2
176
     1
 62
     8
420
  7895160
176
     1
 90
        3
176
     1
 90
        0
176
     1
 90
        0
176
     1
290
     0
176
     1
 90
        5
176
     1
 40
0.0
176
     1
 90
        0
176
     1
290
     0
176
     1
290
     1
176
     1
290
     1
176
     1
290
     0
176
     1
290
     0
176
     1
290
     0
176
     1
290
     0
176
     1
290
     0
176
     1
290
     0
176
     1
 90
       50
176
     1
 40
0.0
176
     1
 40
1.0
176
     1
 90
        0
176
     1
 62
    18
176
     1
 90
       50
176
     1
 90
        3
176
     1
 62
     5
420
      255
176
     1
290
     0
176
     1
 90
       50
176
     1
 90
       50
176
     1
 90
       50
176
     1
290
     0
176
     1
 90
       50
176
     1
 62
   256
176
     0
 40
1.0
176
     0
 90
        2
176
     1
  1
strokes_ogs.tif
176
     1
290
     0
176
     1
 40
1.0
176
     1
 40
1.0
176
     1
  0
VISUALSTYLE
  5
8A85
102
{ACAD_REACTORS
330
8A71
102
}
330
8A71
100
AcDbVisualStyle
  2
Shaded with edges
 70
    26
177
     3
291
     0
 70
    58
 90
        2
176
     1
 90
        2
176
     1
 90
        1
176
     1
 90
        2
176
     1
 40
0.6
176
     1
 40
30.0
176
     1
 62
     7
420
 16777215
176
     1
 90
        1
176
     1
 90
       10
176
     1
 62
     7
176
     1
 62
   257
176
     1
 90
        2
176
     1
 90
        1
176
     1
 40
1.0
176
     1
 90
        8
176
     1
 62
   257
176
     1
 40
1.0
176
     1
 90
        1
176
     1
 90
        6
176
     1
 90
        2
176
     1
 62
     7
176
     1
 90
        3
176
     1
 90
        0
176
     1
 90
        0
176
     1
290
     0
176
     1
 90
        5
176
     1
 40
0.0
176
     1
 90
        0
176
     1
290
     0
176
     1
290
     1
176
     1
290
     1
176
     1
290
     0
176
     1
290
     0
176
     1
290
     0
176
     1
290
     0
176
     1
290
     0
176
     1
290
     0
176
     1
 90
       50
176
     1
 40
0.0
176
     1
 40
1.0
176
     1
 90
        0
176
     1
 62
    18
176
     1
 90
       50
176
     1
 90
        3
176
     1
 62
     5
420
      255
176
     1
290
     0
176
     1
 90
       50
176
     1
 90
       50
176
     1
 90
       50
176
     1
290
     0
176
     1
 90
       50
176
     1
 62
   256
176
     0
 40
1.0
176
     0
 90
        2
176
     1
  1
strokes_ogs.tif
176
     1
290
     0
176
     1
 40
1.0
176
     1
 40
1.0
176
     1
  0
VISUALSTYLE
  5
8A82
102
{ACAD_REACTORS
330
8A71
102
}
330
8A71
100
AcDbVisualStyle
  2
Shades of Gray
 70
    23
177
     3
291
     0
 70
    58
 90
        2
176
     1
 90
        2
176
     1
 90
        3
176
     1
 90
        0
176
     1
 40
0.6
176
     1
 40
30.0
176
     1
 62
     7
420
 16777215
176
     1
 90
        2
176
     1
 90
        2
176
     1
 62
     7
176
     1
 62
     7
176
     1
 90
        1
176
     1
 90
        1
176
     1
 40
40.0
176
     1
 90
        8
176
     1
 62
     7
176
     1
 40
1.0
176
     1
 90
        1
176
     1
 90
        6
176
     1
 90
        2
176
     1
 62
     7
176
     1
 90
        3
176
     1
 90
        0
176
     1
 90
        0
176
     1
290
     0
176
     1
 90
        1
176
     1
 40
0.0
176
     1
 90
        0
176
     1
290
     0
176
     1
290
     1
176
     1
290
     1
176
     1
290
     0
176
     1
290
     0
176
     1
290
     0
176
     1
290
     0
176
     1
290
     0
176
     1
290
     0
176
     1
 90
       50
176
     1
 40
0.0
176
     1
 40
1.0
176
     1
 90
        0
176
     1
 62
    18
176
     1
 90
       50
176
     1
 90
        3
176
     1
 62
     5
420
      255
176
     1
290
     0
176
     1
 90
       50
176
     1
 90
       50
176
     1
 90
       50
176
     1
290
     0
176
     1
 90
       50
176
     1
 62
   256
176
     0
 40
1.0
176
     0
 90
        2
176
     1
  1
strokes_ogs.tif
176
     1
290
     0
176
     1
 40
1.0
176
     1
 40
1.0
176
     1
  0
VISUALSTYLE
  5
8A83
102
{ACAD_REACTORS
330
8A71
102
}
330
8A71
100
AcDbVisualStyle
  2
Sketchy
 70
    24
177
     3
291
     0
 70
    58
 90
        1
176
     1
 90
        2
176
     1
 90
        2
176
     1
 90
        0
176
     1
 40
0.6
176
     1
 40
30.0
176
     1
 62
     7
420
 16777215
176
     1
 90
        2
176
     1
 90
        2
176
     1
 62
     7
176
     1
 62
     7
176
     1
 90
        1
176
     1
 90
        1
176
     1
 40
40.0
176
     1
 90
       11
176
     1
 62
     7
176
     1
 40
1.0
176
     1
 90
        1
176
     1
 90
        6
176
     1
 90
        2
176
     1
 62
     7
176
     1
 90
        6
176
     1
 90
        0
176
     1
 90
        0
176
     1
290
     0
176
     1
 90
        1
176
     1
 40
0.0
176
     1
 90
        0
176
     1
290
     0
176
     1
290
     1
176
     1
290
     1
176
     1
290
     0
176
     1
290
     0
176
     1
290
     0
176
     1
290
     0
176
     1
290
     0
176
     1
290
     0
176
     1
 90
       50
176
     1
 40
0.0
176
     1
 40
1.0
176
     1
 90
        0
176
     1
 62
    18
176
     1
 90
       50
176
     1
 90
        3
176
     1
 62
     5
420
      255
176
     1
290
     0
176
     1
 90
       50
176
     1
 90
       50
176
     1
 90
       50
176
     1
290
     0
176
     1
 90
       50
176
     1
 62
   256
176
     0
 40
1.0
176
     0
 90
        2
176
     1
  1
strokes_ogs.tif
176
     1
290
     0
176
     1
 40
1.0
176
     1
 40
1.0
176
     1
  0
VISUALSTYLE
  5
8A7E
102
{ACAD_REACTORS
330
8A71
102
}
330
8A71
100
AcDbVisualStyle
  2
Thicken
 70
    13
177
     3
291
     1
 70
    58
 90
        2
176
     1
 90
        2
176
     1
 90
        0
176
     1
 90
        0
176
     1
 40
0.6
176
     1
 40
30.0
176
     1
 62
     7
420
 16777215
176
     1
 90
        1
176
     1
 90
        4
176
     1
 62
     7
176
     1
 62
   257
176
     1
 90
        1
176
     1
 90
        1
176
     1
 40
1.0
176
     1
 90
       12
176
     1
 62
     7
176
     1
 40
1.0
176
     1
 90
        1
176
     1
 90
        6
176
     1
 90
        2
176
     1
 62
     7
176
     1
 90
        5
176
     1
 90
        0
176
     1
 90
        0
176
     1
290
     0
176
     1
 90
        1
176
     1
 40
0.0
176
     1
 90
        0
176
     1
290
     0
176
     1
290
     1
176
     1
290
     1
176
     1
290
     0
176
     1
290
     0
176
     1
290
     0
176
     1
290
     0
176
     1
290
     0
176
     1
290
     0
176
     1
 90
       50
176
     1
 40
0.0
176
     1
 40
1.0
176
     1
 90
        0
176
     1
 62
    18
176
     1
 90
       50
176
     1
 90
        3
176
     1
 62
     5
420
      255
176
     1
290
     0
176
     1
 90
       50
176
     1
 90
       50
176
     1
 90
       50
176
     1
290
     0
176
     1
 90
       50
176
     1
 62
   256
176
     0
 40
1.0
176
     0
 90
        2
176
     1
  1
strokes_ogs.tif
176
     1
290
     0
176
     1
 40
1.0
176
     1
 40
1.0
176
     1
  0
VISUALSTYLE
  5
8A78
102
{ACAD_REACTORS
330
8A71
102
}
330
8A71
100
AcDbVisualStyle
  2
Wireframe
 70
     5
177
     3
291
     0
 70
    58
 90
        0
176
     1
 90
        2
176
     1
 90
        0
176
     1
 90
        0
176
     1
 40
0.6
176
     1
 40
30.0
176
     1
 62
     7
420
 16777215
176
     1
 90
        1
176
     1
 90
        4
176
     1
 62
     7
176
     1
 62
   257
176
     1
 90
        1
176
     1
 90
        1
176
     1
 40
1.0
176
     1
 90
        0
176
     1
 62
   257
176
     1
 40
1.0
176
     1
 90
        1
176
     1
 90
        6
176
     1
 90
        2
176
     1
 62
     7
176
     1
 90
        3
176
     1
 90
        0
176
     1
 90
        0
176
     1
290
     0
176
     1
 90
        1
176
     1
 40
0.0
176
     1
 90
        0
176
     1
290
     0
176
     1
290
     1
176
     1
290
     1
176
     1
290
     0
176
     1
290
     0
176
     1
290
     0
176
     1
290
     0
176
     1
290
     0
176
     1
290
     0
176
     1
 90
       50
176
     1
 40
0.0
176
     1
 40
1.0
176
     1
 90
        0
176
     1
 62
    18
176
     1
 90
       50
176
     1
 90
        3
176
     1
 62
     5
420
      255
176
     1
290
     0
176
     1
 90
       50
176
     1
 90
       50
176
     1
 90
       50
176
     1
290
     0
176
     1
 90
       50
176
     1
 62
   256
176
     0
 40
1.0
176
     0
 90
        2
176
     1
  1
strokes_ogs.tif
176
     1
290
     0
176
     1
 40
1.0
176
     1
 40
1.0
176
     1
  0
VISUALSTYLE
  5
8A84
102
{ACAD_REACTORS
330
8A71
102
}
330
8A71
100
AcDbVisualStyle
  2
X-Ray
 70
    25
177
     3
291
     0
 70
    58
 90
        2
176
     1
 90
        2
176
     1
 90
        1
176
     1
 90
        1
176
     1
 40
0.5
176
     1
 40
30.0
176
     1
 62
     7
420
 16777215
176
     1
 90
        1
176
     1
 90
        0
176
     1
 62
     7
176
     1
 62
   257
176
     1
 90
        1
176
     1
 90
        1
176
     1
 40
1.0
176
     1
 90
        8
176
     1
 62
     7
176
     1
 40
1.0
176
     1
 90
        1
176
     1
 90
        6
176
     1
 90
        2
176
     1
 62
     7
176
     1
 90
        3
176
     1
 90
        0
176
     1
 90
        0
176
     1
290
     0
176
     1
 90
       13
176
     1
 40
0.0
176
     1
 90
        0
176
     1
290
     0
176
     1
290
     1
176
     1
290
     1
176
     1
290
     0
176
     1
290
     0
176
     1
290
     0
176
     1
290
     0
176
     1
290
     0
176
     1
290
     0
176
     1
 90
       50
176
     1
 40
0.0
176
     1
 40
1.0
176
     1
 90
        0
176
     1
 62
    18
176
     1
 90
       50
176
     1
 90
        3
176
     1
 62
     5
420
      255
176
     1
290
     0
176
     1
 90
       50
176
     1
 90
       50
176
     1
 90
       50
176
     1
290
     0
176
     1
 90
       50
176
     1
 62
   256
176
     0
 40
1.0
176
     0
 90
        2
176
     1
  1
strokes_ogs.tif
176
     1
290
     0
176
     1
 40
1.0
176
     1
 40
1.0
176
     1
  0
DICTIONARYVAR
  5
8AE9
102
{ACAD_REACTORS
330
5697
102
}
330
5697
100
DictionaryVariables
280
     0
  1
1:1
  0
DICTIONARYVAR
  5
8AE5
102
{ACAD_REACTORS
330
5697
102
}
330
5697
100
DictionaryVariables
280
     0
  1
STANDARD
  0
DICTIONARYVAR
  5
8AE4
102
{ACAD_REACTORS
330
5697
102
}
330
5697
100
DictionaryVariables
280
     0
  1
STANDARD
  0
DICTIONARYVAR
  5
8AE6
102
{ACAD_REACTORS
330
5697
102
}
330
5697
100
DictionaryVariables
280
     0
  1
Imperial24
  0
DICTIONARYVAR
  5
8AE7
102
{ACAD_REACTORS
330
5697
102
}
330
5697
100
DictionaryVariables
280
     0
  1
Imperial24
  0
DICTIONARYVAR
  5
5698
102
{ACAD_REACTORS
330
5697
102
}
330
5697
100
DictionaryVariables
280
     0
  1
1
  0
DICTIONARYVAR
  5
8AEB
102
{ACAD_REACTORS
330
5697
102
}
330
5697
100
DictionaryVariables
280
     0
  1
1
  0
DICTIONARYVAR
  5
8AEC
102
{ACAD_REACTORS
330
5697
102
}
330
5697
100
DictionaryVariables
280
     0
  1
15
  0
DICTIONARYVAR
  5
8AEA
102
{ACAD_REACTORS
330
5697
102
}
330
5697
100
DictionaryVariables
280
     0
  1
0
  0
DICTIONARYVAR
  5
8AE8
102
{ACAD_REACTORS
330
5697
102
}
330
5697
100
DictionaryVariables
280
     0
  1
0
  0
DICTIONARY
  5
1C3DC
330
8AA4
100
AcDbDictionary
280
     1
281
     1
  3
ACAD_XREC_ROUNDTRIP
360
1C40C
  0
DICTIONARY
  5
F3D2
330
8A4C
100
AcDbDictionary
280
     1
281
     1
  0
DICTIONARY
  5
8A62
330
8A61
100
AcDbDictionary
280
     1
281
     1
  3
BUMPTILE
360
8A64
  3
DIFFUSETILE
360
8A63
  3
OPACITYTILE
360
8A67
  3
REFLECTIONTILE
360
8A66
  3
REFRACTIONTILE
360
8A68
  3
SPECULARTILE
360
8A65
  0
DICTIONARY
  5
8A5A
330
8A59
100
AcDbDictionary
280
     1
281
     1
  3
BUMPTILE
360
8A5C
  3
DIFFUSETILE
360
8A5B
  3
OPACITYTILE
360
8A5F
  3
REFLECTIONTILE
360
8A5E
  3
REFRACTIONTILE
360
8A60
  3
SPECULARTILE
360
8A5D
  0
DICTIONARY
  5
8A6A
330
8A69
100
AcDbDictionary
280
     1
281
     1
  3
BUMPTILE
360
8A6C
  3
DIFFUSETILE
360
8A6B
  3
OPACITYTILE
360
8A6F
  3
REFLECTIONTILE
360
8A6E
  3
REFRACTIONTILE
360
8A70
  3
SPECULARTILE
360
8A6D
  0
DICTIONARY
  5
1C3DA
330
8AA2
100
AcDbDictionary
280
     1
281
     1
  3
ACAD_XREC_ROUNDTRIP
360
1C40B
  0
DICTIONARY
  5
8AED
330
8A8C
100
AcDbDictionary
280
     1
281
     1
  3
ACAD_ROUNDTRIP_2008_TABLESTYLE_CELLSTYLEMAP
360
1C40A
  0
XRECORD
  5
1C40C
102
{ACAD_REACTORS
330
1C3DC
102
}
330
1C3DC
100
AcDbXrecord
280
     1
102
DISPLAYNAME
  1
Imperial24
102
FLAGS
 90
        0
  0
XRECORD
  5
8A64
102
{ACAD_REACTORS
330
8A62
102
}
330
8A62
100
AcDbXrecord
280
     1
270
     1
271
     1
  0
XRECORD
  5
8A63
102
{ACAD_REACTORS
330
8A62
102
}
330
8A62
100
AcDbXrecord
280
     1
270
     1
271
     1
  0
XRECORD
  5
8A67
102
{ACAD_REACTORS
330
8A62
102
}
330
8A62
100
AcDbXrecord
280
     1
270
     1
271
     1
  0
XRECORD
  5
8A66
102
{ACAD_REACTORS
330
8A62
102
}
330
8A62
100
AcDbXrecord
280
     1
270
     1
271
     1
  0
XRECORD
  5
8A68
102
{ACAD_REACTORS
330
8A62
102
}
330
8A62
100
AcDbXrecord
280
     1
270
     1
271
     1
  0
XRECORD
  5
8A65
102
{ACAD_REACTORS
330
8A62
102
}
330
8A62
100
AcDbXrecord
280
     1
270
     1
271
     1
  0
XRECORD
  5
8A5C
102
{ACAD_REACTORS
330
8A5A
102
}
330
8A5A
100
AcDbXrecord
280
     1
270
     1
271
     1
  0
XRECORD
  5
8A5B
102
{ACAD_REACTORS
330
8A5A
102
}
330
8A5A
100
AcDbXrecord
280
     1
270
     1
271
     1
  0
XRECORD
  5
8A5F
102
{ACAD_REACTORS
330
8A5A
102
}
330
8A5A
100
AcDbXrecord
280
     1
270
     1
271
     1
  0
XRECORD
  5
8A5E
102
{ACAD_REACTORS
330
8A5A
102
}
330
8A5A
100
AcDbXrecord
280
     1
270
     1
271
     1
  0
XRECORD
  5
8A60
102
{ACAD_REACTORS
330
8A5A
102
}
330
8A5A
100
AcDbXrecord
280
     1
270
     1
271
     1
  0
XRECORD
  5
8A5D
102
{ACAD_REACTORS
330
8A5A
102
}
330
8A5A
100
AcDbXrecord
280
     1
270
     1
271
     1
  0
XRECORD
  5
8A6C
102
{ACAD_REACTORS
330
8A6A
102
}
330
8A6A
100
AcDbXrecord
280
     1
270
     1
271
     1
  0
XRECORD
  5
8A6B
102
{ACAD_REACTORS
330
8A6A
102
}
330
8A6A
100
AcDbXrecord
280
     1
270
     1
271
     1
  0
XRECORD
  5
8A6F
102
{ACAD_REACTORS
330
8A6A
102
}
330
8A6A
100
AcDbXrecord
280
     1
270
     1
271
     1
  0
XRECORD
  5
8A6E
102
{ACAD_REACTORS
330
8A6A
102
}
330
8A6A
100
AcDbXrecord
280
     1
270
     1
271
     1
  0
XRECORD
  5
8A70
102
{ACAD_REACTORS
330
8A6A
102
}
330
8A6A
100
AcDbXrecord
280
     1
270
     1
271
     1
  0
XRECORD
  5
8A6D
102
{ACAD_REACTORS
330
8A6A
102
}
330
8A6A
100
AcDbXrecord
280
     1
270
     1
271
     1
  0
XRECORD
  5
1C40B
102
{ACAD_REACTORS
330
1C3DA
102
}
330
1C3DA
100
AcDbXrecord
280
     1
102
DISPLAYNAME
  1
Imperial24
102
FLAGS
 90
        0
  0
CELLSTYLEMAP
  5
1C40A
102
{ACAD_REACTORS
330
8AED
102
}
330
8AED
100
AcDbCellStyleMap
 90
        3
300
CELLSTYLE
  1
TABLEFORMAT_BEGIN
 90
        5
170
     1
 91
        0
 92
    32768
 62
   257
 93
        1
300
CONTENTFORMAT
  1
CONTENTFORMAT_BEGIN
 90
        0
 91
        0
 92
      512
 93
        0
300

 40
0.0
140
1.0
 94
        5
 62
     0
340
11
144
0.25
309
CONTENTFORMAT_END
171
     1
301
MARGIN
  1
CELLMARGIN_BEGIN
 40
0.06
 40
0.06
 40
0.06
 40
0.06
 40
0.18
 40
0.18
309
CELLMARGIN_END
 94
        6
 95
        1
302
GRIDFORMAT
  1
GRIDFORMAT_BEGIN
 90
        0
 91
        1
 62
     0
 92
       -2
340
0
 93
        0
 40
0.045
309
GRIDFORMAT_END
 95
        2
302
GRIDFORMAT
  1
GRIDFORMAT_BEGIN
 90
        0
 91
        1
 62
     0
 92
       -2
340
0
 93
        0
 40
0.045
309
GRIDFORMAT_END
 95
        4
302
GRIDFORMAT
  1
GRIDFORMAT_BEGIN
 90
        0
 91
        1
 62
     0
 92
       -2
340
0
 93
        0
 40
0.045
309
GRIDFORMAT_END
 95
        8
302
GRIDFORMAT
  1
GRIDFORMAT_BEGIN
 90
        0
 91
        1
 62
     0
 92
       -2
340
0
 93
        0
 40
0.045
309
GRIDFORMAT_END
 95
       16
302
GRIDFORMAT
  1
GRIDFORMAT_BEGIN
 90
        0
 91
        1
 62
     0
 92
       -2
340
0
 93
        0
 40
0.045
309
GRIDFORMAT_END
 95
       32
302
GRIDFORMAT
  1
GRIDFORMAT_BEGIN
 90
        0
 91
        1
 62
     0
 92
       -2
340
0
 93
        0
 40
0.045
309
GRIDFORMAT_END
309
TABLEFORMAT_END
  1
CELLSTYLE_BEGIN
 90
        1
 91
        1
300
_TITLE
309
CELLSTYLE_END
300
CELLSTYLE
  1
TABLEFORMAT_BEGIN
 90
        5
170
     1
 91
        0
 92
        0
 62
   257
 93
        1
300
CONTENTFORMAT
  1
CONTENTFORMAT_BEGIN
 90
        0
 91
        0
 92
      512
 93
        0
300

 40
0.0
140
1.0
 94
        5
 62
     0
340
11
144
0.18
309
CONTENTFORMAT_END
171
     1
301
MARGIN
  1
CELLMARGIN_BEGIN
 40
0.06
 40
0.06
 40
0.06
 40
0.06
 40
0.18
 40
0.18
309
CELLMARGIN_END
 94
        6
 95
        1
302
GRIDFORMAT
  1
GRIDFORMAT_BEGIN
 90
        0
 91
        1
 62
     0
 92
       -2
340
0
 93
        0
 40
0.045
309
GRIDFORMAT_END
 95
        2
302
GRIDFORMAT
  1
GRIDFORMAT_BEGIN
 90
        0
 91
        1
 62
     0
 92
       -2
340
0
 93
        0
 40
0.045
309
GRIDFORMAT_END
 95
        4
302
GRIDFORMAT
  1
GRIDFORMAT_BEGIN
 90
        0
 91
        1
 62
     0
 92
       -2
340
0
 93
        0
 40
0.045
309
GRIDFORMAT_END
 95
        8
302
GRIDFORMAT
  1
GRIDFORMAT_BEGIN
 90
        0
 91
        1
 62
     0
 92
       -2
340
0
 93
        0
 40
0.045
309
GRIDFORMAT_END
 95
       16
302
GRIDFORMAT
  1
GRIDFORMAT_BEGIN
 90
        0
 91
        1
 62
     0
 92
       -2
340
0
 93
        0
 40
0.045
309
GRIDFORMAT_END
 95
       32
302
GRIDFORMAT
  1
GRIDFORMAT_BEGIN
 90
        0
 91
        1
 62
     0
 92
       -2
340
0
 93
        0
 40
0.045
309
GRIDFORMAT_END
309
TABLEFORMAT_END
  1
CELLSTYLE_BEGIN
 90
        2
 91
        1
300
_HEADER
309
CELLSTYLE_END
300
CELLSTYLE
  1
TABLEFORMAT_BEGIN
 90
        5
170
     1
 91
        0
 92
        0
 62
   257
 93
        1
300
CONTENTFORMAT
  1
CONTENTFORMAT_BEGIN
 90
        0
 91
        0
 92
      512
 93
        0
300

 40
0.0
140
1.0
 94
        2
 62
     0
340
11
144
0.18
309
CONTENTFORMAT_END
171
     1
301
MARGIN
  1
CELLMARGIN_BEGIN
 40
0.06
 40
0.06
 40
0.06
 40
0.06
 40
0.18
 40
0.18
309
CELLMARGIN_END
 94
        6
 95
        1
302
GRIDFORMAT
  1
GRIDFORMAT_BEGIN
 90
        0
 91
        1
 62
     0
 92
       -2
340
0
 93
        0
 40
0.045
309
GRIDFORMAT_END
 95
        2
302
GRIDFORMAT
  1
GRIDFORMAT_BEGIN
 90
        0
 91
        1
 62
     0
 92
       -2
340
0
 93
        0
 40
0.045
309
GRIDFORMAT_END
 95
        4
302
GRIDFORMAT
  1
GRIDFORMAT_BEGIN
 90
        0
 91
        1
 62
     0
 92
       -2
340
0
 93
        0
 40
0.045
309
GRIDFORMAT_END
 95
        8
302
GRIDFORMAT
  1
GRIDFORMAT_BEGIN
 90
        0
 91
        1
 62
     0
 92
       -2
340
0
 93
        0
 40
0.045
309
GRIDFORMAT_END
 95
       16
302
GRIDFORMAT
  1
GRIDFORMAT_BEGIN
 90
        0
 91
        1
 62
     0
 92
       -2
340
0
 93
        0
 40
0.045
309
GRIDFORMAT_END
 95
       32
302
GRIDFORMAT
  1
GRIDFORMAT_BEGIN
 90
        0
 91
        1
 62
     0
 92
       -2
340
0
 93
        0
 40
0.045
309
GRIDFORMAT_END
309
TABLEFORMAT_END
  1
CELLSTYLE_BEGIN
 90
        3
 91
        2
300
_DATA
309
CELLSTYLE_END
  0
ENDSEC
  0
SECTION
  2
ACDSDATA
 70
     2
 71
     6
  0
ACDSSCHEMA
 90
        0
  1
AcDb_Thumbnail_Schema
  2
AcDbDs::ID
280
    10
 91
        8
  2
Thumbnail_Data
280
    15
 91
        0
101
ACDSRECORD
 95
        0
 90
        1
  2
AcDbDs::TreatedAsObjectData
280
     1
291
     1
101
ACDSRECORD
 95
        0
 90
        2
  2
AcDbDs::Legacy
280
     1
291
     1
101
ACDSRECORD
  1
AcDbDs::ID
 90
        3
  2
AcDs:Indexable
280
     1
291
     1
101
ACDSRECORD
  1
AcDbDs::ID
 90
        4
  2
AcDbDs::HandleAttribute
280
     7
282
     1
  0
ACDSSCHEMA
 90
        1
  1
AcDbDs::TreatedAsObjectDataSchema
  2
AcDbDs::TreatedAsObjectData
280
     1
 91
        0
  0
ACDSSCHEMA
 90
        2
  1
AcDbDs::LegacySchema
  2
AcDbDs::Legacy
280
     1
 91
        0
  0
ACDSSCHEMA
 90
        3
  1
AcDbDs::IndexedPropertySchema
  2
AcDs:Indexable
280
     1
 91
        0
  0
ACDSSCHEMA
 90
        4
  1
AcDbDs::HandleAttributeSchema
  2
AcDbDs::HandleAttribute
280
     7
 91
        1
284
     1
  0
ACDSRECORD
 90
        0
  2
AcDbDs::ID
280
    10
320
8A4C
  2
Thumbnail_Data
280
    15
 94
     1651
310
89504E470D0A1A0A0000000D49484452000001000000008808030000003F38C55500000300504C5445000000000000FFFFFF0000000000000000000000000000000000000000000000000000330000660000990000CC0000FF0033000033330033660033990033CC0033FF0066000066330066660066990066CC0066FF0099
310
000099330099660099990099CC0099FF00CC0000CC3300CC6600CC9900CCCC00CCFF00FF0000FF3300FF6600FF9900FFCC00FFFF3300003300333300663300993300CC3300FF3333003333333333663333993333CC3333FF3366003366333366663366993366CC3366FF3399003399333399663399993399CC3399FF33CC00
310
33CC3333CC6633CC9933CCCC33CCFF33FF0033FF3333FF6633FF9933FFCC33FFFF6600006600336600666600996600CC6600FF6633006633336633666633996633CC6633FF6666006666336666666666996666CC6666FF6699006699336699666699996699CC6699FF66CC0066CC3366CC6666CC9966CCCC66CCFF66FF0066
310
FF3366FF6666FF9966FFCC66FFFF9900009900339900669900999900CC9900FF9933009933339933669933999933CC9933FF9966009966339966669966999966CC9966FF9999009999339999669999999999CC9999FF99CC0099CC3399CC6699CC9999CCCC99CCFF99FF0099FF3399FF6699FF9999FFCC99FFFFCC0000CC00
310
33CC0066CC0099CC00CCCC00FFCC3300CC3333CC3366CC3399CC33CCCC33FFCC6600CC6633CC6666CC6699CC66CCCC66FFCC9900CC9933CC9966CC9999CC99CCCC99FFCCCC00CCCC33CCCC66CCCC99CCCCCCCCCCFFCCFF00CCFF33CCFF66CCFF99CCFFCCCCFFFFFF0000FF0033FF0066FF0099FF00CCFF00FFFF3300FF3333
310
FF3366FF3399FF33CCFF33FFFF6600FF6633FF6666FF6699FF66CCFF66FFFF9900FF9933FF9966FF9999FF99CCFF99FFFFCC00FFCC33FFCC66FFCC99FFCCCCFFCCFFFFFF00FFFF33FFFF66FFFF99FFFFCCFFFFFF0000000D0D0D1A1A1A2828283535354343435050505D5D5D6B6B6B787878868686939393A1A1A1AEAEAEBB
310
BBBBC9C9C9D6D6D6E4E4E4F1F1F1FFFFFF000000000000000000000000000000000000000000000000000000000000C11FEF660000032E4944415478DAEDDD4B72EB201005D0EC806D68C2FE679A681B8C7A053D61FEC44F42E893382F554EFA5E22976DE2B8C251F311E0E443C0D307010840000210800004200001084000
310
02BC9EFC8FA4BF0CF013BF0301084000021801502D3750006D491414A0DC32012A40D43D410284105EAF065600D2398F21483EF96800F5B4C735ADD520020214831897B85683282FF58626AA408B800C1044C01AC152FAB5094800E9EBB10AC43D59024805930C10F1005279BDF71540BCC703689D4099E2791E085904D81E
310
2E5F2812010840000210C0168073A7C50E073621F23FAB3D862645BFB7D065695A9C008B3002A0016A37080C2004105681BBE40840009CA1F0C5F2A0B70D3044407E4E8001A00447BE0C0E920E858C009F6604C27A685D4FB0095096889F23A0EEA83009A05700F5C1D4E79A0198A61EA0740050002FF402DE2A403F1F7606
310
F0E601FC36257606F0E800DA4F14C300E817006C8C039665F1E5F0E9A84F7A80E52689A244C05D1BA0286D007C238800A0FB640028403A96727701607D24384D3D40B932B801307A31748880E932026A0D99C0AB409E10481322111520EFAA0FEDA305981110B608101C0075FDE6916EC2C8C676F9B5F7CF47BD1BD6050AC0
310
D0F8D902182260D8294C0018007900500480361D7E02D83E48571D8C02E84304C8D630D67B8300F5B3528F11B07F9ECA1CC07E7ACF0097C918C0E5D97DE94DFE34C0CDD9850178FB9B10E097005C6F925A1EB34C00B831E54D6157B9E72C1B0032E7B4943B75B92174C3E97672CC2ACFAD00F4459DCB58E0330021801D8070
310
000865443C94564D0384AE5C41431EFB4301CC4351CF008AD406106003985B5AFBC5B5732C00F579CE320FD072E7F4AA06B066951FB00B50E31B046071C3E69F3A125C1FCD2D6BCEB9AE3DAEDF301B01DB50F810010A5405E0DB00025400BDEA0615A81BD496ABDDC5505D43337C310408100E00FBC5100A808E1743420002
310
6001E8CDA4E80EE04C035C4E8BCBE7D3E2626561A4AE06B62AB0BF64DB1CD22F171EFEF0B02500DDF77F1CCA3AAE979A04F8EEE2B01500B9890018808708D8FF705C9F116D01BCFB4D08F02600F47FB4F4F7130108400002108000042000010840000210800004C04BFF002C177F282D50BF7E0000000049454E44AE426082
  0
ENDSEC
  0
EOF
