  0
SECTION
  2
HEADER
  9
$ACADVER
  1
AC1027
  9
$ACADMAINTVER
 70
    55
  9
$DWGCODEPAGE
  3
ANSI_932
  9
$LASTSAVEDBY
  1
marketing
  9
$REQUIREDVERSIONS
160
                 0
  9
$INSBASE
 10
0.0
 20
0.0
 30
0.0
  9
$EXTMIN
 10
-0.0489046821076045
 20
-0.0401538084270214
 30
-0.0015258207003583
  9
$EXTMAX
 10
700.0304075016356
 20
1088.044519492248
 30
0.0000000349246037
  9
$LIMMIN
 10
-296.316999476111
 20
-370.7034300441653
  9
$LIMMAX
 10
623.3128432133979
 20
328.6261559379898
  9
$ORTHOMODE
 70
     1
  9
$REGENMODE
 70
     1
  9
$FILLMODE
 70
     1
  9
$QTEXTMODE
 70
     0
  9
$MIRRTEXT
 70
     1
  9
$LTSCALE
 40
10.0
  9
$ATTMODE
 70
     1
  9
$TEXTSIZE
 40
5.0
  9
$TRACEWID
 40
0.05
  9
$TEXTSTYLE
  7
STANDARD1
  9
$CLAYER
  8
30
  9
$CELTYPE
  6
BYLAYER
  9
$CECOLOR
 62
   256
  9
$CELTSCALE
 40
1.0
  9
$DISPSILH
 70
     0
  9
$DIMSCALE
 40
1.0
  9
$DIMASZ
 40
2.0
  9
$DIMEXO
 40
1.0
  9
$DIMDLI
 40
0.5
  9
$DIMRND
 40
0.0
  9
$DIMDLE
 40
0.0
  9
$DIMEXE
 40
0.5
  9
$DIMTP
 40
0.0
  9
$DIMTM
 40
0.0
  9
$DIMTXT
 40
8.0
  9
$DIMCEN
 40
0.09
  9
$DIMTSZ
 40
0.0
  9
$DIMTOL
 70
     0
  9
$DIMLIM
 70
     0
  9
$DIMTIH
 70
     0
  9
$DIMTOH
 70
     0
  9
$DIMSE1
 70
     0
  9
$DIMSE2
 70
     0
  9
$DIMTAD
 70
     3
  9
$DIMZIN
 70
    12
  9
$DIMBLK
  1
OPEN
  9
$DIMASO
 70
     1
  9
$DIMSHO
 70
     1
  9
$DIMPOST
  1

  9
$DIMAPOST
  1

  9
$DIMALT
 70
     0
  9
$DIMALTD
 70
     2
  9
$DIMALTF
 40
25.4
  9
$DIMLFAC
 40
1.0
  9
$DIMTOFL
 70
     0
  9
$DIMTVP
 40
0.0
  9
$DIMTIX
 70
     0
  9
$DIMSOXD
 70
     0
  9
$DIMSAH
 70
     0
  9
$DIMBLK1
  1

  9
$DIMBLK2
  1

  9
$DIMSTYLE
  2
STANDARD
  9
$DIMCLRD
 70
     0
  9
$DIMCLRE
 70
     0
  9
$DIMCLRT
 70
   256
  9
$DIMTFAC
 40
1.0
  9
$DIMGAP
 40
3.0
  9
$DIMJUST
 70
     0
  9
$DIMSD1
 70
     0
  9
$DIMSD2
 70
     0
  9
$DIMTOLJ
 70
     1
  9
$DIMTZIN
 70
     0
  9
$DIMALTZ
 70
     0
  9
$DIMALTTZ
 70
     0
  9
$DIMUPT
 70
     0
  9
$DIMDEC
 70
     1
  9
$DIMTDEC
 70
     1
  9
$DIMALTU
 70
     2
  9
$DIMALTTD
 70
     2
  9
$DIMTXSTY
  7
STANDARD
  9
$DIMAUNIT
 70
     0
  9
$DIMADEC
 70
     0
  9
$DIMALTRND
 40
0.0
  9
$DIMAZIN
 70
     0
  9
$DIMDSEP
 70
    46
  9
$DIMATFIT
 70
     3
  9
$DIMFRAC
 70
     0
  9
$DIMLDRBLK
  1
OPEN
  9
$DIMLUNIT
 70
     2
  9
$DIMLWD
 70
    -2
  9
$DIMLWE
 70
    -2
  9
$DIMTMOVE
 70
     0
  9
$DIMFXL
 40
1.0
  9
$DIMFXLON
 70
     0
  9
$DIMJOGANG
 40
0.7853981633974483
  9
$DIMTFILL
 70
     1
  9
$DIMTFILLCLR
 70
     0
  9
$DIMARCSYM
 70
     0
  9
$DIMLTYPE
  6

  9
$DIMLTEX1
  6

  9
$DIMLTEX2
  6

  9
$DIMTXTDIRECTION
 70
     0
  9
$LUNITS
 70
     2
  9
$LUPREC
 70
     4
  9
$SKETCHINC
 40
0.1
  9
$FILLETRAD
 40
0.0
  9
$AUNITS
 70
     0
  9
$AUPREC
 70
     0
  9
$MENU
  1
.
  9
$ELEVATION
 40
0.0
  9
$PELEVATION
 40
0.0
  9
$THICKNESS
 40
0.0
  9
$LIMCHECK
 70
     0
  9
$CHAMFERA
 40
0.0
  9
$CHAMFERB
 40
0.0
  9
$CHAMFERC
 40
0.0
  9
$CHAMFERD
 40
0.0
  9
$SKPOLY
 70
     0
  9
$TDCREATE
 40
2452286.555658658
  9
$TDUCREATE
 40
2452286.180658658
  9
$TDUPDATE
 40
2459244.366419665
  9
$TDUUPDATE
 40
2459243.991419665
  9
$TDINDWG
 40
1.9361005324
  9
$TDUSRTIMER
 40
1.9360979745
  9
$USRTIMER
 70
     1
  9
$ANGBASE
 50
0.0
  9
$ANGDIR
 70
     0
  9
$PDMODE
 70
     0
  9
$PDSIZE
 40
0.0
  9
$PLINEWID
 40
0.0
  9
$SPLFRAME
 70
     0
  9
$SPLINETYPE
 70
     6
  9
$SPLINESEGS
 70
     8
  9
$HANDSEED
  5
1C1D2
  9
$SURFTAB1
 70
     6
  9
$SURFTAB2
 70
     6
  9
$SURFTYPE
 70
     6
  9
$SURFU
 70
     6
  9
$SURFV
 70
     6
  9
$UCSBASE
  2

  9
$UCSNAME
  2

  9
$UCSORG
 10
0.0
 20
0.0
 30
0.0
  9
$UCSXDIR
 10
1.0
 20
0.0
 30
0.0
  9
$UCSYDIR
 10
0.0
 20
1.0
 30
0.0
  9
$UCSORTHOREF
  2

  9
$UCSORTHOVIEW
 70
     0
  9
$UCSORGTOP
 10
0.0
 20
0.0
 30
0.0
  9
$UCSORGBOTTOM
 10
0.0
 20
0.0
 30
0.0
  9
$UCSORGLEFT
 10
0.0
 20
0.0
 30
0.0
  9
$UCSORGRIGHT
 10
0.0
 20
0.0
 30
0.0
  9
$UCSORGFRONT
 10
0.0
 20
0.0
 30
0.0
  9
$UCSORGBACK
 10
0.0
 20
0.0
 30
0.0
  9
$PUCSBASE
  2

  9
$PUCSNAME
  2

  9
$PUCSORG
 10
0.0
 20
0.0
 30
0.0
  9
$PUCSXDIR
 10
1.0
 20
0.0
 30
0.0
  9
$PUCSYDIR
 10
0.0
 20
1.0
 30
0.0
  9
$PUCSORTHOREF
  2

  9
$PUCSORTHOVIEW
 70
     0
  9
$PUCSORGTOP
 10
0.0
 20
0.0
 30
0.0
  9
$PUCSORGBOTTOM
 10
0.0
 20
0.0
 30
0.0
  9
$PUCSORGLEFT
 10
0.0
 20
0.0
 30
0.0
  9
$PUCSORGRIGHT
 10
0.0
 20
0.0
 30
0.0
  9
$PUCSORGFRONT
 10
0.0
 20
0.0
 30
0.0
  9
$PUCSORGBACK
 10
0.0
 20
0.0
 30
0.0
  9
$USERI1
 70
     0
  9
$USERI2
 70
     0
  9
$USERI3
 70
     0
  9
$USERI4
 70
     0
  9
$USERI5
 70
     0
  9
$USERR1
 40
0.0
  9
$USERR2
 40
0.0
  9
$USERR3
 40
0.0
  9
$USERR4
 40
0.0
  9
$USERR5
 40
0.0
  9
$WORLDVIEW
 70
     1
  9
$SHADEDGE
 70
     3
  9
$SHADEDIF
 70
    70
  9
$TILEMODE
 70
     1
  9
$MAXACTVP
 70
    48
  9
$PINSBASE
 10
0.0
 20
0.0
 30
0.0
  9
$PLIMCHECK
 70
     0
  9
$PEXTMIN
 10
4.273573
 20
5.205245999999998
 30
0.0
  9
$PEXTMAX
 10
194.610095
 20
283.0697009999996
 30
0.0
  9
$PLIMMIN
 10
-5.873749
 20
-5.87375
  9
$PLIMMAX
 10
204.099579
 20
291.1369009999999
  9
$UNITMODE
 70
     0
  9
$VISRETAIN
 70
     1
  9
$PLINEGEN
 70
     0
  9
$PSLTSCALE
 70
     1
  9
$TREEDEPTH
 70
  3020
  9
$CMLSTYLE
  2
STANDARD
  9
$CMLJUST
 70
     0
  9
$CMLSCALE
 40
1.0
  9
$PROXYGRAPHICS
 70
     1
  9
$MEASUREMENT
 70
     0
  9
$CELWEIGHT
370
    -1
  9
$ENDCAPS
280
     0
  9
$JOINSTYLE
280
     0
  9
$LWDISPLAY
290
     0
  9
$INSUNITS
 70
     0
  9
$HYPERLINKBASE
  1

  9
$STYLESHEET
  1
MONOCHROME.CTB
  9
$XEDIT
290
     1
  9
$CEPSNTYPE
380
     0
  9
$PSTYLEMODE
290
     1
  9
$FINGERPRINTGUID
  2

  9
$VERSIONGUID
  2
{CA8D4A10-6E4E-411A-AB59-F67575F5F786}
  9
$EXTNAMES
290
     1
  9
$PSVPSCALE
 40
0.0
  9
$OLESTARTUP
290
     0
  9
$SORTENTS
280
   127
  9
$INDEXCTL
280
     0
  9
$HIDETEXT
280
     0
  9
$XCLIPFRAME
280
     2
  9
$HALOGAP
280
     0
  9
$OBSCOLOR
 70
   257
  9
$OBSLTYPE
280
     0
  9
$INTERSECTIONDISPLAY
280
     0
  9
$INTERSECTIONCOLOR
 70
   257
  9
$DIMASSOC
280
     1
  9
$PROJECTNAME
  1

  9
$CAMERADISPLAY
290
     0
  9
$LENSLENGTH
 40
50.0
  9
$CAMERAHEIGHT
 40
0.0
  9
$STEPSPERSEC
 40
2.0
  9
$STEPSIZE
 40
6.0
  9
$3DDWFPREC
 40
2.0
  9
$PSOLWIDTH
 40
0.25
  9
$PSOLHEIGHT
 40
4.0
  9
$LOFTANG1
 40
1.570796326794896
  9
$LOFTANG2
 40
1.570796326794896
  9
$LOFTMAG1
 40
0.0
  9
$LOFTMAG2
 40
0.0
  9
$LOFTPARAM
 70
     7
  9
$LOFTNORMALS
280
     1
  9
$LATITUDE
 40
37.795
  9
$LONGITUDE
 40
-122.394
  9
$NORTHDIRECTION
 40
0.0
  9
$TIMEZONE
 70
 -8000
  9
$LIGHTGLYPHDISPLAY
280
     1
  9
$TILEMODELIGHTSYNCH
280
     1
  9
$CMATERIAL
347
8A59
  9
$SOLIDHIST
280
     0
  9
$SHOWHIST
280
     1
  9
$DWFFRAME
280
     2
  9
$DGNFRAME
280
     0
  9
$REALWORLDSCALE
290
     1
  9
$INTERFERECOLOR
 62
     1
  9
$INTERFEREOBJVS
345
8A7B
  9
$INTERFEREVPVS
346
8A78
  9
$CSHADOW
280
     0
  9
$SHADOWPLANELOCATION
 40
0.0
  0
ENDSEC
  0
SECTION
  2
CLASSES
  0
CLASS
  1
ACDBDICTIONARYWDFLT
  2
AcDbDictionaryWithDefault
  3
ObjectDBX Classes
 90
        0
 91
        1
280
     0
281
     0
  0
CLASS
  1
DICTIONARYVAR
  2
AcDbDictionaryVar
  3
ObjectDBX Classes
 90
        0
 91
       10
280
     0
281
     0
  0
CLASS
  1
MATERIAL
  2
AcDbMaterial
  3
ObjectDBX Classes
 90
     1153
 91
        3
280
     0
281
     0
  0
CLASS
  1
VISUALSTYLE
  2
AcDbVisualStyle
  3
ObjectDBX Classes
 90
     4095
 91
       26
280
     0
281
     0
  0
CLASS
  1
TABLESTYLE
  2
AcDbTableStyle
  3
ObjectDBX Classes
 90
     4095
 91
        1
280
     0
281
     0
  0
CLASS
  1
SCALE
  2
AcDbScale
  3
ObjectDBX Classes
 90
     1153
 91
       17
280
     0
281
     0
  0
CLASS
  1
MLEADERSTYLE
  2
AcDbMLeaderStyle
  3
ACDB_MLEADERSTYLE_CLASS
 90
     4095
 91
        1
280
     0
281
     0
  0
CLASS
  1
ACDBSECTIONVIEWSTYLE
  2
AcDbSectionViewStyle
  3
ObjectDBX Classes
 90
     1025
 91
        1
280
     0
281
     0
  0
CLASS
  1
ACDBDETAILVIEWSTYLE
  2
AcDbDetailViewStyle
  3
ObjectDBX Classes
 90
     1025
 91
        1
280
     0
281
     0
  0
CLASS
  1
CELLSTYLEMAP
  2
AcDbCellStyleMap
  3
ObjectDBX Classes
 90
     1152
 91
        2
280
     0
281
     0
  0
CLASS
  1
AEC_REFEDIT_STATUS_TRACKER
  2
AecDbRefEditStatusTracker
  3
AecArchBase70|Product Desc: Autodesk Architectural Desktop 2007 |Company: Autodesk,Inc. |WEB Address: www.autodesk.com
 90
      129
 91
        0
280
     0
281
     0
  0
CLASS
  1
NPOCOLLECTION
  2
AcDbImpNonPersistentObjectsCollection
  3
ObjectDBX Classes
 90
     1153
 91
        0
280
     0
281
     0
  0
CLASS
  1
SORTENTSTABLE
  2
AcDbSortentsTable
  3
ObjectDBX Classes
 90
        0
 91
        1
280
     0
281
     0
  0
ENDSEC
  0
SECTION
  2
TABLES
  0
TABLE
  2
VPORT
  5
8
330
0
100
AcDbSymbolTable
 70
     1
  0
VPORT
  5
8A51
330
8
100
AcDbSymbolTableRecord
100
AcDbViewportTableRecord
  2
*Active
 70
     0
 10
0.0
 20
0.0
 11
1.0
 21
1.0
 12
349.990751409764
 22
544.0021828419108
 13
0.0
 23
0.0
 14
1.0
 24
1.0
 15
10.0
 25
10.0
 16
0.0
 26
0.0
 36
1.0
 17
0.0
 27
0.0
 37
0.0
 40
1095.950345637789
 41
2.289505428226779
 42
50.0
 43
0.0
 44
0.0
 50
0.0
 51
0.0
 71
     0
 72
   100
 73
     1
 74
     1
 75
     0
 76
     0
 77
     0
 78
     0
281
     0
 65
     1
110
0.0
120
0.0
130
0.0
111
1.0
121
0.0
131
0.0
112
0.0
122
1.0
132
0.0
 79
     0
146
0.0
348
8A77
 60
     3
 61
     5
292
     1
282
     1
141
0.0
142
0.0
 63
   250
421
  3355443
1001
ACAD_NAV_VCDISPLAY
1070
     3
  0
ENDTAB
  0
TABLE
  2
LTYPE
  5
5
330
0
100
AcDbSymbolTable
 70
     9
  0
LTYPE
  5
13
330
5
100
AcDbSymbolTableRecord
100
AcDbLinetypeTableRecord
  2
BYBLOCK
 70
     0
  3

 72
    65
 73
     0
 40
0.0
  0
LTYPE
  5
14
330
5
100
AcDbSymbolTableRecord
100
AcDbLinetypeTableRecord
  2
BYLAYER
 70
     0
  3

 72
    65
 73
     0
 40
0.0
  0
LTYPE
  5
15
330
5
100
AcDbSymbolTableRecord
100
AcDbLinetypeTableRecord
  2
CONTINUOUS
 70
     0
  3
Solid line
 72
    65
 73
     0
 40
0.0
  0
LTYPE
  5
22
330
5
100
AcDbSymbolTableRecord
100
AcDbLinetypeTableRecord
  2
CONTINOUS
 70
     0
  3
Solid line
 72
    65
 73
     0
 40
0.0
  0
LTYPE
  5
24
330
5
100
AcDbSymbolTableRecord
100
AcDbLinetypeTableRecord
  2
DASHDOT
 70
     0
  3
__ . __ . __ . __ . __ . __ . __ . __ . __ . __
 72
    65
 73
     4
 40
1.0
 49
0.5
 74
     0
 49
-0.25
 74
     0
 49
0.0
 74
     0
 49
-0.25
 74
     0
  0
LTYPE
  5
4C47
330
5
100
AcDbSymbolTableRecord
100
AcDbLinetypeTableRecord
  2
DIVIDE
 70
     0
  3
Divide ____ . . ____ . . ____ . . ____ . . ____
 72
    65
 73
     6
 40
1.25
 49
0.5
 74
     0
 49
-0.25
 74
     0
 49
0.0
 74
     0
 49
-0.25
 74
     0
 49
0.0
 74
     0
 49
-0.25
 74
     0
  0
LTYPE
  5
912E
330
5
100
AcDbSymbolTableRecord
100
AcDbLinetypeTableRecord
  2
SLD-実線
 70
     0
  3
SolidWorks Line Style
 72
    65
 73
     0
 40
0.0
  0
LTYPE
  5
9130
330
5
100
AcDbSymbolTableRecord
100
AcDbLinetypeTableRecord
  2
SLD-2点鎖線
 70
     0
  3
SolidWorks Line Style
 72
    65
 73
     6
 40
12.7
 49
6.349999999999997
 74
     0
 49
-1.27
 74
     0
 49
1.27
 74
     0
 49
-1.27
 74
     0
 49
1.27
 74
     0
 49
-1.27
 74
     0
  0
LTYPE
  5
16BB2
330
5
100
AcDbSymbolTableRecord
100
AcDbLinetypeTableRecord
  2
SLD-1点鎖線(中心線)
 70
     0
  3
SolidWorks Line Style
 72
    65
 73
     4
 40
34.29
 49
30.48
 74
     0
 49
-1.27
 74
     0
 49
1.27
 74
     0
 49
-1.27
 74
     0
  0
LTYPE
  5
16BB3
330
5
100
AcDbSymbolTableRecord
100
AcDbLinetypeTableRecord
  2
HIDDEN
 70
     0
  3
Hidden __ __ __ __ __ __ __ __ __ __ __ __ __ __
 72
    65
 73
     2
 40
0.375
 49
0.25
 74
     0
 49
-0.125
 74
     0
  0
ENDTAB
  0
TABLE
  2
LAYER
  5
2
102
{ACAD_XDICTIONARY
360
F3CC
102
}
330
0
100
AcDbSymbolTable
 70
    14
  0
LAYER
  5
10
102
{ACAD_XDICTIONARY
360
8ACC
102
}
330
2
100
AcDbSymbolTableRecord
100
AcDbLayerTableRecord
  2
0
 70
     0
 62
     7
  6
CONTINOUS
370
    -3
390
F
347
8A69
348
0
  0
LAYER
  5
2F
102
{ACAD_XDICTIONARY
360
8ACE
102
}
330
2
100
AcDbSymbolTableRecord
100
AcDbLayerTableRecord
  2
10
 70
     0
 62
     4
  6
CONTINOUS
370
    -3
390
F
347
8A69
348
0
  0
LAYER
  5
31
102
{ACAD_XDICTIONARY
360
8AD0
102
}
330
2
100
AcDbSymbolTableRecord
100
AcDbLayerTableRecord
  2
12
 70
     0
 62
     3
  6
CONTINOUS
370
    -3
390
F
347
8A69
348
0
  0
LAYER
  5
35
102
{ACAD_XDICTIONARY
360
8AD2
102
}
330
2
100
AcDbSymbolTableRecord
100
AcDbLayerTableRecord
  2
16
 70
     0
 62
     6
  6
DASHDOT
370
    -3
390
F
347
8A69
348
0
  0
LAYER
  5
38
102
{ACAD_XDICTIONARY
360
8AD4
102
}
330
2
100
AcDbSymbolTableRecord
100
AcDbLayerTableRecord
  2
19
 70
     0
 62
     7
  6
CONTINOUS
370
    -3
390
F
347
8A69
348
0
  0
LAYER
  5
3D
102
{ACAD_XDICTIONARY
360
8AD6
102
}
330
2
100
AcDbSymbolTableRecord
100
AcDbLayerTableRecord
  2
24
 70
     0
 62
     7
  6
CONTINOUS
370
    -3
390
F
347
8A69
348
0
  0
LAYER
  5
3A2
102
{ACAD_XDICTIONARY
360
8AD8
102
}
330
2
100
AcDbSymbolTableRecord
100
AcDbLayerTableRecord
  2
30
 70
     0
 62
     9
  6
CONTINUOUS
370
    -3
390
F
347
8A69
348
0
  0
LAYER
  5
3A4
330
2
100
AcDbSymbolTableRecord
100
AcDbLayerTableRecord
  2
DEFPOINTS
 70
     0
 62
     7
  6
CONTINUOUS
290
     0
370
    -3
390
F
347
8A69
348
0
  0
LAYER
  5
3BBA
102
{ACAD_XDICTIONARY
360
8ADA
102
}
330
2
100
AcDbSymbolTableRecord
100
AcDbLayerTableRecord
  2
18
 70
     0
 62
     5
  6
DIVIDE
370
    -3
390
F
347
8A69
348
0
  0
LAYER
  5
67A8
102
{ACAD_XDICTIONARY
360
8ADC
102
}
330
2
100
AcDbSymbolTableRecord
100
AcDbLayerTableRecord
  2
11
 70
     0
 62
     1
  6
CONTINOUS
370
    -3
390
F
347
8A69
348
0
  0
LAYER
  5
7837
102
{ACAD_XDICTIONARY
360
8ADE
102
}
330
2
100
AcDbSymbolTableRecord
100
AcDbLayerTableRecord
  2
17
 70
     0
 62
     2
  6
DASHDOT
370
    -3
390
F
347
8A69
348
0
  0
LAYER
  5
9133
102
{ACAD_XDICTIONARY
360
9134
102
}
330
2
100
AcDbSymbolTableRecord
100
AcDbLayerTableRecord
  2
240
 70
     0
 62
     7
  6
SLD-実線
370
    -3
390
F
347
8A69
348
0
  0
LAYER
  5
17470
102
{ACAD_XDICTIONARY
360
17471
102
}
330
2
100
AcDbSymbolTableRecord
100
AcDbLayerTableRecord
  2
1
 70
     0
 62
     7
  6
CONTINUOUS
370
    -3
390
F
347
8A69
348
0
  0
LAYER
  5
17472
102
{ACAD_XDICTIONARY
360
17473
102
}
330
2
100
AcDbSymbolTableRecord
100
AcDbLayerTableRecord
  2
TOP
 70
     0
 62
     7
  6
CONTINUOUS
370
    -3
390
F
347
8A69
348
0
  0
ENDTAB
  0
TABLE
  2
STYLE
  5
3
330
0
100
AcDbSymbolTable
 70
     4
  0
STYLE
  5
11
330
3
100
AcDbSymbolTableRecord
100
AcDbTextStyleTableRecord
  2
STANDARD
 70
     0
 40
0.0
 41
1.0
 50
0.0
 71
     0
 42
2.0
  3
txt.shx
  4
bigfont.shx
  0
STYLE
  5
42
330
3
100
AcDbSymbolTableRecord
100
AcDbTextStyleTableRecord
  2
STANDARD1
 70
     0
 40
0.0
 41
1.0
 50
0.0
 71
     0
 42
5.0
  3
MONOTXT
  4
BIGFONT
  0
STYLE
  5
1171A
330
3
100
AcDbSymbolTableRecord
100
AcDbTextStyleTableRecord
  2
SLDTEXTSTYLE0
 70
     0
 40
0.0
 41
1.0
 50
0.0
 71
     0
 42
3.0
  3
MS UI Gothic.ttf
  4

1001
ACAD
1000
MS UI Gothic
1071
      306
  0
STYLE
  5
17474
330
3
100
AcDbSymbolTableRecord
100
AcDbTextStyleTableRecord
  2
UGMTXT
 70
     0
 40
0.0
 41
1.0
 50
0.0
 71
     0
 42
0.2
  3
ugmtxt
  4
bigfont
  0
ENDTAB
  0
TABLE
  2
VIEW
  5
6
330
0
100
AcDbSymbolTable
 70
     3
  0
VIEW
  5
230C
330
6
100
AcDbSymbolTableRecord
100
AcDbViewTableRecord
  2
OLE1
 70
     0
 40
148.912488
 10
429.497628
 20
2.560627
 41
103.145806
 11
0.0
 21
0.0
 31
1.0
 12
0.0
 22
0.0
 32
0.0
 42
50.0
 43
0.0
 44
0.0
 50
0.0
 71
     0
281
     0
 72
     0
 73
     0
348
8A77
  0
VIEW
  5
230E
330
6
100
AcDbSymbolTableRecord
100
AcDbViewTableRecord
  2
OLE2
 70
     0
 40
170.778692
 10
322.66497
 20
-5.978304
 41
102.467215
 11
0.0
 21
0.0
 31
1.0
 12
0.0
 22
0.0
 32
0.0
 42
50.0
 43
0.0
 44
0.0
 50
0.0
 71
     0
281
     0
 72
     0
 73
     0
348
8A77
  0
VIEW
  5
23AA
330
6
100
AcDbSymbolTableRecord
100
AcDbViewTableRecord
  2
OLE3
 70
     0
 40
591.7897389999998
 10
84.79698199999999
 20
-46.09335999999998
 41
388.792096
 11
0.0
 21
0.0
 31
1.0
 12
0.0
 22
0.0
 32
0.0
 42
50.0
 43
0.0
 44
0.0
 50
0.0
 71
     0
281
     0
 72
     0
 73
     0
348
8A77
  0
ENDTAB
  0
TABLE
  2
UCS
  5
7
330
0
100
AcDbSymbolTable
 70
     0
  0
ENDTAB
  0
TABLE
  2
APPID
  5
9
330
0
100
AcDbSymbolTable
 70
    11
  0
APPID
  5
12
330
9
100
AcDbSymbolTableRecord
100
AcDbRegAppTableRecord
  2
ACAD
 70
     0
  0
APPID
  5
ECD
330
9
100
AcDbSymbolTableRecord
100
AcDbRegAppTableRecord
  2
CONTENTBLOCKICON
 70
     0
  0
APPID
  5
8AA9
330
9
100
AcDbSymbolTableRecord
100
AcDbRegAppTableRecord
  2
ACAD_NAV_VCDISPLAY
 70
     0
  0
APPID
  5
1038A
330
9
100
AcDbSymbolTableRecord
100
AcDbRegAppTableRecord
  2
ACAD_EXEMPT_FROM_CAD_STANDARDS
 70
     0
  0
APPID
  5
10D03
330
9
100
AcDbSymbolTableRecord
100
AcDbRegAppTableRecord
  2
ACAD_PSEXT
 70
     0
  0
APPID
  5
1147C
330
9
100
AcDbSymbolTableRecord
100
AcDbRegAppTableRecord
  2
ACAD_DSTYLE_DIMJAG
 70
     0
  0
APPID
  5
1147D
330
9
100
AcDbSymbolTableRecord
100
AcDbRegAppTableRecord
  2
ACAD_DSTYLE_DIMTALN
 70
     0
  0
APPID
  5
16BC0
330
9
100
AcDbSymbolTableRecord
100
AcDbRegAppTableRecord
  2
DCO15
 70
     0
  0
APPID
  5
16BC1
330
9
100
AcDbSymbolTableRecord
100
AcDbRegAppTableRecord
  2
ACAD_MLEADERVER
 70
     0
  0
APPID
  5
16BC2
330
9
100
AcDbSymbolTableRecord
100
AcDbRegAppTableRecord
  2
ACAD_DSTYLE_DIMBREAK
 70
     0
  0
APPID
  5
17476
330
9
100
AcDbSymbolTableRecord
100
AcDbRegAppTableRecord
  2
ACAUTHENVIRON
 70
     0
  0
ENDTAB
  0
TABLE
  2
DIMSTYLE
  5
A
330
0
100
AcDbSymbolTable
 70
     4
100
AcDbDimStyleTable
 71
     2
340
175
340
1171B
  0
DIMSTYLE
105
175
102
{ACAD_REACTORS
330
18BEC
330
18BFF
330
18C01
330
18C02
330
18C03
330
18C04
330
18C60
330
18C61
330
18C62
330
18C63
330
18CCC
330
18CCD
330
18CF0
330
18D01
330
18D06
330
18D08
330
1A0D6
330
1A616
330
1A62C
330
1A639
330
1A65D
330
1A65E
330
1A65F
330
1A661
330
1A78E
330
1C17E
102
}
330
A
100
AcDbSymbolTableRecord
100
AcDbDimStyleTableRecord
  2
STANDARD
 70
     0
 41
2.0
 42
1.0
 43
0.5
 44
0.5
 69
     1
 73
     0
 74
     0
 77
     3
 78
    12
140
8.0
147
3.0
178
   256
271
     1
272
     1
340
11
341
3B2
342
3B2
1001
ACAD_DSTYLE_DIMJAG
1070
   388
1040
1.5
1001
ACAD_DSTYLE_DIMTALN
1070
   392
1070
     0
  0
DIMSTYLE
105
1171B
102
{ACAD_REACTORS
330
19770
330
1981F
330
18C00
330
1A660
102
}
330
A
100
AcDbSymbolTableRecord
100
AcDbDimStyleTableRecord
  2
STANDARD1
 70
     0
 41
2.0
 42
3.0
 43
0.5
 44
0.5
 77
     3
 78
    12
140
8.0
147
3.0
172
     1
271
     1
272
     1
289
     2
340
11
341
3B2
342
3B2
1001
ACAD_DSTYLE_DIMJAG
1070
   388
1040
1.5
1001
ACAD_DSTYLE_DIMTALN
1070
   392
1070
     0
  0
DIMSTYLE
105
17475
330
A
100
AcDbSymbolTableRecord
100
AcDbDimStyleTableRecord
  2
SLDDIMSTYLE4
 70
     0
 41
2.0
 44
0.0
 45
0.000000001
 73
     0
 74
     0
 77
     3
 78
    12
 79
     3
140
2.5
141
0.0
144
10.0
147
0.625
173
     1
271
     1
272
     1
276
     2
279
     1
284
    12
340
1171A
  0
ENDTAB
  0
TABLE
  2
BLOCK_RECORD
  5
1
330
0
100
AcDbSymbolTable
 70
    42
  0
BLOCK_RECORD
  5
1E
102
{ACAD_XDICTIONARY
360
178
102
}
330
1
100
AcDbSymbolTableRecord
100
AcDbBlockTableRecord
  2
*MODEL_SPACE
340
8A4C
 70
     0
280
     1
281
     0
  0
BLOCK_RECORD
  5
1A
102
{ACAD_XDICTIONARY
360
17A
102
}
330
1
100
AcDbSymbolTableRecord
100
AcDbBlockTableRecord
  2
*PAPER_SPACE
340
8A4D
 70
     0
280
     1
281
     0
  0
BLOCK_RECORD
  5
3B2
330
1
100
AcDbSymbolTableRecord
100
AcDbBlockTableRecord
  2
_OPEN
340
0
102
{BLKREFS
331
1BF8A
331
1BF8B
331
1BF93
331
1BF94
331
1BFA5
331
1BFA6
331
1BFAE
331
1BFB5
331
1BFBC
331
1BFBD
331
1C185
331
1C186
331
1C18E
331
1C18F
331
1C142
331
1C143
331
1C14B
331
1C14C
331
1C154
331
1C155
331
1C15D
331
1C15E
331
1C16C
331
1C16D
331
1C175
331
1C176
331
1BFD7
331
1BFD8
331
1BFE1
331
1BFE2
331
1C007
331
1C008
331
1C03E
331
1C03F
331
1C086
331
1C087
331
1C1A9
331
1C1AA
331
1BFC5
331
1BFC6
331
1BF14
331
1BF15
331
1BF1E
331
1BF1F
331
1BF26
331
1BF27
331
1BF2F
331
1BF30
331
1BF38
331
1BF39
331
1BF41
331
1BF42
331
1C0E2
331
1C0E3
331
1C0F4
331
1C0F5
331
1BFCE
331
1BFCF
331
1BF78
331
1BF79
331
1BF81
331
1BF82
102
}
 70
     0
280
     1
281
     0
  0
BLOCK_RECORD
  5
126D7
330
1
100
AcDbSymbolTableRecord
100
AcDbBlockTableRecord
  2
SW_CENTERMARKSYMBOL_9
340
0
102
{BLKREFS
331
18C9F
331
18CA6
331
18CA8
331
18CBD
331
18CC3
331
18CC5
102
}
 70
     0
280
     1
281
     0
  0
BLOCK_RECORD
  5
126E2
330
1
100
AcDbSymbolTableRecord
100
AcDbBlockTableRecord
  2
SW_CENTERMARKSYMBOL_10
340
0
102
{BLKREFS
331
18CA0
331
18CBE
102
}
 70
     0
280
     1
281
     0
  0
BLOCK_RECORD
  5
126ED
330
1
100
AcDbSymbolTableRecord
100
AcDbBlockTableRecord
  2
SW_CENTERMARKSYMBOL_11
340
0
102
{BLKREFS
331
18CA1
331
18CBF
102
}
 70
     0
280
     1
281
     0
  0
BLOCK_RECORD
  5
172BE
330
1
100
AcDbSymbolTableRecord
100
AcDbBlockTableRecord
  2
SW_CENTERMARKSYMBOL_0
340
0
102
{BLKREFS
331
18C05
102
}
 70
     0
280
     1
281
     0
  0
BLOCK_RECORD
  5
172C9
330
1
100
AcDbSymbolTableRecord
100
AcDbBlockTableRecord
  2
SW_CENTERMARKSYMBOL_1
340
0
102
{BLKREFS
331
18C06
102
}
 70
     0
280
     1
281
     0
  0
BLOCK_RECORD
  5
172D4
330
1
100
AcDbSymbolTableRecord
100
AcDbBlockTableRecord
  2
SW_CENTERMARKSYMBOL_2
340
0
102
{BLKREFS
331
18C07
102
}
 70
     0
280
     1
281
     0
  0
BLOCK_RECORD
  5
172DF
330
1
100
AcDbSymbolTableRecord
100
AcDbBlockTableRecord
  2
SW_CENTERMARKSYMBOL_3
340
0
102
{BLKREFS
331
18C08
102
}
 70
     0
280
     1
281
     0
  0
BLOCK_RECORD
  5
172EA
330
1
100
AcDbSymbolTableRecord
100
AcDbBlockTableRecord
  2
*U8
340
0
102
{BLKREFS
331
18BE6
102
}
 70
     0
280
     1
281
     0
  0
BLOCK_RECORD
  5
18D2D
330
1
100
AcDbSymbolTableRecord
100
AcDbBlockTableRecord
  2
*D9
340
0
 70
     0
280
     1
281
     0
  0
BLOCK_RECORD
  5
18D43
330
1
100
AcDbSymbolTableRecord
100
AcDbBlockTableRecord
  2
*D10
340
0
 70
     0
280
     1
281
     0
  0
BLOCK_RECORD
  5
18D4F
330
1
100
AcDbSymbolTableRecord
100
AcDbBlockTableRecord
  2
*D11
340
0
 70
     0
280
     1
281
     0
  0
BLOCK_RECORD
  5
18D59
330
1
100
AcDbSymbolTableRecord
100
AcDbBlockTableRecord
  2
*D12
340
0
 70
     0
280
     1
281
     0
  0
BLOCK_RECORD
  5
18D65
330
1
100
AcDbSymbolTableRecord
100
AcDbBlockTableRecord
  2
*D13
340
0
 70
     0
280
     1
281
     0
  0
BLOCK_RECORD
  5
18D71
330
1
100
AcDbSymbolTableRecord
100
AcDbBlockTableRecord
  2
*D14
340
0
 70
     0
280
     1
281
     0
  0
BLOCK_RECORD
  5
18D7D
330
1
100
AcDbSymbolTableRecord
100
AcDbBlockTableRecord
  2
*D15
340
0
 70
     0
280
     1
281
     0
  0
BLOCK_RECORD
  5
18D89
330
1
100
AcDbSymbolTableRecord
100
AcDbBlockTableRecord
  2
*D16
340
0
 70
     0
280
     1
281
     0
  0
BLOCK_RECORD
  5
18D95
330
1
100
AcDbSymbolTableRecord
100
AcDbBlockTableRecord
  2
*D17
340
0
 70
     0
280
     1
281
     0
  0
BLOCK_RECORD
  5
18DA1
330
1
100
AcDbSymbolTableRecord
100
AcDbBlockTableRecord
  2
*D18
340
0
 70
     0
280
     1
281
     0
  0
BLOCK_RECORD
  5
18DAE
330
1
100
AcDbSymbolTableRecord
100
AcDbBlockTableRecord
  2
*D19
340
0
 70
     0
280
     1
281
     0
  0
BLOCK_RECORD
  5
18DBA
330
1
100
AcDbSymbolTableRecord
100
AcDbBlockTableRecord
  2
*D20
340
0
 70
     0
280
     1
281
     0
  0
BLOCK_RECORD
  5
18DC6
330
1
100
AcDbSymbolTableRecord
100
AcDbBlockTableRecord
  2
*D21
340
0
 70
     0
280
     1
281
     0
  0
BLOCK_RECORD
  5
18E27
330
1
100
AcDbSymbolTableRecord
100
AcDbBlockTableRecord
  2
*D22
340
0
 70
     0
280
     1
281
     0
  0
BLOCK_RECORD
  5
18E33
330
1
100
AcDbSymbolTableRecord
100
AcDbBlockTableRecord
  2
*D23
340
0
 70
     0
280
     1
281
     0
  0
BLOCK_RECORD
  5
18E58
330
1
100
AcDbSymbolTableRecord
100
AcDbBlockTableRecord
  2
*D24
340
0
 70
     0
280
     1
281
     0
  0
BLOCK_RECORD
  5
18E64
330
1
100
AcDbSymbolTableRecord
100
AcDbBlockTableRecord
  2
*D25
340
0
 70
     0
280
     1
281
     0
  0
BLOCK_RECORD
  5
18E7A
330
1
100
AcDbSymbolTableRecord
100
AcDbBlockTableRecord
  2
*D26
340
0
 70
     0
280
     1
281
     0
  0
BLOCK_RECORD
  5
19771
330
1
100
AcDbSymbolTableRecord
100
AcDbBlockTableRecord
  2
*D27
340
0
 70
     0
280
     1
281
     0
  0
BLOCK_RECORD
  5
19820
330
1
100
AcDbSymbolTableRecord
100
AcDbBlockTableRecord
  2
*D28
340
0
 70
     0
280
     1
281
     0
  0
BLOCK_RECORD
  5
1A0D8
330
1
100
AcDbSymbolTableRecord
100
AcDbBlockTableRecord
  2
*D29
340
0
 70
     0
280
     1
281
     0
  0
BLOCK_RECORD
  5
1A0E4
330
1
100
AcDbSymbolTableRecord
100
AcDbBlockTableRecord
  2
*D30
340
0
 70
     0
280
     1
281
     0
  0
BLOCK_RECORD
  5
1A617
330
1
100
AcDbSymbolTableRecord
100
AcDbBlockTableRecord
  2
*D31
340
0
 70
     0
280
     1
281
     0
  0
BLOCK_RECORD
  5
1A62D
330
1
100
AcDbSymbolTableRecord
100
AcDbBlockTableRecord
  2
*D32
340
0
 70
     0
280
     1
281
     0
  0
BLOCK_RECORD
  5
1A63A
330
1
100
AcDbSymbolTableRecord
100
AcDbBlockTableRecord
  2
*D33
340
0
 70
     0
280
     1
281
     0
  0
BLOCK_RECORD
  5
1A664
330
1
100
AcDbSymbolTableRecord
100
AcDbBlockTableRecord
  2
*D34
340
0
 70
     0
280
     1
281
     0
  0
BLOCK_RECORD
  5
1A670
330
1
100
AcDbSymbolTableRecord
100
AcDbBlockTableRecord
  2
*D35
340
0
 70
     0
280
     1
281
     0
  0
BLOCK_RECORD
  5
1A67C
330
1
100
AcDbSymbolTableRecord
100
AcDbBlockTableRecord
  2
*D36
340
0
 70
     0
280
     1
281
     0
  0
BLOCK_RECORD
  5
1A688
330
1
100
AcDbSymbolTableRecord
100
AcDbBlockTableRecord
  2
*D37
340
0
 70
     0
280
     1
281
     0
  0
BLOCK_RECORD
  5
1A696
330
1
100
AcDbSymbolTableRecord
100
AcDbBlockTableRecord
  2
*D38
340
0
 70
     0
280
     1
281
     0
  0
BLOCK_RECORD
  5
1A78F
330
1
100
AcDbSymbolTableRecord
100
AcDbBlockTableRecord
  2
*D39
340
0
 70
     0
280
     1
281
     0
  0
BLOCK_RECORD
  5
1C17F
330
1
100
AcDbSymbolTableRecord
100
AcDbBlockTableRecord
  2
*D40
340
0
 70
     0
280
     1
281
     0
  0
ENDTAB
  0
ENDSEC
  0
SECTION
  2
BLOCKS
  0
BLOCK
  5
1F
330
1E
100
AcDbEntity
  8
0
100
AcDbBlockBegin
  2
*MODEL_SPACE
 70
     0
 10
0.0
 20
0.0
 30
0.0
  3
*MODEL_SPACE
  1

  0
ENDBLK
  5
20
330
1E
100
AcDbEntity
  8
0
100
AcDbBlockEnd
  0
BLOCK
  5
1B
330
1A
100
AcDbEntity
 67
     1
  8
0
100
AcDbBlockBegin
  2
*PAPER_SPACE
 70
     0
 10
0.0
 20
0.0
 30
0.0
  3
*PAPER_SPACE
  1

  0
ENDBLK
  5
1C
330
1A
100
AcDbEntity
 67
     1
  8
0
100
AcDbBlockEnd
  0
BLOCK
  5
3B6
330
3B2
100
AcDbEntity
  8
0
100
AcDbBlockBegin
  2
_OPEN
 70
     0
 10
0.0
 20
0.0
 30
0.0
  3
_OPEN
  1

  0
LINE
  5
3B3
330
3B2
100
AcDbEntity
  8
30
  6
Continuous
 62
     0
100
AcDbLine
 10
-1.0
 20
0.166667
 30
0.0
 11
0.0
 21
0.0
 31
0.0
  0
LINE
  5
3B4
330
3B2
100
AcDbEntity
  8
30
  6
Continuous
 62
     0
100
AcDbLine
 10
-1.0
 20
-0.166667
 30
0.0
 11
0.0
 21
0.0
 31
0.0
  0
LINE
  5
3B5
330
3B2
100
AcDbEntity
  8
30
  6
Continuous
 62
     0
100
AcDbLine
 10
0.0
 20
0.0
 30
0.0
 11
-1.0
 21
0.0
 31
0.0
  0
ENDBLK
  5
3B7
330
3B2
100
AcDbEntity
  8
0
100
AcDbBlockEnd
  0
BLOCK
  5
126D8
330
126D7
100
AcDbEntity
  8
0
100
AcDbBlockBegin
  2
SW_CENTERMARKSYMBOL_9
 70
     0
 10
0.0
 20
0.0
 30
0.0
  3
SW_CENTERMARKSYMBOL_9
  1
SW_CENTERMARKSYMBOL_9
  0
LINE
  5
126D9
330
126D7
100
AcDbEntity
  8
240
 62
     0
100
AcDbLine
 10
0.0
 20
0.0
 30
0.0
 11
0.0
 21
0.5
 31
0.0
  0
LINE
  5
126DA
330
126D7
100
AcDbEntity
  8
240
 62
     0
100
AcDbLine
 10
0.0
 20
0.0
 30
0.0
 11
-0.5
 21
0.0
 31
0.0
  0
LINE
  5
126DB
330
126D7
100
AcDbEntity
  8
240
 62
     0
100
AcDbLine
 10
0.0
 20
0.0
 30
0.0
 11
0.0
 21
-0.5
 31
0.0
  0
LINE
  5
126DC
330
126D7
100
AcDbEntity
  8
240
 62
     0
100
AcDbLine
 10
0.0
 20
0.0
 30
0.0
 11
0.5
 21
0.0
 31
0.0
  0
LINE
  5
126DD
330
126D7
100
AcDbEntity
  8
240
 62
     0
100
AcDbLine
 10
0.0
 20
1.0
 30
0.0
 11
0.0
 21
1.9
 31
0.0
  0
LINE
  5
126DE
330
126D7
100
AcDbEntity
  8
240
 62
     0
100
AcDbLine
 10
-1.0
 20
0.0
 30
0.0
 11
-1.9
 21
0.0
 31
0.0
  0
LINE
  5
126DF
330
126D7
100
AcDbEntity
  8
240
 62
     0
100
AcDbLine
 10
0.0
 20
-1.0
 30
0.0
 11
0.0
 21
-1.9
 31
0.0
  0
LINE
  5
126E0
330
126D7
100
AcDbEntity
  8
240
 62
     0
100
AcDbLine
 10
1.0
 20
0.0
 30
0.0
 11
1.9
 21
0.0
 31
0.0
  0
ENDBLK
  5
126E1
330
126D7
100
AcDbEntity
  8
0
100
AcDbBlockEnd
  0
BLOCK
  5
126E3
330
126E2
100
AcDbEntity
  8
0
100
AcDbBlockBegin
  2
SW_CENTERMARKSYMBOL_10
 70
     0
 10
0.0
 20
0.0
 30
0.0
  3
SW_CENTERMARKSYMBOL_10
  1
SW_CENTERMARKSYMBOL_10
  0
LINE
  5
126E4
330
126E2
100
AcDbEntity
  8
240
 62
     0
100
AcDbLine
 10
0.0
 20
0.0
 30
0.0
 11
0.0
 21
0.5
 31
0.0
  0
LINE
  5
126E5
330
126E2
100
AcDbEntity
  8
240
 62
     0
100
AcDbLine
 10
0.0
 20
0.0
 30
0.0
 11
-0.5
 21
0.0
 31
0.0
  0
LINE
  5
126E6
330
126E2
100
AcDbEntity
  8
240
 62
     0
100
AcDbLine
 10
0.0
 20
0.0
 30
0.0
 11
0.0
 21
-0.5
 31
0.0
  0
LINE
  5
126E7
330
126E2
100
AcDbEntity
  8
240
 62
     0
100
AcDbLine
 10
0.0
 20
0.0
 30
0.0
 11
0.5
 21
0.0
 31
0.0
  0
LINE
  5
126E8
330
126E2
100
AcDbEntity
  8
240
 62
     0
100
AcDbLine
 10
0.0
 20
1.0
 30
0.0
 11
0.0
 21
1.9
 31
0.0
  0
LINE
  5
126E9
330
126E2
100
AcDbEntity
  8
240
 62
     0
100
AcDbLine
 10
-1.0
 20
0.0
 30
0.0
 11
-1.9
 21
0.0
 31
0.0
  0
LINE
  5
126EA
330
126E2
100
AcDbEntity
  8
240
 62
     0
100
AcDbLine
 10
0.0
 20
-1.0
 30
0.0
 11
0.0
 21
-1.9
 31
0.0
  0
LINE
  5
126EB
330
126E2
100
AcDbEntity
  8
240
 62
     0
100
AcDbLine
 10
1.0
 20
0.0
 30
0.0
 11
1.9
 21
0.0
 31
0.0
  0
ENDBLK
  5
126EC
330
126E2
100
AcDbEntity
  8
0
100
AcDbBlockEnd
  0
BLOCK
  5
126EE
330
126ED
100
AcDbEntity
  8
0
100
AcDbBlockBegin
  2
SW_CENTERMARKSYMBOL_11
 70
     0
 10
0.0
 20
0.0
 30
0.0
  3
SW_CENTERMARKSYMBOL_11
  1
SW_CENTERMARKSYMBOL_11
  0
LINE
  5
126EF
330
126ED
100
AcDbEntity
  8
240
 62
     0
100
AcDbLine
 10
0.0
 20
0.0
 30
0.0
 11
0.0
 21
0.5
 31
0.0
  0
LINE
  5
126F0
330
126ED
100
AcDbEntity
  8
240
 62
     0
100
AcDbLine
 10
0.0
 20
0.0
 30
0.0
 11
-0.5
 21
0.0
 31
0.0
  0
LINE
  5
126F1
330
126ED
100
AcDbEntity
  8
240
 62
     0
100
AcDbLine
 10
0.0
 20
0.0
 30
0.0
 11
0.0
 21
-0.5
 31
0.0
  0
LINE
  5
126F2
330
126ED
100
AcDbEntity
  8
240
 62
     0
100
AcDbLine
 10
0.0
 20
0.0
 30
0.0
 11
0.5
 21
0.0
 31
0.0
  0
LINE
  5
126F3
330
126ED
100
AcDbEntity
  8
240
 62
     0
100
AcDbLine
 10
0.0
 20
1.0
 30
0.0
 11
0.0
 21
1.9
 31
0.0
  0
LINE
  5
126F4
330
126ED
100
AcDbEntity
  8
240
 62
     0
100
AcDbLine
 10
-1.0
 20
0.0
 30
0.0
 11
-1.9
 21
0.0
 31
0.0
  0
LINE
  5
126F5
330
126ED
100
AcDbEntity
  8
240
 62
     0
100
AcDbLine
 10
0.0
 20
-1.0
 30
0.0
 11
0.0
 21
-1.9
 31
0.0
  0
LINE
  5
126F6
330
126ED
100
AcDbEntity
  8
240
 62
     0
100
AcDbLine
 10
1.0
 20
0.0
 30
0.0
 11
1.9
 21
0.0
 31
0.0
  0
ENDBLK
  5
126F7
330
126ED
100
AcDbEntity
  8
0
100
AcDbBlockEnd
  0
BLOCK
  5
172BF
330
172BE
100
AcDbEntity
  8
0
100
AcDbBlockBegin
  2
SW_CENTERMARKSYMBOL_0
 70
     0
 10
0.0
 20
0.0
 30
0.0
  3
SW_CENTERMARKSYMBOL_0
  1
SW_CENTERMARKSYMBOL_0
  0
LINE
  5
172C0
330
172BE
100
AcDbEntity
  8
240
 62
     0
100
AcDbLine
 10
0.0
 20
0.0
 30
0.0
 11
0.0
 21
2.5
 31
0.0
  0
LINE
  5
172C1
330
172BE
100
AcDbEntity
  8
240
 62
     0
100
AcDbLine
 10
0.0
 20
0.0
 30
0.0
 11
-2.5
 21
0.0
 31
0.0
  0
LINE
  5
172C2
330
172BE
100
AcDbEntity
  8
240
 62
     0
100
AcDbLine
 10
0.0
 20
0.0
 30
0.0
 11
0.0
 21
-2.5
 31
0.0
  0
LINE
  5
172C3
330
172BE
100
AcDbEntity
  8
240
 62
     0
100
AcDbLine
 10
0.0
 20
0.0
 30
0.0
 11
2.5
 21
0.0
 31
0.0
  0
LINE
  5
172C4
330
172BE
100
AcDbEntity
  8
240
 62
     0
100
AcDbLine
 10
0.0
 20
2.5
 30
0.0
 11
0.0
 21
3.6
 31
0.0
  0
LINE
  5
172C5
330
172BE
100
AcDbEntity
  8
240
 62
     0
100
AcDbLine
 10
-2.5
 20
0.0
 30
0.0
 11
-3.6
 21
0.0
 31
0.0
  0
LINE
  5
172C6
330
172BE
100
AcDbEntity
  8
240
 62
     0
100
AcDbLine
 10
0.0
 20
-2.5
 30
0.0
 11
0.0
 21
-3.6
 31
0.0
  0
LINE
  5
172C7
330
172BE
100
AcDbEntity
  8
240
 62
     0
100
AcDbLine
 10
2.5
 20
0.0
 30
0.0
 11
3.6
 21
0.0
 31
0.0
  0
ENDBLK
  5
172C8
330
172BE
100
AcDbEntity
  8
0
100
AcDbBlockEnd
  0
BLOCK
  5
172CA
330
172C9
100
AcDbEntity
  8
0
100
AcDbBlockBegin
  2
SW_CENTERMARKSYMBOL_1
 70
     0
 10
0.0
 20
0.0
 30
0.0
  3
SW_CENTERMARKSYMBOL_1
  1
SW_CENTERMARKSYMBOL_1
  0
LINE
  5
172CB
330
172C9
100
AcDbEntity
  8
240
 62
     0
100
AcDbLine
 10
0.0
 20
0.0
 30
0.0
 11
0.0
 21
2.5
 31
0.0
  0
LINE
  5
172CC
330
172C9
100
AcDbEntity
  8
240
 62
     0
100
AcDbLine
 10
0.0
 20
0.0
 30
0.0
 11
-2.5
 21
0.0
 31
0.0
  0
LINE
  5
172CD
330
172C9
100
AcDbEntity
  8
240
 62
     0
100
AcDbLine
 10
0.0
 20
0.0
 30
0.0
 11
0.0
 21
-2.5
 31
0.0
  0
LINE
  5
172CE
330
172C9
100
AcDbEntity
  8
240
 62
     0
100
AcDbLine
 10
0.0
 20
0.0
 30
0.0
 11
2.5
 21
0.0
 31
0.0
  0
LINE
  5
172CF
330
172C9
100
AcDbEntity
  8
240
 62
     0
100
AcDbLine
 10
0.0
 20
2.5
 30
0.0
 11
0.0
 21
3.1
 31
0.0
  0
LINE
  5
172D0
330
172C9
100
AcDbEntity
  8
240
 62
     0
100
AcDbLine
 10
-2.5
 20
0.0
 30
0.0
 11
-3.1
 21
0.0
 31
0.0
  0
LINE
  5
172D1
330
172C9
100
AcDbEntity
  8
240
 62
     0
100
AcDbLine
 10
0.0
 20
-2.5
 30
0.0
 11
0.0
 21
-3.1
 31
0.0
  0
LINE
  5
172D2
330
172C9
100
AcDbEntity
  8
240
 62
     0
100
AcDbLine
 10
2.5
 20
0.0
 30
0.0
 11
3.1
 21
0.0
 31
0.0
  0
ENDBLK
  5
172D3
330
172C9
100
AcDbEntity
  8
0
100
AcDbBlockEnd
  0
BLOCK
  5
172D5
330
172D4
100
AcDbEntity
  8
0
100
AcDbBlockBegin
  2
SW_CENTERMARKSYMBOL_2
 70
     0
 10
0.0
 20
0.0
 30
0.0
  3
SW_CENTERMARKSYMBOL_2
  1
SW_CENTERMARKSYMBOL_2
  0
LINE
  5
172D6
330
172D4
100
AcDbEntity
  8
240
 62
     0
100
AcDbLine
 10
0.0
 20
0.0
 30
0.0
 11
0.0
 21
2.5
 31
0.0
  0
LINE
  5
172D7
330
172D4
100
AcDbEntity
  8
240
 62
     0
100
AcDbLine
 10
0.0
 20
0.0
 30
0.0
 11
-2.5
 21
0.0
 31
0.0
  0
LINE
  5
172D8
330
172D4
100
AcDbEntity
  8
240
 62
     0
100
AcDbLine
 10
0.0
 20
0.0
 30
0.0
 11
0.0
 21
-2.5
 31
0.0
  0
LINE
  5
172D9
330
172D4
100
AcDbEntity
  8
240
 62
     0
100
AcDbLine
 10
0.0
 20
0.0
 30
0.0
 11
2.5
 21
0.0
 31
0.0
  0
LINE
  5
172DA
330
172D4
100
AcDbEntity
  8
240
 62
     0
100
AcDbLine
 10
0.0
 20
2.5
 30
0.0
 11
0.0
 21
3.1
 31
0.0
  0
LINE
  5
172DB
330
172D4
100
AcDbEntity
  8
240
 62
     0
100
AcDbLine
 10
-2.5
 20
0.0
 30
0.0
 11
-3.1
 21
0.0
 31
0.0
  0
LINE
  5
172DC
330
172D4
100
AcDbEntity
  8
240
 62
     0
100
AcDbLine
 10
0.0
 20
-2.5
 30
0.0
 11
0.0
 21
-3.1
 31
0.0
  0
LINE
  5
172DD
330
172D4
100
AcDbEntity
  8
240
 62
     0
100
AcDbLine
 10
2.5
 20
0.0
 30
0.0
 11
3.1
 21
0.0
 31
0.0
  0
ENDBLK
  5
172DE
330
172D4
100
AcDbEntity
  8
0
100
AcDbBlockEnd
  0
BLOCK
  5
172E0
330
172DF
100
AcDbEntity
  8
0
100
AcDbBlockBegin
  2
SW_CENTERMARKSYMBOL_3
 70
     0
 10
0.0
 20
0.0
 30
0.0
  3
SW_CENTERMARKSYMBOL_3
  1
SW_CENTERMARKSYMBOL_3
  0
LINE
  5
172E1
330
172DF
100
AcDbEntity
  8
240
 62
     0
100
AcDbLine
 10
0.0
 20
0.0
 30
0.0
 11
0.0
 21
2.5
 31
0.0
  0
LINE
  5
172E2
330
172DF
100
AcDbEntity
  8
240
 62
     0
100
AcDbLine
 10
0.0
 20
0.0
 30
0.0
 11
-2.5
 21
0.0
 31
0.0
  0
LINE
  5
172E3
330
172DF
100
AcDbEntity
  8
240
 62
     0
100
AcDbLine
 10
0.0
 20
0.0
 30
0.0
 11
0.0
 21
-2.5
 31
0.0
  0
LINE
  5
172E4
330
172DF
100
AcDbEntity
  8
240
 62
     0
100
AcDbLine
 10
0.0
 20
0.0
 30
0.0
 11
2.5
 21
0.0
 31
0.0
  0
LINE
  5
172E5
330
172DF
100
AcDbEntity
  8
240
 62
     0
100
AcDbLine
 10
0.0
 20
2.5
 30
0.0
 11
0.0
 21
3.1
 31
0.0
  0
LINE
  5
172E6
330
172DF
100
AcDbEntity
  8
240
 62
     0
100
AcDbLine
 10
-2.5
 20
0.0
 30
0.0
 11
-3.1
 21
0.0
 31
0.0
  0
LINE
  5
172E7
330
172DF
100
AcDbEntity
  8
240
 62
     0
100
AcDbLine
 10
0.0
 20
-2.5
 30
0.0
 11
0.0
 21
-3.1
 31
0.0
  0
LINE
  5
172E8
330
172DF
100
AcDbEntity
  8
240
 62
     0
100
AcDbLine
 10
2.5
 20
0.0
 30
0.0
 11
3.1
 21
0.0
 31
0.0
  0
ENDBLK
  5
172E9
330
172DF
100
AcDbEntity
  8
0
100
AcDbBlockEnd
  0
BLOCK
  5
172EB
330
172EA
100
AcDbEntity
  8
TOP
  6
Continuous
 62
     3
100
AcDbBlockBegin
  2
*U8
 70
     1
 10
0.0
 20
0.0
 30
0.0
  3
*U8
  1

  0
LINE
  5
172EC
330
172EA
100
AcDbEntity
  8
1
  6
ByBlock
 62
     0
100
AcDbLine
 10
548.3527638488361
 20
74.64070630641497
 30
0.0
 11
522.3527638488361
 21
74.64070630641497
 31
0.0
  0
LINE
  5
172ED
330
172EA
100
AcDbEntity
  8
1
  6
ByBlock
 62
     0
100
AcDbLine
 10
517.8511961722488
 20
100.6647232036204
 30
0.0
 11
522.3527638488361
 21
74.64070630641497
 31
0.0
  0
SOLID
  5
172EE
330
172EA
100
AcDbEntity
  8
1
  6
ByBlock
 62
     0
100
AcDbTrace
 10
517.8511961722488
 20
100.6647232036204
 30
0.0
 11
518.5205443376235
 21
98.75080465810007
 31
0.0
 12
517.8636330166235
 22
98.63717382314177
 32
0.0
 13
517.8636330166235
 23
98.63717382314177
 33
0.0
  0
TEXT
  5
172EF
330
172EA
100
AcDbEntity
  8
TOP
  6
ByBlock
 62
     0
100
AcDbText
 10
548.3527638488361
 20
73.14070629651499
 30
0.0
 40
3.000000019799997
  1
 
 41
1.189062500000023
  7
UGMTXT
100
AcDbText
  0
ENDBLK
  5
172F0
330
172EA
100
AcDbEntity
  8
0
100
AcDbBlockEnd
  0
BLOCK
  5
18D2E
330
18D2D
100
AcDbEntity
  8
0
100
AcDbBlockBegin
  2
*D9
 70
     1
 10
0.0
 20
0.0
 30
0.0
  3
*D9
  1

  0
LINE
  5
1C18B
330
18D2D
100
AcDbEntity
  8
30
  6
Continuous
 62
     0
440
 16777216
370
    -2
100
AcDbLine
 10
317.551590133181
 20
168.2084916969875
 30
0.0
 11
317.551590133181
 21
43.54314909775257
 31
0.0
  0
LINE
  5
1C18C
330
18D2D
100
AcDbEntity
  8
30
  6
Continuous
 62
     0
440
 16777216
370
    -2
100
AcDbLine
 10
435.5515901331818
 20
168.2084916969875
 30
0.0
 11
435.5515901331818
 21
43.54314909775257
 31
0.0
  0
LINE
  5
1C18D
330
18D2D
100
AcDbEntity
  8
30
  6
Continuous
 62
     0
440
 16777216
370
    -2
100
AcDbLine
 10
319.551590133181
 20
44.04314909775258
 30
0.0
 11
433.5515901331818
 21
44.04314909775258
 31
0.0
  0
INSERT
  5
1C18E
330
18D2D
100
AcDbEntity
  8
30
  6
Continuous
 62
     0
440
 16777216
370
    -2
100
AcDbBlockReference
  2
_OPEN
 10
317.551590133181
 20
44.04314909775258
 30
0.0
 41
2.0
 42
2.0
 43
2.0
 50
180.0
  0
INSERT
  5
1C18F
330
18D2D
100
AcDbEntity
  8
30
  6
Continuous
 62
     0
440
 16777216
370
    -2
100
AcDbBlockReference
  2
_OPEN
 10
435.5515901331818
 20
44.04314909775258
 30
0.0
 41
2.0
 42
2.0
 43
2.0
  0
MTEXT
  5
1C190
330
18D2D
100
AcDbEntity
  8
30
  6
Continuous
440
 16777216
100
AcDbMText
 10
380.0201743891812
 20
55.04314909775256
 30
0.0
 40
8.0
 41
0.0
 46
0.0
 71
     2
 72
     1
  1
\A1;118
 73
     1
 44
1.0
 90
        3
 63
     9
421
 13158600
 45
1.25
441
        0
  0
POINT
  5
1C191
330
18D2D
100
AcDbEntity
  8
DEFPOINTS
  6
Continuous
 62
     0
440
 16777216
100
AcDbPoint
 10
317.551590133181
 20
169.2084916969875
 30
0.0
  0
POINT
  5
1C192
330
18D2D
100
AcDbEntity
  8
DEFPOINTS
  6
Continuous
 62
     0
440
 16777216
100
AcDbPoint
 10
435.5515901331818
 20
169.2084916969875
 30
0.0
  0
POINT
  5
1C193
330
18D2D
100
AcDbEntity
  8
DEFPOINTS
  6
Continuous
 62
     0
440
 16777216
100
AcDbPoint
 10
435.5515901331818
 20
44.04314909775258
 30
0.0
  0
ENDBLK
  5
18D2F
330
18D2D
100
AcDbEntity
  8
0
100
AcDbBlockEnd
  0
BLOCK
  5
18D44
330
18D43
100
AcDbEntity
  8
0
100
AcDbBlockBegin
  2
*D10
 70
     1
 10
0.0
 20
0.0
 30
0.0
  3
*D10
  1

  0
LINE
  5
1BF11
330
18D43
100
AcDbEntity
  8
30
  6
Continuous
 62
     0
440
 16777216
370
    -2
100
AcDbLine
 10
71.71550370967451
 20
145.2084916969871
 30
0.0
 11
71.71550370967451
 21
109.1381477845726
 31
0.0
  0
LINE
  5
1BF12
330
18D43
100
AcDbEntity
  8
30
  6
Continuous
 62
     0
440
 16777216
370
    -2
100
AcDbLine
 10
131.7155037096745
 20
145.2084916969871
 30
0.0
 11
131.7155037096745
 21
109.1381477845726
 31
0.0
  0
LINE
  5
1BF13
330
18D43
100
AcDbEntity
  8
30
  6
Continuous
 62
     0
440
 16777216
370
    -2
100
AcDbLine
 10
73.71550370967451
 20
109.6381477845726
 30
0.0
 11
129.7155037096745
 21
109.6381477845726
 31
0.0
  0
INSERT
  5
1BF14
330
18D43
100
AcDbEntity
  8
30
  6
Continuous
 62
     0
440
 16777216
370
    -2
100
AcDbBlockReference
  2
_OPEN
 10
71.71550370967451
 20
109.6381477845726
 30
0.0
 41
2.0
 42
2.0
 43
2.0
 50
180.0
  0
INSERT
  5
1BF15
330
18D43
100
AcDbEntity
  8
30
  6
Continuous
 62
     0
440
 16777216
370
    -2
100
AcDbBlockReference
  2
_OPEN
 10
131.7155037096745
 20
109.6381477845726
 30
0.0
 41
2.0
 42
2.0
 43
2.0
  0
MTEXT
  5
1BF16
330
18D43
100
AcDbEntity
  8
30
  6
Continuous
440
 16777216
100
AcDbMText
 10
101.7155037096745
 20
120.6381477845726
 30
0.0
 40
8.0
 41
0.0
 46
0.0
 71
     2
 72
     1
  1
\A1;60
 73
     1
 44
1.0
 90
        3
 63
     9
421
 13158600
 45
1.25
441
        0
  0
POINT
  5
1BF17
330
18D43
100
AcDbEntity
  8
DEFPOINTS
  6
Continuous
 62
     0
440
 16777216
100
AcDbPoint
 10
71.71550370967451
 20
146.2084916969871
 30
0.0
  0
POINT
  5
1BF18
330
18D43
100
AcDbEntity
  8
DEFPOINTS
  6
Continuous
 62
     0
440
 16777216
100
AcDbPoint
 10
131.7155037096745
 20
146.2084916969871
 30
0.0
  0
POINT
  5
1BF19
330
18D43
100
AcDbEntity
  8
DEFPOINTS
  6
Continuous
 62
     0
440
 16777216
100
AcDbPoint
 10
131.7155037096745
 20
109.6381477845726
 30
0.0
  0
ENDBLK
  5
18D45
330
18D43
100
AcDbEntity
  8
0
100
AcDbBlockEnd
  0
BLOCK
  5
18D50
330
18D4F
100
AcDbEntity
  8
0
100
AcDbBlockBegin
  2
*D11
 70
     1
 10
0.0
 20
0.0
 30
0.0
  3
*D11
  1

  0
LINE
  5
1BF1A
330
18D4F
100
AcDbEntity
  8
30
  6
Continuous
 62
     0
440
 16777216
370
    -2
100
AcDbLine
 10
72.82764153939741
 20
152.6126426516829
 30
0.0
 11
73.16983779460945
 21
154.5831506376903
 31
0.0
  0
LINE
  5
1BF1B
330
18D4F
100
AcDbEntity
  8
30
  6
Continuous
 62
     0
440
 16777216
370
    -2
100
AcDbLine
 10
70.60336588045918
 20
139.8043407422918
 30
0.0
 11
55.34343757717088
 21
51.93134350890012
 31
0.0
  0
LINE
  5
1BF1C
330
18D4F
100
AcDbEntity
  8
30
  6
Continuous
 62
     0
440
 16777216
370
    -2
100
AcDbLine
 10
55.34343757717088
 20
51.93134350890012
 30
0.0
 11
7.010104243837544
 21
51.93134350890012
 31
0.0
  0
LINE
  5
1BF1D
330
18D4F
100
AcDbEntity
  8
30
  6
Continuous
 62
     0
440
 16777216
370
    -2
100
AcDbLine
 10
72.48544528418531
 20
150.6421346656755
 30
0.0
 11
70.94556213567125
 21
141.7748487282992
 31
0.0
  0
INSERT
  5
1BF1E
330
18D4F
100
AcDbEntity
  8
30
  6
Continuous
 62
     0
440
 16777216
370
    -2
100
AcDbBlockReference
  2
_OPEN
 10
72.48544528418531
 20
150.6421346656755
 30
0.0
 41
2.0
 42
2.0
 43
2.0
 50
260.1483273554564
  0
INSERT
  5
1BF1F
330
18D4F
100
AcDbEntity
  8
30
  6
Continuous
 62
     0
440
 16777216
370
    -2
100
AcDbBlockReference
  2
_OPEN
 10
70.94556213567125
 20
141.7748487282992
 30
0.0
 41
2.0
 42
2.0
 43
2.0
 50
80.14832735545637
  0
MTEXT
  5
1BF20
330
18D4F
100
AcDbEntity
  8
30
  6
Continuous
 62
     0
440
 16777216
100
AcDbMText
 10
7.010104243837597
 20
62.9313435089001
 30
0.0
 40
8.0
 41
0.0
 46
0.0
 71
     1
 72
     1
  1
\A1;2X2-%%c9
 73
     1
 44
1.0
  0
POINT
  5
1BF21
330
18D4F
100
AcDbEntity
  8
DEFPOINTS
  6
Continuous
 62
     0
440
 16777216
100
AcDbPoint
 10
70.94556213567125
 20
141.7748487282992
 30
0.0
  0
POINT
  5
1BF22
330
18D4F
100
AcDbEntity
  8
DEFPOINTS
  6
Continuous
 62
     0
440
 16777216
100
AcDbPoint
 10
72.48544528418531
 20
150.6421346656755
 30
0.0
  0
ENDBLK
  5
18D51
330
18D4F
100
AcDbEntity
  8
0
100
AcDbBlockEnd
  0
BLOCK
  5
18D5A
330
18D59
100
AcDbEntity
  8
0
100
AcDbBlockBegin
  2
*D12
 70
     1
 10
0.0
 20
0.0
 30
0.0
  3
*D12
  1

  0
LINE
  5
1BF23
330
18D59
100
AcDbEntity
  8
30
  6
Continuous
 62
     0
440
 16777216
370
    -2
100
AcDbLine
 10
132.7155037096745
 20
280.2084916969876
 30
0.0
 11
243.2672734369608
 21
280.2084916969876
 31
0.0
  0
LINE
  5
1BF24
330
18D59
100
AcDbEntity
  8
30
  6
Continuous
 62
     0
440
 16777216
370
    -2
100
AcDbLine
 10
132.7155037096745
 20
146.2084916969871
 30
0.0
 11
243.2672734369608
 21
146.2084916969871
 31
0.0
  0
LINE
  5
1BF25
330
18D59
100
AcDbEntity
  8
30
  6
Continuous
 62
     0
440
 16777216
370
    -2
100
AcDbLine
 10
242.7672734369608
 20
278.2084916969876
 30
0.0
 11
242.7672734369608
 21
148.2084916969871
 31
0.0
  0
INSERT
  5
1BF26
330
18D59
100
AcDbEntity
  8
30
  6
Continuous
 62
     0
440
 16777216
370
    -2
100
AcDbBlockReference
  2
_OPEN
 10
242.7672734369608
 20
280.2084916969876
 30
0.0
 41
2.0
 42
2.0
 43
2.0
 50
90.0
  0
INSERT
  5
1BF27
330
18D59
100
AcDbEntity
  8
30
  6
Continuous
 62
     0
440
 16777216
370
    -2
100
AcDbBlockReference
  2
_OPEN
 10
242.7672734369608
 20
146.2084916969871
 30
0.0
 41
2.0
 42
2.0
 43
2.0
 50
270.0
  0
MTEXT
  5
1BF28
330
18D59
100
AcDbEntity
  8
30
  6
Continuous
440
 16777216
100
AcDbMText
 10
231.7672734369608
 20
213.2084916969876
 30
0.0
 40
8.0
 41
0.0
 46
0.0
 71
     2
 72
     1
  1
\A1;134
 11
0.0000000000000001
 21
1.0
 31
0.0
 73
     1
 44
1.0
 90
        3
 63
     9
421
 13158600
 45
1.25
441
        0
  0
POINT
  5
1BF29
330
18D59
100
AcDbEntity
  8
DEFPOINTS
  6
Continuous
 62
     0
440
 16777216
100
AcDbPoint
 10
131.7155037096745
 20
280.2084916969876
 30
0.0
  0
POINT
  5
1BF2A
330
18D59
100
AcDbEntity
  8
DEFPOINTS
  6
Continuous
 62
     0
440
 16777216
100
AcDbPoint
 10
131.7155037096745
 20
146.2084916969871
 30
0.0
  0
POINT
  5
1BF2B
330
18D59
100
AcDbEntity
  8
DEFPOINTS
  6
Continuous
 62
     0
440
 16777216
100
AcDbPoint
 10
242.7672734369608
 20
146.2084916969871
 30
0.0
  0
ENDBLK
  5
18D5B
330
18D59
100
AcDbEntity
  8
0
100
AcDbBlockEnd
  0
BLOCK
  5
18D66
330
18D65
100
AcDbEntity
  8
0
100
AcDbBlockBegin
  2
*D13
 70
     1
 10
0.0
 20
0.0
 30
0.0
  3
*D13
  1

  0
LINE
  5
1BF2C
330
18D65
100
AcDbEntity
  8
30
  6
Continuous
 62
     0
440
 16777216
370
    -2
100
AcDbLine
 10
199.7308993626748
 20
255.2084916969876
 30
0.0
 11
225.6371559492673
 21
255.2084916969876
 31
0.0
  0
LINE
  5
1BF2D
330
18D65
100
AcDbEntity
  8
30
  6
Continuous
 62
     0
440
 16777216
370
    -2
100
AcDbLine
 10
212.4666617691755
 20
171.2084916969875
 30
0.0
 11
225.6371559492673
 21
171.2084916969875
 31
0.0
  0
LINE
  5
1BF2E
330
18D65
100
AcDbEntity
  8
30
  6
Continuous
 62
     0
440
 16777216
370
    -2
100
AcDbLine
 10
225.1371559492673
 20
253.2084916969876
 30
0.0
 11
225.1371559492673
 21
173.2084916969876
 31
0.0
  0
INSERT
  5
1BF2F
330
18D65
100
AcDbEntity
  8
30
  6
Continuous
 62
     0
440
 16777216
370
    -2
100
AcDbBlockReference
  2
_OPEN
 10
225.1371559492673
 20
255.2084916969876
 30
0.0
 41
2.0
 42
2.0
 43
2.0
 50
90.0
  0
INSERT
  5
1BF30
330
18D65
100
AcDbEntity
  8
30
  6
Continuous
 62
     0
440
 16777216
370
    -2
100
AcDbBlockReference
  2
_OPEN
 10
225.1371559492673
 20
171.2084916969875
 30
0.0
 41
2.0
 42
2.0
 43
2.0
 50
270.0
  0
MTEXT
  5
1BF31
330
18D65
100
AcDbEntity
  8
30
  6
Continuous
440
 16777216
100
AcDbMText
 10
214.1371559492672
 20
213.2084916969876
 30
0.0
 40
8.0
 41
0.0
 46
0.0
 71
     2
 72
     1
  1
\A1;84
 11
0.0000000000000001
 21
1.0
 31
0.0
 73
     1
 44
1.0
 90
        3
 63
     9
421
 13158600
 45
1.25
441
        0
  0
POINT
  5
1BF32
330
18D65
100
AcDbEntity
  8
DEFPOINTS
  6
Continuous
 62
     0
440
 16777216
100
AcDbPoint
 10
198.7308993626746
 20
255.2084916969876
 30
0.0
  0
POINT
  5
1BF33
330
18D65
100
AcDbEntity
  8
DEFPOINTS
  6
Continuous
 62
     0
440
 16777216
100
AcDbPoint
 10
211.4666617691755
 20
171.2084916969875
 30
0.0
  0
POINT
  5
1BF34
330
18D65
100
AcDbEntity
  8
DEFPOINTS
  6
Continuous
 62
     0
440
 16777216
100
AcDbPoint
 10
225.1371559492673
 20
171.2084916969875
 30
0.0
  0
ENDBLK
  5
18D67
330
18D65
100
AcDbEntity
  8
0
100
AcDbBlockEnd
  0
BLOCK
  5
18D72
330
18D71
100
AcDbEntity
  8
0
100
AcDbBlockBegin
  2
*D14
 70
     1
 10
0.0
 20
0.0
 30
0.0
  3
*D14
  1

  0
LINE
  5
1BF35
330
18D71
100
AcDbEntity
  8
30
  6
Continuous
 62
     0
440
 16777216
370
    -2
100
AcDbLine
 10
132.7155037096745
 20
280.2084916969876
 30
0.0
 11
225.3871559492673
 21
280.2084916969876
 31
0.0
  0
LINE
  5
1BF36
330
18D71
100
AcDbEntity
  8
30
  6
Continuous
 62
     0
440
 16777216
370
    -2
100
AcDbLine
 10
199.7308993626748
 20
255.2084916969876
 30
0.0
 11
225.3871559492673
 21
255.2084916969876
 31
0.0
  0
LINE
  5
1BF37
330
18D71
100
AcDbEntity
  8
30
  6
Continuous
 62
     0
440
 16777216
370
    -2
100
AcDbLine
 10
224.8871559492673
 20
278.2084916969876
 30
0.0
 11
224.8871559492673
 21
257.2084916969876
 31
0.0
  0
INSERT
  5
1BF38
330
18D71
100
AcDbEntity
  8
30
  6
Continuous
 62
     0
440
 16777216
370
    -2
100
AcDbBlockReference
  2
_OPEN
 10
224.8871559492673
 20
280.2084916969876
 30
0.0
 41
2.0
 42
2.0
 43
2.0
 50
90.0
  0
INSERT
  5
1BF39
330
18D71
100
AcDbEntity
  8
30
  6
Continuous
 62
     0
440
 16777216
370
    -2
100
AcDbBlockReference
  2
_OPEN
 10
224.8871559492673
 20
255.2084916969876
 30
0.0
 41
2.0
 42
2.0
 43
2.0
 50
270.0
  0
MTEXT
  5
1BF3A
330
18D71
100
AcDbEntity
  8
30
  6
Continuous
440
 16777216
100
AcDbMText
 10
213.8871559492673
 20
267.7084916969885
 30
0.0
 40
8.0
 41
0.0
 46
0.0
 71
     2
 72
     1
  1
\A1;25
 11
0.0000000000000001
 21
1.0
 31
0.0
 73
     1
 44
1.0
 90
        3
 63
     9
421
 13158600
 45
1.25
441
        0
  0
POINT
  5
1BF3B
330
18D71
100
AcDbEntity
  8
DEFPOINTS
  6
Continuous
 62
     0
440
 16777216
100
AcDbPoint
 10
131.7155037096745
 20
280.2084916969876
 30
0.0
  0
POINT
  5
1BF3C
330
18D71
100
AcDbEntity
  8
DEFPOINTS
  6
Continuous
 62
     0
440
 16777216
100
AcDbPoint
 10
198.7308993626746
 20
255.2084916969876
 30
0.0
  0
POINT
  5
1BF3D
330
18D71
100
AcDbEntity
  8
DEFPOINTS
  6
Continuous
 62
     0
440
 16777216
100
AcDbPoint
 10
224.8871559492673
 20
255.2084916969876
 30
0.0
  0
ENDBLK
  5
18D73
330
18D71
100
AcDbEntity
  8
0
100
AcDbBlockEnd
  0
BLOCK
  5
18D7E
330
18D7D
100
AcDbEntity
  8
0
100
AcDbBlockBegin
  2
*D15
 70
     1
 10
0.0
 20
0.0
 30
0.0
  3
*D15
  1

  0
LINE
  5
1BF3E
330
18D7D
100
AcDbEntity
  8
30
  6
Continuous
 62
     0
440
 16777216
370
    -2
100
AcDbLine
 10
132.7155037096745
 20
146.2084916969871
 30
0.0
 11
225.3871559492673
 21
146.2084916969871
 31
0.0
  0
LINE
  5
1BF3F
330
18D7D
100
AcDbEntity
  8
30
  6
Continuous
 62
     0
440
 16777216
370
    -2
100
AcDbLine
 10
212.4666617691755
 20
171.2084916969875
 30
0.0
 11
225.3871559492673
 21
171.2084916969875
 31
0.0
  0
LINE
  5
1BF40
330
18D7D
100
AcDbEntity
  8
30
  6
Continuous
 62
     0
440
 16777216
370
    -2
100
AcDbLine
 10
224.8871559492673
 20
148.2084916969871
 30
0.0
 11
224.8871559492673
 21
169.2084916969875
 31
0.0
  0
INSERT
  5
1BF41
330
18D7D
100
AcDbEntity
  8
30
  6
Continuous
 62
     0
440
 16777216
370
    -2
100
AcDbBlockReference
  2
_OPEN
 10
224.8871559492673
 20
146.2084916969871
 30
0.0
 41
2.0
 42
2.0
 43
2.0
 50
270.0
  0
INSERT
  5
1BF42
330
18D7D
100
AcDbEntity
  8
30
  6
Continuous
 62
     0
440
 16777216
370
    -2
100
AcDbBlockReference
  2
_OPEN
 10
224.8871559492673
 20
171.2084916969875
 30
0.0
 41
2.0
 42
2.0
 43
2.0
 50
90.0
  0
MTEXT
  5
1BF43
330
18D7D
100
AcDbEntity
  8
30
  6
Continuous
440
 16777216
100
AcDbMText
 10
213.8871559492673
 20
158.7084916969885
 30
0.0
 40
8.0
 41
0.0
 46
0.0
 71
     2
 72
     1
  1
\A1;25
 11
0.0000000000000001
 21
1.0
 31
0.0
 73
     1
 44
1.0
 90
        3
 63
     9
421
 13158600
 45
1.25
441
        0
  0
POINT
  5
1BF44
330
18D7D
100
AcDbEntity
  8
DEFPOINTS
  6
Continuous
 62
     0
440
 16777216
100
AcDbPoint
 10
131.7155037096745
 20
146.2084916969871
 30
0.0
  0
POINT
  5
1BF45
330
18D7D
100
AcDbEntity
  8
DEFPOINTS
  6
Continuous
 62
     0
440
 16777216
100
AcDbPoint
 10
211.4666617691755
 20
171.2084916969875
 30
0.0
  0
POINT
  5
1BF46
330
18D7D
100
AcDbEntity
  8
DEFPOINTS
  6
Continuous
 62
     0
440
 16777216
100
AcDbPoint
 10
224.8871559492673
 20
171.2084916969875
 30
0.0
  0
ENDBLK
  5
18D7F
330
18D7D
100
AcDbEntity
  8
0
100
AcDbBlockEnd
  0
BLOCK
  5
18D8A
330
18D89
100
AcDbEntity
  8
0
100
AcDbBlockBegin
  2
*D16
 70
     1
 10
0.0
 20
0.0
 30
0.0
  3
*D16
  1

  0
LINE
  5
1C151
330
18D89
100
AcDbEntity
  8
30
  6
Continuous
 62
     0
440
 16777216
370
    -2
100
AcDbLine
 10
279.6949009205873
 20
933.3571432025181
 30
0.0
 11
279.6949009205873
 21
840.3370607417677
 31
0.0
  0
LINE
  5
1C152
330
18D89
100
AcDbEntity
  8
30
  6
Continuous
 62
     0
440
 16777216
370
    -2
100
AcDbLine
 10
326.6949009205863
 20
894.8571432025175
 30
0.0
 11
326.6949009205863
 21
840.3370607417677
 31
0.0
  0
LINE
  5
1C153
330
18D89
100
AcDbEntity
  8
30
  6
Continuous
 62
     0
440
 16777216
370
    -2
100
AcDbLine
 10
281.6949009205873
 20
840.8370607417676
 30
0.0
 11
324.6949009205863
 21
840.8370607417676
 31
0.0
  0
INSERT
  5
1C154
330
18D89
100
AcDbEntity
  8
30
  6
Continuous
 62
     0
440
 16777216
370
    -2
100
AcDbBlockReference
  2
_OPEN
 10
279.6949009205873
 20
840.8370607417676
 30
0.0
 41
2.0
 42
2.0
 43
2.0
 50
180.0
  0
INSERT
  5
1C155
330
18D89
100
AcDbEntity
  8
30
  6
Continuous
 62
     0
440
 16777216
370
    -2
100
AcDbBlockReference
  2
_OPEN
 10
326.6949009205863
 20
840.8370607417676
 30
0.0
 41
2.0
 42
2.0
 43
2.0
  0
MTEXT
  5
1C156
330
18D89
100
AcDbEntity
  8
30
  6
Continuous
440
 16777216
100
AcDbMText
 10
303.1949009205882
 20
851.8370607417676
 30
0.0
 40
8.0
 41
0.0
 46
0.0
 71
     2
 72
     1
  1
\A1;47
 73
     1
 44
1.0
 90
        3
 63
     9
421
 13158600
 45
1.25
441
        0
  0
POINT
  5
1C157
330
18D89
100
AcDbEntity
  8
DEFPOINTS
  6
Continuous
 62
     0
440
 16777216
100
AcDbPoint
 10
279.6949009205873
 20
934.357143202518
 30
0.0
  0
POINT
  5
1C158
330
18D89
100
AcDbEntity
  8
DEFPOINTS
  6
Continuous
 62
     0
440
 16777216
100
AcDbPoint
 10
326.6949009205863
 20
895.8571432025175
 30
0.0
  0
POINT
  5
1C159
330
18D89
100
AcDbEntity
  8
DEFPOINTS
  6
Continuous
 62
     0
440
 16777216
100
AcDbPoint
 10
326.6949009205863
 20
840.8370607417676
 30
0.0
  0
ENDBLK
  5
18D8B
330
18D89
100
AcDbEntity
  8
0
100
AcDbBlockEnd
  0
BLOCK
  5
18D96
330
18D95
100
AcDbEntity
  8
0
100
AcDbBlockBegin
  2
*D17
 70
     1
 10
0.0
 20
0.0
 30
0.0
  3
*D17
  1

  0
LINE
  5
1C148
330
18D95
100
AcDbEntity
  8
30
  6
Continuous
 62
     0
440
 16777216
370
    -2
100
AcDbLine
 10
326.6949009205863
 20
894.8571432025175
 30
0.0
 11
326.6949009205863
 21
840.3370607417677
 31
0.0
  0
LINE
  5
1C149
330
18D95
100
AcDbEntity
  8
30
  6
Continuous
 62
     0
440
 16777216
370
    -2
100
AcDbLine
 10
361.6949009205864
 20
902.1381432025179
 30
0.0
 11
361.6949009205864
 21
840.3370607417677
 31
0.0
  0
LINE
  5
1C14A
330
18D95
100
AcDbEntity
  8
30
  6
Continuous
 62
     0
440
 16777216
370
    -2
100
AcDbLine
 10
328.6949009205863
 20
840.8370607417676
 30
0.0
 11
359.6949009205864
 21
840.8370607417676
 31
0.0
  0
INSERT
  5
1C14B
330
18D95
100
AcDbEntity
  8
30
  6
Continuous
 62
     0
440
 16777216
370
    -2
100
AcDbBlockReference
  2
_OPEN
 10
326.6949009205863
 20
840.8370607417676
 30
0.0
 41
2.0
 42
2.0
 43
2.0
 50
180.0
  0
INSERT
  5
1C14C
330
18D95
100
AcDbEntity
  8
30
  6
Continuous
 62
     0
440
 16777216
370
    -2
100
AcDbBlockReference
  2
_OPEN
 10
361.6949009205864
 20
840.8370607417676
 30
0.0
 41
2.0
 42
2.0
 43
2.0
  0
MTEXT
  5
1C14D
330
18D95
100
AcDbEntity
  8
30
  6
Continuous
440
 16777216
100
AcDbMText
 10
344.2449009205867
 20
851.8370607417676
 30
0.0
 40
8.0
 41
0.0
 46
0.0
 71
     2
 72
     1
  1
\A1;35
 73
     1
 44
1.0
 90
        3
 63
     9
421
 13158600
 45
1.25
441
        0
  0
POINT
  5
1C14E
330
18D95
100
AcDbEntity
  8
DEFPOINTS
  6
Continuous
 62
     0
440
 16777216
100
AcDbPoint
 10
326.6949009205863
 20
895.8571432025175
 30
0.0
  0
POINT
  5
1C14F
330
18D95
100
AcDbEntity
  8
DEFPOINTS
  6
Continuous
 62
     0
440
 16777216
100
AcDbPoint
 10
361.6949009205864
 20
903.1381432025179
 30
0.0
  0
POINT
  5
1C150
330
18D95
100
AcDbEntity
  8
DEFPOINTS
  6
Continuous
 62
     0
440
 16777216
100
AcDbPoint
 10
361.6949009205864
 20
840.8370607417676
 30
0.0
  0
ENDBLK
  5
18D97
330
18D95
100
AcDbEntity
  8
0
100
AcDbBlockEnd
  0
BLOCK
  5
18DA2
330
18DA1
100
AcDbEntity
  8
0
100
AcDbBlockBegin
  2
*D18
 70
     1
 10
0.0
 20
0.0
 30
0.0
  3
*D18
  1

  0
LINE
  5
1C13E
330
18DA1
100
AcDbEntity
  8
30
  6
Continuous
 62
     0
440
 16777216
370
    -2
100
AcDbLine
 10
279.7949009205877
 20
980.3571432025179
 30
0.0
 11
279.7949009205877
 21
1001.470272910948
 31
0.0
  0
LINE
  5
1C13F
330
18DA1
100
AcDbEntity
  8
30
  6
Continuous
 62
     0
440
 16777216
370
    -2
100
AcDbLine
 10
299.1949009205864
 20
958.7371432025177
 30
0.0
 11
299.1949009205864
 21
1001.470272910948
 31
0.0
  0
LINE
  5
1C140
330
18DA1
100
AcDbEntity
  8
30
  6
Continuous
 62
     0
440
 16777216
370
    -2
100
AcDbLine
 10
281.7949009205877
 20
1000.970272910948
 30
0.0
 11
297.1949009205864
 21
1000.970272910948
 31
0.0
  0
LINE
  5
1C141
330
18DA1
100
AcDbEntity
  8
30
  6
Continuous
 62
     0
440
 16777216
370
    -2
100
AcDbLine
 10
299.1949009205864
 20
1000.970272910948
 30
0.0
 11
329.7525706317462
 21
1000.970272910948
 31
0.0
  0
INSERT
  5
1C142
330
18DA1
100
AcDbEntity
  8
30
  6
Continuous
 62
     0
440
 16777216
370
    -2
100
AcDbBlockReference
  2
_OPEN
 10
279.7949009205877
 20
1000.970272910948
 30
0.0
 41
2.0
 42
2.0
 43
2.0
 50
180.0
  0
INSERT
  5
1C143
330
18DA1
100
AcDbEntity
  8
30
  6
Continuous
 62
     0
440
 16777216
370
    -2
100
AcDbBlockReference
  2
_OPEN
 10
299.1949009205864
 20
1000.970272910948
 30
0.0
 41
2.0
 42
2.0
 43
2.0
  0
MTEXT
  5
1C144
330
18DA1
100
AcDbEntity
  8
30
  6
Continuous
440
 16777216
100
AcDbMText
 10
316.0859039650795
 20
1011.970272910948
 30
0.0
 40
8.0
 41
0.0
 46
0.0
 71
     2
 72
     1
  1
\A1;19.4
 73
     1
 44
1.0
 90
        3
 63
     9
421
 13158600
 45
1.25
441
        0
  0
POINT
  5
1C145
330
18DA1
100
AcDbEntity
  8
DEFPOINTS
  6
Continuous
 62
     0
440
 16777216
100
AcDbPoint
 10
279.7949009205877
 20
979.357143202518
 30
0.0
  0
POINT
  5
1C146
330
18DA1
100
AcDbEntity
  8
DEFPOINTS
  6
Continuous
 62
     0
440
 16777216
100
AcDbPoint
 10
299.1949009205864
 20
957.7371432025177
 30
0.0
  0
POINT
  5
1C147
330
18DA1
100
AcDbEntity
  8
DEFPOINTS
  6
Continuous
 62
     0
440
 16777216
100
AcDbPoint
 10
299.1949009205864
 20
1000.970272910948
 30
0.0
  0
ENDBLK
  5
18DA3
330
18DA1
100
AcDbEntity
  8
0
100
AcDbBlockEnd
  0
BLOCK
  5
18DAF
330
18DAE
100
AcDbEntity
  8
0
100
AcDbBlockBegin
  2
*D19
 70
     1
 10
0.0
 20
0.0
 30
0.0
  3
*D19
  1

  0
LINE
  5
1C15A
330
18DAE
100
AcDbEntity
  8
30
  6
Continuous
 62
     0
440
 16777216
370
    -2
100
AcDbLine
 10
256.7949009205868
 20
882.3571432025175
 30
0.0
 11
256.7949009205868
 21
840.3370607417677
 31
0.0
  0
LINE
  5
1C15B
330
18DAE
100
AcDbEntity
  8
30
  6
Continuous
 62
     0
440
 16777216
370
    -2
100
AcDbLine
 10
279.7949009205877
 20
933.3571432025181
 30
0.0
 11
279.7949009205877
 21
840.3370607417677
 31
0.0
  0
LINE
  5
1C15C
330
18DAE
100
AcDbEntity
  8
30
  6
Continuous
 62
     0
440
 16777216
370
    -2
100
AcDbLine
 10
258.7949009205868
 20
840.8370607417676
 30
0.0
 11
277.7949009205877
 21
840.8370607417676
 31
0.0
  0
INSERT
  5
1C15D
330
18DAE
100
AcDbEntity
  8
30
  6
Continuous
 62
     0
440
 16777216
370
    -2
100
AcDbBlockReference
  2
_OPEN
 10
256.7949009205868
 20
840.8370607417676
 30
0.0
 41
2.0
 42
2.0
 43
2.0
 50
180.0
  0
INSERT
  5
1C15E
330
18DAE
100
AcDbEntity
  8
30
  6
Continuous
 62
     0
440
 16777216
370
    -2
100
AcDbBlockReference
  2
_OPEN
 10
279.7949009205877
 20
840.8370607417676
 30
0.0
 41
2.0
 42
2.0
 43
2.0
  0
MTEXT
  5
1C15F
330
18DAE
100
AcDbEntity
  8
30
  6
Continuous
440
 16777216
100
AcDbMText
 10
268.1449009205862
 20
851.8370607417676
 30
0.0
 40
8.0
 41
0.0
 46
0.0
 71
     2
 72
     1
  1
\A1;23
 73
     1
 44
1.0
 90
        3
 63
     9
421
 13158600
 45
1.25
441
        0
  0
POINT
  5
1C160
330
18DAE
100
AcDbEntity
  8
DEFPOINTS
  6
Continuous
 62
     0
440
 16777216
100
AcDbPoint
 10
256.7949009205868
 20
883.3571432025175
 30
0.0
  0
POINT
  5
1C161
330
18DAE
100
AcDbEntity
  8
DEFPOINTS
  6
Continuous
 62
     0
440
 16777216
100
AcDbPoint
 10
279.7949009205877
 20
934.357143202518
 30
0.0
  0
POINT
  5
1C162
330
18DAE
100
AcDbEntity
  8
DEFPOINTS
  6
Continuous
 62
     0
440
 16777216
100
AcDbPoint
 10
279.7949009205877
 20
840.8370607417676
 30
0.0
  0
ENDBLK
  5
18DB0
330
18DAE
100
AcDbEntity
  8
0
100
AcDbBlockEnd
  0
BLOCK
  5
18DBB
330
18DBA
100
AcDbEntity
  8
0
100
AcDbBlockBegin
  2
*D20
 70
     1
 10
0.0
 20
0.0
 30
0.0
  3
*D20
  1

  0
LINE
  5
1C172
330
18DBA
100
AcDbEntity
  8
30
  6
Continuous
 62
     0
440
 16777216
370
    -2
100
AcDbLine
 10
227.5566949640315
 20
754.1512686303051
 30
0.0
 11
272.7971986032154
 21
754.151268630305
 31
0.0
  0
LINE
  5
1C173
330
18DBA
100
AcDbEntity
  8
30
  6
Continuous
 62
     0
440
 16777216
370
    -2
100
AcDbLine
 10
227.6980205785112
 20
494.1512686303052
 30
0.0
 11
272.7971986032153
 21
494.1512686303052
 31
0.0
  0
LINE
  5
1C174
330
18DBA
100
AcDbEntity
  8
30
  6
Continuous
 62
     0
440
 16777216
370
    -2
100
AcDbLine
 10
272.2971986032154
 20
752.151268630305
 30
0.0
 11
272.2971986032153
 21
496.151268630305
 31
0.0
  0
INSERT
  5
1C175
330
18DBA
100
AcDbEntity
  8
30
  6
Continuous
 62
     0
440
 16777216
370
    -2
100
AcDbBlockReference
  2
_OPEN
 10
272.2971986032154
 20
754.151268630305
 30
0.0
 41
2.0
 42
2.0
 43
2.0
 50
90.0
  0
INSERT
  5
1C176
330
18DBA
100
AcDbEntity
  8
30
  6
Continuous
 62
     0
440
 16777216
370
    -2
100
AcDbBlockReference
  2
_OPEN
 10
272.2971986032153
 20
494.1512686303052
 30
0.0
 41
2.0
 42
2.0
 43
2.0
 50
270.0
  0
MTEXT
  5
1C177
330
18DBA
100
AcDbEntity
  8
30
  6
Continuous
440
 16777216
100
AcDbMText
 10
261.2971986032153
 20
624.1512686303052
 30
0.0
 40
8.0
 41
0.0
 46
0.0
 71
     2
 72
     1
  1
\A1;260
 11
0.0000000000000001
 21
1.0
 31
0.0
 73
     1
 44
1.0
 90
        3
 63
     9
421
 13158600
 45
1.25
441
        0
  0
POINT
  5
1C178
330
18DBA
100
AcDbEntity
  8
DEFPOINTS
  6
Continuous
 62
     0
440
 16777216
100
AcDbPoint
 10
226.5566949640315
 20
754.1512686303051
 30
0.0
  0
POINT
  5
1C179
330
18DBA
100
AcDbEntity
  8
DEFPOINTS
  6
Continuous
 62
     0
440
 16777216
100
AcDbPoint
 10
226.6980205785112
 20
494.1512686303052
 30
0.0
  0
POINT
  5
1C17A
330
18DBA
100
AcDbEntity
  8
DEFPOINTS
  6
Continuous
 62
     0
440
 16777216
100
AcDbPoint
 10
272.2971986032153
 20
494.1512686303052
 30
0.0
  0
ENDBLK
  5
18DBC
330
18DBA
100
AcDbEntity
  8
0
100
AcDbBlockEnd
  0
BLOCK
  5
18DC7
330
18DC6
100
AcDbEntity
  8
0
100
AcDbBlockBegin
  2
*D21
 70
     1
 10
0.0
 20
0.0
 30
0.0
  3
*D21
  1

  0
LINE
  5
1BF75
330
18DC6
100
AcDbEntity
  8
30
  6
Continuous
 62
     0
440
 16777216
370
    -2
100
AcDbLine
 10
82.7023690589567
 20
546.1512686303048
 30
0.0
 11
82.7023690589567
 21
449.1393575224098
 31
0.0
  0
LINE
  5
1BF76
330
18DC6
100
AcDbEntity
  8
30
  6
Continuous
 62
     0
440
 16777216
370
    -2
100
AcDbLine
 10
230.7023690589576
 20
546.1512686303048
 30
0.0
 11
230.7023690589576
 21
449.1393575224098
 31
0.0
  0
LINE
  5
1BF77
330
18DC6
100
AcDbEntity
  8
30
  6
Continuous
 62
     0
440
 16777216
370
    -2
100
AcDbLine
 10
84.70236905895673
 20
449.6393575224097
 30
0.0
 11
228.7023690589576
 21
449.6393575224097
 31
0.0
  0
INSERT
  5
1BF78
330
18DC6
100
AcDbEntity
  8
30
  6
Continuous
 62
     0
440
 16777216
370
    -2
100
AcDbBlockReference
  2
_OPEN
 10
82.7023690589567
 20
449.6393575224097
 30
0.0
 41
2.0
 42
2.0
 43
2.0
 50
180.0
  0
INSERT
  5
1BF79
330
18DC6
100
AcDbEntity
  8
30
  6
Continuous
 62
     0
440
 16777216
370
    -2
100
AcDbBlockReference
  2
_OPEN
 10
230.7023690589576
 20
449.6393575224097
 30
0.0
 41
2.0
 42
2.0
 43
2.0
  0
MTEXT
  5
1BF7A
330
18DC6
100
AcDbEntity
  8
30
  6
Continuous
440
 16777216
100
AcDbMText
 10
156.7023690589567
 20
460.63935752241
 30
0.0
 40
8.0
 41
0.0
 46
0.0
 71
     2
 72
     1
  1
\A1;148
 73
     1
 44
1.0
 90
        3
 63
     9
421
 13158600
 45
1.25
441
        0
  0
POINT
  5
1BF7B
330
18DC6
100
AcDbEntity
  8
DEFPOINTS
  6
Continuous
 62
     0
440
 16777216
100
AcDbPoint
 10
82.7023690589567
 20
547.1512686303046
 30
0.0
  0
POINT
  5
1BF7C
330
18DC6
100
AcDbEntity
  8
DEFPOINTS
  6
Continuous
 62
     0
440
 16777216
100
AcDbPoint
 10
230.7023690589576
 20
547.1512686303046
 30
0.0
  0
POINT
  5
1BF7D
330
18DC6
100
AcDbEntity
  8
DEFPOINTS
  6
Continuous
 62
     0
440
 16777216
100
AcDbPoint
 10
230.7023690589576
 20
449.6393575224097
 30
0.0
  0
ENDBLK
  5
18DC8
330
18DC6
100
AcDbEntity
  8
0
100
AcDbBlockEnd
  0
BLOCK
  5
18E28
330
18E27
100
AcDbEntity
  8
0
100
AcDbBlockBegin
  2
*D22
 70
     1
 10
0.0
 20
0.0
 30
0.0
  3
*D22
  1

  0
LINE
  5
1BF7E
330
18E27
100
AcDbEntity
  8
30
  6
Continuous
 62
     0
440
 16777216
370
    -2
100
AcDbLine
 10
612.1393486133483
 20
738.7979441327371
 30
0.0
 11
635.5144178022502
 21
738.7979441327371
 31
0.0
  0
LINE
  5
1BF7F
330
18E27
100
AcDbEntity
  8
30
  6
Continuous
 62
     0
440
 16777216
370
    -2
100
AcDbLine
 10
612.1393486133483
 20
510.7979441327371
 30
0.0
 11
635.5144178022502
 21
510.7979441327371
 31
0.0
  0
LINE
  5
1BF80
330
18E27
100
AcDbEntity
  8
30
  6
Continuous
 62
     0
440
 16777216
370
    -2
100
AcDbLine
 10
635.0144178022502
 20
736.7979441327371
 30
0.0
 11
635.0144178022502
 21
512.7979441327371
 31
0.0
  0
INSERT
  5
1BF81
330
18E27
100
AcDbEntity
  8
30
  6
Continuous
 62
     0
440
 16777216
370
    -2
100
AcDbBlockReference
  2
_OPEN
 10
635.0144178022502
 20
738.7979441327371
 30
0.0
 41
2.0
 42
2.0
 43
2.0
 50
90.0
  0
INSERT
  5
1BF82
330
18E27
100
AcDbEntity
  8
30
  6
Continuous
 62
     0
440
 16777216
370
    -2
100
AcDbBlockReference
  2
_OPEN
 10
635.0144178022502
 20
510.7979441327371
 30
0.0
 41
2.0
 42
2.0
 43
2.0
 50
270.0
  0
MTEXT
  5
1BF83
330
18E27
100
AcDbEntity
  8
30
  6
Continuous
440
 16777216
100
AcDbMText
 10
624.0144178022501
 20
624.7979441327363
 30
0.0
 40
8.0
 41
0.0
 46
0.0
 71
     2
 72
     1
  1
\A1;228
 11
0.0000000000000001
 21
1.0
 31
0.0
 73
     1
 44
1.0
 90
        3
 63
     9
421
 13158600
 45
1.25
441
        0
  0
POINT
  5
1BF84
330
18E27
100
AcDbEntity
  8
DEFPOINTS
  6
Continuous
 62
     0
440
 16777216
100
AcDbPoint
 10
611.1393486133484
 20
738.7979441327371
 30
0.0
  0
POINT
  5
1BF85
330
18E27
100
AcDbEntity
  8
DEFPOINTS
  6
Continuous
 62
     0
440
 16777216
100
AcDbPoint
 10
611.1393486133484
 20
510.7979441327371
 30
0.0
  0
POINT
  5
1BF86
330
18E27
100
AcDbEntity
  8
DEFPOINTS
  6
Continuous
 62
     0
440
 16777216
100
AcDbPoint
 10
635.0144178022502
 20
510.7979441327371
 30
0.0
  0
ENDBLK
  5
18E29
330
18E27
100
AcDbEntity
  8
0
100
AcDbBlockEnd
  0
BLOCK
  5
18E34
330
18E33
100
AcDbEntity
  8
0
100
AcDbBlockBegin
  2
*D23
 70
     1
 10
0.0
 20
0.0
 30
0.0
  3
*D23
  1

  0
LINE
  5
1BF87
330
18E33
100
AcDbEntity
  8
30
  6
Continuous
 62
     0
440
 16777216
370
    -2
100
AcDbLine
 10
594.4393486133484
 20
764.4599720697366
 30
0.0
 11
656.2827948882495
 21
764.4599720697366
 31
0.0
  0
LINE
  5
1BF88
330
18E33
100
AcDbEntity
  8
30
  6
Continuous
 62
     0
440
 16777216
370
    -2
100
AcDbLine
 10
594.4393486133484
 20
482.4599720697371
 30
0.0
 11
656.2827948882495
 21
482.459972069737
 31
0.0
  0
LINE
  5
1BF89
330
18E33
100
AcDbEntity
  8
30
  6
Continuous
 62
     0
440
 16777216
370
    -2
100
AcDbLine
 10
655.7827948882495
 20
762.4599720697366
 30
0.0
 11
655.7827948882495
 21
484.459972069737
 31
0.0
  0
INSERT
  5
1BF8A
330
18E33
100
AcDbEntity
  8
30
  6
Continuous
 62
     0
440
 16777216
370
    -2
100
AcDbBlockReference
  2
_OPEN
 10
655.7827948882495
 20
764.4599720697366
 30
0.0
 41
2.0
 42
2.0
 43
2.0
 50
90.0
  0
INSERT
  5
1BF8B
330
18E33
100
AcDbEntity
  8
30
  6
Continuous
 62
     0
440
 16777216
370
    -2
100
AcDbBlockReference
  2
_OPEN
 10
655.7827948882495
 20
482.459972069737
 30
0.0
 41
2.0
 42
2.0
 43
2.0
 50
270.0
  0
MTEXT
  5
1BF8C
330
18E33
100
AcDbEntity
  8
30
  6
Continuous
440
 16777216
100
AcDbMText
 10
644.7827948882495
 20
623.4599720697371
 30
0.0
 40
8.0
 41
0.0
 46
0.0
 71
     2
 72
     1
  1
\A1;282
 11
0.0000000000000001
 21
1.0
 31
0.0
 73
     1
 44
1.0
 90
        3
 63
     9
421
 13158600
 45
1.25
441
        0
  0
POINT
  5
1BF8D
330
18E33
100
AcDbEntity
  8
DEFPOINTS
  6
Continuous
 62
     0
440
 16777216
100
AcDbPoint
 10
593.4393486133484
 20
764.4599720697366
 30
0.0
  0
POINT
  5
1BF8E
330
18E33
100
AcDbEntity
  8
DEFPOINTS
  6
Continuous
 62
     0
440
 16777216
100
AcDbPoint
 10
593.4393486133484
 20
482.4599720697371
 30
0.0
  0
POINT
  5
1BF8F
330
18E33
100
AcDbEntity
  8
DEFPOINTS
  6
Continuous
 62
     0
440
 16777216
100
AcDbPoint
 10
655.7827948882495
 20
482.459972069737
 30
0.0
  0
ENDBLK
  5
18E35
330
18E33
100
AcDbEntity
  8
0
100
AcDbBlockEnd
  0
BLOCK
  5
18E59
330
18E58
100
AcDbEntity
  8
0
100
AcDbBlockBegin
  2
*D24
 70
     1
 10
0.0
 20
0.0
 30
0.0
  3
*D24
  1

  0
LINE
  5
1BF90
330
18E58
100
AcDbEntity
  8
30
  6
Continuous
 62
     0
440
 16777216
370
    -2
100
AcDbLine
 10
434.5515901331808
 20
259.2084916969876
 30
0.0
 11
477.5353358878565
 21
259.2084916969876
 31
0.0
  0
LINE
  5
1BF91
330
18E58
100
AcDbEntity
  8
30
  6
Continuous
 62
     0
440
 16777216
370
    -2
100
AcDbLine
 10
434.5515901331808
 20
167.2084916969875
 30
0.0
 11
477.5353358878565
 21
167.2084916969874
 31
0.0
  0
LINE
  5
1BF92
330
18E58
100
AcDbEntity
  8
30
  6
Continuous
 62
     0
440
 16777216
370
    -2
100
AcDbLine
 10
477.0353358878565
 20
257.2084916969876
 30
0.0
 11
477.0353358878565
 21
169.2084916969874
 31
0.0
  0
INSERT
  5
1BF93
330
18E58
100
AcDbEntity
  8
30
  6
Continuous
 62
     0
440
 16777216
370
    -2
100
AcDbBlockReference
  2
_OPEN
 10
477.0353358878565
 20
259.2084916969876
 30
0.0
 41
2.0
 42
2.0
 43
2.0
 50
90.0
  0
INSERT
  5
1BF94
330
18E58
100
AcDbEntity
  8
30
  6
Continuous
 62
     0
440
 16777216
370
    -2
100
AcDbBlockReference
  2
_OPEN
 10
477.0353358878565
 20
167.2084916969874
 30
0.0
 41
2.0
 42
2.0
 43
2.0
 50
270.0
  0
MTEXT
  5
1BF95
330
18E58
100
AcDbEntity
  8
30
  6
Continuous
440
 16777216
100
AcDbMText
 10
470.0353358878563
 20
213.2084916969876
 30
0.0
 40
8.0
 41
0.0
 46
0.0
 71
     5
 72
     1
  1
\A1;92
 11
0.0000000000000001
 21
1.0
 31
0.0
 73
     1
 44
1.0
 90
        3
 63
     9
421
 13158600
 45
1.25
441
        0
  0
POINT
  5
1BF96
330
18E58
100
AcDbEntity
  8
DEFPOINTS
  6
Continuous
 62
     0
440
 16777216
100
AcDbPoint
 10
433.551590133181
 20
259.2084916969876
 30
0.0
  0
POINT
  5
1BF97
330
18E58
100
AcDbEntity
  8
DEFPOINTS
  6
Continuous
 62
     0
440
 16777216
100
AcDbPoint
 10
433.551590133181
 20
167.2084916969875
 30
0.0
  0
POINT
  5
1BF98
330
18E58
100
AcDbEntity
  8
DEFPOINTS
  6
Continuous
 62
     0
440
 16777216
100
AcDbPoint
 10
477.0353358878565
 20
167.2084916969874
 30
0.0
  0
ENDBLK
  5
18E5A
330
18E58
100
AcDbEntity
  8
0
100
AcDbBlockEnd
  0
BLOCK
  5
18E65
330
18E64
100
AcDbEntity
  8
0
100
AcDbBlockBegin
  2
*D25
 70
     1
 10
0.0
 20
0.0
 30
0.0
  3
*D25
  1

  0
LINE
  5
1C1A6
330
18E64
100
AcDbEntity
  8
30
  6
Continuous
 62
     0
440
 16777216
370
    -2
100
AcDbLine
 10
544.6790910958394
 20
168.2084916969875
 30
0.0
 11
544.6790910958394
 21
43.60413780339968
 31
0.0
  0
LINE
  5
1C1A7
330
18E64
100
AcDbEntity
  8
30
  6
Continuous
 62
     0
440
 16777216
370
    -2
100
AcDbLine
 10
597.6790910958404
 20
168.2084916969875
 30
0.0
 11
597.6790910958404
 21
43.60413780339968
 31
0.0
  0
LINE
  5
1C1A8
330
18E64
100
AcDbEntity
  8
30
  6
Continuous
 62
     0
440
 16777216
370
    -2
100
AcDbLine
 10
546.6790910958394
 20
44.10413780339967
 30
0.0
 11
595.6790910958403
 21
44.10413780339967
 31
0.0
  0
INSERT
  5
1C1A9
330
18E64
100
AcDbEntity
  8
30
  6
Continuous
 62
     0
440
 16777216
370
    -2
100
AcDbBlockReference
  2
_OPEN
 10
544.6790910958394
 20
44.10413780339967
 30
0.0
 41
2.0
 42
2.0
 43
2.0
 50
180.0
  0
INSERT
  5
1C1AA
330
18E64
100
AcDbEntity
  8
30
  6
Continuous
 62
     0
440
 16777216
370
    -2
100
AcDbBlockReference
  2
_OPEN
 10
597.6790910958404
 20
44.10413780339967
 30
0.0
 41
2.0
 42
2.0
 43
2.0
  0
MTEXT
  5
1C1AB
330
18E64
100
AcDbEntity
  8
30
  6
Continuous
440
 16777216
100
AcDbMText
 10
574.64767535184
 20
55.10413780339968
 30
0.0
 40
8.0
 41
0.0
 46
0.0
 71
     2
 72
     1
  1
\A1;53
 73
     1
 44
1.0
 90
        3
 63
     9
421
 13158600
 45
1.25
441
        0
  0
POINT
  5
1C1AC
330
18E64
100
AcDbEntity
  8
DEFPOINTS
  6
Continuous
 62
     0
440
 16777216
100
AcDbPoint
 10
544.6790910958394
 20
169.2084916969875
 30
0.0
  0
POINT
  5
1C1AD
330
18E64
100
AcDbEntity
  8
DEFPOINTS
  6
Continuous
 62
     0
440
 16777216
100
AcDbPoint
 10
597.6790910958404
 20
169.2084916969875
 30
0.0
  0
POINT
  5
1C1AE
330
18E64
100
AcDbEntity
  8
DEFPOINTS
  6
Continuous
 62
     0
440
 16777216
100
AcDbPoint
 10
597.6790910958404
 20
44.10413780339967
 30
0.0
  0
ENDBLK
  5
18E66
330
18E64
100
AcDbEntity
  8
0
100
AcDbBlockEnd
  0
BLOCK
  5
18E7B
330
18E7A
100
AcDbEntity
  8
0
100
AcDbBlockBegin
  2
*D26
 70
     1
 10
0.0
 20
0.0
 30
0.0
  3
*D26
  1

  0
LINE
  5
1BFA2
330
18E7A
100
AcDbEntity
  8
30
  6
Continuous
 62
     0
440
 16777216
370
    -2
100
AcDbLine
 10
596.6790910958398
 20
259.2084916969876
 30
0.0
 11
675.5864428694077
 21
259.2084916969875
 31
0.0
  0
LINE
  5
1BFA3
330
18E7A
100
AcDbEntity
  8
30
  6
Continuous
 62
     0
440
 16777216
370
    -2
100
AcDbLine
 10
596.6790910958398
 20
167.2084916969875
 30
0.0
 11
675.5864428694076
 21
167.2084916969875
 31
0.0
  0
LINE
  5
1BFA4
330
18E7A
100
AcDbEntity
  8
30
  6
Continuous
 62
     0
440
 16777216
370
    -2
100
AcDbLine
 10
675.0864428694077
 20
257.2084916969875
 30
0.0
 11
675.0864428694076
 21
169.2084916969875
 31
0.0
  0
INSERT
  5
1BFA5
330
18E7A
100
AcDbEntity
  8
30
  6
Continuous
 62
     0
440
 16777216
370
    -2
100
AcDbBlockReference
  2
_OPEN
 10
675.0864428694077
 20
259.2084916969875
 30
0.0
 41
2.0
 42
2.0
 43
2.0
 50
90.0
  0
INSERT
  5
1BFA6
330
18E7A
100
AcDbEntity
  8
30
  6
Continuous
 62
     0
440
 16777216
370
    -2
100
AcDbBlockReference
  2
_OPEN
 10
675.0864428694076
 20
167.2084916969875
 30
0.0
 41
2.0
 42
2.0
 43
2.0
 50
270.0
  0
MTEXT
  5
1BFA7
330
18E7A
100
AcDbEntity
  8
30
  6
Continuous
440
 16777216
100
AcDbMText
 10
668.0864428694076
 20
213.2084916969876
 30
0.0
 40
8.0
 41
0.0
 46
0.0
 71
     5
 72
     1
  1
\A1;92
 11
0.0000000000000001
 21
1.0
 31
0.0
 73
     1
 44
1.0
 90
        3
 63
     9
421
 13158600
 45
1.25
441
        0
  0
POINT
  5
1BFA8
330
18E7A
100
AcDbEntity
  8
DEFPOINTS
  6
Continuous
 62
     0
440
 16777216
100
AcDbPoint
 10
595.6790910958398
 20
259.2084916969876
 30
0.0
  0
POINT
  5
1BFA9
330
18E7A
100
AcDbEntity
  8
DEFPOINTS
  6
Continuous
 62
     0
440
 16777216
100
AcDbPoint
 10
595.6790910958398
 20
167.2084916969875
 30
0.0
  0
POINT
  5
1BFAA
330
18E7A
100
AcDbEntity
  8
DEFPOINTS
  6
Continuous
 62
     0
440
 16777216
100
AcDbPoint
 10
675.0864428694076
 20
167.2084916969875
 30
0.0
  0
ENDBLK
  5
18E7C
330
18E7A
100
AcDbEntity
  8
0
100
AcDbBlockEnd
  0
BLOCK
  5
19772
330
19771
100
AcDbEntity
  8
0
100
AcDbBlockBegin
  2
*D27
 70
     1
 10
0.0
 20
0.0
 30
0.0
  3
*D27
  1

  0
LINE
  5
1BFAB
330
19771
100
AcDbEntity
  8
30
  6
Continuous
 62
     0
440
 16777216
370
    -2
100
AcDbLine
 10
436.0516283050301
 20
260.1450567627678
 30
0.0
 11
456.6522696750573
 21
289.0276378786751
 31
0.0
  0
LINE
  5
1BFAC
330
19771
100
AcDbEntity
  8
30
  6
Continuous
 62
     0
440
 16777216
370
    -2
100
AcDbLine
 10
456.6522696750573
 20
289.0276378786751
 30
0.0
 11
472.9856030083906
 21
289.0276378786751
 31
0.0
  0
LINE
  5
1BFAD
330
19771
100
AcDbEntity
  8
30
  6
Continuous
 62
     0
440
 16777216
370
    -2
100
AcDbLine
 10
433.7288989481366
 20
256.888535868307
 30
0.0
 11
434.8902636266354
 21
258.5167963156105
 31
0.0
  0
INSERT
  5
1BFAE
330
19771
100
AcDbEntity
  8
30
  6
Continuous
 62
     0
440
 16777216
370
    -2
100
AcDbBlockReference
  2
_OPEN
 10
434.8902636266354
 20
258.5167963156105
 30
0.0
 41
2.0
 42
2.0
 43
2.0
 50
234.501450934811
  0
MTEXT
  5
1BFAF
330
19771
100
AcDbEntity
  8
30
  6
Continuous
 62
     0
440
 16777216
100
AcDbMText
 10
459.6522696750573
 20
300.027637878675
 30
0.0
 40
8.0
 41
0.0
 46
0.0
 71
     1
 72
     1
  1
\A1;R2
 73
     1
 44
1.0
  0
POINT
  5
1BFB0
330
19771
100
AcDbEntity
  8
DEFPOINTS
  6
Continuous
 62
     0
440
 16777216
100
AcDbPoint
 10
434.8902636266354
 20
258.5167963156105
 30
0.0
  0
POINT
  5
1BFB1
330
19771
100
AcDbEntity
  8
DEFPOINTS
  6
Continuous
 62
     0
440
 16777216
100
AcDbPoint
 10
433.7288989481366
 20
256.888535868307
 30
0.0
  0
ENDBLK
  5
19773
330
19771
100
AcDbEntity
  8
0
100
AcDbBlockEnd
  0
BLOCK
  5
19821
330
19820
100
AcDbEntity
  8
0
100
AcDbBlockBegin
  2
*D28
 70
     1
 10
0.0
 20
0.0
 30
0.0
  3
*D28
  1

  0
LINE
  5
1BFB2
330
19820
100
AcDbEntity
  8
30
  6
Continuous
 62
     0
440
 16777216
370
    -2
100
AcDbLine
 10
598.1791292676875
 20
260.1450567627688
 30
0.0
 11
618.7797706377144
 21
289.0276378786753
 31
0.0
  0
LINE
  5
1BFB3
330
19820
100
AcDbEntity
  8
30
  6
Continuous
 62
     0
440
 16777216
370
    -2
100
AcDbLine
 10
618.7797706377144
 20
289.0276378786753
 30
0.0
 11
635.1131039710477
 21
289.0276378786753
 31
0.0
  0
LINE
  5
1BFB4
330
19820
100
AcDbEntity
  8
30
  6
Continuous
 62
     0
440
 16777216
370
    -2
100
AcDbLine
 10
595.8563999107935
 20
256.8885358683079
 30
0.0
 11
597.0177645892927
 21
258.5167963156115
 31
0.0
  0
INSERT
  5
1BFB5
330
19820
100
AcDbEntity
  8
30
  6
Continuous
 62
     0
440
 16777216
370
    -2
100
AcDbBlockReference
  2
_OPEN
 10
597.0177645892927
 20
258.5167963156115
 30
0.0
 41
2.0
 42
2.0
 43
2.0
 50
234.5014509348104
  0
MTEXT
  5
1BFB6
330
19820
100
AcDbEntity
  8
30
  6
Continuous
 62
     0
440
 16777216
100
AcDbMText
 10
621.7797706377132
 20
300.0276378786759
 30
0.0
 40
8.0
 41
0.0
 46
0.0
 71
     1
 72
     1
  1
\A1;R2
 73
     1
 44
1.0
  0
POINT
  5
1BFB7
330
19820
100
AcDbEntity
  8
DEFPOINTS
  6
Continuous
 62
     0
440
 16777216
100
AcDbPoint
 10
597.0177645892927
 20
258.5167963156115
 30
0.0
  0
POINT
  5
1BFB8
330
19820
100
AcDbEntity
  8
DEFPOINTS
  6
Continuous
 62
     0
440
 16777216
100
AcDbPoint
 10
595.8563999107935
 20
256.8885358683079
 30
0.0
  0
ENDBLK
  5
19822
330
19820
100
AcDbEntity
  8
0
100
AcDbBlockEnd
  0
BLOCK
  5
1A0D9
330
1A0D8
100
AcDbEntity
  8
0
100
AcDbBlockBegin
  2
*D29
 70
     1
 10
0.0
 20
0.0
 30
0.0
  3
*D29
  1

  0
LINE
  5
1BFB9
330
1A0D8
100
AcDbEntity
  8
30
  6
Continuous
 62
     0
440
 16777216
370
    -2
100
AcDbLine
 10
383.9393504013488
 20
669.7979441327365
 30
0.0
 11
326.441442513753
 21
669.7979441327365
 31
0.0
  0
LINE
  5
1BFBA
330
1A0D8
100
AcDbEntity
  8
30
  6
Continuous
 62
     0
440
 16777216
370
    -2
100
AcDbLine
 10
376.2256137859332
 20
579.7979441327367
 30
0.0
 11
326.441442513753
 21
579.7979441327367
 31
0.0
  0
LINE
  5
1BFBB
330
1A0D8
100
AcDbEntity
  8
30
  6
Continuous
 62
     0
440
 16777216
370
    -2
100
AcDbLine
 10
326.941442513753
 20
667.7979441327367
 30
0.0
 11
326.941442513753
 21
581.7979441327365
 31
0.0
  0
INSERT
  5
1BFBC
330
1A0D8
100
AcDbEntity
  8
30
  6
Continuous
 62
     0
440
 16777216
370
    -2
100
AcDbBlockReference
  2
_OPEN
 10
326.941442513753
 20
669.7979441327365
 30
0.0
 41
2.0
 42
2.0
 43
2.0
 50
90.0
  0
INSERT
  5
1BFBD
330
1A0D8
100
AcDbEntity
  8
30
  6
Continuous
 62
     0
440
 16777216
370
    -2
100
AcDbBlockReference
  2
_OPEN
 10
326.941442513753
 20
579.7979441327367
 30
0.0
 41
2.0
 42
2.0
 43
2.0
 50
270.0
  0
MTEXT
  5
1BFBE
330
1A0D8
100
AcDbEntity
  8
30
  6
Continuous
440
 16777216
100
AcDbMText
 10
319.9414425137529
 20
624.7979441327369
 30
0.0
 40
8.0
 41
0.0
 46
0.0
 71
     5
 72
     1
  1
\A1;90
 11
0.0000000000000001
 21
1.0
 31
0.0
 73
     1
 44
1.0
 90
        3
 63
     9
421
 13158600
 45
1.25
441
        0
  0
POINT
  5
1BFBF
330
1A0D8
100
AcDbEntity
  8
DEFPOINTS
  6
Continuous
 62
     0
440
 16777216
100
AcDbPoint
 10
384.9393504013487
 20
669.7979441327365
 30
0.0
  0
POINT
  5
1BFC0
330
1A0D8
100
AcDbEntity
  8
DEFPOINTS
  6
Continuous
 62
     0
440
 16777216
100
AcDbPoint
 10
377.2256137859332
 20
579.7979441327367
 30
0.0
  0
POINT
  5
1BFC1
330
1A0D8
100
AcDbEntity
  8
DEFPOINTS
  6
Continuous
 62
     0
440
 16777216
100
AcDbPoint
 10
326.941442513753
 20
579.7979441327367
 30
0.0
  0
ENDBLK
  5
1A0DA
330
1A0D8
100
AcDbEntity
  8
0
100
AcDbBlockEnd
  0
BLOCK
  5
1A0E5
330
1A0E4
100
AcDbEntity
  8
0
100
AcDbBlockBegin
  2
*D30
 70
     1
 10
0.0
 20
0.0
 30
0.0
  3
*D30
  1

  0
LINE
  5
1BFC2
330
1A0E4
100
AcDbEntity
  8
30
 62
     0
370
    -2
100
AcDbLine
 10
400.4393486133484
 20
716.7560557849114
 30
0.0
 11
307.6553947976464
 21
716.7560557849114
 31
0.0
  0
LINE
  5
1BFC3
330
1A0E4
100
AcDbEntity
  8
30
 62
     0
370
    -2
100
AcDbLine
 10
400.4393486133484
 20
532.7979439537362
 30
0.0
 11
307.6553947976463
 21
532.7979439537362
 31
0.0
  0
LINE
  5
1BFC4
330
1A0E4
100
AcDbEntity
  8
30
 62
     0
370
    -2
100
AcDbLine
 10
308.1553947976463
 20
714.7560557849111
 30
0.0
 11
308.1553947976463
 21
534.7979439537363
 31
0.0
  0
INSERT
  5
1BFC5
330
1A0E4
100
AcDbEntity
  8
30
 62
     0
370
    -2
100
AcDbBlockReference
  2
_OPEN
 10
308.1553947976463
 20
716.7560557849114
 30
0.0
 41
2.0
 42
2.0
 43
2.0
 50
90.0
  0
INSERT
  5
1BFC6
330
1A0E4
100
AcDbEntity
  8
30
 62
     0
370
    -2
100
AcDbBlockReference
  2
_OPEN
 10
308.1553947976463
 20
532.7979439537362
 30
0.0
 41
2.0
 42
2.0
 43
2.0
 50
270.0
  0
MTEXT
  5
1BFC7
330
1A0E4
100
AcDbEntity
  8
30
100
AcDbMText
 10
301.1553947976462
 20
624.776999869324
 30
0.0
 40
8.0
 41
0.0
 46
0.0
 71
     5
 72
     1
  1
\A1;184
 11
0.0000000000000001
 21
1.0
 31
0.0
 73
     1
 44
1.0
 90
        3
 63
     9
421
 13158600
 45
1.25
441
        0
  0
POINT
  5
1BFC8
330
1A0E4
100
AcDbEntity
  8
DEFPOINTS
 62
     0
100
AcDbPoint
 10
401.4393486133483
 20
716.7560557849114
 30
0.0
  0
POINT
  5
1BFC9
330
1A0E4
100
AcDbEntity
  8
DEFPOINTS
 62
     0
100
AcDbPoint
 10
401.4393486133483
 20
532.7979439537362
 30
0.0
  0
POINT
  5
1BFCA
330
1A0E4
100
AcDbEntity
  8
DEFPOINTS
 62
     0
100
AcDbPoint
 10
308.1553947976463
 20
532.7979439537362
 30
0.0
  0
ENDBLK
  5
1A0E6
330
1A0E4
100
AcDbEntity
  8
0
100
AcDbBlockEnd
  0
BLOCK
  5
1A618
330
1A617
100
AcDbEntity
  8
0
100
AcDbBlockBegin
  2
*D31
 70
     1
 10
0.0
 20
0.0
 30
0.0
  3
*D31
  1

  0
LINE
  5
1BFCB
330
1A617
100
AcDbEntity
  8
30
 62
     0
440
 16777216
370
    -2
100
AcDbLine
 10
401.4393486133483
 20
755.7979441327367
 30
0.0
 11
401.4393486133483
 21
783.5000000000001
 31
0.0
  0
LINE
  5
1BFCC
330
1A617
100
AcDbEntity
  8
30
 62
     0
440
 16777216
370
    -2
100
AcDbLine
 10
521.4393486133476
 20
711.4599720697371
 30
0.0
 11
521.4393486133476
 21
783.5000000000001
 31
0.0
  0
LINE
  5
1BFCD
330
1A617
100
AcDbEntity
  8
30
 62
     0
440
 16777216
370
    -2
100
AcDbLine
 10
403.4393486133486
 20
783.0
 30
0.0
 11
519.4393486133476
 21
783.0
 31
0.0
  0
INSERT
  5
1BFCE
330
1A617
100
AcDbEntity
  8
30
 62
     0
440
 16777216
370
    -2
100
AcDbBlockReference
  2
_OPEN
 10
401.4393486133483
 20
783.0
 30
0.0
 41
2.0
 42
2.0
 43
2.0
 50
180.0
  0
INSERT
  5
1BFCF
330
1A617
100
AcDbEntity
  8
30
 62
     0
440
 16777216
370
    -2
100
AcDbBlockReference
  2
_OPEN
 10
521.4393486133476
 20
783.0
 30
0.0
 41
2.0
 42
2.0
 43
2.0
  0
MTEXT
  5
1BFD0
330
1A617
100
AcDbEntity
  8
30
440
 16777216
100
AcDbMText
 10
461.4393486133478
 20
790.0000000000001
 30
0.0
 40
8.0
 41
0.0
 46
0.0
 71
     5
 72
     1
  1
\A1;120
 73
     1
 44
1.0
 90
        3
 63
     9
421
 13158600
 45
1.25
441
        0
  0
POINT
  5
1BFD1
330
1A617
100
AcDbEntity
  8
DEFPOINTS
 62
     0
440
 16777216
100
AcDbPoint
 10
401.4393486133483
 20
754.7979441327368
 30
0.0
  0
POINT
  5
1BFD2
330
1A617
100
AcDbEntity
  8
DEFPOINTS
 62
     0
440
 16777216
100
AcDbPoint
 10
521.4393486133476
 20
710.4599720697371
 30
0.0
  0
POINT
  5
1BFD3
330
1A617
100
AcDbEntity
  8
DEFPOINTS
 62
     0
440
 16777216
100
AcDbPoint
 10
521.4393486133476
 20
783.0
 30
0.0
  0
ENDBLK
  5
1A619
330
1A617
100
AcDbEntity
  8
0
100
AcDbBlockEnd
  0
BLOCK
  5
1A62E
330
1A62D
100
AcDbEntity
  8
0
100
AcDbBlockBegin
  2
*D32
 70
     1
 10
0.0
 20
0.0
 30
0.0
  3
*D32
  1

  0
LINE
  5
1BFD4
330
1A62D
100
AcDbEntity
  8
30
 62
     0
440
 16777216
370
    -2
100
AcDbLine
 10
521.4393486133476
 20
765.4599720697366
 30
0.0
 11
521.4393486133476
 21
783.5000000000001
 31
0.0
  0
LINE
  5
1BFD5
330
1A62D
100
AcDbEntity
  8
30
 62
     0
440
 16777216
370
    -2
100
AcDbLine
 10
593.4393486133484
 20
765.4599720697366
 30
0.0
 11
593.4393486133484
 21
783.5000000000001
 31
0.0
  0
LINE
  5
1BFD6
330
1A62D
100
AcDbEntity
  8
30
 62
     0
440
 16777216
370
    -2
100
AcDbLine
 10
523.4393486133476
 20
783.0
 30
0.0
 11
591.4393486133484
 21
783.0
 31
0.0
  0
INSERT
  5
1BFD7
330
1A62D
100
AcDbEntity
  8
30
 62
     0
440
 16777216
370
    -2
100
AcDbBlockReference
  2
_OPEN
 10
521.4393486133476
 20
783.0
 30
0.0
 41
2.0
 42
2.0
 43
2.0
 50
180.0
  0
INSERT
  5
1BFD8
330
1A62D
100
AcDbEntity
  8
30
 62
     0
440
 16777216
370
    -2
100
AcDbBlockReference
  2
_OPEN
 10
593.4393486133484
 20
783.0
 30
0.0
 41
2.0
 42
2.0
 43
2.0
  0
MTEXT
  5
1BFD9
330
1A62D
100
AcDbEntity
  8
30
440
 16777216
100
AcDbMText
 10
557.4393486133478
 20
790.0000000000001
 30
0.0
 40
8.0
 41
0.0
 46
0.0
 71
     5
 72
     1
  1
\A1;72
 73
     1
 44
1.0
 90
        3
 63
     9
421
 13158600
 45
1.25
441
        0
  0
POINT
  5
1BFDA
330
1A62D
100
AcDbEntity
  8
DEFPOINTS
 62
     0
440
 16777216
100
AcDbPoint
 10
521.4393486133476
 20
764.4599720697366
 30
0.0
  0
POINT
  5
1BFDB
330
1A62D
100
AcDbEntity
  8
DEFPOINTS
 62
     0
440
 16777216
100
AcDbPoint
 10
593.4393486133484
 20
764.4599720697366
 30
0.0
  0
POINT
  5
1BFDC
330
1A62D
100
AcDbEntity
  8
DEFPOINTS
 62
     0
440
 16777216
100
AcDbPoint
 10
593.4393486133484
 20
783.0
 30
0.0
  0
ENDBLK
  5
1A62F
330
1A62D
100
AcDbEntity
  8
0
100
AcDbBlockEnd
  0
BLOCK
  5
1A63B
330
1A63A
100
AcDbEntity
  8
0
100
AcDbBlockBegin
  2
*D33
 70
     1
 10
0.0
 20
0.0
 30
0.0
  3
*D33
  1

  0
LINE
  5
1BFDD
330
1A63A
100
AcDbEntity
  8
30
 62
     0
440
 16777216
370
    -2
100
AcDbLine
 10
593.4393486133484
 20
745.0000000000001
 30
0.0
 11
593.4393486133484
 21
783.5000000000001
 31
0.0
  0
LINE
  5
1BFDE
330
1A63A
100
AcDbEntity
  8
30
 62
     0
440
 16777216
370
    -2
100
AcDbLine
 10
603.4393486133486
 20
744.0000000000001
 30
0.0
 11
603.4393486133486
 21
783.5000000000001
 31
0.0
  0
LINE
  5
1BFDF
330
1A63A
100
AcDbEntity
  8
30
 62
     0
440
 16777216
370
    -2
100
AcDbLine
 10
595.4393486133484
 20
783.0
 30
0.0
 11
601.4393486133484
 21
783.0
 31
0.0
  0
LINE
  5
1BFE0
330
1A63A
100
AcDbEntity
  8
30
 62
     0
440
 16777216
370
    -2
100
AcDbLine
 10
603.4393486133486
 20
783.0
 30
0.0
 11
620.7726819466819
 21
783.0
 31
0.0
  0
INSERT
  5
1BFE1
330
1A63A
100
AcDbEntity
  8
30
 62
     0
440
 16777216
370
    -2
100
AcDbBlockReference
  2
_OPEN
 10
593.4393486133484
 20
783.0
 30
0.0
 41
2.0
 42
2.0
 43
2.0
 50
180.0
  0
INSERT
  5
1BFE2
330
1A63A
100
AcDbEntity
  8
30
 62
     0
440
 16777216
370
    -2
100
AcDbBlockReference
  2
_OPEN
 10
603.4393486133486
 20
783.0
 30
0.0
 41
2.0
 42
2.0
 43
2.0
  0
MTEXT
  5
1BFE3
330
1A63A
100
AcDbEntity
  8
30
440
 16777216
100
AcDbMText
 10
613.106015280015
 20
790.0000000000001
 30
0.0
 40
8.0
 41
0.0
 46
0.0
 71
     5
 72
     1
  1
\A1;10
 73
     1
 44
1.0
 90
        3
 63
     9
421
 13158600
 45
1.25
441
        0
  0
POINT
  5
1BFE4
330
1A63A
100
AcDbEntity
  8
DEFPOINTS
 62
     0
440
 16777216
100
AcDbPoint
 10
593.4393486133484
 20
744.0000000000001
 30
0.0
  0
POINT
  5
1BFE5
330
1A63A
100
AcDbEntity
  8
DEFPOINTS
 62
     0
440
 16777216
100
AcDbPoint
 10
603.4393486133486
 20
743.0000000000001
 30
0.0
  0
POINT
  5
1BFE6
330
1A63A
100
AcDbEntity
  8
DEFPOINTS
 62
     0
440
 16777216
100
AcDbPoint
 10
603.4393486133486
 20
783.0
 30
0.0
  0
ENDBLK
  5
1A63C
330
1A63A
100
AcDbEntity
  8
0
100
AcDbBlockEnd
  0
BLOCK
  5
1A665
330
1A664
100
AcDbEntity
  8
0
100
AcDbBlockBegin
  2
*D34
 70
     1
 10
0.0
 20
0.0
 30
0.0
  3
*D34
  1

  0
LINE
  5
1C0F1
330
1A664
100
AcDbEntity
  8
30
  6
Continuous
 62
     0
440
 16777216
370
    -2
100
AcDbLine
 10
368.4393486133485
 20
626.3040468552543
 30
0.0
 11
368.4393486133485
 21
428.2578705074192
 31
0.0
  0
LINE
  5
1C0F2
330
1A664
100
AcDbEntity
  8
30
  6
Continuous
 62
     0
440
 16777216
370
    -2
100
AcDbLine
 10
521.4393486133476
 20
443.5584632444616
 30
0.0
 11
521.4393486133476
 21
428.2578705074192
 31
0.0
  0
LINE
  5
1C0F3
330
1A664
100
AcDbEntity
  8
30
  6
Continuous
 62
     0
440
 16777216
370
    -2
100
AcDbLine
 10
370.4393486133485
 20
428.7578705074192
 30
0.0
 11
519.4393486133476
 21
428.7578705074192
 31
0.0
  0
INSERT
  5
1C0F4
330
1A664
100
AcDbEntity
  8
30
  6
Continuous
 62
     0
440
 16777216
370
    -2
100
AcDbBlockReference
  2
_OPEN
 10
368.4393486133485
 20
428.7578705074192
 30
0.0
 41
2.0
 42
2.0
 43
2.0
 50
180.0
  0
INSERT
  5
1C0F5
330
1A664
100
AcDbEntity
  8
30
  6
Continuous
 62
     0
440
 16777216
370
    -2
100
AcDbBlockReference
  2
_OPEN
 10
521.4393486133476
 20
428.7578705074192
 30
0.0
 41
2.0
 42
2.0
 43
2.0
  0
MTEXT
  5
1C0F6
330
1A664
100
AcDbEntity
  8
30
  6
Continuous
440
 16777216
100
AcDbMText
 10
442.6971498845558
 20
439.7578705074193
 30
0.0
 40
8.0
 41
0.0
 46
0.0
 71
     2
 72
     1
  1
\A1;153
 73
     1
 44
1.0
 90
        3
 63
     9
421
 13158600
 45
1.25
441
        0
  0
POINT
  5
1C0F7
330
1A664
100
AcDbEntity
  8
DEFPOINTS
  6
Continuous
 62
     0
440
 16777216
100
AcDbPoint
 10
368.4393486133485
 20
627.3040468552543
 30
0.0
  0
POINT
  5
1C0F8
330
1A664
100
AcDbEntity
  8
DEFPOINTS
  6
Continuous
 62
     0
440
 16777216
100
AcDbPoint
 10
521.4393486133476
 20
444.5584632444615
 30
0.0
  0
POINT
  5
1C0F9
330
1A664
100
AcDbEntity
  8
DEFPOINTS
  6
Continuous
 62
     0
440
 16777216
100
AcDbPoint
 10
521.4393486133476
 20
428.7578705074192
 30
0.0
  0
ENDBLK
  5
1A666
330
1A664
100
AcDbEntity
  8
0
100
AcDbBlockEnd
  0
BLOCK
  5
1A671
330
1A670
100
AcDbEntity
  8
0
100
AcDbBlockBegin
  2
*D35
 70
     1
 10
0.0
 20
0.0
 30
0.0
  3
*D35
  1

  0
LINE
  5
1C083
330
1A670
100
AcDbEntity
  8
30
  6
Continuous
 62
     0
440
 16777216
370
    -2
100
AcDbLine
 10
395.4393486133485
 20
543.6305395012798
 30
0.0
 11
395.4393486133485
 21
460.2979441327367
 31
0.0
  0
LINE
  5
1C084
330
1A670
100
AcDbEntity
  8
30
  6
Continuous
 62
     0
440
 16777216
370
    -2
100
AcDbLine
 10
521.4393486133476
 20
481.4599720697371
 30
0.0
 11
521.4393486133476
 21
460.2979441327367
 31
0.0
  0
LINE
  5
1C085
330
1A670
100
AcDbEntity
  8
30
  6
Continuous
 62
     0
440
 16777216
370
    -2
100
AcDbLine
 10
397.4393486133486
 20
460.7979441327366
 30
0.0
 11
519.4393486133476
 21
460.7979441327366
 31
0.0
  0
INSERT
  5
1C086
330
1A670
100
AcDbEntity
  8
30
  6
Continuous
 62
     0
440
 16777216
370
    -2
100
AcDbBlockReference
  2
_OPEN
 10
395.4393486133485
 20
460.7979441327366
 30
0.0
 41
2.0
 42
2.0
 43
2.0
 50
180.0
  0
INSERT
  5
1C087
330
1A670
100
AcDbEntity
  8
30
  6
Continuous
 62
     0
440
 16777216
370
    -2
100
AcDbBlockReference
  2
_OPEN
 10
521.4393486133476
 20
460.7979441327366
 30
0.0
 41
2.0
 42
2.0
 43
2.0
  0
MTEXT
  5
1C088
330
1A670
100
AcDbEntity
  8
30
  6
Continuous
440
 16777216
100
AcDbMText
 10
458.4393486133481
 20
471.7979441327367
 30
0.0
 40
8.0
 41
0.0
 46
0.0
 71
     2
 72
     1
  1
\A1;126
 73
     1
 44
1.0
 90
        3
 63
     9
421
 13158600
 45
1.25
441
        0
  0
POINT
  5
1C089
330
1A670
100
AcDbEntity
  8
DEFPOINTS
  6
Continuous
 62
     0
440
 16777216
100
AcDbPoint
 10
395.4393486133485
 20
544.6305395012798
 30
0.0
  0
POINT
  5
1C08A
330
1A670
100
AcDbEntity
  8
DEFPOINTS
  6
Continuous
 62
     0
440
 16777216
100
AcDbPoint
 10
521.4393486133476
 20
482.4599720697371
 30
0.0
  0
POINT
  5
1C08B
330
1A670
100
AcDbEntity
  8
DEFPOINTS
  6
Continuous
 62
     0
440
 16777216
100
AcDbPoint
 10
521.4393486133476
 20
460.7979441327366
 30
0.0
  0
ENDBLK
  5
1A672
330
1A670
100
AcDbEntity
  8
0
100
AcDbBlockEnd
  0
BLOCK
  5
1A67D
330
1A67C
100
AcDbEntity
  8
0
100
AcDbBlockBegin
  2
*D36
 70
     1
 10
0.0
 20
0.0
 30
0.0
  3
*D36
  1

  0
LINE
  5
1C0DF
330
1A67C
100
AcDbEntity
  8
30
  6
Continuous
 62
     0
440
 16777216
370
    -2
100
AcDbLine
 10
347.4458528438336
 20
636.3040468552543
 30
0.0
 11
347.4458528438336
 21
410.5571533250057
 31
0.0
  0
LINE
  5
1C0E0
330
1A67C
100
AcDbEntity
  8
30
  6
Continuous
 62
     0
440
 16777216
370
    -2
100
AcDbLine
 10
521.4393486133476
 20
427.7578705074192
 30
0.0
 11
521.4393486133476
 21
410.5571533250057
 31
0.0
  0
LINE
  5
1C0E1
330
1A67C
100
AcDbEntity
  8
30
  6
Continuous
 62
     0
440
 16777216
370
    -2
100
AcDbLine
 10
349.4458528438336
 20
411.0571533250057
 30
0.0
 11
519.4393486133476
 21
411.0571533250057
 31
0.0
  0
INSERT
  5
1C0E2
330
1A67C
100
AcDbEntity
  8
30
  6
Continuous
 62
     0
440
 16777216
370
    -2
100
AcDbBlockReference
  2
_OPEN
 10
347.4458528438336
 20
411.0571533250057
 30
0.0
 41
2.0
 42
2.0
 43
2.0
 50
180.0
  0
INSERT
  5
1C0E3
330
1A67C
100
AcDbEntity
  8
30
  6
Continuous
 62
     0
440
 16777216
370
    -2
100
AcDbBlockReference
  2
_OPEN
 10
521.4393486133476
 20
411.0571533250057
 30
0.0
 41
2.0
 42
2.0
 43
2.0
  0
MTEXT
  5
1C0E4
330
1A67C
100
AcDbEntity
  8
30
  6
Continuous
440
 16777216
100
AcDbMText
 10
433.3761009025256
 20
418.0571533250057
 30
0.0
 40
8.0
 41
0.0
 46
0.0
 71
     5
 72
     1
  1
\A1;174
 73
     1
 44
1.0
 90
        3
 63
     9
421
 13158600
 45
1.25
441
        0
  0
POINT
  5
1C0E5
330
1A67C
100
AcDbEntity
  8
DEFPOINTS
  6
Continuous
 62
     0
440
 16777216
100
AcDbPoint
 10
347.4458528438336
 20
637.3040468552543
 30
0.0
  0
POINT
  5
1C0E6
330
1A67C
100
AcDbEntity
  8
DEFPOINTS
  6
Continuous
 62
     0
440
 16777216
100
AcDbPoint
 10
521.4393486133476
 20
428.7578705074192
 30
0.0
  0
POINT
  5
1C0E7
330
1A67C
100
AcDbEntity
  8
DEFPOINTS
  6
Continuous
 62
     0
440
 16777216
100
AcDbPoint
 10
521.4393486133476
 20
411.0571533250057
 30
0.0
  0
ENDBLK
  5
1A67E
330
1A67C
100
AcDbEntity
  8
0
100
AcDbBlockEnd
  0
BLOCK
  5
1A689
330
1A688
100
AcDbEntity
  8
0
100
AcDbBlockBegin
  2
*D37
 70
     1
 10
0.0
 20
0.0
 30
0.0
  3
*D37
  1

  0
LINE
  5
1C002
330
1A688
100
AcDbEntity
  8
30
  6
Continuous
 62
     0
440
 16777216
370
    -2
100
AcDbLine
 10
391.4393484943484
 20
571.3040468552543
 30
0.0
 11
391.4393484943484
 21
444.0584632444616
 31
0.0
  0
LINE
  5
1C003
330
1A688
100
AcDbEntity
  8
30
  6
Continuous
 62
     0
440
 16777216
370
    -2
100
AcDbLine
 10
383.4393484943484
 20
571.3040468552543
 30
0.0
 11
383.4393484943484
 21
444.0584632444616
 31
0.0
  0
LINE
  5
1C004
330
1A688
100
AcDbEntity
  8
30
  6
Continuous
 62
     0
440
 16777216
370
    -2
100
AcDbLine
 10
393.4393484943484
 20
444.5584632444615
 30
0.0
 11
395.4393484943484
 21
444.5584632444615
 31
0.0
  0
LINE
  5
1C005
330
1A688
100
AcDbEntity
  8
30
  6
Continuous
 62
     0
440
 16777216
370
    -2
100
AcDbLine
 10
381.4393484943484
 20
444.5584632444615
 30
0.0
 11
368.1060151610151
 21
444.5584632444615
 31
0.0
  0
LINE
  5
1C006
330
1A688
100
AcDbEntity
  8
30
  6
Continuous
 62
     0
440
 16777216
370
    -2
100
AcDbLine
 10
391.4393484943484
 20
444.5584632444615
 30
0.0
 11
383.4393484943484
 21
444.5584632444615
 31
0.0
  0
INSERT
  5
1C007
330
1A688
100
AcDbEntity
  8
30
  6
Continuous
 62
     0
440
 16777216
370
    -2
100
AcDbBlockReference
  2
_OPEN
 10
391.4393484943484
 20
444.5584632444615
 30
0.0
 41
2.0
 42
2.0
 43
2.0
 50
180.0
  0
INSERT
  5
1C008
330
1A688
100
AcDbEntity
  8
30
  6
Continuous
 62
     0
440
 16777216
370
    -2
100
AcDbBlockReference
  2
_OPEN
 10
383.4393484943484
 20
444.5584632444615
 30
0.0
 41
2.0
 42
2.0
 43
2.0
  0
MTEXT
  5
1C009
330
1A688
100
AcDbEntity
  8
30
  6
Continuous
 62
     0
440
 16777216
100
AcDbMText
 10
373.7726818276818
 20
451.5584632444617
 30
0.0
 40
8.0
 41
0.0
 46
0.0
 71
     5
 72
     1
  1
\A1;8
 73
     1
 44
1.0
  0
POINT
  5
1C00A
330
1A688
100
AcDbEntity
  8
DEFPOINTS
  6
Continuous
 62
     0
440
 16777216
100
AcDbPoint
 10
391.4393484943484
 20
574.3040468552543
 30
0.0
  0
POINT
  5
1C00B
330
1A688
100
AcDbEntity
  8
DEFPOINTS
  6
Continuous
 62
     0
440
 16777216
100
AcDbPoint
 10
383.4393484943484
 20
574.3040468552543
 30
0.0
  0
POINT
  5
1C00C
330
1A688
100
AcDbEntity
  8
DEFPOINTS
  6
Continuous
 62
     0
440
 16777216
100
AcDbPoint
 10
383.4393484943484
 20
444.5584632444615
 30
0.0
  0
ENDBLK
  5
1A68A
330
1A688
100
AcDbEntity
  8
0
100
AcDbBlockEnd
  0
BLOCK
  5
1A697
330
1A696
100
AcDbEntity
  8
0
100
AcDbBlockBegin
  2
*D38
 70
     1
 10
0.0
 20
0.0
 30
0.0
  3
*D38
  1

  0
LINE
  5
1C03B
330
1A696
100
AcDbEntity
  8
30
  6
Continuous
 62
     0
440
 16777216
370
    -2
100
AcDbLine
 10
391.4393484943484
 20
445.5584632444616
 30
0.0
 11
391.4393484943484
 21
445.0584632444614
 31
0.0
  0
LINE
  5
1C03C
330
1A696
100
AcDbEntity
  8
30
  6
Continuous
 62
     0
440
 16777216
370
    -2
100
AcDbLine
 10
521.4393486133476
 20
459.7979441327367
 30
0.0
 11
521.4393486133476
 21
444.0584632444616
 31
0.0
  0
LINE
  5
1C03D
330
1A696
100
AcDbEntity
  8
30
  6
Continuous
 62
     0
440
 16777216
370
    -2
100
AcDbLine
 10
393.4393484943484
 20
444.5584632444615
 30
0.0
 11
519.4393486133476
 21
444.5584632444615
 31
0.0
  0
INSERT
  5
1C03E
330
1A696
100
AcDbEntity
  8
30
  6
Continuous
 62
     0
440
 16777216
370
    -2
100
AcDbBlockReference
  2
_OPEN
 10
391.4393484943484
 20
444.5584632444615
 30
0.0
 41
2.0
 42
2.0
 43
2.0
 50
180.0
  0
INSERT
  5
1C03F
330
1A696
100
AcDbEntity
  8
30
  6
Continuous
 62
     0
440
 16777216
370
    -2
100
AcDbBlockReference
  2
_OPEN
 10
521.4393486133476
 20
444.5584632444615
 30
0.0
 41
2.0
 42
2.0
 43
2.0
  0
MTEXT
  5
1C040
330
1A696
100
AcDbEntity
  8
30
  6
Continuous
440
 16777216
100
AcDbMText
 10
456.439348553848
 20
451.5584632444617
 30
0.0
 40
8.0
 41
0.0
 46
0.0
 71
     5
 72
     1
  1
\A1;130
 73
     1
 44
1.0
 90
        3
 63
     9
421
 13158600
 45
1.25
441
        0
  0
POINT
  5
1C041
330
1A696
100
AcDbEntity
  8
DEFPOINTS
  6
Continuous
 62
     0
440
 16777216
100
AcDbPoint
 10
391.4393484943484
 20
444.5584632444615
 30
0.0
  0
POINT
  5
1C042
330
1A696
100
AcDbEntity
  8
DEFPOINTS
  6
Continuous
 62
     0
440
 16777216
100
AcDbPoint
 10
521.4393486133476
 20
460.7979441327366
 30
0.0
  0
POINT
  5
1C043
330
1A696
100
AcDbEntity
  8
DEFPOINTS
  6
Continuous
 62
     0
440
 16777216
100
AcDbPoint
 10
521.4393486133476
 20
444.5584632444615
 30
0.0
  0
ENDBLK
  5
1A698
330
1A696
100
AcDbEntity
  8
0
100
AcDbBlockEnd
  0
BLOCK
  5
1A790
330
1A78F
100
AcDbEntity
  8
0
100
AcDbBlockBegin
  2
*D39
 70
     1
 10
0.0
 20
0.0
 30
0.0
  3
*D39
  1

  0
LINE
  5
1C169
330
1A78F
100
AcDbEntity
  8
30
 62
     0
440
 16777216
370
    -2
100
AcDbLine
 10
203.4523690589567
 20
765.1512686303058
 30
0.0
 11
293.993679542813
 21
765.1512686303058
 31
0.0
  0
LINE
  5
1C16A
330
1A78F
100
AcDbEntity
  8
30
 62
     0
440
 16777216
370
    -2
100
AcDbLine
 10
203.4523690589567
 20
483.1512686303049
 30
0.0
 11
293.993679542813
 21
483.1512686303049
 31
0.0
  0
LINE
  5
1C16B
330
1A78F
100
AcDbEntity
  8
30
 62
     0
440
 16777216
370
    -2
100
AcDbLine
 10
293.493679542813
 20
763.1512686303056
 30
0.0
 11
293.493679542813
 21
485.1512686303051
 31
0.0
  0
INSERT
  5
1C16C
330
1A78F
100
AcDbEntity
  8
30
 62
     0
440
 16777216
370
    -2
100
AcDbBlockReference
  2
_OPEN
 10
293.493679542813
 20
765.1512686303058
 30
0.0
 41
2.0
 42
2.0
 43
2.0
 50
90.0
  0
INSERT
  5
1C16D
330
1A78F
100
AcDbEntity
  8
30
 62
     0
440
 16777216
370
    -2
100
AcDbBlockReference
  2
_OPEN
 10
293.493679542813
 20
483.1512686303049
 30
0.0
 41
2.0
 42
2.0
 43
2.0
 50
270.0
  0
MTEXT
  5
1C16E
330
1A78F
100
AcDbEntity
  8
30
440
 16777216
100
AcDbMText
 10
286.4936795428128
 20
624.1512686303053
 30
0.0
 40
8.0
 41
0.0
 46
0.0
 71
     5
 72
     1
  1
\A1;282
 11
0.0000000000000001
 21
1.0
 31
0.0
 73
     1
 44
1.0
 90
        3
 63
     9
421
 13158600
 45
1.25
441
        0
  0
POINT
  5
1C16F
330
1A78F
100
AcDbEntity
  8
DEFPOINTS
 62
     0
440
 16777216
100
AcDbPoint
 10
202.4523690589567
 20
765.1512686303058
 30
0.0
  0
POINT
  5
1C170
330
1A78F
100
AcDbEntity
  8
DEFPOINTS
 62
     0
440
 16777216
100
AcDbPoint
 10
202.4523690589567
 20
483.1512686303049
 30
0.0
  0
POINT
  5
1C171
330
1A78F
100
AcDbEntity
  8
DEFPOINTS
 62
     0
440
 16777216
100
AcDbPoint
 10
293.493679542813
 20
483.1512686303049
 30
0.0
  0
ENDBLK
  5
1A791
330
1A78F
100
AcDbEntity
  8
0
100
AcDbBlockEnd
  0
BLOCK
  5
1C180
330
1C17F
100
AcDbEntity
  8
0
100
AcDbBlockBegin
  2
*D40
 70
     1
 10
0.0
 20
0.0
 30
0.0
  3
*D40
  1

  0
LINE
  5
1C182
330
1C17F
100
AcDbEntity
  8
30
 62
     0
440
 16777216
370
    -2
100
AcDbLine
 10
610.5666537344204
 20
737.4599720697371
 30
0.0
 11
631.0234394231573
 21
737.4599720697371
 31
0.0
  0
LINE
  5
1C183
330
1C17F
100
AcDbEntity
  8
30
 62
     0
440
 16777216
370
    -2
100
AcDbLine
 10
610.5666537344204
 20
509.459972069737
 30
0.0
 11
631.0234394231573
 21
509.459972069737
 31
0.0
  0
LINE
  5
1C184
330
1C17F
100
AcDbEntity
  8
30
 62
     0
440
 16777216
370
    -2
100
AcDbLine
 10
630.5234394231574
 20
735.4599720697371
 30
0.0
 11
630.5234394231574
 21
511.4599720697371
 31
0.0
  0
INSERT
  5
1C185
330
1C17F
100
AcDbEntity
  8
30
 62
     0
440
 16777216
370
    -2
100
AcDbBlockReference
  2
_OPEN
 10
630.5234394231574
 20
737.4599720697371
 30
0.0
 41
2.0
 42
2.0
 43
2.0
 50
90.0
  0
INSERT
  5
1C186
330
1C17F
100
AcDbEntity
  8
30
 62
     0
440
 16777216
370
    -2
100
AcDbBlockReference
  2
_OPEN
 10
630.5234394231574
 20
509.459972069737
 30
0.0
 41
2.0
 42
2.0
 43
2.0
 50
270.0
  0
MTEXT
  5
1C187
330
1C17F
100
AcDbEntity
  8
30
440
 16777216
100
AcDbMText
 10
623.5234394231572
 20
623.4599720697372
 30
0.0
 40
8.0
 41
0.0
 46
0.0
 71
     5
 72
     1
  1
\A1;228
 11
0.0000000000000001
 21
1.0
 31
0.0
 73
     1
 44
1.0
 90
        3
 63
     9
421
 13158600
 45
1.25
441
        0
  0
POINT
  5
1C188
330
1C17F
100
AcDbEntity
  8
DEFPOINTS
 62
     0
440
 16777216
100
AcDbPoint
 10
609.5666537344205
 20
737.4599720697371
 30
0.0
  0
POINT
  5
1C189
330
1C17F
100
AcDbEntity
  8
DEFPOINTS
 62
     0
440
 16777216
100
AcDbPoint
 10
609.5666537344205
 20
509.459972069737
 30
0.0
  0
POINT
  5
1C18A
330
1C17F
100
AcDbEntity
  8
DEFPOINTS
 62
     0
440
 16777216
100
AcDbPoint
 10
630.5234394231574
 20
509.459972069737
 30
0.0
  0
ENDBLK
  5
1C181
330
1C17F
100
AcDbEntity
  8
0
100
AcDbBlockEnd
  0
ENDSEC
  0
SECTION
  2
ENTITIES
  0
LWPOLYLINE
  5
18BD4
330
1E
100
AcDbEntity
  8
10
380
     2
100
AcDbPolyline
 90
        4
 70
     1
 43
0.0
 10
700.0
 20
0.0
 10
700.0
 20
1088.0
 10
0.0
 20
1088.0
 10
0.0
 20
0.0
  0
LINE
  5
18BD6
330
1E
100
AcDbEntity
  8
16
 48
2.0
100
AcDbLine
 10
242.0165006211546
 20
624.1512686303052
 30
0.0
 11
72.10816554146369
 21
624.1512686303052
 31
0.0
  0
LWPOLYLINE
  5
18BD7
330
1E
100
AcDbEntity
  8
16
 48
2.0
100
AcDbPolyline
 90
        2
 70
     0
 43
0.0
 10
101.7155037096745
 20
58.03004195759149
 10
101.7155037096745
 20
365.7664518924776
  0
MTEXT
  5
18BD8
330
1E
100
AcDbEntity
  8
19
  6
Continuous
100
AcDbMText
 10
468.5189369948099
 20
1042.151268630305
 30
0.0
 40
10.0
 41
195.047048615319
 46
0.0
 71
     1
 72
     5
  1
PS400-CF 3P PMC\PPS400-NF 3P PMC\PPS400-GF 3P PMC\PPS400-NE 3P PMC\PPS400-GE 3P PMC\PPH400-CF 3P PMC\PPH400-CE 3P PMC\PPS630-CF 3P PMC\PPS630-NF 3P PMC\PPS630-GF 3P PMC\PPH630-CF 3P PMC
  7
STANDARD1
 73
     1
 44
1.0
  0
INSERT
  5
18BE6
330
1E
100
AcDbEntity
  8
30
100
AcDbBlockReference
  2
*U8
 10
-1102.787922032162
 20
-115.6978198844341
 30
0.0
 41
2.5
 42
2.5
 43
2.5
  0
TEXT
  5
18BE7
330
1E
100
AcDbEntity
  8
30
100
AcDbText
 10
207.6584101750332
 20
74.05238349941953
 30
0.0
 40
8.0
  1
Mounting plate
 41
0.7125304878048843
  7
UGMTXT
100
AcDbText
  0
LINE
  5
18BE8
330
1E
100
AcDbEntity
  8
16
 48
2.0
100
AcDbLine
 10
376.551590133181
 20
371.8438371979964
 30
0.0
 11
376.551590133181
 21
62.07466506904893
 31
0.0
  0
LINE
  5
18BE9
330
1E
100
AcDbEntity
  8
16
 48
2.0
100
AcDbLine
 10
289.1665401989239
 20
213.2084916969876
 30
0.0
 11
458.0892877475807
 21
213.2084916969876
 31
0.0
  0
LWPOLYLINE
  5
18BEA
330
1E
100
AcDbEntity
  8
18
 48
2.0
100
AcDbPolyline
 90
       12
 70
     1
 43
0.0
 10
306.551590133181
 20
290.2084916969876
 10
306.551590133181
 20
354.2084916969876
 10
446.5515901331809
 20
354.2084916969876
 10
446.5515901331809
 20
290.2084916969876
 10
450.5515901331818
 20
290.2084916969876
 10
450.5515901331818
 20
136.2084916969871
 10
446.5515901331809
 20
136.2084916969871
 10
446.5515901331809
 20
72.20849169698761
 10
306.551590133181
 20
72.20849169698761
 10
306.551590133181
 20
136.2084916969871
 10
302.551590133181
 20
136.2084916969871
 10
302.551590133181
 20
290.2084916969876
  0
LWPOLYLINE
  5
18BEB
330
1E
100
AcDbEntity
  8
11
100
AcDbPolyline
 90
        8
 70
     1
 43
0.0
 10
317.551590133181
 20
257.2084916969876
 10
317.5515901331819
 20
169.2084916969875
 42
0.4142135623730951
 10
319.5515901331819
 20
167.2084916969876
 10
433.551590133181
 20
167.2084916969875
 42
0.4142135623730951
 10
435.5515901331818
 20
169.2084916969875
 10
435.5515901331808
 20
257.2084916969876
 42
0.4142135623730951
 10
433.551590133181
 20
259.2084916969876
 10
319.5515901331819
 20
259.2084916969876
 42
0.4142135623730951
  0
DIMENSION
  5
18BEC
330
1E
100
AcDbEntity
  8
30
  6
Continuous
100
AcDbDimension
280
     0
  2
*D9
 10
435.5515901331818
 20
44.04314909775258
 30
0.0
 11
380.0201743891812
 21
44.04314909775258
 31
0.0
 70
   160
  1
<>
 71
     2
 42
118.0000000000008
 73
     0
 74
     0
 75
     0
  3
STANDARD
100
AcDbAlignedDimension
 13
317.551590133181
 23
169.2084916969875
 33
0.0
 14
435.5515901331818
 24
169.2084916969875
 34
0.0
100
AcDbRotatedDimension
  0
LWPOLYLINE
  5
18BEE
330
1E
100
AcDbEntity
  8
18
 48
2.0
100
AcDbPolyline
 90
       12
 70
     0
 43
0.0
 10
31.96550370967452
 20
72.20849169698761
 10
31.71550370967452
 20
136.2084916969871
 10
17.540417516675
 20
136.2084916969871
 10
17.540417516675
 20
290.2084916969876
 10
31.71550370967452
 20
290.2084916969876
 10
31.71550370967452
 20
354.2084916969876
 10
171.7155037096745
 20
354.2084916969876
 10
171.7155037096745
 20
290.2084916969876
 10
176.7141478036756
 20
290.2084916969876
 10
176.7141478036756
 20
136.2084916969871
 10
171.7155037096745
 20
136.2084916969871
 10
171.9655037096745
 20
72.20849169698761
  0
LINE
  5
18BEF
330
1E
100
AcDbEntity
  8
12
 48
2.0
100
AcDbLine
 10
17.53985271995407
 20
295.2084916969876
 30
0.0
 11
206.1202297121754
 21
295.2084916969876
 31
0.0
  0
LINE
  5
18BF0
330
1E
100
AcDbEntity
  8
16
 48
2.0
100
AcDbLine
 10
11.66575829086832
 20
213.2084916969876
 30
0.0
 11
188.1794141789814
 21
213.2084916969876
 31
0.0
  0
LINE
  5
18BF1
330
1E
100
AcDbEntity
  8
18
 48
2.0
100
AcDbLine
 10
37.43983205067525
 20
72.20849169698761
 30
0.0
 11
171.9655037096745
 21
72.20849169698761
 31
0.0
  0
LINE
  5
18BF2
330
1E
100
AcDbEntity
  8
12
 48
2.0
100
AcDbLine
 10
5.530382037199158
 20
255.2084916969876
 30
0.0
 11
198.7308993626746
 21
255.2084916969876
 31
0.0
  0
LINE
  5
18BF3
330
1E
100
AcDbEntity
  8
12
 48
2.0
100
AcDbLine
 10
26.64725929064298
 20
171.2084916969875
 30
0.0
 11
211.4666617691755
 21
171.2084916969875
 31
0.0
  0
LINE
  5
18BF4
330
1E
100
AcDbEntity
  8
12
 48
2.0
100
AcDbLine
 10
20.15737117664321
 20
131.2084916969871
 30
0.0
 11
205.3342111971751
 21
131.2084916969871
 31
0.0
  0
LINE
  5
18BF5
330
1E
100
AcDbEntity
  8
12
  6
HIDDEN
 48
2.0
100
AcDbLine
 10
25.89663112264316
 20
166.2084916969876
 30
0.0
 11
210.7009816266755
 21
166.2084916969876
 31
0.0
  0
LINE
  5
18BF6
330
1E
100
AcDbEntity
  8
12
  6
HIDDEN
 48
2.0
100
AcDbLine
 10
6.123296304642281
 20
260.2084916969876
 30
0.0
 11
198.3808869761742
 21
260.2084916969876
 31
0.0
  0
CIRCLE
  5
18BF7
330
1E
100
AcDbEntity
  8
12
100
AcDbCircle
 10
71.71550370967451
 20
280.2084916969876
 30
0.0
 40
4.500000000000148
  0
CIRCLE
  5
18BF8
330
1E
100
AcDbEntity
  8
12
100
AcDbCircle
 10
131.7155037096745
 20
280.2084916969876
 30
0.0
 40
4.499999999999877
  0
CIRCLE
  5
18BF9
330
1E
100
AcDbEntity
  8
12
100
AcDbCircle
 10
71.71550370967451
 20
146.2084916969871
 30
0.0
 40
4.50000000000019
  0
CIRCLE
  5
18BFA
330
1E
100
AcDbEntity
  8
12
100
AcDbCircle
 10
131.7155037096745
 20
146.2084916969871
 30
0.0
 40
4.499999999999919
  0
SPLINE
  5
18BFB
330
1E
100
AcDbEntity
  8
12
 48
2.0
100
AcDbSpline
210
0.0
220
0.0
230
1.0
 70
     8
 71
     3
 72
     8
 73
     4
 74
     0
 42
0.000000001
 43
0.0000000001
 40
0.2802434172404029
 40
0.2802434172404029
 40
0.2802434172404029
 40
0.2802434172404029
 40
0.8927808453983182
 40
0.8927808453983182
 40
0.8927808453983182
 40
0.8927808453983182
 10
17.53985271995407
 20
295.2084916969876
 30
0.0
 10
16.19823039361472
 20
282.0749269614611
 30
0.0
 10
6.085321334520812
 20
269.0077258871564
 30
0.0
 10
5.530382037199158
 20
255.2084916969876
 30
0.0
  0
SPLINE
  5
18BFC
330
1E
100
AcDbEntity
  8
12
 48
2.0
100
AcDbSpline
210
0.0
220
0.0
230
1.0
 70
     8
 71
     3
 72
    18
 73
    14
 74
     0
 42
0.000000001
 43
0.0000000001
 40
0.2142662027313815
 40
0.2142662027313815
 40
0.2142662027313815
 40
0.2142662027313815
 40
0.25
 40
0.3125
 40
0.375
 40
0.4375
 40
0.5
 40
0.5625
 40
0.625
 40
0.6875
 40
0.75
 40
0.8125
 40
0.823839823836427
 40
0.823839823836427
 40
0.823839823836427
 40
0.823839823836427
 10
206.1202297123746
 20
295.2084916969876
 30
0.0
 10
206.1602338058883
 20
294.574600099475
 30
0.0
 10
206.183331965186
 20
292.8151467441351
 30
0.0
 10
205.862471279479
 20
289.8283892429332
 30
0.0
 10
205.0407851624604
 20
286.1698400780402
 30
0.0
 10
203.8840554813734
 20
282.3508171045115
 30
0.0
 10
202.5277265505756
 20
278.3851208116868
 30
0.0
 10
201.121547091886
 20
274.2755091248606
 30
0.0
 10
199.8260641409215
 20
270.0116967461246
 30
0.0
 10
198.8153050744495
 20
265.5731664403412
 30
0.0
 10
198.2839212670586
 20
260.9399361680686
 30
0.0
 10
198.4045911832645
 20
257.4332677451934
 30
0.0
 10
198.6829625555474
 20
255.5051668537793
 30
0.0
 10
198.7308993625865
 20
255.2084916969876
 30
0.0
  0
SPLINE
  5
18BFD
330
1E
100
AcDbEntity
  8
12
 48
2.0
100
AcDbSpline
210
0.0
220
0.0
230
1.0
 70
     8
 71
     3
 72
    17
 73
    13
 74
     0
 42
0.000000001
 43
0.0000000001
 40
0.2703337359743614
 40
0.2703337359743614
 40
0.2703337359743614
 40
0.2703337359743614
 40
0.3125
 40
0.375
 40
0.4375
 40
0.5
 40
0.5625
 40
0.625
 40
0.6875
 40
0.75
 40
0.8125
 40
0.8611965539705586
 40
0.8611965539705586
 40
0.8611965539705586
 40
0.8611965539705586
 10
211.4666617691701
 20
171.2084916969875
 30
0.0
 10
211.4155741733039
 20
170.4302637314297
 30
0.0
 10
211.1941754863319
 20
168.4661358126738
 30
0.0
 10
210.508484051963
 20
165.1941664817206
 30
0.0
 10
209.4066805315961
 20
161.3589364977484
 30
0.0
 10
208.1074032346296
 20
157.374183837792
 30
0.0
 10
206.7603458823287
 20
153.2448151964441
 30
0.0
 10
205.5261865818447
 20
148.9628503555874
 30
0.0
 10
204.5792292324213
 20
144.5102716708044
 30
0.0
 10
204.1143919265978
 20
139.869892614544
 30
0.0
 10
204.3322223991272
 20
135.4050731621312
 30
0.0
 10
204.9556432648515
 20
132.4881164870851
 30
0.0
 10
205.334211197438
 20
131.2084916969871
 30
0.0
  0
SPLINE
  5
18BFE
330
1E
100
AcDbEntity
  8
12
 48
2.0
100
AcDbSpline
210
0.0
220
0.0
230
1.0
 70
     8
 71
     3
 72
     8
 73
     4
 74
     0
 42
0.000000001
 43
0.0000000001
 40
0.2658437456316793
 40
0.2658437456316793
 40
0.2658437456316793
 40
0.2658437456316793
 40
0.8790578499790088
 40
0.8790578499790088
 40
0.8790578499790088
 40
0.8790578499790088
 10
26.64725929041742
 20
171.2084916969875
 30
0.0
 10
25.7304311595799
 20
158.0568528393779
 30
0.0
 10
15.45118268278838
 20
144.9905347366434
 30
0.0
 10
20.15737117667504
 20
131.2084916969872
 30
0.0
  0
DIMENSION
  5
18BFF
330
1E
100
AcDbEntity
  8
30
  6
Continuous
100
AcDbDimension
280
     0
  2
*D10
 10
131.7155037096745
 20
109.6381477845726
 30
0.0
 11
101.7155037096745
 21
109.6381477845726
 31
0.0
 70
   160
  1
<>
 71
     2
 42
60.0
 73
     0
 74
     0
 75
     0
  3
STANDARD
100
AcDbAlignedDimension
 13
71.71550370967451
 23
146.2084916969871
 33
0.0
 14
131.7155037096745
 24
146.2084916969871
 34
0.0
100
AcDbRotatedDimension
  0
DIMENSION
  5
18C00
330
1E
100
AcDbEntity
  8
30
  6
Continuous
100
AcDbDimension
280
     0
  2
*D11
 10
72.48544528418531
 20
150.6421346656755
 30
0.0
 11
29.67677091050427
 21
51.9313435089001
 31
0.0
 70
   163
  1
2X2-%%c9
 71
     5
 42
9.000000000348363
 73
     0
 74
     0
 75
     0
  3
STANDARD1
100
AcDbDiametricDimension
 15
70.94556213567125
 25
141.7748487282992
 35
0.0
 40
0.0
  0
DIMENSION
  5
18C01
330
1E
100
AcDbEntity
  8
30
  6
Continuous
100
AcDbDimension
280
     0
  2
*D12
 10
242.7672734369608
 20
146.2084916969871
 30
0.0
 11
242.7672734369608
 21
213.2084916969876
 31
0.0
 70
   160
  1
<>
 71
     2
 42
134.0000000000005
 73
     0
 74
     0
 75
     0
  3
STANDARD
100
AcDbAlignedDimension
 13
131.7155037096745
 23
280.2084916969876
 33
0.0
 14
131.7155037096745
 24
146.2084916969871
 34
0.0
 50
90.0
100
AcDbRotatedDimension
  0
DIMENSION
  5
18C02
330
1E
100
AcDbEntity
  8
30
  6
Continuous
100
AcDbDimension
280
     0
  2
*D13
 10
225.1371559492673
 20
171.2084916969875
 30
0.0
 11
225.1371559492672
 21
213.2084916969876
 31
0.0
 70
   160
  1
<>
 71
     2
 42
84.0
 73
     0
 74
     0
 75
     0
  3
STANDARD
100
AcDbAlignedDimension
 13
198.7308993626746
 23
255.2084916969876
 33
0.0
 14
211.4666617691755
 24
171.2084916969875
 34
0.0
 50
90.0
100
AcDbRotatedDimension
  0
DIMENSION
  5
18C03
330
1E
100
AcDbEntity
  8
30
  6
Continuous
100
AcDbDimension
280
     0
  2
*D14
 10
224.8871559492673
 20
255.2084916969876
 30
0.0
 11
224.8871559492672
 21
267.7084916969885
 31
0.0
 70
   160
  1
<>
 71
     2
 42
25.0
 73
     0
 74
     0
 75
     0
  3
STANDARD
100
AcDbAlignedDimension
 13
131.7155037096745
 23
280.2084916969876
 33
0.0
 14
198.7308993626746
 24
255.2084916969876
 34
0.0
 50
90.0
100
AcDbRotatedDimension
  0
DIMENSION
  5
18C04
330
1E
100
AcDbEntity
  8
30
  6
Continuous
100
AcDbDimension
280
     0
  2
*D15
 10
224.8871559492673
 20
171.2084916969875
 30
0.0
 11
224.8871559492672
 21
158.7084916969885
 31
0.0
 70
   160
  1
<>
 71
     2
 42
25.00000000000048
 73
     0
 74
     0
 75
     0
  3
STANDARD
100
AcDbAlignedDimension
 13
131.7155037096745
 23
146.2084916969871
 33
0.0
 14
211.4666617691755
 24
171.2084916969875
 34
0.0
 50
90.0
100
AcDbRotatedDimension
  0
INSERT
  5
18C05
330
1E
100
AcDbEntity
  8
12
  6
DASHDOT
100
AcDbBlockReference
  2
SW_CENTERMARKSYMBOL_0
 10
71.71550370967451
 20
280.2084916969876
 30
0.0
 41
5.0
 42
5.0
 43
5.0
  0
INSERT
  5
18C06
330
1E
100
AcDbEntity
  8
12
  6
DASHDOT
100
AcDbBlockReference
  2
SW_CENTERMARKSYMBOL_1
 10
131.7155037096745
 20
280.2084916969876
 30
0.0
 41
5.0
 42
5.0
 43
5.0
  0
INSERT
  5
18C07
330
1E
100
AcDbEntity
  8
12
  6
DASHDOT
100
AcDbBlockReference
  2
SW_CENTERMARKSYMBOL_2
 10
71.71550370967451
 20
146.2084916969871
 30
0.0
 41
5.0
 42
5.0
 43
5.0
  0
INSERT
  5
18C08
330
1E
100
AcDbEntity
  8
12
  6
DASHDOT
100
AcDbBlockReference
  2
SW_CENTERMARKSYMBOL_3
 10
131.7155037096745
 20
146.2084916969871
 30
0.0
 41
5.0
 42
5.0
 43
5.0
  0
LINE
  5
18C09
330
1E
100
AcDbEntity
  8
12
100
AcDbLine
 10
298.6948982185877
 20
950.4771399290175
 30
0.0
 11
299.1948992320877
 21
950.9771409425177
 31
0.0
  0
LINE
  5
18C0A
330
1E
100
AcDbEntity
  8
12
100
AcDbLine
 10
299.1948992320877
 20
957.7371421250179
 30
0.0
 11
298.6948982185877
 21
958.2371431380176
 31
0.0
  0
LINE
  5
18C0B
330
1E
100
AcDbEntity
  8
12
100
AcDbLine
 10
298.6948982185877
 20
958.2371431380176
 30
0.0
 11
279.7949023850879
 21
958.2371431380176
 31
0.0
  0
LINE
  5
18C0C
330
1E
100
AcDbEntity
  8
12
100
AcDbLine
 10
279.7949023850879
 20
950.4771399290175
 30
0.0
 11
298.6948982185877
 21
950.4771399290175
 31
0.0
  0
LINE
  5
18C0D
330
1E
100
AcDbEntity
  8
0
  6
SLD-実線
 62
     7
370
    30
100
AcDbLine
 10
361.7949009245876
 20
911.5761461645176
 30
0.0
 11
361.0949039765874
 21
912.2761431130181
 31
0.0
  0
LINE
  5
18C0E
330
1E
100
AcDbEntity
  8
0
  6
SLD-実線
 62
     7
370
    30
100
AcDbLine
 10
361.0949039765874
 20
902.4381431730175
 30
0.0
 11
361.7949009245876
 21
903.1381401210175
 31
0.0
  0
LINE
  5
18C0F
330
1E
100
AcDbEntity
  8
12
100
AcDbLine
 10
361.7949009245876
 20
911.5761461645176
 30
0.0
 11
361.0949039765874
 21
912.2761431130181
 31
0.0
  0
LINE
  5
18C10
330
1E
100
AcDbEntity
  8
12
100
AcDbLine
 10
361.0949039765874
 20
902.4381431730175
 30
0.0
 11
361.7949009245876
 21
903.1381401210175
 31
0.0
  0
ARC
  5
18C11
330
1E
100
AcDbEntity
  8
0
  6
SLD-実線
 62
     7
370
     0
100
AcDbCircle
 10
306.0164279431838
 20
907.3572058921007
 30
0.0
 40
64.49223968220946
100
AcDbArc
 50
113.9904393080431
 51
140.4409967880638
  0
ARC
  5
18C12
330
1E
100
AcDbEntity
  8
0
  6
SLD-実線
 62
     7
370
     0
100
AcDbCircle
 10
306.0164715560868
 20
907.3571463140176
 30
0.0
 40
64.49231125005709
100
AcDbArc
 50
140.4409806568739
 51
155.5168509229423
  0
LINE
  5
18C13
330
1E
100
AcDbEntity
  8
12
100
AcDbLine
 10
298.6948982185877
 20
950.4771399290175
 30
0.0
 11
298.6948982185877
 21
958.2371431380176
 31
0.0
  0
LINE
  5
18C14
330
1E
100
AcDbEntity
  8
12
100
AcDbLine
 10
299.1948992320877
 20
957.7371421250179
 30
0.0
 11
299.1948992320877
 21
950.9771409425177
 31
0.0
  0
LINE
  5
18C15
330
1E
100
AcDbEntity
  8
10
100
AcDbLine
 10
351.7949030110876
 20
934.357145706018
 30
0.0
 11
351.7949030110876
 21
880.3571405800182
 31
0.0
  0
LINE
  5
18C16
330
1E
100
AcDbEntity
  8
10
100
AcDbLine
 10
256.794900477973
 20
949.0284192353515
 30
0.0
 11
256.7949004775883
 21
883.3571466595179
 31
0.0
  0
LINE
  5
18C17
330
1E
100
AcDbEntity
  8
10
100
AcDbLine
 10
278.6949023910884
 20
934.357145706018
 30
0.0
 11
326.8969424847695
 21
934.3571457060178
 31
0.0
  0
LINE
  5
18C18
330
1E
100
AcDbEntity
  8
10
100
AcDbLine
 10
351.7949030110876
 20
880.3571405800182
 30
0.0
 11
333.2308008195506
 21
880.3571405800182
 31
0.0
  0
LINE
  5
18C19
330
1E
100
AcDbEntity
  8
0
  6
SLD-実線
 62
     7
370
    30
100
AcDbLine
 10
256.7949004775883
 20
880.3571405800182
 30
0.0
 11
256.7949004775883
 21
883.3571466595179
 31
0.0
  0
LINE
  5
18C1A
330
1E
100
AcDbEntity
  8
10
100
AcDbLine
 10
277.1948993510878
 20
943.3571415930179
 30
0.0
 11
277.1948993510878
 21
944.3571436200176
 31
0.0
  0
LINE
  5
18C1B
330
1E
100
AcDbEntity
  8
10
100
AcDbLine
 10
277.1948993510878
 20
943.3571415930179
 30
0.0
 11
279.694900692587
 21
943.3571415930179
 31
0.0
  0
LINE
  5
18C1C
330
1E
100
AcDbEntity
  8
10
100
AcDbLine
 10
278.6949023910884
 20
943.3571415930179
 30
0.0
 11
278.6949023910884
 21
934.357145706018
 31
0.0
  0
LINE
  5
18C1D
330
1E
100
AcDbEntity
  8
10
100
AcDbLine
 10
279.694900692587
 20
943.3571415930179
 30
0.0
 11
279.6949009205873
 21
934.357143202518
 31
0.0
  0
LINE
  5
18C1E
330
1E
100
AcDbEntity
  8
10
100
AcDbLine
 10
263.7949016250877
 20
944.3571436200176
 30
0.0
 11
279.7949023850879
 21
944.3571436200176
 31
0.0
  0
LINE
  5
18C1F
330
1E
100
AcDbEntity
  8
10
100
AcDbLine
 10
263.7949016250877
 20
944.3571436200176
 30
0.0
 11
263.7949016250877
 21
956.1075064335181
 31
0.0
  0
LINE
  5
18C20
330
1E
100
AcDbEntity
  8
12
  6
SLD-実線
 62
     7
370
    30
100
AcDbLine
 10
279.7949023850879
 20
966.2781747970177
 30
0.0
 11
279.7949023850879
 21
944.3571436200176
 31
0.0
  0
LINE
  5
18C21
330
1E
100
AcDbEntity
  8
12
100
AcDbLine
 10
361.0949039765874
 20
902.4381431730175
 30
0.0
 11
361.0949039765874
 21
906.557144502018
 31
0.0
  0
LINE
  5
18C22
330
1E
100
AcDbEntity
  8
12
100
AcDbLine
 10
361.0949039765874
 20
908.1571417840176
 30
0.0
 11
361.0949039765874
 21
912.2761431130181
 31
0.0
  0
LINE
  5
18C23
330
1E
100
AcDbEntity
  8
12
100
AcDbLine
 10
361.0949039765874
 20
908.1571417840176
 30
0.0
 11
358.7949022955872
 21
908.1571417840176
 31
0.0
  0
LINE
  5
18C24
330
1E
100
AcDbEntity
  8
12
100
AcDbLine
 10
358.7949022955872
 20
908.1571417840176
 30
0.0
 11
358.7949022955872
 21
906.557144502018
 31
0.0
  0
LINE
  5
18C25
330
1E
100
AcDbEntity
  8
12
100
AcDbLine
 10
358.7949022955872
 20
906.557144502018
 30
0.0
 11
361.0949039765874
 21
906.557144502018
 31
0.0
  0
LINE
  5
18C26
330
1E
100
AcDbEntity
  8
12
100
AcDbLine
 10
361.7949009245876
 20
911.5761461645176
 30
0.0
 11
361.7949009245876
 21
908.1571417840176
 31
0.0
  0
LINE
  5
18C27
330
1E
100
AcDbEntity
  8
12
100
AcDbLine
 10
361.7949009245876
 20
908.1571417840176
 30
0.0
 11
361.0949039765874
 21
908.1571417840176
 31
0.0
  0
LINE
  5
18C28
330
1E
100
AcDbEntity
  8
12
100
AcDbLine
 10
361.7949009245876
 20
906.557144502018
 30
0.0
 11
361.7949009245876
 21
903.1381401210175
 31
0.0
  0
LINE
  5
18C29
330
1E
100
AcDbEntity
  8
12
100
AcDbLine
 10
361.0949039765874
 20
906.557144502018
 30
0.0
 11
361.7949009245876
 21
906.557144502018
 31
0.0
  0
LINE
  5
18C2A
330
1E
100
AcDbEntity
  8
12
100
AcDbLine
 10
361.7949009245876
 20
908.1571417840176
 30
0.0
 11
361.0949039765874
 21
908.1571417840176
 31
0.0
  0
LINE
  5
18C2B
330
1E
100
AcDbEntity
  8
12
100
AcDbLine
 10
361.0949039765874
 20
906.557144502018
 30
0.0
 11
361.7949009245876
 21
906.557144502018
 31
0.0
  0
LINE
  5
18C2C
330
1E
100
AcDbEntity
  8
12
100
AcDbLine
 10
361.0949039765874
 20
912.2761431130181
 30
0.0
 11
326.6949009205863
 21
912.2761432025177
 31
0.0
  0
LINE
  5
18C2D
330
1E
100
AcDbEntity
  8
12
100
AcDbLine
 10
326.6949009205863
 20
902.438143202518
 30
0.0
 11
361.0949039765874
 21
902.4381431730175
 31
0.0
  0
LINE
  5
18C2E
330
1E
100
AcDbEntity
  8
24
  6
SLD-実線
370
    30
100
AcDbLine
 10
326.6949009205863
 20
895.8571432025175
 30
0.0
 11
326.6949009205863
 21
918.8571432025181
 31
0.0
  0
LINE
  5
18C2F
330
1E
100
AcDbEntity
  8
24
  6
SLD-実線
370
    30
100
AcDbLine
 10
326.6949009205863
 20
918.8571432025181
 30
0.0
 11
326.1949009205873
 21
919.3571432025176
 31
0.0
  0
LINE
  5
18C30
330
1E
100
AcDbEntity
  8
10
100
AcDbLine
 10
326.1949009205873
 20
919.3571432025176
 30
0.0
 11
313.3476962240875
 21
919.3571432025176
 31
0.0
  0
LINE
  5
18C32
330
1E
100
AcDbEntity
  8
24
  6
SLD-実線
370
    30
100
AcDbLine
 10
326.1949009205873
 20
895.3571432025173
 30
0.0
 11
326.6949009205863
 21
895.8571432025175
 31
0.0
  0
LINE
  5
18C33
330
1E
100
AcDbEntity
  8
10
100
AcDbLine
 10
312.3723545475877
 20
895.3571432025173
 30
0.0
 11
326.1949009205873
 21
895.3571432025173
 31
0.0
  0
LINE
  5
18C34
330
1E
100
AcDbEntity
  8
12
100
AcDbLine
 10
334.6949009205873
 20
917.357143202518
 30
0.0
 11
332.6949009205873
 21
917.357143202518
 31
0.0
  0
LINE
  5
18C35
330
1E
100
AcDbEntity
  8
12
100
AcDbLine
 10
334.6949009205873
 20
897.3571432025178
 30
0.0
 11
332.6949009205873
 21
897.3571432025178
 31
0.0
  0
LINE
  5
18C36
330
1E
100
AcDbEntity
  8
24
  6
SLD-2点鎖線
370
     0
100
AcDbLine
 10
332.6949009205873
 20
917.357143202518
 30
0.0
 11
332.6949009205873
 21
897.3571432025178
 31
0.0
  0
LINE
  5
18C37
330
1E
100
AcDbEntity
  8
24
100
AcDbLine
 10
326.6949009205863
 20
922.3571432025179
 30
0.0
 11
332.6949009205873
 21
922.3571432025179
 31
0.0
  0
LINE
  5
18C38
330
1E
100
AcDbEntity
  8
24
100
AcDbLine
 10
332.6949009205873
 20
922.3571432025179
 30
0.0
 11
332.6949009205873
 21
891.3571432025177
 31
0.0
  0
LINE
  5
18C39
330
1E
100
AcDbEntity
  8
24
  6
SLD-2点鎖線
100
AcDbLine
 10
336.6949009205864
 20
878.3571432025173
 30
0.0
 11
378.3852215905882
 21
878.3571432025173
 31
0.0
  0
LINE
  5
18C3A
330
1E
100
AcDbEntity
  8
12
100
AcDbLine
 10
326.6949009205863
 20
922.3571432025179
 30
0.0
 11
326.6949009205863
 21
882.3571432025177
 31
0.0
  0
LINE
  5
18C3B
330
1E
100
AcDbEntity
  8
24
  6
SLD-2点鎖線
100
AcDbLine
 10
336.6949009205864
 20
872.3571432025178
 30
0.0
 11
378.3852215905882
 21
872.3571432025178
 31
0.0
  0
LINE
  5
18C3C
330
1E
100
AcDbEntity
  8
24
  6
SLD-2点鎖線
100
AcDbLine
 10
378.3852215905882
 20
942.357143202518
 30
0.0
 11
336.6949009205864
 21
942.357143202518
 31
0.0
  0
LINE
  5
18C3D
330
1E
100
AcDbEntity
  8
24
  6
SLD-2点鎖線
100
AcDbLine
 10
326.6949009205863
 20
932.3571432025181
 30
0.0
 11
326.6949009205863
 21
882.3571432025177
 31
0.0
  0
LINE
  5
18C3E
330
1E
100
AcDbEntity
  8
24
100
AcDbLine
 10
326.6949009205863
 20
891.3571432025177
 30
0.0
 11
332.6949009205873
 21
891.3571432025177
 31
0.0
  0
LINE
  5
18C3F
330
1E
100
AcDbEntity
  8
24
  6
SLD-2点鎖線
100
AcDbLine
 10
332.6949009205863
 20
882.3571432025177
 30
0.0
 11
332.6949009205873
 21
932.3571432025181
 31
0.0
  0
LINE
  5
18C40
330
1E
100
AcDbEntity
  8
24
  6
SLD-2点鎖線
100
AcDbLine
 10
336.6949009205864
 20
936.357143202518
 30
0.0
 11
378.3852215905882
 21
936.357143202518
 31
0.0
  0
LINE
  5
18C41
330
1E
100
AcDbEntity
  8
12
100
AcDbLine
 10
334.6949009205873
 20
916.5571432025178
 30
0.0
 11
337.1949009205873
 21
916.5571432025178
 31
0.0
  0
LINE
  5
18C42
330
1E
100
AcDbEntity
  8
12
100
AcDbLine
 10
334.6949009205873
 20
917.357143202518
 30
0.0
 11
334.6949009205873
 21
897.3571432025178
 31
0.0
  0
LINE
  5
18C43
330
1E
100
AcDbEntity
  8
12
100
AcDbLine
 10
334.6949009205873
 20
898.1571432025177
 30
0.0
 11
337.1949009205873
 21
898.1571432025177
 31
0.0
  0
LINE
  5
18C44
330
1E
100
AcDbEntity
  8
12
100
AcDbLine
 10
337.1949009205873
 20
915.3571432025174
 30
0.0
 11
345.5949009205879
 21
915.3571432025174
 31
0.0
  0
LINE
  5
18C45
330
1E
100
AcDbEntity
  8
12
100
AcDbLine
 10
337.1949009205873
 20
916.5571432025178
 30
0.0
 11
337.1949009205873
 21
898.1571432025177
 31
0.0
  0
LINE
  5
18C46
330
1E
100
AcDbEntity
  8
12
100
AcDbLine
 10
337.1949009205873
 20
899.3571432025177
 30
0.0
 11
345.5949009205879
 21
899.3571432025177
 31
0.0
  0
LINE
  5
18C47
330
1E
100
AcDbEntity
  8
12
100
AcDbLine
 10
345.5949009205879
 20
915.3571432025174
 30
0.0
 11
345.5949009205879
 21
899.3571432025177
 31
0.0
  0
LINE
  5
18C48
330
1E
100
AcDbEntity
  8
12
100
AcDbLine
 10
279.7949009205877
 20
979.357143202518
 30
0.0
 11
279.7949009205877
 21
939.3571432025181
 31
0.0
  0
LINE
  5
18C49
330
1E
100
AcDbEntity
  8
12
100
AcDbLine
 10
279.7949009205877
 20
939.3571432025181
 30
0.0
 11
284.7949009205877
 21
939.3571432025181
 31
0.0
  0
LINE
  5
18C4A
330
1E
100
AcDbEntity
  8
12
100
AcDbLine
 10
284.7949009205877
 20
939.3571432025181
 30
0.0
 11
284.7949009205877
 21
969.3571432025176
 31
0.0
  0
LINE
  5
18C4B
330
1E
100
AcDbEntity
  8
12
100
AcDbLine
 10
284.7949009205877
 20
962.857143202518
 30
0.0
 11
286.3949009205871
 21
962.857143202518
 31
0.0
  0
LINE
  5
18C4C
330
1E
100
AcDbEntity
  8
12
100
AcDbLine
 10
284.7949009205877
 20
962.857143202518
 30
0.0
 11
284.7949009205877
 21
945.8571432025177
 31
0.0
  0
LINE
  5
18C4D
330
1E
100
AcDbEntity
  8
12
100
AcDbLine
 10
289.7949009205877
 20
974.3571432025181
 30
0.0
 11
319.7949009205877
 21
974.3571432025181
 31
0.0
  0
LINE
  5
18C4E
330
1E
100
AcDbEntity
  8
12
100
AcDbLine
 10
284.7949009205877
 20
945.8571432025177
 30
0.0
 11
286.3949009205871
 21
945.8571432025177
 31
0.0
  0
LINE
  5
18C4F
330
1E
100
AcDbEntity
  8
12
100
AcDbLine
 10
319.7949009205877
 20
974.3571432025181
 30
0.0
 11
319.7949009205877
 21
979.357143202518
 31
0.0
  0
LINE
  5
18C50
330
1E
100
AcDbEntity
  8
12
100
AcDbLine
 10
319.7949009205877
 20
979.357143202518
 30
0.0
 11
279.7949009205877
 21
979.357143202518
 31
0.0
  0
LINE
  5
18C51
330
1E
100
AcDbEntity
  8
12
100
AcDbLine
 10
286.3949009205871
 20
962.857143202518
 30
0.0
 11
286.3949009205871
 21
945.8571432025177
 31
0.0
  0
LINE
  5
18C52
330
1E
100
AcDbEntity
  8
12
100
AcDbLine
 10
286.3949009205871
 20
962.1071432025177
 30
0.0
 11
287.9949009205875
 21
962.1071432025177
 31
0.0
  0
LINE
  5
18C53
330
1E
100
AcDbEntity
  8
12
100
AcDbLine
 10
286.3949009205871
 20
962.1071432025177
 30
0.0
 11
286.3949009205871
 21
946.6071432025181
 31
0.0
  0
LINE
  5
18C54
330
1E
100
AcDbEntity
  8
12
100
AcDbLine
 10
286.3949009205871
 20
946.6071432025181
 30
0.0
 11
287.9949009205875
 21
946.6071432025181
 31
0.0
  0
LINE
  5
18C55
330
1E
100
AcDbEntity
  8
12
100
AcDbLine
 10
287.9949009205875
 20
962.1071432025177
 30
0.0
 11
287.9949009205875
 21
946.6071432025181
 31
0.0
  0
LINE
  5
18C56
330
1E
100
AcDbEntity
  8
12
100
AcDbLine
 10
287.9949009205875
 20
960.8571432025174
 30
0.0
 11
293.2949009205877
 21
960.8571432025174
 31
0.0
  0
LINE
  5
18C57
330
1E
100
AcDbEntity
  8
12
100
AcDbLine
 10
287.9949009205875
 20
960.8571432025174
 30
0.0
 11
287.9949009205875
 21
947.8571432025177
 31
0.0
  0
LINE
  5
18C58
330
1E
100
AcDbEntity
  8
12
100
AcDbLine
 10
287.9949009205875
 20
947.8571432025177
 30
0.0
 11
293.2949009205877
 21
947.8571432025177
 31
0.0
  0
LINE
  5
18C59
330
1E
100
AcDbEntity
  8
12
100
AcDbLine
 10
293.2949009205877
 20
960.8571432025174
 30
0.0
 11
293.2949009205877
 21
947.8571432025177
 31
0.0
  0
ARC
  5
18C5A
330
1E
100
AcDbEntity
  8
24
  6
SLD-2点鎖線
100
AcDbCircle
 10
336.6949009205864
 20
882.3571432025177
 30
0.0
 40
4.000000000000055
100
AcDbArc
 50
180.0
 51
270.0
  0
ARC
  5
18C5B
330
1E
100
AcDbEntity
  8
24
  6
SLD-2点鎖線
100
AcDbCircle
 10
336.6949009205864
 20
882.3571432025177
 30
0.0
 40
10.0
100
AcDbArc
 50
180.0
 51
270.0
  0
ARC
  5
18C5E
330
1E
100
AcDbEntity
  8
12
100
AcDbCircle
 10
289.7949009205877
 20
969.3571432025176
 30
0.0
 40
5.0
100
AcDbArc
 50
90.0
 51
180.0
  0
SPLINE
  5
18C5F
330
1E
100
AcDbEntity
  8
10
100
AcDbSpline
210
0.0
220
0.0
230
1.0
 70
     8
 71
     3
 72
     9
 73
     5
 74
     0
 42
0.000000001
 43
0.0000000001
 40
0.0
 40
0.0
 40
0.0
 40
0.0
 40
0.2052268377513348
 40
1.0
 40
1.0
 40
1.0
 40
1.0
 10
311.6433162958501
 20
934.3571432025752
 30
0.0
 10
314.9177157603381
 20
921.7280700175065
 30
0.0
 10
306.2223527502638
 20
903.322110265632
 30
0.0
 10
316.364838562059
 20
885.8313150988994
 30
0.0
 10
315.4949009207403
 20
880.3571432025751
 30
0.0
  0
DIMENSION
  5
18C60
330
1E
100
AcDbEntity
  8
30
  6
Continuous
100
AcDbDimension
280
     0
  2
*D16
 10
326.6949009205863
 20
840.8370607417676
 30
0.0
 11
303.1949009205882
 21
840.8370607417676
 31
0.0
 70
   160
  1
<>
 71
     2
 42
46.99999999999898
 73
     0
 74
     0
 75
     0
  3
STANDARD
100
AcDbAlignedDimension
 13
279.6949009205873
 23
934.357143202518
 33
0.0
 14
326.6949009205863
 24
895.8571432025175
 34
0.0
100
AcDbRotatedDimension
  0
DIMENSION
  5
18C61
330
1E
100
AcDbEntity
  8
30
  6
Continuous
100
AcDbDimension
280
     0
  2
*D17
 10
361.6949009205864
 20
840.8370607417676
 30
0.0
 11
344.2449009205867
 21
840.8370607417676
 31
0.0
 70
   160
  1
<>
 71
     2
 42
35.00000000000011
 73
     0
 74
     0
 75
     0
  3
STANDARD
100
AcDbAlignedDimension
 13
326.6949009205863
 23
895.8571432025175
 33
0.0
 14
361.6949009205864
 24
903.1381432025179
 34
0.0
100
AcDbRotatedDimension
  0
DIMENSION
  5
18C62
330
1E
100
AcDbEntity
  8
30
  6
Continuous
100
AcDbDimension
280
     0
  2
*D18
 10
299.1949009205864
 20
1000.970272910948
 30
0.0
 11
316.0859039650795
 21
1000.970272910948
 31
0.0
 70
   160
  1
<>
 71
     2
 42
19.39999999999867
 73
     0
 74
     0
 75
     0
  3
STANDARD
100
AcDbAlignedDimension
 13
279.7949009205877
 23
979.357143202518
 33
0.0
 14
299.1949009205864
 24
957.7371432025177
 34
0.0
100
AcDbRotatedDimension
  0
DIMENSION
  5
18C63
330
1E
100
AcDbEntity
  8
30
  6
Continuous
100
AcDbDimension
280
     0
  2
*D19
 10
279.7949009205877
 20
840.8370607417676
 30
0.0
 11
268.1449009205862
 21
840.8370607417676
 31
0.0
 70
   160
  1
<>
 71
     2
 42
23.00000000000085
 73
     0
 74
     0
 75
     0
  3
STANDARD
100
AcDbAlignedDimension
 13
256.7949009205868
 23
883.3571432025175
 33
0.0
 14
279.7949009205877
 24
934.357143202518
 34
0.0
100
AcDbRotatedDimension
  0
LINE
  5
18C64
330
1E
100
AcDbEntity
  8
240
 62
     0
100
AcDbLine
 10
447.4737676493059
 20
836.4297074375176
 30
0.0
 11
405.1478081910873
 21
836.4297074375176
 31
0.0
  0
MTEXT
  5
18C65
330
1E
100
AcDbEntity
  8
30
100
AcDbMText
 10
407.5299419685871
 20
845.3937698372133
 30
0.0
 40
6.25
 41
0.0
 46
0.0
 71
     1
 72
     1
  1
M10 Screw
  7
UGMTXT
 73
     1
 44
1.0
  0
LEADER
  5
18C66
330
1E
100
AcDbEntity
  8
240
100
AcDbLeader
  3
SLDDIMSTYLE4
 76
     2
 10
351.8938154425868
 20
902.438143202518
 30
0.0
 10
405.1478081910873
 20
836.4297074375176
 30
0.0
  0
LINE
  5
18C67
330
1E
100
AcDbEntity
  8
240
 62
     0
100
AcDbLine
 10
439.2690444035458
 20
1009.731815166018
 30
0.0
 11
372.3609229450877
 21
1009.731815166018
 31
0.0
  0
TEXT
  5
18C68
330
1E
100
AcDbEntity
  8
30
100
AcDbText
 10
373.5096543356785
 20
1011.923244969018
 30
0.0
 40
6.25
  1
M8 Mounting Screw
 41
0.7125304878048843
  7
UGMTXT
100
AcDbText
  0
LEADER
  5
18C69
330
1E
100
AcDbEntity
  8
240
100
AcDbLeader
  3
SLDDIMSTYLE4
 76
     2
 10
299.1949009205864
 20
956.1830373930176
 30
0.0
 10
372.3609229450877
 20
1009.731815166018
 30
0.0
  0
LINE
  5
18C6D
330
1E
100
AcDbEntity
  8
240
  6
SLD-1点鎖線(中心線)
 48
2.0
370
     0
100
AcDbLine
 10
302.0082728899924
 20
907.3571431430179
 30
0.0
 11
369.4948971575877
 21
907.3571431430179
 31
0.0
  0
LWPOLYLINE
  5
18C6E
330
1E
100
AcDbEntity
  8
10
100
AcDbPolyline
 90
        2
 70
     0
 43
0.0
 10
89.70236905895763
 20
765.1512686303051
 42
0.4142135623730951
 10
86.70236905895762
 20
762.1512686303055
  0
LWPOLYLINE
  5
18C6F
330
1E
100
AcDbEntity
  8
10
100
AcDbPolyline
 90
       11
 70
     0
 43
0.0
 10
226.752346483586
 20
762.1512686303055
 42
0.4009695161668926
 10
223.9023690589567
 20
765.1512686303058
 10
181.2023690589567
 20
765.1512686303058
 10
181.2023690589567
 20
760.1512686303058
 10
177.2023690589576
 20
760.1512686303058
 10
177.2023690589576
 20
765.1512686303058
 10
136.2023690589567
 20
765.1512686303058
 10
136.2023690589567
 20
760.1512686303058
 10
132.2023690589576
 20
760.1512686303058
 10
132.2023690589576
 20
765.1512686303058
 10
89.70236905895763
 20
765.1512686303058
  0
LWPOLYLINE
  5
18C70
330
1E
100
AcDbEntity
  8
10
100
AcDbPolyline
 90
        2
 70
     0
 43
0.0
 10
226.752346483586
 20
762.1512686303055
 10
226.9023690589567
 20
486.1512686303051
  0
LWPOLYLINE
  5
18C71
330
1E
100
AcDbEntity
  8
10
100
AcDbPolyline
 90
        2
 70
     0
 43
0.0
 10
181.2023690589567
 20
483.1512686303057
 10
223.7023690589567
 20
483.1512686303057
  0
LWPOLYLINE
  5
18C72
330
1E
100
AcDbEntity
  8
10
100
AcDbPolyline
 90
        2
 70
     0
 43
0.0
 10
181.2023690589567
 20
488.1512686303056
 10
181.2023690589567
 20
483.1512686303057
  0
LWPOLYLINE
  5
18C73
330
1E
100
AcDbEntity
  8
10
100
AcDbPolyline
 90
        2
 70
     0
 43
0.0
 10
177.2023690589576
 20
488.1512686303056
 10
181.2023690589567
 20
488.1512686303056
  0
LWPOLYLINE
  5
18C74
330
1E
100
AcDbEntity
  8
10
100
AcDbPolyline
 90
        2
 70
     0
 43
0.0
 10
177.2023690589576
 20
483.1512686303057
 10
177.2023690589576
 20
488.1512686303056
  0
LWPOLYLINE
  5
18C75
330
1E
100
AcDbEntity
  8
10
100
AcDbPolyline
 90
        2
 70
     0
 43
0.0
 10
136.2023690589567
 20
483.1512686303057
 10
177.2023690589576
 20
483.1512686303057
  0
LWPOLYLINE
  5
18C76
330
1E
100
AcDbEntity
  8
10
100
AcDbPolyline
 90
        2
 70
     0
 43
0.0
 10
136.2023690589567
 20
488.1512686303056
 10
136.2023690589567
 20
483.1512686303057
  0
LWPOLYLINE
  5
18C77
330
1E
100
AcDbEntity
  8
10
100
AcDbPolyline
 90
        2
 70
     0
 43
0.0
 10
132.2023690589576
 20
488.1512686303056
 10
136.2023690589567
 20
488.1512686303056
  0
LWPOLYLINE
  5
18C78
330
1E
100
AcDbEntity
  8
10
100
AcDbPolyline
 90
        2
 70
     0
 43
0.0
 10
132.2023690589576
 20
483.1512686303057
 10
132.2023690589576
 20
488.1512686303056
  0
LWPOLYLINE
  5
18C79
330
1E
100
AcDbEntity
  8
10
100
AcDbPolyline
 90
        2
 70
     0
 43
0.0
 10
89.70236905895763
 20
483.1512686303057
 10
132.2023690589576
 20
483.1512686303057
  0
LWPOLYLINE
  5
18C7A
330
1E
100
AcDbEntity
  8
10
100
AcDbPolyline
 90
        2
 70
     0
 43
0.0
 10
86.70236905895762
 20
486.1512686303054
 42
0.4142135623730951
 10
89.70236905895763
 20
483.1512686303055
  0
LWPOLYLINE
  5
18C7B
330
1E
100
AcDbEntity
  8
10
100
AcDbPolyline
 90
        2
 70
     0
 43
0.0
 10
85.30236905895618
 20
547.1512686303054
 10
85.30236905895618
 20
701.1512686303055
  0
LWPOLYLINE
  5
18C7C
330
1E
100
AcDbEntity
  8
10
100
AcDbPolyline
 90
        2
 70
     0
 43
0.0
 10
82.7023690589567
 20
547.1512686303054
 10
82.7023690589567
 20
701.1512686303055
  0
LWPOLYLINE
  5
18C7D
330
1E
100
AcDbEntity
  8
10
100
AcDbPolyline
 90
        2
 70
     0
 43
0.0
 10
82.7023690589567
 20
547.1512686303054
 10
86.70236905895762
 20
547.1512686303054
  0
LWPOLYLINE
  5
18C7E
330
1E
100
AcDbEntity
  8
10
100
AcDbPolyline
 90
        2
 70
     0
 43
0.0
 10
228.3023690589564
 20
547.1512686303054
 10
228.3023690589564
 20
701.1512686303055
  0
LWPOLYLINE
  5
18C7F
330
1E
100
AcDbEntity
  8
10
100
AcDbPolyline
 90
        2
 70
     0
 43
0.0
 10
230.9023690589576
 20
701.1512686303055
 10
226.8693290236062
 20
701.1512686303055
  0
LWPOLYLINE
  5
18C80
330
1E
100
AcDbEntity
  8
10
100
AcDbPolyline
 90
        2
 70
     0
 43
0.0
 10
230.9023690589576
 20
547.1512686303054
 10
230.9023690589576
 20
701.1512686303055
  0
LWPOLYLINE
  5
18C81
330
1E
100
AcDbEntity
  8
10
100
AcDbPolyline
 90
        2
 70
     0
 43
0.0
 10
226.7859164753428
 20
547.1512686303054
 10
230.9023690589576
 20
547.1512686303054
  0
LWPOLYLINE
  5
18C82
330
1E
100
AcDbEntity
  8
0
  6
SLD-実線
 62
     7
370
    30
100
AcDbPolyline
 90
        2
 70
     0
 43
0.0
 10
139.7023690589576
 20
636.8826313618057
 10
139.7023690589576
 20
640.1299729648058
  0
LWPOLYLINE
  5
18C83
330
1E
100
AcDbEntity
  8
0
  6
SLD-実線
 62
     7
370
    30
100
AcDbPolyline
 90
        2
 70
     0
 43
0.0
 10
173.7023690589567
 20
635.9485215673056
 10
139.7023690589576
 20
635.9485215673056
  0
LWPOLYLINE
  5
18C84
330
1E
100
AcDbEntity
  8
10
  6
Continuous
100
AcDbPolyline
 90
        4
 70
     0
 43
0.0
 10
191.2023690589567
 20
749.1512686303051
 10
192.7023690589567
 20
750.6512686303059
 10
210.7023690589576
 20
750.6512686303059
 10
212.2023690589576
 20
749.1512686303051
  0
LWPOLYLINE
  5
18C85
330
1E
100
AcDbEntity
  8
10
  6
Continuous
100
AcDbPolyline
 90
        4
 70
     0
 43
0.0
 10
101.2023690589567
 20
749.1512686303051
 10
102.7023690589567
 20
750.6512686303059
 10
120.7023690589576
 20
750.6512686303059
 10
122.2023690589576
 20
749.1512686303051
  0
LWPOLYLINE
  5
18C86
330
1E
100
AcDbEntity
  8
10
  6
Continuous
100
AcDbPolyline
 90
        4
 70
     0
 43
0.0
 10
146.2023690589567
 20
749.1512686303051
 10
147.7023690589567
 20
750.6512686303059
 10
165.7023690589576
 20
750.6512686303059
 10
167.2023690589576
 20
749.1512686303051
  0
LWPOLYLINE
  5
18C87
330
1E
100
AcDbEntity
  8
10
  6
Continuous
100
AcDbPolyline
 90
        8
 70
     1
 43
0.0
 10
99.90236905895656
 20
579.1512686303055
 10
213.5023690589569
 20
579.1512686303056
 42
0.4142135623730951
 10
214.5023690589569
 20
580.1512686303055
 10
214.5023690589569
 20
668.6512686303053
 42
0.4142135623730951
 10
214.0023690589569
 20
669.1512686303052
 10
99.40236905895657
 20
669.1512686303052
 42
0.4142135623730951
 10
98.90236905895656
 20
668.6512686303053
 10
98.90236905895656
 20
580.1512686303055
 42
0.4142135623730951
  0
LWPOLYLINE
  5
18C88
330
1E
100
AcDbEntity
  8
10
100
AcDbPolyline
 90
        2
 70
     0
 43
0.0
 10
86.70236905895762
 20
486.1512686303054
 10
86.70236905895762
 20
762.1512686303055
  0
ELLIPSE
  5
18C89
330
1E
100
AcDbEntity
  8
0
  6
SLD-実線
 62
     7
370
    30
100
AcDbEllipse
 10
156.8236585529566
 20
624.1512686303052
 30
0.0
 11
-0.0000000000001421
 21
1099.999999999999
 31
0.0
210
0.0
220
0.0
230
1.0
 40
0.0174550649
 41
1.548198852438138
 42
1.59250770193019
  0
LWPOLYLINE
  5
18C8A
330
1E
100
AcDbEntity
  8
0
  6
SLD-実線
 62
     7
370
    30
100
AcDbPolyline
 90
        2
 70
     0
 43
0.0
 10
175.7771257444574
 20
600.2706322423057
 10
137.6276123734569
 20
600.2706322423057
  0
ELLIPSE
  5
18C8B
330
1E
100
AcDbEntity
  8
0
  6
SLD-実線
 62
     7
370
    30
100
AcDbEllipse
 10
156.5810795649568
 20
624.1512686303052
 30
0.0
 11
0.0
 21
1099.999999999999
 31
0.0
210
0.0
220
0.0
230
1.0
 40
0.0174550649
 41
4.690677605249396
 42
4.734986454741449
  0
LWPOLYLINE
  5
18C8C
330
1E
100
AcDbEntity
  8
0
  6
SLD-実線
 62
     7
370
    30
100
AcDbPolyline
 90
        2
 70
     0
 43
0.0
 10
175.7767488484569
 20
649.0063749373056
 10
173.7023690589567
 20
649.0063749373056
  0
LWPOLYLINE
  5
18C8D
330
1E
100
AcDbEntity
  8
10
100
AcDbPolyline
 90
        2
 70
     0
 43
0.0
 10
226.7770101534122
 20
716.776945097806
 10
86.70236905895762
 20
716.776945097806
  0
LWPOLYLINE
  5
18C8E
330
1E
100
AcDbEntity
  8
0
  6
SLD-実線
 62
     7
370
    30
100
AcDbPolyline
 90
        2
 70
     0
 43
0.0
 10
86.85236905895633
 20
723.5687236953054
 10
86.85236905895633
 20
723.5477776173057
  0
ELLIPSE
  5
18C8F
330
1E
100
AcDbEntity
  8
10
  6
Continuous
100
AcDbEllipse
 10
145.200996712957
 20
752.6623744843056
 30
0.0
 11
-0.9502067146544844
 21
-0.3164782046943066
 31
0.0
210
0.0
220
0.0
230
1.0
 40
0.9984778550999999
 41
2.820542303066162
 42
4.390425241354258
  0
ELLIPSE
  5
18C90
330
1E
100
AcDbEntity
  8
10
  6
Continuous
100
AcDbEllipse
 10
123.2037414049573
 20
752.6623744843056
 30
0.0
 11
0.9502067146544844
 21
-0.3164782046943066
 31
0.0
210
0.0
220
0.0
230
1.0
 40
0.9984778550999999
 41
1.892760065825284
 42
3.462643004113491
  0
ELLIPSE
  5
18C91
330
1E
100
AcDbEntity
  8
10
  6
Continuous
100
AcDbEllipse
 10
100.200996712957
 20
752.6623744843056
 30
0.0
 11
-0.9502067146544844
 21
-0.3164782046943066
 31
0.0
210
0.0
220
0.0
230
1.0
 40
0.9984778550999999
 41
2.820542303066148
 42
4.390425241354276
  0
ELLIPSE
  5
18C92
330
1E
100
AcDbEntity
  8
10
  6
Continuous
100
AcDbEllipse
 10
190.200996712957
 20
752.6623744843056
 30
0.0
 11
-0.9502067146544137
 21
-0.316478204694306
 31
0.0
210
0.0
220
0.0
230
0.9999999999999998
 40
0.9984778550999999
 41
2.820542303066146
 42
4.390425241354233
  0
ELLIPSE
  5
18C93
330
1E
100
AcDbEntity
  8
10
  6
Continuous
100
AcDbEllipse
 10
213.2037414049573
 20
752.6623744843056
 30
0.0
 11
0.9502067146543426
 21
-0.316478204694306
 31
0.0
210
0.0
220
0.0
230
1.0
 40
0.9984778550999999
 41
1.892760065825374
 42
3.462643004113488
  0
ELLIPSE
  5
18C94
330
1E
100
AcDbEntity
  8
10
  6
Continuous
100
AcDbEllipse
 10
168.2037414049573
 20
752.6623744843056
 30
0.0
 11
0.9502067146544844
 21
-0.3164782046943066
 31
0.0
210
0.0
220
0.0
230
1.0
 40
0.9984778550999999
 41
1.892760065825216
 42
3.462643004113484
  0
LWPOLYLINE
  5
18C95
330
1E
100
AcDbEntity
  8
10
  6
Continuous
100
AcDbPolyline
 90
        6
 70
     0
 43
0.0
 10
101.2023690589567
 20
752.663288011806
 10
101.2023690589567
 20
728.1512686303058
 42
0.4142135623730951
 10
101.7023690589567
 20
727.6512686303058
 10
121.7023690589576
 20
727.6512686303058
 42
0.4142135623730951
 10
122.2023690589576
 20
728.1512686303058
 10
122.2023690589576
 20
752.663288011806
  0
LWPOLYLINE
  5
18C96
330
1E
100
AcDbEntity
  8
10
  6
Continuous
100
AcDbPolyline
 90
        6
 70
     0
 43
0.0
 10
212.2023690589576
 20
752.663288011806
 10
212.2023690589576
 20
728.1512686303058
 42
-0.4142135623730951
 10
211.7023690589576
 20
727.6512686303058
 10
191.7023690589567
 20
727.6512686303058
 42
-0.4142135623730951
 10
191.2023690589567
 20
728.1512686303058
 10
191.2023690589567
 20
752.663288011806
  0
LWPOLYLINE
  5
18C97
330
1E
100
AcDbEntity
  8
10
  6
Continuous
100
AcDbPolyline
 90
        6
 70
     0
 43
0.0
 10
167.2023690589576
 20
752.663288011806
 10
167.2023690589576
 20
728.1512686303058
 42
-0.4142135623730951
 10
166.7023690589576
 20
727.6512686303058
 10
146.7023690589567
 20
727.6512686303058
 42
-0.4142135623730951
 10
146.2023690589567
 20
728.1512686303058
 10
146.2023690589567
 20
752.663288011806
  0
LWPOLYLINE
  5
18C98
330
1E
100
AcDbEntity
  8
10
  6
Continuous
100
AcDbPolyline
 90
        3
 70
     0
 43
0.0
 10
100.2019113549568
 20
753.6625268123056
 10
87.35236905895636
 20
753.6625268123056
 42
0.4142135623730951
 10
86.85236905895633
 20
753.1625268123056
  0
LWPOLYLINE
  5
18C99
330
1E
100
AcDbEntity
  8
10
  6
Continuous
100
AcDbPolyline
 90
        2
 70
     0
 43
0.0
 10
145.204118475599
 20
753.6625268123056
 10
123.2028267629575
 20
753.6625268123056
  0
LWPOLYLINE
  5
18C9A
330
1E
100
AcDbEntity
  8
10
  6
Continuous
100
AcDbPolyline
 90
        2
 70
     0
 43
0.0
 10
190.2019113548348
 20
753.66252681231
 10
168.2028267629575
 20
753.6625268123056
  0
LWPOLYLINE
  5
18C9B
330
1E
100
AcDbEntity
  8
0
  6
SLD-実線
 62
     7
370
    30
100
AcDbPolyline
 90
        2
 70
     0
 43
0.0
 10
175.707577678957
 20
633.8460600103056
 10
175.7107878394571
 20
633.8428498498057
  0
ELLIPSE
  5
18C9C
330
1E
100
AcDbEntity
  8
0
  6
SLD-実線
 62
     7
370
    30
100
AcDbEllipse
 10
177.2107672779566
 20
633.8428909733058
 30
0.0
 11
1.499999999999985
 21
0.0
 31
0.0
210
0.0
220
0.0
230
1.0
 40
0.0052360356
 41
3.146828641355292
 42
3.265756772781851
  0
LWPOLYLINE
  5
18C9D
330
1E
100
AcDbEntity
  8
10
  6
Continuous
100
AcDbPolyline
 90
        2
 70
     0
 43
0.0
 10
182.2023690589576
 20
669.1512686303052
 10
182.1934892099571
 20
579.1459959008052
  0
LWPOLYLINE
  5
18C9E
330
1E
100
AcDbEntity
  8
10
  6
Continuous
100
AcDbPolyline
 90
        2
 70
     0
 43
0.0
 10
131.2023690589567
 20
669.1512686303052
 10
131.2045412398138
 20
579.1512686303055
  0
INSERT
  5
18C9F
330
1E
100
AcDbEntity
  8
16
100
AcDbBlockReference
  2
SW_CENTERMARKSYMBOL_9
 10
201.7023690589567
 20
738.1512686303059
 30
0.0
 41
5.0
 42
5.0
 43
5.0
  0
INSERT
  5
18CA0
330
1E
100
AcDbEntity
  8
12
100
AcDbBlockReference
  2
SW_CENTERMARKSYMBOL_10
 10
134.2023690589567
 20
731.1512686303058
 30
0.0
 41
5.0
 42
5.0
 43
5.0
  0
INSERT
  5
18CA1
330
1E
100
AcDbEntity
  8
12
100
AcDbBlockReference
  2
SW_CENTERMARKSYMBOL_11
 10
179.2023690589567
 20
731.1512686303058
 30
0.0
 41
5.0
 42
5.0
 43
5.0
  0
CIRCLE
  5
18CA2
330
1E
100
AcDbEntity
  8
12
100
AcDbCircle
 10
-179.2023690589567
 20
731.1512686303058
 30
0.0
 40
4.0
210
0.0
220
0.0
230
-1.0
  0
CIRCLE
  5
18CA3
330
1E
100
AcDbEntity
  8
12
100
AcDbCircle
 10
-134.2023690589567
 20
731.1512686303058
 30
0.0
 40
4.0
210
0.0
220
0.0
230
-1.0
  0
LWPOLYLINE
  5
18CA4
330
1E
100
AcDbEntity
  8
10
100
AcDbPolyline
 90
        2
 70
     0
 43
0.0
 10
82.7023690589567
 20
701.1512686303055
 10
86.70236905895762
 20
701.1512686303055
  0
CIRCLE
  5
18CA5
330
1E
100
AcDbEntity
  8
24
  6
CONTINOUS
100
AcDbCircle
 10
201.7023690589567
 20
738.1512686303059
 30
0.0
 40
4.618802153517049
  0
INSERT
  5
18CA6
330
1E
100
AcDbEntity
  8
16
100
AcDbBlockReference
  2
SW_CENTERMARKSYMBOL_9
 10
156.7023690589567
 20
738.1512686303059
 30
0.0
 41
5.0
 42
5.0
 43
5.0
  0
CIRCLE
  5
18CA7
330
1E
100
AcDbEntity
  8
24
  6
CONTINOUS
100
AcDbCircle
 10
156.7023690589567
 20
738.1512686303059
 30
0.0
 40
4.618802153517049
  0
INSERT
  5
18CA8
330
1E
100
AcDbEntity
  8
16
100
AcDbBlockReference
  2
SW_CENTERMARKSYMBOL_9
 10
111.7023690589567
 20
738.1512686303059
 30
0.0
 41
5.0
 42
5.0
 43
5.0
  0
CIRCLE
  5
18CA9
330
1E
100
AcDbEntity
  8
24
  6
CONTINOUS
100
AcDbCircle
 10
111.7023690589567
 20
738.1512686303059
 30
0.0
 40
4.618802153517049
  0
LWPOLYLINE
  5
18CAA
330
1E
100
AcDbEntity
  8
10
  6
Continuous
100
AcDbPolyline
 90
        2
 70
     0
 43
0.0
 10
213.2028267630794
 20
753.6625268123099
 10
226.7569606245614
 20
753.6625268123099
  0
LWPOLYLINE
  5
18CAB
330
1E
100
AcDbEntity
  8
10
100
AcDbPolyline
 90
        2
 70
     0
 43
0.0
 10
86.70236905895762
 20
486.1512686303054
 42
0.4142135623730951
 10
89.70236905895763
 20
483.1512686303055
  0
LWPOLYLINE
  5
18CAC
330
1E
100
AcDbEntity
  8
10
100
AcDbPolyline
 90
       11
 70
     0
 43
0.0
 10
226.9023690589567
 20
486.1512686303051
 42
-0.3671964832331725
 10
223.9023690589567
 20
483.1512686303049
 10
181.2023690589567
 20
483.1512686303049
 10
181.2023690589567
 20
488.1512686303052
 10
177.2023690589576
 20
488.1512686303052
 10
177.2023690589576
 20
483.1512686303049
 10
136.2023690589567
 20
483.1512686303049
 10
136.2023690589567
 20
488.1512686303052
 10
132.2023690589576
 20
488.1512686303052
 10
132.2023690589576
 20
483.1512686303049
 10
89.70236905895763
 20
483.1512686303049
  0
LWPOLYLINE
  5
18CAD
330
1E
100
AcDbEntity
  8
10
  6
Continuous
100
AcDbPolyline
 90
        4
 70
     0
 43
0.0
 10
191.2023690589567
 20
499.1512686303054
 10
192.7023690589567
 20
497.651268630305
 10
210.7023690589576
 20
497.651268630305
 10
212.2023690589576
 20
499.1512686303054
  0
LWPOLYLINE
  5
18CAE
330
1E
100
AcDbEntity
  8
10
  6
Continuous
100
AcDbPolyline
 90
        4
 70
     0
 43
0.0
 10
101.2023690589567
 20
499.1512686303054
 10
102.7023690589567
 20
497.651268630305
 10
120.7023690589576
 20
497.651268630305
 10
122.2023690589576
 20
499.1512686303054
  0
LWPOLYLINE
  5
18CAF
330
1E
100
AcDbEntity
  8
10
  6
Continuous
100
AcDbPolyline
 90
        4
 70
     0
 43
0.0
 10
146.2023690589567
 20
499.1512686303054
 10
147.7023690589567
 20
497.651268630305
 10
165.7023690589576
 20
497.651268630305
 10
167.2023690589576
 20
499.1512686303054
  0
LWPOLYLINE
  5
18CB0
330
1E
100
AcDbEntity
  8
10
100
AcDbPolyline
 90
        2
 70
     0
 43
0.0
 10
226.8777053891304
 20
531.5255921628049
 10
86.70236905895762
 20
531.5255921628049
  0
ELLIPSE
  5
18CB1
330
1E
100
AcDbEntity
  8
10
  6
Continuous
100
AcDbEllipse
 10
145.200996712957
 20
495.6401627763053
 30
0.0
 11
-0.9502067146544844
 21
0.3164782046943066
 31
0.0
210
0.0
220
0.0
230
-1.0
 40
0.9984778550999999
 41
2.820542303066162
 42
4.390425241354258
  0
ELLIPSE
  5
18CB2
330
1E
100
AcDbEntity
  8
10
  6
Continuous
100
AcDbEllipse
 10
123.2037414049573
 20
495.6401627763053
 30
0.0
 11
0.9502067146544844
 21
0.3164782046943066
 31
0.0
210
0.0
220
0.0
230
-1.0
 40
0.9984778550999999
 41
1.892760065825284
 42
3.462643004113491
  0
ELLIPSE
  5
18CB3
330
1E
100
AcDbEntity
  8
10
  6
Continuous
100
AcDbEllipse
 10
100.200996712957
 20
495.6401627763053
 30
0.0
 11
-0.9502067146544844
 21
0.3164782046943066
 31
0.0
210
0.0
220
0.0
230
-1.0
 40
0.9984778550999999
 41
2.820542303066148
 42
4.390425241354276
  0
ELLIPSE
  5
18CB4
330
1E
100
AcDbEntity
  8
10
  6
Continuous
100
AcDbEllipse
 10
190.200996712957
 20
495.6401627763053
 30
0.0
 11
-0.9502067146544137
 21
0.316478204694306
 31
0.0
210
0.0
220
0.0
230
-0.9999999999999998
 40
0.9984778550999999
 41
2.820542303066146
 42
4.390425241354233
  0
ELLIPSE
  5
18CB5
330
1E
100
AcDbEntity
  8
10
  6
Continuous
100
AcDbEllipse
 10
213.2037414049573
 20
495.6401627763053
 30
0.0
 11
0.9502067146543426
 21
0.316478204694306
 31
0.0
210
0.0
220
0.0
230
-1.0
 40
0.9984778550999999
 41
1.892760065825374
 42
3.462643004113488
  0
ELLIPSE
  5
18CB6
330
1E
100
AcDbEntity
  8
10
  6
Continuous
100
AcDbEllipse
 10
168.2037414049573
 20
495.6401627763053
 30
0.0
 11
0.9502067146544844
 21
0.3164782046943066
 31
0.0
210
0.0
220
0.0
230
-1.0
 40
0.9984778550999999
 41
1.892760065825216
 42
3.462643004113484
  0
LWPOLYLINE
  5
18CB7
330
1E
100
AcDbEntity
  8
10
  6
Continuous
100
AcDbPolyline
 90
        6
 70
     0
 43
0.0
 10
101.2023690589567
 20
495.6392492488047
 10
101.2023690589567
 20
520.1512686303051
 42
-0.4142135623730951
 10
101.7023690589567
 20
520.6512686303051
 10
121.7023690589576
 20
520.6512686303051
 42
-0.4142135623730951
 10
122.2023690589576
 20
520.1512686303051
 10
122.2023690589576
 20
495.6392492488047
  0
LWPOLYLINE
  5
18CB8
330
1E
100
AcDbEntity
  8
10
  6
Continuous
100
AcDbPolyline
 90
        6
 70
     0
 43
0.0
 10
212.2023690589576
 20
495.6392492488047
 10
212.2023690589576
 20
520.1512686303051
 42
0.4142135623730951
 10
211.7023690589576
 20
520.6512686303051
 10
191.7023690589567
 20
520.6512686303051
 42
0.4142135623730951
 10
191.2023690589567
 20
520.1512686303051
 10
191.2023690589567
 20
495.6392492488047
  0
LWPOLYLINE
  5
18CB9
330
1E
100
AcDbEntity
  8
10
  6
Continuous
100
AcDbPolyline
 90
        6
 70
     0
 43
0.0
 10
167.2023690589576
 20
495.6392492488047
 10
167.2023690589576
 20
520.1512686303051
 42
0.4142135623730951
 10
166.7023690589576
 20
520.6512686303051
 10
146.7023690589567
 20
520.6512686303051
 42
0.4142135623730951
 10
146.2023690589567
 20
520.1512686303051
 10
146.2023690589567
 20
495.6392492488047
  0
LWPOLYLINE
  5
18CBA
330
1E
100
AcDbEntity
  8
10
  6
Continuous
100
AcDbPolyline
 90
        3
 70
     0
 43
0.0
 10
100.2019113549568
 20
494.6400104483053
 10
87.35236905895636
 20
494.6400104483053
 42
-0.4142135623730951
 10
86.85236905895633
 20
495.1400104483052
  0
LWPOLYLINE
  5
18CBB
330
1E
100
AcDbEntity
  8
10
  6
Continuous
100
AcDbPolyline
 90
        2
 70
     0
 43
0.0
 10
145.204118475599
 20
494.6400104483053
 10
123.2028267629575
 20
494.6400104483053
  0
LWPOLYLINE
  5
18CBC
330
1E
100
AcDbEntity
  8
10
  6
Continuous
100
AcDbPolyline
 90
        2
 70
     0
 43
0.0
 10
190.2019113548348
 20
494.640010448301
 10
168.2028267629575
 20
494.6400104483053
  0
INSERT
  5
18CBD
330
1E
100
AcDbEntity
  8
16
100
AcDbBlockReference
  2
SW_CENTERMARKSYMBOL_9
 10
201.7023690589567
 20
510.151268630305
 30
0.0
 41
-5.0
 42
5.0
 43
5.0
 50
180.0
  0
INSERT
  5
18CBE
330
1E
100
AcDbEntity
  8
12
100
AcDbBlockReference
  2
SW_CENTERMARKSYMBOL_10
 10
134.2023690589567
 20
517.1512686303051
 30
0.0
 41
-5.0
 42
5.0
 43
5.0
 50
180.0
  0
INSERT
  5
18CBF
330
1E
100
AcDbEntity
  8
12
100
AcDbBlockReference
  2
SW_CENTERMARKSYMBOL_11
 10
179.2023690589567
 20
517.1512686303051
 30
0.0
 41
-5.0
 42
5.0
 43
5.0
 50
180.0
  0
CIRCLE
  5
18CC0
330
1E
100
AcDbEntity
  8
12
100
AcDbCircle
 10
-179.2023690589567
 20
517.1512686303051
 30
0.0
 40
4.0
210
0.0
220
0.0
230
-1.0
  0
CIRCLE
  5
18CC1
330
1E
100
AcDbEntity
  8
12
100
AcDbCircle
 10
-134.2023690589567
 20
517.1512686303051
 30
0.0
 40
4.0
210
0.0
220
0.0
230
-1.0
  0
CIRCLE
  5
18CC2
330
1E
100
AcDbEntity
  8
24
  6
CONTINOUS
100
AcDbCircle
 10
201.7023690589567
 20
510.151268630305
 30
0.0
 40
4.618802153517049
  0
INSERT
  5
18CC3
330
1E
100
AcDbEntity
  8
16
100
AcDbBlockReference
  2
SW_CENTERMARKSYMBOL_9
 10
156.7023690589567
 20
510.151268630305
 30
0.0
 41
-5.0
 42
5.0
 43
5.0
 50
180.0
  0
CIRCLE
  5
18CC4
330
1E
100
AcDbEntity
  8
24
  6
CONTINOUS
100
AcDbCircle
 10
156.7023690589567
 20
510.151268630305
 30
0.0
 40
4.618802153517049
  0
INSERT
  5
18CC5
330
1E
100
AcDbEntity
  8
16
100
AcDbBlockReference
  2
SW_CENTERMARKSYMBOL_9
 10
111.7023690589567
 20
510.151268630305
 30
0.0
 41
-5.0
 42
5.0
 43
5.0
 50
180.0
  0
CIRCLE
  5
18CC6
330
1E
100
AcDbEntity
  8
24
  6
CONTINOUS
100
AcDbCircle
 10
111.7023690589567
 20
510.151268630305
 30
0.0
 40
4.618802153517049
  0
LWPOLYLINE
  5
18CC7
330
1E
100
AcDbEntity
  8
10
  6
Continuous
100
AcDbPolyline
 90
        2
 70
     0
 43
0.0
 10
213.2028267630794
 20
494.640010448301
 10
226.8977549179813
 20
494.640010448301
  0
LWPOLYLINE
  5
18CC8
330
1E
100
AcDbEntity
  8
10
  6
Continuous
100
AcDbPolyline
 90
        4
 70
     1
 43
0.0
 10
139.7023690589576
 20
655.6919334903057
 10
173.7023690589567
 20
655.6919334903057
 10
173.7023690589567
 20
635.9485215673056
 10
139.7023690589576
 20
635.9485215673056
  0
LWPOLYLINE
  5
18CC9
330
1E
100
AcDbEntity
  8
10
  6
Continuous
100
AcDbPolyline
 90
        4
 70
     1
 43
0.0
 10
137.6279893003702
 20
649.0063749373056
 10
175.7771257444574
 20
649.0063749373056
 10
175.7771257444574
 20
600.2706322423057
 10
137.6279893003702
 20
600.2706322423057
  0
LWPOLYLINE
  5
18CCA
330
1E
100
AcDbEntity
  8
10
  6
Continuous
100
AcDbPolyline
 90
        4
 70
     1
 43
0.0
 10
142.3848945860982
 20
635.9485215673056
 10
171.0183634359227
 20
635.9485215673056
 10
171.0183634359227
 20
612.0585892435947
 10
142.3848945860982
 20
612.0585892435947
  0
LWPOLYLINE
  5
18CCB
330
1E
100
AcDbEntity
  8
10
  6
Continuous
100
AcDbPolyline
 90
        9
 70
     0
 43
0.0
 10
139.7023690589576
 20
644.1008235748055
 10
173.7023690589567
 20
644.1008235748055
 10
173.7023690589567
 20
655.6919334903057
 10
139.7023690589576
 20
655.6919334903057
 10
139.7023690589576
 20
644.1008235748055
 10
173.7023690589567
 20
644.1008235748055
 10
173.7023690589567
 20
640.6541831348057
 10
173.7023690589567
 20
640.1299729648058
 10
173.7023690589567
 20
636.8826313618057
  0
DIMENSION
  5
18CCC
330
1E
100
AcDbEntity
  8
30
  6
Continuous
100
AcDbDimension
280
     0
  2
*D20
 10
272.2971986032153
 20
494.1512686303052
 30
0.0
 11
272.2971986032153
 21
624.1512686303052
 31
0.0
 70
   160
  1
<>
 71
     2
 42
260.0
 73
     0
 74
     0
 75
     0
  3
STANDARD
100
AcDbAlignedDimension
 13
226.5566949640315
 23
754.1512686303051
 33
0.0
 14
226.6980205785112
 24
494.1512686303052
 34
0.0
 50
90.0
100
AcDbRotatedDimension
  0
DIMENSION
  5
18CCD
330
1E
100
AcDbEntity
  8
30
  6
Continuous
100
AcDbDimension
280
     0
  2
*D21
 10
230.7023690589576
 20
449.6393575224097
 30
0.0
 11
156.7023690589567
 21
449.6393575224097
 31
0.0
 70
   160
  1
<>
 71
     2
 42
148.0000000000009
 73
     0
 74
     0
 75
     0
  3
STANDARD
100
AcDbAlignedDimension
 13
82.7023690589567
 23
547.1512686303046
 33
0.0
 14
230.7023690589576
 24
547.1512686303046
 34
0.0
100
AcDbRotatedDimension
  0
LWPOLYLINE
  5
18CCE
330
1E
100
AcDbEntity
  8
10
  6
Continuous
100
AcDbPolyline
 90
        2
 70
     0
 43
0.0
 10
226.7566949640315
 20
754.1512686303051
 10
86.70236905895762
 20
754.1512686303051
  0
LWPOLYLINE
  5
18CCF
330
1E
100
AcDbEntity
  8
10
  6
Continuous
100
AcDbPolyline
 90
        2
 70
     0
 43
0.0
 10
226.8980205785112
 20
494.1512686303052
 10
86.70236905895762
 20
494.1512686303052
  0
LWPOLYLINE
  5
18CD0
330
1E
100
AcDbEntity
  8
10
  6
Continuous
100
AcDbPolyline
 90
       21
 70
     0
 43
0.0
 10
142.3848945860982
 20
635.9485215672772
 10
142.384824169575
 20
632.9635938467608
 10
142.3847890506804
 20
629.9784845696407
 10
142.3848245270455
 20
626.9930121793135
 10
142.3849650792972
 20
624.0069993215017
 10
142.385217674263
 20
621.02041016168
 10
142.3855558169489
 20
618.0333809792966
 10
142.3859509914473
 20
615.0460584485394
 10
142.386374681957
 20
612.0585892438056
 10
171.0183634359227
 20
612.0585892435947
 10
171.0193931977346
 20
614.2273825223306
 10
171.0200122919923
 20
616.3985734895945
 10
171.0202828667725
 20
618.5716268952037
 10
171.0203010870664
 20
620.7457964775195
 10
171.0201631178625
 20
622.9203359749012
 10
171.0199651241528
 20
625.0944991257092
 10
171.0198027200676
 20
627.2675448404386
 10
171.0197295315355
 20
629.4391262672544
 10
171.0197283662746
 20
631.6095614839793
 10
171.0197752165286
 20
633.7792325606434
 10
171.0198460745405
 20
635.9485215672772
  0
LWPOLYLINE
  5
18CD1
330
1E
100
AcDbEntity
  8
12
100
AcDbPolyline
 90
        2
 70
     0
 43
0.0
 10
540.3393486133482
 20
694.3399720697367
 10
521.4393486133476
 20
694.3399720697367
  0
LWPOLYLINE
  5
18CD2
330
1E
100
AcDbEntity
  8
24
100
AcDbPolyline
 90
        4
 70
     0
 43
0.0
 10
603.4393486133486
 20
741.6789720697368
 10
602.7393486133478
 20
742.3789720697369
 10
593.4393486133484
 20
742.3789720697369
 10
602.7393486133478
 20
742.3789720697369
  0
LWPOLYLINE
  5
18CD3
330
1E
100
AcDbEntity
  8
24
100
AcDbPolyline
 90
        4
 70
     0
 43
0.0
 10
602.7393486133478
 20
732.5409720697369
 10
593.4393486133484
 20
732.5409720697369
 10
602.7393486133478
 20
732.5409720697369
 10
603.4393486133486
 20
733.2409720697369
  0
LWPOLYLINE
  5
18CD4
330
1E
100
AcDbEntity
  8
24
100
AcDbPolyline
 90
        4
 70
     0
 43
0.0
 10
603.4393486133486
 20
513.6789720697371
 10
602.7393486133478
 20
514.3789720697367
 10
593.4393486133484
 20
514.3789720697367
 10
602.7393486133478
 20
514.3789720697367
  0
LWPOLYLINE
  5
18CD5
330
1E
100
AcDbEntity
  8
24
100
AcDbPolyline
 90
        4
 70
     0
 43
0.0
 10
602.7393486133478
 20
504.5409720697366
 10
593.4393486133484
 20
504.5409720697366
 10
602.7393486133478
 20
504.5409720697366
 10
603.4393486133486
 20
505.240972069737
  0
LWPOLYLINE
  5
18CD6
330
1E
100
AcDbEntity
  8
12
100
AcDbPolyline
 90
        6
 70
     0
 43
0.0
 10
521.4393486133476
 20
686.579972069737
 10
540.3393486133482
 20
686.579972069737
 10
540.3393486133482
 20
694.3399720697367
 10
540.8393486133491
 20
693.8399720697369
 10
540.8393486133491
 20
687.0799720697367
 10
540.3393486133482
 20
686.579972069737
  0
LWPOLYLINE
  5
18CD7
330
1E
100
AcDbEntity
  8
10
100
AcDbPolyline
 90
        9
 70
     0
 43
0.0
 10
521.4393486133476
 20
536.4599720697371
 10
593.4393486133484
 20
536.4599720697371
 10
593.4393486133484
 20
482.4599720697371
 10
498.4393486133483
 20
482.4599720697371
 10
498.4393486133483
 20
764.4599720697366
 10
593.4393486133484
 20
764.4599720697366
 10
593.4393486133484
 20
710.4599720697371
 10
521.4393486133476
 20
710.4599720697371
 10
521.4393486133476
 20
482.4599720697371
  0
LINE
  5
18CD8
330
1E
100
AcDbEntity
  8
10
100
AcDbLine
 10
498.4393486133483
 20
533.9599720697369
 30
0.0
 11
498.4393486133483
 21
485.4599720697371
 31
0.0
  0
LINE
  5
18CD9
330
1E
100
AcDbEntity
  8
10
100
AcDbLine
 10
498.4393486133483
 20
485.4599720697371
 30
0.0
 11
498.4393486133483
 21
482.4599720697371
 31
0.0
  0
LWPOLYLINE
  5
18CDA
330
1E
100
AcDbEntity
  8
10
100
AcDbPolyline
 90
        4
 70
     0
 43
0.0
 10
521.4393486133476
 20
700.459972069737
 10
505.4393486133476
 20
700.459972069737
 10
505.4393486133476
 20
546.4599720697369
 10
521.4393486133476
 20
546.4599720697369
  0
LWPOLYLINE
  5
18CDB
330
1E
100
AcDbEntity
  8
24
100
AcDbPolyline
 90
       10
 70
     0
 43
0.0
 10
603.4393486133486
 20
508.6599720697368
 10
603.4393486133486
 20
505.240972069737
 10
602.7393486133478
 20
504.5409720697366
 10
602.7393486133478
 20
508.6599720697368
 10
600.4393486133476
 20
508.6599720697368
 10
600.4393486133476
 20
510.2599720697369
 10
602.7393486133478
 20
510.2599720697369
 10
602.7393486133478
 20
514.3789720697367
 10
603.4393486133486
 20
513.6789720697371
 10
603.4393486133486
 20
510.2599720697369
  0
LWPOLYLINE
  5
18CDC
330
1E
100
AcDbEntity
  8
24
100
AcDbPolyline
 90
       10
 70
     0
 43
0.0
 10
603.4393486133486
 20
736.6599720697369
 10
603.4393486133486
 20
733.2409720697369
 10
602.7393486133478
 20
732.5409720697369
 10
602.7393486133478
 20
736.6599720697369
 10
600.4393486133476
 20
736.6599720697369
 10
600.4393486133476
 20
738.2599720697371
 10
602.7393486133478
 20
738.2599720697371
 10
602.7393486133478
 20
742.3789720697369
 10
603.4393486133486
 20
741.6789720697368
 10
603.4393486133486
 20
738.2599720697371
  0
LWPOLYLINE
  5
18CDE
330
1E
100
AcDbEntity
  8
0
  6
SLD-実線
 62
     7
370
    30
100
AcDbPolyline
 90
        2
 70
     0
 43
0.0
 10
401.4393486133476
 20
505.9707470157368
 10
401.4393486133476
 20
527.7019718372367
  0
LWPOLYLINE
  5
18CE2
330
1E
100
AcDbEntity
  8
12
  6
SLD-2点鎖線
370
    15
100
AcDbPolyline
 90
        6
 70
     1
 43
0.0
 10
521.4393486133476
 20
665.4599720697371
 10
521.4393486133476
 20
705.4599720697369
 10
526.4393486133476
 20
705.4599720697369
 10
526.4393486133476
 20
670.4599720697371
 10
561.4393486133476
 20
670.4599720697371
 10
561.4393486133476
 20
665.4599720697371
  0
LWPOLYLINE
  5
18CE3
330
1E
100
AcDbEntity
  8
12
100
AcDbPolyline
 90
        4
 70
     1
 43
0.0
 10
528.4393486133486
 20
700.459972069737
 10
528.4393486133486
 20
680.4599720697368
 10
526.4393486133476
 20
680.4599720697368
 10
526.4393486133476
 20
700.459972069737
  0
LWPOLYLINE
  5
18CE4
330
1E
100
AcDbEntity
  8
12
100
AcDbPolyline
 90
        4
 70
     1
 43
0.0
 10
530.9393486133484
 20
699.6599720697371
 10
530.9393486133484
 20
681.2599720697368
 10
528.4393486133486
 20
681.2599720697368
 10
528.4393486133486
 20
699.6599720697371
  0
LWPOLYLINE
  5
18CE5
330
1E
100
AcDbEntity
  8
12
100
AcDbPolyline
 90
        4
 70
     1
 43
0.0
 10
539.339348613347
 20
698.4599720697371
 10
539.339348613347
 20
682.4599720697367
 10
530.9393486133484
 20
682.4599720697367
 10
530.9393486133484
 20
698.4599720697371
  0
DIMENSION
  5
18CF0
330
1E
100
AcDbEntity
  8
30
  6
Continuous
100
AcDbDimension
280
     0
  2
*D23
 10
655.7827948882495
 20
482.459972069737
 30
0.0
 11
655.7827948882495
 21
623.4599720697371
 31
0.0
 70
   160
  1
<>
 71
     2
 42
281.9999999999995
 73
     0
 74
     0
 75
     0
  3
STANDARD
100
AcDbAlignedDimension
 13
593.4393486133484
 23
764.4599720697366
 33
0.0
 14
593.4393486133484
 24
482.4599720697371
 34
0.0
 50
90.0
100
AcDbRotatedDimension
  0
LWPOLYLINE
  5
18CF1
330
1E
100
AcDbEntity
  8
16
 48
2.0
100
AcDbPolyline
 90
        2
 70
     0
 43
0.0
 10
377.3345707711841
 20
624.7979441327363
 10
534.9058129383747
 20
624.7979441327363
  0
LWPOLYLINE
  5
18CF5
330
1E
100
AcDbEntity
  8
12
100
AcDbPolyline
 90
        2
 70
     0
 43
0.0
 10
540.3393486133482
 20
555.2559161957366
 10
521.4393486133476
 20
555.2559161957366
  0
LWPOLYLINE
  5
18CF6
330
1E
100
AcDbEntity
  8
12
100
AcDbPolyline
 90
        6
 70
     0
 43
0.0
 10
521.4393486133476
 20
563.0159161957362
 10
540.3393486133482
 20
563.0159161957362
 10
540.3393486133482
 20
555.2559161957366
 10
540.8393486133491
 20
555.7559161957364
 10
540.8393486133491
 20
562.5159161957366
 10
540.3393486133482
 20
563.0159161957362
  0
LWPOLYLINE
  5
18CF7
330
1E
100
AcDbEntity
  8
12
  6
SLD-2点鎖線
370
    15
100
AcDbPolyline
 90
        6
 70
     1
 43
0.0
 10
521.4393486133476
 20
584.1359161957362
 10
521.4393486133476
 20
544.1359161957363
 10
526.4393486133476
 20
544.1359161957363
 10
526.4393486133476
 20
579.1359161957362
 10
561.4393486133476
 20
579.1359161957362
 10
561.4393486133476
 20
584.1359161957362
  0
LWPOLYLINE
  5
18CF8
330
1E
100
AcDbEntity
  8
12
100
AcDbPolyline
 90
        4
 70
     1
 43
0.0
 10
528.4393486133486
 20
549.1359161957363
 10
528.4393486133486
 20
569.1359161957363
 10
526.4393486133476
 20
569.1359161957363
 10
526.4393486133476
 20
549.1359161957363
  0
LWPOLYLINE
  5
18CF9
330
1E
100
AcDbEntity
  8
12
100
AcDbPolyline
 90
        4
 70
     1
 43
0.0
 10
530.9393486133484
 20
549.9359161957361
 10
530.9393486133484
 20
568.3359161957366
 10
528.4393486133486
 20
568.3359161957366
 10
528.4393486133486
 20
549.9359161957361
  0
LWPOLYLINE
  5
18CFA
330
1E
100
AcDbEntity
  8
12
100
AcDbPolyline
 90
        4
 70
     1
 43
0.0
 10
539.339348613347
 20
551.1359161957361
 10
539.339348613347
 20
567.1359161957365
 10
530.9393486133484
 20
567.1359161957365
 10
530.9393486133484
 20
551.1359161957361
  0
LWPOLYLINE
  5
18CFD
330
1E
100
AcDbEntity
  8
24
100
AcDbPolyline
 90
       16
 70
     1
 43
0.0
 10
603.439348613153
 20
736.6599720698294
 10
603.3519369439491
 20
736.6599720698294
 10
603.2645109138702
 20
736.6599720698294
 10
603.1770561668118
 20
736.6599720698294
 10
603.0895634311007
 20
736.6599720698294
 10
603.0020381787087
 20
736.6599720698294
 10
602.9144885388078
 20
736.6599720698294
 10
602.8269226405654
 20
736.6599720698294
 10
602.7393486131541
 20
736.6599720698294
 10
602.8269226405654
 20
736.6599720698294
 10
602.9144885388078
 20
736.6599720698294
 10
603.0020381787087
 20
736.6599720698294
 10
603.0895634311007
 20
736.6599720698294
 10
603.1770561668118
 20
736.6599720698294
 10
603.2645109138702
 20
736.6599720698294
 10
603.3519369439491
 20
736.6599720698294
  0
LWPOLYLINE
  5
18CFE
330
1E
100
AcDbEntity
  8
24
100
AcDbPolyline
 90
       16
 70
     1
 43
0.0
 10
602.7393486131541
 20
738.2599720698292
 10
602.8269226405654
 20
738.2599720698292
 10
602.9144885388078
 20
738.2599720698292
 10
603.0020381787087
 20
738.2599720698292
 10
603.0895634311007
 20
738.2599720698292
 10
603.1770561668118
 20
738.2599720698292
 10
603.2645109138702
 20
738.2599720698292
 10
603.3519369439491
 20
738.2599720698292
 10
603.439348613153
 20
738.2599720698292
 10
603.3519369439491
 20
738.2599720698292
 10
603.2645109138702
 20
738.2599720698292
 10
603.1770561668118
 20
738.2599720698292
 10
603.0895634311007
 20
738.2599720698292
 10
603.0020381787087
 20
738.2599720698292
 10
602.9144885388078
 20
738.2599720698292
 10
602.8269226405654
 20
738.2599720698292
  0
LWPOLYLINE
  5
18CFF
330
1E
100
AcDbEntity
  8
24
100
AcDbPolyline
 90
       16
 70
     1
 43
0.0
 10
602.7393486131541
 20
508.6599720698287
 10
602.8269226405654
 20
508.6599720698287
 10
602.9144885388078
 20
508.6599720698289
 10
603.0020381787087
 20
508.659972069829
 10
603.0895634311007
 20
508.659972069829
 10
603.1770561668118
 20
508.659972069829
 10
603.2645109138702
 20
508.659972069829
 10
603.3519369439491
 20
508.6599720698289
 10
603.439348613153
 20
508.6599720698297
 10
603.3519369439491
 20
508.6599720698297
 10
603.2645109138702
 20
508.6599720698297
 10
603.1770561668118
 20
508.6599720698297
 10
603.0895634311007
 20
508.6599720698297
 10
603.0020381787087
 20
508.6599720698297
 10
602.9144885388067
 20
508.6599720698297
 10
602.8269226405646
 20
508.6599720698297
  0
LWPOLYLINE
  5
18D00
330
1E
100
AcDbEntity
  8
24
100
AcDbPolyline
 90
       16
 70
     1
 43
0.0
 10
602.7393486131522
 20
510.259972069829
 10
602.8269226405646
 20
510.259972069829
 10
602.9144885388067
 20
510.259972069829
 10
603.0020381787087
 20
510.259972069829
 10
603.0895634311007
 20
510.259972069829
 10
603.1770561668118
 20
510.259972069829
 10
603.2645109138702
 20
510.259972069829
 10
603.3519369439491
 20
510.259972069829
 10
603.439348613153
 20
510.259972069829
 10
603.3519369439491
 20
510.259972069829
 10
603.2645109138702
 20
510.259972069829
 10
603.1770561668118
 20
510.259972069829
 10
603.0895634311007
 20
510.259972069829
 10
603.0020381787087
 20
510.259972069829
 10
602.9144885388078
 20
510.259972069829
 10
602.8269226405654
 20
510.259972069829
  0
DIMENSION
  5
18D01
330
1E
100
AcDbEntity
  8
30
  6
Continuous
100
AcDbDimension
280
     0
  2
*D24
 10
477.0353358878565
 20
167.2084916969874
 30
0.0
 11
470.0353358878563
 21
213.2084916969876
 31
0.0
 70
    32
 71
     5
 42
92.00000000000015
 73
     0
 74
     0
 75
     0
  3
STANDARD
100
AcDbAlignedDimension
 13
433.551590133181
 23
259.2084916969876
 33
0.0
 14
433.551590133181
 24
167.2084916969875
 34
0.0
 50
90.0
100
AcDbRotatedDimension
  0
LINE
  5
18D02
330
1E
100
AcDbEntity
  8
16
 48
2.0
100
AcDbLine
 10
571.1790910958398
 20
371.8438371979964
 30
0.0
 11
571.1790910958398
 21
62.35327773458493
 31
0.0
  0
LINE
  5
18D03
330
1E
100
AcDbEntity
  8
16
 48
2.0
100
AcDbLine
 10
491.0207531261893
 20
213.2084916969876
 30
0.0
 11
657.4194715526138
 21
213.2084916969876
 31
0.0
  0
LWPOLYLINE
  5
18D04
330
1E
100
AcDbEntity
  8
18
 48
2.0
100
AcDbPolyline
 90
       12
 70
     1
 43
0.0
 10
501.1790910958398
 20
290.2084916969876
 10
501.1790910958398
 20
354.2084916969876
 10
641.1790910958398
 20
354.2084916969876
 10
641.1790910958398
 20
290.2084916969876
 10
645.1790910958407
 20
290.2084916969876
 10
645.1790910958407
 20
136.2084916969871
 10
641.1790910958398
 20
136.2084916969871
 10
641.1790910958398
 20
72.20849169698761
 10
501.1790910958398
 20
72.20849169698761
 10
501.1790910958398
 20
136.2084916969871
 10
497.1790910958397
 20
136.2084916969871
 10
497.1790910958397
 20
290.2084916969876
  0
LWPOLYLINE
  5
18D05
330
1E
100
AcDbEntity
  8
11
100
AcDbPolyline
 90
        8
 70
     1
 43
0.0
 10
544.6790910958394
 20
257.2084916969876
 10
544.6790910958407
 20
169.2084916969875
 42
0.4142135623730951
 10
546.6790910958406
 20
167.2084916969876
 10
595.6790910958398
 20
167.2084916969875
 42
0.4142135623730951
 10
597.6790910958404
 20
169.2084916969875
 10
597.6790910958397
 20
257.2084916969876
 42
0.4142135623730951
 10
595.6790910958398
 20
259.2084916969876
 10
546.6790910958406
 20
259.2084916969876
 42
0.4142135623730951
  0
DIMENSION
  5
18D06
330
1E
100
AcDbEntity
  8
30
  6
Continuous
100
AcDbDimension
280
     0
  2
*D25
 10
597.6790910958404
 20
44.10413780339967
 30
0.0
 11
574.64767535184
 21
44.10413780339967
 31
0.0
 70
   160
  1
<>
 71
     2
 42
53.00000000000091
 73
     0
 74
     0
 75
     0
  3
STANDARD
100
AcDbAlignedDimension
 13
544.6790910958394
 23
169.2084916969875
 33
0.0
 14
597.6790910958404
 24
169.2084916969875
 34
0.0
100
AcDbRotatedDimension
  0
DIMENSION
  5
18D08
330
1E
100
AcDbEntity
  8
30
  6
Continuous
100
AcDbDimension
280
     0
  2
*D26
 10
675.0864428694076
 20
167.2084916969875
 30
0.0
 11
668.0864428694076
 21
213.2084916969876
 31
0.0
 70
    32
 71
     5
 42
92.00000000000008
 73
     0
 74
     0
 75
     0
  3
STANDARD
100
AcDbAlignedDimension
 13
595.6790910958398
 23
259.2084916969876
 33
0.0
 14
595.6790910958398
 24
167.2084916969875
 34
0.0
 50
90.0
100
AcDbRotatedDimension
  0
MTEXT
  5
18D09
330
1E
100
AcDbEntity
  8
240
100
AcDbMText
 10
357.6624228819519
 20
31.89994632069466
 30
0.0
 40
10.0
 41
0.0
 46
0.0
 71
     1
 72
     1
  1
[Cutout A]
  7
SLDTEXTSTYLE0
 73
     1
 44
1.0
  0
MTEXT
  5
18D0A
330
1E
100
AcDbEntity
  8
240
100
AcDbMText
 10
549.6363365749528
 20
31.89994632069466
 30
0.0
 40
10.0
 41
0.0
 46
0.0
 71
     1
 72
     1
  1
[Cutout B]
  7
SLDTEXTSTYLE0
 73
     1
 44
1.0
  0
DIMENSION
  5
19770
330
1E
100
AcDbEntity
  8
30
  6
Continuous
100
AcDbDimension
280
     0
  2
*D27
 10
433.7288989481366
 20
256.888535868307
 30
0.0
 11
466.318936341724
 21
289.0276378786751
 31
0.0
 70
   164
 71
     5
 42
2.000000000179568
 73
     0
 74
     0
 75
     0
  3
STANDARD1
100
AcDbRadialDimension
 15
434.8902636266354
 25
258.5167963156105
 35
0.0
 40
0.0
  0
DIMENSION
  5
1981F
330
1E
100
AcDbEntity
  8
30
  6
Continuous
100
AcDbDimension
280
     0
  2
*D28
 10
595.8563999107935
 20
256.8885358683079
 30
0.0
 11
628.4464373043801
 21
289.0276378786759
 31
0.0
 70
   164
 71
     5
 42
2.000000000179511
 73
     0
 74
     0
 75
     0
  3
STANDARD1
100
AcDbRadialDimension
 15
597.0177645892927
 25
258.5167963156115
 35
0.0
 40
0.0
  0
LWPOLYLINE
  5
19F24
330
1E
100
AcDbEntity
  8
10
  6
CONTINOUS
100
AcDbPolyline
 90
       11
 70
     1
 43
0.0
 10
398.4256398551261
 20
532.8295046243446
 10
401.4393486133483
 20
532.7979439537362
 10
401.4393486133483
 20
494.7979441327365
 10
498.4393486133483
 20
494.7979441327365
 10
498.4393486133483
 20
754.7979441327368
 10
401.4393486133483
 20
754.7979441327368
 10
401.4393486133483
 20
716.7560557849114
 10
398.3602499039634
 20
716.7238110633632
 42
0.2520626822056452
 10
395.4393514743479
 20
711.2979446565815
 10
395.4393486133485
 20
675.7979441327367
 10
395.4393514743479
 20
538.2979439974891
 42
0.2552568693989432
  0
LINE
  5
1A0CB
330
1E
100
AcDbEntity
  8
0
  6
SLD-実線
 62
     7
370
    30
100
AcDbLine
 10
391.4393506998495
 20
580.8294156237361
 30
0.0
 11
391.4393506998495
 21
668.7664726417361
 31
0.0
  0
LINE
  5
1A0CC
330
1E
100
AcDbEntity
  8
10
  6
CONTINOUS
100
AcDbLine
 10
383.9393504013496
 20
580.7979441327362
 30
0.0
 11
383.9393504013496
 21
668.7979441327366
 31
0.0
  0
LINE
  5
1A0CD
330
1E
100
AcDbEntity
  8
10
  6
CONTINOUS
100
AcDbLine
 10
391.4393486133485
 20
669.7979441327365
 30
0.0
 11
391.4393486133485
 21
579.7979441327362
 31
0.0
  0
LINE
  5
1A0CE
330
1E
100
AcDbEntity
  8
10
  6
CONTINOUS
100
AcDbLine
 10
384.9393504013497
 20
579.7979441327362
 30
0.0
 11
395.4393486133485
 21
579.7979441327362
 31
0.0
  0
ARC
  5
1A0CF
330
1E
100
AcDbEntity
  8
10
  6
CONTINOUS
100
AcDbCircle
 10
384.9393504013497
 20
580.7979441327362
 30
0.0
 40
1.0
100
AcDbArc
 50
180.0
 51
270.0
  0
LINE
  5
1A0D0
330
1E
100
AcDbEntity
  8
10
  6
CONTINOUS
100
AcDbLine
 10
384.9393504013497
 20
669.7979441327365
 30
0.0
 11
395.4393486133485
 21
669.7979441327365
 31
0.0
  0
ARC
  5
1A0D1
330
1E
100
AcDbEntity
  8
10
  6
CONTINOUS
100
AcDbCircle
 10
384.9393504013497
 20
668.7979441327366
 30
0.0
 40
1.0
100
AcDbArc
 50
90.0
 51
180.0
  0
LWPOLYLINE
  5
1A0D2
330
1E
100
AcDbEntity
  8
10
  6
CONTINOUS
100
AcDbPolyline
 90
        8
 70
     1
 43
0.0
 10
374.6247833189109
 20
652.7844259246132
 10
365.2509797363291
 20
653.0421459661043
 10
351.0938519398296
 20
656.6591581906044
 10
347.9880178133299
 20
645.0680478121046
 10
362.0992833533291
 20
641.0971975531046
 10
370.5371894382879
 20
637.5293059217055
 10
375.5557932013489
 20
636.5951971752362
 10
379.4380821338491
 20
651.0840842167361
  0
ARC
  5
1A0D3
330
1E
100
AcDbEntity
  8
10
  6
CONTINOUS
100
AcDbCircle
 10
428.5374609640256
 20
824.8270770151034
 30
0.0
 40
181.6640122735105
100
AcDbArc
 50
252.8048349791452
 51
255.7887474977472
  0
ARC
  5
1A0D4
330
1E
100
AcDbEntity
  8
10
  6
CONTINOUS
100
AcDbCircle
 10
370.2956823765981
 20
590.9856613123006
 30
0.0
 40
46.90130289725614
100
AcDbArc
 50
73.08805372624309
 51
83.24228441301258
  0
LWPOLYLINE
  5
1A0D5
330
1E
100
AcDbEntity
  8
10
  6
CONTINOUS
100
AcDbPolyline
 90
        3
 70
     0
 43
0.0
 10
374.8325946968489
 20
651.2828443407362
 10
371.4679471103492
 20
638.7258085987363
 10
375.814613328349
 20
637.5611228957364
  0
DIMENSION
  5
1A0D6
330
1E
100
AcDbEntity
  8
30
  6
Continuous
100
AcDbDimension
280
     0
  2
*D29
 10
326.941442513753
 20
579.7979441327367
 30
0.0
 11
326.9414425137529
 21
624.7979441327369
 31
0.0
 70
   160
 71
     5
 42
90.0
 73
     0
 74
     0
 75
     0
  3
STANDARD
100
AcDbAlignedDimension
 13
384.9393504013487
 23
669.7979441327365
 33
0.0
 14
377.2256137859332
 24
579.7979441327367
 34
0.0
 50
90.0
100
AcDbRotatedDimension
1001
ACAD
1000
DSTYLE
1002
{
1070
    79
1070
     3
1002
}
  0
DIMENSION
  5
1A616
330
1E
100
AcDbEntity
  8
30
100
AcDbDimension
280
     0
  2
*D31
 10
521.4393486133476
 20
783.0
 30
0.0
 11
461.4393486133478
 21
790.0000000000001
 31
0.0
 70
    32
 71
     5
 42
119.9999999999991
 73
     0
 74
     0
 75
     0
  3
STANDARD
100
AcDbAlignedDimension
 13
401.4393486133483
 23
754.7979441327368
 33
0.0
 14
521.4393486133476
 24
710.4599720697371
 34
0.0
100
AcDbRotatedDimension
  0
DIMENSION
  5
1A62C
330
1E
100
AcDbEntity
  8
30
100
AcDbDimension
280
     0
  2
*D32
 10
593.4393486133484
 20
783.0
 30
0.0
 11
557.4393486133478
 21
790.0000000000001
 31
0.0
 70
    32
 71
     5
 42
72.00000000000091
 73
     0
 74
     0
 75
     0
  3
STANDARD
100
AcDbAlignedDimension
 13
521.4393486133476
 23
764.4599720697366
 33
0.0
 14
593.4393486133484
 24
764.4599720697366
 34
0.0
100
AcDbRotatedDimension
  0
DIMENSION
  5
1A639
330
1E
100
AcDbEntity
  8
30
100
AcDbDimension
280
     0
  2
*D33
 10
603.4393486133486
 20
783.0
 30
0.0
 11
613.106015280015
 21
790.0000000000001
 31
0.0
 70
    32
 71
     5
 42
10.0
 73
     0
 74
     0
 75
     0
  3
STANDARD
100
AcDbAlignedDimension
 13
593.4393486133484
 23
744.0000000000001
 33
0.0
 14
603.4393486133486
 24
743.0000000000001
 34
0.0
100
AcDbRotatedDimension
  0
DIMENSION
  5
1A65D
330
1E
100
AcDbEntity
  8
30
  6
Continuous
100
AcDbDimension
280
     0
  2
*D34
 10
521.4393486133476
 20
428.7578705074192
 30
0.0
 11
442.6971498845558
 21
428.7578705074192
 31
0.0
 70
   160
  1
<>
 71
     2
 42
152.9999999999992
 73
     0
 74
     0
 75
     0
  3
STANDARD
100
AcDbAlignedDimension
 13
368.4393486133485
 23
627.3040468552543
 33
0.0
 14
521.4393486133476
 24
444.5584632444615
 34
0.0
100
AcDbRotatedDimension
1001
ACAD
1000
DSTYLE
1002
{
1070
    79
1070
     3
1002
}
  0
DIMENSION
  5
1A65E
330
1E
100
AcDbEntity
  8
30
  6
Continuous
100
AcDbDimension
280
     0
  2
*D35
 10
521.4393486133476
 20
460.7979441327366
 30
0.0
 11
458.4393486133481
 21
460.7979441327366
 31
0.0
 70
   160
  1
<>
 71
     2
 42
125.9999999999991
 73
     0
 74
     0
 75
     0
  3
STANDARD
100
AcDbAlignedDimension
 13
395.4393486133485
 23
544.6305395012798
 33
0.0
 14
521.4393486133476
 24
482.4599720697371
 34
0.0
100
AcDbRotatedDimension
1001
ACAD
1000
DSTYLE
1002
{
1070
    79
1070
     3
1002
}
  0
DIMENSION
  5
1A65F
330
1E
100
AcDbEntity
  8
30
  6
Continuous
100
AcDbDimension
280
     0
  2
*D36
 10
521.4393486133476
 20
411.0571533250057
 30
0.0
 11
433.3761009025256
 21
411.0571533250057
 31
0.0
 70
   160
 71
     5
 42
173.993495769514
 73
     0
 74
     0
 75
     0
  3
STANDARD
100
AcDbAlignedDimension
 13
347.4458528438336
 23
637.3040468552543
 33
0.0
 14
521.4393486133476
 24
428.7578705074192
 34
0.0
100
AcDbRotatedDimension
1001
ACAD
1000
DSTYLE
1002
{
1070
    79
1070
     3
1002
}
  0
DIMENSION
  5
1A660
330
1E
100
AcDbEntity
  8
30
  6
Continuous
100
AcDbDimension
280
     0
  2
*D37
 10
383.4393484943484
 20
444.5584632444615
 30
0.0
 11
373.7726818276818
 21
451.5584632444617
 31
0.0
 70
    32
 71
     5
 42
8.0
 73
     0
 74
     0
 75
     0
  3
STANDARD1
100
AcDbAlignedDimension
 13
391.4393484943484
 23
574.3040468552543
 33
0.0
 14
383.4393484943484
 24
574.3040468552543
 34
0.0
100
AcDbRotatedDimension
  0
DIMENSION
  5
1A661
330
1E
100
AcDbEntity
  8
30
  6
Continuous
100
AcDbDimension
280
     0
  2
*D38
 10
521.4393486133476
 20
444.5584632444615
 30
0.0
 11
456.439348553848
 21
451.5584632444617
 31
0.0
 70
    32
 71
     5
 42
130.0000001189992
 73
     0
 74
     0
 75
     0
  3
STANDARD
100
AcDbAlignedDimension
 13
391.4393484943484
 23
444.5584632444615
 33
0.0
 14
521.4393486133476
 24
460.7979441327366
 34
0.0
100
AcDbRotatedDimension
1001
ACAD
1000
DSTYLE
1002
{
1070
    79
1070
     3
1002
}
  0
ARC
  5
1A662
330
1E
100
AcDbEntity
  8
30
  6
Continuous
100
AcDbCircle
 10
368.6462009061079
 20
639.4962936201864
 30
0.0
 40
21.39637757822332
100
AcDbArc
 50
164.9058206775906
 51
187.7617629093348
  0
ARC
  5
1A663
330
1E
100
AcDbEntity
  8
30
  6
Continuous
100
AcDbCircle
 10
398.519517665818
 20
624.5938057087839
 30
0.0
 40
30.29117494757552
100
AcDbArc
 50
153.2592132366174
 51
173.2332630719461
  0
DIMENSION
  5
1A78E
330
1E
100
AcDbEntity
  8
30
100
AcDbDimension
280
     0
  2
*D39
 10
293.493679542813
 20
483.1512686303049
 30
0.0
 11
286.4936795428128
 21
624.1512686303053
 31
0.0
 70
    32
 71
     5
 42
282.0000000000007
 73
     0
 74
     0
 75
     0
  3
STANDARD
100
AcDbAlignedDimension
 13
202.4523690589567
 23
765.1512686303058
 33
0.0
 14
202.4523690589567
 24
483.1512686303049
 34
0.0
 50
90.0
100
AcDbRotatedDimension
  0
LWPOLYLINE
  5
1C17B
330
1E
100
AcDbEntity
  8
17
 48
2.0
100
AcDbPolyline
 90
        2
 70
     0
 43
0.0
 10
547.230010406395
 20
737.4599720697371
 10
609.5666537344205
 20
737.4599720697371
  0
LWPOLYLINE
  5
1C17D
330
1E
100
AcDbEntity
  8
17
 48
2.0
100
AcDbPolyline
 90
        2
 70
     0
 43
0.0
 10
547.230010406395
 20
509.459972069737
 10
609.5666537344205
 20
509.459972069737
  0
DIMENSION
  5
1C17E
330
1E
100
AcDbEntity
  8
30
100
AcDbDimension
280
     0
  2
*D40
 10
630.5234394231574
 20
509.459972069737
 30
0.0
 11
623.5234394231572
 21
623.4599720697372
 31
0.0
 70
    32
 71
     5
 42
228.0
 73
     0
 74
     0
 75
     0
  3
STANDARD
100
AcDbAlignedDimension
 13
609.5666537344205
 23
737.4599720697371
 33
0.0
 14
609.5666537344205
 24
509.459972069737
 34
0.0
 50
90.0
100
AcDbRotatedDimension
  0
LINE
  5
1C1C4
330
1E
100
AcDbEntity
  8
16
100
AcDbLine
 10
156.7023690589567
 20
778.4657522877109
 30
0.0
 11
156.7023690589567
 21
476.4380750757209
 31
0.0
  0
LINE
  5
1C1C5
330
1E
100
AcDbEntity
  8
30
100
AcDbLine
 10
134.2023690589567
 20
760.1512686303058
 30
0.0
 11
134.2023690589567
 21
772.1252493139782
 31
0.0
  0
LINE
  5
1C1C6
330
1E
100
AcDbEntity
  8
30
100
AcDbLine
 10
179.2023690589576
 20
760.1512686303058
 30
0.0
 11
179.2023690589576
 21
771.2415423085395
 31
0.0
  0
ARC
  5
1C1CA
330
1E
100
AcDbEntity
  8
24
  6
SLD-2点鎖線
100
AcDbCircle
 10
336.6949009205864
 20
932.3571430835183
 30
0.0
 40
4.000000000000055
100
AcDbArc
 50
90.00000000000003
 51
180.0
  0
ARC
  5
1C1CB
330
1E
100
AcDbEntity
  8
24
  6
SLD-2点鎖線
100
AcDbCircle
 10
336.6949009205864
 20
932.3571430835183
 30
0.0
 40
10.0
100
AcDbArc
 50
90.00000000000003
 51
180.0
  0
LINE
  5
1C1CC
330
1E
100
AcDbEntity
  8
10
100
AcDbLine
 10
333.2308008195508
 20
934.3571457060178
 30
0.0
 11
351.7949030110876
 21
934.357145706018
 31
0.0
  0
LINE
  5
1C1CD
330
1E
100
AcDbEntity
  8
10
100
AcDbLine
 10
326.8969424847695
 20
880.3571405800182
 30
0.0
 11
256.7949004775883
 21
880.3571405800182
 31
0.0
  0
VIEWPORT
  5
9AC
330
1A
100
AcDbEntity
 67
     1
  8
0
  6
Continuous
348
8A77
100
AcDbViewport
 10
171.999535
 20
144.1384739999999
 30
0.0
 40
488.867686
 41
292.351491
 68
     1
 69
     1
 12
171.999535
 22
144.1384739999999
 13
0.0
 23
0.0
 14
10.0
 24
10.0
 15
10.0
 25
10.0
 16
0.0
 26
0.0
 36
1.0
 17
0.0
 27
0.0
 37
0.0
 42
50.0
 43
0.0
 44
0.0
 45
292.351491
 50
0.0
 51
0.0
 72
   100
 90
    32800
  1

281
     0
 71
     1
 74
     0
110
0.0
120
0.0
130
0.0
111
1.0
121
0.0
131
0.0
112
0.0
122
1.0
132
0.0
 79
     0
146
0.0
170
     0
 61
     5
292
     1
282
     1
141
0.0
142
0.0
 63
   250
421
  3355443
  0
ENDSEC
  0
SECTION
  2
OBJECTS
  0
DICTIONARY
  5
C
330
0
100
AcDbDictionary
281
     1
  3
ACAD_CIP_PREVIOUS_PRODUCT_INFO
350
8AA8
  3
ACAD_COLOR
350
8A8A
  3
ACAD_DETAILVIEWSTYLE
350
8AA3
  3
ACAD_GROUP
350
D
  3
ACAD_LAYOUT
350
19
  3
ACAD_MATERIAL
350
8A58
  3
ACAD_MLEADERSTYLE
350
8A9F
  3
ACAD_MLINESTYLE
350
16
  3
ACAD_PLOTSETTINGS
350
18
  3
ACAD_PLOTSTYLENAME
350
E
  3
ACAD_SCALELIST
350
8A8D
  3
ACAD_SECTIONVIEWSTYLE
350
8AA1
  3
ACAD_TABLESTYLE
350
8A8B
  3
ACAD_VISUALSTYLE
350
8A71
  3
ACADDIM
350
6D5E
  3
ACDB_RECOMPOSE_DATA
350
1C1D1
  3
ACDBVARIABLEDICTIONARY
350
5697
  3
AEC_PROPERTY_SET_DEFS
350
BFC4
  0
DICTIONARY
  5
F3CC
330
2
100
AcDbDictionary
280
     1
281
     1
  3
ACAD_LAYERSTATES
360
F3CD
  0
DICTIONARY
  5
8ACC
330
10
100
AcDbDictionary
280
     1
281
     1
  3
ADSK_XREC_LAYER_RECONCILED
360
8ACD
  0
DICTIONARY
  5
8ACE
330
2F
100
AcDbDictionary
280
     1
281
     1
  3
ADSK_XREC_LAYER_RECONCILED
360
8ACF
  0
DICTIONARY
  5
8AD0
330
31
100
AcDbDictionary
280
     1
281
     1
  3
ADSK_XREC_LAYER_RECONCILED
360
8AD1
  0
DICTIONARY
  5
8AD2
330
35
100
AcDbDictionary
280
     1
281
     1
  3
ADSK_XREC_LAYER_RECONCILED
360
8AD3
  0
DICTIONARY
  5
8AD4
330
38
100
AcDbDictionary
280
     1
281
     1
  3
ADSK_XREC_LAYER_RECONCILED
360
8AD5
  0
DICTIONARY
  5
8AD6
330
3D
100
AcDbDictionary
280
     1
281
     1
  3
ADSK_XREC_LAYER_RECONCILED
360
8AD7
  0
DICTIONARY
  5
8AD8
330
3A2
100
AcDbDictionary
280
     1
281
     1
  3
ADSK_XREC_LAYER_RECONCILED
360
8AD9
  0
DICTIONARY
  5
8ADA
330
3BBA
100
AcDbDictionary
280
     1
281
     1
  3
ADSK_XREC_LAYER_RECONCILED
360
8ADB
  0
DICTIONARY
  5
8ADC
330
67A8
100
AcDbDictionary
280
     1
281
     1
  3
ADSK_XREC_LAYER_RECONCILED
360
8ADD
  0
DICTIONARY
  5
8ADE
330
7837
100
AcDbDictionary
280
     1
281
     1
  3
ADSK_XREC_LAYER_RECONCILED
360
8ADF
  0
DICTIONARY
  5
9134
330
9133
100
AcDbDictionary
280
     1
281
     1
  0
DICTIONARY
  5
17471
330
17470
100
AcDbDictionary
280
     1
281
     1
  0
DICTIONARY
  5
17473
330
17472
100
AcDbDictionary
280
     1
281
     1
  0
DICTIONARY
  5
178
330
1E
100
AcDbDictionary
280
     1
281
     1
  3
ACAD_LAYOUTSELFREF
360
8A0F
  3
ACAD_SORTENTS
360
10338
  0
DICTIONARY
  5
17A
330
1A
100
AcDbDictionary
280
     1
281
     1
  3
ACAD_LAYOUTSELFREF
360
8A0E
  0
XRECORD
  5
8AA8
102
{ACAD_REACTORS
330
C
102
}
330
C
100
AcDbXrecord
280
     1
300
ACDLT
300
2014
300
ACDLT_F_S
  0
DICTIONARY
  5
8A8A
102
{ACAD_REACTORS
330
C
102
}
330
C
100
AcDbDictionary
281
     1
  0
DICTIONARY
  5
8AA3
102
{ACAD_REACTORS
330
C
102
}
330
C
100
AcDbDictionary
281
     1
  3
Imperial24
350
8AA4
  0
DICTIONARY
  5
D
102
{ACAD_REACTORS
330
C
102
}
330
C
100
AcDbDictionary
281
     1
  0
DICTIONARY
  5
19
102
{ACAD_REACTORS
330
C
102
}
330
C
100
AcDbDictionary
281
     1
  3
Model
350
8A4C
  3
ﾚｲｱｳﾄ1
350
8A4D
  0
DICTIONARY
  5
8A58
102
{ACAD_REACTORS
330
C
102
}
330
C
100
AcDbDictionary
281
     1
  3
ByBlock
350
8A61
  3
ByLayer
350
8A59
  3
Global
350
8A69
  0
DICTIONARY
  5
8A9F
102
{ACAD_REACTORS
330
C
102
}
330
C
100
AcDbDictionary
281
     1
  3
Standard
350
8AA0
  0
DICTIONARY
  5
16
102
{ACAD_REACTORS
330
C
102
}
330
C
100
AcDbDictionary
281
     1
  3
STANDARD
350
17
  0
DICTIONARY
  5
18
102
{ACAD_REACTORS
330
C
102
}
330
C
100
AcDbDictionary
281
     1
  0
ACDBDICTIONARYWDFLT
  5
E
102
{ACAD_REACTORS
330
C
102
}
330
C
100
AcDbDictionary
281
     1
  3
Normal
350
F
100
AcDbDictionaryWithDefault
340
F
  0
DICTIONARY
  5
8A8D
102
{ACAD_REACTORS
330
C
102
}
330
C
100
AcDbDictionary
281
     1
  3
A0
350
8A8E
  3
A1
350
8A8F
  3
A2
350
8A90
  3
A3
350
8A91
  3
A4
350
8A92
  3
A5
350
8A93
  3
A6
350
8A94
  3
A7
350
8A95
  3
A8
350
8A96
  3
A9
350
8A97
  3
B0
350
8A98
  3
B1
350
8A99
  3
B2
350
8A9A
  3
B3
350
8A9B
  3
B4
350
8A9C
  3
B5
350
8A9D
  3
B6
350
8A9E
  0
DICTIONARY
  5
8AA1
102
{ACAD_REACTORS
330
C
102
}
330
C
100
AcDbDictionary
281
     1
  3
Imperial24
350
8AA2
  0
DICTIONARY
  5
8A8B
102
{ACAD_REACTORS
330
C
102
}
330
C
100
AcDbDictionary
281
     1
  3
Standard
350
8A8C
  0
DICTIONARY
  5
8A71
102
{ACAD_REACTORS
330
C
102
}
330
C
100
AcDbDictionary
281
     1
  3
2dWireframe
350
8A77
  3
3D Hidden
350
8B2B
  3
3dWireframe
350
8B2A
  3
Basic
350
8A76
  3
Brighten
350
8A7D
  3
ColorChange
350
8A81
  3
Conceptual
350
8A7A
  3
Dim
350
8A7C
  3
EdgeColorOff
350
8A89
  3
Facepattern
350
8A80
  3
Flat
350
8A72
  3
FlatWithEdges
350
8A73
  3
Gouraud
350
8A74
  3
GouraudWithEdges
350
8A75
  3
Hidden
350
8A79
  3
JitterOff
350
8A87
  3
Linepattern
350
8A7F
  3
OverhangOff
350
8A88
  3
Realistic
350
8A7B
  3
Shaded
350
8A86
  3
Shaded with edges
350
8A85
  3
Shades of Gray
350
8A82
  3
Sketchy
350
8A83
  3
Thicken
350
8A7E
  3
Wireframe
350
8A78
  3
X-Ray
350
8A84
  0
XRECORD
  5
6D5E
102
{ACAD_REACTORS
330
C
102
}
330
C
100
AcDbXrecord
280
     1
 90
   990106
  3

 60
     0
 61
     0
 62
     1
 63
     3
 64
     0
 65
     0
 66
     0
 67
     3
 68
     1
 69
     0
 70
     0
 71
     0
 72
     0
 40
0.0
170
     0
340
0
  0
XRECORD
  5
1C1D1
102
{ACAD_REACTORS
330
C
102
}
330
C
100
AcDbXrecord
280
     1
 90
        1
330
8A8C
330
8AA2
330
8AA4
  0
DICTIONARY
  5
5697
102
{ACAD_REACTORS
330
C
102
}
330
C
100
AcDbDictionary
281
     1
  3
CANNOSCALE
350
8AE9
  3
CMLEADERSTYLE
350
8AE5
  3
CTABLESTYLE
350
8AE4
  3
CVIEWDETAILSTYLE
350
8AE6
  3
CVIEWSECTIONSTYLE
350
8AE7
  3
DIMASSOC
350
5698
  3
LAYEREVAL
350
8AEB
  3
LAYERNOTIFY
350
8AEC
  3
LIGHTINGUNITS
350
8AEA
  3
MSLTSCALE
350
8AE8
  0
DICTIONARY
  5
BFC4
102
{ACAD_REACTORS
330
C
102
}
330
C
100
AcDbDictionary
281
     1
  0
DICTIONARY
  5
F3CD
102
{ACAD_REACTORS
330
F3CC
102
}
330
F3CC
100
AcDbDictionary
281
     1
  0
XRECORD
  5
8ACD
102
{ACAD_REACTORS
330
8ACC
102
}
330
8ACC
100
AcDbXrecord
280
     1
290
     1
  0
XRECORD
  5
8ACF
102
{ACAD_REACTORS
330
8ACE
102
}
330
8ACE
100
AcDbXrecord
280
     1
290
     1
  0
XRECORD
  5
8AD1
102
{ACAD_REACTORS
330
8AD0
102
}
330
8AD0
100
AcDbXrecord
280
     1
290
     1
  0
XRECORD
  5
8AD3
102
{ACAD_REACTORS
330
8AD2
102
}
330
8AD2
100
AcDbXrecord
280
     1
290
     1
  0
XRECORD
  5
8AD5
102
{ACAD_REACTORS
330
8AD4
102
}
330
8AD4
100
AcDbXrecord
280
     1
290
     1
  0
XRECORD
  5
8AD7
102
{ACAD_REACTORS
330
8AD6
102
}
330
8AD6
100
AcDbXrecord
280
     1
290
     1
  0
XRECORD
  5
8AD9
102
{ACAD_REACTORS
330
8AD8
102
}
330
8AD8
100
AcDbXrecord
280
     1
290
     1
  0
XRECORD
  5
8ADB
102
{ACAD_REACTORS
330
8ADA
102
}
330
8ADA
100
AcDbXrecord
280
     1
290
     1
  0
XRECORD
  5
8ADD
102
{ACAD_REACTORS
330
8ADC
102
}
330
8ADC
100
AcDbXrecord
280
     1
290
     1
  0
XRECORD
  5
8ADF
102
{ACAD_REACTORS
330
8ADE
102
}
330
8ADE
100
AcDbXrecord
280
     1
290
     1
  0
XRECORD
  5
8A0F
102
{ACAD_REACTORS
330
178
102
}
330
178
100
AcDbXrecord
280
     1
340
1E
  0
SORTENTSTABLE
  5
10338
102
{ACAD_REACTORS
330
178
102
}
330
178
100
AcDbSortentsTable
330
1E
331
18CB0
  5
180D4
331
18C59
  5
1807F
331
18C1A
  5
1803E
331
18CD0
  5
183B5
331
18C69
  5
18090
331
18C22
  5
18046
331
18CD8
  5
183C0
331
18C71
  5
18095
331
18C2A
  5
1804E
331
18C32
  5
18056
331
18CC8
  5
180F9
331
1A65F
  5
1AB56
331
18CF0
  5
183CB
331
18D00
  5
183D9
331
18D08
  5
183E0
331
18C99
  5
180BD
331
18CA1
  5
180C5
331
18C0F
  5
18031
331
18CF8
  5
183D2
331
18C79
  5
1809D
331
18CA9
  5
180CD
331
18C3A
  5
1805E
331
18C81
  5
180A5
331
18C42
  5
18068
331
18CB9
  5
180DD
331
18BE7
  5
1800A
331
18C89
  5
180AD
331
18C4A
  5
18070
331
18BF3
  5
18015
331
18C91
  5
180B5
331
18C52
  5
18078
331
18C13
  5
18035
331
1A0D0
  5
1AB24
331
18BE9
  5
1800C
331
18BF9
  5
1801B
331
18C01
  5
18023
331
18C61
  5
18085
331
18CC1
  5
180E5
331
18CB1
  5
180D5
331
18C5A
  5
18080
331
18C1B
  5
1803F
331
18CD1
  5
183B9
331
18C23
  5
18047
331
18CD9
  5
183C1
331
18C72
  5
18096
331
18C2B
  5
1804F
331
18C33
  5
18057
331
18CC9
  5
180FA
331
1A660
  5
1AB57
331
18CF1
  5
183CC
331
18D01
  5
183DA
331
18D09
  5
1A10E
331
18C9A
  5
180BE
331
18C08
  5
1802A
331
18CA2
  5
180C6
331
18CF9
  5
183D3
331
18C7A
  5
1809E
331
18C3B
  5
1805F
331
18CAA
  5
180CE
331
18BD4
  5
17FF7
331
18C82
  5
180A6
331
18CBA
  5
180DE
331
18C43
  5
18069
331
18C8A
  5
180AE
331
18C4B
  5
18071
331
18BF4
  5
18016
331
18C92
  5
180B6
331
18C53
  5
18079
331
18C14
  5
18036
331
1A0D1
  5
1AB25
331
18BEA
  5
1800D
331
18BFA
  5
1801C
331
18C02
  5
18024
331
1A639
  5
1AB53
331
18C62
  5
18086
331
18CC2
  5
180E6
331
18CB2
  5
180D6
331
18C5B
  5
18081
331
18C1C
  5
18040
331
18CD2
  5
183BA
331
18C24
  5
18048
331
18CDA
  5
183C2
331
18C73
  5
18097
331
18C2C
  5
18050
331
18CE2
  5
183C6
331
18C34
  5
18058
331
18CCA
  5
180FB
331
1A661
  5
1AB58
331
18D02
  5
183DB
331
18D0A
  5
1A1CF
331
18C9B
  5
180BF
331
18C09
  5
1802B
331
18CA3
  5
180C7
331
18CFA
  5
183D4
331
18C7B
  5
1809F
331
18CAB
  5
180CF
331
18C3C
  5
18060
331
18C83
  5
180A7
331
18CBB
  5
180DF
331
18C44
  5
1806A
331
18C8B
  5
180AF
331
18C4C
  5
18072
331
18BF5
  5
18017
331
18C93
  5
180B7
331
18C54
  5
1807A
331
18C15
  5
18037
331
1A0D2
  5
1AB26
331
18BEB
  5
1800E
331
18BFB
  5
1801D
331
1981F
  5
1AB1D
331
18C03
  5
18025
331
18C63
  5
18087
331
18CC3
  5
180E8
331
18CB3
  5
180D7
331
18C1D
  5
18041
331
18CD3
  5
183BB
331
18C25
  5
18049
331
18CDB
  5
183C3
331
18C74
  5
18098
331
18C2D
  5
18051
331
18CE3
  5
183C7
331
18C35
  5
18059
331
18CCB
  5
183B0
331
1A662
  5
1ACA2
331
18D03
  5
183DC
331
18C9C
  5
180C0
331
18C0A
  5
1802C
331
18CA4
  5
180C8
331
18C7C
  5
180A0
331
18C3D
  5
18061
331
18CAC
  5
180D0
331
18BD6
  5
17FF9
331
18C84
  5
180A8
331
18CBC
  5
180E0
331
18C45
  5
1806B
331
1C1CA
  5
1C1CC
331
1A0CB
  5
1AB1F
331
18C8C
  5
180B0
331
18C4D
  5
18073
331
18BF6
  5
18018
331
18C94
  5
180B8
331
18C55
  5
1807B
331
18C16
  5
18038
331
1A0D3
  5
1AB27
331
19770
  5
1AB08
331
18BEC
  5
1800F
331
18BFC
  5
1801E
331
18C04
  5
18026
331
18C64
  5
18088
331
18CC4
  5
180EC
331
18CB4
  5
180D8
331
18C1E
  5
18042
331
18CD4
  5
183BC
331
18C6D
  5
18091
331
18C26
  5
1804A
331
18CDC
  5
183C4
331
18C75
  5
18099
331
18C2E
  5
18052
331
18CE4
  5
183C9
331
18C36
  5
1805A
331
18CCC
  5
183B1
331
1A663
  5
1C17B
331
18D04
  5
183DD
331
18C9D
  5
180C1
331
18C0B
  5
1802D
331
18CA5
  5
180C9
331
18C7D
  5
180A1
331
18C3E
  5
18062
331
18CAD
  5
180D1
331
18BD7
  5
17FFA
331
19F24
  5
1AB1E
331
18C85
  5
180A9
331
18CBD
  5
180E1
331
18C46
  5
1806C
331
1C1CB
  5
1C1CD
331
1A0CC
  5
1AB20
331
18C8D
  5
180B1
331
18C4E
  5
18074
331
18BF7
  5
18019
331
18C95
  5
180B9
331
18C56
  5
1807C
331
18C17
  5
18039
331
1C17B
  5
1C17E
331
1A0D4
  5
1AB28
331
18BFD
  5
1801F
331
1A62C
  5
1AB52
331
18C05
  5
18027
331
18C65
  5
18089
331
18CC5
  5
180ED
331
18CB5
  5
180D9
331
18C5E
  5
18082
331
18C1F
  5
18043
331
18CD5
  5
183BD
331
18C6E
  5
18092
331
18C27
  5
1804B
331
18C76
  5
1809A
331
18C2F
  5
18054
331
18CE5
  5
183CA
331
18C37
  5
1805B
331
18CCD
  5
183B2
331
18CF5
  5
183CD
331
18D05
  5
183DE
331
18C9E
  5
180C2
331
18C0C
  5
1802E
331
18CA6
  5
180CA
331
18CFD
  5
183D5
331
18C7E
  5
180A2
331
18C3F
  5
18063
331
18CAE
  5
180D2
331
18BD8
  5
17FFB
331
1C1C4
  5
1C1C6
331
18C86
  5
180AA
331
18C47
  5
1806D
331
18CBE
  5
180E2
331
18BF0
  5
18012
331
1A0CD
  5
1AB21
331
18C8E
  5
180B2
331
1C1CC
  5
1803A
331
18C4F
  5
18075
331
18C10
  5
18032
331
18C96
  5
180BA
331
18C57
  5
1807D
331
1A0D5
  5
1AB4D
331
18BEE
  5
18010
331
18BFE
  5
18020
331
18C06
  5
18028
331
18C66
  5
1808A
331
18CC6
  5
180EE
331
18C18
  5
1803B
331
18CB6
  5
180DA
331
18C5F
  5
18083
331
18C20
  5
18044
331
18CD6
  5
183BE
331
18C6F
  5
18093
331
18C28
  5
1804C
331
18CDE
  5
183C5
331
18C77
  5
1809B
331
18C30
  5
18055
331
1A65D
  5
1AB54
331
18CCE
  5
183B3
331
18CF6
  5
183D0
331
18D06
  5
183DF
331
18C9F
  5
180C3
331
18C0D
  5
1802F
331
18CA7
  5
180CB
331
18C38
  5
1805C
331
18CFE
  5
183D6
331
18C7F
  5
180A3
331
18CAF
  5
180D3
331
18C40
  5
18064
331
1C1C5
  5
1C1CA
331
18C87
  5
180AB
331
18C48
  5
1806E
331
18CBF
  5
180E3
331
18BF1
  5
18013
331
1A0CE
  5
1AB22
331
1C1CD
  5
1803C
331
18C8F
  5
180B3
331
18C50
  5
18076
331
18C11
  5
18033
331
18C97
  5
180BB
331
1C17D
  5
1C1C4
331
1A0D6
  5
1AB4E
331
18BEF
  5
18011
331
1A616
  5
1AB4F
331
18BFF
  5
18021
331
18C07
  5
18029
331
18C67
  5
1808B
331
18CC7
  5
180EF
331
18C58
  5
1807E
331
18C19
  5
1803D
331
18CB7
  5
180DB
331
18C68
  5
1808F
331
18C21
  5
18045
331
18CD7
  5
183BF
331
18C70
  5
18094
331
18C29
  5
1804D
331
1A65E
  5
1AB55
331
18CCF
  5
183B4
331
18CF7
  5
183D1
331
1A78E
  5
1C17D
331
18C98
  5
180BC
331
18CA0
  5
180C4
331
18C0E
  5
18030
331
18C78
  5
1809C
331
18CA8
  5
180CC
331
18C39
  5
1805D
331
18CFF
  5
183D7
331
18C80
  5
180A4
331
18C41
  5
18065
331
18CB8
  5
180DC
331
18BE6
  5
18009
331
1C1C6
  5
1C1CB
331
18C88
  5
180AC
331
18C49
  5
1806F
331
18BF2
  5
18014
331
1A0CF
  5
1AB23
331
18C90
  5
180B4
331
18C51
  5
18077
331
18C12
  5
18034
331
18BE8
  5
1800B
331
1C17E
  5
1C1C5
331
18BF8
  5
1801A
331
18C00
  5
18022
331
18C60
  5
18084
331
18CC0
  5
180E4
  0
XRECORD
  5
8A0E
102
{ACAD_REACTORS
330
17A
102
}
330
17A
100
AcDbXrecord
280
     1
340
1A
  0
ACDBDETAILVIEWSTYLE
  5
8AA4
102
{ACAD_XDICTIONARY
360
1C1B2
102
}
102
{ACAD_REACTORS
330
8AA3
102
}
330
8AA3
100
AcDbModelDocViewStyle
 70
     0
  3
Imperial24
290
     0
100
AcDbDetailViewStyle
 70
     0
 71
     0
 90
        3
 71
     1
340
11
 62
   256
 40
0.24
340
0
 62
   256
 40
0.24
300

 40
0.36
280
     3
 71
     2
340
15
 90
       25
 62
   256
 71
     3
340
11
 62
   256
 40
0.24
 90
        1
 40
0.75
 90
        1
300
%<\AcVar ViewType \f "%tc1">% %<\AcVar ViewDetailId>%\PSCALE %<\AcVar ViewScale \f "%sn">%
 71
     4
340
15
 90
       25
 62
   256
340
15
 90
       25
 62
   256
280
     0
  0
LAYOUT
  5
8A4C
102
{ACAD_XDICTIONARY
360
F3D2
102
}
102
{ACAD_REACTORS
330
19
102
}
330
19
100
AcDbPlotSettings
  1

  2
none_device
  4
Letter_(8.50_x_11.00_Inches)
  6

 40
6.349999904632567
 41
6.349999904632567
 42
6.350006103515625
 43
6.350006103515625
 44
215.8999938964844
 45
279.3999938964844
 46
0.0
 47
0.0
 48
0.0
 49
0.0
140
0.0
141
0.0
142
1.0
143
317.0449279872537
 70
 11952
 72
     0
 73
     1
 74
     0
  7
monochrome.ctb
 75
     0
147
0.0031541271022642
 76
     0
 77
     2
 78
   300
148
21198.07971653447
149
42574.72085005308
100
AcDbLayout
  1
Model
 70
     1
 71
     0
 10
0.0
 20
0.0
 11
12.0
 21
9.0
 12
0.0
 22
0.0
 32
0.0
 14
0.0
 24
0.0
 34
0.0
 15
0.0
 25
0.0
 35
0.0
146
0.0
 13
0.0
 23
0.0
 33
0.0
 16
1.0
 26
0.0
 36
0.0
 17
0.0
 27
1.0
 37
0.0
 76
     0
330
1E
331
8A51
1001
ACAD_PSEXT
1000
なし
1000
なし
1000
適切ではありません
1000
新しいプロッタ環境設定名を選択しない限り、レイアウトは印刷されません。
1070
     0
  0
LAYOUT
  5
8A4D
102
{ACAD_REACTORS
330
19
102
}
330
19
100
AcDbPlotSettings
  1

  2
Canon LBP3800 LIPSLX
  4

  6

 40
0.0
 41
0.0
 42
0.0
 43
0.0
 44
0.0
 45
0.0
 46
0.0
 47
0.0
 48
0.0
 49
0.0
140
0.0
141
0.0
142
1.0
143
1.0
 70
   688
 72
     0
 73
     0
 74
     5
  7
monochrome.ctb
 75
    16
147
1.0
 76
     0
 77
     2
 78
   300
148
0.0
149
0.0
100
AcDbLayout
  1
ﾚｲｱｳﾄ1
 70
     1
 71
     1
 10
-5.873749
 20
-5.87375
 11
204.099579
 21
291.1369009999999
 12
0.0
 22
0.0
 32
0.0
 14
4.273573
 24
5.205245999999998
 34
0.0
 15
194.610095
 25
283.0697009999996
 35
0.0
146
0.0
 13
0.0
 23
0.0
 33
0.0
 16
1.0
 26
0.0
 36
0.0
 17
0.0
 27
1.0
 37
0.0
 76
     0
330
1A
331
9AC
  0
MATERIAL
  5
8A61
102
{ACAD_XDICTIONARY
360
8A62
102
}
102
{ACAD_REACTORS
330
8A58
102
}
330
8A58
100
AcDbMaterial
  1
ByBlock
 72
     0
 43
0.0208333333333333
 43
0.0
 43
0.0
 43
0.0
 43
0.0
 43
0.0208333333333333
 43
0.0
 43
0.0
 43
0.0
 43
0.0
 43
1.0
 43
0.0
 43
0.0
 43
0.0
 43
0.0
 43
1.0
 77
     0
 47
0.0208333333333333
 47
0.0
 47
0.0
 47
0.0
 47
0.0
 47
0.0208333333333333
 47
0.0
 47
0.0
 47
0.0
 47
0.0
 47
1.0
 47
0.0
 47
0.0
 47
0.0
 47
0.0
 47
1.0
171
     0
 49
0.0208333333333333
 49
0.0
 49
0.0
 49
0.0
 49
0.0
 49
0.0208333333333333
 49
0.0
 49
0.0
 49
0.0
 49
0.0
 49
1.0
 49
0.0
 49
0.0
 49
0.0
 49
0.0
 49
1.0
175
     0
142
0.0208333333333333
142
0.0
142
0.0
142
0.0
142
0.0
142
0.0208333333333333
142
0.0
142
0.0
142
0.0
142
0.0
142
1.0
142
0.0
142
0.0
142
0.0
142
0.0
142
1.0
179
     0
144
0.0208333333333333
144
0.0
144
0.0
144
0.0
144
0.0
144
0.0208333333333333
144
0.0
144
0.0
144
0.0
144
0.0
144
1.0
144
0.0
144
0.0
144
0.0
144
0.0
144
1.0
147
0.0208333333333333
147
0.0
147
0.0
147
0.0
147
0.0
147
0.0208333333333333
147
0.0
147
0.0
147
0.0
147
0.0
147
1.0
147
0.0
147
0.0
147
0.0
147
0.0
147
1.0
  0
MATERIAL
  5
8A59
102
{ACAD_XDICTIONARY
360
8A5A
102
}
102
{ACAD_REACTORS
330
8A58
102
}
330
8A58
100
AcDbMaterial
  1
ByLayer
 72
     0
 43
0.0208333333333333
 43
0.0
 43
0.0
 43
0.0
 43
0.0
 43
0.0208333333333333
 43
0.0
 43
0.0
 43
0.0
 43
0.0
 43
1.0
 43
0.0
 43
0.0
 43
0.0
 43
0.0
 43
1.0
 77
     0
 47
0.0208333333333333
 47
0.0
 47
0.0
 47
0.0
 47
0.0
 47
0.0208333333333333
 47
0.0
 47
0.0
 47
0.0
 47
0.0
 47
1.0
 47
0.0
 47
0.0
 47
0.0
 47
0.0
 47
1.0
171
     0
 49
0.0208333333333333
 49
0.0
 49
0.0
 49
0.0
 49
0.0
 49
0.0208333333333333
 49
0.0
 49
0.0
 49
0.0
 49
0.0
 49
1.0
 49
0.0
 49
0.0
 49
0.0
 49
0.0
 49
1.0
175
     0
142
0.0208333333333333
142
0.0
142
0.0
142
0.0
142
0.0
142
0.0208333333333333
142
0.0
142
0.0
142
0.0
142
0.0
142
1.0
142
0.0
142
0.0
142
0.0
142
0.0
142
1.0
179
     0
144
0.0208333333333333
144
0.0
144
0.0
144
0.0
144
0.0
144
0.0208333333333333
144
0.0
144
0.0
144
0.0
144
0.0
144
1.0
144
0.0
144
0.0
144
0.0
144
0.0
144
1.0
147
0.0208333333333333
147
0.0
147
0.0
147
0.0
147
0.0
147
0.0208333333333333
147
0.0
147
0.0
147
0.0
147
0.0
147
1.0
147
0.0
147
0.0
147
0.0
147
0.0
147
1.0
  0
MATERIAL
  5
8A69
102
{ACAD_XDICTIONARY
360
8A6A
102
}
102
{ACAD_REACTORS
330
8A58
102
}
330
8A58
100
AcDbMaterial
  1
Global
 72
     0
 43
0.0208333333333333
 43
0.0
 43
0.0
 43
0.0
 43
0.0
 43
0.0208333333333333
 43
0.0
 43
0.0
 43
0.0
 43
0.0
 43
1.0
 43
0.0
 43
0.0
 43
0.0
 43
0.0
 43
1.0
 77
     0
 47
0.0208333333333333
 47
0.0
 47
0.0
 47
0.0
 47
0.0
 47
0.0208333333333333
 47
0.0
 47
0.0
 47
0.0
 47
0.0
 47
1.0
 47
0.0
 47
0.0
 47
0.0
 47
0.0
 47
1.0
171
     0
 49
0.0208333333333333
 49
0.0
 49
0.0
 49
0.0
 49
0.0
 49
0.0208333333333333
 49
0.0
 49
0.0
 49
0.0
 49
0.0
 49
1.0
 49
0.0
 49
0.0
 49
0.0
 49
0.0
 49
1.0
175
     0
142
0.0208333333333333
142
0.0
142
0.0
142
0.0
142
0.0
142
0.0208333333333333
142
0.0
142
0.0
142
0.0
142
0.0
142
1.0
142
0.0
142
0.0
142
0.0
142
0.0
142
1.0
179
     0
144
0.0208333333333333
144
0.0
144
0.0
144
0.0
144
0.0
144
0.0208333333333333
144
0.0
144
0.0
144
0.0
144
0.0
144
1.0
144
0.0
144
0.0
144
0.0
144
0.0
144
1.0
147
0.0208333333333333
147
0.0
147
0.0
147
0.0
147
0.0
147
0.0208333333333333
147
0.0
147
0.0
147
0.0
147
0.0
147
1.0
147
0.0
147
0.0
147
0.0
147
0.0
147
1.0
  0
MLEADERSTYLE
  5
8AA0
102
{ACAD_REACTORS
330
8A9F
102
}
330
8A9F
100
AcDbMLeaderStyle
179
     2
170
     2
171
     1
172
     0
 90
        2
 40
0.0
 41
0.0
173
     1
 91
-1056964608
340
13
 92
       -2
290
     1
 42
0.09
291
     1
 43
0.36
  3
Standard
 44
0.18
300

342
11
174
     1
178
     6
175
     1
176
     0
 93
-1056964608
 45
0.18
292
     0
297
     0
 46
0.18
 94
-1056964608
 47
1.0
 49
1.0
140
1.0
293
     1
141
0.0
294
     1
177
     0
142
1.0
295
     0
296
     0
143
0.125
271
     0
272
     9
273
     9
298
     0
  0
MLINESTYLE
  5
17
102
{ACAD_REACTORS
330
16
102
}
330
16
100
AcDbMlineStyle
  2
STANDARD
 70
     0
  3

 62
   256
 51
90.0
 52
90.0
 71
     2
 49
0.5
 62
   256
  6
BYLAYER
 49
-0.5
 62
   256
  6
BYLAYER
  0
ACDBPLACEHOLDER
  5
F
102
{ACAD_REACTORS
330
E
102
}
330
E
  0
SCALE
  5
8A8E
102
{ACAD_REACTORS
330
8A8D
102
}
330
8A8D
100
AcDbScale
 70
     0
300
1:1
140
1.0
141
1.0
290
     1
  0
SCALE
  5
8A8F
102
{ACAD_REACTORS
330
8A8D
102
}
330
8A8D
100
AcDbScale
 70
     0
300
1/128" = 1'-0"
140
0.0078125
141
12.0
290
     0
  0
SCALE
  5
8A90
102
{ACAD_REACTORS
330
8A8D
102
}
330
8A8D
100
AcDbScale
 70
     0
300
1/64" = 1'-0"
140
0.015625
141
12.0
290
     0
  0
SCALE
  5
8A91
102
{ACAD_REACTORS
330
8A8D
102
}
330
8A8D
100
AcDbScale
 70
     0
300
1/32" = 1'-0"
140
0.03125
141
12.0
290
     0
  0
SCALE
  5
8A92
102
{ACAD_REACTORS
330
8A8D
102
}
330
8A8D
100
AcDbScale
 70
     0
300
1/16" = 1'-0"
140
0.0625
141
12.0
290
     0
  0
SCALE
  5
8A93
102
{ACAD_REACTORS
330
8A8D
102
}
330
8A8D
100
AcDbScale
 70
     0
300
3/32" = 1'-0"
140
0.09375
141
12.0
290
     0
  0
SCALE
  5
8A94
102
{ACAD_REACTORS
330
8A8D
102
}
330
8A8D
100
AcDbScale
 70
     0
300
1/8" = 1'-0"
140
0.125
141
12.0
290
     0
  0
SCALE
  5
8A95
102
{ACAD_REACTORS
330
8A8D
102
}
330
8A8D
100
AcDbScale
 70
     0
300
3/16" = 1'-0"
140
0.1875
141
12.0
290
     0
  0
SCALE
  5
8A96
102
{ACAD_REACTORS
330
8A8D
102
}
330
8A8D
100
AcDbScale
 70
     0
300
1/4" = 1'-0"
140
0.25
141
12.0
290
     0
  0
SCALE
  5
8A97
102
{ACAD_REACTORS
330
8A8D
102
}
330
8A8D
100
AcDbScale
 70
     0
300
3/8" = 1'-0"
140
0.375
141
12.0
290
     0
  0
SCALE
  5
8A98
102
{ACAD_REACTORS
330
8A8D
102
}
330
8A8D
100
AcDbScale
 70
     0
300
1/2" = 1'-0"
140
0.5
141
12.0
290
     0
  0
SCALE
  5
8A99
102
{ACAD_REACTORS
330
8A8D
102
}
330
8A8D
100
AcDbScale
 70
     0
300
3/4" = 1'-0"
140
0.75
141
12.0
290
     0
  0
SCALE
  5
8A9A
102
{ACAD_REACTORS
330
8A8D
102
}
330
8A8D
100
AcDbScale
 70
     0
300
1" = 1'-0"
140
1.0
141
12.0
290
     0
  0
SCALE
  5
8A9B
102
{ACAD_REACTORS
330
8A8D
102
}
330
8A8D
100
AcDbScale
 70
     0
300
1-1/2" = 1'-0"
140
1.5
141
12.0
290
     0
  0
SCALE
  5
8A9C
102
{ACAD_REACTORS
330
8A8D
102
}
330
8A8D
100
AcDbScale
 70
     0
300
3" = 1'-0"
140
3.0
141
12.0
290
     0
  0
SCALE
  5
8A9D
102
{ACAD_REACTORS
330
8A8D
102
}
330
8A8D
100
AcDbScale
 70
     0
300
6" = 1'-0"
140
6.0
141
12.0
290
     0
  0
SCALE
  5
8A9E
102
{ACAD_REACTORS
330
8A8D
102
}
330
8A8D
100
AcDbScale
 70
     0
300
1'-0" = 1'-0"
140
12.0
141
12.0
290
     0
  0
ACDBSECTIONVIEWSTYLE
  5
8AA2
102
{ACAD_XDICTIONARY
360
1C1B0
102
}
102
{ACAD_REACTORS
330
8AA1
102
}
330
8AA1
100
AcDbModelDocViewStyle
 70
     0
  3
Imperial24
290
     0
100
AcDbSectionViewStyle
 70
     0
 71
     0
 90
       78
 71
     1
340
11
 62
   256
 40
0.24
340
0
340
0
 62
   256
 40
0.24
300
I, O, Q, S, X, Z
 40
0.48
 90
        3
 40
0.18
 90
        1
 71
     2
340
15
 90
       25
 62
   256
340
15
 90
       50
 62
   256
 40
0.24
 40
0.0
 40
0.24
 71
     3
340
11
 62
   256
 40
0.24
 90
        1
 40
0.75
 90
        1
300
%<\AcVar ViewType \f "%tc1">% %<\AcVar ViewSectionStartId>%-%<\AcVar ViewSectionEndId>%\PSCALE %<\AcVar ViewScale \f "%sn">%
 71
     4
 62
   256
 62
   257
300
ANSI31
 40
1.0
 90
        0
290
     0
290
     0
 90
        6
 40
0.0
 40
1.570796326794896
 40
0.2617993877991494
 40
1.308996938995747
 40
-0.2617993877991494
 40
1.832595714594044
  0
TABLESTYLE
  5
8A8C
102
{ACAD_XDICTIONARY
360
8AED
102
}
102
{ACAD_REACTORS
330
8A8B
102
}
330
8A8B
100
AcDbTableStyle
280
     0
  3
Standard
 70
     0
 71
     0
 40
0.06
 41
0.06
280
     0
281
     0
  7
STANDARD
140
0.18
170
     2
 62
     0
 63
     7
283
     0
 90
      512
 91
        0
  1

274
    -2
284
     1
 64
     0
275
    -2
285
     1
 65
     0
276
    -2
286
     1
 66
     0
277
    -2
287
     1
 67
     0
278
    -2
288
     1
 68
     0
279
    -2
289
     1
 69
     0
  7
STANDARD
140
0.25
170
     5
 62
     0
 63
     7
283
     0
 90
      512
 91
        0
  1

274
    -2
284
     1
 64
     0
275
    -2
285
     1
 65
     0
276
    -2
286
     1
 66
     0
277
    -2
287
     1
 67
     0
278
    -2
288
     1
 68
     0
279
    -2
289
     1
 69
     0
  7
STANDARD
140
0.18
170
     5
 62
     0
 63
     7
283
     0
 90
      512
 91
        0
  1

274
    -2
284
     1
 64
     0
275
    -2
285
     1
 65
     0
276
    -2
286
     1
 66
     0
277
    -2
287
     1
 67
     0
278
    -2
288
     1
 68
     0
279
    -2
289
     1
 69
     0
  0
VISUALSTYLE
  5
8A77
102
{ACAD_REACTORS
330
8A71
102
}
330
8A71
100
AcDbVisualStyle
  2
2dWireframe
 70
     4
177
     3
291
     0
 70
    58
 90
        0
176
     1
 90
        2
176
     1
 90
        0
176
     1
 90
        0
176
     1
 40
0.6
176
     1
 40
30.0
176
     1
 62
     7
420
 16777215
176
     1
 90
        1
176
     1
 90
        4
176
     1
 62
     7
176
     1
 62
   257
176
     1
 90
        1
176
     1
 90
        1
176
     1
 40
1.0
176
     1
 90
        0
176
     1
 62
   257
176
     1
 40
1.0
176
     1
 90
        1
176
     1
 90
        6
176
     1
 90
        2
176
     1
 62
     7
176
     1
 90
        5
176
     1
 90
        0
176
     1
 90
        0
176
     1
290
     0
176
     1
 90
        1
176
     1
 40
0.0
176
     1
 90
        0
176
     1
290
     1
176
     1
290
     1
176
     1
290
     0
176
     1
290
     0
176
     1
290
     0
176
     1
290
     0
176
     1
290
     0
176
     1
290
     0
176
     1
290
     0
176
     1
 90
       50
176
     1
 40
0.0
176
     1
 40
1.0
176
     1
 90
        0
176
     1
 62
    18
176
     1
 90
       50
176
     1
 90
        3
176
     1
 62
     5
420
      255
176
     1
290
     0
176
     1
 90
       50
176
     1
 90
       50
176
     1
 90
       50
176
     1
290
     0
176
     1
 90
       50
176
     1
 62
   256
176
     0
 40
1.0
176
     0
 90
        2
176
     1
  1
strokes_ogs.tif
176
     1
290
     0
176
     1
 40
1.0
176
     1
 40
1.0
176
     1
1001
ACAD
1000
AcDbSavedByObjectVersion
1070
     0
  0
VISUALSTYLE
  5
8B2B
102
{ACAD_REACTORS
330
8A71
102
}
330
8A71
100
AcDbVisualStyle
  2
3D Hidden
 70
     6
177
     3
291
     0
 70
    58
 90
        1
176
     1
 90
        2
176
     1
 90
        2
176
     1
 90
        0
176
     1
 40
0.6
176
     1
 40
30.0
176
     1
 62
     7
420
 16777215
176
     1
 90
        2
176
     1
 90
        2
176
     1
 62
     7
176
     1
 62
   257
176
     1
 90
        2
176
     1
 90
        1
176
     1
 40
179.0
176
     1
 90
        0
176
     1
 62
   257
176
     1
 40
1.0
176
     1
 90
        1
176
     1
 90
        6
176
     1
 90
        2
176
     1
 62
     7
176
     1
 90
        3
176
     1
 90
        0
176
     1
 90
        0
176
     1
290
     0
176
     1
 90
        1
176
     1
 40
0.0
176
     1
 90
        0
176
     1
290
     0
176
     1
290
     1
176
     1
290
     1
176
     1
290
     0
176
     1
290
     0
176
     1
290
     0
176
     1
290
     0
176
     1
290
     0
176
     1
290
     0
176
     1
 90
       50
176
     1
 40
0.0
176
     1
 40
1.0
176
     1
 90
        0
176
     1
 62
    18
176
     1
 90
       50
176
     1
 90
        3
176
     1
 62
     5
420
      255
176
     1
290
     0
176
     1
 90
       50
176
     1
 90
       50
176
     1
 90
       50
176
     1
290
     0
176
     1
 90
       50
176
     1
 62
   256
176
     0
 40
1.0
176
     0
 90
        2
176
     1
  1
strokes_ogs.tif
176
     1
290
     0
176
     1
 40
1.0
176
     1
 40
1.0
176
     1
1001
ACAD
1000
AcDbSavedByObjectVersion
1070
     0
  0
VISUALSTYLE
  5
8B2A
102
{ACAD_REACTORS
330
8A71
102
}
330
8A71
100
AcDbVisualStyle
  2
3dWireframe
 70
     5
177
     3
291
     0
 70
    58
 90
        0
176
     1
 90
        2
176
     1
 90
        0
176
     1
 90
        0
176
     1
 40
0.6
176
     1
 40
30.0
176
     1
 62
     7
420
 16777215
176
     1
 90
        1
176
     1
 90
        4
176
     1
 62
     7
176
     1
 62
   257
176
     1
 90
        1
176
     1
 90
        1
176
     1
 40
1.0
176
     1
 90
        0
176
     1
 62
   257
176
     1
 40
1.0
176
     1
 90
        1
176
     1
 90
        6
176
     1
 90
        2
176
     1
 62
     7
176
     1
 90
        5
176
     1
 90
        0
176
     1
 90
        0
176
     1
290
     0
176
     1
 90
        1
176
     1
 40
0.0
176
     1
 90
        0
176
     1
290
     0
176
     1
290
     1
176
     1
290
     1
176
     1
290
     0
176
     1
290
     0
176
     1
290
     0
176
     1
290
     0
176
     1
290
     0
176
     1
290
     0
176
     1
 90
       50
176
     1
 40
0.0
176
     1
 40
1.0
176
     1
 90
        0
176
     1
 62
    18
176
     1
 90
       50
176
     1
 90
        3
176
     1
 62
     5
420
      255
176
     1
290
     0
176
     1
 90
       50
176
     1
 90
       50
176
     1
 90
       50
176
     1
290
     0
176
     1
 90
       50
176
     1
 62
   256
176
     0
 40
1.0
176
     0
 90
        2
176
     1
  1
strokes_ogs.tif
176
     1
290
     0
176
     1
 40
1.0
176
     1
 40
1.0
176
     1
1001
ACAD
1000
AcDbSavedByObjectVersion
1070
     0
  0
VISUALSTYLE
  5
8A76
102
{ACAD_REACTORS
330
8A71
102
}
330
8A71
100
AcDbVisualStyle
  2
Basic
 70
     7
177
     3
291
     1
 70
    58
 90
        1
176
     1
 90
        0
176
     1
 90
        1
176
     1
 90
        0
176
     1
 40
0.6
176
     1
 40
30.0
176
     1
 62
     7
420
 16777215
176
     1
 90
        0
176
     1
 90
        4
176
     1
 62
     7
176
     1
 62
   257
176
     1
 90
        1
176
     1
 90
        1
176
     1
 40
1.0
176
     1
 90
        8
176
     1
 62
     7
176
     1
 40
1.0
176
     1
 90
        1
176
     1
 90
        6
176
     1
 90
        2
176
     1
 62
     7
176
     1
 90
        5
176
     1
 90
        0
176
     1
 90
        0
176
     1
290
     0
176
     1
 90
        1
176
     1
 40
0.0
176
     1
 90
        0
176
     1
290
     0
176
     1
290
     1
176
     1
290
     1
176
     1
290
     0
176
     1
290
     0
176
     1
290
     0
176
     1
290
     0
176
     1
290
     0
176
     1
290
     0
176
     1
 90
       50
176
     1
 40
0.0
176
     1
 40
1.0
176
     1
 90
        0
176
     1
 62
    18
176
     1
 90
       50
176
     1
 90
        3
176
     1
 62
     5
420
      255
176
     1
290
     0
176
     1
 90
       50
176
     1
 90
       50
176
     1
 90
       50
176
     1
290
     0
176
     1
 90
       50
176
     1
 62
   256
176
     0
 40
1.0
176
     0
 90
        2
176
     1
  1
strokes_ogs.tif
176
     1
290
     0
176
     1
 40
1.0
176
     1
 40
1.0
176
     1
1001
ACAD
1000
AcDbSavedByObjectVersion
1070
     0
  0
VISUALSTYLE
  5
8A7D
102
{ACAD_REACTORS
330
8A71
102
}
330
8A71
100
AcDbVisualStyle
  2
Brighten
 70
    12
177
     3
291
     1
 70
    58
 90
        2
176
     1
 90
        2
176
     1
 90
        0
176
     1
 90
        0
176
     1
 40
0.6
176
     1
 40
30.0
176
     1
 62
     7
420
 16777215
176
     1
 90
        1
176
     1
 90
        4
176
     1
 62
     7
176
     1
 62
   257
176
     1
 90
        1
176
     1
 90
        1
176
     1
 40
1.0
176
     1
 90
        8
176
     1
 62
     7
176
     1
 40
1.0
176
     1
 90
        1
176
     1
 90
        6
176
     1
 90
        2
176
     1
 62
     7
176
     1
 90
        5
176
     1
 90
        0
176
     1
 90
        0
176
     1
290
     0
176
     1
 90
        1
176
     1
 40
50.0
176
     1
 90
        0
176
     1
290
     0
176
     1
290
     1
176
     1
290
     1
176
     1
290
     0
176
     1
290
     0
176
     1
290
     0
176
     1
290
     0
176
     1
290
     0
176
     1
290
     0
176
     1
 90
       50
176
     1
 40
0.0
176
     1
 40
1.0
176
     1
 90
        0
176
     1
 62
    18
176
     1
 90
       50
176
     1
 90
        3
176
     1
 62
     5
420
      255
176
     1
290
     0
176
     1
 90
       50
176
     1
 90
       50
176
     1
 90
       50
176
     1
290
     0
176
     1
 90
       50
176
     1
 62
   256
176
     0
 40
1.0
176
     0
 90
        2
176
     1
  1
strokes_ogs.tif
176
     1
290
     0
176
     1
 40
1.0
176
     1
 40
1.0
176
     1
1001
ACAD
1000
AcDbSavedByObjectVersion
1070
     0
  0
VISUALSTYLE
  5
8A81
102
{ACAD_REACTORS
330
8A71
102
}
330
8A71
100
AcDbVisualStyle
  2
ColorChange
 70
    16
177
     3
291
     1
 70
    58
 90
        2
176
     1
 90
        2
176
     1
 90
        3
176
     1
 90
        0
176
     1
 40
0.6
176
     1
 40
30.0
176
     1
 62
     8
420
  8421504
176
     1
 90
        1
176
     1
 90
        4
176
     1
 62
     7
176
     1
 62
   257
176
     1
 90
        1
176
     1
 90
        1
176
     1
 40
1.0
176
     1
 90
        8
176
     1
 62
     8
420
  8421504
176
     1
 40
1.0
176
     1
 90
        1
176
     1
 90
        6
176
     1
 90
        2
176
     1
 62
     7
176
     1
 90
        5
176
     1
 90
        0
176
     1
 90
        0
176
     1
290
     0
176
     1
 90
        1
176
     1
 40
0.0
176
     1
 90
        0
176
     1
290
     0
176
     1
290
     1
176
     1
290
     1
176
     1
290
     0
176
     1
290
     0
176
     1
290
     0
176
     1
290
     0
176
     1
290
     0
176
     1
290
     0
176
     1
 90
       50
176
     1
 40
0.0
176
     1
 40
1.0
176
     1
 90
        0
176
     1
 62
    18
176
     1
 90
       50
176
     1
 90
        3
176
     1
 62
     5
420
      255
176
     1
290
     0
176
     1
 90
       50
176
     1
 90
       50
176
     1
 90
       50
176
     1
290
     0
176
     1
 90
       50
176
     1
 62
   256
176
     0
 40
1.0
176
     0
 90
        2
176
     1
  1
strokes_ogs.tif
176
     1
290
     0
176
     1
 40
1.0
176
     1
 40
1.0
176
     1
1001
ACAD
1000
AcDbSavedByObjectVersion
1070
     0
  0
VISUALSTYLE
  5
8A7A
102
{ACAD_REACTORS
330
8A71
102
}
330
8A71
100
AcDbVisualStyle
  2
Conceptual
 70
     9
177
     3
291
     0
 70
    58
 90
        3
176
     1
 90
        2
176
     1
 90
        0
176
     1
 90
        0
176
     1
 40
0.6
176
     1
 40
30.0
176
     1
 62
     7
420
 16777215
176
     1
 90
        2
176
     1
 90
        2
176
     1
 62
     7
176
     1
 62
   257
176
     1
 90
        1
176
     1
 90
        1
176
     1
 40
179.0
176
     1
 90
        8
176
     1
 62
     7
176
     1
 40
1.0
176
     1
 90
        1
176
     1
 90
        6
176
     1
 90
        2
176
     1
 62
     7
176
     1
 90
        3
176
     1
 90
        0
176
     1
 90
        0
176
     1
290
     0
176
     1
 90
        1
176
     1
 40
0.0
176
     1
 90
        0
176
     1
290
     0
176
     1
290
     1
176
     1
290
     1
176
     1
290
     0
176
     1
290
     0
176
     1
290
     0
176
     1
290
     0
176
     1
290
     0
176
     1
290
     0
176
     1
 90
       50
176
     1
 40
0.0
176
     1
 40
1.0
176
     1
 90
        0
176
     1
 62
    18
176
     1
 90
       50
176
     1
 90
        3
176
     1
 62
     5
420
      255
176
     1
290
     0
176
     1
 90
       50
176
     1
 90
       50
176
     1
 90
       50
176
     1
290
     0
176
     1
 90
       50
176
     1
 62
   256
176
     0
 40
1.0
176
     0
 90
        2
176
     1
  1
strokes_ogs.tif
176
     1
290
     0
176
     1
 40
1.0
176
     1
 40
1.0
176
     1
1001
ACAD
1000
AcDbSavedByObjectVersion
1070
     0
  0
VISUALSTYLE
  5
8A7C
102
{ACAD_REACTORS
330
8A71
102
}
330
8A71
100
AcDbVisualStyle
  2
Dim
 70
    11
177
     3
291
     1
 70
    58
 90
        2
176
     1
 90
        2
176
     1
 90
        0
176
     1
 90
        0
176
     1
 40
0.6
176
     1
 40
30.0
176
     1
 62
     7
420
 16777215
176
     1
 90
        1
176
     1
 90
        4
176
     1
 62
     7
176
     1
 62
   257
176
     1
 90
        1
176
     1
 90
        1
176
     1
 40
1.0
176
     1
 90
        8
176
     1
 62
     7
176
     1
 40
1.0
176
     1
 90
        1
176
     1
 90
        6
176
     1
 90
        2
176
     1
 62
     7
176
     1
 90
        5
176
     1
 90
        0
176
     1
 90
        0
176
     1
290
     0
176
     1
 90
        1
176
     1
 40
-50.0
176
     1
 90
        0
176
     1
290
     0
176
     1
290
     1
176
     1
290
     1
176
     1
290
     0
176
     1
290
     0
176
     1
290
     0
176
     1
290
     0
176
     1
290
     0
176
     1
290
     0
176
     1
 90
       50
176
     1
 40
0.0
176
     1
 40
1.0
176
     1
 90
        0
176
     1
 62
    18
176
     1
 90
       50
176
     1
 90
        3
176
     1
 62
     5
420
      255
176
     1
290
     0
176
     1
 90
       50
176
     1
 90
       50
176
     1
 90
       50
176
     1
290
     0
176
     1
 90
       50
176
     1
 62
   256
176
     0
 40
1.0
176
     0
 90
        2
176
     1
  1
strokes_ogs.tif
176
     1
290
     0
176
     1
 40
1.0
176
     1
 40
1.0
176
     1
1001
ACAD
1000
AcDbSavedByObjectVersion
1070
     0
  0
VISUALSTYLE
  5
8A89
102
{ACAD_REACTORS
330
8A71
102
}
330
8A71
100
AcDbVisualStyle
  2
EdgeColorOff
 70
    22
177
     3
291
     1
 70
    58
 90
        2
176
     0
 90
        2
176
     0
 90
        0
176
     0
 90
        0
176
     0
 40
0.6
176
     0
 40
30.0
176
     0
 62
     7
420
 16777215
176
     0
 90
        1
176
     0
 90
        4
176
     0
 62
     7
176
     0
 62
   257
176
     0
 90
        1
176
     0
 90
        1
176
     0
 40
1.0
176
     0
 90
        8
176
     2
 62
     7
176
     0
 40
1.0
176
     0
 90
        1
176
     0
 90
        6
176
     0
 90
        2
176
     0
 62
     7
176
     0
 90
        5
176
     0
 90
        0
176
     0
 90
        0
176
     0
290
     0
176
     0
 90
        1
176
     0
 40
0.0
176
     0
 90
        0
176
     0
290
     0
176
     1
290
     1
176
     1
290
     1
176
     1
290
     0
176
     1
290
     0
176
     1
290
     0
176
     1
290
     0
176
     1
290
     0
176
     1
290
     0
176
     1
 90
       50
176
     0
 40
0.0
176
     0
 40
1.0
176
     0
 90
        0
176
     0
 62
    18
176
     0
 90
       50
176
     0
 90
        3
176
     0
 62
     5
420
      255
176
     0
290
     0
176
     1
 90
       50
176
     0
 90
       50
176
     0
 90
       50
176
     0
290
     0
176
     1
 90
       50
176
     0
 62
   256
176
     0
 40
1.0
176
     0
 90
        2
176
     0
  1
strokes_ogs.tif
176
     0
290
     0
176
     1
 40
1.0
176
     0
 40
1.0
176
     0
1001
ACAD
1000
AcDbSavedByObjectVersion
1070
     0
  0
VISUALSTYLE
  5
8A80
102
{ACAD_REACTORS
330
8A71
102
}
330
8A71
100
AcDbVisualStyle
  2
Facepattern
 70
    15
177
     3
291
     1
 70
    58
 90
        2
176
     1
 90
        2
176
     1
 90
        0
176
     1
 90
        0
176
     1
 40
0.6
176
     1
 40
30.0
176
     1
 62
     7
420
 16777215
176
     1
 90
        1
176
     1
 90
        4
176
     1
 62
     7
176
     1
 62
   257
176
     1
 90
        1
176
     1
 90
        1
176
     1
 40
1.0
176
     1
 90
        8
176
     1
 62
     7
176
     1
 40
1.0
176
     1
 90
        1
176
     1
 90
        6
176
     1
 90
        2
176
     1
 62
     7
176
     1
 90
        5
176
     1
 90
        0
176
     1
 90
        0
176
     1
290
     0
176
     1
 90
        1
176
     1
 40
0.0
176
     1
 90
        0
176
     1
290
     0
176
     1
290
     1
176
     1
290
     1
176
     1
290
     0
176
     1
290
     0
176
     1
290
     0
176
     1
290
     0
176
     1
290
     0
176
     1
290
     0
176
     1
 90
       50
176
     1
 40
0.0
176
     1
 40
1.0
176
     1
 90
        0
176
     1
 62
    18
176
     1
 90
       50
176
     1
 90
        3
176
     1
 62
     5
420
      255
176
     1
290
     0
176
     1
 90
       50
176
     1
 90
       50
176
     1
 90
       50
176
     1
290
     0
176
     1
 90
       50
176
     1
 62
   256
176
     0
 40
1.0
176
     0
 90
        2
176
     1
  1
strokes_ogs.tif
176
     1
290
     0
176
     1
 40
1.0
176
     1
 40
1.0
176
     1
1001
ACAD
1000
AcDbSavedByObjectVersion
1070
     0
  0
VISUALSTYLE
  5
8A72
102
{ACAD_REACTORS
330
8A71
102
}
330
8A71
100
AcDbVisualStyle
  2
Flat
 70
     0
177
     3
291
     1
 70
    58
 90
        2
176
     1
 90
        1
176
     1
 90
        1
176
     1
 90
        2
176
     1
 40
0.6
176
     1
 40
30.0
176
     1
 62
     7
420
 16777215
176
     1
 90
        0
176
     1
 90
        0
176
     1
 62
     7
176
     1
 62
   257
176
     1
 90
        1
176
     1
 90
        1
176
     1
 40
1.0
176
     1
 90
        8
176
     1
 62
     7
176
     1
 40
1.0
176
     1
 90
        1
176
     1
 90
        6
176
     1
 90
        2
176
     1
 62
     7
176
     1
 90
        5
176
     1
 90
        0
176
     1
 90
        0
176
     1
290
     0
176
     1
 90
       13
176
     1
 40
0.0
176
     1
 90
        0
176
     1
290
     0
176
     1
290
     1
176
     1
290
     1
176
     1
290
     0
176
     1
290
     0
176
     1
290
     0
176
     1
290
     0
176
     1
290
     0
176
     1
290
     0
176
     1
 90
       50
176
     1
 40
0.0
176
     1
 40
1.0
176
     1
 90
        0
176
     1
 62
    18
176
     1
 90
       50
176
     1
 90
        3
176
     1
 62
     5
420
      255
176
     1
290
     0
176
     1
 90
       50
176
     1
 90
       50
176
     1
 90
       50
176
     1
290
     0
176
     1
 90
       50
176
     1
 62
   256
176
     0
 40
1.0
176
     0
 90
        2
176
     1
  1
strokes_ogs.tif
176
     1
290
     0
176
     1
 40
1.0
176
     1
 40
1.0
176
     1
1001
ACAD
1000
AcDbSavedByObjectVersion
1070
     0
  0
VISUALSTYLE
  5
8A73
102
{ACAD_REACTORS
330
8A71
102
}
330
8A71
100
AcDbVisualStyle
  2
FlatWithEdges
 70
     1
177
     3
291
     1
 70
    58
 90
        2
176
     1
 90
        1
176
     1
 90
        1
176
     1
 90
        2
176
     1
 40
0.6
176
     1
 40
30.0
176
     1
 62
     7
420
 16777215
176
     1
 90
        1
176
     1
 90
        0
176
     1
 62
     7
176
     1
 62
   257
176
     1
 90
        1
176
     1
 90
        1
176
     1
 40
1.0
176
     1
 90
        0
176
     1
 62
   257
176
     1
 40
1.0
176
     1
 90
        1
176
     1
 90
        6
176
     1
 90
        2
176
     1
 62
     7
176
     1
 90
        5
176
     1
 90
        0
176
     1
 90
        0
176
     1
290
     0
176
     1
 90
       13
176
     1
 40
0.0
176
     1
 90
        0
176
     1
290
     0
176
     1
290
     1
176
     1
290
     1
176
     1
290
     0
176
     1
290
     0
176
     1
290
     0
176
     1
290
     0
176
     1
290
     0
176
     1
290
     0
176
     1
 90
       50
176
     1
 40
0.0
176
     1
 40
1.0
176
     1
 90
        0
176
     1
 62
    18
176
     1
 90
       50
176
     1
 90
        3
176
     1
 62
     5
420
      255
176
     1
290
     0
176
     1
 90
       50
176
     1
 90
       50
176
     1
 90
       50
176
     1
290
     0
176
     1
 90
       50
176
     1
 62
   256
176
     0
 40
1.0
176
     0
 90
        2
176
     1
  1
strokes_ogs.tif
176
     1
290
     0
176
     1
 40
1.0
176
     1
 40
1.0
176
     1
1001
ACAD
1000
AcDbSavedByObjectVersion
1070
     0
  0
VISUALSTYLE
  5
8A74
102
{ACAD_REACTORS
330
8A71
102
}
330
8A71
100
AcDbVisualStyle
  2
Gouraud
 70
     2
177
     3
291
     1
 70
    58
 90
        2
176
     1
 90
        2
176
     1
 90
        1
176
     1
 90
        2
176
     1
 40
0.6
176
     1
 40
30.0
176
     1
 62
     7
420
 16777215
176
     1
 90
        0
176
     1
 90
        0
176
     1
 62
     7
176
     1
 62
   257
176
     1
 90
        1
176
     1
 90
        1
176
     1
 40
1.0
176
     1
 90
        0
176
     1
 62
     7
176
     1
 40
1.0
176
     1
 90
        1
176
     1
 90
        6
176
     1
 90
        2
176
     1
 62
     7
176
     1
 90
        5
176
     1
 90
        0
176
     1
 90
        0
176
     1
290
     0
176
     1
 90
       13
176
     1
 40
0.0
176
     1
 90
        0
176
     1
290
     0
176
     1
290
     1
176
     1
290
     1
176
     1
290
     0
176
     1
290
     0
176
     1
290
     0
176
     1
290
     0
176
     1
290
     0
176
     1
290
     0
176
     1
 90
       50
176
     1
 40
0.0
176
     1
 40
1.0
176
     1
 90
        0
176
     1
 62
    18
176
     1
 90
       50
176
     1
 90
        3
176
     1
 62
     5
420
      255
176
     1
290
     0
176
     1
 90
       50
176
     1
 90
       50
176
     1
 90
       50
176
     1
290
     0
176
     1
 90
       50
176
     1
 62
   256
176
     0
 40
1.0
176
     0
 90
        2
176
     1
  1
strokes_ogs.tif
176
     1
290
     0
176
     1
 40
1.0
176
     1
 40
1.0
176
     1
1001
ACAD
1000
AcDbSavedByObjectVersion
1070
     0
  0
VISUALSTYLE
  5
8A75
102
{ACAD_REACTORS
330
8A71
102
}
330
8A71
100
AcDbVisualStyle
  2
GouraudWithEdges
 70
     3
177
     3
291
     1
 70
    58
 90
        2
176
     1
 90
        2
176
     1
 90
        1
176
     1
 90
        2
176
     1
 40
0.6
176
     1
 40
30.0
176
     1
 62
     7
420
 16777215
176
     1
 90
        1
176
     1
 90
        0
176
     1
 62
     7
176
     1
 62
   257
176
     1
 90
        1
176
     1
 90
        1
176
     1
 40
1.0
176
     1
 90
        0
176
     1
 62
   257
176
     1
 40
1.0
176
     1
 90
        1
176
     1
 90
        6
176
     1
 90
        2
176
     1
 62
     7
176
     1
 90
        5
176
     1
 90
        0
176
     1
 90
        0
176
     1
290
     0
176
     1
 90
       13
176
     1
 40
0.0
176
     1
 90
        0
176
     1
290
     0
176
     1
290
     1
176
     1
290
     1
176
     1
290
     0
176
     1
290
     0
176
     1
290
     0
176
     1
290
     0
176
     1
290
     0
176
     1
290
     0
176
     1
 90
       50
176
     1
 40
0.0
176
     1
 40
1.0
176
     1
 90
        0
176
     1
 62
    18
176
     1
 90
       50
176
     1
 90
        3
176
     1
 62
     5
420
      255
176
     1
290
     0
176
     1
 90
       50
176
     1
 90
       50
176
     1
 90
       50
176
     1
290
     0
176
     1
 90
       50
176
     1
 62
   256
176
     0
 40
1.0
176
     0
 90
        2
176
     1
  1
strokes_ogs.tif
176
     1
290
     0
176
     1
 40
1.0
176
     1
 40
1.0
176
     1
1001
ACAD
1000
AcDbSavedByObjectVersion
1070
     0
  0
VISUALSTYLE
  5
8A79
102
{ACAD_REACTORS
330
8A71
102
}
330
8A71
100
AcDbVisualStyle
  2
Hidden
 70
     6
177
     3
291
     0
 70
    58
 90
        1
176
     1
 90
        2
176
     1
 90
        2
176
     1
 90
        0
176
     1
 40
0.6
176
     1
 40
30.0
176
     1
 62
     7
420
 16777215
176
     1
 90
        2
176
     1
 90
        2
176
     1
 62
     7
176
     1
 62
   257
176
     1
 90
        2
176
     1
 90
        1
176
     1
 40
40.0
176
     1
 90
        0
176
     1
 62
   257
176
     1
 40
1.0
176
     1
 90
        1
176
     1
 90
        6
176
     1
 90
        2
176
     1
 62
     7
176
     1
 90
        3
176
     1
 90
        0
176
     1
 90
        0
176
     1
290
     0
176
     1
 90
        1
176
     1
 40
0.0
176
     1
 90
        0
176
     1
290
     0
176
     1
290
     1
176
     1
290
     1
176
     1
290
     0
176
     1
290
     0
176
     1
290
     0
176
     1
290
     0
176
     1
290
     0
176
     1
290
     0
176
     1
 90
       50
176
     1
 40
0.0
176
     1
 40
1.0
176
     1
 90
        0
176
     1
 62
    18
176
     1
 90
       50
176
     1
 90
        3
176
     1
 62
     5
420
      255
176
     1
290
     0
176
     1
 90
       50
176
     1
 90
       50
176
     1
 90
       50
176
     1
290
     0
176
     1
 90
       50
176
     1
 62
   256
176
     0
 40
1.0
176
     0
 90
        2
176
     1
  1
strokes_ogs.tif
176
     1
290
     0
176
     1
 40
1.0
176
     1
 40
1.0
176
     1
1001
ACAD
1000
AcDbSavedByObjectVersion
1070
     0
  0
VISUALSTYLE
  5
8A87
102
{ACAD_REACTORS
330
8A71
102
}
330
8A71
100
AcDbVisualStyle
  2
JitterOff
 70
    20
177
     3
291
     1
 70
    58
 90
        2
176
     0
 90
        2
176
     0
 90
        0
176
     0
 90
        0
176
     0
 40
0.6
176
     0
 40
30.0
176
     0
 62
     7
420
 16777215
176
     0
 90
        1
176
     0
 90
        4
176
     0
 62
     7
176
     0
 62
   257
176
     0
 90
        1
176
     0
 90
        1
176
     0
 40
1.0
176
     0
 90
       10
176
     2
 62
     7
176
     0
 40
1.0
176
     0
 90
        1
176
     0
 90
        6
176
     0
 90
        2
176
     0
 62
     7
176
     0
 90
        5
176
     0
 90
        0
176
     0
 90
        0
176
     0
290
     0
176
     0
 90
        1
176
     0
 40
0.0
176
     0
 90
        0
176
     0
290
     0
176
     1
290
     1
176
     1
290
     1
176
     1
290
     0
176
     1
290
     0
176
     1
290
     0
176
     1
290
     0
176
     1
290
     0
176
     1
290
     0
176
     1
 90
       50
176
     0
 40
0.0
176
     0
 40
1.0
176
     0
 90
        0
176
     0
 62
    18
176
     0
 90
       50
176
     0
 90
        3
176
     0
 62
     5
420
      255
176
     0
290
     0
176
     1
 90
       50
176
     0
 90
       50
176
     0
 90
       50
176
     0
290
     0
176
     1
 90
       50
176
     0
 62
   256
176
     0
 40
1.0
176
     0
 90
        2
176
     0
  1
strokes_ogs.tif
176
     0
290
     0
176
     1
 40
1.0
176
     0
 40
1.0
176
     0
1001
ACAD
1000
AcDbSavedByObjectVersion
1070
     0
  0
VISUALSTYLE
  5
8A7F
102
{ACAD_REACTORS
330
8A71
102
}
330
8A71
100
AcDbVisualStyle
  2
Linepattern
 70
    14
177
     3
291
     1
 70
    58
 90
        2
176
     1
 90
        2
176
     1
 90
        0
176
     1
 90
        0
176
     1
 40
0.6
176
     1
 40
30.0
176
     1
 62
     7
420
 16777215
176
     1
 90
        1
176
     1
 90
        4
176
     1
 62
     7
176
     1
 62
   257
176
     1
 90
        7
176
     1
 90
        7
176
     1
 40
1.0
176
     1
 90
        8
176
     1
 62
     7
176
     1
 40
1.0
176
     1
 90
        1
176
     1
 90
        6
176
     1
 90
        2
176
     1
 62
     7
176
     1
 90
        5
176
     1
 90
        0
176
     1
 90
        0
176
     1
290
     0
176
     1
 90
        1
176
     1
 40
0.0
176
     1
 90
        0
176
     1
290
     0
176
     1
290
     1
176
     1
290
     1
176
     1
290
     0
176
     1
290
     0
176
     1
290
     0
176
     1
290
     0
176
     1
290
     0
176
     1
290
     0
176
     1
 90
       50
176
     1
 40
0.0
176
     1
 40
1.0
176
     1
 90
        0
176
     1
 62
    18
176
     1
 90
       50
176
     1
 90
        3
176
     1
 62
     5
420
      255
176
     1
290
     0
176
     1
 90
       50
176
     1
 90
       50
176
     1
 90
       50
176
     1
290
     0
176
     1
 90
       50
176
     1
 62
   256
176
     0
 40
1.0
176
     0
 90
        2
176
     1
  1
strokes_ogs.tif
176
     1
290
     0
176
     1
 40
1.0
176
     1
 40
1.0
176
     1
1001
ACAD
1000
AcDbSavedByObjectVersion
1070
     0
  0
VISUALSTYLE
  5
8A88
102
{ACAD_REACTORS
330
8A71
102
}
330
8A71
100
AcDbVisualStyle
  2
OverhangOff
 70
    21
177
     3
291
     1
 70
    58
 90
        2
176
     0
 90
        2
176
     0
 90
        0
176
     0
 90
        0
176
     0
 40
0.6
176
     0
 40
30.0
176
     0
 62
     7
420
 16777215
176
     0
 90
        1
176
     0
 90
        4
176
     0
 62
     7
176
     0
 62
   257
176
     0
 90
        1
176
     0
 90
        1
176
     0
 40
1.0
176
     0
 90
        9
176
     2
 62
     7
176
     0
 40
1.0
176
     0
 90
        1
176
     0
 90
        6
176
     0
 90
        2
176
     0
 62
     7
176
     0
 90
        5
176
     0
 90
        0
176
     0
 90
        0
176
     0
290
     0
176
     0
 90
        1
176
     0
 40
0.0
176
     0
 90
        0
176
     0
290
     0
176
     1
290
     1
176
     1
290
     1
176
     1
290
     0
176
     1
290
     0
176
     1
290
     0
176
     1
290
     0
176
     1
290
     0
176
     1
290
     0
176
     1
 90
       50
176
     0
 40
0.0
176
     0
 40
1.0
176
     0
 90
        0
176
     0
 62
    18
176
     0
 90
       50
176
     0
 90
        3
176
     0
 62
     5
420
      255
176
     0
290
     0
176
     1
 90
       50
176
     0
 90
       50
176
     0
 90
       50
176
     0
290
     0
176
     1
 90
       50
176
     0
 62
   256
176
     0
 40
1.0
176
     0
 90
        2
176
     0
  1
strokes_ogs.tif
176
     0
290
     0
176
     1
 40
1.0
176
     0
 40
1.0
176
     0
1001
ACAD
1000
AcDbSavedByObjectVersion
1070
     0
  0
VISUALSTYLE
  5
8A7B
102
{ACAD_REACTORS
330
8A71
102
}
330
8A71
100
AcDbVisualStyle
  2
Realistic
 70
     8
177
     3
291
     0
 70
    58
 90
        2
176
     1
 90
        3
176
     1
 90
        0
176
     1
 90
        2
176
     1
 40
0.6
176
     1
 40
30.0
176
     1
 62
     7
420
 16777215
176
     1
 90
        0
176
     1
 90
        0
176
     1
 62
     7
176
     1
 62
   257
176
     1
 90
        1
176
     1
 90
        1
176
     1
 40
1.0
176
     1
 90
        8
176
     1
 62
   257
176
     1
 40
1.0
176
     1
 90
        1
176
     1
 90
        6
176
     1
 90
        2
176
     1
 62
     7
176
     1
 90
        3
176
     1
 90
        0
176
     1
 90
        0
176
     1
290
     0
176
     1
 90
       13
176
     1
 40
0.0
176
     1
 90
        0
176
     1
290
     0
176
     1
290
     1
176
     1
290
     1
176
     1
290
     0
176
     1
290
     0
176
     1
290
     0
176
     1
290
     0
176
     1
290
     0
176
     1
290
     0
176
     1
 90
       50
176
     1
 40
0.0
176
     1
 40
1.0
176
     1
 90
        0
176
     1
 62
    18
176
     1
 90
       50
176
     1
 90
        3
176
     1
 62
     5
420
      255
176
     1
290
     0
176
     1
 90
       50
176
     1
 90
       50
176
     1
 90
       50
176
     1
290
     0
176
     1
 90
       50
176
     1
 62
   256
176
     0
 40
1.0
176
     0
 90
        2
176
     1
  1
strokes_ogs.tif
176
     1
290
     0
176
     1
 40
1.0
176
     1
 40
1.0
176
     1
1001
ACAD
1000
AcDbSavedByObjectVersion
1070
     0
  0
VISUALSTYLE
  5
8A86
102
{ACAD_REACTORS
330
8A71
102
}
330
8A71
100
AcDbVisualStyle
  2
Shaded
 70
    27
177
     3
291
     0
 70
    58
 90
        2
176
     1
 90
        2
176
     1
 90
        1
176
     1
 90
        2
176
     1
 40
0.6
176
     1
 40
30.0
176
     1
 62
     7
420
 16777215
176
     1
 90
        0
176
     1
 90
        4
176
     1
 62
     7
176
     1
 62
   257
176
     1
 90
        1
176
     1
 90
        1
176
     1
 40
1.0
176
     1
 90
        8
176
     1
 62
   257
176
     1
 40
1.0
176
     1
 90
        1
176
     1
 90
        6
176
     1
 90
        2
176
     1
 62
     8
420
  7895160
176
     1
 90
        3
176
     1
 90
        0
176
     1
 90
        0
176
     1
290
     0
176
     1
 90
        5
176
     1
 40
0.0
176
     1
 90
        0
176
     1
290
     0
176
     1
290
     1
176
     1
290
     1
176
     1
290
     0
176
     1
290
     0
176
     1
290
     0
176
     1
290
     0
176
     1
290
     0
176
     1
290
     0
176
     1
 90
       50
176
     1
 40
0.0
176
     1
 40
1.0
176
     1
 90
        0
176
     1
 62
    18
176
     1
 90
       50
176
     1
 90
        3
176
     1
 62
     5
420
      255
176
     1
290
     0
176
     1
 90
       50
176
     1
 90
       50
176
     1
 90
       50
176
     1
290
     0
176
     1
 90
       50
176
     1
 62
   256
176
     0
 40
1.0
176
     0
 90
        2
176
     1
  1
strokes_ogs.tif
176
     1
290
     0
176
     1
 40
1.0
176
     1
 40
1.0
176
     1
1001
ACAD
1000
AcDbSavedByObjectVersion
1070
     0
  0
VISUALSTYLE
  5
8A85
102
{ACAD_REACTORS
330
8A71
102
}
330
8A71
100
AcDbVisualStyle
  2
Shaded with edges
 70
    26
177
     3
291
     0
 70
    58
 90
        2
176
     1
 90
        2
176
     1
 90
        1
176
     1
 90
        2
176
     1
 40
0.6
176
     1
 40
30.0
176
     1
 62
     7
420
 16777215
176
     1
 90
        1
176
     1
 90
       10
176
     1
 62
     7
176
     1
 62
   257
176
     1
 90
        2
176
     1
 90
        1
176
     1
 40
1.0
176
     1
 90
        8
176
     1
 62
   257
176
     1
 40
1.0
176
     1
 90
        1
176
     1
 90
        6
176
     1
 90
        2
176
     1
 62
     7
176
     1
 90
        3
176
     1
 90
        0
176
     1
 90
        0
176
     1
290
     0
176
     1
 90
        5
176
     1
 40
0.0
176
     1
 90
        0
176
     1
290
     0
176
     1
290
     1
176
     1
290
     1
176
     1
290
     0
176
     1
290
     0
176
     1
290
     0
176
     1
290
     0
176
     1
290
     0
176
     1
290
     0
176
     1
 90
       50
176
     1
 40
0.0
176
     1
 40
1.0
176
     1
 90
        0
176
     1
 62
    18
176
     1
 90
       50
176
     1
 90
        3
176
     1
 62
     5
420
      255
176
     1
290
     0
176
     1
 90
       50
176
     1
 90
       50
176
     1
 90
       50
176
     1
290
     0
176
     1
 90
       50
176
     1
 62
   256
176
     0
 40
1.0
176
     0
 90
        2
176
     1
  1
strokes_ogs.tif
176
     1
290
     0
176
     1
 40
1.0
176
     1
 40
1.0
176
     1
1001
ACAD
1000
AcDbSavedByObjectVersion
1070
     0
  0
VISUALSTYLE
  5
8A82
102
{ACAD_REACTORS
330
8A71
102
}
330
8A71
100
AcDbVisualStyle
  2
Shades of Gray
 70
    23
177
     3
291
     0
 70
    58
 90
        2
176
     1
 90
        2
176
     1
 90
        3
176
     1
 90
        0
176
     1
 40
0.6
176
     1
 40
30.0
176
     1
 62
     7
420
 16777215
176
     1
 90
        2
176
     1
 90
        2
176
     1
 62
     7
176
     1
 62
     7
176
     1
 90
        1
176
     1
 90
        1
176
     1
 40
40.0
176
     1
 90
        8
176
     1
 62
     7
176
     1
 40
1.0
176
     1
 90
        1
176
     1
 90
        6
176
     1
 90
        2
176
     1
 62
     7
176
     1
 90
        3
176
     1
 90
        0
176
     1
 90
        0
176
     1
290
     0
176
     1
 90
        1
176
     1
 40
0.0
176
     1
 90
        0
176
     1
290
     0
176
     1
290
     1
176
     1
290
     1
176
     1
290
     0
176
     1
290
     0
176
     1
290
     0
176
     1
290
     0
176
     1
290
     0
176
     1
290
     0
176
     1
 90
       50
176
     1
 40
0.0
176
     1
 40
1.0
176
     1
 90
        0
176
     1
 62
    18
176
     1
 90
       50
176
     1
 90
        3
176
     1
 62
     5
420
      255
176
     1
290
     0
176
     1
 90
       50
176
     1
 90
       50
176
     1
 90
       50
176
     1
290
     0
176
     1
 90
       50
176
     1
 62
   256
176
     0
 40
1.0
176
     0
 90
        2
176
     1
  1
strokes_ogs.tif
176
     1
290
     0
176
     1
 40
1.0
176
     1
 40
1.0
176
     1
1001
ACAD
1000
AcDbSavedByObjectVersion
1070
     0
  0
VISUALSTYLE
  5
8A83
102
{ACAD_REACTORS
330
8A71
102
}
330
8A71
100
AcDbVisualStyle
  2
Sketchy
 70
    24
177
     3
291
     0
 70
    58
 90
        1
176
     1
 90
        2
176
     1
 90
        2
176
     1
 90
        0
176
     1
 40
0.6
176
     1
 40
30.0
176
     1
 62
     7
420
 16777215
176
     1
 90
        2
176
     1
 90
        2
176
     1
 62
     7
176
     1
 62
     7
176
     1
 90
        1
176
     1
 90
        1
176
     1
 40
40.0
176
     1
 90
       11
176
     1
 62
     7
176
     1
 40
1.0
176
     1
 90
        1
176
     1
 90
        6
176
     1
 90
        2
176
     1
 62
     7
176
     1
 90
        6
176
     1
 90
        0
176
     1
 90
        0
176
     1
290
     0
176
     1
 90
        1
176
     1
 40
0.0
176
     1
 90
        0
176
     1
290
     0
176
     1
290
     1
176
     1
290
     1
176
     1
290
     0
176
     1
290
     0
176
     1
290
     0
176
     1
290
     0
176
     1
290
     0
176
     1
290
     0
176
     1
 90
       50
176
     1
 40
0.0
176
     1
 40
1.0
176
     1
 90
        0
176
     1
 62
    18
176
     1
 90
       50
176
     1
 90
        3
176
     1
 62
     5
420
      255
176
     1
290
     0
176
     1
 90
       50
176
     1
 90
       50
176
     1
 90
       50
176
     1
290
     0
176
     1
 90
       50
176
     1
 62
   256
176
     0
 40
1.0
176
     0
 90
        2
176
     1
  1
strokes_ogs.tif
176
     1
290
     0
176
     1
 40
1.0
176
     1
 40
1.0
176
     1
1001
ACAD
1000
AcDbSavedByObjectVersion
1070
     0
  0
VISUALSTYLE
  5
8A7E
102
{ACAD_REACTORS
330
8A71
102
}
330
8A71
100
AcDbVisualStyle
  2
Thicken
 70
    13
177
     3
291
     1
 70
    58
 90
        2
176
     1
 90
        2
176
     1
 90
        0
176
     1
 90
        0
176
     1
 40
0.6
176
     1
 40
30.0
176
     1
 62
     7
420
 16777215
176
     1
 90
        1
176
     1
 90
        4
176
     1
 62
     7
176
     1
 62
   257
176
     1
 90
        1
176
     1
 90
        1
176
     1
 40
1.0
176
     1
 90
       12
176
     1
 62
     7
176
     1
 40
1.0
176
     1
 90
        1
176
     1
 90
        6
176
     1
 90
        2
176
     1
 62
     7
176
     1
 90
        5
176
     1
 90
        0
176
     1
 90
        0
176
     1
290
     0
176
     1
 90
        1
176
     1
 40
0.0
176
     1
 90
        0
176
     1
290
     0
176
     1
290
     1
176
     1
290
     1
176
     1
290
     0
176
     1
290
     0
176
     1
290
     0
176
     1
290
     0
176
     1
290
     0
176
     1
290
     0
176
     1
 90
       50
176
     1
 40
0.0
176
     1
 40
1.0
176
     1
 90
        0
176
     1
 62
    18
176
     1
 90
       50
176
     1
 90
        3
176
     1
 62
     5
420
      255
176
     1
290
     0
176
     1
 90
       50
176
     1
 90
       50
176
     1
 90
       50
176
     1
290
     0
176
     1
 90
       50
176
     1
 62
   256
176
     0
 40
1.0
176
     0
 90
        2
176
     1
  1
strokes_ogs.tif
176
     1
290
     0
176
     1
 40
1.0
176
     1
 40
1.0
176
     1
1001
ACAD
1000
AcDbSavedByObjectVersion
1070
     0
  0
VISUALSTYLE
  5
8A78
102
{ACAD_REACTORS
330
8A71
102
}
330
8A71
100
AcDbVisualStyle
  2
Wireframe
 70
     5
177
     3
291
     0
 70
    58
 90
        0
176
     1
 90
        2
176
     1
 90
        0
176
     1
 90
        0
176
     1
 40
0.6
176
     1
 40
30.0
176
     1
 62
     7
420
 16777215
176
     1
 90
        1
176
     1
 90
        4
176
     1
 62
     7
176
     1
 62
   257
176
     1
 90
        1
176
     1
 90
        1
176
     1
 40
1.0
176
     1
 90
        0
176
     1
 62
   257
176
     1
 40
1.0
176
     1
 90
        1
176
     1
 90
        6
176
     1
 90
        2
176
     1
 62
     7
176
     1
 90
        3
176
     1
 90
        0
176
     1
 90
        0
176
     1
290
     0
176
     1
 90
        1
176
     1
 40
0.0
176
     1
 90
        0
176
     1
290
     0
176
     1
290
     1
176
     1
290
     1
176
     1
290
     0
176
     1
290
     0
176
     1
290
     0
176
     1
290
     0
176
     1
290
     0
176
     1
290
     0
176
     1
 90
       50
176
     1
 40
0.0
176
     1
 40
1.0
176
     1
 90
        0
176
     1
 62
    18
176
     1
 90
       50
176
     1
 90
        3
176
     1
 62
     5
420
      255
176
     1
290
     0
176
     1
 90
       50
176
     1
 90
       50
176
     1
 90
       50
176
     1
290
     0
176
     1
 90
       50
176
     1
 62
   256
176
     0
 40
1.0
176
     0
 90
        2
176
     1
  1
strokes_ogs.tif
176
     1
290
     0
176
     1
 40
1.0
176
     1
 40
1.0
176
     1
1001
ACAD
1000
AcDbSavedByObjectVersion
1070
     0
  0
VISUALSTYLE
  5
8A84
102
{ACAD_REACTORS
330
8A71
102
}
330
8A71
100
AcDbVisualStyle
  2
X-Ray
 70
    25
177
     3
291
     0
 70
    58
 90
        2
176
     1
 90
        2
176
     1
 90
        1
176
     1
 90
        1
176
     1
 40
0.5
176
     1
 40
30.0
176
     1
 62
     7
420
 16777215
176
     1
 90
        1
176
     1
 90
        0
176
     1
 62
     7
176
     1
 62
   257
176
     1
 90
        1
176
     1
 90
        1
176
     1
 40
1.0
176
     1
 90
        8
176
     1
 62
     7
176
     1
 40
1.0
176
     1
 90
        1
176
     1
 90
        6
176
     1
 90
        2
176
     1
 62
     7
176
     1
 90
        3
176
     1
 90
        0
176
     1
 90
        0
176
     1
290
     0
176
     1
 90
       13
176
     1
 40
0.0
176
     1
 90
        0
176
     1
290
     0
176
     1
290
     1
176
     1
290
     1
176
     1
290
     0
176
     1
290
     0
176
     1
290
     0
176
     1
290
     0
176
     1
290
     0
176
     1
290
     0
176
     1
 90
       50
176
     1
 40
0.0
176
     1
 40
1.0
176
     1
 90
        0
176
     1
 62
    18
176
     1
 90
       50
176
     1
 90
        3
176
     1
 62
     5
420
      255
176
     1
290
     0
176
     1
 90
       50
176
     1
 90
       50
176
     1
 90
       50
176
     1
290
     0
176
     1
 90
       50
176
     1
 62
   256
176
     0
 40
1.0
176
     0
 90
        2
176
     1
  1
strokes_ogs.tif
176
     1
290
     0
176
     1
 40
1.0
176
     1
 40
1.0
176
     1
1001
ACAD
1000
AcDbSavedByObjectVersion
1070
     0
  0
DICTIONARYVAR
  5
8AE9
102
{ACAD_REACTORS
330
5697
102
}
330
5697
100
DictionaryVariables
280
     0
  1
1:1
  0
DICTIONARYVAR
  5
8AE5
102
{ACAD_REACTORS
330
5697
102
}
330
5697
100
DictionaryVariables
280
     0
  1
STANDARD
  0
DICTIONARYVAR
  5
8AE4
102
{ACAD_REACTORS
330
5697
102
}
330
5697
100
DictionaryVariables
280
     0
  1
STANDARD
  0
DICTIONARYVAR
  5
8AE6
102
{ACAD_REACTORS
330
5697
102
}
330
5697
100
DictionaryVariables
280
     0
  1
Imperial24
  0
DICTIONARYVAR
  5
8AE7
102
{ACAD_REACTORS
330
5697
102
}
330
5697
100
DictionaryVariables
280
     0
  1
Imperial24
  0
DICTIONARYVAR
  5
5698
102
{ACAD_REACTORS
330
5697
102
}
330
5697
100
DictionaryVariables
280
     0
  1
1
  0
DICTIONARYVAR
  5
8AEB
102
{ACAD_REACTORS
330
5697
102
}
330
5697
100
DictionaryVariables
280
     0
  1
1
  0
DICTIONARYVAR
  5
8AEC
102
{ACAD_REACTORS
330
5697
102
}
330
5697
100
DictionaryVariables
280
     0
  1
15
  0
DICTIONARYVAR
  5
8AEA
102
{ACAD_REACTORS
330
5697
102
}
330
5697
100
DictionaryVariables
280
     0
  1
0
  0
DICTIONARYVAR
  5
8AE8
102
{ACAD_REACTORS
330
5697
102
}
330
5697
100
DictionaryVariables
280
     0
  1
0
  0
DICTIONARY
  5
1C1B2
330
8AA4
100
AcDbDictionary
280
     1
281
     1
  3
ACAD_XREC_ROUNDTRIP
360
1C1D0
  0
DICTIONARY
  5
F3D2
330
8A4C
100
AcDbDictionary
280
     1
281
     1
  0
DICTIONARY
  5
8A62
330
8A61
100
AcDbDictionary
280
     1
281
     1
  3
BUMPTILE
360
8A64
  3
DIFFUSETILE
360
8A63
  3
OPACITYTILE
360
8A67
  3
REFLECTIONTILE
360
8A66
  3
REFRACTIONTILE
360
8A68
  3
SPECULARTILE
360
8A65
  0
DICTIONARY
  5
8A5A
330
8A59
100
AcDbDictionary
280
     1
281
     1
  3
BUMPTILE
360
8A5C
  3
DIFFUSETILE
360
8A5B
  3
OPACITYTILE
360
8A5F
  3
REFLECTIONTILE
360
8A5E
  3
REFRACTIONTILE
360
8A60
  3
SPECULARTILE
360
8A5D
  0
DICTIONARY
  5
8A6A
330
8A69
100
AcDbDictionary
280
     1
281
     1
  3
BUMPTILE
360
8A6C
  3
DIFFUSETILE
360
8A6B
  3
OPACITYTILE
360
8A6F
  3
REFLECTIONTILE
360
8A6E
  3
REFRACTIONTILE
360
8A70
  3
SPECULARTILE
360
8A6D
  0
DICTIONARY
  5
1C1B0
330
8AA2
100
AcDbDictionary
280
     1
281
     1
  3
ACAD_XREC_ROUNDTRIP
360
1C1CF
  0
DICTIONARY
  5
8AED
330
8A8C
100
AcDbDictionary
280
     1
281
     1
  3
ACAD_ROUNDTRIP_2008_TABLESTYLE_CELLSTYLEMAP
360
1C1CE
  0
XRECORD
  5
1C1D0
102
{ACAD_REACTORS
330
1C1B2
102
}
330
1C1B2
100
AcDbXrecord
280
     1
102
DISPLAYNAME
  1
Imperial24
102
FLAGS
 90
        0
  0
XRECORD
  5
8A64
102
{ACAD_REACTORS
330
8A62
102
}
330
8A62
100
AcDbXrecord
280
     1
270
     1
271
     1
  0
XRECORD
  5
8A63
102
{ACAD_REACTORS
330
8A62
102
}
330
8A62
100
AcDbXrecord
280
     1
270
     1
271
     1
  0
XRECORD
  5
8A67
102
{ACAD_REACTORS
330
8A62
102
}
330
8A62
100
AcDbXrecord
280
     1
270
     1
271
     1
  0
XRECORD
  5
8A66
102
{ACAD_REACTORS
330
8A62
102
}
330
8A62
100
AcDbXrecord
280
     1
270
     1
271
     1
  0
XRECORD
  5
8A68
102
{ACAD_REACTORS
330
8A62
102
}
330
8A62
100
AcDbXrecord
280
     1
270
     1
271
     1
  0
XRECORD
  5
8A65
102
{ACAD_REACTORS
330
8A62
102
}
330
8A62
100
AcDbXrecord
280
     1
270
     1
271
     1
  0
XRECORD
  5
8A5C
102
{ACAD_REACTORS
330
8A5A
102
}
330
8A5A
100
AcDbXrecord
280
     1
270
     1
271
     1
  0
XRECORD
  5
8A5B
102
{ACAD_REACTORS
330
8A5A
102
}
330
8A5A
100
AcDbXrecord
280
     1
270
     1
271
     1
  0
XRECORD
  5
8A5F
102
{ACAD_REACTORS
330
8A5A
102
}
330
8A5A
100
AcDbXrecord
280
     1
270
     1
271
     1
  0
XRECORD
  5
8A5E
102
{ACAD_REACTORS
330
8A5A
102
}
330
8A5A
100
AcDbXrecord
280
     1
270
     1
271
     1
  0
XRECORD
  5
8A60
102
{ACAD_REACTORS
330
8A5A
102
}
330
8A5A
100
AcDbXrecord
280
     1
270
     1
271
     1
  0
XRECORD
  5
8A5D
102
{ACAD_REACTORS
330
8A5A
102
}
330
8A5A
100
AcDbXrecord
280
     1
270
     1
271
     1
  0
XRECORD
  5
8A6C
102
{ACAD_REACTORS
330
8A6A
102
}
330
8A6A
100
AcDbXrecord
280
     1
270
     1
271
     1
  0
XRECORD
  5
8A6B
102
{ACAD_REACTORS
330
8A6A
102
}
330
8A6A
100
AcDbXrecord
280
     1
270
     1
271
     1
  0
XRECORD
  5
8A6F
102
{ACAD_REACTORS
330
8A6A
102
}
330
8A6A
100
AcDbXrecord
280
     1
270
     1
271
     1
  0
XRECORD
  5
8A6E
102
{ACAD_REACTORS
330
8A6A
102
}
330
8A6A
100
AcDbXrecord
280
     1
270
     1
271
     1
  0
XRECORD
  5
8A70
102
{ACAD_REACTORS
330
8A6A
102
}
330
8A6A
100
AcDbXrecord
280
     1
270
     1
271
     1
  0
XRECORD
  5
8A6D
102
{ACAD_REACTORS
330
8A6A
102
}
330
8A6A
100
AcDbXrecord
280
     1
270
     1
271
     1
  0
XRECORD
  5
1C1CF
102
{ACAD_REACTORS
330
1C1B0
102
}
330
1C1B0
100
AcDbXrecord
280
     1
102
DISPLAYNAME
  1
Imperial24
102
FLAGS
 90
        0
  0
CELLSTYLEMAP
  5
1C1CE
102
{ACAD_REACTORS
330
8AED
102
}
330
8AED
100
AcDbCellStyleMap
 90
        3
300
CELLSTYLE
  1
TABLEFORMAT_BEGIN
 90
        5
170
     1
 91
        0
 92
    32768
 62
   257
 93
        1
300
CONTENTFORMAT
  1
CONTENTFORMAT_BEGIN
 90
        0
 91
        0
 92
      512
 93
        0
300

 40
0.0
140
1.0
 94
        5
 62
     0
340
11
144
0.25
309
CONTENTFORMAT_END
171
     1
301
MARGIN
  1
CELLMARGIN_BEGIN
 40
0.06
 40
0.06
 40
0.06
 40
0.06
 40
0.18
 40
0.18
309
CELLMARGIN_END
 94
        6
 95
        1
302
GRIDFORMAT
  1
GRIDFORMAT_BEGIN
 90
        0
 91
        1
 62
     0
 92
       -2
340
0
 93
        0
 40
0.045
309
GRIDFORMAT_END
 95
        2
302
GRIDFORMAT
  1
GRIDFORMAT_BEGIN
 90
        0
 91
        1
 62
     0
 92
       -2
340
0
 93
        0
 40
0.045
309
GRIDFORMAT_END
 95
        4
302
GRIDFORMAT
  1
GRIDFORMAT_BEGIN
 90
        0
 91
        1
 62
     0
 92
       -2
340
0
 93
        0
 40
0.045
309
GRIDFORMAT_END
 95
        8
302
GRIDFORMAT
  1
GRIDFORMAT_BEGIN
 90
        0
 91
        1
 62
     0
 92
       -2
340
0
 93
        0
 40
0.045
309
GRIDFORMAT_END
 95
       16
302
GRIDFORMAT
  1
GRIDFORMAT_BEGIN
 90
        0
 91
        1
 62
     0
 92
       -2
340
0
 93
        0
 40
0.045
309
GRIDFORMAT_END
 95
       32
302
GRIDFORMAT
  1
GRIDFORMAT_BEGIN
 90
        0
 91
        1
 62
     0
 92
       -2
340
0
 93
        0
 40
0.045
309
GRIDFORMAT_END
309
TABLEFORMAT_END
  1
CELLSTYLE_BEGIN
 90
        1
 91
        1
300
_TITLE
309
CELLSTYLE_END
300
CELLSTYLE
  1
TABLEFORMAT_BEGIN
 90
        5
170
     1
 91
        0
 92
        0
 62
   257
 93
        1
300
CONTENTFORMAT
  1
CONTENTFORMAT_BEGIN
 90
        0
 91
        0
 92
      512
 93
        0
300

 40
0.0
140
1.0
 94
        5
 62
     0
340
11
144
0.18
309
CONTENTFORMAT_END
171
     1
301
MARGIN
  1
CELLMARGIN_BEGIN
 40
0.06
 40
0.06
 40
0.06
 40
0.06
 40
0.18
 40
0.18
309
CELLMARGIN_END
 94
        6
 95
        1
302
GRIDFORMAT
  1
GRIDFORMAT_BEGIN
 90
        0
 91
        1
 62
     0
 92
       -2
340
0
 93
        0
 40
0.045
309
GRIDFORMAT_END
 95
        2
302
GRIDFORMAT
  1
GRIDFORMAT_BEGIN
 90
        0
 91
        1
 62
     0
 92
       -2
340
0
 93
        0
 40
0.045
309
GRIDFORMAT_END
 95
        4
302
GRIDFORMAT
  1
GRIDFORMAT_BEGIN
 90
        0
 91
        1
 62
     0
 92
       -2
340
0
 93
        0
 40
0.045
309
GRIDFORMAT_END
 95
        8
302
GRIDFORMAT
  1
GRIDFORMAT_BEGIN
 90
        0
 91
        1
 62
     0
 92
       -2
340
0
 93
        0
 40
0.045
309
GRIDFORMAT_END
 95
       16
302
GRIDFORMAT
  1
GRIDFORMAT_BEGIN
 90
        0
 91
        1
 62
     0
 92
       -2
340
0
 93
        0
 40
0.045
309
GRIDFORMAT_END
 95
       32
302
GRIDFORMAT
  1
GRIDFORMAT_BEGIN
 90
        0
 91
        1
 62
     0
 92
       -2
340
0
 93
        0
 40
0.045
309
GRIDFORMAT_END
309
TABLEFORMAT_END
  1
CELLSTYLE_BEGIN
 90
        2
 91
        1
300
_HEADER
309
CELLSTYLE_END
300
CELLSTYLE
  1
TABLEFORMAT_BEGIN
 90
        5
170
     1
 91
        0
 92
        0
 62
   257
 93
        1
300
CONTENTFORMAT
  1
CONTENTFORMAT_BEGIN
 90
        0
 91
        0
 92
      512
 93
        0
300

 40
0.0
140
1.0
 94
        2
 62
     0
340
11
144
0.18
309
CONTENTFORMAT_END
171
     1
301
MARGIN
  1
CELLMARGIN_BEGIN
 40
0.06
 40
0.06
 40
0.06
 40
0.06
 40
0.18
 40
0.18
309
CELLMARGIN_END
 94
        6
 95
        1
302
GRIDFORMAT
  1
GRIDFORMAT_BEGIN
 90
        0
 91
        1
 62
     0
 92
       -2
340
0
 93
        0
 40
0.045
309
GRIDFORMAT_END
 95
        2
302
GRIDFORMAT
  1
GRIDFORMAT_BEGIN
 90
        0
 91
        1
 62
     0
 92
       -2
340
0
 93
        0
 40
0.045
309
GRIDFORMAT_END
 95
        4
302
GRIDFORMAT
  1
GRIDFORMAT_BEGIN
 90
        0
 91
        1
 62
     0
 92
       -2
340
0
 93
        0
 40
0.045
309
GRIDFORMAT_END
 95
        8
302
GRIDFORMAT
  1
GRIDFORMAT_BEGIN
 90
        0
 91
        1
 62
     0
 92
       -2
340
0
 93
        0
 40
0.045
309
GRIDFORMAT_END
 95
       16
302
GRIDFORMAT
  1
GRIDFORMAT_BEGIN
 90
        0
 91
        1
 62
     0
 92
       -2
340
0
 93
        0
 40
0.045
309
GRIDFORMAT_END
 95
       32
302
GRIDFORMAT
  1
GRIDFORMAT_BEGIN
 90
        0
 91
        1
 62
     0
 92
       -2
340
0
 93
        0
 40
0.045
309
GRIDFORMAT_END
309
TABLEFORMAT_END
  1
CELLSTYLE_BEGIN
 90
        3
 91
        2
300
_DATA
309
CELLSTYLE_END
  0
ENDSEC
  0
SECTION
  2
ACDSDATA
 70
     2
 71
     6
  0
ACDSSCHEMA
 90
        0
  1
AcDb_Thumbnail_Schema
  2
AcDbDs::ID
280
    10
 91
        8
  2
Thumbnail_Data
280
    15
 91
        0
101
ACDSRECORD
 95
        0
 90
        1
  2
AcDbDs::TreatedAsObjectData
280
     1
291
     1
101
ACDSRECORD
 95
        0
 90
        2
  2
AcDbDs::Legacy
280
     1
291
     1
101
ACDSRECORD
  1
AcDbDs::ID
 90
        3
  2
AcDs:Indexable
280
     1
291
     1
101
ACDSRECORD
  1
AcDbDs::ID
 90
        4
  2
AcDbDs::HandleAttribute
280
     7
282
     1
  0
ACDSSCHEMA
 90
        1
  1
AcDbDs::TreatedAsObjectDataSchema
  2
AcDbDs::TreatedAsObjectData
280
     1
 91
        0
  0
ACDSSCHEMA
 90
        2
  1
AcDbDs::LegacySchema
  2
AcDbDs::Legacy
280
     1
 91
        0
  0
ACDSSCHEMA
 90
        3
  1
AcDbDs::IndexedPropertySchema
  2
AcDs:Indexable
280
     1
 91
        0
  0
ACDSSCHEMA
 90
        4
  1
AcDbDs::HandleAttributeSchema
  2
AcDbDs::HandleAttribute
280
     7
 91
        1
284
     1
  0
ACDSRECORD
 90
        0
  2
AcDbDs::ID
280
    10
320
8A4C
  2
Thumbnail_Data
280
    15
 94
     1851
310
89504E470D0A1A0A0000000D49484452000001000000008808030000003F38C55500000300504C5445000000000000FFFFFF0000000000000000000000000000000000000000000000000000330000660000990000CC0000FF0033000033330033660033990033CC0033FF0066000066330066660066990066CC0066FF0099
310
000099330099660099990099CC0099FF00CC0000CC3300CC6600CC9900CCCC00CCFF00FF0000FF3300FF6600FF9900FFCC00FFFF3300003300333300663300993300CC3300FF3333003333333333663333993333CC3333FF3366003366333366663366993366CC3366FF3399003399333399663399993399CC3399FF33CC00
310
33CC3333CC6633CC9933CCCC33CCFF33FF0033FF3333FF6633FF9933FFCC33FFFF6600006600336600666600996600CC6600FF6633006633336633666633996633CC6633FF6666006666336666666666996666CC6666FF6699006699336699666699996699CC6699FF66CC0066CC3366CC6666CC9966CCCC66CCFF66FF0066
310
FF3366FF6666FF9966FFCC66FFFF9900009900339900669900999900CC9900FF9933009933339933669933999933CC9933FF9966009966339966669966999966CC9966FF9999009999339999669999999999CC9999FF99CC0099CC3399CC6699CC9999CCCC99CCFF99FF0099FF3399FF6699FF9999FFCC99FFFFCC0000CC00
310
33CC0066CC0099CC00CCCC00FFCC3300CC3333CC3366CC3399CC33CCCC33FFCC6600CC6633CC6666CC6699CC66CCCC66FFCC9900CC9933CC9966CC9999CC99CCCC99FFCCCC00CCCC33CCCC66CCCC99CCCCCCCCCCFFCCFF00CCFF33CCFF66CCFF99CCFFCCCCFFFFFF0000FF0033FF0066FF0099FF00CCFF00FFFF3300FF3333
310
FF3366FF3399FF33CCFF33FFFF6600FF6633FF6666FF6699FF66CCFF66FFFF9900FF9933FF9966FF9999FF99CCFF99FFFFCC00FFCC33FFCC66FFCC99FFCCCCFFCCFFFFFF00FFFF33FFFF66FFFF99FFFFCCFFFFFF0000000D0D0D1A1A1A2828283535354343435050505D5D5D6B6B6B787878868686939393A1A1A1AEAEAEBB
310
BBBBC9C9C9D6D6D6E4E4E4F1F1F1FFFFFF000000000000000000000000000000000000000000000000000000000000C11FEF66000003F64944415478DAEDDC39722321140050DF806B9070FF4C09D750C4097E423E2C0DE203BD68CA55337FA1EC968C649578FAECDDFA09C2D38F0228800228800228800228800228800228
310
800228800228800228C0C3E47E3D5103F8EDB7A2000AA0000200E29C1440010400404B5201E251FE280DA07DE8BB2A10CA0F678016F5516A1B00CEA59FA9FC08807904B80C10A3DC5EC0590BF1B21BE41D012E0144C1E3009701EC0500F35E20BADC08E6644A12180101CA3195DDC9AC0215C0192B1B20188B9B82A90FE00E
310
B07ECCE2AA401A0AB828B10AC05105C044071223005CED0613808168A44640BA35262604C100B9D021C4DF5D61A107F044802F40590AEBAB8252007259D36F5B0B5C863D0200A0951F1E3501BCF705643482FE3C14220807802816606D1AFBFDF1863F40DF1D0398EE4A01D8FE310E0CE802A0339D860FF80CC01C13A5E1D9
310
8C008E624D1F7908F079D82C11401D20B877FAAB1DF2F96E2BC0503C8600EFF7DBE643B0E9F00D40AD041C2220AF7DBE5D397C07F09938D10528831C5B7A017B3CF218207000D89CF3BA00380C804E8FA50ED0CBE63F192B4040DD20DA2B90096015403800AB2AB0B6821DA08D7527003456660050FFF4351303943C7C3584
310
99AE8D6002D0BBB50560BE1C4402C058B85B00EAD3E10D4059EC380200EA4CF014A03F971E80AF2995AE1C3F8701003C780FF5292D997E8F38C01401A9115C23003847C0C336E00680651B30F602F700CCC70122006E47828EF748F0722E50768997A130AF08F81E40D26C903F002C00B00280020C00C1B15A13ACB31D3B1C
310
77006851D4A1176110012E6F09B4834480BC3364CBC1E69DA12F0038EC0C150067CBDE608A802F01DA73C8B701A7BBC30D60DC1D76D38B700258CE0FD87683ACCE0FE865F34BCE593708ACA6C35F00D45BAE0028EA17801EE9A7A70CD30558CEFBDA0060235E00370910D1C549E39C0142D008C0B5441840901D0153D51717
310
01FFEE05154001FE1B00FF24973280970A60E6849F62F68F9FFC174980E9B39C01C2F6F193FF520005500005500052006ED80D6B370E5F183017B5CC8330409F1A1104283DB83DAE15B14789FF02C0500528C5CF3BDDBEDC0C2B1E2700B05601E819E4005C7DDF367CAE1632E59B73DAB7473C0180401860DF062080D798DA
310
A24829EF9855B3A902ACFB8223C01801AF5CF40E50725F2D2428020C9D1EEED014403A405FF4DD01843D4060043076830B00EC2380642318FC3E55807A61C06B7CE09532D243F57A8197FF1C4B36AB2A00A2AB8036827200F623216900974361381D0A03FDA1F0F18EA7C950C00068E23B36825072817423F8603ACC1C60B3
310
2002DBEFCAB806306401EE97C49E01505D12AB6FBD7E73642B0A3AF5410440AFF87201022A0A88039846820A201E6038238C02C01FD4FF7589E10DA40C0000000049454E44AE426082
  0
ENDSEC
  0
EOF
