  0
SECTION
  2
HEADER
  9
$ACADVER
  1
AC1027
  9
$ACADMAINTVER
 70
    55
  9
$DWGCODEPAGE
  3
ANSI_932
  9
$LASTSAVEDBY
  1
marketing
  9
$REQUIREDVERSIONS
160
                 0
  9
$INSBASE
 10
0.0
 20
0.0
 30
0.0
  9
$EXTMIN
 10
-0.0489046821076045
 20
-0.0401538084270214
 30
-0.0015258207003583
  9
$EXTMAX
 10
700.0304075016356
 20
1088.044519492248
 30
0.0000000349246037
  9
$LIMMIN
 10
-296.316999476111
 20
-370.7034300441653
  9
$LIMMAX
 10
623.3128432133979
 20
328.6261559379898
  9
$ORTHOMODE
 70
     1
  9
$REGENMODE
 70
     1
  9
$FILLMODE
 70
     1
  9
$QTEXTMODE
 70
     0
  9
$MIRRTEXT
 70
     1
  9
$LTSCALE
 40
10.0
  9
$ATTMODE
 70
     1
  9
$TEXTSIZE
 40
5.0
  9
$TRACEWID
 40
0.05
  9
$TEXTSTYLE
  7
STANDARD1
  9
$CLAYER
  8
30
  9
$CELTYPE
  6
BYLAYER
  9
$CECOLOR
 62
   256
  9
$CELTSCALE
 40
1.0
  9
$DISPSILH
 70
     0
  9
$DIMSCALE
 40
1.0
  9
$DIMASZ
 40
2.0
  9
$DIMEXO
 40
1.0
  9
$DIMDLI
 40
0.5
  9
$DIMRND
 40
0.0
  9
$DIMDLE
 40
0.0
  9
$DIMEXE
 40
0.5
  9
$DIMTP
 40
0.0
  9
$DIMTM
 40
0.0
  9
$DIMTXT
 40
8.0
  9
$DIMCEN
 40
0.09
  9
$DIMTSZ
 40
0.0
  9
$DIMTOL
 70
     0
  9
$DIMLIM
 70
     0
  9
$DIMTIH
 70
     0
  9
$DIMTOH
 70
     0
  9
$DIMSE1
 70
     0
  9
$DIMSE2
 70
     0
  9
$DIMTAD
 70
     3
  9
$DIMZIN
 70
    12
  9
$DIMBLK
  1
OPEN
  9
$DIMASO
 70
     1
  9
$DIMSHO
 70
     1
  9
$DIMPOST
  1

  9
$DIMAPOST
  1

  9
$DIMALT
 70
     0
  9
$DIMALTD
 70
     2
  9
$DIMALTF
 40
25.4
  9
$DIMLFAC
 40
1.0
  9
$DIMTOFL
 70
     0
  9
$DIMTVP
 40
0.0
  9
$DIMTIX
 70
     0
  9
$DIMSOXD
 70
     0
  9
$DIMSAH
 70
     0
  9
$DIMBLK1
  1

  9
$DIMBLK2
  1

  9
$DIMSTYLE
  2
STANDARD
  9
$DIMCLRD
 70
     0
  9
$DIMCLRE
 70
     0
  9
$DIMCLRT
 70
   256
  9
$DIMTFAC
 40
1.0
  9
$DIMGAP
 40
3.0
  9
$DIMJUST
 70
     0
  9
$DIMSD1
 70
     0
  9
$DIMSD2
 70
     0
  9
$DIMTOLJ
 70
     1
  9
$DIMTZIN
 70
     0
  9
$DIMALTZ
 70
     0
  9
$DIMALTTZ
 70
     0
  9
$DIMUPT
 70
     0
  9
$DIMDEC
 70
     1
  9
$DIMTDEC
 70
     1
  9
$DIMALTU
 70
     2
  9
$DIMALTTD
 70
     2
  9
$DIMTXSTY
  7
STANDARD
  9
$DIMAUNIT
 70
     0
  9
$DIMADEC
 70
     0
  9
$DIMALTRND
 40
0.0
  9
$DIMAZIN
 70
     0
  9
$DIMDSEP
 70
    46
  9
$DIMATFIT
 70
     3
  9
$DIMFRAC
 70
     0
  9
$DIMLDRBLK
  1
OPEN
  9
$DIMLUNIT
 70
     2
  9
$DIMLWD
 70
    -2
  9
$DIMLWE
 70
    -2
  9
$DIMTMOVE
 70
     0
  9
$DIMFXL
 40
1.0
  9
$DIMFXLON
 70
     0
  9
$DIMJOGANG
 40
0.7853981633974483
  9
$DIMTFILL
 70
     1
  9
$DIMTFILLCLR
 70
     0
  9
$DIMARCSYM
 70
     0
  9
$DIMLTYPE
  6

  9
$DIMLTEX1
  6

  9
$DIMLTEX2
  6

  9
$DIMTXTDIRECTION
 70
     0
  9
$LUNITS
 70
     2
  9
$LUPREC
 70
     4
  9
$SKETCHINC
 40
0.1
  9
$FILLETRAD
 40
0.0
  9
$AUNITS
 70
     0
  9
$AUPREC
 70
     0
  9
$MENU
  1
.
  9
$ELEVATION
 40
0.0
  9
$PELEVATION
 40
0.0
  9
$THICKNESS
 40
0.0
  9
$LIMCHECK
 70
     0
  9
$CHAMFERA
 40
0.0
  9
$CHAMFERB
 40
0.0
  9
$CHAMFERC
 40
0.0
  9
$CHAMFERD
 40
0.0
  9
$SKPOLY
 70
     0
  9
$TDCREATE
 40
2452286.555658658
  9
$TDUCREATE
 40
2452286.180658658
  9
$TDUPDATE
 40
2459244.376003715
  9
$TDUUPDATE
 40
2459244.001003715
  9
$TDINDWG
 40
1.9390371759
  9
$TDUSRTIMER
 40
1.9390344444
  9
$USRTIMER
 70
     1
  9
$ANGBASE
 50
0.0
  9
$ANGDIR
 70
     0
  9
$PDMODE
 70
     0
  9
$PDSIZE
 40
0.0
  9
$PLINEWID
 40
0.0
  9
$SPLFRAME
 70
     0
  9
$SPLINETYPE
 70
     6
  9
$SPLINESEGS
 70
     8
  9
$HANDSEED
  5
1C482
  9
$SURFTAB1
 70
     6
  9
$SURFTAB2
 70
     6
  9
$SURFTYPE
 70
     6
  9
$SURFU
 70
     6
  9
$SURFV
 70
     6
  9
$UCSBASE
  2

  9
$UCSNAME
  2

  9
$UCSORG
 10
0.0
 20
0.0
 30
0.0
  9
$UCSXDIR
 10
1.0
 20
0.0
 30
0.0
  9
$UCSYDIR
 10
0.0
 20
1.0
 30
0.0
  9
$UCSORTHOREF
  2

  9
$UCSORTHOVIEW
 70
     0
  9
$UCSORGTOP
 10
0.0
 20
0.0
 30
0.0
  9
$UCSORGBOTTOM
 10
0.0
 20
0.0
 30
0.0
  9
$UCSORGLEFT
 10
0.0
 20
0.0
 30
0.0
  9
$UCSORGRIGHT
 10
0.0
 20
0.0
 30
0.0
  9
$UCSORGFRONT
 10
0.0
 20
0.0
 30
0.0
  9
$UCSORGBACK
 10
0.0
 20
0.0
 30
0.0
  9
$PUCSBASE
  2

  9
$PUCSNAME
  2

  9
$PUCSORG
 10
0.0
 20
0.0
 30
0.0
  9
$PUCSXDIR
 10
1.0
 20
0.0
 30
0.0
  9
$PUCSYDIR
 10
0.0
 20
1.0
 30
0.0
  9
$PUCSORTHOREF
  2

  9
$PUCSORTHOVIEW
 70
     0
  9
$PUCSORGTOP
 10
0.0
 20
0.0
 30
0.0
  9
$PUCSORGBOTTOM
 10
0.0
 20
0.0
 30
0.0
  9
$PUCSORGLEFT
 10
0.0
 20
0.0
 30
0.0
  9
$PUCSORGRIGHT
 10
0.0
 20
0.0
 30
0.0
  9
$PUCSORGFRONT
 10
0.0
 20
0.0
 30
0.0
  9
$PUCSORGBACK
 10
0.0
 20
0.0
 30
0.0
  9
$USERI1
 70
     0
  9
$USERI2
 70
     0
  9
$USERI3
 70
     0
  9
$USERI4
 70
     0
  9
$USERI5
 70
     0
  9
$USERR1
 40
0.0
  9
$USERR2
 40
0.0
  9
$USERR3
 40
0.0
  9
$USERR4
 40
0.0
  9
$USERR5
 40
0.0
  9
$WORLDVIEW
 70
     1
  9
$SHADEDGE
 70
     3
  9
$SHADEDIF
 70
    70
  9
$TILEMODE
 70
     1
  9
$MAXACTVP
 70
    48
  9
$PINSBASE
 10
0.0
 20
0.0
 30
0.0
  9
$PLIMCHECK
 70
     0
  9
$PEXTMIN
 10
4.273573
 20
5.205245999999998
 30
0.0
  9
$PEXTMAX
 10
194.610095
 20
283.0697009999996
 30
0.0
  9
$PLIMMIN
 10
-5.873749
 20
-5.87375
  9
$PLIMMAX
 10
204.099579
 20
291.1369009999999
  9
$UNITMODE
 70
     0
  9
$VISRETAIN
 70
     1
  9
$PLINEGEN
 70
     0
  9
$PSLTSCALE
 70
     1
  9
$TREEDEPTH
 70
  3020
  9
$CMLSTYLE
  2
STANDARD
  9
$CMLJUST
 70
     0
  9
$CMLSCALE
 40
1.0
  9
$PROXYGRAPHICS
 70
     1
  9
$MEASUREMENT
 70
     0
  9
$CELWEIGHT
370
    -1
  9
$ENDCAPS
280
     0
  9
$JOINSTYLE
280
     0
  9
$LWDISPLAY
290
     0
  9
$INSUNITS
 70
     0
  9
$HYPERLINKBASE
  1

  9
$STYLESHEET
  1
MONOCHROME.CTB
  9
$XEDIT
290
     1
  9
$CEPSNTYPE
380
     0
  9
$PSTYLEMODE
290
     1
  9
$FINGERPRINTGUID
  2

  9
$VERSIONGUID
  2
{F35BFCEC-50FF-4EF3-B04C-C712A51875C7}
  9
$EXTNAMES
290
     1
  9
$PSVPSCALE
 40
0.0
  9
$OLESTARTUP
290
     0
  9
$SORTENTS
280
   127
  9
$INDEXCTL
280
     0
  9
$HIDETEXT
280
     0
  9
$XCLIPFRAME
280
     2
  9
$HALOGAP
280
     0
  9
$OBSCOLOR
 70
   257
  9
$OBSLTYPE
280
     0
  9
$INTERSECTIONDISPLAY
280
     0
  9
$INTERSECTIONCOLOR
 70
   257
  9
$DIMASSOC
280
     1
  9
$PROJECTNAME
  1

  9
$CAMERADISPLAY
290
     0
  9
$LENSLENGTH
 40
50.0
  9
$CAMERAHEIGHT
 40
0.0
  9
$STEPSPERSEC
 40
2.0
  9
$STEPSIZE
 40
6.0
  9
$3DDWFPREC
 40
2.0
  9
$PSOLWIDTH
 40
0.25
  9
$PSOLHEIGHT
 40
4.0
  9
$LOFTANG1
 40
1.570796326794896
  9
$LOFTANG2
 40
1.570796326794896
  9
$LOFTMAG1
 40
0.0
  9
$LOFTMAG2
 40
0.0
  9
$LOFTPARAM
 70
     7
  9
$LOFTNORMALS
280
     1
  9
$LATITUDE
 40
37.795
  9
$LONGITUDE
 40
-122.394
  9
$NORTHDIRECTION
 40
0.0
  9
$TIMEZONE
 70
 -8000
  9
$LIGHTGLYPHDISPLAY
280
     1
  9
$TILEMODELIGHTSYNCH
280
     1
  9
$CMATERIAL
347
8A59
  9
$SOLIDHIST
280
     0
  9
$SHOWHIST
280
     1
  9
$DWFFRAME
280
     2
  9
$DGNFRAME
280
     0
  9
$REALWORLDSCALE
290
     1
  9
$INTERFERECOLOR
 62
     1
  9
$INTERFEREOBJVS
345
8A7B
  9
$INTERFEREVPVS
346
8A78
  9
$CSHADOW
280
     0
  9
$SHADOWPLANELOCATION
 40
0.0
  0
ENDSEC
  0
SECTION
  2
CLASSES
  0
CLASS
  1
ACDBDICTIONARYWDFLT
  2
AcDbDictionaryWithDefault
  3
ObjectDBX Classes
 90
        0
 91
        1
280
     0
281
     0
  0
CLASS
  1
DICTIONARYVAR
  2
AcDbDictionaryVar
  3
ObjectDBX Classes
 90
        0
 91
       10
280
     0
281
     0
  0
CLASS
  1
MATERIAL
  2
AcDbMaterial
  3
ObjectDBX Classes
 90
     1153
 91
        3
280
     0
281
     0
  0
CLASS
  1
VISUALSTYLE
  2
AcDbVisualStyle
  3
ObjectDBX Classes
 90
     4095
 91
       26
280
     0
281
     0
  0
CLASS
  1
TABLESTYLE
  2
AcDbTableStyle
  3
ObjectDBX Classes
 90
     4095
 91
        1
280
     0
281
     0
  0
CLASS
  1
SCALE
  2
AcDbScale
  3
ObjectDBX Classes
 90
     1153
 91
       17
280
     0
281
     0
  0
CLASS
  1
MLEADERSTYLE
  2
AcDbMLeaderStyle
  3
ACDB_MLEADERSTYLE_CLASS
 90
     4095
 91
        1
280
     0
281
     0
  0
CLASS
  1
ACDBSECTIONVIEWSTYLE
  2
AcDbSectionViewStyle
  3
ObjectDBX Classes
 90
     1025
 91
        1
280
     0
281
     0
  0
CLASS
  1
ACDBDETAILVIEWSTYLE
  2
AcDbDetailViewStyle
  3
ObjectDBX Classes
 90
     1025
 91
        1
280
     0
281
     0
  0
CLASS
  1
CELLSTYLEMAP
  2
AcDbCellStyleMap
  3
ObjectDBX Classes
 90
     1152
 91
        2
280
     0
281
     0
  0
CLASS
  1
AEC_REFEDIT_STATUS_TRACKER
  2
AecDbRefEditStatusTracker
  3
AecArchBase70|Product Desc: Autodesk Architectural Desktop 2007 |Company: Autodesk,Inc. |WEB Address: www.autodesk.com
 90
      129
 91
        0
280
     0
281
     0
  0
CLASS
  1
NPOCOLLECTION
  2
AcDbImpNonPersistentObjectsCollection
  3
ObjectDBX Classes
 90
     1153
 91
        0
280
     0
281
     0
  0
CLASS
  1
SORTENTSTABLE
  2
AcDbSortentsTable
  3
ObjectDBX Classes
 90
        0
 91
        1
280
     0
281
     0
  0
CLASS
  1
MULTILEADER
  2
AcDbMLeader
  3
ACDB_MLEADER_CLASS
 90
     1025
 91
        1
280
     0
281
     1
  0
ENDSEC
  0
SECTION
  2
TABLES
  0
TABLE
  2
VPORT
  5
8
330
0
100
AcDbSymbolTable
 70
     1
  0
VPORT
  5
8A51
330
8
100
AcDbSymbolTableRecord
100
AcDbViewportTableRecord
  2
*Active
 70
     0
 10
0.0
 20
0.0
 11
1.0
 21
1.0
 12
349.990751409764
 22
544.0021828419108
 13
0.0
 23
0.0
 14
1.0
 24
1.0
 15
10.0
 25
10.0
 16
0.0
 26
0.0
 36
1.0
 17
0.0
 27
0.0
 37
0.0
 40
1095.950345637789
 41
2.289505428226779
 42
50.0
 43
0.0
 44
0.0
 50
0.0
 51
0.0
 71
     0
 72
   100
 73
     1
 74
     1
 75
     0
 76
     0
 77
     0
 78
     0
281
     0
 65
     1
110
0.0
120
0.0
130
0.0
111
1.0
121
0.0
131
0.0
112
0.0
122
1.0
132
0.0
 79
     0
146
0.0
348
8A77
 60
     3
 61
     5
292
     1
282
     1
141
0.0
142
0.0
 63
   250
421
  3355443
1001
ACAD_NAV_VCDISPLAY
1070
     3
  0
ENDTAB
  0
TABLE
  2
LTYPE
  5
5
330
0
100
AcDbSymbolTable
 70
     9
  0
LTYPE
  5
13
330
5
100
AcDbSymbolTableRecord
100
AcDbLinetypeTableRecord
  2
BYBLOCK
 70
     0
  3

 72
    65
 73
     0
 40
0.0
  0
LTYPE
  5
14
330
5
100
AcDbSymbolTableRecord
100
AcDbLinetypeTableRecord
  2
BYLAYER
 70
     0
  3

 72
    65
 73
     0
 40
0.0
  0
LTYPE
  5
15
330
5
100
AcDbSymbolTableRecord
100
AcDbLinetypeTableRecord
  2
CONTINUOUS
 70
     0
  3
Solid line
 72
    65
 73
     0
 40
0.0
  0
LTYPE
  5
22
330
5
100
AcDbSymbolTableRecord
100
AcDbLinetypeTableRecord
  2
CONTINOUS
 70
     0
  3
Solid line
 72
    65
 73
     0
 40
0.0
  0
LTYPE
  5
23
330
5
100
AcDbSymbolTableRecord
100
AcDbLinetypeTableRecord
  2
DASHED
 70
     0
  3
__ __ __ __ __ __ __ __ __ __ __ __ __ __ __
 72
    65
 73
     2
 40
0.75
 49
0.5
 74
     0
 49
-0.25
 74
     0
  0
LTYPE
  5
24
330
5
100
AcDbSymbolTableRecord
100
AcDbLinetypeTableRecord
  2
DASHDOT
 70
     0
  3
__ . __ . __ . __ . __ . __ . __ . __ . __ . __
 72
    65
 73
     4
 40
1.0
 49
0.5
 74
     0
 49
-0.25
 74
     0
 49
0.0
 74
     0
 49
-0.25
 74
     0
  0
LTYPE
  5
4C47
330
5
100
AcDbSymbolTableRecord
100
AcDbLinetypeTableRecord
  2
DIVIDE
 70
     0
  3
Divide ____ . . ____ . . ____ . . ____ . . ____
 72
    65
 73
     6
 40
1.25
 49
0.5
 74
     0
 49
-0.25
 74
     0
 49
0.0
 74
     0
 49
-0.25
 74
     0
 49
0.0
 74
     0
 49
-0.25
 74
     0
  0
LTYPE
  5
912E
330
5
100
AcDbSymbolTableRecord
100
AcDbLinetypeTableRecord
  2
SLD-実線
 70
     0
  3
SolidWorks Line Style
 72
    65
 73
     0
 40
0.0
  0
LTYPE
  5
16BB3
330
5
100
AcDbSymbolTableRecord
100
AcDbLinetypeTableRecord
  2
HIDDEN
 70
     0
  3
Hidden __ __ __ __ __ __ __ __ __ __ __ __ __ __
 72
    65
 73
     2
 40
0.375
 49
0.25
 74
     0
 49
-0.125
 74
     0
  0
LTYPE
  5
1C423
330
5
100
AcDbSymbolTableRecord
100
AcDbLinetypeTableRecord
  2
SLD-2点鎖線
 70
     0
  3
SolidWorks Line Style
 72
    65
 73
     6
 40
12.7
 49
6.349999999999997
 74
     0
 49
-1.27
 74
     0
 49
1.27
 74
     0
 49
-1.27
 74
     0
 49
1.27
 74
     0
 49
-1.27
 74
     0
  0
ENDTAB
  0
TABLE
  2
LAYER
  5
2
102
{ACAD_XDICTIONARY
360
F3CC
102
}
330
0
100
AcDbSymbolTable
 70
    14
  0
LAYER
  5
10
102
{ACAD_XDICTIONARY
360
8ACC
102
}
330
2
100
AcDbSymbolTableRecord
100
AcDbLayerTableRecord
  2
0
 70
     0
 62
     7
  6
CONTINOUS
370
    -3
390
F
347
8A69
348
0
  0
LAYER
  5
2F
102
{ACAD_XDICTIONARY
360
8ACE
102
}
330
2
100
AcDbSymbolTableRecord
100
AcDbLayerTableRecord
  2
10
 70
     0
 62
     4
  6
CONTINOUS
370
    -3
390
F
347
8A69
348
0
  0
LAYER
  5
31
102
{ACAD_XDICTIONARY
360
8AD0
102
}
330
2
100
AcDbSymbolTableRecord
100
AcDbLayerTableRecord
  2
12
 70
     0
 62
     3
  6
CONTINOUS
370
    -3
390
F
347
8A69
348
0
  0
LAYER
  5
35
102
{ACAD_XDICTIONARY
360
8AD2
102
}
330
2
100
AcDbSymbolTableRecord
100
AcDbLayerTableRecord
  2
16
 70
     0
 62
     6
  6
DASHDOT
370
    -3
390
F
347
8A69
348
0
  0
LAYER
  5
38
102
{ACAD_XDICTIONARY
360
8AD4
102
}
330
2
100
AcDbSymbolTableRecord
100
AcDbLayerTableRecord
  2
19
 70
     0
 62
     7
  6
CONTINOUS
370
    -3
390
F
347
8A69
348
0
  0
LAYER
  5
3D
102
{ACAD_XDICTIONARY
360
8AD6
102
}
330
2
100
AcDbSymbolTableRecord
100
AcDbLayerTableRecord
  2
24
 70
     0
 62
     7
  6
CONTINOUS
370
    -3
390
F
347
8A69
348
0
  0
LAYER
  5
3A2
102
{ACAD_XDICTIONARY
360
8AD8
102
}
330
2
100
AcDbSymbolTableRecord
100
AcDbLayerTableRecord
  2
30
 70
     0
 62
     9
  6
CONTINUOUS
370
    -3
390
F
347
8A69
348
0
  0
LAYER
  5
3A4
330
2
100
AcDbSymbolTableRecord
100
AcDbLayerTableRecord
  2
DEFPOINTS
 70
     0
 62
     7
  6
CONTINUOUS
290
     0
370
    -3
390
F
347
8A69
348
0
  0
LAYER
  5
3BBA
102
{ACAD_XDICTIONARY
360
8ADA
102
}
330
2
100
AcDbSymbolTableRecord
100
AcDbLayerTableRecord
  2
18
 70
     0
 62
     5
  6
DIVIDE
370
    -3
390
F
347
8A69
348
0
  0
LAYER
  5
67A8
102
{ACAD_XDICTIONARY
360
8ADC
102
}
330
2
100
AcDbSymbolTableRecord
100
AcDbLayerTableRecord
  2
11
 70
     0
 62
     1
  6
CONTINOUS
370
    -3
390
F
347
8A69
348
0
  0
LAYER
  5
7837
102
{ACAD_XDICTIONARY
360
8ADE
102
}
330
2
100
AcDbSymbolTableRecord
100
AcDbLayerTableRecord
  2
17
 70
     0
 62
     2
  6
DASHDOT
370
    -3
390
F
347
8A69
348
0
  0
LAYER
  5
9133
102
{ACAD_XDICTIONARY
360
9134
102
}
330
2
100
AcDbSymbolTableRecord
100
AcDbLayerTableRecord
  2
240
 70
     0
 62
     7
  6
SLD-実線
370
    -3
390
F
347
8A69
348
0
  0
LAYER
  5
17470
102
{ACAD_XDICTIONARY
360
17471
102
}
330
2
100
AcDbSymbolTableRecord
100
AcDbLayerTableRecord
  2
1
 70
     0
 62
     7
  6
CONTINUOUS
370
    -3
390
F
347
8A69
348
0
  0
LAYER
  5
17472
102
{ACAD_XDICTIONARY
360
17473
102
}
330
2
100
AcDbSymbolTableRecord
100
AcDbLayerTableRecord
  2
TOP
 70
     0
 62
     7
  6
CONTINUOUS
370
    -3
390
F
347
8A69
348
0
  0
ENDTAB
  0
TABLE
  2
STYLE
  5
3
330
0
100
AcDbSymbolTable
 70
     4
  0
STYLE
  5
11
330
3
100
AcDbSymbolTableRecord
100
AcDbTextStyleTableRecord
  2
STANDARD
 70
     0
 40
0.0
 41
1.0
 50
0.0
 71
     0
 42
2.0
  3
txt.shx
  4
bigfont.shx
  0
STYLE
  5
42
330
3
100
AcDbSymbolTableRecord
100
AcDbTextStyleTableRecord
  2
STANDARD1
 70
     0
 40
0.0
 41
1.0
 50
0.0
 71
     0
 42
5.0
  3
MONOTXT
  4
BIGFONT
  0
STYLE
  5
1171A
330
3
100
AcDbSymbolTableRecord
100
AcDbTextStyleTableRecord
  2
SLDTEXTSTYLE0
 70
     0
 40
0.0
 41
1.0
 50
0.0
 71
     0
 42
3.0
  3
MS UI Gothic.ttf
  4

1001
ACAD
1000
MS UI Gothic
1071
      306
  0
STYLE
  5
17474
330
3
100
AcDbSymbolTableRecord
100
AcDbTextStyleTableRecord
  2
UGMTXT
 70
     0
 40
0.0
 41
1.0
 50
0.0
 71
     0
 42
0.2
  3
ugmtxt
  4
bigfont
  0
ENDTAB
  0
TABLE
  2
VIEW
  5
6
330
0
100
AcDbSymbolTable
 70
     3
  0
VIEW
  5
230C
330
6
100
AcDbSymbolTableRecord
100
AcDbViewTableRecord
  2
OLE1
 70
     0
 40
148.912488
 10
429.497628
 20
2.560627
 41
103.145806
 11
0.0
 21
0.0
 31
1.0
 12
0.0
 22
0.0
 32
0.0
 42
50.0
 43
0.0
 44
0.0
 50
0.0
 71
     0
281
     0
 72
     0
 73
     0
348
8A77
  0
VIEW
  5
230E
330
6
100
AcDbSymbolTableRecord
100
AcDbViewTableRecord
  2
OLE2
 70
     0
 40
170.778692
 10
322.66497
 20
-5.978304
 41
102.467215
 11
0.0
 21
0.0
 31
1.0
 12
0.0
 22
0.0
 32
0.0
 42
50.0
 43
0.0
 44
0.0
 50
0.0
 71
     0
281
     0
 72
     0
 73
     0
348
8A77
  0
VIEW
  5
23AA
330
6
100
AcDbSymbolTableRecord
100
AcDbViewTableRecord
  2
OLE3
 70
     0
 40
591.7897389999998
 10
84.79698199999999
 20
-46.09335999999998
 41
388.792096
 11
0.0
 21
0.0
 31
1.0
 12
0.0
 22
0.0
 32
0.0
 42
50.0
 43
0.0
 44
0.0
 50
0.0
 71
     0
281
     0
 72
     0
 73
     0
348
8A77
  0
ENDTAB
  0
TABLE
  2
UCS
  5
7
330
0
100
AcDbSymbolTable
 70
     0
  0
ENDTAB
  0
TABLE
  2
APPID
  5
9
330
0
100
AcDbSymbolTable
 70
    11
  0
APPID
  5
12
330
9
100
AcDbSymbolTableRecord
100
AcDbRegAppTableRecord
  2
ACAD
 70
     0
  0
APPID
  5
ECD
330
9
100
AcDbSymbolTableRecord
100
AcDbRegAppTableRecord
  2
CONTENTBLOCKICON
 70
     0
  0
APPID
  5
8AA9
330
9
100
AcDbSymbolTableRecord
100
AcDbRegAppTableRecord
  2
ACAD_NAV_VCDISPLAY
 70
     0
  0
APPID
  5
1038A
330
9
100
AcDbSymbolTableRecord
100
AcDbRegAppTableRecord
  2
ACAD_EXEMPT_FROM_CAD_STANDARDS
 70
     0
  0
APPID
  5
10D03
330
9
100
AcDbSymbolTableRecord
100
AcDbRegAppTableRecord
  2
ACAD_PSEXT
 70
     0
  0
APPID
  5
1147C
330
9
100
AcDbSymbolTableRecord
100
AcDbRegAppTableRecord
  2
ACAD_DSTYLE_DIMJAG
 70
     0
  0
APPID
  5
1147D
330
9
100
AcDbSymbolTableRecord
100
AcDbRegAppTableRecord
  2
ACAD_DSTYLE_DIMTALN
 70
     0
  0
APPID
  5
16BC0
330
9
100
AcDbSymbolTableRecord
100
AcDbRegAppTableRecord
  2
DCO15
 70
     0
  0
APPID
  5
16BC1
330
9
100
AcDbSymbolTableRecord
100
AcDbRegAppTableRecord
  2
ACAD_MLEADERVER
 70
     0
  0
APPID
  5
16BC2
330
9
100
AcDbSymbolTableRecord
100
AcDbRegAppTableRecord
  2
ACAD_DSTYLE_DIMBREAK
 70
     0
  0
APPID
  5
17476
330
9
100
AcDbSymbolTableRecord
100
AcDbRegAppTableRecord
  2
ACAUTHENVIRON
 70
     0
  0
ENDTAB
  0
TABLE
  2
DIMSTYLE
  5
A
330
0
100
AcDbSymbolTable
 70
     3
100
AcDbDimStyleTable
 71
     2
340
175
340
1171B
  0
DIMSTYLE
105
175
102
{ACAD_REACTORS
330
1899F
330
189B5
330
189BB
330
188A5
330
188A6
330
188A7
330
188A8
330
188AA
330
188AD
330
188B0
330
188B1
330
188C0
330
188C1
330
188E3
330
1A10E
330
1A7A5
330
1A7A6
330
1A9C5
330
1A9C6
330
1A9C7
330
1AA92
330
1AA93
330
1AA94
330
1AA96
330
188A9
330
188AB
330
1BB4A
330
1BB88
330
1C13B
330
1C303
102
}
330
A
100
AcDbSymbolTableRecord
100
AcDbDimStyleTableRecord
  2
STANDARD
 70
     0
 41
2.0
 42
1.0
 43
0.5
 44
0.5
 69
     1
 73
     0
 74
     0
 77
     3
 78
    12
140
8.0
147
3.0
178
   256
271
     1
272
     1
340
11
341
3B2
342
3B2
1001
ACAD_DSTYLE_DIMJAG
1070
   388
1040
1.5
1001
ACAD_DSTYLE_DIMTALN
1070
   392
1070
     0
  0
DIMSTYLE
105
1171B
102
{ACAD_REACTORS
330
19793
330
19842
330
198EE
330
1AA95
102
}
330
A
100
AcDbSymbolTableRecord
100
AcDbDimStyleTableRecord
  2
STANDARD1
 70
     0
 41
2.0
 42
3.0
 43
0.5
 44
0.5
 77
     3
 78
    12
140
8.0
147
3.0
172
     1
271
     1
272
     1
289
     2
340
11
341
3B2
342
3B2
1001
ACAD_DSTYLE_DIMJAG
1070
   388
1040
1.5
1001
ACAD_DSTYLE_DIMTALN
1070
   392
1070
     0
  0
ENDTAB
  0
TABLE
  2
BLOCK_RECORD
  5
1
330
0
100
AcDbSymbolTable
 70
    42
  0
BLOCK_RECORD
  5
1E
102
{ACAD_XDICTIONARY
360
178
102
}
330
1
100
AcDbSymbolTableRecord
100
AcDbBlockTableRecord
  2
*MODEL_SPACE
340
8A4C
 70
     0
280
     1
281
     0
  0
BLOCK_RECORD
  5
1A
102
{ACAD_XDICTIONARY
360
17A
102
}
330
1
100
AcDbSymbolTableRecord
100
AcDbBlockTableRecord
  2
*PAPER_SPACE
340
8A4D
 70
     0
280
     1
281
     0
  0
BLOCK_RECORD
  5
3B2
330
1
100
AcDbSymbolTableRecord
100
AcDbBlockTableRecord
  2
_OPEN
340
0
102
{BLKREFS
331
1C170
331
1C2B3
331
1C2BB
331
1C2BC
331
1C2C4
331
1C2C5
331
1C2DF
331
1C2E0
331
1C325
331
1C326
331
1C3C8
331
1C3C9
331
1C3D2
331
1C3D3
331
1C3DB
331
1C3DC
331
1BF41
331
1BF42
331
1BF65
331
1BF66
331
1BF6E
331
1BF6F
331
1BF80
331
1BF81
331
1BF89
331
1BF8A
331
1BF92
331
1BF93
331
1BF9B
331
1BFA2
331
1BFAA
331
1BFAB
331
1BFB2
331
1BFB3
331
1BFF1
331
1BFF2
331
1BFFA
331
1BFFB
331
1C003
331
1C004
331
1C00E
331
1C00F
331
1C017
331
1C018
331
1C08F
331
1C090
331
1C0A2
331
1C0A3
331
1C0AB
331
1C0AC
331
1C0C6
331
1C0C7
331
1C0CF
331
1C3FC
331
1C3FD
331
1C405
331
1C406
331
1C40E
331
1C40F
331
1C3B6
331
1C3B7
331
1C3BF
331
1C3C0
331
1C0D0
331
1C16F
331
1C46F
331
1C470
331
1C478
331
1C479
102
}
 70
     0
280
     1
281
     0
  0
BLOCK_RECORD
  5
175B4
330
1
100
AcDbSymbolTableRecord
100
AcDbBlockTableRecord
  2
SW_CENTERMARKSYMBOL_28
340
0
102
{BLKREFS
331
1891C
331
18954
331
18998
331
18999
331
1899A
331
1899B
102
}
 70
     0
280
     1
281
     0
  0
BLOCK_RECORD
  5
175BF
330
1
100
AcDbSymbolTableRecord
100
AcDbBlockTableRecord
  2
SW_CENTERMARKSYMBOL_36
340
0
102
{BLKREFS
331
1891D
331
18955
102
}
 70
     0
280
     1
281
     0
  0
BLOCK_RECORD
  5
175CA
330
1
100
AcDbSymbolTableRecord
100
AcDbBlockTableRecord
  2
SW_CENTERMARKSYMBOL_37
340
0
102
{BLKREFS
331
1891E
331
18956
102
}
 70
     0
280
     1
281
     0
  0
BLOCK_RECORD
  5
175D5
330
1
100
AcDbSymbolTableRecord
100
AcDbBlockTableRecord
  2
*U4
340
0
102
{BLKREFS
331
188CC
102
}
 70
     0
280
     1
281
     0
  0
BLOCK_RECORD
  5
189BC
330
1
100
AcDbSymbolTableRecord
100
AcDbBlockTableRecord
  2
*D5
340
0
 70
     0
280
     1
281
     0
  0
BLOCK_RECORD
  5
189D2
330
1
100
AcDbSymbolTableRecord
100
AcDbBlockTableRecord
  2
*D6
340
0
 70
     0
280
     1
281
     0
  0
BLOCK_RECORD
  5
189DE
330
1
100
AcDbSymbolTableRecord
100
AcDbBlockTableRecord
  2
*D7
340
0
 70
     0
280
     1
281
     0
  0
BLOCK_RECORD
  5
18A0C
330
1
100
AcDbSymbolTableRecord
100
AcDbBlockTableRecord
  2
*D8
340
0
 70
     0
280
     1
281
     0
  0
BLOCK_RECORD
  5
18A19
330
1
100
AcDbSymbolTableRecord
100
AcDbBlockTableRecord
  2
*D9
340
0
 70
     0
280
     1
281
     0
  0
BLOCK_RECORD
  5
18A25
330
1
100
AcDbSymbolTableRecord
100
AcDbBlockTableRecord
  2
*D10
340
0
 70
     0
280
     1
281
     0
  0
BLOCK_RECORD
  5
18A31
330
1
100
AcDbSymbolTableRecord
100
AcDbBlockTableRecord
  2
*D11
340
0
 70
     0
280
     1
281
     0
  0
BLOCK_RECORD
  5
18A3D
330
1
100
AcDbSymbolTableRecord
100
AcDbBlockTableRecord
  2
*D12
340
0
 70
     0
280
     1
281
     0
  0
BLOCK_RECORD
  5
18A49
330
1
100
AcDbSymbolTableRecord
100
AcDbBlockTableRecord
  2
*D13
340
0
 70
     0
280
     1
281
     0
  0
BLOCK_RECORD
  5
18A60
330
1
100
AcDbSymbolTableRecord
100
AcDbBlockTableRecord
  2
*D14
340
0
 70
     0
280
     1
281
     0
  0
BLOCK_RECORD
  5
18A6C
330
1
100
AcDbSymbolTableRecord
100
AcDbBlockTableRecord
  2
*D15
340
0
 70
     0
280
     1
281
     0
  0
BLOCK_RECORD
  5
18A91
330
1
100
AcDbSymbolTableRecord
100
AcDbBlockTableRecord
  2
*D16
340
0
 70
     0
280
     1
281
     0
  0
BLOCK_RECORD
  5
18A9D
330
1
100
AcDbSymbolTableRecord
100
AcDbBlockTableRecord
  2
*D17
340
0
 70
     0
280
     1
281
     0
  0
BLOCK_RECORD
  5
18AB3
330
1
100
AcDbSymbolTableRecord
100
AcDbBlockTableRecord
  2
*D18
340
0
 70
     0
280
     1
281
     0
  0
BLOCK_RECORD
  5
19794
330
1
100
AcDbSymbolTableRecord
100
AcDbBlockTableRecord
  2
*D19
340
0
 70
     0
280
     1
281
     0
  0
BLOCK_RECORD
  5
19843
330
1
100
AcDbSymbolTableRecord
100
AcDbBlockTableRecord
  2
*D20
340
0
 70
     0
280
     1
281
     0
  0
BLOCK_RECORD
  5
198EF
330
1
100
AcDbSymbolTableRecord
100
AcDbBlockTableRecord
  2
*D21
340
0
 70
     0
280
     1
281
     0
  0
BLOCK_RECORD
  5
1A110
330
1
100
AcDbSymbolTableRecord
100
AcDbBlockTableRecord
  2
*D22
340
0
 70
     0
280
     1
281
     0
  0
BLOCK_RECORD
  5
1A7A7
330
1
100
AcDbSymbolTableRecord
100
AcDbBlockTableRecord
  2
*D23
340
0
 70
     0
280
     1
281
     0
  0
BLOCK_RECORD
  5
1A7B3
330
1
100
AcDbSymbolTableRecord
100
AcDbBlockTableRecord
  2
*D24
340
0
 70
     0
280
     1
281
     0
  0
BLOCK_RECORD
  5
1A9C8
330
1
100
AcDbSymbolTableRecord
100
AcDbBlockTableRecord
  2
*D25
340
0
 70
     0
280
     1
281
     0
  0
BLOCK_RECORD
  5
1A9D4
330
1
100
AcDbSymbolTableRecord
100
AcDbBlockTableRecord
  2
*D26
340
0
 70
     0
280
     1
281
     0
  0
BLOCK_RECORD
  5
1A9E0
330
1
100
AcDbSymbolTableRecord
100
AcDbBlockTableRecord
  2
*D27
340
0
 70
     0
280
     1
281
     0
  0
BLOCK_RECORD
  5
1AA99
330
1
100
AcDbSymbolTableRecord
100
AcDbBlockTableRecord
  2
*D28
340
0
 70
     0
280
     1
281
     0
  0
BLOCK_RECORD
  5
1AAA5
330
1
100
AcDbSymbolTableRecord
100
AcDbBlockTableRecord
  2
*D29
340
0
 70
     0
280
     1
281
     0
  0
BLOCK_RECORD
  5
1AAB1
330
1
100
AcDbSymbolTableRecord
100
AcDbBlockTableRecord
  2
*D30
340
0
 70
     0
280
     1
281
     0
  0
BLOCK_RECORD
  5
1AABD
330
1
100
AcDbSymbolTableRecord
100
AcDbBlockTableRecord
  2
*D31
340
0
 70
     0
280
     1
281
     0
  0
BLOCK_RECORD
  5
1AACB
330
1
100
AcDbSymbolTableRecord
100
AcDbBlockTableRecord
  2
*D32
340
0
 70
     0
280
     1
281
     0
  0
BLOCK_RECORD
  5
1BB4B
330
1
100
AcDbSymbolTableRecord
100
AcDbBlockTableRecord
  2
*D33
340
0
 70
     0
280
     1
281
     0
  0
BLOCK_RECORD
  5
1BB89
330
1
100
AcDbSymbolTableRecord
100
AcDbBlockTableRecord
  2
*D34
340
0
 70
     0
280
     1
281
     0
  0
BLOCK_RECORD
  5
1C061
330
1
100
AcDbSymbolTableRecord
100
AcDbBlockTableRecord
  2
*D35
340
0
 70
     0
280
     1
281
     0
  0
BLOCK_RECORD
  5
1C13C
330
1
100
AcDbSymbolTableRecord
100
AcDbBlockTableRecord
  2
*D36
340
0
 70
     0
280
     1
281
     0
  0
BLOCK_RECORD
  5
1C28F
330
1
100
AcDbSymbolTableRecord
100
AcDbBlockTableRecord
  2
*D37
340
0
 70
     0
280
     1
281
     0
  0
BLOCK_RECORD
  5
1C299
330
1
100
AcDbSymbolTableRecord
100
AcDbBlockTableRecord
  2
*D38
340
0
 70
     0
280
     1
281
     0
  0
BLOCK_RECORD
  5
1C2A5
330
1
100
AcDbSymbolTableRecord
100
AcDbBlockTableRecord
  2
*D39
340
0
 70
     0
280
     1
281
     0
  0
BLOCK_RECORD
  5
1C304
330
1
100
AcDbSymbolTableRecord
100
AcDbBlockTableRecord
  2
*D40
340
0
 70
     0
280
     1
281
     0
  0
ENDTAB
  0
ENDSEC
  0
SECTION
  2
BLOCKS
  0
BLOCK
  5
1F
330
1E
100
AcDbEntity
  8
0
100
AcDbBlockBegin
  2
*MODEL_SPACE
 70
     0
 10
0.0
 20
0.0
 30
0.0
  3
*MODEL_SPACE
  1

  0
ENDBLK
  5
20
330
1E
100
AcDbEntity
  8
0
100
AcDbBlockEnd
  0
BLOCK
  5
1B
330
1A
100
AcDbEntity
 67
     1
  8
0
100
AcDbBlockBegin
  2
*PAPER_SPACE
 70
     0
 10
0.0
 20
0.0
 30
0.0
  3
*PAPER_SPACE
  1

  0
ENDBLK
  5
1C
330
1A
100
AcDbEntity
 67
     1
  8
0
100
AcDbBlockEnd
  0
BLOCK
  5
3B6
330
3B2
100
AcDbEntity
  8
0
100
AcDbBlockBegin
  2
_OPEN
 70
     0
 10
0.0
 20
0.0
 30
0.0
  3
_OPEN
  1

  0
LINE
  5
3B3
330
3B2
100
AcDbEntity
  8
30
  6
Continuous
 62
     0
100
AcDbLine
 10
-1.0
 20
0.166667
 30
0.0
 11
0.0
 21
0.0
 31
0.0
  0
LINE
  5
3B4
330
3B2
100
AcDbEntity
  8
30
  6
Continuous
 62
     0
100
AcDbLine
 10
-1.0
 20
-0.166667
 30
0.0
 11
0.0
 21
0.0
 31
0.0
  0
LINE
  5
3B5
330
3B2
100
AcDbEntity
  8
30
  6
Continuous
 62
     0
100
AcDbLine
 10
0.0
 20
0.0
 30
0.0
 11
-1.0
 21
0.0
 31
0.0
  0
ENDBLK
  5
3B7
330
3B2
100
AcDbEntity
  8
0
100
AcDbBlockEnd
  0
BLOCK
  5
175B5
330
175B4
100
AcDbEntity
  8
0
100
AcDbBlockBegin
  2
SW_CENTERMARKSYMBOL_28
 70
     0
 10
0.0
 20
0.0
 30
0.0
  3
SW_CENTERMARKSYMBOL_28
  1
SW_CENTERMARKSYMBOL_28
  0
LINE
  5
175B6
330
175B4
100
AcDbEntity
  8
240
 62
     0
100
AcDbLine
 10
0.0
 20
0.0
 30
0.0
 11
0.0
 21
0.5
 31
0.0
  0
LINE
  5
175B7
330
175B4
100
AcDbEntity
  8
240
 62
     0
100
AcDbLine
 10
0.0
 20
0.0
 30
0.0
 11
-0.5
 21
0.0
 31
0.0
  0
LINE
  5
175B8
330
175B4
100
AcDbEntity
  8
240
 62
     0
100
AcDbLine
 10
0.0
 20
0.0
 30
0.0
 11
0.0
 21
-0.5
 31
0.0
  0
LINE
  5
175B9
330
175B4
100
AcDbEntity
  8
240
 62
     0
100
AcDbLine
 10
0.0
 20
0.0
 30
0.0
 11
0.5
 21
0.0
 31
0.0
  0
LINE
  5
175BA
330
175B4
100
AcDbEntity
  8
240
 62
     0
100
AcDbLine
 10
0.0
 20
1.0
 30
0.0
 11
0.0
 21
1.423760430699999
 31
0.0
  0
LINE
  5
175BB
330
175B4
100
AcDbEntity
  8
240
 62
     0
100
AcDbLine
 10
-1.0
 20
0.0
 30
0.0
 11
-1.423760430699999
 21
0.0
 31
0.0
  0
LINE
  5
175BC
330
175B4
100
AcDbEntity
  8
240
 62
     0
100
AcDbLine
 10
0.0
 20
-1.0
 30
0.0
 11
0.0
 21
-1.423760430699999
 31
0.0
  0
LINE
  5
175BD
330
175B4
100
AcDbEntity
  8
240
 62
     0
100
AcDbLine
 10
1.0
 20
0.0
 30
0.0
 11
1.423760430699999
 21
0.0
 31
0.0
  0
ENDBLK
  5
175BE
330
175B4
100
AcDbEntity
  8
0
100
AcDbBlockEnd
  0
BLOCK
  5
175C0
330
175BF
100
AcDbEntity
  8
0
100
AcDbBlockBegin
  2
SW_CENTERMARKSYMBOL_36
 70
     0
 10
0.0
 20
0.0
 30
0.0
  3
SW_CENTERMARKSYMBOL_36
  1
SW_CENTERMARKSYMBOL_36
  0
LINE
  5
175C1
330
175BF
100
AcDbEntity
  8
240
 62
     0
100
AcDbLine
 10
0.0
 20
0.0
 30
0.0
 11
0.0
 21
0.5
 31
0.0
  0
LINE
  5
175C2
330
175BF
100
AcDbEntity
  8
240
 62
     0
100
AcDbLine
 10
0.0
 20
0.0
 30
0.0
 11
-0.5
 21
0.0
 31
0.0
  0
LINE
  5
175C3
330
175BF
100
AcDbEntity
  8
240
 62
     0
100
AcDbLine
 10
0.0
 20
0.0
 30
0.0
 11
0.0
 21
-0.5
 31
0.0
  0
LINE
  5
175C4
330
175BF
100
AcDbEntity
  8
240
 62
     0
100
AcDbLine
 10
0.0
 20
0.0
 30
0.0
 11
0.5
 21
0.0
 31
0.0
  0
LINE
  5
175C5
330
175BF
100
AcDbEntity
  8
240
 62
     0
100
AcDbLine
 10
0.0
 20
1.0
 30
0.0
 11
0.0
 21
1.9
 31
0.0
  0
LINE
  5
175C6
330
175BF
100
AcDbEntity
  8
240
 62
     0
100
AcDbLine
 10
-1.0
 20
0.0
 30
0.0
 11
-1.9
 21
0.0
 31
0.0
  0
LINE
  5
175C7
330
175BF
100
AcDbEntity
  8
240
 62
     0
100
AcDbLine
 10
0.0
 20
-1.0
 30
0.0
 11
0.0
 21
-1.9
 31
0.0
  0
LINE
  5
175C8
330
175BF
100
AcDbEntity
  8
240
 62
     0
100
AcDbLine
 10
1.0
 20
0.0
 30
0.0
 11
1.9
 21
0.0
 31
0.0
  0
ENDBLK
  5
175C9
330
175BF
100
AcDbEntity
  8
0
100
AcDbBlockEnd
  0
BLOCK
  5
175CB
330
175CA
100
AcDbEntity
  8
0
100
AcDbBlockBegin
  2
SW_CENTERMARKSYMBOL_37
 70
     0
 10
0.0
 20
0.0
 30
0.0
  3
SW_CENTERMARKSYMBOL_37
  1
SW_CENTERMARKSYMBOL_37
  0
LINE
  5
175CC
330
175CA
100
AcDbEntity
  8
240
 62
     0
100
AcDbLine
 10
0.0
 20
0.0
 30
0.0
 11
0.0
 21
0.5
 31
0.0
  0
LINE
  5
175CD
330
175CA
100
AcDbEntity
  8
240
 62
     0
100
AcDbLine
 10
0.0
 20
0.0
 30
0.0
 11
-0.5
 21
0.0
 31
0.0
  0
LINE
  5
175CE
330
175CA
100
AcDbEntity
  8
240
 62
     0
100
AcDbLine
 10
0.0
 20
0.0
 30
0.0
 11
0.0
 21
-0.5
 31
0.0
  0
LINE
  5
175CF
330
175CA
100
AcDbEntity
  8
240
 62
     0
100
AcDbLine
 10
0.0
 20
0.0
 30
0.0
 11
0.5
 21
0.0
 31
0.0
  0
LINE
  5
175D0
330
175CA
100
AcDbEntity
  8
240
 62
     0
100
AcDbLine
 10
0.0
 20
1.0
 30
0.0
 11
0.0
 21
1.9
 31
0.0
  0
LINE
  5
175D1
330
175CA
100
AcDbEntity
  8
240
 62
     0
100
AcDbLine
 10
-1.0
 20
0.0
 30
0.0
 11
-1.9
 21
0.0
 31
0.0
  0
LINE
  5
175D2
330
175CA
100
AcDbEntity
  8
240
 62
     0
100
AcDbLine
 10
0.0
 20
-1.0
 30
0.0
 11
0.0
 21
-1.9
 31
0.0
  0
LINE
  5
175D3
330
175CA
100
AcDbEntity
  8
240
 62
     0
100
AcDbLine
 10
1.0
 20
0.0
 30
0.0
 11
1.9
 21
0.0
 31
0.0
  0
ENDBLK
  5
175D4
330
175CA
100
AcDbEntity
  8
0
100
AcDbBlockEnd
  0
BLOCK
  5
175D6
330
175D5
100
AcDbEntity
  8
TOP
  6
Continuous
 62
     3
100
AcDbBlockBegin
  2
*U4
 70
     1
 10
0.0
 20
0.0
 30
0.0
  3
*U4
  1

  0
LINE
  5
175D7
330
175D5
100
AcDbEntity
  8
1
  6
ByBlock
 62
     0
100
AcDbLine
 10
548.3527638488361
 20
74.64070630641497
 30
0.0
 11
522.3527638488361
 21
74.64070630641497
 31
0.0
  0
LINE
  5
175D8
330
175D5
100
AcDbEntity
  8
1
  6
ByBlock
 62
     0
100
AcDbLine
 10
517.8511961722488
 20
100.6647232036204
 30
0.0
 11
522.3527638488361
 21
74.64070630641497
 31
0.0
  0
SOLID
  5
175D9
330
175D5
100
AcDbEntity
  8
1
  6
ByBlock
 62
     0
100
AcDbTrace
 10
517.8511961722488
 20
100.6647232036204
 30
0.0
 11
518.5205443376235
 21
98.75080465810007
 31
0.0
 12
517.8636330166235
 22
98.63717382314177
 32
0.0
 13
517.8636330166235
 23
98.63717382314177
 33
0.0
  0
TEXT
  5
175DA
330
175D5
100
AcDbEntity
  8
TOP
  6
ByBlock
 62
     0
100
AcDbText
 10
548.3527638488361
 20
73.14070629651499
 30
0.0
 40
3.000000019799997
  1
 
 41
1.189062500000023
  7
UGMTXT
100
AcDbText
  0
ENDBLK
  5
175DB
330
175D5
100
AcDbEntity
  8
0
100
AcDbBlockEnd
  0
BLOCK
  5
189BD
330
189BC
100
AcDbEntity
  8
0
100
AcDbBlockBegin
  2
*D5
 70
     1
 10
0.0
 20
0.0
 30
0.0
  3
*D5
  1

  0
LINE
  5
1BF7D
330
189BC
100
AcDbEntity
  8
30
 62
     0
440
 16777216
370
    -2
100
AcDbLine
 10
306.5068954307471
 20
185.9182166283701
 30
0.0
 11
306.5068954307471
 21
44.64291970545684
 31
0.0
  0
LINE
  5
1BF7E
330
189BC
100
AcDbEntity
  8
30
 62
     0
440
 16777216
370
    -2
100
AcDbLine
 10
424.5068954307471
 20
185.9182166283701
 30
0.0
 11
424.5068954307471
 21
44.64291970545684
 31
0.0
  0
LINE
  5
1BF7F
330
189BC
100
AcDbEntity
  8
30
 62
     0
440
 16777216
370
    -2
100
AcDbLine
 10
308.5068954307471
 20
45.14291970545684
 30
0.0
 11
422.5068954307471
 21
45.14291970545684
 31
0.0
  0
INSERT
  5
1BF80
330
189BC
100
AcDbEntity
  8
30
 62
     0
440
 16777216
370
    -2
100
AcDbBlockReference
  2
_OPEN
 10
306.5068954307471
 20
45.14291970545684
 30
0.0
 41
2.0
 42
2.0
 43
2.0
 50
180.0
  0
INSERT
  5
1BF81
330
189BC
100
AcDbEntity
  8
30
 62
     0
440
 16777216
370
    -2
100
AcDbBlockReference
  2
_OPEN
 10
424.5068954307471
 20
45.14291970545684
 30
0.0
 41
2.0
 42
2.0
 43
2.0
  0
MTEXT
  5
1BF82
330
189BC
100
AcDbEntity
  8
30
440
 16777216
100
AcDbMText
 10
365.5068954307471
 20
56.14291970545685
 30
0.0
 40
8.0
 41
0.0
 46
0.0
 71
     2
 72
     1
  1
\A1;118
 73
     1
 44
1.0
 90
        3
 63
     9
421
 13158600
 45
1.25
441
        0
  0
POINT
  5
1BF83
330
189BC
100
AcDbEntity
  8
DEFPOINTS
 62
     0
440
 16777216
100
AcDbPoint
 10
306.5068954307471
 20
186.9182166283701
 30
0.0
  0
POINT
  5
1BF84
330
189BC
100
AcDbEntity
  8
DEFPOINTS
 62
     0
440
 16777216
100
AcDbPoint
 10
424.5068954307471
 20
186.9182166283701
 30
0.0
  0
POINT
  5
1BF85
330
189BC
100
AcDbEntity
  8
DEFPOINTS
 62
     0
440
 16777216
100
AcDbPoint
 10
424.5068954307471
 20
45.14291970545684
 30
0.0
  0
ENDBLK
  5
189BE
330
189BC
100
AcDbEntity
  8
0
100
AcDbBlockEnd
  0
BLOCK
  5
189D3
330
189D2
100
AcDbEntity
  8
0
100
AcDbBlockBegin
  2
*D6
 70
     1
 10
0.0
 20
0.0
 30
0.0
  3
*D6
  1

  0
LINE
  5
1BF86
330
189D2
100
AcDbEntity
  8
30
 62
     0
440
 16777216
370
    -2
100
AcDbLine
 10
589.6680174141956
 20
278.5977464938702
 30
0.0
 11
661.181323517295
 21
278.5977464938702
 31
0.0
  0
LINE
  5
1BF87
330
189D2
100
AcDbEntity
  8
30
 62
     0
440
 16777216
370
    -2
100
AcDbLine
 10
589.6680174141956
 20
186.5977464938702
 30
0.0
 11
661.1813235172948
 21
186.5977464938702
 31
0.0
  0
LINE
  5
1BF88
330
189D2
100
AcDbEntity
  8
30
 62
     0
440
 16777216
370
    -2
100
AcDbLine
 10
660.681323517295
 20
276.5977464938702
 30
0.0
 11
660.6813235172948
 21
188.5977464938702
 31
0.0
  0
INSERT
  5
1BF89
330
189D2
100
AcDbEntity
  8
30
 62
     0
440
 16777216
370
    -2
100
AcDbBlockReference
  2
_OPEN
 10
660.681323517295
 20
278.5977464938702
 30
0.0
 41
2.0
 42
2.0
 43
2.0
 50
90.0
  0
INSERT
  5
1BF8A
330
189D2
100
AcDbEntity
  8
30
 62
     0
440
 16777216
370
    -2
100
AcDbBlockReference
  2
_OPEN
 10
660.6813235172948
 20
186.5977464938702
 30
0.0
 41
2.0
 42
2.0
 43
2.0
 50
270.0
  0
MTEXT
  5
1BF8B
330
189D2
100
AcDbEntity
  8
30
440
 16777216
100
AcDbMText
 10
649.6813235172948
 20
232.5977464938702
 30
0.0
 40
8.0
 41
0.0
 46
0.0
 71
     2
 72
     1
  1
\A1;92
 11
0.0000000000000001
 21
1.0
 31
0.0
 73
     1
 44
1.0
 90
        3
 63
     9
421
 13158600
 45
1.25
441
        0
  0
POINT
  5
1BF8C
330
189D2
100
AcDbEntity
  8
DEFPOINTS
 62
     0
440
 16777216
100
AcDbPoint
 10
588.6680174141956
 20
278.5977464938702
 30
0.0
  0
POINT
  5
1BF8D
330
189D2
100
AcDbEntity
  8
DEFPOINTS
 62
     0
440
 16777216
100
AcDbPoint
 10
588.6680174141956
 20
186.5977464938702
 30
0.0
  0
POINT
  5
1BF8E
330
189D2
100
AcDbEntity
  8
DEFPOINTS
 62
     0
440
 16777216
100
AcDbPoint
 10
660.6813235172948
 20
186.5977464938702
 30
0.0
  0
ENDBLK
  5
189D4
330
189D2
100
AcDbEntity
  8
0
100
AcDbBlockEnd
  0
BLOCK
  5
189DF
330
189DE
100
AcDbEntity
  8
0
100
AcDbBlockBegin
  2
*D7
 70
     1
 10
0.0
 20
0.0
 30
0.0
  3
*D7
  1

  0
LINE
  5
1BF8F
330
189DE
100
AcDbEntity
  8
30
 62
     0
440
 16777216
370
    -2
100
AcDbLine
 10
537.6680174141957
 20
187.5977464938702
 30
0.0
 11
537.6680174141957
 21
46.36449020957025
 31
0.0
  0
LINE
  5
1BF90
330
189DE
100
AcDbEntity
  8
30
 62
     0
440
 16777216
370
    -2
100
AcDbLine
 10
590.6680174141966
 20
187.5977464938702
 30
0.0
 11
590.6680174141966
 21
46.36449020957025
 31
0.0
  0
LINE
  5
1BF91
330
189DE
100
AcDbEntity
  8
30
 62
     0
440
 16777216
370
    -2
100
AcDbLine
 10
539.6680174141956
 20
46.86449020957025
 30
0.0
 11
588.6680174141964
 21
46.86449020957025
 31
0.0
  0
INSERT
  5
1BF92
330
189DE
100
AcDbEntity
  8
30
 62
     0
440
 16777216
370
    -2
100
AcDbBlockReference
  2
_OPEN
 10
537.6680174141957
 20
46.86449020957025
 30
0.0
 41
2.0
 42
2.0
 43
2.0
 50
180.0
  0
INSERT
  5
1BF93
330
189DE
100
AcDbEntity
  8
30
 62
     0
440
 16777216
370
    -2
100
AcDbBlockReference
  2
_OPEN
 10
590.6680174141966
 20
46.86449020957025
 30
0.0
 41
2.0
 42
2.0
 43
2.0
  0
MTEXT
  5
1BF94
330
189DE
100
AcDbEntity
  8
30
440
 16777216
100
AcDbMText
 10
567.6366016701957
 20
57.86449020957025
 30
0.0
 40
8.0
 41
0.0
 46
0.0
 71
     2
 72
     1
  1
\A1;53
 73
     1
 44
1.0
 90
        3
 63
     9
421
 13158600
 45
1.25
441
        0
  0
POINT
  5
1BF95
330
189DE
100
AcDbEntity
  8
DEFPOINTS
 62
     0
440
 16777216
100
AcDbPoint
 10
537.6680174141957
 20
188.5977464938702
 30
0.0
  0
POINT
  5
1BF96
330
189DE
100
AcDbEntity
  8
DEFPOINTS
 62
     0
440
 16777216
100
AcDbPoint
 10
590.6680174141966
 20
188.5977464938702
 30
0.0
  0
POINT
  5
1BF97
330
189DE
100
AcDbEntity
  8
DEFPOINTS
 62
     0
440
 16777216
100
AcDbPoint
 10
590.6680174141966
 20
46.86449020957025
 30
0.0
  0
ENDBLK
  5
189E0
330
189DE
100
AcDbEntity
  8
0
100
AcDbBlockEnd
  0
BLOCK
  5
18A0D
330
18A0C
100
AcDbEntity
  8
0
100
AcDbBlockBegin
  2
*D8
 70
     1
 10
0.0
 20
0.0
 30
0.0
  3
*D8
  1

  0
LINE
  5
1C3CE
330
18A0C
100
AcDbEntity
  8
30
 62
     0
440
 16777216
370
    -2
100
AcDbLine
 10
239.3763723451548
 20
889.6472310952852
 30
0.0
 11
239.3763723451548
 21
834.0802277517104
 31
0.0
  0
LINE
  5
1C3CF
330
18A0C
100
AcDbEntity
  8
30
 62
     0
440
 16777216
370
    -2
100
AcDbLine
 10
244.3763723451548
 20
881.6472310952855
 30
0.0
 11
244.3763723451548
 21
834.0802277517104
 31
0.0
  0
LINE
  5
1C3D0
330
18A0C
100
AcDbEntity
  8
30
 62
     0
440
 16777216
370
    -2
100
AcDbLine
 10
246.3763723451548
 20
834.5802277517105
 30
0.0
 11
248.3763723451548
 21
834.5802277517105
 31
0.0
  0
LINE
  5
1C3D1
330
18A0C
100
AcDbEntity
  8
30
 62
     0
440
 16777216
370
    -2
100
AcDbLine
 10
237.3763723451548
 20
834.5802277517105
 30
0.0
 11
224.0430390118211
 21
834.5802277517105
 31
0.0
  0
INSERT
  5
1C3D2
330
18A0C
100
AcDbEntity
  8
30
 62
     0
440
 16777216
370
    -2
100
AcDbBlockReference
  2
_OPEN
 10
244.3763723451548
 20
834.5802277517105
 30
0.0
 41
2.0
 42
2.0
 43
2.0
 50
180.0
  0
INSERT
  5
1C3D3
330
18A0C
100
AcDbEntity
  8
30
 62
     0
440
 16777216
370
    -2
100
AcDbBlockReference
  2
_OPEN
 10
239.3763723451548
 20
834.5802277517105
 30
0.0
 41
2.0
 42
2.0
 43
2.0
  0
MTEXT
  5
1C3D4
330
18A0C
100
AcDbEntity
  8
30
440
 16777216
100
AcDbMText
 10
229.7097056784878
 20
841.5802277517105
 30
0.0
 40
8.0
 41
0.0
 46
0.0
 71
     5
 72
     1
  1
\A1;5
 73
     1
 44
1.0
 90
        3
 63
     9
421
 13158600
 45
1.25
441
        0
  0
POINT
  5
1C3D5
330
18A0C
100
AcDbEntity
  8
DEFPOINTS
 62
     0
440
 16777216
100
AcDbPoint
 10
239.3763723451548
 20
890.6472310952851
 30
0.0
  0
POINT
  5
1C3D6
330
18A0C
100
AcDbEntity
  8
DEFPOINTS
 62
     0
440
 16777216
100
AcDbPoint
 10
244.3763723451548
 20
882.6472310952855
 30
0.0
  0
POINT
  5
1C3D7
330
18A0C
100
AcDbEntity
  8
DEFPOINTS
 62
     0
440
 16777216
100
AcDbPoint
 10
244.3763723451548
 20
834.5802277517105
 30
0.0
  0
ENDBLK
  5
18A0E
330
18A0C
100
AcDbEntity
  8
0
100
AcDbBlockEnd
  0
BLOCK
  5
18A1A
330
18A19
100
AcDbEntity
  8
0
100
AcDbBlockBegin
  2
*D9
 70
     1
 10
0.0
 20
0.0
 30
0.0
  3
*D9
  1

  0
LINE
  5
1C3C5
330
18A19
100
AcDbEntity
  8
30
 62
     0
440
 16777216
370
    -2
100
AcDbLine
 10
244.3763723451548
 20
876.6472310952851
 30
0.0
 11
244.3763723451548
 21
834.0802277517104
 31
0.0
  0
LINE
  5
1C3C6
330
18A19
100
AcDbEntity
  8
30
 62
     0
440
 16777216
370
    -2
100
AcDbLine
 10
287.3763723451548
 20
881.6472310952855
 30
0.0
 11
287.3763723451548
 21
834.0802277517104
 31
0.0
  0
LINE
  5
1C3C7
330
18A19
100
AcDbEntity
  8
30
 62
     0
440
 16777216
370
    -2
100
AcDbLine
 10
246.3763723451548
 20
834.5802277517105
 30
0.0
 11
285.3763723451548
 21
834.5802277517105
 31
0.0
  0
INSERT
  5
1C3C8
330
18A19
100
AcDbEntity
  8
30
 62
     0
440
 16777216
370
    -2
100
AcDbBlockReference
  2
_OPEN
 10
244.3763723451548
 20
834.5802277517105
 30
0.0
 41
2.0
 42
2.0
 43
2.0
 50
180.0
  0
INSERT
  5
1C3C9
330
18A19
100
AcDbEntity
  8
30
 62
     0
440
 16777216
370
    -2
100
AcDbBlockReference
  2
_OPEN
 10
287.3763723451548
 20
834.5802277517105
 30
0.0
 41
2.0
 42
2.0
 43
2.0
  0
MTEXT
  5
1C3CA
330
18A19
100
AcDbEntity
  8
30
440
 16777216
100
AcDbMText
 10
265.8763723451548
 20
841.5802277517105
 30
0.0
 40
8.0
 41
0.0
 46
0.0
 71
     5
 72
     1
  1
\A1;43
 73
     1
 44
1.0
 90
        3
 63
     9
421
 13158600
 45
1.25
441
        0
  0
POINT
  5
1C3CB
330
18A19
100
AcDbEntity
  8
DEFPOINTS
 62
     0
440
 16777216
100
AcDbPoint
 10
244.3763723451548
 20
877.6472310952852
 30
0.0
  0
POINT
  5
1C3CC
330
18A19
100
AcDbEntity
  8
DEFPOINTS
 62
     0
440
 16777216
100
AcDbPoint
 10
287.3763723451548
 20
882.6472310952855
 30
0.0
  0
POINT
  5
1C3CD
330
18A19
100
AcDbEntity
  8
DEFPOINTS
 62
     0
440
 16777216
100
AcDbPoint
 10
287.3763723451548
 20
834.5802277517105
 30
0.0
  0
ENDBLK
  5
18A1B
330
18A19
100
AcDbEntity
  8
0
100
AcDbBlockEnd
  0
BLOCK
  5
18A26
330
18A25
100
AcDbEntity
  8
0
100
AcDbBlockBegin
  2
*D10
 70
     1
 10
0.0
 20
0.0
 30
0.0
  3
*D10
  1

  0
LINE
  5
1C3BC
330
18A25
100
AcDbEntity
  8
30
 62
     0
440
 16777216
370
    -2
100
AcDbLine
 10
287.3763723451548
 20
862.1472310952855
 30
0.0
 11
287.3763723451548
 21
834.0802277517104
 31
0.0
  0
LINE
  5
1C3BD
330
18A25
100
AcDbEntity
  8
30
 62
     0
440
 16777216
370
    -2
100
AcDbLine
 10
307.3763723451548
 20
893.6472310952861
 30
0.0
 11
307.3763723451548
 21
834.0802277517104
 31
0.0
  0
LINE
  5
1C3BE
330
18A25
100
AcDbEntity
  8
30
 62
     0
440
 16777216
370
    -2
100
AcDbLine
 10
289.3763723451548
 20
834.5802277517105
 30
0.0
 11
305.3763723451548
 21
834.5802277517105
 31
0.0
  0
INSERT
  5
1C3BF
330
18A25
100
AcDbEntity
  8
30
 62
     0
440
 16777216
370
    -2
100
AcDbBlockReference
  2
_OPEN
 10
287.3763723451548
 20
834.5802277517105
 30
0.0
 41
2.0
 42
2.0
 43
2.0
 50
180.0
  0
INSERT
  5
1C3C0
330
18A25
100
AcDbEntity
  8
30
 62
     0
440
 16777216
370
    -2
100
AcDbBlockReference
  2
_OPEN
 10
307.3763723451548
 20
834.5802277517105
 30
0.0
 41
2.0
 42
2.0
 43
2.0
  0
MTEXT
  5
1C3C1
330
18A25
100
AcDbEntity
  8
30
440
 16777216
100
AcDbMText
 10
297.3763723451548
 20
841.5802277517105
 30
0.0
 40
8.0
 41
0.0
 46
0.0
 71
     5
 72
     1
  1
\A1;20
 73
     1
 44
1.0
 90
        3
 63
     9
421
 13158600
 45
1.25
441
        0
  0
POINT
  5
1C3C2
330
18A25
100
AcDbEntity
  8
DEFPOINTS
 62
     0
440
 16777216
100
AcDbPoint
 10
287.3763723451548
 20
863.1472310952855
 30
0.0
  0
POINT
  5
1C3C3
330
18A25
100
AcDbEntity
  8
DEFPOINTS
 62
     0
440
 16777216
100
AcDbPoint
 10
307.3763723451548
 20
894.6472310952861
 30
0.0
  0
POINT
  5
1C3C4
330
18A25
100
AcDbEntity
  8
DEFPOINTS
 62
     0
440
 16777216
100
AcDbPoint
 10
307.3763723451548
 20
834.5802277517105
 30
0.0
  0
ENDBLK
  5
18A27
330
18A25
100
AcDbEntity
  8
0
100
AcDbBlockEnd
  0
BLOCK
  5
18A32
330
18A31
100
AcDbEntity
  8
0
100
AcDbBlockBegin
  2
*D11
 70
     1
 10
0.0
 20
0.0
 30
0.0
  3
*D11
  1

  0
LINE
  5
1C3B3
330
18A31
100
AcDbEntity
  8
30
 62
     0
440
 16777216
370
    -2
100
AcDbLine
 10
307.3763723451548
 20
881.6472310952855
 30
0.0
 11
307.3763723451548
 21
834.0802277517104
 31
0.0
  0
LINE
  5
1C3B4
330
18A31
100
AcDbEntity
  8
30
 62
     0
440
 16777216
370
    -2
100
AcDbLine
 10
343.3763723451548
 20
900.647231095286
 30
0.0
 11
343.3763723451548
 21
834.0802277517104
 31
0.0
  0
LINE
  5
1C3B5
330
18A31
100
AcDbEntity
  8
30
 62
     0
440
 16777216
370
    -2
100
AcDbLine
 10
309.3763723451548
 20
834.5802277517105
 30
0.0
 11
341.3763723451548
 21
834.5802277517105
 31
0.0
  0
INSERT
  5
1C3B6
330
18A31
100
AcDbEntity
  8
30
 62
     0
440
 16777216
370
    -2
100
AcDbBlockReference
  2
_OPEN
 10
307.3763723451548
 20
834.5802277517105
 30
0.0
 41
2.0
 42
2.0
 43
2.0
 50
180.0
  0
INSERT
  5
1C3B7
330
18A31
100
AcDbEntity
  8
30
 62
     0
440
 16777216
370
    -2
100
AcDbBlockReference
  2
_OPEN
 10
343.3763723451548
 20
834.5802277517105
 30
0.0
 41
2.0
 42
2.0
 43
2.0
  0
MTEXT
  5
1C3B8
330
18A31
100
AcDbEntity
  8
30
440
 16777216
100
AcDbMText
 10
325.3763723451548
 20
841.5802277517105
 30
0.0
 40
8.0
 41
0.0
 46
0.0
 71
     5
 72
     1
  1
\A1;36
 73
     1
 44
1.0
 90
        3
 63
     9
421
 13158600
 45
1.25
441
        0
  0
POINT
  5
1C3B9
330
18A31
100
AcDbEntity
  8
DEFPOINTS
 62
     0
440
 16777216
100
AcDbPoint
 10
307.3763723451548
 20
882.6472310952855
 30
0.0
  0
POINT
  5
1C3BA
330
18A31
100
AcDbEntity
  8
DEFPOINTS
 62
     0
440
 16777216
100
AcDbPoint
 10
343.3763723451548
 20
901.647231095286
 30
0.0
  0
POINT
  5
1C3BB
330
18A31
100
AcDbEntity
  8
DEFPOINTS
 62
     0
440
 16777216
100
AcDbPoint
 10
343.3763723451548
 20
834.5802277517105
 30
0.0
  0
ENDBLK
  5
18A33
330
18A31
100
AcDbEntity
  8
0
100
AcDbBlockEnd
  0
BLOCK
  5
18A3E
330
18A3D
100
AcDbEntity
  8
0
100
AcDbBlockBegin
  2
*D12
 70
     1
 10
0.0
 20
0.0
 30
0.0
  3
*D12
  1

  0
LINE
  5
1C3D8
330
18A3D
100
AcDbEntity
  8
30
 62
     0
440
 16777216
370
    -2
100
AcDbLine
 10
287.3763723451548
 20
976.6472310952856
 30
0.0
 11
287.3763723451548
 21
1007.745175724354
 31
0.0
  0
LINE
  5
1C3D9
330
18A3D
100
AcDbEntity
  8
30
 62
     0
440
 16777216
370
    -2
100
AcDbLine
 10
303.3763723451557
 20
954.1472310952856
 30
0.0
 11
303.3763723451557
 21
1007.745175724354
 31
0.0
  0
LINE
  5
1C3DA
330
18A3D
100
AcDbEntity
  8
30
 62
     0
440
 16777216
370
    -2
100
AcDbLine
 10
289.3763723451548
 20
1007.245175724354
 30
0.0
 11
301.3763723451557
 21
1007.245175724354
 31
0.0
  0
INSERT
  5
1C3DB
330
18A3D
100
AcDbEntity
  8
30
 62
     0
440
 16777216
370
    -2
100
AcDbBlockReference
  2
_OPEN
 10
287.3763723451548
 20
1007.245175724354
 30
0.0
 41
2.0
 42
2.0
 43
2.0
 50
180.0
  0
INSERT
  5
1C3DC
330
18A3D
100
AcDbEntity
  8
30
 62
     0
440
 16777216
370
    -2
100
AcDbBlockReference
  2
_OPEN
 10
303.3763723451557
 20
1007.245175724354
 30
0.0
 41
2.0
 42
2.0
 43
2.0
  0
MTEXT
  5
1C3DD
330
18A3D
100
AcDbEntity
  8
30
440
 16777216
100
AcDbMText
 10
295.3763723451552
 20
1013.745175724354
 30
0.0
 40
7.0
 41
0.0
 46
0.0
 71
     5
 72
     1
  1
\A1;16
 73
     1
 44
1.0
 90
        3
 63
     9
421
 13158600
 45
1.25
441
        0
  0
POINT
  5
1C3DE
330
18A3D
100
AcDbEntity
  8
DEFPOINTS
 62
     0
440
 16777216
100
AcDbPoint
 10
287.3763723451548
 20
975.6472310952856
 30
0.0
  0
POINT
  5
1C3DF
330
18A3D
100
AcDbEntity
  8
DEFPOINTS
 62
     0
440
 16777216
100
AcDbPoint
 10
303.3763723451557
 20
953.1472310952857
 30
0.0
  0
POINT
  5
1C3E0
330
18A3D
100
AcDbEntity
  8
DEFPOINTS
 62
     0
440
 16777216
100
AcDbPoint
 10
303.3763723451557
 20
1007.245175724354
 30
0.0
  0
ENDBLK
  5
18A3F
330
18A3D
100
AcDbEntity
  8
0
100
AcDbBlockEnd
  0
BLOCK
  5
18A4A
330
18A49
100
AcDbEntity
  8
0
100
AcDbBlockBegin
  2
*D13
 70
     1
 10
0.0
 20
0.0
 30
0.0
  3
*D13
  1

  0
LINE
  5
1BF3E
330
18A49
100
AcDbEntity
  8
30
  6
Continuous
 62
     0
440
 16777216
370
    -2
100
AcDbLine
 10
344.3763723451548
 20
906.6472310952862
 30
0.0
 11
362.8763723451549
 21
906.6472310952862
 31
0.0
  0
LINE
  5
1BF3F
330
18A49
100
AcDbEntity
  8
30
  6
Continuous
 62
     0
440
 16777216
370
    -2
100
AcDbLine
 10
354.3763723451548
 20
926.647231095286
 30
0.0
 11
362.8763723451549
 21
926.647231095286
 31
0.0
  0
LINE
  5
1BF40
330
18A49
100
AcDbEntity
  8
30
  6
Continuous
 62
     0
440
 16777216
370
    -2
100
AcDbLine
 10
362.376372345155
 20
908.6472310952864
 30
0.0
 11
362.376372345155
 21
924.647231095286
 31
0.0
  0
INSERT
  5
1BF41
330
18A49
100
AcDbEntity
  8
30
  6
Continuous
 62
     0
440
 16777216
370
    -2
100
AcDbBlockReference
  2
_OPEN
 10
362.376372345155
 20
906.6472310952862
 30
0.0
 41
2.0
 42
2.0
 43
2.0
 50
270.0
  0
INSERT
  5
1BF42
330
18A49
100
AcDbEntity
  8
30
  6
Continuous
 62
     0
440
 16777216
370
    -2
100
AcDbBlockReference
  2
_OPEN
 10
362.376372345155
 20
926.647231095286
 30
0.0
 41
2.0
 42
2.0
 43
2.0
 50
90.0
  0
POINT
  5
1BF43
330
18A49
100
AcDbEntity
  8
DEFPOINTS
  6
Continuous
 62
     0
440
 16777216
100
AcDbPoint
 10
343.3763723451548
 20
906.6472310952862
 30
0.0
  0
POINT
  5
1BF44
330
18A49
100
AcDbEntity
  8
DEFPOINTS
  6
Continuous
 62
     0
440
 16777216
100
AcDbPoint
 10
353.3763723451548
 20
926.647231095286
 30
0.0
  0
POINT
  5
1BF45
330
18A49
100
AcDbEntity
  8
DEFPOINTS
  6
Continuous
 62
     0
440
 16777216
100
AcDbPoint
 10
362.376372345155
 20
926.647231095286
 30
0.0
  0
ENDBLK
  5
18A4B
330
18A49
100
AcDbEntity
  8
0
100
AcDbBlockEnd
  0
BLOCK
  5
18A61
330
18A60
100
AcDbEntity
  8
0
100
AcDbBlockBegin
  2
*D14
 70
     1
 10
0.0
 20
0.0
 30
0.0
  3
*D14
  1

  0
LINE
  5
1C08C
330
18A60
100
AcDbEntity
  8
30
 62
     0
440
 16777216
370
    -2
100
AcDbLine
 10
547.9545747383216
 20
483.2255996877671
 30
0.0
 11
547.9545747383216
 21
450.725599687767
 31
0.0
  0
LINE
  5
1C08D
330
18A60
100
AcDbEntity
  8
30
 62
     0
440
 16777216
370
    -2
100
AcDbLine
 10
599.9545747383217
 20
483.2255996877673
 30
0.0
 11
599.9545747383217
 21
450.725599687767
 31
0.0
  0
LINE
  5
1C08E
330
18A60
100
AcDbEntity
  8
30
 62
     0
440
 16777216
370
    -2
100
AcDbLine
 10
549.9545747383216
 20
451.225599687767
 30
0.0
 11
597.9545747383217
 21
451.225599687767
 31
0.0
  0
INSERT
  5
1C08F
330
18A60
100
AcDbEntity
  8
30
 62
     0
440
 16777216
370
    -2
100
AcDbBlockReference
  2
_OPEN
 10
547.9545747383216
 20
451.225599687767
 30
0.0
 41
2.0
 42
2.0
 43
2.0
 50
180.0
  0
INSERT
  5
1C090
330
18A60
100
AcDbEntity
  8
30
 62
     0
440
 16777216
370
    -2
100
AcDbBlockReference
  2
_OPEN
 10
599.9545747383217
 20
451.225599687767
 30
0.0
 41
2.0
 42
2.0
 43
2.0
  0
MTEXT
  5
1C091
330
18A60
100
AcDbEntity
  8
30
440
 16777216
100
AcDbMText
 10
573.9545747383217
 20
458.2255996877671
 30
0.0
 40
8.0
 41
0.0
 46
0.0
 71
     5
 72
     1
  1
\A1;52
 73
     1
 44
1.0
 90
        3
 63
     9
421
 13158600
 45
1.25
441
        0
  0
POINT
  5
1C092
330
18A60
100
AcDbEntity
  8
DEFPOINTS
 62
     0
440
 16777216
100
AcDbPoint
 10
547.9545747383216
 20
484.225599687767
 30
0.0
  0
POINT
  5
1C093
330
18A60
100
AcDbEntity
  8
DEFPOINTS
 62
     0
440
 16777216
100
AcDbPoint
 10
599.9545747383217
 20
484.2255996877674
 30
0.0
  0
POINT
  5
1C094
330
18A60
100
AcDbEntity
  8
DEFPOINTS
 62
     0
440
 16777216
100
AcDbPoint
 10
599.9545747383217
 20
451.225599687767
 30
0.0
  0
ENDBLK
  5
18A62
330
18A60
100
AcDbEntity
  8
0
100
AcDbBlockEnd
  0
BLOCK
  5
18A6D
330
18A6C
100
AcDbEntity
  8
0
100
AcDbBlockBegin
  2
*D15
 70
     1
 10
0.0
 20
0.0
 30
0.0
  3
*D15
  1

  0
LINE
  5
1C2DA
330
18A6C
100
AcDbEntity
  8
30
 62
     0
440
 16777216
370
    -2
100
AcDbLine
 10
599.9545747383217
 20
482.2255996877673
 30
0.0
 11
599.9545747383217
 21
450.725599687767
 31
0.0
  0
LINE
  5
1C2DB
330
18A6C
100
AcDbEntity
  8
30
 62
     0
440
 16777216
370
    -2
100
AcDbLine
 10
603.9545747383217
 20
502.2255996877677
 30
0.0
 11
603.9545747383217
 21
450.725599687767
 31
0.0
  0
LINE
  5
1C2DC
330
18A6C
100
AcDbEntity
  8
30
 62
     0
440
 16777216
370
    -2
100
AcDbLine
 10
597.9545747383217
 20
451.225599687767
 30
0.0
 11
595.9545747383217
 21
451.225599687767
 31
0.0
  0
LINE
  5
1C2DD
330
18A6C
100
AcDbEntity
  8
30
 62
     0
440
 16777216
370
    -2
100
AcDbLine
 10
605.9545747383217
 20
451.225599687767
 30
0.0
 11
619.2879080716551
 21
451.225599687767
 31
0.0
  0
LINE
  5
1C2DE
330
18A6C
100
AcDbEntity
  8
30
 62
     0
440
 16777216
370
    -2
100
AcDbLine
 10
599.9545747383217
 20
451.225599687767
 30
0.0
 11
603.9545747383217
 21
451.225599687767
 31
0.0
  0
INSERT
  5
1C2DF
330
18A6C
100
AcDbEntity
  8
30
 62
     0
440
 16777216
370
    -2
100
AcDbBlockReference
  2
_OPEN
 10
599.9545747383217
 20
451.225599687767
 30
0.0
 41
2.0
 42
2.0
 43
2.0
  0
INSERT
  5
1C2E0
330
18A6C
100
AcDbEntity
  8
30
 62
     0
440
 16777216
370
    -2
100
AcDbBlockReference
  2
_OPEN
 10
603.9545747383217
 20
451.225599687767
 30
0.0
 41
2.0
 42
2.0
 43
2.0
 50
180.0
  0
MTEXT
  5
1C2E1
330
18A6C
100
AcDbEntity
  8
30
440
 16777216
100
AcDbMText
 10
613.6212414049882
 20
458.2255996877671
 30
0.0
 40
8.0
 41
0.0
 46
0.0
 71
     5
 72
     1
  1
\A1;4
 73
     1
 44
1.0
 90
        3
 63
     9
421
 13158600
 45
1.25
441
        0
  0
POINT
  5
1C2E2
330
18A6C
100
AcDbEntity
  8
DEFPOINTS
 62
     0
440
 16777216
100
AcDbPoint
 10
599.9545747383217
 20
483.2255996877673
 30
0.0
  0
POINT
  5
1C2E3
330
18A6C
100
AcDbEntity
  8
DEFPOINTS
 62
     0
440
 16777216
100
AcDbPoint
 10
603.9545747383217
 20
503.2255996877678
 30
0.0
  0
POINT
  5
1C2E4
330
18A6C
100
AcDbEntity
  8
DEFPOINTS
 62
     0
440
 16777216
100
AcDbPoint
 10
603.9545747383217
 20
451.225599687767
 30
0.0
  0
ENDBLK
  5
18A6E
330
18A6C
100
AcDbEntity
  8
0
100
AcDbBlockEnd
  0
BLOCK
  5
18A92
330
18A91
100
AcDbEntity
  8
0
100
AcDbBlockBegin
  2
*D16
 70
     1
 10
0.0
 20
0.0
 30
0.0
  3
*D16
  1

  0
LINE
  5
1C3F9
330
18A91
100
AcDbEntity
  8
30
 62
     0
440
 16777216
370
    -2
100
AcDbLine
 10
91.45024998121609
 20
161.3956497082996
 30
0.0
 11
91.45024998121609
 21
45.11782632624
 31
0.0
  0
LINE
  5
1C3FA
330
18A91
100
AcDbEntity
  8
30
 62
     0
440
 16777216
370
    -2
100
AcDbLine
 10
161.4502499812161
 20
161.3956497082996
 30
0.0
 11
161.4502499812161
 21
45.11782632624
 31
0.0
  0
LINE
  5
1C3FB
330
18A91
100
AcDbEntity
  8
30
 62
     0
440
 16777216
370
    -2
100
AcDbLine
 10
93.45024998121608
 20
45.61782632624001
 30
0.0
 11
159.4502499812161
 21
45.61782632624001
 31
0.0
  0
INSERT
  5
1C3FC
330
18A91
100
AcDbEntity
  8
30
 62
     0
440
 16777216
370
    -2
100
AcDbBlockReference
  2
_OPEN
 10
91.45024998121609
 20
45.61782632624001
 30
0.0
 41
2.0
 42
2.0
 43
2.0
 50
180.0
  0
INSERT
  5
1C3FD
330
18A91
100
AcDbEntity
  8
30
 62
     0
440
 16777216
370
    -2
100
AcDbBlockReference
  2
_OPEN
 10
161.4502499812161
 20
45.61782632624001
 30
0.0
 41
2.0
 42
2.0
 43
2.0
  0
MTEXT
  5
1C3FE
330
18A91
100
AcDbEntity
  8
30
440
 16777216
100
AcDbMText
 10
126.4502499812161
 20
52.61782632624001
 30
0.0
 40
8.0
 41
0.0
 46
0.0
 71
     5
 72
     1
  1
\A1;70
 73
     1
 44
1.0
 90
        3
 63
     9
421
 13158600
 45
1.25
441
        0
  0
POINT
  5
1C3FF
330
18A91
100
AcDbEntity
  8
DEFPOINTS
 62
     0
440
 16777216
100
AcDbPoint
 10
91.45024998121609
 20
162.3956497082996
 30
0.0
  0
POINT
  5
1C400
330
18A91
100
AcDbEntity
  8
DEFPOINTS
 62
     0
440
 16777216
100
AcDbPoint
 10
161.4502499812161
 20
162.3956497082996
 30
0.0
  0
POINT
  5
1C401
330
18A91
100
AcDbEntity
  8
DEFPOINTS
 62
     0
440
 16777216
100
AcDbPoint
 10
161.4502499812161
 20
45.61782632624001
 30
0.0
  0
ENDBLK
  5
18A93
330
18A91
100
AcDbEntity
  8
0
100
AcDbBlockEnd
  0
BLOCK
  5
18A9E
330
18A9D
100
AcDbEntity
  8
0
100
AcDbBlockBegin
  2
*D17
 70
     1
 10
0.0
 20
0.0
 30
0.0
  3
*D17
  1

  0
LINE
  5
1BF62
330
18A9D
100
AcDbEntity
  8
30
 62
     0
440
 16777216
370
    -2
100
AcDbLine
 10
169.200249981216
 20
302.3956497082996
 30
0.0
 11
264.025645513284
 21
302.3956497082996
 31
0.0
  0
LINE
  5
1BF63
330
18A9D
100
AcDbEntity
  8
30
 62
     0
440
 16777216
370
    -2
100
AcDbLine
 10
169.200249981216
 20
162.3956497082996
 30
0.0
 11
264.025645513284
 21
162.3956497082996
 31
0.0
  0
LINE
  5
1BF64
330
18A9D
100
AcDbEntity
  8
30
 62
     0
440
 16777216
370
    -2
100
AcDbLine
 10
263.525645513284
 20
300.3956497082996
 30
0.0
 11
263.525645513284
 21
164.3956497082996
 31
0.0
  0
INSERT
  5
1BF65
330
18A9D
100
AcDbEntity
  8
30
 62
     0
440
 16777216
370
    -2
100
AcDbBlockReference
  2
_OPEN
 10
263.525645513284
 20
302.3956497082996
 30
0.0
 41
2.0
 42
2.0
 43
2.0
 50
90.0
  0
INSERT
  5
1BF66
330
18A9D
100
AcDbEntity
  8
30
 62
     0
440
 16777216
370
    -2
100
AcDbBlockReference
  2
_OPEN
 10
263.525645513284
 20
162.3956497082996
 30
0.0
 41
2.0
 42
2.0
 43
2.0
 50
270.0
  0
MTEXT
  5
1BF67
330
18A9D
100
AcDbEntity
  8
30
440
 16777216
100
AcDbMText
 10
256.525645513284
 20
232.3956497083004
 30
0.0
 40
8.0
 41
0.0
 46
0.0
 71
     5
 72
     1
  1
\A1;140
 11
0.0000000000000001
 21
1.0
 31
0.0
 73
     1
 44
1.0
 90
        3
 63
     9
421
 13158600
 45
1.25
441
        0
  0
POINT
  5
1BF68
330
18A9D
100
AcDbEntity
  8
DEFPOINTS
 62
     0
440
 16777216
100
AcDbPoint
 10
168.2002499812161
 20
302.3956497082996
 30
0.0
  0
POINT
  5
1BF69
330
18A9D
100
AcDbEntity
  8
DEFPOINTS
 62
     0
440
 16777216
100
AcDbPoint
 10
168.2002499812161
 20
162.3956497082996
 30
0.0
  0
POINT
  5
1BF6A
330
18A9D
100
AcDbEntity
  8
DEFPOINTS
 62
     0
440
 16777216
100
AcDbPoint
 10
263.525645513284
 20
162.3956497082996
 30
0.0
  0
ENDBLK
  5
18A9F
330
18A9D
100
AcDbEntity
  8
0
100
AcDbBlockEnd
  0
BLOCK
  5
18AB4
330
18AB3
100
AcDbEntity
  8
0
100
AcDbBlockBegin
  2
*D18
 70
     1
 10
0.0
 20
0.0
 30
0.0
  3
*D18
  1

  0
LINE
  5
1BF6B
330
18AB3
100
AcDbEntity
  8
30
 62
     0
440
 16777216
370
    -2
100
AcDbLine
 10
391.0068954307472
 20
278.5977464938702
 30
0.0
 11
462.5202015338461
 21
278.5977464938702
 31
0.0
  0
LINE
  5
1BF6C
330
18AB3
100
AcDbEntity
  8
30
 62
     0
440
 16777216
370
    -2
100
AcDbLine
 10
391.0068954307472
 20
186.5977464938702
 30
0.0
 11
462.5202015338461
 21
186.5977464938701
 31
0.0
  0
LINE
  5
1BF6D
330
18AB3
100
AcDbEntity
  8
30
 62
     0
440
 16777216
370
    -2
100
AcDbLine
 10
462.0202015338461
 20
276.5977464938702
 30
0.0
 11
462.0202015338461
 21
188.5977464938702
 31
0.0
  0
INSERT
  5
1BF6E
330
18AB3
100
AcDbEntity
  8
30
 62
     0
440
 16777216
370
    -2
100
AcDbBlockReference
  2
_OPEN
 10
462.0202015338461
 20
278.5977464938702
 30
0.0
 41
2.0
 42
2.0
 43
2.0
 50
90.0
  0
INSERT
  5
1BF6F
330
18AB3
100
AcDbEntity
  8
30
 62
     0
440
 16777216
370
    -2
100
AcDbBlockReference
  2
_OPEN
 10
462.0202015338461
 20
186.5977464938701
 30
0.0
 41
2.0
 42
2.0
 43
2.0
 50
270.0
  0
MTEXT
  5
1BF70
330
18AB3
100
AcDbEntity
  8
30
440
 16777216
100
AcDbMText
 10
451.0202015338462
 20
232.5977464938702
 30
0.0
 40
8.0
 41
0.0
 46
0.0
 71
     2
 72
     1
  1
\A1;92
 11
0.0000000000000001
 21
1.0
 31
0.0
 73
     1
 44
1.0
 90
        3
 63
     9
421
 13158600
 45
1.25
441
        0
  0
POINT
  5
1BF71
330
18AB3
100
AcDbEntity
  8
DEFPOINTS
 62
     0
440
 16777216
100
AcDbPoint
 10
390.0068954307471
 20
278.5977464938702
 30
0.0
  0
POINT
  5
1BF72
330
18AB3
100
AcDbEntity
  8
DEFPOINTS
 62
     0
440
 16777216
100
AcDbPoint
 10
390.0068954307471
 20
186.5977464938702
 30
0.0
  0
POINT
  5
1BF73
330
18AB3
100
AcDbEntity
  8
DEFPOINTS
 62
     0
440
 16777216
100
AcDbPoint
 10
462.0202015338461
 20
186.5977464938701
 30
0.0
  0
ENDBLK
  5
18AB5
330
18AB3
100
AcDbEntity
  8
0
100
AcDbBlockEnd
  0
BLOCK
  5
19795
330
19794
100
AcDbEntity
  8
0
100
AcDbBlockBegin
  2
*D19
 70
     1
 10
0.0
 20
0.0
 30
0.0
  3
*D19
  1

  0
LINE
  5
1BF98
330
19794
100
AcDbEntity
  8
30
  6
Continuous
 62
     0
440
 16777216
370
    -2
100
AcDbLine
 10
425.0069336025958
 20
277.8547816941518
 30
0.0
 11
445.6075749726235
 21
306.7373628100587
 31
0.0
  0
LINE
  5
1BF99
330
19794
100
AcDbEntity
  8
30
  6
Continuous
 62
     0
440
 16777216
370
    -2
100
AcDbLine
 10
445.6075749726235
 20
306.7373628100587
 30
0.0
 11
461.9409083059569
 21
306.7373628100587
 31
0.0
  0
LINE
  5
1BF9A
330
19794
100
AcDbEntity
  8
30
  6
Continuous
 62
     0
440
 16777216
370
    -2
100
AcDbLine
 10
422.6842042457018
 20
274.5982607996908
 30
0.0
 11
423.8455689242011
 21
276.2265212469945
 31
0.0
  0
INSERT
  5
1BF9B
330
19794
100
AcDbEntity
  8
30
  6
Continuous
 62
     0
440
 16777216
370
    -2
100
AcDbBlockReference
  2
_OPEN
 10
423.8455689242011
 20
276.2265212469945
 30
0.0
 41
2.0
 42
2.0
 43
2.0
 50
234.5014509348097
  0
MTEXT
  5
1BF9C
330
19794
100
AcDbEntity
  8
30
  6
Continuous
 62
     0
440
 16777216
100
AcDbMText
 10
448.6075749726232
 20
317.7373628100586
 30
0.0
 40
8.0
 41
0.0
 46
0.0
 71
     1
 72
     1
  1
\A1;R2
 73
     1
 44
1.0
  0
POINT
  5
1BF9D
330
19794
100
AcDbEntity
  8
DEFPOINTS
  6
Continuous
 62
     0
440
 16777216
100
AcDbPoint
 10
423.8455689242011
 20
276.2265212469945
 30
0.0
  0
POINT
  5
1BF9E
330
19794
100
AcDbEntity
  8
DEFPOINTS
  6
Continuous
 62
     0
440
 16777216
100
AcDbPoint
 10
422.6842042457018
 20
274.5982607996908
 30
0.0
  0
ENDBLK
  5
19796
330
19794
100
AcDbEntity
  8
0
100
AcDbBlockEnd
  0
BLOCK
  5
19844
330
19843
100
AcDbEntity
  8
0
100
AcDbBlockBegin
  2
*D20
 70
     1
 10
0.0
 20
0.0
 30
0.0
  3
*D20
  1

  0
LINE
  5
1BF9F
330
19843
100
AcDbEntity
  8
30
  6
Continuous
 62
     0
440
 16777216
370
    -2
100
AcDbLine
 10
591.168055586044
 20
279.5343115596518
 30
0.0
 11
611.7686969560708
 21
308.4168926755597
 31
0.0
  0
LINE
  5
1BFA0
330
19843
100
AcDbEntity
  8
30
  6
Continuous
 62
     0
440
 16777216
370
    -2
100
AcDbLine
 10
611.7686969560708
 20
308.4168926755597
 30
0.0
 11
628.1020302894042
 21
308.4168926755597
 31
0.0
  0
LINE
  5
1BFA1
330
19843
100
AcDbEntity
  8
30
  6
Continuous
 62
     0
440
 16777216
370
    -2
100
AcDbLine
 10
588.8453262291506
 20
276.2777906651915
 30
0.0
 11
590.0066909076493
 21
277.9060511124944
 31
0.0
  0
INSERT
  5
1BFA2
330
19843
100
AcDbEntity
  8
30
  6
Continuous
 62
     0
440
 16777216
370
    -2
100
AcDbBlockReference
  2
_OPEN
 10
590.0066909076493
 20
277.9060511124944
 30
0.0
 41
2.0
 42
2.0
 43
2.0
 50
234.5014509348117
  0
MTEXT
  5
1BFA3
330
19843
100
AcDbEntity
  8
30
  6
Continuous
 62
     0
440
 16777216
100
AcDbMText
 10
614.7686969560712
 20
319.4168926755593
 30
0.0
 40
8.0
 41
0.0
 46
0.0
 71
     1
 72
     1
  1
\A1;R2
 73
     1
 44
1.0
  0
POINT
  5
1BFA4
330
19843
100
AcDbEntity
  8
DEFPOINTS
  6
Continuous
 62
     0
440
 16777216
100
AcDbPoint
 10
590.0066909076493
 20
277.9060511124944
 30
0.0
  0
POINT
  5
1BFA5
330
19843
100
AcDbEntity
  8
DEFPOINTS
  6
Continuous
 62
     0
440
 16777216
100
AcDbPoint
 10
588.8453262291506
 20
276.2777906651915
 30
0.0
  0
ENDBLK
  5
19845
330
19843
100
AcDbEntity
  8
0
100
AcDbBlockEnd
  0
BLOCK
  5
198F0
330
198EF
100
AcDbEntity
  8
0
100
AcDbBlockBegin
  2
*D21
 70
     1
 10
0.0
 20
0.0
 30
0.0
  3
*D21
  1

  0
LINE
  5
1BFA6
330
198EF
100
AcDbEntity
  8
30
  6
Continuous
 62
     0
440
 16777216
370
    -2
100
AcDbLine
 10
92.56238781093662
 20
168.7998006629954
 30
0.0
 11
92.90458406614872
 21
170.7703086490028
 31
0.0
  0
LINE
  5
1BFA7
330
198EF
100
AcDbEntity
  8
30
  6
Continuous
 62
     0
440
 16777216
370
    -2
100
AcDbLine
 10
90.3381121519984
 20
155.9914987536039
 30
0.0
 11
75.07818384871055
 21
68.11850152021273
 31
0.0
  0
LINE
  5
1BFA8
330
198EF
100
AcDbEntity
  8
30
  6
Continuous
 62
     0
440
 16777216
370
    -2
100
AcDbLine
 10
75.07818384871055
 20
68.11850152021273
 30
0.0
 11
26.7448505153772
 21
68.11850152021273
 31
0.0
  0
LINE
  5
1BFA9
330
198EF
100
AcDbEntity
  8
30
  6
Continuous
 62
     0
440
 16777216
370
    -2
100
AcDbLine
 10
92.22019155572452
 20
166.829292676988
 30
0.0
 11
90.68030840721048
 21
157.9620067396113
 31
0.0
  0
INSERT
  5
1BFAA
330
198EF
100
AcDbEntity
  8
30
  6
Continuous
 62
     0
440
 16777216
370
    -2
100
AcDbBlockReference
  2
_OPEN
 10
92.22019155572452
 20
166.829292676988
 30
0.0
 41
2.0
 42
2.0
 43
2.0
 50
260.1483273554566
  0
INSERT
  5
1BFAB
330
198EF
100
AcDbEntity
  8
30
  6
Continuous
 62
     0
440
 16777216
370
    -2
100
AcDbBlockReference
  2
_OPEN
 10
90.68030840721048
 20
157.9620067396113
 30
0.0
 41
2.0
 42
2.0
 43
2.0
 50
80.14832735545663
  0
MTEXT
  5
1BFAC
330
198EF
100
AcDbEntity
  8
30
  6
Continuous
 62
     0
440
 16777216
100
AcDbMText
 10
26.74485051537734
 20
79.11850152021272
 30
0.0
 40
8.0
 41
0.0
 46
0.0
 71
     1
 72
     1
  1
\A1;2X2-%%c6
 73
     1
 44
1.0
  0
POINT
  5
1BFAD
330
198EF
100
AcDbEntity
  8
DEFPOINTS
  6
Continuous
 62
     0
440
 16777216
100
AcDbPoint
 10
90.68030840721048
 20
157.9620067396113
 30
0.0
  0
POINT
  5
1BFAE
330
198EF
100
AcDbEntity
  8
DEFPOINTS
  6
Continuous
 62
     0
440
 16777216
100
AcDbPoint
 10
92.22019155572452
 20
166.829292676988
 30
0.0
  0
ENDBLK
  5
198F1
330
198EF
100
AcDbEntity
  8
0
100
AcDbBlockEnd
  0
BLOCK
  5
1A111
330
1A110
100
AcDbEntity
  8
0
100
AcDbBlockBegin
  2
*D22
 70
     1
 10
0.0
 20
0.0
 30
0.0
  3
*D22
  1

  0
LINE
  5
1BFAF
330
1A110
100
AcDbEntity
  8
30
  6
Continuous
 62
     0
440
 16777216
370
    -2
100
AcDbLine
 10
385.4545765263219
 20
667.2255996877671
 30
0.0
 11
327.9566686387263
 21
667.2255996877671
 31
0.0
  0
LINE
  5
1BFB0
330
1A110
100
AcDbEntity
  8
30
  6
Continuous
 62
     0
440
 16777216
370
    -2
100
AcDbLine
 10
377.7408399109063
 20
577.2255996877671
 30
0.0
 11
327.9566686387262
 21
577.2255996877671
 31
0.0
  0
LINE
  5
1BFB1
330
1A110
100
AcDbEntity
  8
30
  6
Continuous
 62
     0
440
 16777216
370
    -2
100
AcDbLine
 10
328.4566686387262
 20
665.2255996877671
 30
0.0
 11
328.4566686387262
 21
579.2255996877671
 31
0.0
  0
INSERT
  5
1BFB2
330
1A110
100
AcDbEntity
  8
30
  6
Continuous
 62
     0
440
 16777216
370
    -2
100
AcDbBlockReference
  2
_OPEN
 10
328.4566686387262
 20
667.2255996877671
 30
0.0
 41
2.0
 42
2.0
 43
2.0
 50
90.0
  0
INSERT
  5
1BFB3
330
1A110
100
AcDbEntity
  8
30
  6
Continuous
 62
     0
440
 16777216
370
    -2
100
AcDbBlockReference
  2
_OPEN
 10
328.4566686387262
 20
577.2255996877671
 30
0.0
 41
2.0
 42
2.0
 43
2.0
 50
270.0
  0
MTEXT
  5
1BFB4
330
1A110
100
AcDbEntity
  8
30
  6
Continuous
440
 16777216
100
AcDbMText
 10
321.4566686387261
 20
622.2255996877674
 30
0.0
 40
8.0
 41
0.0
 46
0.0
 71
     5
 72
     1
  1
\A1;90
 11
0.0000000000000001
 21
1.0
 31
0.0
 73
     1
 44
1.0
 90
        3
 63
     9
421
 13158600
 45
1.25
441
        0
  0
POINT
  5
1BFB5
330
1A110
100
AcDbEntity
  8
DEFPOINTS
  6
Continuous
 62
     0
440
 16777216
100
AcDbPoint
 10
386.4545765263219
 20
667.2255996877671
 30
0.0
  0
POINT
  5
1BFB6
330
1A110
100
AcDbEntity
  8
DEFPOINTS
  6
Continuous
 62
     0
440
 16777216
100
AcDbPoint
 10
378.7408399109063
 20
577.2255996877671
 30
0.0
  0
POINT
  5
1BFB7
330
1A110
100
AcDbEntity
  8
DEFPOINTS
  6
Continuous
 62
     0
440
 16777216
100
AcDbPoint
 10
328.4566686387262
 20
577.2255996877671
 30
0.0
  0
ENDBLK
  5
1A112
330
1A110
100
AcDbEntity
  8
0
100
AcDbBlockEnd
  0
BLOCK
  5
1A7A8
330
1A7A7
100
AcDbEntity
  8
0
100
AcDbBlockBegin
  2
*D23
 70
     1
 10
0.0
 20
0.0
 30
0.0
  3
*D23
  1

  0
LINE
  5
1C40B
330
1A7A7
100
AcDbEntity
  8
30
  6
Continuous
 62
     0
440
 16777216
370
    -2
100
AcDbLine
 10
197.4545943098313
 20
754.1512697488046
 30
0.0
 11
242.5684278480713
 21
754.1512697488046
 31
0.0
  0
LINE
  5
1C40C
330
1A7A7
100
AcDbEntity
  8
30
  6
Continuous
 62
     0
440
 16777216
370
    -2
100
AcDbLine
 10
197.5959199243109
 20
494.1512697488047
 30
0.0
 11
242.5684278480713
 21
494.1512697488047
 31
0.0
  0
LINE
  5
1C40D
330
1A7A7
100
AcDbEntity
  8
30
  6
Continuous
 62
     0
440
 16777216
370
    -2
100
AcDbLine
 10
242.0684278480713
 20
752.1512697488048
 30
0.0
 11
242.0684278480713
 21
496.1512697488045
 31
0.0
  0
INSERT
  5
1C40E
330
1A7A7
100
AcDbEntity
  8
30
  6
Continuous
 62
     0
440
 16777216
370
    -2
100
AcDbBlockReference
  2
_OPEN
 10
242.0684278480713
 20
754.1512697488046
 30
0.0
 41
2.0
 42
2.0
 43
2.0
 50
90.0
  0
INSERT
  5
1C40F
330
1A7A7
100
AcDbEntity
  8
30
  6
Continuous
 62
     0
440
 16777216
370
    -2
100
AcDbBlockReference
  2
_OPEN
 10
242.0684278480713
 20
494.1512697488047
 30
0.0
 41
2.0
 42
2.0
 43
2.0
 50
270.0
  0
MTEXT
  5
1C410
330
1A7A7
100
AcDbEntity
  8
30
  6
Continuous
440
 16777216
100
AcDbMText
 10
231.0684278480712
 20
624.1512697488047
 30
0.0
 40
8.0
 41
0.0
 46
0.0
 71
     2
 72
     1
  1
\A1;260
 11
0.0000000000000001
 21
1.0
 31
0.0
 73
     1
 44
1.0
 90
        3
 63
     9
421
 13158600
 45
1.25
441
        0
  0
POINT
  5
1C411
330
1A7A7
100
AcDbEntity
  8
DEFPOINTS
  6
Continuous
 62
     0
440
 16777216
100
AcDbPoint
 10
196.4545943098313
 20
754.1512697488046
 30
0.0
  0
POINT
  5
1C412
330
1A7A7
100
AcDbEntity
  8
DEFPOINTS
  6
Continuous
 62
     0
440
 16777216
100
AcDbPoint
 10
196.5959199243109
 20
494.1512697488047
 30
0.0
  0
POINT
  5
1C413
330
1A7A7
100
AcDbEntity
  8
DEFPOINTS
  6
Continuous
 62
     0
440
 16777216
100
AcDbPoint
 10
242.0684278480713
 20
494.1512697488047
 30
0.0
  0
ENDBLK
  5
1A7A9
330
1A7A7
100
AcDbEntity
  8
0
100
AcDbBlockEnd
  0
BLOCK
  5
1A7B4
330
1A7B3
100
AcDbEntity
  8
0
100
AcDbBlockBegin
  2
*D24
 70
     1
 10
0.0
 20
0.0
 30
0.0
  3
*D24
  1

  0
LINE
  5
1C402
330
1A7B3
100
AcDbEntity
  8
30
 62
     0
440
 16777216
370
    -2
100
AcDbLine
 10
195.4502529257164
 20
767.1512753063052
 30
0.0
 11
266.849017535802
 21
767.1512753063051
 31
0.0
  0
LINE
  5
1C403
330
1A7B3
100
AcDbEntity
  8
30
 62
     0
440
 16777216
370
    -2
100
AcDbLine
 10
195.4502529257164
 20
481.1512619543056
 30
0.0
 11
266.849017535802
 21
481.1512619543056
 31
0.0
  0
LINE
  5
1C404
330
1A7B3
100
AcDbEntity
  8
30
 62
     0
440
 16777216
370
    -2
100
AcDbLine
 10
266.349017535802
 20
765.1512753063051
 30
0.0
 11
266.349017535802
 21
483.1512619543056
 31
0.0
  0
INSERT
  5
1C405
330
1A7B3
100
AcDbEntity
  8
30
 62
     0
440
 16777216
370
    -2
100
AcDbBlockReference
  2
_OPEN
 10
266.349017535802
 20
767.1512753063051
 30
0.0
 41
2.0
 42
2.0
 43
2.0
 50
90.0
  0
INSERT
  5
1C406
330
1A7B3
100
AcDbEntity
  8
30
 62
     0
440
 16777216
370
    -2
100
AcDbBlockReference
  2
_OPEN
 10
266.349017535802
 20
481.1512619543056
 30
0.0
 41
2.0
 42
2.0
 43
2.0
 50
270.0
  0
MTEXT
  5
1C407
330
1A7B3
100
AcDbEntity
  8
30
440
 16777216
100
AcDbMText
 10
259.3490175358019
 20
624.1512686303052
 30
0.0
 40
8.0
 41
0.0
 46
0.0
 71
     5
 72
     1
  1
\A1;286
 11
0.0000000000000001
 21
1.0
 31
0.0
 73
     1
 44
1.0
 90
        3
 63
     9
421
 13158600
 45
1.25
441
        0
  0
POINT
  5
1C408
330
1A7B3
100
AcDbEntity
  8
DEFPOINTS
 62
     0
440
 16777216
100
AcDbPoint
 10
194.4502529257164
 20
767.1512753063052
 30
0.0
  0
POINT
  5
1C409
330
1A7B3
100
AcDbEntity
  8
DEFPOINTS
 62
     0
440
 16777216
100
AcDbPoint
 10
194.4502529257164
 20
481.1512619543056
 30
0.0
  0
POINT
  5
1C40A
330
1A7B3
100
AcDbEntity
  8
DEFPOINTS
 62
     0
440
 16777216
100
AcDbPoint
 10
266.349017535802
 20
481.1512619543056
 30
0.0
  0
ENDBLK
  5
1A7B5
330
1A7B3
100
AcDbEntity
  8
0
100
AcDbBlockEnd
  0
BLOCK
  5
1A9C9
330
1A9C8
100
AcDbEntity
  8
0
100
AcDbBlockBegin
  2
*D25
 70
     1
 10
0.0
 20
0.0
 30
0.0
  3
*D25
  1

  0
LINE
  5
1C09F
330
1A9C8
100
AcDbEntity
  8
30
  6
Continuous
 62
     0
440
 16777216
370
    -2
100
AcDbLine
 10
611.9545747383217
 20
736.2255996877678
 30
0.0
 11
628.0608649504435
 21
736.2255996877678
 31
0.0
  0
LINE
  5
1C0A0
330
1A9C8
100
AcDbEntity
  8
30
  6
Continuous
 62
     0
440
 16777216
370
    -2
100
AcDbLine
 10
611.9545747383217
 20
508.2255996877678
 30
0.0
 11
628.0608649504435
 21
508.2255996877678
 31
0.0
  0
LINE
  5
1C0A1
330
1A9C8
100
AcDbEntity
  8
30
  6
Continuous
 62
     0
440
 16777216
370
    -2
100
AcDbLine
 10
627.5608649504436
 20
734.2255996877678
 30
0.0
 11
627.5608649504436
 21
510.2255996877677
 31
0.0
  0
INSERT
  5
1C0A2
330
1A9C8
100
AcDbEntity
  8
30
  6
Continuous
 62
     0
440
 16777216
370
    -2
100
AcDbBlockReference
  2
_OPEN
 10
627.5608649504436
 20
736.2255996877678
 30
0.0
 41
2.0
 42
2.0
 43
2.0
 50
90.0
  0
INSERT
  5
1C0A3
330
1A9C8
100
AcDbEntity
  8
30
  6
Continuous
 62
     0
440
 16777216
370
    -2
100
AcDbBlockReference
  2
_OPEN
 10
627.5608649504436
 20
508.2255996877678
 30
0.0
 41
2.0
 42
2.0
 43
2.0
 50
270.0
  0
MTEXT
  5
1C0A4
330
1A9C8
100
AcDbEntity
  8
30
  6
Continuous
440
 16777216
100
AcDbMText
 10
620.5608649504437
 20
622.2255996877677
 30
0.0
 40
8.0
 41
0.0
 46
0.0
 71
     5
 72
     1
  1
\A1;228
 11
0.0000000000000001
 21
1.0
 31
0.0
 73
     1
 44
1.0
 90
        3
 63
     9
421
 13158600
 45
1.25
441
        0
  0
POINT
  5
1C0A5
330
1A9C8
100
AcDbEntity
  8
DEFPOINTS
  6
Continuous
 62
     0
440
 16777216
100
AcDbPoint
 10
610.9545747383217
 20
736.2255996877678
 30
0.0
  0
POINT
  5
1C0A6
330
1A9C8
100
AcDbEntity
  8
DEFPOINTS
  6
Continuous
 62
     0
440
 16777216
100
AcDbPoint
 10
610.9545747383217
 20
508.2255996877678
 30
0.0
  0
POINT
  5
1C0A7
330
1A9C8
100
AcDbEntity
  8
DEFPOINTS
  6
Continuous
 62
     0
440
 16777216
100
AcDbPoint
 10
627.5608649504436
 20
508.2255996877678
 30
0.0
  0
ENDBLK
  5
1A9CA
330
1A9C8
100
AcDbEntity
  8
0
100
AcDbBlockEnd
  0
BLOCK
  5
1A9D5
330
1A9D4
100
AcDbEntity
  8
0
100
AcDbBlockBegin
  2
*D26
 70
     1
 10
0.0
 20
0.0
 30
0.0
  3
*D26
  1

  0
LINE
  5
1C0A8
330
1A9D4
100
AcDbEntity
  8
30
 62
     0
440
 16777216
370
    -2
100
AcDbLine
 10
599.9545747383217
 20
760.2255996877671
 30
0.0
 11
650.3337479769397
 21
760.2255996877671
 31
0.0
  0
LINE
  5
1C0A9
330
1A9D4
100
AcDbEntity
  8
30
 62
     0
440
 16777216
370
    -2
100
AcDbLine
 10
599.9545747383217
 20
484.2255996877674
 30
0.0
 11
650.3337479769397
 21
484.2255996877673
 31
0.0
  0
LINE
  5
1C0AA
330
1A9D4
100
AcDbEntity
  8
30
 62
     0
440
 16777216
370
    -2
100
AcDbLine
 10
649.8337479769397
 20
758.2255996877671
 30
0.0
 11
649.8337479769397
 21
486.2255996877673
 31
0.0
  0
INSERT
  5
1C0AB
330
1A9D4
100
AcDbEntity
  8
30
 62
     0
440
 16777216
370
    -2
100
AcDbBlockReference
  2
_OPEN
 10
649.8337479769397
 20
760.2255996877671
 30
0.0
 41
2.0
 42
2.0
 43
2.0
 50
90.0
  0
INSERT
  5
1C0AC
330
1A9D4
100
AcDbEntity
  8
30
 62
     0
440
 16777216
370
    -2
100
AcDbBlockReference
  2
_OPEN
 10
649.8337479769397
 20
484.2255996877673
 30
0.0
 41
2.0
 42
2.0
 43
2.0
 50
270.0
  0
MTEXT
  5
1C0AD
330
1A9D4
100
AcDbEntity
  8
30
440
 16777216
100
AcDbMText
 10
642.8337479769396
 20
622.2255996877674
 30
0.0
 40
8.0
 41
0.0
 46
0.0
 71
     5
 72
     1
  1
\A1;276
 11
0.0000000000000001
 21
1.0
 31
0.0
 73
     1
 44
1.0
 90
        3
 63
     9
421
 13158600
 45
1.25
441
        0
  0
POINT
  5
1C0AE
330
1A9D4
100
AcDbEntity
  8
DEFPOINTS
 62
     0
440
 16777216
100
AcDbPoint
 10
598.9545747383218
 20
760.2255996877671
 30
0.0
  0
POINT
  5
1C0AF
330
1A9D4
100
AcDbEntity
  8
DEFPOINTS
 62
     0
440
 16777216
100
AcDbPoint
 10
598.9545747383218
 20
484.2255996877674
 30
0.0
  0
POINT
  5
1C0B0
330
1A9D4
100
AcDbEntity
  8
DEFPOINTS
 62
     0
440
 16777216
100
AcDbPoint
 10
649.8337479769397
 20
484.2255996877673
 30
0.0
  0
ENDBLK
  5
1A9D6
330
1A9D4
100
AcDbEntity
  8
0
100
AcDbBlockEnd
  0
BLOCK
  5
1A9E1
330
1A9E0
100
AcDbEntity
  8
0
100
AcDbBlockBegin
  2
*D27
 70
     1
 10
0.0
 20
0.0
 30
0.0
  3
*D27
  1

  0
LINE
  5
1C0C3
330
1A9E0
100
AcDbEntity
  8
30
 62
     0
440
 16777216
370
    -2
100
AcDbLine
 10
548.9545747383216
 20
779.7255996877667
 30
0.0
 11
674.2249246028151
 21
779.7255996877667
 31
0.0
  0
LINE
  5
1C0C4
330
1A9E0
100
AcDbEntity
  8
30
 62
     0
440
 16777216
370
    -2
100
AcDbLine
 10
547.9545747383216
 20
464.7255996877671
 30
0.0
 11
674.224924602815
 21
464.7255996877671
 31
0.0
  0
LINE
  5
1C0C5
330
1A9E0
100
AcDbEntity
  8
30
 62
     0
440
 16777216
370
    -2
100
AcDbLine
 10
673.7249246028151
 20
777.7255996877665
 30
0.0
 11
673.724924602815
 21
466.7255996877671
 31
0.0
  0
INSERT
  5
1C0C6
330
1A9E0
100
AcDbEntity
  8
30
 62
     0
440
 16777216
370
    -2
100
AcDbBlockReference
  2
_OPEN
 10
673.7249246028151
 20
779.7255996877667
 30
0.0
 41
2.0
 42
2.0
 43
2.0
 50
90.0
  0
INSERT
  5
1C0C7
330
1A9E0
100
AcDbEntity
  8
30
 62
     0
440
 16777216
370
    -2
100
AcDbBlockReference
  2
_OPEN
 10
673.724924602815
 20
464.7255996877671
 30
0.0
 41
2.0
 42
2.0
 43
2.0
 50
270.0
  0
MTEXT
  5
1C0C8
330
1A9E0
100
AcDbEntity
  8
30
440
 16777216
100
AcDbMText
 10
666.7249246028147
 20
622.225599687767
 30
0.0
 40
8.0
 41
0.0
 46
0.0
 71
     5
 72
     1
  1
\A1;315
 11
0.0000000000000001
 21
1.0
 31
0.0
 73
     1
 44
1.0
 90
        3
 63
     9
421
 13158600
 45
1.25
441
        0
  0
POINT
  5
1C0C9
330
1A9E0
100
AcDbEntity
  8
DEFPOINTS
 62
     0
440
 16777216
100
AcDbPoint
 10
547.9545747383216
 20
779.7255996877667
 30
0.0
  0
POINT
  5
1C0CA
330
1A9E0
100
AcDbEntity
  8
DEFPOINTS
 62
     0
440
 16777216
100
AcDbPoint
 10
546.9545747383216
 20
464.7255996877671
 30
0.0
  0
POINT
  5
1C0CB
330
1A9E0
100
AcDbEntity
  8
DEFPOINTS
 62
     0
440
 16777216
100
AcDbPoint
 10
673.724924602815
 20
464.7255996877671
 30
0.0
  0
ENDBLK
  5
1A9E2
330
1A9E0
100
AcDbEntity
  8
0
100
AcDbBlockEnd
  0
BLOCK
  5
1AA9A
330
1AA99
100
AcDbEntity
  8
0
100
AcDbBlockBegin
  2
*D28
 70
     1
 10
0.0
 20
0.0
 30
0.0
  3
*D28
  1

  0
LINE
  5
1BFEE
330
1AA99
100
AcDbEntity
  8
30
  6
Continuous
 62
     0
440
 16777216
370
    -2
100
AcDbLine
 10
369.9545747383219
 20
623.7317024102846
 30
0.0
 11
369.9545747383219
 21
425.6855260624496
 31
0.0
  0
LINE
  5
1BFEF
330
1AA99
100
AcDbEntity
  8
30
  6
Continuous
 62
     0
440
 16777216
370
    -2
100
AcDbLine
 10
499.9545747383216
 20
491.2255996877672
 30
0.0
 11
499.9545747383216
 21
425.6855260624496
 31
0.0
  0
LINE
  5
1BFF0
330
1AA99
100
AcDbEntity
  8
30
  6
Continuous
 62
     0
440
 16777216
370
    -2
100
AcDbLine
 10
371.9545747383218
 20
426.1855260624498
 30
0.0
 11
497.9545747383217
 21
426.1855260624498
 31
0.0
  0
INSERT
  5
1BFF1
330
1AA99
100
AcDbEntity
  8
30
  6
Continuous
 62
     0
440
 16777216
370
    -2
100
AcDbBlockReference
  2
_OPEN
 10
369.9545747383219
 20
426.1855260624498
 30
0.0
 41
2.0
 42
2.0
 43
2.0
 50
180.0
  0
INSERT
  5
1BFF2
330
1AA99
100
AcDbEntity
  8
30
  6
Continuous
 62
     0
440
 16777216
370
    -2
100
AcDbBlockReference
  2
_OPEN
 10
499.9545747383216
 20
426.1855260624498
 30
0.0
 41
2.0
 42
2.0
 43
2.0
  0
MTEXT
  5
1BFF3
330
1AA99
100
AcDbEntity
  8
30
  6
Continuous
440
 16777216
100
AcDbMText
 10
434.9545747383215
 20
437.1855260624498
 30
0.0
 40
8.0
 41
0.0
 46
0.0
 71
     2
 72
     1
  1
\A1;130
 73
     1
 44
1.0
 90
        3
 63
     9
421
 13158600
 45
1.25
441
        0
  0
POINT
  5
1BFF4
330
1AA99
100
AcDbEntity
  8
DEFPOINTS
  6
Continuous
 62
     0
440
 16777216
100
AcDbPoint
 10
369.9545747383219
 20
624.7317024102847
 30
0.0
  0
POINT
  5
1BFF5
330
1AA99
100
AcDbEntity
  8
DEFPOINTS
  6
Continuous
 62
     0
440
 16777216
100
AcDbPoint
 10
499.9545747383216
 20
492.225599687767
 30
0.0
  0
POINT
  5
1BFF6
330
1AA99
100
AcDbEntity
  8
DEFPOINTS
  6
Continuous
 62
     0
440
 16777216
100
AcDbPoint
 10
499.9545747383216
 20
426.1855260624498
 30
0.0
  0
ENDBLK
  5
1AA9B
330
1AA99
100
AcDbEntity
  8
0
100
AcDbBlockEnd
  0
BLOCK
  5
1AAA6
330
1AAA5
100
AcDbEntity
  8
0
100
AcDbBlockBegin
  2
*D29
 70
     1
 10
0.0
 20
0.0
 30
0.0
  3
*D29
  1

  0
LINE
  5
1BFF7
330
1AAA5
100
AcDbEntity
  8
30
  6
Continuous
 62
     0
440
 16777216
370
    -2
100
AcDbLine
 10
396.9545747383219
 20
541.0581950563103
 30
0.0
 11
396.9545747383219
 21
457.7255996877672
 31
0.0
  0
LINE
  5
1BFF8
330
1AAA5
100
AcDbEntity
  8
30
  6
Continuous
 62
     0
440
 16777216
370
    -2
100
AcDbLine
 10
499.9545747383216
 20
491.2255996877672
 30
0.0
 11
499.9545747383216
 21
457.7255996877672
 31
0.0
  0
LINE
  5
1BFF9
330
1AAA5
100
AcDbEntity
  8
30
  6
Continuous
 62
     0
440
 16777216
370
    -2
100
AcDbLine
 10
398.9545747383218
 20
458.2255996877671
 30
0.0
 11
497.9545747383217
 21
458.2255996877671
 31
0.0
  0
INSERT
  5
1BFFA
330
1AAA5
100
AcDbEntity
  8
30
  6
Continuous
 62
     0
440
 16777216
370
    -2
100
AcDbBlockReference
  2
_OPEN
 10
396.9545747383219
 20
458.2255996877671
 30
0.0
 41
2.0
 42
2.0
 43
2.0
 50
180.0
  0
INSERT
  5
1BFFB
330
1AAA5
100
AcDbEntity
  8
30
  6
Continuous
 62
     0
440
 16777216
370
    -2
100
AcDbBlockReference
  2
_OPEN
 10
499.9545747383216
 20
458.2255996877671
 30
0.0
 41
2.0
 42
2.0
 43
2.0
  0
MTEXT
  5
1BFFC
330
1AAA5
100
AcDbEntity
  8
30
  6
Continuous
440
 16777216
100
AcDbMText
 10
448.4545747383217
 20
469.2255996877671
 30
0.0
 40
8.0
 41
0.0
 46
0.0
 71
     2
 72
     1
  1
\A1;103
 73
     1
 44
1.0
 90
        3
 63
     9
421
 13158600
 45
1.25
441
        0
  0
POINT
  5
1BFFD
330
1AAA5
100
AcDbEntity
  8
DEFPOINTS
  6
Continuous
 62
     0
440
 16777216
100
AcDbPoint
 10
396.9545747383219
 20
542.0581950563103
 30
0.0
  0
POINT
  5
1BFFE
330
1AAA5
100
AcDbEntity
  8
DEFPOINTS
  6
Continuous
 62
     0
440
 16777216
100
AcDbPoint
 10
499.9545747383216
 20
492.225599687767
 30
0.0
  0
POINT
  5
1BFFF
330
1AAA5
100
AcDbEntity
  8
DEFPOINTS
  6
Continuous
 62
     0
440
 16777216
100
AcDbPoint
 10
499.9545747383216
 20
458.2255996877671
 30
0.0
  0
ENDBLK
  5
1AAA7
330
1AAA5
100
AcDbEntity
  8
0
100
AcDbBlockEnd
  0
BLOCK
  5
1AAB2
330
1AAB1
100
AcDbEntity
  8
0
100
AcDbBlockBegin
  2
*D30
 70
     1
 10
0.0
 20
0.0
 30
0.0
  3
*D30
  1

  0
LINE
  5
1C000
330
1AAB1
100
AcDbEntity
  8
30
  6
Continuous
 62
     0
440
 16777216
370
    -2
100
AcDbLine
 10
348.9610789688068
 20
633.7317024102847
 30
0.0
 11
348.9610789688068
 21
408.3614547366773
 31
0.0
  0
LINE
  5
1C001
330
1AAB1
100
AcDbEntity
  8
30
  6
Continuous
 62
     0
440
 16777216
370
    -2
100
AcDbLine
 10
499.9545747383216
 20
424.6855260624498
 30
0.0
 11
499.9545747383216
 21
408.3614547366773
 31
0.0
  0
LINE
  5
1C002
330
1AAB1
100
AcDbEntity
  8
30
  6
Continuous
 62
     0
440
 16777216
370
    -2
100
AcDbLine
 10
350.9610789688068
 20
408.8614547366772
 30
0.0
 11
497.9545747383217
 21
408.8614547366772
 31
0.0
  0
INSERT
  5
1C003
330
1AAB1
100
AcDbEntity
  8
30
  6
Continuous
 62
     0
440
 16777216
370
    -2
100
AcDbBlockReference
  2
_OPEN
 10
348.9610789688068
 20
408.8614547366772
 30
0.0
 41
2.0
 42
2.0
 43
2.0
 50
180.0
  0
INSERT
  5
1C004
330
1AAB1
100
AcDbEntity
  8
30
  6
Continuous
 62
     0
440
 16777216
370
    -2
100
AcDbBlockReference
  2
_OPEN
 10
499.9545747383216
 20
408.8614547366772
 30
0.0
 41
2.0
 42
2.0
 43
2.0
  0
MTEXT
  5
1C005
330
1AAB1
100
AcDbEntity
  8
30
  6
Continuous
440
 16777216
100
AcDbMText
 10
424.4578268535642
 20
415.8614547366775
 30
0.0
 40
8.0
 41
0.0
 46
0.0
 71
     5
 72
     1
  1
\A1;151
 73
     1
 44
1.0
 90
        3
 63
     9
421
 13158600
 45
1.25
441
        0
  0
POINT
  5
1C006
330
1AAB1
100
AcDbEntity
  8
DEFPOINTS
  6
Continuous
 62
     0
440
 16777216
100
AcDbPoint
 10
348.9610789688068
 20
634.7317024102847
 30
0.0
  0
POINT
  5
1C007
330
1AAB1
100
AcDbEntity
  8
DEFPOINTS
  6
Continuous
 62
     0
440
 16777216
100
AcDbPoint
 10
499.9545747383216
 20
425.6855260624496
 30
0.0
  0
POINT
  5
1C008
330
1AAB1
100
AcDbEntity
  8
DEFPOINTS
  6
Continuous
 62
     0
440
 16777216
100
AcDbPoint
 10
499.9545747383216
 20
408.8614547366772
 30
0.0
  0
ENDBLK
  5
1AAB3
330
1AAB1
100
AcDbEntity
  8
0
100
AcDbBlockEnd
  0
BLOCK
  5
1AABE
330
1AABD
100
AcDbEntity
  8
0
100
AcDbBlockBegin
  2
*D31
 70
     1
 10
0.0
 20
0.0
 30
0.0
  3
*D31
  1

  0
LINE
  5
1C009
330
1AABD
100
AcDbEntity
  8
30
  6
Continuous
 62
     0
440
 16777216
370
    -2
100
AcDbLine
 10
392.9545746193216
 20
568.7317024102847
 30
0.0
 11
392.9545746193216
 21
441.4861187994921
 31
0.0
  0
LINE
  5
1C00A
330
1AABD
100
AcDbEntity
  8
30
  6
Continuous
 62
     0
440
 16777216
370
    -2
100
AcDbLine
 10
384.9545746193216
 20
568.7317024102847
 30
0.0
 11
384.9545746193216
 21
441.4861187994921
 31
0.0
  0
LINE
  5
1C00B
330
1AABD
100
AcDbEntity
  8
30
  6
Continuous
 62
     0
440
 16777216
370
    -2
100
AcDbLine
 10
394.9545746193217
 20
441.9861187994921
 30
0.0
 11
396.9545746193217
 21
441.9861187994921
 31
0.0
  0
LINE
  5
1C00C
330
1AABD
100
AcDbEntity
  8
30
  6
Continuous
 62
     0
440
 16777216
370
    -2
100
AcDbLine
 10
382.9545746193216
 20
441.9861187994921
 30
0.0
 11
369.6212412859883
 21
441.9861187994921
 31
0.0
  0
LINE
  5
1C00D
330
1AABD
100
AcDbEntity
  8
30
  6
Continuous
 62
     0
440
 16777216
370
    -2
100
AcDbLine
 10
392.9545746193216
 20
441.9861187994921
 30
0.0
 11
384.9545746193216
 21
441.9861187994921
 31
0.0
  0
INSERT
  5
1C00E
330
1AABD
100
AcDbEntity
  8
30
  6
Continuous
 62
     0
440
 16777216
370
    -2
100
AcDbBlockReference
  2
_OPEN
 10
392.9545746193216
 20
441.9861187994921
 30
0.0
 41
2.0
 42
2.0
 43
2.0
 50
180.0
  0
INSERT
  5
1C00F
330
1AABD
100
AcDbEntity
  8
30
  6
Continuous
 62
     0
440
 16777216
370
    -2
100
AcDbBlockReference
  2
_OPEN
 10
384.9545746193216
 20
441.9861187994921
 30
0.0
 41
2.0
 42
2.0
 43
2.0
  0
MTEXT
  5
1C010
330
1AABD
100
AcDbEntity
  8
30
  6
Continuous
 62
     0
440
 16777216
100
AcDbMText
 10
375.287907952655
 20
448.9861187994921
 30
0.0
 40
8.0
 41
0.0
 46
0.0
 71
     5
 72
     1
  1
\A1;8
 73
     1
 44
1.0
  0
POINT
  5
1C011
330
1AABD
100
AcDbEntity
  8
DEFPOINTS
  6
Continuous
 62
     0
440
 16777216
100
AcDbPoint
 10
392.9545746193216
 20
571.7317024102847
 30
0.0
  0
POINT
  5
1C012
330
1AABD
100
AcDbEntity
  8
DEFPOINTS
  6
Continuous
 62
     0
440
 16777216
100
AcDbPoint
 10
384.9545746193216
 20
571.7317024102847
 30
0.0
  0
POINT
  5
1C013
330
1AABD
100
AcDbEntity
  8
DEFPOINTS
  6
Continuous
 62
     0
440
 16777216
100
AcDbPoint
 10
384.9545746193216
 20
441.9861187994921
 30
0.0
  0
ENDBLK
  5
1AABF
330
1AABD
100
AcDbEntity
  8
0
100
AcDbBlockEnd
  0
BLOCK
  5
1AACC
330
1AACB
100
AcDbEntity
  8
0
100
AcDbBlockBegin
  2
*D32
 70
     1
 10
0.0
 20
0.0
 30
0.0
  3
*D32
  1

  0
LINE
  5
1C014
330
1AACB
100
AcDbEntity
  8
30
  6
Continuous
 62
     0
440
 16777216
370
    -2
100
AcDbLine
 10
392.9545746193216
 20
442.986118799492
 30
0.0
 11
392.9545746193216
 21
442.486118799492
 31
0.0
  0
LINE
  5
1C015
330
1AACB
100
AcDbEntity
  8
30
  6
Continuous
 62
     0
440
 16777216
370
    -2
100
AcDbLine
 10
499.9545747383216
 20
457.2255996877671
 30
0.0
 11
499.9545747383216
 21
441.4861187994921
 31
0.0
  0
LINE
  5
1C016
330
1AACB
100
AcDbEntity
  8
30
  6
Continuous
 62
     0
440
 16777216
370
    -2
100
AcDbLine
 10
394.9545746193217
 20
441.9861187994921
 30
0.0
 11
497.9545747383217
 21
441.9861187994921
 31
0.0
  0
INSERT
  5
1C017
330
1AACB
100
AcDbEntity
  8
30
  6
Continuous
 62
     0
440
 16777216
370
    -2
100
AcDbBlockReference
  2
_OPEN
 10
392.9545746193216
 20
441.9861187994921
 30
0.0
 41
2.0
 42
2.0
 43
2.0
 50
180.0
  0
INSERT
  5
1C018
330
1AACB
100
AcDbEntity
  8
30
  6
Continuous
 62
     0
440
 16777216
370
    -2
100
AcDbBlockReference
  2
_OPEN
 10
499.9545747383216
 20
441.9861187994921
 30
0.0
 41
2.0
 42
2.0
 43
2.0
  0
MTEXT
  5
1C019
330
1AACB
100
AcDbEntity
  8
30
  6
Continuous
440
 16777216
100
AcDbMText
 10
446.4545746788217
 20
448.9861187994921
 30
0.0
 40
8.0
 41
0.0
 46
0.0
 71
     5
 72
     1
  1
\A1;107
 73
     1
 44
1.0
 90
        3
 63
     9
421
 13158600
 45
1.25
441
        0
  0
POINT
  5
1C01A
330
1AACB
100
AcDbEntity
  8
DEFPOINTS
  6
Continuous
 62
     0
440
 16777216
100
AcDbPoint
 10
392.9545746193216
 20
441.9861187994921
 30
0.0
  0
POINT
  5
1C01B
330
1AACB
100
AcDbEntity
  8
DEFPOINTS
  6
Continuous
 62
     0
440
 16777216
100
AcDbPoint
 10
499.9545747383216
 20
458.2255996877671
 30
0.0
  0
POINT
  5
1C01C
330
1AACB
100
AcDbEntity
  8
DEFPOINTS
  6
Continuous
 62
     0
440
 16777216
100
AcDbPoint
 10
499.9545747383216
 20
441.9861187994921
 30
0.0
  0
ENDBLK
  5
1AACD
330
1AACB
100
AcDbEntity
  8
0
100
AcDbBlockEnd
  0
BLOCK
  5
1BB4C
330
1BB4B
100
AcDbEntity
  8
0
100
AcDbBlockBegin
  2
*D33
 70
     1
 10
0.0
 20
0.0
 30
0.0
  3
*D33
  1

  0
LINE
  5
1C46C
330
1BB4B
100
AcDbEntity
  8
30
  6
Continuous
 62
     0
440
 16777216
370
    -2
100
AcDbLine
 10
171.200249981216
 20
302.3956497082996
 30
0.0
 11
245.1232581268077
 21
302.3956497082996
 31
0.0
  0
LINE
  5
1C46D
330
1BB4B
100
AcDbEntity
  8
30
  6
Continuous
 62
     0
440
 16777216
370
    -2
100
AcDbLine
 10
225.4502499812161
 20
277.3956497082996
 30
0.0
 11
245.1232581268077
 21
277.3956497082996
 31
0.0
  0
LINE
  5
1C46E
330
1BB4B
100
AcDbEntity
  8
30
  6
Continuous
 62
     0
440
 16777216
370
    -2
100
AcDbLine
 10
244.6232581268077
 20
300.3956497082996
 30
0.0
 11
244.6232581268077
 21
279.3956497082996
 31
0.0
  0
INSERT
  5
1C46F
330
1BB4B
100
AcDbEntity
  8
30
  6
Continuous
 62
     0
440
 16777216
370
    -2
100
AcDbBlockReference
  2
_OPEN
 10
244.6232581268077
 20
302.3956497082996
 30
0.0
 41
2.0
 42
2.0
 43
2.0
 50
90.0
  0
INSERT
  5
1C470
330
1BB4B
100
AcDbEntity
  8
30
  6
Continuous
 62
     0
440
 16777216
370
    -2
100
AcDbBlockReference
  2
_OPEN
 10
244.6232581268077
 20
277.3956497082996
 30
0.0
 41
2.0
 42
2.0
 43
2.0
 50
270.0
  0
MTEXT
  5
1C471
330
1BB4B
100
AcDbEntity
  8
30
  6
Continuous
440
 16777216
100
AcDbMText
 10
233.6232581268077
 20
289.8956497083005
 30
0.0
 40
8.0
 41
0.0
 46
0.0
 71
     2
 72
     1
  1
\A1;25
 11
0.0000000000000001
 21
1.0
 31
0.0
 73
     1
 44
1.0
 90
        3
 63
     9
421
 13158600
 45
1.25
441
        0
  0
POINT
  5
1C472
330
1BB4B
100
AcDbEntity
  8
DEFPOINTS
  6
Continuous
 62
     0
440
 16777216
100
AcDbPoint
 10
170.200249981216
 20
302.3956497082996
 30
0.0
  0
POINT
  5
1C473
330
1BB4B
100
AcDbEntity
  8
DEFPOINTS
  6
Continuous
 62
     0
440
 16777216
100
AcDbPoint
 10
224.4502499812161
 20
277.3956497082996
 30
0.0
  0
POINT
  5
1C474
330
1BB4B
100
AcDbEntity
  8
DEFPOINTS
  6
Continuous
 62
     0
440
 16777216
100
AcDbPoint
 10
244.6232581268077
 20
277.3956497082996
 30
0.0
  0
ENDBLK
  5
1BB4D
330
1BB4B
100
AcDbEntity
  8
0
100
AcDbBlockEnd
  0
BLOCK
  5
1BB8A
330
1BB89
100
AcDbEntity
  8
0
100
AcDbBlockBegin
  2
*D34
 70
     1
 10
0.0
 20
0.0
 30
0.0
  3
*D34
  1

  0
LINE
  5
1C475
330
1BB89
100
AcDbEntity
  8
30
  6
Continuous
 62
     0
440
 16777216
370
    -2
100
AcDbLine
 10
170.200249981216
 20
162.3956497082996
 30
0.0
 11
245.1232581268077
 21
162.3956497082996
 31
0.0
  0
LINE
  5
1C476
330
1BB89
100
AcDbEntity
  8
30
  6
Continuous
 62
     0
440
 16777216
370
    -2
100
AcDbLine
 10
211.4502499812161
 20
187.3956497082996
 30
0.0
 11
245.1232581268077
 21
187.3956497082996
 31
0.0
  0
LINE
  5
1C477
330
1BB89
100
AcDbEntity
  8
30
  6
Continuous
 62
     0
440
 16777216
370
    -2
100
AcDbLine
 10
244.6232581268077
 20
164.3956497082996
 30
0.0
 11
244.6232581268077
 21
185.3956497082996
 31
0.0
  0
INSERT
  5
1C478
330
1BB89
100
AcDbEntity
  8
30
  6
Continuous
 62
     0
440
 16777216
370
    -2
100
AcDbBlockReference
  2
_OPEN
 10
244.6232581268077
 20
162.3956497082996
 30
0.0
 41
2.0
 42
2.0
 43
2.0
 50
270.0
  0
INSERT
  5
1C479
330
1BB89
100
AcDbEntity
  8
30
  6
Continuous
 62
     0
440
 16777216
370
    -2
100
AcDbBlockReference
  2
_OPEN
 10
244.6232581268077
 20
187.3956497082996
 30
0.0
 41
2.0
 42
2.0
 43
2.0
 50
90.0
  0
MTEXT
  5
1C47A
330
1BB89
100
AcDbEntity
  8
30
  6
Continuous
440
 16777216
100
AcDbMText
 10
233.6232581268077
 20
174.895649708301
 30
0.0
 40
8.0
 41
0.0
 46
0.0
 71
     2
 72
     1
  1
\A1;25
 11
0.0000000000000001
 21
1.0
 31
0.0
 73
     1
 44
1.0
 90
        3
 63
     9
421
 13158600
 45
1.25
441
        0
  0
POINT
  5
1C47B
330
1BB89
100
AcDbEntity
  8
DEFPOINTS
  6
Continuous
 62
     0
440
 16777216
100
AcDbPoint
 10
169.200249981216
 20
162.3956497082996
 30
0.0
  0
POINT
  5
1C47C
330
1BB89
100
AcDbEntity
  8
DEFPOINTS
  6
Continuous
 62
     0
440
 16777216
100
AcDbPoint
 10
210.4502499812161
 20
187.3956497082996
 30
0.0
  0
POINT
  5
1C47D
330
1BB89
100
AcDbEntity
  8
DEFPOINTS
  6
Continuous
 62
     0
440
 16777216
100
AcDbPoint
 10
244.6232581268077
 20
187.3956497082996
 30
0.0
  0
ENDBLK
  5
1BB8B
330
1BB89
100
AcDbEntity
  8
0
100
AcDbBlockEnd
  0
BLOCK
  5
1C062
330
1C061
100
AcDbEntity
  8
0
100
AcDbBlockBegin
  2
*D35
 70
     1
 10
0.0
 20
0.0
 30
0.0
  3
*D35
  1

  0
LINE
  5
1C0CC
330
1C061
100
AcDbEntity
  8
30
 62
     0
440
 16777216
370
    -2
100
AcDbLine
 10
547.9545747383216
 20
780.7255996877667
 30
0.0
 11
547.9545747383216
 21
795.9832697168226
 31
0.0
  0
LINE
  5
1C0CD
330
1C061
100
AcDbEntity
  8
30
 62
     0
440
 16777216
370
    -2
100
AcDbLine
 10
396.9545761688214
 20
717.8648189215359
 30
0.0
 11
396.9545761688214
 21
795.9832697168226
 31
0.0
  0
LINE
  5
1C0CE
330
1C061
100
AcDbEntity
  8
30
 62
     0
440
 16777216
370
    -2
100
AcDbLine
 10
545.9545747383216
 20
795.4832697168226
 30
0.0
 11
398.9545761688214
 21
795.4832697168226
 31
0.0
  0
INSERT
  5
1C0CF
330
1C061
100
AcDbEntity
  8
30
 62
     0
440
 16777216
370
    -2
100
AcDbBlockReference
  2
_OPEN
 10
547.9545747383216
 20
795.4832697168226
 30
0.0
 41
2.0
 42
2.0
 43
2.0
  0
INSERT
  5
1C0D0
330
1C061
100
AcDbEntity
  8
30
 62
     0
440
 16777216
370
    -2
100
AcDbBlockReference
  2
_OPEN
 10
396.9545761688214
 20
795.4832697168226
 30
0.0
 41
2.0
 42
2.0
 43
2.0
 50
180.0
  0
MTEXT
  5
1C0D1
330
1C061
100
AcDbEntity
  8
30
440
 16777216
100
AcDbMText
 10
472.4545754535713
 20
802.4832697168228
 30
0.0
 40
8.0
 41
0.0
 46
0.0
 71
     5
 72
     1
  1
\A1;151
 73
     1
 44
1.0
 90
        3
 63
     9
421
 13158600
 45
1.25
441
        0
  0
POINT
  5
1C0D2
330
1C061
100
AcDbEntity
  8
DEFPOINTS
 62
     0
440
 16777216
100
AcDbPoint
 10
547.9545747383216
 20
779.7255996877667
 30
0.0
  0
POINT
  5
1C0D3
330
1C061
100
AcDbEntity
  8
DEFPOINTS
 62
     0
440
 16777216
100
AcDbPoint
 10
396.9545761688214
 20
716.8648189215359
 30
0.0
  0
POINT
  5
1C0D4
330
1C061
100
AcDbEntity
  8
DEFPOINTS
 62
     0
440
 16777216
100
AcDbPoint
 10
396.9545761688214
 20
795.4832697168226
 30
0.0
  0
ENDBLK
  5
1C063
330
1C061
100
AcDbEntity
  8
0
100
AcDbBlockEnd
  0
BLOCK
  5
1C13D
330
1C13C
100
AcDbEntity
  8
0
100
AcDbBlockBegin
  2
*D36
 70
     1
 10
0.0
 20
0.0
 30
0.0
  3
*D36
  1

  0
LINE
  5
1C16C
330
1C13C
100
AcDbEntity
  8
30
 62
     0
440
 16777216
370
    -2
100
AcDbLine
 10
56.40025222271635
 20
482.1512619543056
 30
0.0
 11
56.40025222271635
 21
435.9626719716207
 31
0.0
  0
LINE
  5
1C16D
330
1C13C
100
AcDbEntity
  8
30
 62
     0
440
 16777216
370
    -2
100
AcDbLine
 10
196.4502495282161
 20
482.1512619543056
 30
0.0
 11
196.4502495282161
 21
435.9626719716207
 31
0.0
  0
LINE
  5
1C16E
330
1C13C
100
AcDbEntity
  8
30
 62
     0
440
 16777216
370
    -2
100
AcDbLine
 10
58.40025222271634
 20
436.4626719716206
 30
0.0
 11
194.4502495282162
 21
436.4626719716206
 31
0.0
  0
INSERT
  5
1C16F
330
1C13C
100
AcDbEntity
  8
30
 62
     0
440
 16777216
370
    -2
100
AcDbBlockReference
  2
_OPEN
 10
56.40025222271635
 20
436.4626719716206
 30
0.0
 41
2.0
 42
2.0
 43
2.0
 50
180.0
  0
INSERT
  5
1C170
330
1C13C
100
AcDbEntity
  8
30
 62
     0
440
 16777216
370
    -2
100
AcDbBlockReference
  2
_OPEN
 10
196.4502495282161
 20
436.4626719716206
 30
0.0
 41
2.0
 42
2.0
 43
2.0
  0
MTEXT
  5
1C171
330
1C13C
100
AcDbEntity
  8
30
440
 16777216
100
AcDbMText
 10
126.4252508754662
 20
443.4626719716207
 30
0.0
 40
8.0
 41
0.0
 46
0.0
 71
     5
 72
     1
  1
\A1;140
 73
     1
 44
1.0
 90
        3
 63
     9
421
 13158600
 45
1.25
441
        0
  0
POINT
  5
1C172
330
1C13C
100
AcDbEntity
  8
DEFPOINTS
 62
     0
440
 16777216
100
AcDbPoint
 10
56.40025222271635
 20
483.1512619543055
 30
0.0
  0
POINT
  5
1C173
330
1C13C
100
AcDbEntity
  8
DEFPOINTS
 62
     0
440
 16777216
100
AcDbPoint
 10
196.4502495282161
 20
483.1512619543055
 30
0.0
  0
POINT
  5
1C174
330
1C13C
100
AcDbEntity
  8
DEFPOINTS
 62
     0
440
 16777216
100
AcDbPoint
 10
196.4502495282161
 20
436.4626719716206
 30
0.0
  0
ENDBLK
  5
1C13E
330
1C13C
100
AcDbEntity
  8
0
100
AcDbBlockEnd
  0
BLOCK
  5
1C290
330
1C28F
100
AcDbEntity
  8
0
100
AcDbBlockBegin
  2
*D37
 70
     1
 10
0.0
 20
0.0
 30
0.0
  3
*D37
  1

  0
LINE
  5
1C2B1
330
1C28F
100
AcDbEntity
  8
30
  6
Continuous
 62
     0
370
    -2
100
AcDbLine
 10
655.8095774178545
 20
874.3681432380865
 30
0.0
 11
631.6266568723597
 21
844.2439576276944
 31
0.0
  0
MTEXT
  5
1C2B2
330
1C28F
100
AcDbEntity
  8
30
  6
Continuous
100
AcDbMText
 10
643.4647444584234
 20
870.17230015192
 30
0.0
 40
8.0
 41
0.0
 46
0.0
 71
     5
 72
     1
  1
\A1;∅11
 11
0.6260132997092926
 21
0.7798123803756154
 31
0.0
 73
     1
 44
1.0
 90
        3
 63
     9
421
 13158600
 45
1.25
441
        0
  0
INSERT
  5
1C2B3
330
1C28F
100
AcDbEntity
  8
30
  6
Continuous
 62
     0
370
    -2
100
AcDbBlockReference
  2
_OPEN
 10
630.3746302729413
 20
842.6843328669431
 30
0.0
 41
2.0
 42
2.0
 43
2.0
 50
231.2434003354179
  0
LINE
  5
1C2B4
330
1C28F
100
AcDbEntity
  8
30
  6
Continuous
 62
     0
370
    -2
100
AcDbLine
 10
626.8415571245403
 20
838.3953647748779
 30
0.0
 11
627.0215571245404
 21
838.3953647748777
 31
0.0
  0
LINE
  5
1C2B5
330
1C28F
100
AcDbEntity
  8
30
  6
Continuous
 62
     0
370
    -2
100
AcDbLine
 10
626.9315571245406
 20
838.3053647748777
 30
0.0
 11
626.9315571245406
 21
838.4853647748776
 31
0.0
  0
POINT
  5
1C2B6
330
1C28F
100
AcDbEntity
  8
DEFPOINTS
  6
Continuous
 62
     0
100
AcDbPoint
 10
630.3746302729413
 20
842.6843328669431
 30
0.0
  0
POINT
  5
1C2B7
330
1C28F
100
AcDbEntity
  8
DEFPOINTS
  6
Continuous
 62
     0
100
AcDbPoint
 10
623.4884839761397
 20
834.1063966828121
 30
0.0
  0
ENDBLK
  5
1C291
330
1C28F
100
AcDbEntity
  8
0
100
AcDbBlockEnd
  0
BLOCK
  5
1C29A
330
1C299
100
AcDbEntity
  8
0
100
AcDbBlockBegin
  2
*D38
 70
     1
 10
0.0
 20
0.0
 30
0.0
  3
*D38
  1

  0
LINE
  5
1C2B8
330
1C299
100
AcDbEntity
  8
30
  6
Continuous
 62
     0
370
    -2
100
AcDbLine
 10
642.9315571245397
 20
818.3953647748777
 30
0.0
 11
658.8738868027283
 21
818.3953647748777
 31
0.0
  0
LINE
  5
1C2B9
330
1C299
100
AcDbEntity
  8
30
  6
Continuous
 62
     0
370
    -2
100
AcDbLine
 10
635.4315571245397
 20
838.3953647748777
 30
0.0
 11
658.8738868027283
 21
838.3953647748777
 31
0.0
  0
LINE
  5
1C2BA
330
1C299
100
AcDbEntity
  8
30
  6
Continuous
 62
     0
370
    -2
100
AcDbLine
 10
658.3738868027285
 20
820.3953647748777
 30
0.0
 11
658.3738868027285
 21
836.3953647748777
 31
0.0
  0
INSERT
  5
1C2BB
330
1C299
100
AcDbEntity
  8
30
  6
Continuous
 62
     0
370
    -2
100
AcDbBlockReference
  2
_OPEN
 10
658.3738868027285
 20
818.3953647748777
 30
0.0
 41
2.0
 42
2.0
 43
2.0
 50
270.0
  0
INSERT
  5
1C2BC
330
1C299
100
AcDbEntity
  8
30
  6
Continuous
 62
     0
370
    -2
100
AcDbBlockReference
  2
_OPEN
 10
658.3738868027285
 20
838.3953647748777
 30
0.0
 41
2.0
 42
2.0
 43
2.0
 50
90.0
  0
MTEXT
  5
1C2BD
330
1C299
100
AcDbEntity
  8
30
  6
Continuous
100
AcDbMText
 10
651.3738868027282
 20
828.3953647748779
 30
0.0
 40
8.0
 41
0.0
 46
0.0
 71
     5
 72
     1
  1
\A1;20
 11
0.0000000000000001
 21
1.0
 31
0.0
 73
     1
 44
1.0
 90
        3
 63
     9
421
 13158600
 45
1.25
441
        0
  0
POINT
  5
1C2BE
330
1C299
100
AcDbEntity
  8
DEFPOINTS
  6
Continuous
 62
     0
100
AcDbPoint
 10
641.9315571245397
 20
818.3953647748777
 30
0.0
  0
POINT
  5
1C2BF
330
1C299
100
AcDbEntity
  8
DEFPOINTS
  6
Continuous
 62
     0
100
AcDbPoint
 10
634.4315571245397
 20
838.3953647748777
 30
0.0
  0
POINT
  5
1C2C0
330
1C299
100
AcDbEntity
  8
DEFPOINTS
  6
Continuous
 62
     0
100
AcDbPoint
 10
658.3738868027285
 20
838.3953647748777
 30
0.0
  0
ENDBLK
  5
1C29B
330
1C299
100
AcDbEntity
  8
0
100
AcDbBlockEnd
  0
BLOCK
  5
1C2A6
330
1C2A5
100
AcDbEntity
  8
0
100
AcDbBlockBegin
  2
*D39
 70
     1
 10
0.0
 20
0.0
 30
0.0
  3
*D39
  1

  0
LINE
  5
1C2C1
330
1C2A5
100
AcDbEntity
  8
30
  6
Continuous
 62
     0
370
    -2
100
AcDbLine
 10
611.9315571245397
 20
817.3953647748778
 30
0.0
 11
611.9315571245397
 21
802.3090847573831
 31
0.0
  0
LINE
  5
1C2C2
330
1C2A5
100
AcDbEntity
  8
30
  6
Continuous
 62
     0
370
    -2
100
AcDbLine
 10
641.9315571245397
 20
817.3953647748778
 30
0.0
 11
641.9315571245397
 21
802.3090847573831
 31
0.0
  0
LINE
  5
1C2C3
330
1C2A5
100
AcDbEntity
  8
30
  6
Continuous
 62
     0
370
    -2
100
AcDbLine
 10
613.9315571245397
 20
802.8090847573832
 30
0.0
 11
639.9315571245397
 21
802.8090847573832
 31
0.0
  0
INSERT
  5
1C2C4
330
1C2A5
100
AcDbEntity
  8
30
  6
Continuous
 62
     0
370
    -2
100
AcDbBlockReference
  2
_OPEN
 10
611.9315571245397
 20
802.8090847573832
 30
0.0
 41
2.0
 42
2.0
 43
2.0
 50
180.0
  0
INSERT
  5
1C2C5
330
1C2A5
100
AcDbEntity
  8
30
  6
Continuous
 62
     0
370
    -2
100
AcDbBlockReference
  2
_OPEN
 10
641.9315571245397
 20
802.8090847573832
 30
0.0
 41
2.0
 42
2.0
 43
2.0
  0
MTEXT
  5
1C2C6
330
1C2A5
100
AcDbEntity
  8
30
  6
Continuous
100
AcDbMText
 10
626.9315571245397
 20
809.8090847573832
 30
0.0
 40
8.0
 41
0.0
 46
0.0
 71
     5
 72
     1
  1
\A1;30
 73
     1
 44
1.0
 90
        3
 63
     9
421
 13158600
 45
1.25
441
        0
  0
POINT
  5
1C2C7
330
1C2A5
100
AcDbEntity
  8
DEFPOINTS
  6
Continuous
 62
     0
100
AcDbPoint
 10
611.9315571245397
 20
818.3953647748777
 30
0.0
  0
POINT
  5
1C2C8
330
1C2A5
100
AcDbEntity
  8
DEFPOINTS
  6
Continuous
 62
     0
100
AcDbPoint
 10
641.9315571245397
 20
818.3953647748777
 30
0.0
  0
POINT
  5
1C2C9
330
1C2A5
100
AcDbEntity
  8
DEFPOINTS
  6
Continuous
 62
     0
100
AcDbPoint
 10
641.9315571245397
 20
802.8090847573832
 30
0.0
  0
ENDBLK
  5
1C2A7
330
1C2A5
100
AcDbEntity
  8
0
100
AcDbBlockEnd
  0
BLOCK
  5
1C305
330
1C304
100
AcDbEntity
  8
0
100
AcDbBlockBegin
  2
*D40
 70
     1
 10
0.0
 20
0.0
 30
0.0
  3
*D40
  1

  0
LINE
  5
1C322
330
1C304
100
AcDbEntity
  8
30
 62
     0
440
 16777216
370
    -2
100
AcDbLine
 10
547.9545747383216
 20
713.2255996877671
 30
0.0
 11
547.9545747383216
 21
802.337231500695
 31
0.0
  0
LINE
  5
1C323
330
1C304
100
AcDbEntity
  8
30
 62
     0
440
 16777216
370
    -2
100
AcDbLine
 10
396.9545775993211
 20
709.7256002116121
 30
0.0
 11
396.9545775993211
 21
802.337231500695
 31
0.0
  0
LINE
  5
1C324
330
1C304
100
AcDbEntity
  8
30
 62
     0
440
 16777216
370
    -2
100
AcDbLine
 10
545.9545747383216
 20
801.8372315006949
 30
0.0
 11
398.9545775993211
 21
801.8372315006949
 31
0.0
  0
INSERT
  5
1C325
330
1C304
100
AcDbEntity
  8
30
 62
     0
440
 16777216
370
    -2
100
AcDbBlockReference
  2
_OPEN
 10
547.9545747383216
 20
801.8372315006949
 30
0.0
 41
2.0
 42
2.0
 43
2.0
  0
INSERT
  5
1C326
330
1C304
100
AcDbEntity
  8
30
 62
     0
440
 16777216
370
    -2
100
AcDbBlockReference
  2
_OPEN
 10
396.9545775993211
 20
801.8372315006949
 30
0.0
 41
2.0
 42
2.0
 43
2.0
 50
180.0
  0
MTEXT
  5
1C327
330
1C304
100
AcDbEntity
  8
30
440
 16777216
100
AcDbMText
 10
472.4545761688213
 20
808.8372315006948
 30
0.0
 40
8.0
 41
0.0
 46
0.0
 71
     5
 72
     1
  1
\A1;151
 73
     1
 44
1.0
 90
        3
 63
     9
421
 13158600
 45
1.25
441
        0
  0
POINT
  5
1C328
330
1C304
100
AcDbEntity
  8
DEFPOINTS
 62
     0
440
 16777216
100
AcDbPoint
 10
547.9545747383216
 20
712.2255996877671
 30
0.0
  0
POINT
  5
1C329
330
1C304
100
AcDbEntity
  8
DEFPOINTS
 62
     0
440
 16777216
100
AcDbPoint
 10
396.9545775993211
 20
708.7256002116121
 30
0.0
  0
POINT
  5
1C32A
330
1C304
100
AcDbEntity
  8
DEFPOINTS
 62
     0
440
 16777216
100
AcDbPoint
 10
396.9545775993211
 20
801.8372315006949
 30
0.0
  0
ENDBLK
  5
1C306
330
1C304
100
AcDbEntity
  8
0
100
AcDbBlockEnd
  0
ENDSEC
  0
SECTION
  2
ENTITIES
  0
LINE
  5
187D9
330
1E
100
AcDbEntity
  8
16
 48
2.0
100
AcDbLine
 10
126.4502499812161
 20
463.3210078805832
 30
0.0
 11
126.4502499812161
 21
788.9302785079843
 31
0.0
  0
LINE
  5
187DA
330
1E
100
AcDbEntity
  8
16
 48
2.0
100
AcDbLine
 10
560.2411690148909
 20
622.2255996877671
 30
0.0
 11
377.4704760887416
 21
622.2255996877671
 31
0.0
  0
LINE
  5
187DB
330
1E
100
AcDbEntity
  8
16
 48
2.0
100
AcDbLine
 10
236.1641941500721
 20
232.3956497082996
 30
0.0
 11
34.32836960043733
 21
232.3956497082996
 31
0.0
  0
LINE
  5
187DC
330
1E
100
AcDbEntity
  8
16
 48
2.0
100
AcDbLine
 10
211.242928255176
 20
624.1512686303052
 30
0.0
 11
37.82601633201358
 21
624.1512686303052
 31
0.0
  0
LWPOLYLINE
  5
187DD
330
1E
100
AcDbEntity
  8
16
 48
2.0
100
AcDbPolyline
 90
        2
 70
     0
 43
0.0
 10
126.4502499812161
 20
72.50757987993575
 10
126.4502499812161
 20
395.3707024413775
  0
MTEXT
  5
187DE
330
1E
100
AcDbEntity
  8
19
  6
Continuous
100
AcDbMText
 10
470.1420003649846
 20
1042.151268630305
 30
0.0
 40
10.0
 41
236.7177873567525
 46
0.0
 71
     1
 72
     5
  1
PS400-CF 3P PMB\PPS400-NF 3P PMB\PPS400-GF 3P PMB\PPS400-NE 3P PMB\PPS400-GE 3P PMB\PPH400-CF 3P PMB\PPH400-CE 3P PMB\PPS630-CF 3P PMB\PPS630-NF 3P PMB\PPS630-GF 3P PMB\PPH630-CF 3P PMB
  7
STANDARD1
 73
     1
 44
1.0
  0
LINE
  5
187DF
330
1E
100
AcDbEntity
  8
10
100
AcDbLine
 10
547.9545747383216
 20
712.2255996877676
 30
0.0
 11
547.9545747383216
 21
532.2255996877671
 31
0.0
  0
LINE
  5
187E0
330
1E
100
AcDbEntity
  8
10
100
AcDbLine
 10
499.9545747383216
 20
765.2255996877671
 30
0.0
 11
499.9545747383216
 21
479.2255996877671
 31
0.0
  0
LINE
  5
187E3
330
1E
100
AcDbEntity
  8
12
  6
HIDDEN
100
AcDbLine
 10
571.9545747383206
 20
552.2255996877671
 30
0.0
 11
516.9545747383216
 21
552.2255996877671
 31
0.0
  0
LINE
  5
187E4
330
1E
100
AcDbEntity
  8
17
100
AcDbLine
 10
568.0638779532118
 20
508.2255996877678
 30
0.0
 11
611.9545747383217
 21
508.2255996877678
 31
0.0
  0
LINE
  5
187E5
330
1E
100
AcDbEntity
  8
12
  6
HIDDEN
100
AcDbLine
 10
560.254574738321
 20
547.825599687767
 30
0.0
 11
555.254574738321
 21
547.825599687767
 31
0.0
  0
LINE
  5
187E6
330
1E
100
AcDbEntity
  8
12
  6
HIDDEN
100
AcDbLine
 10
560.254574738321
 20
550.0255996877672
 30
0.0
 11
555.254574738321
 21
550.0255996877672
 31
0.0
  0
LINE
  5
187E7
330
1E
100
AcDbEntity
  8
12
  6
HIDDEN
100
AcDbLine
 10
560.254574738321
 20
554.4255996877672
 30
0.0
 11
555.254574738321
 21
554.4255996877672
 31
0.0
  0
LINE
  5
187E8
330
1E
100
AcDbEntity
  8
12
  6
HIDDEN
100
AcDbLine
 10
560.254574738321
 20
556.6255996877671
 30
0.0
 11
555.254574738321
 21
556.6255996877671
 31
0.0
  0
LINE
  5
187E9
330
1E
100
AcDbEntity
  8
10
100
AcDbLine
 10
499.9545747383216
 20
484.225599687767
 30
0.0
 11
599.9545747383217
 21
484.225599687767
 31
0.0
  0
LINE
  5
187EA
330
1E
100
AcDbEntity
  8
10
100
AcDbLine
 10
499.9545747383216
 20
532.2255996877671
 30
0.0
 11
599.9545747383217
 21
532.2255996877671
 31
0.0
  0
LINE
  5
187EC
330
1E
100
AcDbEntity
  8
10
100
AcDbLine
 10
547.9545747383216
 20
484.2255996877674
 30
0.0
 11
547.9545747383216
 21
464.7255996877671
 31
0.0
  0
LINE
  5
187ED
330
1E
100
AcDbEntity
  8
10
100
AcDbLine
 10
534.9545747383216
 20
484.2255996877674
 30
0.0
 11
534.9545747383216
 21
464.7255996877671
 31
0.0
  0
LINE
  5
187EE
330
1E
100
AcDbEntity
  8
10
100
AcDbLine
 10
482.9545747383217
 20
492.225599687767
 30
0.0
 11
482.9545747383217
 21
479.2255996877671
 31
0.0
  0
LINE
  5
187EF
330
1E
100
AcDbEntity
  8
10
100
AcDbLine
 10
482.9545747383217
 20
479.2255996877671
 30
0.0
 11
499.9545747383216
 21
479.2255996877671
 31
0.0
  0
LINE
  5
187F0
330
1E
100
AcDbEntity
  8
10
100
AcDbLine
 10
534.9545747383216
 20
464.7255996877671
 30
0.0
 11
547.9545747383216
 21
464.7255996877671
 31
0.0
  0
LINE
  5
187F1
330
1E
100
AcDbEntity
  8
12
  6
HIDDEN
100
AcDbLine
 10
528.9545747383216
 20
556.7255996877671
 30
0.0
 11
524.9545747383216
 21
556.7255996877671
 31
0.0
  0
LINE
  5
187F2
330
1E
100
AcDbEntity
  8
12
  6
HIDDEN
100
AcDbLine
 10
528.9545747383216
 20
547.7255996877671
 30
0.0
 11
524.9545747383216
 21
547.7255996877671
 31
0.0
  0
LINE
  5
187F3
330
1E
100
AcDbEntity
  8
12
  6
HIDDEN
100
AcDbLine
 10
524.9545747383216
 20
547.7255996877671
 30
0.0
 11
524.9545747383216
 21
556.7255996877671
 31
0.0
  0
LINE
  5
187F4
330
1E
100
AcDbEntity
  8
12
  6
HIDDEN
100
AcDbLine
 10
555.254574738321
 20
547.2255996877671
 30
0.0
 11
555.254574738321
 21
557.2255996877671
 31
0.0
  0
LINE
  5
187F5
330
1E
100
AcDbEntity
  8
12
  6
HIDDEN
100
AcDbLine
 10
553.9545747383216
 20
547.2255996877671
 30
0.0
 11
553.9545747383216
 21
557.2255996877671
 31
0.0
  0
LINE
  5
187F6
330
1E
100
AcDbEntity
  8
12
  6
HIDDEN
100
AcDbLine
 10
529.9545747383216
 20
547.2255996877671
 30
0.0
 11
529.9545747383216
 21
557.2255996877671
 31
0.0
  0
LINE
  5
187F7
330
1E
100
AcDbEntity
  8
12
  6
HIDDEN
100
AcDbLine
 10
528.9545747383216
 20
547.2255996877671
 30
0.0
 11
528.9545747383216
 21
557.2255996877671
 31
0.0
  0
LINE
  5
187F8
330
1E
100
AcDbEntity
  8
12
  6
HIDDEN
100
AcDbLine
 10
529.9545747383216
 20
547.2255996877671
 30
0.0
 11
528.9545747383216
 21
547.2255996877671
 31
0.0
  0
LINE
  5
187F9
330
1E
100
AcDbEntity
  8
12
  6
HIDDEN
100
AcDbLine
 10
555.254574738321
 20
547.2255996877671
 30
0.0
 11
552.9545747383216
 21
547.2255996877671
 31
0.0
  0
LINE
  5
187FA
330
1E
100
AcDbEntity
  8
12
  6
HIDDEN
100
AcDbLine
 10
552.9545747383216
 20
549.7255996877671
 30
0.0
 11
529.9545747383216
 21
549.7255996877671
 31
0.0
  0
LINE
  5
187FB
330
1E
100
AcDbEntity
  8
12
  6
HIDDEN
100
AcDbLine
 10
552.9545747383216
 20
554.7255996877671
 30
0.0
 11
529.9545747383216
 21
554.7255996877671
 31
0.0
  0
LINE
  5
187FC
330
1E
100
AcDbEntity
  8
12
  6
HIDDEN
100
AcDbLine
 10
529.9545747383216
 20
557.2255996877671
 30
0.0
 11
528.9545747383216
 21
557.2255996877671
 31
0.0
  0
LINE
  5
187FD
330
1E
100
AcDbEntity
  8
12
  6
HIDDEN
100
AcDbLine
 10
555.254574738321
 20
557.2255996877671
 30
0.0
 11
552.9545747383216
 21
557.2255996877671
 31
0.0
  0
LINE
  5
187FE
330
1E
100
AcDbEntity
  8
10
100
AcDbLine
 10
599.9545747383217
 20
532.2255996877671
 30
0.0
 11
599.9545747383217
 21
484.2255996877674
 31
0.0
  0
LINE
  5
187FF
330
1E
100
AcDbEntity
  8
24
100
AcDbLine
 10
603.9545747383217
 20
513.2255996877678
 30
0.0
 11
603.9545747383217
 21
503.225599687768
 31
0.0
  0
LINE
  5
18800
330
1E
100
AcDbEntity
  8
24
100
AcDbLine
 10
599.9545747383217
 20
503.2255996877678
 30
0.0
 11
603.9545747383217
 21
503.2255996877678
 31
0.0
  0
LINE
  5
18801
330
1E
100
AcDbEntity
  8
24
100
AcDbLine
 10
599.9545747383217
 20
513.2255996877678
 30
0.0
 11
603.9545747383217
 21
513.2255996877678
 31
0.0
  0
LINE
  5
18802
330
1E
100
AcDbEntity
  8
12
  6
HIDDEN
100
AcDbLine
 10
560.254574738321
 20
547.825599687767
 30
0.0
 11
560.254574738321
 21
556.6255996877671
 31
0.0
  0
LINE
  5
18803
330
1E
100
AcDbEntity
  8
12
  6
HIDDEN
100
AcDbLine
 10
563.9545747383217
 20
549.7255996877671
 30
0.0
 11
560.254574738321
 21
549.7255996877671
 31
0.0
  0
LINE
  5
18804
330
1E
100
AcDbEntity
  8
12
  6
HIDDEN
100
AcDbLine
 10
563.9545747383217
 20
554.7255996877671
 30
0.0
 11
560.254574738321
 21
554.7255996877671
 31
0.0
  0
LINE
  5
18805
330
1E
100
AcDbEntity
  8
12
  6
HIDDEN
100
AcDbLine
 10
563.9545747383207
 20
549.7255996877671
 30
0.0
 11
563.9545747383207
 21
554.7255996877671
 31
0.0
  0
LINE
  5
18806
330
1E
100
AcDbEntity
  8
12
  6
HIDDEN
100
AcDbLine
 10
571.9545747383206
 20
692.2255996877671
 30
0.0
 11
516.9545747383216
 21
692.2255996877671
 31
0.0
  0
LINE
  5
18807
330
1E
100
AcDbEntity
  8
17
100
AcDbLine
 10
611.9545747383217
 20
736.2255996877678
 30
0.0
 11
551.7006191872979
 21
736.2255996877678
 31
0.0
  0
LINE
  5
18808
330
1E
100
AcDbEntity
  8
12
  6
HIDDEN
100
AcDbLine
 10
560.254574738321
 20
687.8255996877672
 30
0.0
 11
555.254574738321
 21
687.8255996877672
 31
0.0
  0
LINE
  5
18809
330
1E
100
AcDbEntity
  8
12
  6
HIDDEN
100
AcDbLine
 10
560.254574738321
 20
690.0255996877667
 30
0.0
 11
555.254574738321
 21
690.0255996877667
 31
0.0
  0
LINE
  5
1880A
330
1E
100
AcDbEntity
  8
12
  6
HIDDEN
100
AcDbLine
 10
560.254574738321
 20
696.6255996877671
 30
0.0
 11
555.254574738321
 21
696.6255996877671
 31
0.0
  0
LINE
  5
1880B
330
1E
100
AcDbEntity
  8
12
  6
HIDDEN
100
AcDbLine
 10
560.254574738321
 20
694.4255996877672
 30
0.0
 11
555.254574738321
 21
694.4255996877672
 31
0.0
  0
LINE
  5
1880C
330
1E
100
AcDbEntity
  8
10
100
AcDbLine
 10
599.9545747383217
 20
712.2255996877671
 30
0.0
 11
499.9545747383216
 21
712.2255996877671
 31
0.0
  0
LINE
  5
1880D
330
1E
100
AcDbEntity
  8
10
100
AcDbLine
 10
599.9545747383217
 20
760.2255996877671
 30
0.0
 11
499.9545747383216
 21
760.2255996877671
 31
0.0
  0
LINE
  5
1881C
330
1E
100
AcDbEntity
  8
12
  6
HIDDEN
100
AcDbLine
 10
528.9545747383216
 20
687.7255996877671
 30
0.0
 11
524.9545747383216
 21
687.7255996877671
 31
0.0
  0
LINE
  5
1881D
330
1E
100
AcDbEntity
  8
12
  6
HIDDEN
100
AcDbLine
 10
528.9545747383216
 20
696.7255996877671
 30
0.0
 11
524.9545747383216
 21
696.7255996877671
 31
0.0
  0
LINE
  5
1881E
330
1E
100
AcDbEntity
  8
12
  6
HIDDEN
100
AcDbLine
 10
524.9545747383216
 20
696.7255996877671
 30
0.0
 11
524.9545747383216
 21
687.7255996877671
 31
0.0
  0
LINE
  5
1881F
330
1E
100
AcDbEntity
  8
12
  6
HIDDEN
100
AcDbLine
 10
552.9545747383216
 20
694.7255996877672
 30
0.0
 11
529.9545747383216
 21
694.7255996877672
 31
0.0
  0
LINE
  5
18820
330
1E
100
AcDbEntity
  8
12
  6
HIDDEN
100
AcDbLine
 10
552.9545747383216
 20
689.7255996877671
 30
0.0
 11
529.9545747383216
 21
689.7255996877671
 31
0.0
  0
LINE
  5
18821
330
1E
100
AcDbEntity
  8
12
  6
HIDDEN
100
AcDbLine
 10
529.9545747383216
 20
687.2255996877671
 30
0.0
 11
528.9545747383216
 21
687.2255996877671
 31
0.0
  0
LINE
  5
18822
330
1E
100
AcDbEntity
  8
12
  6
HIDDEN
100
AcDbLine
 10
529.9545747383216
 20
697.2255996877671
 30
0.0
 11
528.9545747383216
 21
697.2255996877671
 31
0.0
  0
LINE
  5
18823
330
1E
100
AcDbEntity
  8
12
  6
HIDDEN
100
AcDbLine
 10
528.9545747383216
 20
697.2255996877671
 30
0.0
 11
528.9545747383216
 21
687.2255996877671
 31
0.0
  0
LINE
  5
18824
330
1E
100
AcDbEntity
  8
12
  6
HIDDEN
100
AcDbLine
 10
529.9545747383216
 20
697.2255996877671
 30
0.0
 11
529.9545747383216
 21
687.2255996877671
 31
0.0
  0
LINE
  5
18825
330
1E
100
AcDbEntity
  8
12
  6
HIDDEN
100
AcDbLine
 10
555.254574738321
 20
697.2255996877671
 30
0.0
 11
552.9545747383216
 21
697.2255996877671
 31
0.0
  0
LINE
  5
18826
330
1E
100
AcDbEntity
  8
12
  6
HIDDEN
100
AcDbLine
 10
555.254574738321
 20
687.2255996877671
 30
0.0
 11
552.9545747383216
 21
687.2255996877671
 31
0.0
  0
LINE
  5
18827
330
1E
100
AcDbEntity
  8
12
  6
HIDDEN
100
AcDbLine
 10
555.254574738321
 20
697.2255996877671
 30
0.0
 11
555.254574738321
 21
687.2255996877671
 31
0.0
  0
LINE
  5
18828
330
1E
100
AcDbEntity
  8
12
  6
HIDDEN
100
AcDbLine
 10
553.9545747383216
 20
697.2255996877671
 30
0.0
 11
553.9545747383216
 21
687.2255996877671
 31
0.0
  0
LINE
  5
1882A
330
1E
100
AcDbEntity
  8
10
100
AcDbLine
 10
499.9545747383216
 20
765.2255996877671
 30
0.0
 11
482.9545747383217
 21
765.2255996877671
 31
0.0
  0
LINE
  5
1882B
330
1E
100
AcDbEntity
  8
10
100
AcDbLine
 10
482.9545747383217
 20
765.2255996877671
 30
0.0
 11
482.9545747383217
 21
752.2255996877671
 31
0.0
  0
LINE
  5
1882C
330
1E
100
AcDbEntity
  8
10
100
AcDbLine
 10
534.9545747383216
 20
779.7255996877667
 30
0.0
 11
534.9545747383216
 21
760.2255996877671
 31
0.0
  0
LINE
  5
1882D
330
1E
100
AcDbEntity
  8
10
100
AcDbLine
 10
547.9545747383216
 20
779.7255996877667
 30
0.0
 11
547.9545747383216
 21
760.2255996877671
 31
0.0
  0
LINE
  5
1882E
330
1E
100
AcDbEntity
  8
10
100
AcDbLine
 10
547.9545747383216
 20
779.7255996877667
 30
0.0
 11
534.9545747383208
 21
779.7255996877667
 31
0.0
  0
LINE
  5
1882F
330
1E
100
AcDbEntity
  8
10
100
AcDbLine
 10
599.9545747383217
 20
760.2255996877671
 30
0.0
 11
599.9545747383217
 21
712.2255996877671
 31
0.0
  0
LINE
  5
18830
330
1E
100
AcDbEntity
  8
12
  6
HIDDEN
100
AcDbLine
 10
560.254574738321
 20
696.6255996877671
 30
0.0
 11
560.254574738321
 21
687.8255996877672
 31
0.0
  0
LINE
  5
18831
330
1E
100
AcDbEntity
  8
12
  6
HIDDEN
100
AcDbLine
 10
563.9545747383207
 20
694.7255996877672
 30
0.0
 11
563.9545747383207
 21
689.7255996877671
 31
0.0
  0
LINE
  5
18832
330
1E
100
AcDbEntity
  8
12
  6
HIDDEN
100
AcDbLine
 10
563.9545747383217
 20
689.7255996877671
 30
0.0
 11
560.254574738321
 21
689.7255996877671
 31
0.0
  0
LINE
  5
18833
330
1E
100
AcDbEntity
  8
12
  6
HIDDEN
100
AcDbLine
 10
563.9545747383217
 20
694.7255996877672
 30
0.0
 11
560.254574738321
 21
694.7255996877672
 31
0.0
  0
LINE
  5
18834
330
1E
100
AcDbEntity
  8
24
100
AcDbLine
 10
603.9545747383217
 20
731.2255996877678
 30
0.0
 11
599.9545747383217
 21
731.2255996877678
 31
0.0
  0
LINE
  5
18835
330
1E
100
AcDbEntity
  8
24
100
AcDbLine
 10
603.9545747383217
 20
741.2255996877678
 30
0.0
 11
599.9545747383217
 21
741.2255996877678
 31
0.0
  0
LINE
  5
18836
330
1E
100
AcDbEntity
  8
24
100
AcDbLine
 10
603.9545747383217
 20
741.2255996877678
 30
0.0
 11
603.9545747383217
 21
731.2255996877678
 31
0.0
  0
LINE
  5
18837
330
1E
100
AcDbEntity
  8
18
 48
2.0
100
AcDbLine
 10
196.450249981216
 20
375.3956497082996
 30
0.0
 11
196.450249981216
 21
89.39564970829987
 31
0.0
  0
LINE
  5
18838
330
1E
100
AcDbEntity
  8
18
 48
2.0
100
AcDbLine
 10
56.45024998121606
 20
375.3956497082996
 30
0.0
 11
56.45024998121606
 21
89.39564970829987
 31
0.0
  0
LINE
  5
18839
330
1E
100
AcDbEntity
  8
18
 48
2.0
100
AcDbLine
 10
56.45024998121606
 20
89.39564970829961
 30
0.0
 11
96.45024998121609
 21
89.39564970829961
 31
0.0
  0
LINE
  5
1883A
330
1E
100
AcDbEntity
  8
18
 48
2.0
100
AcDbLine
 10
156.4502499812161
 20
89.39564970829961
 30
0.0
 11
196.450249981216
 21
89.39564970829961
 31
0.0
  0
LINE
  5
1883B
330
1E
100
AcDbEntity
  8
18
 48
2.0
100
AcDbLine
 10
141.450249981216
 20
74.89564970829963
 30
0.0
 11
156.4502499812161
 21
74.89564970829963
 31
0.0
  0
LINE
  5
1883C
330
1E
100
AcDbEntity
  8
18
 48
2.0
100
AcDbLine
 10
111.4502499812161
 20
89.39564970829961
 30
0.0
 11
141.450249981216
 21
89.39564970829961
 31
0.0
  0
LINE
  5
1883D
330
1E
100
AcDbEntity
  8
18
 48
2.0
100
AcDbLine
 10
111.4502499812161
 20
89.39564970829987
 30
0.0
 11
111.4502499812161
 21
74.89564970829963
 31
0.0
  0
LINE
  5
1883E
330
1E
100
AcDbEntity
  8
18
 48
2.0
100
AcDbLine
 10
96.45024998121609
 20
89.39564970829987
 30
0.0
 11
96.45024998121609
 21
74.89564970829963
 31
0.0
  0
LINE
  5
1883F
330
1E
100
AcDbEntity
  8
18
 48
2.0
100
AcDbLine
 10
96.45024998121609
 20
74.89564970829963
 30
0.0
 11
111.4502499812161
 21
74.89564970829963
 31
0.0
  0
LINE
  5
18840
330
1E
100
AcDbEntity
  8
18
 48
2.0
100
AcDbLine
 10
141.450249981216
 20
89.39564970829987
 30
0.0
 11
141.450249981216
 21
74.89564970829963
 31
0.0
  0
LINE
  5
18841
330
1E
100
AcDbEntity
  8
18
 48
2.0
100
AcDbLine
 10
156.4502499812161
 20
89.39564970829961
 30
0.0
 11
186.4502499812161
 21
89.39564970829961
 31
0.0
  0
LINE
  5
18842
330
1E
100
AcDbEntity
  8
18
 48
2.0
100
AcDbLine
 10
156.4502499812161
 20
89.39564970829987
 30
0.0
 11
156.4502499812161
 21
74.89564970829963
 31
0.0
  0
LINE
  5
18843
330
1E
100
AcDbEntity
  8
18
 48
2.0
100
AcDbLine
 10
96.45024998121609
 20
375.3956497082996
 30
0.0
 11
56.45024998121606
 21
375.3956497082996
 31
0.0
  0
LINE
  5
18844
330
1E
100
AcDbEntity
  8
18
 48
2.0
100
AcDbLine
 10
196.450249981216
 20
375.3956497082996
 30
0.0
 11
156.4502499812161
 21
375.3956497082996
 31
0.0
  0
LINE
  5
18845
330
1E
100
AcDbEntity
  8
18
 48
2.0
100
AcDbLine
 10
156.4502499812161
 20
389.8956497082996
 30
0.0
 11
141.450249981216
 21
389.8956497082996
 31
0.0
  0
LINE
  5
18846
330
1E
100
AcDbEntity
  8
18
 48
2.0
100
AcDbLine
 10
141.450249981216
 20
375.3956497082996
 30
0.0
 11
111.4502499812161
 21
375.3956497082996
 31
0.0
  0
LINE
  5
18847
330
1E
100
AcDbEntity
  8
18
 48
2.0
100
AcDbLine
 10
111.4502499812161
 20
389.8956497082996
 30
0.0
 11
111.4502499812161
 21
375.3956497082996
 31
0.0
  0
LINE
  5
18848
330
1E
100
AcDbEntity
  8
18
 48
2.0
100
AcDbLine
 10
96.45024998121609
 20
389.8956497082996
 30
0.0
 11
96.45024998121609
 21
375.3956497082996
 31
0.0
  0
LINE
  5
18849
330
1E
100
AcDbEntity
  8
18
 48
2.0
100
AcDbLine
 10
111.4502499812161
 20
389.8956497082996
 30
0.0
 11
96.45024998121609
 21
389.8956497082996
 31
0.0
  0
LINE
  5
1884A
330
1E
100
AcDbEntity
  8
18
 48
2.0
100
AcDbLine
 10
141.450249981216
 20
389.8956497082996
 30
0.0
 11
141.450249981216
 21
375.3956497082996
 31
0.0
  0
LINE
  5
1884B
330
1E
100
AcDbEntity
  8
18
 48
2.0
100
AcDbLine
 10
186.4502499812161
 20
375.3956497082996
 30
0.0
 11
156.4502499812161
 21
375.3956497082996
 31
0.0
  0
LINE
  5
1884C
330
1E
100
AcDbEntity
  8
18
 48
2.0
100
AcDbLine
 10
156.4502499812161
 20
389.8956497082996
 30
0.0
 11
156.4502499812161
 21
375.3956497082996
 31
0.0
  0
SPLINE
  5
1884D
330
1E
100
AcDbEntity
  8
10
100
AcDbSpline
210
0.0
220
0.0
230
1.0
 70
     8
 71
     3
 72
    14
 73
    10
 74
     0
 42
0.000000001
 43
0.0000000001
 40
0.0
 40
0.0
 40
0.0
 40
0.0
 40
0.1428571428571429
 40
0.2857142857142857
 40
0.428571428571429
 40
0.5714285714285714
 40
0.7142857142857145
 40
0.8571428571428571
 40
1.0
 40
1.0
 40
1.0
 40
1.0
 10
287.3763723451548
 20
985.6472310952851
 30
0.0
 10
274.3763723451548
 20
975.6472310952862
 30
0.0
 10
254.3763723451548
 20
977.6472310952859
 30
0.0
 10
250.3763723451548
 20
959.647231095286
 30
0.0
 10
226.3763723451548
 20
959.647231095286
 30
0.0
 10
220.3763723451548
 20
939.6472310952859
 30
0.0
 10
212.3763723451548
 20
931.6472310952859
 30
0.0
 10
220.3763723451548
 20
917.647231095286
 30
0.0
 10
210.3763723451548
 20
903.6472310952859
 30
0.0
 10
217.3763723451548
 20
890.6472310952851
 30
0.0
  0
SPLINE
  5
1884E
330
1E
100
AcDbEntity
  8
10
100
AcDbSpline
210
0.0
220
0.0
230
1.0
 70
     8
 71
     3
 72
     9
 73
     5
 74
     0
 42
0.000000001
 43
0.0000000001
 40
0.0
 40
0.0
 40
0.0
 40
0.0
 40
0.5
 40
1.0
 40
1.0
 40
1.0
 40
1.0
 10
297.3763723451548
 20
930.6472310952855
 30
0.0
 10
292.3763723451548
 20
921.6472310952864
 30
0.0
 10
300.3763723451548
 20
909.647231095286
 30
0.0
 10
292.3763723451548
 20
895.6472310952861
 30
0.0
 10
297.3763723451548
 20
882.6472310952855
 30
0.0
  0
LINE
  5
1884F
330
1E
100
AcDbEntity
  8
24
100
AcDbLine
 10
313.3763723451548
 20
915.647231095286
 30
0.0
 11
313.3763723451548
 21
898.647231095286
 31
0.0
  0
LINE
  5
18850
330
1E
100
AcDbEntity
  8
18
100
AcDbLine
 10
307.3763723451548
 20
914.6472310952859
 30
0.0
 11
307.3763723451548
 21
888.6472310952861
 31
0.0
  0
LINE
  5
18851
330
1E
100
AcDbEntity
  8
10
100
AcDbLine
 10
244.3763723451548
 20
961.3351560249419
 30
0.0
 11
244.3763723451548
 21
877.6472310952852
 31
0.0
  0
LINE
  5
18852
330
1E
100
AcDbEntity
  8
10
100
AcDbLine
 10
239.3763723451548
 20
959.8627510896543
 30
0.0
 11
239.3763723451548
 21
890.6472310952851
 31
0.0
  0
LINE
  5
18853
330
1E
100
AcDbEntity
  8
12
100
AcDbLine
 10
307.3763723451548
 20
918.647231095286
 30
0.0
 11
307.3763723451548
 21
894.6472310952861
 31
0.0
  0
LINE
  5
18854
330
1E
100
AcDbEntity
  8
10
100
AcDbLine
 10
339.3763723451548
 20
920.6472310952859
 30
0.0
 11
339.3763723451548
 21
911.6472310952859
 31
0.0
  0
LINE
  5
18855
330
1E
100
AcDbEntity
  8
10
100
AcDbLine
 10
244.3763723451548
 20
882.6472310952855
 30
0.0
 11
339.3763723451548
 21
882.6472310952855
 31
0.0
  0
LINE
  5
18856
330
1E
100
AcDbEntity
  8
10
100
AcDbLine
 10
227.3763723451548
 20
877.6472310952852
 30
0.0
 11
244.3763723451548
 21
877.6472310952852
 31
0.0
  0
LINE
  5
18857
330
1E
100
AcDbEntity
  8
10
100
AcDbLine
 10
217.3763723451348
 20
890.6472310952851
 30
0.0
 11
239.3763723451548
 21
890.6472310952851
 31
0.0
  0
LINE
  5
18858
330
1E
100
AcDbEntity
  8
10
100
AcDbLine
 10
227.3763723451548
 20
890.6472310952851
 30
0.0
 11
227.3763723451548
 21
877.6472310952852
 31
0.0
  0
LINE
  5
18859
330
1E
100
AcDbEntity
  8
24
100
AcDbLine
 10
319.3763723451548
 20
892.6472310952854
 30
0.0
 11
353.3763723451548
 21
892.647231095286
 31
0.0
  0
LINE
  5
1885A
330
1E
100
AcDbEntity
  8
24
100
AcDbLine
 10
319.3763723451548
 20
886.6472310952861
 30
0.0
 11
353.3763723451548
 21
886.6472310952861
 31
0.0
  0
LINE
  5
1885C
330
1E
100
AcDbEntity
  8
12
100
AcDbLine
 10
307.3763723451548
 20
901.647231095286
 30
0.0
 11
339.3763723451548
 21
901.647231095286
 31
0.0
  0
LINE
  5
1885D
330
1E
100
AcDbEntity
  8
12
100
AcDbLine
 10
307.3763723451548
 20
911.6472310952859
 30
0.0
 11
339.3763723451548
 21
911.6472310952859
 31
0.0
  0
LINE
  5
1885E
330
1E
100
AcDbEntity
  8
10
100
AcDbLine
 10
287.3763723451548
 20
882.6472310952855
 30
0.0
 11
287.3763723451548
 21
863.1472310952855
 31
0.0
  0
LINE
  5
1885F
330
1E
100
AcDbEntity
  8
10
100
AcDbLine
 10
274.3763723451548
 20
882.6472310952855
 30
0.0
 11
274.3763723451548
 21
863.1472310952855
 31
0.0
  0
LINE
  5
18860
330
1E
100
AcDbEntity
  8
10
100
AcDbLine
 10
274.3763723451548
 20
863.1472310952855
 30
0.0
 11
287.3763723451548
 21
863.1472310952855
 31
0.0
  0
LINE
  5
18861
330
1E
100
AcDbEntity
  8
12
100
AcDbLine
 10
294.868276158566
 20
894.6472310952861
 30
0.0
 11
307.3763723451557
 21
894.6472310952861
 31
0.0
  0
ARC
  5
18862
330
1E
100
AcDbEntity
  8
24
100
AcDbCircle
 10
319.3763723451548
 20
898.647231095286
 30
0.0
 40
12.0
100
AcDbArc
 50
180.0
 51
270.0
  0
ARC
  5
18863
330
1E
100
AcDbEntity
  8
24
100
AcDbCircle
 10
319.3763723451548
 20
898.647231095286
 30
0.0
 40
6.0
100
AcDbArc
 50
180.0
 51
270.0
  0
LINE
  5
18865
330
1E
100
AcDbEntity
  8
12
100
AcDbLine
 10
313.3763723451548
 20
897.6472310952861
 30
0.0
 11
317.8763723451548
 21
897.6472310952861
 31
0.0
  0
LINE
  5
18866
330
1E
100
AcDbEntity
  8
12
100
AcDbLine
 10
313.3763723451548
 20
915.647231095286
 30
0.0
 11
317.8763723451548
 21
915.647231095286
 31
0.0
  0
LINE
  5
18867
330
1E
100
AcDbEntity
  8
12
100
AcDbLine
 10
315.3763723451548
 20
915.647231095286
 30
0.0
 11
315.3763723451548
 21
897.6472310952861
 31
0.0
  0
LINE
  5
18868
330
1E
100
AcDbEntity
  8
12
100
AcDbLine
 10
317.8763723451548
 20
897.7472310952864
 30
0.0
 11
326.8763723451548
 21
897.7472310952864
 31
0.0
  0
LINE
  5
18869
330
1E
100
AcDbEntity
  8
12
100
AcDbLine
 10
317.8763723451548
 20
902.1972310952863
 30
0.0
 11
326.8763723451548
 21
902.1972310952863
 31
0.0
  0
LINE
  5
1886A
330
1E
100
AcDbEntity
  8
12
100
AcDbLine
 10
317.8763723451548
 20
915.5472310952859
 30
0.0
 11
326.8763723451548
 21
915.5472310952859
 31
0.0
  0
LINE
  5
1886B
330
1E
100
AcDbEntity
  8
12
100
AcDbLine
 10
317.8763723451548
 20
911.0972310952858
 30
0.0
 11
326.8763723451548
 21
911.0972310952858
 31
0.0
  0
LINE
  5
1886C
330
1E
100
AcDbEntity
  8
12
100
AcDbLine
 10
326.8763723451548
 20
915.5472310952859
 30
0.0
 11
326.8763723451548
 21
897.7472310952864
 31
0.0
  0
LINE
  5
1886D
330
1E
100
AcDbEntity
  8
12
100
AcDbLine
 10
317.8763723451548
 20
915.647231095286
 30
0.0
 11
317.8763723451548
 21
897.6472310952861
 31
0.0
  0
LINE
  5
1886E
330
1E
100
AcDbEntity
  8
10
100
AcDbLine
 10
339.3763723451548
 20
901.647231095286
 30
0.0
 11
339.3763723451548
 21
892.6472310952856
 31
0.0
  0
LINE
  5
18870
330
1E
100
AcDbEntity
  8
12
100
AcDbLine
 10
339.3763723451548
 20
901.647231095286
 30
0.0
 11
343.3763723451548
 21
901.647231095286
 31
0.0
  0
LINE
  5
18871
330
1E
100
AcDbEntity
  8
12
100
AcDbLine
 10
339.3763723451548
 20
911.6472310952859
 30
0.0
 11
343.3763723451548
 21
911.6472310952859
 31
0.0
  0
LINE
  5
18872
330
1E
100
AcDbEntity
  8
12
100
AcDbLine
 10
343.3763723451548
 20
911.6472310952859
 30
0.0
 11
343.3763723451548
 21
901.6472310952863
 31
0.0
  0
LINE
  5
18873
330
1E
100
AcDbEntity
  8
12
100
AcDbLine
 10
292.3763723451548
 20
948.1472310952851
 30
0.0
 11
269.3763723451548
 21
948.1472310952851
 31
0.0
  0
LINE
  5
18874
330
1E
100
AcDbEntity
  8
12
100
AcDbLine
 10
292.3763723451548
 20
953.1472310952857
 30
0.0
 11
269.3763723451548
 21
953.1472310952857
 31
0.0
  0
LINE
  5
18875
330
1E
100
AcDbEntity
  8
10
100
AcDbLine
 10
244.3763723451548
 20
930.6472310952855
 30
0.0
 11
339.3763723451548
 21
930.6472310952855
 31
0.0
  0
LINE
  5
18876
330
1E
100
AcDbEntity
  8
12
100
AcDbLine
 10
269.3763723451548
 20
955.6472310952855
 30
0.0
 11
268.3763723451548
 21
955.6472310952855
 31
0.0
  0
LINE
  5
18877
330
1E
100
AcDbEntity
  8
12
100
AcDbLine
 10
269.3763723451548
 20
945.6472310952856
 30
0.0
 11
268.3763723451548
 21
945.6472310952856
 31
0.0
  0
LINE
  5
18878
330
1E
100
AcDbEntity
  8
12
100
AcDbLine
 10
269.3763723451548
 20
945.6472310952856
 30
0.0
 11
269.3763723451548
 21
955.6472310952855
 31
0.0
  0
LINE
  5
18879
330
1E
100
AcDbEntity
  8
12
100
AcDbLine
 10
268.3763723451548
 20
945.6472310952856
 30
0.0
 11
268.3763723451548
 21
955.6472310952855
 31
0.0
  0
LINE
  5
1887A
330
1E
100
AcDbEntity
  8
12
100
AcDbLine
 10
264.3763723451548
 20
946.1472310952856
 30
0.0
 11
264.3763723451548
 21
955.1472310952856
 31
0.0
  0
LINE
  5
1887B
330
1E
100
AcDbEntity
  8
12
100
AcDbLine
 10
268.3763723451548
 20
955.1472310952851
 30
0.0
 11
264.3763723451548
 21
955.1472310952851
 31
0.0
  0
LINE
  5
1887C
330
1E
100
AcDbEntity
  8
12
100
AcDbLine
 10
268.3763723451548
 20
946.1472310952856
 30
0.0
 11
264.3763723451548
 21
946.1472310952856
 31
0.0
  0
LINE
  5
1887D
330
1E
100
AcDbEntity
  8
24
100
AcDbLine
 10
319.3763723451548
 20
926.647231095286
 30
0.0
 11
353.3763723451548
 21
926.647231095286
 31
0.0
  0
LINE
  5
1887E
330
1E
100
AcDbEntity
  8
24
100
AcDbLine
 10
319.3763723451548
 20
920.6472310952859
 30
0.0
 11
353.3763723451548
 21
920.6472310952859
 31
0.0
  0
LINE
  5
1887F
330
1E
100
AcDbEntity
  8
10
100
AcDbLine
 10
287.3763723451548
 20
985.6472310952851
 30
0.0
 11
287.3763723451548
 21
930.6472310952855
 31
0.0
  0
LINE
  5
18880
330
1E
100
AcDbEntity
  8
12
100
AcDbLine
 10
292.3763723451548
 20
935.6472310952851
 30
0.0
 11
292.3763723451548
 21
965.6472310952851
 31
0.0
  0
LINE
  5
18881
330
1E
100
AcDbEntity
  8
12
100
AcDbLine
 10
295.0372419325887
 20
918.647231095286
 30
0.0
 11
307.3763723451557
 21
918.647231095286
 31
0.0
  0
LINE
  5
18882
330
1E
100
AcDbEntity
  8
12
100
AcDbLine
 10
303.3763723451557
 20
948.1472310952851
 30
0.0
 11
299.676372345155
 21
948.1472310952851
 31
0.0
  0
LINE
  5
18883
330
1E
100
AcDbEntity
  8
12
100
AcDbLine
 10
303.3763723451557
 20
953.1472310952857
 30
0.0
 11
299.676372345155
 21
953.1472310952857
 31
0.0
  0
LINE
  5
18884
330
1E
100
AcDbEntity
  8
12
100
AcDbLine
 10
292.3763723451548
 20
935.6472310952851
 30
0.0
 11
287.3763723451548
 21
935.6472310952851
 31
0.0
  0
LINE
  5
18885
330
1E
100
AcDbEntity
  8
12
100
AcDbLine
 10
299.676372345155
 20
946.2472310952852
 30
0.0
 11
299.676372345155
 21
955.0472310952855
 31
0.0
  0
LINE
  5
18886
330
1E
100
AcDbEntity
  8
12
100
AcDbLine
 10
294.676372345155
 20
945.6472310952856
 30
0.0
 11
294.676372345155
 21
955.6472310952855
 31
0.0
  0
LINE
  5
18887
330
1E
100
AcDbEntity
  8
12
100
AcDbLine
 10
299.676372345155
 20
946.2472310952852
 30
0.0
 11
294.676372345155
 21
946.2472310952852
 31
0.0
  0
LINE
  5
18888
330
1E
100
AcDbEntity
  8
12
100
AcDbLine
 10
294.6763723451541
 20
955.6472310952855
 30
0.0
 11
292.3763723451548
 21
955.6472310952855
 31
0.0
  0
LINE
  5
18889
330
1E
100
AcDbEntity
  8
12
100
AcDbLine
 10
294.6763723451541
 20
945.6472310952856
 30
0.0
 11
292.3763723451548
 21
945.6472310952856
 31
0.0
  0
LINE
  5
1888A
330
1E
100
AcDbEntity
  8
12
100
AcDbLine
 10
299.676372345155
 20
948.4472310952851
 30
0.0
 11
294.676372345155
 21
948.4472310952851
 31
0.0
  0
LINE
  5
1888B
330
1E
100
AcDbEntity
  8
12
100
AcDbLine
 10
299.676372345155
 20
952.8472310952851
 30
0.0
 11
294.676372345155
 21
952.8472310952851
 31
0.0
  0
LINE
  5
1888C
330
1E
100
AcDbEntity
  8
12
100
AcDbLine
 10
299.676372345155
 20
955.0472310952855
 30
0.0
 11
294.676372345155
 21
955.0472310952855
 31
0.0
  0
LINE
  5
1888D
330
1E
100
AcDbEntity
  8
12
100
AcDbLine
 10
293.3763723451548
 20
945.6472310952856
 30
0.0
 11
293.3763723451548
 21
955.6472310952855
 31
0.0
  0
ARC
  5
1888E
330
1E
100
AcDbEntity
  8
24
100
AcDbCircle
 10
319.3763723451548
 20
914.6472310952859
 30
0.0
 40
12.0
100
AcDbArc
 50
90.0
 51
180.0
  0
ARC
  5
1888F
330
1E
100
AcDbEntity
  8
24
100
AcDbCircle
 10
319.3763723451548
 20
914.6472310952859
 30
0.0
 40
6.0
100
AcDbArc
 50
90.0
 51
180.0
  0
LINE
  5
18890
330
1E
100
AcDbEntity
  8
12
100
AcDbLine
 10
307.3763723451548
 20
911.6472310952859
 30
0.0
 11
313.3763723451548
 21
911.6472310952859
 31
0.0
  0
LINE
  5
18891
330
1E
100
AcDbEntity
  8
12
100
AcDbLine
 10
303.3763723451548
 20
948.1472310952856
 30
0.0
 11
303.3763723451548
 21
953.1472310952857
 31
0.0
  0
LINE
  5
18892
330
1E
100
AcDbEntity
  8
12
100
AcDbLine
 10
327.3763723451548
 20
970.6472310952856
 30
0.0
 11
297.3763723451548
 21
970.6472310952856
 31
0.0
  0
LINE
  5
18893
330
1E
100
AcDbEntity
  8
12
100
AcDbLine
 10
327.3763723451548
 20
975.6472310952856
 30
0.0
 11
287.3763723451548
 21
975.6472310952856
 31
0.0
  0
ARC
  5
18894
330
1E
100
AcDbEntity
  8
12
100
AcDbCircle
 10
-297.3763723451548
 20
965.6472310952851
 30
0.0
 40
5.0
210
0.0
220
0.0
230
-1.0
100
AcDbArc
 50
0.0
 51
90.0
  0
LINE
  5
18895
330
1E
100
AcDbEntity
  8
12
100
AcDbLine
 10
327.3763723451548
 20
970.6472310952856
 30
0.0
 11
327.3763723451548
 21
975.6472310952856
 31
0.0
  0
SPLINE
  5
18896
330
1E
100
AcDbEntity
  8
24
100
AcDbSpline
210
0.0
220
0.0
230
1.0
 70
     8
 71
     3
 72
     8
 73
     4
 74
     0
 42
0.000000001
 43
0.0000000001
 40
0.0
 40
0.0
 40
0.0
 40
0.0
 40
1.0
 40
1.0
 40
1.0
 40
1.0
 10
353.3763723451548
 20
926.647231095286
 30
0.0
 10
354.3763723451548
 20
923.6472310952862
 30
0.0
 10
352.3763723451548
 20
923.6472310952862
 30
0.0
 10
353.3763723451548
 20
920.6472310952859
 30
0.0
  0
TEXT
  5
188A4
330
1E
100
AcDbEntity
  8
30
100
AcDbText
 10
312.273932186602
 20
861.9648290150703
 30
0.0
 40
5.0
  1
M10 nut
 41
0.8216911764705923
  7
UGMTXT
100
AcDbText
  0
DIMENSION
  5
188A5
330
1E
100
AcDbEntity
  8
30
100
AcDbDimension
280
     0
  2
*D8
 10
244.3763723451548
 20
834.5802277517105
 30
0.0
 11
229.7097056784878
 21
834.5802277517105
 31
0.0
 70
   160
 71
     5
 42
5.0
 73
     0
 74
     0
 75
     0
  3
STANDARD
100
AcDbAlignedDimension
 13
239.3763723451548
 23
890.6472310952851
 33
0.0
 14
244.3763723451548
 24
882.6472310952855
 34
0.0
100
AcDbRotatedDimension
  0
DIMENSION
  5
188A6
330
1E
100
AcDbEntity
  8
30
100
AcDbDimension
280
     0
  2
*D9
 10
287.3763723451548
 20
834.5802277517105
 30
0.0
 11
265.8763723451548
 21
841.5802277517105
 31
0.0
 70
    32
 71
     5
 42
42.99999999999997
 73
     0
 74
     0
 75
     0
  3
STANDARD
100
AcDbAlignedDimension
 13
244.3763723451548
 23
877.6472310952852
 33
0.0
 14
287.3763723451548
 24
882.6472310952855
 34
0.0
100
AcDbRotatedDimension
  0
DIMENSION
  5
188A7
330
1E
100
AcDbEntity
  8
30
100
AcDbDimension
280
     0
  2
*D10
 10
307.3763723451548
 20
834.5802277517105
 30
0.0
 11
297.3763723451548
 21
841.5802277517105
 31
0.0
 70
    32
 71
     5
 42
20.0
 73
     0
 74
     0
 75
     0
  3
STANDARD
100
AcDbAlignedDimension
 13
287.3763723451548
 23
863.1472310952855
 33
0.0
 14
307.3763723451548
 24
894.6472310952861
 34
0.0
100
AcDbRotatedDimension
  0
DIMENSION
  5
188A8
330
1E
100
AcDbEntity
  8
30
100
AcDbDimension
280
     0
  2
*D11
 10
343.3763723451548
 20
834.5802277517105
 30
0.0
 11
325.3763723451548
 21
841.5802277517105
 31
0.0
 70
    32
 71
     5
 42
36.0
 73
     0
 74
     0
 75
     0
  3
STANDARD
100
AcDbAlignedDimension
 13
307.3763723451548
 23
882.6472310952855
 33
0.0
 14
343.3763723451548
 24
901.647231095286
 34
0.0
100
AcDbRotatedDimension
  0
LEADER
  5
188A9
330
1E
100
AcDbEntity
  8
30
  6
Continuous
100
AcDbLeader
  3
STANDARD
 76
     3
 10
317.8763723451548
 20
897.6472310952861
 30
0.0
 10
310.3763723451548
 20
860.1472310952855
 30
0.0
 10
340.3763723451548
 20
860.1472310952855
 30
0.0
213
-39.0
223
-4.5
233
0.0
1001
ACAD
1000
DSTYLE
1002
{
1070
     5
1000
OPEN
1070
    77
1070
     0
1070
   147
1040
1.0
1070
   342
1005
3B2
1002
}
  0
DIMENSION
  5
188AA
330
1E
100
AcDbEntity
  8
30
100
AcDbDimension
280
     0
  2
*D12
 10
303.3763723451557
 20
1007.245175724354
 30
0.0
 11
295.3763723451552
 21
1013.745175724354
 31
0.0
 70
    32
 71
     5
 42
16.00000000000091
 73
     0
 74
     0
 75
     0
  3
STANDARD
100
AcDbAlignedDimension
 13
287.3763723451548
 23
975.6472310952856
 33
0.0
 14
303.3763723451557
 24
953.1472310952857
 34
0.0
100
AcDbRotatedDimension
1001
ACAD
1000
DSTYLE
1002
{
1070
   140
1040
7.0
1002
}
  0
LEADER
  5
188AB
330
1E
100
AcDbEntity
  8
30
  6
Continuous
100
AcDbLeader
  3
STANDARD
 76
     3
 10
347.8763723451548
 20
877.6472310952861
 30
0.0
 10
360.3763723451548
 20
858.1472310952856
 30
0.0
 10
439.3763723451548
 20
858.1472310952856
 30
0.0
213
0.0
223
-2.5
233
0.0
1001
ACAD
1000
DSTYLE
1002
{
1070
     5
1000
OPEN
1070
    77
1070
     0
1070
   147
1040
1.0
1070
   342
1005
3B2
1002
}
  0
TEXT
  5
188AC
330
1E
100
AcDbEntity
  8
30
100
AcDbText
 10
362.273932186602
 20
859.9648290150701
 30
0.0
 40
5.0
  1
30 max. conductor width
 41
0.8216911764705923
  7
UGMTXT
100
AcDbText
  0
DIMENSION
  5
188AD
330
1E
100
AcDbEntity
  8
30
  6
Continuous
100
AcDbDimension
280
     0
  2
*D13
 10
362.376372345155
 20
926.647231095286
 30
0.0
 11
362.3763723451548
 21
919.1472310952857
 31
0.0
 70
   160
  1
 
 71
     5
 42
19.99999999999977
 73
     0
 74
     0
 75
     0
  3
STANDARD
100
AcDbAlignedDimension
 13
343.3763723451548
 23
906.6472310952862
 33
0.0
 14
353.3763723451548
 24
926.647231095286
 34
0.0
 50
90.0
100
AcDbRotatedDimension
  0
TEXT
  5
188AE
330
1E
100
AcDbEntity
  8
30
100
AcDbText
 10
370.4744472911016
 20
904.1472310952856
 30
0.0
 40
5.0
  1
20(max.)
 50
90.0
 41
0.8216911764705923
  7
UGMTXT
100
AcDbText
  0
DIMENSION
  5
188B0
330
1E
100
AcDbEntity
  8
30
100
AcDbDimension
280
     0
  2
*D14
 10
599.9545747383217
 20
451.225599687767
 30
0.0
 11
573.9545747383217
 21
458.2255996877671
 31
0.0
 70
    32
 71
     5
 42
52.0
 73
     0
 74
     0
 75
     0
  3
STANDARD
100
AcDbAlignedDimension
 13
547.9545747383216
 23
484.225599687767
 33
0.0
 14
599.9545747383217
 24
484.2255996877674
 34
0.0
100
AcDbRotatedDimension
1001
ACAD
1000
DSTYLE
1002
{
1070
   140
1040
8.0
1002
}
  0
DIMENSION
  5
188B1
330
1E
100
AcDbEntity
  8
30
100
AcDbDimension
280
     0
  2
*D15
 10
603.9545747383217
 20
451.225599687767
 30
0.0
 11
613.6212414049882
 21
458.2255996877671
 31
0.0
 70
    32
 71
     5
 42
4.0
 73
     0
 74
     0
 75
     0
  3
STANDARD
100
AcDbAlignedDimension
 13
599.9545747383217
 23
483.2255996877673
 33
0.0
 14
603.9545747383217
 24
503.2255996877678
 34
0.0
100
AcDbRotatedDimension
1001
ACAD
1000
DSTYLE
1002
{
1070
   172
1070
     1
1070
   140
1040
8.0
1002
}
  0
CIRCLE
  5
188B4
330
1E
100
AcDbEntity
  8
12
  6
DASHDOT
100
AcDbCircle
 10
91.45024998121609
 20
162.3956497082996
 30
0.0
 40
2.75
  0
LINE
  5
188B5
330
1E
100
AcDbEntity
  8
12
  6
DASHDOT
100
AcDbLine
 10
84.70024998121607
 20
162.3956497082996
 30
0.0
 11
98.2002499812161
 21
162.3956497082996
 31
0.0
  0
LINE
  5
188B6
330
1E
100
AcDbEntity
  8
12
  6
DASHDOT
100
AcDbLine
 10
91.45024998121609
 20
169.1456497082996
 30
0.0
 11
91.45024998121609
 21
155.6456497082996
 31
0.0
  0
CIRCLE
  5
188B7
330
1E
100
AcDbEntity
  8
12
100
AcDbCircle
 10
91.45024998121609
 20
302.3956497082996
 30
0.0
 40
2.75
  0
LINE
  5
188B8
330
1E
100
AcDbEntity
  8
12
  6
DASHDOT
100
AcDbLine
 10
84.70024998121607
 20
302.3956497082996
 30
0.0
 11
98.2002499812161
 21
302.3956497082996
 31
0.0
  0
LINE
  5
188B9
330
1E
100
AcDbEntity
  8
12
  6
DASHDOT
100
AcDbLine
 10
91.45024998121609
 20
309.1456497082998
 30
0.0
 11
91.45024998121609
 21
295.6456497082996
 31
0.0
  0
LINE
  5
188BA
330
1E
100
AcDbEntity
  8
12
  6
DASHDOT
100
AcDbLine
 10
161.4502499812161
 20
169.1456497082996
 30
0.0
 11
161.4502499812161
 21
155.6456497082996
 31
0.0
  0
CIRCLE
  5
188BB
330
1E
100
AcDbEntity
  8
12
  6
DASHDOT
100
AcDbCircle
 10
161.4502499812161
 20
162.3956497082996
 30
0.0
 40
2.75
  0
LINE
  5
188BC
330
1E
100
AcDbEntity
  8
12
100
AcDbLine
 10
154.700249981216
 20
162.3956497082996
 30
0.0
 11
168.2002499812161
 21
162.3956497082996
 31
0.0
  0
CIRCLE
  5
188BD
330
1E
100
AcDbEntity
  8
12
100
AcDbCircle
 10
161.4502499812161
 20
302.3956497082996
 30
0.0
 40
2.75
  0
LINE
  5
188BE
330
1E
100
AcDbEntity
  8
12
  6
DASHDOT
100
AcDbLine
 10
161.4502499812161
 20
309.1456497082998
 30
0.0
 11
161.4502499812161
 21
295.6456497082996
 31
0.0
  0
LINE
  5
188BF
330
1E
100
AcDbEntity
  8
12
  6
DASHDOT
100
AcDbLine
 10
154.700249981216
 20
302.3956497082996
 30
0.0
 11
168.2002499812161
 21
302.3956497082996
 31
0.0
  0
DIMENSION
  5
188C0
330
1E
100
AcDbEntity
  8
30
100
AcDbDimension
280
     0
  2
*D16
 10
161.4502499812161
 20
45.61782632624001
 30
0.0
 11
126.4502499812161
 21
52.61782632624001
 31
0.0
 70
    32
 71
     5
 42
69.99999999999999
 73
     0
 74
     0
 75
     0
  3
STANDARD
100
AcDbAlignedDimension
 13
91.45024998121609
 23
162.3956497082996
 33
0.0
 14
161.4502499812161
 24
162.3956497082996
 34
0.0
100
AcDbRotatedDimension
  0
DIMENSION
  5
188C1
330
1E
100
AcDbEntity
  8
30
100
AcDbDimension
280
     0
  2
*D17
 10
263.525645513284
 20
162.3956497082996
 30
0.0
 11
263.5256455132839
 21
232.3956497083004
 31
0.0
 70
   160
 71
     5
 42
140.0
 73
     0
 74
     0
 75
     0
  3
STANDARD
100
AcDbAlignedDimension
 13
168.2002499812161
 23
302.3956497082996
 33
0.0
 14
168.2002499812161
 24
162.3956497082996
 34
0.0
 50
90.0
100
AcDbRotatedDimension
1001
ACAD
1000
DSTYLE
1002
{
1070
   140
1040
8.0
1002
}
  0
LINE
  5
188C2
330
1E
100
AcDbEntity
  8
12
  6
HIDDEN
 48
2.0
100
AcDbLine
 10
222.1600521566779
 20
282.3956497082996
 30
0.0
 11
44.1600521566761
 21
282.3956497082996
 31
0.0
  0
LINE
  5
188C3
330
1E
100
AcDbEntity
  8
12
 48
2.0
100
AcDbLine
 10
224.4502499812161
 20
277.3956497082996
 30
0.0
 11
46.45024998121606
 21
277.3956497082996
 31
0.0
  0
LINE
  5
188C4
330
1E
100
AcDbEntity
  8
12
 48
2.0
100
AcDbLine
 10
224.4502499812161
 20
317.3956497082996
 30
0.0
 11
46.45024998121606
 21
317.3956497082996
 31
0.0
  0
SPLINE
  5
188C5
330
1E
100
AcDbEntity
  8
12
 48
2.0
100
AcDbSpline
210
0.0
220
0.0
230
1.0
 70
     8
 71
     3
 72
     9
 73
     5
 74
     0
 42
0.000000001
 43
0.0000000001
 40
0.0
 40
0.0
 40
0.0
 40
0.0
 40
0.5
 40
1.0
 40
1.0
 40
1.0
 40
1.0
 10
46.45024998121606
 20
317.3956497082996
 30
0.0
 10
39.95024998121607
 20
305.3956497082996
 30
0.0
 10
47.95024998121607
 20
293.3956497082996
 30
0.0
 10
41.95024998121605
 20
283.3956497082996
 30
0.0
 10
46.45024998121606
 20
277.3956497082996
 30
0.0
  0
SPLINE
  5
188C6
330
1E
100
AcDbEntity
  8
12
 48
2.0
100
AcDbSpline
210
0.0
220
0.0
230
1.0
 70
     8
 71
     3
 72
     9
 73
     5
 74
     0
 42
0.000000001
 43
0.0000000001
 40
0.0
 40
0.0
 40
0.0
 40
0.0
 40
0.5
 40
1.0
 40
1.0
 40
1.0
 40
1.0
 10
224.4502499812161
 20
317.3956497082996
 30
0.0
 10
217.9502499812161
 20
305.3956497082996
 30
0.0
 10
225.9502499812161
 20
293.3956497082996
 30
0.0
 10
219.9502499812161
 20
283.3956497082996
 30
0.0
 10
224.4502499812161
 20
277.3956497082996
 30
0.0
  0
LINE
  5
188C7
330
1E
100
AcDbEntity
  8
12
  6
HIDDEN
 48
2.0
100
AcDbLine
 10
44.16835655475916
 20
182.3956497082996
 30
0.0
 11
208.1683565547592
 21
182.3956497082996
 31
0.0
  0
LINE
  5
188C8
330
1E
100
AcDbEntity
  8
12
 48
2.0
100
AcDbLine
 10
46.45024998121606
 20
147.3956497082996
 30
0.0
 11
210.4502499812161
 21
147.3956497082996
 31
0.0
  0
LINE
  5
188C9
330
1E
100
AcDbEntity
  8
12
 48
2.0
100
AcDbLine
 10
46.45024998121606
 20
187.3956497082996
 30
0.0
 11
210.4502499812161
 21
187.3956497082996
 31
0.0
  0
SPLINE
  5
188CA
330
1E
100
AcDbEntity
  8
12
 48
2.0
100
AcDbSpline
210
0.0
220
0.0
230
1.0
 70
     8
 71
     3
 72
     9
 73
     5
 74
     0
 42
0.000000001
 43
0.0000000001
 40
0.0
 40
0.0
 40
0.0
 40
0.0
 40
0.5
 40
1.0
 40
1.0
 40
1.0
 40
1.0
 10
210.4502499812161
 20
187.3956497082996
 30
0.0
 10
203.9502499812161
 20
175.3956497082996
 30
0.0
 10
211.9502499812161
 20
165.3956497082996
 30
0.0
 10
205.9502499812161
 20
157.3956497082996
 30
0.0
 10
210.4502499812161
 20
147.3956497082996
 30
0.0
  0
SPLINE
  5
188CB
330
1E
100
AcDbEntity
  8
12
 48
2.0
100
AcDbSpline
210
0.0
220
0.0
230
1.0
 70
     8
 71
     3
 72
     9
 73
     5
 74
     0
 42
0.000000001
 43
0.0000000001
 40
0.0
 40
0.0
 40
0.0
 40
0.0
 40
0.5
 40
1.0
 40
1.0
 40
1.0
 40
1.0
 10
46.45024998121606
 20
187.3956497082996
 30
0.0
 10
39.95024998121607
 20
175.3956497082996
 30
0.0
 10
47.95024998121607
 20
165.3956497082996
 30
0.0
 10
41.95024998121605
 20
157.3956497082996
 30
0.0
 10
46.45024998121606
 20
147.3956497082996
 30
0.0
  0
INSERT
  5
188CC
330
1E
100
AcDbEntity
  8
30
100
AcDbBlockReference
  2
*U4
 10
-1094.821201613558
 20
-97.26615830064076
 30
0.0
 41
2.5
 42
2.5
 43
2.5
  0
TEXT
  5
188CD
330
1E
100
AcDbEntity
  8
30
100
AcDbText
 10
215.7282353640949
 20
92.48404508321288
 30
0.0
 40
6.25
  1
Mounting plate
 41
0.7125304878048843
  7
UGMTXT
100
AcDbText
  0
LINE
  5
188CE
330
1E
100
AcDbEntity
  8
18
 48
2.0
100
AcDbLine
 10
350.2568954307471
 20
370.5977464938702
 30
0.0
 11
350.2568954307471
 21
390.0977464938703
 31
0.0
  0
LINE
  5
188CF
330
1E
100
AcDbEntity
  8
18
 48
2.0
100
AcDbLine
 10
350.2568954307471
 20
390.0977464938703
 30
0.0
 11
335.7568954307471
 21
390.0977464938703
 31
0.0
  0
LINE
  5
188D0
330
1E
100
AcDbEntity
  8
18
 48
2.0
100
AcDbLine
 10
335.7568954307471
 20
390.0977464938703
 30
0.0
 11
335.7568954307471
 21
370.5977464938702
 31
0.0
  0
LINE
  5
188D1
330
1E
100
AcDbEntity
  8
18
 48
2.0
100
AcDbLine
 10
335.7568954307471
 20
370.5977464938702
 30
0.0
 11
295.5068954307471
 21
370.5977464938702
 31
0.0
  0
LINE
  5
188D2
330
1E
100
AcDbEntity
  8
18
 48
2.0
100
AcDbLine
 10
295.5068954307471
 20
370.5977464938702
 30
0.0
 11
295.5068954307471
 21
94.59774649387009
 31
0.0
  0
LINE
  5
188D3
330
1E
100
AcDbEntity
  8
18
 48
2.0
100
AcDbLine
 10
295.5068954307471
 20
94.59774649387009
 30
0.0
 11
335.7568954307471
 21
94.59774649387009
 31
0.0
  0
LINE
  5
188D4
330
1E
100
AcDbEntity
  8
18
 48
2.0
100
AcDbLine
 10
335.7568954307471
 20
94.59774649387009
 30
0.0
 11
335.7568954307471
 21
75.0977464938702
 31
0.0
  0
LINE
  5
188D5
330
1E
100
AcDbEntity
  8
18
 48
2.0
100
AcDbLine
 10
335.7568954307471
 20
75.0977464938702
 30
0.0
 11
350.2568954307471
 21
75.0977464938702
 31
0.0
  0
LINE
  5
188D6
330
1E
100
AcDbEntity
  8
18
 48
2.0
100
AcDbLine
 10
350.2568954307471
 20
75.0977464938702
 30
0.0
 11
350.2568954307471
 21
94.59774649387009
 31
0.0
  0
LINE
  5
188D7
330
1E
100
AcDbEntity
  8
18
 48
2.0
100
AcDbLine
 10
350.2568954307471
 20
94.59774649387009
 30
0.0
 11
380.7568954307471
 21
94.59774649387009
 31
0.0
  0
LINE
  5
188D8
330
1E
100
AcDbEntity
  8
18
 48
2.0
100
AcDbLine
 10
380.7568954307471
 20
94.59774649387009
 30
0.0
 11
380.7568954307471
 21
75.0977464938702
 31
0.0
  0
LINE
  5
188D9
330
1E
100
AcDbEntity
  8
18
 48
2.0
100
AcDbLine
 10
380.7568954307471
 20
75.0977464938702
 30
0.0
 11
395.2568954307471
 21
75.0977464938702
 31
0.0
  0
LINE
  5
188DA
330
1E
100
AcDbEntity
  8
18
 48
2.0
100
AcDbLine
 10
395.2568954307471
 20
75.0977464938702
 30
0.0
 11
395.2568954307471
 21
94.59774649387009
 31
0.0
  0
LINE
  5
188DB
330
1E
100
AcDbEntity
  8
18
 48
2.0
100
AcDbLine
 10
395.2568954307471
 20
94.59774649387009
 30
0.0
 11
435.5068954307471
 21
94.59774649387009
 31
0.0
  0
LINE
  5
188DC
330
1E
100
AcDbEntity
  8
18
 48
2.0
100
AcDbLine
 10
435.5068954307471
 20
94.59774649387009
 30
0.0
 11
435.5068954307471
 21
370.5977464938702
 31
0.0
  0
LINE
  5
188DD
330
1E
100
AcDbEntity
  8
18
 48
2.0
100
AcDbLine
 10
435.5068954307471
 20
370.5977464938702
 30
0.0
 11
395.2568954307471
 21
370.5977464938702
 31
0.0
  0
LINE
  5
188DE
330
1E
100
AcDbEntity
  8
18
 48
2.0
100
AcDbLine
 10
395.2568954307471
 20
370.5977464938702
 30
0.0
 11
395.2568954307471
 21
390.0977464938703
 31
0.0
  0
LINE
  5
188DF
330
1E
100
AcDbEntity
  8
18
 48
2.0
100
AcDbLine
 10
395.2568954307471
 20
390.0977464938703
 30
0.0
 11
380.7568954307471
 21
390.0977464938703
 31
0.0
  0
LINE
  5
188E0
330
1E
100
AcDbEntity
  8
18
 48
2.0
100
AcDbLine
 10
380.7568954307471
 20
390.0977464938703
 30
0.0
 11
380.7568954307471
 21
370.5977464938702
 31
0.0
  0
LINE
  5
188E1
330
1E
100
AcDbEntity
  8
18
 48
2.0
100
AcDbLine
 10
380.7568954307471
 20
370.5977464938702
 30
0.0
 11
350.2568954307471
 21
370.5977464938702
 31
0.0
  0
DIMENSION
  5
188E3
330
1E
100
AcDbEntity
  8
30
100
AcDbDimension
280
     0
  2
*D18
 10
462.0202015338461
 20
186.5977464938701
 30
0.0
 11
462.0202015338461
 21
232.5977464938702
 31
0.0
 70
   160
  1
<>
 71
     2
 42
92.0
 73
     0
 74
     0
 75
     0
  3
STANDARD
100
AcDbAlignedDimension
 13
390.0068954307471
 23
278.5977464938702
 33
0.0
 14
390.0068954307471
 24
186.5977464938702
 34
0.0
 50
90.0
100
AcDbRotatedDimension
1001
ACAD
1000
DSTYLE
1002
{
1070
   140
1040
8.0
1002
}
  0
LINE
  5
188E4
330
1E
100
AcDbEntity
  8
16
 48
2.0
100
AcDbLine
 10
365.5068954307471
 20
393.6089230730567
 30
0.0
 11
365.5068954307471
 21
69.90170142747229
 31
0.0
  0
LINE
  5
188E5
330
1E
100
AcDbEntity
  8
16
 48
2.0
100
AcDbLine
 10
285.7894314727473
 20
232.5977464938702
 30
0.0
 11
442.2218935642231
 21
232.5977464938702
 31
0.0
  0
LWPOLYLINE
  5
188E6
330
1E
100
AcDbEntity
  8
11
 48
2.0
100
AcDbPolyline
 90
        8
 70
     1
 43
0.0
 10
422.5068954307471
 20
186.5977464043702
 42
0.4142135623730951
 10
424.5068954307471
 20
188.5977464043702
 10
424.5068954307471
 20
276.5977464043704
 42
0.4142135623730951
 10
422.5068954307471
 20
278.5977464043703
 10
308.5068954307471
 20
278.5977464043703
 42
0.4142135623730951
 10
306.5068954307471
 20
276.5977464043704
 10
306.5068954307471
 20
188.5977464043702
 42
0.4142135623730951
 10
308.5068954307471
 20
186.5977464043702
  0
LWPOLYLINE
  5
188E7
330
1E
100
AcDbEntity
  8
10
100
AcDbPolyline
 90
        6
 70
     0
 43
0.0
 10
96.70024929571631
 20
767.1512753063052
 10
96.70024929571631
 20
780.6519528918053
 42
-0.4142135623730951
 10
97.70024929571629
 20
781.6519528918052
 10
110.2002498102165
 20
781.6519528918052
 42
-0.4142135623730951
 10
111.2002498102165
 20
780.6519528918053
 10
111.2002498102165
 20
767.1512753063052
  0
CIRCLE
  5
188E8
330
1E
100
AcDbEntity
  8
10
  6
CONTINOUS
370
    30
100
AcDbCircle
 10
103.950249981216
 20
774.1519540558051
 30
0.0
 40
3.275000000000004
  0
CIRCLE
  5
188E9
330
1E
100
AcDbEntity
  8
10
  6
CONTINOUS
370
    30
100
AcDbCircle
 10
148.9502499812161
 20
774.1519540558051
 30
0.0
 40
3.275000000000004
  0
LINE
  5
188EA
330
1E
100
AcDbEntity
  8
10
  6
CONTINOUS
100
AcDbLine
 10
145.5246303792164
 20
649.0063756993053
 30
0.0
 11
143.4502509052163
 21
649.0063756993053
 31
0.0
  0
LINE
  5
188EB
330
1E
100
AcDbEntity
  8
10
  6
CONTINOUS
100
AcDbLine
 10
109.450249057716
 20
649.0063756993053
 30
0.0
 11
107.3758695837168
 21
649.0063756993053
 31
0.0
  0
ELLIPSE
  5
188EC
330
1E
100
AcDbEntity
  8
10
  6
CONTINOUS
100
AcDbEllipse
 10
126.3289604872161
 20
624.1512686303052
 30
0.0
 11
0.0
 21
1100.0
 31
0.0
210
0.0
220
0.0
230
1.0
 40
0.0174550649
 41
4.690677605249396
 42
4.734986454741448
  0
ELLIPSE
  5
188ED
330
1E
100
AcDbEntity
  8
10
  6
CONTINOUS
100
AcDbEllipse
 10
126.5715394757162
 20
624.1512686303052
 30
0.0
 11
0.0
 21
1100.0
 31
0.0
210
0.0
220
0.0
230
1.0
 40
0.0174550649
 41
1.548198852438138
 42
1.59250770193019
  0
LINE
  5
188EE
330
1E
100
AcDbEntity
  8
10
  6
CONTINOUS
100
AcDbLine
 10
145.5250066337157
 20
600.2706323108051
 30
0.0
 11
107.3754933292166
 21
600.2706323108051
 31
0.0
  0
LINE
  5
188EF
330
1E
100
AcDbEntity
  8
10
  6
CONTINOUS
100
AcDbLine
 10
196.4502495282161
 20
716.7769462163049
 30
0.0
 11
56.40025222271635
 21
716.7769462163049
 31
0.0
  0
LINE
  5
188F0
330
1E
100
AcDbEntity
  8
10
100
AcDbLine
 10
196.4502495282161
 20
754.1512638623053
 30
0.0
 11
56.40025222271635
 21
754.1512638623053
 31
0.0
  0
LINE
  5
188F1
330
1E
100
AcDbEntity
  8
10
  6
CONTINOUS
100
AcDbLine
 10
109.450249057716
 20
644.1008240273052
 30
0.0
 11
143.4502509052163
 21
644.1008240273052
 31
0.0
  0
LINE
  5
188F2
330
1E
100
AcDbEntity
  8
10
  6
CONTINOUS
100
AcDbLine
 10
109.450249057716
 20
655.6919344058051
 30
0.0
 11
143.4502509052163
 21
655.6919344058051
 31
0.0
  0
LINE
  5
188F3
330
1E
100
AcDbEntity
  8
10
  6
CONTINOUS
100
AcDbLine
 10
143.4502509052163
 20
655.6919344058051
 30
0.0
 11
143.4502509052163
 21
644.1008240273052
 31
0.0
  0
LINE
  5
188F4
330
1E
100
AcDbEntity
  8
10
  6
CONTINOUS
100
AcDbLine
 10
109.450249057716
 20
655.6919344058051
 30
0.0
 11
109.450249057716
 21
644.1008240273052
 31
0.0
  0
LINE
  5
188F5
330
1E
100
AcDbEntity
  8
0
  6
SLD-実線
 62
     7
370
    30
100
AcDbLine
 10
109.450249057716
 20
644.1008240273052
 30
0.0
 11
109.450249057716
 21
640.6541835808052
 31
0.0
  0
LINE
  5
188F6
330
1E
100
AcDbEntity
  8
0
  6
SLD-実線
 62
     7
370
    30
100
AcDbLine
 10
143.4502509052163
 20
640.6541835808052
 30
0.0
 11
143.4502509052163
 21
640.1299737683054
 31
0.0
  0
LINE
  5
188F7
330
1E
100
AcDbEntity
  8
0
  6
SLD-実線
 62
     7
370
    30
100
AcDbLine
 10
109.450249057716
 20
640.1299737683054
 30
0.0
 11
109.450249057716
 21
640.6541835808052
 31
0.0
  0
LINE
  5
188F8
330
1E
100
AcDbEntity
  8
0
  6
SLD-実線
 62
     7
370
    30
100
AcDbLine
 10
143.4502509052163
 20
640.1299737683054
 30
0.0
 11
143.4502509052163
 21
636.8826316958052
 31
0.0
  0
LINE
  5
188F9
330
1E
100
AcDbEntity
  8
0
  6
SLD-実線
 62
     7
370
    30
100
AcDbLine
 10
109.450249057716
 20
640.1299737683054
 30
0.0
 11
109.450249057716
 21
636.8826316958052
 31
0.0
  0
LINE
  5
188FA
330
1E
100
AcDbEntity
  8
0
  6
SLD-実線
 62
     7
370
    30
100
AcDbLine
 10
143.4502509052163
 20
636.8826316958052
 30
0.0
 11
143.4502509052163
 21
636.2076416903049
 31
0.0
  0
LINE
  5
188FB
330
1E
100
AcDbEntity
  8
0
  6
SLD-実線
 62
     7
370
    30
100
AcDbLine
 10
109.450249057716
 20
636.2076416903049
 30
0.0
 11
109.450249057716
 21
636.8826316958052
 31
0.0
  0
LINE
  5
188FC
330
1E
100
AcDbEntity
  8
0
  6
SLD-実線
 62
     7
370
    30
100
AcDbLine
 10
109.450249057716
 20
635.9485216728054
 30
0.0
 11
143.4502509052163
 21
635.9485216728054
 31
0.0
  0
LINE
  5
188FD
330
1E
100
AcDbEntity
  8
0
  6
SLD-実線
 62
     7
370
    30
100
AcDbLine
 10
143.4502509052163
 20
636.2076416903049
 30
0.0
 11
143.4502509052163
 21
635.9485216728054
 31
0.0
  0
LINE
  5
188FE
330
1E
100
AcDbEntity
  8
0
  6
SLD-実線
 62
     7
370
    30
100
AcDbLine
 10
109.450249057716
 20
636.2076416903049
 30
0.0
 11
109.450249057716
 21
635.9485216728054
 31
0.0
  0
LINE
  5
188FF
330
1E
100
AcDbEntity
  8
0
  6
SLD-実線
 62
     7
370
    30
100
AcDbLine
 10
140.7662444377165
 20
612.0585888913052
 30
0.0
 11
112.1342555247165
 21
612.0585888913052
 31
0.0
  0
LINE
  5
18900
330
1E
100
AcDbEntity
  8
0
  6
SLD-実線
 62
     7
370
    30
100
AcDbLine
 10
112.1379761587159
 20
617.3677282698052
 30
0.0
 11
112.1502500587166
 21
617.3974062608053
 31
0.0
  0
LINE
  5
18901
330
1E
100
AcDbEntity
  8
0
  6
SLD-実線
 62
     7
370
    30
100
AcDbLine
 10
112.1342555247165
 20
612.0585888913052
 30
0.0
 11
112.1379761587159
 21
617.3677282698052
 31
0.0
  0
LINE
  5
18902
330
1E
100
AcDbEntity
  8
0
  6
SLD-実線
 62
     7
370
    30
100
AcDbLine
 10
140.7625238042164
 20
617.3677282698052
 30
0.0
 11
140.7662444377165
 21
612.0585888913052
 31
0.0
  0
LINE
  5
18903
330
1E
100
AcDbEntity
  8
0
  6
SLD-実線
 62
     7
370
    30
100
AcDbLine
 10
140.7502499037164
 20
617.3974062608053
 30
0.0
 11
140.7625238042164
 21
617.3677282698052
 31
0.0
  0
SPLINE
  5
18904
330
1E
100
AcDbEntity
  8
0
  6
SLD-実線
 62
     7
370
    30
100
AcDbSpline
210
0.0
220
0.0
230
1.0
 70
     8
 71
     3
 72
     9
 73
     5
 74
     0
 42
0.000000001
 43
0.0000000001
 40
0.0
 40
0.0
 40
0.0
 40
0.0
 40
0.4468629695240698
 40
1.0
 40
1.0
 40
1.0
 40
1.0
 10
112.132775653391
 20
635.9485216729382
 30
0.0
 10
112.1326848692924
 20
632.3916145411427
 30
0.0
 10
112.1324817105942
 20
624.4318877918364
 30
0.0
 10
112.1336237955056
 20
616.4652379357292
 30
0.0
 10
112.1342555249612
 20
612.0585888914802
 30
0.0
  0
SPLINE
  5
18905
330
1E
100
AcDbEntity
  8
0
  6
SLD-実線
 62
     7
370
    30
100
AcDbSpline
210
0.0
220
0.0
230
1.0
 70
     8
 71
     3
 72
    10
 73
     6
 74
     0
 42
0.000000001
 43
0.0000000001
 40
0.0
 40
0.0
 40
0.0
 40
0.0
 40
0.0558460472303805
 40
0.6089224971503443
 40
1.0
 40
1.0
 40
1.0
 40
1.0
 10
140.7662444377829
 20
612.0585888914802
 30
0.0
 10
140.7664802226245
 20
612.5025399260456
 30
0.0
 10
140.7690511242763
 20
617.3432007424642
 30
0.0
 10
140.7673606054759
 20
625.3283227392572
 30
0.0
 10
140.7676197593391
 20
632.8379591848605
 30
0.0
 10
140.7677271033208
 20
635.9485216729382
 30
0.0
  0
SPLINE
  5
18906
330
1E
100
AcDbEntity
  8
0
  6
SLD-実線
 62
     7
370
    30
100
AcDbSpline
210
0.0
220
0.0
230
1.0
 70
     8
 71
     3
 72
     9
 73
     5
 74
     0
 42
0.000000001
 43
0.0000000001
 40
0.0
 40
0.0
 40
0.0
 40
0.0
 40
0.7124703380928576
 40
1.0
 40
1.0
 40
1.0
 40
1.0
 10
112.1502500588585
 20
617.3974062606731
 30
0.0
 10
112.1502457215192
 20
621.8095302794993
 30
0.0
 10
112.1502396337719
 20
628.0022428500139
 30
0.0
 10
112.1502426673551
 20
634.1739677104367
 30
0.0
 10
112.1502435396005
 20
635.9485216729382
 30
0.0
  0
LINE
  5
18907
330
1E
100
AcDbEntity
  8
10
  6
CONTINOUS
100
AcDbLine
 10
100.450249444716
 20
579.1512668423052
 30
0.0
 11
100.450249444716
 21
669.1512686303052
 31
0.0
  0
LINE
  5
18908
330
1E
100
AcDbEntity
  8
10
  6
CONTINOUS
100
AcDbLine
 10
152.4502505177161
 20
669.1512686303052
 30
0.0
 11
152.4502505177161
 21
579.1512668423052
 31
0.0
  0
ARC
  5
18909
330
1E
100
AcDbEntity
  8
0
  6
SLD-実線
 62
     7
370
    30
100
AcDbCircle
 10
69.65024998121589
 20
668.1512686303054
 30
0.0
 40
1.000000000000085
100
AcDbArc
 50
90.0
 51
180.0
  0
ARC
  5
1890A
330
1E
100
AcDbEntity
  8
0
  6
SLD-実線
 62
     7
370
    30
100
AcDbCircle
 10
183.2502499812162
 20
580.1512686303054
 30
0.0
 40
0.9999999999999428
100
AcDbArc
 50
270.0
 51
0.0
  0
ARC
  5
1890B
330
1E
100
AcDbEntity
  8
0
  6
SLD-実線
 62
     7
370
    30
100
AcDbCircle
 10
183.2502499812162
 20
668.1512686303054
 30
0.0
 40
0.9999999999999428
100
AcDbArc
 50
0.0
 51
90.0
  0
LINE
  5
1890C
330
1E
100
AcDbEntity
  8
10
  6
CONTINOUS
100
AcDbLine
 10
68.65025131071615
 20
668.1512686303054
 30
0.0
 11
68.65025131071615
 21
580.1512668423051
 31
0.0
  0
LINE
  5
1890D
330
1E
100
AcDbEntity
  8
0
  6
SLD-実線
 62
     7
370
    30
100
AcDbLine
 10
163.7815740522164
 20
579.1512668423052
 30
0.0
 11
183.2502503507166
 21
579.1512668423052
 31
0.0
  0
LINE
  5
1890E
330
1E
100
AcDbEntity
  8
10
  6
CONTINOUS
100
AcDbLine
 10
184.2502486522162
 20
580.1512668423051
 30
0.0
 11
184.2502486522162
 21
668.1512686303054
 31
0.0
  0
ARC
  5
1890F
330
1E
100
AcDbEntity
  8
10
  6
CONTINOUS
100
AcDbCircle
 10
183.2502486522162
 20
580.1512668423051
 30
0.0
 40
1.0
100
AcDbArc
 50
270.0
 51
0.0
  0
ARC
  5
18910
330
1E
100
AcDbEntity
  8
10
  6
CONTINOUS
100
AcDbCircle
 10
183.2502486522162
 20
668.1512686303054
 30
0.0
 40
1.0
100
AcDbArc
 50
0.0
 51
90.0
  0
ARC
  5
18911
330
1E
100
AcDbEntity
  8
10
  6
CONTINOUS
100
AcDbCircle
 10
183.2502486522162
 20
580.1512668423051
 30
0.0
 40
1.0
100
AcDbArc
 50
270.0
 51
0.0
  0
LINE
  5
18912
330
1E
100
AcDbEntity
  8
10
  6
CONTINOUS
100
AcDbLine
 10
69.65025131071616
 20
579.1512668423052
 30
0.0
 11
183.2502486522162
 21
579.1512668423052
 31
0.0
  0
ARC
  5
18913
330
1E
100
AcDbEntity
  8
10
  6
CONTINOUS
100
AcDbCircle
 10
69.65025131071616
 20
580.1512668423051
 30
0.0
 40
1.0
100
AcDbArc
 50
180.0
 51
270.0
  0
LINE
  5
18914
330
1E
100
AcDbEntity
  8
0
  6
SLD-実線
 62
     7
370
    30
100
AcDbLine
 10
183.2502503507166
 20
669.1512704188054
 30
0.0
 11
152.4502505177161
 21
669.1512704188054
 31
0.0
  0
LINE
  5
18915
330
1E
100
AcDbEntity
  8
0
  6
SLD-実線
 62
     7
370
    30
100
AcDbLine
 10
100.450249444716
 20
669.1512704188054
 30
0.0
 11
69.65024961171639
 21
669.1512704188054
 31
0.0
  0
LINE
  5
18916
330
1E
100
AcDbEntity
  8
10
  6
CONTINOUS
100
AcDbLine
 10
69.65025131071616
 20
669.1512686303052
 30
0.0
 11
183.2502486522162
 21
669.1512686303052
 31
0.0
  0
ARC
  5
18917
330
1E
100
AcDbEntity
  8
10
  6
CONTINOUS
100
AcDbCircle
 10
69.65025131071616
 20
668.1512686303054
 30
0.0
 40
1.0
100
AcDbArc
 50
90.0
 51
180.0
  0
INSERT
  5
1891C
330
1E
100
AcDbEntity
  8
16
100
AcDbBlockReference
  2
SW_CENTERMARKSYMBOL_28
 10
171.450249981216
 20
738.1512686303055
 30
0.0
 41
5.0
 42
5.0
 43
5.0
  0
INSERT
  5
1891D
330
1E
100
AcDbEntity
  8
16
100
AcDbBlockReference
  2
SW_CENTERMARKSYMBOL_36
 10
148.9502499812161
 20
774.1512686303051
 30
0.0
 41
5.0
 42
5.0
 43
5.0
  0
INSERT
  5
1891E
330
1E
100
AcDbEntity
  8
16
100
AcDbBlockReference
  2
SW_CENTERMARKSYMBOL_37
 10
103.950249981216
 20
774.1512686303051
 30
0.0
 41
5.0
 42
5.0
 43
5.0
  0
LWPOLYLINE
  5
1891F
330
1E
100
AcDbEntity
  8
10
100
AcDbPolyline
 90
        6
 70
     0
 43
0.0
 10
141.7002492957163
 20
767.1512753063052
 10
141.7002492957163
 20
780.6519528918053
 42
-0.4142135623730951
 10
142.7002492957162
 20
781.6519528918052
 10
155.2002498102165
 20
781.6519528918052
 42
-0.4142135623730951
 10
156.2002498102165
 20
780.6519528918053
 10
156.2002498102165
 20
767.1512753063052
  0
LINE
  5
18920
330
1E
100
AcDbEntity
  8
10
  6
CONTINOUS
100
AcDbLine
 10
196.4502495282161
 20
531.5255910443057
 30
0.0
 11
56.40025222271635
 21
531.5255910443057
 31
0.0
  0
LINE
  5
18921
330
1E
100
AcDbEntity
  8
12
  6
DASHED
100
AcDbLine
 10
157.1928293723385
 20
731.1512686303051
 30
0.0
 11
141.1928293723385
 21
731.1512686303051
 31
0.0
  0
LINE
  5
18922
330
1E
100
AcDbEntity
  8
12
  6
DASHED
100
AcDbLine
 10
148.9502499812161
 20
723.1512686303051
 30
0.0
 11
148.9502499812161
 21
739.1512686303054
 31
0.0
  0
LINE
  5
18923
330
1E
100
AcDbEntity
  8
12
  6
DASHED
100
AcDbLine
 10
140.9502499812161
 20
731.1512686303051
 30
0.0
 11
156.950249981216
 21
731.1512686303051
 31
0.0
  0
CIRCLE
  5
18924
330
1E
100
AcDbEntity
  8
12
100
AcDbCircle
 10
148.9502499812161
 20
731.1512686303051
 30
0.0
 40
4.0
  0
LINE
  5
18925
330
1E
100
AcDbEntity
  8
12
  6
DASHED
100
AcDbLine
 10
112.1928293723385
 20
731.1512686303051
 30
0.0
 11
96.19282937233856
 21
731.1512686303051
 31
0.0
  0
LINE
  5
18926
330
1E
100
AcDbEntity
  8
12
  6
DASHED
100
AcDbLine
 10
103.950249981216
 20
723.1512686303051
 30
0.0
 11
103.950249981216
 21
739.1512686303054
 31
0.0
  0
LINE
  5
18927
330
1E
100
AcDbEntity
  8
12
  6
DASHED
100
AcDbLine
 10
95.95024998121608
 20
731.1512686303051
 30
0.0
 11
111.950249981216
 21
731.1512686303051
 31
0.0
  0
CIRCLE
  5
18928
330
1E
100
AcDbEntity
  8
12
100
AcDbCircle
 10
103.9076705900936
 20
731.1512686303051
 30
0.0
 40
4.0
  0
ELLIPSE
  5
18929
330
1E
100
AcDbEntity
  8
10
100
AcDbEllipse
 10
159.9488776352164
 20
752.6623744843052
 30
0.0
 11
-0.950206714654343
 21
-0.3164782046944481
 31
0.0
210
0.0
220
0.0
230
1.0
 40
0.9984778550999999
 41
2.820542303065845
 42
4.390425241354074
  0
ELLIPSE
  5
1892A
330
1E
100
AcDbEntity
  8
10
100
AcDbEllipse
 10
182.9516223272167
 20
752.6623744843052
 30
0.0
 11
0.950206714654343
 21
-0.3164782046944481
 31
0.0
210
0.0
220
0.0
230
1.0
 40
0.9984778550999999
 41
1.892760065825495
 42
3.462643004113779
  0
ARC
  5
1892B
330
1E
100
AcDbEntity
  8
10
100
AcDbCircle
 10
161.9502499812161
 20
728.6512686303055
 30
0.0
 40
1.000000000000085
100
AcDbArc
 50
180.0
 51
270.0
  0
ARC
  5
1892C
330
1E
100
AcDbEntity
  8
10
100
AcDbCircle
 10
180.950249981216
 20
728.6512686303055
 30
0.0
 40
1.000000000000085
100
AcDbArc
 50
270.0
 51
0.0
  0
LINE
  5
1892D
330
1E
100
AcDbEntity
  8
10
100
AcDbLine
 10
160.9502471797168
 20
728.6512717893056
 30
0.0
 11
160.9502471797168
 21
752.6632935098055
 31
0.0
  0
LINE
  5
1892E
330
1E
100
AcDbEntity
  8
10
100
AcDbLine
 10
180.950250458216
 20
727.6512697628052
 30
0.0
 11
161.9502492067167
 21
727.6512697628052
 31
0.0
  0
LINE
  5
1892F
330
1E
100
AcDbEntity
  8
10
100
AcDbLine
 10
181.9502524847157
 20
752.6632935098055
 30
0.0
 11
181.9502524847157
 21
728.6512717893056
 31
0.0
  0
LINE
  5
18930
330
1E
100
AcDbEntity
  8
10
100
AcDbLine
 10
162.4502502197165
 20
750.6512642198052
 30
0.0
 11
160.9502471797168
 21
749.1512686303051
 31
0.0
  0
LINE
  5
18931
330
1E
100
AcDbEntity
  8
10
100
AcDbLine
 10
162.4502502197165
 20
750.6512642198052
 30
0.0
 11
180.450249444716
 21
750.6512642198052
 31
0.0
  0
LINE
  5
18932
330
1E
100
AcDbEntity
  8
10
100
AcDbLine
 10
180.450249444716
 20
750.6512642198052
 30
0.0
 11
181.9502524847157
 21
749.1512686303051
 31
0.0
  0
ELLIPSE
  5
18933
330
1E
100
AcDbEntity
  8
10
100
AcDbEllipse
 10
114.9488776352163
 20
752.6623744843052
 30
0.0
 11
-0.950206714654343
 21
-0.3164782046944481
 31
0.0
210
0.0
220
0.0
230
1.0
 40
0.9984778550999999
 41
2.820542303065845
 42
4.390425241354074
  0
ELLIPSE
  5
18934
330
1E
100
AcDbEntity
  8
10
100
AcDbEllipse
 10
137.9516223272167
 20
752.6623744843052
 30
0.0
 11
0.950206714654343
 21
-0.3164782046944481
 31
0.0
210
0.0
220
0.0
230
1.0
 40
0.9984778550999999
 41
1.892760065825495
 42
3.462643004113779
  0
ARC
  5
18935
330
1E
100
AcDbEntity
  8
10
100
AcDbCircle
 10
116.9502499812161
 20
728.6512686303055
 30
0.0
 40
1.000000000000085
100
AcDbArc
 50
180.0
 51
270.0
  0
ARC
  5
18936
330
1E
100
AcDbEntity
  8
10
100
AcDbCircle
 10
135.950249981216
 20
728.6512686303055
 30
0.0
 40
1.000000000000085
100
AcDbArc
 50
270.0
 51
0.0
  0
LINE
  5
18937
330
1E
100
AcDbEntity
  8
10
100
AcDbLine
 10
115.9502471797168
 20
728.6512717893056
 30
0.0
 11
115.9502471797168
 21
752.6632935098055
 31
0.0
  0
LINE
  5
18938
330
1E
100
AcDbEntity
  8
10
100
AcDbLine
 10
135.950250458216
 20
727.6512697628052
 30
0.0
 11
116.9502492067167
 21
727.6512697628052
 31
0.0
  0
LINE
  5
18939
330
1E
100
AcDbEntity
  8
10
100
AcDbLine
 10
136.9502524847157
 20
752.6632935098055
 30
0.0
 11
136.9502524847157
 21
728.6512717893056
 31
0.0
  0
LINE
  5
1893A
330
1E
100
AcDbEntity
  8
0
  6
SLD-実線
 62
     7
370
    30
100
AcDbLine
 10
143.4633041732158
 20
753.6625206763052
 30
0.0
 11
143.4633414262161
 21
753.6625206763052
 31
0.0
  0
LINE
  5
1893B
330
1E
100
AcDbEntity
  8
10
100
AcDbLine
 10
159.9497922770942
 20
753.6625268123096
 30
0.0
 11
137.9507089967164
 21
753.6625206763052
 31
0.0
  0
LINE
  5
1893C
330
1E
100
AcDbEntity
  8
10
100
AcDbLine
 10
117.4502502197165
 20
750.6512642198052
 30
0.0
 11
115.9502471797168
 21
749.1512686303051
 31
0.0
  0
LINE
  5
1893D
330
1E
100
AcDbEntity
  8
10
100
AcDbLine
 10
117.4502502197165
 20
750.6512642198052
 30
0.0
 11
135.450249444716
 21
750.6512642198052
 31
0.0
  0
LINE
  5
1893E
330
1E
100
AcDbEntity
  8
10
100
AcDbLine
 10
135.450249444716
 20
750.6512642198052
 30
0.0
 11
136.9502524847157
 21
749.1512686303051
 31
0.0
  0
ELLIPSE
  5
1893F
330
1E
100
AcDbEntity
  8
10
100
AcDbEllipse
 10
69.94887770996683
 20
752.6623744843052
 30
0.0
 11
-0.950206714654343
 21
-0.3164782046944481
 31
0.0
210
0.0
220
0.0
230
1.0
 40
0.9984778550999999
 41
2.820542303065845
 42
4.390425241354074
  0
ELLIPSE
  5
18940
330
1E
100
AcDbEntity
  8
10
100
AcDbEllipse
 10
92.95162240196621
 20
752.6623744843052
 30
0.0
 11
0.950206714654343
 21
-0.3164782046944481
 31
0.0
210
0.0
220
0.0
230
1.0
 40
0.9984778550999999
 41
1.892760065825495
 42
3.462643004113779
  0
ARC
  5
18941
330
1E
100
AcDbEntity
  8
10
100
AcDbCircle
 10
71.95025005596654
 20
728.6512686303055
 30
0.0
 40
1.000000000000085
100
AcDbArc
 50
180.0
 51
270.0
  0
ARC
  5
18942
330
1E
100
AcDbEntity
  8
10
100
AcDbCircle
 10
90.95025005596651
 20
728.6512686303055
 30
0.0
 40
1.000000000000085
100
AcDbArc
 50
270.0
 51
0.0
  0
LINE
  5
18943
330
1E
100
AcDbEntity
  8
10
100
AcDbLine
 10
70.95024725446638
 20
728.6512717893056
 30
0.0
 11
70.95024725446638
 21
752.6632935098055
 31
0.0
  0
LINE
  5
18944
330
1E
100
AcDbEntity
  8
10
100
AcDbLine
 10
90.95025053296557
 20
727.6512697628052
 30
0.0
 11
71.95024928146631
 21
727.6512697628052
 31
0.0
  0
LINE
  5
18945
330
1E
100
AcDbEntity
  8
10
100
AcDbLine
 10
91.95025255946621
 20
752.6632935098055
 30
0.0
 11
91.95025255946621
 21
728.6512717893056
 31
0.0
  0
LINE
  5
18946
330
1E
100
AcDbEntity
  8
0
  6
SLD-実線
 62
     7
370
    30
100
AcDbLine
 10
98.46330424796542
 20
753.6625206763052
 30
0.0
 11
98.46334150096666
 21
753.6625206763052
 31
0.0
  0
LINE
  5
18947
330
1E
100
AcDbEntity
  8
10
100
AcDbLine
 10
114.9497922770942
 20
753.6625268123096
 30
0.0
 11
92.95070907146692
 21
753.6625206763052
 31
0.0
  0
LINE
  5
18948
330
1E
100
AcDbEntity
  8
10
100
AcDbLine
 10
56.40025222271635
 20
753.6625206763052
 30
0.0
 11
69.94979074296678
 21
753.6625206763052
 31
0.0
  0
LINE
  5
18949
330
1E
100
AcDbEntity
  8
10
100
AcDbLine
 10
72.45025029446697
 20
750.6512642198052
 30
0.0
 11
70.95024725446638
 21
749.1512686303051
 31
0.0
  0
LINE
  5
1894A
330
1E
100
AcDbEntity
  8
10
100
AcDbLine
 10
72.45025029446697
 20
750.6512642198052
 30
0.0
 11
90.45024951946651
 21
750.6512642198052
 31
0.0
  0
LINE
  5
1894B
330
1E
100
AcDbEntity
  8
10
100
AcDbLine
 10
90.45024951946651
 20
750.6512642198052
 30
0.0
 11
91.95025255946621
 21
749.1512686303051
 31
0.0
  0
CIRCLE
  5
1894C
330
1E
100
AcDbEntity
  8
24
  6
CONTINOUS
100
AcDbCircle
 10
171.450249981216
 20
738.1512686303055
 30
0.0
 40
4.618802153517049
  0
CIRCLE
  5
1894D
330
1E
100
AcDbEntity
  8
24
  6
CONTINOUS
100
AcDbCircle
 10
126.4502498324664
 20
738.1512686303055
 30
0.0
 40
4.618802153517049
  0
CIRCLE
  5
1894E
330
1E
100
AcDbEntity
  8
24
  6
CONTINOUS
100
AcDbCircle
 10
81.45025005596655
 20
738.1512686303055
 30
0.0
 40
4.618802153517049
  0
LWPOLYLINE
  5
1894F
330
1E
100
AcDbEntity
  8
10
100
AcDbPolyline
 90
        6
 70
     0
 43
0.0
 10
96.70024929571631
 20
481.1512619543056
 10
96.70024929571631
 20
467.6505843688055
 42
0.4142135623730951
 10
97.70024929571629
 20
466.6505843688056
 10
110.2002498102165
 20
466.6505843688056
 42
0.4142135623730951
 10
111.2002498102165
 20
467.6505843688055
 10
111.2002498102165
 20
481.1512619543056
  0
CIRCLE
  5
18950
330
1E
100
AcDbEntity
  8
17
  6
CONTINOUS
370
    30
100
AcDbCircle
 10
103.950249981216
 20
474.1505832048057
 30
0.0
 40
3.275000000000004
  0
CIRCLE
  5
18951
330
1E
100
AcDbEntity
  8
17
  6
CONTINOUS
370
    30
100
AcDbCircle
 10
148.9502499812161
 20
474.1505832048057
 30
0.0
 40
3.275000000000004
  0
LINE
  5
18952
330
1E
100
AcDbEntity
  8
10
100
AcDbLine
 10
196.4502495282161
 20
494.1512733983055
 30
0.0
 11
56.40025222271635
 21
494.1512733983055
 31
0.0
  0
LINE
  5
18953
330
1E
100
AcDbEntity
  8
10
100
AcDbLine
 10
196.4502495282161
 20
494.6400165843057
 30
0.0
 11
182.9507089967164
 21
494.6400165843057
 31
0.0
  0
INSERT
  5
18954
330
1E
100
AcDbEntity
  8
16
100
AcDbBlockReference
  2
SW_CENTERMARKSYMBOL_28
 10
171.450249981216
 20
510.1512686303053
 30
0.0
 41
-5.0
 42
5.0
 43
5.0
 50
180.0
  0
INSERT
  5
18955
330
1E
100
AcDbEntity
  8
16
100
AcDbBlockReference
  2
SW_CENTERMARKSYMBOL_36
 10
148.9502499812161
 20
474.1512686303054
 30
0.0
 41
-5.0
 42
5.0
 43
5.0
 50
180.0
  0
INSERT
  5
18956
330
1E
100
AcDbEntity
  8
16
100
AcDbBlockReference
  2
SW_CENTERMARKSYMBOL_37
 10
103.950249981216
 20
474.1512686303054
 30
0.0
 41
-5.0
 42
5.0
 43
5.0
 50
180.0
  0
LWPOLYLINE
  5
18957
330
1E
100
AcDbEntity
  8
10
100
AcDbPolyline
 90
        6
 70
     0
 43
0.0
 10
141.7002492957163
 20
481.1512619543056
 10
141.7002492957163
 20
467.6505843688055
 42
0.4142135623730951
 10
142.7002492957162
 20
466.6505843688056
 10
155.2002498102165
 20
466.6505843688056
 42
0.4142135623730951
 10
156.2002498102165
 20
467.6505843688055
 10
156.2002498102165
 20
481.1512619543056
  0
LINE
  5
18958
330
1E
100
AcDbEntity
  8
12
  6
DASHED
100
AcDbLine
 10
157.1928293723385
 20
517.1512686303055
 30
0.0
 11
141.1928293723385
 21
517.1512686303055
 31
0.0
  0
LINE
  5
18959
330
1E
100
AcDbEntity
  8
12
  6
DASHED
100
AcDbLine
 10
148.9502499812161
 20
525.1512686303055
 30
0.0
 11
148.9502499812161
 21
509.1512686303055
 31
0.0
  0
LINE
  5
1895A
330
1E
100
AcDbEntity
  8
12
  6
DASHED
100
AcDbLine
 10
140.9502499812161
 20
517.1512686303055
 30
0.0
 11
156.950249981216
 21
517.1512686303055
 31
0.0
  0
CIRCLE
  5
1895B
330
1E
100
AcDbEntity
  8
12
100
AcDbCircle
 10
148.9502499812161
 20
517.1512686303055
 30
0.0
 40
4.0
  0
LINE
  5
1895C
330
1E
100
AcDbEntity
  8
12
  6
DASHED
100
AcDbLine
 10
112.1928293723385
 20
517.1512686303055
 30
0.0
 11
96.19282937233856
 21
517.1512686303055
 31
0.0
  0
LINE
  5
1895D
330
1E
100
AcDbEntity
  8
12
  6
DASHED
100
AcDbLine
 10
103.950249981216
 20
525.1512686303055
 30
0.0
 11
103.950249981216
 21
509.1512686303055
 31
0.0
  0
LINE
  5
1895E
330
1E
100
AcDbEntity
  8
12
  6
DASHED
100
AcDbLine
 10
95.95024998121608
 20
517.1512686303055
 30
0.0
 11
111.950249981216
 21
517.1512686303055
 31
0.0
  0
CIRCLE
  5
1895F
330
1E
100
AcDbEntity
  8
12
100
AcDbCircle
 10
103.9076705900936
 20
517.1512686303055
 30
0.0
 40
4.0
  0
ELLIPSE
  5
18960
330
1E
100
AcDbEntity
  8
10
100
AcDbEllipse
 10
159.9488776352164
 20
495.6401627763056
 30
0.0
 11
-0.950206714654343
 21
0.3164782046944481
 31
0.0
210
0.0
220
0.0
230
-1.0
 40
0.9984778550999999
 41
2.820542303065845
 42
4.390425241354074
  0
ELLIPSE
  5
18961
330
1E
100
AcDbEntity
  8
10
100
AcDbEllipse
 10
182.9516223272167
 20
495.6401627763056
 30
0.0
 11
0.950206714654343
 21
0.3164782046944481
 31
0.0
210
0.0
220
0.0
230
-1.0
 40
0.9984778550999999
 41
1.892760065825495
 42
3.462643004113779
  0
ARC
  5
18962
330
1E
100
AcDbEntity
  8
10
100
AcDbCircle
 10
161.9502499812161
 20
519.6512686303053
 30
0.0
 40
1.000000000000085
100
AcDbArc
 50
90.0
 51
180.0
  0
ARC
  5
18963
330
1E
100
AcDbEntity
  8
10
100
AcDbCircle
 10
180.950249981216
 20
519.6512686303053
 30
0.0
 40
1.000000000000085
100
AcDbArc
 50
0.0
 51
90.0
  0
LINE
  5
18964
330
1E
100
AcDbEntity
  8
10
100
AcDbLine
 10
160.9502471797168
 20
519.6512654713053
 30
0.0
 11
160.9502471797168
 21
495.6392437508055
 31
0.0
  0
LINE
  5
18965
330
1E
100
AcDbEntity
  8
10
100
AcDbLine
 10
180.950250458216
 20
520.6512674978056
 30
0.0
 11
161.9502492067167
 21
520.6512674978056
 31
0.0
  0
LINE
  5
18966
330
1E
100
AcDbEntity
  8
10
100
AcDbLine
 10
181.9502524847157
 20
495.6392437508055
 30
0.0
 11
181.9502524847157
 21
519.6512654713053
 31
0.0
  0
LINE
  5
18967
330
1E
100
AcDbEntity
  8
10
100
AcDbLine
 10
159.9497922770942
 20
494.6400104483013
 30
0.0
 11
182.9507089967164
 21
494.6400165843057
 31
0.0
  0
LINE
  5
18968
330
1E
100
AcDbEntity
  8
10
100
AcDbLine
 10
162.4502502197165
 20
497.6512730408057
 30
0.0
 11
160.9502471797168
 21
499.1512686303054
 31
0.0
  0
LINE
  5
18969
330
1E
100
AcDbEntity
  8
10
100
AcDbLine
 10
162.4502502197165
 20
497.6512730408057
 30
0.0
 11
180.450249444716
 21
497.6512730408057
 31
0.0
  0
LINE
  5
1896A
330
1E
100
AcDbEntity
  8
10
100
AcDbLine
 10
180.450249444716
 20
497.6512730408057
 30
0.0
 11
181.9502524847157
 21
499.1512686303054
 31
0.0
  0
ELLIPSE
  5
1896B
330
1E
100
AcDbEntity
  8
10
100
AcDbEllipse
 10
114.9488776352163
 20
495.6401627763056
 30
0.0
 11
-0.950206714654343
 21
0.3164782046944481
 31
0.0
210
0.0
220
0.0
230
-1.0
 40
0.9984778550999999
 41
2.820542303065845
 42
4.390425241354074
  0
ELLIPSE
  5
1896C
330
1E
100
AcDbEntity
  8
10
100
AcDbEllipse
 10
137.9516223272167
 20
495.6401627763056
 30
0.0
 11
0.950206714654343
 21
0.3164782046944481
 31
0.0
210
0.0
220
0.0
230
-1.0
 40
0.9984778550999999
 41
1.892760065825495
 42
3.462643004113779
  0
ARC
  5
1896D
330
1E
100
AcDbEntity
  8
10
100
AcDbCircle
 10
116.9502499812161
 20
519.6512686303053
 30
0.0
 40
1.000000000000085
100
AcDbArc
 50
90.0
 51
180.0
  0
ARC
  5
1896E
330
1E
100
AcDbEntity
  8
10
100
AcDbCircle
 10
135.950249981216
 20
519.6512686303053
 30
0.0
 40
1.000000000000085
100
AcDbArc
 50
0.0
 51
90.0
  0
LINE
  5
1896F
330
1E
100
AcDbEntity
  8
10
100
AcDbLine
 10
115.9502471797168
 20
519.6512654713053
 30
0.0
 11
115.9502471797168
 21
495.6392437508055
 31
0.0
  0
LINE
  5
18970
330
1E
100
AcDbEntity
  8
10
100
AcDbLine
 10
135.950250458216
 20
520.6512674978056
 30
0.0
 11
116.9502492067167
 21
520.6512674978056
 31
0.0
  0
LINE
  5
18971
330
1E
100
AcDbEntity
  8
10
100
AcDbLine
 10
136.9502524847157
 20
495.6392437508055
 30
0.0
 11
136.9502524847157
 21
519.6512654713053
 31
0.0
  0
LINE
  5
18972
330
1E
100
AcDbEntity
  8
0
  6
SLD-実線
 62
     7
370
    30
100
AcDbLine
 10
143.4633041732158
 20
494.6400165843057
 30
0.0
 11
143.4633414262161
 21
494.6400165843057
 31
0.0
  0
LINE
  5
18973
330
1E
100
AcDbEntity
  8
10
100
AcDbLine
 10
159.9497922770942
 20
494.6400104483013
 30
0.0
 11
137.9507089967164
 21
494.6400165843057
 31
0.0
  0
LINE
  5
18974
330
1E
100
AcDbEntity
  8
10
100
AcDbLine
 10
117.4502502197165
 20
497.6512730408057
 30
0.0
 11
115.9502471797168
 21
499.1512686303054
 31
0.0
  0
LINE
  5
18975
330
1E
100
AcDbEntity
  8
10
100
AcDbLine
 10
117.4502502197165
 20
497.6512730408057
 30
0.0
 11
135.450249444716
 21
497.6512730408057
 31
0.0
  0
LINE
  5
18976
330
1E
100
AcDbEntity
  8
10
100
AcDbLine
 10
135.450249444716
 20
497.6512730408057
 30
0.0
 11
136.9502524847157
 21
499.1512686303054
 31
0.0
  0
ELLIPSE
  5
18977
330
1E
100
AcDbEntity
  8
10
100
AcDbEllipse
 10
69.94887770996683
 20
495.6401627763056
 30
0.0
 11
-0.950206714654343
 21
0.3164782046944481
 31
0.0
210
0.0
220
0.0
230
-1.0
 40
0.9984778550999999
 41
2.820542303065845
 42
4.390425241354074
  0
ELLIPSE
  5
18978
330
1E
100
AcDbEntity
  8
10
100
AcDbEllipse
 10
92.95162240196621
 20
495.6401627763056
 30
0.0
 11
0.950206714654343
 21
0.3164782046944481
 31
0.0
210
0.0
220
0.0
230
-1.0
 40
0.9984778550999999
 41
1.892760065825495
 42
3.462643004113779
  0
ARC
  5
18979
330
1E
100
AcDbEntity
  8
10
100
AcDbCircle
 10
71.95025005596654
 20
519.6512686303053
 30
0.0
 40
1.000000000000085
100
AcDbArc
 50
90.0
 51
180.0
  0
ARC
  5
1897A
330
1E
100
AcDbEntity
  8
10
100
AcDbCircle
 10
90.95025005596651
 20
519.6512686303053
 30
0.0
 40
1.000000000000085
100
AcDbArc
 50
0.0
 51
90.0
  0
LINE
  5
1897B
330
1E
100
AcDbEntity
  8
10
100
AcDbLine
 10
70.95024725446638
 20
519.6512654713053
 30
0.0
 11
70.95024725446638
 21
495.6392437508055
 31
0.0
  0
LINE
  5
1897C
330
1E
100
AcDbEntity
  8
10
100
AcDbLine
 10
90.95025053296557
 20
520.6512674978056
 30
0.0
 11
71.95024928146631
 21
520.6512674978056
 31
0.0
  0
LINE
  5
1897D
330
1E
100
AcDbEntity
  8
10
100
AcDbLine
 10
91.95025255946621
 20
495.6392437508055
 30
0.0
 11
91.95025255946621
 21
519.6512654713053
 31
0.0
  0
LINE
  5
1897E
330
1E
100
AcDbEntity
  8
0
  6
SLD-実線
 62
     7
370
    30
100
AcDbLine
 10
98.46330424796542
 20
494.6400165843057
 30
0.0
 11
98.46334150096666
 21
494.6400165843057
 31
0.0
  0
LINE
  5
1897F
330
1E
100
AcDbEntity
  8
10
100
AcDbLine
 10
114.9497922770942
 20
494.6400104483013
 30
0.0
 11
92.95070907146692
 21
494.6400165843057
 31
0.0
  0
LINE
  5
18980
330
1E
100
AcDbEntity
  8
10
100
AcDbLine
 10
56.40025222271635
 20
494.6400165843057
 30
0.0
 11
69.94979074296678
 21
494.6400165843057
 31
0.0
  0
LINE
  5
18981
330
1E
100
AcDbEntity
  8
10
100
AcDbLine
 10
72.45025029446697
 20
497.6512730408057
 30
0.0
 11
70.95024725446638
 21
499.1512686303054
 31
0.0
  0
LINE
  5
18982
330
1E
100
AcDbEntity
  8
10
100
AcDbLine
 10
72.45025029446697
 20
497.6512730408057
 30
0.0
 11
90.45024951946651
 21
497.6512730408057
 31
0.0
  0
LINE
  5
18983
330
1E
100
AcDbEntity
  8
10
100
AcDbLine
 10
90.45024951946651
 20
497.6512730408057
 30
0.0
 11
91.95025255946621
 21
499.1512686303054
 31
0.0
  0
CIRCLE
  5
18984
330
1E
100
AcDbEntity
  8
24
  6
CONTINOUS
100
AcDbCircle
 10
171.450249981216
 20
510.1512686303053
 30
0.0
 40
4.618802153517049
  0
LINE
  5
18985
330
1E
100
AcDbEntity
  8
24
  6
CONTINOUS
100
AcDbLine
 10
135.4502498324664
 20
510.1512686303053
 30
0.0
 11
117.4502498324664
 21
510.1512686303053
 31
0.0
  0
CIRCLE
  5
18986
330
1E
100
AcDbEntity
  8
24
  6
CONTINOUS
100
AcDbCircle
 10
126.4502498324664
 20
510.1512686303053
 30
0.0
 40
4.618802153517049
  0
LINE
  5
18987
330
1E
100
AcDbEntity
  8
24
  6
CONTINOUS
100
AcDbLine
 10
90.45025005596654
 20
510.1512686303053
 30
0.0
 11
72.45025005596653
 21
510.1512686303053
 31
0.0
  0
CIRCLE
  5
18988
330
1E
100
AcDbEntity
  8
24
  6
CONTINOUS
100
AcDbCircle
 10
81.45025005596655
 20
510.1512686303053
 30
0.0
 40
4.618802153517049
  0
POLYLINE
  5
18989
330
1E
100
AcDbEntity
  8
10
100
AcDb2dPolyline
 66
     1
 10
0.0
 20
0.0
 30
0.0
  0
VERTEX
  5
1898A
330
18989
100
AcDbEntity
  8
10
  6
Continuous
100
AcDbVertex
100
AcDb2dVertex
 10
56.40025222271635
 20
624.6512686300556
 30
0.0
  0
VERTEX
  5
1898B
330
18989
100
AcDbEntity
  8
10
  6
Continuous
100
AcDbVertex
100
AcDb2dVertex
 10
56.40025222271635
 20
483.1512619543055
 30
0.0
 42
0.4142135623730951
  0
VERTEX
  5
1898C
330
18989
100
AcDbEntity
  8
10
  6
Continuous
100
AcDbVertex
100
AcDb2dVertex
 10
58.40025222271634
 20
481.1512619543056
 30
0.0
  0
VERTEX
  5
1898D
330
18989
100
AcDbEntity
  8
10
  6
Continuous
100
AcDbVertex
100
AcDb2dVertex
 10
194.4502529257164
 20
481.1512619543056
 30
0.0
 42
0.4142135623730951
  0
VERTEX
  5
1898E
330
18989
100
AcDbEntity
  8
10
  6
Continuous
100
AcDbVertex
100
AcDb2dVertex
 10
196.4502495282161
 20
483.1512619543055
 30
0.0
  0
VERTEX
  5
1898F
330
18989
100
AcDbEntity
  8
10
100
AcDbVertex
100
AcDb2dVertex
 10
196.4502495282161
 20
624.1512686303052
 30
0.0
  0
VERTEX
  5
18990
330
18989
100
AcDbEntity
  8
10
100
AcDbVertex
100
AcDb2dVertex
 10
196.4502495282161
 20
765.1512753063054
 30
0.0
 42
0.4142135623730951
  0
VERTEX
  5
18991
330
18989
100
AcDbEntity
  8
10
100
AcDbVertex
100
AcDb2dVertex
 10
194.4502529257164
 20
767.1512753063052
 30
0.0
  0
VERTEX
  5
18992
330
18989
100
AcDbEntity
  8
10
100
AcDbVertex
100
AcDb2dVertex
 10
58.40025222271634
 20
767.1512753063052
 30
0.0
 42
0.4142135623730951
  0
VERTEX
  5
18993
330
18989
100
AcDbEntity
  8
10
100
AcDbVertex
100
AcDb2dVertex
 10
56.40025222271635
 20
765.1512753063054
 30
0.0
  0
VERTEX
  5
18994
330
18989
100
AcDbEntity
  8
10
100
AcDbVertex
100
AcDb2dVertex
 10
56.40025222271635
 20
623.6512686305552
 30
0.0
  0
SEQEND
  5
18995
330
18989
100
AcDbEntity
  8
10
  0
LWPOLYLINE
  5
18996
330
1E
100
AcDbEntity
  8
10
  6
Continuous
100
AcDbPolyline
 90
        4
 70
     1
 43
0.0
 10
145.750249792216
 20
589.8012683088052
 10
151.7038033718099
 20
589.8012683088052
 10
151.7038033718099
 20
581.3477152397117
 10
145.750249792216
 20
581.3477152397117
  0
LWPOLYLINE
  5
18997
330
1E
100
AcDbEntity
  8
10
380
     2
100
AcDbPolyline
 90
        4
 70
     1
 43
0.0
 10
700.0
 20
0.0
 10
700.0
 20
1088.0
 10
0.0
 20
1088.0
 10
0.0
 20
0.0
  0
INSERT
  5
18998
330
1E
100
AcDbEntity
  8
16
100
AcDbBlockReference
  2
SW_CENTERMARKSYMBOL_28
 10
126.4502498324664
 20
738.1512686303055
 30
0.0
 41
5.0
 42
5.0
 43
5.0
  0
INSERT
  5
18999
330
1E
100
AcDbEntity
  8
16
100
AcDbBlockReference
  2
SW_CENTERMARKSYMBOL_28
 10
81.45025005596655
 20
738.1512686303055
 30
0.0
 41
5.0
 42
5.0
 43
5.0
  0
INSERT
  5
1899A
330
1E
100
AcDbEntity
  8
16
100
AcDbBlockReference
  2
SW_CENTERMARKSYMBOL_28
 10
81.45025005596655
 20
510.1512686303053
 30
0.0
 41
5.0
 42
5.0
 43
5.0
  0
INSERT
  5
1899B
330
1E
100
AcDbEntity
  8
16
100
AcDbBlockReference
  2
SW_CENTERMARKSYMBOL_28
 10
126.4502499812161
 20
510.1512686303053
 30
0.0
 41
5.0
 42
5.0
 43
5.0
  0
LWPOLYLINE
  5
1899C
330
1E
100
AcDbEntity
  8
10
  6
Continuous
100
AcDbPolyline
 90
        4
 70
     1
 43
0.0
 10
112.132775653391
 20
635.9485216729382
 10
140.7662444377165
 20
635.9485216729382
 10
140.7662444377165
 20
612.0585888913052
 10
112.132775653391
 20
612.0585888913052
  0
LWPOLYLINE
  5
1899D
330
1E
100
AcDbEntity
  8
10
  6
Continuous
100
AcDbPolyline
 90
        4
 70
     1
 43
0.0
 10
109.450249057716
 20
644.1008240273052
 10
143.4502509052163
 20
644.1008240273052
 10
143.4502509052163
 20
635.9485216728054
 10
109.450249057716
 20
635.9485216728054
  0
LINE
  5
1899E
330
1E
100
AcDbEntity
  8
10
  6
Continuous
100
AcDbLine
 10
182.9507076853388
 20
753.6625268123096
 30
0.0
 11
196.4502495282161
 21
753.6625268123096
 31
0.0
  0
DIMENSION
  5
1899F
330
1E
100
AcDbEntity
  8
30
100
AcDbDimension
280
     0
  2
*D5
 10
424.5068954307471
 20
45.14291970545684
 30
0.0
 11
365.5068954307471
 21
45.14291970545684
 31
0.0
 70
   160
  1
<>
 71
     2
 42
118.0
 73
     0
 74
     0
 75
     0
  3
STANDARD
100
AcDbAlignedDimension
 13
306.5068954307471
 23
186.9182166283701
 33
0.0
 14
424.5068954307471
 24
186.9182166283701
 34
0.0
100
AcDbRotatedDimension
1001
ACAD
1000
DSTYLE
1002
{
1070
   140
1040
8.0
1002
}
  0
LINE
  5
189A0
330
1E
100
AcDbEntity
  8
18
 48
2.0
100
AcDbLine
 10
548.9180174141957
 20
370.5977464938702
 30
0.0
 11
548.9180174141957
 21
390.0977464938703
 31
0.0
  0
LINE
  5
189A1
330
1E
100
AcDbEntity
  8
18
 48
2.0
100
AcDbLine
 10
548.9180174141957
 20
390.0977464938703
 30
0.0
 11
534.4180174141956
 21
390.0977464938703
 31
0.0
  0
LINE
  5
189A2
330
1E
100
AcDbEntity
  8
18
 48
2.0
100
AcDbLine
 10
534.4180174141956
 20
390.0977464938703
 30
0.0
 11
534.4180174141956
 21
370.5977464938702
 31
0.0
  0
LINE
  5
189A3
330
1E
100
AcDbEntity
  8
18
 48
2.0
100
AcDbLine
 10
534.4180174141956
 20
370.5977464938702
 30
0.0
 11
494.1680174141956
 21
370.5977464938702
 31
0.0
  0
LINE
  5
189A4
330
1E
100
AcDbEntity
  8
18
 48
2.0
100
AcDbLine
 10
494.1680174141956
 20
370.5977464938702
 30
0.0
 11
494.1680174141956
 21
94.59774649387009
 31
0.0
  0
LINE
  5
189A5
330
1E
100
AcDbEntity
  8
18
 48
2.0
100
AcDbLine
 10
494.1680174141956
 20
94.59774649387009
 30
0.0
 11
534.4180174141956
 21
94.59774649387009
 31
0.0
  0
LINE
  5
189A6
330
1E
100
AcDbEntity
  8
18
 48
2.0
100
AcDbLine
 10
534.4180174141956
 20
94.59774649387009
 30
0.0
 11
534.4180174141956
 21
75.0977464938702
 31
0.0
  0
LINE
  5
189A7
330
1E
100
AcDbEntity
  8
18
 48
2.0
100
AcDbLine
 10
534.4180174141956
 20
75.0977464938702
 30
0.0
 11
548.9180174141957
 21
75.0977464938702
 31
0.0
  0
LINE
  5
189A8
330
1E
100
AcDbEntity
  8
18
 48
2.0
100
AcDbLine
 10
548.9180174141957
 20
75.0977464938702
 30
0.0
 11
548.9180174141957
 21
94.59774649387009
 31
0.0
  0
LINE
  5
189A9
330
1E
100
AcDbEntity
  8
18
 48
2.0
100
AcDbLine
 10
548.9180174141957
 20
94.59774649387009
 30
0.0
 11
579.4180174141956
 21
94.59774649387009
 31
0.0
  0
LINE
  5
189AA
330
1E
100
AcDbEntity
  8
18
 48
2.0
100
AcDbLine
 10
579.4180174141956
 20
94.59774649387009
 30
0.0
 11
579.4180174141956
 21
75.0977464938702
 31
0.0
  0
LINE
  5
189AB
330
1E
100
AcDbEntity
  8
18
 48
2.0
100
AcDbLine
 10
579.4180174141956
 20
75.0977464938702
 30
0.0
 11
593.9180174141958
 21
75.0977464938702
 31
0.0
  0
LINE
  5
189AC
330
1E
100
AcDbEntity
  8
18
 48
2.0
100
AcDbLine
 10
593.9180174141958
 20
75.0977464938702
 30
0.0
 11
593.9180174141958
 21
94.59774649387009
 31
0.0
  0
LINE
  5
189AD
330
1E
100
AcDbEntity
  8
18
 48
2.0
100
AcDbLine
 10
593.9180174141958
 20
94.59774649387009
 30
0.0
 11
634.1680174141957
 21
94.59774649387009
 31
0.0
  0
LINE
  5
189AE
330
1E
100
AcDbEntity
  8
18
 48
2.0
100
AcDbLine
 10
634.1680174141957
 20
94.59774649387009
 30
0.0
 11
634.1680174141957
 21
370.5977464938702
 31
0.0
  0
LINE
  5
189AF
330
1E
100
AcDbEntity
  8
18
 48
2.0
100
AcDbLine
 10
634.1680174141957
 20
370.5977464938702
 30
0.0
 11
593.9180174141958
 21
370.5977464938702
 31
0.0
  0
LINE
  5
189B0
330
1E
100
AcDbEntity
  8
18
 48
2.0
100
AcDbLine
 10
593.9180174141958
 20
370.5977464938702
 30
0.0
 11
593.9180174141958
 21
390.0977464938703
 31
0.0
  0
LINE
  5
189B1
330
1E
100
AcDbEntity
  8
18
 48
2.0
100
AcDbLine
 10
593.9180174141958
 20
390.0977464938703
 30
0.0
 11
579.4180174141956
 21
390.0977464938703
 31
0.0
  0
LINE
  5
189B2
330
1E
100
AcDbEntity
  8
18
 48
2.0
100
AcDbLine
 10
579.4180174141956
 20
390.0977464938703
 30
0.0
 11
579.4180174141956
 21
370.5977464938702
 31
0.0
  0
LINE
  5
189B3
330
1E
100
AcDbEntity
  8
18
 48
2.0
100
AcDbLine
 10
579.4180174141956
 20
370.5977464938702
 30
0.0
 11
548.9180174141957
 21
370.5977464938702
 31
0.0
  0
DIMENSION
  5
189B5
330
1E
100
AcDbEntity
  8
30
100
AcDbDimension
280
     0
  2
*D6
 10
660.6813235172948
 20
186.5977464938702
 30
0.0
 11
660.6813235172948
 21
232.5977464938702
 31
0.0
 70
   160
  1
<>
 71
     2
 42
91.99999999999995
 73
     0
 74
     0
 75
     0
  3
STANDARD
100
AcDbAlignedDimension
 13
588.6680174141956
 23
278.5977464938702
 33
0.0
 14
588.6680174141956
 24
186.5977464938702
 34
0.0
 50
90.0
100
AcDbRotatedDimension
1001
ACAD
1000
DSTYLE
1002
{
1070
   140
1040
8.0
1002
}
  0
LINE
  5
189B6
330
1E
100
AcDbEntity
  8
16
 48
2.0
100
AcDbLine
 10
564.1680174141956
 20
394.4548536690609
 30
0.0
 11
564.1680174141956
 21
71.45428894331008
 31
0.0
  0
LINE
  5
189B7
330
1E
100
AcDbEntity
  8
16
 48
2.0
100
AcDbLine
 10
484.4505534561958
 20
232.5977464938702
 30
0.0
 11
640.8830155476716
 21
232.5977464938702
 31
0.0
  0
MTEXT
  5
189B8
330
1E
100
AcDbEntity
  8
19
100
AcDbMText
 10
346.6177281795181
 20
30.27324504583035
 30
0.0
 40
10.0
 41
0.0
 46
0.0
 71
     1
 72
     1
  1
[Cutout A]
  7
SLDTEXTSTYLE0
 73
     1
 44
1.0
  0
MTEXT
  5
189B9
330
1E
100
AcDbEntity
  8
19
100
AcDbMText
 10
543.9119603144136
 20
32.93133152499891
 30
0.0
 40
10.0
 41
0.0
 46
0.0
 71
     1
 72
     1
  1
[Cutout B]
  7
SLDTEXTSTYLE0
 73
     1
 44
1.0
  0
LWPOLYLINE
  5
189BA
330
1E
100
AcDbEntity
  8
11
100
AcDbPolyline
 90
        8
 70
     1
 43
0.0
 10
537.6680174141957
 20
276.5977464938702
 10
537.6680174141966
 20
188.5977464938702
 42
0.4142135623730951
 10
539.6680174141963
 20
186.5977464938702
 10
588.6680174141956
 20
186.5977464938701
 42
0.4142135623730951
 10
590.6680174141966
 20
188.5977464938702
 10
590.6680174141956
 20
276.5977464938702
 42
0.4142135623730951
 10
588.6680174141956
 20
278.5977464938702
 10
539.6680174141963
 20
278.5977464938702
 42
0.4142135623730951
  0
DIMENSION
  5
189BB
330
1E
100
AcDbEntity
  8
30
100
AcDbDimension
280
     0
  2
*D7
 10
590.6680174141966
 20
46.86449020957025
 30
0.0
 11
567.6366016701957
 21
46.86449020957025
 31
0.0
 70
   160
  1
<>
 71
     2
 42
53.00000000000091
 73
     0
 74
     0
 75
     0
  3
STANDARD
100
AcDbAlignedDimension
 13
537.6680174141957
 23
188.5977464938702
 33
0.0
 14
590.6680174141966
 24
188.5977464938702
 34
0.0
100
AcDbRotatedDimension
1001
ACAD
1000
DSTYLE
1002
{
1070
   140
1040
8.0
1002
}
  0
DIMENSION
  5
19793
330
1E
100
AcDbEntity
  8
30
  6
Continuous
100
AcDbDimension
280
     0
  2
*D19
 10
422.6842042457018
 20
274.5982607996908
 30
0.0
 11
455.2742416392901
 21
306.7373628100587
 31
0.0
 70
   164
 71
     5
 42
2.000000000179738
 73
     0
 74
     0
 75
     0
  3
STANDARD1
100
AcDbRadialDimension
 15
423.8455689242011
 25
276.2265212469945
 35
0.0
 40
0.0
  0
DIMENSION
  5
19842
330
1E
100
AcDbEntity
  8
30
  6
Continuous
100
AcDbDimension
280
     0
  2
*D20
 10
588.8453262291506
 20
276.2777906651915
 30
0.0
 11
621.4353636227379
 21
308.4168926755593
 31
0.0
 70
   164
 71
     5
 42
2.000000000178828
 73
     0
 74
     0
 75
     0
  3
STANDARD1
100
AcDbRadialDimension
 15
590.0066909076493
 25
277.9060511124944
 35
0.0
 40
0.0
  0
DIMENSION
  5
198EE
330
1E
100
AcDbEntity
  8
30
  6
Continuous
100
AcDbDimension
280
     0
  2
*D21
 10
92.22019155572452
 20
166.829292676988
 30
0.0
 11
49.41151718204401
 21
68.1185015202127
 31
0.0
 70
   163
  1
2X2-%%c6
 71
     5
 42
9.000000000348791
 73
     0
 74
     0
 75
     0
  3
STANDARD1
100
AcDbDiametricDimension
 15
90.68030840721048
 25
157.9620067396113
 35
0.0
 40
0.0
  0
LWPOLYLINE
  5
19F0A
330
1E
100
AcDbEntity
  8
10
  6
CONTINOUS
100
AcDbPolyline
 90
       11
 70
     1
 43
0.0
 10
399.9408659800993
 20
530.2571601793752
 10
402.9545747383217
 20
530.2255995087667
 10
402.9545747383217
 20
492.225599687767
 10
499.9545747383216
 20
492.225599687767
 10
499.9545747383216
 20
752.2255996877671
 10
402.9545747383217
 20
752.2255996877671
 10
402.9545747383217
 20
714.1837113399417
 10
399.8754760289367
 20
714.1514666183937
 42
0.2520626822056452
 10
396.9545775993211
 20
708.7256002116121
 10
396.9545747383219
 20
673.2255996877671
 10
396.9545775993211
 20
535.7255995525197
 42
0.2552568693989432
  0
LINE
  5
1A103
330
1E
100
AcDbEntity
  8
0
  6
SLD-実線
 62
     7
370
    30
100
AcDbLine
 10
392.9545768248226
 20
578.2570711787666
 30
0.0
 11
392.9545768248226
 21
666.1941281967666
 31
0.0
  0
LINE
  5
1A104
330
1E
100
AcDbEntity
  8
10
  6
CONTINOUS
100
AcDbLine
 10
385.4545765263229
 20
578.2255996877669
 30
0.0
 11
385.4545765263229
 21
666.225599687767
 31
0.0
  0
LINE
  5
1A105
330
1E
100
AcDbEntity
  8
10
  6
CONTINOUS
100
AcDbLine
 10
392.9545747383217
 20
667.225599687767
 30
0.0
 11
392.9545747383217
 21
577.2255996877669
 31
0.0
  0
LINE
  5
1A106
330
1E
100
AcDbEntity
  8
10
  6
CONTINOUS
100
AcDbLine
 10
386.4545765263228
 20
577.2255996877669
 30
0.0
 11
396.9545747383219
 21
577.2255996877669
 31
0.0
  0
ARC
  5
1A107
330
1E
100
AcDbEntity
  8
10
  6
CONTINOUS
100
AcDbCircle
 10
386.4545765263228
 20
578.2255996877669
 30
0.0
 40
1.0
100
AcDbArc
 50
180.0
 51
270.0
  0
LINE
  5
1A108
330
1E
100
AcDbEntity
  8
10
  6
CONTINOUS
100
AcDbLine
 10
386.4545765263228
 20
667.225599687767
 30
0.0
 11
396.9545747383219
 21
667.225599687767
 31
0.0
  0
ARC
  5
1A109
330
1E
100
AcDbEntity
  8
10
  6
CONTINOUS
100
AcDbCircle
 10
386.4545765263228
 20
666.225599687767
 30
0.0
 40
1.0
100
AcDbArc
 50
90.0
 51
180.0
  0
LWPOLYLINE
  5
1A10A
330
1E
100
AcDbEntity
  8
10
  6
CONTINOUS
100
AcDbPolyline
 90
        8
 70
     1
 43
0.0
 10
376.1400094438841
 20
650.2120814796436
 10
366.7662058613024
 20
650.4698015211347
 10
352.6090780648027
 20
654.0868137456348
 10
349.503243938303
 20
642.4957033671351
 10
363.6145094783024
 20
638.5248531081352
 10
372.0524155632611
 20
634.9569614767357
 10
377.0710193263221
 20
634.0228527302667
 10
380.9533082588223
 20
648.5117397717667
  0
ARC
  5
1A10B
330
1E
100
AcDbEntity
  8
10
  6
CONTINOUS
100
AcDbCircle
 10
430.0526870889989
 20
822.2547325701338
 30
0.0
 40
181.6640122735105
100
AcDbArc
 50
252.8048349791452
 51
255.7887474977472
  0
ARC
  5
1A10C
330
1E
100
AcDbEntity
  8
10
  6
CONTINOUS
100
AcDbCircle
 10
371.8109085015712
 20
588.4133168673311
 30
0.0
 40
46.90130289725614
100
AcDbArc
 50
73.08805372624309
 51
83.24228441301258
  0
LWPOLYLINE
  5
1A10D
330
1E
100
AcDbEntity
  8
10
  6
CONTINOUS
100
AcDbPolyline
 90
        3
 70
     0
 43
0.0
 10
376.3478208218221
 20
648.7104998957667
 10
372.9831732353223
 20
636.1534641537669
 10
377.3298394533222
 20
634.9887784507667
  0
DIMENSION
  5
1A10E
330
1E
100
AcDbEntity
  8
30
  6
Continuous
100
AcDbDimension
280
     0
  2
*D22
 10
328.4566686387262
 20
577.2255996877671
 30
0.0
 11
328.4566686387261
 21
622.2255996877674
 31
0.0
 70
   160
 71
     5
 42
90.0
 73
     0
 74
     0
 75
     0
  3
STANDARD
100
AcDbAlignedDimension
 13
386.4545765263219
 23
667.2255996877671
 33
0.0
 14
378.7408399109063
 24
577.2255996877671
 34
0.0
 50
90.0
100
AcDbRotatedDimension
1001
ACAD
1000
DSTYLE
1002
{
1070
    79
1070
     3
1002
}
  0
DIMENSION
  5
1A7A5
330
1E
100
AcDbEntity
  8
30
  6
Continuous
100
AcDbDimension
280
     0
  2
*D23
 10
242.0684278480713
 20
494.1512697488047
 30
0.0
 11
242.0684278480712
 21
624.1512697488047
 31
0.0
 70
   160
  1
<>
 71
     2
 42
260.0
 73
     0
 74
     0
 75
     0
  3
STANDARD
100
AcDbAlignedDimension
 13
196.4545943098313
 23
754.1512697488046
 33
0.0
 14
196.5959199243109
 24
494.1512697488047
 34
0.0
 50
90.0
100
AcDbRotatedDimension
  0
DIMENSION
  5
1A7A6
330
1E
100
AcDbEntity
  8
30
100
AcDbDimension
280
     0
  2
*D24
 10
266.349017535802
 20
481.1512619543056
 30
0.0
 11
259.3490175358019
 21
624.1512686303052
 31
0.0
 70
    32
 71
     5
 42
286.0000133519995
 73
     0
 74
     0
 75
     0
  3
STANDARD
100
AcDbAlignedDimension
 13
194.4502529257164
 23
767.1512753063052
 33
0.0
 14
194.4502529257164
 24
481.1512619543056
 34
0.0
 50
90.0
100
AcDbRotatedDimension
  0
DIMENSION
  5
1A9C5
330
1E
100
AcDbEntity
  8
30
  6
Continuous
100
AcDbDimension
280
     0
  2
*D25
 10
627.5608649504436
 20
508.2255996877678
 30
0.0
 11
620.5608649504437
 21
622.2255996877677
 31
0.0
 70
    32
 71
     5
 42
227.9999999999998
 73
     0
 74
     0
 75
     0
  3
STANDARD
100
AcDbAlignedDimension
 13
610.9545747383217
 23
736.2255996877678
 33
0.0
 14
610.9545747383217
 24
508.2255996877678
 34
0.0
 50
90.0
100
AcDbRotatedDimension
1001
ACAD
1000
DSTYLE
1002
{
1070
    79
1070
     3
1002
}
  0
DIMENSION
  5
1A9C6
330
1E
100
AcDbEntity
  8
30
100
AcDbDimension
280
     0
  2
*D26
 10
649.8337479769397
 20
484.2255996877673
 30
0.0
 11
642.8337479769396
 21
622.2255996877674
 31
0.0
 70
    32
 71
     5
 42
275.9999999999998
 73
     0
 74
     0
 75
     0
  3
STANDARD
100
AcDbAlignedDimension
 13
598.9545747383218
 23
760.2255996877671
 33
0.0
 14
598.9545747383218
 24
484.2255996877674
 34
0.0
 50
90.0
100
AcDbRotatedDimension
  0
DIMENSION
  5
1A9C7
330
1E
100
AcDbEntity
  8
30
100
AcDbDimension
280
     0
  2
*D27
 10
673.724924602815
 20
464.7255996877671
 30
0.0
 11
666.7249246028147
 21
622.225599687767
 31
0.0
 70
    32
 71
     5
 42
314.9999999999995
 73
     0
 74
     0
 75
     0
  3
STANDARD
100
AcDbAlignedDimension
 13
547.9545747383216
 23
779.7255996877667
 33
0.0
 14
546.9545747383216
 24
464.7255996877671
 34
0.0
 50
90.0
100
AcDbRotatedDimension
  0
DIMENSION
  5
1AA92
330
1E
100
AcDbEntity
  8
30
  6
Continuous
100
AcDbDimension
280
     0
  2
*D28
 10
499.9545747383216
 20
426.1855260624498
 30
0.0
 11
434.9545747383215
 21
426.1855260624498
 31
0.0
 70
   160
  1
<>
 71
     2
 42
130.0
 73
     0
 74
     0
 75
     0
  3
STANDARD
100
AcDbAlignedDimension
 13
369.9545747383219
 23
624.7317024102847
 33
0.0
 14
499.9545747383216
 24
492.225599687767
 34
0.0
100
AcDbRotatedDimension
1001
ACAD
1000
DSTYLE
1002
{
1070
    79
1070
     3
1002
}
  0
DIMENSION
  5
1AA93
330
1E
100
AcDbEntity
  8
30
  6
Continuous
100
AcDbDimension
280
     0
  2
*D29
 10
499.9545747383216
 20
458.2255996877671
 30
0.0
 11
448.4545747383217
 21
458.2255996877671
 31
0.0
 70
   160
  1
<>
 71
     2
 42
103.0
 73
     0
 74
     0
 75
     0
  3
STANDARD
100
AcDbAlignedDimension
 13
396.9545747383219
 23
542.0581950563103
 33
0.0
 14
499.9545747383216
 24
492.225599687767
 34
0.0
100
AcDbRotatedDimension
1001
ACAD
1000
DSTYLE
1002
{
1070
    79
1070
     3
1002
}
  0
DIMENSION
  5
1AA94
330
1E
100
AcDbEntity
  8
30
  6
Continuous
100
AcDbDimension
280
     0
  2
*D30
 10
499.9545747383216
 20
408.8614547366772
 30
0.0
 11
424.4578268535642
 21
415.8614547366775
 31
0.0
 70
    32
 71
     5
 42
150.993495769515
 73
     0
 74
     0
 75
     0
  3
STANDARD
100
AcDbAlignedDimension
 13
348.9610789688068
 23
634.7317024102847
 33
0.0
 14
499.9545747383216
 24
425.6855260624496
 34
0.0
100
AcDbRotatedDimension
1001
ACAD
1000
DSTYLE
1002
{
1070
    79
1070
     3
1002
}
  0
DIMENSION
  5
1AA95
330
1E
100
AcDbEntity
  8
30
  6
Continuous
100
AcDbDimension
280
     0
  2
*D31
 10
384.9545746193216
 20
441.9861187994921
 30
0.0
 11
375.287907952655
 21
448.9861187994921
 31
0.0
 70
    32
 71
     5
 42
8.0
 73
     0
 74
     0
 75
     0
  3
STANDARD1
100
AcDbAlignedDimension
 13
392.9545746193216
 23
571.7317024102847
 33
0.0
 14
384.9545746193216
 24
571.7317024102847
 34
0.0
100
AcDbRotatedDimension
  0
DIMENSION
  5
1AA96
330
1E
100
AcDbEntity
  8
30
  6
Continuous
100
AcDbDimension
280
     0
  2
*D32
 10
499.9545747383216
 20
441.9861187994921
 30
0.0
 11
446.4545746788217
 21
448.9861187994921
 31
0.0
 70
    32
 71
     5
 42
107.0000001190001
 73
     0
 74
     0
 75
     0
  3
STANDARD
100
AcDbAlignedDimension
 13
392.9545746193216
 23
441.9861187994921
 33
0.0
 14
499.9545747383216
 24
458.2255996877671
 34
0.0
100
AcDbRotatedDimension
1001
ACAD
1000
DSTYLE
1002
{
1070
    79
1070
     3
1002
}
  0
ARC
  5
1AA97
330
1E
100
AcDbEntity
  8
30
  6
Continuous
100
AcDbCircle
 10
370.1614270310812
 20
636.9239491752169
 30
0.0
 40
21.39637757822332
100
AcDbArc
 50
164.9058206775982
 51
187.7617629093329
  0
ARC
  5
1AA98
330
1E
100
AcDbEntity
  8
30
  6
Continuous
100
AcDbCircle
 10
400.034743790791
 20
622.0214612638142
 30
0.0
 40
30.29117494757552
100
AcDbArc
 50
153.2592132366322
 51
173.2332630719459
  0
DIMENSION
  5
1BB4A
330
1E
100
AcDbEntity
  8
30
  6
Continuous
100
AcDbDimension
280
     0
  2
*D33
 10
244.6232581268077
 20
277.3956497082996
 30
0.0
 11
244.6232581268077
 21
289.8956497083005
 31
0.0
 70
   160
  1
<>
 71
     2
 42
25.00000000000006
 73
     0
 74
     0
 75
     0
  3
STANDARD
100
AcDbAlignedDimension
 13
170.200249981216
 23
302.3956497082996
 33
0.0
 14
224.4502499812161
 24
277.3956497082996
 34
0.0
 50
90.0
100
AcDbRotatedDimension
  0
DIMENSION
  5
1BB88
330
1E
100
AcDbEntity
  8
30
  6
Continuous
100
AcDbDimension
280
     0
  2
*D34
 10
244.6232581268077
 20
187.3956497082996
 30
0.0
 11
244.6232581268077
 21
174.895649708301
 31
0.0
 70
   160
  1
<>
 71
     2
 42
25.00000000000003
 73
     0
 74
     0
 75
     0
  3
STANDARD
100
AcDbAlignedDimension
 13
169.200249981216
 23
162.3956497082996
 33
0.0
 14
210.4502499812161
 24
187.3956497082996
 34
0.0
 50
90.0
100
AcDbRotatedDimension
  0
DIMENSION
  5
1C13B
330
1E
100
AcDbEntity
  8
30
100
AcDbDimension
280
     0
  2
*D36
 10
196.4502495282161
 20
436.4626719716206
 30
0.0
 11
126.4252508754662
 21
443.4626719716207
 31
0.0
 70
    32
 71
     5
 42
140.0499973054998
 73
     0
 74
     0
 75
     0
  3
STANDARD
100
AcDbAlignedDimension
 13
56.40025222271635
 23
483.1512619543055
 33
0.0
 14
196.4502495282161
 24
483.1512619543055
 34
0.0
100
AcDbRotatedDimension
  0
MULTILEADER
  5
1C301
330
1E
100
AcDbEntity
  8
30
160
               676
310
A4020000170000000C00000016000000000000C00C00000033000000000000000C00000013000000993A0000EC000000260000008F3CE578720175401CD73BD030158E40000000000000000000000000000000000000000000000000000000000000F03F000000000000F03F000000000000000000000000000000004D0035
310
0020004D006F0075006E00740069006E006700200073006300720065007700000011000000010000000000000000001440000000000000F03F0000000000000000000000000000F03F000000000000000000000000000000000000000000000000000000000100000000000000000000007400780074002E00730068007800
310
000062006900670066006F006E0074002E0073006800780000000C00000033000000000000000C00000010000000060000000C00000016000000000000C00C00000012000000FF7F00000C00000013000000010000000C0000001400000001000000540000000700000003000000782796F09D1073405FFCFE8A77D28D4000
310
000000000000000019029F05F67240A6197F872DC98D400000000000000000FACA5D6D27097340684CA80D47D68D4000000000000000000C00000013000000891300003C000000060000000200000039F9F9AEE20C734063A4534C5FD48D400000000000000000700B76C880AC7340712C912586228E400000000000000000
310
0C00000013000000112700003C0000000600000002000000700B76C880AC7340712C912586228E40000000000000000050320ED501007540712C912586228E4000000000000000000C00000016000000000000C00C00000012000000FF7F00000C00000017000000000000000C000000130000009A3A00000C000000160000
310
00000000C00C00000012000000FF7F00000C00000017000000FFFFFFFF0C0000003300000000000000
100
AcDbMLeader
270
     2
300
CONTEXT_DATA{
 40
1.0
 10
336.0004473261406
 20
964.315501341027
 30
0.0
 41
5.0
140
2.0
145
0.09
174
     1
175
     6
176
     0
177
     0
290
     1
304
M5 Mounting screw
 11
0.0
 21
0.0
 31
1.0
340
11
 12
336.0904473261407
 22
967.6488346743603
 32
0.0
 13
1.0
 23
0.0
 33
0.0
 42
0.0
 43
0.0
 44
0.0
 45
1.0
170
     1
 90
-1073741824
171
     1
172
     5
 91
-1073741824
141
0.0
 92
        0
291
     0
292
     0
173
     0
293
     0
142
0.0
143
0.0
294
     0
295
     0
296
     0
110
314.781441174614
120
963.0181482725577
130
0.0
111
1.0
121
0.0
131
0.0
112
0.0
122
1.0
132
0.0
297
     0
302
LEADER{
290
     1
291
     1
 10
314.781441174614
 20
964.315501341027
 30
0.0
 11
1.0
 21
0.0
 31
0.0
 90
        0
 40
21.21900615152661
304
LEADER_LINE{
 10
303.3763723451557
 20
953.1472310952857
 30
0.0
 91
        0
305
}
271
     0
303
}
272
     9
273
     9
301
}
340
8AA0
 90
   345728
170
     1
 91
-1056964608
341
13
171
    -2
290
     1
291
     1
 41
0.36
 42
2.0
172
     2
343
11
173
     1
 95
        6
174
     1
175
     0
 92
-1056964608
292
     0
 93
-1056964608
 10
1.0
 20
1.0
 30
1.0
 43
0.0
176
     0
293
     0
294
     0
178
     0
179
     1
 45
1.0
271
     0
272
     9
273
     9
295
     0
  0
DIMENSION
  5
1C303
330
1E
100
AcDbEntity
  8
30
100
AcDbDimension
280
     0
  2
*D40
 10
396.9545775993211
 20
801.8372315006949
 30
0.0
 11
472.4545761688213
 21
808.8372315006948
 31
0.0
 70
    32
 71
     5
 42
150.9999971390005
 73
     0
 74
     0
 75
     0
  3
STANDARD
100
AcDbAlignedDimension
 13
547.9545747383216
 23
712.2255996877671
 33
0.0
 14
396.9545775993211
 24
708.7256002116121
 34
0.0
100
AcDbRotatedDimension
  0
LWPOLYLINE
  5
1C42D
330
1E
100
AcDbEntity
  8
30
  6
SLD-2点鎖線
370
    15
100
AcDbPolyline
 90
        6
 70
     1
 43
0.0
 10
547.9545747383216
 20
667.2455996877673
 10
547.9545747383216
 20
707.2455996877671
 10
552.9545747383216
 20
707.2455996877671
 10
552.9545747383216
 20
672.2455996877672
 10
587.9545747383216
 20
672.2455996877672
 10
587.9545747383216
 20
667.2455996877673
  0
LWPOLYLINE
  5
1C434
330
1E
100
AcDbEntity
  8
30
  6
SLD-2点鎖線
370
    15
100
AcDbPolyline
 90
        6
 70
     1
 43
0.0
 10
547.9545747383216
 20
577.2055996877668
 10
547.9545747383216
 20
537.205599687767
 10
552.9545747383216
 20
537.205599687767
 10
552.9545747383216
 20
572.2055996877668
 10
587.9545747383216
 20
572.2055996877668
 10
587.9545747383216
 20
577.2055996877668
  0
LINE
  5
1C44D
330
1E
100
AcDbEntity
  8
12
100
AcDbLine
 10
307.3441344699422
 20
950.6472310952856
 30
0.0
 11
258.9198464277324
 21
950.6472310952856
 31
0.0
  0
LINE
  5
1C454
330
1E
100
AcDbEntity
  8
24
100
AcDbLine
 10
353.3763723451548
 20
886.6472310952861
 30
0.0
 11
353.3763723451548
 21
892.647231095286
 31
0.0
  0
LINE
  5
1C455
330
1E
100
AcDbEntity
  8
10
100
AcDbLine
 10
339.3763723451548
 20
926.647231095286
 30
0.0
 11
339.3763723451548
 21
930.6472310952855
 31
0.0
  0
LINE
  5
1C456
330
1E
100
AcDbEntity
  8
10
100
AcDbLine
 10
339.3763723451548
 20
886.6472310952861
 30
0.0
 11
339.3763723451548
 21
882.6472310952855
 31
0.0
  0
VIEWPORT
  5
9AC
330
1A
100
AcDbEntity
 67
     1
  8
0
  6
Continuous
348
8A77
100
AcDbViewport
 10
171.999535
 20
144.1384739999999
 30
0.0
 40
488.867686
 41
292.351491
 68
     1
 69
     1
 12
171.999535
 22
144.1384739999999
 13
0.0
 23
0.0
 14
10.0
 24
10.0
 15
10.0
 25
10.0
 16
0.0
 26
0.0
 36
1.0
 17
0.0
 27
0.0
 37
0.0
 42
50.0
 43
0.0
 44
0.0
 45
292.351491
 50
0.0
 51
0.0
 72
   100
 90
    32800
  1

281
     0
 71
     1
 74
     0
110
0.0
120
0.0
130
0.0
111
1.0
121
0.0
131
0.0
112
0.0
122
1.0
132
0.0
 79
     0
146
0.0
170
     0
 61
     5
292
     1
282
     1
141
0.0
142
0.0
 63
   250
421
  3355443
  0
ENDSEC
  0
SECTION
  2
OBJECTS
  0
DICTIONARY
  5
C
330
0
100
AcDbDictionary
281
     1
  3
ACAD_CIP_PREVIOUS_PRODUCT_INFO
350
8AA8
  3
ACAD_COLOR
350
8A8A
  3
ACAD_DETAILVIEWSTYLE
350
8AA3
  3
ACAD_GROUP
350
D
  3
ACAD_LAYOUT
350
19
  3
ACAD_MATERIAL
350
8A58
  3
ACAD_MLEADERSTYLE
350
8A9F
  3
ACAD_MLINESTYLE
350
16
  3
ACAD_PLOTSETTINGS
350
18
  3
ACAD_PLOTSTYLENAME
350
E
  3
ACAD_SCALELIST
350
8A8D
  3
ACAD_SECTIONVIEWSTYLE
350
8AA1
  3
ACAD_TABLESTYLE
350
8A8B
  3
ACAD_VISUALSTYLE
350
8A71
  3
ACADDIM
350
6D5E
  3
ACDB_RECOMPOSE_DATA
350
1C481
  3
ACDBVARIABLEDICTIONARY
350
5697
  3
AEC_PROPERTY_SET_DEFS
350
BFC4
  0
DICTIONARY
  5
F3CC
330
2
100
AcDbDictionary
280
     1
281
     1
  3
ACAD_LAYERSTATES
360
F3CD
  0
DICTIONARY
  5
8ACC
330
10
100
AcDbDictionary
280
     1
281
     1
  3
ADSK_XREC_LAYER_RECONCILED
360
8ACD
  0
DICTIONARY
  5
8ACE
330
2F
100
AcDbDictionary
280
     1
281
     1
  3
ADSK_XREC_LAYER_RECONCILED
360
8ACF
  0
DICTIONARY
  5
8AD0
330
31
100
AcDbDictionary
280
     1
281
     1
  3
ADSK_XREC_LAYER_RECONCILED
360
8AD1
  0
DICTIONARY
  5
8AD2
330
35
100
AcDbDictionary
280
     1
281
     1
  3
ADSK_XREC_LAYER_RECONCILED
360
8AD3
  0
DICTIONARY
  5
8AD4
330
38
100
AcDbDictionary
280
     1
281
     1
  3
ADSK_XREC_LAYER_RECONCILED
360
8AD5
  0
DICTIONARY
  5
8AD6
330
3D
100
AcDbDictionary
280
     1
281
     1
  3
ADSK_XREC_LAYER_RECONCILED
360
8AD7
  0
DICTIONARY
  5
8AD8
330
3A2
100
AcDbDictionary
280
     1
281
     1
  3
ADSK_XREC_LAYER_RECONCILED
360
8AD9
  0
DICTIONARY
  5
8ADA
330
3BBA
100
AcDbDictionary
280
     1
281
     1
  3
ADSK_XREC_LAYER_RECONCILED
360
8ADB
  0
DICTIONARY
  5
8ADC
330
67A8
100
AcDbDictionary
280
     1
281
     1
  3
ADSK_XREC_LAYER_RECONCILED
360
8ADD
  0
DICTIONARY
  5
8ADE
330
7837
100
AcDbDictionary
280
     1
281
     1
  3
ADSK_XREC_LAYER_RECONCILED
360
8ADF
  0
DICTIONARY
  5
9134
330
9133
100
AcDbDictionary
280
     1
281
     1
  0
DICTIONARY
  5
17471
330
17470
100
AcDbDictionary
280
     1
281
     1
  0
DICTIONARY
  5
17473
330
17472
100
AcDbDictionary
280
     1
281
     1
  0
DICTIONARY
  5
178
330
1E
100
AcDbDictionary
280
     1
281
     1
  3
ACAD_LAYOUTSELFREF
360
8A0F
  3
ACAD_SORTENTS
360
10338
  0
DICTIONARY
  5
17A
330
1A
100
AcDbDictionary
280
     1
281
     1
  3
ACAD_LAYOUTSELFREF
360
8A0E
  0
XRECORD
  5
8AA8
102
{ACAD_REACTORS
330
C
102
}
330
C
100
AcDbXrecord
280
     1
300
ACDLT
300
2014
300
ACDLT_F_S
  0
DICTIONARY
  5
8A8A
102
{ACAD_REACTORS
330
C
102
}
330
C
100
AcDbDictionary
281
     1
  0
DICTIONARY
  5
8AA3
102
{ACAD_REACTORS
330
C
102
}
330
C
100
AcDbDictionary
281
     1
  3
Imperial24
350
8AA4
  0
DICTIONARY
  5
D
102
{ACAD_REACTORS
330
C
102
}
330
C
100
AcDbDictionary
281
     1
  0
DICTIONARY
  5
19
102
{ACAD_REACTORS
330
C
102
}
330
C
100
AcDbDictionary
281
     1
  3
Model
350
8A4C
  3
ﾚｲｱｳﾄ1
350
8A4D
  0
DICTIONARY
  5
8A58
102
{ACAD_REACTORS
330
C
102
}
330
C
100
AcDbDictionary
281
     1
  3
ByBlock
350
8A61
  3
ByLayer
350
8A59
  3
Global
350
8A69
  0
DICTIONARY
  5
8A9F
102
{ACAD_REACTORS
330
C
102
}
330
C
100
AcDbDictionary
281
     1
  3
Standard
350
8AA0
  0
DICTIONARY
  5
16
102
{ACAD_REACTORS
330
C
102
}
330
C
100
AcDbDictionary
281
     1
  3
STANDARD
350
17
  0
DICTIONARY
  5
18
102
{ACAD_REACTORS
330
C
102
}
330
C
100
AcDbDictionary
281
     1
  0
ACDBDICTIONARYWDFLT
  5
E
102
{ACAD_REACTORS
330
C
102
}
330
C
100
AcDbDictionary
281
     1
  3
Normal
350
F
100
AcDbDictionaryWithDefault
340
F
  0
DICTIONARY
  5
8A8D
102
{ACAD_REACTORS
330
C
102
}
330
C
100
AcDbDictionary
281
     1
  3
A0
350
8A8E
  3
A1
350
8A8F
  3
A2
350
8A90
  3
A3
350
8A91
  3
A4
350
8A92
  3
A5
350
8A93
  3
A6
350
8A94
  3
A7
350
8A95
  3
A8
350
8A96
  3
A9
350
8A97
  3
B0
350
8A98
  3
B1
350
8A99
  3
B2
350
8A9A
  3
B3
350
8A9B
  3
B4
350
8A9C
  3
B5
350
8A9D
  3
B6
350
8A9E
  0
DICTIONARY
  5
8AA1
102
{ACAD_REACTORS
330
C
102
}
330
C
100
AcDbDictionary
281
     1
  3
Imperial24
350
8AA2
  0
DICTIONARY
  5
8A8B
102
{ACAD_REACTORS
330
C
102
}
330
C
100
AcDbDictionary
281
     1
  3
Standard
350
8A8C
  0
DICTIONARY
  5
8A71
102
{ACAD_REACTORS
330
C
102
}
330
C
100
AcDbDictionary
281
     1
  3
2dWireframe
350
8A77
  3
3D Hidden
350
8B2B
  3
3dWireframe
350
8B2A
  3
Basic
350
8A76
  3
Brighten
350
8A7D
  3
ColorChange
350
8A81
  3
Conceptual
350
8A7A
  3
Dim
350
8A7C
  3
EdgeColorOff
350
8A89
  3
Facepattern
350
8A80
  3
Flat
350
8A72
  3
FlatWithEdges
350
8A73
  3
Gouraud
350
8A74
  3
GouraudWithEdges
350
8A75
  3
Hidden
350
8A79
  3
JitterOff
350
8A87
  3
Linepattern
350
8A7F
  3
OverhangOff
350
8A88
  3
Realistic
350
8A7B
  3
Shaded
350
8A86
  3
Shaded with edges
350
8A85
  3
Shades of Gray
350
8A82
  3
Sketchy
350
8A83
  3
Thicken
350
8A7E
  3
Wireframe
350
8A78
  3
X-Ray
350
8A84
  0
XRECORD
  5
6D5E
102
{ACAD_REACTORS
330
C
102
}
330
C
100
AcDbXrecord
280
     1
 90
   990106
  3

 60
     0
 61
     0
 62
     1
 63
     3
 64
     0
 65
     0
 66
     0
 67
     3
 68
     1
 69
     0
 70
     0
 71
     0
 72
     0
 40
0.0
170
     0
340
0
  0
XRECORD
  5
1C481
102
{ACAD_REACTORS
330
C
102
}
330
C
100
AcDbXrecord
280
     1
 90
        1
330
8A8C
330
8AA2
330
8AA4
  0
DICTIONARY
  5
5697
102
{ACAD_REACTORS
330
C
102
}
330
C
100
AcDbDictionary
281
     1
  3
CANNOSCALE
350
8AE9
  3
CMLEADERSTYLE
350
8AE5
  3
CTABLESTYLE
350
8AE4
  3
CVIEWDETAILSTYLE
350
8AE6
  3
CVIEWSECTIONSTYLE
350
8AE7
  3
DIMASSOC
350
5698
  3
LAYEREVAL
350
8AEB
  3
LAYERNOTIFY
350
8AEC
  3
LIGHTINGUNITS
350
8AEA
  3
MSLTSCALE
350
8AE8
  0
DICTIONARY
  5
BFC4
102
{ACAD_REACTORS
330
C
102
}
330
C
100
AcDbDictionary
281
     1
  0
DICTIONARY
  5
F3CD
102
{ACAD_REACTORS
330
F3CC
102
}
330
F3CC
100
AcDbDictionary
281
     1
  0
XRECORD
  5
8ACD
102
{ACAD_REACTORS
330
8ACC
102
}
330
8ACC
100
AcDbXrecord
280
     1
290
     1
  0
XRECORD
  5
8ACF
102
{ACAD_REACTORS
330
8ACE
102
}
330
8ACE
100
AcDbXrecord
280
     1
290
     1
  0
XRECORD
  5
8AD1
102
{ACAD_REACTORS
330
8AD0
102
}
330
8AD0
100
AcDbXrecord
280
     1
290
     1
  0
XRECORD
  5
8AD3
102
{ACAD_REACTORS
330
8AD2
102
}
330
8AD2
100
AcDbXrecord
280
     1
290
     1
  0
XRECORD
  5
8AD5
102
{ACAD_REACTORS
330
8AD4
102
}
330
8AD4
100
AcDbXrecord
280
     1
290
     1
  0
XRECORD
  5
8AD7
102
{ACAD_REACTORS
330
8AD6
102
}
330
8AD6
100
AcDbXrecord
280
     1
290
     1
  0
XRECORD
  5
8AD9
102
{ACAD_REACTORS
330
8AD8
102
}
330
8AD8
100
AcDbXrecord
280
     1
290
     1
  0
XRECORD
  5
8ADB
102
{ACAD_REACTORS
330
8ADA
102
}
330
8ADA
100
AcDbXrecord
280
     1
290
     1
  0
XRECORD
  5
8ADD
102
{ACAD_REACTORS
330
8ADC
102
}
330
8ADC
100
AcDbXrecord
280
     1
290
     1
  0
XRECORD
  5
8ADF
102
{ACAD_REACTORS
330
8ADE
102
}
330
8ADE
100
AcDbXrecord
280
     1
290
     1
  0
XRECORD
  5
8A0F
102
{ACAD_REACTORS
330
178
102
}
330
178
100
AcDbXrecord
280
     1
340
1E
  0
SORTENTSTABLE
  5
10338
102
{ACAD_REACTORS
330
178
102
}
330
178
100
AcDbSortentsTable
330
1E
331
18930
  5
18536
331
1A106
  5
1AB2E
331
1897F
  5
18585
331
18938
  5
1853E
331
18987
  5
1858E
331
18940
  5
18546
331
18948
  5
1854E
331
188A9
  5
184B2
331
188B1
  5
184B9
331
1AA94
  5
1ACAD
331
187D9
  5
183E1
331
18820
  5
18426
331
188BE
  5
184C5
331
18828
  5
1842E
331
1885F
  5
18464
331
188D6
  5
184DD
331
18830
  5
18435
331
18867
  5
1846C
331
187E9
  5
183EF
331
188DE
  5
184E5
331
187F1
  5
183F6
331
18838
  5
1843D
331
188EE
  5
184F4
331
18877
  5
1847D
331
18953
  5
18559
331
188C9
  5
184D0
331
18958
  5
1855E
331
18909
  5
18512
331
18997
  5
18592
331
18960
  5
18566
331
18911
  5
1851A
331
1C455
  5
1C456
331
189A7
  5
187FD
331
18921
  5
18527
331
18968
  5
1856E
331
189AF
  5
18805
331
18970
  5
18576
331
18929
  5
1852F
331
1899A
  5
18595
331
189B2
  5
18808
331
188C5
  5
184CC
331
189BA
  5
1880F
331
188E5
  5
184EB
331
1A10D
  5
1AB35
331
1A7A5
  5
1ACA4
331
187F9
  5
1840C
331
18840
  5
18445
331
188F6
  5
184FC
331
1887F
  5
18485
331
18801
  5
18414
331
18848
  5
1844D
331
188FE
  5
18504
331
18887
  5
1848D
331
18850
  5
18455
331
18809
  5
1841D
331
18906
  5
1850F
331
1888F
  5
18495
331
18978
  5
1857E
331
18931
  5
18537
331
1A107
  5
1AB2F
331
18980
  5
18586
331
18939
  5
1853F
331
18988
  5
1858F
331
18941
  5
18547
331
18949
  5
1854F
331
188AA
  5
184B3
331
1A9C5
  5
1ACA8
331
1AA95
  5
1ACAE
331
18821
  5
18427
331
18858
  5
1845D
331
187DA
  5
183E2
331
188BF
  5
184C6
331
18860
  5
18465
331
188D7
  5
184DE
331
18868
  5
1846D
331
187EA
  5
183F0
331
18831
  5
18436
331
188DF
  5
184E6
331
18870
  5
18476
331
18839
  5
1843E
331
187F2
  5
183F7
331
188EF
  5
184F5
331
1891C
  5
18522
331
18954
  5
1855A
331
188CA
  5
184D1
331
18959
  5
1855F
331
1890A
  5
18513
331
189A0
  5
1859B
331
18961
  5
18567
331
18912
  5
1851B
331
189A8
  5
187FE
331
1C456
  5
18475
331
18969
  5
1856F
331
18922
  5
18528
331
18971
  5
18577
331
1892A
  5
18530
331
1899B
  5
18596
331
189B3
  5
18809
331
188C6
  5
184CD
331
189BB
  5
1A10F
331
188E6
  5
184EC
331
1A10E
  5
1ACA3
331
1A7A6
  5
1ACA7
331
18878
  5
1847E
331
18841
  5
18446
331
187FA
  5
1840D
331
188F7
  5
184FD
331
18880
  5
18486
331
18802
  5
18415
331
18849
  5
1844E
331
188FF
  5
18506
331
18888
  5
1848E
331
1880A
  5
1841E
331
18851
  5
18456
331
18907
  5
18510
331
18890
  5
18496
331
18979
  5
1857F
331
18932
  5
18538
331
18981
  5
18587
331
1893A
  5
18540
331
18989
  5
18590
331
18942
  5
18548
331
1894A
  5
18550
331
188AB
  5
184B4
331
1A9C6
  5
1ACA9
331
1AA96
  5
1ACAF
331
188B8
  5
184BE
331
18859
  5
1845E
331
187DB
  5
183E3
331
18822
  5
18428
331
188D0
  5
184D7
331
1882A
  5
1842F
331
18861
  5
18466
331
187E3
  5
183E9
331
188D8
  5
184DF
331
18832
  5
18437
331
18869
  5
1846E
331
188E8
  5
184EE
331
18871
  5
18477
331
187F3
  5
183F8
331
1883A
  5
1843F
331
1891D
  5
18523
331
18955
  5
1855B
331
188CB
  5
184D2
331
1895A
  5
18560
331
1890B
  5
18514
331
189A1
  5
1859C
331
18962
  5
18568
331
18913
  5
1851C
331
189A9
  5
187FF
331
1896A
  5
18570
331
18923
  5
18529
331
18972
  5
18578
331
1892B
  5
18531
331
1899C
  5
18597
331
188C7
  5
184CE
331
188E7
  5
184ED
331
188F0
  5
184F6
331
18879
  5
1847F
331
187FB
  5
1840E
331
18842
  5
18447
331
188F8
  5
184FE
331
18881
  5
18487
331
1884A
  5
1844F
331
18803
  5
18417
331
18900
  5
18509
331
18889
  5
1848F
331
18852
  5
18457
331
1880B
  5
1841F
331
18891
  5
18497
331
1897A
  5
18580
331
18933
  5
18539
331
18982
  5
18588
331
1893B
  5
18541
331
18943
  5
18549
331
1894B
  5
18551
331
188A4
  5
184AD
331
188AC
  5
184B5
331
1A9C7
  5
1ACAA
331
198EE
  5
1AB07
331
188B4
  5
184BA
331
1AA97
  5
1ACB0
331
188B9
  5
184BF
331
187DC
  5
183E4
331
18823
  5
18429
331
1885A
  5
1845F
331
188D1
  5
184D8
331
187E4
  5
183EA
331
1882B
  5
18430
331
18862
  5
18467
331
188D9
  5
184E0
331
1886A
  5
1846F
331
187EC
  5
183F1
331
18833
  5
18438
331
188E9
  5
184EF
331
18872
  5
18478
331
1883B
  5
18440
331
187F4
  5
183F9
331
1891E
  5
18524
331
18956
  5
1855C
331
188CC
  5
184D3
331
1895B
  5
18561
331
1890C
  5
18515
331
189A2
  5
1859D
331
18963
  5
18569
331
18914
  5
1851D
331
189AA
  5
18800
331
1896B
  5
18571
331
18924
  5
1852A
331
19F0A
  5
1AB2A
331
18973
  5
18579
331
1892C
  5
18532
331
1899D
  5
18598
331
188C0
  5
184C7
331
189B5
  5
1880A
331
188E0
  5
184E7
331
1A108
  5
1AB30
331
188F1
  5
184F7
331
1887A
  5
18480
331
18843
  5
18448
331
187FC
  5
1840F
331
188F9
  5
184FF
331
18882
  5
18488
331
18804
  5
18418
331
1884B
  5
18450
331
18901
  5
1850A
331
1888A
  5
18490
331
1880C
  5
18420
331
18853
  5
18458
331
18892
  5
18498
331
1881C
  5
18422
331
1897B
  5
18581
331
18934
  5
1853A
331
18983
  5
1858A
331
1893C
  5
18542
331
18944
  5
1854A
331
1894C
  5
18552
331
188A5
  5
184AE
331
188AD
  5
184B6
331
188B5
  5
184BB
331
1BB88
  5
1C13B
331
188BA
  5
184C0
331
187DD
  5
183E5
331
18824
  5
1842A
331
188D2
  5
184D9
331
1882C
  5
18431
331
18863
  5
18468
331
187E5
  5
183EB
331
188DA
  5
184E1
331
187ED
  5
183F2
331
18834
  5
18439
331
1886B
  5
18470
331
188EA
  5
184F0
331
18873
  5
18479
331
187F5
  5
183FA
331
1883C
  5
18441
331
1891F
  5
18525
331
18957
  5
1855D
331
188CD
  5
184D4
331
1895C
  5
18562
331
1890D
  5
18516
331
189A3
  5
1859F
331
18964
  5
1856A
331
18915
  5
1851E
331
189AB
  5
18801
331
1896C
  5
18572
331
18925
  5
1852B
331
18974
  5
1857A
331
1892D
  5
18533
331
1899E
  5
18599
331
188C1
  5
184C8
331
189B6
  5
1880B
331
188E1
  5
184E8
331
1A109
  5
1AB31
331
188F2
  5
184F8
331
1887B
  5
18481
331
187FD
  5
18410
331
18844
  5
18449
331
188FA
  5
18500
331
18883
  5
18489
331
1884C
  5
18451
331
18805
  5
18419
331
18902
  5
1850B
331
1888B
  5
18491
331
18854
  5
18459
331
1880D
  5
18421
331
18893
  5
18499
331
1881D
  5
18423
331
1A103
  5
1AB2B
331
1897C
  5
18582
331
18935
  5
1853B
331
18984
  5
1858B
331
1893D
  5
18543
331
18945
  5
1854B
331
1894D
  5
18553
331
188A6
  5
184AF
331
188AE
  5
184B7
331
188B6
  5
184BC
331
188BB
  5
184C1
331
187DE
  5
183E6
331
18825
  5
1842B
331
1885C
  5
18461
331
188D3
  5
184DA
331
187E6
  5
183EC
331
1882D
  5
18432
331
188DB
  5
184E2
331
1886C
  5
18471
331
187EE
  5
183F3
331
18835
  5
1843A
331
188EB
  5
184F1
331
18874
  5
1847A
331
1883D
  5
18442
331
187F6
  5
18409
331
18950
  5
18556
331
188CE
  5
184D5
331
1895D
  5
18563
331
1890E
  5
18517
331
189A4
  5
185A0
331
18965
  5
1856B
331
18916
  5
1851F
331
189AC
  5
18802
331
1896D
  5
18573
331
18926
  5
1852C
331
18975
  5
1857B
331
1892E
  5
18534
331
1899F
  5
1859A
331
188C2
  5
184C9
331
1C301
  5
1C303
331
189B7
  5
1880C
331
1A10A
  5
1AB32
331
188F3
  5
184F9
331
1887C
  5
18482
331
187FE
  5
18411
331
18845
  5
1844A
331
188FB
  5
18501
331
18884
  5
1848A
331
18806
  5
1841A
331
1884D
  5
18452
331
18903
  5
1850C
331
1888C
  5
18492
331
18855
  5
1845A
331
18894
  5
1849A
331
1881E
  5
18424
331
1A104
  5
1AB2C
331
1897D
  5
18583
331
18936
  5
1853C
331
18985
  5
1858C
331
1893E
  5
18544
331
1C434
  5
1C44D
331
18946
  5
1854C
331
1894E
  5
18554
331
188A7
  5
184B0
331
1AA92
  5
1ACAB
331
188B7
  5
184BD
331
1BB4A
  5
1BB88
331
188BC
  5
184C2
331
1885D
  5
18462
331
187DF
  5
183E7
331
18826
  5
1842C
331
188D4
  5
184DB
331
1882E
  5
18433
331
18865
  5
1846A
331
187E7
  5
183ED
331
188DC
  5
184E3
331
187EF
  5
183F4
331
18836
  5
1843B
331
1886D
  5
18472
331
188EC
  5
184F2
331
18875
  5
1847B
331
187F7
  5
1840A
331
1883E
  5
18443
331
18951
  5
18557
331
1AA98
  5
1BB4A
331
188CF
  5
184D6
331
1895E
  5
18564
331
1890F
  5
18518
331
189A5
  5
185A1
331
18966
  5
1856C
331
18917
  5
18521
331
189AD
  5
18803
331
1896E
  5
18574
331
18927
  5
1852D
331
18998
  5
18593
331
18976
  5
1857C
331
1892F
  5
18535
331
189B0
  5
18806
331
188C3
  5
184CA
331
189B8
  5
1880D
331
188E3
  5
184E9
331
1A10B
  5
1AB33
331
19842
  5
1A2B3
331
188F4
  5
184FA
331
1887D
  5
18483
331
187FF
  5
18412
331
18846
  5
1844B
331
188FC
  5
18502
331
18885
  5
1848B
331
1884E
  5
18453
331
18807
  5
1841B
331
18904
  5
1850D
331
1888D
  5
18493
331
18856
  5
1845B
331
18895
  5
1849B
331
1881F
  5
18425
331
1A105
  5
1AB2D
331
1897E
  5
18584
331
18937
  5
1853D
331
1C42D
  5
1C434
331
18986
  5
1858D
331
1893F
  5
18545
331
18947
  5
1854D
331
1C44D
  5
1C454
331
188A8
  5
184B1
331
1894F
  5
18555
331
188B0
  5
184B8
331
1AA93
  5
1ACAC
331
188BD
  5
184C4
331
187E0
  5
183E8
331
18827
  5
1842D
331
1885E
  5
18463
331
188D5
  5
184DC
331
18866
  5
1846B
331
187E8
  5
183EE
331
1882F
  5
18434
331
188DD
  5
184E4
331
1886E
  5
18473
331
187F0
  5
183F5
331
18837
  5
1843C
331
188ED
  5
184F3
331
18876
  5
1847C
331
1883F
  5
18444
331
18952
  5
18558
331
188C8
  5
184CF
331
18908
  5
18511
331
18996
  5
18591
331
1895F
  5
18565
331
18910
  5
18519
331
1C454
  5
1C455
331
189A6
  5
185A2
331
18967
  5
1856D
331
18920
  5
18526
331
189AE
  5
18804
331
1896F
  5
18575
331
18928
  5
1852E
331
18999
  5
18594
331
18977
  5
1857D
331
1C13B
  5
1C301
331
189B1
  5
18807
331
188C4
  5
184CB
331
1C303
  5
1C42D
331
189B9
  5
1880E
331
188E4
  5
184EA
331
1A10C
  5
1AB34
331
19793
  5
1A287
331
187F8
  5
1840B
331
188F5
  5
184FB
331
1887E
  5
18484
331
18800
  5
18413
331
18847
  5
1844C
331
188FD
  5
18503
331
18886
  5
1848C
331
18808
  5
1841C
331
1884F
  5
18454
331
18905
  5
1850E
331
1888E
  5
18494
331
18857
  5
1845C
331
18896
  5
184AC
  0
XRECORD
  5
8A0E
102
{ACAD_REACTORS
330
17A
102
}
330
17A
100
AcDbXrecord
280
     1
340
1A
  0
ACDBDETAILVIEWSTYLE
  5
8AA4
102
{ACAD_XDICTIONARY
360
1C417
102
}
102
{ACAD_REACTORS
330
8AA3
102
}
330
8AA3
100
AcDbModelDocViewStyle
 70
     0
  3
Imperial24
290
     0
100
AcDbDetailViewStyle
 70
     0
 71
     0
 90
        3
 71
     1
340
11
 62
   256
 40
0.24
340
0
 62
   256
 40
0.24
300

 40
0.36
280
     3
 71
     2
340
15
 90
       25
 62
   256
 71
     3
340
11
 62
   256
 40
0.24
 90
        1
 40
0.75
 90
        1
300
%<\AcVar ViewType \f "%tc1">% %<\AcVar ViewDetailId>%\PSCALE %<\AcVar ViewScale \f "%sn">%
 71
     4
340
15
 90
       25
 62
   256
340
15
 90
       25
 62
   256
280
     0
  0
LAYOUT
  5
8A4C
102
{ACAD_XDICTIONARY
360
F3D2
102
}
102
{ACAD_REACTORS
330
19
102
}
330
19
100
AcDbPlotSettings
  1

  2
none_device
  4
Letter_(8.50_x_11.00_Inches)
  6

 40
6.349999904632567
 41
6.349999904632567
 42
6.350006103515625
 43
6.350006103515625
 44
215.8999938964844
 45
279.3999938964844
 46
0.0
 47
0.0
 48
0.0
 49
0.0
140
0.0
141
0.0
142
1.0
143
317.0449279872537
 70
 11952
 72
     0
 73
     1
 74
     0
  7
monochrome.ctb
 75
     0
147
0.0031541271022642
 76
     0
 77
     2
 78
   300
148
21198.07971653447
149
42574.72085005308
100
AcDbLayout
  1
Model
 70
     1
 71
     0
 10
0.0
 20
0.0
 11
12.0
 21
9.0
 12
0.0
 22
0.0
 32
0.0
 14
0.0
 24
0.0
 34
0.0
 15
0.0
 25
0.0
 35
0.0
146
0.0
 13
0.0
 23
0.0
 33
0.0
 16
1.0
 26
0.0
 36
0.0
 17
0.0
 27
1.0
 37
0.0
 76
     0
330
1E
331
8A51
1001
ACAD_PSEXT
1000
なし
1000
なし
1000
適切ではありません
1000
新しいプロッタ環境設定名を選択しない限り、レイアウトは印刷されません。
1070
     0
  0
LAYOUT
  5
8A4D
102
{ACAD_REACTORS
330
19
102
}
330
19
100
AcDbPlotSettings
  1

  2
Canon LBP3800 LIPSLX
  4

  6

 40
0.0
 41
0.0
 42
0.0
 43
0.0
 44
0.0
 45
0.0
 46
0.0
 47
0.0
 48
0.0
 49
0.0
140
0.0
141
0.0
142
1.0
143
1.0
 70
   688
 72
     0
 73
     0
 74
     5
  7
monochrome.ctb
 75
    16
147
1.0
 76
     0
 77
     2
 78
   300
148
0.0
149
0.0
100
AcDbLayout
  1
ﾚｲｱｳﾄ1
 70
     1
 71
     1
 10
-5.873749
 20
-5.87375
 11
204.099579
 21
291.1369009999999
 12
0.0
 22
0.0
 32
0.0
 14
4.273573
 24
5.205245999999998
 34
0.0
 15
194.610095
 25
283.0697009999996
 35
0.0
146
0.0
 13
0.0
 23
0.0
 33
0.0
 16
1.0
 26
0.0
 36
0.0
 17
0.0
 27
1.0
 37
0.0
 76
     0
330
1A
331
9AC
  0
MATERIAL
  5
8A61
102
{ACAD_XDICTIONARY
360
8A62
102
}
102
{ACAD_REACTORS
330
8A58
102
}
330
8A58
100
AcDbMaterial
  1
ByBlock
 72
     0
 43
0.0208333333333333
 43
0.0
 43
0.0
 43
0.0
 43
0.0
 43
0.0208333333333333
 43
0.0
 43
0.0
 43
0.0
 43
0.0
 43
1.0
 43
0.0
 43
0.0
 43
0.0
 43
0.0
 43
1.0
 77
     0
 47
0.0208333333333333
 47
0.0
 47
0.0
 47
0.0
 47
0.0
 47
0.0208333333333333
 47
0.0
 47
0.0
 47
0.0
 47
0.0
 47
1.0
 47
0.0
 47
0.0
 47
0.0
 47
0.0
 47
1.0
171
     0
 49
0.0208333333333333
 49
0.0
 49
0.0
 49
0.0
 49
0.0
 49
0.0208333333333333
 49
0.0
 49
0.0
 49
0.0
 49
0.0
 49
1.0
 49
0.0
 49
0.0
 49
0.0
 49
0.0
 49
1.0
175
     0
142
0.0208333333333333
142
0.0
142
0.0
142
0.0
142
0.0
142
0.0208333333333333
142
0.0
142
0.0
142
0.0
142
0.0
142
1.0
142
0.0
142
0.0
142
0.0
142
0.0
142
1.0
179
     0
144
0.0208333333333333
144
0.0
144
0.0
144
0.0
144
0.0
144
0.0208333333333333
144
0.0
144
0.0
144
0.0
144
0.0
144
1.0
144
0.0
144
0.0
144
0.0
144
0.0
144
1.0
147
0.0208333333333333
147
0.0
147
0.0
147
0.0
147
0.0
147
0.0208333333333333
147
0.0
147
0.0
147
0.0
147
0.0
147
1.0
147
0.0
147
0.0
147
0.0
147
0.0
147
1.0
  0
MATERIAL
  5
8A59
102
{ACAD_XDICTIONARY
360
8A5A
102
}
102
{ACAD_REACTORS
330
8A58
102
}
330
8A58
100
AcDbMaterial
  1
ByLayer
 72
     0
 43
0.0208333333333333
 43
0.0
 43
0.0
 43
0.0
 43
0.0
 43
0.0208333333333333
 43
0.0
 43
0.0
 43
0.0
 43
0.0
 43
1.0
 43
0.0
 43
0.0
 43
0.0
 43
0.0
 43
1.0
 77
     0
 47
0.0208333333333333
 47
0.0
 47
0.0
 47
0.0
 47
0.0
 47
0.0208333333333333
 47
0.0
 47
0.0
 47
0.0
 47
0.0
 47
1.0
 47
0.0
 47
0.0
 47
0.0
 47
0.0
 47
1.0
171
     0
 49
0.0208333333333333
 49
0.0
 49
0.0
 49
0.0
 49
0.0
 49
0.0208333333333333
 49
0.0
 49
0.0
 49
0.0
 49
0.0
 49
1.0
 49
0.0
 49
0.0
 49
0.0
 49
0.0
 49
1.0
175
     0
142
0.0208333333333333
142
0.0
142
0.0
142
0.0
142
0.0
142
0.0208333333333333
142
0.0
142
0.0
142
0.0
142
0.0
142
1.0
142
0.0
142
0.0
142
0.0
142
0.0
142
1.0
179
     0
144
0.0208333333333333
144
0.0
144
0.0
144
0.0
144
0.0
144
0.0208333333333333
144
0.0
144
0.0
144
0.0
144
0.0
144
1.0
144
0.0
144
0.0
144
0.0
144
0.0
144
1.0
147
0.0208333333333333
147
0.0
147
0.0
147
0.0
147
0.0
147
0.0208333333333333
147
0.0
147
0.0
147
0.0
147
0.0
147
1.0
147
0.0
147
0.0
147
0.0
147
0.0
147
1.0
  0
MATERIAL
  5
8A69
102
{ACAD_XDICTIONARY
360
8A6A
102
}
102
{ACAD_REACTORS
330
8A58
102
}
330
8A58
100
AcDbMaterial
  1
Global
 72
     0
 43
0.0208333333333333
 43
0.0
 43
0.0
 43
0.0
 43
0.0
 43
0.0208333333333333
 43
0.0
 43
0.0
 43
0.0
 43
0.0
 43
1.0
 43
0.0
 43
0.0
 43
0.0
 43
0.0
 43
1.0
 77
     0
 47
0.0208333333333333
 47
0.0
 47
0.0
 47
0.0
 47
0.0
 47
0.0208333333333333
 47
0.0
 47
0.0
 47
0.0
 47
0.0
 47
1.0
 47
0.0
 47
0.0
 47
0.0
 47
0.0
 47
1.0
171
     0
 49
0.0208333333333333
 49
0.0
 49
0.0
 49
0.0
 49
0.0
 49
0.0208333333333333
 49
0.0
 49
0.0
 49
0.0
 49
0.0
 49
1.0
 49
0.0
 49
0.0
 49
0.0
 49
0.0
 49
1.0
175
     0
142
0.0208333333333333
142
0.0
142
0.0
142
0.0
142
0.0
142
0.0208333333333333
142
0.0
142
0.0
142
0.0
142
0.0
142
1.0
142
0.0
142
0.0
142
0.0
142
0.0
142
1.0
179
     0
144
0.0208333333333333
144
0.0
144
0.0
144
0.0
144
0.0
144
0.0208333333333333
144
0.0
144
0.0
144
0.0
144
0.0
144
1.0
144
0.0
144
0.0
144
0.0
144
0.0
144
1.0
147
0.0208333333333333
147
0.0
147
0.0
147
0.0
147
0.0
147
0.0208333333333333
147
0.0
147
0.0
147
0.0
147
0.0
147
1.0
147
0.0
147
0.0
147
0.0
147
0.0
147
1.0
  0
MLEADERSTYLE
  5
8AA0
102
{ACAD_REACTORS
330
8A9F
330
1C301
102
}
330
8A9F
100
AcDbMLeaderStyle
179
     2
170
     2
171
     1
172
     0
 90
        2
 40
0.0
 41
0.0
173
     1
 91
-1056964608
340
13
 92
       -2
290
     1
 42
0.09
291
     1
 43
0.36
  3
Standard
 44
0.18
300

342
11
174
     1
178
     6
175
     1
176
     0
 93
-1056964608
 45
0.18
292
     0
297
     0
 46
0.18
 94
-1056964608
 47
1.0
 49
1.0
140
1.0
293
     1
141
0.0
294
     1
177
     0
142
1.0
295
     0
296
     0
143
0.125
271
     0
272
     9
273
     9
298
     0
  0
MLINESTYLE
  5
17
102
{ACAD_REACTORS
330
16
102
}
330
16
100
AcDbMlineStyle
  2
STANDARD
 70
     0
  3

 62
   256
 51
90.0
 52
90.0
 71
     2
 49
0.5
 62
   256
  6
BYLAYER
 49
-0.5
 62
   256
  6
BYLAYER
  0
ACDBPLACEHOLDER
  5
F
102
{ACAD_REACTORS
330
E
102
}
330
E
  0
SCALE
  5
8A8E
102
{ACAD_REACTORS
330
8A8D
102
}
330
8A8D
100
AcDbScale
 70
     0
300
1:1
140
1.0
141
1.0
290
     1
  0
SCALE
  5
8A8F
102
{ACAD_REACTORS
330
8A8D
102
}
330
8A8D
100
AcDbScale
 70
     0
300
1/128" = 1'-0"
140
0.0078125
141
12.0
290
     0
  0
SCALE
  5
8A90
102
{ACAD_REACTORS
330
8A8D
102
}
330
8A8D
100
AcDbScale
 70
     0
300
1/64" = 1'-0"
140
0.015625
141
12.0
290
     0
  0
SCALE
  5
8A91
102
{ACAD_REACTORS
330
8A8D
102
}
330
8A8D
100
AcDbScale
 70
     0
300
1/32" = 1'-0"
140
0.03125
141
12.0
290
     0
  0
SCALE
  5
8A92
102
{ACAD_REACTORS
330
8A8D
102
}
330
8A8D
100
AcDbScale
 70
     0
300
1/16" = 1'-0"
140
0.0625
141
12.0
290
     0
  0
SCALE
  5
8A93
102
{ACAD_REACTORS
330
8A8D
102
}
330
8A8D
100
AcDbScale
 70
     0
300
3/32" = 1'-0"
140
0.09375
141
12.0
290
     0
  0
SCALE
  5
8A94
102
{ACAD_REACTORS
330
8A8D
102
}
330
8A8D
100
AcDbScale
 70
     0
300
1/8" = 1'-0"
140
0.125
141
12.0
290
     0
  0
SCALE
  5
8A95
102
{ACAD_REACTORS
330
8A8D
102
}
330
8A8D
100
AcDbScale
 70
     0
300
3/16" = 1'-0"
140
0.1875
141
12.0
290
     0
  0
SCALE
  5
8A96
102
{ACAD_REACTORS
330
8A8D
102
}
330
8A8D
100
AcDbScale
 70
     0
300
1/4" = 1'-0"
140
0.25
141
12.0
290
     0
  0
SCALE
  5
8A97
102
{ACAD_REACTORS
330
8A8D
102
}
330
8A8D
100
AcDbScale
 70
     0
300
3/8" = 1'-0"
140
0.375
141
12.0
290
     0
  0
SCALE
  5
8A98
102
{ACAD_REACTORS
330
8A8D
102
}
330
8A8D
100
AcDbScale
 70
     0
300
1/2" = 1'-0"
140
0.5
141
12.0
290
     0
  0
SCALE
  5
8A99
102
{ACAD_REACTORS
330
8A8D
102
}
330
8A8D
100
AcDbScale
 70
     0
300
3/4" = 1'-0"
140
0.75
141
12.0
290
     0
  0
SCALE
  5
8A9A
102
{ACAD_REACTORS
330
8A8D
102
}
330
8A8D
100
AcDbScale
 70
     0
300
1" = 1'-0"
140
1.0
141
12.0
290
     0
  0
SCALE
  5
8A9B
102
{ACAD_REACTORS
330
8A8D
102
}
330
8A8D
100
AcDbScale
 70
     0
300
1-1/2" = 1'-0"
140
1.5
141
12.0
290
     0
  0
SCALE
  5
8A9C
102
{ACAD_REACTORS
330
8A8D
102
}
330
8A8D
100
AcDbScale
 70
     0
300
3" = 1'-0"
140
3.0
141
12.0
290
     0
  0
SCALE
  5
8A9D
102
{ACAD_REACTORS
330
8A8D
102
}
330
8A8D
100
AcDbScale
 70
     0
300
6" = 1'-0"
140
6.0
141
12.0
290
     0
  0
SCALE
  5
8A9E
102
{ACAD_REACTORS
330
8A8D
102
}
330
8A8D
100
AcDbScale
 70
     0
300
1'-0" = 1'-0"
140
12.0
141
12.0
290
     0
  0
ACDBSECTIONVIEWSTYLE
  5
8AA2
102
{ACAD_XDICTIONARY
360
1C415
102
}
102
{ACAD_REACTORS
330
8AA1
102
}
330
8AA1
100
AcDbModelDocViewStyle
 70
     0
  3
Imperial24
290
     0
100
AcDbSectionViewStyle
 70
     0
 71
     0
 90
       78
 71
     1
340
11
 62
   256
 40
0.24
340
0
340
0
 62
   256
 40
0.24
300
I, O, Q, S, X, Z
 40
0.48
 90
        3
 40
0.18
 90
        1
 71
     2
340
15
 90
       25
 62
   256
340
15
 90
       50
 62
   256
 40
0.24
 40
0.0
 40
0.24
 71
     3
340
11
 62
   256
 40
0.24
 90
        1
 40
0.75
 90
        1
300
%<\AcVar ViewType \f "%tc1">% %<\AcVar ViewSectionStartId>%-%<\AcVar ViewSectionEndId>%\PSCALE %<\AcVar ViewScale \f "%sn">%
 71
     4
 62
   256
 62
   257
300
ANSI31
 40
1.0
 90
        0
290
     0
290
     0
 90
        6
 40
0.0
 40
1.570796326794896
 40
0.2617993877991494
 40
1.308996938995747
 40
-0.2617993877991494
 40
1.832595714594044
  0
TABLESTYLE
  5
8A8C
102
{ACAD_XDICTIONARY
360
8AED
102
}
102
{ACAD_REACTORS
330
8A8B
102
}
330
8A8B
100
AcDbTableStyle
280
     0
  3
Standard
 70
     0
 71
     0
 40
0.06
 41
0.06
280
     0
281
     0
  7
STANDARD
140
0.18
170
     2
 62
     0
 63
     7
283
     0
 90
      512
 91
        0
  1

274
    -2
284
     1
 64
     0
275
    -2
285
     1
 65
     0
276
    -2
286
     1
 66
     0
277
    -2
287
     1
 67
     0
278
    -2
288
     1
 68
     0
279
    -2
289
     1
 69
     0
  7
STANDARD
140
0.25
170
     5
 62
     0
 63
     7
283
     0
 90
      512
 91
        0
  1

274
    -2
284
     1
 64
     0
275
    -2
285
     1
 65
     0
276
    -2
286
     1
 66
     0
277
    -2
287
     1
 67
     0
278
    -2
288
     1
 68
     0
279
    -2
289
     1
 69
     0
  7
STANDARD
140
0.18
170
     5
 62
     0
 63
     7
283
     0
 90
      512
 91
        0
  1

274
    -2
284
     1
 64
     0
275
    -2
285
     1
 65
     0
276
    -2
286
     1
 66
     0
277
    -2
287
     1
 67
     0
278
    -2
288
     1
 68
     0
279
    -2
289
     1
 69
     0
  0
VISUALSTYLE
  5
8A77
102
{ACAD_REACTORS
330
8A71
102
}
330
8A71
100
AcDbVisualStyle
  2
2dWireframe
 70
     4
177
     3
291
     0
 70
    58
 90
        0
176
     1
 90
        2
176
     1
 90
        0
176
     1
 90
        0
176
     1
 40
0.6
176
     1
 40
30.0
176
     1
 62
     7
420
 16777215
176
     1
 90
        1
176
     1
 90
        4
176
     1
 62
     7
176
     1
 62
   257
176
     1
 90
        1
176
     1
 90
        1
176
     1
 40
1.0
176
     1
 90
        0
176
     1
 62
   257
176
     1
 40
1.0
176
     1
 90
        1
176
     1
 90
        6
176
     1
 90
        2
176
     1
 62
     7
176
     1
 90
        5
176
     1
 90
        0
176
     1
 90
        0
176
     1
290
     0
176
     1
 90
        1
176
     1
 40
0.0
176
     1
 90
        0
176
     1
290
     1
176
     1
290
     1
176
     1
290
     0
176
     1
290
     0
176
     1
290
     0
176
     1
290
     0
176
     1
290
     0
176
     1
290
     0
176
     1
290
     0
176
     1
 90
       50
176
     1
 40
0.0
176
     1
 40
1.0
176
     1
 90
        0
176
     1
 62
    18
176
     1
 90
       50
176
     1
 90
        3
176
     1
 62
     5
420
      255
176
     1
290
     0
176
     1
 90
       50
176
     1
 90
       50
176
     1
 90
       50
176
     1
290
     0
176
     1
 90
       50
176
     1
 62
   256
176
     0
 40
1.0
176
     0
 90
        2
176
     1
  1
strokes_ogs.tif
176
     1
290
     0
176
     1
 40
1.0
176
     1
 40
1.0
176
     1
1001
ACAD
1000
AcDbSavedByObjectVersion
1070
     0
  0
VISUALSTYLE
  5
8B2B
102
{ACAD_REACTORS
330
8A71
102
}
330
8A71
100
AcDbVisualStyle
  2
3D Hidden
 70
     6
177
     3
291
     0
 70
    58
 90
        1
176
     1
 90
        2
176
     1
 90
        2
176
     1
 90
        0
176
     1
 40
0.6
176
     1
 40
30.0
176
     1
 62
     7
420
 16777215
176
     1
 90
        2
176
     1
 90
        2
176
     1
 62
     7
176
     1
 62
   257
176
     1
 90
        2
176
     1
 90
        1
176
     1
 40
179.0
176
     1
 90
        0
176
     1
 62
   257
176
     1
 40
1.0
176
     1
 90
        1
176
     1
 90
        6
176
     1
 90
        2
176
     1
 62
     7
176
     1
 90
        3
176
     1
 90
        0
176
     1
 90
        0
176
     1
290
     0
176
     1
 90
        1
176
     1
 40
0.0
176
     1
 90
        0
176
     1
290
     0
176
     1
290
     1
176
     1
290
     1
176
     1
290
     0
176
     1
290
     0
176
     1
290
     0
176
     1
290
     0
176
     1
290
     0
176
     1
290
     0
176
     1
 90
       50
176
     1
 40
0.0
176
     1
 40
1.0
176
     1
 90
        0
176
     1
 62
    18
176
     1
 90
       50
176
     1
 90
        3
176
     1
 62
     5
420
      255
176
     1
290
     0
176
     1
 90
       50
176
     1
 90
       50
176
     1
 90
       50
176
     1
290
     0
176
     1
 90
       50
176
     1
 62
   256
176
     0
 40
1.0
176
     0
 90
        2
176
     1
  1
strokes_ogs.tif
176
     1
290
     0
176
     1
 40
1.0
176
     1
 40
1.0
176
     1
1001
ACAD
1000
AcDbSavedByObjectVersion
1070
     0
  0
VISUALSTYLE
  5
8B2A
102
{ACAD_REACTORS
330
8A71
102
}
330
8A71
100
AcDbVisualStyle
  2
3dWireframe
 70
     5
177
     3
291
     0
 70
    58
 90
        0
176
     1
 90
        2
176
     1
 90
        0
176
     1
 90
        0
176
     1
 40
0.6
176
     1
 40
30.0
176
     1
 62
     7
420
 16777215
176
     1
 90
        1
176
     1
 90
        4
176
     1
 62
     7
176
     1
 62
   257
176
     1
 90
        1
176
     1
 90
        1
176
     1
 40
1.0
176
     1
 90
        0
176
     1
 62
   257
176
     1
 40
1.0
176
     1
 90
        1
176
     1
 90
        6
176
     1
 90
        2
176
     1
 62
     7
176
     1
 90
        5
176
     1
 90
        0
176
     1
 90
        0
176
     1
290
     0
176
     1
 90
        1
176
     1
 40
0.0
176
     1
 90
        0
176
     1
290
     0
176
     1
290
     1
176
     1
290
     1
176
     1
290
     0
176
     1
290
     0
176
     1
290
     0
176
     1
290
     0
176
     1
290
     0
176
     1
290
     0
176
     1
 90
       50
176
     1
 40
0.0
176
     1
 40
1.0
176
     1
 90
        0
176
     1
 62
    18
176
     1
 90
       50
176
     1
 90
        3
176
     1
 62
     5
420
      255
176
     1
290
     0
176
     1
 90
       50
176
     1
 90
       50
176
     1
 90
       50
176
     1
290
     0
176
     1
 90
       50
176
     1
 62
   256
176
     0
 40
1.0
176
     0
 90
        2
176
     1
  1
strokes_ogs.tif
176
     1
290
     0
176
     1
 40
1.0
176
     1
 40
1.0
176
     1
1001
ACAD
1000
AcDbSavedByObjectVersion
1070
     0
  0
VISUALSTYLE
  5
8A76
102
{ACAD_REACTORS
330
8A71
102
}
330
8A71
100
AcDbVisualStyle
  2
Basic
 70
     7
177
     3
291
     1
 70
    58
 90
        1
176
     1
 90
        0
176
     1
 90
        1
176
     1
 90
        0
176
     1
 40
0.6
176
     1
 40
30.0
176
     1
 62
     7
420
 16777215
176
     1
 90
        0
176
     1
 90
        4
176
     1
 62
     7
176
     1
 62
   257
176
     1
 90
        1
176
     1
 90
        1
176
     1
 40
1.0
176
     1
 90
        8
176
     1
 62
     7
176
     1
 40
1.0
176
     1
 90
        1
176
     1
 90
        6
176
     1
 90
        2
176
     1
 62
     7
176
     1
 90
        5
176
     1
 90
        0
176
     1
 90
        0
176
     1
290
     0
176
     1
 90
        1
176
     1
 40
0.0
176
     1
 90
        0
176
     1
290
     0
176
     1
290
     1
176
     1
290
     1
176
     1
290
     0
176
     1
290
     0
176
     1
290
     0
176
     1
290
     0
176
     1
290
     0
176
     1
290
     0
176
     1
 90
       50
176
     1
 40
0.0
176
     1
 40
1.0
176
     1
 90
        0
176
     1
 62
    18
176
     1
 90
       50
176
     1
 90
        3
176
     1
 62
     5
420
      255
176
     1
290
     0
176
     1
 90
       50
176
     1
 90
       50
176
     1
 90
       50
176
     1
290
     0
176
     1
 90
       50
176
     1
 62
   256
176
     0
 40
1.0
176
     0
 90
        2
176
     1
  1
strokes_ogs.tif
176
     1
290
     0
176
     1
 40
1.0
176
     1
 40
1.0
176
     1
1001
ACAD
1000
AcDbSavedByObjectVersion
1070
     0
  0
VISUALSTYLE
  5
8A7D
102
{ACAD_REACTORS
330
8A71
102
}
330
8A71
100
AcDbVisualStyle
  2
Brighten
 70
    12
177
     3
291
     1
 70
    58
 90
        2
176
     1
 90
        2
176
     1
 90
        0
176
     1
 90
        0
176
     1
 40
0.6
176
     1
 40
30.0
176
     1
 62
     7
420
 16777215
176
     1
 90
        1
176
     1
 90
        4
176
     1
 62
     7
176
     1
 62
   257
176
     1
 90
        1
176
     1
 90
        1
176
     1
 40
1.0
176
     1
 90
        8
176
     1
 62
     7
176
     1
 40
1.0
176
     1
 90
        1
176
     1
 90
        6
176
     1
 90
        2
176
     1
 62
     7
176
     1
 90
        5
176
     1
 90
        0
176
     1
 90
        0
176
     1
290
     0
176
     1
 90
        1
176
     1
 40
50.0
176
     1
 90
        0
176
     1
290
     0
176
     1
290
     1
176
     1
290
     1
176
     1
290
     0
176
     1
290
     0
176
     1
290
     0
176
     1
290
     0
176
     1
290
     0
176
     1
290
     0
176
     1
 90
       50
176
     1
 40
0.0
176
     1
 40
1.0
176
     1
 90
        0
176
     1
 62
    18
176
     1
 90
       50
176
     1
 90
        3
176
     1
 62
     5
420
      255
176
     1
290
     0
176
     1
 90
       50
176
     1
 90
       50
176
     1
 90
       50
176
     1
290
     0
176
     1
 90
       50
176
     1
 62
   256
176
     0
 40
1.0
176
     0
 90
        2
176
     1
  1
strokes_ogs.tif
176
     1
290
     0
176
     1
 40
1.0
176
     1
 40
1.0
176
     1
1001
ACAD
1000
AcDbSavedByObjectVersion
1070
     0
  0
VISUALSTYLE
  5
8A81
102
{ACAD_REACTORS
330
8A71
102
}
330
8A71
100
AcDbVisualStyle
  2
ColorChange
 70
    16
177
     3
291
     1
 70
    58
 90
        2
176
     1
 90
        2
176
     1
 90
        3
176
     1
 90
        0
176
     1
 40
0.6
176
     1
 40
30.0
176
     1
 62
     8
420
  8421504
176
     1
 90
        1
176
     1
 90
        4
176
     1
 62
     7
176
     1
 62
   257
176
     1
 90
        1
176
     1
 90
        1
176
     1
 40
1.0
176
     1
 90
        8
176
     1
 62
     8
420
  8421504
176
     1
 40
1.0
176
     1
 90
        1
176
     1
 90
        6
176
     1
 90
        2
176
     1
 62
     7
176
     1
 90
        5
176
     1
 90
        0
176
     1
 90
        0
176
     1
290
     0
176
     1
 90
        1
176
     1
 40
0.0
176
     1
 90
        0
176
     1
290
     0
176
     1
290
     1
176
     1
290
     1
176
     1
290
     0
176
     1
290
     0
176
     1
290
     0
176
     1
290
     0
176
     1
290
     0
176
     1
290
     0
176
     1
 90
       50
176
     1
 40
0.0
176
     1
 40
1.0
176
     1
 90
        0
176
     1
 62
    18
176
     1
 90
       50
176
     1
 90
        3
176
     1
 62
     5
420
      255
176
     1
290
     0
176
     1
 90
       50
176
     1
 90
       50
176
     1
 90
       50
176
     1
290
     0
176
     1
 90
       50
176
     1
 62
   256
176
     0
 40
1.0
176
     0
 90
        2
176
     1
  1
strokes_ogs.tif
176
     1
290
     0
176
     1
 40
1.0
176
     1
 40
1.0
176
     1
1001
ACAD
1000
AcDbSavedByObjectVersion
1070
     0
  0
VISUALSTYLE
  5
8A7A
102
{ACAD_REACTORS
330
8A71
102
}
330
8A71
100
AcDbVisualStyle
  2
Conceptual
 70
     9
177
     3
291
     0
 70
    58
 90
        3
176
     1
 90
        2
176
     1
 90
        0
176
     1
 90
        0
176
     1
 40
0.6
176
     1
 40
30.0
176
     1
 62
     7
420
 16777215
176
     1
 90
        2
176
     1
 90
        2
176
     1
 62
     7
176
     1
 62
   257
176
     1
 90
        1
176
     1
 90
        1
176
     1
 40
179.0
176
     1
 90
        8
176
     1
 62
     7
176
     1
 40
1.0
176
     1
 90
        1
176
     1
 90
        6
176
     1
 90
        2
176
     1
 62
     7
176
     1
 90
        3
176
     1
 90
        0
176
     1
 90
        0
176
     1
290
     0
176
     1
 90
        1
176
     1
 40
0.0
176
     1
 90
        0
176
     1
290
     0
176
     1
290
     1
176
     1
290
     1
176
     1
290
     0
176
     1
290
     0
176
     1
290
     0
176
     1
290
     0
176
     1
290
     0
176
     1
290
     0
176
     1
 90
       50
176
     1
 40
0.0
176
     1
 40
1.0
176
     1
 90
        0
176
     1
 62
    18
176
     1
 90
       50
176
     1
 90
        3
176
     1
 62
     5
420
      255
176
     1
290
     0
176
     1
 90
       50
176
     1
 90
       50
176
     1
 90
       50
176
     1
290
     0
176
     1
 90
       50
176
     1
 62
   256
176
     0
 40
1.0
176
     0
 90
        2
176
     1
  1
strokes_ogs.tif
176
     1
290
     0
176
     1
 40
1.0
176
     1
 40
1.0
176
     1
1001
ACAD
1000
AcDbSavedByObjectVersion
1070
     0
  0
VISUALSTYLE
  5
8A7C
102
{ACAD_REACTORS
330
8A71
102
}
330
8A71
100
AcDbVisualStyle
  2
Dim
 70
    11
177
     3
291
     1
 70
    58
 90
        2
176
     1
 90
        2
176
     1
 90
        0
176
     1
 90
        0
176
     1
 40
0.6
176
     1
 40
30.0
176
     1
 62
     7
420
 16777215
176
     1
 90
        1
176
     1
 90
        4
176
     1
 62
     7
176
     1
 62
   257
176
     1
 90
        1
176
     1
 90
        1
176
     1
 40
1.0
176
     1
 90
        8
176
     1
 62
     7
176
     1
 40
1.0
176
     1
 90
        1
176
     1
 90
        6
176
     1
 90
        2
176
     1
 62
     7
176
     1
 90
        5
176
     1
 90
        0
176
     1
 90
        0
176
     1
290
     0
176
     1
 90
        1
176
     1
 40
-50.0
176
     1
 90
        0
176
     1
290
     0
176
     1
290
     1
176
     1
290
     1
176
     1
290
     0
176
     1
290
     0
176
     1
290
     0
176
     1
290
     0
176
     1
290
     0
176
     1
290
     0
176
     1
 90
       50
176
     1
 40
0.0
176
     1
 40
1.0
176
     1
 90
        0
176
     1
 62
    18
176
     1
 90
       50
176
     1
 90
        3
176
     1
 62
     5
420
      255
176
     1
290
     0
176
     1
 90
       50
176
     1
 90
       50
176
     1
 90
       50
176
     1
290
     0
176
     1
 90
       50
176
     1
 62
   256
176
     0
 40
1.0
176
     0
 90
        2
176
     1
  1
strokes_ogs.tif
176
     1
290
     0
176
     1
 40
1.0
176
     1
 40
1.0
176
     1
1001
ACAD
1000
AcDbSavedByObjectVersion
1070
     0
  0
VISUALSTYLE
  5
8A89
102
{ACAD_REACTORS
330
8A71
102
}
330
8A71
100
AcDbVisualStyle
  2
EdgeColorOff
 70
    22
177
     3
291
     1
 70
    58
 90
        2
176
     0
 90
        2
176
     0
 90
        0
176
     0
 90
        0
176
     0
 40
0.6
176
     0
 40
30.0
176
     0
 62
     7
420
 16777215
176
     0
 90
        1
176
     0
 90
        4
176
     0
 62
     7
176
     0
 62
   257
176
     0
 90
        1
176
     0
 90
        1
176
     0
 40
1.0
176
     0
 90
        8
176
     2
 62
     7
176
     0
 40
1.0
176
     0
 90
        1
176
     0
 90
        6
176
     0
 90
        2
176
     0
 62
     7
176
     0
 90
        5
176
     0
 90
        0
176
     0
 90
        0
176
     0
290
     0
176
     0
 90
        1
176
     0
 40
0.0
176
     0
 90
        0
176
     0
290
     0
176
     1
290
     1
176
     1
290
     1
176
     1
290
     0
176
     1
290
     0
176
     1
290
     0
176
     1
290
     0
176
     1
290
     0
176
     1
290
     0
176
     1
 90
       50
176
     0
 40
0.0
176
     0
 40
1.0
176
     0
 90
        0
176
     0
 62
    18
176
     0
 90
       50
176
     0
 90
        3
176
     0
 62
     5
420
      255
176
     0
290
     0
176
     1
 90
       50
176
     0
 90
       50
176
     0
 90
       50
176
     0
290
     0
176
     1
 90
       50
176
     0
 62
   256
176
     0
 40
1.0
176
     0
 90
        2
176
     0
  1
strokes_ogs.tif
176
     0
290
     0
176
     1
 40
1.0
176
     0
 40
1.0
176
     0
1001
ACAD
1000
AcDbSavedByObjectVersion
1070
     0
  0
VISUALSTYLE
  5
8A80
102
{ACAD_REACTORS
330
8A71
102
}
330
8A71
100
AcDbVisualStyle
  2
Facepattern
 70
    15
177
     3
291
     1
 70
    58
 90
        2
176
     1
 90
        2
176
     1
 90
        0
176
     1
 90
        0
176
     1
 40
0.6
176
     1
 40
30.0
176
     1
 62
     7
420
 16777215
176
     1
 90
        1
176
     1
 90
        4
176
     1
 62
     7
176
     1
 62
   257
176
     1
 90
        1
176
     1
 90
        1
176
     1
 40
1.0
176
     1
 90
        8
176
     1
 62
     7
176
     1
 40
1.0
176
     1
 90
        1
176
     1
 90
        6
176
     1
 90
        2
176
     1
 62
     7
176
     1
 90
        5
176
     1
 90
        0
176
     1
 90
        0
176
     1
290
     0
176
     1
 90
        1
176
     1
 40
0.0
176
     1
 90
        0
176
     1
290
     0
176
     1
290
     1
176
     1
290
     1
176
     1
290
     0
176
     1
290
     0
176
     1
290
     0
176
     1
290
     0
176
     1
290
     0
176
     1
290
     0
176
     1
 90
       50
176
     1
 40
0.0
176
     1
 40
1.0
176
     1
 90
        0
176
     1
 62
    18
176
     1
 90
       50
176
     1
 90
        3
176
     1
 62
     5
420
      255
176
     1
290
     0
176
     1
 90
       50
176
     1
 90
       50
176
     1
 90
       50
176
     1
290
     0
176
     1
 90
       50
176
     1
 62
   256
176
     0
 40
1.0
176
     0
 90
        2
176
     1
  1
strokes_ogs.tif
176
     1
290
     0
176
     1
 40
1.0
176
     1
 40
1.0
176
     1
1001
ACAD
1000
AcDbSavedByObjectVersion
1070
     0
  0
VISUALSTYLE
  5
8A72
102
{ACAD_REACTORS
330
8A71
102
}
330
8A71
100
AcDbVisualStyle
  2
Flat
 70
     0
177
     3
291
     1
 70
    58
 90
        2
176
     1
 90
        1
176
     1
 90
        1
176
     1
 90
        2
176
     1
 40
0.6
176
     1
 40
30.0
176
     1
 62
     7
420
 16777215
176
     1
 90
        0
176
     1
 90
        0
176
     1
 62
     7
176
     1
 62
   257
176
     1
 90
        1
176
     1
 90
        1
176
     1
 40
1.0
176
     1
 90
        8
176
     1
 62
     7
176
     1
 40
1.0
176
     1
 90
        1
176
     1
 90
        6
176
     1
 90
        2
176
     1
 62
     7
176
     1
 90
        5
176
     1
 90
        0
176
     1
 90
        0
176
     1
290
     0
176
     1
 90
       13
176
     1
 40
0.0
176
     1
 90
        0
176
     1
290
     0
176
     1
290
     1
176
     1
290
     1
176
     1
290
     0
176
     1
290
     0
176
     1
290
     0
176
     1
290
     0
176
     1
290
     0
176
     1
290
     0
176
     1
 90
       50
176
     1
 40
0.0
176
     1
 40
1.0
176
     1
 90
        0
176
     1
 62
    18
176
     1
 90
       50
176
     1
 90
        3
176
     1
 62
     5
420
      255
176
     1
290
     0
176
     1
 90
       50
176
     1
 90
       50
176
     1
 90
       50
176
     1
290
     0
176
     1
 90
       50
176
     1
 62
   256
176
     0
 40
1.0
176
     0
 90
        2
176
     1
  1
strokes_ogs.tif
176
     1
290
     0
176
     1
 40
1.0
176
     1
 40
1.0
176
     1
1001
ACAD
1000
AcDbSavedByObjectVersion
1070
     0
  0
VISUALSTYLE
  5
8A73
102
{ACAD_REACTORS
330
8A71
102
}
330
8A71
100
AcDbVisualStyle
  2
FlatWithEdges
 70
     1
177
     3
291
     1
 70
    58
 90
        2
176
     1
 90
        1
176
     1
 90
        1
176
     1
 90
        2
176
     1
 40
0.6
176
     1
 40
30.0
176
     1
 62
     7
420
 16777215
176
     1
 90
        1
176
     1
 90
        0
176
     1
 62
     7
176
     1
 62
   257
176
     1
 90
        1
176
     1
 90
        1
176
     1
 40
1.0
176
     1
 90
        0
176
     1
 62
   257
176
     1
 40
1.0
176
     1
 90
        1
176
     1
 90
        6
176
     1
 90
        2
176
     1
 62
     7
176
     1
 90
        5
176
     1
 90
        0
176
     1
 90
        0
176
     1
290
     0
176
     1
 90
       13
176
     1
 40
0.0
176
     1
 90
        0
176
     1
290
     0
176
     1
290
     1
176
     1
290
     1
176
     1
290
     0
176
     1
290
     0
176
     1
290
     0
176
     1
290
     0
176
     1
290
     0
176
     1
290
     0
176
     1
 90
       50
176
     1
 40
0.0
176
     1
 40
1.0
176
     1
 90
        0
176
     1
 62
    18
176
     1
 90
       50
176
     1
 90
        3
176
     1
 62
     5
420
      255
176
     1
290
     0
176
     1
 90
       50
176
     1
 90
       50
176
     1
 90
       50
176
     1
290
     0
176
     1
 90
       50
176
     1
 62
   256
176
     0
 40
1.0
176
     0
 90
        2
176
     1
  1
strokes_ogs.tif
176
     1
290
     0
176
     1
 40
1.0
176
     1
 40
1.0
176
     1
1001
ACAD
1000
AcDbSavedByObjectVersion
1070
     0
  0
VISUALSTYLE
  5
8A74
102
{ACAD_REACTORS
330
8A71
102
}
330
8A71
100
AcDbVisualStyle
  2
Gouraud
 70
     2
177
     3
291
     1
 70
    58
 90
        2
176
     1
 90
        2
176
     1
 90
        1
176
     1
 90
        2
176
     1
 40
0.6
176
     1
 40
30.0
176
     1
 62
     7
420
 16777215
176
     1
 90
        0
176
     1
 90
        0
176
     1
 62
     7
176
     1
 62
   257
176
     1
 90
        1
176
     1
 90
        1
176
     1
 40
1.0
176
     1
 90
        0
176
     1
 62
     7
176
     1
 40
1.0
176
     1
 90
        1
176
     1
 90
        6
176
     1
 90
        2
176
     1
 62
     7
176
     1
 90
        5
176
     1
 90
        0
176
     1
 90
        0
176
     1
290
     0
176
     1
 90
       13
176
     1
 40
0.0
176
     1
 90
        0
176
     1
290
     0
176
     1
290
     1
176
     1
290
     1
176
     1
290
     0
176
     1
290
     0
176
     1
290
     0
176
     1
290
     0
176
     1
290
     0
176
     1
290
     0
176
     1
 90
       50
176
     1
 40
0.0
176
     1
 40
1.0
176
     1
 90
        0
176
     1
 62
    18
176
     1
 90
       50
176
     1
 90
        3
176
     1
 62
     5
420
      255
176
     1
290
     0
176
     1
 90
       50
176
     1
 90
       50
176
     1
 90
       50
176
     1
290
     0
176
     1
 90
       50
176
     1
 62
   256
176
     0
 40
1.0
176
     0
 90
        2
176
     1
  1
strokes_ogs.tif
176
     1
290
     0
176
     1
 40
1.0
176
     1
 40
1.0
176
     1
1001
ACAD
1000
AcDbSavedByObjectVersion
1070
     0
  0
VISUALSTYLE
  5
8A75
102
{ACAD_REACTORS
330
8A71
102
}
330
8A71
100
AcDbVisualStyle
  2
GouraudWithEdges
 70
     3
177
     3
291
     1
 70
    58
 90
        2
176
     1
 90
        2
176
     1
 90
        1
176
     1
 90
        2
176
     1
 40
0.6
176
     1
 40
30.0
176
     1
 62
     7
420
 16777215
176
     1
 90
        1
176
     1
 90
        0
176
     1
 62
     7
176
     1
 62
   257
176
     1
 90
        1
176
     1
 90
        1
176
     1
 40
1.0
176
     1
 90
        0
176
     1
 62
   257
176
     1
 40
1.0
176
     1
 90
        1
176
     1
 90
        6
176
     1
 90
        2
176
     1
 62
     7
176
     1
 90
        5
176
     1
 90
        0
176
     1
 90
        0
176
     1
290
     0
176
     1
 90
       13
176
     1
 40
0.0
176
     1
 90
        0
176
     1
290
     0
176
     1
290
     1
176
     1
290
     1
176
     1
290
     0
176
     1
290
     0
176
     1
290
     0
176
     1
290
     0
176
     1
290
     0
176
     1
290
     0
176
     1
 90
       50
176
     1
 40
0.0
176
     1
 40
1.0
176
     1
 90
        0
176
     1
 62
    18
176
     1
 90
       50
176
     1
 90
        3
176
     1
 62
     5
420
      255
176
     1
290
     0
176
     1
 90
       50
176
     1
 90
       50
176
     1
 90
       50
176
     1
290
     0
176
     1
 90
       50
176
     1
 62
   256
176
     0
 40
1.0
176
     0
 90
        2
176
     1
  1
strokes_ogs.tif
176
     1
290
     0
176
     1
 40
1.0
176
     1
 40
1.0
176
     1
1001
ACAD
1000
AcDbSavedByObjectVersion
1070
     0
  0
VISUALSTYLE
  5
8A79
102
{ACAD_REACTORS
330
8A71
102
}
330
8A71
100
AcDbVisualStyle
  2
Hidden
 70
     6
177
     3
291
     0
 70
    58
 90
        1
176
     1
 90
        2
176
     1
 90
        2
176
     1
 90
        0
176
     1
 40
0.6
176
     1
 40
30.0
176
     1
 62
     7
420
 16777215
176
     1
 90
        2
176
     1
 90
        2
176
     1
 62
     7
176
     1
 62
   257
176
     1
 90
        2
176
     1
 90
        1
176
     1
 40
40.0
176
     1
 90
        0
176
     1
 62
   257
176
     1
 40
1.0
176
     1
 90
        1
176
     1
 90
        6
176
     1
 90
        2
176
     1
 62
     7
176
     1
 90
        3
176
     1
 90
        0
176
     1
 90
        0
176
     1
290
     0
176
     1
 90
        1
176
     1
 40
0.0
176
     1
 90
        0
176
     1
290
     0
176
     1
290
     1
176
     1
290
     1
176
     1
290
     0
176
     1
290
     0
176
     1
290
     0
176
     1
290
     0
176
     1
290
     0
176
     1
290
     0
176
     1
 90
       50
176
     1
 40
0.0
176
     1
 40
1.0
176
     1
 90
        0
176
     1
 62
    18
176
     1
 90
       50
176
     1
 90
        3
176
     1
 62
     5
420
      255
176
     1
290
     0
176
     1
 90
       50
176
     1
 90
       50
176
     1
 90
       50
176
     1
290
     0
176
     1
 90
       50
176
     1
 62
   256
176
     0
 40
1.0
176
     0
 90
        2
176
     1
  1
strokes_ogs.tif
176
     1
290
     0
176
     1
 40
1.0
176
     1
 40
1.0
176
     1
1001
ACAD
1000
AcDbSavedByObjectVersion
1070
     0
  0
VISUALSTYLE
  5
8A87
102
{ACAD_REACTORS
330
8A71
102
}
330
8A71
100
AcDbVisualStyle
  2
JitterOff
 70
    20
177
     3
291
     1
 70
    58
 90
        2
176
     0
 90
        2
176
     0
 90
        0
176
     0
 90
        0
176
     0
 40
0.6
176
     0
 40
30.0
176
     0
 62
     7
420
 16777215
176
     0
 90
        1
176
     0
 90
        4
176
     0
 62
     7
176
     0
 62
   257
176
     0
 90
        1
176
     0
 90
        1
176
     0
 40
1.0
176
     0
 90
       10
176
     2
 62
     7
176
     0
 40
1.0
176
     0
 90
        1
176
     0
 90
        6
176
     0
 90
        2
176
     0
 62
     7
176
     0
 90
        5
176
     0
 90
        0
176
     0
 90
        0
176
     0
290
     0
176
     0
 90
        1
176
     0
 40
0.0
176
     0
 90
        0
176
     0
290
     0
176
     1
290
     1
176
     1
290
     1
176
     1
290
     0
176
     1
290
     0
176
     1
290
     0
176
     1
290
     0
176
     1
290
     0
176
     1
290
     0
176
     1
 90
       50
176
     0
 40
0.0
176
     0
 40
1.0
176
     0
 90
        0
176
     0
 62
    18
176
     0
 90
       50
176
     0
 90
        3
176
     0
 62
     5
420
      255
176
     0
290
     0
176
     1
 90
       50
176
     0
 90
       50
176
     0
 90
       50
176
     0
290
     0
176
     1
 90
       50
176
     0
 62
   256
176
     0
 40
1.0
176
     0
 90
        2
176
     0
  1
strokes_ogs.tif
176
     0
290
     0
176
     1
 40
1.0
176
     0
 40
1.0
176
     0
1001
ACAD
1000
AcDbSavedByObjectVersion
1070
     0
  0
VISUALSTYLE
  5
8A7F
102
{ACAD_REACTORS
330
8A71
102
}
330
8A71
100
AcDbVisualStyle
  2
Linepattern
 70
    14
177
     3
291
     1
 70
    58
 90
        2
176
     1
 90
        2
176
     1
 90
        0
176
     1
 90
        0
176
     1
 40
0.6
176
     1
 40
30.0
176
     1
 62
     7
420
 16777215
176
     1
 90
        1
176
     1
 90
        4
176
     1
 62
     7
176
     1
 62
   257
176
     1
 90
        7
176
     1
 90
        7
176
     1
 40
1.0
176
     1
 90
        8
176
     1
 62
     7
176
     1
 40
1.0
176
     1
 90
        1
176
     1
 90
        6
176
     1
 90
        2
176
     1
 62
     7
176
     1
 90
        5
176
     1
 90
        0
176
     1
 90
        0
176
     1
290
     0
176
     1
 90
        1
176
     1
 40
0.0
176
     1
 90
        0
176
     1
290
     0
176
     1
290
     1
176
     1
290
     1
176
     1
290
     0
176
     1
290
     0
176
     1
290
     0
176
     1
290
     0
176
     1
290
     0
176
     1
290
     0
176
     1
 90
       50
176
     1
 40
0.0
176
     1
 40
1.0
176
     1
 90
        0
176
     1
 62
    18
176
     1
 90
       50
176
     1
 90
        3
176
     1
 62
     5
420
      255
176
     1
290
     0
176
     1
 90
       50
176
     1
 90
       50
176
     1
 90
       50
176
     1
290
     0
176
     1
 90
       50
176
     1
 62
   256
176
     0
 40
1.0
176
     0
 90
        2
176
     1
  1
strokes_ogs.tif
176
     1
290
     0
176
     1
 40
1.0
176
     1
 40
1.0
176
     1
1001
ACAD
1000
AcDbSavedByObjectVersion
1070
     0
  0
VISUALSTYLE
  5
8A88
102
{ACAD_REACTORS
330
8A71
102
}
330
8A71
100
AcDbVisualStyle
  2
OverhangOff
 70
    21
177
     3
291
     1
 70
    58
 90
        2
176
     0
 90
        2
176
     0
 90
        0
176
     0
 90
        0
176
     0
 40
0.6
176
     0
 40
30.0
176
     0
 62
     7
420
 16777215
176
     0
 90
        1
176
     0
 90
        4
176
     0
 62
     7
176
     0
 62
   257
176
     0
 90
        1
176
     0
 90
        1
176
     0
 40
1.0
176
     0
 90
        9
176
     2
 62
     7
176
     0
 40
1.0
176
     0
 90
        1
176
     0
 90
        6
176
     0
 90
        2
176
     0
 62
     7
176
     0
 90
        5
176
     0
 90
        0
176
     0
 90
        0
176
     0
290
     0
176
     0
 90
        1
176
     0
 40
0.0
176
     0
 90
        0
176
     0
290
     0
176
     1
290
     1
176
     1
290
     1
176
     1
290
     0
176
     1
290
     0
176
     1
290
     0
176
     1
290
     0
176
     1
290
     0
176
     1
290
     0
176
     1
 90
       50
176
     0
 40
0.0
176
     0
 40
1.0
176
     0
 90
        0
176
     0
 62
    18
176
     0
 90
       50
176
     0
 90
        3
176
     0
 62
     5
420
      255
176
     0
290
     0
176
     1
 90
       50
176
     0
 90
       50
176
     0
 90
       50
176
     0
290
     0
176
     1
 90
       50
176
     0
 62
   256
176
     0
 40
1.0
176
     0
 90
        2
176
     0
  1
strokes_ogs.tif
176
     0
290
     0
176
     1
 40
1.0
176
     0
 40
1.0
176
     0
1001
ACAD
1000
AcDbSavedByObjectVersion
1070
     0
  0
VISUALSTYLE
  5
8A7B
102
{ACAD_REACTORS
330
8A71
102
}
330
8A71
100
AcDbVisualStyle
  2
Realistic
 70
     8
177
     3
291
     0
 70
    58
 90
        2
176
     1
 90
        3
176
     1
 90
        0
176
     1
 90
        2
176
     1
 40
0.6
176
     1
 40
30.0
176
     1
 62
     7
420
 16777215
176
     1
 90
        0
176
     1
 90
        0
176
     1
 62
     7
176
     1
 62
   257
176
     1
 90
        1
176
     1
 90
        1
176
     1
 40
1.0
176
     1
 90
        8
176
     1
 62
   257
176
     1
 40
1.0
176
     1
 90
        1
176
     1
 90
        6
176
     1
 90
        2
176
     1
 62
     7
176
     1
 90
        3
176
     1
 90
        0
176
     1
 90
        0
176
     1
290
     0
176
     1
 90
       13
176
     1
 40
0.0
176
     1
 90
        0
176
     1
290
     0
176
     1
290
     1
176
     1
290
     1
176
     1
290
     0
176
     1
290
     0
176
     1
290
     0
176
     1
290
     0
176
     1
290
     0
176
     1
290
     0
176
     1
 90
       50
176
     1
 40
0.0
176
     1
 40
1.0
176
     1
 90
        0
176
     1
 62
    18
176
     1
 90
       50
176
     1
 90
        3
176
     1
 62
     5
420
      255
176
     1
290
     0
176
     1
 90
       50
176
     1
 90
       50
176
     1
 90
       50
176
     1
290
     0
176
     1
 90
       50
176
     1
 62
   256
176
     0
 40
1.0
176
     0
 90
        2
176
     1
  1
strokes_ogs.tif
176
     1
290
     0
176
     1
 40
1.0
176
     1
 40
1.0
176
     1
1001
ACAD
1000
AcDbSavedByObjectVersion
1070
     0
  0
VISUALSTYLE
  5
8A86
102
{ACAD_REACTORS
330
8A71
102
}
330
8A71
100
AcDbVisualStyle
  2
Shaded
 70
    27
177
     3
291
     0
 70
    58
 90
        2
176
     1
 90
        2
176
     1
 90
        1
176
     1
 90
        2
176
     1
 40
0.6
176
     1
 40
30.0
176
     1
 62
     7
420
 16777215
176
     1
 90
        0
176
     1
 90
        4
176
     1
 62
     7
176
     1
 62
   257
176
     1
 90
        1
176
     1
 90
        1
176
     1
 40
1.0
176
     1
 90
        8
176
     1
 62
   257
176
     1
 40
1.0
176
     1
 90
        1
176
     1
 90
        6
176
     1
 90
        2
176
     1
 62
     8
420
  7895160
176
     1
 90
        3
176
     1
 90
        0
176
     1
 90
        0
176
     1
290
     0
176
     1
 90
        5
176
     1
 40
0.0
176
     1
 90
        0
176
     1
290
     0
176
     1
290
     1
176
     1
290
     1
176
     1
290
     0
176
     1
290
     0
176
     1
290
     0
176
     1
290
     0
176
     1
290
     0
176
     1
290
     0
176
     1
 90
       50
176
     1
 40
0.0
176
     1
 40
1.0
176
     1
 90
        0
176
     1
 62
    18
176
     1
 90
       50
176
     1
 90
        3
176
     1
 62
     5
420
      255
176
     1
290
     0
176
     1
 90
       50
176
     1
 90
       50
176
     1
 90
       50
176
     1
290
     0
176
     1
 90
       50
176
     1
 62
   256
176
     0
 40
1.0
176
     0
 90
        2
176
     1
  1
strokes_ogs.tif
176
     1
290
     0
176
     1
 40
1.0
176
     1
 40
1.0
176
     1
1001
ACAD
1000
AcDbSavedByObjectVersion
1070
     0
  0
VISUALSTYLE
  5
8A85
102
{ACAD_REACTORS
330
8A71
102
}
330
8A71
100
AcDbVisualStyle
  2
Shaded with edges
 70
    26
177
     3
291
     0
 70
    58
 90
        2
176
     1
 90
        2
176
     1
 90
        1
176
     1
 90
        2
176
     1
 40
0.6
176
     1
 40
30.0
176
     1
 62
     7
420
 16777215
176
     1
 90
        1
176
     1
 90
       10
176
     1
 62
     7
176
     1
 62
   257
176
     1
 90
        2
176
     1
 90
        1
176
     1
 40
1.0
176
     1
 90
        8
176
     1
 62
   257
176
     1
 40
1.0
176
     1
 90
        1
176
     1
 90
        6
176
     1
 90
        2
176
     1
 62
     7
176
     1
 90
        3
176
     1
 90
        0
176
     1
 90
        0
176
     1
290
     0
176
     1
 90
        5
176
     1
 40
0.0
176
     1
 90
        0
176
     1
290
     0
176
     1
290
     1
176
     1
290
     1
176
     1
290
     0
176
     1
290
     0
176
     1
290
     0
176
     1
290
     0
176
     1
290
     0
176
     1
290
     0
176
     1
 90
       50
176
     1
 40
0.0
176
     1
 40
1.0
176
     1
 90
        0
176
     1
 62
    18
176
     1
 90
       50
176
     1
 90
        3
176
     1
 62
     5
420
      255
176
     1
290
     0
176
     1
 90
       50
176
     1
 90
       50
176
     1
 90
       50
176
     1
290
     0
176
     1
 90
       50
176
     1
 62
   256
176
     0
 40
1.0
176
     0
 90
        2
176
     1
  1
strokes_ogs.tif
176
     1
290
     0
176
     1
 40
1.0
176
     1
 40
1.0
176
     1
1001
ACAD
1000
AcDbSavedByObjectVersion
1070
     0
  0
VISUALSTYLE
  5
8A82
102
{ACAD_REACTORS
330
8A71
102
}
330
8A71
100
AcDbVisualStyle
  2
Shades of Gray
 70
    23
177
     3
291
     0
 70
    58
 90
        2
176
     1
 90
        2
176
     1
 90
        3
176
     1
 90
        0
176
     1
 40
0.6
176
     1
 40
30.0
176
     1
 62
     7
420
 16777215
176
     1
 90
        2
176
     1
 90
        2
176
     1
 62
     7
176
     1
 62
     7
176
     1
 90
        1
176
     1
 90
        1
176
     1
 40
40.0
176
     1
 90
        8
176
     1
 62
     7
176
     1
 40
1.0
176
     1
 90
        1
176
     1
 90
        6
176
     1
 90
        2
176
     1
 62
     7
176
     1
 90
        3
176
     1
 90
        0
176
     1
 90
        0
176
     1
290
     0
176
     1
 90
        1
176
     1
 40
0.0
176
     1
 90
        0
176
     1
290
     0
176
     1
290
     1
176
     1
290
     1
176
     1
290
     0
176
     1
290
     0
176
     1
290
     0
176
     1
290
     0
176
     1
290
     0
176
     1
290
     0
176
     1
 90
       50
176
     1
 40
0.0
176
     1
 40
1.0
176
     1
 90
        0
176
     1
 62
    18
176
     1
 90
       50
176
     1
 90
        3
176
     1
 62
     5
420
      255
176
     1
290
     0
176
     1
 90
       50
176
     1
 90
       50
176
     1
 90
       50
176
     1
290
     0
176
     1
 90
       50
176
     1
 62
   256
176
     0
 40
1.0
176
     0
 90
        2
176
     1
  1
strokes_ogs.tif
176
     1
290
     0
176
     1
 40
1.0
176
     1
 40
1.0
176
     1
1001
ACAD
1000
AcDbSavedByObjectVersion
1070
     0
  0
VISUALSTYLE
  5
8A83
102
{ACAD_REACTORS
330
8A71
102
}
330
8A71
100
AcDbVisualStyle
  2
Sketchy
 70
    24
177
     3
291
     0
 70
    58
 90
        1
176
     1
 90
        2
176
     1
 90
        2
176
     1
 90
        0
176
     1
 40
0.6
176
     1
 40
30.0
176
     1
 62
     7
420
 16777215
176
     1
 90
        2
176
     1
 90
        2
176
     1
 62
     7
176
     1
 62
     7
176
     1
 90
        1
176
     1
 90
        1
176
     1
 40
40.0
176
     1
 90
       11
176
     1
 62
     7
176
     1
 40
1.0
176
     1
 90
        1
176
     1
 90
        6
176
     1
 90
        2
176
     1
 62
     7
176
     1
 90
        6
176
     1
 90
        0
176
     1
 90
        0
176
     1
290
     0
176
     1
 90
        1
176
     1
 40
0.0
176
     1
 90
        0
176
     1
290
     0
176
     1
290
     1
176
     1
290
     1
176
     1
290
     0
176
     1
290
     0
176
     1
290
     0
176
     1
290
     0
176
     1
290
     0
176
     1
290
     0
176
     1
 90
       50
176
     1
 40
0.0
176
     1
 40
1.0
176
     1
 90
        0
176
     1
 62
    18
176
     1
 90
       50
176
     1
 90
        3
176
     1
 62
     5
420
      255
176
     1
290
     0
176
     1
 90
       50
176
     1
 90
       50
176
     1
 90
       50
176
     1
290
     0
176
     1
 90
       50
176
     1
 62
   256
176
     0
 40
1.0
176
     0
 90
        2
176
     1
  1
strokes_ogs.tif
176
     1
290
     0
176
     1
 40
1.0
176
     1
 40
1.0
176
     1
1001
ACAD
1000
AcDbSavedByObjectVersion
1070
     0
  0
VISUALSTYLE
  5
8A7E
102
{ACAD_REACTORS
330
8A71
102
}
330
8A71
100
AcDbVisualStyle
  2
Thicken
 70
    13
177
     3
291
     1
 70
    58
 90
        2
176
     1
 90
        2
176
     1
 90
        0
176
     1
 90
        0
176
     1
 40
0.6
176
     1
 40
30.0
176
     1
 62
     7
420
 16777215
176
     1
 90
        1
176
     1
 90
        4
176
     1
 62
     7
176
     1
 62
   257
176
     1
 90
        1
176
     1
 90
        1
176
     1
 40
1.0
176
     1
 90
       12
176
     1
 62
     7
176
     1
 40
1.0
176
     1
 90
        1
176
     1
 90
        6
176
     1
 90
        2
176
     1
 62
     7
176
     1
 90
        5
176
     1
 90
        0
176
     1
 90
        0
176
     1
290
     0
176
     1
 90
        1
176
     1
 40
0.0
176
     1
 90
        0
176
     1
290
     0
176
     1
290
     1
176
     1
290
     1
176
     1
290
     0
176
     1
290
     0
176
     1
290
     0
176
     1
290
     0
176
     1
290
     0
176
     1
290
     0
176
     1
 90
       50
176
     1
 40
0.0
176
     1
 40
1.0
176
     1
 90
        0
176
     1
 62
    18
176
     1
 90
       50
176
     1
 90
        3
176
     1
 62
     5
420
      255
176
     1
290
     0
176
     1
 90
       50
176
     1
 90
       50
176
     1
 90
       50
176
     1
290
     0
176
     1
 90
       50
176
     1
 62
   256
176
     0
 40
1.0
176
     0
 90
        2
176
     1
  1
strokes_ogs.tif
176
     1
290
     0
176
     1
 40
1.0
176
     1
 40
1.0
176
     1
1001
ACAD
1000
AcDbSavedByObjectVersion
1070
     0
  0
VISUALSTYLE
  5
8A78
102
{ACAD_REACTORS
330
8A71
102
}
330
8A71
100
AcDbVisualStyle
  2
Wireframe
 70
     5
177
     3
291
     0
 70
    58
 90
        0
176
     1
 90
        2
176
     1
 90
        0
176
     1
 90
        0
176
     1
 40
0.6
176
     1
 40
30.0
176
     1
 62
     7
420
 16777215
176
     1
 90
        1
176
     1
 90
        4
176
     1
 62
     7
176
     1
 62
   257
176
     1
 90
        1
176
     1
 90
        1
176
     1
 40
1.0
176
     1
 90
        0
176
     1
 62
   257
176
     1
 40
1.0
176
     1
 90
        1
176
     1
 90
        6
176
     1
 90
        2
176
     1
 62
     7
176
     1
 90
        3
176
     1
 90
        0
176
     1
 90
        0
176
     1
290
     0
176
     1
 90
        1
176
     1
 40
0.0
176
     1
 90
        0
176
     1
290
     0
176
     1
290
     1
176
     1
290
     1
176
     1
290
     0
176
     1
290
     0
176
     1
290
     0
176
     1
290
     0
176
     1
290
     0
176
     1
290
     0
176
     1
 90
       50
176
     1
 40
0.0
176
     1
 40
1.0
176
     1
 90
        0
176
     1
 62
    18
176
     1
 90
       50
176
     1
 90
        3
176
     1
 62
     5
420
      255
176
     1
290
     0
176
     1
 90
       50
176
     1
 90
       50
176
     1
 90
       50
176
     1
290
     0
176
     1
 90
       50
176
     1
 62
   256
176
     0
 40
1.0
176
     0
 90
        2
176
     1
  1
strokes_ogs.tif
176
     1
290
     0
176
     1
 40
1.0
176
     1
 40
1.0
176
     1
1001
ACAD
1000
AcDbSavedByObjectVersion
1070
     0
  0
VISUALSTYLE
  5
8A84
102
{ACAD_REACTORS
330
8A71
102
}
330
8A71
100
AcDbVisualStyle
  2
X-Ray
 70
    25
177
     3
291
     0
 70
    58
 90
        2
176
     1
 90
        2
176
     1
 90
        1
176
     1
 90
        1
176
     1
 40
0.5
176
     1
 40
30.0
176
     1
 62
     7
420
 16777215
176
     1
 90
        1
176
     1
 90
        0
176
     1
 62
     7
176
     1
 62
   257
176
     1
 90
        1
176
     1
 90
        1
176
     1
 40
1.0
176
     1
 90
        8
176
     1
 62
     7
176
     1
 40
1.0
176
     1
 90
        1
176
     1
 90
        6
176
     1
 90
        2
176
     1
 62
     7
176
     1
 90
        3
176
     1
 90
        0
176
     1
 90
        0
176
     1
290
     0
176
     1
 90
       13
176
     1
 40
0.0
176
     1
 90
        0
176
     1
290
     0
176
     1
290
     1
176
     1
290
     1
176
     1
290
     0
176
     1
290
     0
176
     1
290
     0
176
     1
290
     0
176
     1
290
     0
176
     1
290
     0
176
     1
 90
       50
176
     1
 40
0.0
176
     1
 40
1.0
176
     1
 90
        0
176
     1
 62
    18
176
     1
 90
       50
176
     1
 90
        3
176
     1
 62
     5
420
      255
176
     1
290
     0
176
     1
 90
       50
176
     1
 90
       50
176
     1
 90
       50
176
     1
290
     0
176
     1
 90
       50
176
     1
 62
   256
176
     0
 40
1.0
176
     0
 90
        2
176
     1
  1
strokes_ogs.tif
176
     1
290
     0
176
     1
 40
1.0
176
     1
 40
1.0
176
     1
1001
ACAD
1000
AcDbSavedByObjectVersion
1070
     0
  0
DICTIONARYVAR
  5
8AE9
102
{ACAD_REACTORS
330
5697
102
}
330
5697
100
DictionaryVariables
280
     0
  1
1:1
  0
DICTIONARYVAR
  5
8AE5
102
{ACAD_REACTORS
330
5697
102
}
330
5697
100
DictionaryVariables
280
     0
  1
STANDARD
  0
DICTIONARYVAR
  5
8AE4
102
{ACAD_REACTORS
330
5697
102
}
330
5697
100
DictionaryVariables
280
     0
  1
STANDARD
  0
DICTIONARYVAR
  5
8AE6
102
{ACAD_REACTORS
330
5697
102
}
330
5697
100
DictionaryVariables
280
     0
  1
Imperial24
  0
DICTIONARYVAR
  5
8AE7
102
{ACAD_REACTORS
330
5697
102
}
330
5697
100
DictionaryVariables
280
     0
  1
Imperial24
  0
DICTIONARYVAR
  5
5698
102
{ACAD_REACTORS
330
5697
102
}
330
5697
100
DictionaryVariables
280
     0
  1
1
  0
DICTIONARYVAR
  5
8AEB
102
{ACAD_REACTORS
330
5697
102
}
330
5697
100
DictionaryVariables
280
     0
  1
1
  0
DICTIONARYVAR
  5
8AEC
102
{ACAD_REACTORS
330
5697
102
}
330
5697
100
DictionaryVariables
280
     0
  1
15
  0
DICTIONARYVAR
  5
8AEA
102
{ACAD_REACTORS
330
5697
102
}
330
5697
100
DictionaryVariables
280
     0
  1
0
  0
DICTIONARYVAR
  5
8AE8
102
{ACAD_REACTORS
330
5697
102
}
330
5697
100
DictionaryVariables
280
     0
  1
0
  0
DICTIONARY
  5
1C417
330
8AA4
100
AcDbDictionary
280
     1
281
     1
  3
ACAD_XREC_ROUNDTRIP
360
1C480
  0
DICTIONARY
  5
F3D2
330
8A4C
100
AcDbDictionary
280
     1
281
     1
  0
DICTIONARY
  5
8A62
330
8A61
100
AcDbDictionary
280
     1
281
     1
  3
BUMPTILE
360
8A64
  3
DIFFUSETILE
360
8A63
  3
OPACITYTILE
360
8A67
  3
REFLECTIONTILE
360
8A66
  3
REFRACTIONTILE
360
8A68
  3
SPECULARTILE
360
8A65
  0
DICTIONARY
  5
8A5A
330
8A59
100
AcDbDictionary
280
     1
281
     1
  3
BUMPTILE
360
8A5C
  3
DIFFUSETILE
360
8A5B
  3
OPACITYTILE
360
8A5F
  3
REFLECTIONTILE
360
8A5E
  3
REFRACTIONTILE
360
8A60
  3
SPECULARTILE
360
8A5D
  0
DICTIONARY
  5
8A6A
330
8A69
100
AcDbDictionary
280
     1
281
     1
  3
BUMPTILE
360
8A6C
  3
DIFFUSETILE
360
8A6B
  3
OPACITYTILE
360
8A6F
  3
REFLECTIONTILE
360
8A6E
  3
REFRACTIONTILE
360
8A70
  3
SPECULARTILE
360
8A6D
  0
DICTIONARY
  5
1C415
330
8AA2
100
AcDbDictionary
280
     1
281
     1
  3
ACAD_XREC_ROUNDTRIP
360
1C47F
  0
DICTIONARY
  5
8AED
330
8A8C
100
AcDbDictionary
280
     1
281
     1
  3
ACAD_ROUNDTRIP_2008_TABLESTYLE_CELLSTYLEMAP
360
1C47E
  0
XRECORD
  5
1C480
102
{ACAD_REACTORS
330
1C417
102
}
330
1C417
100
AcDbXrecord
280
     1
102
DISPLAYNAME
  1
Imperial24
102
FLAGS
 90
        0
  0
XRECORD
  5
8A64
102
{ACAD_REACTORS
330
8A62
102
}
330
8A62
100
AcDbXrecord
280
     1
270
     1
271
     1
  0
XRECORD
  5
8A63
102
{ACAD_REACTORS
330
8A62
102
}
330
8A62
100
AcDbXrecord
280
     1
270
     1
271
     1
  0
XRECORD
  5
8A67
102
{ACAD_REACTORS
330
8A62
102
}
330
8A62
100
AcDbXrecord
280
     1
270
     1
271
     1
  0
XRECORD
  5
8A66
102
{ACAD_REACTORS
330
8A62
102
}
330
8A62
100
AcDbXrecord
280
     1
270
     1
271
     1
  0
XRECORD
  5
8A68
102
{ACAD_REACTORS
330
8A62
102
}
330
8A62
100
AcDbXrecord
280
     1
270
     1
271
     1
  0
XRECORD
  5
8A65
102
{ACAD_REACTORS
330
8A62
102
}
330
8A62
100
AcDbXrecord
280
     1
270
     1
271
     1
  0
XRECORD
  5
8A5C
102
{ACAD_REACTORS
330
8A5A
102
}
330
8A5A
100
AcDbXrecord
280
     1
270
     1
271
     1
  0
XRECORD
  5
8A5B
102
{ACAD_REACTORS
330
8A5A
102
}
330
8A5A
100
AcDbXrecord
280
     1
270
     1
271
     1
  0
XRECORD
  5
8A5F
102
{ACAD_REACTORS
330
8A5A
102
}
330
8A5A
100
AcDbXrecord
280
     1
270
     1
271
     1
  0
XRECORD
  5
8A5E
102
{ACAD_REACTORS
330
8A5A
102
}
330
8A5A
100
AcDbXrecord
280
     1
270
     1
271
     1
  0
XRECORD
  5
8A60
102
{ACAD_REACTORS
330
8A5A
102
}
330
8A5A
100
AcDbXrecord
280
     1
270
     1
271
     1
  0
XRECORD
  5
8A5D
102
{ACAD_REACTORS
330
8A5A
102
}
330
8A5A
100
AcDbXrecord
280
     1
270
     1
271
     1
  0
XRECORD
  5
8A6C
102
{ACAD_REACTORS
330
8A6A
102
}
330
8A6A
100
AcDbXrecord
280
     1
270
     1
271
     1
  0
XRECORD
  5
8A6B
102
{ACAD_REACTORS
330
8A6A
102
}
330
8A6A
100
AcDbXrecord
280
     1
270
     1
271
     1
  0
XRECORD
  5
8A6F
102
{ACAD_REACTORS
330
8A6A
102
}
330
8A6A
100
AcDbXrecord
280
     1
270
     1
271
     1
  0
XRECORD
  5
8A6E
102
{ACAD_REACTORS
330
8A6A
102
}
330
8A6A
100
AcDbXrecord
280
     1
270
     1
271
     1
  0
XRECORD
  5
8A70
102
{ACAD_REACTORS
330
8A6A
102
}
330
8A6A
100
AcDbXrecord
280
     1
270
     1
271
     1
  0
XRECORD
  5
8A6D
102
{ACAD_REACTORS
330
8A6A
102
}
330
8A6A
100
AcDbXrecord
280
     1
270
     1
271
     1
  0
XRECORD
  5
1C47F
102
{ACAD_REACTORS
330
1C415
102
}
330
1C415
100
AcDbXrecord
280
     1
102
DISPLAYNAME
  1
Imperial24
102
FLAGS
 90
        0
  0
CELLSTYLEMAP
  5
1C47E
102
{ACAD_REACTORS
330
8AED
102
}
330
8AED
100
AcDbCellStyleMap
 90
        3
300
CELLSTYLE
  1
TABLEFORMAT_BEGIN
 90
        5
170
     1
 91
        0
 92
    32768
 62
   257
 93
        1
300
CONTENTFORMAT
  1
CONTENTFORMAT_BEGIN
 90
        0
 91
        0
 92
      512
 93
        0
300

 40
0.0
140
1.0
 94
        5
 62
     0
340
11
144
0.25
309
CONTENTFORMAT_END
171
     1
301
MARGIN
  1
CELLMARGIN_BEGIN
 40
0.06
 40
0.06
 40
0.06
 40
0.06
 40
0.18
 40
0.18
309
CELLMARGIN_END
 94
        6
 95
        1
302
GRIDFORMAT
  1
GRIDFORMAT_BEGIN
 90
        0
 91
        1
 62
     0
 92
       -2
340
0
 93
        0
 40
0.045
309
GRIDFORMAT_END
 95
        2
302
GRIDFORMAT
  1
GRIDFORMAT_BEGIN
 90
        0
 91
        1
 62
     0
 92
       -2
340
0
 93
        0
 40
0.045
309
GRIDFORMAT_END
 95
        4
302
GRIDFORMAT
  1
GRIDFORMAT_BEGIN
 90
        0
 91
        1
 62
     0
 92
       -2
340
0
 93
        0
 40
0.045
309
GRIDFORMAT_END
 95
        8
302
GRIDFORMAT
  1
GRIDFORMAT_BEGIN
 90
        0
 91
        1
 62
     0
 92
       -2
340
0
 93
        0
 40
0.045
309
GRIDFORMAT_END
 95
       16
302
GRIDFORMAT
  1
GRIDFORMAT_BEGIN
 90
        0
 91
        1
 62
     0
 92
       -2
340
0
 93
        0
 40
0.045
309
GRIDFORMAT_END
 95
       32
302
GRIDFORMAT
  1
GRIDFORMAT_BEGIN
 90
        0
 91
        1
 62
     0
 92
       -2
340
0
 93
        0
 40
0.045
309
GRIDFORMAT_END
309
TABLEFORMAT_END
  1
CELLSTYLE_BEGIN
 90
        1
 91
        1
300
_TITLE
309
CELLSTYLE_END
300
CELLSTYLE
  1
TABLEFORMAT_BEGIN
 90
        5
170
     1
 91
        0
 92
        0
 62
   257
 93
        1
300
CONTENTFORMAT
  1
CONTENTFORMAT_BEGIN
 90
        0
 91
        0
 92
      512
 93
        0
300

 40
0.0
140
1.0
 94
        5
 62
     0
340
11
144
0.18
309
CONTENTFORMAT_END
171
     1
301
MARGIN
  1
CELLMARGIN_BEGIN
 40
0.06
 40
0.06
 40
0.06
 40
0.06
 40
0.18
 40
0.18
309
CELLMARGIN_END
 94
        6
 95
        1
302
GRIDFORMAT
  1
GRIDFORMAT_BEGIN
 90
        0
 91
        1
 62
     0
 92
       -2
340
0
 93
        0
 40
0.045
309
GRIDFORMAT_END
 95
        2
302
GRIDFORMAT
  1
GRIDFORMAT_BEGIN
 90
        0
 91
        1
 62
     0
 92
       -2
340
0
 93
        0
 40
0.045
309
GRIDFORMAT_END
 95
        4
302
GRIDFORMAT
  1
GRIDFORMAT_BEGIN
 90
        0
 91
        1
 62
     0
 92
       -2
340
0
 93
        0
 40
0.045
309
GRIDFORMAT_END
 95
        8
302
GRIDFORMAT
  1
GRIDFORMAT_BEGIN
 90
        0
 91
        1
 62
     0
 92
       -2
340
0
 93
        0
 40
0.045
309
GRIDFORMAT_END
 95
       16
302
GRIDFORMAT
  1
GRIDFORMAT_BEGIN
 90
        0
 91
        1
 62
     0
 92
       -2
340
0
 93
        0
 40
0.045
309
GRIDFORMAT_END
 95
       32
302
GRIDFORMAT
  1
GRIDFORMAT_BEGIN
 90
        0
 91
        1
 62
     0
 92
       -2
340
0
 93
        0
 40
0.045
309
GRIDFORMAT_END
309
TABLEFORMAT_END
  1
CELLSTYLE_BEGIN
 90
        2
 91
        1
300
_HEADER
309
CELLSTYLE_END
300
CELLSTYLE
  1
TABLEFORMAT_BEGIN
 90
        5
170
     1
 91
        0
 92
        0
 62
   257
 93
        1
300
CONTENTFORMAT
  1
CONTENTFORMAT_BEGIN
 90
        0
 91
        0
 92
      512
 93
        0
300

 40
0.0
140
1.0
 94
        2
 62
     0
340
11
144
0.18
309
CONTENTFORMAT_END
171
     1
301
MARGIN
  1
CELLMARGIN_BEGIN
 40
0.06
 40
0.06
 40
0.06
 40
0.06
 40
0.18
 40
0.18
309
CELLMARGIN_END
 94
        6
 95
        1
302
GRIDFORMAT
  1
GRIDFORMAT_BEGIN
 90
        0
 91
        1
 62
     0
 92
       -2
340
0
 93
        0
 40
0.045
309
GRIDFORMAT_END
 95
        2
302
GRIDFORMAT
  1
GRIDFORMAT_BEGIN
 90
        0
 91
        1
 62
     0
 92
       -2
340
0
 93
        0
 40
0.045
309
GRIDFORMAT_END
 95
        4
302
GRIDFORMAT
  1
GRIDFORMAT_BEGIN
 90
        0
 91
        1
 62
     0
 92
       -2
340
0
 93
        0
 40
0.045
309
GRIDFORMAT_END
 95
        8
302
GRIDFORMAT
  1
GRIDFORMAT_BEGIN
 90
        0
 91
        1
 62
     0
 92
       -2
340
0
 93
        0
 40
0.045
309
GRIDFORMAT_END
 95
       16
302
GRIDFORMAT
  1
GRIDFORMAT_BEGIN
 90
        0
 91
        1
 62
     0
 92
       -2
340
0
 93
        0
 40
0.045
309
GRIDFORMAT_END
 95
       32
302
GRIDFORMAT
  1
GRIDFORMAT_BEGIN
 90
        0
 91
        1
 62
     0
 92
       -2
340
0
 93
        0
 40
0.045
309
GRIDFORMAT_END
309
TABLEFORMAT_END
  1
CELLSTYLE_BEGIN
 90
        3
 91
        2
300
_DATA
309
CELLSTYLE_END
  0
ENDSEC
  0
SECTION
  2
ACDSDATA
 70
     2
 71
     6
  0
ACDSSCHEMA
 90
        0
  1
AcDb_Thumbnail_Schema
  2
AcDbDs::ID
280
    10
 91
        8
  2
Thumbnail_Data
280
    15
 91
        0
101
ACDSRECORD
 95
        0
 90
        1
  2
AcDbDs::TreatedAsObjectData
280
     1
291
     1
101
ACDSRECORD
 95
        0
 90
        2
  2
AcDbDs::Legacy
280
     1
291
     1
101
ACDSRECORD
  1
AcDbDs::ID
 90
        3
  2
AcDs:Indexable
280
     1
291
     1
101
ACDSRECORD
  1
AcDbDs::ID
 90
        4
  2
AcDbDs::HandleAttribute
280
     7
282
     1
  0
ACDSSCHEMA
 90
        1
  1
AcDbDs::TreatedAsObjectDataSchema
  2
AcDbDs::TreatedAsObjectData
280
     1
 91
        0
  0
ACDSSCHEMA
 90
        2
  1
AcDbDs::LegacySchema
  2
AcDbDs::Legacy
280
     1
 91
        0
  0
ACDSSCHEMA
 90
        3
  1
AcDbDs::IndexedPropertySchema
  2
AcDs:Indexable
280
     1
 91
        0
  0
ACDSSCHEMA
 90
        4
  1
AcDbDs::HandleAttributeSchema
  2
AcDbDs::HandleAttribute
280
     7
 91
        1
284
     1
  0
ACDSRECORD
 90
        0
  2
AcDbDs::ID
280
    10
320
8A4C
  2
Thumbnail_Data
280
    15
 94
     1938
310
89504E470D0A1A0A0000000D49484452000001000000006F08030000003479EE6F00000300504C5445000000000000C8C8C80000000000000000000000000000000000000000000000000000330000660000990000CC0000FF0033000033330033660033990033CC0033FF0066000066330066660066990066CC0066FF0099
310
000099330099660099990099CC0099FF00CC0000CC3300CC6600CC9900CCCC00CCFF00FF0000FF3300FF6600FF9900FFCC00FFFF3300003300333300663300993300CC3300FF3333003333333333663333993333CC3333FF3366003366333366663366993366CC3366FF3399003399333399663399993399CC3399FF33CC00
310
33CC3333CC6633CC9933CCCC33CCFF33FF0033FF3333FF6633FF9933FFCC33FFFF6600006600336600666600996600CC6600FF6633006633336633666633996633CC6633FF6666006666336666666666996666CC6666FF6699006699336699666699996699CC6699FF66CC0066CC3366CC6666CC9966CCCC66CCFF66FF0066
310
FF3366FF6666FF9966FFCC66FFFF9900009900339900669900999900CC9900FF9933009933339933669933999933CC9933FF9966009966339966669966999966CC9966FF9999009999339999669999999999CC9999FF99CC0099CC3399CC6699CC9999CCCC99CCFF99FF0099FF3399FF6699FF9999FFCC99FFFFCC0000CC00
310
33CC0066CC0099CC00CCCC00FFCC3300CC3333CC3366CC3399CC33CCCC33FFCC6600CC6633CC6666CC6699CC66CCCC66FFCC9900CC9933CC9966CC9999CC99CCCC99FFCCCC00CCCC33CCCC66CCCC99CCCCCCCCCCFFCCFF00CCFF33CCFF66CCFF99CCFFCCCCFFFFFF0000FF0033FF0066FF0099FF00CCFF00FFFF3300FF3333
310
FF3366FF3399FF33CCFF33FFFF6600FF6633FF6666FF6699FF66CCFF66FFFF9900FF9933FF9966FF9999FF99CCFF99FFFFCC00FFCC33FFCC66FFCC99FFCCCCFFCCFFFFFF00FFFF33FFFF66FFFF99FFFFCCFFFFFF0000000D0D0D1A1A1A2828283535354343435050505D5D5D6B6B6B787878868686939393A1A1A1AEAEAEBB
310
BBBBC9C9C9D6D6D6E4E4E4F1F1F1FFFFFF00000000000000000000000000000000000000000000000000000000000008F1915C0000027F4944415478DAED9C3DCEDB300C8675035EC38BEEBF79E1353AF9045CBEBD14A93F3B6E8102FD50947C9F04486467F16349A4A824A5000000000080EFA2FE0131057CCB4721208880
310
AF0104241270497201925C401559F12E9F00BD7635E06414A0C9CE51330F014FF888A44F041905947250339059801C797B8086007D90A48D027AE7F531E34046013BF91643BFBAF4ACABC187885C025E46426401CCCF82976C91A17B082B60D6FCF6FB2D6B6D300E0416C0FA780A585AC689B802980F7DFE68A36013304E0B
310
73FC2170D8F34D80F580DAB2A3C002DA2C386EF77D0E28F5B0770905D42140D746E1056C5B3F26609B0CED908417600ECA12B0F6C17A074923407A0FA8F21010390A70F52CA0BD9A00EBF31A1B1BFA125EC0DE03AEDE034AA61E6002B8EC73C0A70044815C7980CC7C20471EF05B011932C1AA8BA1DB5AA05DEF5C0BD4F86B
310
818FD5E026C0AA25E90A2226601603C2D703E45580F5866ACF3E0DC415306A82B30EB86F8E48FC9AE067FDF77D73245159DCEFFB9558806413404CB48ED1DE6C8DE00268D2AFD80458936623B480910A77015BD38E703F0801101053C0F317015380868021C0A2415801548E8367F2B309983D40B2F40017703A5D86BF0B9D
310
0ADFE68026C09B27B980C2673B9544806C02AE5D40E47D01E20EB5D207F3E9AD93A5D88B1DC83204AE2BF910C838077C4401B94501091F05340F905B1E20DE03C433419D08247C26382BA03610B209B0F1CD56062AC905F8D7E4130A9029C0E700AF8188174484584217446CE623BB52EA85702F898D6F8812AF9DE2B802F4
310
8A5751FC2EE0BA620BF095FFDBAEC06A8517F0D73FFABF0B983F13BABD0F2A20FB5F680000000000000000000000000000000000000000807FCA4F44660DE505C3CF560000000049454E44AE426082B007C0A34A0CFB48700EA0D2F21E2063C1246100458D0F00ACDE9316009C3C15B3F2013B4A54013C91060F32B3806700
310
BA61C2D20236C5D2388A2C00EB4EA700780030C6045DC2612657A7193B67ED0401C46F48482FF1BC57D49F8AFA47ED1401F4D66CDA9B1CE9B88C68DFCE0FC0A27379910250000A4001D002B0FF8AF089A25714DCB5231206707D749B74B15139F01F0140F2006C0250A73AB33B1D1A700680F410985B40DA191800E0C432D0
310
D307D0F93351006692EAA24EBD5E8DE4F171E95BB7E525024ED36002D074BE4C75C35FB1FD952E52000A8065243802F00B00DC42615C58002E2C80A81374CEB84E4C29810FBDEED5F485BF52FBDD955ED8CD022B0B103304D4092A001900A69170150AE33A144616A1F06239A42443D85800D64E10530E4D7C45A8D625A6C3
310
020160BF20729BBA100058A7F65549A8040077C163F181A200F889057805201140AEF6BD95960300FDD4F34B02D086C20AE0B606834D2104D6051218DB917A81C4A5645322D36C1035A530DD530457FBE469323A00B2A2EB22296C8AA15A00B19D05807A080C006A1FD077394FDB026AD902F07300C3D3455C019407040402
310
4815E29322F16A1BFD1701FC01FE3239431AA402060000000049454E44AE426082
  0
ENDSEC
  0
EOF
