  0
SECTION
  2
HEADER
  9
$ACADVER
  1
AC1027
  9
$ACADMAINTVER
 70
    55
  9
$DWGCODEPAGE
  3
ANSI_932
  9
$LASTSAVEDBY
  1
marketing
  9
$REQUIREDVERSIONS
160
                 0
  9
$INSBASE
 10
0.0
 20
0.0
 30
0.0
  9
$EXTMIN
 10
-0.0147894687497683
 20
-0.121759839963488
 30
-0.000000000000013
  9
$EXTMAX
 10
630.100310311639
 20
891.1328166503608
 30
0.0000000000000023
  9
$LIMMIN
 10
-1176.0
 20
-798.0
  9
$LIMMAX
 10
594.0
 20
1078.0
  9
$ORTHOMODE
 70
     1
  9
$REGENMODE
 70
     1
  9
$FILLMODE
 70
     1
  9
$QTEXTMODE
 70
     0
  9
$MIRRTEXT
 70
     1
  9
$LTSCALE
 40
10.0
  9
$ATTMODE
 70
     1
  9
$TEXTSIZE
 40
0.2
  9
$TRACEWID
 40
0.05
  9
$TEXTSTYLE
  7
blockfont
  9
$CLAYER
  8
30
  9
$CELTYPE
  6
BYLAYER
  9
$CECOLOR
 62
   256
  9
$CELTSCALE
 40
1.0
  9
$DISPSILH
 70
     0
  9
$DIMSCALE
 40
1.0
  9
$DIMASZ
 40
3.0
  9
$DIMEXO
 40
1.0
  9
$DIMDLI
 40
0.5
  9
$DIMRND
 40
0.0
  9
$DIMDLE
 40
0.0
  9
$DIMEXE
 40
0.5
  9
$DIMTP
 40
0.0
  9
$DIMTM
 40
0.0
  9
$DIMTXT
 40
7.0
  9
$DIMCEN
 40
0.09
  9
$DIMTSZ
 40
0.0
  9
$DIMTOL
 70
     0
  9
$DIMLIM
 70
     0
  9
$DIMTIH
 70
     0
  9
$DIMTOH
 70
     0
  9
$DIMSE1
 70
     0
  9
$DIMSE2
 70
     0
  9
$DIMTAD
 70
     1
  9
$DIMZIN
 70
    12
  9
$DIMBLK
  1
OPEN
  9
$DIMASO
 70
     1
  9
$DIMSHO
 70
     1
  9
$DIMPOST
  1

  9
$DIMAPOST
  1

  9
$DIMALT
 70
     0
  9
$DIMALTD
 70
     2
  9
$DIMALTF
 40
25.4
  9
$DIMLFAC
 40
1.0
  9
$DIMTOFL
 70
     0
  9
$DIMTVP
 40
0.0
  9
$DIMTIX
 70
     0
  9
$DIMSOXD
 70
     0
  9
$DIMSAH
 70
     0
  9
$DIMBLK1
  1

  9
$DIMBLK2
  1

  9
$DIMSTYLE
  2
STANDARD
  9
$DIMCLRD
 70
   256
  9
$DIMCLRE
 70
     0
  9
$DIMCLRT
 70
   256
  9
$DIMTFAC
 40
1.0
  9
$DIMGAP
 40
3.0
  9
$DIMJUST
 70
     0
  9
$DIMSD1
 70
     0
  9
$DIMSD2
 70
     0
  9
$DIMTOLJ
 70
     1
  9
$DIMTZIN
 70
     0
  9
$DIMALTZ
 70
     0
  9
$DIMALTTZ
 70
     0
  9
$DIMUPT
 70
     0
  9
$DIMDEC
 70
     1
  9
$DIMTDEC
 70
     1
  9
$DIMALTU
 70
     2
  9
$DIMALTTD
 70
     2
  9
$DIMTXSTY
  7
STANDARD
  9
$DIMAUNIT
 70
     0
  9
$DIMADEC
 70
     0
  9
$DIMALTRND
 40
0.0
  9
$DIMAZIN
 70
     0
  9
$DIMDSEP
 70
    46
  9
$DIMATFIT
 70
     3
  9
$DIMFRAC
 70
     0
  9
$DIMLDRBLK
  1
OPEN
  9
$DIMLUNIT
 70
     2
  9
$DIMLWD
 70
    -2
  9
$DIMLWE
 70
    -2
  9
$DIMTMOVE
 70
     1
  9
$DIMFXL
 40
1.0
  9
$DIMFXLON
 70
     0
  9
$DIMJOGANG
 40
0.7853981633974483
  9
$DIMTFILL
 70
     1
  9
$DIMTFILLCLR
 70
     0
  9
$DIMARCSYM
 70
     0
  9
$DIMLTYPE
  6
BYLAYER
  9
$DIMLTEX1
  6

  9
$DIMLTEX2
  6

  9
$DIMTXTDIRECTION
 70
     0
  9
$LUNITS
 70
     2
  9
$LUPREC
 70
     8
  9
$SKETCHINC
 40
0.1
  9
$FILLETRAD
 40
0.0
  9
$AUNITS
 70
     0
  9
$AUPREC
 70
     0
  9
$MENU
  1
.
  9
$ELEVATION
 40
0.0
  9
$PELEVATION
 40
0.0
  9
$THICKNESS
 40
0.0
  9
$LIMCHECK
 70
     0
  9
$CHAMFERA
 40
0.0
  9
$CHAMFERB
 40
0.0
  9
$CHAMFERC
 40
0.0
  9
$CHAMFERD
 40
0.0
  9
$SKPOLY
 70
     0
  9
$TDCREATE
 40
2452286.555658658
  9
$TDUCREATE
 40
2452286.180658658
  9
$TDUPDATE
 40
2459244.464388414
  9
$TDUUPDATE
 40
2459244.089388414
  9
$TDINDWG
 40
2.7415302778
  9
$TDUSRTIMER
 40
2.7415264120
  9
$USRTIMER
 70
     1
  9
$ANGBASE
 50
0.0
  9
$ANGDIR
 70
     0
  9
$PDMODE
 70
     0
  9
$PDSIZE
 40
0.0
  9
$PLINEWID
 40
0.0
  9
$SPLFRAME
 70
     0
  9
$SPLINETYPE
 70
     6
  9
$SPLINESEGS
 70
     8
  9
$HANDSEED
  5
4256B
  9
$SURFTAB1
 70
     6
  9
$SURFTAB2
 70
     6
  9
$SURFTYPE
 70
     6
  9
$SURFU
 70
     6
  9
$SURFV
 70
     6
  9
$UCSBASE
  2

  9
$UCSNAME
  2

  9
$UCSORG
 10
0.0
 20
0.0
 30
0.0
  9
$UCSXDIR
 10
1.0
 20
0.0
 30
0.0
  9
$UCSYDIR
 10
0.0
 20
1.0
 30
0.0
  9
$UCSORTHOREF
  2

  9
$UCSORTHOVIEW
 70
     0
  9
$UCSORGTOP
 10
0.0
 20
0.0
 30
0.0
  9
$UCSORGBOTTOM
 10
0.0
 20
0.0
 30
0.0
  9
$UCSORGLEFT
 10
0.0
 20
0.0
 30
0.0
  9
$UCSORGRIGHT
 10
0.0
 20
0.0
 30
0.0
  9
$UCSORGFRONT
 10
0.0
 20
0.0
 30
0.0
  9
$UCSORGBACK
 10
0.0
 20
0.0
 30
0.0
  9
$PUCSBASE
  2

  9
$PUCSNAME
  2

  9
$PUCSORG
 10
0.0
 20
0.0
 30
0.0
  9
$PUCSXDIR
 10
1.0
 20
0.0
 30
0.0
  9
$PUCSYDIR
 10
0.0
 20
1.0
 30
0.0
  9
$PUCSORTHOREF
  2

  9
$PUCSORTHOVIEW
 70
     0
  9
$PUCSORGTOP
 10
0.0
 20
0.0
 30
0.0
  9
$PUCSORGBOTTOM
 10
0.0
 20
0.0
 30
0.0
  9
$PUCSORGLEFT
 10
0.0
 20
0.0
 30
0.0
  9
$PUCSORGRIGHT
 10
0.0
 20
0.0
 30
0.0
  9
$PUCSORGFRONT
 10
0.0
 20
0.0
 30
0.0
  9
$PUCSORGBACK
 10
0.0
 20
0.0
 30
0.0
  9
$USERI1
 70
     0
  9
$USERI2
 70
     0
  9
$USERI3
 70
     0
  9
$USERI4
 70
     0
  9
$USERI5
 70
     0
  9
$USERR1
 40
0.0
  9
$USERR2
 40
0.0
  9
$USERR3
 40
0.0
  9
$USERR4
 40
0.0
  9
$USERR5
 40
0.0
  9
$WORLDVIEW
 70
     1
  9
$SHADEDGE
 70
     3
  9
$SHADEDIF
 70
    70
  9
$TILEMODE
 70
     1
  9
$MAXACTVP
 70
    48
  9
$PINSBASE
 10
0.0
 20
0.0
 30
0.0
  9
$PLIMCHECK
 70
     0
  9
$PEXTMIN
 10
0.0
 20
0.0
 30
0.0
  9
$PEXTMAX
 10
0.0
 20
0.0
 30
0.0
  9
$PLIMMIN
 10
-0.2500002402958907
 20
-0.2499999962453767
  9
$PLIMMAX
 10
10.74999951940822
 20
8.249999763458731
  9
$UNITMODE
 70
     0
  9
$VISRETAIN
 70
     1
  9
$PLINEGEN
 70
     0
  9
$PSLTSCALE
 70
     1
  9
$TREEDEPTH
 70
  3020
  9
$CMLSTYLE
  2
STANDARD
  9
$CMLJUST
 70
     0
  9
$CMLSCALE
 40
1.0
  9
$PROXYGRAPHICS
 70
     1
  9
$MEASUREMENT
 70
     0
  9
$CELWEIGHT
370
    -1
  9
$ENDCAPS
280
     0
  9
$JOINSTYLE
280
     0
  9
$LWDISPLAY
290
     0
  9
$INSUNITS
 70
     0
  9
$HYPERLINKBASE
  1

  9
$STYLESHEET
  1
MONOCHROME.CTB
  9
$XEDIT
290
     1
  9
$CEPSNTYPE
380
     0
  9
$PSTYLEMODE
290
     1
  9
$FINGERPRINTGUID
  2

  9
$VERSIONGUID
  2
{F3C4452D-248D-4EC2-A66E-1C33CDCD1C7C}
  9
$EXTNAMES
290
     1
  9
$PSVPSCALE
 40
0.0
  9
$OLESTARTUP
290
     0
  9
$SORTENTS
280
   127
  9
$INDEXCTL
280
     0
  9
$HIDETEXT
280
     0
  9
$XCLIPFRAME
280
     2
  9
$HALOGAP
280
     0
  9
$OBSCOLOR
 70
   257
  9
$OBSLTYPE
280
     0
  9
$INTERSECTIONDISPLAY
280
     0
  9
$INTERSECTIONCOLOR
 70
   257
  9
$DIMASSOC
280
     1
  9
$PROJECTNAME
  1

  9
$CAMERADISPLAY
290
     0
  9
$LENSLENGTH
 40
50.0
  9
$CAMERAHEIGHT
 40
0.0
  9
$STEPSPERSEC
 40
2.0
  9
$STEPSIZE
 40
6.0
  9
$3DDWFPREC
 40
2.0
  9
$PSOLWIDTH
 40
0.25
  9
$PSOLHEIGHT
 40
4.0
  9
$LOFTANG1
 40
1.570796326794896
  9
$LOFTANG2
 40
1.570796326794896
  9
$LOFTMAG1
 40
0.0
  9
$LOFTMAG2
 40
0.0
  9
$LOFTPARAM
 70
     7
  9
$LOFTNORMALS
280
     1
  9
$LATITUDE
 40
37.795
  9
$LONGITUDE
 40
-122.394
  9
$NORTHDIRECTION
 40
0.0
  9
$TIMEZONE
 70
 -8000
  9
$LIGHTGLYPHDISPLAY
280
     1
  9
$TILEMODELIGHTSYNCH
280
     1
  9
$CMATERIAL
347
E4BC
  9
$SOLIDHIST
280
     1
  9
$SHOWHIST
280
     1
  9
$DWFFRAME
280
     2
  9
$DGNFRAME
280
     0
  9
$REALWORLDSCALE
290
     1
  9
$INTERFERECOLOR
 62
     1
  9
$INTERFEREOBJVS
345
E4DE
  9
$INTERFEREVPVS
346
E4DB
  9
$CSHADOW
280
     0
  9
$SHADOWPLANELOCATION
 40
0.0
  0
ENDSEC
  0
SECTION
  2
CLASSES
  0
CLASS
  1
ACDBDICTIONARYWDFLT
  2
AcDbDictionaryWithDefault
  3
ObjectDBX Classes
 90
        0
 91
        1
280
     0
281
     0
  0
CLASS
  1
DICTIONARYVAR
  2
AcDbDictionaryVar
  3
ObjectDBX Classes
 90
        0
 91
       12
280
     0
281
     0
  0
CLASS
  1
MATERIAL
  2
AcDbMaterial
  3
ObjectDBX Classes
 90
     1153
 91
        3
280
     0
281
     0
  0
CLASS
  1
VISUALSTYLE
  2
AcDbVisualStyle
  3
ObjectDBX Classes
 90
     4095
 91
       26
280
     0
281
     0
  0
CLASS
  1
TABLESTYLE
  2
AcDbTableStyle
  3
ObjectDBX Classes
 90
     4095
 91
        1
280
     0
281
     0
  0
CLASS
  1
SCALE
  2
AcDbScale
  3
ObjectDBX Classes
 90
     1153
 91
       33
280
     0
281
     0
  0
CLASS
  1
MLEADERSTYLE
  2
AcDbMLeaderStyle
  3
ACDB_MLEADERSTYLE_CLASS
 90
     4095
 91
        1
280
     0
281
     0
  0
CLASS
  1
CELLSTYLEMAP
  2
AcDbCellStyleMap
  3
ObjectDBX Classes
 90
     1152
 91
        2
280
     0
281
     0
  0
CLASS
  1
AEC_REFEDIT_STATUS_TRACKER
  2
AecDbRefEditStatusTracker
  3
AecArchBase70|Product Desc: Autodesk Architectural Desktop 2007 |Company: Autodesk,Inc. |WEB Address: www.autodesk.com
 90
      129
 91
        0
280
     0
281
     0
  0
CLASS
  1
NPOCOLLECTION
  2
AcDbImpNonPersistentObjectsCollection
  3
ObjectDBX Classes
 90
     1153
 91
        0
280
     0
281
     0
  0
CLASS
  1
SORTENTSTABLE
  2
AcDbSortentsTable
  3
ObjectDBX Classes
 90
        0
 91
        4
280
     0
281
     0
  0
CLASS
  1
ACDBSECTIONVIEWSTYLE
  2
AcDbSectionViewStyle
  3
ObjectDBX Classes
 90
     1025
 91
        1
280
     0
281
     0
  0
CLASS
  1
ACDBDETAILVIEWSTYLE
  2
AcDbDetailViewStyle
  3
ObjectDBX Classes
 90
     1025
 91
        1
280
     0
281
     0
  0
ENDSEC
  0
SECTION
  2
TABLES
  0
TABLE
  2
VPORT
  5
8
330
0
100
AcDbSymbolTable
 70
     1
  0
VPORT
  5
12C00
330
8
100
AcDbSymbolTableRecord
100
AcDbViewportTableRecord
  2
*Active
 70
     0
 10
0.0
 20
0.0
 11
1.0
 21
1.0
 12
315.0427604214448
 22
445.5055284051987
 13
0.0
 23
0.0
 14
1.0
 24
1.0
 15
10.0
 25
10.0
 16
0.0
 26
0.0
 36
1.0
 17
0.0
 27
0.0
 37
0.0
 40
897.6973806577243
 41
2.289505428226779
 42
50.0
 43
0.0
 44
0.0
 50
0.0
 51
0.0
 71
     0
 72
   100
 73
     1
 74
     1
 75
     0
 76
     0
 77
     0
 78
     1
281
     0
 65
     1
110
0.0
120
0.0
130
0.0
111
1.0
121
0.0
131
0.0
112
0.0
122
1.0
132
0.0
 79
     0
146
0.0
348
E4DA
 60
     3
 61
     5
292
     1
282
     1
141
0.0
142
0.0
 63
   250
421
  3355443
1001
ACAD_NAV_VCDISPLAY
1070
     3
  0
ENDTAB
  0
TABLE
  2
LTYPE
  5
5
330
0
100
AcDbSymbolTable
 70
    11
  0
LTYPE
  5
13
330
5
100
AcDbSymbolTableRecord
100
AcDbLinetypeTableRecord
  2
BYBLOCK
 70
     0
  3

 72
    65
 73
     0
 40
0.0
  0
LTYPE
  5
14
330
5
100
AcDbSymbolTableRecord
100
AcDbLinetypeTableRecord
  2
BYLAYER
 70
     0
  3

 72
    65
 73
     0
 40
0.0
  0
LTYPE
  5
15
330
5
100
AcDbSymbolTableRecord
100
AcDbLinetypeTableRecord
  2
CONTINUOUS
 70
     0
  3
Solid line
 72
    65
 73
     0
 40
0.0
  0
LTYPE
  5
22
330
5
100
AcDbSymbolTableRecord
100
AcDbLinetypeTableRecord
  2
CONTINOUS
 70
     0
  3
Solid line
 72
    65
 73
     0
 40
0.0
  0
LTYPE
  5
24
330
5
100
AcDbSymbolTableRecord
100
AcDbLinetypeTableRecord
  2
DASHDOT
 70
     0
  3
__ . __ . __ . __ . __ . __ . __ . __ . __ . __
 72
    65
 73
     4
 40
1.0
 49
0.5
 74
     0
 49
-0.25
 74
     0
 49
0.0
 74
     0
 49
-0.25
 74
     0
  0
LTYPE
  5
4C47
330
5
100
AcDbSymbolTableRecord
100
AcDbLinetypeTableRecord
  2
DIVIDE
 70
     0
  3
Divide ____ . . ____ . . ____ . . ____ . . ____
 72
    65
 73
     6
 40
1.25
 49
0.5
 74
     0
 49
-0.25
 74
     0
 49
0.0
 74
     0
 49
-0.25
 74
     0
 49
0.0
 74
     0
 49
-0.25
 74
     0
  0
LTYPE
  5
685F
330
5
100
AcDbSymbolTableRecord
100
AcDbLinetypeTableRecord
  2
PHANTOM
 70
     0
  3
Phantom ______  __  __  ______  __  __  ______
 72
    65
 73
     6
 40
2.5
 49
1.25
 74
     0
 49
-0.25
 74
     0
 49
0.25
 74
     0
 49
-0.25
 74
     0
 49
0.25
 74
     0
 49
-0.25
 74
     0
  0
LTYPE
  5
1F2BD
330
5
100
AcDbSymbolTableRecord
100
AcDbLinetypeTableRecord
  2
SLD-実線
 70
     0
  3
SolidWorks Line Style
 72
    65
 73
     0
 40
0.0
  0
LTYPE
  5
399AC
330
5
100
AcDbSymbolTableRecord
100
AcDbLinetypeTableRecord
  2
DASHED
 70
     0
  3
__ __ __ __ __ __ __ __ __ __ __ __ __ __ __
 72
    65
 73
     2
 40
0.75
 49
0.5
 74
     0
 49
-0.25
 74
     0
  0
LTYPE
  5
3ACB9
330
5
100
AcDbSymbolTableRecord
100
AcDbLinetypeTableRecord
  2
SLD-2点鎖線
 70
     0
  3
SolidWorks Line Style
 72
    65
 73
     6
 40
12.7
 49
6.349999999999997
 74
     0
 49
-1.27
 74
     0
 49
1.27
 74
     0
 49
-1.27
 74
     0
 49
1.27
 74
     0
 49
-1.27
 74
     0
  0
LTYPE
  5
3ACBA
330
5
100
AcDbSymbolTableRecord
100
AcDbLinetypeTableRecord
  2
SLD-鎖線
 70
     0
  3
SolidWorks Line Style
 72
    65
 73
     4
 40
10.16
 49
6.349999999999997
 74
     0
 49
-1.27
 74
     0
 49
1.27
 74
     0
 49
-1.27
 74
     0
  0
LTYPE
  5
3CA67
330
5
100
AcDbSymbolTableRecord
100
AcDbLinetypeTableRecord
  2
SLD-1点鎖線(中心線)
 70
     0
  3
SolidWorks Line Style
 72
    65
 73
     4
 40
34.29
 49
30.48
 74
     0
 49
-1.27
 74
     0
 49
1.27
 74
     0
 49
-1.27
 74
     0
  0
LTYPE
  5
3CA68
330
5
100
AcDbSymbolTableRecord
100
AcDbLinetypeTableRecord
  2
HIDDEN
 70
     0
  3
Hidden __ __ __ __ __ __ __ __ __ __ __ __ __ __
 72
    65
 73
     2
 40
0.375
 49
0.25
 74
     0
 49
-0.125
 74
     0
  0
ENDTAB
  0
TABLE
  2
LAYER
  5
2
102
{ACAD_XDICTIONARY
360
12DA0
102
}
330
0
100
AcDbSymbolTable
 70
    19
  0
LAYER
  5
10
102
{ACAD_XDICTIONARY
360
E512
102
}
330
2
100
AcDbSymbolTableRecord
100
AcDbLayerTableRecord
  2
0
 70
     0
 62
     7
  6
CONTINOUS
370
    -3
390
F
347
E4CC
348
0
  0
LAYER
  5
2F
102
{ACAD_XDICTIONARY
360
E514
102
}
330
2
100
AcDbSymbolTableRecord
100
AcDbLayerTableRecord
  2
10
 70
     0
 62
     4
  6
CONTINOUS
370
    -3
390
F
347
E4CC
348
0
  0
LAYER
  5
35
102
{ACAD_XDICTIONARY
360
E518
102
}
330
2
100
AcDbSymbolTableRecord
100
AcDbLayerTableRecord
  2
16
 70
     0
 62
     6
  6
DASHDOT
370
    -3
390
F
347
E4CC
348
0
  0
LAYER
  5
3D
102
{ACAD_XDICTIONARY
360
E51C
102
}
330
2
100
AcDbSymbolTableRecord
100
AcDbLayerTableRecord
  2
24
 70
     0
 62
     7
  6
CONTINOUS
370
    -3
390
F
347
E4CC
348
0
  0
LAYER
  5
3A2
102
{ACAD_XDICTIONARY
360
E51E
102
}
330
2
100
AcDbSymbolTableRecord
100
AcDbLayerTableRecord
  2
30
 70
     0
 62
     9
  6
CONTINUOUS
370
    -3
390
F
347
E4CC
348
0
  0
LAYER
  5
3A4
330
2
100
AcDbSymbolTableRecord
100
AcDbLayerTableRecord
  2
DEFPOINTS
 70
     0
 62
     7
  6
CONTINUOUS
290
     0
370
    -3
390
F
347
E4CC
348
0
  0
LAYER
  5
3BBA
102
{ACAD_XDICTIONARY
360
E520
102
}
330
2
100
AcDbSymbolTableRecord
100
AcDbLayerTableRecord
  2
18
 70
     0
 62
     5
  6
DIVIDE
370
    -3
390
F
347
E4CC
348
0
  0
LAYER
  5
67A8
102
{ACAD_XDICTIONARY
360
E522
102
}
330
2
100
AcDbSymbolTableRecord
100
AcDbLayerTableRecord
  2
11
 70
     0
 62
    11
  6
CONTINOUS
370
    -3
390
F
347
E4CC
348
0
  0
LAYER
  5
7837
102
{ACAD_XDICTIONARY
360
E524
102
}
330
2
100
AcDbSymbolTableRecord
100
AcDbLayerTableRecord
  2
17
 70
     0
 62
     2
  6
DASHDOT
370
    -3
390
F
347
E4CC
348
0
  0
LAYER
  5
C4FE
102
{ACAD_XDICTIONARY
360
E52A
102
}
330
2
100
AcDbSymbolTableRecord
100
AcDbLayerTableRecord
  2
2
 70
     0
 62
     7
  6
CONTINUOUS
370
    -3
390
F
347
E4CC
348
0
  0
LAYER
  5
C501
102
{ACAD_XDICTIONARY
360
E530
102
}
330
2
100
AcDbSymbolTableRecord
100
AcDbLayerTableRecord
  2
5
 70
     0
 62
     7
  6
CONTINUOUS
370
    -3
390
F
347
E4CC
348
0
  0
LAYER
  5
E473
102
{ACAD_XDICTIONARY
360
E534
102
}
330
2
100
AcDbSymbolTableRecord
100
AcDbLayerTableRecord
  2
130
 70
     0
 62
     4
  6
CONTINUOUS
370
    -3
390
F
347
E4CC
348
0
  0
LAYER
  5
1106A
102
{ACAD_XDICTIONARY
360
1106B
102
}
330
2
100
AcDbSymbolTableRecord
100
AcDbLayerTableRecord
  2
131
 70
     0
 62
     4
  6
PHANTOM
370
    -3
390
F
347
E4CC
348
0
  0
LAYER
  5
38289
102
{ACAD_XDICTIONARY
360
3828A
102
}
330
2
100
AcDbSymbolTableRecord
100
AcDbLayerTableRecord
  2
240
 70
     0
 62
     7
  6
CONTINUOUS
370
    -3
390
F
347
E4CC
348
0
  0
LAYER
  5
399AD
102
{ACAD_XDICTIONARY
360
399AE
102
}
330
2
100
AcDbSymbolTableRecord
100
AcDbLayerTableRecord
  2
12
 70
     0
 62
     3
  6
CONTINOUS
370
    -3
390
F
347
E4CC
348
0
  0
LAYER
  5
3ACBB
102
{ACAD_XDICTIONARY
360
3ACBC
102
}
330
2
100
AcDbSymbolTableRecord
100
AcDbLayerTableRecord
  2
13
 70
     0
 62
     3
  6
CONTINUOUS
370
    -3
390
F
347
E4CC
348
0
  0
LAYER
  5
3ACBD
102
{ACAD_XDICTIONARY
360
3ACBE
102
}
330
2
100
AcDbSymbolTableRecord
100
AcDbLayerTableRecord
  2
SLD-0
 70
     0
 62
     7
  6
SLD-実線
370
    -3
390
F
347
E4CC
348
0
  0
LAYER
  5
3CA69
102
{ACAD_XDICTIONARY
360
3CA6A
102
}
330
2
100
AcDbSymbolTableRecord
100
AcDbLayerTableRecord
  2
113
 70
     0
 62
   113
  6
CONTINUOUS
370
    -3
390
F
347
E4CC
348
0
  0
LAYER
  5
3EE4E
102
{ACAD_XDICTIONARY
360
3EE4F
102
}
330
2
100
AcDbSymbolTableRecord
100
AcDbLayerTableRecord
  2
21
 70
     0
 62
     2
  6
CONTINUOUS
370
    -3
390
F
347
E4CC
348
0
  0
ENDTAB
  0
TABLE
  2
STYLE
  5
3
330
0
100
AcDbSymbolTable
 70
     4
  0
STYLE
  5
11
330
3
100
AcDbSymbolTableRecord
100
AcDbTextStyleTableRecord
  2
STANDARD
 70
     0
 40
0.0
 41
1.0
 50
0.0
 71
     0
 42
2.0
  3
txt.shx
  4
bigfont.shx
  0
STYLE
  5
C503
330
3
100
AcDbSymbolTableRecord
100
AcDbTextStyleTableRecord
  2
blockfont
 70
     0
 40
0.0
 41
1.0
 50
0.0
 71
     0
 42
0.2
  3
simplex.shx
  4
bigfont
  0
STYLE
  5
3828B
330
3
100
AcDbSymbolTableRecord
100
AcDbTextStyleTableRecord
  2
SLDTEXTSTYLE0
 70
     0
 40
0.0
 41
1.0
 50
0.0
 71
     0
 42
3.0
  3
MS UI Gothic.ttf
  4

1001
ACAD
1000
MS UI Gothic
1071
      306
  0
STYLE
  5
3EE50
330
3
100
AcDbSymbolTableRecord
100
AcDbTextStyleTableRecord
  2
STANDARD1
 70
     0
 40
0.0
 41
1.0
 50
0.0
 71
     0
 42
5.0
  3
MONOTXT
  4
BIGFONT
  0
ENDTAB
  0
TABLE
  2
VIEW
  5
6
330
0
100
AcDbSymbolTable
 70
     3
  0
VIEW
  5
230C
330
6
100
AcDbSymbolTableRecord
100
AcDbViewTableRecord
  2
OLE1
 70
     0
 40
148.912488
 10
429.497628
 20
2.560627
 41
103.145806
 11
0.0
 21
0.0
 31
1.0
 12
0.0
 22
0.0
 32
0.0
 42
50.0
 43
0.0
 44
0.0
 50
0.0
 71
     0
281
     0
 72
     0
 73
     0
348
E4DA
  0
VIEW
  5
230E
330
6
100
AcDbSymbolTableRecord
100
AcDbViewTableRecord
  2
OLE2
 70
     0
 40
170.778692
 10
322.66497
 20
-5.978304
 41
102.467215
 11
0.0
 21
0.0
 31
1.0
 12
0.0
 22
0.0
 32
0.0
 42
50.0
 43
0.0
 44
0.0
 50
0.0
 71
     0
281
     0
 72
     0
 73
     0
348
E4DA
  0
VIEW
  5
23AA
330
6
100
AcDbSymbolTableRecord
100
AcDbViewTableRecord
  2
OLE3
 70
     0
 40
591.7897389999998
 10
84.79698199999999
 20
-46.09335999999998
 41
388.792096
 11
0.0
 21
0.0
 31
1.0
 12
0.0
 22
0.0
 32
0.0
 42
50.0
 43
0.0
 44
0.0
 50
0.0
 71
     0
281
     0
 72
     0
 73
     0
348
E4DA
  0
ENDTAB
  0
TABLE
  2
UCS
  5
7
330
0
100
AcDbSymbolTable
 70
     0
  0
ENDTAB
  0
TABLE
  2
APPID
  5
9
330
0
100
AcDbSymbolTable
 70
    10
  0
APPID
  5
12
330
9
100
AcDbSymbolTableRecord
100
AcDbRegAppTableRecord
  2
ACAD
 70
     0
  0
APPID
  5
ECD
330
9
100
AcDbSymbolTableRecord
100
AcDbRegAppTableRecord
  2
CONTENTBLOCKICON
 70
     0
  0
APPID
  5
E582
330
9
100
AcDbSymbolTableRecord
100
AcDbRegAppTableRecord
  2
DCO15
 70
     0
  0
APPID
  5
F8B0
330
9
100
AcDbSymbolTableRecord
100
AcDbRegAppTableRecord
  2
ACAD_MLEADERVER
 70
     0
  0
APPID
  5
F8D5
330
9
100
AcDbSymbolTableRecord
100
AcDbRegAppTableRecord
  2
ACAD_PSEXT
 70
     0
  0
APPID
  5
F997
330
9
100
AcDbSymbolTableRecord
100
AcDbRegAppTableRecord
  2
ACAD_EXEMPT_FROM_CAD_STANDARDS
 70
     0
  0
APPID
  5
1F2D1
330
9
100
AcDbSymbolTableRecord
100
AcDbRegAppTableRecord
  2
ACAD_DSTYLE_DIMJAG
 70
     0
  0
APPID
  5
1F2D2
330
9
100
AcDbSymbolTableRecord
100
AcDbRegAppTableRecord
  2
ACAD_DSTYLE_DIMTALN
 70
     0
  0
APPID
  5
3EE52
330
9
100
AcDbSymbolTableRecord
100
AcDbRegAppTableRecord
  2
ACAD_NAV_VCDISPLAY
 70
     0
  0
APPID
  5
3F34C
330
9
100
AcDbSymbolTableRecord
100
AcDbRegAppTableRecord
  2
ACAD_DSTYLE_DIMBREAK
 70
     0
  0
ENDTAB
  0
TABLE
  2
DIMSTYLE
  5
A
330
0
100
AcDbSymbolTable
 70
     3
100
AcDbDimStyleTable
 71
     2
340
C24A
340
175
  0
DIMSTYLE
105
175
102
{ACAD_REACTORS
330
3F445
330
3F47B
330
3F47C
330
3F4BF
330
42293
330
42294
330
42295
330
42298
330
4229A
330
422B4
330
422B5
330
422B6
330
422B7
330
42410
102
}
330
A
100
AcDbSymbolTableRecord
100
AcDbDimStyleTableRecord
  2
STANDARD
 70
     0
 41
3.0
 42
1.0
 43
0.5
 44
0.5
 69
     1
 73
     0
 74
     0
 77
     1
 78
    12
140
7.0
147
3.0
176
   256
178
   256
271
     1
272
     1
279
     1
340
11
341
3B2
342
3B2
345
14
1001
ACAD_DSTYLE_DIMJAG
1070
   388
1040
1.5
1001
ACAD_DSTYLE_DIMTALN
1070
   392
1070
     0
  0
DIMSTYLE
105
C24A
102
{ACAD_REACTORS
330
3F81E
330
42296
330
42299
330
4180B
330
4180C
330
424AC
330
424CD
330
3F47D
330
3F47F
330
3F480
330
3F48C
102
}
330
A
100
AcDbSymbolTableRecord
100
AcDbDimStyleTableRecord
  2
STANDARD1
 70
     0
 41
2.0
 42
3.0
 43
0.5
 44
0.5
 77
     3
 78
    12
140
7.0
147
2.0
172
     1
271
     1
272
     1
289
     2
340
11
341
3B2
342
3B2
1001
ACAD_DSTYLE_DIMJAG
1070
   388
1040
1.5
1001
ACAD_DSTYLE_DIMTALN
1070
   392
1070
     0
  0
DIMSTYLE
105
3ACBF
330
A
100
AcDbSymbolTableRecord
100
AcDbDimStyleTableRecord
  2
SLDDIMSTYLE6
 70
     0
 41
2.0
 44
0.0
 45
0.000000001
146
2.0
147
0.0
173
     1
271
     0
272
     0
276
     2
340
11
  0
ENDTAB
  0
TABLE
  2
BLOCK_RECORD
  5
1
330
0
100
AcDbSymbolTable
 70
    64
  0
BLOCK_RECORD
  5
1E
102
{ACAD_XDICTIONARY
360
178
102
}
330
1
100
AcDbSymbolTableRecord
100
AcDbBlockTableRecord
  2
*MODEL_SPACE
340
904E
 70
     0
280
     1
281
     0
  0
BLOCK_RECORD
  5
1A
102
{ACAD_XDICTIONARY
360
17A
102
}
330
1
100
AcDbSymbolTableRecord
100
AcDbBlockTableRecord
  2
*PAPER_SPACE
340
904F
 70
     0
280
     1
281
     0
  0
BLOCK_RECORD
  5
3B2
330
1
100
AcDbSymbolTableRecord
100
AcDbBlockTableRecord
  2
_OPEN
340
0
102
{BLKREFS
331
417F5
331
417F6
331
41801
331
41802
331
41E38
331
41E39
331
41E41
331
41E42
331
42083
331
42084
331
4208F
331
42090
331
42098
331
42099
331
420A0
331
420A1
331
420A9
331
420AA
331
42453
331
42454
331
42468
331
42469
331
42482
331
42483
331
4249D
331
4249E
331
424A6
331
424A7
331
42417
331
424C8
331
42385
331
42386
331
4238D
331
4238E
331
42368
331
42397
331
42398
331
423BB
331
423BC
331
423FE
331
423FF
331
4240A
331
4240B
331
42418
331
424E3
331
424E4
331
42500
331
42501
331
420BE
331
420BF
331
420C8
331
420C9
331
420D0
331
420D1
331
420D9
331
420DA
331
420E2
331
420E3
331
420EC
331
420ED
331
4210B
331
4210C
331
42162
331
42163
331
42171
331
42172
331
4217D
331
4217E
331
42188
331
42189
331
42194
331
42195
331
42378
331
42379
331
42509
331
4250A
331
424C7
331
4252F
331
42530
331
42538
331
42539
331
4254A
331
4254B
331
42554
331
42555
331
421A4
331
421A5
331
421AF
331
421B0
331
421BC
331
421BD
331
421C7
331
421C8
331
421D3
331
421D4
331
421DF
331
421E0
331
421EC
331
421ED
331
4235E
331
4235F
331
42367
102
}
 70
     0
280
     1
281
     0
  0
BLOCK_RECORD
  5
3AAB3
330
1
100
AcDbSymbolTableRecord
100
AcDbBlockTableRecord
  2
_DOT
340
0
 70
     0
280
     1
281
     0
  0
BLOCK_RECORD
  5
3AABB
330
1
100
AcDbSymbolTableRecord
100
AcDbBlockTableRecord
  2
SW_CENTERMARKSYMBOL_20
340
0
 70
     0
280
     1
281
     0
  0
BLOCK_RECORD
  5
3AAC6
330
1
100
AcDbSymbolTableRecord
100
AcDbBlockTableRecord
  2
SW_CENTERMARKSYMBOL_54
340
0
 70
     0
280
     1
281
     0
  0
BLOCK_RECORD
  5
3AAD1
330
1
100
AcDbSymbolTableRecord
100
AcDbBlockTableRecord
  2
SW_CENTERMARKSYMBOL_55
340
0
 70
     0
280
     1
281
     0
  0
BLOCK_RECORD
  5
3AADC
102
{ACAD_XDICTIONARY
360
3AADD
102
}
330
1
100
AcDbSymbolTableRecord
100
AcDbBlockTableRecord
  2
m5screw1
340
0
 70
     0
280
     1
281
     0
  0
BLOCK_RECORD
  5
3C90B
330
1
100
AcDbSymbolTableRecord
100
AcDbBlockTableRecord
  2
SW_CENTERMARKSYMBOL_56
340
0
102
{BLKREFS
331
3F802
331
3F81F
102
}
 70
     0
280
     1
281
     0
  0
BLOCK_RECORD
  5
3C916
330
1
100
AcDbSymbolTableRecord
100
AcDbBlockTableRecord
  2
SW_CENTERMARKSYMBOL_57
340
0
102
{BLKREFS
331
3F803
331
3F820
102
}
 70
     0
280
     1
281
     0
  0
BLOCK_RECORD
  5
3DA3C
102
{ACAD_XDICTIONARY
360
3DA3D
102
}
330
1
100
AcDbSymbolTableRecord
100
AcDbBlockTableRecord
  2
A$C3F0A4506
340
0
 70
     0
280
     1
281
     0
  0
BLOCK_RECORD
  5
3ED68
330
1
100
AcDbSymbolTableRecord
100
AcDbBlockTableRecord
  2
SW_CENTERMARKSYMBOL_12
340
0
102
{BLKREFS
331
4229B
331
4180D
102
}
 70
     0
280
     1
281
     0
  0
BLOCK_RECORD
  5
3ED73
330
1
100
AcDbSymbolTableRecord
100
AcDbBlockTableRecord
  2
SW_CENTERMARKSYMBOL_13
340
0
102
{BLKREFS
331
4229C
331
4180E
102
}
 70
     0
280
     1
281
     0
  0
BLOCK_RECORD
  5
3ED7E
330
1
100
AcDbSymbolTableRecord
100
AcDbBlockTableRecord
  2
SW_CENTERMARKSYMBOL_14
340
0
102
{BLKREFS
331
4229D
331
4180F
102
}
 70
     0
280
     1
281
     0
  0
BLOCK_RECORD
  5
3F5BB
330
1
100
AcDbSymbolTableRecord
100
AcDbBlockTableRecord
  2
*D12
340
0
 70
     0
280
     1
281
     0
  0
BLOCK_RECORD
  5
3F5C7
330
1
100
AcDbSymbolTableRecord
100
AcDbBlockTableRecord
  2
*D13
340
0
 70
     0
280
     1
281
     0
  0
BLOCK_RECORD
  5
3F5D3
330
1
100
AcDbSymbolTableRecord
100
AcDbBlockTableRecord
  2
*D14
340
0
 70
     0
280
     1
281
     0
  0
BLOCK_RECORD
  5
3F5DF
330
1
100
AcDbSymbolTableRecord
100
AcDbBlockTableRecord
  2
*D15
340
0
 70
     0
280
     1
281
     0
  0
BLOCK_RECORD
  5
3F5F7
330
1
100
AcDbSymbolTableRecord
100
AcDbBlockTableRecord
  2
*D16
340
0
 70
     0
280
     1
281
     0
  0
BLOCK_RECORD
  5
3F603
330
1
100
AcDbSymbolTableRecord
100
AcDbBlockTableRecord
  2
*D17
340
0
 70
     0
280
     1
281
     0
  0
BLOCK_RECORD
  5
3F60F
330
1
100
AcDbSymbolTableRecord
100
AcDbBlockTableRecord
  2
*D18
340
0
 70
     0
280
     1
281
     0
  0
BLOCK_RECORD
  5
3F633
330
1
100
AcDbSymbolTableRecord
100
AcDbBlockTableRecord
  2
*D19
340
0
 70
     0
280
     1
281
     0
  0
BLOCK_RECORD
  5
3F821
330
1
100
AcDbSymbolTableRecord
100
AcDbBlockTableRecord
  2
*D20
340
0
 70
     0
280
     1
281
     0
  0
BLOCK_RECORD
  5
417EE
330
1
100
AcDbSymbolTableRecord
100
AcDbBlockTableRecord
  2
*D21
340
0
 70
     0
280
     1
281
     0
  0
BLOCK_RECORD
  5
417FC
330
1
100
AcDbSymbolTableRecord
100
AcDbBlockTableRecord
  2
*D22
340
0
 70
     0
280
     1
281
     0
  0
BLOCK_RECORD
  5
41807
102
{ACAD_XDICTIONARY
360
41816
102
}
330
1
100
AcDbSymbolTableRecord
100
AcDbBlockTableRecord
  2
A$C0A6817A3
340
0
 70
     0
280
     1
281
     0
  0
BLOCK_RECORD
  5
41F77
330
1
100
AcDbSymbolTableRecord
100
AcDbBlockTableRecord
  2
*D24
340
0
 70
     0
280
     1
281
     0
  0
BLOCK_RECORD
  5
41F83
330
1
100
AcDbSymbolTableRecord
100
AcDbBlockTableRecord
  2
*D25
340
0
 70
     0
280
     1
281
     0
  0
BLOCK_RECORD
  5
41F92
330
1
100
AcDbSymbolTableRecord
100
AcDbBlockTableRecord
  2
*D26
340
0
 70
     0
280
     1
281
     0
  0
BLOCK_RECORD
  5
41F9E
330
1
100
AcDbSymbolTableRecord
100
AcDbBlockTableRecord
  2
*D27
340
0
 70
     0
280
     1
281
     0
  0
BLOCK_RECORD
  5
41FAA
330
1
100
AcDbSymbolTableRecord
100
AcDbBlockTableRecord
  2
*D28
340
0
 70
     0
280
     1
281
     0
  0
BLOCK_RECORD
  5
41FB6
330
1
100
AcDbSymbolTableRecord
100
AcDbBlockTableRecord
  2
*D29
340
0
 70
     0
280
     1
281
     0
  0
BLOCK_RECORD
  5
41FC5
330
1
100
AcDbSymbolTableRecord
100
AcDbBlockTableRecord
  2
*D30
340
0
 70
     0
280
     1
281
     0
  0
BLOCK_RECORD
  5
41FD0
330
1
100
AcDbSymbolTableRecord
100
AcDbBlockTableRecord
  2
*D31
340
0
 70
     0
280
     1
281
     0
  0
BLOCK_RECORD
  5
41FDD
330
1
100
AcDbSymbolTableRecord
100
AcDbBlockTableRecord
  2
*D32
340
0
 70
     0
280
     1
281
     0
  0
BLOCK_RECORD
  5
41FE9
330
1
100
AcDbSymbolTableRecord
100
AcDbBlockTableRecord
  2
*D33
340
0
 70
     0
280
     1
281
     0
  0
BLOCK_RECORD
  5
41FF5
330
1
100
AcDbSymbolTableRecord
100
AcDbBlockTableRecord
  2
*D34
340
0
 70
     0
280
     1
281
     0
  0
BLOCK_RECORD
  5
42001
330
1
100
AcDbSymbolTableRecord
100
AcDbBlockTableRecord
  2
*D35
340
0
 70
     0
280
     1
281
     0
  0
BLOCK_RECORD
  5
4215C
330
1
100
AcDbSymbolTableRecord
100
AcDbBlockTableRecord
  2
*D36
340
0
 70
     0
280
     1
281
     0
  0
BLOCK_RECORD
  5
42168
330
1
100
AcDbSymbolTableRecord
100
AcDbBlockTableRecord
  2
*D37
340
0
 70
     0
280
     1
281
     0
  0
BLOCK_RECORD
  5
42177
330
1
100
AcDbSymbolTableRecord
100
AcDbBlockTableRecord
  2
*D38
340
0
 70
     0
280
     1
281
     0
  0
BLOCK_RECORD
  5
42183
330
1
100
AcDbSymbolTableRecord
100
AcDbBlockTableRecord
  2
*D39
340
0
 70
     0
280
     1
281
     0
  0
BLOCK_RECORD
  5
4218F
330
1
100
AcDbSymbolTableRecord
100
AcDbBlockTableRecord
  2
*D40
340
0
 70
     0
280
     1
281
     0
  0
BLOCK_RECORD
  5
4219B
330
1
100
AcDbSymbolTableRecord
100
AcDbBlockTableRecord
  2
*D41
340
0
 70
     0
280
     1
281
     0
  0
BLOCK_RECORD
  5
421AA
330
1
100
AcDbSymbolTableRecord
100
AcDbBlockTableRecord
  2
*D42
340
0
 70
     0
280
     1
281
     0
  0
BLOCK_RECORD
  5
421B5
330
1
100
AcDbSymbolTableRecord
100
AcDbBlockTableRecord
  2
*D43
340
0
 70
     0
280
     1
281
     0
  0
BLOCK_RECORD
  5
421C2
330
1
100
AcDbSymbolTableRecord
100
AcDbBlockTableRecord
  2
*D44
340
0
 70
     0
280
     1
281
     0
  0
BLOCK_RECORD
  5
421CE
330
1
100
AcDbSymbolTableRecord
100
AcDbBlockTableRecord
  2
*D45
340
0
 70
     0
280
     1
281
     0
  0
BLOCK_RECORD
  5
421DA
330
1
100
AcDbSymbolTableRecord
100
AcDbBlockTableRecord
  2
*D46
340
0
 70
     0
280
     1
281
     0
  0
BLOCK_RECORD
  5
421E6
330
1
100
AcDbSymbolTableRecord
100
AcDbBlockTableRecord
  2
*D47
340
0
 70
     0
280
     1
281
     0
  0
BLOCK_RECORD
  5
422B8
330
1
100
AcDbSymbolTableRecord
100
AcDbBlockTableRecord
  2
*D48
340
0
 70
     0
280
     1
281
     0
  0
BLOCK_RECORD
  5
422C4
330
1
100
AcDbSymbolTableRecord
100
AcDbBlockTableRecord
  2
*D49
340
0
 70
     0
280
     1
281
     0
  0
BLOCK_RECORD
  5
422D3
330
1
100
AcDbSymbolTableRecord
100
AcDbBlockTableRecord
  2
*D50
340
0
 70
     0
280
     1
281
     0
  0
BLOCK_RECORD
  5
422DF
330
1
100
AcDbSymbolTableRecord
100
AcDbBlockTableRecord
  2
*D51
340
0
 70
     0
280
     1
281
     0
  0
BLOCK_RECORD
  5
422EB
330
1
100
AcDbSymbolTableRecord
100
AcDbBlockTableRecord
  2
*D52
340
0
 70
     0
280
     1
281
     0
  0
BLOCK_RECORD
  5
422F7
330
1
100
AcDbSymbolTableRecord
100
AcDbBlockTableRecord
  2
*D53
340
0
 70
     0
280
     1
281
     0
  0
BLOCK_RECORD
  5
42306
330
1
100
AcDbSymbolTableRecord
100
AcDbBlockTableRecord
  2
*D54
340
0
 70
     0
280
     1
281
     0
  0
BLOCK_RECORD
  5
42311
330
1
100
AcDbSymbolTableRecord
100
AcDbBlockTableRecord
  2
*D55
340
0
 70
     0
280
     1
281
     0
  0
BLOCK_RECORD
  5
4231E
330
1
100
AcDbSymbolTableRecord
100
AcDbBlockTableRecord
  2
*D56
340
0
 70
     0
280
     1
281
     0
  0
BLOCK_RECORD
  5
4232A
330
1
100
AcDbSymbolTableRecord
100
AcDbBlockTableRecord
  2
*D57
340
0
 70
     0
280
     1
281
     0
  0
BLOCK_RECORD
  5
42336
330
1
100
AcDbSymbolTableRecord
100
AcDbBlockTableRecord
  2
*D58
340
0
 70
     0
280
     1
281
     0
  0
BLOCK_RECORD
  5
42342
330
1
100
AcDbSymbolTableRecord
100
AcDbBlockTableRecord
  2
*D59
340
0
 70
     0
280
     1
281
     0
  0
BLOCK_RECORD
  5
42404
330
1
100
AcDbSymbolTableRecord
100
AcDbBlockTableRecord
  2
*D60
340
0
 70
     0
280
     1
281
     0
  0
BLOCK_RECORD
  5
42411
330
1
100
AcDbSymbolTableRecord
100
AcDbBlockTableRecord
  2
*D61
340
0
 70
     0
280
     1
281
     0
  0
BLOCK_RECORD
  5
424AD
330
1
100
AcDbSymbolTableRecord
100
AcDbBlockTableRecord
  2
*D62
340
0
 70
     0
280
     1
281
     0
  0
BLOCK_RECORD
  5
424CE
330
1
100
AcDbSymbolTableRecord
100
AcDbBlockTableRecord
  2
*D63
340
0
 70
     0
280
     1
281
     0
  0
ENDTAB
  0
ENDSEC
  0
SECTION
  2
BLOCKS
  0
BLOCK
  5
1F
330
1E
100
AcDbEntity
  8
0
100
AcDbBlockBegin
  2
*MODEL_SPACE
 70
     0
 10
0.0
 20
0.0
 30
0.0
  3
*MODEL_SPACE
  1

  0
ENDBLK
  5
20
330
1E
100
AcDbEntity
  8
0
100
AcDbBlockEnd
  0
BLOCK
  5
1B
330
1A
100
AcDbEntity
 67
     1
  8
0
100
AcDbBlockBegin
  2
*PAPER_SPACE
 70
     0
 10
0.0
 20
0.0
 30
0.0
  3
*PAPER_SPACE
  1

  0
ENDBLK
  5
1C
330
1A
100
AcDbEntity
 67
     1
  8
0
100
AcDbBlockEnd
  0
BLOCK
  5
3B6
330
3B2
100
AcDbEntity
  8
0
100
AcDbBlockBegin
  2
_OPEN
 70
     0
 10
0.0
 20
0.0
 30
0.0
  3
_OPEN
  1

  0
LINE
  5
3B3
330
3B2
100
AcDbEntity
  8
30
  6
Continuous
 62
     0
100
AcDbLine
 10
-1.0
 20
0.166667
 30
0.0
 11
0.0
 21
0.0
 31
0.0
  0
LINE
  5
3B4
330
3B2
100
AcDbEntity
  8
30
  6
Continuous
 62
     0
100
AcDbLine
 10
-1.0
 20
-0.166667
 30
0.0
 11
0.0
 21
0.0
 31
0.0
  0
LINE
  5
3B5
330
3B2
100
AcDbEntity
  8
30
  6
Continuous
 62
     0
100
AcDbLine
 10
0.0
 20
0.0
 30
0.0
 11
-1.0
 21
0.0
 31
0.0
  0
ENDBLK
  5
3B7
330
3B2
100
AcDbEntity
  8
0
100
AcDbBlockEnd
  0
BLOCK
  5
3AAB4
330
3AAB3
100
AcDbEntity
  8
0
100
AcDbBlockBegin
  2
_DOT
 70
     0
 10
0.0
 20
0.0
 30
0.0
  3
_DOT
  1
_DOT
  0
POLYLINE
  5
3AAB5
330
3AAB3
100
AcDbEntity
  8
0
  6
ByBlock
 62
     0
100
AcDb2dPolyline
 66
     1
 10
0.0
 20
0.0
 30
0.0
 70
     1
 40
0.5
 41
0.5
  0
VERTEX
  5
3AAB6
330
3AAB5
100
AcDbEntity
  8
0
  6
ByBlock
 62
     0
100
AcDbVertex
100
AcDb2dVertex
 10
-0.25
 20
0.0
 30
0.0
 42
1.0
  0
VERTEX
  5
3AAB7
330
3AAB5
100
AcDbEntity
  8
0
  6
ByBlock
 62
     0
100
AcDbVertex
100
AcDb2dVertex
 10
0.25
 20
0.0
 30
0.0
 42
1.0
  0
SEQEND
  5
3AAB8
330
3AAB5
100
AcDbEntity
  8
0
  6
ByBlock
 62
     0
  0
LINE
  5
3AAB9
330
3AAB3
100
AcDbEntity
  8
0
  6
ByBlock
 62
     0
370
    -2
100
AcDbLine
 10
-0.5
 20
0.0
 30
0.0
 11
-1.0
 21
0.0
 31
0.0
  0
ENDBLK
  5
3AABA
330
3AAB3
100
AcDbEntity
  8
0
100
AcDbBlockEnd
  0
BLOCK
  5
3AABC
330
3AABB
100
AcDbEntity
  8
0
100
AcDbBlockBegin
  2
SW_CENTERMARKSYMBOL_20
 70
     0
 10
0.0
 20
0.0
 30
0.0
  3
SW_CENTERMARKSYMBOL_20
  1
SW_CENTERMARKSYMBOL_20
  0
LINE
  5
3AABD
330
3AABB
100
AcDbEntity
  8
SLD-0
 62
     0
100
AcDbLine
 10
0.0
 20
0.0
 30
0.0
 11
0.0
 21
1.25
 31
0.0
  0
LINE
  5
3AABE
330
3AABB
100
AcDbEntity
  8
SLD-0
 62
     0
100
AcDbLine
 10
0.0
 20
0.0
 30
0.0
 11
-1.25
 21
0.0
 31
0.0
  0
LINE
  5
3AABF
330
3AABB
100
AcDbEntity
  8
SLD-0
 62
     0
100
AcDbLine
 10
0.0
 20
0.0
 30
0.0
 11
0.0
 21
-1.25
 31
0.0
  0
LINE
  5
3AAC0
330
3AABB
100
AcDbEntity
  8
SLD-0
 62
     0
100
AcDbLine
 10
0.0
 20
0.0
 30
0.0
 11
1.25
 21
0.0
 31
0.0
  0
LINE
  5
3AAC1
330
3AABB
100
AcDbEntity
  8
SLD-0
 62
     0
100
AcDbLine
 10
0.0
 20
2.5
 30
0.0
 11
0.0
 21
3.951149425299997
 31
0.0
  0
LINE
  5
3AAC2
330
3AABB
100
AcDbEntity
  8
SLD-0
 62
     0
100
AcDbLine
 10
-2.5
 20
0.0
 30
0.0
 11
-3.951149425299997
 21
0.0
 31
0.0
  0
LINE
  5
3AAC3
330
3AABB
100
AcDbEntity
  8
SLD-0
 62
     0
100
AcDbLine
 10
0.0
 20
-2.5
 30
0.0
 11
0.0
 21
-3.951149425299997
 31
0.0
  0
LINE
  5
3AAC4
330
3AABB
100
AcDbEntity
  8
SLD-0
 62
     0
100
AcDbLine
 10
2.5
 20
0.0
 30
0.0
 11
3.951149425299997
 21
0.0
 31
0.0
  0
ENDBLK
  5
3AAC5
330
3AABB
100
AcDbEntity
  8
0
100
AcDbBlockEnd
  0
BLOCK
  5
3AAC7
330
3AAC6
100
AcDbEntity
  8
0
100
AcDbBlockBegin
  2
SW_CENTERMARKSYMBOL_54
 70
     0
 10
0.0
 20
0.0
 30
0.0
  3
SW_CENTERMARKSYMBOL_54
  1
SW_CENTERMARKSYMBOL_54
  0
LINE
  5
3AAC8
330
3AAC6
100
AcDbEntity
  8
SLD-0
 62
     0
100
AcDbLine
 10
0.0
 20
0.0
 30
0.0
 11
0.0
 21
1.25
 31
0.0
  0
LINE
  5
3AAC9
330
3AAC6
100
AcDbEntity
  8
SLD-0
 62
     0
100
AcDbLine
 10
0.0
 20
0.0
 30
0.0
 11
-1.25
 21
0.0
 31
0.0
  0
LINE
  5
3AACA
330
3AAC6
100
AcDbEntity
  8
SLD-0
 62
     0
100
AcDbLine
 10
0.0
 20
0.0
 30
0.0
 11
0.0
 21
-1.25
 31
0.0
  0
LINE
  5
3AACB
330
3AAC6
100
AcDbEntity
  8
SLD-0
 62
     0
100
AcDbLine
 10
0.0
 20
0.0
 30
0.0
 11
1.25
 21
0.0
 31
0.0
  0
LINE
  5
3AACC
330
3AAC6
100
AcDbEntity
  8
SLD-0
 62
     0
100
AcDbLine
 10
0.0
 20
2.5
 30
0.0
 11
0.0
 21
2.75
 31
0.0
  0
LINE
  5
3AACD
330
3AAC6
100
AcDbEntity
  8
SLD-0
 62
     0
100
AcDbLine
 10
-2.5
 20
0.0
 30
0.0
 11
-2.75
 21
0.0
 31
0.0
  0
LINE
  5
3AACE
330
3AAC6
100
AcDbEntity
  8
SLD-0
 62
     0
100
AcDbLine
 10
0.0
 20
-2.5
 30
0.0
 11
0.0
 21
-2.75
 31
0.0
  0
LINE
  5
3AACF
330
3AAC6
100
AcDbEntity
  8
SLD-0
 62
     0
100
AcDbLine
 10
2.5
 20
0.0
 30
0.0
 11
2.75
 21
0.0
 31
0.0
  0
ENDBLK
  5
3AAD0
330
3AAC6
100
AcDbEntity
  8
0
100
AcDbBlockEnd
  0
BLOCK
  5
3AAD2
330
3AAD1
100
AcDbEntity
  8
0
100
AcDbBlockBegin
  2
SW_CENTERMARKSYMBOL_55
 70
     0
 10
0.0
 20
0.0
 30
0.0
  3
SW_CENTERMARKSYMBOL_55
  1
SW_CENTERMARKSYMBOL_55
  0
LINE
  5
3AAD3
330
3AAD1
100
AcDbEntity
  8
SLD-0
 62
     0
100
AcDbLine
 10
0.0
 20
0.0
 30
0.0
 11
0.0
 21
1.25
 31
0.0
  0
LINE
  5
3AAD4
330
3AAD1
100
AcDbEntity
  8
SLD-0
 62
     0
100
AcDbLine
 10
0.0
 20
0.0
 30
0.0
 11
-1.25
 21
0.0
 31
0.0
  0
LINE
  5
3AAD5
330
3AAD1
100
AcDbEntity
  8
SLD-0
 62
     0
100
AcDbLine
 10
0.0
 20
0.0
 30
0.0
 11
0.0
 21
-1.25
 31
0.0
  0
LINE
  5
3AAD6
330
3AAD1
100
AcDbEntity
  8
SLD-0
 62
     0
100
AcDbLine
 10
0.0
 20
0.0
 30
0.0
 11
1.25
 21
0.0
 31
0.0
  0
LINE
  5
3AAD7
330
3AAD1
100
AcDbEntity
  8
SLD-0
 62
     0
100
AcDbLine
 10
0.0
 20
2.5
 30
0.0
 11
0.0
 21
2.75
 31
0.0
  0
LINE
  5
3AAD8
330
3AAD1
100
AcDbEntity
  8
SLD-0
 62
     0
100
AcDbLine
 10
-2.5
 20
0.0
 30
0.0
 11
-2.75
 21
0.0
 31
0.0
  0
LINE
  5
3AAD9
330
3AAD1
100
AcDbEntity
  8
SLD-0
 62
     0
100
AcDbLine
 10
0.0
 20
-2.5
 30
0.0
 11
0.0
 21
-2.75
 31
0.0
  0
LINE
  5
3AADA
330
3AAD1
100
AcDbEntity
  8
SLD-0
 62
     0
100
AcDbLine
 10
2.5
 20
0.0
 30
0.0
 11
2.75
 21
0.0
 31
0.0
  0
ENDBLK
  5
3AADB
330
3AAD1
100
AcDbEntity
  8
0
100
AcDbBlockEnd
  0
BLOCK
  5
3AADF
330
3AADC
100
AcDbEntity
  8
0
100
AcDbBlockBegin
  2
m5screw1
 70
     0
 10
0.0
 20
0.0
 30
0.0
  3
m5screw1
  1

  0
LINE
  5
3AAE0
330
3AADC
100
AcDbEntity
  8
0
  6
SLD-実線
370
    15
100
AcDbLine
 10
15.50000160939999
 20
-2.499999478499999
 30
0.0
 11
16.00000262259982
 21
-1.999998465300049
 31
0.0
  0
LINE
  5
3AAE1
330
3AADC
100
AcDbEntity
  8
0
  6
SLD-実線
370
    15
100
AcDbLine
 10
16.00000262259982
 20
2.000002190499968
 30
0.0
 11
15.50000160939999
 21
2.499999478499999
 31
0.0
  0
LINE
  5
3AAE2
330
3AADC
100
AcDbEntity
  8
0
  6
SLD-実線
370
    15
100
AcDbLine
 10
0.0
 20
-2.499999478499999
 30
0.0
 11
3.199998289399898
 21
-2.499999478499999
 31
0.0
  0
LINE
  5
3AAE3
330
3AADC
100
AcDbEntity
  8
0
  6
SLD-実線
370
    15
100
AcDbLine
 10
9.199999272799914
 20
-2.499999478499999
 30
0.0
 11
15.50000160939999
 21
-2.499999478499999
 31
0.0
  0
LINE
  5
3AAE4
330
3AADC
100
AcDbEntity
  8
0
  6
SLD-実線
370
    15
100
AcDbLine
 10
15.50000160939999
 20
2.499999478499999
 30
0.0
 11
9.199999272799914
 21
2.499999478499999
 31
0.0
  0
LINE
  5
3AAE5
330
3AADC
100
AcDbEntity
  8
0
  6
SLD-実線
370
    15
100
AcDbLine
 10
3.199998289399898
 20
2.499999478499999
 30
0.0
 11
0.0
 21
2.499999478499999
 31
0.0
  0
ARC
  5
3AAE6
330
3AADC
100
AcDbEntity
  8
0
  6
SLD-実線
370
    15
100
AcDbCircle
 10
4.324999582799819
 20
-4.424999627499971
 30
0.0
 40
0.1750000000001818
100
AcDbArc
 50
270.0
 51
0.0
  0
ARC
  5
3AAE7
330
3AADC
100
AcDbEntity
  8
0
  6
SLD-実線
370
    15
100
AcDbCircle
 10
4.324999582799819
 20
4.425000372499936
 30
0.0
 40
0.1750000000001818
100
AcDbArc
 50
0.0
 51
90.0
  0
LINE
  5
3AAE8
330
3AADC
100
AcDbEntity
  8
0
  6
SLD-実線
370
    15
100
AcDbLine
 10
3.375001251599996
 20
-4.599997773699953
 30
0.0
 11
4.324998706599896
 21
-4.599997773699953
 31
0.0
  0
LINE
  5
3AAE9
330
3AADC
100
AcDbEntity
  8
0
  6
SLD-実線
370
    15
100
AcDbLine
 10
4.324998706599896
 20
4.600001499100073
 30
0.0
 11
3.375001251599996
 21
4.600001499100073
 31
0.0
  0
ARC
  5
3AAEA
330
3AADC
100
AcDbEntity
  8
0
  6
SLD-実線
370
    15
100
AcDbCircle
 10
3.374999582799773
 20
-4.424999627499971
 30
0.0
 40
0.1750000000000682
100
AcDbArc
 50
180.0
 51
270.0
  0
ARC
  5
3AAEB
330
3AADC
100
AcDbEntity
  8
0
  6
SLD-実線
370
    15
100
AcDbCircle
 10
3.374999582799773
 20
4.425000372499936
 30
0.0
 40
0.1749999999999546
100
AcDbArc
 50
90.0
 51
180.0
  0
LINE
  5
3AAEC
330
3AADC
100
AcDbEntity
  8
0
  6
SLD-実線
370
    15
100
AcDbLine
 10
15.50000160939999
 20
-2.499999478499999
 30
0.0
 11
15.50000160939999
 21
2.499999478499999
 31
0.0
  0
LINE
  5
3AAED
330
3AADC
100
AcDbEntity
  8
0
  6
SLD-実線
370
    15
100
AcDbLine
 10
16.00000262259982
 20
2.000002190499968
 30
0.0
 11
16.00000262259982
 21
-1.999998465300049
 31
0.0
  0
LINE
  5
3AAEE
330
3AADC
100
AcDbEntity
  8
0
  6
SLD-実線
370
    15
100
AcDbLine
 10
9.199999272799914
 20
2.000002190499968
 30
0.0
 11
9.199999272799914
 21
-1.999998465300049
 31
0.0
  0
SPLINE
  5
3AAEF
330
3AADC
100
AcDbEntity
  8
0
  6
SLD-実線
370
    15
100
AcDbSpline
210
0.0
220
0.0
230
1.0
 70
     8
 71
     3
 72
     9
 73
     5
 74
     0
 42
0.000000001
 43
0.0000000001
 40
0.0
 40
0.0
 40
0.0
 40
0.0
 40
0.6771006943045183
 40
1.0
 40
1.0
 40
1.0
 40
1.0
 10
9.199999272808099
 20
-1.999998465204214
 30
0.0
 10
9.179040304209593
 20
-1.56778935288372
 30
0.0
 10
9.148086313503654
 20
-0.9294661079722461
 30
0.0
 10
9.011308131972782
 20
-0.3024597483417324
 30
0.0
 10
8.96714255212214
 20
-0.0999998301505798
 30
0.0
  0
SPLINE
  5
3AAF0
330
3AADC
100
AcDbEntity
  8
0
  6
SLD-実線
370
    15
100
AcDbSpline
210
0.0
220
0.0
230
1.0
 70
     8
 71
     3
 72
    11
 73
     7
 74
     0
 42
0.000000001
 43
0.0000000001
 40
0.0
 40
0.0
 40
0.0
 40
0.0
 40
0.3033008138334113
 40
0.6069089828308042
 40
0.9049150680745647
 40
1.0
 40
1.0
 40
1.0
 40
1.0
 10
8.96714255212214
 20
0.099999830102945
 30
0.0
 10
8.963614850737712
 20
0.080806419733392
 30
0.0
 10
8.956555873111936
 20
0.0424001490176238
 30
0.0
 10
8.95576945176549
 20
-0.0226580828731926
 30
0.0
 10
8.960809023061527
 20
-0.0704117374939983
 30
0.0
 10
8.965908933012542
 20
-0.0942367814356544
 30
0.0
 10
8.96714255212214
 20
-0.0999998301505798
 30
0.0
  0
LINE
  5
3AAF1
330
3AADC
100
AcDbEntity
  8
0
  6
SLD-実線
370
    15
100
AcDbLine
 10
8.967142552199902
 20
0.0999998300999892
 30
0.0
 11
9.199999272799914
 21
2.000002190499968
 31
0.0
  0
LINE
  5
3AAF2
330
3AADC
100
AcDbEntity
  8
0
  6
SLD-実線
370
    15
100
AcDbLine
 10
4.499997943599963
 20
-0.0999998300999892
 30
0.0
 11
4.499997943599963
 21
0.0999998300999892
 31
0.0
  0
LINE
  5
3AAF3
330
3AADC
100
AcDbEntity
  8
0
  6
SLD-実線
370
    15
100
AcDbLine
 10
8.967142552199902
 20
-3.900000825499944
 30
0.0
 11
9.199999272799914
 21
-1.999998465300049
 31
0.0
  0
LINE
  5
3AAF4
330
3AADC
100
AcDbEntity
  8
0
  6
SLD-実線
370
    15
100
AcDbLine
 10
4.499997943599963
 20
-0.0999998300999892
 30
0.0
 11
4.499997943599963
 21
-0.3612581640999792
 31
0.0
  0
LINE
  5
3AAF5
330
3AADC
100
AcDbEntity
  8
0
  6
SLD-実線
370
    15
100
AcDbLine
 10
4.499997943599963
 20
-3.638738766300036
 30
0.0
 11
4.499997943599963
 21
-3.900000825499944
 31
0.0
  0
SPLINE
  5
3AAF6
330
3AADC
100
AcDbEntity
  8
0
  6
SLD-実線
370
    15
100
AcDbSpline
210
0.0
220
0.0
230
1.0
 70
     8
 71
     3
 72
     9
 73
     5
 74
     0
 42
0.000000001
 43
0.0000000001
 40
0.0
 40
0.0
 40
0.0
 40
0.0
 40
0.6770988321148445
 40
1.0
 40
1.0
 40
1.0
 40
1.0
 10
9.199999272808099
 20
2.000002190446764
 30
0.0
 10
9.179040014920019
 20
2.432209980872983
 30
0.0
 10
9.148085511835004
 20
3.07053302904063
 30
0.0
 10
9.011308128833434
 20
3.69753965402225
 30
0.0
 10
8.96714255212214
 20
3.900000825500626
 30
0.0
  0
LINE
  5
3AAF7
330
3AADC
100
AcDbEntity
  8
0
  6
SLD-実線
370
    15
100
AcDbLine
 10
4.499997943599963
 20
3.900000825500056
 30
0.0
 11
4.499997943599963
 21
3.638738766300036
 31
0.0
  0
LINE
  5
3AAF8
330
3AADC
100
AcDbEntity
  8
0
  6
SLD-実線
370
    15
100
AcDbLine
 10
4.499997943599963
 20
0.3612618893000103
 30
0.0
 11
4.499997943599963
 21
0.0999998300999892
 31
0.0
  0
SPLINE
  5
3AAF9
330
3AADC
100
AcDbEntity
  8
0
  6
SLD-実線
370
    15
100
AcDbSpline
210
0.0
220
0.0
230
1.0
 70
    24
 71
     3
 72
     9
 73
     5
 74
     0
 42
0.000000001
 43
0.0000000001
 40
0.0
 40
0.0
 40
0.0
 40
0.0
 40
0.7858524886117994
 40
1.0
 40
1.0
 40
1.0
 40
1.0
 10
9.199999272808099
 20
-3.999998793029758
 30
0.0
 10
9.171952321175467
 20
-3.999998793029758
 30
0.0
 10
9.136262478566095
 20
-3.999998793029758
 30
0.0
 10
8.996971391727129
 20
-3.999998793029758
 30
0.0
 10
8.96714255212214
 20
-3.999998793029758
 30
0.0
  0
SPLINE
  5
3AAFA
330
3AADC
100
AcDbEntity
  8
0
  6
SLD-実線
370
    15
100
AcDbSpline
210
0.0
220
0.0
230
1.0
 70
     8
 71
     3
 72
    11
 73
     7
 74
     0
 42
0.000000001
 43
0.0000000001
 40
0.0
 40
0.0
 40
0.0
 40
0.0
 40
0.3032948817092764
 40
0.6069007806173136
 40
0.9049251941525932
 40
1.0
 40
1.0
 40
1.0
 40
1.0
 10
8.96714255212214
 20
-3.900000825548261
 30
0.0
 10
8.963614819430631
 20
-3.917281063541223
 30
0.0
 10
8.956555736494237
 20
-3.951859259744706
 30
0.0
 10
8.955769817165219
 20
-3.986138454351986
 30
0.0
 10
8.960808302420216
 20
-3.998992385496363
 30
0.0
 10
8.965908919176627
 20
-3.999802789154328
 30
0.0
 10
8.96714255212214
 20
-3.999998793029758
 30
0.0
  0
LINE
  5
3AAFB
330
3AADC
100
AcDbEntity
  8
0
  6
SLD-実線
370
    15
100
AcDbLine
 10
9.199999272799914
 20
-1.999998465300049
 30
0.0
 11
9.199999272799914
 21
-3.999998793100017
 31
0.0
  0
SPLINE
  5
3AAFC
330
3AADC
100
AcDbEntity
  8
0
  6
SLD-実線
370
    15
100
AcDbSpline
210
0.0
220
0.0
230
1.0
 70
     8
 71
     3
 72
    11
 73
     7
 74
     0
 42
0.000000001
 43
0.0000000001
 40
0.0
 40
0.0
 40
0.0
 40
0.0
 40
0.303297341374236
 40
0.6069057263081482
 40
0.9049195301906271
 40
1.0
 40
1.0
 40
1.0
 40
1.0
 10
8.96714255212214
 20
3.999998792982238
 30
0.0
 10
8.963614837932254
 20
3.998087219072033
 30
0.0
 10
8.956555791740351
 20
3.994262110856368
 30
0.0
 10
8.955769607909587
 20
3.963479847629796
 30
0.0
 10
8.960808710141916
 20
3.928584420112258
 30
0.0
 10
8.965908926910515
 20
3.905567974642678
 30
0.0
 10
8.96714255212214
 20
3.900000825500626
 30
0.0
  0
SPLINE
  5
3AAFD
330
3AADC
100
AcDbEntity
  8
0
  6
SLD-実線
370
    15
100
AcDbSpline
210
0.0
220
0.0
230
1.0
 70
    24
 71
     3
 72
     9
 73
     5
 74
     0
 42
0.000000001
 43
0.0000000001
 40
0.0
 40
0.0
 40
0.0
 40
0.0
 40
0.2141475113882007
 40
1.0
 40
1.0
 40
1.0
 40
1.0
 10
8.96714255212214
 20
3.999998792982238
 30
0.0
 10
8.996971391727129
 20
3.999998792982238
 30
0.0
 10
9.136262478566095
 20
3.999998792982238
 30
0.0
 10
9.171952321175467
 20
3.999998792982238
 30
0.0
 10
9.199999272808099
 20
3.999998792982238
 30
0.0
  0
LINE
  5
3AAFE
330
3AADC
100
AcDbEntity
  8
0
  6
SLD-実線
370
    15
100
AcDbLine
 10
9.199999272799914
 20
3.999998792900043
 30
0.0
 11
9.199999272799914
 21
2.000002190499968
 31
0.0
  0
LINE
  5
3AAFF
330
3AADC
100
AcDbEntity
  8
0
  6
SLD-実線
370
    15
100
AcDbLine
 10
8.967142552199902
 20
-3.999998793100017
 30
0.0
 11
4.499997943599963
 21
-3.999998793100017
 31
0.0
  0
LINE
  5
3AB00
330
3AADC
100
AcDbEntity
  8
0
  6
SLD-実線
370
    15
100
AcDbLine
 10
4.499997943599963
 20
-3.999998793100017
 30
0.0
 11
4.499997943599963
 21
-3.900000825499944
 31
0.0
  0
LINE
  5
3AB01
330
3AADC
100
AcDbEntity
  8
0
  6
SLD-実線
370
    15
100
AcDbLine
 10
4.499997943599963
 20
3.999998792900043
 30
0.0
 11
8.967142552199902
 21
3.999998792900043
 31
0.0
  0
LINE
  5
3AB02
330
3AADC
100
AcDbEntity
  8
0
  6
SLD-実線
370
    15
100
AcDbLine
 10
4.499997943599963
 20
3.900000825500056
 30
0.0
 11
4.499997943599963
 21
3.999998792900043
 31
0.0
  0
LINE
  5
3AB03
330
3AADC
100
AcDbEntity
  8
0
  6
SLD-実線
370
    15
100
AcDbLine
 10
4.499997943599963
 20
-4.424998536700002
 30
0.0
 11
4.499997943599963
 21
-3.999998793100017
 31
0.0
  0
LINE
  5
3AB04
330
3AADC
100
AcDbEntity
  8
0
  6
SLD-実線
370
    15
100
AcDbLine
 10
4.499997943599963
 20
-3.638738766300036
 30
0.0
 11
4.499997943599963
 21
-0.3612581640999792
 31
0.0
  0
LINE
  5
3AB05
330
3AADC
100
AcDbEntity
  8
0
  6
SLD-実線
370
    15
100
AcDbLine
 10
4.499997943599963
 20
0.3612618893000103
 30
0.0
 11
4.499997943599963
 21
3.638738766300036
 31
0.0
  0
LINE
  5
3AB06
330
3AADC
100
AcDbEntity
  8
0
  6
SLD-実線
370
    15
100
AcDbLine
 10
4.499997943599963
 20
3.999998792900043
 30
0.0
 11
4.499997943599963
 21
4.424998536700002
 31
0.0
  0
LINE
  5
3AB07
330
3AADC
100
AcDbEntity
  8
0
  6
SLD-実線
370
    15
100
AcDbLine
 10
3.199998289399898
 20
-4.424998536700002
 30
0.0
 11
3.199998289399898
 21
4.424998536700002
 31
0.0
  0
LINE
  5
3AB08
330
3AADC
100
AcDbEntity
  8
0
370
    15
100
AcDbLine
 10
4.499999582799773
 20
0.7763407795000035
 30
0.0
 11
3.199999582799819
 21
0.1217328332999727
 31
0.0
  0
LINE
  5
3AB09
330
3AADC
100
AcDbEntity
  8
0
370
    15
100
AcDbLine
 10
4.499999582799773
 20
0.0688290700999801
 30
0.0
 11
3.199999582799819
 21
-0.5857788763000258
 31
0.0
  0
LINE
  5
3AB0A
330
3AADC
100
AcDbEntity
  8
0
100
AcDbLine
 10
0.0
 20
2.499999478499999
 30
0.0
 11
0.0
 21
-2.499999478499999
 31
0.0
  0
ENDBLK
  5
3AB0B
330
3AADC
100
AcDbEntity
  8
0
100
AcDbBlockEnd
  0
BLOCK
  5
3C90C
330
3C90B
100
AcDbEntity
  8
0
100
AcDbBlockBegin
  2
SW_CENTERMARKSYMBOL_56
 70
     0
 10
0.0
 20
0.0
 30
0.0
  3
SW_CENTERMARKSYMBOL_56
  1
SW_CENTERMARKSYMBOL_56
  0
LINE
  5
3C90D
330
3C90B
100
AcDbEntity
  8
SLD-0
 62
     0
100
AcDbLine
 10
0.0
 20
0.0
 30
0.0
 11
0.0
 21
1.25
 31
0.0
  0
LINE
  5
3C90E
330
3C90B
100
AcDbEntity
  8
SLD-0
 62
     0
100
AcDbLine
 10
0.0
 20
0.0
 30
0.0
 11
-1.25
 21
0.0
 31
0.0
  0
LINE
  5
3C90F
330
3C90B
100
AcDbEntity
  8
SLD-0
 62
     0
100
AcDbLine
 10
0.0
 20
0.0
 30
0.0
 11
0.0
 21
-1.25
 31
0.0
  0
LINE
  5
3C910
330
3C90B
100
AcDbEntity
  8
SLD-0
 62
     0
100
AcDbLine
 10
0.0
 20
0.0
 30
0.0
 11
1.25
 21
0.0
 31
0.0
  0
LINE
  5
3C911
330
3C90B
100
AcDbEntity
  8
SLD-0
 62
     0
100
AcDbLine
 10
0.0
 20
2.5
 30
0.0
 11
0.0
 21
2.75
 31
0.0
  0
LINE
  5
3C912
330
3C90B
100
AcDbEntity
  8
SLD-0
 62
     0
100
AcDbLine
 10
-2.5
 20
0.0
 30
0.0
 11
-2.75
 21
0.0
 31
0.0
  0
LINE
  5
3C913
330
3C90B
100
AcDbEntity
  8
SLD-0
 62
     0
100
AcDbLine
 10
0.0
 20
-2.5
 30
0.0
 11
0.0
 21
-2.75
 31
0.0
  0
LINE
  5
3C914
330
3C90B
100
AcDbEntity
  8
SLD-0
 62
     0
100
AcDbLine
 10
2.5
 20
0.0
 30
0.0
 11
2.75
 21
0.0
 31
0.0
  0
ENDBLK
  5
3C915
330
3C90B
100
AcDbEntity
  8
0
100
AcDbBlockEnd
  0
BLOCK
  5
3C917
330
3C916
100
AcDbEntity
  8
0
100
AcDbBlockBegin
  2
SW_CENTERMARKSYMBOL_57
 70
     0
 10
0.0
 20
0.0
 30
0.0
  3
SW_CENTERMARKSYMBOL_57
  1
SW_CENTERMARKSYMBOL_57
  0
LINE
  5
3C918
330
3C916
100
AcDbEntity
  8
SLD-0
 62
     0
100
AcDbLine
 10
0.0
 20
0.0
 30
0.0
 11
0.0
 21
1.25
 31
0.0
  0
LINE
  5
3C919
330
3C916
100
AcDbEntity
  8
SLD-0
 62
     0
100
AcDbLine
 10
0.0
 20
0.0
 30
0.0
 11
-1.25
 21
0.0
 31
0.0
  0
LINE
  5
3C91A
330
3C916
100
AcDbEntity
  8
SLD-0
 62
     0
100
AcDbLine
 10
0.0
 20
0.0
 30
0.0
 11
0.0
 21
-1.25
 31
0.0
  0
LINE
  5
3C91B
330
3C916
100
AcDbEntity
  8
SLD-0
 62
     0
100
AcDbLine
 10
0.0
 20
0.0
 30
0.0
 11
1.25
 21
0.0
 31
0.0
  0
LINE
  5
3C91C
330
3C916
100
AcDbEntity
  8
SLD-0
 62
     0
100
AcDbLine
 10
0.0
 20
2.5
 30
0.0
 11
0.0
 21
2.75
 31
0.0
  0
LINE
  5
3C91D
330
3C916
100
AcDbEntity
  8
SLD-0
 62
     0
100
AcDbLine
 10
-2.5
 20
0.0
 30
0.0
 11
-2.75
 21
0.0
 31
0.0
  0
LINE
  5
3C91E
330
3C916
100
AcDbEntity
  8
SLD-0
 62
     0
100
AcDbLine
 10
0.0
 20
-2.5
 30
0.0
 11
0.0
 21
-2.75
 31
0.0
  0
LINE
  5
3C91F
330
3C916
100
AcDbEntity
  8
SLD-0
 62
     0
100
AcDbLine
 10
2.5
 20
0.0
 30
0.0
 11
2.75
 21
0.0
 31
0.0
  0
ENDBLK
  5
3C920
330
3C916
100
AcDbEntity
  8
0
100
AcDbBlockEnd
  0
BLOCK
  5
3DA3F
330
3DA3C
100
AcDbEntity
  8
0
100
AcDbBlockBegin
  2
A$C3F0A4506
 70
     0
 10
0.0
 20
0.0
 30
0.0
  3
A$C3F0A4506
  1

  0
CIRCLE
  5
3DA40
330
3DA3C
100
AcDbEntity
  8
24
100
AcDbCircle
 10
104.8249999970513
 20
3.500304608093308
 30
0.0
 40
2.0
  0
ARC
  5
3DA41
330
3DA3C
100
AcDbEntity
  8
24
100
AcDbCircle
 10
104.8249999970513
 20
3.500304608093308
 30
0.0
 40
3.275000000000013
100
AcDbArc
 50
130.2387981259013
 51
49.76120187409872
  0
CIRCLE
  5
3DA42
330
3DA3C
100
AcDbEntity
  8
24
100
AcDbCircle
 10
69.82499999705135
 20
3.500304608093308
 30
0.0
 40
2.25
  0
LWPOLYLINE
  5
3DA43
330
3DA3C
100
AcDbEntity
  8
0
  6
SLD-実線
 62
     7
370
    15
100
AcDbPolyline
 90
        2
 70
     0
 43
0.0
 10
106.8249986856514
 20
6.000303416093293
 10
106.4838962048512
 20
6.000303416093293
  0
LWPOLYLINE
  5
3DA44
330
3DA3C
100
AcDbEntity
  8
0
  6
SLD-実線
 62
     7
370
    15
100
AcDbPolyline
 90
        2
 70
     0
 43
0.0
 10
66.32484769225141
 20
6.000303416093293
 10
66.30839308505129
 20
6.000303416093293
  0
LWPOLYLINE
  5
3DA45
330
3DA3C
100
AcDbEntity
  8
13
100
AcDbPolyline
 90
        4
 70
     0
 43
0.0
 10
108.3416053444513
 20
6.000303416093293
 10
108.3251507372514
 20
6.000303416093293
 10
106.4838962048512
 20
6.000303416093293
 10
66.31662038865136
 20
6.000303416093293
  0
LWPOLYLINE
  5
3DA46
330
3DA3C
100
AcDbEntity
  8
13
100
AcDbPolyline
 90
      480
 70
     0
 43
0.0
 10
108.342298248414
 20
6.000452427687667
 10
108.3958023229479
 20
6.007671649155297
 10
108.4491388854715
 20
6.015355719630277
 10
108.5021404239749
 20
6.023969488119937
 10
108.5546394264477
 20
6.033977803631612
 10
108.6064683808801
 20
6.045845515172651
 10
108.6574597752616
 20
6.060037471750391
 10
108.7074460975823
 20
6.077018522372156
 10
108.7562623416991
 20
6.097232149909877
 10
108.8037860261467
 20
6.12075925294723
 10
108.8499301845641
 20
6.147377912524127
 10
108.8946089402676
 20
6.176856918602352
 10
108.937736416574
 20
6.208965061143715
 10
108.9792267367995
 20
6.243471130110002
 10
109.018994024261
 20
6.280143915463012
 10
109.0569494011272
 20
6.318755156328839
 10
109.0929349620303
 20
6.359144423733575
 10
109.1267237734315
 20
6.401219121226437
 10
109.1580859005175
 20
6.444889601645535
 10
109.1867914084752
 20
6.490066217828967
 10
109.2126103624911
 20
6.536659322614852
 10
109.2353128277522
 20
6.584579268841295
 10
109.2546788179119
 20
6.633735411762637
 10
109.2707959753813
 20
6.684006259120827
 10
109.284111008013
 20
6.735234313325462
 10
109.2950909366134
 20
6.787260039902136
 10
109.3042027819884
 20
6.839923904376441
 10
109.3119135649448
 20
6.893066372273978
 10
109.3186903062885
 20
6.946527909120334
 10
109.3250000268514
 20
7.0001489804933
 10
109.3250000268258
 20
12.8004557774687
 10
109.3226734018033
 20
12.83868185254008
 10
109.3200062726471
 20
12.87685044956881
 10
109.3166581352237
 20
12.91490409051223
 10
109.3122884853998
 20
12.95278529732766
 10
109.3065568190413
 20
12.99043659197243
 10
109.2991436751799
 20
13.02780110926519
 10
109.2899804947651
 20
13.06482929129394
 10
109.2791636213209
 20
13.10147638277048
 10
109.2667922861587
 20
13.13769771251061
 10
109.2529657205903
 20
13.17344860933008
 10
109.2377819356625
 20
13.20868423849766
 10
109.2213040216108
 20
13.24335508498891
 10
109.203555853088
 20
13.27740637787577
 10
109.184559221904
 20
13.3107830670753
 10
109.1643359198689
 20
13.34343010250453
 10
109.1429077387924
 20
13.37529243408057
 10
109.120296470485
 20
13.40631501172043
 10
109.0965239067565
 20
13.4364427853412
 10
109.0716118394167
 20
13.46562070485992
 10
109.0455820602759
 20
13.49379372019367
 10
109.0184570540293
 20
13.52090750456775
 10
108.9902752003778
 20
13.54692432412597
 10
108.961090751087
 20
13.57182301398212
 10
108.9309586462193
 20
13.59558312776847
 10
108.899933825837
 20
13.61818421911729
 10
108.8680712300027
 20
13.63960584166089
 10
108.8354257987787
 20
13.65982754903152
 10
108.8020524722275
 20
13.67882889486149
 10
108.7680061904116
 20
13.69658943278306
 10
108.7333418933933
 20
13.71308871642854
 10
108.6981142219866
 20
13.72830404827264
 10
108.6623722240465
 20
13.7421706566398
 10
108.6261599890958
 20
13.75458646980811
 10
108.5895214349116
 20
13.76544812406266
 10
108.5525004792705
 20
13.77465225568857
 10
108.5151410865134
 20
13.78209697970839
 10
108.4774918895842
 20
13.78782867345104
 10
108.4396101106955
 20
13.79216648631536
 10
108.4015538953369
 20
13.79545888852092
 10
108.3633813889985
 20
13.79805435028731
 10
108.3251507372514
 20
13.80030134189327
 10
107.8248479753772
 20
13.8003013418341
 10
107.7866217229358
 20
13.79797624508185
 10
107.7484529500602
 20
13.79531057913984
 10
107.7103991363161
 20
13.7919637748183
 10
107.6725177612693
 20
13.78759526292745
 10
107.6348663044854
 20
13.78186447427746
 10
107.5975016328916
 20
13.77445190005023
 10
107.5604733121129
 20
13.76528902471653
 10
107.523826110656
 20
13.75447224090111
 10
107.4876047130941
 20
13.7421008265965
 10
107.4518538039999
 20
13.72827405979522
 10
107.4166182310348
 20
13.7130899974125
 10
107.3819475081356
 20
13.69661175903126
 10
107.3478963888881
 20
13.678863233937
 10
107.3145199051246
 20
13.65986622812829
 10
107.2818730886773
 20
13.63964254760373
 10
107.2500109713786
 20
13.6182139983619
 10
107.2189885850608
 20
13.59560238640139
 10
107.1888609615563
 20
13.57182951772078
 10
107.1596831326973
 20
13.54691719831866
 10
107.1315101303159
 20
13.52088723419361
 10
107.1043962644769
 20
13.49376212302207
 10
107.0783792767885
 20
13.46558024020743
 10
107.0534803582757
 20
13.43639582175282
 10
107.0297199817701
 20
13.40626379191368
 10
107.0071186201029
 20
13.37523907494552
 10
106.985696746106
 20
13.3433765951038
 10
106.9654748326106
 20
13.310731276644
 10
106.9464733524484
 20
13.2773580438216
 10
106.9287127784506
 20
13.24331182089206
 10
106.9122135834491
 20
13.20864753211089
 10
106.8969984893216
 20
13.17341980346992
 10
106.8831322364504
 20
13.13767768855848
 10
106.8707168072393
 20
13.1014653020102
 10
106.8598554734785
 20
13.06482658746306
 10
106.8506515069584
 20
13.02780548855505
 10
106.8432067011806
 20
12.99044599536626
 10
106.8374746362891
 20
12.95279675426881
 10
106.8331362125974
 20
12.9149149781833
 10
106.8298430198056
 20
12.87685880085676
 10
106.8272466476136
 20
12.83868635603623
 10
106.8249986856514
 20
12.80045577749326
 10
106.8249986857214
 20
9.500154046835923
 10
106.8226729526981
 20
9.461928977038738
 10
106.8200067063194
 20
9.423761340284961
 10
106.8166594332302
 20
9.385708569618033
 10
106.8122906200754
 20
9.347828098081388
 10
106.8065597534994
 20
9.310177358718448
 10
106.7991473531442
 20
9.272813184984819
 10
106.7899848239988
 20
9.235785258345316
 10
106.7791685128653
 20
9.199138558267025
 10
106.7667976573398
 20
9.162917981809187
 10
106.7529714950177
 20
9.12716842603101
 10
106.7377880460055
 20
9.091934941486243
 10
106.7213104467817
 20
9.057266976669318
 10
106.7035626359518
 20
9.023218921932091
 10
106.6845664681043
 20
8.989845430368195
 10
106.6643437978275
 20
8.95720115507126
 10
106.6429164797097
 20
8.92534074913491
 10
106.6203063683389
 20
8.894318865652769
 10
106.5965353183035
 20
8.864190157718482
 10
106.5716251841919
 20
8.835009278425664
 10
106.5455978205922
 20
8.806830880867947
 10
106.5184757648788
 20
8.779708935308491
 10
106.4902972679998
 20
8.753681697414727
 10
106.4611162997534
 20
8.728771702981525
 10
106.4309875137795
 20
8.705000803917926
 10
106.3999655637178
 20
8.682390852132986
 10
106.368105103208
 20
8.660963699535741
 10
106.3354607858898
 20
8.640741198035241
 10
106.3020872654028
 20
8.621745199540526
 10
106.268039195387
 20
8.603997555960646
 10
106.2333712294818
 20
8.587520119204638
 10
106.1981377576794
 20
8.572336830923497
 10
106.1623882252629
 20
8.558510825852945
 10
106.1261676846547
 20
8.546140057717522
 10
106.0895210354838
 20
8.535323691322332
 10
106.0524931773792
 20
8.526160891472477
 10
106.0151290926314
 20
8.5187479226324
 10
105.9774784661527
 20
8.513016048716082
 10
105.939598127823
 20
8.508645838644959
 10
105.9015455056053
 20
8.505296876457753
 10
105.8633780274619
 20
8.50262874619316
 10
105.8251531214515
 20
8.500301031893291
 10
93.82484940588858
 20
8.500301031889712
 10
93.78662432573662
 20
8.502627736175732
 10
93.74845666601947
 20
8.505294896975732
 10
93.71040384717195
 20
8.50864297080372
 10
93.67252328962887
 20
8.513012414173694
 10
93.63487241382506
 20
8.518743683599666
 10
93.59750804279928
 20
8.526156208935312
 10
93.56047987399687
 20
8.535318619207195
 10
93.52383292034165
 20
8.546134661472777
 10
93.4876121126614
 20
8.558505193242892
 10
93.45186238178385
 20
8.572331072028362
 10
93.41662881100944
 20
8.587514370319389
 10
93.38196085374216
 20
8.603991983860012
 10
93.34791287478857
 20
8.621739944995972
 10
93.31453950015021
 20
8.640736367411172
 10
93.28189535582884
 20
8.660959364789531
 10
93.25003506782605
 20
8.682387050814952
 10
93.21901326214355
 20
8.704997539171337
 10
93.18888456478282
 20
8.728768943542602
 10
93.15970360174558
 20
8.753679377612662
 10
93.13152499903356
 20
8.779706955065407
 10
93.10440270058995
 20
8.8068291073109
 10
93.07837496744808
 20
8.8350075778933
 10
93.05346438019251
 20
8.864188424953033
 10
93.02969283784182
 20
8.894317024849128
 10
93.00708223941455
 20
8.9253387539406
 10
92.98565448392947
 20
8.957198988586476
 10
92.96543147040484
 20
8.989843105145787
 10
92.94643509785942
 20
9.023216479977547
 10
92.92868726531173
 20
9.05726448944079
 10
92.91220987178041
 20
9.091932509894533
 10
92.89702690439957
 20
9.127166179443122
 10
92.88320149323112
 20
9.162916042757645
 10
92.87083153220535
 20
9.199137002160702
 10
92.86001612368963
 20
9.235784111452536
 10
92.85085437005159
 20
9.272812424433382
 10
92.84344246963462
 20
9.310176912534423
 10
92.83771160160382
 20
9.347827866621756
 10
92.83334233180664
 20
9.385708469224375
 10
92.82999426068476
 20
9.423761308213457
 10
92.8273269886796
 20
9.461928971460174
 10
92.82500011625154
 20
9.500154046893275
 10
92.82500011623287
 20
12.80045577746849
 10
92.82267349117136
 20
12.83868184791985
 10
92.82000636213499
 20
12.87685044054674
 10
92.81665822514911
 20
12.9149040775247
 10
92.81228857623878
 20
12.95278528102924
 10
92.80655691142909
 20
12.99043657323589
 10
92.79914376983708
 20
13.02780108912019
 10
92.78998059209811
 20
13.06482927021059
 10
92.7791637213868
 20
13.10147636019493
 10
92.76679238867485
 20
13.13769768685723
 10
92.7529658249343
 20
13.17344857798148
 10
92.73778204089408
 20
13.20868419784933
 10
92.72130412690286
 20
13.24335503170217
 10
92.70355595810631
 20
13.27740631027081
 10
92.68455932681886
 20
13.31078298520391
 10
92.66433602535437
 20
13.34343000815014
 10
92.64290784602712
 20
13.37529233075821
 10
92.62029658115123
 20
13.40631490467675
 10
92.59652402304096
 20
13.43644268155446
 10
92.57161196401025
 20
13.46562061304002
 10
92.54558219637328
 20
13.49379365078211
 10
92.51845720527342
 20
13.52090746956862
 10
92.49027536972041
 20
13.5469243333823
 10
92.46109093973243
 20
13.57182307154328
 10
92.43095885358583
 20
13.59558323173942
 10
92.39993404955646
 20
13.61818436165853
 10
92.36807146592061
 20
13.63960600898843
 10
92.33542604095418
 20
13.65982772141697
 10
92.30205271293334
 20
13.67882904663197
 10
92.26800642013404
 20
13.69658953232125
 10
92.2333421008326
 20
13.71308872617263
 10
92.19811439429134
 20
13.72830392568658
 10
92.16237235113441
 20
13.74217037181142
 10
92.12616006744609
 20
13.7545860207633
 10
92.08952146769345
 20
13.76544753727624
 10
92.05250047634342
 20
13.77465158608421
 10
92.01514106434229
 20
13.78209630893986
 10
91.97749186688827
 20
13.78782806796227
 10
91.93961010270149
 20
13.79216599202228
 10
91.90155391346536
 20
13.79545853986048
 10
91.8633814408629
 20
13.79805417021749
 10
91.82515082665132
 20
13.80030134189327
 10
82.82484760284807
 20
13.80030134183369
 10
82.78662134640851
 20
13.79797632654763
 10
82.74845256917933
 20
13.79531073855623
 10
82.71039875037081
 20
13.79196400515416
 10
82.67251736919353
 20
13.78759555363611
 10
82.6348659048576
 20
13.7818648112968
 10
82.59750122448213
 20
13.77445226143174
 10
82.56047289909588
 20
13.76528937350515
 10
82.52382570540905
 20
13.75447254199122
 10
82.48760433621759
 20
13.74210104802213
 10
82.45185348431709
 20
13.72827417272993
 10
82.41661800524445
 20
13.71308997628478
 10
82.38194741092854
 20
13.69661158431548
 10
82.34789644188891
 20
13.67886289499903
 10
82.31452011630722
 20
13.65986572335134
 10
82.28187345236575
 20
13.6396418843883
 10
82.25001146824615
 20
13.61821319312582
 10
82.21898918213048
 20
13.59560146457978
 10
82.18886161220064
 20
13.5718285137661
 10
82.15968377663864
 20
13.54691615570068
 10
82.13151069362641
 20
13.5208862053994
 10
82.1043966602075
 20
13.49376116921261
 10
82.0783794222865
 20
13.46557942059186
 10
82.05348019407052
 20
13.43639518145078
 10
82.02971947251739
 20
13.4062633613096
 10
82.0071177545849
 20
13.37523886968858
 10
81.98569553723075
 20
13.34337661610792
 10
81.96547331741269
 20
13.3107315100879
 10
81.94647159208853
 20
13.27735846114871
 10
81.92871085821581
 20
13.24331237881062
 10
81.91221161275256
 20
13.20864817259385
 10
81.89699659995481
 20
13.17342045478506
 10
81.88313055329571
 20
13.13767828406752
 10
81.87071542412011
 20
13.10146579659149
 10
81.85985445244794
 20
13.06482695806377
 10
81.85065087829903
 20
13.02780573419118
 10
81.84320646359536
 20
12.99044613702509
 10
81.83747477006567
 20
12.95279682531323
 10
81.83313670052132
 20
12.91491500680171
 10
81.82984384896611
 20
12.87685880819044
 10
81.82724780940361
 20
12.83868635617934
 10
81.82500017585139
 20
12.80045577749326
 10
81.82500017583754
 20
9.500154046835467
 10
81.82267401572312
 20
9.461928991862166
 10
81.82000735977998
 20
9.423761369083095
 10
81.81665971217967
 20
9.385708610692539
 10
81.8122905770932
 20
9.347828148884772
 10
81.80655945869217
 20
9.310177415854056
 10
81.79914689242639
 20
9.272813244100515
 10
81.78998428002548
 20
9.235785312824267
 10
81.77916795318298
 20
9.199138598347435
 10
81.7667971342097
 20
9.162917994567957
 10
81.75297104541654
 20
9.127168395383748
 10
81.73778769178557
 20
9.09193484831249
 10
81.72131019958667
 20
9.057266802360594
 10
81.70356250292185
 20
9.023218652355927
 10
81.68456645219487
 20
8.989845056076894
 10
81.66434389780921
 20
8.957200671301869
 10
81.6429166901687
 20
8.925340155809237
 10
81.62030667967689
 20
8.894318167377397
 10
81.59653571673755
 20
8.864189363784726
 10
81.57162565175429
 20
8.835008402809616
 10
81.54559833513076
 20
8.806829942230463
 10
81.51847630036945
 20
8.77970795668974
 10
81.49029779912288
 20
8.753680701822814
 10
81.46111680501794
 20
8.728770710433963
 10
81.43098797554499
 20
8.704999831426766
 10
81.39996596819447
 20
8.68238991370481
 10
81.36810544045635
 20
8.660962806171673
 10
81.33546104982121
 20
8.640740357730948
 10
81.30208745377922
 20
8.621744417286206
 10
81.26803930982076
 20
8.603996833741042
 10
81.23337127543596
 20
8.587519455999029
 10
81.19813774424562
 20
8.572336223333252
 10
81.16238816189627
 20
8.558510272791366
 10
81.12616757875207
 20
8.546139560770811
 10
81.08952089233332
 20
8.535323254500482
 10
81.05249300015975
 20
8.526160521209298
 10
81.01512888245961
 20
8.518747626628423
 10
80.97747822323379
 20
8.513015822460728
 10
80.93959785234074
 20
8.508645675106322
 10
80.90154519769749
 20
8.505296770361887
 10
80.86337768722058
 20
8.502628694024124
 10
80.82515274885157
 20
8.500301031893291
 10
68.82484717071441
 20
8.500301031889485
 10
68.78662212995516
 20
8.502627737989996
 10
68.74845451410556
 20
8.505294912202067
 10
68.71040174807524
 20
8.508643022637214
 10
68.67252125677385
 20
8.513012537406964
 10
68.63487046511102
 20
8.518743924622832
 10
68.59750619969371
 20
8.52615662018448
 10
68.56047815179943
 20
8.535319230794852
 10
68.52383132229886
 20
8.546135480661027
 10
68.48761062988728
 20
8.558506205272401
 10
68.45186099326031
 20
8.572332240118392
 10
68.41662748401017
 20
8.587515636827149
 10
68.38195955417302
 20
8.603993289005082
 10
68.3479115777709
 20
8.621741239650212
 10
68.31453819049205
 20
8.640737613052849
 10
68.28189402802525
 20
8.660960533503292
 10
68.25003372605897
 20
8.682388125291844
 10
68.21901192028156
 20
8.70499851270879
 10
68.18888324638179
 20
8.728769820044446
 10
68.15970234004804
 20
8.75368017158911
 10
68.13152383696888
 20
8.779707691633076
 10
68.10440169007472
 20
8.806829821665925
 10
68.07837415525637
 20
8.835008305154815
 10
68.05346379491561
 20
8.864189191096008
 10
68.02969248940667
 20
8.894317846395381
 10
68.00708211908363
 20
8.925339637958792
 10
67.98565456430094
 20
8.957199932692105
 10
67.9654317054126
 20
8.989844097501174
 10
67.94643542277288
 20
9.023217499291881
 10
67.92868759673592
 20
9.057265504970068
 10
67.91221010765593
 20
9.091933481441607
 10
67.89702692633387
 20
9.127167058163983
 10
67.88320120569665
 20
9.162916785711187
 10
67.87083089493683
 20
9.199137584927255
 10
67.86001515264399
 20
9.235784528551633
 10
67.85085313740774
 20
9.272812689323755
 10
67.84344110309644
 20
9.310177057429909
 10
67.83771025039039
 20
9.347827932189167
 10
67.83334111823592
 20
9.38570848902966
 10
67.82999327649543
 20
9.423761307431083
 10
67.82732629503072
 20
9.461928966873122
 10
67.82499974365134
 20
9.500154046893275
 10
67.82499974370387
 20
12.80045577746831
 10
67.82267354507848
 20
12.83868186701121
 10
67.82000682490411
 20
12.87685047795407
 10
67.81665906163174
 20
12.91490413169679
 10
67.81228973371231
 20
12.9527853496393
 10
67.806558319597
 20
12.99043665318151
 10
67.79914534259501
 20
13.027801176391
 10
67.78998224656446
 20
13.06482935825078
 10
67.77916538943464
 20
13.10147643879876
 10
67.76679401708929
 20
13.13769774214834
 10
67.75296737541191
 20
13.1734485924129
 10
67.7377834898889
 20
13.20868415034808
 10
67.72130546111998
 20
13.24335490179676
 10
67.70355716939434
 20
13.27740608271983
 10
67.68456041189381
 20
13.31078265024137
 10
67.66433698580022
 20
13.34342956148548
 10
67.64290868829539
 20
13.37529177357623
 10
67.62029731656105
 20
13.40631424363769
 10
67.59652466777925
 20
13.43644192879393
 10
67.57161253913159
 20
13.46561978616906
 10
67.54558272780002
 20
13.49379277288712
 10
67.51845772345596
 20
13.52090656887191
 10
67.49027590430308
 20
13.54692343801552
 10
67.46109151558993
 20
13.5718222057511
 10
67.4309594907578
 20
13.59558241582608
 10
67.39993476324753
 20
13.61818361198787
 10
67.36807226650046
 20
13.63960533798387
 10
67.33542693395747
 20
13.65982713756154
 10
67.3020536990598
 20
13.67882855446829
 10
67.2680074952484
 20
13.69658913245151
 10
67.23334325596443
 20
13.71308841525866
 10
67.19811561586983
 20
13.72830369673675
 10
67.16237362494337
 20
13.74217021630691
 10
67.12616138189867
 20
13.75458592880383
 10
67.08952281393
 20
13.76544749746576
 10
67.05250184823114
 20
13.77465158553094
 10
67.0151424584692
 20
13.78209633331465
 10
66.97749328177883
 20
13.78782810368827
 10
66.93961153731198
 20
13.79216602828202
 10
66.90155536701263
 20
13.79545856854084
 10
66.86338291282504
 20
13.79805418590974
 10
66.82515231665149
 20
13.80030134189327
 10
66.32484769225515
 20
13.80030134183369
 10
66.2866214445678
 20
13.79797630511098
 10
66.24845267484136
 20
13.79531070048244
 10
66.21039886103663
 20
13.79196396004224
 10
66.1725174811146
 20
13.78759551588455
 10
66.134866013036
 20
13.78186480010352
 10
66.09750132281056
 20
13.7744523000748
 10
66.06047298202134
 20
13.76528948116434
 10
66.0238257690188
 20
13.7544727285635
 10
65.9876043782582
 20
13.74210131403962
 10
65.95185350419503
 20
13.72827450936003
 10
65.91661800400527
 20
13.71309036570107
 10
65.88194739126446
 20
13.69661200596562
 10
65.84789640847588
 20
13.6788633301688
 10
65.81452007585244
 20
13.6598661551894
 10
65.78187341360706
 20
13.63964229790621
 10
65.75001144195254
 20
13.61821357519805
 10
65.71898918110206
 20
13.59560180394369
 10
65.68886165126821
 20
13.57182880102197
 10
65.659683872664
 20
13.54691638331166
 10
65.63151086550239
 20
13.52088636769155
 10
65.60439692866089
 20
13.49376126237038
 10
65.57837980498539
 20
13.46557944290608
 10
65.55348070053492
 20
13.43639513376164
 10
65.52972010388214
 20
13.40626324704114
 10
65.50711850359959
 20
13.37523869484867
 10
65.48569638826005
 20
13.34337638928827
 10
65.46547424643609
 20
13.31073124246405
 10
65.44647256670021
 20
13.27735816648009
 10
65.4287118376252
 20
13.24331207344044
 10
65.41221254778361
 20
13.20864787544919
 10
65.39699743399136
 20
13.17342018707732
 10
65.38313123846172
 20
13.13767806389081
 10
65.37071593482972
 20
13.10146563423975
 10
65.35985478582017
 20
13.06482685587574
 10
65.35065105415789
 20
13.02780568655046
 10
65.3432065243519
 20
12.99044613039834
 10
65.33747476947223
 20
12.95279684207101
 10
65.333136683298
 20
12.91491503223789
 10
65.3298438486529
 20
12.87685883127543
 10
65.32724784836045
 20
12.83868636956009
 10
65.32500026525133
 20
12.80045577749326
 10
65.3250002652444
 20
7.000148980440719
 10
65.33130936663804
 20
6.94652805710394
 10
65.33808551699417
 20
6.893066660730949
 10
65.34579576527528
 20
6.839924318285563
 10
65.3549071604441
 20
6.787260556731553
 10
65.36588675146311
 20
6.735234903032732
 10
65.3792015872948
 20
6.684006884152878
 10
65.39531871690167
 20
6.633736027055802
 10
65.41468482808318
 20
6.584579818487227
 10
65.43738736125454
 20
6.536659748084389
 10
65.46320632790752
 20
6.490066500660852
 10
65.49191182095376
 20
6.444889767174045
 10
65.52327393330472
 20
6.401219238581425
 10
65.55706275787156
 20
6.359144605840405
 10
65.593048387566
 20
6.318755559908431
 10
65.63100391516491
 20
6.280144738635223
 10
65.6707714341361
 20
6.243472562108342
 10
65.71226204073878
 20
6.208967234717377
 10
65.75538983151854
 20
6.176859908157012
 10
65.80006890302058
 20
6.147381734121934
 10
65.84621335179043
 20
6.120763864306836
 10
65.89373727437316
 20
6.097237450406402
 10
65.94255367470771
 20
6.077024324689118
 10
65.99254003629801
 20
6.060043346651097
 10
66.04353136328416
 20
6.045851046586554
 10
66.09536016143363
 20
6.033982644833235
 10
66.14785893651379
 20
6.023973361728897
 10
66.20086019429186
 20
6.015358417611292
 10
66.25419644053522
 20
6.007673032818187
 10
66.30770018101123
 20
6.000452427687326
  0
ELLIPSE
  5
3DA47
330
3DA3C
100
AcDbEntity
  8
13
100
AcDbEllipse
 10
2.000304656051524
 20
0.0006092642933098
 30
0.0
 11
1.414644379919874
 21
1.414644376680483
 31
0.0
210
0.0
220
0.0
230
1.0
 40
0.9996954599
 41
2.356346783853188
 42
3.926838524154459
  0
ELLIPSE
  5
3DA48
330
3DA3C
100
AcDbEntity
  8
13
100
AcDbEllipse
 10
137.7369706654514
 20
0.0006092642933098
 30
0.0
 11
1.414644378415573
 21
-1.414644378414263
 31
0.0
210
0.0
220
0.0
230
1.0
 40
0.9996954599
 41
5.497939437056287
 42
7.068431177269406
  0
LWPOLYLINE
  5
3DA49
330
3DA3C
100
AcDbEntity
  8
13
100
AcDbPolyline
 90
        4
 70
     1
 43
0.0
 10
121.3249982684514
 20
12.00030812489331
 10
121.3249982684514
 20
0.0003061578933128
 10
111.3250003546514
 20
0.0003061578933128
 10
111.3250003546514
 20
12.00030812489331
  0
LWPOLYLINE
  5
3DA4A
330
3DA3C
100
AcDbEntity
  8
13
100
AcDbPolyline
 90
        4
 70
     1
 43
0.0
 10
63.32499993745148
 20
12.00030812489331
 10
63.32499993745148
 20
0.0003061578933128
 10
53.32500004445146
 20
0.0003061578933128
 10
53.32500004445146
 20
12.00030812489331
  0
LWPOLYLINE
  5
3DA4B
330
3DA3C
100
AcDbEntity
  8
13
100
AcDbPolyline
 90
        4
 70
     1
 43
0.0
 10
35.57499957985158
 20
0.0003061578933128
 10
35.57499957985158
 20
12.00030812489331
 10
51.32499994945135
 20
12.00030812489331
 10
51.32499994945135
 20
0.0003061578933128
  0
LWPOLYLINE
  5
3DA4C
330
3DA3C
100
AcDbEntity
  8
13
100
AcDbPolyline
 90
        4
 70
     1
 43
0.0
 10
18.32499814925142
 20
0.0003061578933128
 10
18.32499814925142
 20
12.00030812489331
 10
34.07500026525133
 20
12.00030812489331
 10
34.07500026525133
 20
0.0003061578933128
  0
LWPOLYLINE
  5
3DA4D
330
3DA3C
100
AcDbEntity
  8
13
100
AcDbPolyline
 90
        2
 70
     0
 43
0.0
 10
16.32500154665138
 20
0.0003061578933128
 10
1.824998238651343
 20
0.0003061578933128
  0
LWPOLYLINE
  5
3DA4E
330
3DA3C
100
AcDbEntity
  8
13
100
AcDbPolyline
 90
        5
 70
     0
 43
0.0
 10
1.912300416851508
 20
11.91300222149329
 10
1.824998238651343
 20
12.00030812489331
 10
16.32500154665138
 20
12.00030812489331
 10
16.32500154665138
 20
0.0003061578933128
 10
16.2376993686513
 20
0.0876046106932975
  0
LWPOLYLINE
  5
3DA4F
330
3DA3C
100
AcDbEntity
  8
13
100
AcDbPolyline
 90
        3
 70
     0
 43
0.0
 10
1.912300416851508
 20
0.0876046106932975
 10
1.824998238651343
 20
0.0003061578933128
 10
1.824998238651343
 20
12.00030812489331
  0
LWPOLYLINE
  5
3DA50
330
3DA3C
100
AcDbEntity
  8
13
100
AcDbPolyline
 90
        2
 70
     0
 43
0.0
 10
137.7375799312624
 20
-1.999695391919743
 10
1.999695388834195
 20
-1.999695391756809
  0
LWPOLYLINE
  5
3DA51
330
3DA3C
100
AcDbEntity
  8
13
100
AcDbPolyline
 90
        4
 70
     1
 43
0.0
 10
137.1351004928514
 20
12.00030812489331
 10
123.3250023216514
 20
12.00030812489331
 10
123.3250023216514
 20
0.0003061578933128
 10
137.1351004928514
 20
0.0003061578933128
  0
ENDBLK
  5
3DA52
330
3DA3C
100
AcDbEntity
  8
0
100
AcDbBlockEnd
  0
BLOCK
  5
3ED69
330
3ED68
100
AcDbEntity
  8
0
100
AcDbBlockBegin
  2
SW_CENTERMARKSYMBOL_12
 70
     0
 10
0.0
 20
0.0
 30
0.0
  3
SW_CENTERMARKSYMBOL_12
  1
SW_CENTERMARKSYMBOL_12
  0
LINE
  5
3ED6A
330
3ED68
100
AcDbEntity
  8
SLD-0
 62
     0
100
AcDbLine
 10
0.0
 20
0.0
 30
0.0
 11
0.0
 21
1.25
 31
0.0
  0
LINE
  5
3ED6B
330
3ED68
100
AcDbEntity
  8
SLD-0
 62
     0
100
AcDbLine
 10
0.0
 20
0.0
 30
0.0
 11
-1.25
 21
0.0
 31
0.0
  0
LINE
  5
3ED6C
330
3ED68
100
AcDbEntity
  8
SLD-0
 62
     0
100
AcDbLine
 10
0.0
 20
0.0
 30
0.0
 11
0.0
 21
-1.25
 31
0.0
  0
LINE
  5
3ED6D
330
3ED68
100
AcDbEntity
  8
SLD-0
 62
     0
100
AcDbLine
 10
0.0
 20
0.0
 30
0.0
 11
1.25
 21
0.0
 31
0.0
  0
LINE
  5
3ED6E
330
3ED68
100
AcDbEntity
  8
SLD-0
 62
     0
100
AcDbLine
 10
0.0
 20
2.5
 30
0.0
 11
0.0
 21
3.5
 31
0.0
  0
LINE
  5
3ED6F
330
3ED68
100
AcDbEntity
  8
SLD-0
 62
     0
100
AcDbLine
 10
-2.5
 20
0.0
 30
0.0
 11
-3.5
 21
0.0
 31
0.0
  0
LINE
  5
3ED70
330
3ED68
100
AcDbEntity
  8
SLD-0
 62
     0
100
AcDbLine
 10
0.0
 20
-2.5
 30
0.0
 11
0.0
 21
-3.5
 31
0.0
  0
LINE
  5
3ED71
330
3ED68
100
AcDbEntity
  8
SLD-0
 62
     0
100
AcDbLine
 10
2.5
 20
0.0
 30
0.0
 11
3.5
 21
0.0
 31
0.0
  0
ENDBLK
  5
3ED72
330
3ED68
100
AcDbEntity
  8
0
100
AcDbBlockEnd
  0
BLOCK
  5
3ED74
330
3ED73
100
AcDbEntity
  8
0
100
AcDbBlockBegin
  2
SW_CENTERMARKSYMBOL_13
 70
     0
 10
0.0
 20
0.0
 30
0.0
  3
SW_CENTERMARKSYMBOL_13
  1
SW_CENTERMARKSYMBOL_13
  0
LINE
  5
3ED75
330
3ED73
100
AcDbEntity
  8
SLD-0
 62
     0
100
AcDbLine
 10
0.0
 20
0.0
 30
0.0
 11
0.0
 21
1.25
 31
0.0
  0
LINE
  5
3ED76
330
3ED73
100
AcDbEntity
  8
SLD-0
 62
     0
100
AcDbLine
 10
0.0
 20
0.0
 30
0.0
 11
-1.25
 21
0.0
 31
0.0
  0
LINE
  5
3ED77
330
3ED73
100
AcDbEntity
  8
SLD-0
 62
     0
100
AcDbLine
 10
0.0
 20
0.0
 30
0.0
 11
0.0
 21
-1.25
 31
0.0
  0
LINE
  5
3ED78
330
3ED73
100
AcDbEntity
  8
SLD-0
 62
     0
100
AcDbLine
 10
0.0
 20
0.0
 30
0.0
 11
1.25
 21
0.0
 31
0.0
  0
LINE
  5
3ED79
330
3ED73
100
AcDbEntity
  8
SLD-0
 62
     0
100
AcDbLine
 10
0.0
 20
2.5
 30
0.0
 11
0.0
 21
3.5
 31
0.0
  0
LINE
  5
3ED7A
330
3ED73
100
AcDbEntity
  8
SLD-0
 62
     0
100
AcDbLine
 10
-2.5
 20
0.0
 30
0.0
 11
-3.5
 21
0.0
 31
0.0
  0
LINE
  5
3ED7B
330
3ED73
100
AcDbEntity
  8
SLD-0
 62
     0
100
AcDbLine
 10
0.0
 20
-2.5
 30
0.0
 11
0.0
 21
-3.5
 31
0.0
  0
LINE
  5
3ED7C
330
3ED73
100
AcDbEntity
  8
SLD-0
 62
     0
100
AcDbLine
 10
2.5
 20
0.0
 30
0.0
 11
3.5
 21
0.0
 31
0.0
  0
ENDBLK
  5
3ED7D
330
3ED73
100
AcDbEntity
  8
0
100
AcDbBlockEnd
  0
BLOCK
  5
3ED7F
330
3ED7E
100
AcDbEntity
  8
0
100
AcDbBlockBegin
  2
SW_CENTERMARKSYMBOL_14
 70
     0
 10
0.0
 20
0.0
 30
0.0
  3
SW_CENTERMARKSYMBOL_14
  1
SW_CENTERMARKSYMBOL_14
  0
LINE
  5
3ED80
330
3ED7E
100
AcDbEntity
  8
SLD-0
 62
     0
100
AcDbLine
 10
0.0
 20
0.0
 30
0.0
 11
0.0
 21
1.25
 31
0.0
  0
LINE
  5
3ED81
330
3ED7E
100
AcDbEntity
  8
SLD-0
 62
     0
100
AcDbLine
 10
0.0
 20
0.0
 30
0.0
 11
-1.25
 21
0.0
 31
0.0
  0
LINE
  5
3ED82
330
3ED7E
100
AcDbEntity
  8
SLD-0
 62
     0
100
AcDbLine
 10
0.0
 20
0.0
 30
0.0
 11
0.0
 21
-1.25
 31
0.0
  0
LINE
  5
3ED83
330
3ED7E
100
AcDbEntity
  8
SLD-0
 62
     0
100
AcDbLine
 10
0.0
 20
0.0
 30
0.0
 11
1.25
 21
0.0
 31
0.0
  0
LINE
  5
3ED84
330
3ED7E
100
AcDbEntity
  8
SLD-0
 62
     0
100
AcDbLine
 10
0.0
 20
2.5
 30
0.0
 11
0.0
 21
3.5
 31
0.0
  0
LINE
  5
3ED85
330
3ED7E
100
AcDbEntity
  8
SLD-0
 62
     0
100
AcDbLine
 10
-2.5
 20
0.0
 30
0.0
 11
-3.5
 21
0.0
 31
0.0
  0
LINE
  5
3ED86
330
3ED7E
100
AcDbEntity
  8
SLD-0
 62
     0
100
AcDbLine
 10
0.0
 20
-2.5
 30
0.0
 11
0.0
 21
-3.5
 31
0.0
  0
LINE
  5
3ED87
330
3ED7E
100
AcDbEntity
  8
SLD-0
 62
     0
100
AcDbLine
 10
2.5
 20
0.0
 30
0.0
 11
3.5
 21
0.0
 31
0.0
  0
ENDBLK
  5
3ED88
330
3ED7E
100
AcDbEntity
  8
0
100
AcDbBlockEnd
  0
BLOCK
  5
3F5BC
330
3F5BB
100
AcDbEntity
  8
0
100
AcDbBlockBegin
  2
*D12
 70
     1
 10
0.0
 20
0.0
 30
0.0
  3
*D12
  1

  0
LINE
  5
41E35
330
3F5BB
100
AcDbEntity
  8
30
  6
Continuous
 62
     0
440
 16777216
370
    -2
100
AcDbLine
 10
62.35721073764762
 20
324.312854886021
 30
0.0
 11
62.35721073764762
 21
298.0762873425374
 31
0.0
  0
LINE
  5
41E36
330
3F5BB
100
AcDbEntity
  8
30
  6
Continuous
 62
     0
440
 16777216
370
    -2
100
AcDbLine
 10
254.3572107376476
 20
324.312854886021
 30
0.0
 11
254.3572107376476
 21
298.0762873425374
 31
0.0
  0
LINE
  5
41E37
330
3F5BB
100
AcDbEntity
  8
30
440
 16777216
370
    -2
100
AcDbLine
 10
65.35721073764761
 20
298.5762873425374
 30
0.0
 11
251.3572107376476
 21
298.5762873425374
 31
0.0
  0
INSERT
  5
41E38
330
3F5BB
100
AcDbEntity
  8
30
  6
Continuous
440
 16777216
370
    -2
100
AcDbBlockReference
  2
_OPEN
 10
62.35721073764762
 20
298.5762873425374
 30
0.0
 41
3.0
 42
3.0
 43
3.0
 50
180.0
  0
INSERT
  5
41E39
330
3F5BB
100
AcDbEntity
  8
30
  6
Continuous
440
 16777216
370
    -2
100
AcDbBlockReference
  2
_OPEN
 10
254.3572107376476
 20
298.5762873425374
 30
0.0
 41
3.0
 42
3.0
 43
3.0
  0
MTEXT
  5
41E3A
330
3F5BB
100
AcDbEntity
  8
30
  6
Continuous
440
 16777216
100
AcDbMText
 10
158.3572107376476
 20
305.0762873425374
 30
0.0
 40
7.0
 41
0.0
 46
0.0
 71
     5
 72
     1
  1
\A1;192
 73
     1
 44
1.0
 90
        3
 63
     9
421
 13158600
 45
1.25
441
        0
  0
POINT
  5
41E3B
330
3F5BB
100
AcDbEntity
  8
DEFPOINTS
  6
Continuous
 62
     0
440
 16777216
100
AcDbPoint
 10
62.35721073764762
 20
325.312854886021
 30
0.0
  0
POINT
  5
41E3C
330
3F5BB
100
AcDbEntity
  8
DEFPOINTS
  6
Continuous
 62
     0
440
 16777216
100
AcDbPoint
 10
254.3572107376476
 20
325.312854886021
 30
0.0
  0
POINT
  5
41E3D
330
3F5BB
100
AcDbEntity
  8
DEFPOINTS
  6
Continuous
 62
     0
440
 16777216
100
AcDbPoint
 10
254.3572107376476
 20
298.5762873425374
 30
0.0
  0
ENDBLK
  5
3F5BD
330
3F5BB
100
AcDbEntity
  8
0
100
AcDbBlockEnd
  0
BLOCK
  5
3F5C8
330
3F5C7
100
AcDbEntity
  8
0
100
AcDbBlockBegin
  2
*D13
 70
     1
 10
0.0
 20
0.0
 30
0.0
  3
*D13
  1

  0
LINE
  5
41E3E
330
3F5C7
100
AcDbEntity
  8
30
  6
Continuous
 62
     0
440
 16777216
370
    -2
100
AcDbLine
 10
253.5950615904003
 20
516.3581424627558
 30
0.0
 11
280.041819432321
 21
516.3581424627555
 31
0.0
  0
LINE
  5
41E3F
330
3F5C7
100
AcDbEntity
  8
30
  6
Continuous
 62
     0
440
 16777216
370
    -2
100
AcDbLine
 10
253.5950615904003
 20
324.3581424627558
 30
0.0
 11
280.041819432321
 21
324.3581424627558
 31
0.0
  0
LINE
  5
41E40
330
3F5C7
100
AcDbEntity
  8
30
440
 16777216
370
    -2
100
AcDbLine
 10
279.5418194323211
 20
513.3581424627556
 30
0.0
 11
279.5418194323211
 21
327.3581424627558
 31
0.0
  0
INSERT
  5
41E41
330
3F5C7
100
AcDbEntity
  8
30
  6
Continuous
440
 16777216
370
    -2
100
AcDbBlockReference
  2
_OPEN
 10
279.5418194323211
 20
516.3581424627555
 30
0.0
 41
3.0
 42
3.0
 43
3.0
 50
90.0
  0
INSERT
  5
41E42
330
3F5C7
100
AcDbEntity
  8
30
  6
Continuous
440
 16777216
370
    -2
100
AcDbBlockReference
  2
_OPEN
 10
279.5418194323211
 20
324.3581424627558
 30
0.0
 41
3.0
 42
3.0
 43
3.0
 50
270.0
  0
MTEXT
  5
41E43
330
3F5C7
100
AcDbEntity
  8
30
  6
Continuous
440
 16777216
100
AcDbMText
 10
273.041819432321
 20
420.3581424627558
 30
0.0
 40
7.0
 41
0.0
 46
0.0
 71
     5
 72
     1
  1
\A1;192
 11
0.0000000000000001
 21
1.0
 31
0.0
 73
     1
 44
1.0
 90
        3
 63
     9
421
 13158600
 45
1.25
441
        0
  0
POINT
  5
41E44
330
3F5C7
100
AcDbEntity
  8
DEFPOINTS
  6
Continuous
 62
     0
440
 16777216
100
AcDbPoint
 10
252.5950615904003
 20
516.3581424627558
 30
0.0
  0
POINT
  5
41E45
330
3F5C7
100
AcDbEntity
  8
DEFPOINTS
  6
Continuous
 62
     0
440
 16777216
100
AcDbPoint
 10
252.5950615904003
 20
324.3581424627558
 30
0.0
  0
POINT
  5
41E46
330
3F5C7
100
AcDbEntity
  8
DEFPOINTS
  6
Continuous
 62
     0
440
 16777216
100
AcDbPoint
 10
279.5418194323211
 20
324.3581424627558
 30
0.0
  0
ENDBLK
  5
3F5C9
330
3F5C7
100
AcDbEntity
  8
0
100
AcDbBlockEnd
  0
BLOCK
  5
3F5D4
330
3F5D3
100
AcDbEntity
  8
0
100
AcDbBlockBegin
  2
*D14
 70
     1
 10
0.0
 20
0.0
 30
0.0
  3
*D14
  1

  0
LINE
  5
42506
330
3F5D3
100
AcDbEntity
  8
30
  6
Continuous
 62
     0
440
 16777216
370
    -2
100
AcDbLine
 10
77.85721073764761
 20
75.3955706348568
 30
0.0
 11
77.85721073764761
 21
41.27554233823865
 31
0.0
  0
LINE
  5
42507
330
3F5D3
100
AcDbEntity
  8
30
  6
Continuous
 62
     0
440
 16777216
370
    -2
100
AcDbLine
 10
238.8572107376476
 20
75.3955706348568
 30
0.0
 11
238.8572107376476
 21
41.27554233823865
 31
0.0
  0
LINE
  5
42508
330
3F5D3
100
AcDbEntity
  8
30
440
 16777216
370
    -2
100
AcDbLine
 10
80.85721073764759
 20
41.77554233823864
 30
0.0
 11
235.8572107376476
 21
41.77554233823864
 31
0.0
  0
INSERT
  5
42509
330
3F5D3
100
AcDbEntity
  8
30
  6
Continuous
440
 16777216
370
    -2
100
AcDbBlockReference
  2
_OPEN
 10
77.85721073764761
 20
41.77554233823864
 30
0.0
 41
3.0
 42
3.0
 43
3.0
 50
180.0
  0
INSERT
  5
4250A
330
3F5D3
100
AcDbEntity
  8
30
  6
Continuous
440
 16777216
370
    -2
100
AcDbBlockReference
  2
_OPEN
 10
238.8572107376476
 20
41.77554233823864
 30
0.0
 41
3.0
 42
3.0
 43
3.0
  0
MTEXT
  5
4250B
330
3F5D3
100
AcDbEntity
  8
30
  6
Continuous
440
 16777216
100
AcDbMText
 10
158.3572107376476
 20
48.27554233823867
 30
0.0
 40
7.0
 41
0.0
 46
0.0
 71
     5
 72
     1
  1
\A1;161
 73
     1
 44
1.0
 90
        3
 63
     9
421
 13158600
 45
1.25
441
        0
  0
POINT
  5
4250C
330
3F5D3
100
AcDbEntity
  8
DEFPOINTS
  6
Continuous
 62
     0
440
 16777216
100
AcDbPoint
 10
77.85721073764761
 20
76.39557063485681
 30
0.0
  0
POINT
  5
4250D
330
3F5D3
100
AcDbEntity
  8
DEFPOINTS
  6
Continuous
 62
     0
440
 16777216
100
AcDbPoint
 10
238.8572107376476
 20
76.39557063485681
 30
0.0
  0
POINT
  5
4250E
330
3F5D3
100
AcDbEntity
  8
DEFPOINTS
  6
Continuous
 62
     0
440
 16777216
100
AcDbPoint
 10
238.8572107376476
 20
41.77554233823864
 30
0.0
  0
ENDBLK
  5
3F5D5
330
3F5D3
100
AcDbEntity
  8
0
100
AcDbBlockEnd
  0
BLOCK
  5
3F5E0
330
3F5DF
100
AcDbEntity
  8
0
100
AcDbBlockBegin
  2
*D15
 70
     1
 10
0.0
 20
0.0
 30
0.0
  3
*D15
  1

  0
LINE
  5
424FD
330
3F5DF
100
AcDbEntity
  8
30
  6
Continuous
 62
     0
440
 16777216
370
    -2
100
AcDbLine
 10
72.85721073764761
 20
130.0079329604232
 30
0.0
 11
72.85721073764761
 21
23.02127499554581
 31
0.0
  0
LINE
  5
424FE
330
3F5DF
100
AcDbEntity
  8
30
  6
Continuous
 62
     0
440
 16777216
370
    -2
100
AcDbLine
 10
243.8572107376476
 20
130.0079329604232
 30
0.0
 11
243.8572107376476
 21
23.02127499554581
 31
0.0
  0
LINE
  5
424FF
330
3F5DF
100
AcDbEntity
  8
30
  6
Continuous
 62
     0
440
 16777216
370
    -2
100
AcDbLine
 10
74.85721073764761
 20
23.52127499554581
 30
0.0
 11
241.8572107376476
 21
23.52127499554581
 31
0.0
  0
INSERT
  5
42500
330
3F5DF
100
AcDbEntity
  8
30
  6
Continuous
 62
     0
440
 16777216
370
    -2
100
AcDbBlockReference
  2
_OPEN
 10
72.85721073764761
 20
23.52127499554581
 30
0.0
 41
2.0
 42
2.0
 43
2.0
 50
180.0
  0
INSERT
  5
42501
330
3F5DF
100
AcDbEntity
  8
30
  6
Continuous
 62
     0
440
 16777216
370
    -2
100
AcDbBlockReference
  2
_OPEN
 10
243.8572107376476
 20
23.52127499554581
 30
0.0
 41
2.0
 42
2.0
 43
2.0
  0
MTEXT
  5
42502
330
3F5DF
100
AcDbEntity
  8
30
  6
Continuous
 62
     0
440
 16777216
100
AcDbMText
 10
158.3572107376476
 20
29.02127499554581
 30
0.0
 40
7.0
 41
0.0
 46
0.0
 71
     5
 72
     1
  1
\A1;171
 73
     1
 44
1.0
  0
POINT
  5
42503
330
3F5DF
100
AcDbEntity
  8
DEFPOINTS
  6
Continuous
 62
     0
440
 16777216
100
AcDbPoint
 10
72.85721073764761
 20
133.0079329604232
 30
0.0
  0
POINT
  5
42504
330
3F5DF
100
AcDbEntity
  8
DEFPOINTS
  6
Continuous
 62
     0
440
 16777216
100
AcDbPoint
 10
243.8572107376476
 20
133.0079329604232
 30
0.0
  0
POINT
  5
42505
330
3F5DF
100
AcDbEntity
  8
DEFPOINTS
  6
Continuous
 62
     0
440
 16777216
100
AcDbPoint
 10
243.8572107376476
 20
23.52127499554581
 30
0.0
  0
ENDBLK
  5
3F5E1
330
3F5DF
100
AcDbEntity
  8
0
100
AcDbBlockEnd
  0
BLOCK
  5
3F5F8
330
3F5F7
100
AcDbEntity
  8
0
100
AcDbBlockBegin
  2
*D16
 70
     1
 10
0.0
 20
0.0
 30
0.0
  3
*D16
  1

  0
LINE
  5
4252C
330
3F5F7
100
AcDbEntity
  8
30
  6
Continuous
 62
     0
440
 16777216
370
    -2
100
AcDbLine
 10
105.857210737648
 20
724.7374285736688
 30
0.0
 11
105.857210737648
 21
775.9913357696827
 31
0.0
  0
LINE
  5
4252D
330
3F5F7
100
AcDbEntity
  8
30
  6
Continuous
 62
     0
440
 16777216
370
    -2
100
AcDbLine
 10
140.857210737648
 20
759.7374285736687
 30
0.0
 11
140.857210737648
 21
775.9913357696827
 31
0.0
  0
LINE
  5
4252E
330
3F5F7
100
AcDbEntity
  8
30
  6
Continuous
 62
     0
440
 16777216
370
    -2
100
AcDbLine
 10
107.857210737648
 20
775.4913357696827
 30
0.0
 11
138.857210737648
 21
775.4913357696827
 31
0.0
  0
INSERT
  5
4252F
330
3F5F7
100
AcDbEntity
  8
30
  6
Continuous
 62
     0
440
 16777216
370
    -2
100
AcDbBlockReference
  2
_OPEN
 10
105.857210737648
 20
775.4913357696827
 30
0.0
 41
2.0
 42
2.0
 43
2.0
 50
180.0
  0
INSERT
  5
42530
330
3F5F7
100
AcDbEntity
  8
30
  6
Continuous
 62
     0
440
 16777216
370
    -2
100
AcDbBlockReference
  2
_OPEN
 10
140.857210737648
 20
775.4913357696827
 30
0.0
 41
2.0
 42
2.0
 43
2.0
  0
MTEXT
  5
42531
330
3F5F7
100
AcDbEntity
  8
30
  6
Continuous
 62
     0
440
 16777216
100
AcDbMText
 10
123.357210737648
 20
780.9913357696828
 30
0.0
 40
7.0
 41
0.0
 46
0.0
 71
     5
 72
     1
  1
\A1;35
 73
     1
 44
1.0
  0
POINT
  5
42532
330
3F5F7
100
AcDbEntity
  8
DEFPOINTS
  6
Continuous
 62
     0
440
 16777216
100
AcDbPoint
 10
105.857210737648
 20
721.7374285736688
 30
0.0
  0
POINT
  5
42533
330
3F5F7
100
AcDbEntity
  8
DEFPOINTS
  6
Continuous
 62
     0
440
 16777216
100
AcDbPoint
 10
140.857210737648
 20
756.7374285736688
 30
0.0
  0
POINT
  5
42534
330
3F5F7
100
AcDbEntity
  8
DEFPOINTS
  6
Continuous
 62
     0
440
 16777216
100
AcDbPoint
 10
140.857210737648
 20
775.4913357696827
 30
0.0
  0
ENDBLK
  5
3F5F9
330
3F5F7
100
AcDbEntity
  8
0
100
AcDbBlockEnd
  0
BLOCK
  5
3F604
330
3F603
100
AcDbEntity
  8
0
100
AcDbBlockBegin
  2
*D17
 70
     1
 10
0.0
 20
0.0
 30
0.0
  3
*D17
  1

  0
LINE
  5
42535
330
3F603
100
AcDbEntity
  8
30
  6
Continuous
 62
     0
440
 16777216
370
    -2
100
AcDbLine
 10
140.857210737648
 20
759.7374285736687
 30
0.0
 11
140.857210737648
 21
775.9913357696827
 31
0.0
  0
LINE
  5
42536
330
3F603
100
AcDbEntity
  8
30
  6
Continuous
 62
     0
440
 16777216
370
    -2
100
AcDbLine
 10
175.8572107376481
 20
724.7374285736688
 30
0.0
 11
175.8572107376481
 21
775.9913357696827
 31
0.0
  0
LINE
  5
42537
330
3F603
100
AcDbEntity
  8
30
  6
Continuous
 62
     0
440
 16777216
370
    -2
100
AcDbLine
 10
142.857210737648
 20
775.4913357696827
 30
0.0
 11
173.8572107376481
 21
775.4913357696827
 31
0.0
  0
INSERT
  5
42538
330
3F603
100
AcDbEntity
  8
30
  6
Continuous
 62
     0
440
 16777216
370
    -2
100
AcDbBlockReference
  2
_OPEN
 10
140.857210737648
 20
775.4913357696827
 30
0.0
 41
2.0
 42
2.0
 43
2.0
 50
180.0
  0
INSERT
  5
42539
330
3F603
100
AcDbEntity
  8
30
  6
Continuous
 62
     0
440
 16777216
370
    -2
100
AcDbBlockReference
  2
_OPEN
 10
175.8572107376481
 20
775.4913357696827
 30
0.0
 41
2.0
 42
2.0
 43
2.0
  0
MTEXT
  5
4253A
330
3F603
100
AcDbEntity
  8
30
  6
Continuous
 62
     0
440
 16777216
100
AcDbMText
 10
158.357210737648
 20
780.9913357696828
 30
0.0
 40
7.0
 41
0.0
 46
0.0
 71
     5
 72
     1
  1
\A1;35
 73
     1
 44
1.0
  0
POINT
  5
4253B
330
3F603
100
AcDbEntity
  8
DEFPOINTS
  6
Continuous
 62
     0
440
 16777216
100
AcDbPoint
 10
140.857210737648
 20
756.7374285736688
 30
0.0
  0
POINT
  5
4253C
330
3F603
100
AcDbEntity
  8
DEFPOINTS
  6
Continuous
 62
     0
440
 16777216
100
AcDbPoint
 10
175.8572107376481
 20
721.7374285736688
 30
0.0
  0
POINT
  5
4253D
330
3F603
100
AcDbEntity
  8
DEFPOINTS
  6
Continuous
 62
     0
440
 16777216
100
AcDbPoint
 10
175.8572107376481
 20
775.4913357696827
 30
0.0
  0
ENDBLK
  5
3F605
330
3F603
100
AcDbEntity
  8
0
100
AcDbBlockEnd
  0
BLOCK
  5
3F610
330
3F60F
100
AcDbEntity
  8
0
100
AcDbBlockBegin
  2
*D18
 70
     1
 10
0.0
 20
0.0
 30
0.0
  3
*D18
  1

  0
LINE
  5
42547
330
3F60F
100
AcDbEntity
  8
30
  6
Continuous
 62
     0
440
 16777216
370
    -2
100
AcDbLine
 10
175.8572107376481
 20
725.7374285736688
 30
0.0
 11
175.8572107376481
 21
775.9913357696827
 31
0.0
  0
LINE
  5
42548
330
3F60F
100
AcDbEntity
  8
30
  6
Continuous
 62
     0
440
 16777216
370
    -2
100
AcDbLine
 10
210.8572107376481
 20
759.7374285736687
 30
0.0
 11
210.8572107376481
 21
775.9913357696827
 31
0.0
  0
LINE
  5
42549
330
3F60F
100
AcDbEntity
  8
30
  6
Continuous
 62
     0
440
 16777216
370
    -2
100
AcDbLine
 10
177.8572107376481
 20
775.4913357696827
 30
0.0
 11
208.8572107376481
 21
775.4913357696827
 31
0.0
  0
INSERT
  5
4254A
330
3F60F
100
AcDbEntity
  8
30
  6
Continuous
 62
     0
440
 16777216
370
    -2
100
AcDbBlockReference
  2
_OPEN
 10
175.8572107376481
 20
775.4913357696827
 30
0.0
 41
2.0
 42
2.0
 43
2.0
 50
180.0
  0
INSERT
  5
4254B
330
3F60F
100
AcDbEntity
  8
30
  6
Continuous
 62
     0
440
 16777216
370
    -2
100
AcDbBlockReference
  2
_OPEN
 10
210.8572107376481
 20
775.4913357696827
 30
0.0
 41
2.0
 42
2.0
 43
2.0
  0
MTEXT
  5
4254C
330
3F60F
100
AcDbEntity
  8
30
  6
Continuous
 62
     0
440
 16777216
100
AcDbMText
 10
191.3572107376481
 20
780.9913357696828
 30
0.0
 40
7.0
 41
0.0
 46
0.0
 71
     5
 72
     1
  1
\A1;35
 73
     1
 44
1.0
  0
POINT
  5
4254D
330
3F60F
100
AcDbEntity
  8
DEFPOINTS
  6
Continuous
 62
     0
440
 16777216
100
AcDbPoint
 10
175.8572107376481
 20
722.7374285736687
 30
0.0
  0
POINT
  5
4254E
330
3F60F
100
AcDbEntity
  8
DEFPOINTS
  6
Continuous
 62
     0
440
 16777216
100
AcDbPoint
 10
210.8572107376481
 20
756.7374285736688
 30
0.0
  0
POINT
  5
4254F
330
3F60F
100
AcDbEntity
  8
DEFPOINTS
  6
Continuous
 62
     0
440
 16777216
100
AcDbPoint
 10
210.8572107376481
 20
775.4913357696827
 30
0.0
  0
ENDBLK
  5
3F611
330
3F60F
100
AcDbEntity
  8
0
100
AcDbBlockEnd
  0
BLOCK
  5
3F634
330
3F633
100
AcDbEntity
  8
0
100
AcDbBlockBegin
  2
*D19
 70
     1
 10
0.0
 20
0.0
 30
0.0
  3
*D19
  1

  0
LINE
  5
423FA
330
3F633
100
AcDbEntity
  8
30
  6
Continuous
 62
     0
440
 16777216
370
    -2
100
AcDbLine
 10
239.8572107376481
 20
258.3079329604231
 30
0.0
 11
326.1626879725409
 21
258.3079329604231
 31
0.0
  0
LINE
  5
423FB
330
3F633
100
AcDbEntity
  8
30
  6
Continuous
 62
     0
440
 16777216
370
    -2
100
AcDbLine
 10
239.8572107376481
 20
77.3079329604232
 30
0.0
 11
326.1626879725409
 21
77.30793296042318
 31
0.0
  0
LINE
  5
423FC
330
3F633
100
AcDbEntity
  8
30
440
 16777216
370
    -2
100
AcDbLine
 10
325.662687972541
 20
255.3079329604231
 30
0.0
 11
325.6626879725409
 21
80.30793296042318
 31
0.0
  0
MTEXT
  5
423FD
330
3F633
100
AcDbEntity
  8
30
  6
Continuous
440
 16777216
100
AcDbMText
 10
315.6626879725409
 20
167.8079329604231
 30
0.0
 40
7.0
 41
0.0
 46
0.0
 71
     2
 72
     1
  1
\A1;181
 11
0.0000000000000001
 21
1.0
 31
0.0
 73
     1
 44
1.0
 90
        3
 63
     9
421
 13158600
 45
1.25
441
        0
  0
INSERT
  5
423FE
330
3F633
100
AcDbEntity
  8
30
  6
Continuous
440
 16777216
370
    -2
100
AcDbBlockReference
  2
_OPEN
 10
325.662687972541
 20
258.3079329604231
 30
0.0
 41
3.0
 42
3.0
 43
3.0
 50
90.0
  0
INSERT
  5
423FF
330
3F633
100
AcDbEntity
  8
30
  6
Continuous
440
 16777216
370
    -2
100
AcDbBlockReference
  2
_OPEN
 10
325.6626879725409
 20
77.30793296042318
 30
0.0
 41
3.0
 42
3.0
 43
3.0
 50
270.0
  0
POINT
  5
42400
330
3F633
100
AcDbEntity
  8
DEFPOINTS
  6
Continuous
 62
     0
440
 16777216
100
AcDbPoint
 10
238.8572107376481
 20
258.3079329604231
 30
0.0
  0
POINT
  5
42401
330
3F633
100
AcDbEntity
  8
DEFPOINTS
  6
Continuous
 62
     0
440
 16777216
100
AcDbPoint
 10
238.8572107376481
 20
77.3079329604232
 30
0.0
  0
POINT
  5
42402
330
3F633
100
AcDbEntity
  8
DEFPOINTS
  6
Continuous
 62
     0
440
 16777216
100
AcDbPoint
 10
325.6626879725409
 20
77.30793296042318
 30
0.0
  0
ENDBLK
  5
3F635
330
3F633
100
AcDbEntity
  8
0
100
AcDbBlockEnd
  0
BLOCK
  5
3F822
330
3F821
100
AcDbEntity
  8
0
100
AcDbBlockBegin
  2
*D20
 70
     1
 10
0.0
 20
0.0
 30
0.0
  3
*D20
  1

  0
LINE
  5
42550
330
3F821
100
AcDbEntity
  8
30
  6
Continuous
 62
     0
440
 16777216
370
    -2
100
AcDbLine
 10
241.0069965675111
 20
194.8841283613899
 30
0.0
 11
239.8669108994578
 21
193.2408984111092
 31
0.0
  0
LINE
  5
42551
330
3F821
100
AcDbEntity
  8
30
  6
Continuous
 62
     0
440
 16777216
370
    -2
100
AcDbLine
 10
246.7074249077853
 20
203.1002781128041
 30
0.0
 11
259.9666859965025
 21
222.211135787889
 31
0.0
  0
LINE
  5
42552
330
3F821
100
AcDbEntity
  8
30
  6
Continuous
 62
     0
440
 16777216
370
    -2
100
AcDbLine
 10
259.9666859965025
 20
222.211135787889
 30
0.0
 11
273.6333526631692
 21
222.2111357878889
 31
0.0
  0
LINE
  5
42553
330
3F821
100
AcDbEntity
  8
30
  6
Continuous
 62
     0
440
 16777216
370
    -2
100
AcDbLine
 10
242.1470822355645
 20
196.5273583116706
 30
0.0
 11
245.5673392397319
 21
201.4570481625234
 31
0.0
  0
INSERT
  5
42554
330
3F821
100
AcDbEntity
  8
30
  6
Continuous
 62
     0
440
 16777216
370
    -2
100
AcDbBlockReference
  2
_OPEN
 10
242.1470822355645
 20
196.5273583116706
 30
0.0
 41
2.0
 42
2.0
 43
2.0
 50
55.24678724554608
  0
INSERT
  5
42555
330
3F821
100
AcDbEntity
  8
30
  6
Continuous
 62
     0
440
 16777216
370
    -2
100
AcDbBlockReference
  2
_OPEN
 10
245.5673392397319
 20
201.4570481625234
 30
0.0
 41
2.0
 42
2.0
 43
2.0
 50
235.2467872455461
  0
MTEXT
  5
42556
330
3F821
100
AcDbEntity
  8
30
  6
Continuous
 62
     0
440
 16777216
100
AcDbMText
 10
267.8000193298359
 20
227.7111357878889
 30
0.0
 40
7.0
 41
0.0
 46
0.0
 71
     5
 72
     1
  1
\A1;∅6
 73
     1
 44
1.0
  0
POINT
  5
42557
330
3F821
100
AcDbEntity
  8
DEFPOINTS
  6
Continuous
 62
     0
440
 16777216
100
AcDbPoint
 10
245.5673392397319
 20
201.4570481625234
 30
0.0
  0
POINT
  5
42558
330
3F821
100
AcDbEntity
  8
DEFPOINTS
  6
Continuous
 62
     0
440
 16777216
100
AcDbPoint
 10
242.1470822355645
 20
196.5273583116706
 30
0.0
  0
ENDBLK
  5
3F823
330
3F821
100
AcDbEntity
  8
0
100
AcDbBlockEnd
  0
BLOCK
  5
417EF
330
417EE
100
AcDbEntity
  8
0
100
AcDbBlockBegin
  2
*D21
 70
     1
 10
0.0
 20
0.0
 30
0.0
  3
*D21
  1

  0
LINE
  5
417F0
330
417EE
100
AcDbEntity
  8
30
  6
Continuous
 62
     0
370
    -2
100
AcDbLine
 10
516.2542011448381
 20
334.8581406762753
 30
0.0
 11
505.1064307611047
 21
334.8581406762753
 31
0.0
  0
LINE
  5
417F1
330
417EE
100
AcDbEntity
  8
30
  6
Continuous
 62
     0
370
    -2
100
AcDbLine
 10
516.2542011448381
 20
325.8581406762754
 30
0.0
 11
505.1064307611047
 21
325.8581406762754
 31
0.0
  0
LINE
  5
417F2
330
417EE
100
AcDbEntity
  8
30
  6
Continuous
 62
     0
370
    -2
100
AcDbLine
 10
505.6064307611046
 20
327.8581406762754
 30
0.0
 11
505.6064307611046
 21
332.8581406762753
 31
0.0
  0
LINE
  5
417F3
330
417EE
100
AcDbEntity
  8
30
  6
Continuous
 62
     0
370
    -2
100
AcDbLine
 10
505.6064307611046
 20
334.8581406762753
 30
0.0
 11
505.6064307611046
 21
348.2383188404754
 31
0.0
  0
LINE
  5
417F4
330
417EE
100
AcDbEntity
  8
30
  6
Continuous
 62
     0
370
    -2
100
AcDbLine
 10
505.6064307611046
 20
348.2383188404754
 30
0.0
 11
512.2730974277715
 21
348.2383188404754
 31
0.0
  0
INSERT
  5
417F5
330
417EE
100
AcDbEntity
  8
30
  6
Continuous
 62
     0
370
    -2
100
AcDbBlockReference
  2
_OPEN
 10
505.6064307611046
 20
325.8581406762754
 30
0.0
 41
2.0
 42
2.0
 43
2.0
 50
270.0
  0
INSERT
  5
417F6
330
417EE
100
AcDbEntity
  8
30
  6
Continuous
 62
     0
370
    -2
100
AcDbBlockReference
  2
_OPEN
 10
505.6064307611046
 20
334.8581406762753
 30
0.0
 41
2.0
 42
2.0
 43
2.0
 50
90.0
  0
MTEXT
  5
417F7
330
417EE
100
AcDbEntity
  8
30
  6
Continuous
 62
     0
100
AcDbMText
 10
509.939764094438
 20
357.2383188404754
 30
0.0
 40
7.0
 41
0.0
 46
0.0
 71
     2
 72
     1
  1
\A1;9
 73
     1
 44
1.0
  0
POINT
  5
417F8
330
417EE
100
AcDbEntity
  8
DEFPOINTS
  6
Continuous
 62
     0
100
AcDbPoint
 10
519.2542011448381
 20
334.8581406762753
 30
0.0
  0
POINT
  5
417F9
330
417EE
100
AcDbEntity
  8
DEFPOINTS
  6
Continuous
 62
     0
100
AcDbPoint
 10
519.2542011448381
 20
325.8581406762754
 30
0.0
  0
POINT
  5
417FA
330
417EE
100
AcDbEntity
  8
DEFPOINTS
  6
Continuous
 62
     0
100
AcDbPoint
 10
505.6064307611046
 20
325.8581406762754
 30
0.0
  0
ENDBLK
  5
417FB
330
417EE
100
AcDbEntity
  8
0
100
AcDbBlockEnd
  0
BLOCK
  5
417FD
330
417FC
100
AcDbEntity
  8
0
100
AcDbBlockBegin
  2
*D22
 70
     1
 10
0.0
 20
0.0
 30
0.0
  3
*D22
  1

  0
LINE
  5
417FE
330
417FC
100
AcDbEntity
  8
30
  6
Continuous
 62
     0
370
    -2
100
AcDbLine
 10
555.6262671911886
 20
328.4608186048818
 30
0.0
 11
558.8821350984915
 21
332.2554627476689
 31
0.0
  0
LINE
  5
417FF
330
417FC
100
AcDbEntity
  8
30
  6
Continuous
 62
     0
370
    -2
100
AcDbLine
 10
560.1844822614074
 20
333.7733204047778
 30
0.0
 11
580.2351070834887
 21
357.1418931499044
 31
0.0
  0
LINE
  5
41800
330
417FC
100
AcDbEntity
  8
30
  6
Continuous
 62
     0
370
    -2
100
AcDbLine
 10
580.2351070834887
 20
357.1418931499044
 30
0.0
 11
593.9017737501557
 21
357.1418931499044
 31
0.0
  0
INSERT
  5
41801
330
417FC
100
AcDbEntity
  8
30
  6
Continuous
 62
     0
370
    -2
100
AcDbBlockReference
  2
_OPEN
 10
554.3239200282725
 20
326.9429609477729
 30
0.0
 41
2.0
 42
2.0
 43
2.0
 50
229.3698565668199
  0
INSERT
  5
41802
330
417FC
100
AcDbEntity
  8
30
  6
Continuous
 62
     0
370
    -2
100
AcDbBlockReference
  2
_OPEN
 10
560.1844822614074
 20
333.7733204047778
 30
0.0
 41
2.0
 42
2.0
 43
2.0
 50
49.36985656681993
  0
MTEXT
  5
41803
330
417FC
100
AcDbEntity
  8
30
  6
Continuous
 62
     0
100
AcDbMText
 10
582.2351070834892
 20
366.1418931499043
 30
0.0
 40
7.0
 41
0.0
 46
0.0
 71
     1
 72
     1
  1
\A1;∅9
 73
     1
 44
1.0
  0
POINT
  5
41804
330
417FC
100
AcDbEntity
  8
DEFPOINTS
  6
Continuous
 62
     0
100
AcDbPoint
 10
560.1844822614074
 20
333.7733204047778
 30
0.0
  0
POINT
  5
41805
330
417FC
100
AcDbEntity
  8
DEFPOINTS
  6
Continuous
 62
     0
100
AcDbPoint
 10
554.3239200282725
 20
326.9429609477729
 30
0.0
  0
ENDBLK
  5
41806
330
417FC
100
AcDbEntity
  8
0
100
AcDbBlockEnd
  0
BLOCK
  5
41818
330
41807
100
AcDbEntity
  8
0
100
AcDbBlockBegin
  2
A$C0A6817A3
 70
     0
 10
0.0
 20
0.0
 30
0.0
  3
A$C0A6817A3
  1

  0
LWPOLYLINE
  5
41808
330
41807
100
AcDbEntity
  8
21
  6
Continuous
100
AcDbPolyline
 90
        9
 70
     0
 43
0.0
 10
66.3043851528588
 20
-9.054338642910352
 42
0.1741833253162364
 10
71.27671480999423
 20
-10.15564282847589
 10
98.37646419997737
 20
-10.15564282847577
 42
0.4066234828096736
 10
102.3450989555272
 20
-7.249938167952052
 42
-0.005507437695016
 10
102.2999994346
 20
0.0
 42
-0.0000085966299547
 10
102.2999994346
 20
7.460563744318562
 42
0.3706387499124084
 10
98.81953140418001
 20
10.00439658143807
 10
71.27234727598033
 20
10.00000247273056
 42
0.0287063150502541
 10
66.01392179357208
 20
9.076553181846692
  0
LWPOLYLINE
  5
41809
330
41807
100
AcDbEntity
  8
21
  6
Continuous
100
AcDbPolyline
 90
        4
 70
     1
 43
0.0
 10
48.29508620830846
 20
4.499997317800023
 42
0.9990558672444311
 10
48.29641145494633
 20
-4.499998569599995
 10
54.30358741425379
 20
-4.499998569599995
 42
0.9990558672444311
 10
54.30491266089166
 20
4.499997317800023
  0
CIRCLE
  5
4180A
330
41807
100
AcDbEntity
  8
21
  6
Continuous
100
AcDbCircle
 10
86.29999943460006
 20
-0.155642828475834
 30
0.0
 40
4.500000000000056
  0
DIMENSION
  5
4180B
330
41807
100
AcDbEntity
  8
30
  6
Continuous
100
AcDbDimension
280
     0
  2
*D21
 10
35.15222976606697
 20
-4.5
 30
0.0
 11
39.48556309940022
 21
17.8801781642
 31
0.0
 12
-470.4542009950379
 22
-330.3581406762754
 32
0.0
 70
   128
  1
<>
 71
     2
 42
9.0
 73
     0
 74
     0
 75
     0
  3
STANDARD1
100
AcDbAlignedDimension
 13
48.80000014980033
 23
4.5
 33
0.0
 14
48.80000014980033
 24
-4.5
 34
0.0
 50
90.0
100
AcDbRotatedDimension
  0
DIMENSION
  5
4180C
330
41807
100
AcDbEntity
  8
30
  6
Continuous
100
AcDbDimension
280
     0
  2
*D22
 10
83.86971903323468
 20
-3.415179728502491
 30
0.0
 11
117.6142394217846
 21
26.78375247362885
 31
0.0
 12
-470.4542009950379
 22
-330.3581406762754
 32
0.0
 70
   131
  1
<>
 71
     5
 42
9.000000000019326
 73
     0
 74
     0
 75
     0
  3
STANDARD1
100
AcDbDiametricDimension
 15
89.73028126636974
 25
3.415179728502379
 35
0.0
 40
0.0
  0
INSERT
  5
4180D
330
41807
100
AcDbEntity
  8
12
  6
DASHDOT
 62
     3
100
AcDbBlockReference
  2
SW_CENTERMARKSYMBOL_12
 10
86.28670154193967
 20
0.0
 30
0.0
 41
2.0
 42
2.0
 43
2.0
  0
INSERT
  5
4180E
330
41807
100
AcDbEntity
  8
12
  6
DASHDOT
 62
     3
100
AcDbBlockReference
  2
SW_CENTERMARKSYMBOL_13
 10
54.29999943460007
 20
0.0
 30
0.0
 41
2.0
 42
2.0
 43
2.0
  0
INSERT
  5
4180F
330
41807
100
AcDbEntity
  8
12
  6
DASHDOT
 62
     3
100
AcDbBlockReference
  2
SW_CENTERMARKSYMBOL_14
 10
48.29999943460006
 20
0.0
 30
0.0
 41
2.0
 42
2.0
 43
2.0
  0
LWPOLYLINE
  5
41810
330
41807
100
AcDbEntity
  8
21
  6
Continuous
100
AcDbPolyline
 90
        7
 70
     0
 43
0.0
 10
27.50000010957093
 20
-6.554132646903156
 42
-0.1342368021680328
 10
29.41630756740324
 20
-7.436687243342078
 10
31.13215070411934
 20
-8.876449574448828
 42
0.0983710564696539
 10
36.72416125876998
 20
-10.19187387648924
 10
64.22769387845301
 20
-10.1464213230405
 42
0.2729968395645681
 10
67.30331553258658
 20
-7.438333104059211
 42
0.0004573780307068
 10
67.29999943460007
 20
0.0
  0
LWPOLYLINE
  5
41811
330
41807
100
AcDbEntity
  8
21
  6
Continuous
100
AcDbPolyline
 90
        6
 70
     0
 43
0.0
 10
0.0
 20
10.16072866320002
 10
24.50011530900019
 20
9.946919351800032
 10
27.50000031660011
 20
9.670741230200064
 10
27.50000031660011
 20
-9.670738756599916
 10
24.50011530900019
 20
-9.946916878199942
 10
-4.499999864399796
 20
-10.19999819999992
  0
LWPOLYLINE
  5
41812
330
41807
100
AcDbEntity
  8
130
100
AcDbPolyline
 90
        5
 70
     0
 43
0.0
 10
-4.499999864399796
 20
-10.19999819999992
 10
-4.499999864399796
 20
-13.00000089399998
 10
-6.008726053412374
 20
-12.97366508617847
 42
-0.4091108014312847
 10
-6.49999985020031
 20
-12.47374123859998
 10
-6.49999985020031
 20
-10.20139406013692
  0
LWPOLYLINE
  5
41813
330
41807
100
AcDbEntity
  8
21
  6
Continuous
100
AcDbPolyline
 90
        3
 70
     0
 43
0.0
 10
-4.499999864399796
 20
-10.19999819999992
 10
60.56596074700019
 20
-10.12172931364273
 10
60.50000013779982
 20
-2.750006198800008
  0
LWPOLYLINE
  5
41814
330
41807
100
AcDbEntity
  8
21
  6
Continuous
100
AcDbPolyline
 90
        3
 70
     0
 43
0.0
 10
-4.199999850199673
 20
10.16072866320002
 10
60.50000013779982
 20
10.0
 10
60.50000013779982
 20
2.75000247426942
  0
LWPOLYLINE
  5
41815
330
41807
100
AcDbEntity
  8
21
  6
Continuous
100
AcDbPolyline
 90
        7
 70
     0
 43
0.0
 10
27.50000010957093
 20
6.554132646903156
 42
0.1342368021680328
 10
29.41630756740324
 20
7.436687243342078
 10
31.13215070411934
 20
8.876449574448828
 42
-0.1294760538322349
 10
36.69349676136107
 20
10.05914045539214
 10
63.37337589853678
 20
9.999996273930603
 42
-0.367383968845297
 10
67.20081411261936
 20
7.051874129335942
 42
-0.0124146491992315
 10
67.29999943460007
 20
0.0
  0
ENDBLK
  5
41819
330
41807
100
AcDbEntity
  8
0
100
AcDbBlockEnd
  0
BLOCK
  5
41F78
330
41F77
100
AcDbEntity
  8
0
100
AcDbBlockBegin
  2
*D24
 70
     1
 10
0.0
 20
0.0
 30
0.0
  3
*D24
  1

  0
LINE
  5
4207F
330
41F77
100
AcDbEntity
  8
30
  6
Continuous
 62
     0
370
    -2
100
AcDbLine
 10
404.7542004296379
 20
325.3581398418754
 30
0.0
 11
404.7542004296379
 21
301.1838314398437
 31
0.0
  0
LINE
  5
42080
330
41F77
100
AcDbEntity
  8
30
  6
Continuous
 62
     0
370
    -2
100
AcDbLine
 10
389.7234092247288
 20
331.6838314398438
 30
0.0
 11
389.7234092247288
 21
301.1838314398437
 31
0.0
  0
LINE
  5
42081
330
41F77
100
AcDbEntity
  8
30
370
    -2
100
AcDbLine
 10
401.7542004296378
 20
301.6838314398437
 30
0.0
 11
392.7234092247287
 21
301.6838314398437
 31
0.0
  0
MTEXT
  5
42082
330
41F77
100
AcDbEntity
  8
30
  6
Continuous
100
AcDbMText
 10
397.2388048271832
 20
311.6838314398437
 30
0.0
 40
7.0
 41
0.0
 46
0.0
 71
     2
 72
     1
  1
\A1;15
 73
     1
 44
1.0
 90
        3
 63
     9
421
 13158600
 45
1.25
441
        0
  0
INSERT
  5
42083
330
41F77
100
AcDbEntity
  8
30
  6
Continuous
370
    -2
100
AcDbBlockReference
  2
_OPEN
 10
404.7542004296379
 20
301.6838314398437
 30
0.0
 41
3.0
 42
3.0
 43
3.0
  0
INSERT
  5
42084
330
41F77
100
AcDbEntity
  8
30
  6
Continuous
370
    -2
100
AcDbBlockReference
  2
_OPEN
 10
389.7234092247288
 20
301.6838314398437
 30
0.0
 41
3.0
 42
3.0
 43
3.0
 50
180.0
  0
POINT
  5
42085
330
41F77
100
AcDbEntity
  8
DEFPOINTS
  6
Continuous
 62
     0
100
AcDbPoint
 10
404.7542004296379
 20
326.3581398418754
 30
0.0
  0
POINT
  5
42086
330
41F77
100
AcDbEntity
  8
DEFPOINTS
  6
Continuous
 62
     0
100
AcDbPoint
 10
389.7234092247288
 20
332.6838314398437
 30
0.0
  0
POINT
  5
42087
330
41F77
100
AcDbEntity
  8
DEFPOINTS
  6
Continuous
 62
     0
100
AcDbPoint
 10
389.7234092247288
 20
301.6838314398437
 30
0.0
  0
ENDBLK
  5
41F79
330
41F77
100
AcDbEntity
  8
0
100
AcDbBlockEnd
  0
BLOCK
  5
41F84
330
41F83
100
AcDbEntity
  8
0
100
AcDbBlockBegin
  2
*D25
 70
     1
 10
0.0
 20
0.0
 30
0.0
  3
*D25
  1

  0
LINE
  5
42088
330
41F83
100
AcDbEntity
  8
30
  6
Continuous
 62
     0
370
    -2
100
AcDbLine
 10
568.9641382044809
 20
497.3581406762754
 30
0.0
 11
581.756901037238
 21
497.3581406762754
 31
0.0
  0
LINE
  5
42089
330
41F83
100
AcDbEntity
  8
30
  6
Continuous
 62
     0
370
    -2
100
AcDbLine
 10
569.2197388167551
 20
491.3581406762753
 30
0.0
 11
581.756901037238
 21
491.3581406762753
 31
0.0
  0
LINE
  5
4208A
330
41F83
100
AcDbEntity
  8
30
370
    -2
100
AcDbLine
 10
581.2569010372381
 20
500.3581406762754
 30
0.0
 11
581.2569010372381
 21
503.3581406762754
 31
0.0
  0
LINE
  5
4208B
330
41F83
100
AcDbEntity
  8
30
370
    -2
100
AcDbLine
 10
581.2569010372381
 20
488.3581406762754
 30
0.0
 11
581.2569010372381
 21
485.3581406762754
 31
0.0
  0
LINE
  5
4208C
330
41F83
100
AcDbEntity
  8
30
370
    -2
100
AcDbLine
 10
581.2569010372381
 20
514.0248073429424
 30
0.0
 11
581.2569010372381
 21
497.3581406762754
 31
0.0
  0
MTEXT
  5
4208D
330
41F83
100
AcDbEntity
  8
30
  6
Continuous
100
AcDbMText
 10
571.2569010372377
 20
508.6914740096093
 30
0.0
 40
7.0
 41
0.0
 46
0.0
 71
     2
 72
     1
  1
\A1;6
 11
0.0000000000000001
 21
1.0
 31
0.0
 73
     1
 44
1.0
 90
        3
 63
     9
421
 13158600
 45
1.25
441
        0
  0
LINE
  5
4208E
330
41F83
100
AcDbEntity
  8
30
370
    -2
100
AcDbLine
 10
581.2569010372381
 20
497.3581406762754
 30
0.0
 11
581.2569010372381
 21
491.3581406762753
 31
0.0
  0
INSERT
  5
4208F
330
41F83
100
AcDbEntity
  8
30
  6
Continuous
370
    -2
100
AcDbBlockReference
  2
_OPEN
 10
581.2569010372381
 20
497.3581406762754
 30
0.0
 41
3.0
 42
3.0
 43
3.0
 50
270.0
  0
INSERT
  5
42090
330
41F83
100
AcDbEntity
  8
30
  6
Continuous
370
    -2
100
AcDbBlockReference
  2
_OPEN
 10
581.2569010372381
 20
491.3581406762753
 30
0.0
 41
3.0
 42
3.0
 43
3.0
 50
90.0
  0
POINT
  5
42091
330
41F83
100
AcDbEntity
  8
DEFPOINTS
  6
Continuous
 62
     0
100
AcDbPoint
 10
567.9641382044811
 20
497.3581406762754
 30
0.0
  0
POINT
  5
42092
330
41F83
100
AcDbEntity
  8
DEFPOINTS
  6
Continuous
 62
     0
100
AcDbPoint
 10
568.219738816755
 20
491.3581406762753
 30
0.0
  0
POINT
  5
42093
330
41F83
100
AcDbEntity
  8
DEFPOINTS
  6
Continuous
 62
     0
100
AcDbPoint
 10
581.2569010372381
 20
491.3581406762753
 30
0.0
  0
ENDBLK
  5
41F85
330
41F83
100
AcDbEntity
  8
0
100
AcDbBlockEnd
  0
BLOCK
  5
41F93
330
41F92
100
AcDbEntity
  8
0
100
AcDbBlockBegin
  2
*D26
 70
     1
 10
0.0
 20
0.0
 30
0.0
  3
*D26
  1

  0
LINE
  5
42094
330
41F92
100
AcDbEntity
  8
30
  6
Continuous
 62
     0
370
    -2
100
AcDbLine
 10
574.1405547126378
 20
494.3581406762754
 30
0.0
 11
591.7569010372382
 21
494.3581406762754
 31
0.0
  0
LINE
  5
42095
330
41F92
100
AcDbEntity
  8
30
  6
Continuous
 62
     0
370
    -2
100
AcDbLine
 10
574.1689630056379
 20
350.3581406762754
 30
0.0
 11
591.7569010372382
 21
350.3581406762754
 31
0.0
  0
LINE
  5
42096
330
41F92
100
AcDbEntity
  8
30
370
    -2
100
AcDbLine
 10
591.2569010372378
 20
491.3581406762753
 30
0.0
 11
591.2569010372378
 21
353.3581406762754
 31
0.0
  0
MTEXT
  5
42097
330
41F92
100
AcDbEntity
  8
30
  6
Continuous
100
AcDbMText
 10
581.2569010372381
 20
422.3581406762754
 30
0.0
 40
7.0
 41
0.0
 46
0.0
 71
     2
 72
     1
  1
\A1;144
 11
0.0000000000000001
 21
1.0
 31
0.0
 73
     1
 44
1.0
 90
        3
 63
     9
421
 13158600
 45
1.25
441
        0
  0
INSERT
  5
42098
330
41F92
100
AcDbEntity
  8
30
  6
Continuous
370
    -2
100
AcDbBlockReference
  2
_OPEN
 10
591.2569010372378
 20
494.3581406762754
 30
0.0
 41
3.0
 42
3.0
 43
3.0
 50
90.0
  0
INSERT
  5
42099
330
41F92
100
AcDbEntity
  8
30
  6
Continuous
370
    -2
100
AcDbBlockReference
  2
_OPEN
 10
591.2569010372378
 20
350.3581406762754
 30
0.0
 41
3.0
 42
3.0
 43
3.0
 50
270.0
  0
POINT
  5
4209A
330
41F92
100
AcDbEntity
  8
DEFPOINTS
  6
Continuous
 62
     0
100
AcDbPoint
 10
573.1405547126378
 20
494.3581406762754
 30
0.0
  0
POINT
  5
4209B
330
41F92
100
AcDbEntity
  8
DEFPOINTS
  6
Continuous
 62
     0
100
AcDbPoint
 10
573.1689630056377
 20
350.3581406762754
 30
0.0
  0
POINT
  5
4209C
330
41F92
100
AcDbEntity
  8
DEFPOINTS
  6
Continuous
 62
     0
100
AcDbPoint
 10
591.2569010372378
 20
350.3581406762754
 30
0.0
  0
ENDBLK
  5
41F94
330
41F92
100
AcDbEntity
  8
0
100
AcDbBlockEnd
  0
BLOCK
  5
41F9F
330
41F9E
100
AcDbEntity
  8
0
100
AcDbBlockBegin
  2
*D27
 70
     1
 10
0.0
 20
0.0
 30
0.0
  3
*D27
  1

  0
LINE
  5
4209D
330
41F9E
100
AcDbEntity
  8
30
  6
Continuous
 62
     0
370
    -2
100
AcDbLine
 10
550.7542004296379
 20
340.2024978477996
 30
0.0
 11
550.7542004296379
 21
310.911023889335
 31
0.0
  0
LINE
  5
4209E
330
41F9E
100
AcDbEntity
  8
30
  6
Continuous
 62
     0
370
    -2
100
AcDbLine
 10
566.7542004296377
 20
347.2024978477997
 30
0.0
 11
566.7542004296377
 21
310.911023889335
 31
0.0
  0
LINE
  5
4209F
330
41F9E
100
AcDbEntity
  8
30
  6
Continuous
 62
     0
370
    -2
100
AcDbLine
 10
552.7542004296378
 20
311.411023889335
 30
0.0
 11
564.7542004296377
 21
311.411023889335
 31
0.0
  0
INSERT
  5
420A0
330
41F9E
100
AcDbEntity
  8
30
  6
Continuous
 62
     0
370
    -2
100
AcDbBlockReference
  2
_OPEN
 10
550.7542004296379
 20
311.411023889335
 30
0.0
 41
2.0
 42
2.0
 43
2.0
 50
180.0
  0
INSERT
  5
420A1
330
41F9E
100
AcDbEntity
  8
30
  6
Continuous
 62
     0
370
    -2
100
AcDbBlockReference
  2
_OPEN
 10
566.7542004296377
 20
311.411023889335
 30
0.0
 41
2.0
 42
2.0
 43
2.0
  0
MTEXT
  5
420A2
330
41F9E
100
AcDbEntity
  8
30
  6
Continuous
 62
     0
100
AcDbMText
 10
558.7542004296379
 20
320.411023889335
 30
0.0
 40
7.0
 41
0.0
 46
0.0
 71
     2
 72
     1
  1
\A1;16
 73
     1
 44
1.0
  0
POINT
  5
420A3
330
41F9E
100
AcDbEntity
  8
DEFPOINTS
  6
Continuous
 62
     0
100
AcDbPoint
 10
550.7542004296379
 20
343.2024978477997
 30
0.0
  0
POINT
  5
420A4
330
41F9E
100
AcDbEntity
  8
DEFPOINTS
  6
Continuous
 62
     0
100
AcDbPoint
 10
566.7542004296377
 20
350.2024978477996
 30
0.0
  0
POINT
  5
420A5
330
41F9E
100
AcDbEntity
  8
DEFPOINTS
  6
Continuous
 62
     0
100
AcDbPoint
 10
566.7542004296377
 20
311.411023889335
 30
0.0
  0
ENDBLK
  5
41FA0
330
41F9E
100
AcDbEntity
  8
0
100
AcDbBlockEnd
  0
BLOCK
  5
41FAB
330
41FAA
100
AcDbEntity
  8
0
100
AcDbBlockBegin
  2
*D28
 70
     1
 10
0.0
 20
0.0
 30
0.0
  3
*D28
  1

  0
LINE
  5
420A6
330
41FAA
100
AcDbEntity
  8
30
  6
Continuous
 62
     0
370
    -2
100
AcDbLine
 10
515.7542004296378
 20
342.8581421066754
 30
0.0
 11
515.7542004296378
 21
310.8581406762754
 31
0.0
  0
LINE
  5
420A7
330
41FAA
100
AcDbEntity
  8
30
  6
Continuous
 62
     0
370
    -2
100
AcDbLine
 10
531.7542004296378
 20
347.3581406762754
 30
0.0
 11
531.7542004296378
 21
310.8581406762754
 31
0.0
  0
LINE
  5
420A8
330
41FAA
100
AcDbEntity
  8
30
  6
Continuous
 62
     0
370
    -2
100
AcDbLine
 10
517.7542004296379
 20
311.3581406762754
 30
0.0
 11
529.7542004296379
 21
311.3581406762754
 31
0.0
  0
INSERT
  5
420A9
330
41FAA
100
AcDbEntity
  8
30
  6
Continuous
 62
     0
370
    -2
100
AcDbBlockReference
  2
_OPEN
 10
515.7542004296378
 20
311.3581406762754
 30
0.0
 41
2.0
 42
2.0
 43
2.0
 50
180.0
  0
INSERT
  5
420AA
330
41FAA
100
AcDbEntity
  8
30
  6
Continuous
 62
     0
370
    -2
100
AcDbBlockReference
  2
_OPEN
 10
531.7542004296378
 20
311.3581406762754
 30
0.0
 41
2.0
 42
2.0
 43
2.0
  0
MTEXT
  5
420AB
330
41FAA
100
AcDbEntity
  8
30
  6
Continuous
 62
     0
100
AcDbMText
 10
523.5042004296379
 20
320.3581406762753
 30
0.0
 40
7.0
 41
0.0
 46
0.0
 71
     2
 72
     1
  1
\A1;16
 73
     1
 44
1.0
  0
POINT
  5
420AC
330
41FAA
100
AcDbEntity
  8
DEFPOINTS
  6
Continuous
 62
     0
100
AcDbPoint
 10
515.7542004296378
 20
345.8581421066754
 30
0.0
  0
POINT
  5
420AD
330
41FAA
100
AcDbEntity
  8
DEFPOINTS
  6
Continuous
 62
     0
100
AcDbPoint
 10
531.7542004296378
 20
350.3581406762754
 30
0.0
  0
POINT
  5
420AE
330
41FAA
100
AcDbEntity
  8
DEFPOINTS
  6
Continuous
 62
     0
100
AcDbPoint
 10
531.7542004296378
 20
311.3581406762754
 30
0.0
  0
ENDBLK
  5
41FAC
330
41FAA
100
AcDbEntity
  8
0
100
AcDbBlockEnd
  0
BLOCK
  5
41FB7
330
41FB6
100
AcDbEntity
  8
0
100
AcDbBlockBegin
  2
*D29
 70
     1
 10
0.0
 20
0.0
 30
0.0
  3
*D29
  1

  0
LINE
  5
42104
330
41FB6
100
AcDbEntity
  8
30
  6
Continuous
 62
     0
370
    -2
100
AcDbLine
 10
512.2542011448381
 20
354.8581406762754
 30
0.0
 11
501.838092019831
 21
354.8581406762754
 31
0.0
  0
LINE
  5
42105
330
41FB6
100
AcDbEntity
  8
30
  6
Continuous
 62
     0
370
    -2
100
AcDbLine
 10
512.2542011448381
 20
345.8581406762754
 30
0.0
 11
501.838092019831
 21
345.8581406762754
 31
0.0
  0
LINE
  5
42106
330
41FB6
100
AcDbEntity
  8
30
370
    -2
100
AcDbLine
 10
502.3380920198309
 20
357.8581406762754
 30
0.0
 11
502.3380920198309
 21
360.8581406762754
 31
0.0
  0
LINE
  5
42107
330
41FB6
100
AcDbEntity
  8
30
370
    -2
100
AcDbLine
 10
502.3380920198309
 20
342.8581406762754
 30
0.0
 11
502.3380920198309
 21
339.8581406762754
 31
0.0
  0
LINE
  5
42108
330
41FB6
100
AcDbEntity
  8
30
370
    -2
100
AcDbLine
 10
502.3380920198309
 20
373.5716521738087
 30
0.0
 11
502.3380920198309
 21
354.8581406762754
 31
0.0
  0
MTEXT
  5
42109
330
41FB6
100
AcDbEntity
  8
30
  6
Continuous
100
AcDbMText
 10
492.338092019831
 20
368.2383188404754
 30
0.0
 40
7.0
 41
0.0
 46
0.0
 71
     2
 72
     1
  1
\A1;9
 11
0.0000000000000001
 21
1.0
 31
0.0
 73
     1
 44
1.0
 90
        3
 63
     9
421
 13158600
 45
1.25
441
        0
  0
LINE
  5
4210A
330
41FB6
100
AcDbEntity
  8
30
370
    -2
100
AcDbLine
 10
502.3380920198309
 20
354.8581406762754
 30
0.0
 11
502.3380920198309
 21
345.8581406762754
 31
0.0
  0
INSERT
  5
4210B
330
41FB6
100
AcDbEntity
  8
30
  6
Continuous
370
    -2
100
AcDbBlockReference
  2
_OPEN
 10
502.3380920198309
 20
354.8581406762754
 30
0.0
 41
3.0
 42
3.0
 43
3.0
 50
270.0
  0
INSERT
  5
4210C
330
41FB6
100
AcDbEntity
  8
30
  6
Continuous
370
    -2
100
AcDbBlockReference
  2
_OPEN
 10
502.3380920198309
 20
345.8581406762754
 30
0.0
 41
3.0
 42
3.0
 43
3.0
 50
90.0
  0
POINT
  5
4210D
330
41FB6
100
AcDbEntity
  8
DEFPOINTS
  6
Continuous
 62
     0
100
AcDbPoint
 10
513.2542011448381
 20
354.8581406762754
 30
0.0
  0
POINT
  5
4210E
330
41FB6
100
AcDbEntity
  8
DEFPOINTS
  6
Continuous
 62
     0
100
AcDbPoint
 10
513.2542011448381
 20
345.8581406762754
 30
0.0
  0
POINT
  5
4210F
330
41FB6
100
AcDbEntity
  8
DEFPOINTS
  6
Continuous
 62
     0
100
AcDbPoint
 10
502.3380920198309
 20
345.8581406762754
 30
0.0
  0
ENDBLK
  5
41FB8
330
41FB6
100
AcDbEntity
  8
0
100
AcDbBlockEnd
  0
BLOCK
  5
41FC6
330
41FC5
100
AcDbEntity
  8
0
100
AcDbBlockBegin
  2
*D30
 70
     1
 10
0.0
 20
0.0
 30
0.0
  3
*D30
  1

  0
LINE
  5
420BB
330
41FC5
100
AcDbEntity
  8
30
  6
Continuous
 62
     0
370
    -2
100
AcDbLine
 10
550.6851926929985
 20
347.9237558706659
 30
0.0
 11
551.8232095966802
 21
352.7925254818847
 31
0.0
  0
LINE
  5
420BC
330
41FC5
100
AcDbEntity
  8
30
  6
Continuous
 62
     0
370
    -2
100
AcDbLine
 10
552.2784163581515
 20
354.7400333263646
 30
0.0
 11
557.5145842586326
 21
377.1418931499042
 31
0.0
  0
LINE
  5
420BD
330
41FC5
100
AcDbEntity
  8
30
  6
Continuous
 62
     0
370
    -2
100
AcDbLine
 10
557.5145842586326
 20
377.1418931499042
 30
0.0
 11
571.1812509252994
 21
377.1418931499043
 31
0.0
  0
INSERT
  5
420BE
330
41FC5
100
AcDbEntity
  8
30
  6
Continuous
 62
     0
370
    -2
100
AcDbBlockReference
  2
_OPEN
 10
550.2299859315273
 20
345.9762480261862
 30
0.0
 41
2.0
 42
2.0
 43
2.0
 50
256.843986301438
  0
INSERT
  5
420BF
330
41FC5
100
AcDbEntity
  8
30
  6
Continuous
 62
     0
370
    -2
100
AcDbBlockReference
  2
_OPEN
 10
552.2784163581515
 20
354.7400333263646
 30
0.0
 41
2.0
 42
2.0
 43
2.0
 50
76.84398630143802
  0
MTEXT
  5
420C0
330
41FC5
100
AcDbEntity
  8
30
  6
Continuous
 62
     0
100
AcDbMText
 10
559.5145842586328
 20
386.1418931499043
 30
0.0
 40
7.0
 41
0.0
 46
0.0
 71
     1
 72
     1
  1
\A1;∅9
 73
     1
 44
1.0
  0
POINT
  5
420C1
330
41FC5
100
AcDbEntity
  8
DEFPOINTS
  6
Continuous
 62
     0
100
AcDbPoint
 10
552.2784163581515
 20
354.7400333263646
 30
0.0
  0
POINT
  5
420C2
330
41FC5
100
AcDbEntity
  8
DEFPOINTS
  6
Continuous
 62
     0
100
AcDbPoint
 10
550.2299859315273
 20
345.9762480261862
 30
0.0
  0
ENDBLK
  5
41FC7
330
41FC5
100
AcDbEntity
  8
0
100
AcDbBlockEnd
  0
BLOCK
  5
41FD1
330
41FD0
100
AcDbEntity
  8
0
100
AcDbBlockBegin
  2
*D31
 70
     1
 10
0.0
 20
0.0
 30
0.0
  3
*D31
  1

  0
LINE
  5
420C3
330
41FD0
100
AcDbEntity
  8
30
  6
Continuous
 62
     0
370
    -2
100
AcDbLine
 10
563.8337534941029
 20
360.358143149006
 30
0.0
 11
581.2569003220377
 21
360.358143149006
 31
0.0
  0
LINE
  5
420C4
330
41FD0
100
AcDbEntity
  8
30
  6
Continuous
 62
     0
370
    -2
100
AcDbLine
 10
565.4663522490877
 20
340.3581406762754
 30
0.0
 11
581.2569003220377
 21
340.3581406762754
 31
0.0
  0
LINE
  5
420C5
330
41FD0
100
AcDbEntity
  8
30
370
    -2
100
AcDbLine
 10
580.7569003220377
 20
357.358143149006
 30
0.0
 11
580.7569003220377
 21
343.3581406762753
 31
0.0
  0
LINE
  5
420C6
330
41FD0
100
AcDbEntity
  8
30
370
    -2
100
AcDbLine
 10
580.7569003220377
 20
315.8801883526571
 30
0.0
 11
580.7569003220377
 21
340.3581406762754
 31
0.0
  0
MTEXT
  5
420C7
330
41FD0
100
AcDbEntity
  8
30
  6
Continuous
100
AcDbMText
 10
570.7569003220377
 20
324.1301883526572
 30
0.0
 40
7.0
 41
0.0
 46
0.0
 71
     2
 72
     1
  1
\A1;20
 11
0.0000000000000001
 21
1.0
 31
0.0
 73
     1
 44
1.0
 90
        3
 63
     9
421
 13158600
 45
1.25
441
        0
  0
INSERT
  5
420C8
330
41FD0
100
AcDbEntity
  8
30
  6
Continuous
370
    -2
100
AcDbBlockReference
  2
_OPEN
 10
580.7569003220377
 20
360.358143149006
 30
0.0
 41
3.0
 42
3.0
 43
3.0
 50
90.0
  0
INSERT
  5
420C9
330
41FD0
100
AcDbEntity
  8
30
  6
Continuous
370
    -2
100
AcDbBlockReference
  2
_OPEN
 10
580.7569003220377
 20
340.3581406762754
 30
0.0
 41
3.0
 42
3.0
 43
3.0
 50
270.0
  0
POINT
  5
420CA
330
41FD0
100
AcDbEntity
  8
DEFPOINTS
  6
Continuous
 62
     0
100
AcDbPoint
 10
562.8337534941029
 20
360.358143149006
 30
0.0
  0
POINT
  5
420CB
330
41FD0
100
AcDbEntity
  8
DEFPOINTS
  6
Continuous
 62
     0
100
AcDbPoint
 10
564.4663522490877
 20
340.3581406762754
 30
0.0
  0
POINT
  5
420CC
330
41FD0
100
AcDbEntity
  8
DEFPOINTS
  6
Continuous
 62
     0
100
AcDbPoint
 10
580.7569003220377
 20
340.3581406762754
 30
0.0
  0
ENDBLK
  5
41FD2
330
41FD0
100
AcDbEntity
  8
0
100
AcDbBlockEnd
  0
BLOCK
  5
41FDE
330
41FDD
100
AcDbEntity
  8
0
100
AcDbBlockBegin
  2
*D32
 70
     1
 10
0.0
 20
0.0
 30
0.0
  3
*D32
  1

  0
LINE
  5
420CD
330
41FDD
100
AcDbEntity
  8
30
 62
     0
370
    -2
100
AcDbLine
 10
404.7542004296379
 20
325.3581398418754
 30
0.0
 11
404.7542004296379
 21
281.2483334681001
 31
0.0
  0
LINE
  5
420CE
330
41FDD
100
AcDbEntity
  8
30
 62
     0
370
    -2
100
AcDbLine
 10
364.2542004296379
 20
419.3581424627558
 30
0.0
 11
364.2542004296379
 21
281.2483334681001
 31
0.0
  0
LINE
  5
420CF
330
41FDD
100
AcDbEntity
  8
30
370
    -2
100
AcDbLine
 10
401.7542004296378
 20
281.7483334681002
 30
0.0
 11
367.2542004296379
 21
281.7483334681002
 31
0.0
  0
INSERT
  5
420D0
330
41FDD
100
AcDbEntity
  8
30
370
    -2
100
AcDbBlockReference
  2
_OPEN
 10
404.7542004296379
 20
281.7483334681002
 30
0.0
 41
3.0
 42
3.0
 43
3.0
  0
INSERT
  5
420D1
330
41FDD
100
AcDbEntity
  8
30
370
    -2
100
AcDbBlockReference
  2
_OPEN
 10
364.2542004296379
 20
281.7483334681002
 30
0.0
 41
3.0
 42
3.0
 43
3.0
 50
180.0
  0
MTEXT
  5
420D2
330
41FDD
100
AcDbEntity
  8
30
100
AcDbMText
 10
384.5042004296379
 20
288.2483334681002
 30
0.0
 40
7.0
 41
0.0
 46
0.0
 71
     5
 72
     1
  1
\A1;40.5
 73
     1
 44
1.0
 90
        3
 63
     9
421
 13158600
 45
1.25
441
        0
  0
POINT
  5
420D3
330
41FDD
100
AcDbEntity
  8
DEFPOINTS
 62
     0
100
AcDbPoint
 10
404.7542004296379
 20
326.3581398418754
 30
0.0
  0
POINT
  5
420D4
330
41FDD
100
AcDbEntity
  8
DEFPOINTS
 62
     0
100
AcDbPoint
 10
364.2542004296379
 20
420.3581424627558
 30
0.0
  0
POINT
  5
420D5
330
41FDD
100
AcDbEntity
  8
DEFPOINTS
 62
     0
100
AcDbPoint
 10
364.2542004296379
 20
281.7483334681002
 30
0.0
  0
ENDBLK
  5
41FDF
330
41FDD
100
AcDbEntity
  8
0
100
AcDbBlockEnd
  0
BLOCK
  5
41FEA
330
41FE9
100
AcDbEntity
  8
0
100
AcDbBlockBegin
  2
*D33
 70
     1
 10
0.0
 20
0.0
 30
0.0
  3
*D33
  1

  0
LINE
  5
420D6
330
41FE9
100
AcDbEntity
  8
30
 62
     0
370
    -2
100
AcDbLine
 10
404.7542004296379
 20
325.3581398418754
 30
0.0
 11
404.7542004296379
 21
301.2024978477996
 31
0.0
  0
LINE
  5
420D7
330
41FE9
100
AcDbEntity
  8
30
 62
     0
370
    -2
100
AcDbLine
 10
531.7542004296378
 20
328.1081406762754
 30
0.0
 11
531.7542004296378
 21
301.2024978477996
 31
0.0
  0
LINE
  5
420D8
330
41FE9
100
AcDbEntity
  8
30
370
    -2
100
AcDbLine
 10
407.7542004296378
 20
301.7024978477996
 30
0.0
 11
528.7542004296378
 21
301.7024978477996
 31
0.0
  0
INSERT
  5
420D9
330
41FE9
100
AcDbEntity
  8
30
370
    -2
100
AcDbBlockReference
  2
_OPEN
 10
404.7542004296379
 20
301.7024978477996
 30
0.0
 41
3.0
 42
3.0
 43
3.0
 50
180.0
  0
INSERT
  5
420DA
330
41FE9
100
AcDbEntity
  8
30
370
    -2
100
AcDbBlockReference
  2
_OPEN
 10
531.7542004296378
 20
301.7024978477996
 30
0.0
 41
3.0
 42
3.0
 43
3.0
  0
MTEXT
  5
420DB
330
41FE9
100
AcDbEntity
  8
30
100
AcDbMText
 10
468.2542004296379
 20
308.2024978477996
 30
0.0
 40
7.0
 41
0.0
 46
0.0
 71
     5
 72
     1
  1
\A1;127
 73
     1
 44
1.0
 90
        3
 63
     9
421
 13158600
 45
1.25
441
        0
  0
POINT
  5
420DC
330
41FE9
100
AcDbEntity
  8
DEFPOINTS
 62
     0
100
AcDbPoint
 10
404.7542004296379
 20
326.3581398418754
 30
0.0
  0
POINT
  5
420DD
330
41FE9
100
AcDbEntity
  8
DEFPOINTS
 62
     0
100
AcDbPoint
 10
531.7542004296378
 20
329.1081406762753
 30
0.0
  0
POINT
  5
420DE
330
41FE9
100
AcDbEntity
  8
DEFPOINTS
 62
     0
100
AcDbPoint
 10
531.7542004296378
 20
301.7024978477996
 30
0.0
  0
ENDBLK
  5
41FEB
330
41FE9
100
AcDbEntity
  8
0
100
AcDbBlockEnd
  0
BLOCK
  5
41FF6
330
41FF5
100
AcDbEntity
  8
0
100
AcDbBlockBegin
  2
*D34
 70
     1
 10
0.0
 20
0.0
 30
0.0
  3
*D34
  1

  0
LINE
  5
420DF
330
41FF5
100
AcDbEntity
  8
30
 62
     0
370
    -2
100
AcDbLine
 10
404.7542004296379
 20
300.7024978477996
 30
0.0
 11
404.7542004296379
 21
281.2483334681001
 31
0.0
  0
LINE
  5
420E0
330
41FF5
100
AcDbEntity
  8
30
 62
     0
370
    -2
100
AcDbLine
 10
566.7542004296377
 20
310.4110238893349
 30
0.0
 11
566.7542004296377
 21
281.2483334681001
 31
0.0
  0
LINE
  5
420E1
330
41FF5
100
AcDbEntity
  8
30
370
    -2
100
AcDbLine
 10
407.7542004296378
 20
281.7483334681002
 30
0.0
 11
563.7542004296379
 21
281.7483334681002
 31
0.0
  0
INSERT
  5
420E2
330
41FF5
100
AcDbEntity
  8
30
370
    -2
100
AcDbBlockReference
  2
_OPEN
 10
404.7542004296379
 20
281.7483334681002
 30
0.0
 41
3.0
 42
3.0
 43
3.0
 50
180.0
  0
INSERT
  5
420E3
330
41FF5
100
AcDbEntity
  8
30
370
    -2
100
AcDbBlockReference
  2
_OPEN
 10
566.7542004296377
 20
281.7483334681002
 30
0.0
 41
3.0
 42
3.0
 43
3.0
  0
MTEXT
  5
420E4
330
41FF5
100
AcDbEntity
  8
30
100
AcDbMText
 10
485.7542004296377
 20
288.2483334681002
 30
0.0
 40
7.0
 41
0.0
 46
0.0
 71
     5
 72
     1
  1
\A1;162
 73
     1
 44
1.0
 90
        3
 63
     9
421
 13158600
 45
1.25
441
        0
  0
POINT
  5
420E5
330
41FF5
100
AcDbEntity
  8
DEFPOINTS
 62
     0
100
AcDbPoint
 10
404.7542004296379
 20
301.7024978477996
 30
0.0
  0
POINT
  5
420E6
330
41FF5
100
AcDbEntity
  8
DEFPOINTS
 62
     0
100
AcDbPoint
 10
566.7542004296377
 20
311.411023889335
 30
0.0
  0
POINT
  5
420E7
330
41FF5
100
AcDbEntity
  8
DEFPOINTS
 62
     0
100
AcDbPoint
 10
566.7542004296377
 20
281.7483334681002
 30
0.0
  0
ENDBLK
  5
41FF7
330
41FF5
100
AcDbEntity
  8
0
100
AcDbBlockEnd
  0
BLOCK
  5
42002
330
42001
100
AcDbEntity
  8
0
100
AcDbBlockBegin
  2
*D35
 70
     1
 10
0.0
 20
0.0
 30
0.0
  3
*D35
  1

  0
LINE
  5
420E8
330
42001
100
AcDbEntity
  8
30
 62
     0
370
    -2
100
AcDbLine
 10
508.2542004296382
 20
351.3581406762754
 30
0.0
 11
508.2542004296382
 21
374.7987860022814
 31
0.0
  0
LINE
  5
420E9
330
42001
100
AcDbEntity
  8
30
 62
     0
370
    -2
100
AcDbLine
 10
523.2542004296374
 20
351.3581406762754
 30
0.0
 11
523.2542004296374
 21
374.7987860022814
 31
0.0
  0
LINE
  5
420EA
330
42001
100
AcDbEntity
  8
30
370
    -2
100
AcDbLine
 10
511.2542004296383
 20
374.2987860022814
 30
0.0
 11
520.2542004296374
 21
374.2987860022814
 31
0.0
  0
MTEXT
  5
420EB
330
42001
100
AcDbEntity
  8
30
100
AcDbMText
 10
515.7542004296378
 20
380.7987860022814
 30
0.0
 40
7.0
 41
0.0
 46
0.0
 71
     5
 72
     1
  1
\A1;15
 73
     1
 44
1.0
 90
        3
 63
     9
421
 13158600
 45
1.25
441
        0
  0
INSERT
  5
420EC
330
42001
100
AcDbEntity
  8
30
370
    -2
100
AcDbBlockReference
  2
_OPEN
 10
508.2542004296382
 20
374.2987860022814
 30
0.0
 41
3.0
 42
3.0
 43
3.0
 50
180.0
  0
INSERT
  5
420ED
330
42001
100
AcDbEntity
  8
30
370
    -2
100
AcDbBlockReference
  2
_OPEN
 10
523.2542004296374
 20
374.2987860022814
 30
0.0
 41
3.0
 42
3.0
 43
3.0
  0
POINT
  5
420EE
330
42001
100
AcDbEntity
  8
DEFPOINTS
 62
     0
100
AcDbPoint
 10
508.2542004296382
 20
350.3581406762754
 30
0.0
  0
POINT
  5
420EF
330
42001
100
AcDbEntity
  8
DEFPOINTS
 62
     0
100
AcDbPoint
 10
523.2542004296374
 20
350.3581406762754
 30
0.0
  0
POINT
  5
420F0
330
42001
100
AcDbEntity
  8
DEFPOINTS
 62
     0
100
AcDbPoint
 10
523.2542004296374
 20
374.2987860022814
 30
0.0
  0
ENDBLK
  5
42003
330
42001
100
AcDbEntity
  8
0
100
AcDbBlockEnd
  0
BLOCK
  5
4215D
330
4215C
100
AcDbEntity
  8
0
100
AcDbBlockBegin
  2
*D36
 70
     1
 10
0.0
 20
0.0
 30
0.0
  3
*D36
  1

  0
LINE
  5
4215E
330
4215C
100
AcDbEntity
  8
30
  6
Continuous
 62
     0
370
    -2
100
AcDbLine
 10
410.7542004296377
 20
325.3581398418754
 30
0.0
 11
410.7542004296377
 21
301.1838314398437
 31
0.0
  0
LINE
  5
4215F
330
4215C
100
AcDbEntity
  8
30
  6
Continuous
 62
     0
370
    -2
100
AcDbLine
 10
395.7234092247288
 20
331.6838314398438
 30
0.0
 11
395.7234092247288
 21
301.1838314398437
 31
0.0
  0
LINE
  5
42160
330
4215C
100
AcDbEntity
  8
30
370
    -2
100
AcDbLine
 10
407.7542004296378
 20
301.6838314398437
 30
0.0
 11
398.7234092247287
 21
301.6838314398437
 31
0.0
  0
MTEXT
  5
42161
330
4215C
100
AcDbEntity
  8
30
  6
Continuous
100
AcDbMText
 10
403.2388048271831
 20
311.6838314398437
 30
0.0
 40
7.0
 41
0.0
 46
0.0
 71
     2
 72
     1
  1
\A1;15
 73
     1
 44
1.0
 90
        3
 63
     9
421
 13158600
 45
1.25
441
        0
  0
INSERT
  5
42162
330
4215C
100
AcDbEntity
  8
30
  6
Continuous
370
    -2
100
AcDbBlockReference
  2
_OPEN
 10
410.7542004296377
 20
301.6838314398437
 30
0.0
 41
3.0
 42
3.0
 43
3.0
  0
INSERT
  5
42163
330
4215C
100
AcDbEntity
  8
30
  6
Continuous
370
    -2
100
AcDbBlockReference
  2
_OPEN
 10
395.7234092247288
 20
301.6838314398437
 30
0.0
 41
3.0
 42
3.0
 43
3.0
 50
180.0
  0
POINT
  5
42164
330
4215C
100
AcDbEntity
  8
DEFPOINTS
  6
Continuous
 62
     0
100
AcDbPoint
 10
410.7542004296377
 20
326.3581398418754
 30
0.0
  0
POINT
  5
42165
330
4215C
100
AcDbEntity
  8
DEFPOINTS
  6
Continuous
 62
     0
100
AcDbPoint
 10
395.7234092247288
 20
332.6838314398437
 30
0.0
  0
POINT
  5
42166
330
4215C
100
AcDbEntity
  8
DEFPOINTS
  6
Continuous
 62
     0
100
AcDbPoint
 10
395.7234092247288
 20
301.6838314398437
 30
0.0
  0
ENDBLK
  5
42167
330
4215C
100
AcDbEntity
  8
0
100
AcDbBlockEnd
  0
BLOCK
  5
42169
330
42168
100
AcDbEntity
  8
0
100
AcDbBlockBegin
  2
*D37
 70
     1
 10
0.0
 20
0.0
 30
0.0
  3
*D37
  1

  0
LINE
  5
4216A
330
42168
100
AcDbEntity
  8
30
  6
Continuous
 62
     0
370
    -2
100
AcDbLine
 10
574.9641382044809
 20
497.3581406762754
 30
0.0
 11
587.7569010372382
 21
497.3581406762754
 31
0.0
  0
LINE
  5
4216B
330
42168
100
AcDbEntity
  8
30
  6
Continuous
 62
     0
370
    -2
100
AcDbLine
 10
575.2197388167551
 20
491.3581406762753
 30
0.0
 11
587.7569010372382
 21
491.3581406762753
 31
0.0
  0
LINE
  5
4216C
330
42168
100
AcDbEntity
  8
30
370
    -2
100
AcDbLine
 10
587.2569010372382
 20
500.3581406762754
 30
0.0
 11
587.2569010372382
 21
503.3581406762754
 31
0.0
  0
LINE
  5
4216D
330
42168
100
AcDbEntity
  8
30
370
    -2
100
AcDbLine
 10
587.2569010372382
 20
488.3581406762754
 30
0.0
 11
587.2569010372382
 21
485.3581406762754
 31
0.0
  0
LINE
  5
4216E
330
42168
100
AcDbEntity
  8
30
370
    -2
100
AcDbLine
 10
587.2569010372382
 20
514.0248073429424
 30
0.0
 11
587.2569010372382
 21
497.3581406762754
 31
0.0
  0
MTEXT
  5
4216F
330
42168
100
AcDbEntity
  8
30
  6
Continuous
100
AcDbMText
 10
577.2569010372381
 20
508.6914740096093
 30
0.0
 40
7.0
 41
0.0
 46
0.0
 71
     2
 72
     1
  1
\A1;6
 11
0.0000000000000001
 21
1.0
 31
0.0
 73
     1
 44
1.0
 90
        3
 63
     9
421
 13158600
 45
1.25
441
        0
  0
LINE
  5
42170
330
42168
100
AcDbEntity
  8
30
370
    -2
100
AcDbLine
 10
587.2569010372382
 20
497.3581406762754
 30
0.0
 11
587.2569010372382
 21
491.3581406762753
 31
0.0
  0
INSERT
  5
42171
330
42168
100
AcDbEntity
  8
30
  6
Continuous
370
    -2
100
AcDbBlockReference
  2
_OPEN
 10
587.2569010372382
 20
497.3581406762754
 30
0.0
 41
3.0
 42
3.0
 43
3.0
 50
270.0
  0
INSERT
  5
42172
330
42168
100
AcDbEntity
  8
30
  6
Continuous
370
    -2
100
AcDbBlockReference
  2
_OPEN
 10
587.2569010372382
 20
491.3581406762753
 30
0.0
 41
3.0
 42
3.0
 43
3.0
 50
90.0
  0
POINT
  5
42173
330
42168
100
AcDbEntity
  8
DEFPOINTS
  6
Continuous
 62
     0
100
AcDbPoint
 10
573.9641382044809
 20
497.3581406762754
 30
0.0
  0
POINT
  5
42174
330
42168
100
AcDbEntity
  8
DEFPOINTS
  6
Continuous
 62
     0
100
AcDbPoint
 10
574.2197388167551
 20
491.3581406762753
 30
0.0
  0
POINT
  5
42175
330
42168
100
AcDbEntity
  8
DEFPOINTS
  6
Continuous
 62
     0
100
AcDbPoint
 10
587.2569010372382
 20
491.3581406762753
 30
0.0
  0
ENDBLK
  5
42176
330
42168
100
AcDbEntity
  8
0
100
AcDbBlockEnd
  0
BLOCK
  5
42178
330
42177
100
AcDbEntity
  8
0
100
AcDbBlockBegin
  2
*D38
 70
     1
 10
0.0
 20
0.0
 30
0.0
  3
*D38
  1

  0
LINE
  5
42179
330
42177
100
AcDbEntity
  8
30
  6
Continuous
 62
     0
370
    -2
100
AcDbLine
 10
580.1405547126377
 20
494.3581406762754
 30
0.0
 11
597.7569010372381
 21
494.3581406762754
 31
0.0
  0
LINE
  5
4217A
330
42177
100
AcDbEntity
  8
30
  6
Continuous
 62
     0
370
    -2
100
AcDbLine
 10
580.1689630056379
 20
350.3581406762754
 30
0.0
 11
597.7569010372381
 21
350.3581406762754
 31
0.0
  0
LINE
  5
4217B
330
42177
100
AcDbEntity
  8
30
370
    -2
100
AcDbLine
 10
597.2569010372382
 20
491.3581406762753
 30
0.0
 11
597.2569010372382
 21
353.3581406762754
 31
0.0
  0
MTEXT
  5
4217C
330
42177
100
AcDbEntity
  8
30
  6
Continuous
100
AcDbMText
 10
587.2569010372377
 20
422.3581406762754
 30
0.0
 40
7.0
 41
0.0
 46
0.0
 71
     2
 72
     1
  1
\A1;144
 11
0.0000000000000001
 21
1.0
 31
0.0
 73
     1
 44
1.0
 90
        3
 63
     9
421
 13158600
 45
1.25
441
        0
  0
INSERT
  5
4217D
330
42177
100
AcDbEntity
  8
30
  6
Continuous
370
    -2
100
AcDbBlockReference
  2
_OPEN
 10
597.2569010372382
 20
494.3581406762754
 30
0.0
 41
3.0
 42
3.0
 43
3.0
 50
90.0
  0
INSERT
  5
4217E
330
42177
100
AcDbEntity
  8
30
  6
Continuous
370
    -2
100
AcDbBlockReference
  2
_OPEN
 10
597.2569010372382
 20
350.3581406762754
 30
0.0
 41
3.0
 42
3.0
 43
3.0
 50
270.0
  0
POINT
  5
4217F
330
42177
100
AcDbEntity
  8
DEFPOINTS
  6
Continuous
 62
     0
100
AcDbPoint
 10
579.1405547126378
 20
494.3581406762754
 30
0.0
  0
POINT
  5
42180
330
42177
100
AcDbEntity
  8
DEFPOINTS
  6
Continuous
 62
     0
100
AcDbPoint
 10
579.1689630056379
 20
350.3581406762754
 30
0.0
  0
POINT
  5
42181
330
42177
100
AcDbEntity
  8
DEFPOINTS
  6
Continuous
 62
     0
100
AcDbPoint
 10
597.2569010372382
 20
350.3581406762754
 30
0.0
  0
ENDBLK
  5
42182
330
42177
100
AcDbEntity
  8
0
100
AcDbBlockEnd
  0
BLOCK
  5
42184
330
42183
100
AcDbEntity
  8
0
100
AcDbBlockBegin
  2
*D39
 70
     1
 10
0.0
 20
0.0
 30
0.0
  3
*D39
  1

  0
LINE
  5
42185
330
42183
100
AcDbEntity
  8
30
  6
Continuous
 62
     0
370
    -2
100
AcDbLine
 10
556.7542004296378
 20
340.2024978477996
 30
0.0
 11
556.7542004296378
 21
310.911023889335
 31
0.0
  0
LINE
  5
42186
330
42183
100
AcDbEntity
  8
30
  6
Continuous
 62
     0
370
    -2
100
AcDbLine
 10
572.7542004296378
 20
347.2024978477997
 30
0.0
 11
572.7542004296378
 21
310.911023889335
 31
0.0
  0
LINE
  5
42187
330
42183
100
AcDbEntity
  8
30
  6
Continuous
 62
     0
370
    -2
100
AcDbLine
 10
558.7542004296379
 20
311.411023889335
 30
0.0
 11
570.7542004296377
 21
311.411023889335
 31
0.0
  0
INSERT
  5
42188
330
42183
100
AcDbEntity
  8
30
  6
Continuous
 62
     0
370
    -2
100
AcDbBlockReference
  2
_OPEN
 10
556.7542004296378
 20
311.411023889335
 30
0.0
 41
2.0
 42
2.0
 43
2.0
 50
180.0
  0
INSERT
  5
42189
330
42183
100
AcDbEntity
  8
30
  6
Continuous
 62
     0
370
    -2
100
AcDbBlockReference
  2
_OPEN
 10
572.7542004296378
 20
311.411023889335
 30
0.0
 41
2.0
 42
2.0
 43
2.0
  0
MTEXT
  5
4218A
330
42183
100
AcDbEntity
  8
30
  6
Continuous
 62
     0
100
AcDbMText
 10
564.7542004296377
 20
320.411023889335
 30
0.0
 40
7.0
 41
0.0
 46
0.0
 71
     2
 72
     1
  1
\A1;16
 73
     1
 44
1.0
  0
POINT
  5
4218B
330
42183
100
AcDbEntity
  8
DEFPOINTS
  6
Continuous
 62
     0
100
AcDbPoint
 10
556.7542004296378
 20
343.2024978477997
 30
0.0
  0
POINT
  5
4218C
330
42183
100
AcDbEntity
  8
DEFPOINTS
  6
Continuous
 62
     0
100
AcDbPoint
 10
572.7542004296378
 20
350.2024978477996
 30
0.0
  0
POINT
  5
4218D
330
42183
100
AcDbEntity
  8
DEFPOINTS
  6
Continuous
 62
     0
100
AcDbPoint
 10
572.7542004296378
 20
311.411023889335
 30
0.0
  0
ENDBLK
  5
4218E
330
42183
100
AcDbEntity
  8
0
100
AcDbBlockEnd
  0
BLOCK
  5
42190
330
4218F
100
AcDbEntity
  8
0
100
AcDbBlockBegin
  2
*D40
 70
     1
 10
0.0
 20
0.0
 30
0.0
  3
*D40
  1

  0
LINE
  5
42191
330
4218F
100
AcDbEntity
  8
30
  6
Continuous
 62
     0
370
    -2
100
AcDbLine
 10
521.7542004296379
 20
342.8581421066754
 30
0.0
 11
521.7542004296379
 21
310.8581406762754
 31
0.0
  0
LINE
  5
42192
330
4218F
100
AcDbEntity
  8
30
  6
Continuous
 62
     0
370
    -2
100
AcDbLine
 10
537.7542004296379
 20
347.3581406762754
 30
0.0
 11
537.7542004296379
 21
310.8581406762754
 31
0.0
  0
LINE
  5
42193
330
4218F
100
AcDbEntity
  8
30
  6
Continuous
 62
     0
370
    -2
100
AcDbLine
 10
523.7542004296378
 20
311.3581406762754
 30
0.0
 11
535.7542004296378
 21
311.3581406762754
 31
0.0
  0
INSERT
  5
42194
330
4218F
100
AcDbEntity
  8
30
  6
Continuous
 62
     0
370
    -2
100
AcDbBlockReference
  2
_OPEN
 10
521.7542004296379
 20
311.3581406762754
 30
0.0
 41
2.0
 42
2.0
 43
2.0
 50
180.0
  0
INSERT
  5
42195
330
4218F
100
AcDbEntity
  8
30
  6
Continuous
 62
     0
370
    -2
100
AcDbBlockReference
  2
_OPEN
 10
537.7542004296379
 20
311.3581406762754
 30
0.0
 41
2.0
 42
2.0
 43
2.0
  0
MTEXT
  5
42196
330
4218F
100
AcDbEntity
  8
30
  6
Continuous
 62
     0
100
AcDbMText
 10
529.5042004296378
 20
320.3581406762753
 30
0.0
 40
7.0
 41
0.0
 46
0.0
 71
     2
 72
     1
  1
\A1;16
 73
     1
 44
1.0
  0
POINT
  5
42197
330
4218F
100
AcDbEntity
  8
DEFPOINTS
  6
Continuous
 62
     0
100
AcDbPoint
 10
521.7542004296379
 20
345.8581421066754
 30
0.0
  0
POINT
  5
42198
330
4218F
100
AcDbEntity
  8
DEFPOINTS
  6
Continuous
 62
     0
100
AcDbPoint
 10
537.7542004296379
 20
350.3581406762754
 30
0.0
  0
POINT
  5
42199
330
4218F
100
AcDbEntity
  8
DEFPOINTS
  6
Continuous
 62
     0
100
AcDbPoint
 10
537.7542004296379
 20
311.3581406762754
 30
0.0
  0
ENDBLK
  5
4219A
330
4218F
100
AcDbEntity
  8
0
100
AcDbBlockEnd
  0
BLOCK
  5
4219C
330
4219B
100
AcDbEntity
  8
0
100
AcDbBlockBegin
  2
*D41
 70
     1
 10
0.0
 20
0.0
 30
0.0
  3
*D41
  1

  0
LINE
  5
4219D
330
4219B
100
AcDbEntity
  8
30
  6
Continuous
 62
     0
370
    -2
100
AcDbLine
 10
518.2542011448381
 20
354.8581406762754
 30
0.0
 11
505.1064307611047
 21
354.8581406762754
 31
0.0
  0
LINE
  5
4219E
330
4219B
100
AcDbEntity
  8
30
  6
Continuous
 62
     0
370
    -2
100
AcDbLine
 10
518.2542011448381
 20
345.8581406762754
 30
0.0
 11
505.1064307611047
 21
345.8581406762754
 31
0.0
  0
LINE
  5
4219F
330
4219B
100
AcDbEntity
  8
30
370
    -2
100
AcDbLine
 10
505.6064307611046
 20
357.8581406762754
 30
0.0
 11
505.6064307611046
 21
360.8581406762754
 31
0.0
  0
LINE
  5
421A0
330
4219B
100
AcDbEntity
  8
30
370
    -2
100
AcDbLine
 10
505.6064307611046
 20
342.8581406762754
 30
0.0
 11
505.6064307611046
 21
339.8581406762754
 31
0.0
  0
LINE
  5
421A1
330
4219B
100
AcDbEntity
  8
30
370
    -2
100
AcDbLine
 10
505.6064307611046
 20
376.8962948986107
 30
0.0
 11
505.6064307611046
 21
354.8581406762754
 31
0.0
  0
MTEXT
  5
421A2
330
4219B
100
AcDbEntity
  8
30
  6
Continuous
100
AcDbMText
 10
495.6064307611046
 20
371.5629615652774
 30
0.0
 40
7.0
 41
0.0
 46
0.0
 71
     2
 72
     1
  1
\A1;9
 11
0.0000000000000001
 21
1.0
 31
0.0
 73
     1
 44
1.0
 90
        3
 63
     9
421
 13158600
 45
1.25
441
        0
  0
LINE
  5
421A3
330
4219B
100
AcDbEntity
  8
30
370
    -2
100
AcDbLine
 10
505.6064307611046
 20
354.8581406762754
 30
0.0
 11
505.6064307611046
 21
345.8581406762754
 31
0.0
  0
INSERT
  5
421A4
330
4219B
100
AcDbEntity
  8
30
  6
Continuous
370
    -2
100
AcDbBlockReference
  2
_OPEN
 10
505.6064307611046
 20
354.8581406762754
 30
0.0
 41
3.0
 42
3.0
 43
3.0
 50
270.0
  0
INSERT
  5
421A5
330
4219B
100
AcDbEntity
  8
30
  6
Continuous
370
    -2
100
AcDbBlockReference
  2
_OPEN
 10
505.6064307611046
 20
345.8581406762754
 30
0.0
 41
3.0
 42
3.0
 43
3.0
 50
90.0
  0
POINT
  5
421A6
330
4219B
100
AcDbEntity
  8
DEFPOINTS
  6
Continuous
 62
     0
100
AcDbPoint
 10
519.2542011448381
 20
354.8581406762754
 30
0.0
  0
POINT
  5
421A7
330
4219B
100
AcDbEntity
  8
DEFPOINTS
  6
Continuous
 62
     0
100
AcDbPoint
 10
519.2542011448381
 20
345.8581406762754
 30
0.0
  0
POINT
  5
421A8
330
4219B
100
AcDbEntity
  8
DEFPOINTS
  6
Continuous
 62
     0
100
AcDbPoint
 10
505.6064307611046
 20
345.8581406762754
 30
0.0
  0
ENDBLK
  5
421A9
330
4219B
100
AcDbEntity
  8
0
100
AcDbBlockEnd
  0
BLOCK
  5
421AB
330
421AA
100
AcDbEntity
  8
0
100
AcDbBlockBegin
  2
*D42
 70
     1
 10
0.0
 20
0.0
 30
0.0
  3
*D42
  1

  0
LINE
  5
421AC
330
421AA
100
AcDbEntity
  8
30
  6
Continuous
 62
     0
370
    -2
100
AcDbLine
 10
556.6851926929988
 20
347.9237558706659
 30
0.0
 11
557.8232095966809
 21
352.7925254818847
 31
0.0
  0
LINE
  5
421AD
330
421AA
100
AcDbEntity
  8
30
  6
Continuous
 62
     0
370
    -2
100
AcDbLine
 10
558.2784163581517
 20
354.7400333263648
 30
0.0
 11
563.514584258633
 21
377.1418931499043
 31
0.0
  0
LINE
  5
421AE
330
421AA
100
AcDbEntity
  8
30
  6
Continuous
 62
     0
370
    -2
100
AcDbLine
 10
563.514584258633
 20
377.1418931499043
 30
0.0
 11
577.1812509252996
 21
377.1418931499044
 31
0.0
  0
INSERT
  5
421AF
330
421AA
100
AcDbEntity
  8
30
  6
Continuous
 62
     0
370
    -2
100
AcDbBlockReference
  2
_OPEN
 10
556.2299859315278
 20
345.9762480261858
 30
0.0
 41
2.0
 42
2.0
 43
2.0
 50
256.8439863014384
  0
INSERT
  5
421B0
330
421AA
100
AcDbEntity
  8
30
  6
Continuous
 62
     0
370
    -2
100
AcDbBlockReference
  2
_OPEN
 10
558.2784163581517
 20
354.7400333263648
 30
0.0
 41
2.0
 42
2.0
 43
2.0
 50
76.8439863014385
  0
MTEXT
  5
421B1
330
421AA
100
AcDbEntity
  8
30
  6
Continuous
 62
     0
100
AcDbMText
 10
565.5145842586331
 20
386.1418931499043
 30
0.0
 40
7.0
 41
0.0
 46
0.0
 71
     1
 72
     1
  1
\A1;∅9
 73
     1
 44
1.0
  0
POINT
  5
421B2
330
421AA
100
AcDbEntity
  8
DEFPOINTS
  6
Continuous
 62
     0
100
AcDbPoint
 10
558.2784163581517
 20
354.7400333263648
 30
0.0
  0
POINT
  5
421B3
330
421AA
100
AcDbEntity
  8
DEFPOINTS
  6
Continuous
 62
     0
100
AcDbPoint
 10
556.2299859315278
 20
345.9762480261858
 30
0.0
  0
ENDBLK
  5
421B4
330
421AA
100
AcDbEntity
  8
0
100
AcDbBlockEnd
  0
BLOCK
  5
421B6
330
421B5
100
AcDbEntity
  8
0
100
AcDbBlockBegin
  2
*D43
 70
     1
 10
0.0
 20
0.0
 30
0.0
  3
*D43
  1

  0
LINE
  5
421B7
330
421B5
100
AcDbEntity
  8
30
  6
Continuous
 62
     0
370
    -2
100
AcDbLine
 10
569.8337534941027
 20
360.358143149006
 30
0.0
 11
587.2569003220377
 21
360.358143149006
 31
0.0
  0
LINE
  5
421B8
330
421B5
100
AcDbEntity
  8
30
  6
Continuous
 62
     0
370
    -2
100
AcDbLine
 10
571.4663522490877
 20
340.3581406762754
 30
0.0
 11
587.2569003220377
 21
340.3581406762754
 31
0.0
  0
LINE
  5
421B9
330
421B5
100
AcDbEntity
  8
30
370
    -2
100
AcDbLine
 10
586.7569003220377
 20
357.358143149006
 30
0.0
 11
586.7569003220377
 21
343.3581406762753
 31
0.0
  0
LINE
  5
421BA
330
421B5
100
AcDbEntity
  8
30
370
    -2
100
AcDbLine
 10
586.7569003220377
 20
315.8801883526571
 30
0.0
 11
586.7569003220377
 21
340.3581406762754
 31
0.0
  0
MTEXT
  5
421BB
330
421B5
100
AcDbEntity
  8
30
  6
Continuous
100
AcDbMText
 10
576.7569003220377
 20
324.1301883526572
 30
0.0
 40
7.0
 41
0.0
 46
0.0
 71
     2
 72
     1
  1
\A1;20
 11
0.0000000000000001
 21
1.0
 31
0.0
 73
     1
 44
1.0
 90
        3
 63
     9
421
 13158600
 45
1.25
441
        0
  0
INSERT
  5
421BC
330
421B5
100
AcDbEntity
  8
30
  6
Continuous
370
    -2
100
AcDbBlockReference
  2
_OPEN
 10
586.7569003220377
 20
360.358143149006
 30
0.0
 41
3.0
 42
3.0
 43
3.0
 50
90.0
  0
INSERT
  5
421BD
330
421B5
100
AcDbEntity
  8
30
  6
Continuous
370
    -2
100
AcDbBlockReference
  2
_OPEN
 10
586.7569003220377
 20
340.3581406762754
 30
0.0
 41
3.0
 42
3.0
 43
3.0
 50
270.0
  0
POINT
  5
421BE
330
421B5
100
AcDbEntity
  8
DEFPOINTS
  6
Continuous
 62
     0
100
AcDbPoint
 10
568.8337534941029
 20
360.358143149006
 30
0.0
  0
POINT
  5
421BF
330
421B5
100
AcDbEntity
  8
DEFPOINTS
  6
Continuous
 62
     0
100
AcDbPoint
 10
570.4663522490878
 20
340.3581406762754
 30
0.0
  0
POINT
  5
421C0
330
421B5
100
AcDbEntity
  8
DEFPOINTS
  6
Continuous
 62
     0
100
AcDbPoint
 10
586.7569003220377
 20
340.3581406762754
 30
0.0
  0
ENDBLK
  5
421C1
330
421B5
100
AcDbEntity
  8
0
100
AcDbBlockEnd
  0
BLOCK
  5
421C3
330
421C2
100
AcDbEntity
  8
0
100
AcDbBlockBegin
  2
*D44
 70
     1
 10
0.0
 20
0.0
 30
0.0
  3
*D44
  1

  0
LINE
  5
421C4
330
421C2
100
AcDbEntity
  8
30
 62
     0
370
    -2
100
AcDbLine
 10
410.7542004296377
 20
325.3581398418754
 30
0.0
 11
410.7542004296377
 21
281.2483334681001
 31
0.0
  0
LINE
  5
421C5
330
421C2
100
AcDbEntity
  8
30
 62
     0
370
    -2
100
AcDbLine
 10
370.2542004296379
 20
419.3581424627558
 30
0.0
 11
370.2542004296379
 21
281.2483334681001
 31
0.0
  0
LINE
  5
421C6
330
421C2
100
AcDbEntity
  8
30
370
    -2
100
AcDbLine
 10
407.7542004296378
 20
281.7483334681002
 30
0.0
 11
373.2542004296379
 21
281.7483334681002
 31
0.0
  0
INSERT
  5
421C7
330
421C2
100
AcDbEntity
  8
30
370
    -2
100
AcDbBlockReference
  2
_OPEN
 10
410.7542004296377
 20
281.7483334681002
 30
0.0
 41
3.0
 42
3.0
 43
3.0
  0
INSERT
  5
421C8
330
421C2
100
AcDbEntity
  8
30
370
    -2
100
AcDbBlockReference
  2
_OPEN
 10
370.2542004296379
 20
281.7483334681002
 30
0.0
 41
3.0
 42
3.0
 43
3.0
 50
180.0
  0
MTEXT
  5
421C9
330
421C2
100
AcDbEntity
  8
30
100
AcDbMText
 10
390.504200429638
 20
288.2483334681002
 30
0.0
 40
7.0
 41
0.0
 46
0.0
 71
     5
 72
     1
  1
\A1;40.5
 73
     1
 44
1.0
 90
        3
 63
     9
421
 13158600
 45
1.25
441
        0
  0
POINT
  5
421CA
330
421C2
100
AcDbEntity
  8
DEFPOINTS
 62
     0
100
AcDbPoint
 10
410.7542004296377
 20
326.3581398418754
 30
0.0
  0
POINT
  5
421CB
330
421C2
100
AcDbEntity
  8
DEFPOINTS
 62
     0
100
AcDbPoint
 10
370.2542004296379
 20
420.3581424627558
 30
0.0
  0
POINT
  5
421CC
330
421C2
100
AcDbEntity
  8
DEFPOINTS
 62
     0
100
AcDbPoint
 10
370.2542004296379
 20
281.7483334681002
 30
0.0
  0
ENDBLK
  5
421CD
330
421C2
100
AcDbEntity
  8
0
100
AcDbBlockEnd
  0
BLOCK
  5
421CF
330
421CE
100
AcDbEntity
  8
0
100
AcDbBlockBegin
  2
*D45
 70
     1
 10
0.0
 20
0.0
 30
0.0
  3
*D45
  1

  0
LINE
  5
421D0
330
421CE
100
AcDbEntity
  8
30
 62
     0
370
    -2
100
AcDbLine
 10
410.7542004296377
 20
325.3581398418754
 30
0.0
 11
410.7542004296377
 21
301.2024978477996
 31
0.0
  0
LINE
  5
421D1
330
421CE
100
AcDbEntity
  8
30
 62
     0
370
    -2
100
AcDbLine
 10
537.7542004296379
 20
328.1081406762754
 30
0.0
 11
537.7542004296379
 21
301.2024978477996
 31
0.0
  0
LINE
  5
421D2
330
421CE
100
AcDbEntity
  8
30
370
    -2
100
AcDbLine
 10
413.7542004296379
 20
301.7024978477996
 30
0.0
 11
534.7542004296379
 21
301.7024978477996
 31
0.0
  0
INSERT
  5
421D3
330
421CE
100
AcDbEntity
  8
30
370
    -2
100
AcDbBlockReference
  2
_OPEN
 10
410.7542004296377
 20
301.7024978477996
 30
0.0
 41
3.0
 42
3.0
 43
3.0
 50
180.0
  0
INSERT
  5
421D4
330
421CE
100
AcDbEntity
  8
30
370
    -2
100
AcDbBlockReference
  2
_OPEN
 10
537.7542004296379
 20
301.7024978477996
 30
0.0
 41
3.0
 42
3.0
 43
3.0
  0
MTEXT
  5
421D5
330
421CE
100
AcDbEntity
  8
30
100
AcDbMText
 10
474.2542004296378
 20
308.2024978477996
 30
0.0
 40
7.0
 41
0.0
 46
0.0
 71
     5
 72
     1
  1
\A1;127
 73
     1
 44
1.0
 90
        3
 63
     9
421
 13158600
 45
1.25
441
        0
  0
POINT
  5
421D6
330
421CE
100
AcDbEntity
  8
DEFPOINTS
 62
     0
100
AcDbPoint
 10
410.7542004296377
 20
326.3581398418754
 30
0.0
  0
POINT
  5
421D7
330
421CE
100
AcDbEntity
  8
DEFPOINTS
 62
     0
100
AcDbPoint
 10
537.7542004296379
 20
329.1081406762753
 30
0.0
  0
POINT
  5
421D8
330
421CE
100
AcDbEntity
  8
DEFPOINTS
 62
     0
100
AcDbPoint
 10
537.7542004296379
 20
301.7024978477996
 30
0.0
  0
ENDBLK
  5
421D9
330
421CE
100
AcDbEntity
  8
0
100
AcDbBlockEnd
  0
BLOCK
  5
421DB
330
421DA
100
AcDbEntity
  8
0
100
AcDbBlockBegin
  2
*D46
 70
     1
 10
0.0
 20
0.0
 30
0.0
  3
*D46
  1

  0
LINE
  5
421DC
330
421DA
100
AcDbEntity
  8
30
 62
     0
370
    -2
100
AcDbLine
 10
410.7542004296377
 20
300.7024978477996
 30
0.0
 11
410.7542004296377
 21
281.2483334681001
 31
0.0
  0
LINE
  5
421DD
330
421DA
100
AcDbEntity
  8
30
 62
     0
370
    -2
100
AcDbLine
 10
572.7542004296378
 20
310.4110238893349
 30
0.0
 11
572.7542004296378
 21
281.2483334681001
 31
0.0
  0
LINE
  5
421DE
330
421DA
100
AcDbEntity
  8
30
370
    -2
100
AcDbLine
 10
413.7542004296379
 20
281.7483334681002
 30
0.0
 11
569.7542004296377
 21
281.7483334681002
 31
0.0
  0
INSERT
  5
421DF
330
421DA
100
AcDbEntity
  8
30
370
    -2
100
AcDbBlockReference
  2
_OPEN
 10
410.7542004296377
 20
281.7483334681002
 30
0.0
 41
3.0
 42
3.0
 43
3.0
 50
180.0
  0
INSERT
  5
421E0
330
421DA
100
AcDbEntity
  8
30
370
    -2
100
AcDbBlockReference
  2
_OPEN
 10
572.7542004296378
 20
281.7483334681002
 30
0.0
 41
3.0
 42
3.0
 43
3.0
  0
MTEXT
  5
421E1
330
421DA
100
AcDbEntity
  8
30
100
AcDbMText
 10
491.7542004296378
 20
288.2483334681002
 30
0.0
 40
7.0
 41
0.0
 46
0.0
 71
     5
 72
     1
  1
\A1;162
 73
     1
 44
1.0
 90
        3
 63
     9
421
 13158600
 45
1.25
441
        0
  0
POINT
  5
421E2
330
421DA
100
AcDbEntity
  8
DEFPOINTS
 62
     0
100
AcDbPoint
 10
410.7542004296377
 20
301.7024978477996
 30
0.0
  0
POINT
  5
421E3
330
421DA
100
AcDbEntity
  8
DEFPOINTS
 62
     0
100
AcDbPoint
 10
572.7542004296378
 20
311.411023889335
 30
0.0
  0
POINT
  5
421E4
330
421DA
100
AcDbEntity
  8
DEFPOINTS
 62
     0
100
AcDbPoint
 10
572.7542004296378
 20
281.7483334681002
 30
0.0
  0
ENDBLK
  5
421E5
330
421DA
100
AcDbEntity
  8
0
100
AcDbBlockEnd
  0
BLOCK
  5
421E7
330
421E6
100
AcDbEntity
  8
0
100
AcDbBlockBegin
  2
*D47
 70
     1
 10
0.0
 20
0.0
 30
0.0
  3
*D47
  1

  0
LINE
  5
421E8
330
421E6
100
AcDbEntity
  8
30
 62
     0
370
    -2
100
AcDbLine
 10
514.2542004296383
 20
351.3581406762754
 30
0.0
 11
514.2542004296383
 21
374.7987860022814
 31
0.0
  0
LINE
  5
421E9
330
421E6
100
AcDbEntity
  8
30
 62
     0
370
    -2
100
AcDbLine
 10
529.2542004296374
 20
351.3581406762754
 30
0.0
 11
529.2542004296374
 21
374.7987860022814
 31
0.0
  0
LINE
  5
421EA
330
421E6
100
AcDbEntity
  8
30
370
    -2
100
AcDbLine
 10
517.2542004296383
 20
374.2987860022814
 30
0.0
 11
526.2542004296374
 21
374.2987860022814
 31
0.0
  0
MTEXT
  5
421EB
330
421E6
100
AcDbEntity
  8
30
100
AcDbMText
 10
521.7542004296379
 20
380.7987860022814
 30
0.0
 40
7.0
 41
0.0
 46
0.0
 71
     5
 72
     1
  1
\A1;15
 73
     1
 44
1.0
 90
        3
 63
     9
421
 13158600
 45
1.25
441
        0
  0
INSERT
  5
421EC
330
421E6
100
AcDbEntity
  8
30
370
    -2
100
AcDbBlockReference
  2
_OPEN
 10
514.2542004296383
 20
374.2987860022814
 30
0.0
 41
3.0
 42
3.0
 43
3.0
 50
180.0
  0
INSERT
  5
421ED
330
421E6
100
AcDbEntity
  8
30
370
    -2
100
AcDbBlockReference
  2
_OPEN
 10
529.2542004296374
 20
374.2987860022814
 30
0.0
 41
3.0
 42
3.0
 43
3.0
  0
POINT
  5
421EE
330
421E6
100
AcDbEntity
  8
DEFPOINTS
 62
     0
100
AcDbPoint
 10
514.2542004296383
 20
350.3581406762754
 30
0.0
  0
POINT
  5
421EF
330
421E6
100
AcDbEntity
  8
DEFPOINTS
 62
     0
100
AcDbPoint
 10
529.2542004296374
 20
350.3581406762754
 30
0.0
  0
POINT
  5
421F0
330
421E6
100
AcDbEntity
  8
DEFPOINTS
 62
     0
100
AcDbPoint
 10
529.2542004296374
 20
374.2987860022814
 30
0.0
  0
ENDBLK
  5
421F1
330
421E6
100
AcDbEntity
  8
0
100
AcDbBlockEnd
  0
BLOCK
  5
422B9
330
422B8
100
AcDbEntity
  8
0
100
AcDbBlockBegin
  2
*D48
 70
     1
 10
0.0
 20
0.0
 30
0.0
  3
*D48
  1

  0
LINE
  5
42464
330
422B8
100
AcDbEntity
  8
30
  6
Continuous
 62
     0
440
 16777216
370
    -2
100
AcDbLine
 10
410.7542004296377
 20
325.3581398418754
 30
0.0
 11
410.7542004296377
 21
290.6974963124985
 31
0.0
  0
LINE
  5
42465
330
422B8
100
AcDbEntity
  8
30
  6
Continuous
 62
     0
440
 16777216
370
    -2
100
AcDbLine
 10
395.7234092247288
 20
331.6838314398437
 30
0.0
 11
395.7234092247288
 21
290.6974963124985
 31
0.0
  0
LINE
  5
42466
330
422B8
100
AcDbEntity
  8
30
440
 16777216
370
    -2
100
AcDbLine
 10
407.7542004296375
 20
291.1974963124985
 30
0.0
 11
398.7234092247287
 21
291.1974963124985
 31
0.0
  0
MTEXT
  5
42467
330
422B8
100
AcDbEntity
  8
30
  6
Continuous
440
 16777216
100
AcDbMText
 10
403.2388048271831
 20
301.1974963124985
 30
0.0
 40
7.0
 41
0.0
 46
0.0
 71
     2
 72
     1
  1
\A1;15
 73
     1
 44
1.0
 90
        3
 63
     9
421
 13158600
 45
1.25
441
        0
  0
INSERT
  5
42468
330
422B8
100
AcDbEntity
  8
30
  6
Continuous
440
 16777216
370
    -2
100
AcDbBlockReference
  2
_OPEN
 10
410.7542004296377
 20
291.1974963124985
 30
0.0
 41
3.0
 42
3.0
 43
3.0
  0
INSERT
  5
42469
330
422B8
100
AcDbEntity
  8
30
  6
Continuous
440
 16777216
370
    -2
100
AcDbBlockReference
  2
_OPEN
 10
395.7234092247288
 20
291.1974963124985
 30
0.0
 41
3.0
 42
3.0
 43
3.0
 50
180.0
  0
POINT
  5
4246A
330
422B8
100
AcDbEntity
  8
DEFPOINTS
  6
Continuous
 62
     0
440
 16777216
100
AcDbPoint
 10
410.7542004296377
 20
326.3581398418754
 30
0.0
  0
POINT
  5
4246B
330
422B8
100
AcDbEntity
  8
DEFPOINTS
  6
Continuous
 62
     0
440
 16777216
100
AcDbPoint
 10
395.7234092247288
 20
332.6838314398437
 30
0.0
  0
POINT
  5
4246C
330
422B8
100
AcDbEntity
  8
DEFPOINTS
  6
Continuous
 62
     0
440
 16777216
100
AcDbPoint
 10
395.7234092247288
 20
291.1974963124985
 30
0.0
  0
ENDBLK
  5
422BA
330
422B8
100
AcDbEntity
  8
0
100
AcDbBlockEnd
  0
BLOCK
  5
422C5
330
422C4
100
AcDbEntity
  8
0
100
AcDbBlockBegin
  2
*D49
 70
     1
 10
0.0
 20
0.0
 30
0.0
  3
*D49
  1

  0
LINE
  5
42357
330
422C4
100
AcDbEntity
  8
30
  6
Continuous
 62
     0
440
 16777216
370
    -2
100
AcDbLine
 10
574.9641382044809
 20
497.3581406762754
 30
0.0
 11
587.7569010372382
 21
497.3581406762754
 31
0.0
  0
LINE
  5
42358
330
422C4
100
AcDbEntity
  8
30
  6
Continuous
 62
     0
440
 16777216
370
    -2
100
AcDbLine
 10
575.2197388167551
 20
491.3581406762753
 30
0.0
 11
587.7569010372382
 21
491.3581406762753
 31
0.0
  0
LINE
  5
42359
330
422C4
100
AcDbEntity
  8
30
440
 16777216
370
    -2
100
AcDbLine
 10
587.2569010372382
 20
500.3581406762754
 30
0.0
 11
587.2569010372382
 21
503.3581406762754
 31
0.0
  0
LINE
  5
4235A
330
422C4
100
AcDbEntity
  8
30
440
 16777216
370
    -2
100
AcDbLine
 10
587.2569010372382
 20
488.3581406762754
 30
0.0
 11
587.2569010372382
 21
485.3581406762754
 31
0.0
  0
LINE
  5
4235B
330
422C4
100
AcDbEntity
  8
30
440
 16777216
370
    -2
100
AcDbLine
 10
587.2569010372382
 20
514.0248073429424
 30
0.0
 11
587.2569010372382
 21
497.3581406762754
 31
0.0
  0
MTEXT
  5
4235C
330
422C4
100
AcDbEntity
  8
30
  6
Continuous
440
 16777216
100
AcDbMText
 10
577.2569010372381
 20
508.6914740096093
 30
0.0
 40
7.0
 41
0.0
 46
0.0
 71
     2
 72
     1
  1
\A1;6
 11
0.0000000000000001
 21
1.0
 31
0.0
 73
     1
 44
1.0
 90
        3
 63
     9
421
 13158600
 45
1.25
441
        0
  0
LINE
  5
4235D
330
422C4
100
AcDbEntity
  8
30
440
 16777216
370
    -2
100
AcDbLine
 10
587.2569010372382
 20
497.3581406762754
 30
0.0
 11
587.2569010372382
 21
491.3581406762753
 31
0.0
  0
INSERT
  5
4235E
330
422C4
100
AcDbEntity
  8
30
  6
Continuous
440
 16777216
370
    -2
100
AcDbBlockReference
  2
_OPEN
 10
587.2569010372382
 20
497.3581406762754
 30
0.0
 41
3.0
 42
3.0
 43
3.0
 50
270.0
  0
INSERT
  5
4235F
330
422C4
100
AcDbEntity
  8
30
  6
Continuous
440
 16777216
370
    -2
100
AcDbBlockReference
  2
_OPEN
 10
587.2569010372382
 20
491.3581406762753
 30
0.0
 41
3.0
 42
3.0
 43
3.0
 50
90.0
  0
POINT
  5
42360
330
422C4
100
AcDbEntity
  8
DEFPOINTS
  6
Continuous
 62
     0
440
 16777216
100
AcDbPoint
 10
573.9641382044809
 20
497.3581406762754
 30
0.0
  0
POINT
  5
42361
330
422C4
100
AcDbEntity
  8
DEFPOINTS
  6
Continuous
 62
     0
440
 16777216
100
AcDbPoint
 10
574.2197388167551
 20
491.3581406762753
 30
0.0
  0
POINT
  5
42362
330
422C4
100
AcDbEntity
  8
DEFPOINTS
  6
Continuous
 62
     0
440
 16777216
100
AcDbPoint
 10
587.2569010372382
 20
491.3581406762753
 30
0.0
  0
ENDBLK
  5
422C6
330
422C4
100
AcDbEntity
  8
0
100
AcDbBlockEnd
  0
BLOCK
  5
422D4
330
422D3
100
AcDbEntity
  8
0
100
AcDbBlockBegin
  2
*D50
 70
     1
 10
0.0
 20
0.0
 30
0.0
  3
*D50
  1

  0
LINE
  5
42363
330
422D3
100
AcDbEntity
  8
30
  6
Continuous
 62
     0
440
 16777216
370
    -2
100
AcDbLine
 10
580.1405547126377
 20
494.3581406762754
 30
0.0
 11
597.7569010372381
 21
494.3581406762754
 31
0.0
  0
LINE
  5
42364
330
422D3
100
AcDbEntity
  8
30
  6
Continuous
 62
     0
440
 16777216
370
    -2
100
AcDbLine
 10
580.1689630056379
 20
350.3581406762754
 30
0.0
 11
597.7569010372381
 21
350.3581406762754
 31
0.0
  0
LINE
  5
42365
330
422D3
100
AcDbEntity
  8
30
440
 16777216
370
    -2
100
AcDbLine
 10
597.2569010372382
 20
491.3581406762753
 30
0.0
 11
597.2569010372382
 21
353.3581406762754
 31
0.0
  0
MTEXT
  5
42366
330
422D3
100
AcDbEntity
  8
30
  6
Continuous
440
 16777216
100
AcDbMText
 10
587.2569010372377
 20
422.3581406762754
 30
0.0
 40
7.0
 41
0.0
 46
0.0
 71
     2
 72
     1
  1
\A1;144
 11
0.0000000000000001
 21
1.0
 31
0.0
 73
     1
 44
1.0
 90
        3
 63
     9
421
 13158600
 45
1.25
441
        0
  0
INSERT
  5
42367
330
422D3
100
AcDbEntity
  8
30
  6
Continuous
440
 16777216
370
    -2
100
AcDbBlockReference
  2
_OPEN
 10
597.2569010372382
 20
494.3581406762754
 30
0.0
 41
3.0
 42
3.0
 43
3.0
 50
90.0
  0
INSERT
  5
42368
330
422D3
100
AcDbEntity
  8
30
  6
Continuous
440
 16777216
370
    -2
100
AcDbBlockReference
  2
_OPEN
 10
597.2569010372382
 20
350.3581406762754
 30
0.0
 41
3.0
 42
3.0
 43
3.0
 50
270.0
  0
POINT
  5
42369
330
422D3
100
AcDbEntity
  8
DEFPOINTS
  6
Continuous
 62
     0
440
 16777216
100
AcDbPoint
 10
579.1405547126378
 20
494.3581406762754
 30
0.0
  0
POINT
  5
4236A
330
422D3
100
AcDbEntity
  8
DEFPOINTS
  6
Continuous
 62
     0
440
 16777216
100
AcDbPoint
 10
579.1689630056379
 20
350.3581406762754
 30
0.0
  0
POINT
  5
4236B
330
422D3
100
AcDbEntity
  8
DEFPOINTS
  6
Continuous
 62
     0
440
 16777216
100
AcDbPoint
 10
597.2569010372382
 20
350.3581406762754
 30
0.0
  0
ENDBLK
  5
422D5
330
422D3
100
AcDbEntity
  8
0
100
AcDbBlockEnd
  0
BLOCK
  5
422E0
330
422DF
100
AcDbEntity
  8
0
100
AcDbBlockBegin
  2
*D51
 70
     1
 10
0.0
 20
0.0
 30
0.0
  3
*D51
  1

  0
LINE
  5
424A3
330
422DF
100
AcDbEntity
  8
30
  6
Continuous
 62
     0
440
 16777216
370
    -2
100
AcDbLine
 10
556.7542004296378
 20
340.2024978477997
 30
0.0
 11
556.7542004296378
 21
319.2048428152493
 31
0.0
  0
LINE
  5
424A4
330
422DF
100
AcDbEntity
  8
30
  6
Continuous
 62
     0
440
 16777216
370
    -2
100
AcDbLine
 10
572.799299950565
 20
340.1082025083234
 30
0.0
 11
572.799299950565
 21
319.2048428152493
 31
0.0
  0
LINE
  5
424A5
330
422DF
100
AcDbEntity
  8
30
  6
Continuous
 62
     0
440
 16777216
370
    -2
100
AcDbLine
 10
558.7542004296379
 20
319.7048428152493
 30
0.0
 11
570.7992999505648
 21
319.7048428152493
 31
0.0
  0
INSERT
  5
424A6
330
422DF
100
AcDbEntity
  8
30
  6
Continuous
 62
     0
440
 16777216
370
    -2
100
AcDbBlockReference
  2
_OPEN
 10
556.7542004296378
 20
319.7048428152493
 30
0.0
 41
2.0
 42
2.0
 43
2.0
 50
180.0
  0
INSERT
  5
424A7
330
422DF
100
AcDbEntity
  8
30
  6
Continuous
 62
     0
440
 16777216
370
    -2
100
AcDbBlockReference
  2
_OPEN
 10
572.799299950565
 20
319.7048428152493
 30
0.0
 41
2.0
 42
2.0
 43
2.0
  0
MTEXT
  5
424A8
330
422DF
100
AcDbEntity
  8
30
  6
Continuous
 62
     0
440
 16777216
100
AcDbMText
 10
564.7542004296377
 20
328.7048428152493
 30
0.0
 40
7.0
 41
0.0
 46
0.0
 71
     2
 72
     1
  1
\A1;16
 73
     1
 44
1.0
  0
POINT
  5
424A9
330
422DF
100
AcDbEntity
  8
DEFPOINTS
  6
Continuous
 62
     0
440
 16777216
100
AcDbPoint
 10
556.7542004296378
 20
343.2024978477997
 30
0.0
  0
POINT
  5
424AA
330
422DF
100
AcDbEntity
  8
DEFPOINTS
  6
Continuous
 62
     0
440
 16777216
100
AcDbPoint
 10
572.799299950565
 20
343.1082025083234
 30
0.0
  0
POINT
  5
424AB
330
422DF
100
AcDbEntity
  8
DEFPOINTS
  6
Continuous
 62
     0
440
 16777216
100
AcDbPoint
 10
572.799299950565
 20
319.7048428152493
 30
0.0
  0
ENDBLK
  5
422E1
330
422DF
100
AcDbEntity
  8
0
100
AcDbBlockEnd
  0
BLOCK
  5
422EC
330
422EB
100
AcDbEntity
  8
0
100
AcDbBlockBegin
  2
*D52
 70
     1
 10
0.0
 20
0.0
 30
0.0
  3
*D52
  1

  0
LINE
  5
42375
330
422EB
100
AcDbEntity
  8
30
  6
Continuous
 62
     0
440
 16777216
370
    -2
100
AcDbLine
 10
521.7542004296379
 20
342.8581421066754
 30
0.0
 11
521.7542004296379
 21
310.8581406762754
 31
0.0
  0
LINE
  5
42376
330
422EB
100
AcDbEntity
  8
30
  6
Continuous
 62
     0
440
 16777216
370
    -2
100
AcDbLine
 10
537.7542004296379
 20
347.3581406762754
 30
0.0
 11
537.7542004296379
 21
310.8581406762754
 31
0.0
  0
LINE
  5
42377
330
422EB
100
AcDbEntity
  8
30
  6
Continuous
 62
     0
440
 16777216
370
    -2
100
AcDbLine
 10
523.7542004296378
 20
311.3581406762754
 30
0.0
 11
535.7542004296378
 21
311.3581406762754
 31
0.0
  0
INSERT
  5
42378
330
422EB
100
AcDbEntity
  8
30
  6
Continuous
 62
     0
440
 16777216
370
    -2
100
AcDbBlockReference
  2
_OPEN
 10
521.7542004296379
 20
311.3581406762754
 30
0.0
 41
2.0
 42
2.0
 43
2.0
 50
180.0
  0
INSERT
  5
42379
330
422EB
100
AcDbEntity
  8
30
  6
Continuous
 62
     0
440
 16777216
370
    -2
100
AcDbBlockReference
  2
_OPEN
 10
537.7542004296379
 20
311.3581406762754
 30
0.0
 41
2.0
 42
2.0
 43
2.0
  0
MTEXT
  5
4237A
330
422EB
100
AcDbEntity
  8
30
  6
Continuous
 62
     0
440
 16777216
100
AcDbMText
 10
529.5042004296378
 20
320.3581406762753
 30
0.0
 40
7.0
 41
0.0
 46
0.0
 71
     2
 72
     1
  1
\A1;16
 73
     1
 44
1.0
  0
POINT
  5
4237B
330
422EB
100
AcDbEntity
  8
DEFPOINTS
  6
Continuous
 62
     0
440
 16777216
100
AcDbPoint
 10
521.7542004296379
 20
345.8581421066754
 30
0.0
  0
POINT
  5
4237C
330
422EB
100
AcDbEntity
  8
DEFPOINTS
  6
Continuous
 62
     0
440
 16777216
100
AcDbPoint
 10
537.7542004296379
 20
350.3581406762754
 30
0.0
  0
POINT
  5
4237D
330
422EB
100
AcDbEntity
  8
DEFPOINTS
  6
Continuous
 62
     0
440
 16777216
100
AcDbPoint
 10
537.7542004296379
 20
311.3581406762754
 30
0.0
  0
ENDBLK
  5
422ED
330
422EB
100
AcDbEntity
  8
0
100
AcDbBlockEnd
  0
BLOCK
  5
422F8
330
422F7
100
AcDbEntity
  8
0
100
AcDbBlockBegin
  2
*D53
 70
     1
 10
0.0
 20
0.0
 30
0.0
  3
*D53
  1

  0
LINE
  5
4237E
330
422F7
100
AcDbEntity
  8
30
  6
Continuous
 62
     0
440
 16777216
370
    -2
100
AcDbLine
 10
518.2542011448381
 20
354.8581406762754
 30
0.0
 11
505.1064307611047
 21
354.8581406762754
 31
0.0
  0
LINE
  5
4237F
330
422F7
100
AcDbEntity
  8
30
  6
Continuous
 62
     0
440
 16777216
370
    -2
100
AcDbLine
 10
518.2542011448381
 20
345.8581406762754
 30
0.0
 11
505.1064307611047
 21
345.8581406762754
 31
0.0
  0
LINE
  5
42380
330
422F7
100
AcDbEntity
  8
30
440
 16777216
370
    -2
100
AcDbLine
 10
505.6064307611046
 20
357.8581406762754
 30
0.0
 11
505.6064307611046
 21
360.8581406762754
 31
0.0
  0
LINE
  5
42381
330
422F7
100
AcDbEntity
  8
30
440
 16777216
370
    -2
100
AcDbLine
 10
505.6064307611046
 20
342.8581406762754
 30
0.0
 11
505.6064307611046
 21
339.8581406762754
 31
0.0
  0
LINE
  5
42382
330
422F7
100
AcDbEntity
  8
30
440
 16777216
370
    -2
100
AcDbLine
 10
505.6064307611046
 20
376.8962948986107
 30
0.0
 11
505.6064307611046
 21
354.8581406762754
 31
0.0
  0
MTEXT
  5
42383
330
422F7
100
AcDbEntity
  8
30
  6
Continuous
440
 16777216
100
AcDbMText
 10
495.6064307611046
 20
371.5629615652774
 30
0.0
 40
7.0
 41
0.0
 46
0.0
 71
     2
 72
     1
  1
\A1;9
 11
0.0000000000000001
 21
1.0
 31
0.0
 73
     1
 44
1.0
 90
        3
 63
     9
421
 13158600
 45
1.25
441
        0
  0
LINE
  5
42384
330
422F7
100
AcDbEntity
  8
30
440
 16777216
370
    -2
100
AcDbLine
 10
505.6064307611046
 20
354.8581406762754
 30
0.0
 11
505.6064307611046
 21
345.8581406762754
 31
0.0
  0
INSERT
  5
42385
330
422F7
100
AcDbEntity
  8
30
  6
Continuous
440
 16777216
370
    -2
100
AcDbBlockReference
  2
_OPEN
 10
505.6064307611046
 20
354.8581406762754
 30
0.0
 41
3.0
 42
3.0
 43
3.0
 50
270.0
  0
INSERT
  5
42386
330
422F7
100
AcDbEntity
  8
30
  6
Continuous
440
 16777216
370
    -2
100
AcDbBlockReference
  2
_OPEN
 10
505.6064307611046
 20
345.8581406762754
 30
0.0
 41
3.0
 42
3.0
 43
3.0
 50
90.0
  0
POINT
  5
42387
330
422F7
100
AcDbEntity
  8
DEFPOINTS
  6
Continuous
 62
     0
440
 16777216
100
AcDbPoint
 10
519.2542011448381
 20
354.8581406762754
 30
0.0
  0
POINT
  5
42388
330
422F7
100
AcDbEntity
  8
DEFPOINTS
  6
Continuous
 62
     0
440
 16777216
100
AcDbPoint
 10
519.2542011448381
 20
345.8581406762754
 30
0.0
  0
POINT
  5
42389
330
422F7
100
AcDbEntity
  8
DEFPOINTS
  6
Continuous
 62
     0
440
 16777216
100
AcDbPoint
 10
505.6064307611046
 20
345.8581406762754
 30
0.0
  0
ENDBLK
  5
422F9
330
422F7
100
AcDbEntity
  8
0
100
AcDbBlockEnd
  0
BLOCK
  5
42307
330
42306
100
AcDbEntity
  8
0
100
AcDbBlockBegin
  2
*D54
 70
     1
 10
0.0
 20
0.0
 30
0.0
  3
*D54
  1

  0
LINE
  5
4238A
330
42306
100
AcDbEntity
  8
30
  6
Continuous
 62
     0
440
 16777216
370
    -2
100
AcDbLine
 10
556.6851926929984
 20
347.9237558706656
 30
0.0
 11
557.8232095966805
 21
352.7925254818847
 31
0.0
  0
LINE
  5
4238B
330
42306
100
AcDbEntity
  8
30
  6
Continuous
 62
     0
440
 16777216
370
    -2
100
AcDbLine
 10
558.2784163581517
 20
354.7400333263647
 30
0.0
 11
563.5145842586332
 21
377.1418931499048
 31
0.0
  0
LINE
  5
4238C
330
42306
100
AcDbEntity
  8
30
  6
Continuous
 62
     0
440
 16777216
370
    -2
100
AcDbLine
 10
563.5145842586332
 20
377.1418931499048
 30
0.0
 11
577.1812509253
 21
377.1418931499048
 31
0.0
  0
INSERT
  5
4238D
330
42306
100
AcDbEntity
  8
30
  6
Continuous
 62
     0
440
 16777216
370
    -2
100
AcDbBlockReference
  2
_OPEN
 10
556.2299859315275
 20
345.9762480261856
 30
0.0
 41
2.0
 42
2.0
 43
2.0
 50
256.8439863014374
  0
INSERT
  5
4238E
330
42306
100
AcDbEntity
  8
30
  6
Continuous
 62
     0
440
 16777216
370
    -2
100
AcDbBlockReference
  2
_OPEN
 10
558.2784163581517
 20
354.7400333263647
 30
0.0
 41
2.0
 42
2.0
 43
2.0
 50
76.84398630143745
  0
MTEXT
  5
4238F
330
42306
100
AcDbEntity
  8
30
  6
Continuous
 62
     0
440
 16777216
100
AcDbMText
 10
565.5145842586332
 20
386.1418931499047
 30
0.0
 40
7.0
 41
0.0
 46
0.0
 71
     1
 72
     1
  1
\A1;∅9
 73
     1
 44
1.0
  0
POINT
  5
42390
330
42306
100
AcDbEntity
  8
DEFPOINTS
  6
Continuous
 62
     0
440
 16777216
100
AcDbPoint
 10
558.2784163581517
 20
354.7400333263647
 30
0.0
  0
POINT
  5
42391
330
42306
100
AcDbEntity
  8
DEFPOINTS
  6
Continuous
 62
     0
440
 16777216
100
AcDbPoint
 10
556.2299859315275
 20
345.9762480261856
 30
0.0
  0
ENDBLK
  5
42308
330
42306
100
AcDbEntity
  8
0
100
AcDbBlockEnd
  0
BLOCK
  5
42312
330
42311
100
AcDbEntity
  8
0
100
AcDbBlockBegin
  2
*D55
 70
     1
 10
0.0
 20
0.0
 30
0.0
  3
*D55
  1

  0
LINE
  5
42392
330
42311
100
AcDbEntity
  8
30
  6
Continuous
 62
     0
440
 16777216
370
    -2
100
AcDbLine
 10
569.8337534941027
 20
360.358143149006
 30
0.0
 11
587.2569003220377
 21
360.358143149006
 31
0.0
  0
LINE
  5
42393
330
42311
100
AcDbEntity
  8
30
  6
Continuous
 62
     0
440
 16777216
370
    -2
100
AcDbLine
 10
571.4663522490877
 20
340.3581406762754
 30
0.0
 11
587.2569003220377
 21
340.3581406762754
 31
0.0
  0
LINE
  5
42394
330
42311
100
AcDbEntity
  8
30
440
 16777216
370
    -2
100
AcDbLine
 10
586.7569003220377
 20
357.358143149006
 30
0.0
 11
586.7569003220377
 21
343.3581406762753
 31
0.0
  0
LINE
  5
42395
330
42311
100
AcDbEntity
  8
30
440
 16777216
370
    -2
100
AcDbLine
 10
586.7569003220377
 20
315.8801883526571
 30
0.0
 11
586.7569003220377
 21
340.3581406762754
 31
0.0
  0
MTEXT
  5
42396
330
42311
100
AcDbEntity
  8
30
  6
Continuous
440
 16777216
100
AcDbMText
 10
576.7569003220377
 20
324.1301883526572
 30
0.0
 40
7.0
 41
0.0
 46
0.0
 71
     2
 72
     1
  1
\A1;20
 11
0.0000000000000001
 21
1.0
 31
0.0
 73
     1
 44
1.0
 90
        3
 63
     9
421
 13158600
 45
1.25
441
        0
  0
INSERT
  5
42397
330
42311
100
AcDbEntity
  8
30
  6
Continuous
440
 16777216
370
    -2
100
AcDbBlockReference
  2
_OPEN
 10
586.7569003220377
 20
360.358143149006
 30
0.0
 41
3.0
 42
3.0
 43
3.0
 50
90.0
  0
INSERT
  5
42398
330
42311
100
AcDbEntity
  8
30
  6
Continuous
440
 16777216
370
    -2
100
AcDbBlockReference
  2
_OPEN
 10
586.7569003220377
 20
340.3581406762754
 30
0.0
 41
3.0
 42
3.0
 43
3.0
 50
270.0
  0
POINT
  5
42399
330
42311
100
AcDbEntity
  8
DEFPOINTS
  6
Continuous
 62
     0
440
 16777216
100
AcDbPoint
 10
568.8337534941029
 20
360.358143149006
 30
0.0
  0
POINT
  5
4239A
330
42311
100
AcDbEntity
  8
DEFPOINTS
  6
Continuous
 62
     0
440
 16777216
100
AcDbPoint
 10
570.4663522490878
 20
340.3581406762754
 30
0.0
  0
POINT
  5
4239B
330
42311
100
AcDbEntity
  8
DEFPOINTS
  6
Continuous
 62
     0
440
 16777216
100
AcDbPoint
 10
586.7569003220377
 20
340.3581406762754
 30
0.0
  0
ENDBLK
  5
42313
330
42311
100
AcDbEntity
  8
0
100
AcDbBlockEnd
  0
BLOCK
  5
4231F
330
4231E
100
AcDbEntity
  8
0
100
AcDbBlockBegin
  2
*D56
 70
     1
 10
0.0
 20
0.0
 30
0.0
  3
*D56
  1

  0
LINE
  5
42450
330
4231E
100
AcDbEntity
  8
30
 62
     0
440
 16777216
370
    -2
100
AcDbLine
 10
410.7542004296377
 20
325.3581398418754
 30
0.0
 11
410.7542004296377
 21
266.7660636469041
 31
0.0
  0
LINE
  5
42451
330
4231E
100
AcDbEntity
  8
30
 62
     0
440
 16777216
370
    -2
100
AcDbLine
 10
370.2542004296379
 20
419.3581424627558
 30
0.0
 11
370.2542004296379
 21
266.7660636469041
 31
0.0
  0
LINE
  5
42452
330
4231E
100
AcDbEntity
  8
30
440
 16777216
370
    -2
100
AcDbLine
 10
407.7542004296375
 20
267.2660636469041
 30
0.0
 11
373.2542004296379
 21
267.2660636469041
 31
0.0
  0
INSERT
  5
42453
330
4231E
100
AcDbEntity
  8
30
440
 16777216
370
    -2
100
AcDbBlockReference
  2
_OPEN
 10
410.7542004296377
 20
267.2660636469041
 30
0.0
 41
3.0
 42
3.0
 43
3.0
  0
INSERT
  5
42454
330
4231E
100
AcDbEntity
  8
30
440
 16777216
370
    -2
100
AcDbBlockReference
  2
_OPEN
 10
370.2542004296379
 20
267.2660636469041
 30
0.0
 41
3.0
 42
3.0
 43
3.0
 50
180.0
  0
MTEXT
  5
42455
330
4231E
100
AcDbEntity
  8
30
440
 16777216
100
AcDbMText
 10
390.5042004296378
 20
273.7660636469041
 30
0.0
 40
7.0
 41
0.0
 46
0.0
 71
     5
 72
     1
  1
\A1;40.5
 73
     1
 44
1.0
 90
        3
 63
     9
421
 13158600
 45
1.25
441
        0
  0
POINT
  5
42456
330
4231E
100
AcDbEntity
  8
DEFPOINTS
 62
     0
440
 16777216
100
AcDbPoint
 10
410.7542004296377
 20
326.3581398418754
 30
0.0
  0
POINT
  5
42457
330
4231E
100
AcDbEntity
  8
DEFPOINTS
 62
     0
440
 16777216
100
AcDbPoint
 10
370.2542004296379
 20
420.3581424627558
 30
0.0
  0
POINT
  5
42458
330
4231E
100
AcDbEntity
  8
DEFPOINTS
 62
     0
440
 16777216
100
AcDbPoint
 10
370.2542004296379
 20
267.2660636469041
 30
0.0
  0
ENDBLK
  5
42320
330
4231E
100
AcDbEntity
  8
0
100
AcDbBlockEnd
  0
BLOCK
  5
4232B
330
4232A
100
AcDbEntity
  8
0
100
AcDbBlockBegin
  2
*D57
 70
     1
 10
0.0
 20
0.0
 30
0.0
  3
*D57
  1

  0
LINE
  5
4247F
330
4232A
100
AcDbEntity
  8
30
 62
     0
440
 16777216
370
    -2
100
AcDbLine
 10
410.7542004296377
 20
325.3581398418754
 30
0.0
 11
410.7542004296377
 21
290.6974963124985
 31
0.0
  0
LINE
  5
42480
330
4232A
100
AcDbEntity
  8
30
 62
     0
440
 16777216
370
    -2
100
AcDbLine
 10
537.7575165276242
 20
341.9198075722162
 30
0.0
 11
537.7575165276242
 21
290.6974963124985
 31
0.0
  0
LINE
  5
42481
330
4232A
100
AcDbEntity
  8
30
440
 16777216
370
    -2
100
AcDbLine
 10
413.7542004296377
 20
291.1974963124985
 30
0.0
 11
534.7575165276242
 21
291.1974963124985
 31
0.0
  0
INSERT
  5
42482
330
4232A
100
AcDbEntity
  8
30
440
 16777216
370
    -2
100
AcDbBlockReference
  2
_OPEN
 10
410.7542004296377
 20
291.1974963124985
 30
0.0
 41
3.0
 42
3.0
 43
3.0
 50
180.0
  0
INSERT
  5
42483
330
4232A
100
AcDbEntity
  8
30
440
 16777216
370
    -2
100
AcDbBlockReference
  2
_OPEN
 10
537.7575165276242
 20
291.1974963124985
 30
0.0
 41
3.0
 42
3.0
 43
3.0
  0
MTEXT
  5
42484
330
4232A
100
AcDbEntity
  8
30
440
 16777216
100
AcDbMText
 10
474.2558584786308
 20
297.6974963124985
 30
0.0
 40
7.0
 41
0.0
 46
0.0
 71
     5
 72
     1
  1
\A1;127
 73
     1
 44
1.0
 90
        3
 63
     9
421
 13158600
 45
1.25
441
        0
  0
POINT
  5
42485
330
4232A
100
AcDbEntity
  8
DEFPOINTS
 62
     0
440
 16777216
100
AcDbPoint
 10
410.7542004296377
 20
326.3581398418754
 30
0.0
  0
POINT
  5
42486
330
4232A
100
AcDbEntity
  8
DEFPOINTS
 62
     0
440
 16777216
100
AcDbPoint
 10
537.7575165276242
 20
342.9198075722162
 30
0.0
  0
POINT
  5
42487
330
4232A
100
AcDbEntity
  8
DEFPOINTS
 62
     0
440
 16777216
100
AcDbPoint
 10
537.7575165276242
 20
291.1974963124985
 30
0.0
  0
ENDBLK
  5
4232C
330
4232A
100
AcDbEntity
  8
0
100
AcDbBlockEnd
  0
BLOCK
  5
42337
330
42336
100
AcDbEntity
  8
0
100
AcDbBlockBegin
  2
*D58
 70
     1
 10
0.0
 20
0.0
 30
0.0
  3
*D58
  1

  0
LINE
  5
4249A
330
42336
100
AcDbEntity
  8
30
 62
     0
440
 16777216
370
    -2
100
AcDbLine
 10
410.7542004296377
 20
300.7024978477996
 30
0.0
 11
410.7542004296377
 21
266.7660636469041
 31
0.0
  0
LINE
  5
4249B
330
42336
100
AcDbEntity
  8
30
 62
     0
440
 16777216
370
    -2
100
AcDbLine
 10
572.799299950565
 20
342.1082025083233
 30
0.0
 11
572.799299950565
 21
266.7660636469041
 31
0.0
  0
LINE
  5
4249C
330
42336
100
AcDbEntity
  8
30
440
 16777216
370
    -2
100
AcDbLine
 10
413.7542004296377
 20
267.2660636469041
 30
0.0
 11
569.7992999505649
 21
267.2660636469041
 31
0.0
  0
INSERT
  5
4249D
330
42336
100
AcDbEntity
  8
30
440
 16777216
370
    -2
100
AcDbBlockReference
  2
_OPEN
 10
410.7542004296377
 20
267.2660636469041
 30
0.0
 41
3.0
 42
3.0
 43
3.0
 50
180.0
  0
INSERT
  5
4249E
330
42336
100
AcDbEntity
  8
30
440
 16777216
370
    -2
100
AcDbBlockReference
  2
_OPEN
 10
572.799299950565
 20
267.2660636469041
 30
0.0
 41
3.0
 42
3.0
 43
3.0
  0
MTEXT
  5
4249F
330
42336
100
AcDbEntity
  8
30
440
 16777216
100
AcDbMText
 10
491.7767501901013
 20
273.7660636469041
 30
0.0
 40
7.0
 41
0.0
 46
0.0
 71
     5
 72
     1
  1
\A1;162
 73
     1
 44
1.0
 90
        3
 63
     9
421
 13158600
 45
1.25
441
        0
  0
POINT
  5
424A0
330
42336
100
AcDbEntity
  8
DEFPOINTS
 62
     0
440
 16777216
100
AcDbPoint
 10
410.7542004296377
 20
301.7024978477996
 30
0.0
  0
POINT
  5
424A1
330
42336
100
AcDbEntity
  8
DEFPOINTS
 62
     0
440
 16777216
100
AcDbPoint
 10
572.799299950565
 20
343.1082025083234
 30
0.0
  0
POINT
  5
424A2
330
42336
100
AcDbEntity
  8
DEFPOINTS
 62
     0
440
 16777216
100
AcDbPoint
 10
572.799299950565
 20
267.2660636469041
 30
0.0
  0
ENDBLK
  5
42338
330
42336
100
AcDbEntity
  8
0
100
AcDbBlockEnd
  0
BLOCK
  5
42343
330
42342
100
AcDbEntity
  8
0
100
AcDbBlockBegin
  2
*D59
 70
     1
 10
0.0
 20
0.0
 30
0.0
  3
*D59
  1

  0
LINE
  5
423B7
330
42342
100
AcDbEntity
  8
30
 62
     0
440
 16777216
370
    -2
100
AcDbLine
 10
514.2542004296383
 20
351.3581406762754
 30
0.0
 11
514.2542004296383
 21
374.7987860022814
 31
0.0
  0
LINE
  5
423B8
330
42342
100
AcDbEntity
  8
30
 62
     0
440
 16777216
370
    -2
100
AcDbLine
 10
529.2542004296374
 20
351.3581406762754
 30
0.0
 11
529.2542004296374
 21
374.7987860022814
 31
0.0
  0
LINE
  5
423B9
330
42342
100
AcDbEntity
  8
30
440
 16777216
370
    -2
100
AcDbLine
 10
517.2542004296383
 20
374.2987860022814
 30
0.0
 11
526.2542004296374
 21
374.2987860022814
 31
0.0
  0
MTEXT
  5
423BA
330
42342
100
AcDbEntity
  8
30
440
 16777216
100
AcDbMText
 10
521.7542004296379
 20
380.7987860022814
 30
0.0
 40
7.0
 41
0.0
 46
0.0
 71
     5
 72
     1
  1
\A1;15
 73
     1
 44
1.0
 90
        3
 63
     9
421
 13158600
 45
1.25
441
        0
  0
INSERT
  5
423BB
330
42342
100
AcDbEntity
  8
30
440
 16777216
370
    -2
100
AcDbBlockReference
  2
_OPEN
 10
514.2542004296383
 20
374.2987860022814
 30
0.0
 41
3.0
 42
3.0
 43
3.0
 50
180.0
  0
INSERT
  5
423BC
330
42342
100
AcDbEntity
  8
30
440
 16777216
370
    -2
100
AcDbBlockReference
  2
_OPEN
 10
529.2542004296374
 20
374.2987860022814
 30
0.0
 41
3.0
 42
3.0
 43
3.0
  0
POINT
  5
423BD
330
42342
100
AcDbEntity
  8
DEFPOINTS
 62
     0
440
 16777216
100
AcDbPoint
 10
514.2542004296383
 20
350.3581406762754
 30
0.0
  0
POINT
  5
423BE
330
42342
100
AcDbEntity
  8
DEFPOINTS
 62
     0
440
 16777216
100
AcDbPoint
 10
529.2542004296374
 20
350.3581406762754
 30
0.0
  0
POINT
  5
423BF
330
42342
100
AcDbEntity
  8
DEFPOINTS
 62
     0
440
 16777216
100
AcDbPoint
 10
529.2542004296374
 20
374.2987860022814
 30
0.0
  0
ENDBLK
  5
42344
330
42342
100
AcDbEntity
  8
0
100
AcDbBlockEnd
  0
BLOCK
  5
42405
330
42404
100
AcDbEntity
  8
0
100
AcDbBlockBegin
  2
*D60
 70
     1
 10
0.0
 20
0.0
 30
0.0
  3
*D60
  1

  0
LINE
  5
42407
330
42404
100
AcDbEntity
  8
30
 62
     0
440
 16777216
370
    -2
100
AcDbLine
 10
244.8572107376476
 20
198.992203237103
 30
0.0
 11
294.5311237180185
 21
198.992203237103
 31
0.0
  0
LINE
  5
42408
330
42404
100
AcDbEntity
  8
30
 62
     0
440
 16777216
370
    -2
100
AcDbLine
 10
244.8572107376476
 20
134.8079329604232
 30
0.0
 11
294.5311237180185
 21
134.8079329604232
 31
0.0
  0
LINE
  5
42409
330
42404
100
AcDbEntity
  8
30
440
 16777216
370
    -2
100
AcDbLine
 10
294.0311237180186
 20
195.992203237103
 30
0.0
 11
294.0311237180186
 21
137.8079329604232
 31
0.0
  0
INSERT
  5
4240A
330
42404
100
AcDbEntity
  8
30
440
 16777216
370
    -2
100
AcDbBlockReference
  2
_OPEN
 10
294.0311237180186
 20
198.992203237103
 30
0.0
 41
3.0
 42
3.0
 43
3.0
 50
90.0
  0
INSERT
  5
4240B
330
42404
100
AcDbEntity
  8
30
440
 16777216
370
    -2
100
AcDbBlockReference
  2
_OPEN
 10
294.0311237180186
 20
134.8079329604232
 30
0.0
 41
3.0
 42
3.0
 43
3.0
 50
270.0
  0
MTEXT
  5
4240C
330
42404
100
AcDbEntity
  8
30
440
 16777216
100
AcDbMText
 10
287.5311237180185
 20
166.9000680987631
 30
0.0
 40
7.0
 41
0.0
 46
0.0
 71
     5
 72
     1
  1
\A1;64.2
 11
0.0000000000000001
 21
1.0
 31
0.0
 73
     1
 44
1.0
 90
        3
 63
     9
421
 13158600
 45
1.25
441
        0
  0
POINT
  5
4240D
330
42404
100
AcDbEntity
  8
DEFPOINTS
 62
     0
440
 16777216
100
AcDbPoint
 10
243.8572107376476
 20
198.992203237103
 30
0.0
  0
POINT
  5
4240E
330
42404
100
AcDbEntity
  8
DEFPOINTS
 62
     0
440
 16777216
100
AcDbPoint
 10
243.8572107376476
 20
134.8079329604232
 30
0.0
  0
POINT
  5
4240F
330
42404
100
AcDbEntity
  8
DEFPOINTS
 62
     0
440
 16777216
100
AcDbPoint
 10
294.0311237180186
 20
134.8079329604232
 30
0.0
  0
ENDBLK
  5
42406
330
42404
100
AcDbEntity
  8
0
100
AcDbBlockEnd
  0
BLOCK
  5
42412
330
42411
100
AcDbEntity
  8
0
100
AcDbBlockBegin
  2
*D61
 70
     1
 10
0.0
 20
0.0
 30
0.0
  3
*D61
  1

  0
LINE
  5
42414
330
42411
100
AcDbEntity
  8
30
 62
     0
440
 16777216
370
    -2
100
AcDbLine
 10
244.8572107376476
 20
198.992203237103
 30
0.0
 11
299.4546329848899
 21
198.992203237103
 31
0.0
  0
LINE
  5
42415
330
42411
100
AcDbEntity
  8
30
 62
     0
440
 16777216
370
    -2
100
AcDbLine
 10
244.8572107376476
 20
133.0079329604232
 30
0.0
 11
299.4546329848899
 21
133.0079329604232
 31
0.0
  0
LINE
  5
42416
330
42411
100
AcDbEntity
  8
30
440
 16777216
370
    -2
100
AcDbLine
 10
298.95463298489
 20
195.992203237103
 30
0.0
 11
298.95463298489
 21
136.0079329604232
 31
0.0
  0
INSERT
  5
42417
330
42411
100
AcDbEntity
  8
30
440
 16777216
370
    -2
100
AcDbBlockReference
  2
_OPEN
 10
298.95463298489
 20
198.992203237103
 30
0.0
 41
3.0
 42
3.0
 43
3.0
 50
90.0
  0
INSERT
  5
42418
330
42411
100
AcDbEntity
  8
30
440
 16777216
370
    -2
100
AcDbBlockReference
  2
_OPEN
 10
298.95463298489
 20
133.0079329604232
 30
0.0
 41
3.0
 42
3.0
 43
3.0
 50
270.0
  0
MTEXT
  5
42419
330
42411
100
AcDbEntity
  8
30
440
 16777216
100
AcDbMText
 10
292.4546329848899
 20
166.0000680987631
 30
0.0
 40
7.0
 41
0.0
 46
0.0
 71
     5
 72
     1
  1
\A1;66
 11
0.0000000000000001
 21
1.0
 31
0.0
 73
     1
 44
1.0
 90
        3
 63
     9
421
 13158600
 45
1.25
441
        0
  0
POINT
  5
4241A
330
42411
100
AcDbEntity
  8
DEFPOINTS
 62
     0
440
 16777216
100
AcDbPoint
 10
243.8572107376476
 20
198.992203237103
 30
0.0
  0
POINT
  5
4241B
330
42411
100
AcDbEntity
  8
DEFPOINTS
 62
     0
440
 16777216
100
AcDbPoint
 10
243.8572107376476
 20
133.0079329604232
 30
0.0
  0
POINT
  5
4241C
330
42411
100
AcDbEntity
  8
DEFPOINTS
 62
     0
440
 16777216
100
AcDbPoint
 10
298.95463298489
 20
133.0079329604232
 30
0.0
  0
ENDBLK
  5
42413
330
42411
100
AcDbEntity
  8
0
100
AcDbBlockEnd
  0
BLOCK
  5
424AE
330
424AD
100
AcDbEntity
  8
0
100
AcDbBlockBegin
  2
*D62
 70
     1
 10
0.0
 20
0.0
 30
0.0
  3
*D62
  1

  0
LINE
  5
424C4
330
424AD
100
AcDbEntity
  8
30
 62
     0
440
 16777216
370
    -2
100
AcDbLine
 10
537.7575165276242
 20
339.9198075722163
 30
0.0
 11
537.7575165276242
 21
319.2048428152493
 31
0.0
  0
LINE
  5
424C5
330
424AD
100
AcDbEntity
  8
30
 62
     0
440
 16777216
370
    -2
100
AcDbLine
 10
524.7542004296378
 20
340.3581406762754
 30
0.0
 11
524.7542004296378
 21
319.2048428152493
 31
0.0
  0
LINE
  5
424C6
330
424AD
100
AcDbEntity
  8
30
 62
     0
440
 16777216
370
    -2
100
AcDbLine
 10
535.7575165276243
 20
319.7048428152493
 30
0.0
 11
526.7542004296378
 21
319.7048428152493
 31
0.0
  0
INSERT
  5
424C7
330
424AD
100
AcDbEntity
  8
30
 62
     0
440
 16777216
370
    -2
100
AcDbBlockReference
  2
_OPEN
 10
537.7575165276242
 20
319.7048428152493
 30
0.0
 41
2.0
 42
2.0
 43
2.0
  0
INSERT
  5
424C8
330
424AD
100
AcDbEntity
  8
30
 62
     0
440
 16777216
370
    -2
100
AcDbBlockReference
  2
_OPEN
 10
524.7542004296378
 20
319.7048428152493
 30
0.0
 41
2.0
 42
2.0
 43
2.0
 50
180.0
  0
MTEXT
  5
424C9
330
424AD
100
AcDbEntity
  8
30
 62
     0
440
 16777216
100
AcDbMText
 10
531.2558584786311
 20
325.2048428152493
 30
0.0
 40
7.0
 41
0.0
 46
0.0
 71
     5
 72
     1
  1
\A1;13
 73
     1
 44
1.0
  0
POINT
  5
424CA
330
424AD
100
AcDbEntity
  8
DEFPOINTS
 62
     0
440
 16777216
100
AcDbPoint
 10
537.7575165276242
 20
342.9198075722163
 30
0.0
  0
POINT
  5
424CB
330
424AD
100
AcDbEntity
  8
DEFPOINTS
 62
     0
440
 16777216
100
AcDbPoint
 10
524.7542004296378
 20
343.3581406762753
 30
0.0
  0
POINT
  5
424CC
330
424AD
100
AcDbEntity
  8
DEFPOINTS
 62
     0
440
 16777216
100
AcDbPoint
 10
524.7542004296378
 20
319.7048428152493
 30
0.0
  0
ENDBLK
  5
424AF
330
424AD
100
AcDbEntity
  8
0
100
AcDbBlockEnd
  0
BLOCK
  5
424CF
330
424CE
100
AcDbEntity
  8
0
100
AcDbBlockBegin
  2
*D63
 70
     1
 10
0.0
 20
0.0
 30
0.0
  3
*D63
  1

  0
LINE
  5
424DE
330
424CE
100
AcDbEntity
  8
30
 62
     0
440
 16777216
370
    -2
100
AcDbLine
 10
524.7542004296378
 20
340.3581406762754
 30
0.0
 11
524.7542004296378
 21
319.2048428152493
 31
0.0
  0
LINE
  5
424DF
330
424CE
100
AcDbEntity
  8
30
 62
     0
440
 16777216
370
    -2
100
AcDbLine
 10
518.7542004296378
 20
340.3581406762754
 30
0.0
 11
518.7542004296378
 21
319.2048428152493
 31
0.0
  0
LINE
  5
424E0
330
424CE
100
AcDbEntity
  8
30
 62
     0
440
 16777216
370
    -2
100
AcDbLine
 10
526.7542004296378
 20
319.7048428152493
 30
0.0
 11
528.7542004296378
 21
319.7048428152493
 31
0.0
  0
LINE
  5
424E1
330
424CE
100
AcDbEntity
  8
30
 62
     0
440
 16777216
370
    -2
100
AcDbLine
 10
516.7542004296378
 20
319.7048428152493
 30
0.0
 11
506.0875337629711
 21
319.7048428152493
 31
0.0
  0
LINE
  5
424E2
330
424CE
100
AcDbEntity
  8
30
 62
     0
440
 16777216
370
    -2
100
AcDbLine
 10
524.7542004296378
 20
319.7048428152493
 30
0.0
 11
518.7542004296378
 21
319.7048428152493
 31
0.0
  0
INSERT
  5
424E3
330
424CE
100
AcDbEntity
  8
30
 62
     0
440
 16777216
370
    -2
100
AcDbBlockReference
  2
_OPEN
 10
524.7542004296378
 20
319.7048428152493
 30
0.0
 41
2.0
 42
2.0
 43
2.0
 50
180.0
  0
INSERT
  5
424E4
330
424CE
100
AcDbEntity
  8
30
 62
     0
440
 16777216
370
    -2
100
AcDbBlockReference
  2
_OPEN
 10
518.7542004296378
 20
319.7048428152493
 30
0.0
 41
2.0
 42
2.0
 43
2.0
  0
MTEXT
  5
424E5
330
424CE
100
AcDbEntity
  8
30
 62
     0
440
 16777216
100
AcDbMText
 10
510.4208670963044
 20
325.2048428152493
 30
0.0
 40
7.0
 41
0.0
 46
0.0
 71
     5
 72
     1
  1
\A1;6
 73
     1
 44
1.0
  0
POINT
  5
424E6
330
424CE
100
AcDbEntity
  8
DEFPOINTS
 62
     0
440
 16777216
100
AcDbPoint
 10
524.7542004296378
 20
343.3581406762753
 30
0.0
  0
POINT
  5
424E7
330
424CE
100
AcDbEntity
  8
DEFPOINTS
 62
     0
440
 16777216
100
AcDbPoint
 10
518.7542004296378
 20
343.3581406762753
 30
0.0
  0
POINT
  5
424E8
330
424CE
100
AcDbEntity
  8
DEFPOINTS
 62
     0
440
 16777216
100
AcDbPoint
 10
518.7542004296378
 20
319.7048428152493
 30
0.0
  0
ENDBLK
  5
424D0
330
424CE
100
AcDbEntity
  8
0
100
AcDbBlockEnd
  0
ENDSEC
  0
SECTION
  2
ENTITIES
  0
LWPOLYLINE
  5
3F43D
330
1E
100
AcDbEntity
  8
130
  6
Continuous
100
AcDbPolyline
 90
        4
 70
     1
 43
0.0
 10
0.0
 20
891.0
 10
630.0
 20
891.0
 10
630.0
 20
0.0
 10
0.0
 20
0.0
  0
LINE
  5
3F43F
330
1E
100
AcDbEntity
  8
16
100
AcDbLine
 10
140.8572107376476
 20
318.5335423406645
 30
0.0
 11
140.8572107376476
 21
525.9655003174389
 31
0.0
  0
LINE
  5
3F440
330
1E
100
AcDbEntity
  8
16
100
AcDbLine
 10
259.8082911148258
 20
420.3581424627558
 30
0.0
 11
56.9513289564902
 21
420.3581424627558
 31
0.0
  0
LINE
  5
3F441
330
1E
100
AcDbEntity
  8
16
100
AcDbLine
 10
140.857210737648
 20
542.8649896387078
 30
0.0
 11
140.857210737648
 21
760.9989783332409
 31
0.0
  0
LINE
  5
3F444
330
1E
100
AcDbEntity
  8
16
100
AcDbLine
 10
140.8572107376476
 20
68.24026347425736
 30
0.0
 11
140.8572107376476
 21
267.375602446589
 31
0.0
  0
DIMENSION
  5
3F445
330
1E
100
AcDbEntity
  8
30
  6
Continuous
100
AcDbDimension
280
     0
  2
*D12
 10
254.3572107376476
 20
298.5762873425374
 30
0.0
 11
158.3572107376476
 21
305.0762873425374
 31
0.0
 70
    32
 71
     5
 42
192.0
 73
     0
 74
     0
 75
     0
  3
STANDARD
100
AcDbAlignedDimension
 13
62.35721073764762
 23
325.312854886021
 33
0.0
 14
254.3572107376476
 24
325.312854886021
 34
0.0
 50
180.0
100
AcDbRotatedDimension
  0
LWPOLYLINE
  5
3F446
330
1E
100
AcDbEntity
  8
10
  6
HIDDEN
 48
2.0
100
AcDbPolyline
 90
        4
 70
     1
 43
0.0
 10
228.3572107376476
 20
502.8581424627558
 10
88.35721073764764
 20
502.8581424627558
 10
88.35721073764764
 20
337.8581424627558
 10
228.3572107376476
 20
337.8581424627558
  0
LWPOLYLINE
  5
3F447
330
1E
100
AcDbEntity
  8
10
100
AcDbPolyline
 90
        8
 70
     1
 43
0.0
 10
254.3572107376476
 20
511.3581424627558
 42
0.4142135623730951
 10
249.3572107376476
 20
516.3581424627558
 10
67.35721073764762
 20
516.3581424627558
 42
0.4142135623730951
 10
62.35721073764762
 20
511.3581424627558
 10
62.35721073764762
 20
329.3581424627558
 42
0.4142135623730951
 10
67.35721073764762
 20
324.3581424627558
 10
249.3572107376476
 20
324.3581424627558
 42
0.4142135623730951
 10
254.3572107376476
 20
329.3581424627558
  0
CIRCLE
  5
3F448
330
1E
100
AcDbEntity
  8
12
100
AcDbCircle
 10
72.85721073764761
 20
387.3581424627559
 30
0.0
 40
2.5
  0
LINE
  5
3F449
330
1E
100
AcDbEntity
  8
12
100
AcDbLine
 10
69.35721073764762
 20
387.3581424627559
 30
0.0
 11
76.35721073764763
 21
387.3581424627559
 31
0.0
  0
LINE
  5
3F44A
330
1E
100
AcDbEntity
  8
12
100
AcDbLine
 10
72.85721073764761
 20
383.8581424627552
 30
0.0
 11
72.85721073764761
 21
390.8581424627552
 31
0.0
  0
CIRCLE
  5
3F44B
330
1E
100
AcDbEntity
  8
12
100
AcDbCircle
 10
72.85721073764761
 20
453.3581424627558
 30
0.0
 40
2.5
  0
LINE
  5
3F44C
330
1E
100
AcDbEntity
  8
12
100
AcDbLine
 10
69.35721073764762
 20
453.3581424627558
 30
0.0
 11
76.35721073764763
 21
453.3581424627558
 31
0.0
  0
LINE
  5
3F44D
330
1E
100
AcDbEntity
  8
12
100
AcDbLine
 10
72.85721073764761
 20
449.8581424627551
 30
0.0
 11
72.85721073764761
 21
456.8581424627551
 31
0.0
  0
CIRCLE
  5
3F44E
330
1E
100
AcDbEntity
  8
12
100
AcDbCircle
 10
243.8572107376476
 20
387.3581424627559
 30
0.0
 40
2.5
  0
LINE
  5
3F44F
330
1E
100
AcDbEntity
  8
12
100
AcDbLine
 10
243.8572107376476
 20
383.8581424627552
 30
0.0
 11
243.8572107376476
 21
390.8581424627552
 31
0.0
  0
LINE
  5
3F450
330
1E
100
AcDbEntity
  8
12
100
AcDbLine
 10
240.3572107376476
 20
387.3581424627559
 30
0.0
 11
247.3572107376476
 21
387.3581424627559
 31
0.0
  0
CIRCLE
  5
3F451
330
1E
100
AcDbEntity
  8
12
100
AcDbCircle
 10
243.8572107376476
 20
453.3581424627558
 30
0.0
 40
2.5
  0
LINE
  5
3F452
330
1E
100
AcDbEntity
  8
12
100
AcDbLine
 10
240.3572107376476
 20
453.3581424627558
 30
0.0
 11
247.3572107376476
 21
453.3581424627558
 31
0.0
  0
LINE
  5
3F453
330
1E
100
AcDbEntity
  8
12
100
AcDbLine
 10
243.8572107376476
 20
449.8581424627551
 30
0.0
 11
243.8572107376476
 21
456.8581424627551
 31
0.0
  0
LINE
  5
3F454
330
1E
100
AcDbEntity
  8
18
100
AcDbLine
 10
254.3572107376476
 20
600.6650505273839
 30
0.0
 11
52.35721073764762
 21
600.6650505273839
 31
0.0
  0
LWPOLYLINE
  5
3F455
330
1E
100
AcDbEntity
  8
10
100
AcDbPolyline
 90
        6
 70
     1
 43
0.0
 10
62.35721073764762
 20
581.7374285736689
 42
0.4142135623730951
 10
63.35721073764762
 20
580.7374285736689
 10
253.3572107376476
 20
580.7374285736689
 42
0.4142135623730951
 10
254.3572107376476
 20
581.7374285736689
 10
254.3572107376476
 20
595.7374285736687
 10
62.35721073764762
 20
595.7374285736687
  0
LINE
  5
3F456
330
1E
100
AcDbEntity
  8
17
  6
DASHDOT
100
AcDbLine
 10
153.8572107376481
 20
741.7374285736688
 30
0.0
 11
127.8572107376481
 21
741.7374285736688
 31
0.0
  0
LINE
  5
3F457
330
1E
100
AcDbEntity
  8
10
100
AcDbLine
 10
236.8572107376481
 20
650.7374285736687
 30
0.0
 11
79.85721073764806
 21
650.7374285736687
 31
0.0
  0
LINE
  5
3F458
330
1E
100
AcDbEntity
  8
10
100
AcDbLine
 10
88.35721073764807
 20
595.7374285736687
 30
0.0
 11
88.35721073764807
 21
650.7374285736686
 31
0.0
  0
LINE
  5
3F459
330
1E
100
AcDbEntity
  8
24
  6
Continuous
100
AcDbLine
 10
102.8572107376481
 20
684.7374285736689
 30
0.0
 11
102.8572107376481
 21
721.7374285736688
 31
0.0
  0
LINE
  5
3F45A
330
1E
100
AcDbEntity
  8
24
  6
Continuous
100
AcDbLine
 10
108.857210737648
 20
684.7374285736689
 30
0.0
 11
108.857210737648
 21
721.7374285736688
 31
0.0
  0
LINE
  5
3F45B
330
1E
100
AcDbEntity
  8
24
  6
Continuous
100
AcDbLine
 10
130.857210737648
 20
650.7374285736686
 30
0.0
 11
130.857210737648
 21
713.2374285736688
 31
0.0
  0
LINE
  5
3F45C
330
1E
100
AcDbEntity
  8
24
  6
Continuous
100
AcDbLine
 10
150.8572107376481
 20
650.7374285736686
 30
0.0
 11
150.8572107376481
 21
713.2374285736688
 31
0.0
  0
LINE
  5
3F45D
330
1E
100
AcDbEntity
  8
24
  6
Continuous
100
AcDbLine
 10
143.857210737648
 20
719.7374285736682
 30
0.0
 11
143.857210737648
 21
756.7374285736688
 31
0.0
  0
LINE
  5
3F45E
330
1E
100
AcDbEntity
  8
24
  6
Continuous
100
AcDbLine
 10
137.857210737648
 20
719.7374285736682
 30
0.0
 11
137.857210737648
 21
756.7374285736688
 31
0.0
  0
LINE
  5
3F45F
330
1E
100
AcDbEntity
  8
24
  6
Continuous
100
AcDbLine
 10
137.857210737648
 20
756.7374285736688
 30
0.0
 11
143.857210737648
 21
756.7374285736688
 31
0.0
  0
LINE
  5
3F460
330
1E
100
AcDbEntity
  8
24
  6
Continuous
100
AcDbLine
 10
102.8572107376481
 20
721.7374285736688
 30
0.0
 11
108.857210737648
 21
721.7374285736688
 31
0.0
  0
LINE
  5
3F461
330
1E
100
AcDbEntity
  8
24
  6
Continuous
100
AcDbLine
 10
150.8572107376481
 20
713.2374285736688
 30
0.0
 11
130.857210737648
 21
713.2374285736688
 31
0.0
  0
LINE
  5
3F462
330
1E
100
AcDbEntity
  8
24
  6
Continuous
100
AcDbLine
 10
135.857210737648
 20
713.2374285736688
 30
0.0
 11
135.857210737648
 21
719.7374285736688
 31
0.0
  0
LINE
  5
3F463
330
1E
100
AcDbEntity
  8
24
  6
Continuous
100
AcDbLine
 10
137.857210737648
 20
719.7374285736688
 30
0.0
 11
135.857210737648
 21
719.7374285736688
 31
0.0
  0
LINE
  5
3F464
330
1E
100
AcDbEntity
  8
24
  6
Continuous
100
AcDbLine
 10
145.8572107376481
 20
713.2374285736688
 30
0.0
 11
145.8572107376481
 21
719.7374285736688
 31
0.0
  0
LINE
  5
3F465
330
1E
100
AcDbEntity
  8
24
  6
Continuous
100
AcDbLine
 10
145.8572107376481
 20
719.7374285736688
 30
0.0
 11
143.857210737648
 21
719.7374285736688
 31
0.0
  0
LINE
  5
3F466
330
1E
100
AcDbEntity
  8
17
  6
DASHDOT
100
AcDbLine
 10
118.857210737648
 20
706.7374285736688
 30
0.0
 11
92.85721073764809
 21
706.7374285736688
 31
0.0
  0
LINE
  5
3F467
330
1E
100
AcDbEntity
  8
24
  6
Continuous
100
AcDbLine
 10
115.857210737648
 20
678.2374285736684
 30
0.0
 11
95.85721073764808
 21
678.2374285736684
 31
0.0
  0
LINE
  5
3F468
330
1E
100
AcDbEntity
  8
24
  6
Continuous
100
AcDbLine
 10
95.85721073764808
 20
650.7374285736686
 30
0.0
 11
95.85721073764808
 21
678.2374285736684
 31
0.0
  0
LINE
  5
3F469
330
1E
100
AcDbEntity
  8
24
  6
Continuous
100
AcDbLine
 10
115.857210737648
 20
650.7374285736686
 30
0.0
 11
115.857210737648
 21
678.2374285736684
 31
0.0
  0
LINE
  5
3F46A
330
1E
100
AcDbEntity
  8
24
  6
Continuous
100
AcDbLine
 10
100.8572107376481
 20
678.2374285736684
 30
0.0
 11
100.8572107376481
 21
684.7374285736689
 31
0.0
  0
LINE
  5
3F46B
330
1E
100
AcDbEntity
  8
24
  6
Continuous
100
AcDbLine
 10
110.857210737648
 20
678.2374285736684
 30
0.0
 11
110.857210737648
 21
684.7374285736689
 31
0.0
  0
LINE
  5
3F46C
330
1E
100
AcDbEntity
  8
24
  6
Continuous
100
AcDbLine
 10
100.8572107376481
 20
684.7374285736689
 30
0.0
 11
102.8572107376481
 21
684.7374285736689
 31
0.0
  0
LINE
  5
3F46D
330
1E
100
AcDbEntity
  8
24
  6
Continuous
100
AcDbLine
 10
108.857210737648
 20
684.7374285736689
 30
0.0
 11
110.857210737648
 21
684.7374285736689
 31
0.0
  0
LWPOLYLINE
  5
3F46E
330
1E
100
AcDbEntity
  8
10
100
AcDbPolyline
 90
        4
 70
     0
 43
0.0
 10
190.8751142728192
 20
580.7374285736689
 10
190.8751142728192
 20
578.7374285736689
 10
91.85721073764808
 20
578.7374285736689
 10
91.85721073764808
 20
580.7374285736689
  0
LINE
  5
3F46F
330
1E
100
AcDbEntity
  8
10
100
AcDbLine
 10
228.3572107376481
 20
650.7374285736686
 30
0.0
 11
228.3572107376481
 21
595.7374285736687
 31
0.0
  0
LINE
  5
3F470
330
1E
100
AcDbEntity
  8
24
  6
Continuous
100
AcDbLine
 10
172.857210737648
 20
684.7374285736689
 30
0.0
 11
172.857210737648
 21
721.7374285736688
 31
0.0
  0
LINE
  5
3F471
330
1E
100
AcDbEntity
  8
24
  6
Continuous
100
AcDbLine
 10
178.8572107376481
 20
684.7374285736689
 30
0.0
 11
178.8572107376481
 21
721.7374285736688
 31
0.0
  0
LINE
  5
3F472
330
1E
100
AcDbEntity
  8
24
  6
Continuous
100
AcDbLine
 10
172.857210737648
 20
721.7374285736688
 30
0.0
 11
178.8572107376481
 21
721.7374285736688
 31
0.0
  0
LINE
  5
3F473
330
1E
100
AcDbEntity
  8
24
  6
Continuous
100
AcDbLine
 10
165.857210737648
 20
650.7374285736686
 30
0.0
 11
165.857210737648
 21
678.2374285736684
 31
0.0
  0
LINE
  5
3F474
330
1E
100
AcDbEntity
  8
24
  6
Continuous
100
AcDbLine
 10
185.857210737648
 20
650.7374285736686
 30
0.0
 11
185.857210737648
 21
678.2374285736684
 31
0.0
  0
LINE
  5
3F475
330
1E
100
AcDbEntity
  8
17
  6
DASHDOT
100
AcDbLine
 10
188.8572107376475
 20
706.7374285736688
 30
0.0
 11
162.8572107376471
 21
706.7374285736688
 31
0.0
  0
LINE
  5
3F476
330
1E
100
AcDbEntity
  8
24
  6
Continuous
100
AcDbLine
 10
178.8572107376481
 20
684.7374285736689
 30
0.0
 11
180.8572107376481
 21
684.7374285736689
 31
0.0
  0
LINE
  5
3F477
330
1E
100
AcDbEntity
  8
24
  6
Continuous
100
AcDbLine
 10
185.857210737648
 20
678.2374285736684
 30
0.0
 11
165.857210737648
 21
678.2374285736684
 31
0.0
  0
LINE
  5
3F478
330
1E
100
AcDbEntity
  8
24
  6
Continuous
100
AcDbLine
 10
170.8572107376481
 20
678.2374285736684
 30
0.0
 11
170.8572107376481
 21
684.7374285736689
 31
0.0
  0
LINE
  5
3F479
330
1E
100
AcDbEntity
  8
24
  6
Continuous
100
AcDbLine
 10
170.8572107376481
 20
684.7374285736689
 30
0.0
 11
172.857210737648
 21
684.7374285736689
 31
0.0
  0
LINE
  5
3F47A
330
1E
100
AcDbEntity
  8
24
  6
Continuous
100
AcDbLine
 10
180.8572107376481
 20
678.2374285736684
 30
0.0
 11
180.8572107376481
 21
684.7374285736689
 31
0.0
  0
DIMENSION
  5
3F47B
330
1E
100
AcDbEntity
  8
30
  6
Continuous
100
AcDbDimension
280
     0
  2
*D13
 10
279.5418194323211
 20
324.3581424627558
 30
0.0
 11
273.041819432321
 21
420.3581424627558
 31
0.0
 70
    32
 71
     5
 42
192.0
 73
     0
 74
     0
 75
     0
  3
STANDARD
100
AcDbAlignedDimension
 13
252.5950615904003
 23
516.3581424627558
 33
0.0
 14
252.5950615904003
 24
324.3581424627558
 34
0.0
 50
90.0
100
AcDbRotatedDimension
1001
ACAD
1000
DSTYLE
1002
{
1070
    79
1070
     3
1002
}
  0
DIMENSION
  5
3F47C
330
1E
100
AcDbEntity
  8
30
  6
Continuous
100
AcDbDimension
280
     0
  2
*D14
 10
238.8572107376476
 20
41.77554233823864
 30
0.0
 11
158.3572107376476
 21
48.27554233823867
 31
0.0
 70
    32
 71
     5
 42
161.0
 73
     0
 74
     0
 75
     0
  3
STANDARD
100
AcDbAlignedDimension
 13
77.85721073764761
 23
76.39557063485681
 33
0.0
 14
238.8572107376476
 24
76.39557063485681
 34
0.0
100
AcDbRotatedDimension
1001
ACAD
1000
DSTYLE
1002
{
1070
    79
1070
     3
1002
}
  0
DIMENSION
  5
3F47D
330
1E
100
AcDbEntity
  8
30
  6
Continuous
100
AcDbDimension
280
     0
  2
*D15
 10
243.8572107376476
 20
23.52127499554581
 30
0.0
 11
158.3572107376476
 21
23.52127499554581
 31
0.0
 70
   160
 71
     5
 42
171.0
 73
     0
 74
     0
 75
     0
  3
STANDARD1
100
AcDbAlignedDimension
 13
72.85721073764761
 23
133.0079329604232
 33
0.0
 14
243.8572107376476
 24
133.0079329604232
 34
0.0
100
AcDbRotatedDimension
  0
DIMENSION
  5
3F47F
330
1E
100
AcDbEntity
  8
30
  6
Continuous
100
AcDbDimension
280
     0
  2
*D16
 10
140.857210737648
 20
775.4913357696827
 30
0.0
 11
123.357210737648
 21
780.9913357696828
 31
0.0
 70
    32
 71
     5
 42
35.0
 73
     0
 74
     0
 75
     0
  3
STANDARD1
100
AcDbAlignedDimension
 13
105.857210737648
 23
721.7374285736688
 33
0.0
 14
140.857210737648
 24
756.7374285736688
 34
0.0
100
AcDbRotatedDimension
  0
DIMENSION
  5
3F480
330
1E
100
AcDbEntity
  8
30
  6
Continuous
100
AcDbDimension
280
     0
  2
*D17
 10
175.8572107376481
 20
775.4913357696827
 30
0.0
 11
158.357210737648
 21
780.9913357696828
 31
0.0
 70
    32
 71
     5
 42
35.00000000000009
 73
     0
 74
     0
 75
     0
  3
STANDARD1
100
AcDbAlignedDimension
 13
140.857210737648
 23
756.7374285736688
 33
0.0
 14
175.8572107376481
 24
721.7374285736688
 34
0.0
100
AcDbRotatedDimension
  0
LINE
  5
3F481
330
1E
100
AcDbEntity
  8
24
  6
Continuous
100
AcDbLine
 10
207.8572107376481
 20
719.7374285736682
 30
0.0
 11
207.8572107376481
 21
756.7374285736688
 31
0.0
  0
LINE
  5
3F482
330
1E
100
AcDbEntity
  8
24
  6
Continuous
100
AcDbLine
 10
213.8572107376481
 20
719.7374285736682
 30
0.0
 11
213.8572107376481
 21
756.7374285736688
 31
0.0
  0
LINE
  5
3F483
330
1E
100
AcDbEntity
  8
24
  6
Continuous
100
AcDbLine
 10
220.8572107376481
 20
650.7374285736686
 30
0.0
 11
220.8572107376481
 21
713.2374285736688
 31
0.0
  0
LINE
  5
3F484
330
1E
100
AcDbEntity
  8
24
  6
Continuous
100
AcDbLine
 10
200.8572107376481
 20
650.7374285736686
 30
0.0
 11
200.8572107376481
 21
713.2374285736688
 31
0.0
  0
LINE
  5
3F485
330
1E
100
AcDbEntity
  8
24
  6
Continuous
100
AcDbLine
 10
220.8572107376481
 20
713.2374285736688
 30
0.0
 11
200.8572107376481
 21
713.2374285736688
 31
0.0
  0
LINE
  5
3F486
330
1E
100
AcDbEntity
  8
24
  6
Continuous
100
AcDbLine
 10
205.8572107376481
 20
713.2374285736688
 30
0.0
 11
205.8572107376481
 21
719.7374285736688
 31
0.0
  0
LINE
  5
3F487
330
1E
100
AcDbEntity
  8
24
  6
Continuous
100
AcDbLine
 10
207.8572107376481
 20
719.7374285736688
 30
0.0
 11
205.8572107376481
 21
719.7374285736688
 31
0.0
  0
LINE
  5
3F488
330
1E
100
AcDbEntity
  8
24
  6
Continuous
100
AcDbLine
 10
215.8572107376481
 20
713.2374285736688
 30
0.0
 11
215.8572107376481
 21
719.7374285736688
 31
0.0
  0
LINE
  5
3F489
330
1E
100
AcDbEntity
  8
24
  6
Continuous
100
AcDbLine
 10
215.8572107376481
 20
719.7374285736688
 30
0.0
 11
213.8572107376481
 21
719.7374285736688
 31
0.0
  0
LINE
  5
3F48A
330
1E
100
AcDbEntity
  8
24
  6
Continuous
100
AcDbLine
 10
207.8572107376481
 20
756.7374285736688
 30
0.0
 11
213.8572107376481
 21
756.7374285736688
 31
0.0
  0
LINE
  5
3F48B
330
1E
100
AcDbEntity
  8
17
  6
DASHDOT
100
AcDbLine
 10
223.8572107376481
 20
741.7374285736688
 30
0.0
 11
197.857210737648
 21
741.7374285736688
 31
0.0
  0
DIMENSION
  5
3F48C
330
1E
100
AcDbEntity
  8
30
  6
Continuous
100
AcDbDimension
280
     0
  2
*D18
 10
210.8572107376481
 20
775.4913357696827
 30
0.0
 11
191.3572107376481
 21
775.4913357696827
 31
0.0
 70
   160
 71
     5
 42
35.0
 73
     0
 74
     0
 75
     0
  3
STANDARD1
100
AcDbAlignedDimension
 13
175.8572107376481
 23
722.7374285736687
 33
0.0
 14
210.8572107376481
 24
756.7374285736688
 34
0.0
100
AcDbRotatedDimension
  0
LINE
  5
3F48D
330
1E
100
AcDbEntity
  8
10
100
AcDbLine
 10
189.8572107376476
 20
445.3581424627558
 30
0.0
 11
189.8572107376476
 21
395.3581424627558
 31
0.0
  0
LINE
  5
3F48E
330
1E
100
AcDbEntity
  8
10
100
AcDbLine
 10
129.8572107376476
 20
445.3581424627558
 30
0.0
 11
129.8572107376476
 21
395.3581424627558
 31
0.0
  0
LINE
  5
3F48F
330
1E
100
AcDbEntity
  8
10
100
AcDbLine
 10
151.8572107376476
 20
445.3581424627558
 30
0.0
 11
151.8572107376476
 21
395.3581424627558
 31
0.0
  0
LINE
  5
3F490
330
1E
100
AcDbEntity
  8
10
100
AcDbLine
 10
91.85721073764808
 20
445.3581424627558
 30
0.0
 11
91.85721073764808
 21
395.3581424627558
 31
0.0
  0
LINE
  5
3F491
330
1E
100
AcDbEntity
  8
10
100
AcDbLine
 10
91.85721073764808
 20
395.3581424627558
 30
0.0
 11
189.8572107376476
 21
395.3581424627558
 31
0.0
  0
LINE
  5
3F493
330
1E
100
AcDbEntity
  8
10
100
AcDbLine
 10
91.85721073764808
 20
445.3581424627558
 30
0.0
 11
189.8572107376476
 21
445.3581424627558
 31
0.0
  0
LINE
  5
3F495
330
1E
100
AcDbEntity
  8
10
100
AcDbLine
 10
147.8572107376476
 20
401.8581424627558
 30
0.0
 11
147.857210737648
 21
440.5130111685661
 31
0.0
  0
LINE
  5
3F496
330
1E
100
AcDbEntity
  8
10
100
AcDbLine
 10
133.8572107376476
 20
401.8581424627558
 30
0.0
 11
133.857210737648
 21
440.5130111685661
 31
0.0
  0
LINE
  5
3F497
330
1E
100
AcDbEntity
  8
10
100
AcDbLine
 10
133.8572107376476
 20
401.8581424627558
 30
0.0
 11
147.8572107376476
 21
401.8581424627558
 31
0.0
  0
LINE
  5
3F498
330
1E
100
AcDbEntity
  8
10
100
AcDbLine
 10
147.8572107376476
 20
435.5980989028323
 30
0.0
 11
133.8572107376476
 21
435.5980989028323
 31
0.0
  0
LINE
  5
3F499
330
1E
100
AcDbEntity
  8
10
100
AcDbLine
 10
147.8572107376476
 20
440.5130111685661
 30
0.0
 11
133.8572107376467
 21
440.5130111685661
 31
0.0
  0
LINE
  5
3F49A
330
1E
100
AcDbEntity
  8
10
100
AcDbLine
 10
147.8572107376476
 20
427.1989317696173
 30
0.0
 11
133.8572107376485
 21
427.1989317696173
 31
0.0
  0
MTEXT
  5
3F49B
330
1E
100
AcDbEntity
  8
0
  6
Continuous
100
AcDbMText
 10
411.7128025751481
 20
801.9494623097982
 30
0.0
 40
9.0
 41
182.0
 46
0.0
 71
     1
 72
     5
  1
PS250-PF 4P FP\PPS250-NE 4P FP\PPS250-PE 4P FP
  7
STANDARD1
 73
     1
 44
1.0
  0
LINE
  5
3F49C
330
1E
100
AcDbEntity
  8
10
100
AcDbLine
 10
79.85721073764806
 20
653.3374285736686
 30
0.0
 11
79.85721073764806
 21
650.7374285736687
 31
0.0
  0
LINE
  5
3F49D
330
1E
100
AcDbEntity
  8
10
100
AcDbLine
 10
236.8572107376481
 20
653.3374285736686
 30
0.0
 11
236.8572107376481
 21
650.7374285736687
 31
0.0
  0
LINE
  5
3F49E
330
1E
100
AcDbEntity
  8
10
100
AcDbLine
 10
115.857210737648
 20
655.9374285736687
 30
0.0
 11
125.8572107376481
 21
655.9374285736687
 31
0.0
  0
LINE
  5
3F49F
330
1E
100
AcDbEntity
  8
10
100
AcDbLine
 10
125.8572107376481
 20
655.9374285736687
 30
0.0
 11
125.8572107376481
 21
653.3374285736686
 31
0.0
  0
LINE
  5
3F4A0
330
1E
100
AcDbEntity
  8
10
100
AcDbLine
 10
150.8472107376483
 20
655.9374285736687
 30
0.0
 11
150.8472107376483
 21
653.3374285736686
 31
0.0
  0
LINE
  5
3F4A1
330
1E
100
AcDbEntity
  8
10
100
AcDbLine
 10
150.8472107376483
 20
655.9374285736687
 30
0.0
 11
165.857210737648
 21
655.9374285736687
 31
0.0
  0
LINE
  5
3F4A2
330
1E
100
AcDbEntity
  8
10
100
AcDbLine
 10
79.85721073764806
 20
653.3374285736686
 30
0.0
 11
95.85721073764808
 21
653.3374285736686
 31
0.0
  0
LINE
  5
3F4A3
330
1E
100
AcDbEntity
  8
10
100
AcDbLine
 10
115.857210737648
 20
653.3374285736686
 30
0.0
 11
130.857210737648
 21
653.3374285736686
 31
0.0
  0
LINE
  5
3F4A4
330
1E
100
AcDbEntity
  8
10
100
AcDbLine
 10
150.8572107376481
 20
653.3374285736686
 30
0.0
 11
165.857210737648
 21
653.3374285736686
 31
0.0
  0
LINE
  5
3F4A5
330
1E
100
AcDbEntity
  8
10
100
AcDbLine
 10
185.857210737648
 20
653.3374285736686
 30
0.0
 11
200.8572107376481
 21
653.3374285736686
 31
0.0
  0
LINE
  5
3F4A6
330
1E
100
AcDbEntity
  8
10
100
AcDbLine
 10
220.8572107376481
 20
653.3374285736686
 30
0.0
 11
236.8572107376481
 21
653.3374285736686
 31
0.0
  0
LINE
  5
3F4A7
330
1E
100
AcDbEntity
  8
10
100
AcDbLine
 10
82.35721073764805
 20
650.7374285736687
 30
0.0
 11
82.35721073764805
 21
595.7374285736687
 31
0.0
  0
LINE
  5
3F4A8
330
1E
100
AcDbEntity
  8
10
100
AcDbLine
 10
80.75721073764816
 20
595.7374285736687
 30
0.0
 11
80.75721073764816
 21
650.7374285736687
 31
0.0
  0
LINE
  5
3F4A9
330
1E
100
AcDbEntity
  8
10
100
AcDbLine
 10
234.3572107376481
 20
595.7374285736687
 30
0.0
 11
234.3572107376481
 21
650.7374285736687
 31
0.0
  0
LINE
  5
3F4AA
330
1E
100
AcDbEntity
  8
10
100
AcDbLine
 10
235.957210737648
 20
595.7374285736687
 30
0.0
 11
235.957210737648
 21
650.7374285736687
 31
0.0
  0
LINE
  5
3F4AB
330
1E
100
AcDbEntity
  8
10
100
AcDbLine
 10
79.85721073764806
 20
653.3374285736686
 30
0.0
 11
79.85721073764806
 21
654.9374285736687
 31
0.0
  0
LINE
  5
3F4AC
330
1E
100
AcDbEntity
  8
10
100
AcDbLine
 10
95.85721073764808
 20
654.9374285736687
 30
0.0
 11
79.85721073764806
 21
654.9374285736687
 31
0.0
  0
LINE
  5
3F4AD
330
1E
100
AcDbEntity
  8
10
100
AcDbLine
 10
236.8572107376481
 20
654.9374285736687
 30
0.0
 11
236.8572107376481
 21
653.3374285736686
 31
0.0
  0
LINE
  5
3F4AE
330
1E
100
AcDbEntity
  8
10
100
AcDbLine
 10
236.8572107376481
 20
654.9374285736687
 30
0.0
 11
220.8572107376481
 21
654.9374285736687
 31
0.0
  0
LINE
  5
3F4AF
330
1E
100
AcDbEntity
  8
10
100
AcDbLine
 10
83.23288573764784
 20
649.1374285736688
 30
0.0
 11
82.94421073764807
 21
649.6374285736687
 31
0.0
  0
LINE
  5
3F4B0
330
1E
100
AcDbEntity
  8
10
100
AcDbLine
 10
87.48153573764829
 20
649.1374285736688
 30
0.0
 11
83.23288573764784
 21
649.1374285736688
 31
0.0
  0
LINE
  5
3F4B1
330
1E
100
AcDbEntity
  8
10
100
AcDbLine
 10
87.77021073764808
 20
649.6374285736687
 30
0.0
 11
87.77021073764808
 21
650.7374285736687
 31
0.0
  0
LINE
  5
3F4B2
330
1E
100
AcDbEntity
  8
10
100
AcDbLine
 10
87.77021073764808
 20
649.6374285736687
 30
0.0
 11
87.48153573764829
 21
649.1374285736688
 31
0.0
  0
LINE
  5
3F4B3
330
1E
100
AcDbEntity
  8
10
100
AcDbLine
 10
82.94421073764807
 20
649.6374285736687
 30
0.0
 11
82.94421073764807
 21
650.7374285736687
 31
0.0
  0
LINE
  5
3F4B4
330
1E
100
AcDbEntity
  8
10
100
AcDbLine
 10
229.2328857376479
 20
649.1374285736688
 30
0.0
 11
228.9442107376481
 21
649.6374285736687
 31
0.0
  0
LINE
  5
3F4B5
330
1E
100
AcDbEntity
  8
10
100
AcDbLine
 10
233.4815357376483
 20
649.1374285736688
 30
0.0
 11
229.2328857376479
 21
649.1374285736688
 31
0.0
  0
LINE
  5
3F4B6
330
1E
100
AcDbEntity
  8
10
100
AcDbLine
 10
233.7702107376481
 20
649.6374285736687
 30
0.0
 11
233.7702107376481
 21
650.7374285736687
 31
0.0
  0
LINE
  5
3F4B7
330
1E
100
AcDbEntity
  8
10
100
AcDbLine
 10
233.7702107376481
 20
649.6374285736687
 30
0.0
 11
233.4815357376483
 21
649.1374285736688
 31
0.0
  0
LINE
  5
3F4B8
330
1E
100
AcDbEntity
  8
10
100
AcDbLine
 10
228.9442107376481
 20
649.6374285736687
 30
0.0
 11
228.9442107376481
 21
650.7374285736687
 31
0.0
  0
LWPOLYLINE
  5
3F4B9
330
1E
100
AcDbEntity
  8
10
 48
2.0
100
AcDbPolyline
 90
        4
 70
     1
 43
0.0
 10
77.85721073764761
 20
77.3079329604232
 10
77.85721073764761
 20
258.3079329604231
 10
238.8572107376481
 20
258.3079329604231
 10
238.8572107376481
 20
77.3079329604232
  0
LWPOLYLINE
  5
3F4BA
330
1E
100
AcDbEntity
  8
18
  6
DIVIDE
100
AcDbPolyline
 90
        8
 70
     1
 43
0.0
 10
62.35721073764762
 20
257.8079329604231
 10
62.35721073764762
 20
77.80793296042322
 42
0.4142135623730951
 10
68.35721073764762
 20
71.8079329604232
 10
248.3572107376481
 20
71.8079329604232
 42
0.4142135623730951
 10
254.3572107376481
 20
77.80793296042322
 10
254.3572107376481
 20
257.8079329604231
 42
0.4142135623730951
 10
248.3572107376481
 20
263.8079329604231
 10
68.35721073764762
 20
263.8079329604231
 42
0.4142135623730951
  0
DIMENSION
  5
3F4BF
330
1E
100
AcDbEntity
  8
30
  6
Continuous
100
AcDbDimension
280
     0
  2
*D19
 10
325.6626879725409
 20
77.30793296042318
 30
0.0
 11
325.6626879725409
 21
167.8079329604231
 31
0.0
 70
   160
  1
<>
 71
     2
 42
180.9999999999999
 73
     0
 74
     0
 75
     0
  3
STANDARD
100
AcDbAlignedDimension
 13
238.8572107376481
 23
258.3079329604231
 33
0.0
 14
238.8572107376481
 24
77.3079329604232
 34
0.0
 50
90.0
100
AcDbRotatedDimension
  0
LWPOLYLINE
  5
3F524
330
1E
100
AcDbEntity
  8
10
100
AcDbPolyline
 90
        4
 70
     0
 43
0.0
 10
151.8572106780475
 20
578.7374285736689
 10
151.8225034582215
 20
572.4359676253615
 10
129.9028004588713
 20
572.4359759323268
 10
129.8572107972477
 20
578.7374285736689
  0
LWPOLYLINE
  5
3F525
330
1E
100
AcDbEntity
  8
10
100
AcDbPolyline
 90
        6
 70
     0
 43
0.0
 10
134.3572106035635
 20
572.4359742442277
 10
134.3572106035622
 20
557.311022482279
 42
0.3724153873618285
 10
134.8805261113812
 20
556.7691381214257
 10
146.8554655738985
 20
556.7691381214257
 42
0.4152363062636483
 10
147.3572108718485
 20
557.2691350753533
 10
147.3572108717885
 20
572.4359693175848
  0
CIRCLE
  5
3F800
330
1E
100
AcDbEntity
  8
12
100
AcDbCircle
 10
72.85721073764761
 20
198.992203237103
 30
0.0
 40
3.000000000000001
  0
CIRCLE
  5
3F801
330
1E
100
AcDbEntity
  8
12
100
AcDbCircle
 10
72.85721073764761
 20
133.0079329604232
 30
0.0
 40
3.000000000000013
  0
INSERT
  5
3F802
330
1E
100
AcDbEntity
  8
12
  6
DASHDOT
100
AcDbBlockReference
  2
SW_CENTERMARKSYMBOL_56
 10
72.85721073764761
 20
198.992203237103
 30
0.0
 41
2.0
 42
2.0
 43
2.0
  0
INSERT
  5
3F803
330
1E
100
AcDbEntity
  8
12
100
AcDbBlockReference
  2
SW_CENTERMARKSYMBOL_57
 10
72.85721073764761
 20
133.0079329604232
 30
0.0
 41
2.0
 42
2.0
 43
2.0
  0
CIRCLE
  5
3F81C
330
1E
100
AcDbEntity
  8
12
100
AcDbCircle
 10
243.8572107376476
 20
198.992203237103
 30
0.0
 40
3.000000000000001
  0
CIRCLE
  5
3F81D
330
1E
100
AcDbEntity
  8
12
100
AcDbCircle
 10
243.8572107376476
 20
133.0079329604232
 30
0.0
 40
3.000000000000013
  0
DIMENSION
  5
3F81E
330
1E
100
AcDbEntity
  8
30
  6
Continuous
100
AcDbDimension
280
     0
  2
*D20
 10
242.1470822355645
 20
196.5273583116706
 30
0.0
 11
267.8000193298359
 21
222.2111357878889
 31
0.0
 70
   163
  1
<>
 71
     5
 42
6.000000000013244
 73
     0
 74
     0
 75
     0
  3
STANDARD1
100
AcDbDiametricDimension
 15
245.5673392397319
 25
201.4570481625234
 35
0.0
 40
0.0
  0
INSERT
  5
3F81F
330
1E
100
AcDbEntity
  8
12
100
AcDbBlockReference
  2
SW_CENTERMARKSYMBOL_56
 10
243.8572107376476
 20
198.992203237103
 30
0.0
 41
-2.0
 42
2.0
 43
2.0
  0
INSERT
  5
3F820
330
1E
100
AcDbEntity
  8
12
100
AcDbBlockReference
  2
SW_CENTERMARKSYMBOL_57
 10
243.8572107376476
 20
133.0079329604232
 30
0.0
 41
-2.0
 42
2.0
 43
2.0
  0
LINE
  5
3F837
330
1E
100
AcDbEntity
  8
16
100
AcDbLine
 10
140.8572107376476
 20
68.24026347425736
 30
0.0
 11
140.8572107376476
 21
267.375602446589
 31
0.0
  0
LINE
  5
3F838
330
1E
100
AcDbEntity
  8
16
100
AcDbLine
 10
261.9255320410001
 20
165.9922032371031
 30
0.0
 11
60.30729753606692
 21
165.9922032371031
 31
0.0
  0
LINE
  5
41836
330
1E
100
AcDbEntity
  8
24
100
AcDbLine
 10
105.857210737648
 20
643.9406754459968
 30
0.0
 11
105.857210737648
 21
721.7374285736688
 31
0.0
  0
LINE
  5
4183F
330
1E
100
AcDbEntity
  8
24
100
AcDbLine
 10
210.8572107376481
 20
644.6588242880397
 30
0.0
 11
210.8572107376481
 21
756.7374285736688
 31
0.0
  0
LINE
  5
41840
330
1E
100
AcDbEntity
  8
24
100
AcDbLine
 10
175.8572107376481
 20
645.8557390247782
 30
0.0
 11
175.8572107376481
 21
721.7374285736688
 31
0.0
  0
LINE
  5
42258
330
1E
100
AcDbEntity
  8
16
100
AcDbLine
 10
485.4866916469941
 20
420.3581424627558
 30
0.0
 11
378.8742811652237
 21
420.3581424627558
 31
0.0
  0
ARC
  5
42259
330
1E
100
AcDbEntity
  8
24
  6
Continuous
100
AcDbCircle
 10
480.2542011326457
 20
494.3581406758406
 30
0.0
 40
58.00000001219918
100
AcDbArc
 50
357.2705973642261
 51
2.729402636653869
  0
ARC
  5
4225A
330
1E
100
AcDbEntity
  8
24
  6
SLD-実線
 62
     7
370
    15
100
AcDbCircle
 10
537.9386877942379
 20
497.1081406762754
 30
0.0
 40
0.250000000000068
100
AcDbArc
 50
2.729402636804416
 51
90.0
  0
ARC
  5
4225B
330
1E
100
AcDbEntity
  8
24
  6
SLD-実線
 62
     7
370
    15
100
AcDbCircle
 10
537.9386877942379
 20
491.6081406762754
 30
0.0
 40
0.2500000000000568
100
AcDbArc
 50
270.0
 51
357.2705973631955
  0
LWPOLYLINE
  5
4225C
330
1E
100
AcDbEntity
  8
24
  6
Continuous
100
AcDbPolyline
 90
        2
 70
     0
 43
0.0
 10
530.9542011328375
 20
487.8581393052753
 10
532.2645645447801
 20
487.8581393053383
  0
LWPOLYLINE
  5
4225D
330
1E
100
AcDbEntity
  8
24
  6
Continuous
100
AcDbPolyline
 90
       10
 70
     0
 43
0.0
 10
541.7265482710181
 20
340.3465845816059
 10
536.2351200585281
 20
340.9600074155942
 10
541.7265482710181
 20
340.3465845816059
 10
570.3719640667741
 20
340.3581406762754
 42
0.290161671058317
 10
572.799299950565
 20
343.1082025083234
 42
-0.005507437695016
 10
572.7542004296378
 20
350.3581406762754
 42
-0.0000085966299547
 10
572.7542004296378
 20
357.818704420594
 42
0.314779903773349
 10
569.2737323992178
 20
360.3625372577135
 10
541.7265482710181
 20
360.358143149006
 42
0.0287063150502541
 10
536.4681227886099
 20
359.4346938581221
  0
LWPOLYLINE
  5
4225E
330
1E
100
AcDbEntity
  8
24
  6
Continuous
100
AcDbPolyline
 90
        6
 70
     0
 43
0.0
 10
470.4542009950379
 20
484.1974120130753
 10
494.954316304038
 20
484.4112213244754
 10
497.9542013116378
 20
484.6873994460753
 10
497.9542013116378
 20
504.0288794328754
 10
494.954316304038
 20
504.3050575544754
 10
465.9542011306379
 20
504.5581388762753
  0
LWPOLYLINE
  5
4225F
330
1E
100
AcDbEntity
  8
10
100
AcDbPolyline
 90
        5
 70
     0
 43
0.0
 10
465.9542011306379
 20
504.5581388762753
 10
465.9542011306379
 20
507.3581415702753
 10
464.4454749416254
 20
507.3318057624538
 42
0.4091108014312847
 10
463.9542011448375
 20
506.8318819148753
 10
463.9542011448375
 20
504.5595347364121
  0
LWPOLYLINE
  5
42260
330
1E
100
AcDbEntity
  8
10
100
AcDbPolyline
 90
        4
 70
     0
 43
0.0
 10
468.854201151838
 20
497.3581436564753
 10
470.4542009950379
 20
497.3581436564753
 10
470.4542009950379
 20
475.3581400504754
 10
470.4542009950379
 20
472.3581414212754
  0
LWPOLYLINE
  5
42274
330
1E
100
AcDbEntity
  8
10
100
AcDbPolyline
 90
        8
 70
     0
 43
0.0
 10
410.7542004296377
 20
347.3581376960753
 10
423.0542000242381
 20
347.3581376960753
 10
423.0542000242381
 20
372.3581399312755
 10
471.4542011590378
 20
372.3581399312755
 10
471.4542011590378
 20
472.3581414212754
 10
423.0542000242381
 20
472.3581414212754
 10
423.0542000242381
 20
497.3581436564753
 10
410.7542004296377
 20
497.3581436564753
  0
LWPOLYLINE
  5
42275
330
1E
100
AcDbEntity
  8
10
100
AcDbPolyline
 90
        3
 70
     0
 43
0.0
 10
466.2542011448381
 20
498.8581392456754
 10
468.854201151838
 20
498.8581392456754
 10
468.854201151838
 20
472.3581414212754
  0
LINE
  5
42276
330
1E
100
AcDbEntity
  8
10
100
AcDbLine
 10
466.2542011448381
 20
500.5126699144726
 30
0.0
 11
466.2542011448381
 21
472.3581414212754
 31
0.0
  0
LWPOLYLINE
  5
42277
330
1E
100
AcDbEntity
  8
130
100
AcDbPolyline
 90
       10
 70
     0
 43
0.0
 10
397.9542011448381
 20
326.3581406762753
 42
-0.3267178049209168
 10
395.7234092247288
 20
328.286733958904
 10
395.7542004296379
 20
512.3896449083828
 10
395.9542008468381
 20
515.3581415106755
 42
-0.4142135623730951
 10
398.9542008468382
 20
518.3581415106755
 10
410.7542004296377
 20
518.3581415106755
 10
410.7542004296377
 20
512.3581442524753
 10
410.7542004296377
 20
332.3581370998754
 10
410.7542004296377
 20
326.3581398418754
 10
397.9541974492378
 20
326.3581398418754
  0
LINE
  5
42278
330
1E
100
AcDbEntity
  8
24
  6
SLD-実線
 62
     7
370
    15
100
AcDbLine
 10
501.7493110008381
 20
497.3581436564753
 30
0.0
 11
500.7357377418379
 21
497.3581436564753
 31
0.0
  0
LINE
  5
42279
330
1E
100
AcDbEntity
  8
24
  6
SLD-実線
 62
     7
370
    15
100
AcDbLine
 10
500.1379478582378
 20
491.1124635030754
 30
0.0
 11
500.7542002804378
 21
491.3581389476753
 31
0.0
  0
LINE
  5
4227A
330
1E
100
AcDbEntity
  8
24
  6
SLD-実線
 62
     7
370
    15
100
AcDbLine
 10
500.7542002804378
 20
497.3581436564753
 30
0.0
 11
500.1379478582378
 21
497.6038191010752
 31
0.0
  0
SPLINE
  5
4227B
330
1E
100
AcDbEntity
  8
24
  6
Continuous
100
AcDbSpline
210
0.0
220
0.0
230
1.0
 70
     8
 71
     3
 72
    11
 73
     7
 74
     0
 42
0.000000001
 43
0.0000000001
 40
0.0
 40
0.0
 40
0.0
 40
0.0
 40
0.1913686450139916
 40
0.4483209363419143
 40
0.7481535962234817
 40
1.0
 40
1.0
 40
1.0
 40
1.0
 10
497.9542013116902
 20
489.0807646801325
 30
0.0
 10
498.0391202793862
 20
489.2223920248286
 30
0.0
 10
498.2380606601785
 20
489.5541835980038
 30
0.0
 10
498.7380263740341
 20
490.1525906172006
 30
0.0
 10
499.4189320993092
 20
490.7308477012531
 30
0.0
 10
499.9125890606562
 20
490.992854889297
 30
0.0
 10
500.1379478581974
 20
491.1124635031079
 30
0.0
  0
SPLINE
  5
4227C
330
1E
100
AcDbEntity
  8
24
  6
Continuous
100
AcDbSpline
210
0.0
220
0.0
230
1.0
 70
     8
 71
     3
 72
    11
 73
     7
 74
     0
 42
0.000000001
 43
0.0000000001
 40
0.0
 40
0.0
 40
0.0
 40
0.0
 40
0.2437036132204292
 40
0.534047860794783
 40
0.782777837769774
 40
1.0
 40
1.0
 40
1.0
 40
1.0
 10
500.1379478581974
 20
497.6038191010808
 30
0.0
 10
499.9123943069498
 20
497.7235742549098
 30
0.0
 10
499.4181201763922
 20
497.9860036168572
 30
0.0
 10
498.7422210434406
 20
498.5607211491382
 30
0.0
 10
498.2036669643957
 20
499.1971424541436
 30
0.0
 10
498.0335214330255
 20
499.52641323488
 30
0.0
 10
497.9542013116902
 20
499.679915933833
 30
0.0
  0
LWPOLYLINE
  5
4227D
330
1E
100
AcDbEntity
  8
24
  6
Continuous
100
AcDbPolyline
 90
        4
 70
     1
 43
0.0
 10
518.7492872033462
 20
354.8581379940754
 42
0.9990558672444311
 10
518.7506124499841
 20
345.8581421066754
 10
524.7577884092915
 20
345.8581421066754
 42
0.9990558672444311
 10
524.7591136559294
 20
354.8581379940754
  0
LWPOLYLINE
  5
4227E
330
1E
100
AcDbEntity
  8
24
  6
Continuous
100
AcDbPolyline
 90
        2
 70
     0
 43
0.0
 10
573.1867294618377
 20
491.5962371518753
 10
573.1867294618377
 20
497.1200454522754
  0
LWPOLYLINE
  5
4227F
330
1E
100
AcDbEntity
  8
24
  6
Continuous
100
AcDbPolyline
 90
        2
 70
     0
 43
0.0
 10
572.9386847326114
 20
497.3581436564979
 10
501.7493110008381
 20
497.3581436564753
  0
LWPOLYLINE
  5
42280
330
1E
100
AcDbEntity
  8
24
  6
Continuous
100
AcDbPolyline
 90
        2
 70
     0
 43
0.0
 10
500.7542002804378
 20
491.3581389476753
 10
572.938684732615
 20
491.3581389478046
  0
LWPOLYLINE
  5
42281
330
1E
100
AcDbEntity
  8
24
  6
Continuous
100
AcDbPolyline
 90
        2
 70
     0
 43
0.0
 10
573.1867220112635
 20
497.120045452362
 42
0.4004212227047962
 10
572.9386847326114
 20
497.3581436564979
  0
LWPOLYLINE
  5
42282
330
1E
100
AcDbEntity
  8
24
  6
Continuous
100
AcDbPolyline
 90
        2
 70
     0
 43
0.0
 10
572.938684732615
 20
491.3581389478046
 42
0.4004390054583466
 10
573.1867220112672
 20
491.5962371519405
  0
CIRCLE
  5
42283
330
1E
100
AcDbEntity
  8
24
  6
Continuous
100
AcDbCircle
 10
556.7542004296378
 20
350.2024978477996
 30
0.0
 40
4.500000000000056
  0
LINE
  5
42284
330
1E
100
AcDbEntity
  8
24
  6
Continuous
100
AcDbLine
 10
494.954316304038
 20
484.4112213244754
 30
0.0
 11
494.954316304038
 21
504.3050575544754
 31
0.0
  0
LWPOLYLINE
  5
42285
330
1E
100
AcDbEntity
  8
10
100
AcDbPolyline
 90
        5
 70
     0
 43
0.0
 10
394.0975759202613
 20
447.1474264172253
 42
0.1957312290369333
 10
393.9542042442378
 20
446.7987322936128
 10
393.9542042442378
 20
397.9219128252664
 42
0.4076318611338998
 10
394.4447004747063
 20
397.4237636045571
 10
395.9542008468381
 20
397.3974141766754
  0
LWPOLYLINE
  5
42286
330
1E
100
AcDbEntity
  8
10
100
AcDbPolyline
 90
        3
 70
     0
 43
0.0
 10
394.0975759202613
 20
447.1474264172253
 42
-0.1964199370568477
 10
394.445040919804
 20
447.2968878683107
 10
395.7542003243096
 20
447.3197401987579
  0
LINE
  5
42287
330
1E
100
AcDbEntity
  8
10
100
AcDbLine
 10
393.9542042442378
 20
405.4971452344753
 30
0.0
 11
393.9486684628379
 21
406.1581402560753
 31
0.0
  0
LINE
  5
42288
330
1E
100
AcDbEntity
  8
10
100
AcDbLine
 10
393.9542042442378
 20
406.1581402560753
 30
0.0
 11
393.9486684628379
 21
406.1581402560753
 31
0.0
  0
LINE
  5
42289
330
1E
100
AcDbEntity
  8
10
100
AcDbLine
 10
426.2542020388381
 20
500.3581944396753
 30
0.0
 11
426.2542020388381
 21
472.3581414212754
 31
0.0
  0
LINE
  5
4228A
330
1E
100
AcDbEntity
  8
10
  6
SLD-実線
 62
     7
370
    15
100
AcDbLine
 10
388.7427913376379
 20
444.6973543156753
 30
0.0
 11
393.9542042442378
 21
444.7883203168752
 31
0.0
  0
LINE
  5
4228B
330
1E
100
AcDbEntity
  8
10
  6
SLD-実線
 62
     7
370
    15
100
AcDbLine
 10
393.9542042442378
 20
399.9839242090754
 30
0.0
 11
388.7386935182377
 21
400.0749609906752
 31
0.0
  0
ARC
  5
4228C
330
1E
100
AcDbEntity
  8
10
  6
SLD-実線
 62
     7
370
    15
100
AcDbCircle
 10
388.7515138488381
 20
444.1974310078752
 30
0.0
 40
0.5000000000000489
100
AcDbArc
 50
91.00000000018418
 51
175.8183281211013
  0
LINE
  5
4228D
330
1E
100
AcDbEntity
  8
10
100
AcDbLine
 10
426.2542020388381
 20
504.5858466995576
 30
0.0
 11
426.2542020388381
 21
472.3581414212754
 31
0.0
  0
LINE
  5
4228E
330
1E
100
AcDbEntity
  8
10
100
AcDbLine
 10
466.2542011448381
 20
500.5126699144726
 30
0.0
 11
410.7542004296377
 21
500.7291872078496
 31
0.0
  0
LINE
  5
4228F
330
1E
100
AcDbEntity
  8
10
100
AcDbLine
 10
410.7542004296377
 20
504.5966646168191
 30
0.0
 11
465.9542011306379
 21
504.5581388762753
 31
0.0
  0
SPLINE
  5
42290
330
1E
100
AcDbEntity
  8
10
  6
SLD-実線
 62
     8
370
     0
100
AcDbSpline
210
0.0
220
0.0
230
1.0
 70
     8
 71
     3
 72
     9
 73
     5
 74
     0
 42
0.000000001
 43
0.0000000001
 40
0.0
 40
0.0
 40
0.0
 40
0.0
 40
0.4999995349999069
 40
1.0
 40
1.0
 40
1.0
 40
1.0
 10
388.7422399946278
 20
444.5509038408848
 30
0.0
 10
388.7419630816541
 20
444.5928867764592
 30
0.0
 10
388.7414092551909
 20
444.6768527256963
 30
0.0
 10
388.7423306431726
 20
444.6905204481572
 30
0.0
 10
388.7427913375924
 20
444.6973543157429
 30
0.0
  0
LINE
  5
42291
330
1E
100
AcDbEntity
  8
18
100
AcDbLine
 10
410.7542004296377
 20
531.8056750542751
 30
0.0
 11
410.7542004296377
 21
319.8558896066753
 31
0.0
  0
LINE
  5
42292
330
1E
100
AcDbEntity
  8
18
100
AcDbLine
 10
414.7542004296377
 20
531.8056750542751
 30
0.0
 11
414.7542004296377
 21
319.8558896066753
 31
0.0
  0
DIMENSION
  5
42293
330
1E
100
AcDbEntity
  8
30
  6
Continuous
100
AcDbDimension
280
     0
  2
*D48
 10
395.7234092247288
 20
291.1974963124985
 30
0.0
 11
403.2388048271831
 21
291.1974963124985
 31
0.0
 70
   160
  1
<>
 71
     2
 42
15.03079120490895
 73
     0
 74
     0
 75
     0
  3
STANDARD
100
AcDbAlignedDimension
 13
410.7542004296377
 23
326.3581398418754
 33
0.0
 14
395.7234092247288
 24
332.6838314398437
 34
0.0
100
AcDbRotatedDimension
  0
DIMENSION
  5
42294
330
1E
100
AcDbEntity
  8
30
  6
Continuous
100
AcDbDimension
280
     0
  2
*D49
 10
587.2569010372382
 20
491.3581406762753
 30
0.0
 11
587.2569010372377
 21
508.6914740096093
 31
0.0
 70
   160
  1
<>
 71
     2
 42
6.0
 73
     0
 74
     0
 75
     0
  3
STANDARD
100
AcDbAlignedDimension
 13
573.9641382044809
 23
497.3581406762754
 33
0.0
 14
574.2197388167551
 24
491.3581406762753
 34
0.0
 50
90.0
100
AcDbRotatedDimension
1001
ACAD
1000
DSTYLE
1002
{
1070
   290
1070
     0
1002
}
  0
DIMENSION
  5
42295
330
1E
100
AcDbEntity
  8
30
  6
Continuous
100
AcDbDimension
280
     0
  2
*D50
 10
597.2569010372382
 20
350.3581406762754
 30
0.0
 11
597.2569010372382
 21
422.3581406762754
 31
0.0
 70
   160
  1
<>
 71
     2
 42
144.0
 73
     0
 74
     0
 75
     0
  3
STANDARD
100
AcDbAlignedDimension
 13
579.1405547126378
 23
494.3581406762754
 33
0.0
 14
579.1689630056379
 24
350.3581406762754
 34
0.0
 50
90.0
100
AcDbRotatedDimension
  0
DIMENSION
  5
42296
330
1E
100
AcDbEntity
  8
30
  6
Continuous
100
AcDbDimension
280
     0
  2
*D51
 10
572.799299950565
 20
319.7048428152493
 30
0.0
 11
564.7542004296377
 21
319.7048428152493
 31
0.0
 70
   160
  1
<>
 71
     2
 42
16.04509952092712
 73
     0
 74
     0
 75
     0
  3
STANDARD1
100
AcDbAlignedDimension
 13
556.7542004296378
 23
343.2024978477997
 33
0.0
 14
572.799299950565
 24
343.1082025083234
 34
0.0
100
AcDbRotatedDimension
  0
DIMENSION
  5
42298
330
1E
100
AcDbEntity
  8
30
  6
Continuous
100
AcDbDimension
280
     0
  2
*D53
 10
505.6064307611046
 20
345.8581406762754
 30
0.0
 11
509.939764094438
 21
371.5629615652774
 31
0.0
 70
   160
  1
<>
 71
     2
 42
9.0
 73
     0
 74
     0
 75
     0
  3
STANDARD
100
AcDbAlignedDimension
 13
519.2542011448381
 23
354.8581406762754
 33
0.0
 14
519.2542011448381
 24
345.8581406762754
 34
0.0
 50
90.0
100
AcDbRotatedDimension
  0
DIMENSION
  5
42299
330
1E
100
AcDbEntity
  8
30
  6
Continuous
100
AcDbDimension
280
     0
  2
*D54
 10
556.2299859315275
 20
345.9762480261856
 30
0.0
 11
571.3479175919665
 21
377.1418931499046
 31
0.0
 70
   163
  1
<>
 71
     5
 42
9.000000000019555
 73
     0
 74
     0
 75
     0
  3
STANDARD1
100
AcDbDiametricDimension
 15
558.2784163581517
 25
354.7400333263647
 35
0.0
 40
0.0
  0
DIMENSION
  5
4229A
330
1E
100
AcDbEntity
  8
30
  6
Continuous
100
AcDbDimension
280
     0
  2
*D55
 10
586.7569003220377
 20
340.3581406762754
 30
0.0
 11
586.7569003220377
 21
324.1301883526572
 31
0.0
 70
   160
  1
<>
 71
     2
 42
20.00000247273056
 73
     0
 74
     0
 75
     0
  3
STANDARD
100
AcDbAlignedDimension
 13
568.8337534941029
 23
360.358143149006
 33
0.0
 14
570.4663522490878
 24
340.3581406762754
 34
0.0
 50
90.0
100
AcDbRotatedDimension
  0
INSERT
  5
4229B
330
1E
100
AcDbEntity
  8
17
100
AcDbBlockReference
  2
SW_CENTERMARKSYMBOL_12
 10
556.7409025369775
 20
350.3581406762754
 30
0.0
 41
2.0
 42
2.0
 43
2.0
  0
INSERT
  5
4229C
330
1E
100
AcDbEntity
  8
17
100
AcDbBlockReference
  2
SW_CENTERMARKSYMBOL_13
 10
524.7542004296378
 20
350.3581406762754
 30
0.0
 41
2.0
 42
2.0
 43
2.0
  0
INSERT
  5
4229D
330
1E
100
AcDbEntity
  8
17
100
AcDbBlockReference
  2
SW_CENTERMARKSYMBOL_14
 10
518.7542004296378
 20
350.3581406762754
 30
0.0
 41
2.0
 42
2.0
 43
2.0
  0
LINE
  5
4229E
330
1E
100
AcDbEntity
  8
17
100
AcDbLine
 10
462.3095032370379
 20
494.3581406762754
 30
0.0
 11
579.1405547126378
 21
494.3581406762754
 31
0.0
  0
LINE
  5
4229F
330
1E
100
AcDbEntity
  8
17
100
AcDbLine
 10
458.9387323472378
 20
350.3581406762754
 30
0.0
 11
578.2094150180382
 21
350.3581406762754
 31
0.0
  0
LINE
  5
422A0
330
1E
100
AcDbEntity
  8
17
100
AcDbLine
 10
557.2542011448381
 20
501.3581406762754
 30
0.0
 11
557.2542011448381
 21
487.3581406762753
 31
0.0
  0
LINE
  5
422A1
330
1E
100
AcDbEntity
  8
17
100
AcDbLine
 10
522.2542011448381
 20
487.3581406762753
 30
0.0
 11
522.2542011448381
 21
501.3581406762754
 31
0.0
  0
LWPOLYLINE
  5
422A2
330
1E
100
AcDbEntity
  8
10
100
AcDbPolyline
 90
       10
 70
     0
 43
0.0
 10
393.9542042442378
 20
399.9839242090754
 10
388.7386991262176
 20
400.0749611894971
 42
-0.1872105704324911
 10
388.4037894049313
 20
400.2116848837322
 42
-0.1872105704297685
 10
388.2487495716788
 20
400.5385190008277
 10
387.672271006437
 20
411.4562319111716
 10
387.4365435738265
 20
422.3862812083693
 10
387.6743232578334
 20
433.3162859539924
 10
388.2528480211997
 20
444.2338906856694
 42
-0.3879664434350069
 10
388.7427907450375
 20
444.6973549500753
 10
393.9542042442378
 20
444.7883205110754
  0
LWPOLYLINE
  5
422A3
330
1E
100
AcDbEntity
  8
10
100
AcDbPolyline
 90
       10
 70
     0
 43
0.0
 10
387.5068945471032
 20
428.7516462866213
 10
383.1966708699135
 20
429.7115356119213
 10
378.8138683475956
 20
430.2615486323138
 10
373.5887703952256
 20
431.1895975423076
 42
-0.4244748162101402
 10
371.9964641289263
 20
433.5862111383335
 10
372.716350718859
 20
436.8604431202713
 42
-0.4244748162090689
 10
375.1670750497262
 20
438.3681387881338
 10
375.1670750497262
 20
438.3681387881338
 10
380.2995728799843
 20
437.0189225412742
 42
0.0388073138943973
 10
387.7592077980882
 20
434.9181808373522
  0
LWPOLYLINE
  5
422A4
330
1E
100
AcDbEntity
  8
24
  6
Continuous
100
AcDbPolyline
 90
        4
 70
     0
 43
0.0
 10
530.9542011328375
 20
487.8581393052753
 10
532.2645645447801
 20
487.8581393053383
 10
533.508482810754
 20
489.8673387940138
 10
535.2098578976432
 20
491.358138947711
  0
LWPOLYLINE
  5
422A5
330
1E
100
AcDbEntity
  8
24
  6
Continuous
100
AcDbPolyline
 90
        4
 70
     0
 43
0.0
 10
530.9542011328375
 20
500.8581420472753
 10
532.2645645447801
 20
500.8581420472124
 10
533.508482810754
 20
498.848942558537
 10
535.2098578976432
 20
497.3581424048397
  0
LWPOLYLINE
  5
422A6
330
1E
100
AcDbEntity
  8
24
  6
Continuous
100
AcDbPolyline
 90
        3
 70
     0
 43
0.0
 10
465.9542011306379
 20
505.3581375172753
 10
530.9542011328375
 20
505.3581375172753
 10
530.9542011328375
 20
497.3581436564753
  0
LWPOLYLINE
  5
422A7
330
1E
100
AcDbEntity
  8
24
  6
Continuous
100
AcDbPolyline
 90
        3
 70
     0
 43
0.0
 10
466.2542011448381
 20
483.3581438344061
 10
530.9542011328375
 20
483.3581438344061
 10
530.9542011328375
 20
491.3581376952061
  0
LWPOLYLINE
  5
422A8
330
1E
100
AcDbEntity
  8
24
  6
Continuous
100
AcDbPolyline
 90
        6
 70
     0
 43
0.0
 10
470.4542009950379
 20
360.5188693394755
 10
494.954316304038
 20
360.3050600280754
 10
497.9542013116378
 20
360.0288819064755
 10
498.0249914721851
 20
340.3581406762754
 10
498.0249914721851
 20
340.3581406762754
 10
465.9542011306379
 20
340.1581424762755
  0
LWPOLYLINE
  5
422A9
330
1E
100
AcDbEntity
  8
10
100
AcDbPolyline
 90
        5
 70
     0
 43
0.0
 10
465.9542011306379
 20
340.1581424762755
 10
465.9542011306379
 20
337.3581397822754
 10
464.4454749416254
 20
337.3844755900969
 42
-0.4091108014312847
 10
463.9542011448375
 20
337.8843994376754
 10
463.9542011448375
 20
340.1567466161385
  0
LWPOLYLINE
  5
422AA
330
1E
100
AcDbEntity
  8
10
100
AcDbPolyline
 90
        4
 70
     0
 43
0.0
 10
468.854201151838
 20
347.3581376960755
 10
470.4542009950379
 20
347.3581376960755
 10
470.4542009950379
 20
369.3581413020755
 10
470.4542009950379
 20
372.3581399312755
  0
LWPOLYLINE
  5
422AB
330
1E
100
AcDbEntity
  8
10
100
AcDbPolyline
 90
        3
 70
     0
 43
0.0
 10
466.2542011448381
 20
345.8581421068755
 10
468.854201151838
 20
345.8581421068755
 10
468.854201151838
 20
372.3581399312755
  0
LINE
  5
422AC
330
1E
100
AcDbEntity
  8
10
100
AcDbLine
 10
466.2542011448381
 20
344.2036114380782
 30
0.0
 11
466.2542011448381
 21
372.3581399312755
 31
0.0
  0
LINE
  5
422AD
330
1E
100
AcDbEntity
  8
10
100
AcDbLine
 10
426.2542020388381
 20
340.1304346529933
 30
0.0
 11
426.2542020388381
 21
372.3581399312755
 31
0.0
  0
LINE
  5
422AE
330
1E
100
AcDbEntity
  8
10
100
AcDbLine
 10
466.2542011448381
 20
344.2036114380782
 30
0.0
 11
410.7542004296377
 21
343.9870941447011
 31
0.0
  0
LINE
  5
422AF
330
1E
100
AcDbEntity
  8
10
100
AcDbLine
 10
410.7542004296377
 20
340.1196167357317
 30
0.0
 11
465.9542011306379
 21
340.1581424762755
 31
0.0
  0
LWPOLYLINE
  5
422B0
330
1E
100
AcDbEntity
  8
24
  6
Continuous
100
AcDbPolyline
 90
        9
 70
     0
 43
0.0
 10
466.2542011448381
 20
360.5188693394755
 10
530.9542011328375
 20
360.3645066738666
 10
530.9542011328375
 20
350.3581406762754
 10
530.9542011328375
 20
350.3581406762754
 10
530.9542011328375
 20
340.3581406762754
 10
521.7542004296379
 20
340.3581406762754
 10
507.1783622538077
 20
340.3581406762754
 10
498.0249914721851
 20
340.3581406762754
 10
465.9542011306379
 20
340.1581424762755
  0
ARC
  5
422B2
330
1E
100
AcDbEntity
  8
10
100
AcDbCircle
 10
437.9394056491131
 20
419.2723644066656
 30
0.0
 40
67.6939134604402
100
AcDbArc
 50
167.5999999999978
 51
179.0809636394984
  0
LWPOLYLINE
  5
422B3
330
1E
100
AcDbEntity
  8
24
  6
Continuous
100
AcDbPolyline
 90
       13
 70
     0
 43
0.0
 10
497.9542011046087
 20
356.9122733231786
 42
0.1342368021680328
 10
499.870508562441
 20
357.7948279196175
 10
501.586351699157
 20
359.2345902507243
 42
-0.1294760538322349
 10
507.1476977563988
 20
360.4172811316676
 10
533.8275768935742
 20
360.358136950206
 42
-0.367383968845297
 10
537.655015107657
 20
357.4100148056114
 42
-0.0124146491992315
 10
537.7542004296379
 20
350.3581406762754
 42
-0.0004573780307068
 10
537.7575165276242
 20
342.9198075722162
 42
-0.3455354391548538
 10
533.8275768935742
 20
340.3581406762754
 10
505.6064307611046
 20
340.3697865863167
 42
-0.0957268654331834
 10
501.586351699157
 20
341.4816911018267
 10
499.870508562441
 20
342.9214534329333
 42
0.1342368021680328
 10
497.9542011046087
 20
343.8040080293723
  0
DIMENSION
  5
422B4
330
1E
100
AcDbEntity
  8
30
100
AcDbDimension
280
     0
  2
*D56
 10
370.2542004296379
 20
267.2660636469041
 30
0.0
 11
390.5042004296378
 21
273.7660636469041
 31
0.0
 70
    32
 71
     5
 42
40.49999999999977
 73
     0
 74
     0
 75
     0
  3
STANDARD
100
AcDbAlignedDimension
 13
410.7542004296377
 23
326.3581398418754
 33
0.0
 14
370.2542004296379
 24
420.3581424627558
 34
0.0
100
AcDbRotatedDimension
  0
DIMENSION
  5
422B5
330
1E
100
AcDbEntity
  8
30
100
AcDbDimension
280
     0
  2
*D57
 10
537.7575165276242
 20
291.1974963124985
 30
0.0
 11
474.2558584786308
 21
297.6974963124985
 31
0.0
 70
    32
 71
     5
 42
127.0033160979865
 73
     0
 74
     0
 75
     0
  3
STANDARD
100
AcDbAlignedDimension
 13
410.7542004296377
 23
326.3581398418754
 33
0.0
 14
537.7575165276242
 24
342.9198075722162
 34
0.0
100
AcDbRotatedDimension
  0
DIMENSION
  5
422B6
330
1E
100
AcDbEntity
  8
30
100
AcDbDimension
280
     0
  2
*D58
 10
572.799299950565
 20
267.2660636469041
 30
0.0
 11
491.7767501901013
 21
273.7660636469041
 31
0.0
 70
    32
 71
     5
 42
162.0450995209273
 73
     0
 74
     0
 75
     0
  3
STANDARD
100
AcDbAlignedDimension
 13
410.7542004296377
 23
301.7024978477996
 33
0.0
 14
572.799299950565
 24
343.1082025083234
 34
0.0
100
AcDbRotatedDimension
  0
DIMENSION
  5
422B7
330
1E
100
AcDbEntity
  8
30
100
AcDbDimension
280
     0
  2
*D59
 10
529.2542004296374
 20
374.2987860022814
 30
0.0
 11
521.7542004296379
 21
374.2987860022814
 31
0.0
 70
   160
 71
     5
 42
14.99999999999909
 73
     0
 74
     0
 75
     0
  3
STANDARD
100
AcDbAlignedDimension
 13
514.2542004296383
 23
350.3581406762754
 33
0.0
 14
529.2542004296374
 24
350.3581406762754
 34
0.0
100
AcDbRotatedDimension
  0
DIMENSION
  5
42410
330
1E
100
AcDbEntity
  8
30
100
AcDbDimension
280
     0
  2
*D61
 10
298.95463298489
 20
133.0079329604232
 30
0.0
 11
292.4546329848899
 21
166.0000680987631
 31
0.0
 70
    32
 71
     5
 42
65.98427027667987
 73
     0
 74
     0
 75
     0
  3
STANDARD
100
AcDbAlignedDimension
 13
243.8572107376476
 23
198.992203237103
 33
0.0
 14
243.8572107376476
 24
133.0079329604232
 34
0.0
 50
90.0
100
AcDbRotatedDimension
  0
DIMENSION
  5
424AC
330
1E
100
AcDbEntity
  8
30
100
AcDbDimension
280
     0
  2
*D62
 10
524.7542004296378
 20
319.7048428152493
 30
0.0
 11
531.2558584786311
 21
319.7048428152493
 31
0.0
 70
   160
 71
     5
 42
13.00331609798638
 73
     0
 74
     0
 75
     0
  3
STANDARD1
100
AcDbAlignedDimension
 13
537.7575165276242
 23
342.9198075722163
 33
0.0
 14
524.7542004296378
 24
343.3581406762753
 34
0.0
100
AcDbRotatedDimension
  0
DIMENSION
  5
424CD
330
1E
100
AcDbEntity
  8
30
100
AcDbDimension
280
     0
  2
*D63
 10
518.7542004296378
 20
319.7048428152493
 30
0.0
 11
510.4208670963044
 21
325.2048428152493
 31
0.0
 70
    32
 71
     5
 42
6.0
 73
     0
 74
     0
 75
     0
  3
STANDARD1
100
AcDbAlignedDimension
 13
524.7542004296378
 23
343.3581406762753
 33
0.0
 14
518.7542004296378
 24
343.3581406762753
 34
0.0
100
AcDbRotatedDimension
  0
VIEWPORT
  5
9AC
330
1A
100
AcDbEntity
 67
     1
  8
0
  6
Continuous
348
E4DA
100
AcDbViewport
 10
0.0
 20
0.0
 30
0.0
 40
0.0
 41
0.0
 68
     1
 69
     1
 12
0.0
 22
0.0
 13
0.0
 23
0.0
 14
10.0
 24
10.0
 15
10.0
 25
10.0
 16
0.0
 26
0.0
 36
1.0
 17
0.0
 27
0.0
 37
0.0
 42
50.0
 43
0.0
 44
0.0
 45
0.0
 50
0.0
 51
0.0
 72
   100
 90
    32800
  1

281
     0
 71
     1
 74
     0
110
0.0
120
0.0
130
0.0
111
1.0
121
0.0
131
0.0
112
0.0
122
1.0
132
0.0
 79
     0
146
0.0
170
     0
 61
     5
348
E4DA
292
     1
282
     1
141
0.0
142
0.0
 63
   250
421
  3355443
  0
VIEWPORT
  5
E19D
330
1A
100
AcDbEntity
 67
     1
  8
30
348
E4DA
100
AcDbViewport
 10
0.0
 20
0.0
 30
0.0
 40
0.0
 41
0.0
 68
     2
 69
     2
 12
8.653370891979619
 22
137.2805829780177
 13
0.0
 23
0.0
 14
1.0
 24
1.0
 15
10.0
 25
10.0
 16
0.0
 26
0.0
 36
1.0
 17
0.0
 27
0.0
 37
0.0
 42
50.0
 43
0.0
 44
0.0
 45
689.9195596776387
 50
0.0
 51
0.0
 72
   100
 90
    37664
  1

281
     0
 71
     1
 74
     0
110
0.0
120
0.0
130
0.0
111
1.0
121
0.0
131
0.0
112
0.0
122
1.0
132
0.0
 79
     0
146
0.0
170
     0
 61
     5
348
E4DA
292
     1
282
     1
141
0.0
142
0.0
 63
   250
421
  3355443
  0
ENDSEC
  0
SECTION
  2
OBJECTS
  0
DICTIONARY
  5
C
330
0
100
AcDbDictionary
281
     1
  3
ACAD_CIP_PREVIOUS_PRODUCT_INFO
350
423E8
  3
ACAD_COLOR
350
E4E8
  3
ACAD_DETAILVIEWSTYLE
350
423E1
  3
ACAD_GROUP
350
D
  3
ACAD_LAYOUT
350
19
  3
ACAD_MATERIAL
350
E4BB
  3
ACAD_MLEADERSTYLE
350
E50D
  3
ACAD_MLINESTYLE
350
16
  3
ACAD_PLOTSETTINGS
350
18
  3
ACAD_PLOTSTYLENAME
350
E
  3
ACAD_SCALELIST
350
E4EB
  3
ACAD_SECTIONVIEWSTYLE
350
423DF
  3
ACAD_TABLESTYLE
350
E4E9
  3
ACAD_VISUALSTYLE
350
E4D4
  3
ACADDIM
350
6D5E
  3
ACDB_RECOMPOSE_DATA
350
4256A
  3
ACDBVARIABLEDICTIONARY
350
5697
  3
AEC_PROPERTY_SET_DEFS
350
F8DB
  3
ASE_INDEX_DICTIONARY
350
F8F6
  0
DICTIONARY
  5
12DA0
330
2
100
AcDbDictionary
280
     1
281
     1
  3
ACAD_LAYERSTATES
360
12DA1
  0
DICTIONARY
  5
E512
330
10
100
AcDbDictionary
280
     1
281
     1
  3
ADSK_XREC_LAYER_RECONCILED
360
E513
  0
DICTIONARY
  5
E514
330
2F
100
AcDbDictionary
280
     1
281
     1
  3
ADSK_XREC_LAYER_RECONCILED
360
E515
  0
DICTIONARY
  5
E518
330
35
100
AcDbDictionary
280
     1
281
     1
  3
ADSK_XREC_LAYER_RECONCILED
360
E519
  0
DICTIONARY
  5
E51C
330
3D
100
AcDbDictionary
280
     1
281
     1
  3
ADSK_XREC_LAYER_RECONCILED
360
E51D
  0
DICTIONARY
  5
E51E
330
3A2
100
AcDbDictionary
280
     1
281
     1
  3
ADSK_XREC_LAYER_RECONCILED
360
E51F
  0
DICTIONARY
  5
E520
330
3BBA
100
AcDbDictionary
280
     1
281
     1
  3
ADSK_XREC_LAYER_RECONCILED
360
E521
  0
DICTIONARY
  5
E522
330
67A8
100
AcDbDictionary
280
     1
281
     1
  3
ADSK_XREC_LAYER_RECONCILED
360
E523
  0
DICTIONARY
  5
E524
330
7837
100
AcDbDictionary
280
     1
281
     1
  3
ADSK_XREC_LAYER_RECONCILED
360
E525
  0
DICTIONARY
  5
E52A
330
C4FE
100
AcDbDictionary
280
     1
281
     1
  3
ADSK_XREC_LAYER_RECONCILED
360
E52B
  0
DICTIONARY
  5
E530
330
C501
100
AcDbDictionary
280
     1
281
     1
  3
ADSK_XREC_LAYER_RECONCILED
360
E531
  0
DICTIONARY
  5
E534
330
E473
100
AcDbDictionary
280
     1
281
     1
  3
ADSK_XREC_LAYER_RECONCILED
360
E535
  0
DICTIONARY
  5
1106B
330
1106A
100
AcDbDictionary
280
     1
281
     1
  0
DICTIONARY
  5
3828A
330
38289
100
AcDbDictionary
280
     1
281
     1
  0
DICTIONARY
  5
399AE
330
399AD
100
AcDbDictionary
280
     1
281
     1
  0
DICTIONARY
  5
3ACBC
330
3ACBB
100
AcDbDictionary
280
     1
281
     1
  0
DICTIONARY
  5
3ACBE
330
3ACBD
100
AcDbDictionary
280
     1
281
     1
  0
DICTIONARY
  5
3CA6A
330
3CA69
100
AcDbDictionary
280
     1
281
     1
  0
DICTIONARY
  5
3EE4F
330
3EE4E
100
AcDbDictionary
280
     1
281
     1
  0
DICTIONARY
  5
178
330
1E
100
AcDbDictionary
280
     1
281
     1
  3
ACAD_LAYOUTSELFREF
360
9011
  3
ACAD_SORTENTS
360
37C0C
  0
DICTIONARY
  5
17A
330
1A
100
AcDbDictionary
280
     1
281
     1
  3
ACAD_LAYOUTSELFREF
360
9010
  0
DICTIONARY
  5
3AADD
330
3AADC
100
AcDbDictionary
280
     1
281
     1
  3
ACAD_SORTENTS
360
3AADE
  0
DICTIONARY
  5
3DA3D
330
3DA3C
100
AcDbDictionary
280
     1
281
     1
  3
ACAD_SORTENTS
360
3DA3E
  0
DICTIONARY
  5
41816
330
41807
100
AcDbDictionary
280
     1
281
     1
  3
ACAD_SORTENTS
360
41817
  0
XRECORD
  5
423E8
102
{ACAD_REACTORS
330
C
102
}
330
C
100
AcDbXrecord
280
     1
300
ACDLT
300
2014
300
ACDLT_F_S
  0
DICTIONARY
  5
E4E8
102
{ACAD_REACTORS
330
C
102
}
330
C
100
AcDbDictionary
281
     1
  0
DICTIONARY
  5
423E1
102
{ACAD_REACTORS
330
C
102
}
330
C
100
AcDbDictionary
281
     1
  3
Imperial24
350
423E2
  0
DICTIONARY
  5
D
102
{ACAD_REACTORS
330
C
102
}
330
C
100
AcDbDictionary
281
     1
  0
DICTIONARY
  5
19
102
{ACAD_REACTORS
330
C
102
}
330
C
100
AcDbDictionary
281
     1
  3
Model
350
904E
  3
ﾚｲｱｳﾄ1
350
904F
  0
DICTIONARY
  5
E4BB
102
{ACAD_REACTORS
330
C
102
}
330
C
100
AcDbDictionary
281
     1
  3
ByBlock
350
E4C4
  3
ByLayer
350
E4BC
  3
Global
350
E4CC
  0
DICTIONARY
  5
E50D
102
{ACAD_REACTORS
330
C
102
}
330
C
100
AcDbDictionary
281
     1
  3
Standard
350
E50E
  0
DICTIONARY
  5
16
102
{ACAD_REACTORS
330
C
102
}
330
C
100
AcDbDictionary
281
     1
  3
STANDARD
350
17
  0
DICTIONARY
  5
18
102
{ACAD_REACTORS
330
C
102
}
330
C
100
AcDbDictionary
281
     1
  0
ACDBDICTIONARYWDFLT
  5
E
102
{ACAD_REACTORS
330
C
102
}
330
C
100
AcDbDictionary
281
     1
  3
Normal
350
F
100
AcDbDictionaryWithDefault
340
F
  0
DICTIONARY
  5
E4EB
102
{ACAD_REACTORS
330
C
102
}
330
C
100
AcDbDictionary
281
     1
  3
A0
350
E4EC
  3
A1
350
E4ED
  3
A2
350
E4EE
  3
A3
350
E4EF
  3
A4
350
E4F0
  3
A5
350
E4F1
  3
A6
350
E4F2
  3
A7
350
E4F3
  3
A8
350
E4F4
  3
A9
350
E4F5
  3
B0
350
E4F6
  3
B1
350
E4F7
  3
B2
350
E4F8
  3
B3
350
E4F9
  3
B4
350
E4FA
  3
B5
350
E4FB
  3
B6
350
E4FC
  3
B7
350
E4FD
  3
B8
350
E4FE
  3
B9
350
E4FF
  3
C0
350
E500
  3
C1
350
E501
  3
C2
350
E502
  3
C3
350
E503
  3
C4
350
E504
  3
C5
350
E505
  3
C6
350
E506
  3
C7
350
E507
  3
C8
350
E508
  3
C9
350
E509
  3
D0
350
E50A
  3
D1
350
E50B
  3
D2
350
E50C
  0
DICTIONARY
  5
423DF
102
{ACAD_REACTORS
330
C
102
}
330
C
100
AcDbDictionary
281
     1
  3
Imperial24
350
423E0
  0
DICTIONARY
  5
E4E9
102
{ACAD_REACTORS
330
C
102
}
330
C
100
AcDbDictionary
281
     1
  3
Standard
350
E4EA
  0
DICTIONARY
  5
E4D4
102
{ACAD_REACTORS
330
C
102
}
330
C
100
AcDbDictionary
281
     1
  3
2dWireframe
350
E4DA
  3
3D Hidden
350
E4DC
  3
3dWireframe
350
E4DB
  3
Basic
350
E4D9
  3
Brighten
350
E4E0
  3
ColorChange
350
E4E4
  3
Conceptual
350
E4DD
  3
Dim
350
E4DF
  3
EdgeColorOff
350
E4E7
  3
Facepattern
350
E4E3
  3
Flat
350
E4D5
  3
FlatWithEdges
350
E4D6
  3
Gouraud
350
E4D7
  3
GouraudWithEdges
350
E4D8
  3
Hidden
350
423D9
  3
JitterOff
350
E4E5
  3
Linepattern
350
E4E2
  3
OverhangOff
350
E4E6
  3
Realistic
350
E4DE
  3
Shaded
350
423DE
  3
Shaded with edges
350
423DD
  3
Shades of Gray
350
423DA
  3
Sketchy
350
423DB
  3
Thicken
350
E4E1
  3
Wireframe
350
423D8
  3
X-Ray
350
423DC
  0
XRECORD
  5
6D5E
102
{ACAD_REACTORS
330
C
102
}
330
C
100
AcDbXrecord
280
     1
 90
   990106
  3

 60
     0
 61
     0
 62
     1
 63
     3
 64
     0
 65
     0
 66
     0
 67
     3
 68
     1
 69
     0
 70
     0
 71
     0
 72
     0
 40
0.0
170
     0
340
0
  0
XRECORD
  5
4256A
102
{ACAD_REACTORS
330
C
102
}
330
C
100
AcDbXrecord
280
     1
 90
        1
330
E4EA
330
423E0
330
423E2
  0
DICTIONARY
  5
5697
102
{ACAD_REACTORS
330
C
102
}
330
C
100
AcDbDictionary
281
     1
  3
CANNOSCALE
350
F8C1
  3
CMLEADERSTYLE
350
F8C0
  3
CTABLESTYLE
350
F8BF
  3
CVIEWDETAILSTYLE
350
4242F
  3
CVIEWSECTIONSTYLE
350
42430
  3
DIMASSOC
350
5698
  3
INDEXCTL
350
F8C3
  3
LAYEREVAL
350
37FF5
  3
LAYERNOTIFY
350
37FF6
  3
LIGHTINGUNITS
350
37FF4
  3
MSLTSCALE
350
37FF3
  3
SORTENTS
350
F8C2
  0
DICTIONARY
  5
F8DB
102
{ACAD_REACTORS
330
C
102
}
330
C
100
AcDbDictionary
281
     1
  0
DICTIONARY
  5
F8F6
102
{ACAD_REACTORS
330
C
102
}
330
C
100
AcDbDictionary
281
     1
  3
ASEBlockHierarchyIndexRecord
350
F8F7
1001
DCO15
1040
1706442467.984
  0
DICTIONARY
  5
12DA1
102
{ACAD_REACTORS
330
12DA0
102
}
330
12DA0
100
AcDbDictionary
281
     1
  0
XRECORD
  5
E513
102
{ACAD_REACTORS
330
E512
102
}
330
E512
100
AcDbXrecord
280
     1
290
     1
  0
XRECORD
  5
E515
102
{ACAD_REACTORS
330
E514
102
}
330
E514
100
AcDbXrecord
280
     1
290
     1
  0
XRECORD
  5
E519
102
{ACAD_REACTORS
330
E518
102
}
330
E518
100
AcDbXrecord
280
     1
290
     1
  0
XRECORD
  5
E51D
102
{ACAD_REACTORS
330
E51C
102
}
330
E51C
100
AcDbXrecord
280
     1
290
     1
  0
XRECORD
  5
E51F
102
{ACAD_REACTORS
330
E51E
102
}
330
E51E
100
AcDbXrecord
280
     1
290
     1
  0
XRECORD
  5
E521
102
{ACAD_REACTORS
330
E520
102
}
330
E520
100
AcDbXrecord
280
     1
290
     1
  0
XRECORD
  5
E523
102
{ACAD_REACTORS
330
E522
102
}
330
E522
100
AcDbXrecord
280
     1
290
     1
  0
XRECORD
  5
E525
102
{ACAD_REACTORS
330
E524
102
}
330
E524
100
AcDbXrecord
280
     1
290
     1
  0
XRECORD
  5
E52B
102
{ACAD_REACTORS
330
E52A
102
}
330
E52A
100
AcDbXrecord
280
     1
290
     1
  0
XRECORD
  5
E531
102
{ACAD_REACTORS
330
E530
102
}
330
E530
100
AcDbXrecord
280
     1
290
     1
  0
XRECORD
  5
E535
102
{ACAD_REACTORS
330
E534
102
}
330
E534
100
AcDbXrecord
280
     1
290
     1
  0
XRECORD
  5
9011
102
{ACAD_REACTORS
330
178
102
}
330
178
100
AcDbXrecord
280
     1
340
1E
  0
SORTENTSTABLE
  5
37C0C
102
{ACAD_REACTORS
330
178
102
}
330
178
100
AcDbSortentsTable
330
1E
331
3F464
  5
3F464
331
3F46C
  5
3F46C
331
3F474
  5
3F474
331
3F483
  5
3F483
331
3F81D
  5
3F81D
331
3F48B
  5
3F48B
331
3F43D
  5
3F43D
331
3F49C
  5
3F49C
331
3F4A4
  5
3F4A4
331
3F44D
  5
3F44D
331
3F455
  5
3F455
331
3F4AC
  5
3F4AC
331
3F440
  5
3F440
331
3F45D
  5
3F45D
331
3F4B4
  5
3F4B4
331
3F478
  5
3F478
331
3F4B8
  5
3F4B8
331
3F465
  5
3F465
331
3F524
  5
3F524
331
3F46D
  5
3F46D
331
3F475
  5
3F475
331
3F495
  5
3F495
331
3F484
  5
3F484
331
3F81E
  5
3F81E
331
3F48C
  5
3F48C
331
3F49D
  5
3F49D
331
3F44E
  5
3F44E
331
3F4A5
  5
3F4A5
331
3F456
  5
3F456
331
3F4AD
  5
3F4AD
331
3F441
  5
3F441
331
3F4B5
  5
3F4B5
331
3F479
  5
3F479
331
3F45E
  5
3F45E
331
3F4B9
  5
3F4B9
331
3F466
  5
3F466
331
3F525
  5
3F525
331
3F46E
  5
3F46E
331
3F476
  5
3F476
331
3F496
  5
3F496
331
3F485
  5
3F485
331
3F81F
  5
3F81F
331
3F48D
  5
3F48D
331
3F43F
  5
3F43F
331
3F49E
  5
3F49E
331
3F4A6
  5
3F4A6
331
3F44F
  5
3F44F
331
3F457
  5
3F457
331
3F4AE
  5
3F4AE
331
3F45F
  5
3F45F
331
3F4B6
  5
3F4B6
331
3F47A
  5
3F47A
331
3F4BA
  5
3F4BA
331
3F467
  5
3F467
331
3F46F
  5
3F46F
331
3F477
  5
3F477
331
3F497
  5
3F497
331
3F486
  5
3F486
331
3F48E
  5
3F48E
331
3F448
  5
3F448
331
3F49F
  5
3F49F
331
41836
  5
41836
331
3F450
  5
3F450
331
3F4A7
  5
3F4A7
331
3F458
  5
3F458
331
3F4AF
  5
3F4AF
331
3F4B7
  5
3F4B7
331
3F47B
  5
3F47B
331
3F460
  5
3F460
331
3F468
  5
3F468
331
3F470
  5
3F470
331
3F837
  5
3F837
331
3F490
  5
3F490
331
3F800
  5
3F800
331
3F820
  5
3F820
331
3F487
  5
3F487
331
3F48F
  5
3F48F
331
3F498
  5
3F498
331
3F4A0
  5
3F4A0
331
3F449
  5
3F449
331
3F4A8
  5
3F4A8
331
4183F
  5
4183F
331
3F451
  5
3F451
331
3F459
  5
3F459
331
3F4B0
  5
3F4B0
331
3F444
  5
3F444
331
3F47C
  5
3F47C
331
3F461
  5
3F461
331
3F469
  5
3F469
331
3F838
  5
3F838
331
3F471
  5
3F471
331
3F491
  5
3F491
331
3F801
  5
3F801
331
3F480
  5
3F480
331
3F488
  5
3F488
331
3F499
  5
3F499
331
3F44A
  5
3F44A
331
3F4A1
  5
3F4A1
331
41840
  5
41840
331
3F452
  5
3F452
331
3F4A9
  5
3F4A9
331
3F4B1
  5
3F4B1
331
3F445
  5
3F445
331
3F45A
  5
3F45A
331
3F47D
  5
3F47D
331
3F462
  5
3F462
331
3F46A
  5
3F46A
331
3F472
  5
3F472
331
3F802
  5
3F802
331
3F481
  5
3F481
331
3F489
  5
3F489
331
3F49A
  5
3F49A
331
3F4A2
  5
3F4A2
331
3F44B
  5
3F44B
331
3F4AA
  5
3F4AA
331
3F453
  5
3F453
331
3F45B
  5
3F45B
331
3F4B2
  5
3F4B2
331
3F446
  5
3F446
331
3F463
  5
3F463
331
3F46B
  5
3F46B
331
3F473
  5
3F473
331
3F493
  5
3F493
331
3F803
  5
3F803
331
3F482
  5
3F482
331
3F81C
  5
3F81C
331
3F48A
  5
3F48A
331
3F49B
  5
3F49B
331
3F44C
  5
3F44C
331
3F4A3
  5
3F4A3
331
3F454
  5
3F454
331
3F4AB
  5
3F4AB
331
3F4B3
  5
3F4B3
331
3F447
  5
3F447
331
3F45C
  5
3F45C
331
3F47F
  5
3F47F
331
3F4BF
  5
3F4BF
  0
XRECORD
  5
9010
102
{ACAD_REACTORS
330
17A
102
}
330
17A
100
AcDbXrecord
280
     1
340
1A
  0
SORTENTSTABLE
  5
3AADE
102
{ACAD_REACTORS
330
3AADD
102
}
330
3AADD
100
AcDbSortentsTable
330
3AADC
  0
SORTENTSTABLE
  5
3DA3E
102
{ACAD_REACTORS
330
3DA3D
102
}
330
3DA3D
100
AcDbSortentsTable
330
3DA3C
  0
SORTENTSTABLE
  5
41817
102
{ACAD_REACTORS
330
41816
102
}
330
41816
100
AcDbSortentsTable
330
41807
  0
ACDBDETAILVIEWSTYLE
  5
423E2
102
{ACAD_XDICTIONARY
360
42434
102
}
102
{ACAD_REACTORS
330
423E1
102
}
330
423E1
100
AcDbModelDocViewStyle
 70
     0
  3
Imperial24
290
     0
100
AcDbDetailViewStyle
 70
     0
 71
     0
 90
        3
 71
     1
340
11
 62
   256
 40
0.24
340
0
 62
   256
 40
0.24
300

 40
0.36
280
     3
 71
     2
340
15
 90
       25
 62
   256
 71
     3
340
11
 62
   256
 40
0.24
 90
        1
 40
0.75
 90
        1
300
%<\AcVar ViewType \f "%tc1">% %<\AcVar ViewDetailId>%\PSCALE %<\AcVar ViewScale \f "%sn">%
 71
     4
340
15
 90
       25
 62
   256
340
15
 90
       25
 62
   256
280
     0
  0
LAYOUT
  5
904E
102
{ACAD_XDICTIONARY
360
13816
102
}
102
{ACAD_REACTORS
330
19
102
}
330
19
100
AcDbPlotSettings
  1

  2
Canon LBP3800 LIPSLX
  4
A4
  6
OLE1
 40
5.873749732971191
 41
5.873747825622557
 42
5.873748779296875
 43
5.873748779296875
 44
209.9733276367186
 45
296.9259948730469
 46
4.368652168726285
 47
0.8644569253958136
 48
0.0
 49
0.0
140
0.0
141
0.0
142
1.0
143
2.5
 70
 11940
 72
     1
 73
     0
 74
     1
  7
monochrome.ctb
 75
     0
147
0.4
 76
     0
 77
     2
 78
   300
148
203.0887703810449
149
220.5380198621869
100
AcDbLayout
  1
Model
 70
     1
 71
     0
 10
0.0
 20
0.0
 11
12.0
 21
9.0
 12
0.0
 22
0.0
 32
0.0
 14
0.0
 24
0.0
 34
0.0
 15
0.0
 25
0.0
 35
0.0
146
0.0
 13
0.0
 23
0.0
 33
0.0
 16
1.0
 26
0.0
 36
0.0
 17
0.0
 27
1.0
 37
0.0
 76
     0
330
1E
331
12C00
1001
ACAD_PSEXT
1000
Canon LBP3800 LIPSLX
1000
Canon LBP3800 LIPSLX
1000
IP_192.168.54.50
1000

1070
     0
  0
LAYOUT
  5
904F
102
{ACAD_REACTORS
330
19
102
}
330
19
100
AcDbPlotSettings
  1

  2
none_device
  4
Letter_(8.50_x_11.00_Inches)
  6

 40
6.349999904632567
 41
6.349999904632567
 42
6.350006103515625
 43
6.350006103515625
 44
215.8999938964844
 45
279.3999938964844
 46
0.0
 47
0.0
 48
0.0
 49
0.0
140
0.0
141
0.0
142
1.0
143
1.0
 70
   688
 72
     0
 73
     1
 74
     1
  7
monochrome.stb
 75
     0
147
1.0
 76
     0
 77
     2
 78
   300
148
0.0
149
0.0
100
AcDbLayout
  1
ﾚｲｱｳﾄ1
 70
     1
 71
     1
 10
-0.2500002402958907
 20
-0.2499999962453767
 11
10.74999951940822
 21
8.249999763458731
 12
0.0
 22
0.0
 32
0.0
 14
0.0
 24
0.0
 34
0.0
 15
0.0
 25
0.0
 35
0.0
146
0.0
 13
0.0
 23
0.0
 33
0.0
 16
1.0
 26
0.0
 36
0.0
 17
0.0
 27
1.0
 37
0.0
 76
     0
330
1A
331
9AC
1001
ACAD_PSEXT
1000
なし
1000
なし
1000
適切ではありません
1000
新しいプロッタ環境設定名を選択しない限り、レイアウトは印刷されません。
1070
     0
  0
MATERIAL
  5
E4C4
102
{ACAD_XDICTIONARY
360
E4C5
102
}
102
{ACAD_REACTORS
330
E4BB
102
}
330
E4BB
100
AcDbMaterial
  1
ByBlock
 72
     0
 43
0.0208333333333333
 43
0.0
 43
0.0
 43
0.0
 43
0.0
 43
0.0208333333333333
 43
0.0
 43
0.0
 43
0.0
 43
0.0
 43
1.0
 43
0.0
 43
0.0
 43
0.0
 43
0.0
 43
1.0
 77
     0
 47
0.0208333333333333
 47
0.0
 47
0.0
 47
0.0
 47
0.0
 47
0.0208333333333333
 47
0.0
 47
0.0
 47
0.0
 47
0.0
 47
1.0
 47
0.0
 47
0.0
 47
0.0
 47
0.0
 47
1.0
171
     0
 49
0.0208333333333333
 49
0.0
 49
0.0
 49
0.0
 49
0.0
 49
0.0208333333333333
 49
0.0
 49
0.0
 49
0.0
 49
0.0
 49
1.0
 49
0.0
 49
0.0
 49
0.0
 49
0.0
 49
1.0
175
     0
142
0.0208333333333333
142
0.0
142
0.0
142
0.0
142
0.0
142
0.0208333333333333
142
0.0
142
0.0
142
0.0
142
0.0
142
1.0
142
0.0
142
0.0
142
0.0
142
0.0
142
1.0
179
     0
144
0.0208333333333333
144
0.0
144
0.0
144
0.0
144
0.0
144
0.0208333333333333
144
0.0
144
0.0
144
0.0
144
0.0
144
1.0
144
0.0
144
0.0
144
0.0
144
0.0
144
1.0
147
0.0208333333333333
147
0.0
147
0.0
147
0.0
147
0.0
147
0.0208333333333333
147
0.0
147
0.0
147
0.0
147
0.0
147
1.0
147
0.0
147
0.0
147
0.0
147
0.0
147
1.0
  0
MATERIAL
  5
E4BC
102
{ACAD_XDICTIONARY
360
E4BD
102
}
102
{ACAD_REACTORS
330
E4BB
102
}
330
E4BB
100
AcDbMaterial
  1
ByLayer
 72
     0
 43
0.0208333333333333
 43
0.0
 43
0.0
 43
0.0
 43
0.0
 43
0.0208333333333333
 43
0.0
 43
0.0
 43
0.0
 43
0.0
 43
1.0
 43
0.0
 43
0.0
 43
0.0
 43
0.0
 43
1.0
 77
     0
 47
0.0208333333333333
 47
0.0
 47
0.0
 47
0.0
 47
0.0
 47
0.0208333333333333
 47
0.0
 47
0.0
 47
0.0
 47
0.0
 47
1.0
 47
0.0
 47
0.0
 47
0.0
 47
0.0
 47
1.0
171
     0
 49
0.0208333333333333
 49
0.0
 49
0.0
 49
0.0
 49
0.0
 49
0.0208333333333333
 49
0.0
 49
0.0
 49
0.0
 49
0.0
 49
1.0
 49
0.0
 49
0.0
 49
0.0
 49
0.0
 49
1.0
175
     0
142
0.0208333333333333
142
0.0
142
0.0
142
0.0
142
0.0
142
0.0208333333333333
142
0.0
142
0.0
142
0.0
142
0.0
142
1.0
142
0.0
142
0.0
142
0.0
142
0.0
142
1.0
179
     0
144
0.0208333333333333
144
0.0
144
0.0
144
0.0
144
0.0
144
0.0208333333333333
144
0.0
144
0.0
144
0.0
144
0.0
144
1.0
144
0.0
144
0.0
144
0.0
144
0.0
144
1.0
147
0.0208333333333333
147
0.0
147
0.0
147
0.0
147
0.0
147
0.0208333333333333
147
0.0
147
0.0
147
0.0
147
0.0
147
1.0
147
0.0
147
0.0
147
0.0
147
0.0
147
1.0
  0
MATERIAL
  5
E4CC
102
{ACAD_XDICTIONARY
360
E4CD
102
}
102
{ACAD_REACTORS
330
E4BB
102
}
330
E4BB
100
AcDbMaterial
  1
Global
 72
     0
 43
0.0208333333333333
 43
0.0
 43
0.0
 43
0.0
 43
0.0
 43
0.0208333333333333
 43
0.0
 43
0.0
 43
0.0
 43
0.0
 43
1.0
 43
0.0
 43
0.0
 43
0.0
 43
0.0
 43
1.0
 77
     0
 47
0.0208333333333333
 47
0.0
 47
0.0
 47
0.0
 47
0.0
 47
0.0208333333333333
 47
0.0
 47
0.0
 47
0.0
 47
0.0
 47
1.0
 47
0.0
 47
0.0
 47
0.0
 47
0.0
 47
1.0
171
     0
 49
0.0208333333333333
 49
0.0
 49
0.0
 49
0.0
 49
0.0
 49
0.0208333333333333
 49
0.0
 49
0.0
 49
0.0
 49
0.0
 49
1.0
 49
0.0
 49
0.0
 49
0.0
 49
0.0
 49
1.0
175
     0
142
0.0208333333333333
142
0.0
142
0.0
142
0.0
142
0.0
142
0.0208333333333333
142
0.0
142
0.0
142
0.0
142
0.0
142
1.0
142
0.0
142
0.0
142
0.0
142
0.0
142
1.0
179
     0
144
0.0208333333333333
144
0.0
144
0.0
144
0.0
144
0.0
144
0.0208333333333333
144
0.0
144
0.0
144
0.0
144
0.0
144
1.0
144
0.0
144
0.0
144
0.0
144
0.0
144
1.0
147
0.0208333333333333
147
0.0
147
0.0
147
0.0
147
0.0
147
0.0208333333333333
147
0.0
147
0.0
147
0.0
147
0.0
147
1.0
147
0.0
147
0.0
147
0.0
147
0.0
147
1.0
  0
MLEADERSTYLE
  5
E50E
102
{ACAD_REACTORS
330
E50D
102
}
330
E50D
100
AcDbMLeaderStyle
179
     2
170
     2
171
     1
172
     0
 90
        2
 40
0.0
 41
0.0
173
     1
 91
-1056964608
340
13
 92
       -2
290
     1
 42
0.09
291
     1
 43
0.36
  3
Standard
 44
0.18
300

342
11
174
     1
178
     6
175
     1
176
     0
 93
-1056964608
 45
0.18
292
     0
297
     0
 46
0.18
 94
-1056964608
 47
1.0
 49
1.0
140
1.0
293
     1
141
0.0
294
     1
177
     0
142
1.0
295
     0
296
     0
143
0.125
271
     0
272
     9
273
     9
298
     0
1001
ACAD_MLEADERVER
1070
     2
  0
MLINESTYLE
  5
17
102
{ACAD_REACTORS
330
16
102
}
330
16
100
AcDbMlineStyle
  2
STANDARD
 70
     0
  3

 62
   256
 51
90.0
 52
90.0
 71
     2
 49
0.5
 62
   256
  6
BYLAYER
 49
-0.5
 62
   256
  6
BYLAYER
  0
ACDBPLACEHOLDER
  5
F
102
{ACAD_REACTORS
330
E
102
}
330
E
  0
SCALE
  5
E4EC
102
{ACAD_REACTORS
330
E4EB
102
}
330
E4EB
100
AcDbScale
 70
     0
300
1:1
140
1.0
141
1.0
290
     1
  0
SCALE
  5
E4ED
102
{ACAD_REACTORS
330
E4EB
102
}
330
E4EB
100
AcDbScale
 70
     0
300
1:2
140
1.0
141
2.0
290
     0
  0
SCALE
  5
E4EE
102
{ACAD_REACTORS
330
E4EB
102
}
330
E4EB
100
AcDbScale
 70
     0
300
1:4
140
1.0
141
4.0
290
     0
  0
SCALE
  5
E4EF
102
{ACAD_REACTORS
330
E4EB
102
}
330
E4EB
100
AcDbScale
 70
     0
300
1:5
140
1.0
141
5.0
290
     0
  0
SCALE
  5
E4F0
102
{ACAD_REACTORS
330
E4EB
102
}
330
E4EB
100
AcDbScale
 70
     0
300
1:8
140
1.0
141
8.0
290
     0
  0
SCALE
  5
E4F1
102
{ACAD_REACTORS
330
E4EB
102
}
330
E4EB
100
AcDbScale
 70
     0
300
1:10
140
1.0
141
10.0
290
     0
  0
SCALE
  5
E4F2
102
{ACAD_REACTORS
330
E4EB
102
}
330
E4EB
100
AcDbScale
 70
     0
300
1:16
140
1.0
141
16.0
290
     0
  0
SCALE
  5
E4F3
102
{ACAD_REACTORS
330
E4EB
102
}
330
E4EB
100
AcDbScale
 70
     0
300
1:20
140
1.0
141
20.0
290
     0
  0
SCALE
  5
E4F4
102
{ACAD_REACTORS
330
E4EB
102
}
330
E4EB
100
AcDbScale
 70
     0
300
1:30
140
1.0
141
30.0
290
     0
  0
SCALE
  5
E4F5
102
{ACAD_REACTORS
330
E4EB
102
}
330
E4EB
100
AcDbScale
 70
     0
300
1:40
140
1.0
141
40.0
290
     0
  0
SCALE
  5
E4F6
102
{ACAD_REACTORS
330
E4EB
102
}
330
E4EB
100
AcDbScale
 70
     0
300
1:50
140
1.0
141
50.0
290
     0
  0
SCALE
  5
E4F7
102
{ACAD_REACTORS
330
E4EB
102
}
330
E4EB
100
AcDbScale
 70
     0
300
1:100
140
1.0
141
100.0
290
     0
  0
SCALE
  5
E4F8
102
{ACAD_REACTORS
330
E4EB
102
}
330
E4EB
100
AcDbScale
 70
     0
300
2:1
140
2.0
141
1.0
290
     0
  0
SCALE
  5
E4F9
102
{ACAD_REACTORS
330
E4EB
102
}
330
E4EB
100
AcDbScale
 70
     0
300
4:1
140
4.0
141
1.0
290
     0
  0
SCALE
  5
E4FA
102
{ACAD_REACTORS
330
E4EB
102
}
330
E4EB
100
AcDbScale
 70
     0
300
8:1
140
8.0
141
1.0
290
     0
  0
SCALE
  5
E4FB
102
{ACAD_REACTORS
330
E4EB
102
}
330
E4EB
100
AcDbScale
 70
     0
300
10:1
140
10.0
141
1.0
290
     0
  0
SCALE
  5
E4FC
102
{ACAD_REACTORS
330
E4EB
102
}
330
E4EB
100
AcDbScale
 70
     0
300
100:1
140
100.0
141
1.0
290
     0
  0
SCALE
  5
E4FD
102
{ACAD_REACTORS
330
E4EB
102
}
330
E4EB
100
AcDbScale
 70
     0
300
1/128" = 1'-0"
140
0.0078125
141
12.0
290
     0
  0
SCALE
  5
E4FE
102
{ACAD_REACTORS
330
E4EB
102
}
330
E4EB
100
AcDbScale
 70
     0
300
1/64" = 1'-0"
140
0.015625
141
12.0
290
     0
  0
SCALE
  5
E4FF
102
{ACAD_REACTORS
330
E4EB
102
}
330
E4EB
100
AcDbScale
 70
     0
300
1/32" = 1'-0"
140
0.03125
141
12.0
290
     0
  0
SCALE
  5
E500
102
{ACAD_REACTORS
330
E4EB
102
}
330
E4EB
100
AcDbScale
 70
     0
300
1/16" = 1'-0"
140
0.0625
141
12.0
290
     0
  0
SCALE
  5
E501
102
{ACAD_REACTORS
330
E4EB
102
}
330
E4EB
100
AcDbScale
 70
     0
300
3/32" = 1'-0"
140
0.09375
141
12.0
290
     0
  0
SCALE
  5
E502
102
{ACAD_REACTORS
330
E4EB
102
}
330
E4EB
100
AcDbScale
 70
     0
300
1/8" = 1'-0"
140
0.125
141
12.0
290
     0
  0
SCALE
  5
E503
102
{ACAD_REACTORS
330
E4EB
102
}
330
E4EB
100
AcDbScale
 70
     0
300
3/16" = 1'-0"
140
0.1875
141
12.0
290
     0
  0
SCALE
  5
E504
102
{ACAD_REACTORS
330
E4EB
102
}
330
E4EB
100
AcDbScale
 70
     0
300
1/4" = 1'-0"
140
0.25
141
12.0
290
     0
  0
SCALE
  5
E505
102
{ACAD_REACTORS
330
E4EB
102
}
330
E4EB
100
AcDbScale
 70
     0
300
3/8" = 1'-0"
140
0.375
141
12.0
290
     0
  0
SCALE
  5
E506
102
{ACAD_REACTORS
330
E4EB
102
}
330
E4EB
100
AcDbScale
 70
     0
300
1/2" = 1'-0"
140
0.5
141
12.0
290
     0
  0
SCALE
  5
E507
102
{ACAD_REACTORS
330
E4EB
102
}
330
E4EB
100
AcDbScale
 70
     0
300
3/4" = 1'-0"
140
0.75
141
12.0
290
     0
  0
SCALE
  5
E508
102
{ACAD_REACTORS
330
E4EB
102
}
330
E4EB
100
AcDbScale
 70
     0
300
1" = 1'-0"
140
1.0
141
12.0
290
     0
  0
SCALE
  5
E509
102
{ACAD_REACTORS
330
E4EB
102
}
330
E4EB
100
AcDbScale
 70
     0
300
1-1/2" = 1'-0"
140
1.5
141
12.0
290
     0
  0
SCALE
  5
E50A
102
{ACAD_REACTORS
330
E4EB
102
}
330
E4EB
100
AcDbScale
 70
     0
300
3" = 1'-0"
140
3.0
141
12.0
290
     0
  0
SCALE
  5
E50B
102
{ACAD_REACTORS
330
E4EB
102
}
330
E4EB
100
AcDbScale
 70
     0
300
6" = 1'-0"
140
6.0
141
12.0
290
     0
  0
SCALE
  5
E50C
102
{ACAD_REACTORS
330
E4EB
102
}
330
E4EB
100
AcDbScale
 70
     0
300
1'-0" = 1'-0"
140
12.0
141
12.0
290
     0
  0
ACDBSECTIONVIEWSTYLE
  5
423E0
102
{ACAD_XDICTIONARY
360
42432
102
}
102
{ACAD_REACTORS
330
423DF
102
}
330
423DF
100
AcDbModelDocViewStyle
 70
     0
  3
Imperial24
290
     0
100
AcDbSectionViewStyle
 70
     0
 71
     0
 90
       78
 71
     1
340
11
 62
   256
 40
0.24
340
0
340
0
 62
   256
 40
0.24
300
I, O, Q, S, X, Z
 40
0.48
 90
        3
 40
0.18
 90
        1
 71
     2
340
15
 90
       25
 62
   256
340
15
 90
       50
 62
   256
 40
0.24
 40
0.0
 40
0.24
 71
     3
340
11
 62
   256
 40
0.24
 90
        1
 40
0.75
 90
        1
300
%<\AcVar ViewType \f "%tc1">% %<\AcVar ViewSectionStartId>%-%<\AcVar ViewSectionEndId>%\PSCALE %<\AcVar ViewScale \f "%sn">%
 71
     4
 62
   256
 62
   257
300
ANSI31
 40
1.0
 90
        0
290
     0
290
     0
 90
        6
 40
0.0
 40
1.570796326794896
 40
0.2617993877991494
 40
1.308996938995747
 40
-0.2617993877991494
 40
1.832595714594044
  0
TABLESTYLE
  5
E4EA
102
{ACAD_XDICTIONARY
360
F86C
102
}
102
{ACAD_REACTORS
330
E4E9
102
}
330
E4E9
100
AcDbTableStyle
280
     0
  3
Standard
 70
     0
 71
     0
 40
0.06
 41
0.06
280
     0
281
     0
  7
STANDARD
140
0.18
170
     2
 62
     0
 63
     7
283
     0
 90
      512
 91
        0
  1

274
    -2
284
     1
 64
     0
275
    -2
285
     1
 65
     0
276
    -2
286
     1
 66
     0
277
    -2
287
     1
 67
     0
278
    -2
288
     1
 68
     0
279
    -2
289
     1
 69
     0
  7
STANDARD
140
0.25
170
     5
 62
     0
 63
     7
283
     0
 90
      512
 91
        0
  1

274
    -2
284
     1
 64
     0
275
    -2
285
     1
 65
     0
276
    -2
286
     1
 66
     0
277
    -2
287
     1
 67
     0
278
    -2
288
     1
 68
     0
279
    -2
289
     1
 69
     0
  7
STANDARD
140
0.18
170
     5
 62
     0
 63
     7
283
     0
 90
      512
 91
        0
  1

274
    -2
284
     1
 64
     0
275
    -2
285
     1
 65
     0
276
    -2
286
     1
 66
     0
277
    -2
287
     1
 67
     0
278
    -2
288
     1
 68
     0
279
    -2
289
     1
 69
     0
  0
VISUALSTYLE
  5
E4DA
102
{ACAD_REACTORS
330
E4D4
102
}
330
E4D4
100
AcDbVisualStyle
  2

 70
     4
177
     3
291
     0
 70
    58
 90
        0
176
     1
 90
        2
176
     1
 90
        0
176
     1
 90
        0
176
     1
 40
0.6
176
     1
 40
30.0
176
     1
 62
     7
176
     1
 90
        1
176
     1
 90
        4
176
     1
 62
     7
176
     1
 62
   257
176
     1
 90
        1
176
     1
 90
        1
176
     1
 40
1.0
176
     1
 90
        0
176
     1
 62
   257
176
     1
 40
1.0
176
     1
 90
        1
176
     1
 90
        6
176
     1
 90
        2
176
     1
 62
     7
176
     1
 90
        5
176
     1
 90
        0
176
     1
 90
        0
176
     1
290
     0
176
     1
 90
        1
176
     1
 40
0.0
176
     1
 90
        0
176
     1
290
     1
176
     1
290
     1
176
     1
290
     0
176
     1
290
     0
176
     1
290
     0
176
     1
290
     0
176
     1
290
     0
176
     1
290
     0
176
     1
290
     0
176
     1
 90
       50
176
     1
 40
0.0
176
     1
 40
1.0
176
     1
 90
        0
176
     1
 62
    18
176
     1
 90
       50
176
     1
 90
        3
176
     1
 62
     5
420
      255
176
     1
290
     0
176
     1
 90
       50
176
     1
 90
       50
176
     1
 90
       50
176
     1
290
     0
176
     1
 90
       50
176
     1
 62
   256
176
     0
 40
1.0
176
     0
 90
        2
176
     1
  1
strokes_ogs.tif
176
     1
290
     0
176
     1
 40
1.0
176
     1
 40
1.0
176
     1
  0
VISUALSTYLE
  5
E4DC
102
{ACAD_REACTORS
330
E4D4
102
}
330
E4D4
100
AcDbVisualStyle
  2

 70
     6
177
     3
291
     0
 70
    58
 90
        1
176
     1
 90
        2
176
     1
 90
        2
176
     1
 90
        0
176
     1
 40
0.6
176
     1
 40
30.0
176
     1
 62
     7
176
     1
 90
        2
176
     1
 90
        2
176
     1
 62
     7
176
     1
 62
   257
176
     1
 90
        2
176
     1
 90
        1
176
     1
 40
179.0
176
     1
 90
        0
176
     1
 62
   257
176
     1
 40
1.0
176
     1
 90
        1
176
     1
 90
        6
176
     1
 90
        2
176
     1
 62
     7
176
     1
 90
        3
176
     1
 90
        0
176
     1
 90
        0
176
     1
290
     0
176
     1
 90
        1
176
     1
 40
0.0
176
     1
 90
        0
176
     1
290
     0
176
     1
290
     1
176
     1
290
     1
176
     1
290
     0
176
     1
290
     0
176
     1
290
     0
176
     1
290
     0
176
     1
290
     0
176
     1
290
     0
176
     1
 90
       50
176
     1
 40
0.0
176
     1
 40
1.0
176
     1
 90
        0
176
     1
 62
    18
176
     1
 90
       50
176
     1
 90
        3
176
     1
 62
     5
420
      255
176
     1
290
     0
176
     1
 90
       50
176
     1
 90
       50
176
     1
 90
       50
176
     1
290
     0
176
     1
 90
       50
176
     1
 62
   256
176
     0
 40
1.0
176
     0
 90
        2
176
     1
  1
strokes_ogs.tif
176
     1
290
     0
176
     1
 40
1.0
176
     1
 40
1.0
176
     1
  0
VISUALSTYLE
  5
E4DB
102
{ACAD_REACTORS
330
E4D4
102
}
330
E4D4
100
AcDbVisualStyle
  2

 70
     5
177
     3
291
     0
 70
    58
 90
        0
176
     1
 90
        2
176
     1
 90
        0
176
     1
 90
        0
176
     1
 40
0.6
176
     1
 40
30.0
176
     1
 62
     7
176
     1
 90
        1
176
     1
 90
        4
176
     1
 62
     7
176
     1
 62
   257
176
     1
 90
        1
176
     1
 90
        1
176
     1
 40
1.0
176
     1
 90
        0
176
     1
 62
   257
176
     1
 40
1.0
176
     1
 90
        1
176
     1
 90
        6
176
     1
 90
        2
176
     1
 62
     7
176
     1
 90
        5
176
     1
 90
        0
176
     1
 90
        0
176
     1
290
     0
176
     1
 90
        1
176
     1
 40
0.0
176
     1
 90
        0
176
     1
290
     0
176
     1
290
     1
176
     1
290
     1
176
     1
290
     0
176
     1
290
     0
176
     1
290
     0
176
     1
290
     0
176
     1
290
     0
176
     1
290
     0
176
     1
 90
       50
176
     1
 40
0.0
176
     1
 40
1.0
176
     1
 90
        0
176
     1
 62
    18
176
     1
 90
       50
176
     1
 90
        3
176
     1
 62
     5
420
      255
176
     1
290
     0
176
     1
 90
       50
176
     1
 90
       50
176
     1
 90
       50
176
     1
290
     0
176
     1
 90
       50
176
     1
 62
   256
176
     0
 40
1.0
176
     0
 90
        2
176
     1
  1
strokes_ogs.tif
176
     1
290
     0
176
     1
 40
1.0
176
     1
 40
1.0
176
     1
  0
VISUALSTYLE
  5
E4D9
102
{ACAD_REACTORS
330
E4D4
102
}
330
E4D4
100
AcDbVisualStyle
  2

 70
     7
177
     3
291
     1
 70
    58
 90
        1
176
     1
 90
        0
176
     1
 90
        1
176
     1
 90
        0
176
     1
 40
0.6
176
     1
 40
30.0
176
     1
 62
     7
176
     1
 90
        0
176
     1
 90
        4
176
     1
 62
     7
176
     1
 62
   257
176
     1
 90
        1
176
     1
 90
        1
176
     1
 40
1.0
176
     1
 90
        8
176
     1
 62
     7
176
     1
 40
1.0
176
     1
 90
        1
176
     1
 90
        6
176
     1
 90
        2
176
     1
 62
     7
176
     1
 90
        5
176
     1
 90
        0
176
     1
 90
        0
176
     1
290
     0
176
     1
 90
        1
176
     1
 40
0.0
176
     1
 90
        0
176
     1
290
     0
176
     1
290
     1
176
     1
290
     1
176
     1
290
     0
176
     1
290
     0
176
     1
290
     0
176
     1
290
     0
176
     1
290
     0
176
     1
290
     0
176
     1
 90
       50
176
     1
 40
0.0
176
     1
 40
1.0
176
     1
 90
        0
176
     1
 62
    18
176
     1
 90
       50
176
     1
 90
        3
176
     1
 62
     5
420
      255
176
     1
290
     0
176
     1
 90
       50
176
     1
 90
       50
176
     1
 90
       50
176
     1
290
     0
176
     1
 90
       50
176
     1
 62
   256
176
     0
 40
1.0
176
     0
 90
        2
176
     1
  1
strokes_ogs.tif
176
     1
290
     0
176
     1
 40
1.0
176
     1
 40
1.0
176
     1
  0
VISUALSTYLE
  5
E4E0
102
{ACAD_REACTORS
330
E4D4
102
}
330
E4D4
100
AcDbVisualStyle
  2

 70
    12
177
     3
291
     1
 70
    58
 90
        2
176
     1
 90
        2
176
     1
 90
        0
176
     1
 90
        0
176
     1
 40
0.6
176
     1
 40
30.0
176
     1
 62
     7
176
     1
 90
        1
176
     1
 90
        4
176
     1
 62
     7
176
     1
 62
   257
176
     1
 90
        1
176
     1
 90
        1
176
     1
 40
1.0
176
     1
 90
        8
176
     1
 62
     7
176
     1
 40
1.0
176
     1
 90
        1
176
     1
 90
        6
176
     1
 90
        2
176
     1
 62
     7
176
     1
 90
        5
176
     1
 90
        0
176
     1
 90
        0
176
     1
290
     0
176
     1
 90
        1
176
     1
 40
50.0
176
     1
 90
        0
176
     1
290
     0
176
     1
290
     1
176
     1
290
     1
176
     1
290
     0
176
     1
290
     0
176
     1
290
     0
176
     1
290
     0
176
     1
290
     0
176
     1
290
     0
176
     1
 90
       50
176
     1
 40
0.0
176
     1
 40
1.0
176
     1
 90
        0
176
     1
 62
    18
176
     1
 90
       50
176
     1
 90
        3
176
     1
 62
     5
420
      255
176
     1
290
     0
176
     1
 90
       50
176
     1
 90
       50
176
     1
 90
       50
176
     1
290
     0
176
     1
 90
       50
176
     1
 62
   256
176
     0
 40
1.0
176
     0
 90
        2
176
     1
  1
strokes_ogs.tif
176
     1
290
     0
176
     1
 40
1.0
176
     1
 40
1.0
176
     1
  0
VISUALSTYLE
  5
E4E4
102
{ACAD_REACTORS
330
E4D4
102
}
330
E4D4
100
AcDbVisualStyle
  2

 70
    16
177
     3
291
     1
 70
    58
 90
        2
176
     1
 90
        2
176
     1
 90
        3
176
     1
 90
        0
176
     1
 40
0.6
176
     1
 40
30.0
176
     1
 62
     8
176
     1
 90
        1
176
     1
 90
        4
176
     1
 62
     7
176
     1
 62
   257
176
     1
 90
        1
176
     1
 90
        1
176
     1
 40
1.0
176
     1
 90
        8
176
     1
 62
     8
176
     1
 40
1.0
176
     1
 90
        1
176
     1
 90
        6
176
     1
 90
        2
176
     1
 62
     7
176
     1
 90
        5
176
     1
 90
        0
176
     1
 90
        0
176
     1
290
     0
176
     1
 90
        1
176
     1
 40
0.0
176
     1
 90
        0
176
     1
290
     0
176
     1
290
     1
176
     1
290
     1
176
     1
290
     0
176
     1
290
     0
176
     1
290
     0
176
     1
290
     0
176
     1
290
     0
176
     1
290
     0
176
     1
 90
       50
176
     1
 40
0.0
176
     1
 40
1.0
176
     1
 90
        0
176
     1
 62
    18
176
     1
 90
       50
176
     1
 90
        3
176
     1
 62
     5
420
      255
176
     1
290
     0
176
     1
 90
       50
176
     1
 90
       50
176
     1
 90
       50
176
     1
290
     0
176
     1
 90
       50
176
     1
 62
   256
176
     0
 40
1.0
176
     0
 90
        2
176
     1
  1
strokes_ogs.tif
176
     1
290
     0
176
     1
 40
1.0
176
     1
 40
1.0
176
     1
  0
VISUALSTYLE
  5
E4DD
102
{ACAD_REACTORS
330
E4D4
102
}
330
E4D4
100
AcDbVisualStyle
  2

 70
     9
177
     3
291
     0
 70
    58
 90
        3
176
     1
 90
        2
176
     1
 90
        0
176
     1
 90
        0
176
     1
 40
0.6
176
     1
 40
30.0
176
     1
 62
     7
176
     1
 90
        2
176
     1
 90
        2
176
     1
 62
     7
176
     1
 62
   257
176
     1
 90
        1
176
     1
 90
        1
176
     1
 40
179.0
176
     1
 90
        8
176
     1
 62
     7
176
     1
 40
1.0
176
     1
 90
        1
176
     1
 90
        6
176
     1
 90
        2
176
     1
 62
     7
176
     1
 90
        3
176
     1
 90
        0
176
     1
 90
        0
176
     1
290
     0
176
     1
 90
        1
176
     1
 40
0.0
176
     1
 90
        0
176
     1
290
     0
176
     1
290
     1
176
     1
290
     1
176
     1
290
     0
176
     1
290
     0
176
     1
290
     0
176
     1
290
     0
176
     1
290
     0
176
     1
290
     0
176
     1
 90
       50
176
     1
 40
0.0
176
     1
 40
1.0
176
     1
 90
        0
176
     1
 62
    18
176
     1
 90
       50
176
     1
 90
        3
176
     1
 62
     5
420
      255
176
     1
290
     0
176
     1
 90
       50
176
     1
 90
       50
176
     1
 90
       50
176
     1
290
     0
176
     1
 90
       50
176
     1
 62
   256
176
     0
 40
1.0
176
     0
 90
        2
176
     1
  1
strokes_ogs.tif
176
     1
290
     0
176
     1
 40
1.0
176
     1
 40
1.0
176
     1
  0
VISUALSTYLE
  5
E4DF
102
{ACAD_REACTORS
330
E4D4
102
}
330
E4D4
100
AcDbVisualStyle
  2

 70
    11
177
     3
291
     1
 70
    58
 90
        2
176
     1
 90
        2
176
     1
 90
        0
176
     1
 90
        0
176
     1
 40
0.6
176
     1
 40
30.0
176
     1
 62
     7
176
     1
 90
        1
176
     1
 90
        4
176
     1
 62
     7
176
     1
 62
   257
176
     1
 90
        1
176
     1
 90
        1
176
     1
 40
1.0
176
     1
 90
        8
176
     1
 62
     7
176
     1
 40
1.0
176
     1
 90
        1
176
     1
 90
        6
176
     1
 90
        2
176
     1
 62
     7
176
     1
 90
        5
176
     1
 90
        0
176
     1
 90
        0
176
     1
290
     0
176
     1
 90
        1
176
     1
 40
-50.0
176
     1
 90
        0
176
     1
290
     0
176
     1
290
     1
176
     1
290
     1
176
     1
290
     0
176
     1
290
     0
176
     1
290
     0
176
     1
290
     0
176
     1
290
     0
176
     1
290
     0
176
     1
 90
       50
176
     1
 40
0.0
176
     1
 40
1.0
176
     1
 90
        0
176
     1
 62
    18
176
     1
 90
       50
176
     1
 90
        3
176
     1
 62
     5
420
      255
176
     1
290
     0
176
     1
 90
       50
176
     1
 90
       50
176
     1
 90
       50
176
     1
290
     0
176
     1
 90
       50
176
     1
 62
   256
176
     0
 40
1.0
176
     0
 90
        2
176
     1
  1
strokes_ogs.tif
176
     1
290
     0
176
     1
 40
1.0
176
     1
 40
1.0
176
     1
  0
VISUALSTYLE
  5
E4E7
102
{ACAD_REACTORS
330
E4D4
102
}
330
E4D4
100
AcDbVisualStyle
  2

 70
    22
177
     3
291
     1
 70
    58
 90
        2
176
     0
 90
        2
176
     0
 90
        0
176
     0
 90
        0
176
     0
 40
0.6
176
     0
 40
30.0
176
     0
 62
     7
176
     0
 90
        1
176
     0
 90
        4
176
     0
 62
     7
176
     0
 62
   257
176
     0
 90
        1
176
     0
 90
        1
176
     0
 40
1.0
176
     0
 90
        8
176
     2
 62
     7
176
     0
 40
1.0
176
     0
 90
        1
176
     0
 90
        6
176
     0
 90
        2
176
     0
 62
     7
176
     0
 90
        5
176
     0
 90
        0
176
     0
 90
        0
176
     0
290
     0
176
     0
 90
        1
176
     0
 40
0.0
176
     0
 90
        0
176
     0
290
     0
176
     1
290
     1
176
     1
290
     1
176
     1
290
     0
176
     1
290
     0
176
     1
290
     0
176
     1
290
     0
176
     1
290
     0
176
     1
290
     0
176
     1
 90
       50
176
     1
 40
0.0
176
     1
 40
1.0
176
     1
 90
        0
176
     1
 62
    18
176
     1
 90
       50
176
     1
 90
        3
176
     1
 62
     5
420
      255
176
     1
290
     0
176
     1
 90
       50
176
     1
 90
       50
176
     1
 90
       50
176
     1
290
     0
176
     1
 90
       50
176
     1
 62
   256
176
     0
 40
1.0
176
     0
 90
        2
176
     1
  1
strokes_ogs.tif
176
     1
290
     0
176
     1
 40
1.0
176
     1
 40
1.0
176
     1
  0
VISUALSTYLE
  5
E4E3
102
{ACAD_REACTORS
330
E4D4
102
}
330
E4D4
100
AcDbVisualStyle
  2

 70
    15
177
     3
291
     1
 70
    58
 90
        2
176
     1
 90
        2
176
     1
 90
        0
176
     1
 90
        0
176
     1
 40
0.6
176
     1
 40
30.0
176
     1
 62
     7
176
     1
 90
        1
176
     1
 90
        4
176
     1
 62
     7
176
     1
 62
   257
176
     1
 90
        1
176
     1
 90
        1
176
     1
 40
1.0
176
     1
 90
        8
176
     1
 62
     7
176
     1
 40
1.0
176
     1
 90
        1
176
     1
 90
        6
176
     1
 90
        2
176
     1
 62
     7
176
     1
 90
        5
176
     1
 90
        0
176
     1
 90
        0
176
     1
290
     0
176
     1
 90
        1
176
     1
 40
0.0
176
     1
 90
        0
176
     1
290
     0
176
     1
290
     1
176
     1
290
     1
176
     1
290
     0
176
     1
290
     0
176
     1
290
     0
176
     1
290
     0
176
     1
290
     0
176
     1
290
     0
176
     1
 90
       50
176
     1
 40
0.0
176
     1
 40
1.0
176
     1
 90
        0
176
     1
 62
    18
176
     1
 90
       50
176
     1
 90
        3
176
     1
 62
     5
420
      255
176
     1
290
     0
176
     1
 90
       50
176
     1
 90
       50
176
     1
 90
       50
176
     1
290
     0
176
     1
 90
       50
176
     1
 62
   256
176
     0
 40
1.0
176
     0
 90
        2
176
     1
  1
strokes_ogs.tif
176
     1
290
     0
176
     1
 40
1.0
176
     1
 40
1.0
176
     1
  0
VISUALSTYLE
  5
E4D5
102
{ACAD_REACTORS
330
E4D4
102
}
330
E4D4
100
AcDbVisualStyle
  2

 70
     0
177
     3
291
     1
 70
    58
 90
        2
176
     1
 90
        1
176
     1
 90
        1
176
     1
 90
        2
176
     1
 40
0.6
176
     1
 40
30.0
176
     1
 62
     7
176
     1
 90
        0
176
     1
 90
        4
176
     1
 62
     7
176
     1
 62
   257
176
     1
 90
        1
176
     1
 90
        1
176
     1
 40
1.0
176
     1
 90
        8
176
     1
 62
     7
176
     1
 40
1.0
176
     1
 90
        1
176
     1
 90
        6
176
     1
 90
        2
176
     1
 62
     7
176
     1
 90
        5
176
     1
 90
        0
176
     1
 90
        0
176
     1
290
     0
176
     1
 90
       13
176
     1
 40
0.0
176
     1
 90
        0
176
     1
290
     0
176
     1
290
     1
176
     1
290
     1
176
     1
290
     0
176
     1
290
     0
176
     1
290
     0
176
     1
290
     0
176
     1
290
     0
176
     1
290
     0
176
     1
 90
       50
176
     1
 40
0.0
176
     1
 40
1.0
176
     1
 90
        0
176
     1
 62
    18
176
     1
 90
       50
176
     1
 90
        3
176
     1
 62
     5
420
      255
176
     1
290
     0
176
     1
 90
       50
176
     1
 90
       50
176
     1
 90
       50
176
     1
290
     0
176
     1
 90
       50
176
     1
 62
   256
176
     0
 40
1.0
176
     0
 90
        2
176
     1
  1
strokes_ogs.tif
176
     1
290
     0
176
     1
 40
1.0
176
     1
 40
1.0
176
     1
  0
VISUALSTYLE
  5
E4D6
102
{ACAD_REACTORS
330
E4D4
102
}
330
E4D4
100
AcDbVisualStyle
  2

 70
     1
177
     3
291
     1
 70
    58
 90
        2
176
     1
 90
        1
176
     1
 90
        1
176
     1
 90
        2
176
     1
 40
0.6
176
     1
 40
30.0
176
     1
 62
     7
176
     1
 90
        1
176
     1
 90
        4
176
     1
 62
     7
176
     1
 62
   257
176
     1
 90
        1
176
     1
 90
        1
176
     1
 40
1.0
176
     1
 90
        0
176
     1
 62
   257
176
     1
 40
1.0
176
     1
 90
        1
176
     1
 90
        6
176
     1
 90
        2
176
     1
 62
     7
176
     1
 90
        5
176
     1
 90
        0
176
     1
 90
        0
176
     1
290
     0
176
     1
 90
       13
176
     1
 40
0.0
176
     1
 90
        0
176
     1
290
     0
176
     1
290
     1
176
     1
290
     1
176
     1
290
     0
176
     1
290
     0
176
     1
290
     0
176
     1
290
     0
176
     1
290
     0
176
     1
290
     0
176
     1
 90
       50
176
     1
 40
0.0
176
     1
 40
1.0
176
     1
 90
        0
176
     1
 62
    18
176
     1
 90
       50
176
     1
 90
        3
176
     1
 62
     5
420
      255
176
     1
290
     0
176
     1
 90
       50
176
     1
 90
       50
176
     1
 90
       50
176
     1
290
     0
176
     1
 90
       50
176
     1
 62
   256
176
     0
 40
1.0
176
     0
 90
        2
176
     1
  1
strokes_ogs.tif
176
     1
290
     0
176
     1
 40
1.0
176
     1
 40
1.0
176
     1
  0
VISUALSTYLE
  5
E4D7
102
{ACAD_REACTORS
330
E4D4
102
}
330
E4D4
100
AcDbVisualStyle
  2

 70
     2
177
     3
291
     1
 70
    58
 90
        2
176
     1
 90
        2
176
     1
 90
        1
176
     1
 90
        2
176
     1
 40
0.6
176
     1
 40
30.0
176
     1
 62
     7
176
     1
 90
        0
176
     1
 90
        4
176
     1
 62
     7
176
     1
 62
   257
176
     1
 90
        1
176
     1
 90
        1
176
     1
 40
1.0
176
     1
 90
        0
176
     1
 62
     7
176
     1
 40
1.0
176
     1
 90
        1
176
     1
 90
        6
176
     1
 90
        2
176
     1
 62
     7
176
     1
 90
        5
176
     1
 90
        0
176
     1
 90
        0
176
     1
290
     0
176
     1
 90
       13
176
     1
 40
0.0
176
     1
 90
        0
176
     1
290
     0
176
     1
290
     1
176
     1
290
     1
176
     1
290
     0
176
     1
290
     0
176
     1
290
     0
176
     1
290
     0
176
     1
290
     0
176
     1
290
     0
176
     1
 90
       50
176
     1
 40
0.0
176
     1
 40
1.0
176
     1
 90
        0
176
     1
 62
    18
176
     1
 90
       50
176
     1
 90
        3
176
     1
 62
     5
420
      255
176
     1
290
     0
176
     1
 90
       50
176
     1
 90
       50
176
     1
 90
       50
176
     1
290
     0
176
     1
 90
       50
176
     1
 62
   256
176
     0
 40
1.0
176
     0
 90
        2
176
     1
  1
strokes_ogs.tif
176
     1
290
     0
176
     1
 40
1.0
176
     1
 40
1.0
176
     1
  0
VISUALSTYLE
  5
E4D8
102
{ACAD_REACTORS
330
E4D4
102
}
330
E4D4
100
AcDbVisualStyle
  2

 70
     3
177
     3
291
     1
 70
    58
 90
        2
176
     1
 90
        2
176
     1
 90
        1
176
     1
 90
        2
176
     1
 40
0.6
176
     1
 40
30.0
176
     1
 62
     7
176
     1
 90
        1
176
     1
 90
        4
176
     1
 62
     7
176
     1
 62
   257
176
     1
 90
        1
176
     1
 90
        1
176
     1
 40
1.0
176
     1
 90
        0
176
     1
 62
   257
176
     1
 40
1.0
176
     1
 90
        1
176
     1
 90
        6
176
     1
 90
        2
176
     1
 62
     7
176
     1
 90
        5
176
     1
 90
        0
176
     1
 90
        0
176
     1
290
     0
176
     1
 90
       13
176
     1
 40
0.0
176
     1
 90
        0
176
     1
290
     0
176
     1
290
     1
176
     1
290
     1
176
     1
290
     0
176
     1
290
     0
176
     1
290
     0
176
     1
290
     0
176
     1
290
     0
176
     1
290
     0
176
     1
 90
       50
176
     1
 40
0.0
176
     1
 40
1.0
176
     1
 90
        0
176
     1
 62
    18
176
     1
 90
       50
176
     1
 90
        3
176
     1
 62
     5
420
      255
176
     1
290
     0
176
     1
 90
       50
176
     1
 90
       50
176
     1
 90
       50
176
     1
290
     0
176
     1
 90
       50
176
     1
 62
   256
176
     0
 40
1.0
176
     0
 90
        2
176
     1
  1
strokes_ogs.tif
176
     1
290
     0
176
     1
 40
1.0
176
     1
 40
1.0
176
     1
  0
VISUALSTYLE
  5
423D9
102
{ACAD_REACTORS
330
E4D4
102
}
330
E4D4
100
AcDbVisualStyle
  2
Hidden
 70
     6
177
     3
291
     0
 70
    58
 90
        1
176
     1
 90
        2
176
     1
 90
        2
176
     1
 90
        0
176
     1
 40
0.6
176
     1
 40
30.0
176
     1
 62
     7
420
 16777215
176
     1
 90
        2
176
     1
 90
        2
176
     1
 62
     7
176
     1
 62
   257
176
     1
 90
        2
176
     1
 90
        1
176
     1
 40
40.0
176
     1
 90
        0
176
     1
 62
   257
176
     1
 40
1.0
176
     1
 90
        1
176
     1
 90
        6
176
     1
 90
        2
176
     1
 62
     7
176
     1
 90
        3
176
     1
 90
        0
176
     1
 90
        0
176
     1
290
     0
176
     1
 90
        1
176
     1
 40
0.0
176
     1
 90
        0
176
     1
290
     0
176
     1
290
     1
176
     1
290
     1
176
     1
290
     0
176
     1
290
     0
176
     1
290
     0
176
     1
290
     0
176
     1
290
     0
176
     1
290
     0
176
     1
 90
       50
176
     1
 40
0.0
176
     1
 40
1.0
176
     1
 90
        0
176
     1
 62
    18
176
     1
 90
       50
176
     1
 90
        3
176
     1
 62
     5
420
      255
176
     1
290
     0
176
     1
 90
       50
176
     1
 90
       50
176
     1
 90
       50
176
     1
290
     0
176
     1
 90
       50
176
     1
 62
   256
176
     0
 40
1.0
176
     0
 90
        2
176
     1
  1
strokes_ogs.tif
176
     1
290
     0
176
     1
 40
1.0
176
     1
 40
1.0
176
     1
  0
VISUALSTYLE
  5
E4E5
102
{ACAD_REACTORS
330
E4D4
102
}
330
E4D4
100
AcDbVisualStyle
  2

 70
    20
177
     3
291
     1
 70
    58
 90
        2
176
     0
 90
        2
176
     0
 90
        0
176
     0
 90
        0
176
     0
 40
0.6
176
     0
 40
30.0
176
     0
 62
     7
176
     0
 90
        1
176
     0
 90
        4
176
     0
 62
     7
176
     0
 62
   257
176
     0
 90
        1
176
     0
 90
        1
176
     0
 40
1.0
176
     0
 90
       10
176
     2
 62
     7
176
     0
 40
1.0
176
     0
 90
        1
176
     0
 90
        6
176
     0
 90
        2
176
     0
 62
     7
176
     0
 90
        5
176
     0
 90
        0
176
     0
 90
        0
176
     0
290
     0
176
     0
 90
        1
176
     0
 40
0.0
176
     0
 90
        0
176
     0
290
     0
176
     1
290
     1
176
     1
290
     1
176
     1
290
     0
176
     1
290
     0
176
     1
290
     0
176
     1
290
     0
176
     1
290
     0
176
     1
290
     0
176
     1
 90
       50
176
     1
 40
0.0
176
     1
 40
1.0
176
     1
 90
        0
176
     1
 62
    18
176
     1
 90
       50
176
     1
 90
        3
176
     1
 62
     5
420
      255
176
     1
290
     0
176
     1
 90
       50
176
     1
 90
       50
176
     1
 90
       50
176
     1
290
     0
176
     1
 90
       50
176
     1
 62
   256
176
     0
 40
1.0
176
     0
 90
        2
176
     1
  1
strokes_ogs.tif
176
     1
290
     0
176
     1
 40
1.0
176
     1
 40
1.0
176
     1
  0
VISUALSTYLE
  5
E4E2
102
{ACAD_REACTORS
330
E4D4
102
}
330
E4D4
100
AcDbVisualStyle
  2

 70
    14
177
     3
291
     1
 70
    58
 90
        2
176
     1
 90
        2
176
     1
 90
        0
176
     1
 90
        0
176
     1
 40
0.6
176
     1
 40
30.0
176
     1
 62
     7
176
     1
 90
        1
176
     1
 90
        4
176
     1
 62
     7
176
     1
 62
   257
176
     1
 90
        7
176
     1
 90
        7
176
     1
 40
1.0
176
     1
 90
        8
176
     1
 62
     7
176
     1
 40
1.0
176
     1
 90
        1
176
     1
 90
        6
176
     1
 90
        2
176
     1
 62
     7
176
     1
 90
        5
176
     1
 90
        0
176
     1
 90
        0
176
     1
290
     0
176
     1
 90
        1
176
     1
 40
0.0
176
     1
 90
        0
176
     1
290
     0
176
     1
290
     1
176
     1
290
     1
176
     1
290
     0
176
     1
290
     0
176
     1
290
     0
176
     1
290
     0
176
     1
290
     0
176
     1
290
     0
176
     1
 90
       50
176
     1
 40
0.0
176
     1
 40
1.0
176
     1
 90
        0
176
     1
 62
    18
176
     1
 90
       50
176
     1
 90
        3
176
     1
 62
     5
420
      255
176
     1
290
     0
176
     1
 90
       50
176
     1
 90
       50
176
     1
 90
       50
176
     1
290
     0
176
     1
 90
       50
176
     1
 62
   256
176
     0
 40
1.0
176
     0
 90
        2
176
     1
  1
strokes_ogs.tif
176
     1
290
     0
176
     1
 40
1.0
176
     1
 40
1.0
176
     1
  0
VISUALSTYLE
  5
E4E6
102
{ACAD_REACTORS
330
E4D4
102
}
330
E4D4
100
AcDbVisualStyle
  2

 70
    21
177
     3
291
     1
 70
    58
 90
        2
176
     0
 90
        2
176
     0
 90
        0
176
     0
 90
        0
176
     0
 40
0.6
176
     0
 40
30.0
176
     0
 62
     7
176
     0
 90
        1
176
     0
 90
        4
176
     0
 62
     7
176
     0
 62
   257
176
     0
 90
        1
176
     0
 90
        1
176
     0
 40
1.0
176
     0
 90
        9
176
     2
 62
     7
176
     0
 40
1.0
176
     0
 90
        1
176
     0
 90
        6
176
     0
 90
        2
176
     0
 62
     7
176
     0
 90
        5
176
     0
 90
        0
176
     0
 90
        0
176
     0
290
     0
176
     0
 90
        1
176
     0
 40
0.0
176
     0
 90
        0
176
     0
290
     0
176
     1
290
     1
176
     1
290
     1
176
     1
290
     0
176
     1
290
     0
176
     1
290
     0
176
     1
290
     0
176
     1
290
     0
176
     1
290
     0
176
     1
 90
       50
176
     1
 40
0.0
176
     1
 40
1.0
176
     1
 90
        0
176
     1
 62
    18
176
     1
 90
       50
176
     1
 90
        3
176
     1
 62
     5
420
      255
176
     1
290
     0
176
     1
 90
       50
176
     1
 90
       50
176
     1
 90
       50
176
     1
290
     0
176
     1
 90
       50
176
     1
 62
   256
176
     0
 40
1.0
176
     0
 90
        2
176
     1
  1
strokes_ogs.tif
176
     1
290
     0
176
     1
 40
1.0
176
     1
 40
1.0
176
     1
  0
VISUALSTYLE
  5
E4DE
102
{ACAD_REACTORS
330
E4D4
102
}
330
E4D4
100
AcDbVisualStyle
  2

 70
     8
177
     3
291
     0
 70
    58
 90
        2
176
     1
 90
        2
176
     1
 90
        0
176
     1
 90
        0
176
     1
 40
0.6
176
     1
 40
30.0
176
     1
 62
     7
176
     1
 90
        1
176
     1
 90
        0
176
     1
 62
     7
176
     1
 62
   257
176
     1
 90
        1
176
     1
 90
        1
176
     1
 40
1.0
176
     1
 90
        8
176
     1
 62
     8
176
     1
 40
1.0
176
     1
 90
        1
176
     1
 90
        6
176
     1
 90
        2
176
     1
 62
     7
176
     1
 90
        5
176
     1
 90
        0
176
     1
 90
        0
176
     1
290
     0
176
     1
 90
       13
176
     1
 40
0.0
176
     1
 90
        0
176
     1
290
     0
176
     1
290
     1
176
     1
290
     1
176
     1
290
     0
176
     1
290
     0
176
     1
290
     0
176
     1
290
     0
176
     1
290
     0
176
     1
290
     0
176
     1
 90
       50
176
     1
 40
0.0
176
     1
 40
1.0
176
     1
 90
        0
176
     1
 62
    18
176
     1
 90
       50
176
     1
 90
        3
176
     1
 62
     5
420
      255
176
     1
290
     0
176
     1
 90
       50
176
     1
 90
       50
176
     1
 90
       50
176
     1
290
     0
176
     1
 90
       50
176
     1
 62
   256
176
     0
 40
1.0
176
     0
 90
        2
176
     1
  1
strokes_ogs.tif
176
     1
290
     0
176
     1
 40
1.0
176
     1
 40
1.0
176
     1
  0
VISUALSTYLE
  5
423DE
102
{ACAD_REACTORS
330
E4D4
102
}
330
E4D4
100
AcDbVisualStyle
  2
Shaded
 70
    27
177
     3
291
     0
 70
    58
 90
        2
176
     1
 90
        2
176
     1
 90
        1
176
     1
 90
        2
176
     1
 40
0.6
176
     1
 40
30.0
176
     1
 62
     7
420
 16777215
176
     1
 90
        0
176
     1
 90
        4
176
     1
 62
     7
176
     1
 62
   257
176
     1
 90
        1
176
     1
 90
        1
176
     1
 40
1.0
176
     1
 90
        8
176
     1
 62
   257
176
     1
 40
1.0
176
     1
 90
        1
176
     1
 90
        6
176
     1
 90
        2
176
     1
 62
     8
420
  7895160
176
     1
 90
        3
176
     1
 90
        0
176
     1
 90
        0
176
     1
290
     0
176
     1
 90
        5
176
     1
 40
0.0
176
     1
 90
        0
176
     1
290
     0
176
     1
290
     1
176
     1
290
     1
176
     1
290
     0
176
     1
290
     0
176
     1
290
     0
176
     1
290
     0
176
     1
290
     0
176
     1
290
     0
176
     1
 90
       50
176
     1
 40
0.0
176
     1
 40
1.0
176
     1
 90
        0
176
     1
 62
    18
176
     1
 90
       50
176
     1
 90
        3
176
     1
 62
     5
420
      255
176
     1
290
     0
176
     1
 90
       50
176
     1
 90
       50
176
     1
 90
       50
176
     1
290
     0
176
     1
 90
       50
176
     1
 62
   256
176
     0
 40
1.0
176
     0
 90
        2
176
     1
  1
strokes_ogs.tif
176
     1
290
     0
176
     1
 40
1.0
176
     1
 40
1.0
176
     1
  0
VISUALSTYLE
  5
423DD
102
{ACAD_REACTORS
330
E4D4
102
}
330
E4D4
100
AcDbVisualStyle
  2
Shaded with edges
 70
    26
177
     3
291
     0
 70
    58
 90
        2
176
     1
 90
        2
176
     1
 90
        1
176
     1
 90
        2
176
     1
 40
0.6
176
     1
 40
30.0
176
     1
 62
     7
420
 16777215
176
     1
 90
        1
176
     1
 90
       10
176
     1
 62
     7
176
     1
 62
   257
176
     1
 90
        2
176
     1
 90
        1
176
     1
 40
1.0
176
     1
 90
        8
176
     1
 62
   257
176
     1
 40
1.0
176
     1
 90
        1
176
     1
 90
        6
176
     1
 90
        2
176
     1
 62
     7
176
     1
 90
        3
176
     1
 90
        0
176
     1
 90
        0
176
     1
290
     0
176
     1
 90
        5
176
     1
 40
0.0
176
     1
 90
        0
176
     1
290
     0
176
     1
290
     1
176
     1
290
     1
176
     1
290
     0
176
     1
290
     0
176
     1
290
     0
176
     1
290
     0
176
     1
290
     0
176
     1
290
     0
176
     1
 90
       50
176
     1
 40
0.0
176
     1
 40
1.0
176
     1
 90
        0
176
     1
 62
    18
176
     1
 90
       50
176
     1
 90
        3
176
     1
 62
     5
420
      255
176
     1
290
     0
176
     1
 90
       50
176
     1
 90
       50
176
     1
 90
       50
176
     1
290
     0
176
     1
 90
       50
176
     1
 62
   256
176
     0
 40
1.0
176
     0
 90
        2
176
     1
  1
strokes_ogs.tif
176
     1
290
     0
176
     1
 40
1.0
176
     1
 40
1.0
176
     1
  0
VISUALSTYLE
  5
423DA
102
{ACAD_REACTORS
330
E4D4
102
}
330
E4D4
100
AcDbVisualStyle
  2
Shades of Gray
 70
    23
177
     3
291
     0
 70
    58
 90
        2
176
     1
 90
        2
176
     1
 90
        3
176
     1
 90
        0
176
     1
 40
0.6
176
     1
 40
30.0
176
     1
 62
     7
420
 16777215
176
     1
 90
        2
176
     1
 90
        2
176
     1
 62
     7
176
     1
 62
     7
176
     1
 90
        1
176
     1
 90
        1
176
     1
 40
40.0
176
     1
 90
        8
176
     1
 62
     7
176
     1
 40
1.0
176
     1
 90
        1
176
     1
 90
        6
176
     1
 90
        2
176
     1
 62
     7
176
     1
 90
        3
176
     1
 90
        0
176
     1
 90
        0
176
     1
290
     0
176
     1
 90
        1
176
     1
 40
0.0
176
     1
 90
        0
176
     1
290
     0
176
     1
290
     1
176
     1
290
     1
176
     1
290
     0
176
     1
290
     0
176
     1
290
     0
176
     1
290
     0
176
     1
290
     0
176
     1
290
     0
176
     1
 90
       50
176
     1
 40
0.0
176
     1
 40
1.0
176
     1
 90
        0
176
     1
 62
    18
176
     1
 90
       50
176
     1
 90
        3
176
     1
 62
     5
420
      255
176
     1
290
     0
176
     1
 90
       50
176
     1
 90
       50
176
     1
 90
       50
176
     1
290
     0
176
     1
 90
       50
176
     1
 62
   256
176
     0
 40
1.0
176
     0
 90
        2
176
     1
  1
strokes_ogs.tif
176
     1
290
     0
176
     1
 40
1.0
176
     1
 40
1.0
176
     1
  0
VISUALSTYLE
  5
423DB
102
{ACAD_REACTORS
330
E4D4
102
}
330
E4D4
100
AcDbVisualStyle
  2
Sketchy
 70
    24
177
     3
291
     0
 70
    58
 90
        1
176
     1
 90
        2
176
     1
 90
        2
176
     1
 90
        0
176
     1
 40
0.6
176
     1
 40
30.0
176
     1
 62
     7
420
 16777215
176
     1
 90
        2
176
     1
 90
        2
176
     1
 62
     7
176
     1
 62
     7
176
     1
 90
        1
176
     1
 90
        1
176
     1
 40
40.0
176
     1
 90
       11
176
     1
 62
     7
176
     1
 40
1.0
176
     1
 90
        1
176
     1
 90
        6
176
     1
 90
        2
176
     1
 62
     7
176
     1
 90
        6
176
     1
 90
        0
176
     1
 90
        0
176
     1
290
     0
176
     1
 90
        1
176
     1
 40
0.0
176
     1
 90
        0
176
     1
290
     0
176
     1
290
     1
176
     1
290
     1
176
     1
290
     0
176
     1
290
     0
176
     1
290
     0
176
     1
290
     0
176
     1
290
     0
176
     1
290
     0
176
     1
 90
       50
176
     1
 40
0.0
176
     1
 40
1.0
176
     1
 90
        0
176
     1
 62
    18
176
     1
 90
       50
176
     1
 90
        3
176
     1
 62
     5
420
      255
176
     1
290
     0
176
     1
 90
       50
176
     1
 90
       50
176
     1
 90
       50
176
     1
290
     0
176
     1
 90
       50
176
     1
 62
   256
176
     0
 40
1.0
176
     0
 90
        2
176
     1
  1
strokes_ogs.tif
176
     1
290
     0
176
     1
 40
1.0
176
     1
 40
1.0
176
     1
  0
VISUALSTYLE
  5
E4E1
102
{ACAD_REACTORS
330
E4D4
102
}
330
E4D4
100
AcDbVisualStyle
  2

 70
    13
177
     3
291
     1
 70
    58
 90
        2
176
     1
 90
        2
176
     1
 90
        0
176
     1
 90
        0
176
     1
 40
0.6
176
     1
 40
30.0
176
     1
 62
     7
176
     1
 90
        1
176
     1
 90
        4
176
     1
 62
     7
176
     1
 62
   257
176
     1
 90
        1
176
     1
 90
        1
176
     1
 40
1.0
176
     1
 90
       12
176
     1
 62
     7
176
     1
 40
1.0
176
     1
 90
        1
176
     1
 90
        6
176
     1
 90
        2
176
     1
 62
     7
176
     1
 90
        5
176
     1
 90
        0
176
     1
 90
        0
176
     1
290
     0
176
     1
 90
        1
176
     1
 40
0.0
176
     1
 90
        0
176
     1
290
     0
176
     1
290
     1
176
     1
290
     1
176
     1
290
     0
176
     1
290
     0
176
     1
290
     0
176
     1
290
     0
176
     1
290
     0
176
     1
290
     0
176
     1
 90
       50
176
     1
 40
0.0
176
     1
 40
1.0
176
     1
 90
        0
176
     1
 62
    18
176
     1
 90
       50
176
     1
 90
        3
176
     1
 62
     5
420
      255
176
     1
290
     0
176
     1
 90
       50
176
     1
 90
       50
176
     1
 90
       50
176
     1
290
     0
176
     1
 90
       50
176
     1
 62
   256
176
     0
 40
1.0
176
     0
 90
        2
176
     1
  1
strokes_ogs.tif
176
     1
290
     0
176
     1
 40
1.0
176
     1
 40
1.0
176
     1
  0
VISUALSTYLE
  5
423D8
102
{ACAD_REACTORS
330
E4D4
102
}
330
E4D4
100
AcDbVisualStyle
  2
Wireframe
 70
     5
177
     3
291
     0
 70
    58
 90
        0
176
     1
 90
        2
176
     1
 90
        0
176
     1
 90
        0
176
     1
 40
0.6
176
     1
 40
30.0
176
     1
 62
     7
420
 16777215
176
     1
 90
        1
176
     1
 90
        4
176
     1
 62
     7
176
     1
 62
   257
176
     1
 90
        1
176
     1
 90
        1
176
     1
 40
1.0
176
     1
 90
        0
176
     1
 62
   257
176
     1
 40
1.0
176
     1
 90
        1
176
     1
 90
        6
176
     1
 90
        2
176
     1
 62
     7
176
     1
 90
        3
176
     1
 90
        0
176
     1
 90
        0
176
     1
290
     0
176
     1
 90
        1
176
     1
 40
0.0
176
     1
 90
        0
176
     1
290
     0
176
     1
290
     1
176
     1
290
     1
176
     1
290
     0
176
     1
290
     0
176
     1
290
     0
176
     1
290
     0
176
     1
290
     0
176
     1
290
     0
176
     1
 90
       50
176
     1
 40
0.0
176
     1
 40
1.0
176
     1
 90
        0
176
     1
 62
    18
176
     1
 90
       50
176
     1
 90
        3
176
     1
 62
     5
420
      255
176
     1
290
     0
176
     1
 90
       50
176
     1
 90
       50
176
     1
 90
       50
176
     1
290
     0
176
     1
 90
       50
176
     1
 62
   256
176
     0
 40
1.0
176
     0
 90
        2
176
     1
  1
strokes_ogs.tif
176
     1
290
     0
176
     1
 40
1.0
176
     1
 40
1.0
176
     1
  0
VISUALSTYLE
  5
423DC
102
{ACAD_REACTORS
330
E4D4
102
}
330
E4D4
100
AcDbVisualStyle
  2
X-Ray
 70
    25
177
     3
291
     0
 70
    58
 90
        2
176
     1
 90
        2
176
     1
 90
        1
176
     1
 90
        1
176
     1
 40
0.5
176
     1
 40
30.0
176
     1
 62
     7
420
 16777215
176
     1
 90
        1
176
     1
 90
        0
176
     1
 62
     7
176
     1
 62
   257
176
     1
 90
        1
176
     1
 90
        1
176
     1
 40
1.0
176
     1
 90
        8
176
     1
 62
     7
176
     1
 40
1.0
176
     1
 90
        1
176
     1
 90
        6
176
     1
 90
        2
176
     1
 62
     7
176
     1
 90
        3
176
     1
 90
        0
176
     1
 90
        0
176
     1
290
     0
176
     1
 90
       13
176
     1
 40
0.0
176
     1
 90
        0
176
     1
290
     0
176
     1
290
     1
176
     1
290
     1
176
     1
290
     0
176
     1
290
     0
176
     1
290
     0
176
     1
290
     0
176
     1
290
     0
176
     1
290
     0
176
     1
 90
       50
176
     1
 40
0.0
176
     1
 40
1.0
176
     1
 90
        0
176
     1
 62
    18
176
     1
 90
       50
176
     1
 90
        3
176
     1
 62
     5
420
      255
176
     1
290
     0
176
     1
 90
       50
176
     1
 90
       50
176
     1
 90
       50
176
     1
290
     0
176
     1
 90
       50
176
     1
 62
   256
176
     0
 40
1.0
176
     0
 90
        2
176
     1
  1
strokes_ogs.tif
176
     1
290
     0
176
     1
 40
1.0
176
     1
 40
1.0
176
     1
  0
DICTIONARYVAR
  5
F8C1
102
{ACAD_REACTORS
330
5697
102
}
330
5697
100
DictionaryVariables
280
     0
  1
1:1
  0
DICTIONARYVAR
  5
F8C0
102
{ACAD_REACTORS
330
5697
102
}
330
5697
100
DictionaryVariables
280
     0
  1
STANDARD
  0
DICTIONARYVAR
  5
F8BF
102
{ACAD_REACTORS
330
5697
102
}
330
5697
100
DictionaryVariables
280
     0
  1
STANDARD
  0
DICTIONARYVAR
  5
4242F
102
{ACAD_REACTORS
330
5697
102
}
330
5697
100
DictionaryVariables
280
     0
  1
Imperial24
  0
DICTIONARYVAR
  5
42430
102
{ACAD_REACTORS
330
5697
102
}
330
5697
100
DictionaryVariables
280
     0
  1
Imperial24
  0
DICTIONARYVAR
  5
5698
102
{ACAD_REACTORS
330
5697
102
}
330
5697
100
DictionaryVariables
280
     0
  1
1
  0
DICTIONARYVAR
  5
F8C3
102
{ACAD_REACTORS
330
5697
102
}
330
5697
100
DictionaryVariables
280
     0
  1
0
  0
DICTIONARYVAR
  5
37FF5
102
{ACAD_REACTORS
330
5697
102
}
330
5697
100
DictionaryVariables
280
     0
  1
1
  0
DICTIONARYVAR
  5
37FF6
102
{ACAD_REACTORS
330
5697
102
}
330
5697
100
DictionaryVariables
280
     0
  1
15
  0
DICTIONARYVAR
  5
37FF4
102
{ACAD_REACTORS
330
5697
102
}
330
5697
100
DictionaryVariables
280
     0
  1
0
  0
DICTIONARYVAR
  5
37FF3
102
{ACAD_REACTORS
330
5697
102
}
330
5697
100
DictionaryVariables
280
     0
  1
0
  0
DICTIONARYVAR
  5
F8C2
102
{ACAD_REACTORS
330
5697
102
}
330
5697
100
DictionaryVariables
280
     0
  1
127
  0
XRECORD
  5
F8F7
102
{ACAD_REACTORS
330
F8F6
102
}
330
F8F6
100
AcDbXrecord
280
     1
330
0
330
0
330
0
330
0
330
0
330
0
330
0
330
0
330
0
330
0
330
0
330
0
330
0
330
0
330
0
330
0
330
0
330
0
330
0
330
0
330
0
330
0
330
0
330
0
330
0
330
0
330
0
330
0
330
0
330
0
330
0
330
0
330
0
330
0
330
0
330
0
330
0
330
0
330
0
330
0
330
0
330
0
330
0
330
0
330
0
330
0
330
0
330
0
330
0
330
0
330
0
330
0
330
0
330
0
330
0
330
0
330
0
330
0
330
0
330
0
330
0
330
0
330
0
330
0
330
0
330
0
330
0
330
0
330
0
330
0
330
0
330
0
330
0
330
0
330
0
330
0
330
0
330
0
330
0
330
0
330
0
330
0
330
0
330
0
330
0
330
0
330
0
330
0
330
0
330
0
330
0
330
0
330
0
330
0
330
0
330
0
330
0
330
0
330
0
330
0
330
0
330
0
330
0
330
0
330
0
330
0
330
0
330
0
330
0
330
0
330
0
330
0
330
0
330
0
330
0
330
0
330
0
330
0
330
0
330
0
330
0
330
0
330
0
330
0
330
0
330
0
330
0
330
0
330
0
330
0
330
0
330
0
330
0
330
0
330
0
330
0
330
0
330
0
330
0
330
0
330
0
330
0
330
0
330
0
330
0
330
0
330
0
330
0
330
0
330
0
330
0
330
0
330
0
330
0
330
0
330
0
330
0
330
0
330
0
330
0
330
0
330
0
330
0
330
0
330
0
330
0
330
0
330
0
330
0
330
0
330
0
330
0
330
0
330
0
330
0
330
0
330
0
330
0
330
0
330
0
330
0
330
0
330
0
330
0
330
0
330
0
330
0
330
0
330
0
330
0
330
0
330
0
330
0
330
0
330
0
330
0
330
0
330
0
330
0
330
0
330
0
330
0
330
0
330
0
330
0
330
0
330
0
330
0
330
0
330
0
330
0
330
0
330
0
330
0
330
0
330
0
330
0
330
0
330
0
330
0
330
0
330
0
330
0
330
0
330
0
330
0
330
0
330
0
330
0
330
0
330
0
330
0
330
0
330
0
330
0
330
0
330
0
330
0
330
0
330
0
330
0
330
0
330
0
330
0
330
0
330
0
330
0
330
0
330
0
330
0
330
0
330
0
330
0
330
0
330
0
330
0
330
0
330
0
330
0
330
0
330
0
330
0
330
0
330
0
330
0
330
0
330
0
330
0
330
0
330
0
330
0
330
0
330
0
330
0
330
0
330
0
330
0
330
0
330
0
330
0
330
0
330
0
330
0
330
0
330
0
330
0
330
0
330
0
330
0
330
0
330
0
330
0
330
0
330
0
330
0
330
0
330
0
330
0
330
0
330
0
330
0
330
0
330
0
330
0
330
0
330
0
330
0
  0
DICTIONARY
  5
42434
330
423E2
100
AcDbDictionary
280
     1
281
     1
  3
ACAD_XREC_ROUNDTRIP
360
42569
  0
DICTIONARY
  5
13816
330
904E
100
AcDbDictionary
280
     1
281
     1
  0
DICTIONARY
  5
E4C5
330
E4C4
100
AcDbDictionary
280
     1
281
     1
  3
ACAD_XREC_ROUNDTRIP
360
12A19
  3
BUMPTILE
360
E4C7
  3
DIFFUSETILE
360
E4C6
  3
OPACITYTILE
360
E4CA
  3
REFLECTIONTILE
360
E4C9
  3
REFRACTIONTILE
360
E4CB
  3
SPECULARTILE
360
E4C8
  0
DICTIONARY
  5
E4BD
330
E4BC
100
AcDbDictionary
280
     1
281
     1
  3
ACAD_XREC_ROUNDTRIP
360
12A18
  3
BUMPTILE
360
E4BF
  3
DIFFUSETILE
360
E4BE
  3
OPACITYTILE
360
E4C2
  3
REFLECTIONTILE
360
E4C1
  3
REFRACTIONTILE
360
E4C3
  3
SPECULARTILE
360
E4C0
  0
DICTIONARY
  5
E4CD
330
E4CC
100
AcDbDictionary
280
     1
281
     1
  3
ACAD_XREC_ROUNDTRIP
360
12A1A
  3
BUMPTILE
360
E4CF
  3
DIFFUSETILE
360
E4CE
  3
OPACITYTILE
360
E4D2
  3
REFLECTIONTILE
360
E4D1
  3
REFRACTIONTILE
360
E4D3
  3
SPECULARTILE
360
E4D0
  0
DICTIONARY
  5
42432
330
423E0
100
AcDbDictionary
280
     1
281
     1
  3
ACAD_XREC_ROUNDTRIP
360
42568
  0
DICTIONARY
  5
F86C
330
E4EA
100
AcDbDictionary
280
     1
281
     1
  3
ACAD_ROUNDTRIP_2008_TABLESTYLE_CELLSTYLEMAP
360
42567
  0
XRECORD
  5
42569
102
{ACAD_REACTORS
330
42434
102
}
330
42434
100
AcDbXrecord
280
     1
102
DISPLAYNAME
  1
Imperial24
102
FLAGS
 90
        0
  0
XRECORD
  5
12A19
102
{ACAD_REACTORS
330
E4C5
102
}
330
E4C5
100
AcDbXrecord
280
     1
102
MATERIAL
148
0.0
149
0.0
149
0.0
 93
        0
 94
      127
282
     0
 72
     0
 77
     0
171
     0
175
     0
179
     0
273
     0
  0
XRECORD
  5
E4C7
102
{ACAD_REACTORS
330
E4C5
102
}
330
E4C5
100
AcDbXrecord
280
     1
270
     1
271
     1
  0
XRECORD
  5
E4C6
102
{ACAD_REACTORS
330
E4C5
102
}
330
E4C5
100
AcDbXrecord
280
     1
270
     1
271
     1
  0
XRECORD
  5
E4CA
102
{ACAD_REACTORS
330
E4C5
102
}
330
E4C5
100
AcDbXrecord
280
     1
270
     1
271
     1
  0
XRECORD
  5
E4C9
102
{ACAD_REACTORS
330
E4C5
102
}
330
E4C5
100
AcDbXrecord
280
     1
270
     1
271
     1
  0
XRECORD
  5
E4CB
102
{ACAD_REACTORS
330
E4C5
102
}
330
E4C5
100
AcDbXrecord
280
     1
270
     1
271
     1
  0
XRECORD
  5
E4C8
102
{ACAD_REACTORS
330
E4C5
102
}
330
E4C5
100
AcDbXrecord
280
     1
270
     1
271
     1
  0
XRECORD
  5
12A18
102
{ACAD_REACTORS
330
E4BD
102
}
330
E4BD
100
AcDbXrecord
280
     1
102
MATERIAL
148
0.0
149
0.0
149
0.0
 93
        0
 94
      127
282
     0
 72
     0
 77
     0
171
     0
175
     0
179
     0
273
     0
  0
XRECORD
  5
E4BF
102
{ACAD_REACTORS
330
E4BD
102
}
330
E4BD
100
AcDbXrecord
280
     1
270
     1
271
     1
  0
XRECORD
  5
E4BE
102
{ACAD_REACTORS
330
E4BD
102
}
330
E4BD
100
AcDbXrecord
280
     1
270
     1
271
     1
  0
XRECORD
  5
E4C2
102
{ACAD_REACTORS
330
E4BD
102
}
330
E4BD
100
AcDbXrecord
280
     1
270
     1
271
     1
  0
XRECORD
  5
E4C1
102
{ACAD_REACTORS
330
E4BD
102
}
330
E4BD
100
AcDbXrecord
280
     1
270
     1
271
     1
  0
XRECORD
  5
E4C3
102
{ACAD_REACTORS
330
E4BD
102
}
330
E4BD
100
AcDbXrecord
280
     1
270
     1
271
     1
  0
XRECORD
  5
E4C0
102
{ACAD_REACTORS
330
E4BD
102
}
330
E4BD
100
AcDbXrecord
280
     1
270
     1
271
     1
  0
XRECORD
  5
12A1A
102
{ACAD_REACTORS
330
E4CD
102
}
330
E4CD
100
AcDbXrecord
280
     1
102
MATERIAL
148
0.0
149
0.0
149
0.0
 93
        0
 94
      127
282
     0
 72
     0
 77
     0
171
     0
175
     0
179
     0
273
     0
  0
XRECORD
  5
E4CF
102
{ACAD_REACTORS
330
E4CD
102
}
330
E4CD
100
AcDbXrecord
280
     1
270
     1
271
     1
  0
XRECORD
  5
E4CE
102
{ACAD_REACTORS
330
E4CD
102
}
330
E4CD
100
AcDbXrecord
280
     1
270
     1
271
     1
  0
XRECORD
  5
E4D2
102
{ACAD_REACTORS
330
E4CD
102
}
330
E4CD
100
AcDbXrecord
280
     1
270
     1
271
     1
  0
XRECORD
  5
E4D1
102
{ACAD_REACTORS
330
E4CD
102
}
330
E4CD
100
AcDbXrecord
280
     1
270
     1
271
     1
  0
XRECORD
  5
E4D3
102
{ACAD_REACTORS
330
E4CD
102
}
330
E4CD
100
AcDbXrecord
280
     1
270
     1
271
     1
  0
XRECORD
  5
E4D0
102
{ACAD_REACTORS
330
E4CD
102
}
330
E4CD
100
AcDbXrecord
280
     1
270
     1
271
     1
  0
XRECORD
  5
42568
102
{ACAD_REACTORS
330
42432
102
}
330
42432
100
AcDbXrecord
280
     1
102
DISPLAYNAME
  1
Imperial24
102
FLAGS
 90
        0
  0
CELLSTYLEMAP
  5
42567
102
{ACAD_REACTORS
330
F86C
102
}
330
F86C
100
AcDbCellStyleMap
 90
        3
300
CELLSTYLE
  1
TABLEFORMAT_BEGIN
 90
        5
170
     1
 91
        0
 92
    32768
 62
   257
 93
        1
300
CONTENTFORMAT
  1
CONTENTFORMAT_BEGIN
 90
        0
 91
        0
 92
      512
 93
        0
300

 40
0.0
140
1.0
 94
        5
 62
     0
340
11
144
0.25
309
CONTENTFORMAT_END
171
     1
301
MARGIN
  1
CELLMARGIN_BEGIN
 40
0.06
 40
0.06
 40
0.06
 40
0.06
 40
0.18
 40
0.18
309
CELLMARGIN_END
 94
        6
 95
        1
302
GRIDFORMAT
  1
GRIDFORMAT_BEGIN
 90
        0
 91
        1
 62
     0
 92
       -2
340
0
 93
        0
 40
0.045
309
GRIDFORMAT_END
 95
        2
302
GRIDFORMAT
  1
GRIDFORMAT_BEGIN
 90
        0
 91
        1
 62
     0
 92
       -2
340
0
 93
        0
 40
0.045
309
GRIDFORMAT_END
 95
        4
302
GRIDFORMAT
  1
GRIDFORMAT_BEGIN
 90
        0
 91
        1
 62
     0
 92
       -2
340
0
 93
        0
 40
0.045
309
GRIDFORMAT_END
 95
        8
302
GRIDFORMAT
  1
GRIDFORMAT_BEGIN
 90
        0
 91
        1
 62
     0
 92
       -2
340
0
 93
        0
 40
0.045
309
GRIDFORMAT_END
 95
       16
302
GRIDFORMAT
  1
GRIDFORMAT_BEGIN
 90
        0
 91
        1
 62
     0
 92
       -2
340
0
 93
        0
 40
0.045
309
GRIDFORMAT_END
 95
       32
302
GRIDFORMAT
  1
GRIDFORMAT_BEGIN
 90
        0
 91
        1
 62
     0
 92
       -2
340
0
 93
        0
 40
0.045
309
GRIDFORMAT_END
309
TABLEFORMAT_END
  1
CELLSTYLE_BEGIN
 90
        1
 91
        1
300
_TITLE
309
CELLSTYLE_END
300
CELLSTYLE
  1
TABLEFORMAT_BEGIN
 90
        5
170
     1
 91
        0
 92
        0
 62
   257
 93
        1
300
CONTENTFORMAT
  1
CONTENTFORMAT_BEGIN
 90
        0
 91
        0
 92
      512
 93
        0
300

 40
0.0
140
1.0
 94
        5
 62
     0
340
11
144
0.18
309
CONTENTFORMAT_END
171
     1
301
MARGIN
  1
CELLMARGIN_BEGIN
 40
0.06
 40
0.06
 40
0.06
 40
0.06
 40
0.18
 40
0.18
309
CELLMARGIN_END
 94
        6
 95
        1
302
GRIDFORMAT
  1
GRIDFORMAT_BEGIN
 90
        0
 91
        1
 62
     0
 92
       -2
340
0
 93
        0
 40
0.045
309
GRIDFORMAT_END
 95
        2
302
GRIDFORMAT
  1
GRIDFORMAT_BEGIN
 90
        0
 91
        1
 62
     0
 92
       -2
340
0
 93
        0
 40
0.045
309
GRIDFORMAT_END
 95
        4
302
GRIDFORMAT
  1
GRIDFORMAT_BEGIN
 90
        0
 91
        1
 62
     0
 92
       -2
340
0
 93
        0
 40
0.045
309
GRIDFORMAT_END
 95
        8
302
GRIDFORMAT
  1
GRIDFORMAT_BEGIN
 90
        0
 91
        1
 62
     0
 92
       -2
340
0
 93
        0
 40
0.045
309
GRIDFORMAT_END
 95
       16
302
GRIDFORMAT
  1
GRIDFORMAT_BEGIN
 90
        0
 91
        1
 62
     0
 92
       -2
340
0
 93
        0
 40
0.045
309
GRIDFORMAT_END
 95
       32
302
GRIDFORMAT
  1
GRIDFORMAT_BEGIN
 90
        0
 91
        1
 62
     0
 92
       -2
340
0
 93
        0
 40
0.045
309
GRIDFORMAT_END
309
TABLEFORMAT_END
  1
CELLSTYLE_BEGIN
 90
        2
 91
        1
300
_HEADER
309
CELLSTYLE_END
300
CELLSTYLE
  1
TABLEFORMAT_BEGIN
 90
        5
170
     1
 91
        0
 92
        0
 62
   257
 93
        1
300
CONTENTFORMAT
  1
CONTENTFORMAT_BEGIN
 90
        0
 91
        0
 92
      512
 93
        0
300

 40
0.0
140
1.0
 94
        2
 62
     0
340
11
144
0.18
309
CONTENTFORMAT_END
171
     1
301
MARGIN
  1
CELLMARGIN_BEGIN
 40
0.06
 40
0.06
 40
0.06
 40
0.06
 40
0.18
 40
0.18
309
CELLMARGIN_END
 94
        6
 95
        1
302
GRIDFORMAT
  1
GRIDFORMAT_BEGIN
 90
        0
 91
        1
 62
     0
 92
       -2
340
0
 93
        0
 40
0.045
309
GRIDFORMAT_END
 95
        2
302
GRIDFORMAT
  1
GRIDFORMAT_BEGIN
 90
        0
 91
        1
 62
     0
 92
       -2
340
0
 93
        0
 40
0.045
309
GRIDFORMAT_END
 95
        4
302
GRIDFORMAT
  1
GRIDFORMAT_BEGIN
 90
        0
 91
        1
 62
     0
 92
       -2
340
0
 93
        0
 40
0.045
309
GRIDFORMAT_END
 95
        8
302
GRIDFORMAT
  1
GRIDFORMAT_BEGIN
 90
        0
 91
        1
 62
     0
 92
       -2
340
0
 93
        0
 40
0.045
309
GRIDFORMAT_END
 95
       16
302
GRIDFORMAT
  1
GRIDFORMAT_BEGIN
 90
        0
 91
        1
 62
     0
 92
       -2
340
0
 93
        0
 40
0.045
309
GRIDFORMAT_END
 95
       32
302
GRIDFORMAT
  1
GRIDFORMAT_BEGIN
 90
        0
 91
        1
 62
     0
 92
       -2
340
0
 93
        0
 40
0.045
309
GRIDFORMAT_END
309
TABLEFORMAT_END
  1
CELLSTYLE_BEGIN
 90
        3
 91
        2
300
_DATA
309
CELLSTYLE_END
  0
ENDSEC
  0
SECTION
  2
ACDSDATA
 70
     2
 71
     6
  0
ACDSSCHEMA
 90
        0
  1
AcDb_Thumbnail_Schema
  2
AcDbDs::ID
280
    10
 91
        8
  2
Thumbnail_Data
280
    15
 91
        0
101
ACDSRECORD
 95
        0
 90
        1
  2
AcDbDs::TreatedAsObjectData
280
     1
291
     1
101
ACDSRECORD
 95
        0
 90
        2
  2
AcDbDs::Legacy
280
     1
291
     1
101
ACDSRECORD
  1
AcDbDs::ID
 90
        3
  2
AcDs:Indexable
280
     1
291
     1
101
ACDSRECORD
  1
AcDbDs::ID
 90
        4
  2
AcDbDs::HandleAttribute
280
     7
282
     1
  0
ACDSSCHEMA
 90
        1
  1
AcDbDs::TreatedAsObjectDataSchema
  2
AcDbDs::TreatedAsObjectData
280
     1
 91
        0
  0
ACDSSCHEMA
 90
        2
  1
AcDbDs::LegacySchema
  2
AcDbDs::Legacy
280
     1
 91
        0
  0
ACDSSCHEMA
 90
        3
  1
AcDbDs::IndexedPropertySchema
  2
AcDs:Indexable
280
     1
 91
        0
  0
ACDSSCHEMA
 90
        4
  1
AcDbDs::HandleAttributeSchema
  2
AcDbDs::HandleAttribute
280
     7
 91
        1
284
     1
  0
ACDSRECORD
 90
        0
  2
AcDbDs::ID
280
    10
320
904E
  2
Thumbnail_Data
280
    15
 94
     1605
310
89504E470D0A1A0A0000000D4948445200000100000000990803000000F7B2146B00000300504C5445000000000000FFFFFF0000000000000000000000000000000000000000000000000000330000660000990000CC0000FF0033000033330033660033990033CC0033FF0066000066330066660066990066CC0066FF0099
310
000099330099660099990099CC0099FF00CC0000CC3300CC6600CC9900CCCC00CCFF00FF0000FF3300FF6600FF9900FFCC00FFFF3300003300333300663300993300CC3300FF3333003333333333663333993333CC3333FF3366003366333366663366993366CC3366FF3399003399333399663399993399CC3399FF33CC00
310
33CC3333CC6633CC9933CCCC33CCFF33FF0033FF3333FF6633FF9933FFCC33FFFF6600006600336600666600996600CC6600FF6633006633336633666633996633CC6633FF6666006666336666666666996666CC6666FF6699006699336699666699996699CC6699FF66CC0066CC3366CC6666CC9966CCCC66CCFF66FF0066
310
FF3366FF6666FF9966FFCC66FFFF9900009900339900669900999900CC9900FF9933009933339933669933999933CC9933FF9966009966339966669966999966CC9966FF9999009999339999669999999999CC9999FF99CC0099CC3399CC6699CC9999CCCC99CCFF99FF0099FF3399FF6699FF9999FFCC99FFFFCC0000CC00
310
33CC0066CC0099CC00CCCC00FFCC3300CC3333CC3366CC3399CC33CCCC33FFCC6600CC6633CC6666CC6699CC66CCCC66FFCC9900CC9933CC9966CC9999CC99CCCC99FFCCCC00CCCC33CCCC66CCCC99CCCCCCCCCCFFCCFF00CCFF33CCFF66CCFF99CCFFCCCCFFFFFF0000FF0033FF0066FF0099FF00CCFF00FFFF3300FF3333
310
FF3366FF3399FF33CCFF33FFFF6600FF6633FF6666FF6699FF66CCFF66FFFF9900FF9933FF9966FF9999FF99CCFF99FFFFCC00FFCC33FFCC66FFCC99FFCCCCFFCCFFFFFF00FFFF33FFFF66FFFF99FFFFCCFFFFFF0000000D0D0D1A1A1A2828283535354343435050505D5D5D6B6B6B787878868686939393A1A1A1AEAEAEBB
310
BBBBC9C9C9D6D6D6E4E4E4F1F1F1FFFFFF000000000000000000000000000000000000000000000000000000000000C11FEF66000003004944415478DAEDDD3172C3201005D0DC40D7A0E1FE9D1BAE41B527D8267D04028404629C7152C0FF6B85602585795E211072F225E0F1450002108000042000010840000210800004
310
2000017E11F67F6222807F794104200001084000021080000420C0B200DFF7000590B2E1022C9601AAA9D058C33B047E09B05A061CCD97548C0816CD80D862976BDEC19D060920628C33A6D4980104C002703E34DBA7B6A303F858430238FABFD0EC58F382069032407206C48D00A8001E11606FB63FDA0E0B2009404001A4
310
000820405CD6DF0B972BA90002F0613B1EB9C00248A70269F71180000420C0D200DB1ED66E4DC47D1019F0B737FDCD0850CD883E6F0D3360D6E970A6F8F405CD0DE03E7FF9B367003680382100368010E08D188F0F010E81E5009E8741AAEDDD32618A0035146E0024CC9342F812F107896A52808761F010C0864554EFCD51
310
E8E4009DEB010380503125FCF1ED20C00190FA100837D4A88001B44DC50178982BC300C86219604C1FC0187400940C68C701CF87802D7DC08A9D60DDF6BA6B385B686DCE001480EB5C600830EF40C83917BE4269ADCBCFE2EE0B8053778B4500CE0C70E30CD0D407AC96012300E901ACD809BE7516A83360A9D3E0BBE30045
310
1F0976018E5E227600CBCF055A00CD1F31C302387B8AD0EEF251332080EA8288EE8F58AAA20184726FB7D17845C80B0C403959C6CB810160856B826F5D15BE02F82AA6BF2A2C6D06481F40EF2B4331F3CBD960ED95A108607535007DCE006D9FEE4DDDDA39D04935378074DEF23B40F985CB10A8EC45003842E256DEFA9901
310
06D13B22FA7F5A606280F743E5AA72A94300A4D4AF53E49E2CBC47684280F30E7177BB631C0360DB5E39DCAB8A7E47B82280BCBA03A17DEF96A7FBA8000A0FF078DAC70088A37E0210607D00DF07F00202E0FB00DE7B6C009C0C180C8408003117180200CC05DC28449519C04E9003210E849801907D801280000420000100
310
00D01746E097C6EA2CBF2E7E0B015000FA2BFEE81920A019A08019F097410002CC0380FE8F97D70802108000042000010840000210800004200062FC00EC4EEC3172E945F50000000049454E44AE426082
  0
ENDSEC
  0
EOF
